  0
SECTION
  2
HEADER
  9
$ACADVER
  1
AC1014
  9
$ACADMAINTVER
 70
     9
  9
$DWGCODEPAGE
  3
ANSI_1252
  9
$INSBASE
 10
0.0
 20
0.0
 30
0.0
  9
$EXTMIN
 10
-20.58749296934297
 20
-35.31732058802595
 30
-0.0000000000000058
  9
$EXTMAX
 10
39.25878747313481
 20
27.41755518935451
 30
0.0000000000000104
  9
$LIMMIN
 10
0.0
 20
0.0
  9
$LIMMAX
 10
297.0
 20
210.0
  9
$ORTHOMODE
 70
     0
  9
$REGENMODE
 70
     1
  9
$FILLMODE
 70
     1
  9
$QTEXTMODE
 70
     0
  9
$MIRRTEXT
 70
     1
  9
$DRAGMODE
 70
     2
  9
$LTSCALE
 40
25.0
  9
$OSMODE
 70
   167
  9
$ATTMODE
 70
     1
  9
$TEXTSIZE
 40
0.2
  9
$TRACEWID
 40
0.05
  9
$TEXTSTYLE
  7
STANDARD
  9
$CLAYER
  8
0
  9
$CELTYPE
  6
BYLAYER
  9
$CECOLOR
 62
   256
  9
$CELTSCALE
 40
1.0
  9
$DELOBJ
 70
     1
  9
$DISPSILH
 70
     0
  9
$DIMSCALE
 40
1.0
  9
$DIMASZ
 40
3.5
  9
$DIMEXO
 40
0.625
  9
$DIMDLI
 40
3.75
  9
$DIMRND
 40
0.0
  9
$DIMDLE
 40
0.0
  9
$DIMEXE
 40
1.25
  9
$DIMTP
 40
0.0
  9
$DIMTM
 40
0.0
  9
$DIMTXT
 40
3.5
  9
$DIMCEN
 40
2.5
  9
$DIMTSZ
 40
0.0
  9
$DIMTOL
 70
     0
  9
$DIMLIM
 70
     0
  9
$DIMTIH
 70
     0
  9
$DIMTOH
 70
     0
  9
$DIMSE1
 70
     0
  9
$DIMSE2
 70
     0
  9
$DIMTAD
 70
     1
  9
$DIMZIN
 70
     8
  9
$DIMBLK
  1

  9
$DIMASO
 70
     1
  9
$DIMSHO
 70
     1
  9
$DIMPOST
  1

  9
$DIMAPOST
  1

  9
$DIMALT
 70
     0
  9
$DIMALTD
 70
     3
  9
$DIMALTF
 40
0.03937007874016
  9
$DIMLFAC
 40
1.0
  9
$DIMTOFL
 70
     1
  9
$DIMTVP
 40
0.0
  9
$DIMTIX
 70
     0
  9
$DIMSOXD
 70
     0
  9
$DIMSAH
 70
     0
  9
$DIMBLK1
  1

  9
$DIMBLK2
  1

  9
$DIMSTYLE
  2
ISO-25
  9
$DIMCLRD
 70
   256
  9
$DIMCLRE
 70
   256
  9
$DIMCLRT
 70
   256
  9
$DIMTFAC
 40
1.0
  9
$DIMGAP
 40
0.625
  9
$DIMJUST
 70
     0
  9
$DIMSD1
 70
     0
  9
$DIMSD2
 70
     0
  9
$DIMTOLJ
 70
     0
  9
$DIMTZIN
 70
     8
  9
$DIMALTZ
 70
     0
  9
$DIMALTTZ
 70
     0
  9
$DIMFIT
 70
     3
  9
$DIMUPT
 70
     0
  9
$DIMUNIT
 70
     2
  9
$DIMDEC
 70
     2
  9
$DIMTDEC
 70
     2
  9
$DIMALTU
 70
     2
  9
$DIMALTTD
 70
     3
  9
$DIMTXSTY
  7
STANDARD
  9
$DIMAUNIT
 70
     0
  9
$LUNITS
 70
     2
  9
$LUPREC
 70
     4
  9
$SKETCHINC
 40
0.1
  9
$FILLETRAD
 40
0.0
  9
$AUNITS
 70
     0
  9
$AUPREC
 70
     0
  9
$MENU
  1
.
  9
$ELEVATION
 40
0.0
  9
$PELEVATION
 40
0.0
  9
$THICKNESS
 40
0.0
  9
$LIMCHECK
 70
     0
  9
$BLIPMODE
 70
     0
  9
$CHAMFERA
 40
0.0
  9
$CHAMFERB
 40
0.0
  9
$CHAMFERC
 40
0.0
  9
$CHAMFERD
 40
0.0
  9
$SKPOLY
 70
     0
  9
$TDCREATE
 40
2454167.426010960
  9
$TDUPDATE
 40
2454187.549966273
  9
$TDINDWG
 40
0.2167096991
  9
$TDUSRTIMER
 40
0.2167095255
  9
$USRTIMER
 70
     1
  9
$ANGBASE
 50
0.0
  9
$ANGDIR
 70
     0
  9
$PDMODE
 70
     3
  9
$PDSIZE
 40
0.3125
  9
$PLINEWID
 40
0.0
  9
$COORDS
 70
     0
  9
$SPLFRAME
 70
     0
  9
$SPLINETYPE
 70
     6
  9
$SPLINESEGS
 70
     8
  9
$ATTDIA
 70
     0
  9
$ATTREQ
 70
     1
  9
$HANDLING
 70
-16383
  9
$HANDSEED
  5
1D36
  9
$SURFTAB1
 70
     6
  9
$SURFTAB2
 70
     6
  9
$SURFTYPE
 70
     6
  9
$SURFU
 70
     6
  9
$SURFV
 70
     6
  9
$UCSNAME
  2

  9
$UCSORG
 10
0.0
 20
0.0
 30
0.0
  9
$UCSXDIR
 10
1.0
 20
0.0
 30
0.0
  9
$UCSYDIR
 10
0.0
 20
1.0
 30
0.0
  9
$PUCSNAME
  2

  9
$PUCSORG
 10
0.0
 20
0.0
 30
0.0
  9
$PUCSXDIR
 10
1.0
 20
0.0
 30
0.0
  9
$PUCSYDIR
 10
0.0
 20
1.0
 30
0.0
  9
$USERI1
 70
     0
  9
$USERI2
 70
     0
  9
$USERI3
 70
     0
  9
$USERI4
 70
     0
  9
$USERI5
 70
     0
  9
$USERR1
 40
0.0
  9
$USERR2
 40
0.0
  9
$USERR3
 40
0.0
  9
$USERR4
 40
0.0
  9
$USERR5
 40
0.0
  9
$WORLDVIEW
 70
     1
  9
$SHADEDGE
 70
     3
  9
$SHADEDIF
 70
    70
  9
$TILEMODE
 70
     1
  9
$MAXACTVP
 70
    64
  9
$PINSBASE
 10
0.0
 20
0.0
 30
0.0
  9
$PLIMCHECK
 70
     0
  9
$PEXTMIN
 10
1.000000000000000E+20
 20
1.000000000000000E+20
 30
1.000000000000000E+20
  9
$PEXTMAX
 10
-1.000000000000000E+20
 20
-1.000000000000000E+20
 30
-1.000000000000000E+20
  9
$PLIMMIN
 10
0.0
 20
0.0
  9
$PLIMMAX
 10
12.0
 20
9.0
  9
$UNITMODE
 70
     0
  9
$VISRETAIN
 70
     1
  9
$PLINEGEN
 70
     0
  9
$PSLTSCALE
 70
     1
  9
$TREEDEPTH
 70
  3020
  9
$PICKSTYLE
 70
     1
  9
$CMLSTYLE
  2
STANDARD
  9
$CMLJUST
 70
     0
  9
$CMLSCALE
 40
1.0
  9
$PROXYGRAPHICS
 70
     1
  9
$MEASUREMENT
 70
     1
  0
ENDSEC
  0
SECTION
  2
CLASSES
  0
CLASS
  1
ACDBDICTIONARYWDFLT
  2
AcDbDictionaryWithDefault
  3
AutoCAD 2000
 90
        0
280
     0
281
     0
  0
CLASS
  1
ACDBPLACEHOLDER
  2
AcDbPlaceHolder
  3
AutoCAD 2000
 90
        0
280
     0
281
     0
  0
CLASS
  1
LAYOUT
  2
AcDbLayout
  3
AutoCAD 2000
 90
        0
280
     0
281
     0
  0
CLASS
  1
LONG_TRANSACTION
  2
AcDbLongTransaction
  3
AutoCAD 2000
 90
        0
280
     0
281
     0
  0
CLASS
  1
LWPOLYLINE
  2
AcDbPolyline
  3
AutoCAD 2000
 90
        0
280
     0
281
     1
  0
CLASS
  1
HATCH
  2
AcDbHatch
  3
AutoCAD 2000
 90
        0
280
     0
281
     1
  0
CLASS
  1
XRECORD
  2
AcDbXrecord
  3
AutoCAD 2000
 90
        0
280
     0
281
     0
  0
CLASS
  1
LONG_TRANSACTION
  2
AcDbLongTransaction
  3
AutoCAD 2000
 90
        0
280
     0
281
     0
  0
CLASS
  1
LWPOLYLINE
  2
AcDbPolyline
  3
AutoCAD 2000
 90
        0
280
     0
281
     1
  0
CLASS
  1
HATCH
  2
AcDbHatch
  3
AutoCAD 2000
 90
        0
280
     0
281
     1
  0
CLASS
  1
XRECORD
  2
AcDbXrecord
  3
AutoCAD 2000
 90
        0
280
     0
281
     0
  0
CLASS
  1
DICTIONARYVAR
  2
AcDbDictionaryVar
  3
AutoCAD 2000
 90
        0
280
     0
281
     0
  0
CLASS
  1
LONG_TRANSACTION
  2
AcDbLongTransaction
  3
AutoCAD 2000
 90
        0
280
     0
281
     0
  0
CLASS
  1
LWPOLYLINE
  2
AcDbPolyline
  3
AutoCAD 2000
 90
        0
280
     0
281
     1
  0
CLASS
  1
HATCH
  2
AcDbHatch
  3
AutoCAD 2000
 90
        0
280
     0
281
     1
  0
CLASS
  1
XRECORD
  2
AcDbXrecord
  3
AutoCAD 2000
 90
        0
280
     0
281
     0
  0
CLASS
  1
LONG_TRANSACTION
  2
AcDbLongTransaction
  3
AutoCAD 2000
 90
        0
280
     0
281
     0
  0
CLASS
  1
LWPOLYLINE
  2
AcDbPolyline
  3
AutoCAD 2000
 90
        0
280
     0
281
     1
  0
CLASS
  1
HATCH
  2
AcDbHatch
  3
AutoCAD 2000
 90
        0
280
     0
281
     1
  0
CLASS
  1
XRECORD
  2
AcDbXrecord
  3
AutoCAD 2000
 90
        0
280
     0
281
     0
  0
CLASS
  1
LONG_TRANSACTION
  2
AcDbLongTransaction
  3
AutoCAD 2000
 90
        0
280
     0
281
     0
  0
CLASS
  1
LWPOLYLINE
  2
AcDbPolyline
  3
AutoCAD 2000
 90
        0
280
     0
281
     1
  0
CLASS
  1
HATCH
  2
AcDbHatch
  3
AutoCAD 2000
 90
        0
280
     0
281
     1
  0
CLASS
  1
XRECORD
  2
AcDbXrecord
  3
AutoCAD 2000
 90
        0
280
     0
281
     0
  0
CLASS
  1
LONG_TRANSACTION
  2
AcDbLongTransaction
  3
AutoCAD 2000
 90
        0
280
     0
281
     0
  0
CLASS
  1
LWPOLYLINE
  2
AcDbPolyline
  3
AutoCAD 2000
 90
        0
280
     0
281
     1
  0
CLASS
  1
HATCH
  2
AcDbHatch
  3
AutoCAD 2000
 90
        0
280
     0
281
     1
  0
CLASS
  1
XRECORD
  2
AcDbXrecord
  3
AutoCAD 2000
 90
        0
280
     0
281
     0
  0
ENDSEC
  0
SECTION
  2
TABLES
  0
TABLE
  2
VPORT
  5
8
330
0
100
AcDbSymbolTable
 70
     2
  0
VPORT
  5
1D08
330
8
100
AcDbSymbolTableRecord
100
AcDbViewportTableRecord
  2
*ACTIVE
 70
     0
 10
0.0
 20
0.0
 11
1.0
 21
1.0
 12
9.335647251895922
 22
-3.949882699335717
 13
0.0
 23
0.0
 14
1.0
 24
1.0
 15
0.0
 25
0.0
 16
0.0
 26
0.0
 36
1.0
 17
0.0
 27
0.0
 37
0.0
 40
63.10792756594764
 41
1.297619047619047
 42
50.0
 43
0.0
 44
0.0
 50
0.0
 51
0.0
 71
     0
 72
 20000
 73
     1
 74
     1
 75
     0
 76
     0
 77
     0
 78
     0
  0
ENDTAB
  0
TABLE
  2
LTYPE
  5
5
330
0
100
AcDbSymbolTable
 70
     2
  0
LTYPE
  5
14
330
5
100
AcDbSymbolTableRecord
100
AcDbLinetypeTableRecord
  2
BYBLOCK
 70
     0
  3

 72
    65
 73
     0
 40
0.0
  0
LTYPE
  5
15
330
5
100
AcDbSymbolTableRecord
100
AcDbLinetypeTableRecord
  2
BYLAYER
 70
     0
  3

 72
    65
 73
     0
 40
0.0
  0
LTYPE
  5
16
330
5
100
AcDbSymbolTableRecord
100
AcDbLinetypeTableRecord
  2
CONTINUOUS
 70
     0
  3
Solid line
 72
    65
 73
     0
 40
0.0
  0
LTYPE
  5
1F5
330
5
100
AcDbSymbolTableRecord
100
AcDbLinetypeTableRecord
  2
CENTER
 70
     0
  3
____ _ ____ _ ____ _ ____ _ ____ _ ____ _ ____
 72
    65
 73
     4
 40
0.6
 49
0.375
 74
     0
 49
-0.075
 74
     0
 49
0.075
 74
     0
 49
-0.075
 74
     0
  0
ENDTAB
  0
TABLE
  2
LAYER
  5
2
330
0
100
AcDbSymbolTable
 70
    11
  0
LAYER
  5
10
330
2
100
AcDbSymbolTableRecord
100
AcDbLayerTableRecord
  2
0
 70
     0
 62
     7
  6
CONTINUOUS
  0
LAYER
  5
5AD
330
2
100
AcDbSymbolTableRecord
100
AcDbLayerTableRecord
  2
1
 70
     0
 62
     4
  6
CONTINUOUS
  0
LAYER
  5
5AE
330
2
100
AcDbSymbolTableRecord
100
AcDbLayerTableRecord
  2
2
 70
     0
 62
     7
  6
CONTINUOUS
  0
LAYER
  5
5AF
330
2
100
AcDbSymbolTableRecord
100
AcDbLayerTableRecord
  2
DEFPOINTS
 70
     0
 62
     7
  6
CONTINUOUS
  0
LAYER
  5
5B0
330
2
100
AcDbSymbolTableRecord
100
AcDbLayerTableRecord
  2
4
 70
     0
 62
     2
  6
CENTER
  0
LAYER
  5
5B1
330
2
100
AcDbSymbolTableRecord
100
AcDbLayerTableRecord
  2
6
 70
     0
 62
     5
  6
CONTINUOUS
  0
LAYER
  5
5B2
330
2
100
AcDbSymbolTableRecord
100
AcDbLayerTableRecord
  2
CUT
 70
     0
 62
     1
  6
CONTINUOUS
  0
LAYER
  5
5B3
330
2
100
AcDbSymbolTableRecord
100
AcDbLayerTableRecord
  2
NOCUT
 70
     0
 62
     7
  6
CONTINUOUS
  0
LAYER
  5
5B4
330
2
100
AcDbSymbolTableRecord
100
AcDbLayerTableRecord
  2
SK1
 70
     0
 62
     4
  6
CONTINUOUS
  0
LAYER
  5
5B5
330
2
100
AcDbSymbolTableRecord
100
AcDbLayerTableRecord
  2
SK4
 70
     0
 62
     2
  6
CENTER
  0
LAYER
  5
1CC7
330
2
100
AcDbSymbolTableRecord
100
AcDbLayerTableRecord
  2
SK2
 70
     0
 62
     7
  6
CONTINUOUS
  0
ENDTAB
  0
TABLE
  2
STYLE
  5
3
330
0
100
AcDbSymbolTable
 70
     1
  0
STYLE
  5
11
330
3
100
AcDbSymbolTableRecord
100
AcDbTextStyleTableRecord
  2
STANDARD
 70
     0
 40
0.0
 41
0.8
 50
0.0
 71
     0
 42
0.2
  3
isocp.shx
  4

  0
ENDTAB
  0
TABLE
  2
VIEW
  5
6
330
0
100
AcDbSymbolTable
 70
     0
  0
ENDTAB
  0
TABLE
  2
UCS
  5
7
330
0
100
AcDbSymbolTable
 70
     0
  0
ENDTAB
  0
TABLE
  2
APPID
  5
9
330
0
100
AcDbSymbolTable
 70
     1
  0
APPID
  5
20C
330
9
100
AcDbSymbolTableRecord
100
AcDbRegAppTableRecord
  2
ACAD
 70
     0
  0
ENDTAB
  0
TABLE
  2
DIMSTYLE
  5
A
330
0
100
AcDbSymbolTable
 70
     2
  0
DIMSTYLE
105
20D
330
A
100
AcDbSymbolTableRecord
100
AcDbDimStyleTableRecord
  2
STANDARD
 70
     0
  3

  4

  5

  6

  7

 40
1.0
 41
2.5
 42
0.0625
 43
0.38
 44
0.18
 45
0.0
 46
0.0
 47
0.005
 48
0.005
140
3.5
141
0.09
142
0.0
143
25.4
144
1.0
145
0.0
146
1.0
147
0.09
 71
     1
 72
     0
 73
     0
 74
     0
 75
     0
 76
     0
 77
     1
 78
     8
170
     0
171
     2
172
     0
173
     0
174
     0
175
     0
176
     0
177
     0
178
     5
270
     2
271
     3
272
     3
273
     2
274
     2
340
11
275
     0
280
     0
281
     0
282
     0
283
     1
284
     8
285
     0
286
     0
287
     3
288
     0
  0
DIMSTYLE
105
5B6
102
{ACAD_REACTORS
330
D2D
330
D2E
330
D2F
330
D30
330
D31
330
1CCD
102
}
330
A
100
AcDbSymbolTableRecord
100
AcDbDimStyleTableRecord
  2
ISO-25
 70
     0
  3

  4

  5

  6

  7

 40
1.0
 41
3.5
 42
0.625
 43
3.75
 44
1.25
 45
0.0
 46
0.0
 47
0.0
 48
0.0
140
3.5
141
2.5
142
0.0
143
0.03937007874016
144
1.0
145
0.0
146
1.0
147
0.625
 71
     0
 72
     0
 73
     0
 74
     0
 75
     0
 76
     0
 77
     1
 78
     8
170
     0
171
     3
172
     1
173
     0
174
     0
175
     0
176
   256
177
   256
178
   256
270
     2
271
     2
272
     2
273
     2
274
     3
340
11
275
     0
280
     0
281
     0
282
     0
283
     0
284
     8
285
     0
286
     0
287
     3
288
     0
  0
ENDTAB
  0
TABLE
  2
BLOCK_RECORD
  5
1
330
0
100
AcDbSymbolTable
 70
     9
  0
BLOCK_RECORD
  5
1F
102
{ACAD_XDICTIONARY
360
AF0
102
}
330
1
100
AcDbSymbolTableRecord
100
AcDbBlockTableRecord
  2
*MODEL_SPACE
  0
BLOCK_RECORD
  5
1B
102
{ACAD_XDICTIONARY
360
AEE
102
}
330
1
100
AcDbSymbolTableRecord
100
AcDbBlockTableRecord
  2
*PAPER_SPACE
  0
BLOCK_RECORD
  5
EB0
330
1
100
AcDbSymbolTableRecord
100
AcDbBlockTableRecord
  2
*D0
  0
BLOCK_RECORD
  5
EBE
330
1
100
AcDbSymbolTableRecord
100
AcDbBlockTableRecord
  2
*D1
  0
BLOCK_RECORD
  5
ECC
330
1
100
AcDbSymbolTableRecord
100
AcDbBlockTableRecord
  2
*D2
  0
BLOCK_RECORD
  5
EDA
330
1
100
AcDbSymbolTableRecord
100
AcDbBlockTableRecord
  2
*D3
  0
BLOCK_RECORD
  5
EE8
330
1
100
AcDbSymbolTableRecord
100
AcDbBlockTableRecord
  2
*D4
  0
BLOCK_RECORD
  5
1CB5
330
1
100
AcDbSymbolTableRecord
100
AcDbBlockTableRecord
  2
_ARROW_FILLED
  0
BLOCK_RECORD
  5
1CB9
330
1
100
AcDbSymbolTableRecord
100
AcDbBlockTableRecord
  2
*D6
  0
BLOCK_RECORD
  5
1CCE
330
1
100
AcDbSymbolTableRecord
100
AcDbBlockTableRecord
  2
*D8
  0
ENDTAB
  0
ENDSEC
  0
SECTION
  2
BLOCKS
  0
BLOCK
  5
20
330
1F
100
AcDbEntity
  8
0
100
AcDbBlockBegin
  2
*MODEL_SPACE
 70
     0
 10
0.0
 20
0.0
 30
0.0
  3
*MODEL_SPACE
  1

  0
ENDBLK
  5
21
330
1F
100
AcDbEntity
  8
0
100
AcDbBlockEnd
  0
BLOCK
  5
1C
330
1B
100
AcDbEntity
 67
     1
  8
0
100
AcDbBlockBegin
  2
*PAPER_SPACE
 70
     0
 10
0.0
 20
0.0
 30
0.0
  3
*PAPER_SPACE
  1

  0
ENDBLK
  5
1D
330
1B
100
AcDbEntity
 67
     1
  8
0
100
AcDbBlockEnd
  0
BLOCK
  5
EBC
330
EB0
100
AcDbEntity
  8
0
100
AcDbBlockBegin
  2
*D0
 70
     1
 10
0.0
 20
0.0
 30
0.0
  3
*D0
  1

  0
LINE
  5
1A94
330
EB0
100
AcDbEntity
  8
2
100
AcDbLine
 10
10.64789156626472
 20
-6.000002241979687
 30
0.0
 11
25.43510940385711
 21
-6.00000224197969
 31
0.0
  0
LINE
  5
1A95
330
EB0
100
AcDbEntity
  8
2
100
AcDbLine
 10
10.64789156626472
 20
5.999999999999957
 30
0.0
 11
25.43510940385711
 21
5.999999999999953
 31
0.0
  0
LINE
  5
1A96
330
EB0
100
AcDbEntity
  8
2
100
AcDbLine
 10
24.18510940385711
 20
-2.500002241979689
 30
0.0
 11
24.18510940385711
 21
2.499999999999954
 31
0.0
  0
SOLID
  5
1A97
330
EB0
100
AcDbEntity
  8
2
100
AcDbTrace
 10
23.60177607052377
 20
-2.500002241979689
 30
0.0
 11
24.76844273719044
 21
-2.500002241979689
 31
0.0
 12
24.18510940385711
 22
-6.00000224197969
 32
0.0
 13
24.18510940385711
 23
-6.00000224197969
 33
0.0
  0
SOLID
  5
1A98
330
EB0
100
AcDbEntity
  8
2
100
AcDbTrace
 10
23.60177607052377
 20
2.499999999999954
 30
0.0
 11
24.76844273719044
 21
2.499999999999954
 31
0.0
 12
24.18510940385711
 22
5.999999999999953
 32
0.0
 13
24.18510940385711
 23
5.999999999999953
 33
0.0
  0
MTEXT
  5
1A99
330
EB0
100
AcDbEntity
  8
2
100
AcDbMText
 10
21.80976491566812
 20
-0.1120493137609483
 30
0.0
 40
3.5
 41
0.0
 71
     5
 72
     1
  1
12
 11
0.0000000000000001
 21
1.0
 31
0.0
1001
ACAD
1000
MTEXTBEGIN
1070
    73
1070
     1
1070
    44
1040
1.0
1070
    74
1070
     0
1000
MTEXTEND
1000
MTEXTBEGIN
1070
    73
1070
     1
1070
    44
1040
1.0
1070
    74
1070
     0
1000
MTEXTEND
  0
POINT
  5
1A9A
330
EB0
100
AcDbEntity
  8
DEFPOINTS
 62
     0
100
AcDbPoint
 10
10.02289156626472
 20
-6.000002241979687
 30
0.0
  0
POINT
  5
1A9B
330
EB0
100
AcDbEntity
  8
DEFPOINTS
 62
     0
100
AcDbPoint
 10
10.02289156626472
 20
5.999999999999957
 30
0.0
  0
POINT
  5
1A9C
330
EB0
100
AcDbEntity
  8
DEFPOINTS
 62
     0
100
AcDbPoint
 10
24.18510940385711
 20
5.999999999999953
 30
0.0
  0
ENDBLK
  5
EBD
330
EB0
100
AcDbEntity
  8
0
100
AcDbBlockEnd
  0
BLOCK
  5
ECA
330
EBE
100
AcDbEntity
  8
0
100
AcDbBlockBegin
  2
*D1
 70
     1
 10
0.0
 20
0.0
 30
0.0
  3
*D1
  1

  0
LINE
  5
1D2B
330
EBE
100
AcDbEntity
  8
2
100
AcDbLine
 10
13.37571652892298
 20
2.647175037352063
 30
0.0
 11
-7.936376911595004
 21
23.95926847837012
 31
0.0
  0
LINE
  5
1D2C
330
EBE
100
AcDbEntity
  8
2
100
AcDbLine
 10
12.59988636466429
 20
-3.423007443580102
 30
0.0
 11
-7.936376911876138
 21
-23.95927072012046
 31
0.0
  0
ARC
  5
1D2D
330
EBE
100
AcDbEntity
  8
2
100
AcDbCircle
 10
16.02289268722866
 20
-0.0000011210157349
 30
0.0
 40
32.63352401160735
100
AcDbArc
 50
141.1480172046186
 51
218.8519827947091
  0
SOLID
  5
1D2E
330
EBE
100
AcDbEntity
  8
2
100
AcDbTrace
 10
-9.825093868468574
 20
20.8611211027929
 30
0.0
 11
-8.957083931828121
 21
20.08158928111751
 31
0.0
 12
-7.052493435122189
 22
23.07538500187657
 32
0.0
 13
-7.052493435122189
 23
23.07538500187657
 33
0.0
  0
SOLID
  5
1D2F
330
EBE
100
AcDbEntity
  8
2
100
AcDbTrace
 10
-8.957083932063756
 20
-20.08159152285587
 30
0.0
 11
-9.825093868713357
 21
-20.86112334452107
 31
0.0
 12
-7.052493435392952
 22
-23.07538724363728
 32
0.0
 13
-7.052493435392952
 23
-23.07538724363728
 33
0.0
  0
MTEXT
  5
1D30
330
EBE
100
AcDbEntity
  8
2
100
AcDbMText
 10
-18.98563132437868
 20
-0.0000011208761118
 30
0.0
 40
3.5
 41
0.0
 71
     5
 72
     1
  1
90°
 11
0.0000000000000001
 21
1.0
 31
0.0
  0
POINT
  5
1D31
330
EBE
100
AcDbEntity
  8
DEFPOINTS
 62
     0
100
AcDbPoint
 10
-15.49867095834124
 20
8.446176402245221
 30
0.0
  0
POINT
  5
1D32
330
EBE
100
AcDbEntity
  8
DEFPOINTS
 62
     0
100
AcDbPoint
 10
13.04182810290589
 20
-2.981065705338511
 30
0.0
  0
POINT
  5
1D33
330
EBE
100
AcDbEntity
  8
DEFPOINTS
 62
     0
100
AcDbPoint
 10
13.81765826715939
 20
2.205233299105286
 30
0.0
  0
POINT
  5
1D34
330
EBE
100
AcDbEntity
  8
DEFPOINTS
 62
     0
100
AcDbPoint
 10
15.26523221173083
 20
0.7576593544998797
 30
0.0
  0
POINT
  5
1D35
330
EBE
100
AcDbEntity
  8
DEFPOINTS
 62
     0
100
AcDbPoint
 10
15.26523221171224
 20
-0.7576615965321613
 30
0.0
  0
ENDBLK
  5
ECB
330
EBE
100
AcDbEntity
  8
0
100
AcDbBlockEnd
  0
BLOCK
  5
ED8
330
ECC
100
AcDbEntity
  8
0
100
AcDbBlockBegin
  2
*D2
 70
     1
 10
0.0
 20
0.0
 30
0.0
  3
*D2
  1

  0
LINE
  5
19D7
330
ECC
100
AcDbEntity
  8
2
100
AcDbLine
 10
15.49999999999841
 20
-0.6250022419798137
 30
0.0
 11
15.49999999999841
 21
-22.94801591022835
 31
0.0
  0
LINE
  5
19D8
330
ECC
100
AcDbEntity
  8
2
100
AcDbLine
 10
-0.0000043459160603
 20
-6.237998939758949
 30
0.0
 11
-0.0000043459160613
 21
-22.94801591022835
 31
0.0
  0
LINE
  5
19D9
330
ECC
100
AcDbEntity
  8
2
100
AcDbLine
 10
11.9999999999984
 20
-21.69801591022835
 30
0.0
 11
3.499995654083937
 21
-21.69801591022835
 31
0.0
  0
SOLID
  5
19DA
330
ECC
100
AcDbEntity
  8
2
100
AcDbTrace
 10
11.9999999999984
 20
-21.11468257689501
 30
0.0
 11
11.9999999999984
 21
-22.28134924356167
 31
0.0
 12
15.49999999999841
 22
-21.69801591022835
 32
0.0
 13
15.49999999999841
 23
-21.69801591022835
 33
0.0
  0
SOLID
  5
19DB
330
ECC
100
AcDbEntity
  8
2
100
AcDbTrace
 10
3.499995654083937
 20
-21.11468257689501
 30
0.0
 11
3.499995654083937
 21
-22.28134924356167
 31
0.0
 12
-0.0000043459160612
 22
-21.69801591022835
 32
0.0
 13
-0.0000043459160612
 23
-21.69801591022835
 33
0.0
  0
MTEXT
  5
19DC
330
ECC
100
AcDbEntity
  8
2
100
AcDbMText
 10
7.021684574029241
 20
-19.32301591022834
 30
0.0
 40
3.5
 41
0.0
 71
     5
 72
     1
  1
15.5
1001
ACAD
1000
MTEXTBEGIN
1070
    73
1070
     1
1070
    44
1040
1.0
1070
    74
1070
     0
1000
MTEXTEND
1000
MTEXTBEGIN
1070
    73
1070
     1
1070
    44
1040
1.0
1070
    74
1070
     0
1000
MTEXTEND
  0
POINT
  5
19DD
330
ECC
100
AcDbEntity
  8
DEFPOINTS
 62
     0
100
AcDbPoint
 10
15.49999999999841
 20
-0.0000022419798136
 30
0.0
  0
POINT
  5
19DE
330
ECC
100
AcDbEntity
  8
DEFPOINTS
 62
     0
100
AcDbPoint
 10
-0.0000043459160602
 20
-5.612998939758949
 30
0.0
  0
POINT
  5
19DF
330
ECC
100
AcDbEntity
  8
DEFPOINTS
 62
     0
100
AcDbPoint
 10
-0.0000043459160612
 20
-21.69801591022835
 30
0.0
  0
ENDBLK
  5
ED9
330
ECC
100
AcDbEntity
  8
0
100
AcDbBlockEnd
  0
BLOCK
  5
EE6
330
EDA
100
AcDbEntity
  8
0
100
AcDbBlockBegin
  2
*D3
 70
     1
 10
0.0
 20
0.0
 30
0.0
  3
*D3
  1

  0
LINE
  5
1A89
330
EDA
100
AcDbEntity
  8
2
100
AcDbLine
 10
10.02289156626472
 20
6.624999999999957
 30
0.0
 11
10.02289156626472
 21
18.04066354733653
 31
0.0
  0
LINE
  5
1A8A
330
EDA
100
AcDbEntity
  8
2
100
AcDbLine
 10
15.49999999999835
 20
0.6249977580201863
 30
0.0
 11
15.49999999999836
 21
18.04066354733653
 31
0.0
  0
LINE
  5
1A8B
330
EDA
100
AcDbEntity
  8
2
100
AcDbLine
 10
6.522891566264722
 20
16.79066354733655
 30
0.0
 11
3.022891566264723
 21
16.79066354733655
 31
0.0
  0
LINE
  5
1A8C
330
EDA
100
AcDbEntity
  8
2
100
AcDbLine
 10
18.99999999999836
 20
16.79066354733655
 30
0.0
 11
30.38798989873058
 21
16.79066354733655
 31
0.0
  0
LINE
  5
1A8D
330
EDA
100
AcDbEntity
  8
2
100
AcDbLine
 10
10.02289156626472
 20
16.79066354733655
 30
0.0
 11
15.49999999999836
 21
16.79066354733655
 31
0.0
  0
SOLID
  5
1A8E
330
EDA
100
AcDbEntity
  8
2
100
AcDbTrace
 10
6.522891566264722
 20
17.37399688066988
 30
0.0
 11
6.522891566264722
 21
16.20733021400321
 31
0.0
 12
10.02289156626472
 22
16.79066354733655
 32
0.0
 13
10.02289156626472
 23
16.79066354733655
 33
0.0
  0
SOLID
  5
1A8F
330
EDA
100
AcDbEntity
  8
2
100
AcDbTrace
 10
18.99999999999836
 20
17.37399688066988
 30
0.0
 11
18.99999999999836
 21
16.20733021400321
 31
0.0
 12
15.49999999999836
 22
16.79066354733655
 32
0.0
 13
15.49999999999836
 23
16.79066354733655
 33
0.0
  0
MTEXT
  5
1A90
330
EDA
100
AcDbEntity
  8
2
100
AcDbMText
 10
27.74499999999836
 20
19.16566354733655
 30
0.0
 40
3.5
 41
0.0
 71
     5
 72
     1
  1
5.5
1001
ACAD
1000
MTEXTBEGIN
1070
    73
1070
     1
1070
    44
1040
1.0
1070
    74
1070
     0
1000
MTEXTEND
1000
MTEXTBEGIN
1070
    73
1070
     1
1070
    44
1040
1.0
1070
    74
1070
     0
1000
MTEXTEND
  0
POINT
  5
1A91
330
EDA
100
AcDbEntity
  8
DEFPOINTS
 62
     0
100
AcDbPoint
 10
10.02289156626472
 20
5.999999999999957
 30
0.0
  0
POINT
  5
1A92
330
EDA
100
AcDbEntity
  8
DEFPOINTS
 62
     0
100
AcDbPoint
 10
15.49999999999835
 20
-0.0000022419798136
 30
0.0
  0
POINT
  5
1A93
330
EDA
100
AcDbEntity
  8
DEFPOINTS
 62
     0
100
AcDbPoint
 10
15.49999999999836
 20
16.79066354733655
 30
0.0
  0
ENDBLK
  5
EE7
330
EDA
100
AcDbEntity
  8
0
100
AcDbBlockEnd
  0
BLOCK
  5
EF4
330
EE8
100
AcDbEntity
  8
0
100
AcDbBlockBegin
  2
*D4
 70
     1
 10
0.0
 20
0.0
 30
0.0
  3
*D4
  1

  0
LINE
  5
1AF9
330
EE8
100
AcDbEntity
  8
2
100
AcDbLine
 10
3.497374506928536
 20
6.711834157989707
 30
0.0
 11
3.497374506928538
 21
24.53984833848432
 31
0.0
  0
LINE
  5
1AFA
330
EE8
100
AcDbEntity
  8
2
100
AcDbLine
 10
15.49999999999835
 20
0.6249977580201863
 30
0.0
 11
15.49999999999836
 21
24.53984833848432
 31
0.0
  0
LINE
  5
1AFB
330
EE8
100
AcDbEntity
  8
2
100
AcDbLine
 10
6.997374506928537
 20
23.2898483384843
 30
0.0
 11
11.99999999999836
 21
23.2898483384843
 31
0.0
  0
SOLID
  5
1AFC
330
EE8
100
AcDbEntity
  8
2
100
AcDbTrace
 10
6.997374506928537
 20
23.87318167181765
 30
0.0
 11
6.997374506928537
 21
22.70651500515098
 31
0.0
 12
3.497374506928538
 22
23.2898483384843
 32
0.0
 13
3.497374506928538
 23
23.2898483384843
 33
0.0
  0
SOLID
  5
1AFD
330
EE8
100
AcDbEntity
  8
2
100
AcDbTrace
 10
11.99999999999836
 20
23.87318167181765
 30
0.0
 11
11.99999999999836
 21
22.70651500515098
 31
0.0
 12
15.49999999999836
 22
23.2898483384843
 32
0.0
 13
15.49999999999836
 23
23.2898483384843
 33
0.0
  0
MTEXT
  5
1AFE
330
EE8
100
AcDbEntity
  8
2
100
AcDbMText
 10
9.337314229750688
 20
25.66519282667329
 30
0.0
 40
3.5
 41
0.0
 71
     5
 72
     1
  1
12
1001
ACAD
1000
MTEXTBEGIN
1070
    73
1070
     1
1070
    44
1040
1.0
1070
    74
1070
     0
1000
MTEXTEND
1000
MTEXTBEGIN
1070
    73
1070
     1
1070
    44
1040
1.0
1070
    74
1070
     0
1000
MTEXTEND
  0
POINT
  5
1AFF
330
EE8
100
AcDbEntity
  8
DEFPOINTS
 62
     0
100
AcDbPoint
 10
3.497374506928536
 20
6.086834157989707
 30
0.0
  0
POINT
  5
1B00
330
EE8
100
AcDbEntity
  8
DEFPOINTS
 62
     0
100
AcDbPoint
 10
15.49999999999835
 20
-0.0000022419798136
 30
0.0
  0
POINT
  5
1B01
330
EE8
100
AcDbEntity
  8
DEFPOINTS
 62
     0
100
AcDbPoint
 10
15.49999999999836
 20
23.2898483384843
 30
0.0
  0
ENDBLK
  5
EF5
330
EE8
100
AcDbEntity
  8
0
100
AcDbBlockEnd
  0
BLOCK
  5
1CB7
330
1CB5
100
AcDbEntity
  8
0
100
AcDbBlockBegin
  2
_ARROW_FILLED
 70
     0
 10
0.0
 20
0.0
 30
0.0
  3
_ARROW_FILLED
  1

  0
SOLID
  5
1CB6
330
1CB5
100
AcDbEntity
  8
0
  6
BYBLOCK
 62
     0
100
AcDbTrace
 10
0.0
 20
0.0
 30
0.0
 11
-1.0
 21
0.132
 31
0.0
 12
-1.0
 22
-0.132
 32
0.0
 13
-1.0
 23
-0.132
 33
0.0
  0
ENDBLK
  5
1CB8
330
1CB5
100
AcDbEntity
  8
0
  6
BYBLOCK
 62
     0
100
AcDbBlockEnd
  0
BLOCK
  5
1CC5
330
1CB9
100
AcDbEntity
  8
0
100
AcDbBlockBegin
  2
*D6
 70
     1
 10
0.0
 20
0.0
 30
0.0
  3
*D6
  1

  0
LINE
  5
1CBA
330
1CB9
100
AcDbEntity
  8
SK2
100
AcDbLine
 10
-6.601886324057418
 20
2.650000887499999
 30
0.0
 11
-14.3152289181549
 21
2.650000887500001
 31
0.0
  0
LINE
  5
1CBB
330
1CB9
100
AcDbEntity
  8
SK2
100
AcDbLine
 10
-7.218414779224081
 20
-2.650000481916658
 30
0.0
 11
-14.3152289181549
 21
-2.650000481916657
 31
0.0
  0
LINE
  5
1CBC
330
1CB9
100
AcDbEntity
  8
SK2
100
AcDbLine
 10
-13.0652289181549
 20
6.1500008875
 30
0.0
 11
-13.0652289181549
 21
9.650000887500002
 31
0.0
  0
LINE
  5
1CBD
330
1CB9
100
AcDbEntity
  8
SK2
100
AcDbLine
 10
-13.0652289181549
 20
-6.150000481916657
 30
0.0
 11
-13.0652289181549
 21
-9.650000481916656
 31
0.0
  0
LINE
  5
1CBE
330
1CB9
100
AcDbEntity
  8
SK2
100
AcDbLine
 10
-13.0652289181549
 20
2.650000887500001
 30
0.0
 11
-13.0652289181549
 21
-2.650000481916657
 31
0.0
  0
SOLID
  5
1CBF
330
1CB9
100
AcDbEntity
  8
SK2
100
AcDbTrace
 10
-13.64856225148823
 20
6.1500008875
 30
0.0
 11
-12.48189558482156
 21
6.1500008875
 31
0.0
 12
-13.0652289181549
 22
2.650000887500001
 32
0.0
 13
-13.0652289181549
 23
2.650000887500001
 33
0.0
  0
SOLID
  5
1CC0
330
1CB9
100
AcDbEntity
  8
SK2
100
AcDbTrace
 10
-13.64856225148823
 20
-6.150000481916657
 30
0.0
 11
-12.48189558482156
 21
-6.150000481916657
 31
0.0
 12
-13.0652289181549
 22
-2.650000481916657
 32
0.0
 13
-13.0652289181549
 23
-2.650000481916657
 33
0.0
  0
MTEXT
  5
1CC1
330
1CB9
100
AcDbEntity
  8
SK2
100
AcDbMText
 10
-15.4402289181549
 20
0.0000002027916701
 30
0.0
 40
3.5
 41
0.0
 71
     5
 72
     1
  1
Ts5
 11
0.0000000000000001
 21
1.0
 31
0.0
1001
ACAD
1000
MTEXTBEGIN
1070
    73
1070
     1
1070
    44
1040
1.0
1070
    74
1070
     0
1000
MTEXTEND
  0
POINT
  5
1CC2
330
1CB9
100
AcDbEntity
  8
DEFPOINTS
 62
     0
100
AcDbPoint
 10
-5.976886324057418
 20
2.650000887499999
 30
0.0
  0
POINT
  5
1CC3
330
1CB9
100
AcDbEntity
  8
DEFPOINTS
 62
     0
100
AcDbPoint
 10
-6.593414779224081
 20
-2.650000481916659
 30
0.0
  0
POINT
  5
1CC4
330
1CB9
100
AcDbEntity
  8
DEFPOINTS
 62
     0
100
AcDbPoint
 10
-13.0652289181549
 20
-2.650000481916657
 30
0.0
  0
ENDBLK
  5
1CC6
330
1CB9
100
AcDbEntity
  8
0
100
AcDbBlockEnd
  0
BLOCK
  5
1CDA
330
1CCE
100
AcDbEntity
  8
0
100
AcDbBlockBegin
  2
*D8
 70
     1
 10
0.0
 20
0.0
 30
0.0
  3
*D8
  1

  0
LINE
  5
1CFD
330
1CCE
100
AcDbEntity
  8
SK2
100
AcDbLine
 10
-6.140105976299749
 20
4.110005875973921
 30
0.0
 11
-12.93008395062824
 21
4.110005875973922
 31
0.0
  0
LINE
  5
1CFE
330
1CCE
100
AcDbEntity
  8
SK2
100
AcDbLine
 10
-7.054450926799752
 20
-4.110004121726079
 30
0.0
 11
-12.93008395062824
 21
-4.110004121726078
 31
0.0
  0
LINE
  5
1CFF
330
1CCE
100
AcDbEntity
  8
SK2
100
AcDbLine
 10
-11.68008395062824
 20
7.610005875973921
 30
0.0
 11
-11.68008395062824
 21
11.11000587597392
 31
0.0
  0
LINE
  5
1D00
330
1CCE
100
AcDbEntity
  8
SK2
100
AcDbLine
 10
-11.68008395062824
 20
-7.610004121726078
 30
0.0
 11
-11.68008395062824
 21
-11.11000412172608
 31
0.0
  0
LINE
  5
1D01
330
1CCE
100
AcDbEntity
  8
SK2
100
AcDbLine
 10
-11.68008395062824
 20
4.110005875973921
 30
0.0
 11
-11.68008395062824
 21
-4.110004121726078
 31
0.0
  0
SOLID
  5
1D02
330
1CCE
100
AcDbEntity
  8
SK2
100
AcDbTrace
 10
-12.26341728396157
 20
7.610005875973921
 30
0.0
 11
-11.0967506172949
 21
7.610005875973921
 31
0.0
 12
-11.68008395062824
 22
4.110005875973921
 32
0.0
 13
-11.68008395062824
 23
4.110005875973921
 33
0.0
  0
SOLID
  5
1D03
330
1CCE
100
AcDbEntity
  8
SK2
100
AcDbTrace
 10
-12.26341728396158
 20
-7.610004121726078
 30
0.0
 11
-11.09675061729491
 21
-7.610004121726078
 31
0.0
 12
-11.68008395062824
 22
-4.110004121726078
 32
0.0
 13
-11.68008395062824
 23
-4.110004121726078
 33
0.0
  0
MTEXT
  5
1D04
330
1CCE
100
AcDbEntity
  8
SK2
100
AcDbMText
 10
-14.05508395062824
 20
0.0000008771239198
 30
0.0
 40
3.5
 41
0.0
 71
     5
 72
     1
  1
Ts8
 11
0.0000000000000001
 21
1.0
 31
0.0
1001
ACAD
1000
MTEXTBEGIN
1070
    73
1070
     1
1070
    44
1040
1.0
1070
    74
1070
     0
1000
MTEXTEND
  0
POINT
  5
1D05
330
1CCE
100
AcDbEntity
  8
DEFPOINTS
 62
     0
100
AcDbPoint
 10
-5.515105976299749
 20
4.11000587597392
 30
0.0
  0
POINT
  5
1D06
330
1CCE
100
AcDbEntity
  8
DEFPOINTS
 62
     0
100
AcDbPoint
 10
-6.429450926799752
 20
-4.110004121726079
 30
0.0
  0
POINT
  5
1D07
330
1CCE
100
AcDbEntity
  8
DEFPOINTS
 62
     0
100
AcDbPoint
 10
-11.68008395062824
 20
-4.110004121726078
 30
0.0
  0
ENDBLK
  5
1CDB
330
1CCE
100
AcDbEntity
  8
0
100
AcDbBlockEnd
  0
ENDSEC
  0
SECTION
  2
ENTITIES
  0
TEXT
  5
D2C
330
1F
100
AcDbEntity
  8
6
100
AcDbText
 10
-21.05109652912058
 20
-35.34352930287381
 30
0.0
 40
5.0
  1
45N12012T8RA45
 41
1.199999999999999
 72
     1
 11
9.373167539591321
 21
-35.34352930287381
 31
0.0
100
AcDbText
  0
DIMENSION
  5
D2D
330
1F
100
AcDbEntity
  8
2
100
AcDbDimension
  2
*D0
 10
24.18510940385711
 20
5.999999999999953
 30
0.0
 11
24.18510940385711
 21
-0.1120493137609486
 31
0.0
 70
   160
  3
ISO-25
100
AcDbAlignedDimension
 13
10.02289156626472
 23
-6.000002241979687
 33
0.0
 14
10.02289156626472
 24
5.999999999999957
 34
0.0
 50
90.0
100
AcDbRotatedDimension
  0
DIMENSION
  5
D2E
330
1F
100
AcDbEntity
  8
2
100
AcDbDimension
  2
*D1
 10
15.26523221171224
 20
-0.7576615965321613
 30
0.0
 11
-16.61063132437868
 21
-0.0000011208761094
 31
0.0
 70
   162
  3
ISO-25
100
AcDb2LineAngularDimension
 13
13.81765826715939
 23
2.205233299105286
 33
0.0
 14
15.26523221173083
 24
0.7576593544998797
 34
0.0
 15
13.04182810290589
 25
-2.981065705338511
 35
0.0
 16
-15.49867095834124
 26
8.446176402245221
 36
0.0
1001
ACAD
1000
DSTYLE
1002
{
1070
   271
1070
     0
1070
   271
1070
     0
1070
   271
1070
     0
1070
   271
1070
     0
1070
   271
1070
     0
1070
   271
1070
     0
1002
}
  0
DIMENSION
  5
D2F
330
1F
100
AcDbEntity
  8
2
100
AcDbDimension
  2
*D2
 10
-0.0000043459160612
 20
-21.69801591022835
 30
0.0
 11
7.021684574029241
 21
-21.69801591022835
 31
0.0
 70
   160
  3
ISO-25
100
AcDbAlignedDimension
 13
15.49999999999841
 23
-0.0000022419798136
 33
0.0
 14
-0.0000043459160602
 24
-5.612998939758949
 34
0.0
 50
180.0
100
AcDbRotatedDimension
1001
ACAD
1000
DSTYLE
1002
{
1070
   271
1070
     2
1002
}
  0
DIMENSION
  5
D30
330
1F
100
AcDbEntity
  8
2
100
AcDbDimension
  2
*D3
 10
15.49999999999836
 20
16.79066354733655
 30
0.0
 11
27.74499999999836
 21
16.79066354733655
 31
0.0
 70
   160
  3
ISO-25
100
AcDbAlignedDimension
 13
10.02289156626472
 23
5.999999999999957
 33
0.0
 14
15.49999999999835
 24
-0.0000022419798136
 34
0.0
 50
180.0
100
AcDbRotatedDimension
1001
ACAD
1000
DSTYLE
1002
{
1070
   271
1070
     1
1002
}
  0
DIMENSION
  5
D31
330
1F
100
AcDbEntity
  8
2
100
AcDbDimension
  2
*D4
 10
15.49999999999836
 20
23.2898483384843
 30
0.0
 11
9.337314229750688
 21
23.2898483384843
 31
0.0
 70
   160
  3
ISO-25
100
AcDbAlignedDimension
 13
3.497374506928536
 23
6.086834157989707
 33
0.0
 14
15.49999999999835
 24
-0.0000022419798136
 34
0.0
 50
180.0
100
AcDbRotatedDimension
  0
LWPOLYLINE
  5
D36
330
1F
100
AcDbEntity
  8
1
100
AcDbPolyline
 90
        6
 70
     0
 43
0.0
 10
2.826163263329885
 20
6.09576587368996
 10
2.849504709989676
 20
6.013420384021129
 10
2.887522154323277
 20
5.899876457474642
 10
2.930692631697626
 20
5.788420358668028
 10
2.978976137263055
 20
5.678914895076708
 10
3.032394650392703
 20
5.571336003051631
  0
ARC
  5
D38
330
1F
100
AcDbEntity
  8
1
100
AcDbCircle
 10
1.706526366316655
 20
6.301719546199812
 30
0.0
 40
0.6930512045597347
100
AcDbArc
 50
299.3449749800142
 51
331.0629431557443
  0
LINE
  5
D3C
330
1F
100
AcDbEntity
  8
4
100
AcDbLine
 10
16.13573274510211
 20
-0.0000022419798136
 30
0.0
 11
0.0000000000002274
 21
0.0000000000000853
 31
0.0
  0
LWPOLYLINE
  5
D41
330
1F
100
AcDbEntity
  8
1
100
AcDbPolyline
 90
        7
 70
     0
 43
0.0
 10
2.698317112877491
 20
3.083359204481974
 10
2.779254763742079
 20
3.069203372848265
 10
2.856620448615189
 20
3.060849516154281
 10
2.929797056607603
 20
3.057865462309461
 10
2.999932683221483
 20
3.058863281405345
 10
3.06826748538449
 20
3.062710746592723
 10
3.134272525349759
 20
3.069290146076181
  0
LWPOLYLINE
  5
D42
330
1F
100
AcDbEntity
  8
1
100
AcDbPolyline
 90
        4
 70
     0
 43
0.0
 10
2.874964323835923
 20
-1.979004614185788
 10
2.810608568430154
 20
-1.855500835332969
 10
2.736130570936188
 20
-1.721833028146581
 10
2.656834406375194
 20
-1.586571268428021
  0
LINE
  5
D43
330
1F
100
AcDbEntity
  8
1
100
AcDbLine
 10
2.611141815732306
 20
-5.200383775442833
 30
0.0
 11
2.932505409868189
 21
-5.233741448098356
 31
0.0
  0
LINE
  5
D44
330
1F
100
AcDbEntity
  8
1
100
AcDbLine
 10
1.075598400372449
 20
4.749419339148009
 30
0.0
 11
1.075579913436512
 21
-4.343979788844305
 31
0.0
  0
LINE
  5
D45
330
1F
100
AcDbEntity
  8
1
100
AcDbLine
 10
0.0000000000002274
 20
5.613041851766716
 30
0.0
 11
0.0000000000002274
 21
-5.613041851766749
 31
0.0
  0
LINE
  5
D48
330
1F
100
AcDbEntity
  8
1
100
AcDbLine
 10
2.234678012817634
 20
-5.758277380518364
 30
0.0
 11
2.406157925056023
 21
-6.101357068938611
 31
0.0
  0
LINE
  5
D49
330
1F
100
AcDbEntity
  8
1
100
AcDbLine
 10
2.234678012817634
 20
-5.7582773805184
 30
0.0
 11
2.234678012817634
 21
-5.167226985775331
 31
0.0
  0
ARC
  5
D4A
330
1F
100
AcDbEntity
  8
1
100
AcDbCircle
 10
1.706547301402806
 20
-6.583074272733719
 30
0.0
 40
0.979393670465361
100
AcDbArc
 50
57.36791118991595
 51
82.08910784380885
  0
LINE
  5
D4D
330
1F
100
AcDbEntity
  8
1
100
AcDbLine
 10
2.235336229199309
 20
-5.159501967801523
 30
0.0
 11
2.234653298751112
 21
-5.167266605777403
 31
0.0
  0
LWPOLYLINE
  5
D4E
330
1F
100
AcDbEntity
  8
1
100
AcDbPolyline
 90
        4
 70
     0
 43
0.0
 10
1.075579913436514
 20
-4.343979788844305
 10
1.072346776757975
 20
-4.359667132585962
 10
1.070155279998425
 20
-4.374653517295503
 10
1.069031934178689
 20
-4.388906500150328
  0
LWPOLYLINE
  5
D4F
330
1F
100
AcDbEntity
  8
1
100
AcDbPolyline
 90
       14
 70
     0
 43
0.0
 10
1.069028153104837
 20
-4.388954474226473
 10
1.068897205877877
 20
-4.402559178986082
 10
1.069720403691931
 20
-4.415458985278121
 10
1.071442009293897
 20
-4.42766229044234
 10
1.07401124124751
 20
-4.43916578048186
 10
1.077371198433173
 20
-4.449994112572478
 10
1.081480461025897
 20
-4.460170354538718
 10
1.086241803822902
 20
-4.469692712055832
 10
1.091599887566544
 20
-4.478538271357987
 10
1.097387633879892
 20
-4.486791346827892
 10
1.10345588946737
 20
-4.494507651097768
 10
1.109695539826794
 20
-4.501744184009699
 10
1.115963580748335
 20
-4.508561914122488
 10
1.122212528179682
 20
-4.514999792614993
  0
LINE
  5
D50
330
1F
100
AcDbEntity
  8
1
100
AcDbLine
 10
2.231752293114499
 20
-5.147927047307875
 30
0.0
 11
2.235336229199309
 21
-5.159501967801523
 31
0.0
  0
LWPOLYLINE
  5
D51
330
1F
100
AcDbEntity
  8
1
100
AcDbPolyline
 90
        4
 70
     0
 43
0.0
 10
1.122212528179682
 20
-4.514999792614993
 10
1.128357230872564
 20
-4.521107677407306
 10
1.134367686444728
 20
-4.526910467221119
 10
1.141677727552817
 20
-4.532441260674636
  0
LWPOLYLINE
  5
D52
330
1F
100
AcDbEntity
  8
1
100
AcDbPolyline
 90
        9
 70
     0
 43
0.0
 10
1.937541308370485
 20
-4.824106891383082
 10
1.987485862001239
 20
-4.837603784507042
 10
2.036560471192558
 20
-4.859913821360929
 10
2.083227886132303
 20
-4.891157467317519
 10
2.12615559552992
 20
-4.930571389372465
 10
2.164096905058588
 20
-4.977580949773556
 10
2.195143090546879
 20
-5.030685332836684
 10
2.217920618276884
 20
-5.087762406267056
 10
2.231817433810503
 20
-5.147859314982211
  0
LINE
  5
D53
330
1F
100
AcDbEntity
  8
1
100
AcDbLine
 10
1.620859828860165
 20
-4.754716008888706
 30
0.0
 11
1.716619123472185
 21
-4.779279297251023
 31
0.0
  0
LINE
  5
D54
330
1F
100
AcDbEntity
  8
1
100
AcDbLine
 10
1.578724066049408
 20
-4.744145204420313
 30
0.0
 11
1.620859828860165
 21
-4.754716008888706
 31
0.0
  0
LWPOLYLINE
  5
D55
330
1F
100
AcDbEntity
  8
1
100
AcDbPolyline
 90
        3
 70
     0
 43
0.0
 10
1.716619123472185
 20
-4.77927929725102
 10
1.74344505292173
 20
-4.785980107255969
 10
1.771651126753058
 20
-4.792828200337273
  0
LWPOLYLINE
  5
D56
330
1F
100
AcDbEntity
  8
1
100
AcDbPolyline
 90
        3
 70
     0
 43
0.0
 10
1.771651126753058
 20
-4.792828200337273
 10
1.801352926232551
 20
-4.799682686679466
 10
1.832657170481245
 20
-4.806464072183072
  0
LWPOLYLINE
  5
D57
330
1F
100
AcDbEntity
  8
1
100
AcDbPolyline
 90
        5
 70
     0
 43
0.0
 10
1.141677727552817
 20
-4.532441260674636
 10
1.521810242354129
 20
-4.724730384140148
 10
1.539991708709683
 20
-4.732338063563111
 10
1.558951842118842
 20
-4.739334771845831
 10
1.578724066049408
 20
-4.744145204420313
  0
LWPOLYLINE
  5
D58
330
1F
100
AcDbEntity
  8
1
100
AcDbPolyline
 90
        3
 70
     0
 43
0.0
 10
1.83427186397504
 20
-4.806820847869525
 10
1.898571741122303
 20
-4.817881325869825
 10
1.937496326070649
 20
-4.824103052701746
  0
LINE
  5
D59
330
1F
100
AcDbEntity
  8
1
100
AcDbLine
 10
2.344036901118449
 20
-5.171104455974852
 30
0.0
 11
2.454109615408567
 21
-5.183587957873791
 31
0.0
  0
LINE
  5
D5A
330
1F
100
AcDbEntity
  8
1
100
AcDbLine
 10
2.233357848700126
 20
-5.159258127030422
 30
0.0
 11
2.344036901118449
 21
-5.171104455974852
 31
0.0
  0
LINE
  5
D5B
330
1F
100
AcDbEntity
  8
1
100
AcDbLine
 10
2.454109563179172
 20
-5.183602544576317
 30
0.0
 11
2.611141815732306
 21
-5.200383775442833
 31
0.0
  0
LINE
  5
D5C
330
1F
100
AcDbEntity
  8
1
100
AcDbLine
 10
-0.0000043459160602
 20
-5.612998939758949
 30
0.0
 11
1.841348382830261
 21
-5.613001181738747
 31
0.0
  0
LWPOLYLINE
  5
DC6
330
1F
100
AcDbEntity
  8
1
100
AcDbPolyline
 90
       20
 70
     0
 43
0.0
 10
2.395772087057622
 20
-1.172241074095362
 10
2.23689244760522
 20
-0.939132268277541
 10
2.098446338246032
 20
-0.7046841899122458
 10
1.981015757133773
 20
-0.472577418473168
 10
1.88285468172181
 20
-0.2439067346023226
 10
1.80287145879738
 20
-0.0201034590053483
 10
1.739684979707245
 20
0.1988504208866761
 10
1.691759566301936
 20
0.4131263260201985
 10
1.658467285091491
 20
0.6229636398592035
 10
1.638671433991717
 20
0.828866371668488
 10
1.632362651988693
 20
1.031313440881017
 10
1.638960695096175
 20
1.230919140748002
 10
1.659041518514125
 20
1.427986362812576
 10
1.692600392553664
 20
1.622758436308496
 10
1.740799135423892
 20
1.815432383192363
 10
1.804324535377713
 20
2.006027955737886
 10
1.884596958930496
 20
2.193826036053911
 10
1.983002396331949
 20
2.37807632338692
 10
2.100330764035079
 20
2.556663843618339
 10
2.237990462884254
 20
2.727621124185125
  0
LWPOLYLINE
  5
DF4
330
1F
100
AcDbEntity
  8
1
100
AcDbPolyline
 90
        4
 70
     0
 43
0.0
 10
2.656834406375194
 20
-1.586571268428021
 10
2.573051690546884
 20
-1.449934417312694
 10
2.48545936807556
 20
-1.312031115891992
 10
2.395777739664961
 20
-1.172243431947884
  0
LWPOLYLINE
  5
E0A
330
1F
100
AcDbEntity
  8
1
100
AcDbPolyline
 90
       10
 70
     0
 43
0.0
 10
2.210156008329196
 20
5.825613301934941
 10
2.210156008329129
 20
5.825613301934875
 10
2.192151292289556
 20
5.792434177594256
 10
2.174068068116049
 20
5.760560623708963
 10
2.154865098485093
 20
5.731646530195597
 10
2.134955051213887
 20
5.70506406443765
 10
2.11503124227316
 20
5.680043769324377
 10
2.094992267510749
 20
5.656499360815459
 10
2.074879916779164
 20
5.634324669572952
 10
2.054984522782064
 20
5.612617038941746
  0
ARC
  5
E0D
330
1F
100
AcDbEntity
  8
1
100
AcDbCircle
 10
1.841348295820978
 20
5.903327721806206
 30
0.0
 40
0.290331024146506
100
AcDbArc
 50
269.9991595428999
 51
314.8676764860998
  0
LINE
  5
E0E
330
1F
100
AcDbEntity
  8
1
100
AcDbLine
 10
1.841348382830261
 20
5.612996697779321
 30
0.0
 11
0.0000000000002274
 21
5.613041851766716
 31
0.0
  0
LINE
  5
E0F
330
1F
100
AcDbEntity
  8
1
100
AcDbLine
 10
1.392668189318946
 20
5.363643822999589
 30
0.0
 11
1.277157746832047
 21
5.353783018746939
 31
0.0
  0
LWPOLYLINE
  5
E10
330
1F
100
AcDbEntity
  8
1
100
AcDbPolyline
 90
        5
 70
     0
 43
0.0
 10
1.277157746832047
 20
5.353783018746939
 10
1.25458678194727
 20
5.351464277071843
 10
1.233427110124625
 20
5.348749930816319
 10
1.213678731364248
 20
5.345635311126808
 10
1.195341645665936
 20
5.342115089050532
  0
LWPOLYLINE
  5
E11
330
1F
100
AcDbEntity
  8
1
100
AcDbPolyline
 90
       19
 70
     0
 43
0.0
 10
1.195341645665936
 20
5.342115089050532
 10
1.130379815130998
 20
5.328349099313787
 10
1.074977547730493
 20
5.312512697771623
 10
1.029139939954111
 20
5.294268333357178
 10
0.9928517029305004
 20
5.274160457979799
 10
0.9662739127194159
 20
5.252862487014981
 10
0.9488825722124262
 20
5.22986496428148
 10
0.9404735652186923
 20
5.204881818133907
 10
0.9402483248061496
 20
5.177808121505591
 10
0.9480153489603814
 20
5.148388509692563
 10
0.9617493270962819
 20
5.116727898766296
 10
0.9802141679327759
 20
5.083057683483287
 10
1.00085071166303
 20
5.046807318390406
 10
1.021063555938702
 20
5.007587177679101
 10
1.039725337340152
 20
4.964882506334386
 10
1.054927680569059
 20
4.918054924508838
 10
1.066418218195921
 20
4.866814416460798
 10
1.073197396678821
 20
4.810671000283434
 10
1.075598400372449
 20
4.749419339148009
  0
LWPOLYLINE
  5
E12
330
1F
100
AcDbEntity
  8
1
100
AcDbPolyline
 90
        5
 70
     0
 43
0.0
 10
2.525602970789655
 20
3.222286608456823
 10
2.567844605457599
 20
3.185475002153192
 10
2.610707613746786
 20
3.150030677218236
 10
2.65419687318976
 20
3.11598251172814
 10
2.698317112877491
 20
3.083359204481974
  0
LINE
  5
E13
330
1F
100
AcDbEntity
  8
1
100
AcDbLine
 10
2.030378630768441
 20
5.517063135419713
 30
0.0
 11
2.043556901858699
 21
5.466516608341255
 31
0.0
  0
LINE
  5
E14
330
1F
100
AcDbEntity
  8
1
100
AcDbLine
 10
2.016787187734348
 20
5.567464386130193
 30
0.0
 11
2.030378630768441
 21
5.517063135419713
 31
0.0
  0
LWPOLYLINE
  5
E15
330
1F
100
AcDbEntity
  8
1
100
AcDbPolyline
 90
        9
 70
     0
 43
0.0
 10
2.043556901858699
 20
5.466516608341255
 10
2.072221187302446
 20
5.349782293623208
 10
2.097940993247607
 20
5.23373092477114
 10
2.120439847501121
 20
5.118493636177398
 10
2.138463008703868
 20
5.006584286833684
 10
2.150804896148814
 20
4.900662907051635
 10
2.157058834774337
 20
4.799753472094509
 10
2.15668852631364
 20
4.703176666338364
 10
2.149626635240744
 20
4.610882368206191
  0
LWPOLYLINE
  5
E16
330
1F
100
AcDbEntity
  8
1
100
AcDbPolyline
 90
       13
 70
     0
 43
0.0
 10
2.09981641454486
 20
3.940684417736924
 10
2.117580192846645
 20
3.878755198729606
 10
2.138976223728441
 20
3.814730639315593
 10
2.16421536790593
 20
3.74833623528668
 10
2.19314278063255
 20
3.681238919061243
 10
2.225810322593142
 20
3.614685283495001
 10
2.261468995063403
 20
3.549811702236087
 10
2.299187032283775
 20
3.488152500609103
 10
2.339187162754965
 20
3.429450658943663
 10
2.38112722416424
 20
3.374254843117163
 10
2.425785623732423
 20
3.321631623917033
 10
2.474021392106267
 20
3.270754089864156
 10
2.525602970789655
 20
3.222286608456823
  0
LWPOLYLINE
  5
E17
330
1F
100
AcDbEntity
  8
1
100
AcDbPolyline
 90
        5
 70
     0
 43
0.0
 10
2.069802534255805
 20
4.173675003568254
 10
2.067788669438454
 20
4.120512724038616
 10
2.072056465941581
 20
4.063782567230892
 10
2.082709318849452
 20
4.003762670463541
 10
2.09981628415071
 20
3.940684418932129
  0
LWPOLYLINE
  5
E18
330
1F
100
AcDbEntity
  8
1
100
AcDbPolyline
 90
        3
 70
     0
 43
0.0
 10
2.095534583153985
 20
4.329376027498721
 10
2.081772120993034
 20
4.253010436867531
 10
2.069802534255805
 20
4.173675003568254
  0
LWPOLYLINE
  5
E19
330
1F
100
AcDbEntity
  8
1
100
AcDbPolyline
 90
        4
 70
     0
 43
0.0
 10
2.149633936480376
 20
4.610871177609679
 10
2.138347030996047
 20
4.542220042303529
 10
2.1253057040717
 20
4.472736208094407
 10
2.095534583153985
 20
4.329376027498721
  0
LWPOLYLINE
  5
E1A
330
1F
100
AcDbEntity
  8
1
100
AcDbPolyline
 90
        4
 70
     0
 43
0.0
 10
2.615305577968569
 20
3.042678947336791
 10
2.588221583184828
 20
3.030254132277499
 10
2.572757229330366
 20
3.023439715922948
 10
2.555813785309279
 20
3.016153563768746
  0
LWPOLYLINE
  5
E1B
330
1F
100
AcDbEntity
  8
1
100
AcDbPolyline
 90
        3
 70
     0
 43
0.0
 10
2.698101407497133
 20
3.083390652674759
 10
2.692430506712548
 20
3.080783089841013
 10
2.686461930751095
 20
3.077811616348856
  0
LWPOLYLINE
  5
E1C
330
1F
100
AcDbEntity
  8
1
100
AcDbPolyline
 90
        7
 70
     0
 43
0.0
 10
2.686461930751095
 20
3.077811616348856
 10
2.665362829731479
 20
3.066960225397671
 10
2.657022883148356
 20
3.062735777740662
 10
2.647921899981095
 20
3.058221726321031
 10
2.637992655019176
 20
3.053380604613053
 10
2.627146174348227
 20
3.048215442280542
 10
2.615305577968569
 20
3.042678947336791
  0
LWPOLYLINE
  5
E1D
330
1F
100
AcDbEntity
  8
1
100
AcDbPolyline
 90
        7
 70
     0
 43
0.0
 10
2.458454245419046
 20
2.949933377767791
 10
2.474382422737743
 20
2.961746021021743
 10
2.490437689956977
 20
2.973259919412083
 10
2.506623577282195
 20
2.984485485472718
 10
2.522929494456188
 20
2.99539148231895
 10
2.539344851460624
 20
3.005946673065953
 10
2.555873178141956
 20
3.016161470008754
  0
LINE
  5
E1E
330
1F
100
AcDbEntity
  8
1
100
AcDbLine
 10
2.436968633351701
 20
2.928878959176931
 30
0.0
 11
2.458388024040743
 21
2.949834863681985
 31
0.0
  0
LINE
  5
E1F
330
1F
100
AcDbEntity
  8
1
100
AcDbLine
 10
2.416005275938712
 20
2.908158951076688
 30
0.0
 11
2.436968633351701
 21
2.928878959176931
 31
0.0
  0
LINE
  5
E20
330
1F
100
AcDbEntity
  8
1
100
AcDbLine
 10
2.395504781781581
 20
2.887663229156687
 30
0.0
 11
2.416005275938712
 21
2.908158951076688
 31
0.0
  0
LINE
  5
E21
330
1F
100
AcDbEntity
  8
1
100
AcDbLine
 10
2.237990462884254
 20
2.727621124185127
 30
0.0
 11
2.395512020154604
 21
2.887670537567294
 31
0.0
  0
LWPOLYLINE
  5
E22
330
1F
100
AcDbEntity
  8
1
100
AcDbPolyline
 90
        7
 70
     0
 43
0.0
 10
2.016672630259664
 20
5.567389079226924
 10
2.007683657756396
 20
5.557032476720912
 10
1.997449869511599
 20
5.546587962099338
 10
1.985926005465434
 20
5.536154506365262
 10
1.973195581619538
 20
5.525986839223165
 10
1.959353947938698
 20
5.516346332235226
 10
1.944386017297594
 20
5.507364222698861
  0
LWPOLYLINE
  5
E23
330
1F
100
AcDbEntity
  8
1
100
AcDbPolyline
 90
        3
 70
     0
 43
0.0
 10
2.054984522782064
 20
5.612617038941746
 10
2.035704151813374
 20
5.590167190444381
 10
2.016787187734348
 20
5.567464386130191
  0
LWPOLYLINE
  5
E24
330
1F
100
AcDbEntity
  8
1
100
AcDbPolyline
 90
        9
 70
     0
 43
0.0
 10
1.937496326070649
 20
5.503701893395605
 10
1.881336967616775
 20
5.478062056634256
 10
1.820477878768438
 20
5.453941900050059
 10
1.75428589006867
 20
5.431909951512237
 10
1.684660509770031
 20
5.412334186488625
 10
1.613148304715553
 20
5.395542578824052
 10
1.540174928480286
 20
5.381743098091624
 10
1.466799203618684
 20
5.371035653869831
 10
1.392668189318946
 20
5.363643822999589
  0
LINE
  5
E25
330
1F
100
AcDbEntity
  8
1
100
AcDbLine
 10
1.944411575161718
 20
5.507381846475228
 30
0.0
 11
1.937505336657649
 21
5.503688045912348
 31
0.0
  0
LINE
  5
E26
330
1F
100
AcDbEntity
  8
1
100
AcDbLine
 10
11.47306902527802
 20
-4.120717427660783
 30
0.0
 11
12.15601449019962
 21
-3.452997408094399
 31
0.0
  0
LINE
  5
E28
330
1F
100
AcDbEntity
  8
1
100
AcDbLine
 10
3.784002735709276
 20
-5.308378237064035
 30
0.0
 11
3.784002735709276
 21
-3.069432498076192
 31
0.0
  0
LINE
  5
E2A
330
1F
100
AcDbEntity
  8
1
100
AcDbLine
 10
10.64909654200875
 20
-4.941035737659695
 30
0.0
 11
11.47306902527802
 21
-4.120717427660783
 31
0.0
  0
LINE
  5
E2D
330
1F
100
AcDbEntity
  8
1
100
AcDbLine
 10
8.240652117542262
 20
-5.551679587949839
 30
0.0
 11
5.258734881401818
 21
-5.417196013029434
 31
0.0
  0
LWPOLYLINE
  5
E32
330
1F
100
AcDbEntity
  8
1
100
AcDbPolyline
 90
        3
 70
     0
 43
0.0
 10
3.436113300011838
 20
-5.279187205835121
 10
3.696312940035083
 20
-5.300790162060661
 10
3.784002735709276
 20
-5.308378237064035
  0
LWPOLYLINE
  5
E33
330
1F
100
AcDbEntity
  8
1
100
AcDbPolyline
 90
        5
 70
     0
 43
0.0
 10
2.932505358714626
 20
-5.233757177274266
 10
3.056990693877959
 20
-5.243937327600916
 10
3.182417571857733
 20
-5.254929586018258
 10
3.30878902614208
 20
-5.266695950559955
 10
3.436113205592674
 20
-5.279187206552209
  0
LINE
  5
E34
330
1F
100
AcDbEntity
  8
1
100
AcDbLine
 10
4.733527449066301
 20
-5.375297981704044
 30
0.0
 11
5.258734881401818
 21
-5.417196013029434
 31
0.0
  0
LWPOLYLINE
  5
E35
330
1F
100
AcDbEntity
  8
1
100
AcDbPolyline
 90
        3
 70
     0
 43
0.0
 10
3.784002735709276
 20
-5.308378237064035
 10
4.243386361698581
 20
-5.33266441680007
 10
4.733527449066302
 20
-5.375297981704044
  0
LWPOLYLINE
  5
E39
330
1F
100
AcDbEntity
  8
1
100
AcDbPolyline
 90
        3
 70
     0
 43
0.0
 10
9.94219192891574
 20
-5.656974082534879
 10
10.31081786584874
 20
-5.285577308651586
 10
10.64909654200875
 20
-4.941035737659695
  0
LINE
  5
E3A
330
1F
100
AcDbEntity
  8
1
100
AcDbLine
 10
8.848865592213945
 20
-5.592387944271737
 30
0.0
 11
8.240652117542262
 21
-5.551679587949839
 31
0.0
  0
LINE
  5
E3B
330
1F
100
AcDbEntity
  8
1
100
AcDbLine
 10
9.20659287310068
 20
-5.61473167338983
 30
0.0
 11
8.84886559113838
 21
-5.592388340115726
 31
0.0
  0
LINE
  5
E3C
330
1F
100
AcDbEntity
  8
1
100
AcDbLine
 10
9.942163147171145
 20
-5.657010697972093
 30
0.0
 11
9.20659287310068
 21
-5.61473167338983
 31
0.0
  0
LWPOLYLINE
  5
E3F
330
1F
100
AcDbEntity
  8
1
100
AcDbPolyline
 90
        9
 70
     0
 43
0.0
 10
11.39152414611464
 20
-1.274425846841491
 10
11.30072706665067
 20
-1.414137709835123
 10
11.20321796746216
 20
-1.543457229638504
 10
11.10080263168577
 20
-1.660283166432708
 10
10.99084668236926
 20
-1.768405793019689
 10
10.8712076410584
 20
-1.869765838120419
 10
10.74005251620827
 20
-1.965100423708877
 10
10.59417481936776
 20
-2.055900315672376
 10
10.43479258168092
 20
-2.139666155190329
  0
LWPOLYLINE
  5
E40
330
1F
100
AcDbEntity
  8
1
100
AcDbPolyline
 90
       13
 70
     0
 43
0.0
 10
9.512884098238027
 20
4.731706288140768
 10
9.805016464707527
 20
4.704569522542697
 10
10.10182179537938
 20
4.65421036693394
 10
10.40128953034993
 20
4.579820758671762
 10
10.70758893649933
 20
4.47901576816768
 10
11.02426732001356
 20
4.348411726328646
 10
11.34975926533214
 20
4.186293928765378
 10
11.68464868313644
 20
3.990328690935955
 10
12.02621928500251
 20
3.760662572713298
 10
12.37216140868443
 20
3.498520784572606
 10
12.72322671552959
 20
3.203796162427051
 10
13.07966536893489
 20
2.877352809031373
 10
13.45035150264288
 20
2.480590562937836
  0
LWPOLYLINE
  5
E41
330
1F
100
AcDbEntity
  8
1
100
AcDbPolyline
 90
        7
 70
     0
 43
0.0
 10
10.1100241398497
 20
1.254263625640444
 10
10.27695282547091
 20
1.154968334359447
 10
10.44746796303225
 20
1.051349505856453
 10
10.62153911152009
 20
0.9434148280116046
 10
10.79929174411382
 20
0.8311412370640239
 10
10.98085172087321
 20
0.7145056688944244
 10
11.16618940573874
 20
0.5935158116222258
  0
LWPOLYLINE
  5
E42
330
1F
100
AcDbEntity
  8
1
100
AcDbPolyline
 90
        4
 70
     0
 43
0.0
 10
7.630584425991412
 20
-3.242068390725861
 10
7.245099866534923
 20
-3.247213908709483
 10
5.657925228744459
 20
-3.240996691652946
 10
5.23233920039929
 20
-3.221903845734888
  0
LINE
  5
E43
330
1F
100
AcDbEntity
  8
1
100
AcDbLine
 10
2.976349370504486
 20
-2.156382180582213
 30
0.0
 11
2.87496432383579
 21
-1.979004614185653
 31
0.0
  0
LINE
  5
E44
330
1F
100
AcDbEntity
  8
1
100
AcDbLine
 10
3.143387998290411
 20
-2.431955213438005
 30
0.0
 11
2.976349370504486
 21
-2.156382180582213
 31
0.0
  0
LWPOLYLINE
  5
E45
330
1F
100
AcDbEntity
  8
1
100
AcDbPolyline
 90
        3
 70
     0
 43
0.0
 10
3.312322885230248
 20
-2.674496708578244
 10
3.227216730967149
 20
-2.558551090272721
 10
3.143387998290411
 20
-2.431955213438005
  0
LWPOLYLINE
  5
E46
330
1F
100
AcDbEntity
  8
1
100
AcDbPolyline
 90
        4
 70
     0
 43
0.0
 10
3.58482042299606
 20
-2.950785037017866
 10
3.49049375410724
 20
-2.871195006560051
 10
3.399526191674584
 20
-2.778871018704535
 10
3.312322885230248
 20
-2.674496708578244
  0
LWPOLYLINE
  5
E47
330
1F
100
AcDbEntity
  8
1
100
AcDbPolyline
 90
        3
 70
     0
 43
0.0
 10
3.784002735709276
 20
-3.069432498076192
 10
3.682675569193536
 20
-3.01651698069777
 10
3.58482042299606
 20
-2.950785037017866
  0
LWPOLYLINE
  5
E48
330
1F
100
AcDbEntity
  8
1
100
AcDbPolyline
 90
        4
 70
     0
 43
0.0
 10
4.092606158309653
 20
-3.159609537143214
 10
3.987007171954113
 20
-3.136096515275143
 10
3.883821427583877
 20
-3.106056200576301
 10
3.784019574012783
 20
-3.069589679281
  0
LWPOLYLINE
  5
E49
330
1F
100
AcDbEntity
  8
1
100
AcDbPolyline
 90
        3
 70
     0
 43
0.0
 10
4.313456168036902
 20
-3.187736350413576
 10
4.201210484559396
 20
-3.176781804370058
 10
4.092606158309653
 20
-3.159609537143214
  0
LWPOLYLINE
  5
E4A
330
1F
100
AcDbEntity
  8
1
100
AcDbPolyline
 90
        3
 70
     0
 43
0.0
 10
4.838381365974353
 20
-3.209398798432683
 10
4.635364252328112
 20
-3.201425488595707
 10
4.313456168036902
 20
-3.187736350413576
  0
LWPOLYLINE
  5
E4B
330
1F
100
AcDbEntity
  8
1
100
AcDbPolyline
 90
        3
 70
     0
 43
0.0
 10
5.23233920039929
 20
-3.221903845734888
 10
5.037373015211966
 20
-3.21622491751908
 10
4.838381365974353
 20
-3.209398798432683
  0
LINE
  5
E4C
330
1F
100
AcDbEntity
  8
1
100
AcDbLine
 10
10.00806847261116
 20
-2.496078073598118
 30
0.0
 11
9.818342502922515
 21
-2.63361698676619
 31
0.0
  0
LINE
  5
E4D
330
1F
100
AcDbEntity
  8
1
100
AcDbLine
 10
10.18968970955367
 20
-2.342612450793311
 30
0.0
 11
10.00806847261116
 21
-2.496078073598118
 31
0.0
  0
LINE
  5
E4E
330
1F
100
AcDbEntity
  8
1
100
AcDbLine
 10
10.36212516525681
 20
-2.173728821210636
 30
0.0
 11
10.18968970955367
 21
-2.342612450793311
 31
0.0
  0
LINE
  5
E4F
330
1F
100
AcDbEntity
  8
1
100
AcDbLine
 10
9.402710322095492
 20
-2.866918566151251
 30
0.0
 11
9.172428936071428
 21
-2.963899745648252
 31
0.0
  0
LINE
  5
E50
330
1F
100
AcDbEntity
  8
1
100
AcDbLine
 10
10.43489229118657
 20
-2.139706137212458
 30
0.0
 11
10.36208497790273
 21
-2.173730372316209
 31
0.0
  0
LINE
  5
E51
330
1F
100
AcDbEntity
  8
1
100
AcDbLine
 10
9.617268654887805
 20
-2.756755299232714
 30
0.0
 11
9.402710322095492
 21
-2.866918566151251
 31
0.0
  0
LINE
  5
E52
330
1F
100
AcDbEntity
  8
1
100
AcDbLine
 10
9.818342502922515
 20
-2.63361698676619
 30
0.0
 11
9.617268654887805
 21
-2.756755299232714
 31
0.0
  0
LINE
  5
E53
330
1F
100
AcDbEntity
  8
1
100
AcDbLine
 10
9.172428936071428
 20
-2.963899745648252
 30
0.0
 11
8.923104880445361
 21
-3.048000498947391
 31
0.0
  0
LINE
  5
E54
330
1F
100
AcDbEntity
  8
1
100
AcDbLine
 10
7.994834663712722
 20
-3.221021457073669
 30
0.0
 11
7.630584425991412
 21
-3.242068390725861
 31
0.0
  0
LINE
  5
E55
330
1F
100
AcDbEntity
  8
1
100
AcDbLine
 10
8.336430274735485
 20
-3.179534427244251
 30
0.0
 11
7.994834663712722
 21
-3.221021457073669
 31
0.0
  0
LINE
  5
E56
330
1F
100
AcDbEntity
  8
1
100
AcDbLine
 10
8.655844694047285
 20
-3.119120194820293
 30
0.0
 11
8.336430274735485
 21
-3.179534427244251
 31
0.0
  0
LINE
  5
E57
330
1F
100
AcDbEntity
  8
1
100
AcDbLine
 10
8.923104880445361
 20
-3.048000498947391
 30
0.0
 11
8.655844694047285
 21
-3.119120272267892
 31
0.0
  0
LWPOLYLINE
  5
E58
330
1F
100
AcDbEntity
  8
1
100
AcDbPolyline
 90
        7
 70
     0
 43
0.0
 10
9.512883933183564
 20
4.731706297224135
 10
8.756316515495022
 20
4.772423737517077
 10
8.002658520383683
 20
4.810900760391278
 10
7.251579608742106
 20
4.847185237615502
 10
5.322222084813875
 20
4.881224843460191
 10
4.579355924559398
 20
4.912980294367251
 10
3.840773820166043
 20
4.942512264044276
  0
LWPOLYLINE
  5
E59
330
1F
100
AcDbEntity
  8
1
100
AcDbPolyline
 90
       15
 70
     0
 43
0.0
 10
8.471976434041526
 20
2.400933704846323
 10
8.203212815947901
 20
2.533608717118134
 10
7.942403867413934
 20
2.644572118926198
 10
7.691124449871871
 20
2.735531466523453
 10
7.449390696468507
 20
2.809944881231884
 10
7.217304378396197
 20
2.870705161382218
 10
6.994872171695503
 20
2.920275394928109
 10
5.600099654144003
 20
2.960858870999444
 10
5.396408799076989
 20
2.994036553740647
 10
5.201547728599788
 20
3.021168602797149
 10
5.015215500987387
 20
3.044006959967288
 10
4.837132933137737
 20
3.064390952090649
 10
4.666582652243276
 20
3.082004976279435
 10
4.502525464680757
 20
3.096779431304149
 10
4.345596463192661
 20
3.109282434249704
  0
LWPOLYLINE
  5
E5A
330
1F
100
AcDbEntity
  8
1
100
AcDbPolyline
 90
        9
 70
     0
 43
0.0
 10
3.840773820166043
 20
4.942512264044276
 10
3.767214836929438
 20
4.948694337050534
 10
3.689010198652928
 20
4.966695913409234
 10
3.603913067167613
 20
4.997054192792202
 10
3.51867965651509
 20
5.037796568021136
 10
3.440396090057245
 20
5.087151668917537
 10
3.365818397638937
 20
5.145244606641033
 10
3.293952873976308
 20
5.2115786123315
 10
3.225132534544971
 20
5.286272294648584
  0
LWPOLYLINE
  5
E5B
330
1F
100
AcDbEntity
  8
1
100
AcDbPolyline
 90
        9
 70
     0
 43
0.0
 10
4.345596463192661
 20
3.109282434249704
 10
4.230191184896779
 20
3.117470888568619
 10
4.115939087597498
 20
3.12319226518172
 10
4.003200165584956
 20
3.126585687786053
 10
3.892057682080388
 20
3.127660124300798
 10
3.782434745012421
 20
3.126329903812937
 10
3.675533266242307
 20
3.122684129794643
 10
3.572459404173776
 20
3.11674009758643
 10
3.473449168515062
 20
3.108311207924868
  0
LWPOLYLINE
  5
E5C
330
1F
100
AcDbEntity
  8
1
100
AcDbPolyline
 90
        4
 70
     0
 43
0.0
 10
3.134272537540516
 20
3.06929014595668
 10
3.208407607805586
 20
3.078631303917158
 10
3.289531692998807
 20
3.087995803398615
 10
3.473447937956906
 20
3.108312831936444
  0
LWPOLYLINE
  5
E5D
330
1F
100
AcDbEntity
  8
1
100
AcDbPolyline
 90
        7
 70
     0
 43
0.0
 10
3.032394650392703
 20
5.571336003051631
 10
3.060255974822459
 20
5.521568306885836
 10
3.089819120669273
 20
5.472572153898871
 10
3.121081644385806
 20
5.424212291822723
 10
3.154051293611831
 20
5.376872016908005
 10
3.188735758020508
 20
5.330936305112321
 10
3.225132534544971
 20
5.286272294648584
  0
LWPOLYLINE
  5
E5E
330
1F
100
AcDbEntity
  8
1
100
AcDbPolyline
 90
        7
 70
     0
 43
0.0
 10
10.11005646124138
 20
1.254295787356084
 10
9.829361797403453
 20
1.486583688194774
 10
9.551334557742713
 20
1.70266476895414
 10
9.276433606321063
 20
1.902201139614519
 10
9.004761233517195
 20
2.085028268131146
 10
8.736440991138401
 20
2.251187494012489
 10
8.471993188562944
 20
2.40095793582077
  0
LWPOLYLINE
  5
E60
330
1F
100
AcDbEntity
  8
1
100
AcDbPolyline
 90
       13
 70
     0
 43
0.0
 10
14.08530967612728
 20
1.292713326563817
 10
14.19323073930994
 20
1.141565634862721
 10
14.30333019983221
 20
0.9821399217599674
 10
14.41726686503523
 20
0.8130739466813794
 10
14.5300643125379
 20
0.6384544313504437
 10
14.63834634527803
 20
0.4607881420781414
 10
14.73897109499957
 20
0.283452705362837
 10
14.8277320747432
 20
0.1104623473291183
 10
14.90444694403286
 20
-0.0575859641117386
 10
14.96720452439332
 20
-0.2186089384847493
 10
15.01698484262355
 20
-0.3730513173570596
 10
15.05417373676535
 20
-0.5206322012278805
 10
15.07864259413788
 20
-0.6614452234235461
  0
LINE
  5
E61
330
1F
100
AcDbEntity
  8
1
100
AcDbLine
 10
10.02289156626472
 20
5.999999999999957
 30
0.0
 11
15.26523221173083
 21
0.7576593544998797
 31
0.0
  0
LWPOLYLINE
  5
E63
330
1F
100
AcDbEntity
  8
1
100
AcDbPolyline
 90
        6
 70
     0
 43
0.0
 10
14.38594847701792
 20
-1.322197062810535
 10
14.44775115339752
 20
-1.271253553108377
 10
14.51190367638933
 20
-1.22023230705921
 10
14.57735656748139
 20
-1.169665411352232
 10
14.64451608342173
 20
-1.119526112105977
 10
14.71362294615716
 20
-1.069689086613933
  0
LWPOLYLINE
  5
E64
330
1F
100
AcDbEntity
  8
1
100
AcDbPolyline
 90
        9
 70
     0
 43
0.0
 10
14.4715911793408
 20
-0.8786904304058552
 10
14.45951487228729
 20
-0.8719389791594476
 10
14.4419250120231
 20
-0.8611371241465654
 10
14.41799860678356
 20
-0.8457720592134265
 10
14.39034863823222
 20
-0.8274803895459811
 10
14.36122921936394
 20
-0.8076959079614971
 10
14.33077041655716
 20
-0.7864584136193492
 10
14.29870758249836
 20
-0.7632671126495648
 10
14.26842027151232
 20
-0.741149107992218
  0
LINE
  5
E65
330
1F
100
AcDbEntity
  8
1
100
AcDbLine
 10
13.67613582094461
 20
-1.985626790301639
 30
0.0
 11
14.23185136422356
 21
-1.458440412863681
 31
0.0
  0
LWPOLYLINE
  5
E66
330
1F
100
AcDbEntity
  8
1
100
AcDbPolyline
 90
        4
 70
     0
 43
0.0
 10
12.15601449019962
 20
-3.452997408094399
 10
13.04961925844634
 20
-2.588958603452448
 10
13.36655275173203
 20
-2.283012712757631
 10
13.67613582094461
 20
-1.985626790301638
  0
LWPOLYLINE
  5
E68
330
1F
100
AcDbEntity
  8
1
100
AcDbPolyline
 90
        7
 70
     0
 43
0.0
 10
14.23185136422356
 20
-1.458440412863681
 10
14.26074914244428
 20
-1.431870218026103
 10
14.28836601488765
 20
-1.406928698110892
 10
14.31460451850993
 20
-1.383579881046695
 10
14.33958747438462
 20
-1.361744676347072
 10
14.36341284992198
 20
-1.341313631034152
 10
14.38594284998742
 20
-1.322188173892927
  0
LINE
  5
E69
330
1F
100
AcDbEntity
  8
1
100
AcDbLine
 10
11.74325110130322
 20
-0.5662325448346476
 30
0.0
 11
11.73149604974465
 21
-0.5934712138119754
 31
0.0
  0
LINE
  5
E6A
330
1F
100
AcDbEntity
  8
1
100
AcDbLine
 10
11.73149604974465
 20
-0.5934712138119754
 30
0.0
 11
11.70864843064106
 21
-0.6472605640308941
 31
0.0
  0
LINE
  5
E6B
330
1F
100
AcDbEntity
  8
1
100
AcDbLine
 10
11.70864843064106
 20
-0.6472605640308941
 30
0.0
 11
11.68579461058114
 21
-0.7021196289637987
 31
0.0
  0
LWPOLYLINE
  5
E6C
330
1F
100
AcDbEntity
  8
1
100
AcDbPolyline
 90
        5
 70
     0
 43
0.0
 10
11.77914839064876
 20
-0.4854972148799459
 10
11.78965759430744
 20
-0.4628856032134446
 10
11.8002953826795
 20
-0.440514822494402
 10
11.81106112375332
 20
-0.4184046310920066
 10
11.8338310127249
 20
-0.369410359199939
  0
LWPOLYLINE
  5
E6D
330
1F
100
AcDbEntity
  8
1
100
AcDbPolyline
 90
        7
 70
     0
 43
0.0
 10
11.68581719471622
 20
-0.7021029205763264
 10
11.64234285913634
 20
-0.7992194370795893
 10
11.59668809524623
 20
-0.8957328774611298
 10
11.54884791197114
 20
-0.9916731609194837
 10
11.49884319055239
 20
-1.086950529621125
 10
11.44669472426596
 20
-1.181475225493896
 10
11.39239738817745
 20
-1.27527716773596
  0
LWPOLYLINE
  5
E6E
330
1F
100
AcDbEntity
  8
1
100
AcDbPolyline
 90
        3
 70
     0
 43
0.0
 10
11.77893353719321
 20
-0.4853364095286485
 10
11.76696917160285
 20
-0.5121639004819723
 10
11.74325110130322
 20
-0.5662325448346479
  0
LWPOLYLINE
  5
E6F
330
1F
100
AcDbEntity
  8
1
100
AcDbPolyline
 90
       13
 70
     0
 43
0.0
 10
14.08132308819864
 20
-0.6041559628664439
 10
13.9546897190226
 20
-0.5064739285570467
 10
13.83470312513356
 20
-0.4147580934728607
 10
13.72130288930901
 20
-0.3289035551671622
 10
13.61372992239234
 20
-0.2484077291509096
 10
13.51153157239332
 20
-0.1729121240732209
 10
13.41410251481637
 20
-0.1020916806572885
 10
13.32080151165876
 20
-0.0355763000771554
 10
13.23144339345167
 20
0.0267451791556205
 10
13.14568696609732
 20
0.0850476069609968
 10
13.06344811552587
 20
0.1394698017870452
 10
12.98451617416296
 20
0.1901958756067872
 10
12.90899698362802
 20
0.2372368814514775
  0
LINE
  5
E70
330
1F
100
AcDbEntity
  8
1
100
AcDbLine
 10
14.19972005897826
 20
-0.6915071422090684
 30
0.0
 11
14.12852365258222
 21
-0.6385466154004165
 31
0.0
  0
LINE
  5
E71
330
1F
100
AcDbEntity
  8
1
100
AcDbLine
 10
13.13036917486466
 20
-0.7645114527094418
 30
0.0
 11
12.99428305215044
 21
-0.662974508312228
 31
0.0
  0
LWPOLYLINE
  5
E72
330
1F
100
AcDbEntity
  8
1
100
AcDbPolyline
 90
        3
 70
     0
 43
0.0
 10
14.12852365258222
 20
-0.6385466154004166
 10
14.10486305027655
 20
-0.6212117014073062
 10
14.08132308819864
 20
-0.6041559628664439
  0
LWPOLYLINE
  5
E73
330
1F
100
AcDbEntity
  8
1
100
AcDbPolyline
 90
        5
 70
     0
 43
0.0
 10
12.99428303242983
 20
-0.6629747500973062
 10
12.94018516554994
 20
-0.6238813756318736
 10
12.88787114211286
 20
-0.5869011832308093
 10
12.83730200508345
 20
-0.5519840033908721
 10
12.78843860727323
 20
-0.5190815393367949
  0
LWPOLYLINE
  5
E74
330
1F
100
AcDbEntity
  8
1
100
AcDbPolyline
 90
        3
 70
     0
 43
0.0
 10
14.26842027151232
 20
-0.741149107992218
 10
14.22295138929933
 20
-0.7085793081504113
 10
14.19972005897826
 20
-0.6915071422090684
  0
LWPOLYLINE
  5
E75
330
1F
100
AcDbEntity
  8
1
100
AcDbPolyline
 90
       14
 70
     0
 43
0.0
 10
11.54114702852055
 20
0.3627048818950014
 10
11.60960734019669
 20
0.3136488589590924
 10
11.67108057552778
 20
0.2616886605281441
 10
11.72499272518743
 20
0.2071819299720778
 10
11.77110025783719
 20
0.1501756658602809
 10
11.80893839410706
 20
0.0917240778274284
 10
11.83810585804534
 20
0.032827600742113
 10
11.85912138999708
 20
-0.0261420781744086
 10
11.87232816734259
 20
-0.0843990689137016
 10
11.87823643436535
 20
-0.1422399058525672
 10
11.87731329828814
 20
-0.1998349573416376
 10
11.86956980604729
 20
-0.2569770011546554
 10
11.85451864565006
 20
-0.3130989554718673
 10
11.8338310127249
 20
-0.369410359199939
  0
LWPOLYLINE
  5
E76
330
1F
100
AcDbEntity
  8
1
100
AcDbPolyline
 90
       17
 70
     0
 43
0.0
 10
12.90899698362802
 20
0.2372368814514775
 10
12.83927398622646
 20
0.2792685644588644
 10
12.7724363675932
 20
0.3181674646149737
 10
12.7085378103461
 20
0.3539643232828011
 10
12.64757686903323
 20
0.3866976510978767
 10
12.58954949844622
 20
0.4164115967208916
 10
12.53452193251288
 20
0.4430945982129657
 10
12.48250471643188
 20
0.4667704296309045
 10
12.43364351560297
 20
0.4873230036683713
 10
12.38798988151716
 20
0.5046405420048471
 10
12.34573260683383
 20
0.5185193043334567
 10
12.30706178014648
 20
0.5287576291258561
 10
12.27197055701407
 20
0.5351259851509253
 10
12.24065341294078
 20
0.5374802424578737
 10
12.21259523567234
 20
0.5351994827894588
 10
12.18723172302079
 20
0.5332077001363835
 10
11.94580636018706
 20
0.5086803439210119
  0
LWPOLYLINE
  5
E77
330
1F
100
AcDbEntity
  8
1
100
AcDbPolyline
 90
        5
 70
     0
 43
0.0
 10
13.74375069834979
 20
-1.205284573657774
 10
13.62989350011573
 20
-1.12841892060716
 10
13.51100353736667
 20
-1.04522772159029
 10
13.38955651880668
 20
-0.9565091932318782
 10
13.13036917486466
 20
-0.7645114527094421
  0
LWPOLYLINE
  5
E78
330
1F
100
AcDbEntity
  8
1
100
AcDbPolyline
 90
        8
 70
     0
 43
0.0
 10
12.78843860727323
 20
-0.5190815393367949
 10
12.76756076288973
 20
-0.5052267961966681
 10
12.74660762761838
 20
-0.4915074835257349
 10
12.72554165963766
 20
-0.4778876116838073
 10
12.70451600498307
 20
-0.4644881320037995
 10
12.68366480201456
 20
-0.451397767292466
 10
12.66298087904974
 20
-0.4386613861880186
 10
12.64225903096863
 20
-0.4262651378601936
  0
LWPOLYLINE
  5
E79
330
1F
100
AcDbEntity
  8
1
100
AcDbPolyline
 90
        7
 70
     0
 43
0.0
 10
11.16618983863334
 20
0.5935115874950064
 10
11.21589276114318
 20
0.5615039328983414
 10
11.26571000507956
 20
0.5299158628685021
 10
11.31566295844057
 20
0.4987726695806633
 10
11.36567584162901
 20
0.4681602088424615
 10
11.41567298847028
 20
0.4381612543287628
 10
11.46567668406561
 20
0.4087981517359613
  0
LINE
  5
E7A
330
1F
100
AcDbEntity
  8
1
100
AcDbLine
 10
11.46568443266126
 20
0.4087932941629654
 30
0.0
 11
11.54114702852055
 21
0.3627048818950014
 31
0.0
  0
LWPOLYLINE
  5
E7B
330
1F
100
AcDbEntity
  8
1
100
AcDbPolyline
 90
       17
 70
     0
 43
0.0
 10
12.64225903096863
 20
-0.4262651378601936
 10
12.60382028961358
 20
-0.4036162021340385
 10
12.58600757129068
 20
-0.3933577589840465
 10
12.56801520607044
 20
-0.3834511054476821
 10
12.55009309225841
 20
-0.3739583918785066
 10
12.53222485157595
 20
-0.3648492040346702
 10
12.51444109774082
 20
-0.3561626303017432
 10
12.49713940475175
 20
-0.3480945094071867
 10
12.47919611185934
 20
-0.3401404645687221
 10
12.45904239006649
 20
-0.3315590676953397
 10
12.43860448071127
 20
-0.3233559651219604
 10
12.41917076494851
 20
-0.3162398458312709
 10
12.40079893044622
 20
-0.3102051372934518
 10
12.38374091640106
 20
-0.3054939286225902
 10
12.36861988490212
 20
-0.3020257677821093
 10
12.35623162862839
 20
-0.2998067544964354
 10
12.34623946313838
 20
-0.2987974267663241
  0
LINE
  5
E7C
330
1F
100
AcDbEntity
  8
1
100
AcDbLine
 10
11.85645082380914
 20
-0.454157704553175
 30
0.0
 11
11.77893353719321
 21
-0.4853364095286485
 31
0.0
  0
LWPOLYLINE
  5
E7D
330
1F
100
AcDbEntity
  8
1
100
AcDbPolyline
 90
        3
 70
     0
 43
0.0
 10
12.00298212447031
 20
-0.3933594908010105
 10
11.93099300585444
 20
-0.4235146165917524
 10
11.85645082380914
 20
-0.454157704553175
  0
LWPOLYLINE
  5
E7E
330
1F
100
AcDbEntity
  8
1
100
AcDbPolyline
 90
        7
 70
     0
 43
0.0
 10
14.23185136422356
 20
-1.458440412863681
 10
14.15531220622066
 20
-1.429312385945098
 10
14.07586548510256
 20
-1.394537813156535
 10
13.99474150771462
 20
-1.354332673813906
 10
13.91218466401356
 20
-1.309138594843281
 10
13.82825934710945
 20
-1.259388112745961
 10
13.74375069834979
 20
-1.205284573657774
  0
LWPOLYLINE
  5
E7F
330
1F
100
AcDbEntity
  8
1
100
AcDbPolyline
 90
        5
 70
     0
 43
0.0
 10
12.34623946313838
 20
-0.2987974267663241
 10
12.27879286478853
 20
-0.3016177020086087
 10
12.21116010281839
 20
-0.313715338854893
 10
12.142618032056
 20
-0.3364499648558334
 10
12.00298212447031
 20
-0.3933594908010105
  0
LWPOLYLINE
  5
E80
330
1F
100
AcDbEntity
  8
1
100
AcDbPolyline
 90
        5
 70
     0
 43
0.0
 10
11.94580636018706
 20
0.5086803439210119
 10
11.89766929927911
 20
0.5041961409446353
 10
11.84878517476443
 20
0.4970725333686069
 10
11.79885891086453
 20
0.4880125225504349
 10
11.74791355281538
 20
0.4771294092318707
  0
LWPOLYLINE
  5
E81
330
1F
100
AcDbEntity
  8
1
100
AcDbPolyline
 90
        4
 70
     0
 43
0.0
 10
11.74791355281538
 20
0.4771294092318707
 10
11.64092289515756
 20
0.4525095253571628
 10
11.58447611725295
 20
0.4390727848423474
 10
11.52606326598369
 20
0.4244655505408021
  0
LINE
  5
E82
330
1F
100
AcDbEntity
  8
1
100
AcDbLine
 10
11.52606326598369
 20
0.4244655505408022
 30
0.0
 11
11.4657043706661
 21
0.4087490320790783
 31
0.0
  0
LINE
  5
E85
330
1F
100
AcDbEntity
  8
1
100
AcDbLine
 10
15.49999286793837
 20
0.0941453438978637
 30
0.0
 11
15.26523221171224
 21
0.7576593545524393
 31
0.0
  0
LINE
  5
E86
330
1F
100
AcDbEntity
  8
1
100
AcDbLine
 10
15.47586506028522
 20
0.030053366012473
 30
0.0
 11
15.50000006651186
 21
0.09414246148052
 31
0.0
  0
LINE
  5
E88
330
1F
100
AcDbEntity
  8
1
100
AcDbLine
 10
15.50000006651186
 20
0.09414246148052
 30
0.0
 11
15.49999993348811
 21
-0.0941424614805534
 31
0.0
  0
LINE
  5
E89
330
1F
100
AcDbEntity
  8
1
100
AcDbLine
 10
15.37485950710177
 20
-0.1722615280443856
 30
0.0
 11
15.39922472497545
 21
-0.1314675403700629
 31
0.0
  0
LINE
  5
E8A
330
1F
100
AcDbEntity
  8
1
100
AcDbLine
 10
15.39922472497545
 20
-0.1314675403700629
 30
0.0
 11
15.42533511765392
 21
-0.0826304913947607
 31
0.0
  0
LWPOLYLINE
  5
E8B
330
1F
100
AcDbEntity
  8
1
100
AcDbPolyline
 90
        7
 70
     0
 43
0.0
 10
15.07866896149788
 20
-0.6614430119806434
 10
15.05787791579958
 20
-0.7026743367189923
 10
15.03730609002992
 20
-0.742949426642821
 10
15.01694711853692
 20
-0.7822821475219934
 10
14.99682009779862
 20
-0.8206309018081478
 10
14.97694412429296
 20
-0.8579540914756233
 10
14.95731283248779
 20
-0.8942655825329847
  0
LINE
  5
E8C
330
1F
100
AcDbEntity
  8
1
100
AcDbLine
 10
15.42533511765392
 20
-0.0826304913947607
 30
0.0
 11
15.45102416801356
 21
-0.0289113327054963
 31
0.0
  0
LINE
  5
E8D
330
1F
100
AcDbEntity
  8
1
100
AcDbLine
 10
15.45102416801356
 20
-0.0289113327054963
 30
0.0
 11
15.47586506028522
 21
0.030053366012473
 31
0.0
  0
LINE
  5
E8E
330
1F
100
AcDbEntity
  8
1
100
AcDbLine
 10
15.07864259413788
 20
-0.661445223423546
 30
0.0
 11
15.37485950710177
 21
-0.1722615280443856
 31
0.0
  0
LWPOLYLINE
  5
E8F
330
1F
100
AcDbEntity
  8
1
100
AcDbPolyline
 90
        9
 70
     0
 43
0.0
 10
14.71362294615716
 20
-1.069689086613933
 10
14.80394259203655
 20
-1.006409088576448
 10
14.82469759574557
 20
-0.991753862270894
 10
14.84587830370508
 20
-0.9766055388202769
 10
14.86745038124151
 20
-0.9609946470842691
 10
14.88938092718081
 20
-0.944948662475131
 10
14.91167677592478
 20
-0.9284667635451146
 10
14.93433300536103
 20
-0.9115585011025959
 10
14.95735171888763
 20
-0.8942204002795975
  0
LWPOLYLINE
  5
E90
330
1F
100
AcDbEntity
  8
1
100
AcDbPolyline
 90
        7
 70
     0
 43
0.0
 10
14.7834605421474
 20
-1.020677330303543
 10
14.73142457356136
 20
-1.000927643537275
 10
14.67953675969742
 20
-0.9796492399517548
 10
14.62776359963957
 20
-0.9568783336424472
 10
14.57593720706886
 20
-0.9325050626408843
 10
14.52389156373401
 20
-0.9064249932511474
 10
14.4715911793408
 20
-0.8786904304058552
  0
LWPOLYLINE
  5
E95
330
1F
100
AcDbEntity
  8
1
100
AcDbPolyline
 90
        5
 70
     0
 43
0.0
 10
13.45035150264288
 20
2.480590562937836
 10
13.4593042678033
 20
2.439954853584658
 10
13.48005263515172
 20
2.360944286062594
 10
13.50364383952777
 20
2.284194569964272
 10
13.53007788093116
 20
2.209705705170158
  0
LWPOLYLINE
  5
E96
330
1F
100
AcDbEntity
  8
1
100
AcDbPolyline
 90
        7
 70
     0
 43
0.0
 10
13.52966307314307
 20
2.209578296873189
 10
13.59314379891467
 20
2.061281678189823
 10
13.6699319399538
 20
1.912618390968711
 10
13.76177326602597
 20
1.763613646471265
 10
13.86361860720763
 20
1.611744561613444
 10
13.97067328161356
 20
1.454717215277061
 10
14.08540547571864
 20
1.292770827903662
  0
LINE
  5
E9C
330
1F
100
AcDbEntity
  8
1
100
AcDbLine
 10
2.39108459769668
 20
6.101555405652872
 30
0.0
 11
2.313051357665935
 21
5.966387759739812
 31
0.0
  0
LINE
  5
EA8
330
1F
100
AcDbEntity
  8
1
100
AcDbLine
 10
2.39108459769668
 20
6.101555405652872
 30
0.0
 11
10.02289156626472
 21
5.999999999999957
 31
0.0
  0
TEXT
  5
EAF
330
1F
100
AcDbEntity
  8
6
100
AcDbText
 10
39.41349228665803
 20
-4.851159876397815
 30
0.0
 40
3.5
  1
Z=2
 50
90.0
100
AcDbText
  0
LWPOLYLINE
  5
FFC
330
1F
100
AcDbEntity
  8
CUT
100
AcDbPolyline
 90
        6
 70
     1
 43
0.0
 10
15.26523221171224
 20
0.757659354552438
 10
10.02289156626472
 20
5.999999999999957
 10
3.5
 20
6.086799220914514
 10
3.5
 20
-0.0000004863075259
 10
15.49999999999835
 20
-0.0000022419798136
 10
15.50000006651186
 20
0.09414246148052
  0
LWPOLYLINE
  5
10BE
330
1F
100
AcDbEntity
  8
NOCUT
100
AcDbPolyline
 90
        9
 70
     1
 43
0.0
 10
2.39108459769668
 20
6.101555405652872
 10
3.5
 20
6.086799220914514
 10
3.5
 20
-0.0000004863075259
 10
0.0000000000002274
 20
0.0000000000000853
 10
0.0000000000002274
 20
5.613041851766852
 10
1.841348382830261
 20
5.612996697779321
 42
0.1983121443529956
 10
2.046168659730206
 20
5.697559108771931
 42
0.1392037222590473
 10
2.313051357665935
 20
5.966387759739812
 10
2.391084597696683
 20
6.101555405652872
  0
LINE
  5
1404
330
1F
100
AcDbEntity
  8
1
100
AcDbLine
 10
10.02289156626472
 20
-6.000002241979687
 30
0.0
 11
15.26523221171224
 21
-0.7576615965321613
 31
0.0
  0
LINE
  5
1405
330
1F
100
AcDbEntity
  8
1
100
AcDbLine
 10
15.49999286793837
 20
-0.0941475858775921
 30
0.0
 11
15.26523221171224
 21
-0.75766159653217
 31
0.0
  0
LINE
  5
17F0
330
1F
100
AcDbEntity
  8
1
100
AcDbLine
 10
2.406157925056023
 20
-6.101357068938611
 30
0.0
 11
10.02289156626472
 21
-6.000002241979687
 31
0.0
  0
LINE
  5
1B9B
330
1F
100
AcDbEntity
  8
SK4
100
AcDbLine
 10
0.0000000000002274
 20
-0.0000011208761031
 30
0.0
 11
-9.036977284700979
 21
-0.0000011208761102
 31
0.0
  0
ARC
  5
1B9C
330
1F
100
AcDbEntity
  8
SK1
100
AcDbCircle
 10
-1.59925420969975
 20
4.210015945873916
 30
0.0
 40
0.1000102025
100
AcDbArc
 50
269.7640915652003
 51
355.5312699432001
  0
LINE
  5
1B9D
330
1F
100
AcDbEntity
  8
1
100
AcDbLine
 10
-2.213229040584365
 20
-0.0000011208761102
 30
0.0
 11
2.213229040584593
 21
-0.0000011208761102
 31
0.0
  0
CIRCLE
  5
1B9E
330
1F
100
AcDbEntity
  8
1
100
AcDbCircle
 10
0.000000000000199
 20
-0.0000011208761102
 30
0.0
 40
2.213229040584451
  0
HATCH
  5
1B9F
330
1F
100
AcDbEntity
  8
1
100
AcDbHatch
 10
0.0
 20
0.0
 30
0.0
210
0.0
220
0.0
230
1.0
  2
SOLID
 70
     1
 71
     0
 91
        2
 92
        7
 72
     1
 73
     1
 93
        3
 10
0.000000000000199
 20
-0.0000011208761102
 42
0.0
 10
2.213229040584678
 20
-0.0000011208761102
 42
0.4142135623730966
 10
0.000000000000199
 20
2.213227919708326
 42
0.0
 97
        0
 92
        7
 72
     1
 73
     1
 93
        3
 10
0.000000000000199
 20
-2.213230161460546
 42
0.0
 10
0.000000000000199
 20
-0.0000011208761102
 42
0.0
 10
-2.21322904058428
 20
-0.0000011208761102
 42
0.4142135623730953
 97
        0
 75
     0
 76
     1
 47
0.1190009775223266
 98
        2
 10
0.5584147941092114
 20
0.6909172341562419
 10
-0.9595984513894395
 20
-1.272598813160872
  0
LINE
  5
1BA0
330
1F
100
AcDbEntity
  8
SK1
100
AcDbLine
 10
-0.000007824499761
 20
4.341002557273904
 30
0.0
 11
-1.500007669899758
 21
4.2623912796739
 31
0.0
  0
ARC
  5
1BA1
330
1F
100
AcDbEntity
  8
SK1
100
AcDbCircle
 10
-1.599327078699743
 20
-4.210013096626086
 30
0.0
 40
0.1000090827
100
AcDbArc
 50
4.039132533600112
 51
90.21289997290072
  0
LINE
  5
1BA2
330
1F
100
AcDbEntity
  8
SK1
100
AcDbLine
 10
0.0000084235002476
 20
-4.341000420426101
 30
0.0
 11
-1.499991927599764
 21
-4.262398765526073
 31
0.0
  0
LWPOLYLINE
  5
1BA3
330
1F
100
AcDbEntity
  8
1
100
AcDbPolyline
 90
        3
 70
     1
 43
0.0
 10
0.000000000000199
 20
-0.0000011208761102
 10
-2.21322904058428
 20
-0.0000011208761102
 42
0.4142135623730966
 10
0.000000000000199
 20
-2.213230161460588
  0
LINE
  5
1BA4
330
1F
100
AcDbEntity
  8
SK1
100
AcDbLine
 10
-4.846426923799754
 20
1.64744133557391
 30
0.0
 11
-4.798138937699746
 21
1.005191668373906
 31
0.0
  0
LINE
  5
1BA5
330
1F
100
AcDbEntity
  8
SK1
100
AcDbLine
 10
-3.629662655499756
 20
1.005235775473901
 30
0.0
 11
-3.677425111199752
 21
1.647467483673916
 31
0.0
  0
LINE
  5
1BA6
330
1F
100
AcDbEntity
  8
SK1
100
AcDbLine
 10
-2.989967347699745
 20
1.330819729873903
 30
0.0
 11
-2.941837158099758
 21
0.6725671139739085
 31
0.0
  0
LWPOLYLINE
  5
1BA7
330
1F
100
AcDbEntity
  8
SK1
100
AcDbPolyline
 90
        3
 70
     0
 43
0.0
 10
-1.633727949199765
 20
-1.329087752726084
 10
-1.729730589299761
 20
0.0048101226739127
 10
-1.826319812099753
 20
1.338115282773921
  0
LINE
  5
1BA8
330
1F
100
AcDbEntity
  8
SK1
100
AcDbLine
 10
-6.671750468299761
 20
1.626658129673909
 30
0.0
 11
-6.623857747099746
 21
0.9881130871739108
 31
0.0
  0
LINE
  5
1BA9
330
1F
100
AcDbEntity
  8
SK1
100
AcDbLine
 10
-7.257220887899745
 20
0.5443080670739099
 30
0.0
 11
-7.324322854299763
 21
1.467254957173903
 31
0.0
  0
LINE
  5
1BAA
330
1F
100
AcDbEntity
  8
SK1
100
AcDbLine
 10
-5.341471934599749
 20
-0.68027431922609
 30
0.0
 11
-5.486670879799758
 21
1.330962004573899
 31
0.0
  0
LINE
  5
1BAB
330
1F
100
AcDbEntity
  8
SK1
100
AcDbLine
 10
-7.939999999999754
 20
-3.512717794926078
 30
0.0
 11
-7.939999999999754
 21
3.266686775473908
 31
0.0
  0
LINE
  5
1BAC
330
1F
100
AcDbEntity
  8
SK1
100
AcDbLine
 10
-1.499999999999756
 20
-4.262307421526077
 30
0.0
 11
-1.499999999999756
 21
4.262305192673916
 31
0.0
  0
LINE
  5
1BAD
330
1F
100
AcDbEntity
  8
SK1
100
AcDbLine
 10
-7.939999999999754
 20
-3.512721804926089
 30
0.0
 11
-7.541138468499767
 21
-3.619150121826082
 31
0.0
  0
LWPOLYLINE
  5
1BAE
330
1F
100
AcDbEntity
  8
SK1
100
AcDbPolyline
 90
       14
 70
     0
 43
0.0
 10
-7.541138468499767
 20
-3.619150121826082
 10
-7.55397436449975
 20
-3.612213670826082
 10
-7.579778160899762
 20
-3.577170453426095
 10
-7.605636486699764
 20
-3.514037285126081
 10
-7.631498682199747
 20
-3.423136855226093
 10
-7.657311551999753
 20
-3.305379221826089
 10
-7.68310752469975
 20
-3.161860838726102
 10
-7.708936428099759
 20
-2.993448438626092
 10
-7.734694942199751
 20
-2.802027028026078
 10
-7.760237936299744
 20
-2.590434639526095
 10
-7.785748274599752
 20
-2.359265650726089
 10
-7.811386566899741
 20
-2.108808532326083
 10
-7.83707724439975
 20
-1.841484796426074
 10
-7.862804987399753
 20
-1.55936100592608
  0
LWPOLYLINE
  5
1BAF
330
1F
100
AcDbEntity
  8
SK1
100
AcDbPolyline
 90
        3
 70
     0
 43
0.0
 10
-7.862804987399753
 20
-1.55936100592608
 10
-7.914281497699746
 20
-0.9607620028260903
 10
-7.940012497999759
 20
-0.6491580360260977
  0
LINE
  5
1BB0
330
1F
100
AcDbEntity
  8
SK1
100
AcDbLine
 10
-4.652364136699758
 20
-1.012709763826084
 30
0.0
 11
-4.604311814799754
 21
-1.654398218926079
 31
0.0
  0
LINE
  5
1BB1
330
1F
100
AcDbEntity
  8
SK1
100
AcDbLine
 10
-4.267019375199749
 20
-4.11000412172608
 30
0.0
 11
-4.931532390099759
 21
-4.11000412172608
 31
0.0
  0
LWPOLYLINE
  5
1BB2
330
1F
100
AcDbEntity
  8
SK1
100
AcDbPolyline
 90
        4
 70
     0
 43
0.0
 10
-5.880202905917934
 20
-3.702986938065643
 10
-5.876702079399748
 20
-3.697702036026089
 10
-5.863960594699745
 20
-3.682550813726098
 10
-5.845222456299749
 20
-3.665423433226083
  0
LINE
  5
1BB3
330
1F
100
AcDbEntity
  8
SK1
100
AcDbLine
 10
-5.150106799121078
 20
-3.702677220600211
 30
0.0
 11
-5.08972652289975
 21
-3.893983992426089
 31
0.0
  0
LWPOLYLINE
  5
1BB4
330
1F
100
AcDbEntity
  8
SK1
100
AcDbPolyline
 90
        3
 70
     0
 43
0.0
 10
-4.798138937699746
 20
1.005191668373906
 10
-4.724934207299752
 20
-0.003893041626089
 10
-4.652364136699758
 20
-1.012709763826084
  0
LINE
  5
1BB5
330
1F
100
AcDbEntity
  8
SK1
100
AcDbLine
 10
-7.074469668699747
 20
-1.959324120626081
 30
0.0
 11
-7.122300485299744
 21
-1.338090277626083
 31
0.0
  0
LINE
  5
1BB6
330
1F
100
AcDbEntity
  8
SK1
100
AcDbLine
 10
-6.481245879599753
 20
-1.015102697226087
 30
0.0
 11
-6.433188613499764
 21
-1.654376654826083
 31
0.0
  0
LINE
  5
1BB7
330
1F
100
AcDbEntity
  8
SK1
100
AcDbLine
 10
-7.122303314999754
 20
-1.338090638226079
 30
0.0
 11
-7.167163842199753
 21
-0.7228925587260912
 31
0.0
  0
LINE
  5
1BB8
330
1F
100
AcDbEntity
  8
SK1
100
AcDbLine
 10
-7.167163842199753
 20
-0.7228925587260912
 30
0.0
 11
-7.257220887899745
 21
0.5443080670739099
 31
0.0
  0
LWPOLYLINE
  5
1BB9
330
1F
100
AcDbEntity
  8
SK1
100
AcDbPolyline
 90
        3
 70
     0
 43
0.0
 10
-6.623857747099746
 20
0.9881130871739108
 10
-6.552525032899748
 20
-0.0139208211260958
 10
-6.481245879599753
 20
-1.015102697226087
  0
LINE
  5
1BBA
330
1F
100
AcDbEntity
  8
SK1
100
AcDbLine
 10
-5.293127213999753
 20
-1.338088969726074
 30
0.0
 11
-5.341471934599749
 21
-0.68027431922609
 31
0.0
  0
LINE
  5
1BBB
330
1F
100
AcDbEntity
  8
SK1
100
AcDbLine
 10
-5.245244840699752
 20
-1.959351211526086
 30
0.0
 11
-5.293118823499766
 21
-1.338090277626083
 31
0.0
  0
LWPOLYLINE
  5
1BBC
330
1F
100
AcDbEntity
  8
SK1
100
AcDbPolyline
 90
       24
 70
     0
 43
0.0
 10
-5.222708185799759
 20
-3.641574263726102
 10
-5.216954661799761
 20
-3.644495311026093
 10
-5.211419168799748
 20
-3.647521630226098
 10
-5.206117288299763
 20
-3.650630619826076
 10
-5.201065714199756
 20
-3.653796698226076
 10
-5.19627143139975
 20
-3.656998311426081
 10
-5.191749764099752
 20
-3.660206551626091
 10
-5.187484199599751
 20
-3.663414069026078
 10
-5.183461206799759
 20
-3.666612315226091
 10
-5.179683927399763
 20
-3.669779962826086
 10
-5.176150223999752
 20
-3.672899519726076
 10
-5.172858547899749
 20
-3.675952833826076
 10
-5.169807149299755
 20
-3.678921670726086
 10
-5.166990955299749
 20
-3.681790944726077
 10
-5.164406459199766
 20
-3.684544122926101
 10
-5.162044906999751
 20
-3.687170579926078
 10
-5.159899745199751
 20
-3.689657979226086
 10
-5.157960410299749
 20
-3.691999395226093
 10
-5.156218176699766
 20
-3.694186802126099
 10
-5.154661959599748
 20
-3.696216231426081
 10
-5.153283544099762
 20
-3.698081174226093
 10
-5.152067520799762
 20
-3.699786267826086
 10
-5.150999855599748
 20
-3.701336252626093
 10
-5.150071842799746
 20
-3.702729709226094
  0
LINE
  5
1BBD
330
1F
100
AcDbEntity
  8
SK1
100
AcDbLine
 10
-4.931497483799744
 20
-4.11000412172608
 30
0.0
 11
-4.941953778499764
 21
-4.107360512826094
 31
0.0
  0
LWPOLYLINE
  5
1BBE
330
1F
100
AcDbEntity
  8
SK1
100
AcDbPolyline
 90
        9
 70
     0
 43
0.0
 10
-5.089834320799766
 20
-3.89377782792609
 10
-5.081960385799758
 20
-3.91768474252608
 10
-5.071265192299759
 20
-3.946663486326076
 10
-5.059475168999752
 20
-3.974317100626083
 10
-5.046027366099749
 20
-4.001033918526093
 10
-5.029644335799758
 20
-4.027822623626096
 10
-5.008483315399756
 20
-4.055155974226084
 10
-4.980583617299755
 20
-4.082032125426097
 10
-4.941828124299759
 20
-4.107360192926097
  0
LINE
  5
1BBF
330
1F
100
AcDbEntity
  8
SK1
100
AcDbLine
 10
-5.940097619199759
 20
-3.893607834226091
 30
0.0
 11
-5.880202905999763
 21
-3.70298693832608
 31
0.0
  0
LINE
  5
1BC0
330
1F
100
AcDbEntity
  8
SK1
100
AcDbLine
 10
-6.761885590499757
 20
-4.11000412172608
 30
0.0
 11
-6.772163529599749
 21
-4.107426151226095
 31
0.0
  0
LINE
  5
1BC1
330
1F
100
AcDbEntity
  8
SK1
100
AcDbLine
 10
-7.535093888199752
 20
-3.619985747426087
 30
0.0
 11
-7.541138468499767
 21
-3.619150121826082
 31
0.0
  0
LINE
  5
1BC2
330
1F
100
AcDbEntity
  8
SK1
100
AcDbLine
 10
-6.980802051199744
 20
-3.701757450226086
 30
0.0
 11
-6.979949514299759
 21
-3.703054029526087
 31
0.0
  0
LWPOLYLINE
  5
1BC3
330
1F
100
AcDbEntity
  8
SK1
100
AcDbPolyline
 90
        9
 70
     0
 43
0.0
 10
-6.919369653099749
 20
-3.895059057326083
 10
-6.91134369549975
 20
-3.919282051726086
 10
-6.900444510299749
 20
-3.948578326026096
 10
-6.888371542099746
 20
-3.976596101726091
 10
-6.874502570599758
 20
-4.003754520026081
 10
-6.857433633699754
 20
-4.031091412426081
 10
-6.834591885399746
 20
-4.059599239226091
 10
-6.805350299299758
 20
-4.086370945626073
 10
-6.77235572799975
 20
-4.10732785222608
  0
LINE
  5
1BC4
330
1F
100
AcDbEntity
  8
SK1
100
AcDbLine
 10
-6.979973502148584
 20
-3.703017547646846
 30
0.0
 11
-6.919667898599739
 21
-3.894090863826081
 31
0.0
  0
LINE
  5
1BC5
330
1F
100
AcDbEntity
  8
SK1
100
AcDbLine
 10
-6.097125248999758
 20
-4.11000412172608
 30
0.0
 11
-6.761776604599745
 21
-4.11000412172608
 31
0.0
  0
LINE
  5
1BC6
330
1F
100
AcDbEntity
  8
SK1
100
AcDbLine
 10
-5.713424979299758
 20
-3.620186086426076
 30
0.0
 11
-5.317347187599763
 21
-3.619905803826075
 31
0.0
  0
LWPOLYLINE
  5
1BC7
330
1F
100
AcDbEntity
  8
SK1
100
AcDbPolyline
 90
       36
 70
     0
 43
0.0
 10
-7.535122264899753
 20
-3.620560095526076
 10
-7.146226649599752
 20
-3.620056803326081
 10
-7.139233035399755
 20
-3.62015384172608
 10
-7.133272124099759
 20
-3.620389931426077
 10
-7.127599898199759
 20
-3.620786928026081
 10
-7.121517601199754
 20
-3.621417879826086
 10
-7.11515564369975
 20
-3.622286304226083
 10
-7.108300111799762
 20
-3.623436458926081
 10
-7.101297061699766
 20
-3.624835202126096
 10
-7.094436650799763
 20
-3.626432495326088
 10
-7.087660125199746
 20
-3.628240043326088
 10
-7.081016566499753
 20
-3.630244239226089
 10
-7.074469159999764
 20
-3.63245562482608
 10
-7.06798691159976
 20
-3.634885043426082
 10
-7.061604145199749
 20
-3.637519169426087
 10
-7.055331578399758
 20
-3.640351720026091
 10
-7.049206552499753
 20
-3.643362281326079
 10
-7.043257832199754
 20
-3.64653022152608
 10
-7.037513233099757
 20
-3.649831603026073
 10
-7.032000455899759
 20
-3.653238526726088
 10
-7.02673727689975
 20
-3.656725510726078
 10
-7.021750203299759
 20
-3.660257721226091
 10
-7.017029142799742
 20
-3.663823571126089
 10
-7.01256484759976
 20
-3.667410789426087
 10
-7.008374472799745
 20
-3.670984922726095
 10
-7.004466449099765
 20
-3.67451579402608
 10
-7.000846944999763
 20
-3.677973092426087
 10
-6.997522871799757
 20
-3.68132361022609
 10
-6.994490124999755
 20
-3.684543621926098
 10
-6.991748104499748
 20
-3.68760508662608
 10
-6.989286497399759
 20
-3.690490437326078
 10
-6.987098811099739
 20
-3.69317821942609
 10
-6.985170014799763
 20
-3.69565824172608
 10
-6.983489202999749
 20
-3.69791666232608
 10
-6.982038322899754
 20
-3.699950987026087
 10
-6.980802051199744
 20
-3.701757450226086
  0
LINE
  5
1BC8
330
1F
100
AcDbEntity
  8
SK1
100
AcDbLine
 10
-6.097153337299758
 20
-4.11000412172608
 30
0.0
 11
-6.086366867999755
 21
-4.107203104126088
 31
0.0
  0
LINE
  5
1BC9
330
1F
100
AcDbEntity
  8
SK1
100
AcDbLine
 10
-5.845222456299749
 20
-3.665423433226083
 30
0.0
 11
-5.820890780399749
 21
-3.648843505026081
 31
0.0
  0
LWPOLYLINE
  5
1BCA
330
1F
100
AcDbEntity
  8
SK1
100
AcDbPolyline
 90
        9
 70
     0
 43
0.0
 10
-6.08656447289975
 20
-4.107202585626087
 10
-6.050510161399755
 20
-4.083508082426081
 10
-6.023283925799758
 20
-4.057614119626098
 10
-6.002594605299747
 20
-4.031473219626096
 10
-5.986569492899745
 20
-4.005999985626078
 10
-5.973392018299762
 20
-3.980660288326081
 10
-5.961753754699754
 20
-3.954305435626084
 10
-5.951161612899753
 20
-3.926608484726076
 10
-5.940213460199742
 20
-3.893885250126091
  0
LWPOLYLINE
  5
1BCB
330
1F
100
AcDbEntity
  8
SK1
100
AcDbPolyline
 90
        6
 70
     0
 43
0.0
 10
-5.820890780399749
 20
-3.648843505026081
 10
-5.794682251099741
 20
-3.636000682026096
 10
-5.77259343039975
 20
-3.628386156526078
 10
-5.752287591099744
 20
-3.623667677826094
 10
-5.732246012699746
 20
-3.620978858326086
 10
-5.713424979299758
 20
-3.620186086426076
  0
LWPOLYLINE
  5
1BCC
330
1F
100
AcDbEntity
  8
SK1
100
AcDbPolyline
 90
       16
 70
     0
 43
0.0
 10
-5.317365742099752
 20
-3.619925646626088
 10
-5.314437720599754
 20
-3.619940058826076
 10
-5.307630279399743
 20
-3.620106141026086
 10
-5.301323479099763
 20
-3.62044632972608
 10
-5.295101848599741
 20
-3.620979807926093
 10
-5.288405957099753
 20
-3.621773757926096
 10
-5.281538576199749
 20
-3.62281324562608
 10
-5.274588209999761
 20
-3.62409086982608
 10
-5.267638354899758
 20
-3.625600035026084
 10
-5.260799285099763
 20
-3.627318511926093
 10
-5.25407388479975
 20
-3.629242579426093
 10
-5.24750323799975
 20
-3.631356046626083
 10
-5.241076611299744
 20
-3.633655629526091
 10
-5.234787319999766
 20
-3.636136387526081
 10
-5.228660165399744
 20
-3.638780827026098
 10
-5.222708185799759
 20
-3.641574263726102
  0
LWPOLYLINE
  5
1BCD
330
1F
100
AcDbEntity
  8
SK1
100
AcDbPolyline
 90
       15
 70
     0
 43
0.0
 10
-6.433188613499764
 20
-1.654376654826083
 10
-6.408961888599747
 20
-1.959401498826085
 10
-6.384658670999768
 20
-2.251090485726084
 10
-6.360358698799754
 20
-2.527405269726076
 10
-6.336132090299741
 20
-2.786412926626088
 10
-6.311981126199754
 20
-3.026385742426088
 10
-6.287937801899744
 20
-3.245713136926087
 10
-6.263983090799754
 20
-3.442860914326093
 10
-6.240119360899767
 20
-3.616458811426074
 10
-6.216314422899754
 20
-3.765353611826087
 10
-6.192559593399763
 20
-3.888543720226085
 10
-6.168786722799749
 20
-3.985172436726091
 10
-6.144924625999762
 20
-4.054575318926086
 10
-6.120973726599755
 20
-4.096279938626099
 10
-6.097153337299758
 20
-4.11000412172608
  0
LWPOLYLINE
  5
1BCE
330
1F
100
AcDbEntity
  8
SK1
100
AcDbPolyline
 90
       14
 70
     0
 43
0.0
 10
-6.772163529599749
 20
-4.107426151226095
 10
-6.785565671499754
 20
-4.096266863926078
 10
-6.809224159799753
 20
-4.054551030926095
 10
-6.832880241599752
 20
-3.985138272926096
 10
-6.856838106399747
 20
-3.888499295726079
 10
-6.880954383099745
 20
-3.765297260626087
 10
-6.905212672699746
 20
-3.616386101926084
 10
-6.929536249199754
 20
-3.442769575526073
 10
-6.953849567199753
 20
-3.245603600726087
 10
-6.978132685999767
 20
-3.026262486526082
 10
-7.002340305299753
 20
-2.786288428626095
 10
-7.026472958799757
 20
-2.527289126726091
 10
-7.050503154699753
 20
-2.25098926982608
 10
-7.074469668699747
 20
-1.959324120626081
  0
LWPOLYLINE
  5
1BCF
330
1F
100
AcDbEntity
  8
SK1
100
AcDbPolyline
 90
       14
 70
     0
 43
0.0
 10
-4.941953778499764
 20
-4.107360512826094
 10
-4.955355315399756
 20
-4.096274484926087
 10
-4.979573449299762
 20
-4.054562952526086
 10
-5.003854580999769
 20
-3.985150546726091
 10
-5.028185344799751
 20
-3.888509065526083
 10
-5.052535040299743
 20
-3.765303292126095
 10
-5.076879502599767
 20
-3.616391002326084
 10
-5.101185759699759
 20
-3.4427755937261
 10
-5.125414097199749
 20
-3.24561233162608
 10
-5.149560576499751
 20
-3.026275605626084
 10
-5.173601403999754
 20
-2.786307309926089
 10
-5.197556430599759
 20
-2.527313510926094
 10
-5.221408252599758
 20
-2.251017312526089
 10
-5.245244840699752
 20
-1.959351211526086
  0
LWPOLYLINE
  5
1BD0
330
1F
100
AcDbEntity
  8
SK1
100
AcDbPolyline
 90
        4
 70
     0
 43
0.0
 10
-4.050226667938512
 20
-3.703138955049483
 10
-4.04763580699975
 20
-3.699144630826086
 10
-4.03640608799975
 20
-3.685329848426082
 10
-4.018802132399755
 20
-3.66849956692609
  0
LINE
  5
1BD1
330
1F
100
AcDbEntity
  8
SK1
100
AcDbLine
 10
-3.413999708199753
 20
-1.959376065426101
 30
0.0
 11
-3.462143592399753
 21
-1.338090277626083
 31
0.0
  0
LINE
  5
1BD2
330
1F
100
AcDbEntity
  8
SK1
100
AcDbLine
 10
-3.462148562499763
 20
-1.338088969726074
 30
0.0
 11
-3.510294115099766
 21
-0.6802662197260823
 31
0.0
  0
LINE
  5
1BD3
330
1F
100
AcDbEntity
  8
SK1
100
AcDbLine
 10
-3.510294115099766
 20
-0.6802662197260823
 30
0.0
 11
-3.629662655499756
 21
1.005235775473901
 31
0.0
  0
LINE
  5
1BD4
330
1F
100
AcDbEntity
  8
SK1
100
AcDbLine
 10
-2.84611326539975
 20
-0.6803658338260769
 30
0.0
 11
-2.792166003599744
 21
-1.411170989826078
 31
0.0
  0
LINE
  5
1BD5
330
1F
100
AcDbEntity
  8
SK1
100
AcDbLine
 10
-2.941837158099758
 20
0.6725671139739085
 30
0.0
 11
-2.84611326539975
 21
-0.6803658338260769
 31
0.0
  0
LWPOLYLINE
  5
1BD6
330
1F
100
AcDbEntity
  8
SK1
100
AcDbPolyline
 90
       13
 70
     0
 43
0.0
 10
-2.532741209599747
 20
-2.654898645926084
 10
-2.521522317399755
 20
-2.693159541126095
 10
-2.508531574699758
 20
-2.728738424526087
 10
-2.493800744099756
 20
-2.761738291126095
 10
-2.477234537699743
 20
-2.792106112926095
 10
-2.458737880899759
 20
-2.819878851626087
 10
-2.438341895999768
 20
-2.8448869478261
 10
-2.416053414499741
 20
-2.8671561687261
 10
-2.391850234299766
 20
-2.886143260926091
 10
-2.365595887999759
 20
-2.901334455026091
 10
-2.337640003699746
 20
-2.912687736826087
 10
-2.308324737399757
 20
-2.919923106126093
 10
-2.27753603719975
 20
-2.923179188226087
  0
LWPOLYLINE
  5
1BD7
330
1F
100
AcDbEntity
  8
SK1
100
AcDbPolyline
 90
        4
 70
     0
 43
0.0
 10
-2.727765378299763
 20
-1.748403391526084
 10
-2.683930246999748
 20
-1.937475532126103
 10
-2.663457015799763
 20
-2.035155479026074
 10
-2.643946673999749
 20
-2.134638645226092
  0
LWPOLYLINE
  5
1BD8
330
1F
100
AcDbEntity
  8
SK1
100
AcDbPolyline
 90
        7
 70
     0
 43
0.0
 10
-2.643946673999749
 20
-2.134638645226092
 10
-2.627613828399759
 20
-2.225212596726084
 10
-2.610402359399741
 20
-2.314326386826084
 10
-2.592314081999745
 20
-2.40192035902608
 10
-2.573343551199753
 20
-2.487924137926088
 10
-2.553485322099744
 20
-2.572268951326083
 10
-2.532741209599747
 20
-2.654898645926084
  0
LWPOLYLINE
  5
1BD9
330
1F
100
AcDbEntity
  8
SK1
100
AcDbPolyline
 90
        5
 70
     0
 43
0.0
 10
-2.792166003599744
 20
-1.411170989826078
 10
-2.780910041799755
 20
-1.489110826826095
 10
-2.766424616999741
 20
-1.571412034826084
 10
-2.74822585669976
 20
-1.658103804826087
 10
-2.727765378299763
 20
-1.748403391526084
  0
LWPOLYLINE
  5
1BDA
330
1F
100
AcDbEntity
  8
SK1
100
AcDbPolyline
 90
        3
 70
     0
 43
0.0
 10
-1.657989071599756
 20
-2.125770961326071
 10
-1.654991888199759
 20
-2.01771001612609
 10
-1.650465567599765
 20
-1.911474266926094
  0
LWPOLYLINE
  5
1BDB
330
1F
100
AcDbEntity
  8
SK1
100
AcDbPolyline
 90
        6
 70
     0
 43
0.0
 10
-1.650465567599765
 20
-1.911474266926094
 10
-1.636825514699749
 20
-1.705528228426093
 10
-1.631278548999758
 20
-1.607518914526099
 10
-1.627979537799745
 20
-1.514048083426093
 10
-1.628502634299763
 20
-1.4263846661261
 10
-1.632323120799753
 20
-1.344400264426087
  0
LWPOLYLINE
  5
1BDC
330
1F
100
AcDbEntity
  8
SK1
100
AcDbPolyline
 90
        7
 70
     0
 43
0.0
 10
-1.677120753999758
 20
-2.648062823526091
 10
-1.671445601199749
 20
-2.565169876526087
 10
-1.66676560149976
 20
-2.480532960826085
 10
-1.663081258799748
 20
-2.394206552926095
 10
-1.660391061399749
 20
-2.306259182426078
 10
-1.658693497699743
 20
-2.216761177726087
 10
-1.657989071599756
 20
-2.125770961326071
  0
LWPOLYLINE
  5
1BDD
330
1F
100
AcDbEntity
  8
SK1
100
AcDbPolyline
 90
       15
 70
     0
 43
0.0
 10
-1.881895303199754
 20
-2.920282517526093
 10
-1.858066227999755
 20
-2.918143326326076
 10
-1.834881446499749
 20
-2.912837293426082
 10
-1.812084887899756
 20
-2.904291308026078
 10
-1.79044476419976
 20
-2.892644513526096
 10
-1.770640351599751
 20
-2.877844764126083
 10
-1.752682386099747
 20
-2.860345326326071
 10
-1.736877579399745
 20
-2.840528476826083
 10
-1.723017281099741
 20
-2.818563692926094
 10
-1.71100451309975
 20
-2.794776996926092
 10
-1.700810969499754
 20
-2.769103456526085
 10
-1.69240360189974
 20
-2.741584915926085
 10
-1.685699659999755
 20
-2.712227990526076
 10
-1.680593656499751
 20
-2.68107544802608
 10
-1.677120753999758
 20
-2.648062823526091
  0
LINE
  5
1BDE
330
1F
100
AcDbEntity
  8
SK1
100
AcDbLine
 10
-2.277531419099758
 20
-2.923219652526087
 30
0.0
 11
-1.881900748399756
 21
-2.920269994126089
 31
0.0
  0
LINE
  5
1BDF
330
1F
100
AcDbEntity
  8
SK1
100
AcDbLine
 10
-3.321573854199753
 20
-3.700608299226093
 30
0.0
 11
-3.320078629299756
 21
-3.702913948626093
 31
0.0
  0
LWPOLYLINE
  5
1BE0
330
1F
100
AcDbEntity
  8
SK1
100
AcDbPolyline
 90
        6
 70
     0
 43
0.0
 10
-3.389454844799757
 20
-3.643352111226096
 10
-3.367438954399743
 20
-3.656345469926082
 10
-3.349974056799765
 20
-3.669666089626093
 10
-3.336704620799763
 20
-3.682216342326087
 10
-3.327543684299768
 20
-3.692633277726091
 10
-3.321573854199753
 20
-3.700608299226093
  0
LWPOLYLINE
  5
1BE1
330
1F
100
AcDbEntity
  8
SK1
100
AcDbPolyline
 90
        9
 70
     0
 43
0.0
 10
-3.259190329599745
 20
-3.895947167726095
 10
-3.254922827099745
 20
-3.909030995126091
 10
-3.243853787499757
 20
-3.939959933826076
 10
-3.231724629599751
 20
-3.969225653126076
 10
-3.217984383099759
 20
-3.997247252626084
 10
-3.201351883099759
 20
-4.025111338726094
 10
-3.179996174399746
 20
-4.05331790092609
 10
-3.151831068699748
 20
-4.080971540126087
 10
-3.111725034499754
 20
-4.107434043026078
  0
LINE
  5
1BE2
330
1F
100
AcDbEntity
  8
SK1
100
AcDbLine
 10
-3.320078629299756
 20
-3.702913948626093
 30
0.0
 11
-3.259813354999763
 21
-3.893897180726087
 31
0.0
  0
LINE
  5
1BE3
330
1F
100
AcDbEntity
  8
SK1
100
AcDbLine
 10
-3.101594804199761
 20
-4.11000412172608
 30
0.0
 11
-3.111914619999766
 21
-4.107434519326092
 31
0.0
  0
LINE
  5
1BE4
330
1F
100
AcDbEntity
  8
SK1
100
AcDbLine
 10
-1.599999999999765
 20
-4.11000412172608
 30
0.0
 11
-3.101644603299761
 21
-4.11000412172608
 31
0.0
  0
LWPOLYLINE
  5
1BE5
330
1F
100
AcDbEntity
  8
SK1
100
AcDbPolyline
 90
        5
 70
     0
 43
0.0
 10
-3.487322701399746
 20
-3.619949737126095
 10
-3.472286968799748
 20
-3.620506843526089
 10
-3.443227197599767
 20
-3.624511276026086
 10
-3.415040664499755
 20
-3.632361784226093
 10
-3.389454844799757
 20
-3.643352111226096
  0
LINE
  5
1BE6
330
1F
100
AcDbEntity
  8
SK1
100
AcDbLine
 10
-3.883330015899758
 20
-3.620136122626095
 30
0.0
 11
-3.487255138899753
 21
-3.619864310726089
 31
0.0
  0
LINE
  5
1BE7
330
1F
100
AcDbEntity
  8
SK1
100
AcDbLine
 10
-4.267065576699763
 20
-4.11000412172608
 30
0.0
 11
-4.256402098899753
 21
-4.107229928026074
 31
0.0
  0
LINE
  5
1BE8
330
1F
100
AcDbEntity
  8
SK1
100
AcDbLine
 10
-4.018802132399755
 20
-3.66849956692609
 30
0.0
 11
-3.994413114499748
 21
-3.651078526026086
 31
0.0
  0
LWPOLYLINE
  5
1BE9
330
1F
100
AcDbEntity
  8
SK1
100
AcDbPolyline
 90
       10
 70
     0
 43
0.0
 10
-4.256393136799756
 20
-4.107229951326078
 10
-4.229269536099748
 20
-4.090360135426098
 10
-4.201049997299761
 20
-4.065977762326086
 10
-4.17831264249976
 20
-4.039456875426099
 10
-4.160567716299751
 20
-4.012925669526101
 10
-4.14591610019974
 20
-3.985949984226084
 10
-4.133268242199744
 20
-3.958090899226082
 10
-4.121897514099757
 20
-3.928828020426097
 10
-4.111249074599753
 20
-3.897398564926081
 10
-4.050226667899748
 20
-3.703138954926078
  0
LWPOLYLINE
  5
1BEA
330
1F
100
AcDbEntity
  8
SK1
100
AcDbPolyline
 90
        4
 70
     0
 43
0.0
 10
-3.994413114499748
 20
-3.651078526026086
 10
-3.963257910699751
 20
-3.635572690926085
 10
-3.925995074199759
 20
-3.624532873926074
 10
-3.88333156216484
 20
-3.62013612368722
  0
LWPOLYLINE
  5
1BEB
330
1F
100
AcDbEntity
  8
SK1
100
AcDbPolyline
 90
       15
 70
     0
 43
0.0
 10
-4.604311814799754
 20
-1.654398218926079
 10
-4.580217832699744
 20
-1.959426812326089
 10
-4.556069547999753
 20
-2.251099068626091
 10
-4.531876165499753
 20
-2.527392908826076
 10
-4.50763927289975
 20
-2.786387817726096
 10
-4.483378653499768
 20
-3.0263545921261
 10
-4.459100643199759
 20
-3.245685749126085
 10
-4.434847172599758
 20
-3.44284031922608
 10
-4.410663910999757
 20
-3.616444246826093
 10
-4.386545977599766
 20
-3.765344087226086
 10
-4.362509893599748
 20
-3.888537553426091
 10
-4.338537122399756
 20
-3.985168346726086
 10
-4.314637941399751
 20
-4.054572487026096
 10
-4.290742429699744
 20
-4.096278147026101
 10
-4.267065576699763
 20
-4.11000412172608
  0
LWPOLYLINE
  5
1BEC
330
1F
100
AcDbEntity
  8
SK1
100
AcDbPolyline
 90
       14
 70
     0
 43
0.0
 10
-3.111914619999766
 20
-4.107434519326092
 10
-3.125476358999761
 20
-4.096271405826088
 10
-3.149716165599754
 20
-4.054557193526097
 10
-3.173978811199743
 20
-3.985142585926086
 10
-3.198191005399748
 20
-3.88850071522609
 10
-3.222349392399763
 20
-3.76529660702609
 10
-3.246418213599752
 20
-3.616388661126098
 10
-3.270421387799743
 20
-3.442779560826085
 10
-3.294360775499753
 20
-3.245623416426073
 10
-3.318266793199753
 20
-3.026293647926098
 10
-3.342164155999767
 20
-2.786330325026087
 10
-3.366071828099747
 20
-2.527339488626085
 10
-3.390014590099766
 20
-2.251044728126078
 10
-3.413999708199753
 20
-1.959376065426101
  0
LWPOLYLINE
  5
1BED
330
1F
100
AcDbEntity
  8
SK1
100
AcDbPolyline
 90
        3
 70
     0
 43
0.0
 10
-6.620062989864454
 20
3.620950018740366
 10
-7.791686479899751
 20
3.306351088573913
 10
-7.939999999999754
 20
3.266676056873913
  0
LINE
  5
1BEE
330
1F
100
AcDbEntity
  8
SK1
100
AcDbLine
 10
-4.400537165286181
 20
3.618812673904036
 30
0.0
 11
-4.798562122999753
 21
3.619118221373906
 31
0.0
  0
LINE
  5
1BEF
330
1F
100
AcDbEntity
  8
SK1
100
AcDbLine
 10
-4.893863053899749
 20
2.244713535673906
 30
0.0
 11
-4.846426923799754
 21
1.64744133557391
 31
0.0
  0
LINE
  5
1BF0
330
1F
100
AcDbEntity
  8
SK1
100
AcDbLine
 10
-4.965113153199751
 20
3.702598499073911
 30
0.0
 11
-5.026538737799754
 21
3.897723575873905
 31
0.0
  0
LWPOLYLINE
  5
1BF1
330
1F
100
AcDbEntity
  8
SK1
100
AcDbPolyline
 90
        9
 70
     0
 43
0.0
 10
-5.026538737799754
 20
3.897723575873905
 10
-5.03674865059976
 20
3.927902599373918
 10
-5.047496088899748
 20
3.955760616373903
 10
-5.059361631199749
 20
3.982291100573912
 10
-5.073107383199753
 20
4.008244767773912
 10
-5.089847305799763
 20
4.034255666173915
 10
-5.111150376499749
 20
4.060462457373911
 10
-5.138561944999763
 20
4.085684127673911
 10
-5.17133365019974
 20
4.106836884673906
  0
LWPOLYLINE
  5
1BF2
330
1F
100
AcDbEntity
  8
SK1
100
AcDbPolyline
 90
       13
 70
     0
 43
0.0
 10
-5.172148405699758
 20
4.107262201673913
 10
-5.158606880599745
 20
4.095650764373909
 10
-5.13484042159976
 20
4.053314677373913
 10
-5.111032880099754
 20
3.983286351373901
 10
-5.087144407599764
 20
3.886065002273904
 10
-5.063082631299749
 20
3.762301954073913
 10
-5.038679454299766
 20
3.61280688387391
 10
-5.014122200299749
 20
3.438621400973911
 10
-4.989441742599764
 20
3.240966457073906
 10
-4.964939336299749
 20
3.02118251407391
 10
-4.941042695499745
 20
2.780769696773911
 10
-4.91740331749976
 20
2.521362434073918
 10
-4.893863053899749
 20
2.244713535673906
  0
LWPOLYLINE
  5
1BF3
330
1F
100
AcDbEntity
  8
SK1
100
AcDbPolyline
 90
       34
 70
     0
 43
0.0
 10
-4.892540443599741
 20
3.641817638673923
 10
-4.895457407399759
 20
3.643265891673916
 10
-4.898375027699742
 20
3.644770424773906
 10
-4.901289103999757
 20
3.646330708473921
 10
-4.904195953599752
 20
3.64794632487391
 10
-4.907090639299766
 20
3.649615973373906
 10
-4.90996882739975
 20
3.65133846007391
 10
-4.912825142399753
 20
3.653111711173915
 10
-4.915654796399748
 20
3.654933708573915
 10
-4.918452019099758
 20
3.656801472373908
 10
-4.921209595399743
 20
3.658710594673901
 10
-4.923927644399753
 20
3.660661439973918
 10
-4.926603468699751
 20
3.662652341773915
 10
-4.929238187699749
 20
3.664684077573918
 10
-4.931834997299758
 20
3.666759178973915
 10
-4.934384472999751
 20
3.66887006177391
 10
-4.936880868999749
 20
3.671011397073908
 10
-4.939317440999756
 20
3.673176386673911
 10
-4.941688187599766
 20
3.675358194273921
 10
-4.943986609999753
 20
3.677548812173906
 10
-4.946207154499743
 20
3.679740374273913
 10
-4.948342789099752
 20
3.681922741773913
 10
-4.950387277599757
 20
3.684085632073897
 10
-4.952335020199738
 20
3.686218525673903
 10
-4.954180346399749
 20
3.68830988637391
 10
-4.955919720899755
 20
3.690349702973898
 10
-4.95754925039975
 20
3.692326772873906
 10
-4.959066562099748
 20
3.694230964673901
 10
-4.960468562599754
 20
3.696050525173911
 10
-4.961755516199744
 20
3.697777432273904
 10
-4.962925036099746
 20
3.699399626273896
 10
-4.963983275599757
 20
3.700916565073921
 10
-4.964935882399755
 20
3.702327342073894
 10
-4.965113153199751
 20
3.702598499073911
  0
LINE
  5
1BF4
330
1F
100
AcDbEntity
  8
SK1
100
AcDbLine
 10
-5.182662699999766
 20
4.110005875973921
 30
0.0
 11
-5.172148405699758
 21
4.107262201673913
 31
0.0
  0
LWPOLYLINE
  5
1BF5
330
1F
100
AcDbEntity
  8
SK1
100
AcDbPolyline
 90
       29
 70
     0
 43
0.0
 10
-4.814786748299766
 20
3.620726537973904
 10
-4.824140226499748
 20
3.621779111273904
 10
-4.826939829099756
 20
3.622111398873906
 10
-4.829454752099747
 20
3.622429920273912
 10
-4.831656280399753
 20
3.622730329573906
 10
-4.833710952299753
 20
3.623033811973921
 10
-4.835777494699754
 20
3.623364436073923
 10
-4.837845132899744
 20
3.623720683273912
 10
-4.839955465199748
 20
3.624110255973913
 10
-4.842108683699748
 20
3.624534504273921
 10
-4.844319624899753
 20
3.624997959073903
 10
-4.84658515939975
 20
3.62550181167391
 10
-4.848906518299754
 20
3.626048169073906
 10
-4.851284960099759
 20
3.626639231273907
 10
-4.85372152019974
 20
3.627277228873903
 10
-4.856217504199761
 20
3.627964550273925
 10
-4.858773556399754
 20
3.62870348757391
 10
-4.861391971099749
 20
3.629496910773903
 10
-4.864081531099741
 20
3.630349956973924
 10
-4.866822451299753
 20
3.631258637573917
 10
-4.869600378699742
 20
3.632220126673909
 10
-4.872408532499759
 20
3.633234174273917
 10
-4.875234885799756
 20
3.634298268173903
 10
-4.878081282899755
 20
3.635414802773917
 10
-4.880946311199749
 20
3.636585042073898
 10
-4.883827306399751
 20
3.637809732573908
 10
-4.886722114299757
 20
3.639089795873911
 10
-4.889627447199756
 20
3.640425603973906
 10
-4.892540443599741
 20
3.641817638673923
  0
LINE
  5
1BF6
330
1F
100
AcDbEntity
  8
SK1
100
AcDbLine
 10
-4.806007024199757
 20
3.619706814473924
 30
0.0
 11
-4.814786748299766
 21
3.620726537973904
 31
0.0
  0
LWPOLYLINE
  5
1BF7
330
1F
100
AcDbEntity
  8
SK1
100
AcDbPolyline
 90
       10
 70
     0
 43
0.0
 10
-4.798562122999753
 20
3.619118221373906
 10
-4.800103456999749
 20
3.619222259173918
 10
-4.800736602499752
 20
3.619240803473911
 10
-4.801237849899761
 20
3.619261945573907
 10
-4.801670434999762
 20
3.619285715273913
 10
-4.802108223399756
 20
3.619315468673912
 10
-4.802580796099745
 20
3.619352942673923
 10
-4.803284807199759
 20
3.619416585373906
 10
-4.804342161499762
 20
3.619523920073912
 10
-4.806007024199757
 20
3.619706814473924
  0
LWPOLYLINE
  5
1BF8
330
1F
100
AcDbEntity
  8
SK1
100
AcDbPolyline
 90
       27
 70
     0
 43
0.0
 10
-6.135924313099749
 20
3.642451583973904
 10
-6.139202725199749
 20
3.640852867973899
 10
-6.142528809699753
 20
3.639302405473908
 10
-6.145898994499745
 20
3.637802978373906
 10
-6.149309888099749
 20
3.636357067873898
 10
-6.152758010099758
 20
3.634966986173918
 10
-6.156239578199757
 20
3.633634953373908
 10
-6.159745503199757
 20
3.632364835673906
 10
-6.163287805599749
 20
3.631152844473912
 10
-6.166871102899746
 20
3.629998458073908
 10
-6.170509497999759
 20
3.628897897273911
 10
-6.174224985599749
 20
3.627845857373908
 10
-6.177999618399766
 20
3.626848908073904
 10
-6.181826109299762
 20
3.62590977627391
 10
-6.185693259499741
 20
3.625031553573913
 10
-6.189601962899757
 20
3.624214168273903
 10
-6.193507526299753
 20
3.623466024473923
 10
-6.197421670799754
 20
3.622783197573918
 10
-6.20117364639975
 20
3.622191469773904
 10
-6.204558318499763
 20
3.621716640973911
 10
-6.207684259699758
 20
3.621334500673906
 10
-6.210537457099746
 20
3.621038170973913
 10
-6.213285127699746
 20
3.620804549573898
 10
-6.216010020899758
 20
3.620626699473912
 10
-6.21895626529975
 20
3.620490407773925
 10
-6.222411439299762
 20
3.620389587373901
 10
-6.226331930899759
 20
3.620332035773908
  0
LWPOLYLINE
  5
1BF9
330
1F
100
AcDbEntity
  8
SK1
100
AcDbPolyline
 90
        6
 70
     0
 43
0.0
 10
-7.368708321599755
 20
2.041675731573914
 10
-7.390864230999766
 20
2.311409203873902
 10
-7.413043918399763
 20
2.567285300073915
 10
-7.435344669399754
 20
2.807777665473901
 10
-7.457886383099761
 20
3.031446398173906
 10
-7.497063635228835
 20
3.385461854553243
  0
LINE
  5
1BFA
330
1F
100
AcDbEntity
  8
SK1
100
AcDbLine
 10
-7.324322854299763
 20
1.467254957173903
 30
0.0
 11
-7.368708321599755
 21
2.041675731573914
 31
0.0
  0
LINE
  5
1BFB
330
1F
100
AcDbEntity
  8
SK1
100
AcDbLine
 10
-6.00477679919976
 20
3.894255068273917
 30
0.0
 11
-6.065446026099747
 21
3.701951659473916
 31
0.0
  0
LINE
  5
1BFC
330
1F
100
AcDbEntity
  8
SK1
100
AcDbLine
 10
-6.061565712499754
 20
3.708346528573922
 30
0.0
 11
-6.061549330299754
 21
3.708380087873901
 31
0.0
  0
LWPOLYLINE
  5
1BFD
330
1F
100
AcDbEntity
  8
SK1
100
AcDbPolyline
 90
       39
 70
     0
 43
0.0
 10
-6.061504194299757
 20
3.708471590673905
 10
-6.061533758899754
 20
3.708413769473916
 10
-6.061593806999751
 20
3.708298328173906
 10
-6.061686951199744
 20
3.708122359773906
 10
-6.061814310399753
 20
3.707886005073912
 10
-6.061977112199753
 20
3.707589303973913
 10
-6.062176594199755
 20
3.707232384573908
 10
-6.062414055099765
 20
3.706815374973908
 10
-6.06269081799975
 20
3.706338471873915
 10
-6.063008270999758
 20
3.705801874073908
 10
-6.06336782779975
 20
3.705205854573899
 10
-6.063770972199746
 20
3.704550690873912
 10
-6.064219214199765
 20
3.703836741173926
 10
-6.064714139699757
 20
3.703064369673906
 10
-6.065257361399758
 20
3.702234029573896
 10
-6.06585057459975
 20
3.70134618097391
 10
-6.066494991299746
 20
3.700402121273906
 10
-6.067193954199765
 20
3.699400199273918
 10
-6.067949607899749
 20
3.698340756973916
 10
-6.068767360999771
 20
3.697219778373916
 10
-6.069653238799759
 20
3.696032891373898
 10
-6.070608521799766
 20
3.694782492273911
 10
-6.071635999299757
 20
3.693469114273918
 10
-6.072737526899741
 20
3.692094666273897
 10
-6.073915408999752
 20
3.690660625573908
 10
-6.075171207699737
 20
3.689169499573903
 10
-6.076506811699757
 20
3.687623491573912
 10
-6.077923481199746
 20
3.68602561187391
 10
-6.079422788999749
 20
3.684378565273911
 10
-6.081005485499757
 20
3.682685995073921
 10
-6.082672665099764
 20
3.680951169173917
 10
-6.084424492699753
 20
3.679178303773904
 10
-6.086261476199751
 20
3.677371201473913
 10
-6.08818312049975
 20
3.675534573273916
 10
-6.090189253599745
 20
3.673672693773904
 10
-6.092278672799749
 20
3.671790654573905
 10
-6.094450461099753
 20
3.669893101673916
 10
-6.096702682799742
 20
3.667985371973923
 10
-6.099033546199747
 20
3.666072431173926
  0
LWPOLYLINE
  5
1BFE
330
1F
100
AcDbEntity
  8
SK1
100
AcDbPolyline
 90
       14
 70
     0
 43
0.0
 10
-6.099033546199747
 20
3.666072431173926
 10
-6.101440655699759
 20
3.664159490073908
 10
-6.103919811599764
 20
3.662252848273903
 10
-6.106473550299752
 20
3.660353435373901
 10
-6.10910308449975
 20
3.658463275173911
 10
-6.111807797899754
 20
3.656585566873911
 10
-6.114588473299758
 20
3.654722500773908
 10
-6.117441613899755
 20
3.652879056173924
 10
-6.120364646399749
 20
3.651059324873908
 10
-6.123354719599745
 20
3.649267340373906
 10
-6.126408880499752
 20
3.647506958073901
 10
-6.129524033499762
 20
3.645781878773898
 10
-6.132696931999745
 20
3.644095648073911
 10
-6.135924313099749
 20
3.642451583973904
  0
LWPOLYLINE
  5
1BFF
330
1F
100
AcDbEntity
  8
SK1
100
AcDbPolyline
 90
        9
 70
     0
 43
0.0
 10
-5.857608769399745
 20
4.107397148373916
 10
-5.894694944699748
 20
4.083117512873906
 10
-5.923059872399758
 20
4.055931454673904
 10
-5.944801447899749
 20
4.027821251873913
 10
-5.961681298099762
 20
4.000015715073908
 10
-5.975636681999745
 20
3.971932018573919
 10
-5.987956612299753
 20
3.942507282473908
 10
-5.999166406799757
 20
3.911417458473915
 10
-6.004519765799754
 20
3.89499551097391
  0
LWPOLYLINE
  5
1C00
330
1F
100
AcDbEntity
  8
SK1
100
AcDbPolyline
 90
        8
 70
     0
 43
0.0
 10
-6.857096285583232
 20
3.557302932555101
 10
-6.816358838399763
 20
3.217675550673912
 10
-6.792394366499762
 20
2.997224067773923
 10
-6.768283924599756
 20
2.756631634373913
 10
-6.744112198699752
 20
2.497491242973904
 10
-6.719946949199764
 20
2.221500956173921
 10
-6.695810724899757
 20
1.930556192673914
 10
-6.671750468299761
 20
1.626658129673909
  0
LWPOLYLINE
  5
1C01
330
1F
100
AcDbEntity
  8
SK1
100
AcDbPolyline
 90
       14
 70
     0
 43
0.0
 10
-5.534623845699753
 20
1.952794147373903
 10
-5.558473089499756
 20
2.244772284073913
 10
-5.582283689599746
 20
2.521421314673911
 10
-5.606081775699761
 20
2.780839780973916
 10
-5.629927505999757
 20
3.021258082473915
 10
-5.653894547699749
 20
3.241027678173903
 10
-5.677968503699744
 20
3.438665482773923
 10
-5.702189098499758
 20
3.612838521373912
 10
-5.726467635599759
 20
3.762326132373908
 10
-5.750733292699747
 20
3.886089071573916
 10
-5.774972171399753
 20
3.983308946073913
 10
-5.79914558039975
 20
4.053331027573912
 10
-5.823257075999762
 20
4.095659328673912
 10
-5.847552156799761
 20
4.110005875873919
  0
LINE
  5
1C02
330
1F
100
AcDbEntity
  8
SK1
100
AcDbLine
 10
-5.486670879799758
 20
1.330962004573899
 30
0.0
 11
-5.534623845699753
 21
1.952794147373903
 31
0.0
  0
LINE
  5
1C03
330
1F
100
AcDbEntity
  8
SK1
100
AcDbLine
 10
-6.226331930899759
 20
3.620332035773908
 30
0.0
 11
-6.23218553389975
 21
3.620312720373898
 31
0.0
  0
LINE
  5
1C04
330
1F
100
AcDbEntity
  8
SK1
100
AcDbLine
 10
-6.232427712299753
 20
3.620667772573918
 30
0.0
 11
-6.620062989864454
 21
3.620950018740366
 31
0.0
  0
LINE
  5
1C05
330
1F
100
AcDbEntity
  8
SK1
100
AcDbLine
 10
-5.847552156799761
 20
4.110005875873919
 30
0.0
 11
-5.857888971799766
 21
4.107397852773924
 31
0.0
  0
LINE
  5
1C06
330
1F
100
AcDbEntity
  8
SK1
100
AcDbLine
 10
-5.182686591499758
 20
4.110005875973921
 30
0.0
 11
-5.84752536109974
 21
4.110005875973921
 31
0.0
  0
LWPOLYLINE
  5
1C07
330
1F
100
AcDbEntity
  8
SK1
100
AcDbPolyline
 90
        4
 70
     0
 43
0.0
 10
-2.405095762756287
 20
3.703073931094663
 10
-2.41026637529974
 20
3.695736312173901
 10
-2.420550475599752
 20
3.683650724273912
 10
-2.436033299299764
 20
3.669002626873913
  0
LWPOLYLINE
  5
1C08
330
1F
100
AcDbEntity
  8
SK1
100
AcDbPolyline
 90
        3
 70
     0
 43
0.0
 10
-4.235312881148901
 20
3.702267513318086
 10
-4.241580763599741
 20
3.693547669473924
 10
-4.254124444499749
 20
3.679430300173916
  0
LWPOLYLINE
  5
1C09
330
1F
100
AcDbEntity
  8
SK1
100
AcDbPolyline
 90
        3
 70
     0
 43
0.0
 10
-4.254124444499749
 20
3.679430300173916
 10
-4.273637280999763
 20
3.662394158873905
 10
-4.303263769399747
 20
3.643774313973902
  0
LWPOLYLINE
  5
1C0A
330
1F
100
AcDbEntity
  8
SK1
100
AcDbPolyline
 90
        9
 70
     0
 43
0.0
 10
-4.026958717799743
 20
4.106980831473913
 10
-4.064275521099744
 20
4.0827567297739
 10
-4.093437566699761
 20
4.054816285773906
 10
-4.116033020499755
 20
4.025322089873904
 10
-4.133504869699748
 20
3.99604436987391
 10
-4.14788958689975
 20
3.966416345973921
 10
-4.160379570999763
 20
3.935769576673915
 10
-4.171716365199741
 20
3.90342593597391
 10
-4.174017713499763
 20
3.896296012573908
  0
LWPOLYLINE
  5
1C0B
330
1F
100
AcDbEntity
  8
SK1
100
AcDbPolyline
 90
        2
 70
     0
 43
0.0
 10
-4.232027649899761
 20
3.707514597673916
 10
-4.232032461099747
 20
3.707572452173901
  0
LWPOLYLINE
  5
1C0C
330
1F
100
AcDbEntity
  8
SK1
100
AcDbPolyline
 90
       15
 70
     0
 43
0.0
 10
-3.677425111199752
 20
1.647467483673916
 10
-3.701551361199747
 20
1.952756080173923
 10
-3.725996932099745
 20
2.244734014673904
 10
-3.750592311199751
 20
2.521390081273901
 10
-3.775338173399759
 20
2.78083770227391
 10
-3.799861162599766
 20
3.021276590173921
 10
-3.823628093799753
 20
3.241034441773916
 10
-3.847119128499768
 20
3.438653524673906
 10
-3.870586484299763
 20
3.612811724873901
 10
-3.894180807299761
 20
3.762291020373903
 10
-3.918215445199748
 20
3.886055258873906
 10
-3.942454510399754
 20
3.983281955173918
 10
-3.966777550399754
 20
4.05331418497391
 10
-3.991151606699758
 20
4.095652028573917
 10
-4.015781219599743
 20
4.110005875873919
  0
LINE
  5
1C0D
330
1F
100
AcDbEntity
  8
SK1
100
AcDbLine
 10
-2.436033299299764
 20
3.669002626873913
 30
0.0
 11
-2.457971007399761
 21
3.652985134573905
 31
0.0
  0
LWPOLYLINE
  5
1C0E
330
1F
100
AcDbEntity
  8
SK1
100
AcDbPolyline
 90
        9
 70
     0
 43
0.0
 10
-2.198054673099761
 20
4.107338079573903
 10
-2.231718385999768
 20
4.085687188673926
 10
-2.26097810769974
 20
4.058469861573906
 10
-2.283695234399742
 20
4.029657523373908
 10
-2.300668753699751
 20
4.002053918373912
 10
-2.31447699929977
 20
3.974616562873901
 10
-2.32654760989976
 20
3.946202961773916
 10
-2.33747491059975
 20
3.916414558273908
 10
-2.34495333999976
 20
3.893606979673901
  0
LWPOLYLINE
  5
1C0F
330
1F
100
AcDbEntity
  8
SK1
100
AcDbPolyline
 90
        4
 70
     0
 43
0.0
 10
-4.303263769399747
 20
3.643774313973902
 10
-4.338337003299756
 20
3.629378009273915
 10
-4.375804563299764
 20
3.621553525373906
 10
-4.400849182299751
 20
3.61877809637391
  0
LINE
  5
1C10
330
1F
100
AcDbEntity
  8
SK1
100
AcDbLine
 10
-3.038388400199748
 20
1.952688421273899
 30
0.0
 11
-2.989967347699745
 21
1.330819729873903
 31
0.0
  0
LINE
  5
1C11
330
1F
100
AcDbEntity
  8
SK1
100
AcDbLine
 10
-2.344713884599754
 20
3.894478223173915
 30
0.0
 11
-2.405095762699743
 21
3.703073931273901
 31
0.0
  0
LWPOLYLINE
  5
1C12
330
1F
100
AcDbEntity
  8
SK1
100
AcDbPolyline
 90
        5
 70
     0
 43
0.0
 10
-2.457971007399761
 20
3.652985134573905
 10
-2.485555879199764
 20
3.638369095573902
 10
-2.518620848899757
 20
3.627023415373908
 10
-2.552939544799754
 20
3.621154494773913
 10
-2.57222566889976
 20
3.620362387373911
  0
LINE
  5
1C13
330
1F
100
AcDbEntity
  8
SK1
100
AcDbLine
 10
-4.17465684769975
 20
3.894537449473924
 30
0.0
 11
-4.235312881099742
 21
3.702267513473908
 31
0.0
  0
LWPOLYLINE
  5
1C14
330
1F
100
AcDbEntity
  8
SK1
100
AcDbPolyline
 90
       14
 70
     0
 43
0.0
 10
-1.874242525899759
 20
1.959041011873916
 10
-1.898136214699745
 20
2.250507994773906
 10
-1.922053633199751
 20
2.526625880373893
 10
-1.946061874199754
 20
2.785508347873895
 10
-1.970166185399746
 20
3.025389012773923
 10
-1.994420420399747
 20
3.244626489573898
 10
-2.01874585399976
 20
3.441738808673912
 10
-2.043096041799755
 20
3.61539541807391
 10
-2.067427995699758
 20
3.764383641173918
 10
-2.091684527899742
 20
3.887670235673904
 10
-2.115861792699746
 20
3.984442070973923
 10
-2.139931061999745
 20
4.054049040073915
 10
-2.163909795499746
 20
4.095999108973908
 10
-2.187776686099751
 20
4.110005875873919
  0
LINE
  5
1C15
330
1F
100
AcDbEntity
  8
SK1
100
AcDbLine
 10
-1.826319812099753
 20
1.338115282773921
 30
0.0
 11
-1.874242525899759
 21
1.959041011873916
 31
0.0
  0
LWPOLYLINE
  5
1C16
330
1F
100
AcDbEntity
  8
SK1
100
AcDbPolyline
 90
        9
 70
     0
 43
0.0
 10
-3.196730436699765
 20
3.899481528873901
 10
-3.206754147499764
 20
3.929024044773906
 10
-3.217367688399761
 20
3.956535549673911
 10
-3.229058121199754
 20
3.982777543973906
 10
-3.242269397599754
 20
4.007959018473921
 10
-3.258332208399763
 20
4.03325041677392
 10
-3.279150617199745
 20
4.059275963073909
 10
-3.306425142199756
 20
4.084935124673901
 10
-3.340069895299748
 20
4.10709672507391
  0
LINE
  5
1C17
330
1F
100
AcDbEntity
  8
SK1
100
AcDbLine
 10
-3.134691842899754
 20
3.702602246673913
 30
0.0
 11
-3.196730436699765
 21
3.899481528873901
 31
0.0
  0
LINE
  5
1C18
330
1F
100
AcDbEntity
  8
SK1
100
AcDbLine
 10
-3.128375428199758
 20
3.693974557173897
 30
0.0
 11
-3.134691842899754
 21
3.702602246673913
 31
0.0
  0
LWPOLYLINE
  5
1C19
330
1F
100
AcDbEntity
  8
SK1
100
AcDbPolyline
 90
        3
 70
     0
 43
0.0
 10
-3.088382001299747
 20
3.657244768273908
 10
-3.112089182699746
 20
3.676304376473903
 10
-3.128375428199758
 20
3.693974557173897
  0
LWPOLYLINE
  5
1C1A
330
1F
100
AcDbEntity
  8
SK1
100
AcDbPolyline
 90
       14
 70
     0
 43
0.0
 10
-3.339826566699754
 20
4.107097378973914
 10
-3.326343322199746
 20
4.095647724073906
 10
-3.302184299999765
 20
4.053307761173921
 10
-3.278106851599758
 20
3.983275225073921
 10
-3.254117741499753
 20
3.88604760997391
 10
-3.230200611899745
 20
3.762279968573916
 10
-3.206356211799756
 20
3.612790818773896
 10
-3.182539984399752
 20
3.438617655173908
 10
-3.158721796099754
 20
3.240976745673913
 10
-3.134859126799768
 20
3.021203661673917
 10
-3.110899226799757
 20
2.780787729873901
 10
-3.086842652499753
 20
2.521367259773906
 10
-3.062640812499763
 20
2.244695491073922
 10
-3.038388400199748
 20
1.952688421273899
  0
LINE
  5
1C1B
330
1F
100
AcDbEntity
  8
SK1
100
AcDbLine
 10
-3.350880484299763
 20
4.110005875973921
 30
0.0
 11
-3.339826566699754
 21
4.107097378973914
 31
0.0
  0
LINE
  5
1C1C
330
1F
100
AcDbEntity
  8
SK1
100
AcDbLine
 10
-2.57222566889976
 20
3.620362387373911
 30
0.0
 11
-2.968309806299756
 21
3.620633641173919
 31
0.0
  0
LWPOLYLINE
  5
1C1D
330
1F
100
AcDbEntity
  8
SK1
100
AcDbPolyline
 90
        5
 70
     0
 43
0.0
 10
-2.969188366299746
 20
3.620564935373901
 10
-2.993826748099747
 20
3.622105270073912
 10
-3.023213205199751
 20
3.627705412073903
 10
-3.057066087899754
 20
3.639679324173906
 10
-3.088382001299747
 20
3.657244768273908
  0
LINE
  5
1C1E
330
1F
100
AcDbEntity
  8
SK1
100
AcDbLine
 10
-2.968309806299756
 20
3.620633641173919
 30
0.0
 11
-2.969188366299746
 21
3.620564935373901
 31
0.0
  0
LINE
  5
1C1F
330
1F
100
AcDbEntity
  8
SK1
100
AcDbLine
 10
-1.599999999999765
 20
4.110005875973921
 30
0.0
 11
-2.187757216099753
 21
4.110005875973921
 31
0.0
  0
LINE
  5
1C20
330
1F
100
AcDbEntity
  8
SK1
100
AcDbLine
 10
-3.350898625399748
 20
4.110005875973921
 30
0.0
 11
-4.015765062999746
 21
4.110005875973921
 31
0.0
  0
LINE
  5
1C21
330
1F
100
AcDbEntity
  8
SK1
100
AcDbLine
 10
-2.187776686099751
 20
4.110005875873919
 30
0.0
 11
-2.198169521399746
 21
4.107338369873911
 31
0.0
  0
LINE
  5
1C22
330
1F
100
AcDbEntity
  8
SK1
100
AcDbLine
 10
-4.015781219599743
 20
4.110005875873919
 30
0.0
 11
-4.026288039999753
 21
4.107389909373917
 31
0.0
  0
LINE
  5
1C23
330
1F
100
AcDbEntity
  8
1
100
AcDbLine
 10
0.000000000000199
 20
2.213227919708326
 30
0.0
 11
0.000000000000199
 21
-2.213230161460588
 31
0.0
  0
LWPOLYLINE
  5
1C24
330
1F
100
AcDbEntity
  8
1
100
AcDbPolyline
 90
        3
 70
     1
 43
0.0
 10
0.000000000000199
 20
2.213227919708326
 10
0.000000000000199
 20
-0.0000011208761102
 10
2.213229040584678
 20
-0.0000011208761102
 42
0.4142135623730966
  0
DIMENSION
  5
1CCD
330
1F
100
AcDbEntity
  8
SK2
100
AcDbDimension
  2
*D8
 10
-11.68008395062824
 20
-4.110004121726078
 30
0.0
 11
-11.68008395062824
 21
0.0000008771239195
 31
0.0
 70
   160
  1
Ts<>
  3
ISO-25
100
AcDbAlignedDimension
 13
-5.515105976299749
 23
4.11000587597392
 33
0.0
 14
-6.429450926799752
 24
-4.110004121726079
 34
0.0
 50
90.0
100
AcDbRotatedDimension
1001
ACAD
1000
DSTYLE
1002
{
1070
   271
1070
     0
1002
}
  0
ENDSEC
  0
SECTION
  2
OBJECTS
  0
DICTIONARY
  5
56C
330
0
100
AcDbDictionary
  3
ACAD_GROUP
350
56D
  3
ACAD_LAYOUT
350
574
  3
ACAD_MLINESTYLE
350
56E
  3
ACAD_PLOTSETTINGS
350
575
  3
ACAD_PLOTSTYLENAME
350
572
  3
ACDBHEADERROUNDTRIPXREC
350
1D09
  3
ACDBVARIABLEDICTIONARY
350
10BC
  0
DICTIONARY
  5
AF0
330
1F
100
AcDbDictionary
280
     1
  3
ACAD_LAYOUTSELFREF
360
1D2A
  0
DICTIONARY
  5
AEE
330
1B
100
AcDbDictionary
280
     1
  3
ACAD_LAYOUTSELFREF
360
1D29
  0
DICTIONARY
  5
56D
102
{ACAD_REACTORS
330
56C
102
}
330
56C
100
AcDbDictionary
  0
DICTIONARY
  5
574
102
{ACAD_REACTORS
330
56C
102
}
330
56C
100
AcDbDictionary
  0
DICTIONARY
  5
56E
102
{ACAD_REACTORS
330
56C
102
}
330
56C
100
AcDbDictionary
  3
STANDARD
350
56F
  0
DICTIONARY
  5
575
102
{ACAD_REACTORS
330
56C
102
}
330
56C
100
AcDbDictionary
  0
ACDBDICTIONARYWDFLT
  5
572
102
{ACAD_REACTORS
330
56C
102
}
330
56C
100
AcDbDictionary
281
     1
  3
Normal
350
573
100
AcDbDictionaryWithDefault
340
573
  0
DICTIONARY
  5
1D09
102
{ACAD_REACTORS
330
56C
102
}
330
56C
100
AcDbDictionary
  3
CEPSNTYPE
350
1D13
  3
FINGERPRINTGUID
350
1D14
  3
HYPERLINKBASE
350
1D0C
  3
INSUNITS
350
1D12
  3
LAYOUTDICT
350
1D0E
  3
LWETCUNION
350
1D11
  3
PLOTSETDICT
350
1D0F
  3
PLOTSTYLNAMDICT
350
1D10
  3
PSVPSCALE
350
1D16
  3
PUCSBASE
350
1D19
  3
PUCSORGBACK
350
1D1F
  3
PUCSORGBOTTOM
350
1D1B
  3
PUCSORGFRONT
350
1D1E
  3
PUCSORGLEFT
350
1D1C
  3
PUCSORGRIGHT
350
1D1D
  3
PUCSORGTOP
350
1D1A
  3
PUCSORTHOREF
350
1D17
  3
PUCSORTHOVIEW
350
1D18
  3
STYLESHEET
350
1D0D
  3
TSTACKALIGN
350
1D0A
  3
TSTACKSIZE
350
1D0B
  3
UCSBASE
350
1D22
  3
UCSORGBACK
350
1D28
  3
UCSORGBOTTOM
350
1D24
  3
UCSORGFRONT
350
1D27
  3
UCSORGLEFT
350
1D25
  3
UCSORGRIGHT
350
1D26
  3
UCSORGTOP
350
1D23
  3
UCSORTHOREF
350
1D20
  3
UCSORTHOVIEW
350
1D21
  3
VERSIONGUID
350
1D15
  0
DICTIONARY
  5
10BC
102
{ACAD_REACTORS
330
56C
102
}
330
56C
100
AcDbDictionary
  3
SORTENTS
350
10BD
  0
XRECORD
  5
1D2A
102
{ACAD_REACTORS
330
AF0
102
}
330
AF0
100
AcDbXrecord
340
1F
  0
XRECORD
  5
1D29
102
{ACAD_REACTORS
330
AEE
102
}
330
AEE
100
AcDbXrecord
340
1B
  0
MLINESTYLE
  5
56F
102
{ACAD_REACTORS
330
56E
102
}
330
56E
100
AcDbMlineStyle
  2
STANDARD
 70
     0
  3

 62
   256
 51
90.0
 52
90.0
 71
     2
 49
0.5
 62
   256
  6
BYLAYER
 49
-0.5
 62
   256
  6
BYLAYER
  0
ACDBPLACEHOLDER
  5
573
102
{ACAD_REACTORS
330
572
102
}
330
572
100
AcDbPlaceHolder
280
     0
  0
XRECORD
  5
1D13
102
{ACAD_REACTORS
330
1D09
102
}
330
1D09
100
AcDbXrecord
 90
        0
  0
XRECORD
  5
1D14
102
{ACAD_REACTORS
330
1D09
102
}
330
1D09
100
AcDbXrecord
  1
{91885192-BF09-408E-931E-B83B272C8839}
  0
XRECORD
  5
1D0C
102
{ACAD_REACTORS
330
1D09
102
}
330
1D09
100
AcDbXrecord
  1

  0
XRECORD
  5
1D12
102
{ACAD_REACTORS
330
1D09
102
}
330
1D09
100
AcDbXrecord
 90
        0
  0
XRECORD
  5
1D0E
102
{ACAD_REACTORS
330
1D09
102
}
330
1D09
100
AcDbXrecord
340
574
  0
XRECORD
  5
1D11
102
{ACAD_REACTORS
330
1D09
102
}
330
1D09
100
AcDbXrecord
 90
    10781
  0
XRECORD
  5
1D0F
102
{ACAD_REACTORS
330
1D09
102
}
330
1D09
100
AcDbXrecord
340
575
  0
XRECORD
  5
1D10
102
{ACAD_REACTORS
330
1D09
102
}
330
1D09
100
AcDbXrecord
340
572
  0
XRECORD
  5
1D16
102
{ACAD_REACTORS
330
1D09
102
}
330
1D09
100
AcDbXrecord
 40
0.0
  0
XRECORD
  5
1D19
102
{ACAD_REACTORS
330
1D09
102
}
330
1D09
100
AcDbXrecord
340
0
  0
XRECORD
  5
1D1F
102
{ACAD_REACTORS
330
1D09
102
}
330
1D09
100
AcDbXrecord
 10
0.0
 20
0.0
 30
0.0
  0
XRECORD
  5
1D1B
102
{ACAD_REACTORS
330
1D09
102
}
330
1D09
100
AcDbXrecord
 10
0.0
 20
0.0
 30
0.0
  0
XRECORD
  5
1D1E
102
{ACAD_REACTORS
330
1D09
102
}
330
1D09
100
AcDbXrecord
 10
0.0
 20
0.0
 30
0.0
  0
XRECORD
  5
1D1C
102
{ACAD_REACTORS
330
1D09
102
}
330
1D09
100
AcDbXrecord
 10
0.0
 20
0.0
 30
0.0
  0
XRECORD
  5
1D1D
102
{ACAD_REACTORS
330
1D09
102
}
330
1D09
100
AcDbXrecord
 10
0.0
 20
0.0
 30
0.0
  0
XRECORD
  5
1D1A
102
{ACAD_REACTORS
330
1D09
102
}
330
1D09
100
AcDbXrecord
 10
0.0
 20
0.0
 30
0.0
  0
XRECORD
  5
1D17
102
{ACAD_REACTORS
330
1D09
102
}
330
1D09
100
AcDbXrecord
340
0
  0
XRECORD
  5
1D18
102
{ACAD_REACTORS
330
1D09
102
}
330
1D09
100
AcDbXrecord
 70
     0
  0
XRECORD
  5
1D0D
102
{ACAD_REACTORS
330
1D09
102
}
330
1D09
100
AcDbXrecord
  1

  0
XRECORD
  5
1D0A
102
{ACAD_REACTORS
330
1D09
102
}
330
1D09
100
AcDbXrecord
 90
        1
  0
XRECORD
  5
1D0B
102
{ACAD_REACTORS
330
1D09
102
}
330
1D09
100
AcDbXrecord
 90
       70
  0
XRECORD
  5
1D22
102
{ACAD_REACTORS
330
1D09
102
}
330
1D09
100
AcDbXrecord
340
0
  0
XRECORD
  5
1D28
102
{ACAD_REACTORS
330
1D09
102
}
330
1D09
100
AcDbXrecord
 10
0.0
 20
0.0
 30
0.0
  0
XRECORD
  5
1D24
102
{ACAD_REACTORS
330
1D09
102
}
330
1D09
100
AcDbXrecord
 10
0.0
 20
0.0
 30
0.0
  0
XRECORD
  5
1D27
102
{ACAD_REACTORS
330
1D09
102
}
330
1D09
100
AcDbXrecord
 10
0.0
 20
0.0
 30
0.0
  0
XRECORD
  5
1D25
102
{ACAD_REACTORS
330
1D09
102
}
330
1D09
100
AcDbXrecord
 10
0.0
 20
0.0
 30
0.0
  0
XRECORD
  5
1D26
102
{ACAD_REACTORS
330
1D09
102
}
330
1D09
100
AcDbXrecord
 10
0.0
 20
0.0
 30
0.0
  0
XRECORD
  5
1D23
102
{ACAD_REACTORS
330
1D09
102
}
330
1D09
100
AcDbXrecord
 10
0.0
 20
0.0
 30
0.0
  0
XRECORD
  5
1D20
102
{ACAD_REACTORS
330
1D09
102
}
330
1D09
100
AcDbXrecord
340
0
  0
XRECORD
  5
1D21
102
{ACAD_REACTORS
330
1D09
102
}
330
1D09
100
AcDbXrecord
 70
     0
  0
XRECORD
  5
1D15
102
{ACAD_REACTORS
330
1D09
102
}
330
1D09
100
AcDbXrecord
  1
{4A7CC7DA-2DFA-423A-831B-31100761D7C8}
  0
DICTIONARYVAR
  5
10BD
102
{ACAD_REACTORS
330
10BC
102
}
330
10BC
100
DictionaryVariables
280
     0
  1
96
  0
ENDSEC
  0
EOF
