  0
SECTION
  2
HEADER
  9
$ACADVER
  1
AC1014
  9
$ACADMAINTVER
 70
     9
  9
$DWGCODEPAGE
  3
ANSI_1252
  9
$INSBASE
 10
0.0
 20
0.0
 30
0.0
  9
$EXTMIN
 10
-22.47872327053915
 20
-35.34388905729656
 30
-0.0015258207003583
  9
$EXTMAX
 10
39.81254189110052
 20
33.79922834017691
 30
0.0000000349246037
  9
$LIMMIN
 10
0.0
 20
0.0
  9
$LIMMAX
 10
297.0
 20
210.0
  9
$ORTHOMODE
 70
     0
  9
$REGENMODE
 70
     1
  9
$FILLMODE
 70
     1
  9
$QTEXTMODE
 70
     0
  9
$MIRRTEXT
 70
     1
  9
$DRAGMODE
 70
     2
  9
$LTSCALE
 40
25.0
  9
$OSMODE
 70
   167
  9
$ATTMODE
 70
     1
  9
$TEXTSIZE
 40
0.2
  9
$TRACEWID
 40
0.05
  9
$TEXTSTYLE
  7
STANDARD
  9
$CLAYER
  8
0
  9
$CELTYPE
  6
BYLAYER
  9
$CECOLOR
 62
   256
  9
$CELTSCALE
 40
1.0
  9
$DELOBJ
 70
     1
  9
$DISPSILH
 70
     0
  9
$DIMSCALE
 40
1.0
  9
$DIMASZ
 40
3.5
  9
$DIMEXO
 40
0.625
  9
$DIMDLI
 40
3.75
  9
$DIMRND
 40
0.0
  9
$DIMDLE
 40
0.0
  9
$DIMEXE
 40
1.25
  9
$DIMTP
 40
0.0
  9
$DIMTM
 40
0.0
  9
$DIMTXT
 40
3.5
  9
$DIMCEN
 40
2.5
  9
$DIMTSZ
 40
0.0
  9
$DIMTOL
 70
     0
  9
$DIMLIM
 70
     0
  9
$DIMTIH
 70
     0
  9
$DIMTOH
 70
     0
  9
$DIMSE1
 70
     0
  9
$DIMSE2
 70
     0
  9
$DIMTAD
 70
     1
  9
$DIMZIN
 70
     8
  9
$DIMBLK
  1

  9
$DIMASO
 70
     1
  9
$DIMSHO
 70
     1
  9
$DIMPOST
  1

  9
$DIMAPOST
  1

  9
$DIMALT
 70
     0
  9
$DIMALTD
 70
     3
  9
$DIMALTF
 40
0.03937007874016
  9
$DIMLFAC
 40
1.0
  9
$DIMTOFL
 70
     1
  9
$DIMTVP
 40
0.0
  9
$DIMTIX
 70
     0
  9
$DIMSOXD
 70
     0
  9
$DIMSAH
 70
     0
  9
$DIMBLK1
  1

  9
$DIMBLK2
  1

  9
$DIMSTYLE
  2
ISO-25
  9
$DIMCLRD
 70
   256
  9
$DIMCLRE
 70
   256
  9
$DIMCLRT
 70
   256
  9
$DIMTFAC
 40
1.0
  9
$DIMGAP
 40
0.625
  9
$DIMJUST
 70
     0
  9
$DIMSD1
 70
     0
  9
$DIMSD2
 70
     0
  9
$DIMTOLJ
 70
     0
  9
$DIMTZIN
 70
     8
  9
$DIMALTZ
 70
     0
  9
$DIMALTTZ
 70
     0
  9
$DIMFIT
 70
     3
  9
$DIMUPT
 70
     0
  9
$DIMUNIT
 70
     2
  9
$DIMDEC
 70
     2
  9
$DIMTDEC
 70
     2
  9
$DIMALTU
 70
     2
  9
$DIMALTTD
 70
     3
  9
$DIMTXSTY
  7
STANDARD
  9
$DIMAUNIT
 70
     0
  9
$LUNITS
 70
     2
  9
$LUPREC
 70
     4
  9
$SKETCHINC
 40
0.1
  9
$FILLETRAD
 40
0.0
  9
$AUNITS
 70
     0
  9
$AUPREC
 70
     0
  9
$MENU
  1
.
  9
$ELEVATION
 40
0.0
  9
$PELEVATION
 40
0.0
  9
$THICKNESS
 40
0.0
  9
$LIMCHECK
 70
     0
  9
$BLIPMODE
 70
     0
  9
$CHAMFERA
 40
0.0
  9
$CHAMFERB
 40
0.0
  9
$CHAMFERC
 40
0.0
  9
$CHAMFERD
 40
0.0
  9
$SKPOLY
 70
     0
  9
$TDCREATE
 40
2454167.426010960
  9
$TDUPDATE
 40
2454187.550112580
  9
$TDINDWG
 40
0.2039090856
  9
$TDUSRTIMER
 40
0.2039090856
  9
$USRTIMER
 70
     1
  9
$ANGBASE
 50
0.0
  9
$ANGDIR
 70
     0
  9
$PDMODE
 70
     3
  9
$PDSIZE
 40
0.3125
  9
$PLINEWID
 40
0.0
  9
$COORDS
 70
     0
  9
$SPLFRAME
 70
     0
  9
$SPLINETYPE
 70
     6
  9
$SPLINESEGS
 70
     8
  9
$ATTDIA
 70
     0
  9
$ATTREQ
 70
     1
  9
$HANDLING
 70
-16383
  9
$HANDSEED
  5
14C3
  9
$SURFTAB1
 70
     6
  9
$SURFTAB2
 70
     6
  9
$SURFTYPE
 70
     6
  9
$SURFU
 70
     6
  9
$SURFV
 70
     6
  9
$UCSNAME
  2

  9
$UCSORG
 10
0.0
 20
0.0
 30
0.0
  9
$UCSXDIR
 10
1.0
 20
0.0
 30
0.0
  9
$UCSYDIR
 10
0.0
 20
1.0
 30
0.0
  9
$PUCSNAME
  2

  9
$PUCSORG
 10
0.0
 20
0.0
 30
0.0
  9
$PUCSXDIR
 10
1.0
 20
0.0
 30
0.0
  9
$PUCSYDIR
 10
0.0
 20
1.0
 30
0.0
  9
$USERI1
 70
     0
  9
$USERI2
 70
     0
  9
$USERI3
 70
     0
  9
$USERI4
 70
     0
  9
$USERI5
 70
     0
  9
$USERR1
 40
0.0
  9
$USERR2
 40
0.0
  9
$USERR3
 40
0.0
  9
$USERR4
 40
0.0
  9
$USERR5
 40
0.0
  9
$WORLDVIEW
 70
     1
  9
$SHADEDGE
 70
     3
  9
$SHADEDIF
 70
    70
  9
$TILEMODE
 70
     1
  9
$MAXACTVP
 70
    64
  9
$PINSBASE
 10
0.0
 20
0.0
 30
0.0
  9
$PLIMCHECK
 70
     0
  9
$PEXTMIN
 10
1.000000000000000E+20
 20
1.000000000000000E+20
 30
1.000000000000000E+20
  9
$PEXTMAX
 10
-1.000000000000000E+20
 20
-1.000000000000000E+20
 30
-1.000000000000000E+20
  9
$PLIMMIN
 10
0.0
 20
0.0
  9
$PLIMMAX
 10
12.0
 20
9.0
  9
$UNITMODE
 70
     0
  9
$VISRETAIN
 70
     1
  9
$PLINEGEN
 70
     0
  9
$PSLTSCALE
 70
     1
  9
$TREEDEPTH
 70
  3020
  9
$PICKSTYLE
 70
     1
  9
$CMLSTYLE
  2
STANDARD
  9
$CMLJUST
 70
     0
  9
$CMLSCALE
 40
1.0
  9
$PROXYGRAPHICS
 70
     1
  9
$MEASUREMENT
 70
     1
  0
ENDSEC
  0
SECTION
  2
CLASSES
  0
CLASS
  1
ACDBDICTIONARYWDFLT
  2
AcDbDictionaryWithDefault
  3
AutoCAD 2000
 90
        0
280
     0
281
     0
  0
CLASS
  1
ACDBPLACEHOLDER
  2
AcDbPlaceHolder
  3
AutoCAD 2000
 90
        0
280
     0
281
     0
  0
CLASS
  1
LAYOUT
  2
AcDbLayout
  3
AutoCAD 2000
 90
        0
280
     0
281
     0
  0
CLASS
  1
LONG_TRANSACTION
  2
AcDbLongTransaction
  3
AutoCAD 2000
 90
        0
280
     0
281
     0
  0
CLASS
  1
LWPOLYLINE
  2
AcDbPolyline
  3
AutoCAD 2000
 90
        0
280
     0
281
     1
  0
CLASS
  1
HATCH
  2
AcDbHatch
  3
AutoCAD 2000
 90
        0
280
     0
281
     1
  0
CLASS
  1
XRECORD
  2
AcDbXrecord
  3
AutoCAD 2000
 90
        0
280
     0
281
     0
  0
CLASS
  1
LONG_TRANSACTION
  2
AcDbLongTransaction
  3
AutoCAD 2000
 90
        0
280
     0
281
     0
  0
CLASS
  1
LWPOLYLINE
  2
AcDbPolyline
  3
AutoCAD 2000
 90
        0
280
     0
281
     1
  0
CLASS
  1
HATCH
  2
AcDbHatch
  3
AutoCAD 2000
 90
        0
280
     0
281
     1
  0
CLASS
  1
XRECORD
  2
AcDbXrecord
  3
AutoCAD 2000
 90
        0
280
     0
281
     0
  0
CLASS
  1
DICTIONARYVAR
  2
AcDbDictionaryVar
  3
AutoCAD 2000
 90
        0
280
     0
281
     0
  0
CLASS
  1
LONG_TRANSACTION
  2
AcDbLongTransaction
  3
AutoCAD 2000
 90
        0
280
     0
281
     0
  0
CLASS
  1
LWPOLYLINE
  2
AcDbPolyline
  3
AutoCAD 2000
 90
        0
280
     0
281
     1
  0
CLASS
  1
HATCH
  2
AcDbHatch
  3
AutoCAD 2000
 90
        0
280
     0
281
     1
  0
CLASS
  1
XRECORD
  2
AcDbXrecord
  3
AutoCAD 2000
 90
        0
280
     0
281
     0
  0
CLASS
  1
LONG_TRANSACTION
  2
AcDbLongTransaction
  3
AutoCAD 2000
 90
        0
280
     0
281
     0
  0
CLASS
  1
LWPOLYLINE
  2
AcDbPolyline
  3
AutoCAD 2000
 90
        0
280
     0
281
     1
  0
CLASS
  1
HATCH
  2
AcDbHatch
  3
AutoCAD 2000
 90
        0
280
     0
281
     1
  0
CLASS
  1
XRECORD
  2
AcDbXrecord
  3
AutoCAD 2000
 90
        0
280
     0
281
     0
  0
CLASS
  1
LONG_TRANSACTION
  2
AcDbLongTransaction
  3
AutoCAD 2000
 90
        0
280
     0
281
     0
  0
CLASS
  1
LWPOLYLINE
  2
AcDbPolyline
  3
AutoCAD 2000
 90
        0
280
     0
281
     1
  0
CLASS
  1
HATCH
  2
AcDbHatch
  3
AutoCAD 2000
 90
        0
280
     0
281
     1
  0
CLASS
  1
XRECORD
  2
AcDbXrecord
  3
AutoCAD 2000
 90
        0
280
     0
281
     0
  0
ENDSEC
  0
SECTION
  2
TABLES
  0
TABLE
  2
VPORT
  5
8
330
0
100
AcDbSymbolTable
 70
     2
  0
VPORT
  5
1495
330
8
100
AcDbSymbolTableRecord
100
AcDbViewportTableRecord
  2
*ACTIVE
 70
     0
 10
0.0
 20
0.0
 11
1.0
 21
1.0
 12
8.666909310280685
 22
-0.7723303585598274
 13
0.0
 23
0.0
 14
1.0
 24
1.0
 15
0.0
 25
0.0
 16
0.0
 26
0.0
 36
1.0
 17
0.0
 27
0.0
 37
0.0
 40
69.55427567733952
 41
1.297619047619047
 42
50.0
 43
0.0
 44
0.0
 50
0.0
 51
0.0
 71
     0
 72
 20000
 73
     1
 74
     1
 75
     0
 76
     0
 77
     0
 78
     0
  0
ENDTAB
  0
TABLE
  2
LTYPE
  5
5
330
0
100
AcDbSymbolTable
 70
     2
  0
LTYPE
  5
14
330
5
100
AcDbSymbolTableRecord
100
AcDbLinetypeTableRecord
  2
BYBLOCK
 70
     0
  3

 72
    65
 73
     0
 40
0.0
  0
LTYPE
  5
15
330
5
100
AcDbSymbolTableRecord
100
AcDbLinetypeTableRecord
  2
BYLAYER
 70
     0
  3

 72
    65
 73
     0
 40
0.0
  0
LTYPE
  5
16
330
5
100
AcDbSymbolTableRecord
100
AcDbLinetypeTableRecord
  2
CONTINUOUS
 70
     0
  3
Solid line
 72
    65
 73
     0
 40
0.0
  0
LTYPE
  5
1F5
330
5
100
AcDbSymbolTableRecord
100
AcDbLinetypeTableRecord
  2
CENTER
 70
     0
  3
____ _ ____ _ ____ _ ____ _ ____ _ ____ _ ____
 72
    65
 73
     4
 40
0.6
 49
0.375
 74
     0
 49
-0.075
 74
     0
 49
0.075
 74
     0
 49
-0.075
 74
     0
  0
ENDTAB
  0
TABLE
  2
LAYER
  5
2
330
0
100
AcDbSymbolTable
 70
    11
  0
LAYER
  5
10
330
2
100
AcDbSymbolTableRecord
100
AcDbLayerTableRecord
  2
0
 70
     0
 62
     7
  6
CONTINUOUS
  0
LAYER
  5
5AD
330
2
100
AcDbSymbolTableRecord
100
AcDbLayerTableRecord
  2
1
 70
     0
 62
     4
  6
CONTINUOUS
  0
LAYER
  5
5AE
330
2
100
AcDbSymbolTableRecord
100
AcDbLayerTableRecord
  2
2
 70
     0
 62
     7
  6
CONTINUOUS
  0
LAYER
  5
5AF
330
2
100
AcDbSymbolTableRecord
100
AcDbLayerTableRecord
  2
DEFPOINTS
 70
     0
 62
     7
  6
CONTINUOUS
  0
LAYER
  5
5B0
330
2
100
AcDbSymbolTableRecord
100
AcDbLayerTableRecord
  2
4
 70
     0
 62
     2
  6
CENTER
  0
LAYER
  5
5B1
330
2
100
AcDbSymbolTableRecord
100
AcDbLayerTableRecord
  2
6
 70
     0
 62
     5
  6
CONTINUOUS
  0
LAYER
  5
5B2
330
2
100
AcDbSymbolTableRecord
100
AcDbLayerTableRecord
  2
CUT
 70
     0
 62
     1
  6
CONTINUOUS
  0
LAYER
  5
5B3
330
2
100
AcDbSymbolTableRecord
100
AcDbLayerTableRecord
  2
NOCUT
 70
     0
 62
     7
  6
CONTINUOUS
  0
LAYER
  5
5B4
330
2
100
AcDbSymbolTableRecord
100
AcDbLayerTableRecord
  2
SK1
 70
     0
 62
     4
  6
CONTINUOUS
  0
LAYER
  5
5B5
330
2
100
AcDbSymbolTableRecord
100
AcDbLayerTableRecord
  2
SK4
 70
     0
 62
     2
  6
CENTER
  0
LAYER
  5
145F
330
2
100
AcDbSymbolTableRecord
100
AcDbLayerTableRecord
  2
SK2
 70
     0
 62
     7
  6
CONTINUOUS
  0
ENDTAB
  0
TABLE
  2
STYLE
  5
3
330
0
100
AcDbSymbolTable
 70
     1
  0
STYLE
  5
11
330
3
100
AcDbSymbolTableRecord
100
AcDbTextStyleTableRecord
  2
STANDARD
 70
     0
 40
0.0
 41
0.8
 50
0.0
 71
     0
 42
0.2
  3
isocp.shx
  4

  0
ENDTAB
  0
TABLE
  2
VIEW
  5
6
330
0
100
AcDbSymbolTable
 70
     0
  0
ENDTAB
  0
TABLE
  2
UCS
  5
7
330
0
100
AcDbSymbolTable
 70
     0
  0
ENDTAB
  0
TABLE
  2
APPID
  5
9
330
0
100
AcDbSymbolTable
 70
     1
  0
APPID
  5
20C
330
9
100
AcDbSymbolTableRecord
100
AcDbRegAppTableRecord
  2
ACAD
 70
     0
  0
ENDTAB
  0
TABLE
  2
DIMSTYLE
  5
A
330
0
100
AcDbSymbolTable
 70
     2
  0
DIMSTYLE
105
20D
330
A
100
AcDbSymbolTableRecord
100
AcDbDimStyleTableRecord
  2
STANDARD
 70
     0
  3

  4

  5

  6

  7

 40
1.0
 41
2.5
 42
0.0625
 43
0.38
 44
0.18
 45
0.0
 46
0.0
 47
0.005
 48
0.005
140
3.5
141
0.09
142
0.0
143
25.4
144
1.0
145
0.0
146
1.0
147
0.09
 71
     1
 72
     0
 73
     0
 74
     0
 75
     0
 76
     0
 77
     1
 78
     8
170
     0
171
     2
172
     0
173
     0
174
     0
175
     0
176
     0
177
     0
178
     5
270
     2
271
     3
272
     3
273
     2
274
     2
340
11
275
     0
280
     0
281
     0
282
     0
283
     1
284
     8
285
     0
286
     0
287
     3
288
     0
  0
DIMSTYLE
105
5B6
102
{ACAD_REACTORS
330
D2D
330
D2E
330
D2F
330
D30
330
D31
330
1465
102
}
330
A
100
AcDbSymbolTableRecord
100
AcDbDimStyleTableRecord
  2
ISO-25
 70
     0
  3

  4

  5

  6

  7

 40
1.0
 41
3.5
 42
0.625
 43
3.75
 44
1.25
 45
0.0
 46
0.0
 47
0.0
 48
0.0
140
3.5
141
2.5
142
0.0
143
0.03937007874016
144
1.0
145
0.0
146
1.0
147
0.625
 71
     0
 72
     0
 73
     0
 74
     0
 75
     0
 76
     0
 77
     1
 78
     8
170
     0
171
     3
172
     1
173
     0
174
     0
175
     0
176
   256
177
   256
178
   256
270
     2
271
     2
272
     2
273
     2
274
     3
340
11
275
     0
280
     0
281
     0
282
     0
283
     0
284
     8
285
     0
286
     0
287
     3
288
     0
  0
ENDTAB
  0
TABLE
  2
BLOCK_RECORD
  5
1
330
0
100
AcDbSymbolTable
 70
     9
  0
BLOCK_RECORD
  5
1F
102
{ACAD_XDICTIONARY
360
AF0
102
}
330
1
100
AcDbSymbolTableRecord
100
AcDbBlockTableRecord
  2
*MODEL_SPACE
  0
BLOCK_RECORD
  5
1B
102
{ACAD_XDICTIONARY
360
AEE
102
}
330
1
100
AcDbSymbolTableRecord
100
AcDbBlockTableRecord
  2
*PAPER_SPACE
  0
BLOCK_RECORD
  5
EB0
330
1
100
AcDbSymbolTableRecord
100
AcDbBlockTableRecord
  2
*D0
  0
BLOCK_RECORD
  5
EBE
330
1
100
AcDbSymbolTableRecord
100
AcDbBlockTableRecord
  2
*D1
  0
BLOCK_RECORD
  5
ECC
330
1
100
AcDbSymbolTableRecord
100
AcDbBlockTableRecord
  2
*D2
  0
BLOCK_RECORD
  5
EDA
330
1
100
AcDbSymbolTableRecord
100
AcDbBlockTableRecord
  2
*D3
  0
BLOCK_RECORD
  5
EE8
330
1
100
AcDbSymbolTableRecord
100
AcDbBlockTableRecord
  2
*D4
  0
BLOCK_RECORD
  5
144D
330
1
100
AcDbSymbolTableRecord
100
AcDbBlockTableRecord
  2
_ARROW_FILLED
  0
BLOCK_RECORD
  5
1451
330
1
100
AcDbSymbolTableRecord
100
AcDbBlockTableRecord
  2
*D6
  0
BLOCK_RECORD
  5
1466
330
1
100
AcDbSymbolTableRecord
100
AcDbBlockTableRecord
  2
*D8
  0
ENDTAB
  0
ENDSEC
  0
SECTION
  2
BLOCKS
  0
BLOCK
  5
20
330
1F
100
AcDbEntity
  8
0
100
AcDbBlockBegin
  2
*MODEL_SPACE
 70
     0
 10
0.0
 20
0.0
 30
0.0
  3
*MODEL_SPACE
  1

  0
ENDBLK
  5
21
330
1F
100
AcDbEntity
  8
0
100
AcDbBlockEnd
  0
BLOCK
  5
1C
330
1B
100
AcDbEntity
 67
     1
  8
0
100
AcDbBlockBegin
  2
*PAPER_SPACE
 70
     0
 10
0.0
 20
0.0
 30
0.0
  3
*PAPER_SPACE
  1

  0
ENDBLK
  5
1D
330
1B
100
AcDbEntity
 67
     1
  8
0
100
AcDbBlockEnd
  0
BLOCK
  5
EBC
330
EB0
100
AcDbEntity
  8
0
100
AcDbBlockBegin
  2
*D0
 70
     1
 10
0.0
 20
0.0
 30
0.0
  3
*D0
  1

  0
LINE
  5
130B
330
EB0
100
AcDbEntity
  8
2
100
AcDbLine
 10
7.343868045019209
 20
-5.200725629608848
 30
0.0
 11
24.93746235443058
 21
-5.200725629608855
 31
0.0
  0
LINE
  5
130C
330
EB0
100
AcDbEntity
  8
2
100
AcDbLine
 10
7.685602089623192
 20
5.196525655538888
 30
0.0
 11
24.93746235443058
 21
5.196525655538883
 31
0.0
  0
LINE
  5
130D
330
EB0
100
AcDbEntity
  8
2
100
AcDbLine
 10
23.68746235443057
 20
-8.700725629608855
 30
0.0
 11
23.68746235443057
 21
-12.20072562960885
 31
0.0
  0
LINE
  5
130E
330
EB0
100
AcDbEntity
  8
2
100
AcDbLine
 10
23.68746235443058
 20
8.696525655538883
 30
0.0
 11
23.68746235443058
 21
12.19652565553888
 31
0.0
  0
LINE
  5
130F
330
EB0
100
AcDbEntity
  8
2
100
AcDbLine
 10
23.68746235443058
 20
-5.200725629608855
 30
0.0
 11
23.68746235443058
 21
5.196525655538883
 31
0.0
  0
SOLID
  5
1310
330
EB0
100
AcDbEntity
  8
2
100
AcDbTrace
 10
23.10412902109724
 20
-8.700725629608855
 30
0.0
 11
24.2707956877639
 21
-8.700725629608855
 31
0.0
 12
23.68746235443058
 22
-5.200725629608855
 32
0.0
 13
23.68746235443058
 23
-5.200725629608855
 33
0.0
  0
SOLID
  5
1311
330
EB0
100
AcDbEntity
  8
2
100
AcDbTrace
 10
23.10412902109725
 20
8.696525655538883
 30
0.0
 11
24.27079568776391
 21
8.696525655538883
 31
0.0
 12
23.68746235443058
 22
5.196525655538883
 32
0.0
 13
23.68746235443058
 23
5.196525655538883
 33
0.0
  0
MTEXT
  5
1312
330
EB0
100
AcDbEntity
  8
2
100
AcDbMText
 10
21.31246235443057
 20
-0.0000018664999428
 30
0.0
 40
3.5
 41
0.0
 71
     5
 72
     1
  1
10.4
 11
0.0000000000000001
 21
1.0
 31
0.0
1001
ACAD
1000
MTEXTBEGIN
1070
    73
1070
     1
1070
    44
1040
1.0
1070
    74
1070
     0
1000
MTEXTEND
1000
MTEXTBEGIN
1070
    73
1070
     1
1070
    44
1040
1.0
1070
    74
1070
     0
1000
MTEXTEND
1000
MTEXTBEGIN
1070
    73
1070
     1
1070
    44
1040
1.0
1070
    74
1070
     0
1000
MTEXTEND
  0
POINT
  5
1313
330
EB0
100
AcDbEntity
  8
DEFPOINTS
 62
     0
100
AcDbPoint
 10
6.718868045019209
 20
-5.200725629608848
 30
0.0
  0
POINT
  5
1314
330
EB0
100
AcDbEntity
  8
DEFPOINTS
 62
     0
100
AcDbPoint
 10
7.060602089623192
 20
5.196525655538888
 30
0.0
  0
POINT
  5
1315
330
EB0
100
AcDbEntity
  8
DEFPOINTS
 62
     0
100
AcDbPoint
 10
23.68746235443058
 20
5.196525655538883
 30
0.0
  0
ENDBLK
  5
EBD
330
EB0
100
AcDbEntity
  8
0
100
AcDbBlockEnd
  0
BLOCK
  5
ECA
330
EBE
100
AcDbEntity
  8
0
100
AcDbBlockBegin
  2
*D1
 70
     1
 10
0.0
 20
0.0
 30
0.0
  3
*D1
  1

  0
LINE
  5
14B8
330
EBE
100
AcDbEntity
  8
2
100
AcDbLine
 10
9.909986339805925
 20
2.359076512096633
 30
0.0
 11
-10.42595652305124
 21
22.60340878705275
 31
0.0
  0
LINE
  5
14B9
330
EBE
100
AcDbEntity
  8
2
100
AcDbLine
 10
9.320742072178386
 20
-2.943095706264945
 30
0.0
 11
-10.44981702175794
 21
-22.5830635365086
 31
0.0
  0
ARC
  5
14BA
330
EBE
100
AcDbEntity
  8
2
100
AcDbCircle
 10
12.28157078391978
 20
-0.0018242746797036
 30
0.0
 40
30.79104177725932
100
AcDbArc
 50
141.645635511908
 51
218.2938549738232
  0
SOLID
  5
14BB
330
EBE
100
AcDbEntity
  8
2
100
AcDbTrace
 10
-12.30052402829265
 20
19.49212254288749
 30
0.0
 11
-11.42826205659743
 21
18.71735150325999
 31
0.0
 12
-9.540079923562547
 22
21.7215229381594
 32
0.0
 13
-9.540079923562547
 23
21.7215229381594
 33
0.0
  0
SOLID
  5
14BC
330
EBE
100
AcDbEntity
  8
2
100
AcDbTrace
 10
-11.44801796989892
 20
-18.6959498949197
 30
0.0
 11
-12.32109768315667
 21
-19.46979931529092
 31
0.0
 12
-9.56300956541413
 22
-21.70211374487855
 32
0.0
 13
-9.56300956541413
 23
-21.70211374487855
 33
0.0
  0
MTEXT
  5
14BD
330
EBE
100
AcDbEntity
  8
2
100
AcDbMText
 10
-20.88446706812956
 20
0.0143116275451757
 30
0.0
 40
3.5
 41
0.0
 71
     5
 72
     1
  1
90°
 11
0.0004865187812663
 21
0.9999998816497306
 31
0.0
  0
POINT
  5
14BE
330
EBE
100
AcDbEntity
  8
DEFPOINTS
 62
     0
100
AcDbPoint
 10
-17.46348080031051
 20
7.955572283266108
 30
0.0
  0
POINT
  5
14BF
330
EBE
100
AcDbEntity
  8
DEFPOINTS
 62
     0
100
AcDbPoint
 10
9.764145800350291
 20
-2.502620810449923
 30
0.0
  0
POINT
  5
14C0
330
EBE
100
AcDbEntity
  8
DEFPOINTS
 62
     0
100
AcDbPoint
 10
10.35292463955027
 20
1.918133587649959
 30
0.0
  0
POINT
  5
14C1
330
EBE
100
AcDbEntity
  8
DEFPOINTS
 62
     0
100
AcDbPoint
 10
10.93345481095026
 20
1.34021862375006
 30
0.0
  0
POINT
  5
14C2
330
EBE
100
AcDbEntity
  8
DEFPOINTS
 62
     0
100
AcDbPoint
 10
10.64421193615017
 20
-1.628367810649945
 30
0.0
  0
ENDBLK
  5
ECB
330
EBE
100
AcDbEntity
  8
0
100
AcDbBlockEnd
  0
BLOCK
  5
ED8
330
ECC
100
AcDbEntity
  8
0
100
AcDbBlockBegin
  2
*D2
 70
     1
 10
0.0
 20
0.0
 30
0.0
  3
*D2
  1

  0
LINE
  5
105A
330
ECC
100
AcDbEntity
  8
2
100
AcDbLine
 10
11.7499999999989
 20
-0.6250018758500318
 30
0.0
 11
11.7499999999989
 21
-23.88693043200811
 31
0.0
  0
LINE
  5
105B
330
ECC
100
AcDbEntity
  8
2
100
AcDbLine
 10
-0.0000036361998923
 20
-5.321359999999913
 30
0.0
 11
-0.0000036361998935
 21
-23.88693043200811
 31
0.0
  0
LINE
  5
105C
330
ECC
100
AcDbEntity
  8
2
100
AcDbLine
 10
15.2499999999989
 20
-22.63693043200811
 30
0.0
 11
18.74999999999889
 21
-22.63693043200811
 31
0.0
  0
LINE
  5
105D
330
ECC
100
AcDbEntity
  8
2
100
AcDbLine
 10
-3.500003636199893
 20
-22.63693043200811
 30
0.0
 11
-7.000003636199893
 21
-22.63693043200811
 31
0.0
  0
LINE
  5
105E
330
ECC
100
AcDbEntity
  8
2
100
AcDbLine
 10
11.7499999999989
 20
-22.63693043200811
 30
0.0
 11
-0.0000036361998934
 21
-22.63693043200811
 31
0.0
  0
SOLID
  5
105F
330
ECC
100
AcDbEntity
  8
2
100
AcDbTrace
 10
15.2499999999989
 20
-22.05359709867475
 30
0.0
 11
15.2499999999989
 21
-23.22026376534144
 31
0.0
 12
11.7499999999989
 22
-22.63693043200811
 32
0.0
 13
11.7499999999989
 23
-22.63693043200811
 33
0.0
  0
SOLID
  5
1060
330
ECC
100
AcDbEntity
  8
2
100
AcDbTrace
 10
-3.500003636199893
 20
-22.05359709867475
 30
0.0
 11
-3.500003636199893
 21
-23.22026376534144
 31
0.0
 12
-0.0000036361998934
 22
-22.63693043200811
 32
0.0
 13
-0.0000036361998934
 23
-22.63693043200811
 33
0.0
  0
MTEXT
  5
1061
330
ECC
100
AcDbEntity
  8
2
100
AcDbMText
 10
5.874998181899503
 20
-20.26193043200811
 30
0.0
 40
3.5
 41
0.0
 71
     5
 72
     1
  1
11.75
1001
ACAD
1000
MTEXTBEGIN
1070
    73
1070
     1
1070
    44
1040
1.0
1070
    74
1070
     0
1000
MTEXTEND
1000
MTEXTBEGIN
1070
    73
1070
     1
1070
    44
1040
1.0
1070
    74
1070
     0
1000
MTEXTEND
1000
MTEXTBEGIN
1070
    73
1070
     1
1070
    44
1040
1.0
1070
    74
1070
     0
1000
MTEXTEND
  0
POINT
  5
1062
330
ECC
100
AcDbEntity
  8
DEFPOINTS
 62
     0
100
AcDbPoint
 10
11.7499999999989
 20
-0.0000018758500317
 30
0.0
  0
POINT
  5
1063
330
ECC
100
AcDbEntity
  8
DEFPOINTS
 62
     0
100
AcDbPoint
 10
-0.0000036361998923
 20
-4.696359999999913
 30
0.0
  0
POINT
  5
1064
330
ECC
100
AcDbEntity
  8
DEFPOINTS
 62
     0
100
AcDbPoint
 10
-0.0000036361998934
 20
-22.63693043200811
 30
0.0
  0
ENDBLK
  5
ED9
330
ECC
100
AcDbEntity
  8
0
100
AcDbBlockEnd
  0
BLOCK
  5
EE6
330
EDA
100
AcDbEntity
  8
0
100
AcDbBlockBegin
  2
*D3
 70
     1
 10
0.0
 20
0.0
 30
0.0
  3
*D3
  1

  0
LINE
  5
1316
330
EDA
100
AcDbEntity
  8
2
100
AcDbLine
 10
7.060602089623192
 20
5.821525655538888
 30
0.0
 11
7.060602089623192
 21
21.7472804126188
 31
0.0
  0
LINE
  5
1317
330
EDA
100
AcDbEntity
  8
2
100
AcDbLine
 10
11.74999999999885
 20
0.6249981241499683
 30
0.0
 11
11.74999999999885
 21
21.7472804126188
 31
0.0
  0
LINE
  5
1318
330
EDA
100
AcDbEntity
  8
2
100
AcDbLine
 10
3.560602089623193
 20
20.4972804126188
 30
0.0
 11
0.0606020896231936
 21
20.4972804126188
 31
0.0
  0
LINE
  5
1319
330
EDA
100
AcDbEntity
  8
2
100
AcDbLine
 10
15.24999999999884
 20
20.4972804126188
 30
0.0
 11
26.31496124844881
 21
20.4972804126188
 31
0.0
  0
LINE
  5
131A
330
EDA
100
AcDbEntity
  8
2
100
AcDbLine
 10
7.060602089623192
 20
20.4972804126188
 30
0.0
 11
11.74999999999885
 21
20.4972804126188
 31
0.0
  0
SOLID
  5
131B
330
EDA
100
AcDbEntity
  8
2
100
AcDbTrace
 10
3.560602089623193
 20
21.08061374595212
 30
0.0
 11
3.560602089623193
 21
19.91394707928546
 31
0.0
 12
7.060602089623192
 22
20.4972804126188
 32
0.0
 13
7.060602089623192
 23
20.4972804126188
 33
0.0
  0
SOLID
  5
131C
330
EDA
100
AcDbEntity
  8
2
100
AcDbTrace
 10
15.24999999999884
 20
21.08061374595212
 30
0.0
 11
15.24999999999884
 21
19.91394707928546
 31
0.0
 12
11.74999999999885
 22
20.4972804126188
 32
0.0
 13
11.74999999999885
 23
20.4972804126188
 33
0.0
  0
MTEXT
  5
131D
330
EDA
100
AcDbEntity
  8
2
100
AcDbMText
 10
23.5899612484488
 20
22.87228041261879
 30
0.0
 40
3.5
 41
0.0
 71
     5
 72
     1
  1
4.7
1001
ACAD
1000
MTEXTBEGIN
1070
    73
1070
     1
1070
    44
1040
1.0
1070
    74
1070
     0
1000
MTEXTEND
1000
MTEXTBEGIN
1070
    73
1070
     1
1070
    44
1040
1.0
1070
    74
1070
     0
1000
MTEXTEND
1000
MTEXTBEGIN
1070
    73
1070
     1
1070
    44
1040
1.0
1070
    74
1070
     0
1000
MTEXTEND
  0
POINT
  5
131E
330
EDA
100
AcDbEntity
  8
DEFPOINTS
 62
     0
100
AcDbPoint
 10
7.060602089623192
 20
5.196525655538888
 30
0.0
  0
POINT
  5
131F
330
EDA
100
AcDbEntity
  8
DEFPOINTS
 62
     0
100
AcDbPoint
 10
11.74999999999885
 20
-0.0000018758500317
 30
0.0
  0
POINT
  5
1320
330
EDA
100
AcDbEntity
  8
DEFPOINTS
 62
     0
100
AcDbPoint
 10
11.74999999999885
 20
20.4972804126188
 30
0.0
  0
ENDBLK
  5
EE7
330
EDA
100
AcDbEntity
  8
0
100
AcDbBlockEnd
  0
BLOCK
  5
EF4
330
EE8
100
AcDbEntity
  8
0
100
AcDbBlockBegin
  2
*D4
 70
     1
 10
0.0
 20
0.0
 30
0.0
  3
*D4
  1

  0
LINE
  5
12D4
330
EE8
100
AcDbEntity
  8
2
100
AcDbLine
 10
2.749999999998894
 20
5.894018601469732
 30
0.0
 11
2.749999999998895
 21
31.0833658929769
 31
0.0
  0
LINE
  5
12D5
330
EE8
100
AcDbEntity
  8
2
100
AcDbLine
 10
11.74999999999885
 20
0.6249981241499683
 30
0.0
 11
11.74999999999885
 21
31.0833658929769
 31
0.0
  0
LINE
  5
12D6
330
EE8
100
AcDbEntity
  8
2
100
AcDbLine
 10
-0.750000000001104
 20
29.8333658929769
 30
0.0
 11
-4.250000000001103
 21
29.8333658929769
 31
0.0
  0
LINE
  5
12D7
330
EE8
100
AcDbEntity
  8
2
100
AcDbLine
 10
15.24999999999884
 20
29.8333658929769
 30
0.0
 11
18.74999999999886
 21
29.8333658929769
 31
0.0
  0
LINE
  5
12D8
330
EE8
100
AcDbEntity
  8
2
100
AcDbLine
 10
2.749999999998895
 20
29.8333658929769
 30
0.0
 11
11.74999999999885
 21
29.8333658929769
 31
0.0
  0
SOLID
  5
12D9
330
EE8
100
AcDbEntity
  8
2
100
AcDbTrace
 10
-0.750000000001104
 20
30.41669922631021
 30
0.0
 11
-0.750000000001104
 21
29.25003255964357
 31
0.0
 12
2.749999999998895
 22
29.8333658929769
 32
0.0
 13
2.749999999998895
 23
29.8333658929769
 33
0.0
  0
SOLID
  5
12DA
330
EE8
100
AcDbEntity
  8
2
100
AcDbTrace
 10
15.24999999999884
 20
30.41669922631021
 30
0.0
 11
15.24999999999884
 21
29.25003255964357
 31
0.0
 12
11.74999999999885
 22
29.8333658929769
 32
0.0
 13
11.74999999999885
 23
29.8333658929769
 33
0.0
  0
MTEXT
  5
12DB
330
EE8
100
AcDbEntity
  8
2
100
AcDbMText
 10
7.301229352774527
 20
32.2083658929769
 30
0.0
 40
3.5
 41
0.0
 71
     5
 72
     1
  1
9
1001
ACAD
1000
MTEXTBEGIN
1070
    73
1070
     1
1070
    44
1040
1.0
1070
    74
1070
     0
1000
MTEXTEND
1000
MTEXTBEGIN
1070
    73
1070
     1
1070
    44
1040
1.0
1070
    74
1070
     0
1000
MTEXTEND
1000
MTEXTBEGIN
1070
    73
1070
     1
1070
    44
1040
1.0
1070
    74
1070
     0
1000
MTEXTEND
  0
POINT
  5
12DC
330
EE8
100
AcDbEntity
  8
DEFPOINTS
 62
     0
100
AcDbPoint
 10
2.749999999998894
 20
5.26901860146973
 30
0.0
  0
POINT
  5
12DD
330
EE8
100
AcDbEntity
  8
DEFPOINTS
 62
     0
100
AcDbPoint
 10
11.74999999999885
 20
-0.0000018758500317
 30
0.0
  0
POINT
  5
12DE
330
EE8
100
AcDbEntity
  8
DEFPOINTS
 62
     0
100
AcDbPoint
 10
11.74999999999885
 20
29.8333658929769
 30
0.0
  0
ENDBLK
  5
EF5
330
EE8
100
AcDbEntity
  8
0
100
AcDbBlockEnd
  0
BLOCK
  5
144F
330
144D
100
AcDbEntity
  8
0
100
AcDbBlockBegin
  2
_ARROW_FILLED
 70
     0
 10
0.0
 20
0.0
 30
0.0
  3
_ARROW_FILLED
  1

  0
SOLID
  5
144E
330
144D
100
AcDbEntity
  8
0
  6
BYBLOCK
 62
     0
100
AcDbTrace
 10
0.0
 20
0.0
 30
0.0
 11
-1.0
 21
0.132
 31
0.0
 12
-1.0
 22
-0.132
 32
0.0
 13
-1.0
 23
-0.132
 33
0.0
  0
ENDBLK
  5
1450
330
144D
100
AcDbEntity
  8
0
  6
BYBLOCK
 62
     0
100
AcDbBlockEnd
  0
BLOCK
  5
145D
330
1451
100
AcDbEntity
  8
0
100
AcDbBlockBegin
  2
*D6
 70
     1
 10
0.0
 20
0.0
 30
0.0
  3
*D6
  1

  0
LINE
  5
1452
330
1451
100
AcDbEntity
  8
SK2
100
AcDbLine
 10
-6.601886324057418
 20
2.650000887499999
 30
0.0
 11
-14.3152289181549
 21
2.650000887500001
 31
0.0
  0
LINE
  5
1453
330
1451
100
AcDbEntity
  8
SK2
100
AcDbLine
 10
-7.218414779224081
 20
-2.650000481916658
 30
0.0
 11
-14.3152289181549
 21
-2.650000481916657
 31
0.0
  0
LINE
  5
1454
330
1451
100
AcDbEntity
  8
SK2
100
AcDbLine
 10
-13.0652289181549
 20
6.1500008875
 30
0.0
 11
-13.0652289181549
 21
9.650000887500002
 31
0.0
  0
LINE
  5
1455
330
1451
100
AcDbEntity
  8
SK2
100
AcDbLine
 10
-13.0652289181549
 20
-6.150000481916657
 30
0.0
 11
-13.0652289181549
 21
-9.650000481916656
 31
0.0
  0
LINE
  5
1456
330
1451
100
AcDbEntity
  8
SK2
100
AcDbLine
 10
-13.0652289181549
 20
2.650000887500001
 30
0.0
 11
-13.0652289181549
 21
-2.650000481916657
 31
0.0
  0
SOLID
  5
1457
330
1451
100
AcDbEntity
  8
SK2
100
AcDbTrace
 10
-13.64856225148823
 20
6.1500008875
 30
0.0
 11
-12.48189558482156
 21
6.1500008875
 31
0.0
 12
-13.0652289181549
 22
2.650000887500001
 32
0.0
 13
-13.0652289181549
 23
2.650000887500001
 33
0.0
  0
SOLID
  5
1458
330
1451
100
AcDbEntity
  8
SK2
100
AcDbTrace
 10
-13.64856225148823
 20
-6.150000481916657
 30
0.0
 11
-12.48189558482156
 21
-6.150000481916657
 31
0.0
 12
-13.0652289181549
 22
-2.650000481916657
 32
0.0
 13
-13.0652289181549
 23
-2.650000481916657
 33
0.0
  0
MTEXT
  5
1459
330
1451
100
AcDbEntity
  8
SK2
100
AcDbMText
 10
-15.4402289181549
 20
0.0000002027916701
 30
0.0
 40
3.5
 41
0.0
 71
     5
 72
     1
  1
Ts5
 11
0.0000000000000001
 21
1.0
 31
0.0
1001
ACAD
1000
MTEXTBEGIN
1070
    73
1070
     1
1070
    44
1040
1.0
1070
    74
1070
     0
1000
MTEXTEND
  0
POINT
  5
145A
330
1451
100
AcDbEntity
  8
DEFPOINTS
 62
     0
100
AcDbPoint
 10
-5.976886324057418
 20
2.650000887499999
 30
0.0
  0
POINT
  5
145B
330
1451
100
AcDbEntity
  8
DEFPOINTS
 62
     0
100
AcDbPoint
 10
-6.593414779224081
 20
-2.650000481916659
 30
0.0
  0
POINT
  5
145C
330
1451
100
AcDbEntity
  8
DEFPOINTS
 62
     0
100
AcDbPoint
 10
-13.0652289181549
 20
-2.650000481916657
 30
0.0
  0
ENDBLK
  5
145E
330
1451
100
AcDbEntity
  8
0
100
AcDbBlockEnd
  0
BLOCK
  5
1472
330
1466
100
AcDbEntity
  8
0
100
AcDbBlockBegin
  2
*D8
 70
     1
 10
0.0
 20
0.0
 30
0.0
  3
*D8
  1

  0
LINE
  5
148A
330
1466
100
AcDbEntity
  8
SK2
100
AcDbLine
 10
-5.91726400749982
 20
3.180001064999999
 30
0.0
 11
-12.32341397538604
 21
3.180001065
 31
0.0
  0
LINE
  5
148B
330
1466
100
AcDbEntity
  8
SK2
100
AcDbLine
 10
-6.65709815369979
 20
-3.180000578300023
 30
0.0
 11
-12.32341397538604
 21
-3.180000578300021
 31
0.0
  0
LINE
  5
148C
330
1466
100
AcDbEntity
  8
SK2
100
AcDbLine
 10
-11.07341397538604
 20
6.680001065
 30
0.0
 11
-11.07341397538604
 21
10.180001065
 31
0.0
  0
LINE
  5
148D
330
1466
100
AcDbEntity
  8
SK2
100
AcDbLine
 10
-11.07341397538604
 20
-6.680000578300021
 30
0.0
 11
-11.07341397538604
 21
-10.18000057830002
 31
0.0
  0
LINE
  5
148E
330
1466
100
AcDbEntity
  8
SK2
100
AcDbLine
 10
-11.07341397538604
 20
3.180001065
 30
0.0
 11
-11.07341397538604
 21
-3.180000578300021
 31
0.0
  0
SOLID
  5
148F
330
1466
100
AcDbEntity
  8
SK2
100
AcDbTrace
 10
-11.65674730871937
 20
6.680001065
 30
0.0
 11
-10.49008064205271
 21
6.680001065
 31
0.0
 12
-11.07341397538604
 22
3.180001065
 32
0.0
 13
-11.07341397538604
 23
3.180001065
 33
0.0
  0
SOLID
  5
1490
330
1466
100
AcDbEntity
  8
SK2
100
AcDbTrace
 10
-11.65674730871938
 20
-6.680000578300021
 30
0.0
 11
-10.49008064205271
 21
-6.680000578300021
 31
0.0
 12
-11.07341397538604
 22
-3.180000578300021
 32
0.0
 13
-11.07341397538604
 23
-3.180000578300021
 33
0.0
  0
MTEXT
  5
1491
330
1466
100
AcDbEntity
  8
SK2
100
AcDbMText
 10
-13.44841397538604
 20
0.000000243349988
 30
0.0
 40
3.5
 41
0.0
 71
     5
 72
     1
  1
Ts6
 11
0.0000000000000001
 21
1.0
 31
0.0
1001
ACAD
1000
MTEXTBEGIN
1070
    73
1070
     1
1070
    44
1040
1.0
1070
    74
1070
     0
1000
MTEXTEND
  0
POINT
  5
1492
330
1466
100
AcDbEntity
  8
DEFPOINTS
 62
     0
100
AcDbPoint
 10
-5.29226400749982
 20
3.180001064999999
 30
0.0
  0
POINT
  5
1493
330
1466
100
AcDbEntity
  8
DEFPOINTS
 62
     0
100
AcDbPoint
 10
-6.03209815369979
 20
-3.180000578300023
 30
0.0
  0
POINT
  5
1494
330
1466
100
AcDbEntity
  8
DEFPOINTS
 62
     0
100
AcDbPoint
 10
-11.07341397538604
 20
-3.180000578300021
 30
0.0
  0
ENDBLK
  5
1473
330
1466
100
AcDbEntity
  8
0
100
AcDbBlockEnd
  0
ENDSEC
  0
SECTION
  2
ENTITIES
  0
TEXT
  5
D2C
330
1F
100
AcDbEntity
  8
6
100
AcDbText
 10
-21.9615795206034
 20
-35.34352930287381
 30
0.0
 40
5.0
  1
45N10409T6RA45
 41
1.199999999999999
 72
     1
 11
9.373167539591321
 21
-35.34352930287381
 31
0.0
100
AcDbText
  0
DIMENSION
  5
D2D
330
1F
100
AcDbEntity
  8
2
100
AcDbDimension
  2
*D0
 10
23.68746235443058
 20
5.196525655538883
 30
0.0
 11
23.68746235443058
 21
-0.000001866499943
 31
0.0
 70
   160
  3
ISO-25
100
AcDbAlignedDimension
 13
6.718868045019209
 23
-5.200725629608848
 33
0.0
 14
7.060602089623192
 24
5.196525655538888
 34
0.0
 50
90.0
100
AcDbRotatedDimension
  0
DIMENSION
  5
D2E
330
1F
100
AcDbEntity
  8
2
100
AcDbDimension
  2
*D1
 10
10.64421193615018
 20
-1.628367810649946
 30
0.0
 11
-18.50946734921145
 21
0.0131561454396671
 31
0.0
 70
   162
  3
ISO-25
100
AcDb2LineAngularDimension
 13
10.35292463955028
 23
1.918133587649959
 33
0.0
 14
10.93345481095026
 24
1.340218623750061
 34
0.0
 15
9.764145800350293
 25
-2.502620810449923
 35
0.0
 16
-17.46348080031051
 26
7.955572283266108
 36
0.0
1001
ACAD
1000
DSTYLE
1002
{
1070
   271
1070
     0
1070
   271
1070
     0
1070
   271
1070
     0
1070
   271
1070
     0
1070
   271
1070
     0
1002
}
  0
DIMENSION
  5
D2F
330
1F
100
AcDbEntity
  8
2
100
AcDbDimension
  2
*D2
 10
-0.0000036361998934
 20
-22.63693043200811
 30
0.0
 11
5.874998181899503
 21
-22.63693043200811
 31
0.0
 70
   160
  3
ISO-25
100
AcDbAlignedDimension
 13
11.7499999999989
 23
-0.0000018758500317
 33
0.0
 14
-0.0000036361998923
 24
-4.696359999999913
 34
0.0
 50
180.0
100
AcDbRotatedDimension
1001
ACAD
1000
DSTYLE
1002
{
1070
   271
1070
     2
1002
}
  0
DIMENSION
  5
D30
330
1F
100
AcDbEntity
  8
2
100
AcDbDimension
  2
*D3
 10
11.74999999999885
 20
20.4972804126188
 30
0.0
 11
23.5899612484488
 21
20.4972804126188
 31
0.0
 70
   160
  3
ISO-25
100
AcDbAlignedDimension
 13
7.060602089623192
 23
5.196525655538888
 33
0.0
 14
11.74999999999885
 24
-0.0000018758500317
 34
0.0
 50
180.0
100
AcDbRotatedDimension
1001
ACAD
1000
DSTYLE
1002
{
1070
   271
1070
     1
1002
}
  0
DIMENSION
  5
D31
330
1F
100
AcDbEntity
  8
2
100
AcDbDimension
  2
*D4
 10
11.74999999999885
 20
29.8333658929769
 30
0.0
 11
7.301229352774527
 21
29.8333658929769
 31
0.0
 70
   160
  3
ISO-25
100
AcDbAlignedDimension
 13
2.749999999998894
 23
5.26901860146973
 33
0.0
 14
11.74999999999885
 24
-0.0000018758500317
 34
0.0
 50
180.0
100
AcDbRotatedDimension
  0
LWPOLYLINE
  5
D36
330
1F
100
AcDbEntity
  8
1
100
AcDbPolyline
 90
        6
 70
     0
 43
0.0
 10
2.140839067657267
 20
5.278808840035191
 10
2.154280282450204
 20
5.231390039049951
 10
2.186089232850293
 20
4.936388568249966
 10
2.222209692750201
 20
4.843133969450079
 10
2.262608190350309
 20
4.751511454550083
 10
2.307303115650316
 20
4.661500889650068
  0
ARC
  5
D38
330
1F
100
AcDbEntity
  8
1
100
AcDbCircle
 10
1.197957676352817
 20
5.272608088050262
 30
0.0
 40
0.579871471557036
100
AcDbArc
 50
299.3449749800142
 51
331.0629431557443
  0
LINE
  5
D3C
330
1F
100
AcDbEntity
  8
4
100
AcDbLine
 10
12.28191348632559
 20
-0.0000018758500317
 30
0.0
 11
0.0000000000002274
 21
0.0000000000000853
 31
0.0
  0
LINE
  5
D3D
330
1F
100
AcDbEntity
  8
1
100
AcDbLine
 10
-2.213229040584479
 20
0.0
 30
0.0
 11
2.198267792134574
 21
-0.0000018758500317
 31
0.0
  0
LWPOLYLINE
  5
D3E
330
1F
100
AcDbEntity
  8
1
100
AcDbPolyline
 90
        3
 70
     1
 43
0.0
 10
0.0000000000001421
 20
2.213229040584479
 10
0.0000000000001421
 20
0.0
 10
2.213229040584621
 20
0.0
 42
0.4142135623730966
  0
CIRCLE
  5
D3F
330
1F
100
AcDbEntity
  8
1
100
AcDbCircle
 10
0.0000000000001421
 20
0.0
 30
0.0
 40
2.213229040584451
  0
HATCH
  5
D40
330
1F
100
AcDbEntity
  8
1
100
AcDbHatch
 10
0.0
 20
0.0
 30
0.0
210
0.0
220
0.0
230
1.0
  2
SOLID
 70
     1
 71
     0
 91
        2
 92
        7
 72
     1
 73
     1
 93
        3
 10
0.0000000000002274
 20
0.0
 42
0.0
 10
2.213229040584621
 20
0.0
 42
0.4142135623730966
 10
0.0000000000002274
 20
2.213229040584479
 42
0.0
 97
        0
 92
        7
 72
     1
 73
     1
 93
        3
 10
0.0000000000002274
 20
-2.213229040584423
 42
0.0
 10
0.0000000000002274
 20
0.0
 42
0.0
 10
-2.21322904058428
 20
0.0
 42
0.4142135623730953
 97
        0
 75
     0
 76
     1
 47
0.1190009775223266
 98
        2
 10
0.5584147941092114
 20
0.6909183550323803
 10
-0.9595984513894675
 20
-1.272597692284705
  0
LWPOLYLINE
  5
D41
330
1F
100
AcDbEntity
  8
1
100
AcDbPolyline
 90
        7
 70
     0
 43
0.0
 10
2.027782595350291
 20
2.579826753750054
 10
2.095502605650298
 20
2.567982660750075
 10
2.160233975050178
 20
2.560993042750069
 10
2.221460370850283
 20
2.558496304150068
 10
2.280142397150203
 20
2.55933117295005
 10
2.337317685250298
 20
2.562550322249975
 10
2.392543676350272
 20
2.568055263350044
  0
LWPOLYLINE
  5
D42
330
1F
100
AcDbEntity
  8
1
100
AcDbPolyline
 90
        4
 70
     0
 43
0.0
 10
2.175582177099784
 20
-1.655820392917532
 10
2.121736131750199
 20
-1.55248557794995
 10
2.059420871750208
 20
-1.440646586050049
 10
1.993074282450183
 20
-1.327473944350044
  0
LINE
  5
D43
330
1F
100
AcDbEntity
  8
1
100
AcDbLine
 10
1.954843586650186
 20
-4.351127554049937
 30
0.0
 11
2.223726432550168
 21
-4.379037703550022
 31
0.0
  0
LINE
  5
D44
330
1F
100
AcDbEntity
  8
1
100
AcDbLine
 10
0.6700643177503061
 20
3.973808519650063
 30
0.0
 11
0.6700488498502786
 21
-3.634579863649959
 31
0.0
  0
LINE
  5
D45
330
1F
100
AcDbEntity
  8
1
100
AcDbLine
 10
0.0000000000002274
 20
4.696395904199988
 30
0.0
 11
0.0000000000002274
 21
-4.696395904199988
 31
0.0
  0
LINE
  5
D46
330
1F
100
AcDbEntity
  8
SK1
100
AcDbLine
 10
-1.359999999999842
 20
-3.319958756799991
 30
0.0
 11
-1.359999999999842
 21
3.319958756800103
 31
0.0
  0
LINE
  5
D47
330
1F
100
AcDbEntity
  8
SK1
100
AcDbLine
 10
0.0000195856002279
 20
-3.391187514899911
 30
0.0
 11
-1.359981133799774
 21
-3.319930812799981
 31
0.0
  0
LINE
  5
D48
330
1F
100
AcDbEntity
  8
1
100
AcDbLine
 10
1.639858751550208
 20
-4.817913534103054
 30
0.0
 11
1.8477181966762
 21
-5.283519784390103
 31
0.0
  0
LINE
  5
D49
330
1F
100
AcDbEntity
  8
1
100
AcDbLine
 10
1.639858751550208
 20
-4.817913534103083
 30
0.0
 11
1.639858751550208
 21
-4.323385482049912
 31
0.0
  0
ARC
  5
D4A
330
1F
100
AcDbEntity
  8
1
100
AcDbCircle
 10
1.197975192604334
 20
-5.508015772549369
 30
0.0
 40
0.8194523654095259
100
AcDbArc
 50
57.36791118991595
 51
82.08910784380885
  0
LINE
  5
D4D
330
1F
100
AcDbEntity
  8
1
100
AcDbLine
 10
1.640409476950198
 20
-4.31692200935005
 30
0.0
 11
1.639838073450195
 21
-4.323418631850032
 31
0.0
  0
LWPOLYLINE
  5
D4E
330
1F
100
AcDbEntity
  8
1
100
AcDbPolyline
 90
        4
 70
     0
 43
0.0
 10
0.6700488498502786
 20
-3.634579863649959
 10
0.6673437052502928
 20
-3.647705362949935
 10
0.6655100940502657
 20
-3.660244374350055
 10
0.6645701978502851
 20
-3.672169753149958
  0
LWPOLYLINE
  5
D4F
330
1F
100
AcDbEntity
  8
1
100
AcDbPolyline
 90
       14
 70
     0
 43
0.0
 10
0.6645670342501866
 20
-3.672209892749959
 10
0.6644574715502111
 20
-3.683592861450036
 10
0.6651462358502763
 20
-3.694386046150027
 10
0.6665866921503075
 20
-3.704596472849928
 10
0.668736351950205
 20
-3.71422136874993
 10
0.6715476064503072
 20
-3.723281364349943
 10
0.6749857999502673
 20
-3.731795760349923
 10
0.6789695847501811
 20
-3.739763055449926
 10
0.6834526588502037
 20
-3.747164077849915
 10
0.688295228850283
 20
-3.754069372849938
 10
0.6933724991502892
 20
-3.760525554849933
 10
0.6985931743502114
 20
-3.766580315250037
 10
0.7038376037502907
 20
-3.772284666050053
 10
0.7090660577503094
 20
-3.777671197450031
  0
LINE
  5
D50
330
1F
100
AcDbEntity
  8
1
100
AcDbLine
 10
1.637410820750206
 20
-4.307237348049921
 30
0.0
 11
1.640409476950198
 21
-4.31692200935005
 31
0.0
  0
LWPOLYLINE
  5
D51
330
1F
100
AcDbEntity
  8
1
100
AcDbPolyline
 90
        4
 70
     0
 43
0.0
 10
0.7090660577503094
 20
-3.777671197450031
 10
0.714207290850201
 20
-3.782781625250051
 10
0.7192362002502968
 20
-3.787636782049915
 10
0.7253524644838798
 20
-3.792264361249933
  0
LWPOLYLINE
  5
D52
330
1F
100
AcDbEntity
  8
1
100
AcDbPolyline
 90
        9
 70
     0
 43
0.0
 10
1.391246387950275
 20
-4.036299112749944
 10
1.4330346737502
 20
-4.047591876150033
 10
1.474095082650195
 20
-4.066258540049958
 10
1.513141407650183
 20
-4.092399897049928
 10
1.549058745150206
 20
-4.125377271349933
 10
1.5808039940502
 20
-4.164709867250038
 10
1.606780137150283
 20
-4.209141961950035
 10
1.625837947650186
 20
-4.256897981050043
 10
1.63746532355029
 20
-4.307180676850022
  0
LINE
  5
D53
330
1F
100
AcDbEntity
  8
1
100
AcDbLine
 10
1.126281037150309
 20
-3.978240209050013
 30
0.0
 11
1.206402221150287
 21
-3.998792153949935
 31
0.0
  0
LINE
  5
D54
330
1F
100
AcDbEntity
  8
1
100
AcDbLine
 10
1.09102631625018
 20
-3.969395685150047
 30
0.0
 11
1.126281037150309
 21
-3.978240209050013
 31
0.0
  0
LWPOLYLINE
  5
D55
330
1F
100
AcDbEntity
  8
1
100
AcDbPolyline
 90
        3
 70
     0
 43
0.0
 10
1.206402221150287
 20
-3.998792153949935
 10
1.228847303250208
 20
-4.004398678450042
 10
1.25244714325021
 20
-4.010128433749923
  0
LWPOLYLINE
  5
D56
330
1F
100
AcDbEntity
  8
1
100
AcDbPolyline
 90
        3
 70
     0
 43
0.0
 10
1.25244714325021
 20
-4.010128433749923
 10
1.27729844725019
 20
-4.015863538249943
 10
1.303490506450205
 20
-4.021537479749937
  0
LWPOLYLINE
  5
D57
330
1F
100
AcDbEntity
  8
1
100
AcDbPolyline
 90
        5
 70
     0
 43
0.0
 10
0.7253524644838798
 20
-3.792264361249933
 10
1.043406887150299
 20
-3.953151430278537
 10
1.058619202750209
 20
-3.959516726569928
 10
1.074483024050212
 20
-3.965370827250026
 10
1.09102631625018
 20
-3.969395685150047
  0
LWPOLYLINE
  5
D58
330
1F
100
AcDbEntity
  8
1
100
AcDbPolyline
 90
        3
 70
     0
 43
0.0
 10
1.304841510079086
 20
-4.021835991665013
 10
1.358640802450284
 20
-4.03109022224994
 10
1.39120875155021
 20
-4.036295900950036
  0
LINE
  5
D59
330
1F
100
AcDbEntity
  8
1
100
AcDbLine
 10
1.731358627850284
 20
-4.326629736349913
 30
0.0
 11
1.823455757750283
 21
-4.337074601850033
 31
0.0
  0
LINE
  5
D5A
330
1F
100
AcDbEntity
  8
1
100
AcDbLine
 10
1.638754178750278
 20
-4.316717989350038
 30
0.0
 11
1.731358627850284
 21
-4.326629736349913
 31
0.0
  0
LINE
  5
D5B
330
1F
100
AcDbEntity
  8
1
100
AcDbLine
 10
1.823455714050284
 20
-4.337086806449931
 30
0.0
 11
1.954843586650186
 21
-4.351127554049937
 31
0.0
  0
LINE
  5
D5C
330
1F
100
AcDbEntity
  8
1
100
AcDbLine
 10
-0.0000036361998923
 20
-4.696359999999913
 30
0.0
 11
1.31076238775029
 21
-4.696361875849945
 31
0.0
  0
LINE
  5
D5D
330
1F
100
AcDbEntity
  8
SK4
100
AcDbLine
 10
0.0000000000002274
 20
0.0000000000000853
 30
0.0
 11
-7.422713298189361
 21
0.0
 31
0.0
  0
LINE
  5
D5E
330
1F
100
AcDbEntity
  8
SK1
100
AcDbLine
 10
-3.54980513729987
 20
3.180001064999999
 30
0.0
 11
-4.073229518499771
 21
3.180001064999999
 31
0.0
  0
LWPOLYLINE
  5
D5F
330
1F
100
AcDbEntity
  8
SK1
100
AcDbPolyline
 90
        5
 70
     0
 43
0.0
 10
-3.648938729299771
 20
-2.769879300799999
 10
-3.638259603099783
 20
-2.770505127199981
 10
-3.609545080099763
 20
-2.774788253299988
 10
-3.57978605089977
 20
-2.78450644209991
 10
-3.553215356799768
 20
-2.798641547300006
  0
LINE
  5
D60
330
1F
100
AcDbEntity
  8
SK1
100
AcDbLine
 10
-3.600863014399776
 20
-1.343831085899892
 30
0.0
 11
-3.641887090499778
 21
-0.8229419708000023
 31
0.0
  0
LWPOLYLINE
  5
D61
330
1F
100
AcDbEntity
  8
SK1
100
AcDbPolyline
 90
        3
 70
     0
 43
0.0
 10
-3.641887090499778
 20
-0.8229419708000023
 10
-3.724280066299853
 20
0.2771948490000966
 10
-3.785891694299778
 20
1.087716243400079
  0
LINE
  5
D62
330
1F
100
AcDbEntity
  8
SK1
100
AcDbLine
 10
-4.742384486399885
 20
1.087515924600097
 30
0.0
 11
-4.701166260099769
 21
0.5520760047000694
 31
0.0
  0
LINE
  5
D63
330
1F
100
AcDbEntity
  8
SK1
100
AcDbLine
 10
-5.163650032299869
 20
-0.2771096491999003
 30
0.0
 11
-5.24544896899988
 21
0.8230711747000043
 31
0.0
  0
LINE
  5
D64
330
1F
100
AcDbEntity
  8
SK1
100
AcDbLine
 10
-5.757641246099865
 20
-0.6612320886999044
 30
0.0
 11
-5.886759731899871
 21
0.8371498492000737
 31
0.0
  0
LINE
  5
D65
330
1F
100
AcDbEntity
  8
SK1
100
AcDbLine
 10
-6.640001071699772
 20
2.649382627200024
 30
0.0
 11
-6.639999999999786
 21
-1.698310081900018
 31
0.0
  0
LWPOLYLINE
  5
D66
330
1F
100
AcDbEntity
  8
SK1
100
AcDbPolyline
 90
       37
 70
     0
 43
0.0
 10
-6.6101347515999
 20
-2.770170327600026
 10
-6.608286974799881
 20
-2.769991592399917
 10
-6.602536672199875
 20
-2.770119779899914
 10
-6.597133450599782
 20
-2.770402268799898
 10
-6.591756321599858
 20
-2.770859812099899
 10
-6.585966540899787
 20
-2.77154974499993
 10
-6.580019113599772
 20
-2.772460772999892
 10
-6.573992694799867
 20
-2.773587853699893
 10
-6.567977195299761
 20
-2.774922608600006
 10
-6.562094851199872
 20
-2.776437401399903
 10
-6.556315024099887
 20
-2.778135654199928
 10
-6.550646998899765
 20
-2.780012017199908
 10
-6.545091716199777
 20
-2.782061817600009
 10
-6.539640310799882
 20
-2.784283712500013
 10
-6.534330091199763
 20
-2.786657082099905
 10
-6.52918531159986
 20
-2.789162852299909
 10
-6.524228092799772
 20
-2.791779886899917
 10
-6.519479793099776
 20
-2.79448438189999
 10
-6.514956846999865
 20
-2.797252407599926
 10
-6.510678740999764
 20
-2.800055303699906
 10
-6.506646735499884
 20
-2.802874101799914
 10
-6.50287106989978
 20
-2.80568239129988
 10
-6.499335722499862
 20
-2.808471795299993
 10
-6.496026842699847
 20
-2.811233951800002
 10
-6.492946321099792
 20
-2.813948389199904
 10
-6.490092243899765
 20
-2.816597408499916
 10
-6.487458939999782
 20
-2.819166844599891
 10
-6.485042121699762
 20
-2.82164151579991
 10
-6.482833841299792
 20
-2.824010381499903
 10
-6.480827661799762
 20
-2.826261480200031
 10
-6.479014292999777
 20
-2.828386770499917
 10
-6.477385822899861
 20
-2.830377568599997
 10
-6.475932408699775
 20
-2.832228515499906
 10
-6.474646792899759
 20
-2.833931994099913
 10
-6.473514913399752
 20
-2.835490673599991
 10
-6.472524721999775
 20
-2.836906371800012
 10
-6.467750483998655
 20
-2.843985240444396
  0
LWPOLYLINE
  5
D67
330
1F
100
AcDbEntity
  8
SK1
100
AcDbPolyline
 90
       17
 70
     0
 43
0.0
 10
-6.503003852599872
 20
-2.724936512999903
 10
-6.508727738299795
 20
-2.706876240299975
 10
-6.515105040699891
 20
-2.68952728830001
 10
-6.522090362499795
 20
-2.6729120352999
 10
-6.529610269699785
 20
-2.657127931699989
 10
-6.537591584299859
 20
-2.642250594399911
 10
-6.545972261399867
 20
-2.628327695499903
 10
-6.554677017299866
 20
-2.615411189599881
 10
-6.563647096199757
 20
-2.603509967899896
 10
-6.572816729399789
 20
-2.592648607999904
 10
-6.582151634599878
 20
-2.582809516999899
 10
-6.591598139499866
 20
-2.574000966499909
 10
-6.601178270999753
 20
-2.566161784199918
 10
-6.610972836999877
 20
-2.559204864599904
 10
-6.620792582999854
 20
-2.553243409899919
 10
-6.630461270999774
 20
-2.548343960799996
 10
-6.639980395399787
 20
-2.54445170469998
  0
LINE
  5
D68
330
1F
100
AcDbEntity
  8
SK1
100
AcDbLine
 10
-6.639999999999786
 20
-2.770184599099904
 30
0.0
 11
-6.61025276039976
 21
-2.770170030699915
 31
0.0
  0
LINE
  5
D69
330
1F
100
AcDbEntity
  8
SK1
100
AcDbLine
 10
-6.638851844599797
 20
-2.091482503500003
 30
0.0
 11
-6.639999999999786
 21
-2.544448349800005
 31
0.0
  0
LINE
  5
D6A
330
1F
100
AcDbEntity
  8
SK1
100
AcDbLine
 10
-6.639073006499867
 20
-1.808365742199923
 30
0.0
 11
-6.638851844599797
 21
-2.091482503500003
 31
0.0
  0
LINE
  5
D6B
330
1F
100
AcDbEntity
  8
SK1
100
AcDbLine
 10
-6.639999999999786
 20
-2.770245632799997
 30
0.0
 11
-6.639999999999786
 21
-2.544448349800005
 31
0.0
  0
LINE
  5
D6C
330
1F
100
AcDbEntity
  8
SK1
100
AcDbLine
 10
-6.639995702699764
 20
-1.673852462300004
 30
0.0
 11
-6.639073006499867
 21
-1.808365742199923
 31
0.0
  0
LWPOLYLINE
  5
D6D
330
1F
100
AcDbEntity
  8
SK1
100
AcDbPolyline
 90
        3
 70
     0
 43
0.0
 10
-5.593347039185005
 20
-2.837914813752718
 10
-5.586895720399866
 20
-2.829257289499906
 10
-5.573796873699873
 20
-2.815467841100002
  0
LWPOLYLINE
  5
D6E
330
1F
100
AcDbEntity
  8
SK1
100
AcDbPolyline
 90
        4
 70
     0
 43
0.0
 10
-4.113615814098068
 20
-2.838658933794332
 10
-4.108726709199771
 20
-2.831858856599892
 10
-4.098983309399781
 20
-2.820792030299998
 10
-4.083564891099768
 20
-2.807036383099923
  0
LINE
  5
D6F
330
1F
100
AcDbEntity
  8
SK1
100
AcDbLine
 10
-4.290731274299787
 20
-3.180001065100015
 30
0.0
 11
-4.280324672599761
 21
-3.176931586299899
 31
0.0
  0
LWPOLYLINE
  5
D70
330
1F
100
AcDbEntity
  8
SK1
100
AcDbPolyline
 90
        4
 70
     0
 43
0.0
 10
-4.062212831699753
 20
-2.792926979499893
 10
-4.033966833899881
 20
-2.780295661699908
 10
-4.002049681699758
 20
-2.772330821499905
 10
-3.975581690699783
 20
-2.770242772999921
  0
LINE
  5
D71
330
1F
100
AcDbEntity
  8
SK1
100
AcDbLine
 10
-4.280360029299771
 20
-3.176878536900004
 30
0.0
 11
-4.267338435099758
 21
-3.168509062499906
 31
0.0
  0
LWPOLYLINE
  5
D72
330
1F
100
AcDbEntity
  8
SK1
100
AcDbPolyline
 90
        4
 70
     0
 43
0.0
 10
-5.553722432099789
 20
-2.799723880399909
 10
-5.525113622499874
 20
-2.784373879499895
 10
-5.490945779899872
 20
-2.773841109499898
 10
-5.455630597199785
 20
-2.770264900199918
  0
LWPOLYLINE
  5
D73
330
1F
100
AcDbEntity
  8
SK1
100
AcDbPolyline
 90
       10
 70
     0
 43
0.0
 10
-5.758885579799766
 20
-3.176337704000018
 10
-5.758212488499764
 20
-3.175933110499896
 10
-5.757427135599867
 20
-3.175456083199917
 10
-5.756547523199882
 20
-3.174915433400002
 10
-5.75546166869978
 20
-3.174238359200018
 10
-5.754052326599889
 20
-3.173343258199906
 10
-5.752358883799786
 20
-3.172243192899911
 10
-5.75032804909989
 20
-3.170888252600008
 10
-5.748129255799881
 20
-3.169376514599917
 10
-5.745920889999865
 20
-3.167810182999886
  0
LINE
  5
D74
330
1F
100
AcDbEntity
  8
SK1
100
AcDbLine
 10
-4.083564891099768
 20
-2.807036383099923
 30
0.0
 11
-4.062212831699753
 21
-2.792926979499893
 31
0.0
  0
LWPOLYLINE
  5
D75
330
1F
100
AcDbEntity
  8
SK1
100
AcDbPolyline
 90
        8
 70
     0
 43
0.0
 10
-4.267338435099758
 20
-3.168509062499906
 10
-4.254324038099781
 20
-3.158584918999991
 10
-4.242175819999856
 20
-3.147434860699917
 10
-4.229565793699777
 20
-3.133596026699903
 10
-4.21571179199978
 20
-3.115150298799988
 10
-4.200681023699758
 20
-3.090239186999895
 10
-4.183771413799775
 20
-3.054238717499998
 10
-4.165248740899754
 20
-3.002584889599884
  0
LWPOLYLINE
  5
D76
330
1F
100
AcDbEntity
  8
SK1
100
AcDbPolyline
 90
        7
 70
     0
 43
0.0
 10
-6.353422978699883
 20
-3.0799393927999
 10
-6.263972850399852
 20
-3.069754758199906
 10
-6.176556785599871
 20
-3.059140740699915
 10
-6.091204481499798
 20
-3.048110003599986
 10
-6.007826846299878
 20
-3.036660288299998
 10
-5.926334788099891
 20
-3.024787468799899
 10
-5.846758004299773
 20
-3.012502336399903
  0
LWPOLYLINE
  5
D77
330
1F
100
AcDbEntity
  8
SK1
100
AcDbPolyline
 90
        3
 70
     0
 43
0.0
 10
-5.770238780199775
 20
-3.180000578300023
 10
-5.765800816799752
 20
-3.179432536599902
 10
-5.760157866499866
 20
-3.177074425599896
  0
LWPOLYLINE
  5
D78
330
1F
100
AcDbEntity
  8
SK1
100
AcDbPolyline
 90
       34
 70
     0
 43
0.0
 10
-5.745920889999865
 20
-3.167810182999886
 10
-5.743667800499792
 20
-3.166161214599893
 10
-5.741391446599891
 20
-3.164441589599903
 10
-5.739077591299776
 20
-3.162636827099901
 10
-5.736718732099772
 20
-3.160736233999982
 10
-5.734318080799877
 20
-3.158737007699896
 10
-5.731875881899782
 20
-3.156633677199891
 10
-5.72939410129976
 20
-3.154421901999882
 10
-5.726875427399875
 20
-3.152097761100009
 10
-5.724318158099777
 20
-3.149652877999898
 10
-5.721714795499877
 20
-3.147072197999903
 10
-5.719086120199787
 20
-3.144368480200029
 10
-5.716464945799856
 20
-3.141570092600002
 10
-5.713803373999892
 20
-3.13861910819989
 10
-5.711098381799786
 20
-3.135501526999888
 10
-5.708257812199772
 20
-3.132092977500008
 10
-5.705154647899775
 20
-3.128204218200011
 10
-5.701919371099876
 20
-3.123957019699901
 10
-5.698631757799772
 20
-3.119428327899896
 10
-5.695289857199782
 20
-3.114592279699905
 10
-5.691914623899776
 20
-3.109455673500008
 10
-5.68850515269986
 20
-3.103993560499901
 10
-5.685061922499784
 20
-3.098180865399881
 10
-5.681593416999874
 20
-3.092005036499897
 10
-5.678104728999867
 20
-3.085447795999896
 10
-5.674593722799784
 20
-3.078476170100001
 10
-5.671059464199771
 20
-3.071057962299988
 10
-5.667494947699765
 20
-3.063146206899912
 10
-5.663893745299872
 20
-3.054691547999908
 10
-5.660249569699882
 20
-3.04564139899989
 10
-5.656556017199875
 20
-3.035939238599977
 10
-5.65280563069987
 20
-3.025521705300008
 10
-5.648990891999773
 20
-3.014320542099908
 10
-5.645188139299762
 20
-3.002529622599893
  0
LINE
  5
D79
330
1F
100
AcDbEntity
  8
SK1
100
AcDbLine
 10
-4.280324672599761
 20
-3.176931586299899
 30
0.0
 11
-4.270056082099867
 21
-3.167894864799905
 31
0.0
  0
LWPOLYLINE
  5
D7A
330
1F
100
AcDbEntity
  8
SK1
100
AcDbPolyline
 90
        4
 70
     0
 43
0.0
 10
-5.129975982199766
 20
-2.769967741099975
 10
-5.111425963499754
 20
-2.770991168899996
 10
-5.082807633999777
 20
-2.7763128430999
 10
-5.055803697499868
 20
-2.786048034599899
  0
LINE
  5
D7B
330
1F
100
AcDbEntity
  8
SK1
100
AcDbLine
 10
-5.770228812099784
 20
-3.180000578300023
 30
0.0
 11
-6.293967495299796
 21
-3.180000578300023
 31
0.0
  0
LINE
  5
D7C
330
1F
100
AcDbEntity
  8
SK1
100
AcDbLine
 10
-4.290731271899858
 20
-3.180001065100015
 30
0.0
 11
-4.813608213499861
 21
-3.180001065100015
 31
0.0
  0
LINE
  5
D7D
330
1F
100
AcDbEntity
  8
SK1
100
AcDbLine
 10
-5.455519909299766
 20
-2.770267374300003
 30
0.0
 11
-5.129610127352691
 21
-2.769987925770834
 31
0.0
  0
LINE
  5
D7E
330
1F
100
AcDbEntity
  8
SK1
100
AcDbLine
 10
-3.975369706599876
 20
-2.770184101199899
 30
0.0
 11
-3.650209532899876
 21
-2.769911621499915
 31
0.0
  0
LINE
  5
D7F
330
1F
100
AcDbEntity
  8
SK1
100
AcDbLine
 10
-5.573796873699873
 20
-2.815467841100002
 30
0.0
 11
-5.553722432099789
 21
-2.799723880399909
 31
0.0
  0
LINE
  5
D80
330
1F
100
AcDbEntity
  8
SK1
100
AcDbLine
 10
-6.293968761199892
 20
-3.180000578300023
 30
0.0
 11
-6.304062801699782
 21
-3.17710774690002
 31
0.0
  0
LINE
  5
D81
330
1F
100
AcDbEntity
  8
SK1
100
AcDbLine
 10
-4.813608211199891
 20
-3.180001065100015
 30
0.0
 11
-4.823579095199762
 21
-3.177174257799975
 31
0.0
  0
LINE
  5
D82
330
1F
100
AcDbEntity
  8
SK1
100
AcDbLine
 10
-4.165170599099781
 20
-3.002373084400004
 30
0.0
 11
-4.113615814099887
 21
-2.838658933799904
 31
0.0
  0
LWPOLYLINE
  5
D83
330
1F
100
AcDbEntity
  8
SK1
100
AcDbPolyline
 90
        5
 70
     0
 43
0.0
 10
-5.055803697499868
 20
-2.786048034599899
 10
-5.033595134399886
 20
-2.7981765353999
 10
-5.016119363799758
 20
-2.811187064199913
 10
-5.003833054099882
 20
-2.822941998699917
 10
-4.995690917099778
 20
-2.832549002299997
  0
LWPOLYLINE
  5
D84
330
1F
100
AcDbEntity
  8
SK1
100
AcDbPolyline
 90
        4
 70
     0
 43
0.0
 10
-5.760204578699754
 20
-3.177074277399896
 10
-5.760689593199884
 20
-3.176859373799882
 10
-5.75996411869977
 20
-3.176993192199886
 10
-5.759512222899786
 20
-3.176710995299997
  0
LINE
  5
D85
330
1F
100
AcDbEntity
  8
SK1
100
AcDbLine
 10
-5.645159883699761
 20
-3.002458256199901
 30
0.0
 11
-5.593347039199782
 21
-2.837914813799898
 31
0.0
  0
LWPOLYLINE
  5
D86
330
1F
100
AcDbEntity
  8
SK1
100
AcDbPolyline
 90
        5
 70
     0
 43
0.0
 10
-4.823579095199762
 20
-3.177174257799975
 10
-4.834263692699778
 20
-3.167899342399917
 10
-4.854934599599771
 20
-3.131687607999906
 10
-4.875577172599861
 20
-3.07163553379999
 10
-4.896165636699777
 20
-2.988203813099886
  0
LWPOLYLINE
  5
D87
330
1F
100
AcDbEntity
  8
SK1
100
AcDbPolyline
 90
        5
 70
     0
 43
0.0
 10
-5.674117924199777
 20
-1.996738119599879
 10
-5.723953094199772
 20
-2.219885010599909
 10
-5.745302785599789
 20
-2.326655479400017
 10
-5.760798604399781
 20
-2.430979665699993
 10
-5.768681210799852
 20
-2.532763486800007
  0
LINE
  5
D88
330
1F
100
AcDbEntity
  8
SK1
100
AcDbLine
 10
-4.701166260099769
 20
0.5520760047000694
 30
0.0
 11
-4.619137416899775
 21
-0.5522461146998979
 31
0.0
  0
LINE
  5
D89
330
1F
100
AcDbEntity
  8
SK1
100
AcDbLine
 10
-4.619137416899775
 20
-0.5522461146998979
 30
0.0
 11
-4.578051097699756
 21
-1.087690417699914
 31
0.0
  0
LINE
  5
D8A
330
1F
100
AcDbEntity
  8
SK1
100
AcDbLine
 10
-4.578051097699756
 20
-1.087690417699914
 30
0.0
 11
-4.536811214599878
 21
-1.590035666000004
 31
0.0
  0
LWPOLYLINE
  5
D8B
330
1F
100
AcDbEntity
  8
SK1
100
AcDbPolyline
 90
       13
 70
     0
 43
0.0
 10
-4.536811214599878
 20
-1.590035666000004
 10
-4.516299136099775
 20
-1.824024262899881
 10
-4.495843271599766
 20
-2.044126159999902
 10
-4.47544047389988
 20
-2.248636189899996
 10
-4.45505310059988
 20
-2.436036331499904
 10
-4.434644686899787
 20
-2.604927624299904
 10
-4.414208552699846
 20
-2.753992495899892
 10
-4.393722573499758
 20
-2.882078156299911
 10
-4.373196617599858
 20
-2.988232012600008
 10
-4.352632785699768
 20
-3.071655161599919
 10
-4.332032256199792
 20
-3.131699695799993
 10
-4.311390991899767
 20
-3.167905511599911
 10
-4.290731274299787
 20
-3.180001065100015
  0
LINE
  5
D8C
330
1F
100
AcDbEntity
  8
SK1
100
AcDbLine
 10
-5.646938084899886
 20
-1.807948228899901
 30
0.0
 11
-5.64998999999986
 21
-1.780489999999899
 31
0.0
  0
LWPOLYLINE
  5
D8D
330
1F
100
AcDbEntity
  8
SK1
100
AcDbPolyline
 90
        9
 70
     0
 43
0.0
 10
-4.916627760899871
 20
-2.882043143499913
 10
-4.937058288499768
 20
-2.753951187099886
 10
-4.957527494299768
 20
-2.604878701099976
 10
-4.978036552499871
 20
-2.435978203599999
 10
-4.998617793399858
 20
-2.248565870199996
 10
-5.019248024399757
 20
-2.044041687600014
 10
-5.039923606899776
 20
-1.823923567199898
 10
-5.060618209499863
 20
-1.589920880199909
 10
-5.081311903499766
 20
-1.343856189099909
  0
LINE
  5
D8E
330
1F
100
AcDbEntity
  8
SK1
100
AcDbLine
 10
-4.896165636699777
 20
-2.988203813099886
 30
0.0
 11
-4.916627760899871
 21
-2.882043143499913
 31
0.0
  0
LINE
  5
D8F
330
1F
100
AcDbEntity
  8
SK1
100
AcDbLine
 10
-4.991934482801183
 20
-2.837897521464696
 30
0.0
 11
-4.939691995299766
 21
-3.002831672399991
 31
0.0
  0
LWPOLYLINE
  5
D90
330
1F
100
AcDbEntity
  8
SK1
100
AcDbPolyline
 90
        9
 70
     0
 43
0.0
 10
-4.93957980009975
 20
-3.003171766900008
 10
-4.930741786299789
 20
-3.029412592899888
 10
-4.921620573199787
 20
-3.053144445699981
 10
-4.911618496299777
 20
-3.075613957999903
 10
-4.900254901399761
 20
-3.097213242199897
 10
-4.886562382599777
 20
-3.118674651699903
 10
-4.869165665299759
 20
-3.1403385772999
 10
-4.846752130899773
 20
-3.16137969579992
 10
-4.823586478699866
 20
-3.177174280900004
  0
LINE
  5
D91
330
1F
100
AcDbEntity
  8
SK1
100
AcDbLine
 10
-4.995690917099778
 20
-2.832549002299997
 30
0.0
 11
-4.991915781299891
 21
-2.837924149200006
 31
0.0
  0
LWPOLYLINE
  5
D92
330
1F
100
AcDbEntity
  8
SK1
100
AcDbPolyline
 90
        4
 70
     0
 43
0.0
 10
-6.304062801699782
 20
-3.17710774690002
 10
-6.314283562499866
 20
-3.168283698500005
 10
-6.333860314799893
 20
-3.134857521799998
 10
-6.353422978699883
 20
-3.0799393927999
  0
LWPOLYLINE
  5
D93
330
1F
100
AcDbEntity
  8
SK1
100
AcDbPolyline
 90
        3
 70
     0
 43
0.0
 10
-6.353390314299757
 20
-3.080007856199898
 10
-6.369931543699776
 20
-3.067668499599989
 10
-6.38511417519976
 20
-3.052900078300011
  0
LINE
  5
D94
330
1F
100
AcDbEntity
  8
SK1
100
AcDbLine
 10
-5.65005634169978
 20
-1.877129263299906
 30
0.0
 11
-5.674117924199777
 21
-1.996738119599879
 31
0.0
  0
LWPOLYLINE
  5
D95
330
1F
100
AcDbEntity
  8
SK1
100
AcDbPolyline
 90
        7
 70
     0
 43
0.0
 10
-5.792433090799875
 20
-2.872838269599895
 10
-5.796271070499782
 20
-2.900611110599896
 10
-5.802317102099777
 20
-2.926842591300013
 10
-5.810457319599777
 20
-2.951315383899981
 10
-5.82066478729979
 20
-2.973869960200005
 10
-5.832898307799862
 20
-2.994361373799904
 10
-5.84685124769976
 20
-3.012570765899908
  0
LINE
  5
D96
330
1F
100
AcDbEntity
  8
SK1
100
AcDbLine
 10
-5.646936973999885
 20
-1.808018609599884
 30
0.0
 11
-5.650019364899889
 21
-1.87759523709988
 31
0.0
  0
LWPOLYLINE
  5
D97
330
1F
100
AcDbEntity
  8
SK1
100
AcDbPolyline
 90
        7
 70
     0
 43
0.0
 10
-5.768680050299793
 20
-2.532833429799921
 10
-5.771152677299768
 20
-2.588782051999912
 10
-5.774232932499842
 20
-2.64512275429999
 10
-5.777933430299754
 20
-2.702044570199915
 10
-5.782216252499861
 20
-2.759143335899891
 10
-5.787043486299863
 20
-2.816033166799996
 10
-5.792427756999757
 20
-2.872914166299921
  0
LINE
  5
D98
330
1F
100
AcDbEntity
  8
SK1
100
AcDbLine
 10
-5.122600388699876
 20
-0.8229771774998937
 30
0.0
 11
-5.163650032299869
 21
-0.2771096491999003
 31
0.0
  0
LINE
  5
D99
330
1F
100
AcDbEntity
  8
SK1
100
AcDbLine
 10
-5.081311903499766
 20
-1.343856189099909
 30
0.0
 11
-5.122600388699876
 21
-0.8229771774998937
 31
0.0
  0
LINE
  5
D9A
330
1F
100
AcDbEntity
  8
SK1
100
AcDbLine
 10
-5.714583811699752
 20
-1.139313591800004
 30
0.0
 11
-5.757641246099865
 21
-0.6612320886999044
 31
0.0
  0
LWPOLYLINE
  5
D9B
330
1F
100
AcDbEntity
  8
SK1
100
AcDbPolyline
 90
        4
 70
     0
 43
0.0
 10
-5.64998999999986
 20
-1.780489999999899
 10
-5.671511892799767
 20
-1.579541787899898
 10
-5.693046394499787
 20
-1.365154400199912
 10
-5.714583811699752
 20
-1.139313591800004
  0
LWPOLYLINE
  5
D9C
330
1F
100
AcDbEntity
  8
SK1
100
AcDbPolyline
 90
        5
 70
     0
 43
0.0
 10
-5.846758004299773
 20
-3.012502336399903
 10
-5.826457565899772
 20
-3.089028170399897
 10
-5.806197888599768
 20
-3.142590892299921
 10
-5.786004755599887
 20
-3.172798093099883
 10
-5.770238780199775
 20
-3.180000578300023
  0
LWPOLYLINE
  5
D9D
330
1F
100
AcDbEntity
  8
SK1
100
AcDbPolyline
 90
        4
 70
     0
 43
0.0
 10
-6.38511417519976
 20
-3.052900078300011
 10
-6.398776784299767
 20
-3.035868538100004
 10
-6.410529978599753
 20
-3.0169515236999
 10
-6.420206462999884
 20
-2.996563026399996
  0
LWPOLYLINE
  5
D9E
330
1F
100
AcDbEntity
  8
SK1
100
AcDbPolyline
 90
        3
 70
     0
 43
0.0
 10
-6.46592672869977
 20
-2.850115126399913
 10
-6.496816036499865
 20
-2.746292023499989
 10
-6.502985778099797
 20
-2.725355453699989
  0
LINE
  5
D9F
330
1F
100
AcDbEntity
  8
SK1
100
AcDbLine
 10
-6.427934383099881
 20
-2.974856505699904
 30
0.0
 11
-6.465957628299858
 21
-2.850088737899881
 31
0.0
  0
LINE
  5
DA0
330
1F
100
AcDbEntity
  8
SK1
100
AcDbLine
 10
-6.427898881699775
 20
-2.975099389599903
 30
0.0
 11
-6.410662227499869
 21
-3.029671634400017
 31
0.0
  0
LINE
  5
DA1
330
1F
100
AcDbEntity
  8
SK1
100
AcDbLine
 10
-6.420206462999884
 20
-2.996563026399996
 30
0.0
 11
-6.427898881699775
 21
-2.975099389599903
 31
0.0
  0
LWPOLYLINE
  5
DA2
330
1F
100
AcDbEntity
  8
SK1
100
AcDbPolyline
 90
        4
 70
     0
 43
0.0
 10
-6.410662227499869
 20
-3.029671634400017
 10
-6.401466734099782
 20
-3.053577125000003
 10
-6.391405240799882
 20
-3.076174866599984
 10
-6.380145345699872
 20
-3.097594585899912
  0
LWPOLYLINE
  5
DA3
330
1F
100
AcDbEntity
  8
SK1
100
AcDbPolyline
 90
        5
 70
     0
 43
0.0
 10
-6.380145345699872
 20
-3.097594585899912
 10
-6.366613826199852
 20
-3.118816645999913
 10
-6.349229934199767
 20
-3.140458931799996
 10
-6.326768286599872
 20
-3.161560588899902
 10
-6.304037570999753
 20
-3.177107666800026
  0
LINE
  5
DA4
330
1F
100
AcDbEntity
  8
SK1
100
AcDbLine
 10
-6.189899116299867
 20
2.769191313199996
 30
0.0
 11
-6.640001071699772
 21
2.649382627200024
 31
0.0
  0
LWPOLYLINE
  5
DA5
330
1F
100
AcDbEntity
  8
SK1
100
AcDbPolyline
 90
       20
 70
     0
 43
0.0
 10
-5.731824570091587
 20
2.837829000326081
 10
-5.732367040699897
 20
2.837023924600115
 10
-5.733111510799857
 20
2.835950071300116
 10
-5.733941404299766
 20
2.834787410799975
 10
-5.734864316699766
 20
2.833532442200008
 10
-5.735888493599872
 20
2.832181657100107
 10
-5.73701758349986
 20
2.830738384200087
 10
-5.738256805699876
 20
2.829204337700076
 10
-5.739610548699772
 20
2.827582750000004
 10
-5.741083774699772
 20
2.825876597599997
 10
-5.742680564799883
 20
2.824090306200017
 10
-5.744405588499772
 20
2.822228013500108
 10
-5.746262316399878
 20
2.820295507599977
 10
-5.748254859099887
 20
2.818298188199972
 10
-5.750385843099762
 20
2.816243201800091
 10
-5.752658542799847
 20
2.814137233400089
 10
-5.755074538999793
 20
2.811988679499989
 10
-5.757635968599771
 20
2.809805474500107
 10
-5.760343361899771
 20
2.807596939700005
 10
-5.763194628199869
 20
2.80537428779999
  0
LWPOLYLINE
  5
DA6
330
1F
100
AcDbEntity
  8
SK1
100
AcDbPolyline
 90
        5
 70
     0
 43
0.0
 10
-4.251920085065703
 20
2.837802376707798
 10
-4.252307729499873
 20
2.837191415200095
 10
-4.257859229499786
 20
2.829758127300093
 10
-4.266963594599758
 20
2.819641060200098
 10
-4.280793991399773
 20
2.807296914299995
  0
LINE
  5
DA7
330
1F
100
AcDbEntity
  8
SK1
100
AcDbLine
 10
-6.184296154799881
 20
2.770387790400093
 30
0.0
 11
-6.189899116299867
 21
2.769191313199996
 31
0.0
  0
LINE
  5
DA8
330
1F
100
AcDbEntity
  8
SK1
100
AcDbLine
 10
-5.03055064239987
 20
3.180001064999999
 30
0.0
 11
-5.553977372599771
 21
3.180001064999999
 31
0.0
  0
LINE
  5
DA9
330
1F
100
AcDbEntity
  8
SK1
100
AcDbLine
 10
-4.390110167899877
 20
2.769610538900022
 30
0.0
 11
-4.715273934299773
 21
2.769870553999993
 31
0.0
  0
LINE
  5
DAA
330
1F
100
AcDbEntity
  8
SK1
100
AcDbLine
 10
-5.870150933499871
 20
2.770136037500094
 30
0.0
 11
-6.184296154799881
 21
2.770387790400093
 31
0.0
  0
LWPOLYLINE
  5
DAB
330
1F
100
AcDbEntity
  8
SK1
100
AcDbPolyline
 90
        3
 70
     0
 43
0.0
 10
-4.715552018599852
 20
2.770104567200005
 10
-4.754065254099884
 20
2.774464247500103
 10
-4.787151069399783
 20
2.785315395300102
  0
LINE
  5
DAC
330
1F
100
AcDbEntity
  8
SK1
100
AcDbLine
 10
-5.030550651899773
 20
3.180001064999999
 30
0.0
 11
-5.020360723199785
 21
3.177033254099995
 31
0.0
  0
LWPOLYLINE
  5
DAD
330
1F
100
AcDbEntity
  8
SK1
100
AcDbPolyline
 90
        5
 70
     0
 43
0.0
 10
-4.787151069399783
 20
2.785315395300102
 10
-4.814306852399877
 20
2.800210455400105
 10
-4.833715133299846
 20
2.815542498500093
 10
-4.846545080999757
 20
2.829044952000088
 10
-4.853382679649516
 20
2.838168198121185
  0
LWPOLYLINE
  5
DAE
330
1F
100
AcDbEntity
  8
SK1
100
AcDbPolyline
 90
        5
 70
     0
 43
0.0
 10
-5.020360723199785
 20
3.177033254099995
 10
-5.00994716669976
 20
3.167896673300075
 10
-4.989308596199776
 20
3.131681623700103
 10
-4.968655535299773
 20
3.071626732100098
 10
-4.948021717299781
 20
2.9881921961001
  0
LINE
  5
DAF
330
1F
100
AcDbEntity
  8
SK1
100
AcDbLine
 10
-4.073229502299795
 20
3.180001064999999
 30
0.0
 11
-4.083170260099848
 21
3.177165225400102
 31
0.0
  0
LINE
  5
DB0
330
1F
100
AcDbEntity
  8
SK1
100
AcDbLine
 10
-5.553977373299858
 20
3.180001064999999
 30
0.0
 11
-5.564091156899792
 21
3.177105870699988
 31
0.0
  0
LWPOLYLINE
  5
DB1
330
1F
100
AcDbEntity
  8
SK1
100
AcDbPolyline
 90
        5
 70
     0
 43
0.0
 10
-4.29955115129988
 20
2.794472015400089
 10
-4.324459206499795
 20
2.782363764900081
 10
-4.351942392999887
 20
2.774056132000082
 10
-4.379125358699781
 20
2.770272554000086
 10
-4.389144964599893
 20
2.769774934199999
  0
LINE
  5
DB2
330
1F
100
AcDbEntity
  8
SK1
100
AcDbLine
 10
-4.853382679649483
 20
2.83816819812108
 30
0.0
 11
-4.905101448199784
 21
3.00237016460008
 31
0.0
  0
LWPOLYLINE
  5
DB3
330
1F
100
AcDbEntity
  8
SK1
100
AcDbPolyline
 90
        7
 70
     0
 43
0.0
 10
-4.904982649999851
 20
3.001884984200073
 10
-4.926600846999861
 20
3.060872697999997
 10
-4.94692146239987
 20
3.101068666300106
 10
-4.965863743099871
 20
3.128814521900095
 10
-4.984354406699765
 20
3.149405855200001
 10
-5.002711784799884
 20
3.165155674700002
 10
-5.020385817599842
 20
3.176961967100083
  0
LWPOLYLINE
  5
DB4
330
1F
100
AcDbEntity
  8
SK1
100
AcDbPolyline
 90
       18
 70
     0
 43
0.0
 10
-5.7956126581999
 20
2.786020847900118
 10
-5.799835281699869
 20
2.784158831599994
 10
-5.804140571199781
 20
2.782394578500086
 10
-5.808509471099768
 20
2.780738278400093
 10
-5.81294577839975
 20
2.779190529700001
 10
-5.817443559199771
 20
2.777755514600102
 10
-5.822012338799765
 20
2.77643125180009
 10
-5.826666472799786
 20
2.775215246700013
 10
-5.831385651399781
 20
2.774114503999979
 10
-5.836192865599797
 20
2.773125748300087
 10
-5.840970739899888
 20
2.772271699400079
 10
-5.845645518399749
 20
2.771558430999988
 10
-5.850104041999768
 20
2.770997919199999
 10
-5.854065340199781
 20
2.770606402100099
 10
-5.857957259099862
 20
2.770326320200098
 10
-5.862061453499848
 20
2.770136584700082
 10
-5.866542231199786
 20
2.770031428600105
 10
-5.870268292799776
 20
2.770008672800115
  0
LINE
  5
DB5
330
1F
100
AcDbEntity
  8
SK1
100
AcDbLine
 10
-4.280793991399773
 20
2.807296914299995
 30
0.0
 11
-4.29955115129988
 21
2.794472015400089
 31
0.0
  0
LINE
  5
DB6
330
1F
100
AcDbEntity
  8
SK1
100
AcDbLine
 10
-3.785891694299778
 20
1.087716243400079
 30
0.0
 11
-3.826846495499779
 21
1.590038229500095
 31
0.0
  0
LWPOLYLINE
  5
DB7
330
1F
100
AcDbEntity
  8
SK1
100
AcDbPolyline
 90
       13
 70
     0
 43
0.0
 10
-3.826846495499779
 20
1.590038229500095
 10
-3.847333579499775
 20
1.824026047100089
 10
-3.867839466999781
 20
2.044131306800096
 10
-3.888378420999856
 20
2.248647896400084
 10
-3.908944696999867
 20
2.436052258700101
 10
-3.929545717999758
 20
2.604938989900088
 10
-3.950156244099786
 20
2.754000308200004
 10
-3.970762459799857
 20
2.882089863199977
 10
-3.991337514499888
 20
2.988245646800095
 10
-4.011834007699775
 20
3.071665017700098
 10
-4.03229977349977
 20
3.131705148199984
 10
-4.052754664499786
 20
3.167907617400087
 10
-4.073229502299795
 20
3.180001064999999
  0
LWPOLYLINE
  5
DB8
330
1F
100
AcDbEntity
  8
SK1
100
AcDbPolyline
 90
        9
 70
     0
 43
0.0
 10
-4.948021717299781
 20
2.9881921961001
 10
-4.927460776499883
 20
2.882027281400013
 10
-4.906936634999851
 20
2.753929943200088
 10
-4.886441268699768
 20
2.604851258099984
 10
-4.865944150199767
 20
2.4359440754001
 10
-4.845407302799768
 20
2.248525015199984
 10
-4.82484505129986
 20
2.043995156100093
 10
-4.804257551699777
 20
1.823874707400079
 10
-4.783649333499766
 20
1.589870998800023
  0
LWPOLYLINE
  5
DB9
330
1F
100
AcDbEntity
  8
SK1
100
AcDbPolyline
 90
        9
 70
     0
 43
0.0
 10
-4.083120752799771
 20
3.17716507050008
 10
-4.107054425999763
 20
3.160878954600093
 10
-4.129469184899788
 20
3.139756109400109
 10
-4.146879515699876
 20
3.117955281000091
 10
-4.160693891599861
 20
3.096183779600011
 10
-4.172138275599763
 20
3.074318319700096
 10
-4.182092835099751
 20
3.051833205500116
 10
-4.191143573099791
 20
3.028158663000084
 10
-4.199522780899767
 20
3.0032273626
  0
LINE
  5
DBA
330
1F
100
AcDbEntity
  8
SK1
100
AcDbLine
 10
-4.083170260099848
 20
3.177165225400102
 30
0.0
 11
-4.083345960038013
 21
3.177011824019571
 31
0.0
  0
LWPOLYLINE
  5
DBB
330
1F
100
AcDbEntity
  8
SK1
100
AcDbPolyline
 90
        9
 70
     0
 43
0.0
 10
-5.56405015069987
 20
3.177105740299992
 10
-5.582664183699761
 20
3.164757977700076
 10
-5.605316202899756
 20
3.14463985600011
 10
-5.62342534399977
 20
3.123221440599991
 10
-5.637713075999782
 20
3.101763999700008
 10
-5.649655747499878
 20
3.079812969000073
 10
-5.660176318199887
 20
3.056769210300075
 10
-5.669767916299861
 20
3.032247434200002
 10
-5.679455432599753
 20
3.0036823848001
  0
LWPOLYLINE
  5
DBC
330
1F
100
AcDbEntity
  8
SK1
100
AcDbPolyline
 90
       10
 70
     0
 43
0.0
 10
-5.763194628199869
 20
2.80537428779999
 10
-5.766198256499762
 20
2.803140599300093
 10
-5.76936323779978
 20
2.800899392600085
 10
-5.772685502099761
 20
2.798663341000093
 10
-5.776166295999757
 20
2.796441074799984
 10
-5.779795519499771
 20
2.794247991800006
 10
-5.783565456199768
 20
2.792096790300004
 10
-5.787465587499866
 20
2.790000653000106
 10
-5.79148525849979
 20
2.787971566499976
 10
-5.7956126581999
 20
2.786020847900118
  0
LINE
  5
DBD
330
1F
100
AcDbEntity
  8
SK1
100
AcDbLine
 10
-4.199719612399857
 20
3.002672461200091
 30
0.0
 11
-4.251920085099754
 21
2.837802376599992
 31
0.0
  0
LINE
  5
DBE
330
1F
100
AcDbEntity
  8
SK1
100
AcDbLine
 10
-4.783649333499766
 20
1.589870998800023
 30
0.0
 11
-4.742384486399885
 21
1.087515924600097
 31
0.0
  0
LINE
  5
DBF
330
1F
100
AcDbEntity
  8
SK1
100
AcDbLine
 10
-5.564091156899792
 20
3.177105870699988
 30
0.0
 11
-5.574666194899862
 21
3.167894964299988
 31
0.0
  0
LINE
  5
DC0
330
1F
100
AcDbEntity
  8
SK1
100
AcDbLine
 10
-5.24544896899988
 20
0.8230711747000043
 30
0.0
 11
-5.286795196299777
 21
1.343938210400094
 31
0.0
  0
LWPOLYLINE
  5
DC1
330
1F
100
AcDbEntity
  8
SK1
100
AcDbPolyline
 90
       14
 70
     0
 43
0.0
 10
-5.286795196299777
 20
1.343938210400094
 10
-5.307500823199858
 20
1.590000701800104
 10
-5.328157791599891
 20
1.823997768600094
 10
-5.348765988499846
 20
2.044108966000095
 10
-5.369300134299777
 20
2.248625778099976
 10
-5.389781132899768
 20
2.436030704600085
 10
-5.410209343999895
 20
2.604924257700103
 10
-5.430621120599766
 20
2.753990082900116
 10
-5.451045214099877
 20
2.882076002200021
 10
-5.471504789099867
 20
2.988230007700082
 10
-5.492037367999869
 20
3.071653562900081
 10
-5.512628629099762
 20
3.131698674000091
 10
-5.533291715099776
 20
3.167905162900098
 10
-5.553977373299858
 20
3.180001064999999
  0
LINE
  5
DC2
330
1F
100
AcDbEntity
  8
SK1
100
AcDbLine
 10
-5.886759731899871
 20
0.8371498492000737
 30
0.0
 11
-5.929834387099787
 21
1.303321811300093
 31
0.0
  0
LWPOLYLINE
  5
DC3
330
1F
100
AcDbEntity
  8
SK1
100
AcDbPolyline
 90
       13
 70
     0
 43
0.0
 10
-5.929834387099787
 20
1.303321811300093
 10
-5.951364991599858
 20
1.52095082540009
 10
-5.972885885999772
 20
1.725825670900093
 10
-5.994403538799757
 20
1.916306657200067
 10
-6.015923660899773
 20
2.09077396280011
 10
-6.037441869799777
 20
2.247795711400016
 10
-6.058951491099888
 20
2.386067190700086
 10
-6.080461995699862
 20
2.504408705300104
 10
-6.101974154099877
 20
2.601859104600094
 10
-6.123497962799887
 20
2.677726721600009
 10
-6.145046172899867
 20
2.731279255400095
 10
-6.166607696999789
 20
2.761940777599988
 10
-6.184296154799881
 20
2.770387790400093
  0
LINE
  5
DC4
330
1F
100
AcDbEntity
  8
SK1
100
AcDbLine
 10
-5.679755276799767
 20
3.002661182000081
 30
0.0
 11
-5.731824570099772
 21
2.837829000300102
 31
0.0
  0
LWPOLYLINE
  5
DC6
330
1F
100
AcDbEntity
  8
1
100
AcDbPolyline
 90
       20
 70
     0
 43
0.0
 10
1.774645124150199
 20
-0.9808065438499367
 10
1.641711554850304
 20
-0.7857659099499445
 10
1.525874588350179
 20
-0.5896047153499496
 10
1.427621178750203
 20
-0.3954024771499149
 10
1.345490440250274
 20
-0.2040751912499132
 10
1.278568993650198
 20
-0.0168204344500254
 10
1.225701274250186
 20
0.1663768642499547
 10
1.185602390050178
 20
0.3456601316499785
 10
1.157746953150311
 20
0.5212296583499524
 10
1.141183892250299
 20
0.6935071456500596
 10
1.135905375050187
 20
0.8628933023500591
 10
1.141425915150197
 20
1.029902103650057
 10
1.158227410550296
 20
1.194786976950054
 10
1.186305903950313
 20
1.357751514250067
 10
1.226633481150202
 20
1.518960562550075
 10
1.279784773450274
 20
1.67843064845006
 10
1.346948192350285
 20
1.835560090649961
 10
1.429283386950291
 20
1.989721117349958
 10
1.527451275250288
 20
2.139144143350035
 10
1.642630257150304
 20
2.282182997050069
  0
LINE
  5
DC7
330
1F
100
AcDbEntity
  8
SK1
100
AcDbLine
 10
-2.264812403299854
 20
0.5522548239999879
 30
0.0
 11
-2.306135937699761
 21
1.087707505599976
 31
0.0
  0
LINE
  5
DC8
330
1F
100
AcDbEntity
  8
SK1
100
AcDbLine
 10
-3.241600390299763
 20
0.8229248647000131
 30
0.0
 11
-3.138965279099863
 21
-0.5522633289999135
 31
0.0
  0
LWPOLYLINE
  5
DC9
330
1F
100
AcDbEntity
  8
SK1
100
AcDbPolyline
 90
        3
 70
     0
 43
0.0
 10
-2.633521616442859
 20
-2.838686131619311
 10
-2.627028718099893
 20
-2.829971749299915
 10
-2.613077667799756
 20
-2.815370204199922
  0
ARC
  5
DCA
330
1F
100
AcDbEntity
  8
SK1
100
AcDbCircle
 10
-1.459526901499884
 20
-3.279999684299895
 30
0.0
 40
0.0999986962
100
AcDbArc
 50
5.567854640452513
 51
90.14162221069971
  0
LINE
  5
DCB
330
1F
100
AcDbEntity
  8
SK1
100
AcDbLine
 10
-2.809585729999866
 20
-3.180001065100015
 30
0.0
 11
-2.799250917299787
 21
-3.176944267099912
 31
0.0
  0
LINE
  5
DCC
330
1F
100
AcDbEntity
  8
SK1
100
AcDbLine
 10
-2.798807038899893
 20
-3.176686785999919
 30
0.0
 11
-2.798338308699783
 21
-3.176407838499897
 31
0.0
  0
LINE
  5
DCD
330
1F
100
AcDbEntity
  8
SK1
100
AcDbLine
 10
-2.797841517599747
 20
-3.176109957399916
 30
0.0
 11
-2.797336306399785
 21
-3.17580458829991
 31
0.0
  0
LINE
  5
DCE
330
1F
100
AcDbEntity
  8
SK1
100
AcDbLine
 10
-2.796841721399799
 20
-3.175503173899898
 30
0.0
 11
-2.796351537799778
 21
-3.175201943000018
 31
0.0
  0
LINE
  5
DCF
330
1F
100
AcDbEntity
  8
SK1
100
AcDbLine
 10
-2.795866129899764
 20
-3.174901108999989
 30
0.0
 11
-2.795383685199765
 21
-3.174599531599908
 31
0.0
  0
LINE
  5
DD0
330
1F
100
AcDbEntity
  8
SK1
100
AcDbLine
 10
-2.794902816399769
 20
-3.174296318999921
 30
0.0
 11
-2.794421813099858
 21
-3.173990348599915
 31
0.0
  0
LINE
  5
DD1
330
1F
100
AcDbEntity
  8
SK1
100
AcDbLine
 10
-2.793939490599882
 20
-3.173680810699892
 30
0.0
 11
-2.793452713599889
 21
-3.173365624499893
 31
0.0
  0
LINE
  5
DD2
330
1F
100
AcDbEntity
  8
SK1
100
AcDbLine
 10
-2.79296014289977
 20
-3.173043831499993
 30
0.0
 11
-2.792455037799754
 21
-3.172710889599897
 31
0.0
  0
LINE
  5
DD3
330
1F
100
AcDbEntity
  8
SK1
100
AcDbLine
 10
-2.791932755399784
 20
-3.172363550599897
 30
0.0
 11
-2.791384285799864
 21
-3.171995561499981
 31
0.0
  0
LINE
  5
DD4
330
1F
100
AcDbEntity
  8
SK1
100
AcDbLine
 10
-2.790796645899859
 20
-3.171597817600001
 30
0.0
 11
-2.790174121099878
 21
-3.171172842199978
 31
0.0
  0
LWPOLYLINE
  5
DD5
330
1F
100
AcDbEntity
  8
SK1
100
AcDbPolyline
 90
        3
 70
     0
 43
0.0
 10
-2.789510778399773
 20
-3.170716268000006
 10
-2.788823932699755
 20
-3.170239584799986
 10
-2.787433856699749
 20
-3.169262676700014
  0
LINE
  5
DD6
330
1F
100
AcDbEntity
  8
SK1
100
AcDbLine
 10
-2.787433856699749
 20
-3.169262676700014
 30
0.0
 11
-2.786028068899895
 21
-3.168258038599987
 31
0.0
  0
LINE
  5
DD7
330
1F
100
AcDbEntity
  8
SK1
100
AcDbLine
 10
-2.786028068899895
 20
-3.168258038599987
 30
0.0
 11
-2.784636686599864
 21
-3.167246551799991
 31
0.0
  0
LINE
  5
DD8
330
1F
100
AcDbEntity
  8
SK1
100
AcDbLine
 10
-2.784636686599864
 20
-3.167246551799991
 30
0.0
 11
-2.783271188499779
 21
-3.16623636440002
 31
0.0
  0
LINE
  5
DD9
330
1F
100
AcDbEntity
  8
SK1
100
AcDbLine
 10
-2.783271188499779
 20
-3.16623636440002
 30
0.0
 11
-2.781942606199776
 21
-3.165235706900006
 31
0.0
  0
LWPOLYLINE
  5
DDA
330
1F
100
AcDbEntity
  8
SK1
100
AcDbPolyline
 90
      115
 70
     0
 43
0.0
 10
-2.781942606199776
 20
-3.165235706900006
 10
-2.781295747299792
 20
-3.164741764000011
 10
-2.78065254279977
 20
-3.164246022899901
 10
-2.780004183899875
 20
-3.163741621000013
 10
-2.779351660299878
 20
-3.163229200199991
 10
-2.778692969999779
 20
-3.162707050199998
 10
-2.778028282499858
 20
-3.162175148599913
 10
-2.77735732059989
 20
-3.161633116199908
 10
-2.776679409299787
 20
-3.161080241900009
 10
-2.775993381599874
 20
-3.160515387700029
 10
-2.775300427799891
 20
-3.159939350599898
 10
-2.774600771699765
 20
-3.159352146299993
 10
-2.773896231399874
 20
-3.158755118699898
 10
-2.773188973199779
 20
-3.158149953300011
 10
-2.77247834829984
 20
-3.157535959599897
 10
-2.771764411099865
 20
-3.156913037899897
 10
-2.771047223099798
 20
-3.156281092599923
 10
-2.77032683419975
 20
-3.155640015799888
 10
-2.769603336899763
 20
-3.154989735700012
 10
-2.768876802399856
 20
-3.154330159799911
 10
-2.768147346099794
 20
-3.153661234499876
 10
-2.767415064799876
 20
-3.152982888899912
 10
-2.766680083099855
 20
-3.152295077199993
 10
-2.765942511399885
 20
-3.151597739899982
 10
-2.765202485299877
 20
-3.150890841800018
 10
-2.764460206499876
 20
-3.150174411800009
 10
-2.763715581299777
 20
-3.149448193099912
 10
-2.762968704299765
 20
-3.148712106799988
 10
-2.76221920639989
 20
-3.147965615200007
 10
-2.761466666399769
 20
-3.147208112899903
 10
-2.760711313199776
 20
-3.146439637399906
 10
-2.759953211199785
 20
-3.145660061299906
 10
-2.759192426199774
 20
-3.144869257199899
 10
-2.758429024399788
 20
-3.144067096399993
 10
-2.757663061599883
 20
-3.143253437499907
 10
-2.756894595799848
 20
-3.142428138999918
 10
-2.756123680399865
 20
-3.141591052099897
 10
-2.75535037569989
 20
-3.140742033699893
 10
-2.754574711099849
 20
-3.139880903699888
 10
-2.753796720699766
 20
-3.139007483600011
 10
-2.753016444499877
 20
-3.138121598299903
 10
-2.752234000899759
 20
-3.137223160100006
 10
-2.751449182199875
 20
-3.136311700999923
 10
-2.750661814599766
 20
-3.135386780199921
 10
-2.749871931699771
 20
-3.134448193999901
 10
-2.749079479899876
 20
-3.133495629300028
 10
-2.748284548799857
 20
-3.132528939300016
 10
-2.747487188499773
 20
-3.131547926799925
 10
-2.746687453099865
 20
-3.130552396299917
 10
-2.745885387299892
 20
-3.129542137299921
 10
-2.745081056299793
 20
-3.128516961799987
 10
-2.744274512199865
 20
-3.127476662299926
 10
-2.743465824099871
 20
-3.126421050099907
 10
-2.742655056199793
 20
-3.125349927899918
 10
-2.74184225709979
 20
-3.124263074599892
 10
-2.741027478499773
 20
-3.12316027029999
 10
-2.740210756299774
 20
-3.122041269799892
 10
-2.739392122199773
 20
-3.120905817500016
 10
-2.738571621699746
 20
-3.119753673299923
 10
-2.737749288399754
 20
-3.118584576000016
 10
-2.736925168999872
 20
-3.117398279000013
 10
-2.736099292499857
 20
-3.116194506499906
 10
-2.73527172179979
 20
-3.114973028200011
 10
-2.734442493099777
 20
-3.113733571499921
 10
-2.7336116890998
 20
-3.112475931000003
 10
-2.732779372799767
 20
-3.1111998703999
 10
-2.731945609499858
 20
-3.109905155499886
 10
-2.731110457099759
 20
-3.108591539300022
 10
-2.730273968999881
 20
-3.107258765999914
 10
-2.729436205299775
 20
-3.105906589199916
 10
-2.728597172099853
 20
-3.104534672699912
 10
-2.727756924799876
 20
-3.103142757099901
 10
-2.726915347299892
 20
-3.101730292799997
 10
-2.726072368799774
 20
-3.100296791900007
 10
-2.725227889699794
 20
-3.098841704099896
 10
-2.724381826999774
 20
-3.09736449399989
 10
-2.723534041199768
 20
-3.095864511999906
 10
-2.722684642299896
 20
-3.094341539800011
 10
-2.721832787699779
 20
-3.092793622700011
 10
-2.720979004599769
 20
-3.091221269499896
 10
-2.720119358299879
 20
-3.089616653299998
 10
-2.719251634699786
 20
-3.087974816000013
 10
-2.718371496699773
 20
-3.086286447700018
 10
-2.717474549999849
 20
-3.084541630199993
 10
-2.716559149199778
 20
-3.082735369499886
 10
-2.715620756499788
 20
-3.080856578699893
 10
-2.714663872799773
 20
-3.07891204579991
 10
-2.713690478999865
 20
-3.07690378139992
 10
-2.71270325269978
 20
-3.07483544279998
 10
-2.711704989399861
 20
-3.072711226799896
 10
-2.710696934599781
 20
-3.070532279300008
 10
-2.709680735499773
 20
-3.068300767699923
 10
-2.708657713099881
 20
-3.066018326099991
 10
-2.707629283299779
 20
-3.063686969799903
 10
-2.706596581399765
 20
-3.061308251799911
 10
-2.705561108999859
 20
-3.058884745600011
 10
-2.704522998199877
 20
-3.056415961899998
 10
-2.703483080899871
 20
-3.053903134100011
 10
-2.702440673999888
 20
-3.051343875599911
 10
-2.701395497199881
 20
-3.048736706099986
 10
-2.700347179899779
 20
-3.046079871599997
 10
-2.699295376099768
 20
-3.043371621299883
 10
-2.698239742799785
 20
-3.040610155200026
 10
-2.697179938699774
 20
-3.037793620000001
 10
-2.696115623499848
 20
-3.034920105799896
 10
-2.695046461199779
 20
-3.031987654399898
 10
-2.693972109299749
 20
-3.028994227199888
 10
-2.692892229699793
 20
-3.02593773559991
 10
-2.691806484199787
 20
-3.022816025499991
 10
-2.690714536999877
 20
-3.019626884199992
 10
-2.689616055099861
 20
-3.016368039799913
 10
-2.688510707099878
 20
-3.013037156999899
 10
-2.687398164799873
 20
-3.009631841699928
 10
-2.686278002199798
 20
-3.006149321599905
 10
-2.633521616499763
 20
-2.838686131800017
  0
LWPOLYLINE
  5
DDB
330
1F
100
AcDbEntity
  8
SK1
100
AcDbPolyline
 90
        5
 70
     0
 43
0.0
 10
-2.613077667799756
 20
-2.815370204199922
 10
-2.591922009299763
 20
-2.799072605499901
 10
-2.562457943199774
 20
-2.783799139100011
 10
-2.528073831799872
 20
-2.773775973999903
 10
-2.495551831099759
 20
-2.770715367500001
  0
LINE
  5
DDC
330
1F
100
AcDbEntity
  8
SK1
100
AcDbLine
 10
-2.799250917299787
 20
-3.176944267099912
 30
0.0
 11
-2.789024879199754
 21
-3.167889857000004
 31
0.0
  0
LWPOLYLINE
  5
DDD
330
1F
100
AcDbEntity
  8
SK1
100
AcDbPolyline
 90
        5
 70
     0
 43
0.0
 10
-2.170167590499771
 20
-2.770445606900009
 10
-2.166961604799894
 20
-2.770479537399892
 10
-2.1403785240999
 20
-2.772967186199903
 10
-2.112496784799871
 20
-2.779919455699911
 10
-2.088326298399749
 20
-2.790126894899998
  0
LINE
  5
DDE
330
1F
100
AcDbEntity
  8
SK1
100
AcDbLine
 10
-2.809585756499869
 20
-3.180001065100015
 30
0.0
 11
-3.333494700299778
 21
-3.180001065100015
 31
0.0
  0
LINE
  5
DDF
330
1F
100
AcDbEntity
  8
SK1
100
AcDbLine
 10
-1.45999999999978
 20
-3.180001065100015
 30
0.0
 11
-1.854194744299774
 21
-3.180001065100015
 31
0.0
  0
LINE
  5
DE0
330
1F
100
AcDbEntity
  8
SK1
100
AcDbLine
 10
-2.495343774799891
 20
-2.77075886849991
 30
0.0
 11
-2.170199709099875
 21
-2.770490560000013
 31
0.0
  0
LWPOLYLINE
  5
DE1
330
1F
100
AcDbEntity
  8
SK1
100
AcDbPolyline
 90
        6
 70
     0
 43
0.0
 10
-2.088326298399749
 20
-2.790126894899998
 10
-2.068033969199774
 20
-2.802378448899899
 10
-2.052778702199756
 20
-2.814566216999907
 10
-2.041807109299782
 20
-2.825592297299891
 10
-2.034799614499775
 20
-2.834148804799923
 10
-2.031576338299771
 20
-2.838808018099996
  0
LINE
  5
DE2
330
1F
100
AcDbEntity
  8
SK1
100
AcDbLine
 10
-1.854195686499878
 20
-3.180001065100015
 30
0.0
 11
-1.864154672699783
 21
-3.177148667599908
 31
0.0
  0
LINE
  5
DE3
330
1F
100
AcDbEntity
  8
SK1
100
AcDbLine
 10
-3.333494695199759
 20
-3.180001065100015
 30
0.0
 11
-3.343463272599763
 21
-3.177166769699993
 31
0.0
  0
LINE
  5
DE4
330
1F
100
AcDbEntity
  8
SK1
100
AcDbLine
 10
-2.162283804499848
 20
-0.8222987155998849
 30
0.0
 11
-2.264812403299854
 21
0.5522548239999879
 31
0.0
  0
LINE
  5
DE5
330
1F
100
AcDbEntity
  8
SK1
100
AcDbLine
 10
-2.121427393099793
 20
-1.342820948600004
 30
0.0
 11
-2.162283804499848
 21
-0.8222987155998849
 31
0.0
  0
LWPOLYLINE
  5
DE6
330
1F
100
AcDbEntity
  8
SK1
100
AcDbPolyline
 90
       10
 70
     0
 43
0.0
 10
-1.936218381399896
 20
-2.9871579892999
 10
-1.95674332009986
 20
-2.880842306699916
 10
-1.977327469199764
 20
-2.75263656539991
 10
-1.997964795999848
 20
-2.603489527199911
 10
-2.01861775109978
 20
-2.434553988500026
 10
-2.039247110199764
 20
-2.247146670700002
 10
-2.059851865899759
 20
-2.042665995199909
 10
-2.080417637399873
 20
-1.822629309300026
 10
-2.100945320899768
 20
-1.58874166809991
 10
-2.121427393099793
 20
-1.342820948600004
  0
LINE
  5
DE7
330
1F
100
AcDbEntity
  8
SK1
100
AcDbLine
 10
-2.031605383609699
 20
-2.838766033396977
 30
0.0
 11
-1.979605539899779
 21
-3.003067239399911
 31
0.0
  0
LWPOLYLINE
  5
DE8
330
1F
100
AcDbEntity
  8
SK1
100
AcDbPolyline
 90
        9
 70
     0
 43
0.0
 10
-1.979377667799863
 20
-3.003738667600003
 10
-1.970575985699895
 20
-3.029860099899991
 10
-1.961429980999753
 20
-3.053647936600015
 10
-1.951389723699776
 20
-3.07618202239999
 10
-1.939998539199763
 20
-3.0977992709999
 10
-1.926280987299774
 20
-3.119248457899884
 10
-1.908833500499781
 20
-3.140904767199883
 10
-1.886385231399856
 20
-3.16190188839991
 10
-1.864066963299874
 20
-3.177148393300001
  0
LWPOLYLINE
  5
DE9
330
1F
100
AcDbEntity
  8
SK1
100
AcDbPolyline
 90
        5
 70
     0
 43
0.0
 10
-1.864154672699783
 20
-3.177148667599908
 10
-1.874967386599875
 20
-3.167573653899893
 10
-1.89540178229987
 20
-3.131078689599888
 10
-1.915797920199793
 20
-3.070786428599973
 10
-1.936218381399896
 20
-2.9871579892999
  0
LWPOLYLINE
  5
DEA
330
1F
100
AcDbEntity
  8
SK1
100
AcDbPolyline
 90
        4
 70
     0
 43
0.0
 10
-3.553215356799768
 20
-2.798641547300006
 10
-3.53434410869977
 20
-2.812955608699894
 10
-3.521304810699858
 20
-2.82597563679991
 10
-3.513643886499778
 20
-2.835574112599912
  0
LINE
  5
DEB
330
1F
100
AcDbEntity
  8
SK1
100
AcDbLine
 10
-3.138965279099863
 20
-0.5522633289999135
 30
0.0
 11
-3.097605267499771
 21
-1.0877227103999
 31
0.0
  0
LINE
  5
DEC
330
1F
100
AcDbEntity
  8
SK1
100
AcDbLine
 10
-3.097605267499771
 20
-1.0877227103999
 30
0.0
 11
-3.056310458699782
 21
-1.590057104699923
 31
0.0
  0
LWPOLYLINE
  5
DED
330
1F
100
AcDbEntity
  8
SK1
100
AcDbPolyline
 90
       13
 70
     0
 43
0.0
 10
-3.056310458699782
 20
-1.590057104699923
 10
-3.035735421099872
 20
-1.824048064400017
 10
-3.015200435299788
 20
-2.044153876299901
 10
-2.994700084199763
 20
-2.248666860499923
 10
-2.974226040199765
 20
-2.436067933799904
 10
-2.953783033199781
 20
-2.6049560383
 10
-2.933326472799762
 20
-2.754017174499892
 10
-2.912815063899785
 20
-2.882100664399928
 10
-2.89224365139978
 20
-2.98825181679993
 10
-2.871566643399773
 20
-3.071671110399903
 10
-2.850864055999778
 20
-3.131710815700017
 10
-2.830199625499773
 20
-3.167911106499897
 10
-2.809585729999866
 20
-3.180001065100015
  0
LWPOLYLINE
  5
DEE
330
1F
100
AcDbEntity
  8
SK1
100
AcDbPolyline
 90
        9
 70
     0
 43
0.0
 10
-3.436520007999774
 20
-2.882023599099908
 10
-3.457027247499866
 20
-2.753926801900007
 10
-3.477491778599755
 20
-2.604850573199996
 10
-3.497960312799875
 20
-2.4359472248
 10
-3.518480644399771
 20
-2.248532540099914
 10
-3.539045343999787
 20
-2.044008250299981
 10
-3.559692655999754
 20
-1.823896773299907
 10
-3.58033335369987
 20
-1.589900399799915
 10
-3.600863014399776
 20
-1.343831085899892
  0
LINE
  5
DEF
330
1F
100
AcDbEntity
  8
SK1
100
AcDbLine
 10
-3.415974241399879
 20
-2.988188626899926
 30
0.0
 11
-3.436520007999774
 21
-2.882023599099908
 31
0.0
  0
LINE
  5
DF0
330
1F
100
AcDbEntity
  8
SK1
100
AcDbLine
 10
-3.511509962999781
 20
-2.838812208199982
 30
0.0
 11
-3.459721940399873
 21
-3.002687168400001
 31
0.0
  0
LWPOLYLINE
  5
DF1
330
1F
100
AcDbEntity
  8
SK1
100
AcDbPolyline
 90
        9
 70
     0
 43
0.0
 10
-3.459384286199878
 20
-3.003699949000008
 10
-3.449955451399886
 20
-3.031501513499931
 10
-3.440389081899752
 20
-3.056013213400007
 10
-3.429870846299763
 20
-3.079099812199899
 10
-3.41782966969987
 20
-3.101259689799888
 10
-3.403399562899892
 20
-3.122939514199913
 10
-3.385202814199856
 20
-3.144440172700028
 10
-3.362506657199786
 20
-3.164544931199911
 10
-3.34335525059987
 20
-3.177166431000016
  0
LINE
  5
DF2
330
1F
100
AcDbEntity
  8
SK1
100
AcDbLine
 10
-3.513643886499778
 20
-2.835574112599912
 30
0.0
 11
-3.511509962999781
 21
-2.838812208199982
 31
0.0
  0
LWPOLYLINE
  5
DF3
330
1F
100
AcDbEntity
  8
SK1
100
AcDbPolyline
 90
        5
 70
     0
 43
0.0
 10
-3.343463272599763
 20
-3.177166769699993
 10
-3.354109452499868
 20
-3.167895178699893
 10
-3.374732959599781
 20
-3.131678853500003
 10
-3.395364911699857
 20
-3.071623262799988
 10
-3.415974241399879
 20
-2.988188626899926
  0
LWPOLYLINE
  5
DF4
330
1F
100
AcDbEntity
  8
1
100
AcDbPolyline
 90
        4
 70
     0
 43
0.0
 10
1.993074282450183
 20
-1.327473944350044
 10
1.922973824650285
 20
-1.213150772549922
 10
1.849685893550288
 20
-1.09776796994994
 10
1.774649853650291
 20
-0.9808085166499294
  0
LINE
  5
DF5
330
1F
100
AcDbEntity
  8
SK1
100
AcDbLine
 10
0.0000195856002279
 20
3.391187514800008
 30
0.0
 11
-1.359981133799774
 21
3.319930812699993
 31
0.0
  0
LWPOLYLINE
  5
DF6
330
1F
100
AcDbEntity
  8
SK1
100
AcDbPolyline
 90
        5
 70
     0
 43
0.0
 10
-2.771619155462982
 20
2.838696179400271
 10
-2.773067735399763
 20
2.836478394500088
 10
-2.779188242499855
 20
2.828545743700118
 10
-2.788770978999878
 20
2.818255077500083
 10
-2.802731988199779
 20
2.806195516799988
  0
ARC
  5
DF7
330
1F
100
AcDbEntity
  8
SK1
100
AcDbCircle
 10
-1.459526901499884
 20
3.279999684300008
 30
0.0
 40
0.0999986962
100
AcDbArc
 50
269.8583777892995
 51
354.4321453598363
  0
LINE
  5
DF8
330
1F
100
AcDbEntity
  8
SK1
100
AcDbLine
 10
-1.45999999999978
 20
3.180001064999999
 30
0.0
 11
-2.594007799399773
 21
3.180001064999999
 31
0.0
  0
LWPOLYLINE
  5
DF9
330
1F
100
AcDbEntity
  8
SK1
100
AcDbPolyline
 90
        4
 70
     0
 43
0.0
 10
-3.235530379399873
 20
2.770574452000087
 10
-3.26504369819986
 20
2.773102683900019
 10
-3.296965650299767
 20
2.781575442300009
 10
-3.324633477799863
 20
2.794502036700095
  0
LINE
  5
DFA
330
1F
100
AcDbEntity
  8
SK1
100
AcDbLine
 10
-2.910318995899785
 20
2.770269882900095
 30
0.0
 11
-3.23547748549987
 21
2.77055110239999
 31
0.0
  0
LINE
  5
DFB
330
1F
100
AcDbEntity
  8
SK1
100
AcDbLine
 10
-3.549805129899765
 20
3.180001064999999
 30
0.0
 11
-3.539594678199872
 21
3.177003611699973
 31
0.0
  0
LWPOLYLINE
  5
DFC
330
1F
100
AcDbEntity
  8
SK1
100
AcDbPolyline
 90
        4
 70
     0
 43
0.0
 10
-3.324633477799863
 20
2.794502036700095
 10
-3.345415753599866
 20
2.808710842599991
 10
-3.360252684099862
 20
2.822306323399998
 10
-3.369487616399879
 20
2.833017229799991
  0
LWPOLYLINE
  5
DFD
330
1F
100
AcDbEntity
  8
SK1
100
AcDbPolyline
 90
        5
 70
     0
 43
0.0
 10
-3.539594678199872
 20
3.177003611699973
 10
-3.529286993499765
 20
3.167893548399971
 10
-3.508791971799778
 20
3.131676260999995
 10
-3.488308891599896
 20
3.071620853000096
 10
-3.467818132599774
 20
2.988186835100093
  0
LINE
  5
DFE
330
1F
100
AcDbEntity
  8
SK1
100
AcDbLine
 10
-3.369487616399879
 20
2.833017229799991
 30
0.0
 11
-3.373633655674328
 21
2.838873150486497
 31
0.0
  0
LINE
  5
DFF
330
1F
100
AcDbEntity
  8
SK1
100
AcDbLine
 10
-3.373633655674268
 20
2.838873150486305
 30
0.0
 11
-3.425218801199774
 21
3.00267631989999
 31
0.0
  0
LWPOLYLINE
  5
E00
330
1F
100
AcDbEntity
  8
SK1
100
AcDbPolyline
 90
        7
 70
     0
 43
0.0
 10
-3.425148142399876
 20
3.002476152300089
 10
-3.445881927499868
 20
3.059484279000086
 10
-3.465370871599873
 20
3.098843429000083
 10
-3.483347406899781
 20
3.1259990419
 10
-3.501286436999861
 20
3.146779961200109
 10
-3.520268572699762
 20
3.163737762400073
 10
-3.539624397099883
 20
3.176939440200015
  0
LINE
  5
E01
330
1F
100
AcDbEntity
  8
SK1
100
AcDbLine
 10
-2.59400780549987
 20
3.180001064999999
 30
0.0
 11
-2.604123503899785
 21
3.177076497599982
 31
0.0
  0
LINE
  5
E02
330
1F
100
AcDbEntity
  8
SK1
100
AcDbLine
 10
-2.306135937699761
 20
1.087707505599976
 30
0.0
 11
-2.347375436899767
 21
1.590041287800089
 31
0.0
  0
LWPOLYLINE
  5
E03
330
1F
100
AcDbEntity
  8
SK1
100
AcDbPolyline
 90
       13
 70
     0
 43
0.0
 10
-2.347375436899767
 20
1.590041287800089
 10
-2.367924964399775
 20
1.824031986300099
 10
-2.388436944599872
 20
2.044137705599978
 10
-2.408909851699772
 20
2.24865048899997
 10
-2.429376065599879
 20
2.43605242059999
 10
-2.44986460799987
 20
2.604943823500093
 10
-2.470384027799779
 20
2.754007931900019
 10
-2.490962184399791
 20
2.882092406400002
 10
-2.511570167899773
 20
2.988244383999983
 10
-2.532192700099753
 20
3.07166500380012
 10
-2.552816745499852
 20
3.131706443599995
 10
-2.57342320769976
 20
3.1679088371001
 10
-2.59400780549987
 20
3.180001064999999
  0
LWPOLYLINE
  5
E04
330
1F
100
AcDbEntity
  8
SK1
100
AcDbPolyline
 90
       10
 70
     0
 43
0.0
 10
-3.467818132599774
 20
2.988186835100093
 10
-3.447299860899761
 20
2.882020587500078
 10
-3.426749375999861
 20
2.753921112600095
 10
-3.40614525949985
 20
2.604841482800082
 10
-3.385517832099762
 20
2.435933976400008
 10
-3.364886780999767
 20
2.248515269299983
 10
-3.344262588299867
 20
2.043985967700081
 10
-3.323659967999788
 20
1.8238648737001
 10
-3.303085912399865
 20
1.58986132779998
 10
-3.282555812499877
 20
1.343798118700107
  0
LWPOLYLINE
  5
E05
330
1F
100
AcDbEntity
  8
SK1
100
AcDbPolyline
 90
        4
 70
     0
 43
0.0
 10
-2.820964572599791
 20
2.794051285700076
 10
-2.843760932799852
 20
2.783039037700091
 10
-2.869072753899871
 20
2.775110577399999
 10
-2.910318995899785
 20
2.770269882900095
  0
LINE
  5
E06
330
1F
100
AcDbEntity
  8
SK1
100
AcDbLine
 10
-2.802731988199779
 20
2.806195516799988
 30
0.0
 11
-2.820964572599791
 21
2.794051285700076
 31
0.0
  0
LWPOLYLINE
  5
E07
330
1F
100
AcDbEntity
  8
SK1
100
AcDbPolyline
 90
        9
 70
     0
 43
0.0
 10
-2.604063233799763
 20
3.177076305899986
 10
-2.626748186799773
 20
3.161577540699993
 10
-2.64922163469987
 20
3.1404887579001
 10
-2.66667487259977
 20
3.118735666499985
 10
-2.680391369599759
 20
3.097179369600098
 10
-2.691759428499779
 20
3.075499929000073
 10
-2.701743701999759
 20
3.05300258710011
 10
-2.710833219199769
 20
3.029292665500093
 10
-2.719403233899868
 20
3.003837083299996
  0
LINE
  5
E08
330
1F
100
AcDbEntity
  8
SK1
100
AcDbLine
 10
-2.719655379699759
 20
3.003003069600111
 30
0.0
 11
-2.771619155399889
 21
2.838696179600076
 31
0.0
  0
LINE
  5
E09
330
1F
100
AcDbEntity
  8
SK1
100
AcDbLine
 10
-3.282555812499877
 20
1.343798118700107
 30
0.0
 11
-3.241600390299763
 21
0.8229248647000131
 31
0.0
  0
LWPOLYLINE
  5
E0A
330
1F
100
AcDbEntity
  8
1
100
AcDbPolyline
 90
       10
 70
     0
 43
0.0
 10
1.619341348601213
 20
4.874253065127033
 10
1.619341348601157
 20
4.874253065126976
 10
1.604276918850303
 20
4.846492305850047
 10
1.589146801850293
 20
4.819823908950053
 10
1.573079801050199
 20
4.795631673449959
 10
1.556421192950298
 20
4.773390295850063
 10
1.539751070550295
 20
4.752455976350047
 10
1.522984589650293
 20
4.732756521650045
 10
1.506156715550278
 20
4.714203100549965
 10
1.489510367750285
 20
4.696040466050065
  0
ARC
  5
E0D
330
1F
100
AcDbEntity
  8
1
100
AcDbCircle
 10
1.310762314950184
 20
4.939276218849966
 30
0.0
 40
0.2429180948
100
AcDbArc
 50
269.9991595428999
 51
314.8676764860998
  0
LINE
  5
E0E
330
1F
100
AcDbEntity
  8
1
100
AcDbLine
 10
1.31076238775029
 20
4.696358124150051
 30
0.0
 11
0.0000000000002274
 21
4.696395904199988
 31
0.0
  0
LINE
  5
E0F
330
1F
100
AcDbEntity
  8
1
100
AcDbLine
 10
0.9353545645502979
 20
4.487726182550074
 30
0.0
 11
0.8387077225501718
 21
4.479475711249972
 31
0.0
  0
LWPOLYLINE
  5
E10
330
1F
100
AcDbEntity
  8
1
100
AcDbPolyline
 90
        5
 70
     0
 43
0.0
 10
0.8387077225501718
 20
4.479475711249972
 10
0.8198227418502064
 20
4.477535635050045
 10
0.8021185809502105
 20
4.475264559049959
 10
0.7855952398502986
 20
4.472658576850065
 10
0.7702527185502995
 20
4.469713229749956
  0
LWPOLYLINE
  5
E11
330
1F
100
AcDbEntity
  8
1
100
AcDbPolyline
 90
       19
 70
     0
 43
0.0
 10
0.7702527185502995
 20
4.469713229749956
 10
0.715899574050301
 20
4.458195314950058
 10
0.6695448543502815
 20
4.444945099950061
 10
0.6311928236502844
 20
4.429680157950073
 10
0.6008306898502874
 20
4.412856028350048
 10
0.5785932242502874
 20
4.395036153450048
 10
0.564042001850286
 20
4.375794274550043
 10
0.5570062399502868
 20
4.354891037349957
 10
0.556817782750276
 20
4.332238650050055
 10
0.5633164017502886
 20
4.307623450650041
 10
0.5748075326502864
 20
4.281133221750039
 10
0.5902569458501752
 20
4.252961569849943
 10
0.6075234088502876
 20
4.222631123250051
 10
0.6244353652502959
 20
4.189815884550069
 10
0.6400495573502987
 20
4.154085161549954
 10
0.6527692598502917
 20
4.114904825949949
 10
0.6623833185501873
 20
4.072032223450078
 10
0.6680554134501941
 20
4.025057389350066
 10
0.6700643177503061
 20
3.973808519650063
  0
LWPOLYLINE
  5
E12
330
1F
100
AcDbEntity
  8
1
100
AcDbPolyline
 90
        5
 70
     0
 43
0.0
 10
1.883273786950184
 20
2.696066416349977
 10
1.918617090150178
 20
2.665266382849963
 10
1.954480292650205
 20
2.63561034484995
 10
1.990867475450274
 20
2.607122464449969
 10
2.027782595350291
 20
2.579826753750054
  0
LINE
  5
E13
330
1F
100
AcDbEntity
  8
1
100
AcDbLine
 10
1.468922776650178
 20
4.616091131449976
 30
0.0
 11
1.479948951050293
 21
4.573799178350056
 31
0.0
  0
LINE
  5
E14
330
1F
100
AcDbEntity
  8
1
100
AcDbLine
 10
1.457550903950281
 20
4.658261532750074
 30
0.0
 11
1.468922776650178
 21
4.616091131449976
 31
0.0
  0
LWPOLYLINE
  5
E15
330
1F
100
AcDbEntity
  8
1
100
AcDbPolyline
 90
        9
 70
     0
 43
0.0
 10
1.479948951050293
 20
4.573799178350056
 10
1.503932173750203
 20
4.476128330350078
 10
1.525451769450286
 20
4.379028898750062
 10
1.544276415650303
 20
4.282610602850055
 10
1.559356278350182
 20
4.18897677224997
 10
1.569682655950288
 20
4.100353037150071
 10
1.574915286050273
 20
4.015922763950056
 10
1.574605451350294
 20
3.935117573650058
 10
1.568696812650189
 20
3.857895529849952
  0
LWPOLYLINE
  5
E16
330
1F
100
AcDbEntity
  8
1
100
AcDbPolyline
 90
       13
 70
     0
 43
0.0
 10
1.527020922350206
 20
3.297145228550062
 10
1.541883761050288
 20
3.245329450549988
 10
1.559785682050178
 20
3.191760514749957
 10
1.580903111150294
 20
3.136208745249959
 10
1.605106490750188
 20
3.080068853650046
 10
1.63243921235028
 20
3.024383856150066
 10
1.662274593550195
 20
2.970104549249967
 10
1.693833031950306
 20
2.91851469304997
 10
1.727300883050193
 20
2.869399240850056
 10
1.762391861850292
 20
2.82321725785006
 10
1.799757256650283
 20
2.779187749849951
 10
1.840115812850173
 20
2.736618845350065
 10
1.883273786950184
 20
2.696066416349977
  0
LWPOLYLINE
  5
E17
330
1F
100
AcDbEntity
  8
1
100
AcDbPolyline
 90
        5
 70
     0
 43
0.0
 10
1.50190850235029
 20
3.492086948550066
 10
1.500223514650289
 20
3.447606412250066
 10
1.503794352450285
 20
3.400140656050055
 10
1.512707525750218
 20
3.349922395649953
 10
1.527020813250261
 20
3.297145229550082
  0
LWPOLYLINE
  5
E18
330
1F
100
AcDbEntity
  8
1
100
AcDbPolyline
 90
        3
 70
     0
 43
0.0
 10
1.523438341650179
 20
3.622360990749953
 10
1.51192337835019
 20
3.558466393750066
 10
1.50190850235029
 20
3.492086948550066
  0
LWPOLYLINE
  5
E19
330
1F
100
AcDbEntity
  8
1
100
AcDbPolyline
 90
        4
 70
     0
 43
0.0
 10
1.568702921550285
 20
3.857886166750048
 10
1.559259240550292
 20
3.800446204749943
 10
1.548347646450284
 20
3.742309528949971
 10
1.523438341650179
 20
3.622360990749953
  0
LWPOLYLINE
  5
E1A
330
1F
100
AcDbEntity
  8
1
100
AcDbPolyline
 90
        4
 70
     0
 43
0.0
 10
1.958327379650285
 20
2.54578984504995
 10
1.935666375950179
 20
2.535394082449939
 10
1.922727450850175
 20
2.529692504250061
 10
1.908550980550274
 20
2.523596227750075
  0
LWPOLYLINE
  5
E1B
330
1F
100
AcDbEntity
  8
1
100
AcDbPolyline
 90
        3
 70
     0
 43
0.0
 10
2.027602116050192
 20
2.579853066250064
 10
2.022857309950186
 20
2.577671335250056
 10
2.01786344095018
 20
2.575185122549965
  0
LWPOLYLINE
  5
E1C
330
1F
100
AcDbEntity
  8
1
100
AcDbPolyline
 90
        7
 70
     0
 43
0.0
 10
2.01786344095018
 20
2.575185122549965
 10
2.000209959250301
 20
2.566105833750083
 10
1.993231979750308
 20
2.562571265649963
 10
1.985617245850281
 20
2.55879438795007
 10
1.977309510650289
 20
2.554743852650048
 10
1.9682343302502
 20
2.550422194650066
 10
1.958327379650285
 20
2.54578984504995
  0
LWPOLYLINE
  5
E1D
330
1F
100
AcDbEntity
  8
1
100
AcDbPolyline
 90
        7
 70
     0
 43
0.0
 10
1.827090881650179
 20
2.468190225350082
 10
1.840417884850299
 20
2.478073787750062
 10
1.853851223350264
 20
2.487707392250043
 10
1.867393850850194
 20
2.49709975094997
 10
1.881036906550208
 20
2.506224728149943
 10
1.894771529850291
 20
2.515056188149955
 10
1.908600674150195
 20
2.523602842850081
  0
LINE
  5
E1E
330
1F
100
AcDbEntity
  8
1
100
AcDbLine
 10
1.809114008650285
 20
2.450574129150068
 30
0.0
 11
1.827035474650188
 21
2.468107799250061
 31
0.0
  0
LINE
  5
E1F
330
1F
100
AcDbEntity
  8
1
100
AcDbLine
 10
1.791574102750304
 20
2.433237832050065
 30
0.0
 11
1.809114008650285
 21
2.450574129150068
 31
0.0
  0
LINE
  5
E20
330
1F
100
AcDbEntity
  8
1
100
AcDbLine
 10
1.774421471550284
 20
2.416089193750065
 30
0.0
 11
1.791574102750304
 21
2.433237832050065
 31
0.0
  0
LINE
  5
E21
330
1F
100
AcDbEntity
  8
1
100
AcDbLine
 10
1.642630257150304
 20
2.282182997050069
 30
0.0
 11
1.774427527850295
 21
2.416095308650068
 31
0.0
  0
LWPOLYLINE
  5
E22
330
1F
100
AcDbEntity
  8
1
100
AcDbPolyline
 90
        7
 70
     0
 43
0.0
 10
1.457455054450293
 20
4.658198523949961
 10
1.449934039150179
 20
4.64953322144997
 10
1.441371494550199
 20
4.640794363450066
 10
1.431729551850283
 20
4.632064758349981
 10
1.421078088350188
 20
4.623557536850041
 10
1.409496882750292
 20
4.615491386850052
 10
1.396973311750175
 20
4.607976113750068
  0
LWPOLYLINE
  5
E23
330
1F
100
AcDbEntity
  8
1
100
AcDbPolyline
 90
        3
 70
     0
 43
0.0
 10
1.489510367750285
 20
4.696040466050065
 10
1.473378605750273
 20
4.67725682265005
 10
1.457550903950281
 20
4.658261532750074
  0
LWPOLYLINE
  5
E24
330
1F
100
AcDbEntity
  8
1
100
AcDbPolyline
 90
        9
 70
     0
 43
0.0
 10
1.39120875155021
 20
4.604911866449967
 10
1.344220578650296
 20
4.583459180450048
 10
1.293300171650175
 20
4.563278001049964
 10
1.237917761750168
 20
4.544844011849971
 10
1.179662655250299
 20
4.528465095549973
 10
1.119828854650281
 20
4.514415665749978
 10
1.05877250155021
 20
4.502869729250063
 10
0.9973795059502808
 20
4.493910879749972
 10
0.9353545645502979
 20
4.487726182550074
  0
LINE
  5
E25
330
1F
100
AcDbEntity
  8
1
100
AcDbLine
 10
1.396994695850197
 20
4.607990859450053
 30
0.0
 11
1.391216290650221
 21
4.604900280350063
 31
0.0
  0
LINE
  5
E26
330
1F
100
AcDbEntity
  8
1
100
AcDbLine
 10
8.38069283365019
 20
-3.447777686450038
 30
0.0
 11
8.952108898050314
 21
-2.889100653949937
 31
0.0
  0
LINE
  5
E28
330
1F
100
AcDbEntity
  8
1
100
AcDbLine
 10
2.936168751550272
 20
-4.441485823349935
 30
0.0
 11
2.936168751550272
 21
-2.568174368350025
 31
0.0
  0
LINE
  5
E2A
330
1F
100
AcDbEntity
  8
1
100
AcDbLine
 10
7.69128037285029
 20
-4.134132724049933
 30
0.0
 11
8.38069283365019
 21
-3.447777686450038
 31
0.0
  0
LINE
  5
E2D
330
1F
100
AcDbEntity
  8
1
100
AcDbLine
 10
5.676150461250305
 20
-4.645054493949953
 30
0.0
 11
4.170067623450282
 21
-4.532532954450018
 31
0.0
  0
LWPOLYLINE
  5
E32
330
1F
100
AcDbEntity
  8
1
100
AcDbPolyline
 90
        3
 70
     0
 43
0.0
 10
2.645091905150198
 20
-4.417061875849936
 10
2.862799265250291
 20
-4.435136929949933
 10
2.936168751550272
 20
-4.441485823349935
  0
LWPOLYLINE
  5
E33
330
1F
100
AcDbEntity
  8
1
100
AcDbPolyline
 90
        5
 70
     0
 43
0.0
 10
2.223726389750313
 20
-4.379050864050028
 10
2.327882466550279
 20
-4.387568530149946
 10
2.432826326150292
 20
-4.396765681849941
 10
2.538560506650299
 20
-4.406610523149949
 10
2.645091826150293
 20
-4.41706187644992
  0
LINE
  5
E34
330
1F
100
AcDbEntity
  8
1
100
AcDbLine
 10
3.730629953250203
 20
-4.497477141949943
 30
0.0
 11
4.170067623450282
 21
-4.532532954450018
 31
0.0
  0
LWPOLYLINE
  5
E35
330
1F
100
AcDbEntity
  8
1
100
AcDbPolyline
 90
        3
 70
     0
 43
0.0
 10
2.936168751550272
 20
-4.441485823349935
 10
3.320532067650193
 20
-4.461805913250045
 10
3.730629953250203
 20
-4.497477141949943
  0
LWPOLYLINE
  5
E39
330
1F
100
AcDbEntity
  8
1
100
AcDbPolyline
 90
        3
 70
     0
 43
0.0
 10
7.099817843750288
 20
-4.733153718249936
 10
7.408244786950294
 20
-4.422408433650002
 10
7.69128037285029
 20
-4.134132724049933
  0
LINE
  5
E3A
330
1F
100
AcDbEntity
  8
1
100
AcDbLine
 10
6.185038751550197
 20
-4.679114913049928
 30
0.0
 11
5.676150461250305
 21
-4.645054493949953
 31
0.0
  0
LINE
  5
E3B
330
1F
100
AcDbEntity
  8
1
100
AcDbLine
 10
6.484346859550187
 20
-4.697809767049945
 30
0.0
 11
6.185038750650281
 21
-4.67911524425004
 31
0.0
  0
LINE
  5
E3C
330
1F
100
AcDbEntity
  8
1
100
AcDbLine
 10
7.099793762250271
 20
-4.733184354150025
 30
0.0
 11
6.484346859550187
 21
-4.697809767049945
 31
0.0
  0
LINE
  5
E3D
330
1F
100
AcDbEntity
  8
1
100
AcDbLine
 10
8.18510515315029
 20
-4.059116707550018
 30
0.0
 11
8.205008792850209
 21
-4.039106288449954
 31
0.0
  0
LWPOLYLINE
  5
E3F
330
1F
100
AcDbEntity
  8
1
100
AcDbPolyline
 90
        9
 70
     0
 43
0.0
 10
8.312464759350177
 20
-1.066303883950024
 10
8.23649542875029
 20
-1.183199898349937
 10
8.154910194550215
 20
-1.291400706249944
 10
8.069219943850217
 20
-1.389148213849934
 10
7.977220510450313
 20
-1.479613717949928
 10
7.877119296450302
 20
-1.564421013749934
 10
7.767382649650302
 20
-1.644186846449954
 10
7.645327721850267
 20
-1.720158530250059
 10
7.511973631850199
 20
-1.790244867749959
  0
LWPOLYLINE
  5
E40
330
1F
100
AcDbEntity
  8
1
100
AcDbPolyline
 90
       13
 70
     0
 43
0.0
 10
6.740618751550187
 20
3.958988124150053
 10
6.985044017850272
 20
3.936282967450053
 10
7.233379123150316
 20
3.894147786849984
 10
7.483941844950266
 20
3.831906481549977
 10
7.740220581950272
 20
3.747563596349988
 10
8.005183342350282
 20
3.63828803714999
 10
8.277520353050306
 20
3.502645121850078
 10
8.557720168350272
 20
3.338682271650057
 10
8.843510087250312
 20
3.146522112250053
 10
9.132957630250306
 20
2.927189769350078
 10
9.426691707550192
 20
2.680595579450068
 10
9.724921629250188
 20
2.407462531750055
 10
10.02756317355028
 20
2.109508119450067
  0
LWPOLYLINE
  5
E41
330
1F
100
AcDbEntity
  8
1
100
AcDbPolyline
 90
        7
 70
     0
 43
0.0
 10
7.240241971850285
 20
1.049434283549982
 10
7.379910126150294
 20
0.9663545539499548
 10
7.522579041650204
 20
0.8796573486500705
 10
7.668223248550307
 20
0.7893491000500461
 10
7.816947729450308
 20
0.6954105108499534
 10
7.968857790650194
 20
0.597822283449986
 10
8.123928635850177
 20
0.4965908504500619
  0
LWPOLYLINE
  5
E42
330
1F
100
AcDbEntity
  8
1
100
AcDbPolyline
 90
        4
 70
     0
 43
0.0
 10
5.165710759650298
 20
-2.712617705950051
 10
4.843178315750209
 20
-2.716922927650058
 10
4.504067611650273
 20
-2.711721022249931
 10
4.147982527450182
 20
-2.695746161249943
  0
LINE
  5
E43
330
1F
100
AcDbEntity
  8
1
100
AcDbLine
 10
2.260410391550295
 20
-1.804231058350024
 30
0.0
 11
2.175582177099673
 21
-1.655820392917419
 31
0.0
  0
LINE
  5
E44
330
1F
100
AcDbEntity
  8
1
100
AcDbLine
 10
2.400170533750213
 20
-2.034801237049931
 30
0.0
 11
2.260410391550295
 21
-1.804231058350024
 31
0.0
  0
LWPOLYLINE
  5
E45
330
1F
100
AcDbEntity
  8
1
100
AcDbPolyline
 90
        3
 70
     0
 43
0.0
 10
2.541517263750279
 20
-2.237734141249929
 10
2.470309493550306
 20
-2.140723190449945
 10
2.400170533750213
 20
-2.034801237049931
  0
LWPOLYLINE
  5
E46
330
1F
100
AcDbEntity
  8
1
100
AcDbPolyline
 90
        4
 70
     0
 43
0.0
 10
2.769514195550303
 20
-2.468902803150015
 10
2.690591680250181
 20
-2.402310338150029
 10
2.614479707650278
 20
-2.32506345314995
 10
2.541517263750279
 20
-2.237734141249929
  0
LWPOLYLINE
  5
E47
330
1F
100
AcDbEntity
  8
1
100
AcDbPolyline
 90
        3
 70
     0
 43
0.0
 10
2.936168751550272
 20
-2.568174368350025
 10
2.851388965050206
 20
-2.523900296349935
 10
2.769514195550303
 20
-2.468902803150015
  0
LWPOLYLINE
  5
E48
330
1F
100
AcDbEntity
  8
1
100
AcDbPolyline
 90
        4
 70
     0
 43
0.0
 10
3.194375244250183
 20
-2.643624915150055
 10
3.106021253650286
 20
-2.623951721449955
 10
3.01968640705019
 20
-2.598817183949917
 10
2.936182840050181
 20
-2.568305880850016
  0
LWPOLYLINE
  5
E49
330
1F
100
AcDbEntity
  8
1
100
AcDbPolyline
 90
        3
 70
     0
 43
0.0
 10
3.3791590225502
 20
-2.667158438350055
 10
3.285243783350271
 20
-2.657992840349933
 10
3.194375244250183
 20
-2.643624915150055
  0
LWPOLYLINE
  5
E4A
330
1F
100
AcDbEntity
  8
1
100
AcDbPolyline
 90
        3
 70
     0
 43
0.0
 10
3.818360549050285
 20
-2.685283268849913
 10
3.648497439850305
 20
-2.678612051950024
 10
3.3791590225502
 20
-2.667158438350055
  0
LWPOLYLINE
  5
E4B
330
1F
100
AcDbEntity
  8
1
100
AcDbPolyline
 90
        3
 70
     0
 43
0.0
 10
4.147982527450182
 20
-2.695746161249943
 10
3.984855578150304
 20
-2.690994638650022
 10
3.818360549050285
 20
-2.685283268849913
  0
LINE
  5
E4C
330
1F
100
AcDbEntity
  8
1
100
AcDbLine
 10
7.15493632285029
 20
-2.088452420450024
 30
0.0
 11
6.996193828050311
 21
-2.203530341749923
 31
0.0
  0
LINE
  5
E4D
330
1F
100
AcDbEntity
  8
1
100
AcDbLine
 10
7.306897640050181
 20
-1.960048723950036
 30
0.0
 11
7.15493632285029
 21
-2.088452420450024
 31
0.0
  0
LINE
  5
E4E
330
1F
100
AcDbEntity
  8
1
100
AcDbLine
 10
7.451173273350177
 20
-1.818744880650014
 30
0.0
 11
7.306897640050181
 21
-1.960048723950036
 31
0.0
  0
LINE
  5
E4F
330
1F
100
AcDbEntity
  8
1
100
AcDbLine
 10
6.648437063850282
 20
-2.398732268049924
 30
0.0
 11
6.455762113850312
 21
-2.479875795250037
 31
0.0
  0
LINE
  5
E50
330
1F
100
AcDbEntity
  8
1
100
AcDbLine
 10
7.512057058150277
 20
-1.790278320449925
 30
0.0
 11
7.451139648850302
 21
-1.818746178450041
 31
0.0
  0
LINE
  5
E51
330
1F
100
AcDbEntity
  8
1
100
AcDbLine
 10
6.827956636650299
 20
-2.306559373349938
 30
0.0
 11
6.648437063850282
 21
-2.398732268049924
 31
0.0
  0
LINE
  5
E52
330
1F
100
AcDbEntity
  8
1
100
AcDbLine
 10
6.996193828050311
 20
-2.203530341749923
 30
0.0
 11
6.827956636650299
 21
-2.306559373349938
 31
0.0
  0
LINE
  5
E53
330
1F
100
AcDbEntity
  8
1
100
AcDbLine
 10
6.455762113850312
 20
-2.479875795250037
 30
0.0
 11
6.247154285050273
 21
-2.55024235294992
 31
0.0
  0
LINE
  5
E54
330
1F
100
AcDbEntity
  8
1
100
AcDbLine
 10
5.470476583550183
 20
-2.69500787234993
 30
0.0
 11
5.165710759650298
 21
-2.712617705950051
 31
0.0
  0
LINE
  5
E55
330
1F
100
AcDbEntity
  8
1
100
AcDbLine
 10
5.756287427450278
 20
-2.660295942149915
 30
0.0
 11
5.470476583550183
 21
-2.69500787234993
 31
0.0
  0
LINE
  5
E56
330
1F
100
AcDbEntity
  8
1
100
AcDbLine
 10
6.023539411350272
 20
-2.60974774365003
 30
0.0
 11
5.756287427450278
 21
-2.660295942149915
 31
0.0
  0
LINE
  5
E57
330
1F
100
AcDbEntity
  8
1
100
AcDbLine
 10
6.247154285050273
 20
-2.55024235294992
 30
0.0
 11
6.023539411350272
 21
-2.609747808449937
 31
0.0
  0
LWPOLYLINE
  5
E58
330
1F
100
AcDbEntity
  8
1
100
AcDbPolyline
 90
        7
 70
     0
 43
0.0
 10
6.740618613450182
 20
3.958988131750046
 10
6.107603536150293
 20
3.993056151349987
 10
5.477022753950282
 20
4.025249628149976
 10
4.848599874250171
 20
4.055608616150081
 10
4.223186956950288
 20
4.084089334749973
 10
3.601635633350272
 20
4.110658915650033
 10
2.983668751650188
 20
4.135368124149962
  0
LWPOLYLINE
  5
E59
330
1F
100
AcDbEntity
  8
1
100
AcDbPolyline
 90
       15
 70
     0
 43
0.0
 10
5.86969802445029
 20
2.008845740950063
 10
5.644825239150183
 20
2.119854067750067
 10
5.426608074550189
 20
2.212696430149958
 10
5.216364207050277
 20
2.28880152945008
 10
5.014107135150285
 20
2.351062753450078
 10
4.819922010150269
 20
2.401900487850056
 10
4.633814417850291
 20
2.443375582449943
 10
4.455685326450296
 20
2.477331515049953
 10
4.285258502150274
 20
2.505091068149951
 10
4.122219501650195
 20
2.527792278550049
 10
3.966316528950303
 20
2.546900984650064
 10
3.817315993350294
 20
2.563956139350054
 10
3.674617673650291
 20
2.578693679749944
 10
3.5373520832502
 20
2.591055370950058
 10
3.406050600150281
 20
2.601516552850069
  0
LWPOLYLINE
  5
E5A
330
1F
100
AcDbEntity
  8
1
100
AcDbPolyline
 90
        9
 70
     0
 43
0.0
 10
2.983668751650188
 20
4.135368124149962
 10
2.922122424950206
 20
4.140540624749958
 10
2.856689108650303
 20
4.155602427550078
 10
2.785488887750291
 20
4.181003004049941
 10
2.714174642950298
 20
4.215091886549956
 10
2.648675287950286
 20
4.25638698104997
 10
2.58627661385029
 20
4.304992967250071
 10
2.526147193850309
 20
4.360494201849959
 10
2.468565659850299
 20
4.422989923949938
  0
LWPOLYLINE
  5
E5B
330
1F
100
AcDbEntity
  8
1
100
AcDbPolyline
 90
        9
 70
     0
 43
0.0
 10
3.406050600150281
 20
2.601516552850069
 10
3.309491748350299
 20
2.608367779749968
 10
3.213897755650296
 20
2.613154818650043
 10
3.119569826950285
 20
2.615994073450039
 10
3.026577628050294
 20
2.616893047550078
 10
2.934856823850283
 20
2.615780060649953
 10
2.845413046250287
 20
2.612729665049968
 10
2.759171810850207
 20
2.607756331649951
 10
2.676330585450275
 20
2.600703934050056
  0
LWPOLYLINE
  5
E5C
330
1F
100
AcDbEntity
  8
1
100
AcDbPolyline
 90
        4
 70
     0
 43
0.0
 10
2.3925436865502
 20
2.568055263250059
 10
2.454572021550208
 20
2.575870949850056
 10
2.522448020250183
 20
2.583706166150065
 10
2.676329555850204
 20
2.600705292850064
  0
LWPOLYLINE
  5
E5D
330
1F
100
AcDbEntity
  8
1
100
AcDbPolyline
 90
        7
 70
     0
 43
0.0
 10
2.307303115650316
 20
4.661500889650068
 10
2.330614506050213
 20
4.619860579350058
 10
2.355349799450269
 20
4.578865814250079
 10
2.38150695135019
 20
4.538403429650074
 10
2.409092444150191
 20
4.498794127050058
 10
2.438112711750194
 20
4.46036001335004
 10
2.468565659850299
 20
4.422989923949938
  0
LWPOLYLINE
  5
E5E
330
1F
100
AcDbEntity
  8
1
100
AcDbPolyline
 90
        7
 70
     0
 43
0.0
 10
7.240269014950174
 20
1.049461193049964
 10
7.005413600650289
 20
1.243814981050077
 10
6.772790002950276
 20
1.42460862724995
 10
6.542782150450307
 20
1.591559421250065
 10
6.315475628850294
 20
1.744529700150065
 10
6.090973813150298
 20
1.88355405244998
 10
5.869712042850268
 20
2.008866014850054
  0
LWPOLYLINE
  5
E60
330
1F
100
AcDbEntity
  8
1
100
AcDbPolyline
 90
       13
 70
     0
 43
0.0
 10
10.56633773305027
 20
1.081604900249983
 10
10.65663459035028
 20
0.9551406017500736
 10
10.74875409865015
 20
0.8217501361499868
 10
10.84408417135026
 20
0.6802937255499586
 10
10.93846106795028
 20
0.5341907036500828
 10
11.0290599461502
 20
0.3855384656500718
 10
11.11325202505027
 20
0.2371630498499683
 10
11.18751776415027
 20
0.0924231333499819
 10
11.2517046003503
 20
-0.0481818046499286
 10
11.30421346295028
 20
-0.1829086884499275
 10
11.34586433405017
 20
-0.3121296304499452
 10
11.37698004185027
 20
-0.4356096038499261
 10
11.39745297695027
 20
-0.5534269510499286
  0
LINE
  5
E61
330
1F
100
AcDbEntity
  8
1
100
AcDbLine
 10
7.060602089623192
 20
5.196525655538888
 30
0.0
 11
11.50587718275027
 21
0.7687286199500677
 31
0.0
  0
LWPOLYLINE
  5
E63
330
1F
100
AcDbEntity
  8
1
100
AcDbPolyline
 90
        6
 70
     0
 43
0.0
 10
10.8178802781503
 20
-1.106273752149929
 10
10.86959017875017
 20
-1.063649646249939
 10
10.92326618085017
 20
-1.02096049884993
 10
10.97803019255018
 20
-0.9786515034499386
 10
11.03422212625025
 20
-0.9367002752499471
 10
11.09204339245027
 20
-0.8950019575499508
  0
LWPOLYLINE
  5
E64
330
1F
100
AcDbEntity
  8
1
100
AcDbPolyline
 90
        9
 70
     0
 43
0.0
 10
10.88953697465029
 20
-0.7351946141500464
 10
10.87943280645027
 20
-0.7295457184499271
 10
10.8647154838502
 20
-0.7205078760500358
 10
10.84469641495018
 20
-0.7076520253499297
 10
10.82156186465017
 20
-0.6923475033499501
 10
10.7971978347503
 20
-0.675793955250029
 10
10.77171315095027
 20
-0.658024680750046
 10
10.74488638455026
 20
-0.6386206688499243
 10
10.71954518685026
 20
-0.6201146770499264
  0
LINE
  5
E65
330
1F
100
AcDbEntity
  8
1
100
AcDbLine
 10
10.22398460825026
 20
-1.661361124949945
 30
0.0
 11
10.68894821805017
 21
-1.220267684150043
 31
0.0
  0
LWPOLYLINE
  5
E66
330
1F
100
AcDbEntity
  8
1
100
AcDbPolyline
 90
        4
 70
     0
 43
0.0
 10
8.952108898050314
 20
-2.889100653949937
 10
9.699782242450284
 20
-2.166164960549918
 10
9.96495845155022
 20
-1.910182007650021
 10
10.22398460825026
 20
-1.661361124949945
  0
LWPOLYLINE
  5
E68
330
1F
100
AcDbEntity
  8
1
100
AcDbPolyline
 90
        7
 70
     0
 43
0.0
 10
10.68894821805017
 20
-1.220267684150043
 10
10.71312680265019
 20
-1.198036573550052
 10
10.73623366165018
 20
-1.177168164750027
 10
10.75818724835027
 20
-1.157632360149944
 10
10.77909032635026
 20
-1.139362985250057
 10
10.79902486435026
 20
-1.122268461449932
 10
10.81787557005019
 20
-1.106266314849915
  0
LINE
  5
E69
330
1F
100
AcDbEntity
  8
1
100
AcDbLine
 10
8.606752433550299
 20
-0.4737631171499431
 30
0.0
 11
8.596917057750291
 21
-0.496553535749925
 31
0.0
  0
LINE
  5
E6A
330
1F
100
AcDbEntity
  8
1
100
AcDbLine
 10
8.596917057750291
 20
-0.496553535749925
 30
0.0
 11
8.577800602250308
 21
-0.5415587380500284
 31
0.0
  0
LINE
  5
E6B
330
1F
100
AcDbEntity
  8
1
100
AcDbLine
 10
8.577800602250308
 20
-0.5415587380500284
 30
0.0
 11
8.558678958450174
 21
-0.5874589637499385
 31
0.0
  0
LWPOLYLINE
  5
E6C
330
1F
100
AcDbEntity
  8
1
100
AcDbPolyline
 90
        5
 70
     0
 43
0.0
 10
8.636787463950302
 20
-0.4062123874499407
 10
8.645580446850207
 20
-0.3872933978499446
 10
8.65448101575021
 20
-0.3685759099499393
 10
8.663488641850282
 20
-0.3500764554499511
 10
8.682540061050303
 20
-0.309083264249935
  0
LWPOLYLINE
  5
E6D
330
1F
100
AcDbEntity
  8
1
100
AcDbPolyline
 90
        7
 70
     0
 43
0.0
 10
8.55869785445029
 20
-0.5874449839499364
 10
8.522323158350191
 20
-0.6687017467500454
 10
8.484124111950197
 20
-0.7494539196499233
 10
8.444096539250271
 20
-0.829726535849957
 10
8.402257911450307
 20
-0.9094444955499195
 10
8.358625626150175
 20
-0.9885326987499208
 10
8.313195395350309
 20
-1.067016178650034
  0
LWPOLYLINE
  5
E6E
330
1F
100
AcDbEntity
  8
1
100
AcDbPolyline
 90
        3
 70
     0
 43
0.0
 10
8.636607697450187
 20
-0.406077842649964
 10
8.626597189950192
 20
-0.4285242312500233
 10
8.606752433550299
 20
-0.4737631171499431
  0
LWPOLYLINE
  5
E6F
330
1F
100
AcDbEntity
  8
1
100
AcDbPolyline
 90
       13
 70
     0
 43
0.0
 10
10.5630021806503
 20
-0.5054933963499339
 10
10.45704885765018
 20
-0.4237634684499342
 10
10.35665684865028
 20
-0.3470254209500609
 10
10.2617756029503
 20
-0.2751914826499302
 10
10.17176999555027
 20
-0.2078411443500415
 10
10.08626129545028
 20
-0.1446744586499591
 10
10.00474303155021
 20
-0.0854194505499351
 10
9.926678684150207
 20
-0.0297664607500253
 10
9.851913323150316
 20
0.0223775188499787
 10
9.780161473650199
 20
0.0711587840500415
 10
9.711352757950296
 20
0.1166934833500619
 10
9.645310911850293
 20
0.1591356620500476
 10
9.582124492350294
 20
0.1984945681499397
  0
LINE
  5
E70
330
1F
100
AcDbEntity
  8
1
100
AcDbLine
 10
10.66206416225018
 20
-0.5785795645499121
 30
0.0
 11
10.60249458835027
 21
-0.5342678334499312
 31
0.0
  0
LINE
  5
E71
330
1F
100
AcDbEntity
  8
1
100
AcDbLine
 10
9.767345176550293
 20
-0.639661800150023
 30
0.0
 11
9.653482795650292
 21
-0.5547064938499347
 31
0.0
  0
LWPOLYLINE
  5
E72
330
1F
100
AcDbEntity
  8
1
100
AcDbPolyline
 90
        3
 70
     0
 43
0.0
 10
10.60249458835027
 20
-0.5342678334499312
 10
10.58269791505016
 20
-0.5197638227500505
 10
10.5630021806503
 20
-0.5054933963499339
  0
LWPOLYLINE
  5
E73
330
1F
100
AcDbEntity
  8
1
100
AcDbPolyline
 90
        5
 70
     0
 43
0.0
 10
9.653482779150181
 20
-0.5547066961499496
 10
9.608219442950286
 20
-0.5219975219500414
 10
9.564448637050306
 20
-0.4910564335499573
 10
9.522137766350287
 20
-0.4618414544500099
 10
9.481254076650204
 20
-0.4343121750499252
  0
LWPOLYLINE
  5
E74
330
1F
100
AcDbEntity
  8
1
100
AcDbPolyline
 90
        3
 70
     0
 43
0.0
 10
10.71954518685026
 20
-0.6201146770499264
 10
10.68150166645027
 20
-0.5928637356500276
 10
10.66206416225018
 20
-0.5785795645499121
  0
LWPOLYLINE
  5
E75
330
1F
100
AcDbEntity
  8
1
100
AcDbPolyline
 90
       14
 70
     0
 43
0.0
 10
8.43765325975028
 20
0.3034728346500656
 10
8.494933560850288
 20
0.262427976750061
 10
8.546367820250285
 20
0.2189532139499732
 10
8.591475768050202
 20
0.1733477841500388
 10
8.630053643150294
 20
0.1256510107500474
 10
8.661712567650285
 20
0.0767449441499793
 10
8.686116796550269
 20
0.0274666417499674
 10
8.703700356550204
 20
-0.0218729081499448
 10
8.714750381950182
 20
-0.0706161564499581
 10
8.719693790850275
 20
-0.119011211550017
 10
8.718921408850182
 20
-0.1672006195499449
 10
8.712442478850279
 20
-0.2150109989499497
 10
8.699849270050181
 20
-0.2619678760500363
 10
8.682540061050303
 20
-0.309083264249935
  0
LWPOLYLINE
  5
E76
330
1F
100
AcDbEntity
  8
1
100
AcDbPolyline
 90
       17
 70
     0
 43
0.0
 10
9.582124492350294
 20
0.1984945681499397
 10
9.523787710250186
 20
0.2336622061500719
 10
9.467865105950183
 20
0.2662086649500424
 10
9.414401595350286
 20
0.2961596656499382
 10
9.363395969050204
 20
0.323547429850052
 10
9.314844842450186
 20
0.3484088964499534
 10
9.268803633050314
 20
0.3707343916499752
 10
9.225281163950286
 20
0.390543807050065
 10
9.184399312450301
 20
0.4077400131499618
 10
9.146201211350275
 20
0.4222294857500374
 10
9.110844822250303
 20
0.4338417566499829
 10
9.078489191050213
 20
0.4424080969500751
 10
9.049128591050306
 20
0.4477364593500825
 10
9.022925738650286
 20
0.4497062512500494
 10
8.999449642750281
 20
0.4477979543500653
 10
8.978228155350281
 20
0.4461314426544477
 10
8.776229111850286
 20
0.4256095619500543
  0
LWPOLYLINE
  5
E77
330
1F
100
AcDbEntity
  8
1
100
AcDbPolyline
 90
        5
 70
     0
 43
0.0
 10
10.28055753995015
 20
-1.008453826749939
 10
10.18529395675028
 20
-0.9441408307499299
 10
10.08581949195016
 20
-0.8745352912499269
 10
9.984205555050181
 20
-0.8003050709500454
 10
9.767345176550293
 20
-0.639661800150023
  0
LWPOLYLINE
  5
E78
330
1F
100
AcDbEntity
  8
1
100
AcDbPolyline
 90
        8
 70
     0
 43
0.0
 10
9.481254076650204
 20
-0.4343121750499252
 10
9.463785718950306
 20
-0.4227200008500206
 10
9.446254365850283
 20
-0.4112411404499455
 10
9.428628606350287
 20
-0.3998454815499457
 10
9.411036576750179
 20
-0.3886342233499391
 10
9.393590509750314
 20
-0.3776815996499323
 10
9.376284404850313
 20
-0.3670251517500418
 10
9.358946568250193
 20
-0.3566532907499464
  0
LWPOLYLINE
  5
E79
330
1F
100
AcDbEntity
  8
1
100
AcDbPolyline
 90
        7
 70
     0
 43
0.0
 10
8.123928998050303
 20
0.4965873161500697
 10
8.165515112650272
 20
0.4698067180500375
 10
8.207196879250263
 20
0.4433771836500713
 10
8.2489921930503
 20
0.4173198747499641
 10
8.290837649750304
 20
0.3917066263500572
 10
8.332669939950164
 20
0.3666066946500877
 10
8.374507709450286
 20
0.3420387761500621
  0
LINE
  5
E7A
330
1F
100
AcDbEntity
  8
1
100
AcDbLine
 10
8.374514192650282
 20
0.3420347118500757
 30
0.0
 11
8.43765325975028
 21
0.3034728346500656
 31
0.0
  0
LWPOLYLINE
  5
E7B
330
1F
100
AcDbEntity
  8
1
100
AcDbPolyline
 90
       17
 70
     0
 43
0.0
 10
9.358946568250193
 20
-0.3566532907499464
 10
9.326785121350299
 20
-0.3377030723500383
 10
9.311881334850287
 20
-0.3291198991499443
 10
9.296827238950305
 20
-0.320831066049962
 10
9.281831921950304
 20
-0.3128885738499462
 10
9.266881680250266
 20
-0.3052669751499621
 10
9.252002128150312
 20
-0.2979989749500333
 10
9.237525913250184
 20
-0.2912484302499507
 10
9.222512875850274
 20
-0.2845933322500257
 10
9.205650386850212
 20
-0.2774133328499175
 10
9.18855011995018
 20
-0.2705498498500134
 10
9.172290055350293
 20
-0.2645958387499405
 10
9.156918459950192
 20
-0.2595466370499508
 10
9.142646129650303
 20
-0.2556047991499355
 10
9.129994460150186
 20
-0.2527030113499364
 10
9.119629286050187
 20
-0.2508463772500278
 10
9.111268905650293
 20
-0.2500018792500355
  0
LINE
  5
E7C
330
1F
100
AcDbEntity
  8
1
100
AcDbLine
 10
8.70146591105021
 20
-0.3799908213499207
 30
0.0
 11
8.636607697450187
 21
-0.406077842649964
 31
0.0
  0
LWPOLYLINE
  5
E7D
330
1F
100
AcDbEntity
  8
1
100
AcDbPolyline
 90
        3
 70
     0
 43
0.0
 10
8.824067704950181
 20
-0.329121348150025
 10
8.763834873850218
 20
-0.3543519473499401
 10
8.70146591105021
 20
-0.3799908213499207
  0
LWPOLYLINE
  5
E7E
330
1F
100
AcDbEntity
  8
1
100
AcDbPolyline
 90
        7
 70
     0
 43
0.0
 10
10.68894821805017
 20
-1.220267684150043
 10
10.62490839835017
 20
-1.195896451950019
 10
10.55843583935015
 20
-1.166800791249909
 10
10.49055993085016
 20
-1.133161410549929
 10
10.42148515235027
 20
-1.095347816249909
 10
10.35126538115026
 20
-1.053721908849934
 10
10.28055753995015
 20
-1.008453826749939
  0
LWPOLYLINE
  5
E7F
330
1F
100
AcDbEntity
  8
1
100
AcDbPolyline
 90
        5
 70
     0
 43
0.0
 10
9.111268905650293
 20
-0.2500018792500355
 10
9.054836771950306
 20
-0.2523615853499308
 10
8.998248876350293
 20
-0.262483600049947
 10
8.940900167950305
 20
-0.2815055149499272
 10
8.824067704950181
 20
-0.329121348150025
  0
LWPOLYLINE
  5
E80
330
1F
100
AcDbEntity
  8
1
100
AcDbPolyline
 90
        5
 70
     0
 43
0.0
 10
8.776229111850286
 20
0.4256095619500543
 10
8.73595314355029
 20
0.4218576582500618
 10
8.695052111950303
 20
0.4158973817499573
 10
8.653279129050192
 20
0.4083169291500754
 10
8.610653476650188
 20
0.399211098450067
  0
LWPOLYLINE
  5
E81
330
1F
100
AcDbEntity
  8
1
100
AcDbPolyline
 90
        4
 70
     0
 43
0.0
 10
8.610653476650188
 20
0.399211098450067
 10
8.521135083650197
 20
0.3786118004500593
 10
8.473906428750186
 20
0.3673693663499619
 10
8.425032772950292
 20
0.3551475876500803
  0
LINE
  5
E82
330
1F
100
AcDbEntity
  8
1
100
AcDbLine
 10
8.425032772950292
 20
0.3551475876500803
 30
0.0
 11
8.374530874650302
 21
0.3419976780500491
 31
0.0
  0
LINE
  5
E85
330
1F
100
AcDbEntity
  8
1
100
AcDbLine
 10
11.74999403265027
 20
0.0787708018500411
 30
0.0
 11
11.50587718275027
 21
0.7687286199500677
 31
0.0
  0
LINE
  5
E86
330
1F
100
AcDbEntity
  8
1
100
AcDbLine
 10
11.72980645165017
 20
0.0251454574499662
 30
0.0
 11
11.75000005565028
 21
0.0787683901500458
 31
0.0
  0
LINE
  5
E87
330
1F
100
AcDbEntity
  8
1
100
AcDbLine
 10
11.74999405515029
 20
-0.0787736820499419
 30
0.0
 11
11.50587765695027
 21
-0.7687323728499253
 31
0.0
  0
LINE
  5
E88
330
1F
100
AcDbEntity
  8
1
100
AcDbLine
 10
11.75000005565028
 20
0.0787683901500458
 30
0.0
 11
11.74999994435017
 21
-0.0787683901500458
 31
0.0
  0
LINE
  5
E89
330
1F
100
AcDbEntity
  8
1
100
AcDbLine
 10
11.6452957569503
 20
-0.1441301091500264
 30
0.0
 11
11.66568197755025
 21
-0.1099980428499378
 31
0.0
  0
LINE
  5
E8A
330
1F
100
AcDbEntity
  8
1
100
AcDbLine
 10
11.66568197755025
 20
-0.1099980428499378
 30
0.0
 11
11.68752837465018
 21
-0.0691363990500378
 31
0.0
  0
LWPOLYLINE
  5
E8B
330
1F
100
AcDbEntity
  8
1
100
AcDbPolyline
 90
        7
 70
     0
 43
0.0
 10
11.39747503835027
 20
-0.5534251007499194
 10
11.38007930455029
 20
-0.5879230841499492
 10
11.36286699065027
 20
-0.6216209920499268
 10
11.34583277055027
 20
-0.654530425850041
 10
11.32899262215028
 20
-0.6866165811499485
 10
11.31236252335017
 20
-0.7178446531499532
 10
11.29593714815029
 20
-0.7482262434499633
  0
LINE
  5
E8C
330
1F
100
AcDbEntity
  8
1
100
AcDbLine
 10
11.68752837465018
 20
-0.0691363990500378
 30
0.0
 11
11.70902223735029
 21
-0.0241899255499476
 31
0.0
  0
LINE
  5
E8D
330
1F
100
AcDbEntity
  8
1
100
AcDbLine
 10
11.70902223735029
 20
-0.0241899255499476
 30
0.0
 11
11.72980645165017
 21
0.0251454574499662
 31
0.0
  0
LINE
  5
E8E
330
1F
100
AcDbEntity
  8
1
100
AcDbLine
 10
11.39745297695027
 20
-0.5534269510499286
 30
0.0
 11
11.6452957569503
 21
-0.1441301091500264
 31
0.0
  0
LWPOLYLINE
  5
E8F
330
1F
100
AcDbEntity
  8
1
100
AcDbPolyline
 90
        9
 70
     0
 43
0.0
 10
11.09204339245027
 20
-0.8950019575499508
 10
11.16761325745016
 20
-0.8420559914500385
 10
11.18497883515026
 20
-0.8297940581500283
 10
11.20270059685025
 20
-0.8171195536500162
 10
11.22074981495029
 20
-0.8040580212499291
 10
11.2390989612503
 20
-0.7906324494499445
 10
11.25775375405019
 20
-0.7768421509500315
 10
11.27671007505028
 20
-0.7626951168499404
 10
11.29596968415016
 20
-0.7481884397500524
  0
LWPOLYLINE
  5
E90
330
1F
100
AcDbEntity
  8
1
100
AcDbPolyline
 90
        7
 70
     0
 43
0.0
 10
11.15047605845017
 20
-0.8539941372499269
 10
11.10693789925015
 20
-0.8374697017499242
 10
11.06352370015028
 20
-0.8196661987499423
 10
11.02020543115026
 20
-0.8006139283500173
 10
10.97684262285018
 20
-0.7802209697499195
 10
10.93329636885026
 20
-0.7583999439500389
 10
10.88953697465029
 20
-0.7351946141500464
  0
LWPOLYLINE
  5
E95
330
1F
100
AcDbEntity
  8
1
100
AcDbPolyline
 90
        5
 70
     0
 43
0.0
 10
10.02758160495026
 20
2.109493756049956
 10
10.04256304665016
 20
2.041494484350081
 10
10.05992307175016
 20
1.975386852249966
 10
10.07966168025028
 20
1.911170859949961
 10
10.10177887215028
 20
1.848846507350046
  0
LWPOLYLINE
  5
E96
330
1F
100
AcDbEntity
  8
1
100
AcDbPolyline
 90
        7
 70
     0
 43
0.0
 10
10.10143180515018
 20
1.848739905649961
 10
10.1545457188502
 20
1.724661081549967
 10
10.21879386105027
 20
1.600275468250044
 10
10.29563690605018
 20
1.475604159849964
 10
10.38085024595016
 20
1.348536276349972
 10
10.47042220135028
 20
1.217152508749975
 10
10.5664178879503
 20
1.081653011250054
  0
LWPOLYLINE
  5
E97
330
1F
100
AcDbEntity
  8
1
100
AcDbPolyline
 90
        7
 70
     0
 43
0.0
 10
9.761799236477656
 20
2.505626090510874
 10
9.817916216950264
 20
2.433619565750048
 10
9.868077780550292
 20
2.366106749450054
 10
9.914944760250193
 20
2.300165504550063
 10
9.957571395550306
 20
2.235533049250065
 10
9.995011925950276
 20
2.171946601750063
 10
10.02758160495026
 20
2.109493756049956
  0
LINE
  5
E9C
330
1F
100
AcDbEntity
  8
1
100
AcDbLine
 10
1.759068737671235
 20
5.284944529980771
 30
0.0
 11
1.705433223550298
 21
4.992038145750059
 31
0.0
  0
LINE
  5
EA8
330
1F
100
AcDbEntity
  8
1
100
AcDbLine
 10
1.759068737671235
 20
5.284944529980771
 30
0.0
 11
7.060602089623192
 21
5.196525655538888
 31
0.0
  0
TEXT
  5
EAF
330
1F
100
AcDbEntity
  8
6
100
AcDbText
 10
39.41349228665803
 20
-4.851159876397815
 30
0.0
 40
3.5
  1
Z=2
 50
90.0
100
AcDbText
  0
LWPOLYLINE
  5
FFC
330
1F
100
AcDbEntity
  8
CUT
100
AcDbPolyline
 90
        6
 70
     1
 43
0.0
 10
11.50587718275027
 20
0.7687286199500676
 10
7.060602089623192
 20
5.196525655538888
 10
2.749999999998894
 20
5.269018601469646
 10
2.749999999998864
 20
-0.0000018758500317
 10
11.74999999999885
 20
-0.0000018758500317
 10
11.75000005565028
 20
0.0787683901500458
  0
LWPOLYLINE
  5
10BE
330
1F
100
AcDbEntity
  8
NOCUT
100
AcDbPolyline
 90
        9
 70
     1
 43
0.0
 10
1.759068737671235
 20
5.284944529980771
 10
2.749999999998894
 20
5.269018601469646
 10
2.749999999998864
 20
-0.0000018758500317
 10
0.0000000000002274
 20
0.0000000000000853
 10
0.0000000000002274
 20
4.696395904200101
 10
1.31076238775029
 20
4.696358124150051
 42
0.1983121443529956
 10
1.482134192011332
 20
4.767110947863625
 42
0.1392037222590473
 10
1.705433223550298
 20
4.992038145750059
 10
1.759068737671238
 20
5.284944529980771
  0
LINE
  5
1140
330
1F
100
AcDbEntity
  8
1
100
AcDbLine
 10
7.056481145028785
 20
-5.199806221704072
 30
0.0
 11
11.50587718275027
 21
-0.7687286199500677
 31
0.0
  0
LINE
  5
1141
330
1F
100
AcDbEntity
  8
1
100
AcDbLine
 10
1.8477181966762
 20
-5.283519784390103
 30
0.0
 11
7.056481145028784
 21
-5.199806221704072
 31
0.0
  0
DIMENSION
  5
1465
330
1F
100
AcDbEntity
  8
SK2
100
AcDbDimension
  2
*D8
 10
-11.07341397538604
 20
-3.180000578300021
 30
0.0
 11
-11.07341397538604
 21
0.0000002433499877
 31
0.0
 70
   160
  1
Ts<>
  3
ISO-25
100
AcDbAlignedDimension
 13
-5.29226400749982
 23
3.180001064999999
 33
0.0
 14
-6.03209815369979
 24
-3.180000578300023
 34
0.0
 50
90.0
100
AcDbRotatedDimension
1001
ACAD
1000
DSTYLE
1002
{
1070
   271
1070
     0
1002
}
  0
ENDSEC
  0
SECTION
  2
OBJECTS
  0
DICTIONARY
  5
56C
330
0
100
AcDbDictionary
  3
ACAD_GROUP
350
56D
  3
ACAD_LAYOUT
350
574
  3
ACAD_MLINESTYLE
350
56E
  3
ACAD_PLOTSETTINGS
350
575
  3
ACAD_PLOTSTYLENAME
350
572
  3
ACDBHEADERROUNDTRIPXREC
350
1496
  3
ACDBVARIABLEDICTIONARY
350
10BC
  0
DICTIONARY
  5
AF0
330
1F
100
AcDbDictionary
280
     1
  3
ACAD_LAYOUTSELFREF
360
14B7
  0
DICTIONARY
  5
AEE
330
1B
100
AcDbDictionary
280
     1
  3
ACAD_LAYOUTSELFREF
360
14B6
  0
DICTIONARY
  5
56D
102
{ACAD_REACTORS
330
56C
102
}
330
56C
100
AcDbDictionary
  0
DICTIONARY
  5
574
102
{ACAD_REACTORS
330
56C
102
}
330
56C
100
AcDbDictionary
  0
DICTIONARY
  5
56E
102
{ACAD_REACTORS
330
56C
102
}
330
56C
100
AcDbDictionary
  3
STANDARD
350
56F
  0
DICTIONARY
  5
575
102
{ACAD_REACTORS
330
56C
102
}
330
56C
100
AcDbDictionary
  0
ACDBDICTIONARYWDFLT
  5
572
102
{ACAD_REACTORS
330
56C
102
}
330
56C
100
AcDbDictionary
281
     1
  3
Normal
350
573
100
AcDbDictionaryWithDefault
340
573
  0
DICTIONARY
  5
1496
102
{ACAD_REACTORS
330
56C
102
}
330
56C
100
AcDbDictionary
  3
CEPSNTYPE
350
14A0
  3
FINGERPRINTGUID
350
14A1
  3
HYPERLINKBASE
350
1499
  3
INSUNITS
350
149F
  3
LAYOUTDICT
350
149B
  3
LWETCUNION
350
149E
  3
PLOTSETDICT
350
149C
  3
PLOTSTYLNAMDICT
350
149D
  3
PSVPSCALE
350
14A3
  3
PUCSBASE
350
14A6
  3
PUCSORGBACK
350
14AC
  3
PUCSORGBOTTOM
350
14A8
  3
PUCSORGFRONT
350
14AB
  3
PUCSORGLEFT
350
14A9
  3
PUCSORGRIGHT
350
14AA
  3
PUCSORGTOP
350
14A7
  3
PUCSORTHOREF
350
14A4
  3
PUCSORTHOVIEW
350
14A5
  3
STYLESHEET
350
149A
  3
TSTACKALIGN
350
1497
  3
TSTACKSIZE
350
1498
  3
UCSBASE
350
14AF
  3
UCSORGBACK
350
14B5
  3
UCSORGBOTTOM
350
14B1
  3
UCSORGFRONT
350
14B4
  3
UCSORGLEFT
350
14B2
  3
UCSORGRIGHT
350
14B3
  3
UCSORGTOP
350
14B0
  3
UCSORTHOREF
350
14AD
  3
UCSORTHOVIEW
350
14AE
  3
VERSIONGUID
350
14A2
  0
DICTIONARY
  5
10BC
102
{ACAD_REACTORS
330
56C
102
}
330
56C
100
AcDbDictionary
  3
SORTENTS
350
10BD
  0
XRECORD
  5
14B7
102
{ACAD_REACTORS
330
AF0
102
}
330
AF0
100
AcDbXrecord
340
1F
  0
XRECORD
  5
14B6
102
{ACAD_REACTORS
330
AEE
102
}
330
AEE
100
AcDbXrecord
340
1B
  0
MLINESTYLE
  5
56F
102
{ACAD_REACTORS
330
56E
102
}
330
56E
100
AcDbMlineStyle
  2
STANDARD
 70
     0
  3

 62
   256
 51
90.0
 52
90.0
 71
     2
 49
0.5
 62
   256
  6
BYLAYER
 49
-0.5
 62
   256
  6
BYLAYER
  0
ACDBPLACEHOLDER
  5
573
102
{ACAD_REACTORS
330
572
102
}
330
572
100
AcDbPlaceHolder
280
     0
  0
XRECORD
  5
14A0
102
{ACAD_REACTORS
330
1496
102
}
330
1496
100
AcDbXrecord
 90
        0
  0
XRECORD
  5
14A1
102
{ACAD_REACTORS
330
1496
102
}
330
1496
100
AcDbXrecord
  1
{91885192-BF09-408E-931E-B83B272C8839}
  0
XRECORD
  5
1499
102
{ACAD_REACTORS
330
1496
102
}
330
1496
100
AcDbXrecord
  1

  0
XRECORD
  5
149F
102
{ACAD_REACTORS
330
1496
102
}
330
1496
100
AcDbXrecord
 90
        0
  0
XRECORD
  5
149B
102
{ACAD_REACTORS
330
1496
102
}
330
1496
100
AcDbXrecord
340
574
  0
XRECORD
  5
149E
102
{ACAD_REACTORS
330
1496
102
}
330
1496
100
AcDbXrecord
 90
    10781
  0
XRECORD
  5
149C
102
{ACAD_REACTORS
330
1496
102
}
330
1496
100
AcDbXrecord
340
575
  0
XRECORD
  5
149D
102
{ACAD_REACTORS
330
1496
102
}
330
1496
100
AcDbXrecord
340
572
  0
XRECORD
  5
14A3
102
{ACAD_REACTORS
330
1496
102
}
330
1496
100
AcDbXrecord
 40
0.0
  0
XRECORD
  5
14A6
102
{ACAD_REACTORS
330
1496
102
}
330
1496
100
AcDbXrecord
340
0
  0
XRECORD
  5
14AC
102
{ACAD_REACTORS
330
1496
102
}
330
1496
100
AcDbXrecord
 10
0.0
 20
0.0
 30
0.0
  0
XRECORD
  5
14A8
102
{ACAD_REACTORS
330
1496
102
}
330
1496
100
AcDbXrecord
 10
0.0
 20
0.0
 30
0.0
  0
XRECORD
  5
14AB
102
{ACAD_REACTORS
330
1496
102
}
330
1496
100
AcDbXrecord
 10
0.0
 20
0.0
 30
0.0
  0
XRECORD
  5
14A9
102
{ACAD_REACTORS
330
1496
102
}
330
1496
100
AcDbXrecord
 10
0.0
 20
0.0
 30
0.0
  0
XRECORD
  5
14AA
102
{ACAD_REACTORS
330
1496
102
}
330
1496
100
AcDbXrecord
 10
0.0
 20
0.0
 30
0.0
  0
XRECORD
  5
14A7
102
{ACAD_REACTORS
330
1496
102
}
330
1496
100
AcDbXrecord
 10
0.0
 20
0.0
 30
0.0
  0
XRECORD
  5
14A4
102
{ACAD_REACTORS
330
1496
102
}
330
1496
100
AcDbXrecord
340
0
  0
XRECORD
  5
14A5
102
{ACAD_REACTORS
330
1496
102
}
330
1496
100
AcDbXrecord
 70
     0
  0
XRECORD
  5
149A
102
{ACAD_REACTORS
330
1496
102
}
330
1496
100
AcDbXrecord
  1

  0
XRECORD
  5
1497
102
{ACAD_REACTORS
330
1496
102
}
330
1496
100
AcDbXrecord
 90
        1
  0
XRECORD
  5
1498
102
{ACAD_REACTORS
330
1496
102
}
330
1496
100
AcDbXrecord
 90
       70
  0
XRECORD
  5
14AF
102
{ACAD_REACTORS
330
1496
102
}
330
1496
100
AcDbXrecord
340
0
  0
XRECORD
  5
14B5
102
{ACAD_REACTORS
330
1496
102
}
330
1496
100
AcDbXrecord
 10
0.0
 20
0.0
 30
0.0
  0
XRECORD
  5
14B1
102
{ACAD_REACTORS
330
1496
102
}
330
1496
100
AcDbXrecord
 10
0.0
 20
0.0
 30
0.0
  0
XRECORD
  5
14B4
102
{ACAD_REACTORS
330
1496
102
}
330
1496
100
AcDbXrecord
 10
0.0
 20
0.0
 30
0.0
  0
XRECORD
  5
14B2
102
{ACAD_REACTORS
330
1496
102
}
330
1496
100
AcDbXrecord
 10
0.0
 20
0.0
 30
0.0
  0
XRECORD
  5
14B3
102
{ACAD_REACTORS
330
1496
102
}
330
1496
100
AcDbXrecord
 10
0.0
 20
0.0
 30
0.0
  0
XRECORD
  5
14B0
102
{ACAD_REACTORS
330
1496
102
}
330
1496
100
AcDbXrecord
 10
0.0
 20
0.0
 30
0.0
  0
XRECORD
  5
14AD
102
{ACAD_REACTORS
330
1496
102
}
330
1496
100
AcDbXrecord
340
0
  0
XRECORD
  5
14AE
102
{ACAD_REACTORS
330
1496
102
}
330
1496
100
AcDbXrecord
 70
     0
  0
XRECORD
  5
14A2
102
{ACAD_REACTORS
330
1496
102
}
330
1496
100
AcDbXrecord
  1
{87723CBD-7B1D-4874-A031-21CE53C31925}
  0
DICTIONARYVAR
  5
10BD
102
{ACAD_REACTORS
330
10BC
102
}
330
10BC
100
DictionaryVariables
280
     0
  1
96
  0
ENDSEC
  0
EOF
