  0
SECTION
  2
HEADER
  9
$ACADVER
  1
AC1014
  9
$ACADMAINTVER
 70
     9
  9
$DWGCODEPAGE
  3
ANSI_1252
  9
$INSBASE
 10
0.0
 20
0.0
 30
0.0
  9
$EXTMIN
 10
-24.28120013001626
 20
-35.31732058802595
 30
-0.0000000000000058
  9
$EXTMAX
 10
40.71676115187381
 20
27.82929960265551
 30
0.0000000000000104
  9
$LIMMIN
 10
0.0
 20
0.0
  9
$LIMMAX
 10
297.0
 20
210.0
  9
$ORTHOMODE
 70
     0
  9
$REGENMODE
 70
     1
  9
$FILLMODE
 70
     1
  9
$QTEXTMODE
 70
     0
  9
$MIRRTEXT
 70
     1
  9
$DRAGMODE
 70
     2
  9
$LTSCALE
 40
25.0
  9
$OSMODE
 70
   167
  9
$ATTMODE
 70
     1
  9
$TEXTSIZE
 40
0.2
  9
$TRACEWID
 40
0.05
  9
$TEXTSTYLE
  7
STANDARD
  9
$CLAYER
  8
0
  9
$CELTYPE
  6
BYLAYER
  9
$CECOLOR
 62
   256
  9
$CELTSCALE
 40
1.0
  9
$DELOBJ
 70
     1
  9
$DISPSILH
 70
     0
  9
$DIMSCALE
 40
1.0
  9
$DIMASZ
 40
3.5
  9
$DIMEXO
 40
0.625
  9
$DIMDLI
 40
3.75
  9
$DIMRND
 40
0.0
  9
$DIMDLE
 40
0.0
  9
$DIMEXE
 40
1.25
  9
$DIMTP
 40
0.0
  9
$DIMTM
 40
0.0
  9
$DIMTXT
 40
3.5
  9
$DIMCEN
 40
2.5
  9
$DIMTSZ
 40
0.0
  9
$DIMTOL
 70
     0
  9
$DIMLIM
 70
     0
  9
$DIMTIH
 70
     0
  9
$DIMTOH
 70
     0
  9
$DIMSE1
 70
     0
  9
$DIMSE2
 70
     0
  9
$DIMTAD
 70
     1
  9
$DIMZIN
 70
     8
  9
$DIMBLK
  1

  9
$DIMASO
 70
     1
  9
$DIMSHO
 70
     1
  9
$DIMPOST
  1

  9
$DIMAPOST
  1

  9
$DIMALT
 70
     0
  9
$DIMALTD
 70
     3
  9
$DIMALTF
 40
0.03937007874016
  9
$DIMLFAC
 40
1.0
  9
$DIMTOFL
 70
     1
  9
$DIMTVP
 40
0.0
  9
$DIMTIX
 70
     0
  9
$DIMSOXD
 70
     0
  9
$DIMSAH
 70
     0
  9
$DIMBLK1
  1

  9
$DIMBLK2
  1

  9
$DIMSTYLE
  2
ISO-25
  9
$DIMCLRD
 70
   256
  9
$DIMCLRE
 70
   256
  9
$DIMCLRT
 70
   256
  9
$DIMTFAC
 40
1.0
  9
$DIMGAP
 40
0.625
  9
$DIMJUST
 70
     0
  9
$DIMSD1
 70
     0
  9
$DIMSD2
 70
     0
  9
$DIMTOLJ
 70
     0
  9
$DIMTZIN
 70
     8
  9
$DIMALTZ
 70
     0
  9
$DIMALTTZ
 70
     0
  9
$DIMFIT
 70
     3
  9
$DIMUPT
 70
     0
  9
$DIMUNIT
 70
     2
  9
$DIMDEC
 70
     2
  9
$DIMTDEC
 70
     2
  9
$DIMALTU
 70
     2
  9
$DIMALTTD
 70
     3
  9
$DIMTXSTY
  7
STANDARD
  9
$DIMAUNIT
 70
     0
  9
$LUNITS
 70
     2
  9
$LUPREC
 70
     4
  9
$SKETCHINC
 40
0.1
  9
$FILLETRAD
 40
0.0
  9
$AUNITS
 70
     0
  9
$AUPREC
 70
     0
  9
$MENU
  1
.
  9
$ELEVATION
 40
0.0
  9
$PELEVATION
 40
0.0
  9
$THICKNESS
 40
0.0
  9
$LIMCHECK
 70
     0
  9
$BLIPMODE
 70
     0
  9
$CHAMFERA
 40
0.0
  9
$CHAMFERB
 40
0.0
  9
$CHAMFERC
 40
0.0
  9
$CHAMFERD
 40
0.0
  9
$SKPOLY
 70
     0
  9
$TDCREATE
 40
2454167.426010960
  9
$TDUPDATE
 40
2454187.550458009
  9
$TDINDWG
 40
0.2114757755
  9
$TDUSRTIMER
 40
0.2114757755
  9
$USRTIMER
 70
     1
  9
$ANGBASE
 50
0.0
  9
$ANGDIR
 70
     0
  9
$PDMODE
 70
     3
  9
$PDSIZE
 40
0.3125
  9
$PLINEWID
 40
0.0
  9
$COORDS
 70
     0
  9
$SPLFRAME
 70
     0
  9
$SPLINETYPE
 70
     6
  9
$SPLINESEGS
 70
     8
  9
$ATTDIA
 70
     0
  9
$ATTREQ
 70
     1
  9
$HANDLING
 70
-16383
  9
$HANDSEED
  5
195C
  9
$SURFTAB1
 70
     6
  9
$SURFTAB2
 70
     6
  9
$SURFTYPE
 70
     6
  9
$SURFU
 70
     6
  9
$SURFV
 70
     6
  9
$UCSNAME
  2

  9
$UCSORG
 10
0.0
 20
0.0
 30
0.0
  9
$UCSXDIR
 10
1.0
 20
0.0
 30
0.0
  9
$UCSYDIR
 10
0.0
 20
1.0
 30
0.0
  9
$PUCSNAME
  2

  9
$PUCSORG
 10
0.0
 20
0.0
 30
0.0
  9
$PUCSXDIR
 10
1.0
 20
0.0
 30
0.0
  9
$PUCSYDIR
 10
0.0
 20
1.0
 30
0.0
  9
$USERI1
 70
     0
  9
$USERI2
 70
     0
  9
$USERI3
 70
     0
  9
$USERI4
 70
     0
  9
$USERI5
 70
     0
  9
$USERR1
 40
0.0
  9
$USERR2
 40
0.0
  9
$USERR3
 40
0.0
  9
$USERR4
 40
0.0
  9
$USERR5
 40
0.0
  9
$WORLDVIEW
 70
     1
  9
$SHADEDGE
 70
     3
  9
$SHADEDIF
 70
    70
  9
$TILEMODE
 70
     1
  9
$MAXACTVP
 70
    64
  9
$PINSBASE
 10
0.0
 20
0.0
 30
0.0
  9
$PLIMCHECK
 70
     0
  9
$PEXTMIN
 10
1.000000000000000E+20
 20
1.000000000000000E+20
 30
1.000000000000000E+20
  9
$PEXTMAX
 10
-1.000000000000000E+20
 20
-1.000000000000000E+20
 30
-1.000000000000000E+20
  9
$PLIMMIN
 10
0.0
 20
0.0
  9
$PLIMMAX
 10
12.0
 20
9.0
  9
$UNITMODE
 70
     0
  9
$VISRETAIN
 70
     1
  9
$PLINEGEN
 70
     0
  9
$PSLTSCALE
 70
     1
  9
$TREEDEPTH
 70
  3020
  9
$PICKSTYLE
 70
     1
  9
$CMLSTYLE
  2
STANDARD
  9
$CMLJUST
 70
     0
  9
$CMLSCALE
 40
1.0
  9
$PROXYGRAPHICS
 70
     1
  9
$MEASUREMENT
 70
     1
  0
ENDSEC
  0
SECTION
  2
CLASSES
  0
CLASS
  1
ACDBDICTIONARYWDFLT
  2
AcDbDictionaryWithDefault
  3
AutoCAD 2000
 90
        0
280
     0
281
     0
  0
CLASS
  1
ACDBPLACEHOLDER
  2
AcDbPlaceHolder
  3
AutoCAD 2000
 90
        0
280
     0
281
     0
  0
CLASS
  1
LAYOUT
  2
AcDbLayout
  3
AutoCAD 2000
 90
        0
280
     0
281
     0
  0
CLASS
  1
LONG_TRANSACTION
  2
AcDbLongTransaction
  3
AutoCAD 2000
 90
        0
280
     0
281
     0
  0
CLASS
  1
LWPOLYLINE
  2
AcDbPolyline
  3
AutoCAD 2000
 90
        0
280
     0
281
     1
  0
CLASS
  1
HATCH
  2
AcDbHatch
  3
AutoCAD 2000
 90
        0
280
     0
281
     1
  0
CLASS
  1
XRECORD
  2
AcDbXrecord
  3
AutoCAD 2000
 90
        0
280
     0
281
     0
  0
CLASS
  1
LONG_TRANSACTION
  2
AcDbLongTransaction
  3
AutoCAD 2000
 90
        0
280
     0
281
     0
  0
CLASS
  1
LWPOLYLINE
  2
AcDbPolyline
  3
AutoCAD 2000
 90
        0
280
     0
281
     1
  0
CLASS
  1
HATCH
  2
AcDbHatch
  3
AutoCAD 2000
 90
        0
280
     0
281
     1
  0
CLASS
  1
XRECORD
  2
AcDbXrecord
  3
AutoCAD 2000
 90
        0
280
     0
281
     0
  0
CLASS
  1
DICTIONARYVAR
  2
AcDbDictionaryVar
  3
AutoCAD 2000
 90
        0
280
     0
281
     0
  0
CLASS
  1
LONG_TRANSACTION
  2
AcDbLongTransaction
  3
AutoCAD 2000
 90
        0
280
     0
281
     0
  0
CLASS
  1
LWPOLYLINE
  2
AcDbPolyline
  3
AutoCAD 2000
 90
        0
280
     0
281
     1
  0
CLASS
  1
HATCH
  2
AcDbHatch
  3
AutoCAD 2000
 90
        0
280
     0
281
     1
  0
CLASS
  1
XRECORD
  2
AcDbXrecord
  3
AutoCAD 2000
 90
        0
280
     0
281
     0
  0
CLASS
  1
LONG_TRANSACTION
  2
AcDbLongTransaction
  3
AutoCAD 2000
 90
        0
280
     0
281
     0
  0
CLASS
  1
LWPOLYLINE
  2
AcDbPolyline
  3
AutoCAD 2000
 90
        0
280
     0
281
     1
  0
CLASS
  1
HATCH
  2
AcDbHatch
  3
AutoCAD 2000
 90
        0
280
     0
281
     1
  0
CLASS
  1
XRECORD
  2
AcDbXrecord
  3
AutoCAD 2000
 90
        0
280
     0
281
     0
  0
CLASS
  1
LONG_TRANSACTION
  2
AcDbLongTransaction
  3
AutoCAD 2000
 90
        0
280
     0
281
     0
  0
CLASS
  1
LWPOLYLINE
  2
AcDbPolyline
  3
AutoCAD 2000
 90
        0
280
     0
281
     1
  0
CLASS
  1
HATCH
  2
AcDbHatch
  3
AutoCAD 2000
 90
        0
280
     0
281
     1
  0
CLASS
  1
XRECORD
  2
AcDbXrecord
  3
AutoCAD 2000
 90
        0
280
     0
281
     0
  0
CLASS
  1
LONG_TRANSACTION
  2
AcDbLongTransaction
  3
AutoCAD 2000
 90
        0
280
     0
281
     0
  0
CLASS
  1
LWPOLYLINE
  2
AcDbPolyline
  3
AutoCAD 2000
 90
        0
280
     0
281
     1
  0
CLASS
  1
HATCH
  2
AcDbHatch
  3
AutoCAD 2000
 90
        0
280
     0
281
     1
  0
CLASS
  1
XRECORD
  2
AcDbXrecord
  3
AutoCAD 2000
 90
        0
280
     0
281
     0
  0
ENDSEC
  0
SECTION
  2
TABLES
  0
TABLE
  2
VPORT
  5
8
330
0
100
AcDbSymbolTable
 70
     2
  0
VPORT
  5
192E
330
8
100
AcDbSymbolTableRecord
100
AcDbViewportTableRecord
  2
*ACTIVE
 70
     0
 10
0.0
 20
0.0
 11
1.0
 21
1.0
 12
8.217780510928774
 22
-3.74401049268522
 13
0.0
 23
0.0
 14
1.0
 24
1.0
 15
0.0
 25
0.0
 16
0.0
 26
0.0
 36
1.0
 17
0.0
 27
0.0
 37
0.0
 40
63.522120409853
 41
1.297619047619047
 42
50.0
 43
0.0
 44
0.0
 50
0.0
 51
0.0
 71
     0
 72
 20000
 73
     1
 74
     1
 75
     0
 76
     0
 77
     0
 78
     0
  0
ENDTAB
  0
TABLE
  2
LTYPE
  5
5
330
0
100
AcDbSymbolTable
 70
     2
  0
LTYPE
  5
14
330
5
100
AcDbSymbolTableRecord
100
AcDbLinetypeTableRecord
  2
BYBLOCK
 70
     0
  3

 72
    65
 73
     0
 40
0.0
  0
LTYPE
  5
15
330
5
100
AcDbSymbolTableRecord
100
AcDbLinetypeTableRecord
  2
BYLAYER
 70
     0
  3

 72
    65
 73
     0
 40
0.0
  0
LTYPE
  5
16
330
5
100
AcDbSymbolTableRecord
100
AcDbLinetypeTableRecord
  2
CONTINUOUS
 70
     0
  3
Solid line
 72
    65
 73
     0
 40
0.0
  0
LTYPE
  5
1F5
330
5
100
AcDbSymbolTableRecord
100
AcDbLinetypeTableRecord
  2
CENTER
 70
     0
  3
____ _ ____ _ ____ _ ____ _ ____ _ ____ _ ____
 72
    65
 73
     4
 40
0.6
 49
0.375
 74
     0
 49
-0.075
 74
     0
 49
0.075
 74
     0
 49
-0.075
 74
     0
  0
ENDTAB
  0
TABLE
  2
LAYER
  5
2
330
0
100
AcDbSymbolTable
 70
    11
  0
LAYER
  5
10
330
2
100
AcDbSymbolTableRecord
100
AcDbLayerTableRecord
  2
0
 70
     0
 62
     7
  6
CONTINUOUS
  0
LAYER
  5
5AD
330
2
100
AcDbSymbolTableRecord
100
AcDbLayerTableRecord
  2
1
 70
     0
 62
     4
  6
CONTINUOUS
  0
LAYER
  5
5AE
330
2
100
AcDbSymbolTableRecord
100
AcDbLayerTableRecord
  2
2
 70
     0
 62
     7
  6
CONTINUOUS
  0
LAYER
  5
5AF
330
2
100
AcDbSymbolTableRecord
100
AcDbLayerTableRecord
  2
DEFPOINTS
 70
     0
 62
     7
  6
CONTINUOUS
  0
LAYER
  5
5B0
330
2
100
AcDbSymbolTableRecord
100
AcDbLayerTableRecord
  2
4
 70
     0
 62
     2
  6
CENTER
  0
LAYER
  5
5B1
330
2
100
AcDbSymbolTableRecord
100
AcDbLayerTableRecord
  2
6
 70
     0
 62
     5
  6
CONTINUOUS
  0
LAYER
  5
5B2
330
2
100
AcDbSymbolTableRecord
100
AcDbLayerTableRecord
  2
CUT
 70
     0
 62
     1
  6
CONTINUOUS
  0
LAYER
  5
5B3
330
2
100
AcDbSymbolTableRecord
100
AcDbLayerTableRecord
  2
NOCUT
 70
     0
 62
     7
  6
CONTINUOUS
  0
LAYER
  5
5B4
330
2
100
AcDbSymbolTableRecord
100
AcDbLayerTableRecord
  2
SK1
 70
     0
 62
     4
  6
CONTINUOUS
  0
LAYER
  5
5B5
330
2
100
AcDbSymbolTableRecord
100
AcDbLayerTableRecord
  2
SK4
 70
     0
 62
     2
  6
CENTER
  0
LAYER
  5
18F8
330
2
100
AcDbSymbolTableRecord
100
AcDbLayerTableRecord
  2
SK2
 70
     0
 62
     7
  6
CONTINUOUS
  0
ENDTAB
  0
TABLE
  2
STYLE
  5
3
330
0
100
AcDbSymbolTable
 70
     1
  0
STYLE
  5
11
330
3
100
AcDbSymbolTableRecord
100
AcDbTextStyleTableRecord
  2
STANDARD
 70
     0
 40
0.0
 41
0.8
 50
0.0
 71
     0
 42
0.2
  3
isocp.shx
  4

  0
ENDTAB
  0
TABLE
  2
VIEW
  5
6
330
0
100
AcDbSymbolTable
 70
     0
  0
ENDTAB
  0
TABLE
  2
UCS
  5
7
330
0
100
AcDbSymbolTable
 70
     0
  0
ENDTAB
  0
TABLE
  2
APPID
  5
9
330
0
100
AcDbSymbolTable
 70
     1
  0
APPID
  5
20C
330
9
100
AcDbSymbolTableRecord
100
AcDbRegAppTableRecord
  2
ACAD
 70
     0
  0
ENDTAB
  0
TABLE
  2
DIMSTYLE
  5
A
330
0
100
AcDbSymbolTable
 70
     2
  0
DIMSTYLE
105
20D
330
A
100
AcDbSymbolTableRecord
100
AcDbDimStyleTableRecord
  2
STANDARD
 70
     0
  3

  4

  5

  6

  7

 40
1.0
 41
2.5
 42
0.0625
 43
0.38
 44
0.18
 45
0.0
 46
0.0
 47
0.005
 48
0.005
140
3.5
141
0.09
142
0.0
143
25.4
144
1.0
145
0.0
146
1.0
147
0.09
 71
     1
 72
     0
 73
     0
 74
     0
 75
     0
 76
     0
 77
     1
 78
     8
170
     0
171
     2
172
     0
173
     0
174
     0
175
     0
176
     0
177
     0
178
     5
270
     2
271
     3
272
     3
273
     2
274
     2
340
11
275
     0
280
     0
281
     0
282
     0
283
     1
284
     8
285
     0
286
     0
287
     3
288
     0
  0
DIMSTYLE
105
5B6
102
{ACAD_REACTORS
330
D2D
330
D2E
330
D2F
330
D30
330
D31
330
18FE
102
}
330
A
100
AcDbSymbolTableRecord
100
AcDbDimStyleTableRecord
  2
ISO-25
 70
     0
  3

  4

  5

  6

  7

 40
1.0
 41
3.5
 42
0.625
 43
3.75
 44
1.25
 45
0.0
 46
0.0
 47
0.0
 48
0.0
140
3.5
141
2.5
142
0.0
143
0.03937007874016
144
1.0
145
0.0
146
1.0
147
0.625
 71
     0
 72
     0
 73
     0
 74
     0
 75
     0
 76
     0
 77
     1
 78
     8
170
     0
171
     3
172
     1
173
     0
174
     0
175
     0
176
   256
177
   256
178
   256
270
     2
271
     2
272
     2
273
     2
274
     3
340
11
275
     0
280
     0
281
     0
282
     0
283
     0
284
     8
285
     0
286
     0
287
     3
288
     0
  0
ENDTAB
  0
TABLE
  2
BLOCK_RECORD
  5
1
330
0
100
AcDbSymbolTable
 70
     9
  0
BLOCK_RECORD
  5
1F
102
{ACAD_XDICTIONARY
360
AF0
102
}
330
1
100
AcDbSymbolTableRecord
100
AcDbBlockTableRecord
  2
*MODEL_SPACE
  0
BLOCK_RECORD
  5
1B
102
{ACAD_XDICTIONARY
360
AEE
102
}
330
1
100
AcDbSymbolTableRecord
100
AcDbBlockTableRecord
  2
*PAPER_SPACE
  0
BLOCK_RECORD
  5
EB0
330
1
100
AcDbSymbolTableRecord
100
AcDbBlockTableRecord
  2
*D0
  0
BLOCK_RECORD
  5
EBE
330
1
100
AcDbSymbolTableRecord
100
AcDbBlockTableRecord
  2
*D1
  0
BLOCK_RECORD
  5
ECC
330
1
100
AcDbSymbolTableRecord
100
AcDbBlockTableRecord
  2
*D2
  0
BLOCK_RECORD
  5
EDA
330
1
100
AcDbSymbolTableRecord
100
AcDbBlockTableRecord
  2
*D3
  0
BLOCK_RECORD
  5
EE8
330
1
100
AcDbSymbolTableRecord
100
AcDbBlockTableRecord
  2
*D4
  0
BLOCK_RECORD
  5
18E6
330
1
100
AcDbSymbolTableRecord
100
AcDbBlockTableRecord
  2
_ARROW_FILLED
  0
BLOCK_RECORD
  5
18EA
330
1
100
AcDbSymbolTableRecord
100
AcDbBlockTableRecord
  2
*D6
  0
BLOCK_RECORD
  5
18FF
330
1
100
AcDbSymbolTableRecord
100
AcDbBlockTableRecord
  2
*D8
  0
ENDTAB
  0
ENDSEC
  0
SECTION
  2
BLOCKS
  0
BLOCK
  5
20
330
1F
100
AcDbEntity
  8
0
100
AcDbBlockBegin
  2
*MODEL_SPACE
 70
     0
 10
0.0
 20
0.0
 30
0.0
  3
*MODEL_SPACE
  1

  0
ENDBLK
  5
21
330
1F
100
AcDbEntity
  8
0
100
AcDbBlockEnd
  0
BLOCK
  5
1C
330
1B
100
AcDbEntity
 67
     1
  8
0
100
AcDbBlockBegin
  2
*PAPER_SPACE
 70
     0
 10
0.0
 20
0.0
 30
0.0
  3
*PAPER_SPACE
  1

  0
ENDBLK
  5
1D
330
1B
100
AcDbEntity
 67
     1
  8
0
100
AcDbBlockEnd
  0
BLOCK
  5
EBC
330
EB0
100
AcDbEntity
  8
0
100
AcDbBlockBegin
  2
*D0
 70
     1
 10
0.0
 20
0.0
 30
0.0
  3
*D0
  1

  0
LINE
  5
17B7
330
EB0
100
AcDbEntity
  8
2
100
AcDbLine
 10
6.825
 20
-4.150001500679922
 30
0.0
 11
20.19996988354451
 21
-4.150001500679926
 31
0.0
  0
LINE
  5
17B8
330
EB0
100
AcDbEntity
  8
2
100
AcDbLine
 10
6.825
 20
4.15
 30
0.0
 11
20.19996988354451
 21
4.149999999999995
 31
0.0
  0
LINE
  5
17B9
330
EB0
100
AcDbEntity
  8
2
100
AcDbLine
 10
18.94996988354451
 20
-7.650001500679928
 30
0.0
 11
18.9499698835445
 21
-11.15000150067992
 31
0.0
  0
LINE
  5
17BA
330
EB0
100
AcDbEntity
  8
2
100
AcDbLine
 10
18.94996988354451
 20
7.649999999999996
 30
0.0
 11
18.94996988354451
 21
11.14999999999999
 31
0.0
  0
LINE
  5
17BB
330
EB0
100
AcDbEntity
  8
2
100
AcDbLine
 10
18.94996988354451
 20
-4.150001500679926
 30
0.0
 11
18.94996988354451
 21
4.149999999999995
 31
0.0
  0
SOLID
  5
17BC
330
EB0
100
AcDbEntity
  8
2
100
AcDbTrace
 10
18.36663655021117
 20
-7.650001500679928
 30
0.0
 11
19.53330321687784
 21
-7.650001500679928
 31
0.0
 12
18.94996988354451
 22
-4.150001500679926
 32
0.0
 13
18.94996988354451
 23
-4.150001500679926
 33
0.0
  0
SOLID
  5
17BD
330
EB0
100
AcDbEntity
  8
2
100
AcDbTrace
 10
18.36663655021117
 20
7.649999999999996
 30
0.0
 11
19.53330321687784
 21
7.649999999999996
 31
0.0
 12
18.94996988354451
 22
4.149999999999995
 32
0.0
 13
18.94996988354451
 23
4.149999999999995
 33
0.0
  0
MTEXT
  5
17BE
330
EB0
100
AcDbEntity
  8
2
100
AcDbMText
 10
16.5749698835445
 20
-0.0750007503399619
 30
0.0
 40
3.5
 41
0.0
 71
     5
 72
     1
  1
8.3
 11
0.0000000000000001
 21
1.0
 31
0.0
1001
ACAD
1000
MTEXTBEGIN
1070
    73
1070
     1
1070
    44
1040
1.0
1070
    74
1070
     0
1000
MTEXTEND
1000
MTEXTBEGIN
1070
    73
1070
     1
1070
    44
1040
1.0
1070
    74
1070
     0
1000
MTEXTEND
  0
POINT
  5
17BF
330
EB0
100
AcDbEntity
  8
DEFPOINTS
 62
     0
100
AcDbPoint
 10
6.2
 20
-4.150001500679922
 30
0.0
  0
POINT
  5
17C0
330
EB0
100
AcDbEntity
  8
DEFPOINTS
 62
     0
100
AcDbPoint
 10
6.2
 20
4.15
 30
0.0
  0
POINT
  5
17C1
330
EB0
100
AcDbEntity
  8
DEFPOINTS
 62
     0
100
AcDbPoint
 10
18.94996988354451
 20
4.149999999999995
 30
0.0
  0
ENDBLK
  5
EBD
330
EB0
100
AcDbEntity
  8
0
100
AcDbBlockEnd
  0
BLOCK
  5
ECA
330
EBE
100
AcDbEntity
  8
0
100
AcDbBlockBegin
  2
*D1
 70
     1
 10
0.0
 20
0.0
 30
0.0
  3
*D1
  1

  0
LINE
  5
1951
330
EBE
100
AcDbEntity
  8
2
100
AcDbLine
 10
8.431974682523733
 20
1.918025317486634
 30
0.0
 11
-12.22417519987769
 21
22.57417520037274
 31
0.0
  0
LINE
  5
1952
330
EBE
100
AcDbEntity
  8
2
100
AcDbLine
 10
7.912669008058546
 20
-2.437332492621374
 30
0.0
 11
-12.22417520014251
 21
-22.57417670082247
 31
0.0
  0
ARC
  5
1953
330
EBE
100
AcDbEntity
  8
2
100
AcDbCircle
 10
10.35000075032264
 20
-0.0000007503572786
 30
0.0
 40
30.6747057885444
100
AcDbArc
 50
141.5410299518168
 51
218.458970047511
  0
SOLID
  5
1954
330
EBE
100
AcDbEntity
  8
2
100
AcDbTrace
 10
-14.10528164124403
 20
19.46653172513256
 30
0.0
 11
-13.23460326771328
 21
18.6899814814413
 31
0.0
 12
-11.34029172340487
 22
21.69029172387918
 32
0.0
 13
-11.34029172340487
 23
21.69029172387918
 33
0.0
  0
SOLID
  5
1955
330
EBE
100
AcDbEntity
  8
2
100
AcDbTrace
 10
-13.23460326793254
 20
-18.68998298187918
 30
0.0
 11
-14.1052816414724
 21
-19.46653322556023
 31
0.0
 12
-11.34029172365933
 22
-21.69029322433929
 32
0.0
 13
-11.34029172365933
 23
-21.69029322433929
 33
0.0
  0
MTEXT
  5
1956
330
EBE
100
AcDbEntity
  8
2
100
AcDbMText
 10
-22.69970503822176
 20
-0.0000007502323508
 30
0.0
 40
3.5
 41
0.0
 71
     5
 72
     1
  1
90°
 11
0.0000000000000001
 21
1.0
 31
0.0
  0
POINT
  5
1957
330
EBE
100
AcDbEntity
  8
DEFPOINTS
 62
     0
100
AcDbPoint
 10
-19.27948978458909
 20
7.939197310866284
 30
0.0
  0
POINT
  5
1958
330
EBE
100
AcDbEntity
  8
DEFPOINTS
 62
     0
100
AcDbPoint
 10
8.354610746300139
 20
-1.995390754379782
 30
0.0
  0
POINT
  5
1959
330
EBE
100
AcDbEntity
  8
DEFPOINTS
 62
     0
100
AcDbPoint
 10
8.87391642076014
 20
1.476083579239857
 30
0.0
  0
POINT
  5
195A
330
EBE
100
AcDbEntity
  8
DEFPOINTS
 62
     0
100
AcDbPoint
 10
9.842857044949088
 20
0.5071429550281735
 30
0.0
  0
POINT
  5
195B
330
EBE
100
AcDbEntity
  8
DEFPOINTS
 62
     0
100
AcDbPoint
 10
9.842857044936646
 20
-0.5071444557432732
 30
0.0
  0
ENDBLK
  5
ECB
330
EBE
100
AcDbEntity
  8
0
100
AcDbBlockEnd
  0
BLOCK
  5
ED8
330
ECC
100
AcDbEntity
  8
0
100
AcDbBlockBegin
  2
*D2
 70
     1
 10
0.0
 20
0.0
 30
0.0
  3
*D2
  1

  0
LINE
  5
1796
330
ECC
100
AcDbEntity
  8
2
100
AcDbLine
 10
9.999999999999165
 20
-0.6250015006800083
 30
0.0
 11
9.999999999999165
 21
-19.35954434560646
 31
0.0
  0
LINE
  5
1797
330
ECC
100
AcDbEntity
  8
2
100
AcDbLine
 10
-0.0000029089598684
 20
-4.382087999999913
 30
0.0
 11
-0.0000029089598693
 21
-19.35954434560646
 31
0.0
  0
LINE
  5
1798
330
ECC
100
AcDbEntity
  8
2
100
AcDbLine
 10
13.49999999999916
 20
-18.10954434560646
 30
0.0
 11
16.99999999999916
 21
-18.10954434560646
 31
0.0
  0
LINE
  5
1799
330
ECC
100
AcDbEntity
  8
2
100
AcDbLine
 10
-3.500002908959868
 20
-18.10954434560646
 30
0.0
 11
-7.000002908959869
 21
-18.10954434560646
 31
0.0
  0
LINE
  5
179A
330
ECC
100
AcDbEntity
  8
2
100
AcDbLine
 10
9.999999999999165
 20
-18.10954434560646
 30
0.0
 11
-0.0000029089598692
 21
-18.10954434560646
 31
0.0
  0
SOLID
  5
179B
330
ECC
100
AcDbEntity
  8
2
100
AcDbTrace
 10
13.49999999999916
 20
-17.52621101227314
 30
0.0
 11
13.49999999999916
 21
-18.6928776789398
 31
0.0
 12
9.999999999999165
 22
-18.10954434560646
 32
0.0
 13
9.999999999999165
 23
-18.10954434560646
 33
0.0
  0
SOLID
  5
179C
330
ECC
100
AcDbEntity
  8
2
100
AcDbTrace
 10
-3.500002908959868
 20
-17.52621101227314
 30
0.0
 11
-3.500002908959868
 21
-18.6928776789398
 31
0.0
 12
-0.0000029089598692
 22
-18.10954434560646
 32
0.0
 13
-0.0000029089598692
 23
-18.10954434560646
 33
0.0
  0
MTEXT
  5
179D
330
ECC
100
AcDbEntity
  8
2
100
AcDbMText
 10
4.699998545519648
 20
-15.73454434560646
 30
0.0
 40
3.5
 41
0.0
 71
     5
 72
     1
  1
10
1001
ACAD
1000
MTEXTBEGIN
1070
    73
1070
     1
1070
    44
1040
1.0
1070
    74
1070
     0
1000
MTEXTEND
1000
MTEXTBEGIN
1070
    73
1070
     1
1070
    44
1040
1.0
1070
    74
1070
     0
1000
MTEXTEND
  0
POINT
  5
179E
330
ECC
100
AcDbEntity
  8
DEFPOINTS
 62
     0
100
AcDbPoint
 10
9.999999999999165
 20
-0.0000015006800083
 30
0.0
  0
POINT
  5
179F
330
ECC
100
AcDbEntity
  8
DEFPOINTS
 62
     0
100
AcDbPoint
 10
-0.0000029089598684
 20
-3.757087999999912
 30
0.0
  0
POINT
  5
17A0
330
ECC
100
AcDbEntity
  8
DEFPOINTS
 62
     0
100
AcDbPoint
 10
-0.0000029089598692
 20
-18.10954434560646
 30
0.0
  0
ENDBLK
  5
ED9
330
ECC
100
AcDbEntity
  8
0
100
AcDbBlockEnd
  0
BLOCK
  5
EE6
330
EDA
100
AcDbEntity
  8
0
100
AcDbBlockBegin
  2
*D3
 70
     1
 10
0.0
 20
0.0
 30
0.0
  3
*D3
  1

  0
LINE
  5
17C2
330
EDA
100
AcDbEntity
  8
2
100
AcDbLine
 10
6.2
 20
4.775
 30
0.0
 11
6.200000000000001
 21
17.64782433009505
 31
0.0
  0
LINE
  5
17C3
330
EDA
100
AcDbEntity
  8
2
100
AcDbLine
 10
9.999999999999127
 20
0.6249984993199919
 30
0.0
 11
9.999999999999127
 21
17.64782433009505
 31
0.0
  0
LINE
  5
17C4
330
EDA
100
AcDbEntity
  8
2
100
AcDbLine
 10
2.700000000000001
 20
16.39782433009505
 30
0.0
 11
-0.799999999999999
 21
16.39782433009505
 31
0.0
  0
LINE
  5
17C5
330
EDA
100
AcDbEntity
  8
2
100
AcDbLine
 10
13.49999999999912
 20
16.39782433009505
 30
0.0
 11
25.64897473985646
 21
16.39782433009505
 31
0.0
  0
LINE
  5
17C6
330
EDA
100
AcDbEntity
  8
2
100
AcDbLine
 10
6.200000000000001
 20
16.39782433009505
 30
0.0
 11
9.999999999999127
 21
16.39782433009505
 31
0.0
  0
SOLID
  5
17C7
330
EDA
100
AcDbEntity
  8
2
100
AcDbTrace
 10
2.700000000000001
 20
16.98115766342839
 30
0.0
 11
2.700000000000001
 21
15.81449099676173
 31
0.0
 12
6.200000000000001
 22
16.39782433009505
 32
0.0
 13
6.200000000000001
 23
16.39782433009505
 33
0.0
  0
SOLID
  5
17C8
330
EDA
100
AcDbEntity
  8
2
100
AcDbTrace
 10
13.49999999999912
 20
16.98115766342839
 30
0.0
 11
13.49999999999912
 21
15.81449099676173
 31
0.0
 12
9.999999999999127
 22
16.39782433009505
 32
0.0
 13
9.999999999999127
 23
16.39782433009505
 33
0.0
  0
MTEXT
  5
17C9
330
EDA
100
AcDbEntity
  8
2
100
AcDbMText
 10
23.06397473985646
 20
18.77282433009505
 30
0.0
 40
3.5
 41
0.0
 71
     5
 72
     1
  1
3.8
1001
ACAD
1000
MTEXTBEGIN
1070
    73
1070
     1
1070
    44
1040
1.0
1070
    74
1070
     0
1000
MTEXTEND
1000
MTEXTBEGIN
1070
    73
1070
     1
1070
    44
1040
1.0
1070
    74
1070
     0
1000
MTEXTEND
  0
POINT
  5
17CA
330
EDA
100
AcDbEntity
  8
DEFPOINTS
 62
     0
100
AcDbPoint
 10
6.2
 20
4.15
 30
0.0
  0
POINT
  5
17CB
330
EDA
100
AcDbEntity
  8
DEFPOINTS
 62
     0
100
AcDbPoint
 10
9.999999999999127
 20
-0.0000015006800083
 30
0.0
  0
POINT
  5
17CC
330
EDA
100
AcDbEntity
  8
DEFPOINTS
 62
     0
100
AcDbPoint
 10
9.999999999999127
 20
16.39782433009505
 30
0.0
  0
ENDBLK
  5
EE7
330
EDA
100
AcDbEntity
  8
0
100
AcDbBlockEnd
  0
BLOCK
  5
EF4
330
EE8
100
AcDbEntity
  8
0
100
AcDbBlockBegin
  2
*D4
 70
     1
 10
0.0
 20
0.0
 30
0.0
  3
*D4
  1

  0
LINE
  5
17E5
330
EE8
100
AcDbEntity
  8
2
100
AcDbLine
 10
2.49995292047372
 20
4.830349575535457
 30
0.0
 11
2.499952920473721
 21
25.11669271438153
 31
0.0
  0
LINE
  5
17E6
330
EE8
100
AcDbEntity
  8
2
100
AcDbLine
 10
9.999999999999127
 20
0.6249984993199919
 30
0.0
 11
9.999999999999127
 21
25.11669271438153
 31
0.0
  0
LINE
  5
17E7
330
EE8
100
AcDbEntity
  8
2
100
AcDbLine
 10
-1.000047079526277
 20
23.86669271438153
 30
0.0
 11
-4.500047079526277
 21
23.86669271438153
 31
0.0
  0
LINE
  5
17E8
330
EE8
100
AcDbEntity
  8
2
100
AcDbLine
 10
13.49999999999912
 20
23.86669271438153
 30
0.0
 11
16.99999999999912
 21
23.86669271438153
 31
0.0
  0
LINE
  5
17E9
330
EE8
100
AcDbEntity
  8
2
100
AcDbLine
 10
2.499952920473721
 20
23.86669271438153
 30
0.0
 11
9.999999999999127
 21
23.86669271438153
 31
0.0
  0
SOLID
  5
17EA
330
EE8
100
AcDbEntity
  8
2
100
AcDbTrace
 10
-1.000047079526277
 20
24.45002604771487
 30
0.0
 11
-1.000047079526277
 21
23.28335938104819
 31
0.0
 12
2.499952920473721
 22
23.86669271438153
 32
0.0
 13
2.499952920473721
 23
23.86669271438153
 33
0.0
  0
SOLID
  5
17EB
330
EE8
100
AcDbEntity
  8
2
100
AcDbTrace
 10
13.49999999999912
 20
24.45002604771487
 30
0.0
 11
13.49999999999912
 21
23.28335938104819
 31
0.0
 12
9.999999999999127
 22
23.86669271438153
 32
0.0
 13
9.999999999999127
 23
23.86669271438153
 33
0.0
  0
MTEXT
  5
17EC
330
EE8
100
AcDbEntity
  8
2
100
AcDbMText
 10
6.249976460236425
 20
26.24169271438153
 30
0.0
 40
3.5
 41
0.0
 71
     5
 72
     1
  1
7.5
1001
ACAD
1000
MTEXTBEGIN
1070
    73
1070
     1
1070
    44
1040
1.0
1070
    74
1070
     0
1000
MTEXTEND
1000
MTEXTBEGIN
1070
    73
1070
     1
1070
    44
1040
1.0
1070
    74
1070
     0
1000
MTEXTEND
  0
POINT
  5
17ED
330
EE8
100
AcDbEntity
  8
DEFPOINTS
 62
     0
100
AcDbPoint
 10
2.49995292047372
 20
4.205349575535457
 30
0.0
  0
POINT
  5
17EE
330
EE8
100
AcDbEntity
  8
DEFPOINTS
 62
     0
100
AcDbPoint
 10
9.999999999999127
 20
-0.0000015006800083
 30
0.0
  0
POINT
  5
17EF
330
EE8
100
AcDbEntity
  8
DEFPOINTS
 62
     0
100
AcDbPoint
 10
9.999999999999127
 20
23.86669271438153
 30
0.0
  0
ENDBLK
  5
EF5
330
EE8
100
AcDbEntity
  8
0
100
AcDbBlockEnd
  0
BLOCK
  5
18E8
330
18E6
100
AcDbEntity
  8
0
100
AcDbBlockBegin
  2
_ARROW_FILLED
 70
     0
 10
0.0
 20
0.0
 30
0.0
  3
_ARROW_FILLED
  1

  0
SOLID
  5
18E7
330
18E6
100
AcDbEntity
  8
0
  6
BYBLOCK
 62
     0
100
AcDbTrace
 10
0.0
 20
0.0
 30
0.0
 11
-1.0
 21
0.132
 31
0.0
 12
-1.0
 22
-0.132
 32
0.0
 13
-1.0
 23
-0.132
 33
0.0
  0
ENDBLK
  5
18E9
330
18E6
100
AcDbEntity
  8
0
  6
BYBLOCK
 62
     0
100
AcDbBlockEnd
  0
BLOCK
  5
18F6
330
18EA
100
AcDbEntity
  8
0
100
AcDbBlockBegin
  2
*D6
 70
     1
 10
0.0
 20
0.0
 30
0.0
  3
*D6
  1

  0
LINE
  5
18EB
330
18EA
100
AcDbEntity
  8
SK2
100
AcDbLine
 10
-6.601886324057418
 20
2.650000887499999
 30
0.0
 11
-14.3152289181549
 21
2.650000887500001
 31
0.0
  0
LINE
  5
18EC
330
18EA
100
AcDbEntity
  8
SK2
100
AcDbLine
 10
-7.218414779224081
 20
-2.650000481916658
 30
0.0
 11
-14.3152289181549
 21
-2.650000481916657
 31
0.0
  0
LINE
  5
18ED
330
18EA
100
AcDbEntity
  8
SK2
100
AcDbLine
 10
-13.0652289181549
 20
6.1500008875
 30
0.0
 11
-13.0652289181549
 21
9.650000887500002
 31
0.0
  0
LINE
  5
18EE
330
18EA
100
AcDbEntity
  8
SK2
100
AcDbLine
 10
-13.0652289181549
 20
-6.150000481916657
 30
0.0
 11
-13.0652289181549
 21
-9.650000481916656
 31
0.0
  0
LINE
  5
18EF
330
18EA
100
AcDbEntity
  8
SK2
100
AcDbLine
 10
-13.0652289181549
 20
2.650000887500001
 30
0.0
 11
-13.0652289181549
 21
-2.650000481916657
 31
0.0
  0
SOLID
  5
18F0
330
18EA
100
AcDbEntity
  8
SK2
100
AcDbTrace
 10
-13.64856225148823
 20
6.1500008875
 30
0.0
 11
-12.48189558482156
 21
6.1500008875
 31
0.0
 12
-13.0652289181549
 22
2.650000887500001
 32
0.0
 13
-13.0652289181549
 23
2.650000887500001
 33
0.0
  0
SOLID
  5
18F1
330
18EA
100
AcDbEntity
  8
SK2
100
AcDbTrace
 10
-13.64856225148823
 20
-6.150000481916657
 30
0.0
 11
-12.48189558482156
 21
-6.150000481916657
 31
0.0
 12
-13.0652289181549
 22
-2.650000481916657
 32
0.0
 13
-13.0652289181549
 23
-2.650000481916657
 33
0.0
  0
MTEXT
  5
18F2
330
18EA
100
AcDbEntity
  8
SK2
100
AcDbMText
 10
-15.4402289181549
 20
0.0000002027916701
 30
0.0
 40
3.5
 41
0.0
 71
     5
 72
     1
  1
Ts5
 11
0.0000000000000001
 21
1.0
 31
0.0
1001
ACAD
1000
MTEXTBEGIN
1070
    73
1070
     1
1070
    44
1040
1.0
1070
    74
1070
     0
1000
MTEXTEND
  0
POINT
  5
18F3
330
18EA
100
AcDbEntity
  8
DEFPOINTS
 62
     0
100
AcDbPoint
 10
-5.976886324057418
 20
2.650000887499999
 30
0.0
  0
POINT
  5
18F4
330
18EA
100
AcDbEntity
  8
DEFPOINTS
 62
     0
100
AcDbPoint
 10
-6.593414779224081
 20
-2.650000481916659
 30
0.0
  0
POINT
  5
18F5
330
18EA
100
AcDbEntity
  8
DEFPOINTS
 62
     0
100
AcDbPoint
 10
-13.0652289181549
 20
-2.650000481916657
 30
0.0
  0
ENDBLK
  5
18F7
330
18EA
100
AcDbEntity
  8
0
100
AcDbBlockEnd
  0
BLOCK
  5
190B
330
18FF
100
AcDbEntity
  8
0
100
AcDbBlockBegin
  2
*D8
 70
     1
 10
0.0
 20
0.0
 30
0.0
  3
*D8
  1

  0
LINE
  5
1923
330
18FF
100
AcDbEntity
  8
SK2
100
AcDbLine
 10
-6.601886324057191
 20
2.650000887500016
 30
0.0
 11
-12.48310037650091
 21
2.650000887500017
 31
0.0
  0
LINE
  5
1924
330
18FF
100
AcDbEntity
  8
SK2
100
AcDbLine
 10
-7.218414779223855
 20
-2.650000481916641
 30
0.0
 11
-12.48310037650091
 21
-2.65000048191664
 31
0.0
  0
LINE
  5
1925
330
18FF
100
AcDbEntity
  8
SK2
100
AcDbLine
 10
-11.23310037650091
 20
6.150000887500017
 30
0.0
 11
-11.23310037650091
 21
9.650000887500016
 31
0.0
  0
LINE
  5
1926
330
18FF
100
AcDbEntity
  8
SK2
100
AcDbLine
 10
-11.23310037650091
 20
-6.15000048191664
 30
0.0
 11
-11.23310037650091
 21
-9.65000048191664
 31
0.0
  0
LINE
  5
1927
330
18FF
100
AcDbEntity
  8
SK2
100
AcDbLine
 10
-11.23310037650091
 20
2.650000887500017
 30
0.0
 11
-11.23310037650091
 21
-2.65000048191664
 31
0.0
  0
SOLID
  5
1928
330
18FF
100
AcDbEntity
  8
SK2
100
AcDbTrace
 10
-11.81643370983424
 20
6.150000887500017
 30
0.0
 11
-10.64976704316757
 21
6.150000887500017
 31
0.0
 12
-11.23310037650091
 22
2.650000887500017
 32
0.0
 13
-11.23310037650091
 23
2.650000887500017
 33
0.0
  0
SOLID
  5
1929
330
18FF
100
AcDbEntity
  8
SK2
100
AcDbTrace
 10
-11.81643370983425
 20
-6.15000048191664
 30
0.0
 11
-10.64976704316758
 21
-6.15000048191664
 31
0.0
 12
-11.23310037650091
 22
-2.65000048191664
 32
0.0
 13
-11.23310037650091
 23
-2.65000048191664
 33
0.0
  0
MTEXT
  5
192A
330
18FF
100
AcDbEntity
  8
SK2
100
AcDbMText
 10
-13.60810037650091
 20
0.0000002027916871
 30
0.0
 40
3.5
 41
0.0
 71
     5
 72
     1
  1
Ts5
 11
0.0000000000000001
 21
1.0
 31
0.0
1001
ACAD
1000
MTEXTBEGIN
1070
    73
1070
     1
1070
    44
1040
1.0
1070
    74
1070
     0
1000
MTEXTEND
  0
POINT
  5
192B
330
18FF
100
AcDbEntity
  8
DEFPOINTS
 62
     0
100
AcDbPoint
 10
-5.976886324057191
 20
2.650000887500016
 30
0.0
  0
POINT
  5
192C
330
18FF
100
AcDbEntity
  8
DEFPOINTS
 62
     0
100
AcDbPoint
 10
-6.593414779223855
 20
-2.650000481916642
 30
0.0
  0
POINT
  5
192D
330
18FF
100
AcDbEntity
  8
DEFPOINTS
 62
     0
100
AcDbPoint
 10
-11.23310037650091
 20
-2.65000048191664
 30
0.0
  0
ENDBLK
  5
190C
330
18FF
100
AcDbEntity
  8
0
100
AcDbBlockEnd
  0
ENDSEC
  0
SECTION
  2
ENTITIES
  0
TEXT
  5
D2C
330
1F
100
AcDbEntity
  8
6
100
AcDbText
 10
-22.85109652912058
 20
-35.34352930287381
 30
0.0
 40
5.0
  1
45N08307TQRA45
 41
1.199999999999999
 72
     1
 11
9.373167539591321
 21
-35.34352930287381
 31
0.0
100
AcDbText
  0
DIMENSION
  5
D2D
330
1F
100
AcDbEntity
  8
2
100
AcDbDimension
  2
*D0
 10
18.94996988354451
 20
4.149999999999995
 30
0.0
 11
18.94996988354451
 21
-0.0750007503399622
 31
0.0
 70
   160
  3
ISO-25
100
AcDbAlignedDimension
 13
6.2
 23
-4.150001500679922
 33
0.0
 14
6.2
 24
4.15
 34
0.0
 50
90.0
100
AcDbRotatedDimension
  0
DIMENSION
  5
D2E
330
1F
100
AcDbEntity
  8
2
100
AcDbDimension
  2
*D1
 10
9.842857044936646
 20
-0.5071444557432732
 30
0.0
 11
-20.32470503822176
 21
-0.0000007502323478
 31
0.0
 70
   162
  3
ISO-25
100
AcDb2LineAngularDimension
 13
8.87391642076014
 23
1.476083579239857
 33
0.0
 14
9.842857044949088
 24
0.5071429550281735
 34
0.0
 15
8.354610746300139
 25
-1.995390754379782
 35
0.0
 16
-19.27948978458909
 26
7.939197310866284
 36
0.0
1001
ACAD
1000
DSTYLE
1002
{
1070
   271
1070
     0
1070
   271
1070
     0
1070
   271
1070
     0
1070
   271
1070
     0
1070
   271
1070
     0
1070
   271
1070
     0
1002
}
  0
DIMENSION
  5
D2F
330
1F
100
AcDbEntity
  8
2
100
AcDbDimension
  2
*D2
 10
-0.0000029089598692
 20
-18.10954434560646
 30
0.0
 11
4.699998545519648
 21
-18.10954434560646
 31
0.0
 70
   160
  3
ISO-25
100
AcDbAlignedDimension
 13
9.999999999999165
 23
-0.0000015006800083
 33
0.0
 14
-0.0000029089598684
 24
-3.757087999999912
 34
0.0
 50
180.0
100
AcDbRotatedDimension
1001
ACAD
1000
DSTYLE
1002
{
1070
   271
1070
     2
1002
}
  0
DIMENSION
  5
D30
330
1F
100
AcDbEntity
  8
2
100
AcDbDimension
  2
*D3
 10
9.999999999999127
 20
16.39782433009505
 30
0.0
 11
23.06397473985646
 21
16.39782433009505
 31
0.0
 70
   160
  3
ISO-25
100
AcDbAlignedDimension
 13
6.2
 23
4.15
 33
0.0
 14
9.999999999999127
 24
-0.0000015006800083
 34
0.0
 50
180.0
100
AcDbRotatedDimension
1001
ACAD
1000
DSTYLE
1002
{
1070
   271
1070
     1
1002
}
  0
DIMENSION
  5
D31
330
1F
100
AcDbEntity
  8
2
100
AcDbDimension
  2
*D4
 10
9.999999999999127
 20
23.86669271438153
 30
0.0
 11
6.249976460236425
 21
23.86669271438153
 31
0.0
 70
   160
  3
ISO-25
100
AcDbAlignedDimension
 13
2.49995292047372
 23
4.205349575535457
 33
0.0
 14
9.999999999999127
 24
-0.0000015006800083
 34
0.0
 50
180.0
100
AcDbRotatedDimension
  0
LWPOLYLINE
  5
D36
330
1F
100
AcDbEntity
  8
1
100
AcDbPolyline
 90
        6
 70
     0
 43
0.0
 10
2.020300680234881
 20
4.212524767453622
 10
2.073424225960208
 20
4.025112031239977
 10
2.09887138628028
 20
3.94911085459999
 10
2.127767754200206
 20
3.874507175560079
 10
2.160086552280293
 20
3.801209163640082
 10
2.195842492520298
 20
3.729200711720071
  0
ARC
  5
D38
330
1F
100
AcDbEntity
  8
1
100
AcDbCircle
 10
1.308366141082299
 20
4.218086470440225
 30
0.0
 40
0.4638971772456289
100
AcDbArc
 50
299.3449749800142
 51
331.0629431557443
  0
LINE
  5
D3C
330
1F
100
AcDbEntity
  8
4
100
AcDbLine
 10
10.42553078906051
 20
-0.0000015006800083
 30
0.0
 11
0.0000000000002274
 21
0.0000000000000853
 31
0.0
  0
LWPOLYLINE
  5
D41
330
1F
100
AcDbEntity
  8
1
100
AcDbPolyline
 90
        7
 70
     0
 43
0.0
 10
1.972226076280277
 20
2.06386140300006
 10
2.026402084520284
 20
2.054386128600076
 10
2.078187180040188
 20
2.048794434200071
 10
2.127168296680272
 20
2.046797043320071
 10
2.174113917720208
 20
2.047464938360056
 10
2.219854148200284
 20
2.050040257799995
 10
2.264034941080264
 20
2.054444210680051
  0
LWPOLYLINE
  5
D42
330
1F
100
AcDbEntity
  8
1
100
AcDbPolyline
 90
        4
 70
     0
 43
0.0
 10
2.090465741679873
 20
-1.324656314334007
 10
2.047388905400204
 20
-1.241988462359942
 10
1.997536697400212
 20
-1.152517268840022
 10
1.944459425960191
 20
-1.061979155480017
  0
LINE
  5
D43
330
1F
100
AcDbEntity
  8
1
100
AcDbLine
 10
1.913874869320194
 20
-3.480902043239931
 30
0.0
 11
2.128981146040179
 21
-3.503230162840001
 31
0.0
  0
LINE
  5
D44
330
1F
100
AcDbEntity
  8
1
100
AcDbLine
 10
0.8860514542002903
 20
3.179046815720067
 30
0.0
 11
0.8860390798802683
 21
-2.90766389091995
 31
0.0
  0
LINE
  5
D45
330
1F
100
AcDbEntity
  8
1
100
AcDbLine
 10
0.0000000000002274
 20
3.757116723360008
 30
0.0
 11
0.0000000000002274
 21
-3.757116723359973
 31
0.0
  0
LINE
  5
D48
330
1F
100
AcDbEntity
  8
1
100
AcDbLine
 10
1.661887001240212
 20
-3.854330827282426
 30
0.0
 11
1.842253402240226
 21
-4.215189704854871
 31
0.0
  0
LINE
  5
D49
330
1F
100
AcDbEntity
  8
1
100
AcDbLine
 10
1.661887001240212
 20
-3.854330827282448
 30
0.0
 11
1.661887001240212
 21
-3.458708385639911
 31
0.0
  0
ARC
  5
D4A
330
1F
100
AcDbEntity
  8
1
100
AcDbCircle
 10
1.308380154083512
 20
-4.406412618039478
 30
0.0
 40
0.6555618923276209
100
AcDbArc
 50
57.36791118991595
 51
82.08910784380885
  0
LINE
  5
D4D
330
1F
100
AcDbEntity
  8
1
100
AcDbLine
 10
1.662327581560204
 20
-3.453537607480023
 30
0.0
 11
1.661870458760201
 21
-3.458734905480008
 31
0.0
  0
LWPOLYLINE
  5
D4E
330
1F
100
AcDbEntity
  8
1
100
AcDbPolyline
 90
        4
 70
     0
 43
0.0
 10
0.8860390798802685
 20
-2.90766389091995
 10
0.8838749642002799
 20
-2.918164290359931
 10
0.8824080752402581
 20
-2.928195499480026
 10
0.8816561582802735
 20
-2.93773580251995
  0
LWPOLYLINE
  5
D4F
330
1F
100
AcDbEntity
  8
1
100
AcDbPolyline
 90
       14
 70
     0
 43
0.0
 10
0.8816536274001949
 20
-2.93776791419995
 10
0.8815659772402144
 20
-2.946874289160012
 10
0.8821169886802666
 20
-2.955508836920004
 10
0.8832693537202917
 20
-2.963677178279925
 10
0.8849890815602096
 20
-2.971377094999926
 10
0.8872380851602914
 20
-2.978625091479937
 10
0.8899886399602594
 20
-2.985436608279922
 10
0.8931756678001905
 20
-2.991810444359923
 10
0.8967621270802085
 20
-2.997731262279915
 10
0.9006361830802719
 20
-3.003255498279933
 10
0.904697999320277
 20
-3.00842044387993
 10
0.9088745394802147
 20
-3.013264252200013
 10
0.9130700830002782
 20
-3.017827732840026
 10
0.9172528462002931
 20
-3.022136957960008
  0
LINE
  5
D50
330
1F
100
AcDbEntity
  8
1
100
AcDbLine
 10
1.65992865660021
 20
-3.445789878439919
 30
0.0
 11
1.662327581560204
 21
-3.453537607480023
 31
0.0
  0
LWPOLYLINE
  5
D51
330
1F
100
AcDbEntity
  8
1
100
AcDbPolyline
 90
        4
 70
     0
 43
0.0
 10
0.9172528462002931
 20
-3.022136957960008
 10
0.9213658326802065
 20
-3.026225300200023
 10
0.9253889602002828
 20
-3.030109425639914
 10
0.9302819715871494
 20
-3.033811488999929
  0
LWPOLYLINE
  5
D52
330
1F
100
AcDbEntity
  8
1
100
AcDbPolyline
 90
        9
 70
     0
 43
0.0
 10
1.462997110360265
 20
-3.229039290199937
 10
1.496427739000206
 20
-3.238073500920009
 10
1.529276066120201
 20
-3.253006832039948
 10
1.560513126120191
 20
-3.273919917639924
 10
1.58924699612021
 20
-3.300301817079928
 10
1.614643195240206
 20
-3.331767893800013
 10
1.635424109720271
 20
-3.36731356956001
 10
1.650670358120193
 20
-3.405518384840017
 10
1.659972258840276
 20
-3.445744541479999
  0
LINE
  5
D53
330
1F
100
AcDbEntity
  8
1
100
AcDbLine
 10
1.251024829720293
 20
-3.182592167239993
 30
0.0
 11
1.315121776920274
 21
-3.199033723159931
 31
0.0
  0
LINE
  5
D54
330
1F
100
AcDbEntity
  8
1
100
AcDbLine
 10
1.222821053000188
 20
-3.17551654812002
 30
0.0
 11
1.251024829720293
 21
-3.182592167239993
 31
0.0
  0
LWPOLYLINE
  5
D55
330
1F
100
AcDbEntity
  8
1
100
AcDbPolyline
 90
        3
 70
     0
 43
0.0
 10
1.315121776920274
 20
-3.199033723159931
 10
1.333077842600211
 20
-3.203518942760017
 10
1.351957714600212
 20
-3.208102746999921
  0
LWPOLYLINE
  5
D56
330
1F
100
AcDbEntity
  8
1
100
AcDbPolyline
 90
        3
 70
     0
 43
0.0
 10
1.351957714600212
 20
-3.208102746999921
 10
1.371838757800196
 20
-3.212690830599937
 10
1.392792405160208
 20
-3.217229983799931
  0
LWPOLYLINE
  5
D57
330
1F
100
AcDbEntity
  8
1
100
AcDbPolyline
 90
        5
 70
     0
 43
0.0
 10
0.9302819715871494
 20
-3.033811488999929
 10
1.184725509720284
 20
-3.162521144222813
 10
1.196895362200211
 20
-3.167613381255924
 10
1.209586419240215
 20
-3.172296661800003
 10
1.222821053000188
 20
-3.17551654812002
  0
LWPOLYLINE
  5
D58
330
1F
100
AcDbEntity
  8
1
100
AcDbPolyline
 90
        3
 70
     0
 43
0.0
 10
1.393873208063314
 20
-3.217468793331993
 10
1.436912641960271
 20
-3.224872177799936
 10
1.462967001240214
 20
-3.229036720760011
  0
LINE
  5
D59
330
1F
100
AcDbEntity
  8
1
100
AcDbLine
 10
1.735086902280273
 20
-3.461303789079912
 30
0.0
 11
1.808764606200271
 21
-3.469659681480008
 31
0.0
  0
LINE
  5
D5A
330
1F
100
AcDbEntity
  8
1
100
AcDbLine
 10
1.661003343000268
 20
-3.453374391480013
 30
0.0
 11
1.735086902280273
 21
-3.461303789079912
 31
0.0
  0
LINE
  5
D5B
330
1F
100
AcDbEntity
  8
1
100
AcDbLine
 10
1.808764571240273
 20
-3.469669445159928
 30
0.0
 11
1.913874869320194
 21
-3.480902043239931
 31
0.0
  0
LINE
  5
D5C
330
1F
100
AcDbEntity
  8
1
100
AcDbLine
 10
-0.0000029089598684
 20
-3.757087999999912
 30
0.0
 11
1.398609910200276
 21
-3.757089500679938
 31
0.0
  0
LWPOLYLINE
  5
DC6
330
1F
100
AcDbEntity
  8
1
100
AcDbPolyline
 90
       20
 70
     0
 43
0.0
 10
1.769716099320205
 20
-0.7846452350799325
 10
1.663369243880289
 20
-0.6286127279599386
 10
1.570699670680188
 20
-0.4716837722799427
 10
1.492096943000208
 20
-0.3163219817199149
 10
1.426392352200264
 20
-0.1632601529999135
 10
1.372855194920203
 20
-0.0134563475600033
 10
1.330561019400194
 20
0.1331014913999808
 10
1.298481912040188
 20
0.2765281053199998
 10
1.276197562520293
 20
0.416983726679979
 10
1.262947113800284
 20
0.5548057165200647
 10
1.258724300040195
 20
0.6903146418800646
 10
1.263140732120202
 20
0.8239216829200628
 10
1.276581928440282
 20
0.9558295815600603
 10
1.299044723160295
 20
1.086201211400069
 10
1.331306784920208
 20
1.215168450040077
 10
1.373827818760264
 20
1.342744518760064
 10
1.427558553880273
 20
1.468448072519985
 10
1.493426709560278
 20
1.591776893879983
 10
1.571961020200275
 20
1.711315314680045
 10
1.664104205720288
 20
1.825746397640071
  0
LWPOLYLINE
  5
DF4
330
1F
100
AcDbEntity
  8
1
100
AcDbPolyline
 90
        4
 70
     0
 43
0.0
 10
1.944459425960191
 20
-1.061979155480017
 10
1.888379059720274
 20
-0.9705206180399208
 10
1.829748714840276
 20
-0.878214375959935
 10
1.769719882920278
 20
-0.7846468133199265
  0
LWPOLYLINE
  5
E0A
330
1F
100
AcDbEntity
  8
1
100
AcDbPolyline
 90
       10
 70
     0
 43
0.0
 10
1.645473078881015
 20
3.899402452101643
 10
1.645473078880971
 20
3.899402452101598
 10
1.633421535080288
 20
3.877193844680053
 10
1.62131744148028
 20
3.855859127160058
 10
1.608463840840204
 20
3.836505338759983
 10
1.595136954360284
 20
3.818712236680068
 10
1.581800856440281
 20
3.801964781080053
 10
1.568387671720279
 20
3.786205217320052
 10
1.554925372440268
 20
3.771362480439989
 10
1.541608294200274
 20
3.756832372840068
  0
ARC
  5
E0D
330
1F
100
AcDbEntity
  8
1
100
AcDbCircle
 10
1.398609851960191
 20
3.95142097507999
 30
0.0
 40
0.19433447584
100
AcDbArc
 50
269.9991595428999
 51
314.8676764860998
  0
LINE
  5
E0E
330
1F
100
AcDbEntity
  8
1
100
AcDbLine
 10
1.398609910200276
 20
3.757086499320058
 30
0.0
 11
0.0000000000002274
 21
3.757116723360008
 31
0.0
  0
LINE
  5
E0F
330
1F
100
AcDbEntity
  8
1
100
AcDbLine
 10
1.098283651640282
 20
3.590180946040076
 30
0.0
 11
1.020966178040183
 21
3.583580568999995
 31
0.0
  0
LWPOLYLINE
  5
E10
330
1F
100
AcDbEntity
  8
1
100
AcDbPolyline
 90
        5
 70
     0
 43
0.0
 10
1.020966178040183
 20
3.583580568999995
 10
1.005858193480209
 20
3.582028508040051
 10
0.991694864760214
 20
3.580211647239983
 10
0.9784761918802844
 20
3.578126861480068
 10
0.9662021748402851
 20
3.575770583799982
  0
LWPOLYLINE
  5
E11
330
1F
100
AcDbEntity
  8
1
100
AcDbPolyline
 90
       19
 70
     0
 43
0.0
 10
0.9662021748402851
 20
3.575770583799982
 10
0.9227196592402863
 20
3.566556251960064
 10
0.8856358834802707
 20
3.555956079960066
 10
0.8549542589202731
 20
3.543744126360075
 10
0.8306645518802755
 20
3.530284822680054
 10
0.8128745794002753
 20
3.516028922760054
 10
0.8012336014802743
 20
3.500635419640051
 10
0.795604991960275
 20
3.483912829879981
 10
0.7954542262002664
 20
3.46579092004006
 10
0.8006531214002766
 20
3.446098760520049
 10
0.8098460261202744
 20
3.424906577400048
 10
0.8222055566801858
 20
3.402369255879971
 10
0.8360187270802757
 20
3.378104898600057
 10
0.8495482922002823
 20
3.351852707640071
 10
0.8620396458802844
 20
3.323268129239981
 10
0.8722154078802788
 20
3.291923860759975
 10
0.8799066548401953
 20
3.257625778760078
 10
0.8844443307602009
 20
3.220045911480068
 10
0.8860514542002905
 20
3.179046815720067
  0
LWPOLYLINE
  5
E12
330
1F
100
AcDbEntity
  8
1
100
AcDbPolyline
 90
        5
 70
     0
 43
0.0
 10
1.856619029560193
 20
2.156853133079998
 10
1.884893672120188
 20
2.132213106279986
 10
1.913584234120208
 20
2.108488275879976
 10
1.942693980360264
 20
2.085697971559993
 10
1.972226076280277
 20
2.06386140300006
  0
LINE
  5
E13
330
1F
100
AcDbEntity
  8
1
100
AcDbLine
 10
1.525138221320188
 20
3.692872905159997
 30
0.0
 11
1.53395916084028
 21
3.659039342680062
 31
0.0
  0
LINE
  5
E14
330
1F
100
AcDbEntity
  8
1
100
AcDbLine
 10
1.51604072316027
 20
3.726609226200076
 30
0.0
 11
1.525138221320188
 21
3.692872905159997
 31
0.0
  0
LWPOLYLINE
  5
E15
330
1F
100
AcDbEntity
  8
1
100
AcDbPolyline
 90
        9
 70
     0
 43
0.0
 10
1.53395916084028
 20
3.659039342680062
 10
1.553145739000208
 20
3.580902664280078
 10
1.570361415560274
 20
3.503223119000067
 10
1.585421132520288
 20
3.426088482280061
 10
1.59748502268019
 20
3.351181417799993
 10
1.605746124760275
 20
3.280282429720073
 10
1.609932228840263
 20
3.212738211160061
 10
1.609684361080281
 20
3.148094058920062
 10
1.604957450120195
 20
3.086316423879978
  0
LWPOLYLINE
  5
E16
330
1F
100
AcDbEntity
  8
1
100
AcDbPolyline
 90
       13
 70
     0
 43
0.0
 10
1.571616737880209
 20
2.637716182840066
 10
1.583507008840276
 20
2.596263560440006
 10
1.597828545640188
 20
2.553408411799981
 10
1.614722488920279
 20
2.508966996199983
 10
1.634085192600196
 20
2.464055082920054
 10
1.655951369880269
 20
2.419507084920069
 10
1.679819674840202
 20
2.37608363939999
 10
1.705066425560289
 20
2.334811754439993
 10
1.731840706440199
 20
2.29551939268006
 10
1.759913489480279
 20
2.258573806280065
 10
1.789805805320271
 20
2.223350199879976
 10
1.822092650280184
 20
2.189295076280068
 10
1.856619029560193
 20
2.156853133079998
  0
LWPOLYLINE
  5
E17
330
1F
100
AcDbEntity
  8
1
100
AcDbPolyline
 90
        5
 70
     0
 43
0.0
 10
1.551526801880277
 20
2.793669558840069
 10
1.550178811720276
 20
2.75808512980007
 10
1.553035481960274
 20
2.720112524840061
 10
1.560166020600219
 20
2.679937916519978
 10
1.571616650600254
 20
2.637716183640081
  0
LWPOLYLINE
  5
E18
330
1F
100
AcDbEntity
  8
1
100
AcDbPolyline
 90
        3
 70
     0
 43
0.0
 10
1.568750673320188
 20
2.897888792599978
 10
1.559538702680198
 20
2.846773115000069
 10
1.551526801880277
 20
2.793669558840069
  0
LWPOLYLINE
  5
E19
330
1F
100
AcDbEntity
  8
1
100
AcDbPolyline
 90
        4
 70
     0
 43
0.0
 10
1.604962337240273
 20
3.086308933400055
 10
1.597407392440279
 20
3.040356963799971
 10
1.588678117160273
 20
2.993847623159993
 10
1.568750673320188
 20
2.897888792599978
  0
LWPOLYLINE
  5
E1A
330
1F
100
AcDbEntity
  8
1
100
AcDbPolyline
 90
        4
 70
     0
 43
0.0
 10
1.916661903720274
 20
2.036631876039976
 10
1.898533100760188
 20
2.028315265959967
 10
1.888181960680186
 20
2.023754003400065
 10
1.876840784440265
 20
2.018876982200076
  0
LWPOLYLINE
  5
E1B
330
1F
100
AcDbEntity
  8
1
100
AcDbPolyline
 90
        3
 70
     0
 43
0.0
 10
1.972081692840198
 20
2.063882453000069
 10
1.968285847960194
 20
2.062137068200061
 10
1.96429075276019
 20
2.060148098039988
  0
LWPOLYLINE
  5
E1C
330
1F
100
AcDbEntity
  8
1
100
AcDbPolyline
 90
        7
 70
     0
 43
0.0
 10
1.96429075276019
 20
2.060148098039988
 10
1.950167967400285
 20
2.052884667000082
 10
1.944585583800292
 20
2.050057012519987
 10
1.93849379668027
 20
2.047035510360073
 10
1.931847608520276
 20
2.043795082120055
 10
1.924587464200205
 20
2.040337755720069
 10
1.916661903720274
 20
2.036631876039976
  0
LWPOLYLINE
  5
E1D
330
1F
100
AcDbEntity
  8
1
100
AcDbPolyline
 90
        7
 70
     0
 43
0.0
 10
1.811672705320189
 20
1.974552180280081
 10
1.822334307880284
 20
1.982459030200066
 10
1.833080978680256
 20
1.99016591380005
 10
1.843915080680199
 20
1.997679800759993
 10
1.854829525240211
 20
2.00497978251997
 10
1.865817223880278
 20
2.01204495051998
 10
1.876880539320201
 20
2.01888227428008
  0
LINE
  5
E1E
330
1F
100
AcDbEntity
  8
1
100
AcDbLine
 10
1.797291206920273
 20
1.960459303320071
 30
0.0
 11
1.811628379720196
 21
1.974486239400065
 31
0.0
  0
LINE
  5
E1F
330
1F
100
AcDbEntity
  8
1
100
AcDbLine
 10
1.783259282200288
 20
1.946590265640068
 30
0.0
 11
1.797291206920273
 21
1.960459303320071
 31
0.0
  0
LINE
  5
E20
330
1F
100
AcDbEntity
  8
1
100
AcDbLine
 10
1.769537177240272
 20
1.932871355000069
 30
0.0
 11
1.783259282200288
 21
1.946590265640068
 31
0.0
  0
LINE
  5
E21
330
1F
100
AcDbEntity
  8
1
100
AcDbLine
 10
1.664104205720288
 20
1.825746397640071
 30
0.0
 11
1.76954202228028
 21
1.932876246920071
 31
0.0
  0
LWPOLYLINE
  5
E22
330
1F
100
AcDbEntity
  8
1
100
AcDbPolyline
 90
        7
 70
     0
 43
0.0
 10
1.515964043560279
 20
3.726558819159984
 10
1.509947231320188
 20
3.719626577159993
 10
1.503097195640203
 20
3.71263549076007
 10
1.495383641480272
 20
3.705651806680002
 10
1.486862470680196
 20
3.698846029480049
 10
1.477597506200279
 20
3.692393109480057
 10
1.467578649400184
 20
3.686380891000071
  0
LWPOLYLINE
  5
E23
330
1F
100
AcDbEntity
  8
1
100
AcDbPolyline
 90
        3
 70
     0
 43
0.0
 10
1.541608294200274
 20
3.756832372840068
 10
1.528702884600264
 20
3.741805458120056
 10
1.51604072316027
 20
3.726609226200076
  0
LWPOLYLINE
  5
E24
330
1F
100
AcDbEntity
  8
1
100
AcDbPolyline
 90
        9
 70
     0
 43
0.0
 10
1.462967001240214
 20
3.683929493159991
 10
1.425376462920281
 20
3.666767344360055
 10
1.384640137320185
 20
3.650622400839988
 10
1.340334209400179
 20
3.635875209479992
 10
1.293730124200284
 20
3.622772076439995
 10
1.245863083720269
 20
3.611532532599998
 10
1.197018001240212
 20
3.602295783400067
 10
1.147903604760269
 20
3.595128703799995
 10
1.098283651640284
 20
3.590180946040076
  0
LINE
  5
E25
330
1F
100
AcDbEntity
  8
1
100
AcDbLine
 10
1.467595756680204
 20
3.68639268756006
 30
0.0
 11
1.462973032520222
 21
3.683920224280068
 31
0.0
  0
LINE
  5
E26
330
1F
100
AcDbEntity
  8
1
100
AcDbLine
 10
7.304554266920196
 20
-2.758222149160013
 30
0.0
 11
7.761687118440297
 21
-2.311280523159931
 31
0.0
  0
LINE
  5
E28
330
1F
100
AcDbEntity
  8
1
100
AcDbLine
 10
2.698935001240263
 20
-3.553188658679931
 30
0.0
 11
2.698935001240263
 21
-2.054539494680003
 31
0.0
  0
LINE
  5
E2A
330
1F
100
AcDbEntity
  8
1
100
AcDbLine
 10
6.753024298280276
 20
-3.307306179239928
 30
0.0
 11
7.304554266920196
 21
-2.758222149160013
 31
0.0
  0
LINE
  5
E2D
330
1F
100
AcDbEntity
  8
1
100
AcDbLine
 10
5.140920369000288
 20
-3.716043595159946
 30
0.0
 11
3.686054098760271
 21
-3.626026363559997
 31
0.0
  0
LWPOLYLINE
  5
E32
330
1F
100
AcDbEntity
  8
1
100
AcDbPolyline
 90
        3
 70
     0
 43
0.0
 10
2.466073524120203
 20
-3.533649500679931
 10
2.640239412200278
 20
-3.548109543959929
 10
2.698935001240263
 20
-3.553188658679931
  0
LWPOLYLINE
  5
E33
330
1F
100
AcDbEntity
  8
1
100
AcDbPolyline
 90
        5
 70
     0
 43
0.0
 10
2.128981111800296
 20
-3.503240691240006
 10
2.212305973240269
 20
-3.510054824119939
 10
2.296261060920279
 20
-3.517412545479936
 10
2.380848405320285
 20
-3.525288418519942
 10
2.466073460920279
 20
-3.533649501159918
  0
LINE
  5
E34
330
1F
100
AcDbEntity
  8
1
100
AcDbLine
 10
3.334503962600207
 20
-3.597981713559936
 30
0.0
 11
3.686054098760271
 21
-3.626026363559997
 31
0.0
  0
LWPOLYLINE
  5
E35
330
1F
100
AcDbEntity
  8
1
100
AcDbPolyline
 90
        3
 70
     0
 43
0.0
 10
2.698935001240263
 20
-3.553188658679931
 10
3.0064256541202
 20
-3.569444730600018
 10
3.334503962600207
 20
-3.597981713559938
  0
LWPOLYLINE
  5
E39
330
1F
100
AcDbEntity
  8
1
100
AcDbPolyline
 90
        3
 70
     0
 43
0.0
 10
6.279854275000277
 20
-3.786522974599932
 10
6.526595829560279
 20
-3.537926746919984
 10
6.753024298280276
 20
-3.307306179239928
  0
LINE
  5
E3A
330
1F
100
AcDbEntity
  8
1
100
AcDbLine
 10
5.548031001240204
 20
-3.743291930439924
 30
0.0
 11
5.140920369000288
 21
-3.716043595159946
 31
0.0
  0
LINE
  5
E3B
330
1F
100
AcDbEntity
  8
1
100
AcDbLine
 10
5.787477487640194
 20
-3.758247813639938
 30
0.0
 11
5.548031000520269
 21
-3.743292195400015
 31
0.0
  0
LINE
  5
E3C
330
1F
100
AcDbEntity
  8
1
100
AcDbLine
 10
6.279835009800262
 20
-3.786547483320003
 30
0.0
 11
5.787477487640194
 21
-3.758247813639938
 31
0.0
  0
LWPOLYLINE
  5
E3F
330
1F
100
AcDbEntity
  8
1
100
AcDbPolyline
 90
        9
 70
     0
 43
0.0
 10
7.249971807480187
 20
-0.8530431071600029
 10
7.189196343000276
 20
-0.946559918679933
 10
7.123928155640218
 20
-1.033120564999937
 10
7.055375955080219
 20
-1.111318571079929
 10
6.981776408360296
 20
-1.183690974359925
 10
6.901695437160286
 20
-1.251536810999929
 10
6.813906119720287
 20
-1.315349477159946
 10
6.71626217748026
 20
-1.376126824200029
 10
6.609578905480204
 20
-1.43219589419995
  0
LWPOLYLINE
  5
E40
330
1F
100
AcDbEntity
  8
1
100
AcDbPolyline
 90
       13
 70
     0
 43
0.0
 10
5.992495001240195
 20
3.167190499320058
 10
6.188035214280263
 20
3.149026373960058
 10
6.386703298520298
 20
3.115318229480003
 10
6.587153475960258
 20
3.065525185239998
 10
6.792176465560261
 20
2.998050877080006
 10
7.004146673880272
 20
2.910630429720009
 10
7.22201628244029
 20
2.802116097480078
 10
7.446176134680262
 20
2.670945817320061
 10
7.674808069800294
 20
2.517217689800059
 10
7.90636610420029
 20
2.341751815480078
 10
8.141353366040199
 20
2.14447646356007
 10
8.379937303400195
 20
1.92597002540006
 10
8.628057860640218
 20
1.660395296160031
  0
LWPOLYLINE
  5
E41
330
1F
100
AcDbEntity
  8
1
100
AcDbPolyline
 90
        7
 70
     0
 43
0.0
 10
6.392193577480273
 20
0.8395474268400031
 10
6.503928100920282
 20
0.7730836431599811
 10
6.618063233320207
 20
0.7037258789200737
 10
6.734578598840291
 20
0.6314792800400541
 10
6.853558183560291
 20
0.5563284086799799
 10
6.975086232520201
 20
0.4782578267600059
 10
7.099142908680187
 20
0.3972726803600666
  0
LWPOLYLINE
  5
E42
330
1F
100
AcDbEntity
  8
1
100
AcDbPolyline
 90
        4
 70
     0
 43
0.0
 10
4.732568607720283
 20
-2.170094164760024
 10
4.474542652600212
 20
-2.173538342120028
 10
3.953254089320263
 20
-2.169376817799926
 10
3.66838602196019
 20
-2.156596928999936
  0
LINE
  5
E43
330
1F
100
AcDbEntity
  8
1
100
AcDbLine
 10
2.158328313240281
 20
-1.443384846680001
 30
0.0
 11
2.090465741679784
 21
-1.324656314333917
 31
0.0
  0
LINE
  5
E44
330
1F
100
AcDbEntity
  8
1
100
AcDbLine
 10
2.270136427000216
 20
-1.627840989639928
 30
0.0
 11
2.158328313240281
 21
-1.443384846680001
 31
0.0
  0
LWPOLYLINE
  5
E45
330
1F
100
AcDbEntity
  8
1
100
AcDbPolyline
 90
        3
 70
     0
 43
0.0
 10
2.383213811000269
 20
-1.790187312999925
 10
2.326247594840289
 20
-1.712578552359938
 10
2.270136427000216
 20
-1.627840989639928
  0
LWPOLYLINE
  5
E46
330
1F
100
AcDbEntity
  8
1
100
AcDbPolyline
 90
        4
 70
     0
 43
0.0
 10
2.565611356440288
 20
-1.975122242519995
 10
2.502473344200189
 20
-1.921848270520005
 10
2.441583766120268
 20
-1.860050762519943
 10
2.383213811000269
 20
-1.790187312999925
  0
LWPOLYLINE
  5
E47
330
1F
100
AcDbEntity
  8
1
100
AcDbPolyline
 90
        3
 70
     0
 43
0.0
 10
2.698935001240263
 20
-2.054539494680004
 10
2.631111172040211
 20
-2.01912023707993
 10
2.565611356440288
 20
-1.975122242519995
  0
LWPOLYLINE
  5
E48
330
1F
100
AcDbEntity
  8
1
100
AcDbPolyline
 90
        4
 70
     0
 43
0.0
 10
2.905500195400191
 20
-2.114899932120026
 10
2.834817002920273
 20
-2.099161377159946
 10
2.765749125640196
 20
-2.079053747159916
 10
2.69894627204019
 20
-2.054644704679995
  0
LWPOLYLINE
  5
E49
330
1F
100
AcDbEntity
  8
1
100
AcDbPolyline
 90
        3
 70
     0
 43
0.0
 10
3.053327218040205
 20
-2.133726750680026
 10
2.978195026680261
 20
-2.126394272279929
 10
2.905500195400191
 20
-2.114899932120026
  0
LWPOLYLINE
  5
E4A
330
1F
100
AcDbEntity
  8
1
100
AcDbPolyline
 90
        3
 70
     0
 43
0.0
 10
3.404688439240273
 20
-2.148226615079912
 10
3.268797951880288
 20
-2.142889641560001
 10
3.053327218040205
 20
-2.133726750680026
  0
LWPOLYLINE
  5
E4B
330
1F
100
AcDbEntity
  8
1
100
AcDbPolyline
 90
        3
 70
     0
 43
0.0
 10
3.66838602196019
 20
-2.156596928999936
 10
3.537884462520288
 20
-2.15279571092
 10
3.404688439240273
 20
-2.148226615079912
  0
LINE
  5
E4C
330
1F
100
AcDbEntity
  8
1
100
AcDbLine
 10
6.323949058280278
 20
-1.670761936360001
 30
0.0
 11
6.196955062440295
 21
-1.76282427339992
 31
0.0
  0
LINE
  5
E4D
330
1F
100
AcDbEntity
  8
1
100
AcDbLine
 10
6.44551811204019
 20
-1.568038979160011
 30
0.0
 11
6.323949058280278
 21
-1.670761936360001
 31
0.0
  0
LINE
  5
E4E
330
1F
100
AcDbEntity
  8
1
100
AcDbLine
 10
6.560938618680187
 20
-1.454995904519994
 30
0.0
 11
6.44551811204019
 21
-1.568038979160011
 31
0.0
  0
LINE
  5
E4F
330
1F
100
AcDbEntity
  8
1
100
AcDbLine
 10
5.918749651080272
 20
-1.918985814439921
 30
0.0
 11
5.764609691080294
 21
-1.983900636200012
 31
0.0
  0
LINE
  5
E50
330
1F
100
AcDbEntity
  8
1
100
AcDbLine
 10
6.609645646520267
 20
-1.432222656359923
 30
0.0
 11
6.560911719080286
 21
-1.454996942760015
 31
0.0
  0
LINE
  5
E51
330
1F
100
AcDbEntity
  8
1
100
AcDbLine
 10
6.062365309320286
 20
-1.845247498679934
 30
0.0
 11
5.918749651080272
 21
-1.918985814439921
 31
0.0
  0
LINE
  5
E52
330
1F
100
AcDbEntity
  8
1
100
AcDbLine
 10
6.196955062440295
 20
-1.76282427339992
 30
0.0
 11
6.062365309320286
 21
-1.845247498679934
 31
0.0
  0
LINE
  5
E53
330
1F
100
AcDbEntity
  8
1
100
AcDbLine
 10
5.764609691080294
 20
-1.983900636200012
 30
0.0
 11
5.597723428040263
 21
-2.040193882359918
 31
0.0
  0
LINE
  5
E54
330
1F
100
AcDbEntity
  8
1
100
AcDbLine
 10
4.976381266840191
 20
-2.156006297879927
 30
0.0
 11
4.732568607720283
 21
-2.170094164760024
 31
0.0
  0
LINE
  5
E55
330
1F
100
AcDbEntity
  8
1
100
AcDbLine
 10
5.205029941960266
 20
-2.128236753719915
 30
0.0
 11
4.976381266840191
 21
-2.156006297879927
 31
0.0
  0
LINE
  5
E56
330
1F
100
AcDbEntity
  8
1
100
AcDbLine
 10
5.418831529080262
 20
-2.087798194920006
 30
0.0
 11
5.205029941960266
 21
-2.128236753719915
 31
0.0
  0
LINE
  5
E57
330
1F
100
AcDbEntity
  8
1
100
AcDbLine
 10
5.597723428040263
 20
-2.040193882359918
 30
0.0
 11
5.418831529080262
 21
-2.087798246759931
 31
0.0
  0
LWPOLYLINE
  5
E58
330
1F
100
AcDbEntity
  8
1
100
AcDbPolyline
 90
        7
 70
     0
 43
0.0
 10
5.992494890760191
 20
3.167190505400053
 10
5.486082828920278
 20
3.194444921080006
 10
4.981618203160271
 20
3.220199702519997
 10
4.478879899400181
 20
3.244486892920082
 10
3.728549565560276
 20
3.267271467799994
 10
3.231308506680263
 20
3.288527132520043
 10
2.736935001320194
 20
3.308294499319986
  0
LWPOLYLINE
  5
E59
330
1F
100
AcDbEntity
  8
1
100
AcDbPolyline
 90
       15
 70
     0
 43
0.0
 10
5.295758419560277
 20
1.607076592760066
 10
5.115860191320191
 20
1.69588325420007
 10
4.941286459640196
 20
1.770157144119982
 10
4.773091365640266
 20
1.831041223560081
 10
4.611285708120273
 20
1.880850202760079
 10
4.455937608120259
 20
1.921520390280061
 10
4.307051534280278
 20
1.954700465959971
 10
3.914548261160281
 20
1.981865212039979
 10
3.778206801720263
 20
2.004072854519976
 10
3.6477756013202
 20
2.022233822840056
 10
3.523053223160288
 20
2.037520787720068
 10
3.403852794680279
 20
2.051164911480059
 10
3.289694138920278
 20
2.062954943799971
 10
3.179881666600205
 20
2.072844296760063
 10
3.07484048012027
 20
2.081213242280071
  0
LWPOLYLINE
  5
E5A
330
1F
100
AcDbEntity
  8
1
100
AcDbPolyline
 90
        9
 70
     0
 43
0.0
 10
2.736935001320194
 20
3.308294499319986
 10
2.687697939960209
 20
3.312432499799982
 10
2.635351286920288
 20
3.324481942040078
 10
2.578391110200279
 20
3.344802403239969
 10
2.521339714360284
 20
3.372073509239981
 10
2.468940230360273
 20
3.405109584839993
 10
2.419021291080277
 20
3.443994373800074
 10
2.370917755080292
 20
3.488395361479983
 10
2.324852527880285
 20
3.538391939159966
  0
LWPOLYLINE
  5
E5B
330
1F
100
AcDbEntity
  8
1
100
AcDbPolyline
 90
        9
 70
     0
 43
0.0
 10
3.07484048012027
 20
2.081213242280071
 10
2.997593398680285
 20
2.086694223799991
 10
2.921118204520281
 20
2.09052385492005
 10
2.845655861560273
 20
2.092795258760048
 10
2.771262102440279
 20
2.093514438040079
 10
2.69788545908027
 20
2.092624048519978
 10
2.626330437000274
 20
2.09018373203999
 10
2.557337448680211
 20
2.086205065319976
 10
2.491064468360265
 20
2.080563147240061
  0
LWPOLYLINE
  5
E5C
330
1F
100
AcDbEntity
  8
1
100
AcDbPolyline
 90
        4
 70
     0
 43
0.0
 10
2.264034949240206
 20
2.054444210600064
 10
2.313657617240211
 20
2.060696759880061
 10
2.36795841620019
 20
2.066964932920069
 10
2.491063644680208
 20
2.080564234280068
  0
LWPOLYLINE
  5
E5D
330
1F
100
AcDbEntity
  8
1
100
AcDbPolyline
 90
        7
 70
     0
 43
0.0
 10
2.195842492520298
 20
3.729200711720071
 10
2.214491604840215
 20
3.695888463480063
 10
2.23427983956026
 20
3.66309265140008
 10
2.255205561080198
 20
3.630722743720076
 10
2.277273955320198
 20
3.599035301640062
 10
2.300490169400201
 20
3.568288010680049
 10
2.324852527880285
 20
3.538391939159966
  0
LWPOLYLINE
  5
E5E
330
1F
100
AcDbEntity
  8
1
100
AcDbPolyline
 90
        7
 70
     0
 43
0.0
 10
6.392215211960182
 20
0.8395689544399884
 10
6.204330880520276
 20
0.9950519848400787
 10
6.018232002360266
 20
1.139686901799978
 10
5.834225720360293
 20
1.273247537000069
 10
5.652380503080282
 20
1.395623760120069
 10
5.472779050520284
 20
1.506843241960001
 10
5.295769634280259
 20
1.607092811880059
  0
LWPOLYLINE
  5
E60
330
1F
100
AcDbEntity
  8
1
100
AcDbPolyline
 90
       13
 70
     0
 43
0.0
 10
9.053070186440262
 20
0.8652839202000034
 10
9.125307672280268
 20
0.7641124814000762
 10
9.199003278920171
 20
0.6574001089200065
 10
9.27526733708026
 20
0.544234980439984
 10
9.35076885436027
 20
0.4273525629200833
 10
9.423247956920207
 20
0.3084307725200745
 10
9.490601620040262
 20
0.1897304398799917
 10
9.550014211320267
 20
0.0739385066800026
 10
9.601363680280286
 20
-0.0385454437199258
 10
9.643370770360268
 20
-0.1463269507599249
 10
9.676691467240182
 20
-0.2497037043599391
 10
9.701584033480267
 20
-0.3484876830799238
 10
9.71796238156026
 20
-0.4427415608399258
  0
LINE
  5
E61
330
1F
100
AcDbEntity
  8
1
100
AcDbLine
 10
6.2
 20
4.15
 30
0.0
 11
9.842857044936639
 21
0.5071429550633561
 31
0.0
  0
LWPOLYLINE
  5
E63
330
1F
100
AcDbEntity
  8
1
100
AcDbPolyline
 90
        6
 70
     0
 43
0.0
 10
9.254304222520287
 20
-0.8850190017199269
 10
9.295672143000187
 20
-0.8509197169999348
 10
9.338612944680182
 20
-0.816768399079927
 10
9.38242415404019
 20
-0.7829212027599338
 10
9.427377701000251
 20
-0.7493602201999408
 10
9.473634713960262
 20
-0.7160015660399436
  0
LWPOLYLINE
  5
E64
330
1F
100
AcDbEntity
  8
1
100
AcDbPolyline
 90
        9
 70
     0
 43
0.0
 10
9.311629579720277
 20
-0.58815569132002
 10
9.303546245160267
 20
-0.5836365747599246
 10
9.291772387080206
 20
-0.5764063008400117
 10
9.275757131960189
 20
-0.5661216202799268
 10
9.25724949172018
 20
-0.5538780026799432
 10
9.237758267800286
 20
-0.5406351642000061
 10
9.217370520760262
 20
-0.5264197446000197
 10
9.195909107640259
 20
-0.5108965350799224
 10
9.175636149480252
 20
-0.4960917416399241
  0
LINE
  5
E65
330
1F
100
AcDbEntity
  8
1
100
AcDbLine
 10
8.779187686600254
 20
-1.329088899959939
 30
0.0
 11
9.151158574440186
 21
-0.9762141473200172
 31
0.0
  0
LWPOLYLINE
  5
E66
330
1F
100
AcDbEntity
  8
1
100
AcDbPolyline
 90
        4
 70
     0
 43
0.0
 10
7.761687118440297
 20
-2.311280523159933
 10
8.359825793960272
 20
-1.732931968439916
 10
8.571966761240222
 20
-1.528145606119998
 10
8.779187686600254
 20
-1.329088899959939
  0
LWPOLYLINE
  5
E68
330
1F
100
AcDbEntity
  8
1
100
AcDbPolyline
 90
        7
 70
     0
 43
0.0
 10
9.151158574440186
 20
-0.9762141473200172
 10
9.170501442120196
 20
-0.9584292588400252
 10
9.18898692932019
 20
-0.9417345318000045
 10
9.206549798680262
 20
-0.9261058881199382
 10
9.223272261080261
 20
-0.9114903882000286
 10
9.23921989148026
 20
-0.8978147691599286
 10
9.254300456040198
 20
-0.8850130518799156
  0
LINE
  5
E69
330
1F
100
AcDbEntity
  8
1
100
AcDbLine
 10
7.485401946840284
 20
-0.3790104937199374
 30
0.0
 11
7.477533646200277
 21
-0.397242828599923
 31
0.0
  0
LINE
  5
E6A
330
1F
100
AcDbEntity
  8
1
100
AcDbLine
 10
7.477533646200277
 20
-0.397242828599923
 30
0.0
 11
7.462240481800291
 21
-0.4332469904400057
 31
0.0
  0
LINE
  5
E6B
330
1F
100
AcDbEntity
  8
1
100
AcDbLine
 10
7.462240481800291
 20
-0.4332469904400057
 30
0.0
 11
7.446943166760184
 21
-0.4699671709999337
 31
0.0
  0
LWPOLYLINE
  5
E6C
330
1F
100
AcDbEntity
  8
1
100
AcDbPolyline
 90
        5
 70
     0
 43
0.0
 10
7.509429971160286
 20
-0.3249699099599355
 10
7.516464357480211
 20
-0.3098347182799386
 10
7.523584812600213
 20
-0.2948607279599344
 10
7.530790913480272
 20
-0.2800611643599438
 10
7.546032048840286
 20
-0.2472666113999309
  0
LWPOLYLINE
  5
E6D
330
1F
100
AcDbEntity
  8
1
100
AcDbPolyline
 90
        7
 70
     0
 43
0.0
 10
7.446958283560277
 20
-0.4699559871599321
 10
7.417858526680197
 20
-0.5349613974000193
 10
7.387299289560202
 20
-0.5995631357199215
 10
7.355277231400261
 20
-0.6637812286799486
 10
7.321806329160293
 20
-0.7275555964399186
 10
7.286900500920186
 20
-0.7908261589999196
 10
7.250556316280293
 20
-0.8536129429200101
  0
LWPOLYLINE
  5
E6E
330
1F
100
AcDbEntity
  8
1
100
AcDbPolyline
 90
        3
 70
     0
 43
0.0
 10
7.509286157960195
 20
-0.3248622741199542
 10
7.501277751960199
 20
-0.3428193850000015
 10
7.485401946840284
 20
-0.3790104937199375
  0
LWPOLYLINE
  5
E6F
330
1F
100
AcDbEntity
  8
1
100
AcDbPolyline
 90
       13
 70
     0
 43
0.0
 10
9.050401744520288
 20
-0.4043947170799301
 10
8.965639086120191
 20
-0.3390107747599303
 10
8.885325478920268
 20
-0.2776203367600317
 10
8.809420482360286
 20
-0.2201531861199271
 10
8.737415996440262
 20
-0.1662729154800161
 10
8.66900903636027
 20
-0.1157395669199502
 10
8.603794425240215
 20
-0.068335560439931
 10
8.541342947320211
 20
-0.0238131686000032
 10
8.481530658520297
 20
0.01790201508
 10
8.424129178920205
 20
0.0569270272400503
 10
8.369082206360282
 20
0.0933547866800666
 10
8.31624872948028
 20
0.1273085296400551
 10
8.265699593880281
 20
0.1587956545199689
  0
LINE
  5
E70
330
1F
100
AcDbEntity
  8
1
100
AcDbLine
 10
9.129651329800195
 20
-0.4628636516399128
 30
0.0
 11
9.081995670680258
 21
-0.4274142667599279
 31
0.0
  0
LINE
  5
E71
330
1F
100
AcDbEntity
  8
1
100
AcDbLine
 10
8.41387614124028
 20
-0.5117294401200013
 30
0.0
 11
8.322786236520277
 21
-0.4437651950799307
 31
0.0
  0
LWPOLYLINE
  5
E72
330
1F
100
AcDbEntity
  8
1
100
AcDbPolyline
 90
        3
 70
     0
 43
0.0
 10
9.081995670680262
 20
-0.427414266759928
 10
9.066158332040174
 20
-0.4158110582000234
 10
9.050401744520288
 20
-0.4043947170799301
  0
LWPOLYLINE
  5
E73
330
1F
100
AcDbEntity
  8
1
100
AcDbPolyline
 90
        5
 70
     0
 43
0.0
 10
8.322786223320191
 20
-0.4437653569199427
 10
8.286575554360272
 20
-0.4175980175600161
 10
8.251558909640291
 20
-0.3928451468399488
 10
8.217710213080275
 20
-0.3694731635599909
 10
8.185003261320209
 20
-0.3474497400399231
  0
LWPOLYLINE
  5
E74
330
1F
100
AcDbEntity
  8
1
100
AcDbPolyline
 90
        3
 70
     0
 43
0.0
 10
9.175636149480252
 20
-0.4960917416399241
 10
9.145201333160262
 20
-0.4742909885200051
 10
9.129651329800195
 20
-0.4628636516399128
  0
LWPOLYLINE
  5
E75
330
1F
100
AcDbEntity
  8
1
100
AcDbPolyline
 90
       14
 70
     0
 43
0.0
 10
7.350122607800271
 20
0.2427782677200696
 10
7.395946848680276
 20
0.2099423814000659
 10
7.437094256200272
 20
0.1751625711599956
 10
7.473180614440207
 20
0.1386782273200481
 10
7.504042914520281
 20
0.100520808600055
 10
7.529370054120273
 20
0.0613959553200005
 10
7.548893437240262
 20
0.021973313399991
 10
7.562960285240206
 20
-0.0174983265199388
 10
7.571800305560191
 20
-0.0564929251599494
 10
7.575755032680267
 20
-0.0952089692399966
 10
7.575137127080191
 20
-0.1337604956399389
 10
7.569953983080268
 20
-0.1720087991599427
 10
7.559879416040192
 20
-0.209574300840012
 10
7.546032048840286
 20
-0.2472666113999309
  0
LWPOLYLINE
  5
E76
330
1F
100
AcDbEntity
  8
1
100
AcDbPolyline
 90
       17
 70
     0
 43
0.0
 10
8.265699593880281
 20
0.1587956545199689
 10
8.219030168200195
 20
0.1869297649200746
 10
8.174292084760192
 20
0.212966931960051
 10
8.131521276280272
 20
0.2369277325199676
 10
8.090716775240206
 20
0.2588379438800587
 10
8.051875873960195
 20
0.2787271171599798
 10
8.015042906440298
 20
0.2965875133199972
 10
7.980224931160275
 20
0.3124350456400691
 10
7.947519449960286
 20
0.3261920105199864
 10
7.916960969080267
 20
0.337783588600047
 10
7.888675857800286
 20
0.3470734053200034
 10
7.862791352840217
 20
0.3539264775600772
 10
7.839302872840289
 20
0.358189167480083
 10
7.818340590920275
 20
0.3597650010000565
 10
7.799559714200269
 20
0.3582383634800693
 10
7.782582524280269
 20
0.3569051541235752
 10
7.620983289480275
 20
0.3404876495600605
  0
LWPOLYLINE
  5
E77
330
1F
100
AcDbEntity
  8
1
100
AcDbPolyline
 90
        5
 70
     0
 43
0.0
 10
8.824446031960166
 20
-0.8067630613999348
 10
8.748235165400268
 20
-0.7553126645999271
 10
8.668655593560181
 20
-0.6996282329999245
 10
8.58736444404019
 20
-0.6402440567600193
 10
8.41387614124028
 20
-0.5117294401200013
  0
LWPOLYLINE
  5
E78
330
1F
100
AcDbEntity
  8
1
100
AcDbPolyline
 90
        8
 70
     0
 43
0.0
 10
8.185003261320209
 20
-0.3474497400399231
 10
8.17102857516029
 20
-0.3381760006799995
 10
8.157003492680273
 20
-0.3289929123599394
 10
8.142902885080275
 20
-0.3198763852399395
 10
8.12882926140019
 20
-0.3109073786799342
 10
8.114872407800294
 20
-0.3021452797199288
 10
8.101027523880294
 20
-0.2936201214000164
 10
8.087157254600199
 20
-0.2853226325999401
  0
LWPOLYLINE
  5
E79
330
1F
100
AcDbEntity
  8
1
100
AcDbPolyline
 90
        7
 70
     0
 43
0.0
 10
7.099143198440287
 20
0.3972698529200728
 10
7.132412090120262
 20
0.375845374440047
 10
7.165757503400255
 20
0.3547017469200741
 10
7.199193754440284
 20
0.3338558997999883
 10
7.232670119800288
 20
0.3133653010800628
 10
7.266135951960177
 20
0.2932853557200872
 10
7.299606167560275
 20
0.2736310209200667
  0
LINE
  5
E7A
330
1F
100
AcDbEntity
  8
1
100
AcDbLine
 10
7.299611354120271
 20
0.2736277694800777
 30
0.0
 11
7.350122607800271
 21
0.2427782677200695
 31
0.0
  0
LWPOLYLINE
  5
E7B
330
1F
100
AcDbEntity
  8
1
100
AcDbPolyline
 90
       17
 70
     0
 43
0.0
 10
8.087157254600199
 20
-0.2853226325999401
 10
8.061428097080286
 20
-0.2701624578800136
 10
8.049505067880275
 20
-0.2632959193199384
 10
8.037461791160289
 20
-0.2566648528399526
 10
8.02546553756029
 20
-0.2503108590799399
 10
8.013505344200257
 20
-0.2442135801199526
 10
8.001601702520295
 20
-0.2383991799600096
 10
7.990020730600192
 20
-0.2329987441999435
 10
7.978010300680264
 20
-0.2276746658000035
 10
7.964520309480215
 20
-0.2219306662799169
 10
7.95084009596019
 20
-0.2164398798799937
 10
7.93783204428028
 20
-0.2116766709999354
 10
7.925534767960199
 20
-0.2076373096399436
 10
7.914116903720289
 20
-0.2044838393199313
 10
7.903995568120193
 20
-0.2021624090799321
 10
7.895703428840196
 20
-0.2006771018000052
 10
7.889015124520279
 20
-0.2000015034000113
  0
LINE
  5
E7C
330
1F
100
AcDbEntity
  8
1
100
AcDbLine
 10
7.561172728840213
 20
-0.3039926570799195
 30
0.0
 11
7.509286157960195
 21
-0.3248622741199542
 31
0.0
  0
LWPOLYLINE
  5
E7D
330
1F
100
AcDbEntity
  8
1
100
AcDbPolyline
 90
        3
 70
     0
 43
0.0
 10
7.65925416396019
 20
-0.2632970785200031
 10
7.611067899080219
 20
-0.283481557879935
 10
7.561172728840213
 20
-0.3039926570799195
  0
LWPOLYLINE
  5
E7E
330
1F
100
AcDbEntity
  8
1
100
AcDbPolyline
 90
        7
 70
     0
 43
0.0
 10
9.151158574440186
 20
-0.9762141473200172
 10
9.099926718680178
 20
-0.9567171615599979
 10
9.046748671480171
 20
-0.9334406329999108
 10
8.992447944680172
 20
-0.9065291284399259
 10
8.937188121880268
 20
-0.8762782529999109
 10
8.881012304920261
 20
-0.8429775270799309
 10
8.824446031960166
 20
-0.8067630613999348
  0
LWPOLYLINE
  5
E7F
330
1F
100
AcDbEntity
  8
1
100
AcDbPolyline
 90
        5
 70
     0
 43
0.0
 10
7.889015124520279
 20
-0.2000015034000113
 10
7.84386941756029
 20
-0.2018892682799276
 10
7.798599101080281
 20
-0.2099868800399405
 10
7.752720134360289
 20
-0.2252044119599247
 10
7.65925416396019
 20
-0.2632970785200031
  0
LWPOLYLINE
  5
E80
330
1F
100
AcDbEntity
  8
1
100
AcDbPolyline
 90
        5
 70
     0
 43
0.0
 10
7.620983289480275
 20
0.3404876495600605
 10
7.588762514840277
 20
0.3374861266000665
 10
7.556041689560286
 20
0.3327179053999829
 10
7.5226233032402
 20
0.3266535433200774
 10
7.488522781320197
 20
0.3193688787600707
  0
LWPOLYLINE
  5
E81
330
1F
100
AcDbEntity
  8
1
100
AcDbPolyline
 90
        4
 70
     0
 43
0.0
 10
7.488522781320197
 20
0.3193688787600707
 10
7.416908066920202
 20
0.3028894403600645
 10
7.379125143000194
 20
0.2938954930799866
 10
7.340026218360278
 20
0.2841180701200812
  0
LINE
  5
E82
330
1F
100
AcDbEntity
  8
1
100
AcDbLine
 10
7.340026218360278
 20
0.2841180701200812
 30
0.0
 11
7.299624699720287
 21
0.2735981424400564
 31
0.0
  0
LINE
  5
E85
330
1F
100
AcDbEntity
  8
1
100
AcDbLine
 10
9.999995226120262
 20
0.0630166414800499
 30
0.0
 11
9.842857044936645
 21
0.5071429550633546
 31
0.0
  0
LINE
  5
E86
330
1F
100
AcDbEntity
  8
1
100
AcDbLine
 10
9.983845161320179
 20
0.02011636595999
 30
0.0
 11
10.00000004452026
 21
0.0630147121200537
 31
0.0
  0
LINE
  5
E88
330
1F
100
AcDbEntity
  8
1
100
AcDbLine
 10
10.00000004452026
 20
0.0630147121200537
 30
0.0
 11
9.999999955480179
 21
-0.0630147121200196
 31
0.0
  0
LINE
  5
E89
330
1F
100
AcDbEntity
  8
1
100
AcDbLine
 10
9.916236605560284
 20
-0.115304087320004
 30
0.0
 11
9.932545582040244
 21
-0.0879984342799332
 31
0.0
  0
LINE
  5
E8A
330
1F
100
AcDbEntity
  8
1
100
AcDbLine
 10
9.932545582040244
 20
-0.0879984342799332
 30
0.0
 11
9.950022699720186
 21
-0.0553091192400132
 31
0.0
  0
LWPOLYLINE
  5
E8B
330
1F
100
AcDbEntity
  8
1
100
AcDbPolyline
 90
        7
 70
     0
 43
0.0
 10
9.717980030680262
 20
-0.4427400805999186
 10
9.704063443640274
 20
-0.4703384673199423
 10
9.690293592520262
 20
-0.4972967936399245
 10
9.676666216440262
 20
-0.5236243406800157
 10
9.663194097720273
 20
-0.5492932649199417
 10
9.649890018680187
 20
-0.5742757225199454
 10
9.636749718520276
 20
-0.5985809947599537
  0
LINE
  5
E8C
330
1F
100
AcDbEntity
  8
1
100
AcDbLine
 10
9.950022699720186
 20
-0.0553091192400132
 30
0.0
 11
9.967217789880276
 21
-0.019351940439941
 31
0.0
  0
LINE
  5
E8D
330
1F
100
AcDbEntity
  8
1
100
AcDbLine
 10
9.967217789880276
 20
-0.019351940439941
 30
0.0
 11
9.983845161320179
 21
0.02011636595999
 31
0.0
  0
LINE
  5
E8E
330
1F
100
AcDbEntity
  8
1
100
AcDbLine
 10
9.71796238156026
 20
-0.4427415608399258
 30
0.0
 11
9.916236605560284
 21
-0.115304087320004
 31
0.0
  0
LWPOLYLINE
  5
E8F
330
1F
100
AcDbEntity
  8
1
100
AcDbPolyline
 90
        9
 70
     0
 43
0.0
 10
9.473634713960262
 20
-0.7160015660399436
 10
9.534090605960175
 20
-0.6736447931600138
 10
9.547983068120254
 20
-0.6638352465200056
 10
9.562160477480246
 20
-0.6536956429199961
 10
9.576599851960278
 20
-0.6432464169999264
 10
9.591279169000287
 20
-0.6325059595599385
 10
9.606203003240196
 20
-0.6214737207600082
 10
9.62136806004027
 20
-0.6101560934799353
 10
9.636775747320172
 20
-0.5985507518000249
  0
LWPOLYLINE
  5
E90
330
1F
100
AcDbEntity
  8
1
100
AcDbPolyline
 90
        7
 70
     0
 43
0.0
 10
9.520380846760183
 20
-0.6831953097999245
 10
9.485550319400166
 20
-0.6699757613999223
 10
9.450818960120273
 20
-0.6557329589999368
 10
9.416164344920259
 20
-0.6404911426799968
 10
9.381474098280188
 20
-0.6241767757999188
 10
9.346637095080254
 20
-0.6067199551600142
 10
9.311629579720277
 20
-0.58815569132002
  0
LWPOLYLINE
  5
E95
330
1F
100
AcDbEntity
  8
1
100
AcDbPolyline
 90
        5
 70
     0
 43
0.0
 10
8.628057860640218
 20
1.660395296160031
 10
8.634050437320173
 20
1.633195587480081
 10
8.647938457400174
 20
1.580309481799989
 10
8.663729344200268
 20
1.528936687959985
 10
8.681423097720276
 20
1.479077205880053
  0
LWPOLYLINE
  5
E96
330
1F
100
AcDbEntity
  8
1
100
AcDbPolyline
 90
        7
 70
     0
 43
0.0
 10
8.68114544412019
 20
1.478991924519985
 10
8.723636575080206
 20
1.37972886523999
 10
8.775035088840269
 20
1.280220374600052
 10
8.836509524840188
 20
1.180483327879987
 10
8.904680196760175
 20
1.078829021079995
 10
8.976337761080269
 20
0.9737220069999972
 10
9.053134310360286
 20
0.8653224090000605
  0
LINE
  5
E9C
330
1F
100
AcDbEntity
  8
1
100
AcDbLine
 10
1.842253402240228
 20
4.215188204174951
 30
0.0
 11
1.714346578840284
 21
3.993630516600063
 31
0.0
  0
LINE
  5
EA8
330
1F
100
AcDbEntity
  8
1
100
AcDbLine
 10
1.842253402240228
 20
4.21518820417495
 30
0.0
 11
6.2
 21
4.15
 31
0.0
  0
TEXT
  5
EAF
330
1F
100
AcDbEntity
  8
6
100
AcDbText
 10
39.41349228665803
 20
-4.851159876397815
 30
0.0
 40
3.5
  1
Z=2
 50
90.0
100
AcDbText
  0
LWPOLYLINE
  5
FFC
330
1F
100
AcDbEntity
  8
CUT
100
AcDbPolyline
 90
        6
 70
     1
 43
0.0
 10
9.842857044936645
 20
0.5071429550633538
 10
6.2
 20
4.15
 10
2.49995292047372
 20
4.205349575535457
 10
2.499999999999136
 20
-0.0000015006800083
 10
9.999999999999127
 20
-0.0000015006800083
 10
10.00000004452026
 20
0.0630147121200537
  0
LWPOLYLINE
  5
10BE
330
1F
100
AcDbEntity
  8
NOCUT
100
AcDbPolyline
 90
        9
 70
     1
 43
0.0
 10
1.842253402240228
 20
4.215188204174951
 10
2.49995292047372
 20
4.205349575535457
 10
2.499999999999136
 20
-0.0000015006800083
 10
0.0000000000002274
 20
0.0000000000000853
 10
0.0000000000002274
 20
3.757116723360096
 10
1.398609910200276
 20
3.757086499320056
 42
0.1983121443529956
 10
1.53570735360911
 20
3.813688758290917
 42
0.1392037222590473
 10
1.714346578840284
 20
3.993630516600063
 10
1.842253402240229
 20
4.215188204174951
  0
LINE
  5
1404
330
1F
100
AcDbEntity
  8
1
100
AcDbLine
 10
6.2
 20
-4.150001500679922
 30
0.0
 11
9.842857044936645
 21
-0.5071444557432756
 31
0.0
  0
LINE
  5
1405
330
1F
100
AcDbEntity
  8
1
100
AcDbLine
 10
9.999995226120262
 20
-0.0630181421599729
 30
0.0
 11
9.842857044936645
 21
-0.5071444557432791
 31
0.0
  0
ARC
  5
1519
330
1F
100
AcDbEntity
  8
SK1
100
AcDbCircle
 10
-1.549775028390538
 20
2.733900193916708
 30
0.0
 40
0.0833322468333334
100
AcDbArc
 50
269.8583777893003
 51
357.1905352693999
  0
ARC
  5
151A
330
1F
100
AcDbEntity
  8
SK1
100
AcDbCircle
 10
-1.549775028390538
 20
-2.732765946583293
 30
0.0
 40
0.0833322468333334
100
AcDbArc
 50
5.567854640452541
 51
90.14162221069971
  0
LINE
  5
151B
330
1F
100
AcDbEntity
  8
1
100
AcDbLine
 10
-2.213229040584252
 20
0.0000000000000171
 30
0.0
 11
2.213229040584705
 21
0.0000000000000171
 31
0.0
  0
LINE
  5
151C
330
1F
100
AcDbEntity
  8
SK4
100
AcDbLine
 10
0.0000000000003133
 20
0.0000000000000171
 30
0.0
 11
-7.97071330354646
 21
-0.0000000000000149
 31
0.0
  0
HATCH
  5
151D
330
1F
100
AcDbEntity
  8
1
100
AcDbHatch
 10
0.0
 20
0.0
 30
0.0
210
0.0
220
0.0
230
1.0
  2
SOLID
 70
     1
 71
     0
 91
        2
 92
        7
 72
     1
 73
     1
 93
        3
 10
0.0000000000001139
 20
0.0
 42
0.0
 10
2.213229040584591
 20
0.0
 42
0.4142135623730966
 10
0.0000000000001139
 20
2.213229040584458
 42
0.0
 97
        0
 92
        7
 72
     1
 73
     1
 93
        3
 10
0.0000000000001139
 20
-2.213229040584419
 42
0.0
 10
0.0000000000001139
 20
0.0
 42
0.0
 10
-2.213229040584365
 20
0.0
 42
0.4142135623730953
 97
        0
 75
     0
 76
     1
 47
0.1190009775223266
 98
        2
 10
0.5584147941091262
 20
0.6909183550323591
 10
-0.9595984513895242
 20
-1.272597692284758
  0
CIRCLE
  5
151E
330
1F
100
AcDbEntity
  8
1
100
AcDbCircle
 10
0.0000000000003129
 20
0.0000000000000171
 30
0.0
 40
2.213229040584451
  0
LINE
  5
151F
330
1F
100
AcDbEntity
  8
SK1
100
AcDbLine
 10
-4.267999976390521
 20
0.685770720583345
 30
0.0
 11
-4.182470717057188
 21
-0.4602194408333142
 31
0.0
  0
LWPOLYLINE
  5
1520
330
1F
100
AcDbEntity
  8
SK1
100
AcDbPolyline
 90
        3
 70
     0
 43
0.0
 10
-4.601572226557189
 20
-0.6857849756666539
 10
-4.67023303972386
 20
0.2309957075000171
 10
-4.721576063057186
 20
0.906430202833355
  0
LWPOLYLINE
  5
1521
330
1F
100
AcDbEntity
  8
SK1
100
AcDbPolyline
 90
        3
 70
     0
 43
0.0
 10
-3.368408519223866
 20
-0.6852178519999697
 10
-3.437069332390537
 20
0.2315628311666942
 10
-3.488412355723866
 20
0.9069973265000392
  0
LINE
  5
1522
330
1F
100
AcDbEntity
  8
SK1
100
AcDbLine
 10
-5.869708011390526
 20
-0.230924707666653
 30
0.0
 11
-5.937873791973857
 21
0.6858926455833469
 31
0.0
  0
LINE
  5
1523
330
1F
100
AcDbEntity
  8
SK1
100
AcDbLine
 10
-5.518653389807195
 20
0.9062632705000297
 30
0.0
 11
-5.484304867890513
 21
0.4600633372500156
 31
0.0
  0
LINE
  5
1524
330
1F
100
AcDbEntity
  8
SK1
100
AcDbLine
 10
-2.220846279890539
 20
0.460779477000034
 30
0.0
 11
-2.255282558557198
 21
0.9069900450000176
 31
0.0
  0
LINE
  5
1525
330
1F
100
AcDbEntity
  8
SK1
100
AcDbLine
 10
-3.034836269057199
 20
0.6863378442500292
 30
0.0
 11
-2.949307009723866
 21
-0.45965231716663
 31
0.0
  0
LINE
  5
1526
330
1F
100
AcDbEntity
  8
SK1
100
AcDbLine
 10
-6.36470068955719
 20
-0.5510267405833007
 30
0.0
 11
-6.472299427723851
 21
0.6976248743333564
 31
0.0
  0
LINE
  5
1527
330
1F
100
AcDbEntity
  8
SK1
100
AcDbLine
 10
-7.100000544223849
 20
2.207818856000015
 30
0.0
 11
-7.09999965114053
 21
-1.415258401583323
 31
0.0
  0
LINE
  5
1528
330
1F
100
AcDbEntity
  8
SK1
100
AcDbLine
 10
-4.879474406640532
 20
-2.308486750999971
 30
0.0
 11
-4.608507595223856
 21
-2.308259684583301
 31
0.0
  0
LWPOLYLINE
  5
1529
330
1F
100
AcDbEntity
  8
SK1
100
AcDbPolyline
 90
        8
 70
     0
 43
0.0
 10
-5.122781680390516
 20
-2.640424218749974
 10
-5.111936349557191
 20
-2.632154099166641
 10
-5.101812834473863
 20
-2.622862383916634
 10
-5.091304479223853
 20
-2.61133002224997
 10
-5.07975947780719
 20
-2.595958582333302
 10
-5.067233837557183
 20
-2.575199322499962
 10
-5.053142495973851
 20
-2.545198931249981
 10
-5.037706935223846
 20
-2.502154074666646
  0
LINE
  5
152A
330
1F
100
AcDbEntity
  8
SK1
100
AcDbLine
 10
-4.969637060390513
 20
-2.339196985916644
 30
0.0
 11
-4.95184367755718
 21
-2.327439149583292
 31
0.0
  0
LINE
  5
152B
330
1F
100
AcDbEntity
  8
SK1
100
AcDbLine
 10
-5.133633008890516
 20
-2.647398780749989
 30
0.0
 11
-5.122781680390516
 21
-2.640424218749982
 31
0.0
  0
LWPOLYLINE
  5
152C
330
1F
100
AcDbEntity
  8
SK1
100
AcDbPolyline
 90
        4
 70
     0
 43
0.0
 10
-4.95184367755718
 20
-2.327439149583303
 10
-4.928305346057191
 20
-2.316913051416642
 10
-4.901707719223851
 20
-2.310275684583303
 10
-4.879651060057191
 20
-2.308535644166643
  0
LINE
  5
152D
330
1F
100
AcDbEntity
  8
SK1
100
AcDbLine
 10
-5.142275713057184
 20
-2.650000887583325
 30
0.0
 11
-5.133603544973851
 21
-2.647442988583304
 31
0.0
  0
LINE
  5
152E
330
1F
100
AcDbEntity
  8
SK1
100
AcDbLine
 10
-5.03764181705719
 20
-2.501977570333324
 30
0.0
 11
-4.994679496223863
 21
-2.365549111499974
 31
0.0
  0
LINE
  5
152F
330
1F
100
AcDbEntity
  8
SK1
100
AcDbLine
 10
-5.133603544973851
 20
-2.647442988583304
 30
0.0
 11
-5.125046386223861
 21
-2.639912387333304
 31
0.0
  0
LWPOLYLINE
  5
1530
330
1F
100
AcDbEntity
  8
SK1
100
AcDbPolyline
 90
        4
 70
     0
 43
0.0
 10
-4.994679496222381
 20
-2.365549111495274
 10
-4.990605242140515
 20
-2.359882380499982
 10
-4.982485742307181
 20
-2.350660025249982
 10
-4.969637060390513
 20
-2.339196985916644
  0
LWPOLYLINE
  5
1531
330
1F
100
AcDbEntity
  8
SK1
100
AcDbPolyline
 90
        4
 70
     0
 43
0.0
 10
-5.841646302973856
 20
-2.30830645091665
 10
-5.826187954057181
 20
-2.309159307416646
 10
-5.802339346140521
 20
-2.313594035916644
 10
-5.77983606572386
 20
-2.32170669549997
  0
LINE
  5
1532
330
1F
100
AcDbEntity
  8
SK1
100
AcDbLine
 10
-5.726611720141622
 20
-2.364914601220561
 30
0.0
 11
-5.683076313890524
 21
-2.502359726999983
 31
0.0
  0
LINE
  5
1533
330
1F
100
AcDbEntity
  8
SK1
100
AcDbLine
 10
-5.142275711057184
 20
-2.650000887583325
 30
0.0
 11
-5.578006495723853
 21
-2.650000887583325
 31
0.0
  0
LINE
  5
1534
330
1F
100
AcDbEntity
  8
SK1
100
AcDbLine
 10
-5.578006493807188
 20
-2.650000887583325
 30
0.0
 11
-5.586315563807187
 21
-2.647645214833314
 31
0.0
  0
LWPOLYLINE
  5
1535
330
1F
100
AcDbEntity
  8
SK1
100
AcDbPolyline
 90
        5
 70
     0
 43
0.0
 10
-5.77983606572386
 20
-2.32170669549997
 10
-5.761328929807184
 20
-2.33181377949997
 10
-5.746765787640518
 20
-2.34265588683331
 10
-5.736527196223859
 20
-2.352451665583303
 10
-5.729742082057188
 20
-2.360457501916642
  0
LWPOLYLINE
  5
1536
330
1F
100
AcDbEntity
  8
SK1
100
AcDbPolyline
 90
        9
 70
     0
 43
0.0
 10
-5.682982817890509
 20
-2.502643139083311
 10
-5.675617806390521
 20
-2.524510494083306
 10
-5.668016795473865
 20
-2.544287038083311
 10
-5.659681731390524
 20
-2.563011631666643
 10
-5.650212068973853
 20
-2.581011035166633
 10
-5.638801636640521
 20
-2.598895543083301
 10
-5.624304372223853
 20
-2.616948814416627
 10
-5.605626426890516
 20
-2.634483079833312
 10
-5.586321716723857
 20
-2.647645234083324
  0
LINE
  5
1537
330
1F
100
AcDbEntity
  8
SK1
100
AcDbLine
 10
-5.729742082057188
 20
-2.360457501916653
 30
0.0
 11
-5.726596135557191
 21
-2.36493679099998
 31
0.0
  0
LINE
  5
1538
330
1F
100
AcDbEntity
  8
SK1
100
AcDbLine
 10
-5.835499975057191
 20
-0.6858143145833119
 30
0.0
 11
-5.869708011390526
 21
-0.230924707666653
 31
0.0
  0
LINE
  5
1539
330
1F
100
AcDbEntity
  8
SK1
100
AcDbLine
 10
-5.801092904057177
 20
-1.119880157583309
 30
0.0
 11
-5.835499975057191
 21
-0.6858143145833119
 31
0.0
  0
LWPOLYLINE
  5
153A
330
1F
100
AcDbEntity
  8
SK1
100
AcDbPolyline
 90
        5
 70
     0
 43
0.0
 10
-5.586315563807187
 20
-2.647645214833322
 10
-5.595219395057188
 20
-2.639916118666643
 10
-5.612445150807183
 20
-2.609739673333312
 10
-5.629647294973852
 20
-2.559696278166645
 10
-5.646804348390507
 20
-2.49016984424997
  0
LINE
  5
153B
330
1F
100
AcDbEntity
  8
SK1
100
AcDbLine
 10
-5.484304867890513
 20
0.4600633372500156
 30
0.0
 11
-5.415947498557184
 21
-0.4602050955833022
 31
0.0
  0
LINE
  5
153C
330
1F
100
AcDbEntity
  8
SK1
100
AcDbLine
 10
-5.415947498557184
 20
-0.4602050955833022
 30
0.0
 11
-5.381708899223848
 21
-0.9064086814166508
 31
0.0
  0
LINE
  5
153D
330
1F
100
AcDbEntity
  8
SK1
100
AcDbLine
 10
-5.381708899223848
 20
-0.9064086814166508
 30
0.0
 11
-5.347342329973856
 21
-1.325029721666653
 31
0.0
  0
LWPOLYLINE
  5
153E
330
1F
100
AcDbEntity
  8
SK1
100
AcDbPolyline
 90
       13
 70
     0
 43
0.0
 10
-5.347342329973856
 20
-1.325029721666653
 10
-5.330248931223851
 20
-1.520020219083306
 10
-5.313202377473856
 20
-1.703438466666644
 10
-5.296200046057191
 20
-1.873863491583311
 10
-5.279210568307193
 20
-2.030030276249974
 10
-5.262203556890517
 20
-2.170773020249981
 10
-5.245173445057186
 20
-2.294993746583309
 10
-5.228101795723849
 20
-2.401731796916628
 10
-5.210996832473851
 20
-2.490193343833309
 10
-5.193860305890526
 20
-2.559712634666646
 10
-5.176693197973856
 20
-2.609749746499971
 10
-5.159492144390514
 20
-2.639921259666643
 10
-5.142275713057184
 20
-2.65000088758331
  0
LWPOLYLINE
  5
153F
330
1F
100
AcDbEntity
  8
SK1
100
AcDbPolyline
 90
        9
 70
     0
 43
0.0
 10
-5.663856118557182
 20
-2.401702619583311
 10
-5.680881558223848
 20
-2.294959322583303
 10
-5.697939229723846
 20
-2.17073225091665
 10
-5.715030111557195
 20
-2.029981836333309
 10
-5.732181145640518
 20
-1.873804891833312
 10
-5.749373004807185
 20
-1.703368072999981
 10
-5.766602656890521
 20
-1.519936305999963
 10
-5.78384815905719
 20
-1.32493406683331
 10
-5.801092904057177
 20
-1.119880157583309
  0
LINE
  5
1540
330
1F
100
AcDbEntity
  8
SK1
100
AcDbLine
 10
-5.646804348390507
 20
-2.490169844249965
 30
0.0
 11
-5.663856118557182
 21
-2.401702619583311
 31
0.0
  0
LINE
  5
1541
330
1F
100
AcDbEntity
  8
SK1
100
AcDbLine
 10
-7.09999965114053
 20
-2.308487165916646
 30
0.0
 11
-7.075210284807186
 21
-2.308475025583303
 31
0.0
  0
LINE
  5
1542
330
1F
100
AcDbEntity
  8
SK1
100
AcDbLine
 10
-7.099042854973859
 20
-1.74290208624998
 30
0.0
 11
-7.09999965114053
 21
-2.120373624833313
 31
0.0
  0
LINE
  5
1543
330
1F
100
AcDbEntity
  8
SK1
100
AcDbLine
 10
-7.099227156557192
 20
-1.506971451833311
 30
0.0
 11
-7.099042854973859
 21
-1.74290208624998
 31
0.0
  0
LINE
  5
1544
330
1F
100
AcDbEntity
  8
SK1
100
AcDbLine
 10
-7.09999965114053
 20
-2.308538027333312
 30
0.0
 11
-7.09999965114053
 21
-2.120373624833313
 31
0.0
  0
LINE
  5
1545
330
1F
100
AcDbEntity
  8
SK1
100
AcDbLine
 10
-7.099996070057188
 20
-1.394877051916644
 30
0.0
 11
-7.099227156557192
 21
-1.506971451833311
 31
0.0
  0
LWPOLYLINE
  5
1546
330
1F
100
AcDbEntity
  8
SK1
100
AcDbPolyline
 90
        3
 70
     0
 43
0.0
 10
-6.227788850461437
 20
-2.364929011460554
 10
-6.222412751473856
 20
-2.357714407916631
 10
-6.211497045890519
 20
-2.346223200916651
  0
LINE
  5
1547
330
1F
100
AcDbEntity
  8
SK1
100
AcDbLine
 10
-6.923248719223852
 20
-2.479249491333306
 30
0.0
 11
-6.908884840723861
 21
-2.524726361999984
 31
0.0
  0
LWPOLYLINE
  5
1548
330
1F
100
AcDbEntity
  8
SK1
100
AcDbPolyline
 90
        7
 70
     0
 43
0.0
 10
-6.861185466723858
 20
-2.566616160666651
 10
-6.786643693140526
 20
-2.558128965166642
 10
-6.713796972473859
 20
-2.549283950583301
 10
-6.642670052390527
 20
-2.540091669666647
 10
-6.573188689723854
 20
-2.530550240249983
 10
-6.505278641223855
 20
-2.520656223999975
 10
-6.438964654723851
 20
-2.510418613666645
  0
LWPOLYLINE
  5
1549
330
1F
100
AcDbEntity
  8
SK1
100
AcDbPolyline
 90
        3
 70
     0
 43
0.0
 10
-6.375198634640519
 20
-2.650000481916642
 10
-6.371500331807181
 20
-2.649527113833305
 10
-6.366797873223857
 20
-2.64756202133331
  0
LWPOLYLINE
  5
154A
330
1F
100
AcDbEntity
  8
SK1
100
AcDbPolyline
 90
       34
 70
     0
 43
0.0
 10
-6.354933726140522
 20
-2.639841819166634
 10
-6.353056151557187
 20
-2.638467678833305
 10
-6.351159189973865
 20
-2.637034657999969
 10
-6.349230977223852
 20
-2.635530689249969
 10
-6.347265261223851
 20
-2.633946861666643
 10
-6.345264718473857
 20
-2.632280839749982
 10
-6.343229552723846
 20
-2.630528064333311
 10
-6.341161402223852
 20
-2.628684918333303
 10
-6.339062507307199
 20
-2.62674813424999
 10
-6.336931449557187
 20
-2.624710731666631
 10
-6.334761980723857
 20
-2.62256016499997
 10
-6.332571417973853
 20
-2.620307066833313
 10
-6.330387105973859
 20
-2.617975077166648
 10
-6.328169129473858
 20
-2.61551592349997
 10
-6.325914969307183
 20
-2.612917939166643
 10
-6.323547827973851
 20
-2.610077481249974
 10
-6.320961857723852
 20
-2.60683684849998
 10
-6.318265793723852
 20
-2.603297516416632
 10
-6.315526115973852
 20
-2.599523606583304
 10
-6.312741198807191
 20
-2.595493566416642
 10
-6.309928504390519
 20
-2.591213061249974
 10
-6.307087278390519
 20
-2.586661300416643
 10
-6.304217919890526
 20
-2.581817387833305
 10
-6.301327498640517
 20
-2.576670863749981
 10
-6.298420258640526
 20
-2.571206496666643
 10
-6.295494420140514
 20
-2.565396808416648
 10
-6.292549204640516
 20
-2.559214968583304
 10
-6.289578774223855
 20
-2.552621839083326
 10
-6.286577772223851
 20
-2.545576289999971
 10
-6.283540959223861
 20
-2.538034499166641
 10
-6.280462998807184
 20
-2.529949365499988
 10
-6.277337676723862
 20
-2.521268087749991
 10
-6.274158727807184
 20
-2.511933785083305
 10
-6.270989767223854
 20
-2.502108018833308
  0
LINE
  5
154B
330
1F
100
AcDbEntity
  8
SK1
100
AcDbLine
 10
-6.375190327890519
 20
-2.650000481916642
 30
0.0
 11
-6.811639230557191
 21
-2.650000481916642
 31
0.0
  0
LINE
  5
154C
330
1F
100
AcDbEntity
  8
SK1
100
AcDbLine
 10
-6.211497045890519
 20
-2.346223200916651
 30
0.0
 11
-6.194768344557186
 21
-2.33310323366663
 31
0.0
  0
LINE
  5
154D
330
1F
100
AcDbEntity
  8
SK1
100
AcDbLine
 10
-6.811640285473855
 20
-2.650000481916642
 30
0.0
 11
-6.820051985890516
 21
-2.647589789083323
 31
0.0
  0
LWPOLYLINE
  5
154E
330
1F
100
AcDbEntity
  8
SK1
100
AcDbPolyline
 90
        4
 70
     0
 43
0.0
 10
-6.820051985890516
 20
-2.647589789083323
 10
-6.828569286557191
 20
-2.640236415416651
 10
-6.84488324680719
 20
-2.612381268166654
 10
-6.861185466723858
 20
-2.566616160666651
  0
LWPOLYLINE
  5
154F
330
1F
100
AcDbEntity
  8
SK1
100
AcDbPolyline
 90
        3
 70
     0
 43
0.0
 10
-6.861158246390518
 20
-2.566673213499971
 10
-6.874942604223855
 20
-2.556390416333305
 10
-6.887594797140518
 20
-2.544083398583314
  0
LINE
  5
1550
330
1F
100
AcDbEntity
  8
SK1
100
AcDbLine
 10
-6.275046602557177
 20
-1.564274386083311
 30
0.0
 11
-6.295097921307176
 21
-1.663948432999965
 31
0.0
  0
LWPOLYLINE
  5
1551
330
1F
100
AcDbEntity
  8
SK1
100
AcDbPolyline
 90
        7
 70
     0
 43
0.0
 10
-6.393693893473863
 20
-2.394031891333306
 10
-6.396892209890527
 20
-2.417175925499982
 10
-6.401930569557187
 20
-2.439035492749973
 10
-6.408714084140521
 20
-2.459429486583311
 10
-6.417220307223852
 20
-2.47822496683332
 10
-6.427414907640522
 20
-2.495301144833312
 10
-6.439042357557184
 20
-2.510475638249971
  0
LINE
  5
1552
330
1F
100
AcDbEntity
  8
SK1
100
AcDbLine
 10
-6.272447129473861
 20
-1.506682174666644
 30
0.0
 11
-6.275015788557197
 21
-1.564662697583304
 31
0.0
  0
LWPOLYLINE
  5
1553
330
1F
100
AcDbEntity
  8
SK1
100
AcDbPolyline
 90
        7
 70
     0
 43
0.0
 10
-6.373899693057189
 20
-2.110694524833313
 10
-6.375960215557189
 20
-2.157318376666633
 10
-6.378527094890527
 20
-2.204268961916654
 10
-6.381610843057179
 20
-2.251703808499982
 10
-6.385179861557202
 20
-2.29928611324997
 10
-6.389202556390523
 20
-2.346694305666653
 10
-6.393689448640516
 20
-2.394095138583304
  0
LINE
  5
1554
330
1F
100
AcDbEntity
  8
SK1
100
AcDbLine
 10
-6.328819494223846
 20
-0.9494279931666518
 30
0.0
 11
-6.36470068955719
 21
-0.5510267405833007
 31
0.0
  0
LWPOLYLINE
  5
1555
330
1F
100
AcDbEntity
  8
SK1
100
AcDbPolyline
 90
        4
 70
     0
 43
0.0
 10
-6.274991317807197
 20
-1.483741666666653
 10
-6.292926228473849
 20
-1.316284823249969
 10
-6.310871646557187
 20
-1.137628666833311
 10
-6.328819494223846
 20
-0.9494279931666518
  0
LWPOLYLINE
  5
1556
330
1F
100
AcDbEntity
  8
SK1
100
AcDbPolyline
 90
        5
 70
     0
 43
0.0
 10
-6.438964654723851
 20
-2.510418613666645
 10
-6.422047622723851
 20
-2.57419014199997
 10
-6.405164558307181
 20
-2.618825743583311
 10
-6.388336947473852
 20
-2.64399841091663
 10
-6.375198634640519
 20
-2.650000481916642
  0
LWPOLYLINE
  5
1557
330
1F
100
AcDbEntity
  8
SK1
100
AcDbPolyline
 90
        4
 70
     0
 43
0.0
 10
-6.887594797140518
 20
-2.544083398583314
 10
-6.898980304723847
 20
-2.529890448416645
 10
-6.908774633307182
 20
-2.514126269749973
 10
-6.916838370307193
 20
-2.497135855333312
  0
LINE
  5
1558
330
1F
100
AcDbEntity
  8
SK1
100
AcDbLine
 10
-6.92327830372386
 20
-2.479047088083301
 30
0.0
 11
-6.954964341390532
 21
-2.375073948249962
 31
0.0
  0
LINE
  5
1559
330
1F
100
AcDbEntity
  8
SK1
100
AcDbLine
 10
-6.916838370307193
 20
-2.497135855333312
 30
0.0
 11
-6.923248719223852
 21
-2.479249491333306
 31
0.0
  0
LWPOLYLINE
  5
155A
330
1F
100
AcDbEntity
  8
SK1
100
AcDbPolyline
 90
        4
 70
     0
 43
0.0
 10
-6.908884840723861
 20
-2.524726361999984
 10
-6.901221929557193
 20
-2.544647604166641
 10
-6.892837351807192
 20
-2.563479055499982
 10
-6.88345410589053
 20
-2.581328821583309
  0
LWPOLYLINE
  5
155B
330
1F
100
AcDbEntity
  8
SK1
100
AcDbPolyline
 90
        5
 70
     0
 43
0.0
 10
-6.88345410589053
 20
-2.581328821583309
 10
-6.872177839640525
 20
-2.599013871666643
 10
-6.857691262973847
 20
-2.617049109833313
 10
-6.838973223307196
 20
-2.634633824083306
 10
-6.820030960307179
 20
-2.647589722333312
  0
LWPOLYLINE
  5
155C
330
1F
100
AcDbEntity
  8
SK1
100
AcDbPolyline
 90
        4
 70
     0
 43
0.0
 10
-6.366836800057182
 20
-2.647561897833309
 10
-6.367240978807195
 20
-2.647382811499974
 10
-6.366636416723848
 20
-2.647494326833299
 10
-6.366259836890517
 20
-2.647259162749982
  0
LINE
  5
155D
330
1F
100
AcDbEntity
  8
SK1
100
AcDbLine
 10
-6.270966220890519
 20
-2.5020485468333
 30
0.0
 11
-6.227788850473849
 21
-2.364929011499964
 31
0.0
  0
LWPOLYLINE
  5
155E
330
1F
100
AcDbEntity
  8
SK1
100
AcDbPolyline
 90
        5
 70
     0
 43
0.0
 10
-6.295097921307176
 20
-1.66394843299997
 10
-6.336627229640514
 20
-1.849904175499969
 10
-6.354418639140519
 20
-1.938879566166651
 10
-6.367331821473846
 20
-2.025816388083311
 10
-6.373900660140526
 20
-2.110636238999973
  0
LINE
  5
155F
330
1F
100
AcDbEntity
  8
SK1
100
AcDbLine
 10
-6.272448055223861
 20
-1.506623524083305
 30
0.0
 11
-6.274991317807197
 21
-1.483741666666653
 31
0.0
  0
LWPOLYLINE
  5
1560
330
1F
100
AcDbEntity
  8
SK1
100
AcDbPolyline
 90
        4
 70
     0
 43
0.0
 10
-6.194768344557186
 20
-2.33310323366663
 10
-6.17092766989053
 20
-2.320311566249962
 10
-6.142454467723862
 20
-2.311534257916634
 10
-6.113025148807195
 20
-2.308554083499982
  0
LWPOLYLINE
  5
1561
330
1F
100
AcDbEntity
  8
SK1
100
AcDbPolyline
 90
       10
 70
     0
 43
0.0
 10
-6.36573763430719
 20
-2.646948086666643
 10
-6.365176724890512
 20
-2.646610925416631
 10
-6.364522264140526
 20
-2.646213402666643
 10
-6.363789253807195
 20
-2.645762861166649
 10
-6.36288437505719
 20
-2.645198632666653
 10
-6.361709923307197
 20
-2.64445271516664
 10
-6.360298720973849
 20
-2.643535994083305
 10
-6.358606358723865
 20
-2.642406877166643
 10
-6.356774030973857
 20
-2.64114709549997
 10
-6.354933726140522
 20
-2.639841819166634
  0
LWPOLYLINE
  5
1562
330
1F
100
AcDbEntity
  8
SK1
100
AcDbPolyline
 90
       37
 70
     0
 43
0.0
 10
-7.075111944140528
 20
-2.308475272999984
 10
-7.073572130140523
 20
-2.308326326999971
 10
-7.068780211307184
 20
-2.308433149916648
 10
-7.064277526640527
 20
-2.308668557333303
 10
-7.059796585807196
 20
-2.309049843416631
 10
-7.054971768557185
 20
-2.309624787499982
 10
-7.050015579140517
 20
-2.31038397749997
 10
-7.044993563473861
 20
-2.311323211416631
 10
-7.039980647223853
 20
-2.312435507166648
 10
-7.035078693807184
 20
-2.313697834499969
 10
-7.030262171223863
 20
-2.315113045166651
 10
-7.025538816890522
 20
-2.31667668099998
 10
-7.020909414640519
 20
-2.318384847999968
 10
-7.016366576807191
 20
-2.320236427083312
 10
-7.011941393807187
 20
-2.322214235083309
 10
-7.007654077473863
 20
-2.324302376916644
 10
-7.003523061807184
 20
-2.326483239083323
 10
-6.999566145390521
 20
-2.328736984916648
 10
-6.995797023640522
 20
-2.331043672999983
 10
-6.992231935307176
 20
-2.33337941974997
 10
-6.988871930723861
 20
-2.335728418166653
 10
-6.98572554272386
 20
-2.338068659416627
 10
-6.982779419890533
 20
-2.340393162749982
 10
-6.980022020057186
 20
-2.342694959833324
 10
-6.977454918723855
 20
-2.344956990999982
 10
-6.97507652105719
 20
-2.347164507083314
 10
-6.972882101140526
 20
-2.349305703833306
 10
-6.97086808589051
 20
-2.351367929833312
 10
-6.969027852223856
 20
-2.353341984583303
 10
-6.967356035973843
 20
-2.355217900166651
 10
-6.965844895307188
 20
-2.356988975416641
 10
-6.964487836890519
 20
-2.35864797383331
 10
-6.963276658390519
 20
-2.360190429583312
 10
-6.962205311890518
 20
-2.36160999508331
 10
-6.961262078973846
 20
-2.36290889466665
 10
-6.960436919473853
 20
-2.364088643166653
 10
-6.954964341390532
 20
-2.375073948249962
  0
LINE
  5
1563
330
1F
100
AcDbEntity
  8
SK1
100
AcDbLine
 10
-6.112932908890511
 20
-2.30855614524999
 30
0.0
 11
-5.841341423934532
 21
-2.308323271475682
 31
0.0
  0
LINE
  5
1564
330
1F
100
AcDbEntity
  8
SK1
100
AcDbLine
 10
-3.899375415557194
 20
-2.647453555916631
 30
0.0
 11
-3.890853717140517
 21
-2.639908214166642
 31
0.0
  0
LINE
  5
1565
330
1F
100
AcDbEntity
  8
SK1
100
AcDbLine
 10
-3.886058974890513
 20
-2.638530303666648
 30
0.0
 11
-3.884951822973853
 21
-2.637696422416649
 31
0.0
  0
LINE
  5
1566
330
1F
100
AcDbEntity
  8
SK1
100
AcDbLine
 10
-3.887196889973858
 20
-2.639372126499981
 30
0.0
 11
-3.886058974890513
 21
-2.638530303666648
 31
0.0
  0
LINE
  5
1567
330
1F
100
AcDbEntity
  8
SK1
100
AcDbLine
 10
-3.888356375223859
 20
-2.640215032166647
 30
0.0
 11
-3.887196889973858
 21
-2.639372126499981
 31
0.0
  0
LINE
  5
1568
330
1F
100
AcDbEntity
  8
SK1
100
AcDbLine
 10
-3.889527865057176
 20
-2.641052230583313
 30
0.0
 11
-3.888356375223859
 21
-2.640215032166647
 31
0.0
  0
LWPOLYLINE
  5
1569
330
1F
100
AcDbEntity
  8
SK1
100
AcDbPolyline
 90
        3
 70
     0
 43
0.0
 10
-3.891258633140516
 20
-2.642263556666641
 10
-3.890686261723848
 20
-2.641866320666644
 10
-3.889527865057176
 20
-2.641052230583313
  0
LINE
  5
156A
330
1F
100
AcDbEntity
  8
SK1
100
AcDbLine
 10
-3.892330189390518
 20
-2.642998181333321
 30
0.0
 11
-3.891811418723856
 21
-2.64264403516664
 31
0.0
  0
LINE
  5
156B
330
1F
100
AcDbEntity
  8
SK1
100
AcDbLine
 10
-3.893276947307183
 20
-2.643636292166648
 30
0.0
 11
-3.892819889307201
 21
-2.643329634583313
 31
0.0
  0
LINE
  5
156C
330
1F
100
AcDbEntity
  8
SK1
100
AcDbLine
 10
-3.894133103557185
 20
-2.644203192916642
 30
0.0
 11
-3.893712182640514
 21
-2.643925741333306
 31
0.0
  0
LINE
  5
156D
330
1F
100
AcDbEntity
  8
SK1
100
AcDbLine
 10
-3.894949226640525
 20
-2.64473400891664
 30
0.0
 11
-3.89454357914052
 21
-2.644471353749963
 31
0.0
  0
LINE
  5
156E
330
1F
100
AcDbEntity
  8
SK1
100
AcDbLine
 10
-3.895751998140526
 20
-2.645246932499973
 30
0.0
 11
-3.895351162057196
 21
-2.64499195716665
 31
0.0
  0
LINE
  5
156F
330
1F
100
AcDbEntity
  8
SK1
100
AcDbLine
 10
-3.896554759390522
 20
-2.645750924166641
 30
0.0
 11
-3.896152722140511
 21
-2.645499609666643
 31
0.0
  0
LINE
  5
1570
330
1F
100
AcDbEntity
  8
SK1
100
AcDbLine
 10
-3.897367752307196
 20
-2.646252644916644
 30
0.0
 11
-3.896959265973857
 21
-2.646001619166643
 31
0.0
  0
LINE
  5
1571
330
1F
100
AcDbEntity
  8
SK1
100
AcDbLine
 10
-3.898200915807176
 20
-2.646758297833305
 30
0.0
 11
-3.897779906473861
 21
-2.646503823583312
 31
0.0
  0
LINE
  5
1572
330
1F
100
AcDbEntity
  8
SK1
100
AcDbLine
 10
-3.899005516890522
 20
-2.64723898833332
 30
0.0
 11
-3.898614908390524
 21
-2.647006532083314
 31
0.0
  0
LINE
  5
1573
330
1F
100
AcDbEntity
  8
SK1
100
AcDbLine
 10
-3.907987759473857
 20
-2.650000887583325
 30
0.0
 11
-3.899375415557194
 21
-2.647453555916631
 31
0.0
  0
LWPOLYLINE
  5
1574
330
1F
100
AcDbEntity
  8
SK1
100
AcDbPolyline
 90
       13
 70
     0
 43
0.0
 10
-4.113591700057179
 20
-1.32504758724998
 10
-4.096445835390515
 20
-1.520040053666651
 10
-4.079333347223852
 20
-1.703461563583303
 10
-4.062249721307177
 20
-1.873889050416643
 10
-4.045188017973845
 20
-2.030056611499973
 10
-4.028152178807191
 20
-2.170796698583323
 10
-4.011105045140521
 20
-2.295014312083304
 10
-3.994012204390526
 20
-2.401750553666648
 10
-3.976869360640522
 20
-2.490209847333312
 10
-3.959638520640518
 20
-2.559725925333304
 10
-3.942386364473856
 20
-2.609759013083313
 10
-3.92516600572385
 20
-2.639925922083304
 10
-3.907987759473856
 20
-2.65000088758331
  0
LINE
  5
1575
330
1F
100
AcDbEntity
  8
SK1
100
AcDbLine
 10
-4.148004040723861
 20
-0.9064355919999698
 30
0.0
 11
-4.113591700057179
 21
-1.325047587249972
 31
0.0
  0
LINE
  5
1576
330
1F
100
AcDbEntity
  8
SK1
100
AcDbLine
 10
-4.182470717057188
 20
-0.4602194408333142
 30
0.0
 11
-4.148004040723861
 21
-0.9064355919999698
 31
0.0
  0
LWPOLYLINE
  5
1577
330
1F
100
AcDbEntity
  8
SK1
100
AcDbPolyline
 90
        5
 70
     0
 43
0.0
 10
-4.35288571164052
 20
-2.64763897474997
 10
-4.36175752822386
 20
-2.639912648916631
 10
-4.378943784140526
 20
-2.60973237791665
 10
-4.396137077557183
 20
-2.559686052333312
 10
-4.413311518973856
 20
-2.490157189083308
  0
LINE
  5
1578
330
1F
100
AcDbEntity
  8
SK1
100
AcDbLine
 10
-4.494702889890521
 20
-2.362978427166648
 30
0.0
 11
-4.492924620307189
 21
-2.365676840166643
 31
0.0
  0
LWPOLYLINE
  5
1579
330
1F
100
AcDbEntity
  8
SK1
100
AcDbPolyline
 90
        9
 70
     0
 43
0.0
 10
-4.449486556307188
 20
-2.503083290833314
 10
-4.441629193973862
 20
-2.526251261249981
 10
-4.433657219390511
 20
-2.546677677833309
 10
-4.424892023057186
 20
-2.56591651016663
 10
-4.41485770922386
 20
-2.584383074833305
 10
-4.402832620223856
 20
-2.602449595166651
 10
-4.38766866297385
 20
-2.62036681058331
 10
-4.368755198807185
 20
-2.637120775999971
 10
-4.352795693307194
 20
-2.647638692499981
  0
LINE
  5
157A
330
1F
100
AcDbEntity
  8
SK1
100
AcDbLine
 10
-4.413311518973856
 20
-2.490157189083308
 30
0.0
 11
-4.430432991140518
 21
-2.401686332583309
 31
0.0
  0
LWPOLYLINE
  5
157B
330
1F
100
AcDbEntity
  8
SK1
100
AcDbPolyline
 90
        9
 70
     0
 43
0.0
 10
-4.430432991140518
 20
-2.401686332583309
 10
-4.447522357390523
 20
-2.294939001583323
 10
-4.464576133307181
 20
-2.170708810999979
 10
-4.481633245140518
 20
-2.029956020666642
 10
-4.498733521473849
 20
-1.873777116749985
 10
-4.515870771140527
 20
-1.703340208583323
 10
-4.533076864473846
 20
-1.519913977749973
 10
-4.550277445890515
 20
-1.324916999833303
 10
-4.567385496473855
 20
-1.119859238249969
  0
LWPOLYLINE
  5
157C
330
1F
100
AcDbEntity
  8
SK1
100
AcDbPolyline
 90
        4
 70
     0
 43
0.0
 10
-4.527679115140514
 20
-2.332201289416644
 10
-4.51195307505718
 20
-2.344129673916634
 10
-4.50108699339053
 20
-2.354979697333313
 10
-4.494702889890521
 20
-2.362978427166648
  0
LINE
  5
157D
330
1F
100
AcDbEntity
  8
SK1
100
AcDbLine
 10
-4.344578563807186
 20
-2.650000887583325
 30
0.0
 11
-4.35288571164052
 21
-2.64763897474997
 31
0.0
  0
LINE
  5
157E
330
1F
100
AcDbEntity
  8
SK1
100
AcDbLine
 10
-4.492924620307189
 20
-2.365676840166643
 30
0.0
 11
-4.449767934807184
 21
-2.502239306999985
 31
0.0
  0
LINE
  5
157F
330
1F
100
AcDbEntity
  8
SK1
100
AcDbLine
 10
-4.567385496473855
 20
-1.119859238249969
 30
0.0
 11
-4.601572226557189
 21
-0.6857849756666539
 31
0.0
  0
LWPOLYLINE
  5
1580
330
1F
100
AcDbEntity
  8
SK1
100
AcDbPolyline
 90
        5
 70
     0
 43
0.0
 10
-4.60744859222385
 20
-2.30823275066665
 10
-4.598549320390525
 20
-2.30875427266664
 10
-4.574620551223842
 20
-2.312323544416654
 10
-4.549821360223846
 20
-2.320422035083304
 10
-4.527679115140514
 20
-2.332201289416644
  0
LINE
  5
1581
330
1F
100
AcDbEntity
  8
SK1
100
AcDbLine
 10
-3.907987781557194
 20
-2.650000887583325
 30
0.0
 11
-4.34457856805719
 21
-2.650000887583325
 31
0.0
  0
LWPOLYLINE
  5
1582
330
1F
100
AcDbEntity
  8
SK1
100
AcDbPolyline
 90
        5
 70
     0
 43
0.0
 10
-3.374284884890526
 20
-2.30766562699997
 10
-3.365385613057203
 20
-2.308187148999962
 10
-3.341456843890521
 20
-2.311756420749969
 10
-3.316657652890524
 20
-2.319854911416623
 10
-3.294515407807189
 20
-2.33163416574996
  0
LINE
  5
1583
330
1F
100
AcDbEntity
  8
SK1
100
AcDbLine
 10
-3.334221789140531
 20
-1.119292114583303
 30
0.0
 11
-3.368408519223866
 21
-0.6852178519999697
 31
0.0
  0
LWPOLYLINE
  5
1584
330
1F
100
AcDbEntity
  8
SK1
100
AcDbPolyline
 90
        4
 70
     0
 43
0.0
 10
-3.76151578888906
 20
-2.364981987828593
 10
-3.757441534807193
 20
-2.359315256833301
 10
-3.749322034973858
 20
-2.350092901583306
 10
-3.736473353057191
 20
-2.33862986224997
  0
LINE
  5
1585
330
1F
100
AcDbEntity
  8
SK1
100
AcDbLine
 10
-3.900439837640528
 20
-2.64687586491662
 30
0.0
 11
-3.891882678890538
 21
-2.63934526366663
 31
0.0
  0
LINE
  5
1586
330
1F
100
AcDbEntity
  8
SK1
100
AcDbLine
 10
-3.646310699307209
 20
-2.307919627333288
 30
0.0
 11
-3.375343887890533
 21
-2.307692560916628
 31
0.0
  0
LINE
  5
1587
330
1F
100
AcDbEntity
  8
SK1
100
AcDbLine
 10
-3.804478109723866
 20
-2.501410446666644
 30
0.0
 11
-3.76151578889054
 21
-2.364981987833293
 31
0.0
  0
LINE
  5
1588
330
1F
100
AcDbEntity
  8
SK1
100
AcDbLine
 10
-3.909112005723861
 20
-2.649433763916641
 30
0.0
 11
-3.900439837640528
 21
-2.64687586491662
 31
0.0
  0
LWPOLYLINE
  5
1589
330
1F
100
AcDbEntity
  8
SK1
100
AcDbPolyline
 90
        4
 70
     0
 43
0.0
 10
-3.718679970223857
 20
-2.326872025916626
 10
-3.695141638723868
 20
-2.316345927749964
 10
-3.668544011890528
 20
-2.30970856091663
 10
-3.64648735272387
 20
-2.307968520499966
  0
LINE
  5
158A
330
1F
100
AcDbEntity
  8
SK1
100
AcDbLine
 10
-3.900469301557194
 20
-2.646831657083311
 30
0.0
 11
-3.889617973057196
 21
-2.639857095083304
 31
0.0
  0
LINE
  5
158B
330
1F
100
AcDbEntity
  8
SK1
100
AcDbLine
 10
-3.736473353057191
 20
-2.33862986224997
 30
0.0
 11
-3.718679970223857
 21
-2.326872025916626
 31
0.0
  0
LWPOLYLINE
  5
158C
330
1F
100
AcDbEntity
  8
SK1
100
AcDbPolyline
 90
        8
 70
     0
 43
0.0
 10
-3.889617973057196
 20
-2.639857095083304
 10
-3.878772642223868
 20
-2.631586975499963
 10
-3.868649127140539
 20
-2.622295260249964
 10
-3.858140771890531
 20
-2.610762898583304
 10
-3.846595770473866
 20
-2.595391458666629
 10
-3.83407013022386
 20
-2.574632198833289
 10
-3.819978788640528
 20
-2.544631807583304
 10
-3.804543227890524
 20
-2.501586950999961
  0
LWPOLYLINE
  5
158D
330
1F
100
AcDbEntity
  8
SK1
100
AcDbPolyline
 90
        3
 70
     0
 43
0.0
 10
-2.528103957509757
 20
-2.36500465268272
 10
-2.522693208890534
 20
-2.357742667416645
 10
-2.511067333640526
 20
-2.345574713166628
  0
LINE
  5
158E
330
1F
100
AcDbEntity
  8
SK1
100
AcDbLine
 10
-2.026507096815409
 20
-2.365071237497468
 30
0.0
 11
-1.983173893723866
 21
-2.501988909166634
 31
0.0
  0
LINE
  5
158F
330
1F
100
AcDbEntity
  8
SK1
100
AcDbLine
 10
-3.259760912973868
 20
-2.365109716499973
 30
0.0
 11
-3.216604227473861
 21
-2.501672183333301
 31
0.0
  0
LWPOLYLINE
  5
1590
330
1F
100
AcDbEntity
  8
SK1
100
AcDbPolyline
 90
        5
 70
     0
 43
0.0
 10
-2.141975602557194
 20
-2.308137548749971
 10
-2.1393039478072
 20
-2.308165824166633
 10
-2.117151380557205
 20
-2.310238864833301
 10
-2.093916597807206
 20
-2.316032422749962
 10
-2.073774525807186
 20
-2.324538622083303
  0
LINE
  5
1591
330
1F
100
AcDbEntity
  8
SK1
100
AcDbLine
 10
-2.674824074223871
 20
-2.649433763916641
 30
0.0
 11
-3.111414860723868
 21
-2.649433763916641
 31
0.0
  0
LINE
  5
1592
330
1F
100
AcDbEntity
  8
SK1
100
AcDbLine
 10
-2.412955756140533
 20
-2.308398600083305
 30
0.0
 11
-2.142002368057209
 21
-2.30817500966663
 31
0.0
  0
LWPOLYLINE
  5
1593
330
1F
100
AcDbEntity
  8
SK1
100
AcDbPolyline
 90
        6
 70
     0
 43
0.0
 10
-2.073774525807186
 20
-2.324538622083303
 10
-2.056864251473863
 20
-2.334748250416624
 10
-2.044151528973861
 20
-2.344904723833285
 10
-2.035008534890524
 20
-2.354093124083291
 10
-2.02916895589053
 20
-2.36122354699997
 10
-2.026482892390538
 20
-2.365106224749973
  0
LINE
  5
1594
330
1F
100
AcDbEntity
  8
SK1
100
AcDbLine
 10
-1.878665682557198
 20
-2.649433763916641
 30
0.0
 11
-1.886964837723856
 21
-2.647056765999963
 31
0.0
  0
LINE
  5
1595
330
1F
100
AcDbEntity
  8
SK1
100
AcDbLine
 10
-3.111414856473863
 20
-2.649433763916641
 30
0.0
 11
-3.119722004307198
 21
-2.647071851083304
 31
0.0
  0
LINE
  5
1596
330
1F
100
AcDbEntity
  8
SK1
100
AcDbLine
 10
-2.135405780890534
 20
-0.6846818059999515
 30
0.0
 11
-2.220846279890539
 21
0.460779477000034
 31
0.0
  0
LINE
  5
1597
330
1F
100
AcDbEntity
  8
SK1
100
AcDbLine
 10
-2.101358771390533
 20
-1.118450333499982
 30
0.0
 11
-2.135405780890534
 21
-0.6846818059999515
 31
0.0
  0
LWPOLYLINE
  5
1598
330
1F
100
AcDbEntity
  8
SK1
100
AcDbPolyline
 90
       10
 70
     0
 43
0.0
 10
-1.947017928307201
 20
-2.48873120074997
 10
-1.964122043890528
 20
-2.400134798583303
 10
-1.981275501473853
 20
-2.293296680833293
 10
-1.998473273807198
 20
-2.169007482333288
 10
-2.015684069723857
 20
-2.028227866749968
 10
-2.032875202307188
 20
-1.87205510191663
 10
-2.050045832057195
 20
-1.701654538999975
 10
-2.067183974973874
 20
-1.518290634083303
 10
-2.084290377890523
 20
-1.32338426641662
 10
-2.101358771390533
 20
-1.118450333499972
  0
LWPOLYLINE
  5
1599
330
1F
100
AcDbEntity
  8
SK1
100
AcDbPolyline
 90
        9
 70
     0
 43
0.0
 10
-1.982984000307202
 20
-2.502548432666642
 10
-1.975649265223868
 20
-2.524316292916634
 10
-1.968027594640523
 20
-2.544139490166642
 10
-1.959660713557196
 20
-2.562917894999962
 10
-1.950168059807186
 20
-2.580932268833305
 10
-1.938736766557196
 20
-2.598806591249964
 10
-1.924197194223868
 20
-2.616853515666623
 10
-1.905490303307204
 20
-2.634351116666633
 10
-1.886891746557208
 20
-2.647056537416645
  0
LWPOLYLINE
  5
159A
330
1F
100
AcDbEntity
  8
SK1
100
AcDbPolyline
 90
        5
 70
     0
 43
0.0
 10
-1.886964837723856
 20
-2.647056765999963
 10
-1.895975432640543
 20
-2.639077587916631
 10
-1.913004095723871
 20
-2.608665117666633
 10
-1.930000877307199
 20
-2.558421566833303
 10
-1.947017928307201
 20
-2.48873120074997
  0
LWPOLYLINE
  5
159B
330
1F
100
AcDbEntity
  8
SK1
100
AcDbPolyline
 90
        4
 70
     0
 43
0.0
 10
-3.294515407807189
 20
-2.33163416574996
 10
-3.278789367723859
 20
-2.343562550249949
 10
-3.267923286057208
 20
-2.354412573666633
 10
-3.261539182557199
 20
-2.362411303499971
  0
LINE
  5
159C
330
1F
100
AcDbEntity
  8
SK1
100
AcDbLine
 10
-2.949307009723866
 20
-0.45965231716663
 30
0.0
 11
-2.914840333390539
 21
-0.9058684683332927
 31
0.0
  0
LINE
  5
159D
330
1F
100
AcDbEntity
  8
SK1
100
AcDbLine
 10
-2.914840333390539
 20
-0.9058684683332927
 30
0.0
 11
-2.880427992723858
 21
-1.324480463583289
 31
0.0
  0
LWPOLYLINE
  5
159E
330
1F
100
AcDbEntity
  8
SK1
100
AcDbPolyline
 90
       13
 70
     0
 43
0.0
 10
-2.880427992723858
 20
-1.324480463583302
 10
-2.863282128057193
 20
-1.519472929999971
 10
-2.846169639890528
 20
-1.702894439916629
 10
-2.829086013973853
 20
-1.87332192674997
 10
-2.812024310640522
 20
-2.029489487833306
 10
-2.79498847147387
 20
-2.170229574916647
 10
-2.777941337807197
 20
-2.294447188416627
 10
-2.760848497057204
 20
-2.401183429999971
 10
-2.743705653307201
 20
-2.489642723666645
 10
-2.726474813307194
 20
-2.559158801666634
 10
-2.709222657140533
 20
-2.609191889416628
 10
-2.692002298390526
 20
-2.639358798416627
 10
-2.674824052140535
 20
-2.649433763916634
  0
LWPOLYLINE
  5
159F
330
1F
100
AcDbEntity
  8
SK1
100
AcDbPolyline
 90
        9
 70
     0
 43
0.0
 10
-3.197269283807194
 20
-2.401119208916633
 10
-3.2143586500572
 20
-2.294371877916642
 10
-3.231412425973859
 20
-2.170141687333303
 10
-3.248469537807197
 20
-2.029388896999961
 10
-3.265569814140526
 20
-1.873209993083299
 10
-3.282707063807206
 20
-1.702773084916647
 10
-3.299913157140523
 20
-1.519346854083305
 10
-3.317113738557194
 20
-1.324349876166622
 10
-3.334221789140531
 20
-1.119292114583303
  0
LINE
  5
15A0
330
1F
100
AcDbEntity
  8
SK1
100
AcDbLine
 10
-3.180147811640535
 20
-2.489590065416631
 30
0.0
 11
-3.197269283807194
 21
-2.401119208916633
 31
0.0
  0
LWPOLYLINE
  5
15A1
330
1F
100
AcDbEntity
  8
SK1
100
AcDbPolyline
 90
        9
 70
     0
 43
0.0
 10
-3.216322848973865
 20
-2.502516167166628
 10
-3.208465486640539
 20
-2.525684137583309
 10
-3.200493512057189
 20
-2.546110554166631
 10
-3.191728315723866
 20
-2.565349386499963
 10
-3.181694001890537
 20
-2.583815951166632
 10
-3.169668912890532
 20
-2.601882471499973
 10
-3.154504955640526
 20
-2.619799686916643
 10
-3.135591491473861
 20
-2.636553652333291
 10
-3.119631985973871
 20
-2.647071568833308
  0
LINE
  5
15A2
330
1F
100
AcDbEntity
  8
SK1
100
AcDbLine
 10
-3.261539182557199
 20
-2.362411303499971
 30
0.0
 11
-3.259760912973868
 21
-2.365109716499973
 31
0.0
  0
LWPOLYLINE
  5
15A3
330
1F
100
AcDbEntity
  8
SK1
100
AcDbPolyline
 90
        5
 70
     0
 43
0.0
 10
-3.119722004307196
 20
-2.647071851083304
 10
-3.128593820890538
 20
-2.639345525249951
 10
-3.145780076807203
 20
-2.60916525424997
 10
-3.16297337022386
 20
-2.559118928666646
 10
-3.180147811640535
 20
-2.489590065416642
  0
LINE
  5
15A4
330
1F
100
AcDbEntity
  8
SK1
100
AcDbLine
 10
-2.674824052140535
 20
-2.649433763916641
 30
0.0
 11
-2.666211708223872
 21
-2.646886432249953
 31
0.0
  0
LINE
  5
15A5
330
1F
100
AcDbEntity
  8
SK1
100
AcDbLine
 10
-2.665841809557201
 20
-2.646671864666644
 30
0.0
 11
-2.665451201057201
 21
-2.646439408416629
 31
0.0
  0
LINE
  5
15A6
330
1F
100
AcDbEntity
  8
SK1
100
AcDbLine
 10
-2.665037208473854
 20
-2.646191174166631
 30
0.0
 11
-2.664616199140537
 21
-2.645936699916632
 31
0.0
  0
LINE
  5
15A7
330
1F
100
AcDbEntity
  8
SK1
100
AcDbLine
 10
-2.664204044973871
 20
-2.645685521249962
 30
0.0
 11
-2.663795558640533
 21
-2.645434495499966
 31
0.0
  0
LINE
  5
15A8
330
1F
100
AcDbEntity
  8
SK1
100
AcDbLine
 10
-2.6633910520572
 20
-2.645183800499964
 30
0.0
 11
-2.662989014807187
 21
-2.644932485999962
 31
0.0
  0
LINE
  5
15A9
330
1F
100
AcDbEntity
  8
SK1
100
AcDbLine
 10
-2.662588290807203
 20
-2.644679808833306
 30
0.0
 11
-2.662187454723873
 21
-2.644424833499971
 31
0.0
  0
LINE
  5
15AA
330
1F
100
AcDbEntity
  8
SK1
100
AcDbLine
 10
-2.661785519307203
 20
-2.644166885249974
 30
0.0
 11
-2.661379871807199
 21
-2.643904230083287
 31
0.0
  0
LINE
  5
15AB
330
1F
100
AcDbEntity
  8
SK1
100
AcDbLine
 10
-2.66096939622386
 20
-2.643636069249969
 30
0.0
 11
-2.660548475307191
 21
-2.643358617666621
 31
0.0
  0
LINE
  5
15AC
330
1F
100
AcDbEntity
  8
SK1
100
AcDbLine
 10
-2.660113239973858
 20
-2.64306916849997
 30
0.0
 11
-2.659656181973879
 21
-2.64276251091663
 31
0.0
  0
LINE
  5
15AD
330
1F
100
AcDbEntity
  8
SK1
100
AcDbLine
 10
-2.659166482057194
 20
-2.642431057666641
 30
0.0
 11
-2.658647711390536
 21
-2.642076911499962
 31
0.0
  0
LWPOLYLINE
  5
15AE
330
1F
100
AcDbEntity
  8
SK1
100
AcDbPolyline
 90
        3
 70
     0
 43
0.0
 10
-2.658094925807194
 20
-2.641696432999964
 10
-2.657522554390524
 20
-2.641299196999959
 10
-2.656364157723853
 20
-2.640485106916643
  0
LINE
  5
15AF
330
1F
100
AcDbEntity
  8
SK1
100
AcDbLine
 10
-2.656364157723853
 20
-2.640485106916643
 30
0.0
 11
-2.655192667890535
 21
-2.63964790849997
 31
0.0
  0
LINE
  5
15B0
330
1F
100
AcDbEntity
  8
SK1
100
AcDbLine
 10
-2.655192667890535
 20
-2.63964790849997
 30
0.0
 11
-2.654033182640536
 21
-2.638805002833305
 31
0.0
  0
LINE
  5
15B1
330
1F
100
AcDbEntity
  8
SK1
100
AcDbLine
 10
-2.654033182640536
 20
-2.638805002833305
 30
0.0
 11
-2.65289526755719
 21
-2.637963179999981
 31
0.0
  0
LINE
  5
15B2
330
1F
100
AcDbEntity
  8
SK1
100
AcDbLine
 10
-2.65289526755719
 20
-2.637963179999981
 30
0.0
 11
-2.651788115640531
 21
-2.637129298749973
 31
0.0
  0
LWPOLYLINE
  5
15B3
330
1F
100
AcDbEntity
  8
SK1
100
AcDbPolyline
 90
      115
 70
     0
 43
0.0
 10
-2.651788115640531
 20
-2.637129298749982
 10
-2.651249066557199
 20
-2.636717679666631
 10
-2.650713062807191
 20
-2.636304562083292
 10
-2.650172763723865
 20
-2.635884227166646
 10
-2.649628994057201
 20
-2.635457209833313
 10
-2.649080085473868
 20
-2.635022084833303
 10
-2.648526179223875
 20
-2.634578833499972
 10
-2.647967044307198
 20
-2.634127139833286
 10
-2.647402118223863
 20
-2.633666411249961
 10
-2.646830428473875
 20
-2.633195699416642
 10
-2.646252966973865
 20
-2.632715668499963
 10
-2.645669920223856
 20
-2.632226331583304
 10
-2.645082803307195
 20
-2.631728808583289
 10
-2.644493421473865
 20
-2.631224504083306
 10
-2.643901234057204
 20
-2.630712842666622
 10
-2.643306286390533
 20
-2.630193741249954
 10
-2.642708629723871
 20
-2.629667120166629
 10
-2.64210830564052
 20
-2.629132889499961
 10
-2.641505391223864
 20
-2.628590989416644
 10
-2.640899945807206
 20
-2.628041342833306
 10
-2.640292065557201
 20
-2.627483905083285
 10
-2.63968183114053
 20
-2.626918617083294
 10
-2.639069346390538
 20
-2.62634544066663
 10
-2.638454703307204
 20
-2.625764326249971
 10
-2.637838014890534
 20
-2.62517524449997
 10
-2.637219449223864
 20
-2.62457821949997
 10
-2.636598928223865
 20
-2.62397303724996
 10
-2.635976530723854
 20
-2.623359631999971
 10
-2.63535194914053
 20
-2.622737555666643
 10
-2.634724832473871
 20
-2.622106303749962
 10
-2.634095371473865
 20
-2.621465907499963
 10
-2.633463619807193
 20
-2.620816260749962
 10
-2.632829632307195
 20
-2.62015725733329
 10
-2.632193464140529
 20
-2.619488789999962
 10
-2.631555161807205
 20
-2.61881074091663
 10
-2.630914773640543
 20
-2.61812299216663
 10
-2.630272344140534
 20
-2.617425419749964
 10
-2.629627923557209
 20
-2.616717904416625
 10
-2.628981536390531
 20
-2.616000296083289
 10
-2.628333211057201
 20
-2.61527244599997
 10
-2.62768298089053
 20
-2.61453420824996
 10
-2.627030944557195
 20
-2.613785509749964
 10
-2.626376928973865
 20
-2.613025960499968
 10
-2.6257207893072
 20
-2.612255193166628
 10
-2.625062553557194
 20
-2.611473037999965
 10
-2.624402177057208
 20
-2.610679234083306
 10
-2.62373973447386
 20
-2.60987365908331
 10
-2.623075267557195
 20
-2.609056148666631
 10
-2.622408821390533
 20
-2.608226539916633
 10
-2.621740433223865
 20
-2.607384657416631
 10
-2.621070157390534
 20
-2.60653034449997
 10
-2.620398037307201
 20
-2.605663428249969
 10
-2.619724130557205
 20
-2.604783751416634
 10
-2.619048490640534
 20
-2.603891149583295
 10
-2.618371158057198
 20
-2.602985438499954
 10
-2.617692175890529
 20
-2.602066434916644
 10
-2.617011574057194
 20
-2.601133934499959
 10
-2.616329378973861
 20
-2.60018772424997
 10
-2.615645628557184
 20
-2.599227604083306
 10
-2.614960350807192
 20
-2.598253356333306
 10
-2.614273584640542
 20
-2.59726477549997
 10
-2.613585354223872
 20
-2.596261631749964
 10
-2.612895711973863
 20
-2.59524373316663
 10
-2.612204688057198
 20
-2.594210852583306
 10
-2.61151235139054
 20
-2.59316281883331
 10
-2.610818754473857
 20
-2.592099434999962
 10
-2.610123951723863
 20
-2.591020505916628
 10
-2.609427991390528
 20
-2.589925825749969
 10
-2.608730917973868
 20
-2.588815181333306
 10
-2.608032781557198
 20
-2.587688367333313
 10
-2.607333587223867
 20
-2.586545103583305
 10
-2.606633381140531
 20
-2.58538517391663
 10
-2.605932066557201
 20
-2.584208120333305
 10
-2.605229584473863
 20
-2.583013536249971
 10
-2.604525851890534
 20
-2.581800963083304
 10
-2.603820799640529
 20
-2.580569954666628
 10
-2.603114311473858
 20
-2.579319969666631
 10
-2.602406479057203
 20
-2.578050826166631
 10
-2.601696600223855
 20
-2.576760895249971
 10
-2.600985114307202
 20
-2.575450600916624
 10
-2.600268742390535
 20
-2.57411342074997
 10
-2.599545639390528
 20
-2.57274522299997
 10
-2.598812191057194
 20
-2.571338249416645
 10
-2.598064735473877
 20
-2.569884234833313
 10
-2.597301901473856
 20
-2.56837901758329
 10
-2.596519907557206
 20
-2.566813358583285
 10
-2.595722504473861
 20
-2.56519291449997
 10
-2.594911342973865
 20
-2.563519360833304
 10
-2.594088654390524
 20
-2.56179574533331
 10
-2.593256768307198
 20
-2.560025565333305
 10
-2.592416722640535
 20
-2.558209775749969
 10
-2.591569890057193
 20
-2.556350182749973
 10
-2.590717371390535
 20
-2.55444814808331
 10
-2.5898603465572
 20
-2.552505351166622
 10
-2.588999761640534
 20
-2.550523086166645
 10
-2.588136867973873
 20
-2.548503497666634
 10
-2.587271775640531
 20
-2.546446177916643
 10
-2.586405177890528
 20
-2.544352154749973
 10
-2.585536505473873
 20
-2.542219439333301
 10
-2.584665524807203
 20
-2.540046798083303
 10
-2.5837919270572
 20
-2.537832769333303
 10
-2.582915423890523
 20
-2.535575894083291
 10
-2.582035729473859
 20
-2.533274672333303
 10
-2.58115255939053
 20
-2.530927559666643
 10
-2.580265630057199
 20
-2.528532964499969
 10
-2.579374661473868
 20
-2.526089254999974
 10
-2.578479368223852
 20
-2.523594732333291
 10
-2.577579468557201
 20
-2.521047655999971
 10
-2.576674680640528
 20
-2.518446230916631
 10
-2.57576472464053
 20
-2.515788613166627
 10
-2.574849323057198
 20
-2.51307290949996
 10
-2.573928199723868
 20
-2.51029717383329
 10
-2.57300108114054
 20
-2.507459411083304
 10
-2.572067612307204
 20
-2.504557310999961
 10
-2.528103957557199
 20
-2.365004652833309
  0
LWPOLYLINE
  5
15B4
330
1F
100
AcDbEntity
  8
SK1
100
AcDbPolyline
 90
        5
 70
     0
 43
0.0
 10
-2.511067333640526
 20
-2.345574713166628
 10
-2.493437618223854
 20
-2.331993380916626
 10
-2.468884229807207
 20
-2.319265492249971
 10
-2.440230803640528
 20
-2.310912854666628
 10
-2.41312913639053
 20
-2.308362349249969
  0
LINE
  5
15B5
330
1F
100
AcDbEntity
  8
SK1
100
AcDbLine
 10
-2.666211708223872
 20
-2.646886432249953
 30
0.0
 11
-2.657690009807193
 21
-2.639341090499964
 31
0.0
  0
LINE
  5
15B6
330
1F
100
AcDbEntity
  8
SK1
100
AcDbLine
 10
-1.550169277140533
 20
-2.649433763916641
 30
0.0
 11
-1.878664897390528
 21
-2.649433763916641
 31
0.0
  0
LINE
  5
15B7
330
1F
100
AcDbEntity
  8
SK1
100
AcDbLine
 10
-4.524837265557192
 20
2.650000887500016
 30
0.0
 11
-4.961024249890516
 21
2.650000887500016
 31
0.0
  0
LINE
  5
15B8
330
1F
100
AcDbEntity
  8
SK1
100
AcDbLine
 10
-4.721576063057186
 20
0.906430202833355
 30
0.0
 11
-4.75570506405719
 21
1.325031857916686
 31
0.0
  0
LINE
  5
15B9
330
1F
100
AcDbEntity
  8
SK1
100
AcDbLine
 10
-5.066432661473863
 20
2.502227051000025
 30
0.0
 11
-5.109933055390515
 21
2.364835313833347
 31
0.0
  0
LINE
  5
15BA
330
1F
100
AcDbEntity
  8
SK1
100
AcDbLine
 10
-4.969308201223855
 20
2.647637687833368
 30
0.0
 11
-4.978157320557198
 21
2.639911634333353
 31
0.0
  0
LWPOLYLINE
  5
15BB
330
1F
100
AcDbEntity
  8
SK1
100
AcDbPolyline
 90
        9
 70
     0
 43
0.0
 10
-4.969266945140517
 20
2.647637558750025
 10
-4.989211672807186
 20
2.634065795500026
 10
-5.007890638557197
 20
2.616463424500028
 10
-5.022399247557188
 20
2.598296067500025
 10
-5.033911227473867
 20
2.580153149666694
 10
-5.043448214140521
 20
2.561931933083345
 10
-5.051743680390512
 20
2.543194337916696
 10
-5.05928596205719
 20
2.523465552500026
 10
-5.066268635223846
 20
2.502689468833348
  0
LWPOLYLINE
  5
15BC
330
1F
100
AcDbEntity
  8
SK1
100
AcDbPolyline
 90
       13
 70
     0
 43
0.0
 10
-4.75570506405719
 20
1.325031857916696
 10
-4.772777634057184
 20
1.520021705916693
 10
-4.789865873640526
 20
1.703442755666699
 10
-4.806981668640514
 20
1.873873247000014
 10
-4.824120231973858
 20
2.030043548916697
 10
-4.841287749473849
 20
2.170782491583354
 10
-4.85846318789053
 20
2.295000256833356
 10
-4.875635034307196
 20
2.401741552666676
 10
-4.892780913223854
 20
2.490204705666696
 10
-4.909861324223851
 20
2.559720848083356
 10
-4.926916129057183
 20
2.609754290166686
 10
-4.943961871557183
 20
2.639923014500014
 10
-4.961024236390525
 20
2.650000887500016
  0
LINE
  5
15BD
330
1F
100
AcDbEntity
  8
SK1
100
AcDbLine
 10
-5.133994643973853
 20
2.339414095250027
 30
0.0
 11
-5.14962561055719
 21
2.328726679500034
 31
0.0
  0
LINE
  5
15BE
330
1F
100
AcDbEntity
  8
SK1
100
AcDbLine
 10
-4.961024236390525
 20
2.650000887500016
 30
0.0
 11
-4.969308201223855
 21
2.647637687833368
 31
0.0
  0
LWPOLYLINE
  5
15BF
330
1F
100
AcDbEntity
  8
SK1
100
AcDbPolyline
 90
        5
 70
     0
 43
0.0
 10
-5.10993305536208
 20
2.364835313923157
 10
-5.110256092390519
 20
2.364326179333355
 10
-5.114882342390516
 20
2.358131772750019
 10
-5.122469313307183
 20
2.349700883500025
 10
-5.133994643973851
 20
2.339414095250027
  0
LINE
  5
15C0
330
1F
100
AcDbEntity
  8
SK1
100
AcDbLine
 10
-5.611151884181943
 20
2.365140165100916
 30
0.0
 11
-5.654250857973861
 21
2.501975137166686
 31
0.0
  0
LWPOLYLINE
  5
15C1
330
1F
100
AcDbEntity
  8
SK1
100
AcDbPolyline
 90
        5
 70
     0
 43
0.0
 10
-5.14962561055719
 20
2.328726679500034
 10
-5.170382323223858
 20
2.318636470750013
 10
-5.193284978640519
 20
2.311713443333355
 10
-5.21593745005719
 20
2.308560461666686
 10
-5.224287121640521
 20
2.308145778500015
  0
LWPOLYLINE
  5
15C2
330
1F
100
AcDbEntity
  8
SK1
100
AcDbPolyline
 90
        7
 70
     0
 43
0.0
 10
-5.654151859473858
 20
2.501570820166686
 10
-5.672167023640519
 20
2.550727248333358
 10
-5.689100869807195
 20
2.584223888583357
 10
-5.704886103723863
 20
2.607345434916693
 10
-5.720294990057177
 20
2.624504879333356
 10
-5.735592805140527
 20
2.637629728916683
 10
-5.750321165807183
 20
2.647468305916694
  0
LWPOLYLINE
  5
15C3
330
1F
100
AcDbEntity
  8
SK1
100
AcDbPolyline
 90
        9
 70
     0
 43
0.0
 10
-5.690017748890523
 20
2.490160163416692
 10
-5.672883631557192
 20
2.40168940116669
 10
-5.655780180307191
 20
2.294941619333355
 10
-5.638700708390516
 20
2.170709381750014
 10
-5.621619776307177
 20
2.029953396166694
 10
-5.604505736807182
 20
1.873770846000015
 10
-5.587370527223852
 20
1.703329296750029
 10
-5.570214277557175
 20
1.519895589500015
 10
-5.553040762390511
 20
1.324892499000028
  0
LINE
  5
15C4
330
1F
100
AcDbEntity
  8
SK1
100
AcDbLine
 10
-5.225091457723855
 20
2.308008782416676
 30
0.0
 11
-5.496061263057184
 21
2.308225461666679
 31
0.0
  0
LWPOLYLINE
  5
15C5
330
1F
100
AcDbEntity
  8
SK1
100
AcDbPolyline
 90
        3
 70
     0
 43
0.0
 10
-5.496292999973856
 20
2.308420472666678
 10
-5.528387362890528
 20
2.312053539583355
 10
-5.555958875640515
 20
2.321096162750036
  0
LINE
  5
15C6
330
1F
100
AcDbEntity
  8
SK1
100
AcDbLine
 10
-5.758791861057185
 20
2.650000887500016
 30
0.0
 11
-5.750300253807195
 21
2.647527711750014
 31
0.0
  0
LWPOLYLINE
  5
15C7
330
1F
100
AcDbEntity
  8
SK1
100
AcDbPolyline
 90
        5
 70
     0
 43
0.0
 10
-5.555958875640515
 20
2.321096162750036
 10
-5.578588694807191
 20
2.333508712833369
 10
-5.594762262223865
 20
2.346285415416685
 10
-5.605453885307186
 20
2.357537460000037
 10
-5.611184267390521
 20
2.365183373250029
  0
LWPOLYLINE
  5
15C8
330
1F
100
AcDbEntity
  8
SK1
100
AcDbPolyline
 90
        5
 70
     0
 43
0.0
 10
-5.750300253807195
 20
2.647527711750014
 10
-5.741622290057184
 20
2.639913894416689
 10
-5.724423481307186
 20
2.609734686416695
 10
-5.707212597223851
 20
2.559688943416693
 10
-5.690017748890523
 20
2.490160163416692
  0
LINE
  5
15C9
330
1F
100
AcDbEntity
  8
SK1
100
AcDbLine
 10
-6.724915581390526
 20
2.307659427666676
 30
0.0
 11
-7.100000544223849
 21
2.207818856000015
 31
0.0
  0
LINE
  5
15CA
330
1F
100
AcDbEntity
  8
SK1
100
AcDbLine
 10
-6.720246446807191
 20
2.308656492000028
 30
0.0
 11
-6.724915581390526
 21
2.307659427666676
 31
0.0
  0
LWPOLYLINE
  5
15CB
330
1F
100
AcDbEntity
  8
SK1
100
AcDbPolyline
 90
       20
 70
     0
 43
0.0
 10
-6.343186792883675
 20
2.364857500271694
 10
-6.343638851723861
 20
2.36418660383337
 10
-6.344259243473862
 20
2.363291726083366
 10
-6.344950821390516
 20
2.362322842333357
 10
-6.345719915057181
 20
2.361277035166674
 10
-6.346573395807183
 20
2.360151380916688
 10
-6.347514304057187
 20
2.358948653500017
 10
-6.348546989223866
 20
2.357670281416686
 10
-6.349675108390517
 20
2.356318958333356
 10
-6.35090279672385
 20
2.354897164666686
 10
-6.352233455140526
 20
2.353408588500015
 10
-6.353670974890516
 20
2.351856677916687
 10
-6.355218248140522
 20
2.350246256333354
 10
-6.356878700390528
 20
2.348581823500015
 10
-6.358654520390521
 20
2.346869334833356
 10
-6.36054843680719
 20
2.345114361166689
 10
-6.362561766973856
 20
2.343323899583356
 10
-6.364696291640516
 20
2.341504562083356
 10
-6.366952452723849
 20
2.339664116416676
 10
-6.36932850797386
 20
2.337811906500028
  0
LINE
  5
15CC
330
1F
100
AcDbEntity
  8
SK1
100
AcDbLine
 10
-6.194980795557196
 20
2.650000887500016
 30
0.0
 11
-6.203408948557187
 21
2.647588225583354
 31
0.0
  0
LWPOLYLINE
  5
15CD
330
1F
100
AcDbEntity
  8
SK1
100
AcDbPolyline
 90
       18
 70
     0
 43
0.0
 10
-6.396343532973863
 20
2.321684039916695
 10
-6.399862385890514
 20
2.320132359666674
 10
-6.403450127140525
 20
2.318662148750016
 10
-6.407090877057179
 20
2.31728189866669
 10
-6.410787799807177
 20
2.315992108083356
 10
-6.414535950473849
 20
2.314796262166693
 10
-6.418343266807188
 20
2.313692709833357
 10
-6.422221711807183
 20
2.312679372250014
 10
-6.426154360640526
 20
2.311762086666678
 10
-6.430160372473859
 20
2.310938123583357
 10
-6.43414193439053
 20
2.31022641616669
 10
-6.43803758314051
 20
2.309632025833357
 10
-6.441753019473848
 20
2.309164932666684
 10
-6.445054101307181
 20
2.308838668416693
 10
-6.448297367057199
 20
2.30860526683337
 10
-6.451717529057186
 20
2.308447153916687
 10
-6.455451510473849
 20
2.308359523833355
 10
-6.458556561807188
 20
2.308340560666699
  0
LINE
  5
15CE
330
1F
100
AcDbEntity
  8
SK1
100
AcDbLine
 10
-6.203408948557187
 20
2.647588225583354
 30
0.0
 11
-6.212221480223865
 21
2.639912470250016
 31
0.0
  0
LINE
  5
15CF
330
1F
100
AcDbEntity
  8
SK1
100
AcDbLine
 10
-6.299795715140511
 20
2.502217651666695
 30
0.0
 11
-6.343186792890517
 21
2.364857500250017
 31
0.0
  0
LWPOLYLINE
  5
15D0
330
1F
100
AcDbEntity
  8
SK1
100
AcDbPolyline
 90
        9
 70
     0
 43
0.0
 10
-6.203374776723861
 20
2.647588116916689
 10
-6.218886470890519
 20
2.637298314750025
 10
-6.237763153557184
 20
2.620533213333354
 10
-6.252854104473858
 20
2.602684533833349
 10
-6.264760547807181
 20
2.584803333083345
 10
-6.274712774057202
 20
2.566510807500018
 10
-6.283479916307197
 20
2.547307675250016
 10
-6.291472914723852
 20
2.526872861833345
 10
-6.299545844973846
 20
2.503068654000016
  0
LWPOLYLINE
  5
15D1
330
1F
100
AcDbEntity
  8
SK1
100
AcDbPolyline
 90
       10
 70
     0
 43
0.0
 10
-6.36932850797386
 20
2.337811906500028
 10
-6.371831531557186
 20
2.335950499416687
 10
-6.374469015973856
 20
2.334082827166688
 10
-6.377237569557186
 20
2.332219450833354
 10
-6.380138231140517
 20
2.330367562333349
 10
-6.383162584057181
 20
2.328539993166688
 10
-6.386304197973856
 20
2.326747325250027
 10
-6.389554307390523
 20
2.325000544166696
 10
-6.392904033223852
 20
2.323309638750016
 10
-6.396343532973863
 20
2.321684039916695
  0
LINE
  5
15D2
330
1F
100
AcDbEntity
  8
SK1
100
AcDbLine
 10
-6.458458762390517
 20
2.308446697916695
 30
0.0
 11
-6.720246446807191
 21
2.308656492000028
 31
0.0
  0
LINE
  5
15D3
330
1F
100
AcDbEntity
  8
SK1
100
AcDbLine
 10
-5.75879185314053
 20
2.650000887500016
 30
0.0
 11
-6.194980794973852
 21
2.650000887500016
 31
0.0
  0
LINE
  5
15D4
330
1F
100
AcDbEntity
  8
SK1
100
AcDbLine
 10
-6.472299427723851
 20
0.6976248743333564
 30
0.0
 11
-6.508194973723851
 21
1.086101509416699
 31
0.0
  0
LINE
  5
15D5
330
1F
100
AcDbEntity
  8
SK1
100
AcDbLine
 10
-5.937873791973857
 20
0.6858926455833469
 30
0.0
 11
-5.972328981390521
 21
1.119948508666694
 31
0.0
  0
LWPOLYLINE
  5
15D6
330
1F
100
AcDbEntity
  8
SK1
100
AcDbPolyline
 90
       13
 70
     0
 43
0.0
 10
-6.508194973723851
 20
1.086101509416687
 10
-6.52613714414053
 20
1.267459021166688
 10
-6.544071222807183
 20
1.438188059083353
 10
-6.562002600140518
 20
1.596922214333345
 10
-6.579936035223851
 20
1.742311635666698
 10
-6.597867875973856
 20
1.873163092833353
 10
-6.615792560390521
 20
1.988389325583353
 10
-6.633717980890519
 20
2.087007254416688
 10
-6.651644779557202
 20
2.168215920500026
 10
-6.669581286807186
 20
2.231438934666675
 10
-6.68753812855719
 20
2.276066046166695
 10
-6.705506065307186
 20
2.301617314666688
 10
-6.720246446807191
 20
2.308656492000028
  0
LWPOLYLINE
  5
15D7
330
1F
100
AcDbEntity
  8
SK1
100
AcDbPolyline
 90
       14
 70
     0
 43
0.0
 10
-5.972328981390521
 20
1.119948508666694
 10
-5.989583670473862
 20
1.325000584833356
 10
-6.006797810807189
 20
1.519998140500026
 10
-6.023971308223855
 20
1.703424138333356
 10
-6.041083096390521
 20
1.87385481508335
 10
-6.05815059522385
 20
2.030025587166693
 10
-6.075174104473857
 20
2.170770214750026
 10
-6.092183918307189
 20
2.294991735750033
 10
-6.109203996223866
 20
2.401730001833345
 10
-6.126253642057189
 20
2.490191673083353
 10
-6.143364124473861
 20
2.559711302416693
 10
-6.160523508723856
 20
2.609748895000016
 10
-6.177742747057178
 20
2.639920969083354
 10
-6.194980795557196
 20
2.650000887500016
  0
LINE
  5
15D8
330
1F
100
AcDbEntity
  8
SK1
100
AcDbLine
 10
-5.553040762390511
 20
1.324892499000028
 30
0.0
 11
-5.518653389807195
 21
0.9062632705000297
 31
0.0
  0
LINE
  5
15D9
330
1F
100
AcDbEntity
  8
SK1
100
AcDbLine
 10
-3.991932147723849
 20
2.308558235750029
 30
0.0
 11
-4.262897555723862
 21
2.308792585333355
 31
0.0
  0
LINE
  5
15DA
330
1F
100
AcDbEntity
  8
SK1
100
AcDbLine
 10
-3.902276307973856
 20
2.338496264000026
 30
0.0
 11
-3.917470128307188
 21
2.328376071416693
 31
0.0
  0
LWPOLYLINE
  5
15DB
330
1F
100
AcDbEntity
  8
SK1
100
AcDbPolyline
 90
        5
 70
     0
 43
0.0
 10
-3.917470128307188
 20
2.328376071416687
 10
-3.936467095140525
 20
2.319199198083356
 10
-3.957560279390528
 20
2.312592147833348
 10
-3.979915727557176
 20
2.309137881166675
 10
-3.991654704973854
 20
2.308582072666675
  0
LWPOLYLINE
  5
15DC
330
1F
100
AcDbEntity
  8
SK1
100
AcDbPolyline
 90
        5
 70
     0
 43
0.0
 10
-3.876348947359825
 20
2.365580149500259
 10
-3.877556097307186
 20
2.363731995416688
 10
-3.882656519890526
 20
2.357121453083371
 10
-3.890642133640522
 20
2.348545897916685
 10
-3.902276307973856
 20
2.338496264000016
  0
LWPOLYLINE
  5
15DD
330
1F
100
AcDbEntity
  8
SK1
100
AcDbPolyline
 90
       10
 70
     0
 43
0.0
 10
-4.456514761640518
 20
2.490155695916693
 10
-4.439416201890518
 20
2.401683822916687
 10
-4.422290797807185
 20
2.294934260500026
 10
-4.405120700723856
 20
2.170701235666696
 10
-4.387931177890521
 20
2.02994498033335
 10
-4.37073863530718
 20
1.873762724416688
 10
-4.353551808057193
 20
1.703321639750025
 10
-4.336382957807185
 20
1.519887394750034
 10
-4.319237911473856
 20
1.324884439833356
 10
-4.302129494890534
 20
1.119831765583354
  0
LWPOLYLINE
  5
15DE
330
1F
100
AcDbEntity
  8
SK1
100
AcDbPolyline
 90
        5
 70
     0
 43
0.0
 10
-4.516328549640531
 20
2.647503009750017
 10
-4.507738812390511
 20
2.639911290333353
 10
-4.490659627640511
 20
2.609730217500028
 10
-4.473590394140527
 20
2.559684044166695
 10
-4.456514761640518
 20
2.490155695916693
  0
LWPOLYLINE
  5
15DF
330
1F
100
AcDbEntity
  8
SK1
100
AcDbPolyline
 90
        4
 70
     0
 43
0.0
 10
-4.337194215973855
 20
2.328751697250025
 10
-4.354512779140523
 20
2.340592368833354
 10
-4.366876887890532
 20
2.351921936166688
 10
-4.374572664807191
 20
2.360847691500008
  0
LINE
  5
15E0
330
1F
100
AcDbEntity
  8
SK1
100
AcDbLine
 10
-4.524837259390523
 20
2.650000887500016
 30
0.0
 11
-4.516328549640531
 21
2.647503009750017
 31
0.0
  0
LWPOLYLINE
  5
15E1
330
1F
100
AcDbEntity
  8
SK1
100
AcDbPolyline
 90
        7
 70
     0
 43
0.0
 10
-4.420956436473867
 20
2.502063460250026
 10
-4.43823459072386
 20
2.549570232500015
 10
-4.454475377473863
 20
2.582369524166685
 10
-4.469455823557176
 20
2.604999201583348
 10
-4.484405015307186
 20
2.622316634333353
 10
-4.500223461723853
 20
2.636448135333354
 10
-4.516353315390515
 20
2.647449533500014
  0
LINE
  5
15E2
330
1F
100
AcDbEntity
  8
SK1
100
AcDbLine
 10
-4.374572664807191
 20
2.360847691500017
 30
0.0
 11
-4.378044502057187
 21
2.365751360333351
 31
0.0
  0
LINE
  5
15E3
330
1F
100
AcDbEntity
  8
SK1
100
AcDbLine
 10
-4.378027697535872
 20
2.365727625405209
 30
0.0
 11
-4.421015318807186
 21
2.502230266583349
 31
0.0
  0
LINE
  5
15E4
330
1F
100
AcDbEntity
  8
SK1
100
AcDbLine
 10
-4.302129494890534
 20
1.119831765583354
 30
0.0
 11
-4.267999976390521
 21
0.685770720583345
 31
0.0
  0
LWPOLYLINE
  5
15E5
330
1F
100
AcDbEntity
  8
SK1
100
AcDbPolyline
 90
        4
 70
     0
 43
0.0
 10
-4.262941633973852
 20
2.308812043333356
 10
-4.287536066307199
 20
2.31091890325001
 10
-4.31413769305718
 20
2.317979535250016
 10
-4.337194215973855
 20
2.328751697250025
  0
LINE
  5
15E6
330
1F
100
AcDbEntity
  8
SK1
100
AcDbLine
 10
-3.29167355822387
 20
2.650568011166693
 30
0.0
 11
-3.727860542557194
 21
2.650568011166693
 31
0.0
  0
LWPOLYLINE
  5
15E7
330
1F
100
AcDbEntity
  8
SK1
100
AcDbPolyline
 90
        5
 70
     0
 43
0.0
 10
-3.876769348028756
 20
2.365402437589837
 10
-3.877092385057196
 20
2.364893303000036
 10
-3.881718635057193
 20
2.358698896416695
 10
-3.88930560597386
 20
2.350268007166707
 10
-3.900830936640529
 20
2.33998121891671
  0
LINE
  5
15E8
330
1F
100
AcDbEntity
  8
SK1
100
AcDbLine
 10
-3.727860529057201
 20
2.650568011166693
 30
0.0
 11
-3.736144493890531
 21
2.648204811500046
 31
0.0
  0
LINE
  5
15E9
330
1F
100
AcDbEntity
  8
SK1
100
AcDbLine
 10
-3.900830936640531
 20
2.33998121891671
 30
0.0
 11
-3.916461903223868
 21
2.329293803166704
 31
0.0
  0
LWPOLYLINE
  5
15EA
330
1F
100
AcDbEntity
  8
SK1
100
AcDbPolyline
 90
       13
 70
     0
 43
0.0
 10
-3.522541356723866
 20
1.325598981583367
 10
-3.539613926723863
 20
1.520588829583376
 10
-3.556702166307203
 20
1.704009879333369
 10
-3.573817961307191
 20
1.874440370666696
 10
-3.590956524640536
 20
2.030610672583377
 10
-3.608124042140526
 20
2.171349615250036
 10
-3.625299480557206
 20
2.295567380500036
 10
-3.642471326973871
 20
2.402308676333354
 10
-3.659617205890529
 20
2.490771829333371
 10
-3.676697616890528
 20
2.560287971750037
 10
-3.693752421723861
 20
2.610321413833352
 10
-3.710798164223859
 20
2.640490138166695
 10
-3.727860529057201
 20
2.650568011166693
  0
LWPOLYLINE
  5
15EB
330
1F
100
AcDbEntity
  8
SK1
100
AcDbPolyline
 90
        9
 70
     0
 43
0.0
 10
-3.736103237807193
 20
2.64820468241671
 10
-3.756047965473863
 20
2.634632919166696
 10
-3.774726931223875
 20
2.617030548166705
 10
-3.789235540223866
 20
2.598863191166694
 10
-3.800747520140543
 20
2.580720273333365
 10
-3.810284506807198
 20
2.562499056750029
 10
-3.818579973057187
 20
2.543761461583375
 10
-3.826122254723866
 20
2.524032676166707
 10
-3.833104927890524
 20
2.503256592500024
  0
LINE
  5
15EC
330
1F
100
AcDbEntity
  8
SK1
100
AcDbLine
 10
-3.736144493890531
 20
2.648204811500046
 30
0.0
 11
-3.744993613223877
 21
2.640478758000038
 31
0.0
  0
LINE
  5
15ED
330
1F
100
AcDbEntity
  8
SK1
100
AcDbLine
 10
-3.833268954140542
 20
2.502794174666691
 30
0.0
 11
-3.876769348057191
 21
2.365402437500017
 31
0.0
  0
LWPOLYLINE
  5
15EE
330
1F
100
AcDbEntity
  8
SK1
100
AcDbPolyline
 90
        5
 70
     0
 43
0.0
 10
-2.643185240026503
 20
2.366147273166935
 10
-2.644392389973865
 20
2.364299119083367
 10
-2.649492812557205
 20
2.357688576750048
 10
-2.657478426307199
 20
2.349113021583355
 10
-2.669112600640534
 20
2.339063387666696
  0
LINE
  5
15EF
330
1F
100
AcDbEntity
  8
SK1
100
AcDbLine
 10
-3.144863990202548
 20
2.366294749071878
 30
0.0
 11
-3.187851611473863
 21
2.502797390250025
 31
0.0
  0
LINE
  5
15F0
330
1F
100
AcDbEntity
  8
SK1
100
AcDbLine
 10
-3.141408957473867
 20
2.361414815166685
 30
0.0
 11
-3.144880794723865
 21
2.366318484000028
 31
0.0
  0
LWPOLYLINE
  5
15F1
330
1F
100
AcDbEntity
  8
SK1
100
AcDbPolyline
 90
        7
 70
     0
 43
0.0
 10
-3.187792729140542
 20
2.502630583916697
 10
-3.205070883390536
 20
2.550137356166695
 10
-3.221311670140539
 20
2.582936647833355
 10
-3.236292116223856
 20
2.605566325250026
 10
-3.251241307973865
 20
2.622883758000038
 10
-3.267059754390531
 20
2.637015259000029
 10
-3.283189608057193
 20
2.648016657166694
  0
LINE
  5
15F2
330
1F
100
AcDbEntity
  8
SK1
100
AcDbLine
 10
-2.495175781723871
 20
2.650568011166693
 30
0.0
 11
-2.503605530390538
 21
2.648130871666706
 31
0.0
  0
LWPOLYLINE
  5
15F3
330
1F
100
AcDbEntity
  8
SK1
100
AcDbPolyline
 90
       13
 70
     0
 43
0.0
 10
-2.289648807890523
 20
1.325601530166695
 10
-2.30677341414053
 20
1.52059377891671
 10
-2.323866730973861
 20
1.704015211666688
 10
-2.340927486890529
 20
1.874442531166694
 10
-2.357982665140537
 20
2.030610807500016
 10
-2.375056450473871
 20
2.171353643250034
 10
-2.392155966973867
 20
2.295573733583365
 10
-2.409304430807198
 20
2.402310795666688
 10
-2.426477750390529
 20
2.490770777000029
 10
-2.443663193890524
 20
2.560287960166713
 10
-2.460849898390534
 20
2.610322493333365
 10
-2.478021950223864
 20
2.640491154583374
 10
-2.495175781723871
 20
2.650568011166693
  0
LWPOLYLINE
  5
15F4
330
1F
100
AcDbEntity
  8
SK1
100
AcDbPolyline
 90
        5
 70
     0
 43
0.0
 10
-2.684306420973864
 20
2.328943195083366
 10
-2.703303387807201
 20
2.319766321750036
 10
-2.724396572057206
 20
2.313159271500029
 10
-2.746752020223851
 20
2.309705004833356
 10
-2.758490997640531
 20
2.309149196333352
  0
LINE
  5
15F5
330
1F
100
AcDbEntity
  8
SK1
100
AcDbLine
 10
-2.669112600640534
 20
2.339063387666696
 30
0.0
 11
-2.684306420973864
 21
2.328943195083366
 31
0.0
  0
LWPOLYLINE
  5
15F6
330
1F
100
AcDbEntity
  8
SK1
100
AcDbPolyline
 90
        9
 70
     0
 43
0.0
 10
-2.503555305307199
 20
2.648130711916699
 10
-2.522459432807194
 20
2.635215074250029
 10
-2.541187306057203
 20
2.617641088583377
 10
-2.555731670973859
 20
2.599513512416693
 10
-2.567162085140529
 20
2.581549931666705
 10
-2.5766354675572
 20
2.563483731166694
 10
-2.584955695473863
 20
2.544735946250034
 10
-2.592530293140524
 20
2.524977678250034
 10
-2.599671972057203
 20
2.503764693083356
  0
LINE
  5
15F7
330
1F
100
AcDbEntity
  8
SK1
100
AcDbLine
 10
-2.599882093557194
 20
2.503069681666707
 30
0.0
 11
-2.643185239973864
 21
2.366147273333366
 31
0.0
  0
LWPOLYLINE
  5
15F8
330
1F
100
AcDbEntity
  8
SK1
100
AcDbPolyline
 90
        4
 70
     0
 43
0.0
 10
-3.029777926640531
 20
2.309379167000034
 10
-3.054372358973874
 20
2.311486026916687
 10
-3.080973985723856
 20
2.318546658916686
 10
-3.104030508640531
 20
2.329318820916705
  0
LINE
  5
15F9
330
1F
100
AcDbEntity
  8
SK1
100
AcDbLine
 10
-2.758768440390526
 20
2.309125359416706
 30
0.0
 11
-3.029733848390538
 21
2.309359709000037
 31
0.0
  0
LINE
  5
15FA
330
1F
100
AcDbEntity
  8
SK1
100
AcDbLine
 10
-3.291673552057201
 20
2.650568011166693
 30
0.0
 11
-3.283164842307209
 21
2.648070133416693
 31
0.0
  0
LWPOLYLINE
  5
15FB
330
1F
100
AcDbEntity
  8
SK1
100
AcDbPolyline
 90
        4
 70
     0
 43
0.0
 10
-3.104030508640531
 20
2.329318820916705
 10
-3.121349071807201
 20
2.341159492500035
 10
-3.133713180557209
 20
2.352489059833358
 10
-3.141408957473867
 20
2.361414815166685
  0
LWPOLYLINE
  5
15FC
330
1F
100
AcDbEntity
  8
SK1
100
AcDbPolyline
 90
        5
 70
     0
 43
0.0
 10
-3.283164842307209
 20
2.648070133416693
 10
-3.27457510505719
 20
2.640478414000027
 10
-3.25749592030719
 20
2.610297341166709
 10
-3.240426686807205
 20
2.560251167833373
 10
-3.223351054307196
 20
2.490722819583366
  0
LINE
  5
15FD
330
1F
100
AcDbEntity
  8
SK1
100
AcDbLine
 10
-1.550169277140533
 20
2.650568011166693
 30
0.0
 11
-2.49517577664053
 21
2.650568011166693
 31
0.0
  0
LINE
  5
15FE
330
1F
100
AcDbEntity
  8
SK1
100
AcDbLine
 10
-3.068965787557211
 20
1.120398889250028
 30
0.0
 11
-3.034836269057199
 21
0.6863378442500292
 31
0.0
  0
LINE
  5
15FF
330
1F
100
AcDbEntity
  8
SK1
100
AcDbLine
 10
-3.488412355723866
 20
0.9069973265000392
 30
0.0
 11
-3.522541356723866
 21
1.325598981583367
 31
0.0
  0
LINE
  5
1600
330
1F
100
AcDbEntity
  8
SK1
100
AcDbLine
 10
-2.255282558557198
 20
0.9069900450000176
 30
0.0
 11
-2.289648807890523
 21
1.32560153016671
 31
0.0
  0
LWPOLYLINE
  5
1601
330
1F
100
AcDbEntity
  8
SK1
100
AcDbPolyline
 90
       10
 70
     0
 43
0.0
 10
-3.223351054307196
 20
2.490722819583366
 10
-3.206252494557196
 20
2.402250946583366
 10
-3.189127090473863
 20
2.295501384166704
 10
-3.171956993390534
 20
2.17126835933337
 10
-3.154767470557198
 20
2.030512104000026
 10
-3.137574927973856
 20
1.874329848083355
 10
-3.12038810072387
 20
1.703888763416709
 10
-3.103219250473861
 20
1.520454518416708
 10
-3.086074204140533
 20
1.325451563500034
 10
-3.068965787557211
 20
1.120398889250038
  0
LINE
  5
1602
330
1F
100
AcDbEntity
  8
SK1
100
AcDbLine
 10
-1.466835943807204
 20
-2.766065173666647
 30
0.0
 11
-1.466835943807204
 21
2.767199421000035
 31
0.0
  0
LWPOLYLINE
  5
1603
330
1F
100
AcDbEntity
  8
1
100
AcDbPolyline
 90
        3
 70
     1
 43
0.0
 10
0.0000000000003129
 20
2.213229040584475
 10
0.0000000000003129
 20
0.0000000000000171
 10
2.213229040584792
 20
0.0000000000000171
 42
0.4142135623730966
  0
LINE
  5
1604
330
1F
100
AcDbEntity
  8
SK1
100
AcDbLine
 10
0.0000000000003131
 20
-2.842895354869881
 30
0.0
 11
-1.466820221973865
 21
-2.766041886999971
 31
0.0
  0
LINE
  5
1605
330
1F
100
AcDbEntity
  8
SK1
100
AcDbLine
 10
0.0000000000003138
 20
2.844029602119926
 30
0.0
 11
-1.466820221973865
 21
2.767176134250038
 31
0.0
  0
LINE
  5
17F0
330
1F
100
AcDbEntity
  8
1
100
AcDbLine
 10
1.842253402240226
 20
-4.215189704854871
 30
0.0
 11
6.199999999999998
 21
-4.150001500679922
 31
0.0
  0
DIMENSION
  5
18FE
330
1F
100
AcDbEntity
  8
SK2
100
AcDbDimension
  2
*D8
 10
-11.23310037650091
 20
-2.65000048191664
 30
0.0
 11
-11.23310037650091
 21
0.0000002027916868
 31
0.0
 70
   160
  1
Ts<>
  3
ISO-25
100
AcDbAlignedDimension
 13
-5.976886324057191
 23
2.650000887500016
 33
0.0
 14
-6.593414779223855
 24
-2.650000481916642
 34
0.0
 50
90.0
100
AcDbRotatedDimension
1001
ACAD
1000
DSTYLE
1002
{
1070
   271
1070
     0
1002
}
  0
ENDSEC
  0
SECTION
  2
OBJECTS
  0
DICTIONARY
  5
56C
330
0
100
AcDbDictionary
  3
ACAD_GROUP
350
56D
  3
ACAD_LAYOUT
350
574
  3
ACAD_MLINESTYLE
350
56E
  3
ACAD_PLOTSETTINGS
350
575
  3
ACAD_PLOTSTYLENAME
350
572
  3
ACDBHEADERROUNDTRIPXREC
350
192F
  3
ACDBVARIABLEDICTIONARY
350
10BC
  0
DICTIONARY
  5
AF0
330
1F
100
AcDbDictionary
280
     1
  3
ACAD_LAYOUTSELFREF
360
1950
  0
DICTIONARY
  5
AEE
330
1B
100
AcDbDictionary
280
     1
  3
ACAD_LAYOUTSELFREF
360
194F
  0
DICTIONARY
  5
56D
102
{ACAD_REACTORS
330
56C
102
}
330
56C
100
AcDbDictionary
  0
DICTIONARY
  5
574
102
{ACAD_REACTORS
330
56C
102
}
330
56C
100
AcDbDictionary
  0
DICTIONARY
  5
56E
102
{ACAD_REACTORS
330
56C
102
}
330
56C
100
AcDbDictionary
  3
STANDARD
350
56F
  0
DICTIONARY
  5
575
102
{ACAD_REACTORS
330
56C
102
}
330
56C
100
AcDbDictionary
  0
ACDBDICTIONARYWDFLT
  5
572
102
{ACAD_REACTORS
330
56C
102
}
330
56C
100
AcDbDictionary
281
     1
  3
Normal
350
573
100
AcDbDictionaryWithDefault
340
573
  0
DICTIONARY
  5
192F
102
{ACAD_REACTORS
330
56C
102
}
330
56C
100
AcDbDictionary
  3
CEPSNTYPE
350
1939
  3
FINGERPRINTGUID
350
193A
  3
HYPERLINKBASE
350
1932
  3
INSUNITS
350
1938
  3
LAYOUTDICT
350
1934
  3
LWETCUNION
350
1937
  3
PLOTSETDICT
350
1935
  3
PLOTSTYLNAMDICT
350
1936
  3
PSVPSCALE
350
193C
  3
PUCSBASE
350
193F
  3
PUCSORGBACK
350
1945
  3
PUCSORGBOTTOM
350
1941
  3
PUCSORGFRONT
350
1944
  3
PUCSORGLEFT
350
1942
  3
PUCSORGRIGHT
350
1943
  3
PUCSORGTOP
350
1940
  3
PUCSORTHOREF
350
193D
  3
PUCSORTHOVIEW
350
193E
  3
STYLESHEET
350
1933
  3
TSTACKALIGN
350
1930
  3
TSTACKSIZE
350
1931
  3
UCSBASE
350
1948
  3
UCSORGBACK
350
194E
  3
UCSORGBOTTOM
350
194A
  3
UCSORGFRONT
350
194D
  3
UCSORGLEFT
350
194B
  3
UCSORGRIGHT
350
194C
  3
UCSORGTOP
350
1949
  3
UCSORTHOREF
350
1946
  3
UCSORTHOVIEW
350
1947
  3
VERSIONGUID
350
193B
  0
DICTIONARY
  5
10BC
102
{ACAD_REACTORS
330
56C
102
}
330
56C
100
AcDbDictionary
  3
SORTENTS
350
10BD
  0
XRECORD
  5
1950
102
{ACAD_REACTORS
330
AF0
102
}
330
AF0
100
AcDbXrecord
340
1F
  0
XRECORD
  5
194F
102
{ACAD_REACTORS
330
AEE
102
}
330
AEE
100
AcDbXrecord
340
1B
  0
MLINESTYLE
  5
56F
102
{ACAD_REACTORS
330
56E
102
}
330
56E
100
AcDbMlineStyle
  2
STANDARD
 70
     0
  3

 62
   256
 51
90.0
 52
90.0
 71
     2
 49
0.5
 62
   256
  6
BYLAYER
 49
-0.5
 62
   256
  6
BYLAYER
  0
ACDBPLACEHOLDER
  5
573
102
{ACAD_REACTORS
330
572
102
}
330
572
100
AcDbPlaceHolder
280
     0
  0
XRECORD
  5
1939
102
{ACAD_REACTORS
330
192F
102
}
330
192F
100
AcDbXrecord
 90
        0
  0
XRECORD
  5
193A
102
{ACAD_REACTORS
330
192F
102
}
330
192F
100
AcDbXrecord
  1
{91885192-BF09-408E-931E-B83B272C8839}
  0
XRECORD
  5
1932
102
{ACAD_REACTORS
330
192F
102
}
330
192F
100
AcDbXrecord
  1

  0
XRECORD
  5
1938
102
{ACAD_REACTORS
330
192F
102
}
330
192F
100
AcDbXrecord
 90
        0
  0
XRECORD
  5
1934
102
{ACAD_REACTORS
330
192F
102
}
330
192F
100
AcDbXrecord
340
574
  0
XRECORD
  5
1937
102
{ACAD_REACTORS
330
192F
102
}
330
192F
100
AcDbXrecord
 90
    10781
  0
XRECORD
  5
1935
102
{ACAD_REACTORS
330
192F
102
}
330
192F
100
AcDbXrecord
340
575
  0
XRECORD
  5
1936
102
{ACAD_REACTORS
330
192F
102
}
330
192F
100
AcDbXrecord
340
572
  0
XRECORD
  5
193C
102
{ACAD_REACTORS
330
192F
102
}
330
192F
100
AcDbXrecord
 40
0.0
  0
XRECORD
  5
193F
102
{ACAD_REACTORS
330
192F
102
}
330
192F
100
AcDbXrecord
340
0
  0
XRECORD
  5
1945
102
{ACAD_REACTORS
330
192F
102
}
330
192F
100
AcDbXrecord
 10
0.0
 20
0.0
 30
0.0
  0
XRECORD
  5
1941
102
{ACAD_REACTORS
330
192F
102
}
330
192F
100
AcDbXrecord
 10
0.0
 20
0.0
 30
0.0
  0
XRECORD
  5
1944
102
{ACAD_REACTORS
330
192F
102
}
330
192F
100
AcDbXrecord
 10
0.0
 20
0.0
 30
0.0
  0
XRECORD
  5
1942
102
{ACAD_REACTORS
330
192F
102
}
330
192F
100
AcDbXrecord
 10
0.0
 20
0.0
 30
0.0
  0
XRECORD
  5
1943
102
{ACAD_REACTORS
330
192F
102
}
330
192F
100
AcDbXrecord
 10
0.0
 20
0.0
 30
0.0
  0
XRECORD
  5
1940
102
{ACAD_REACTORS
330
192F
102
}
330
192F
100
AcDbXrecord
 10
0.0
 20
0.0
 30
0.0
  0
XRECORD
  5
193D
102
{ACAD_REACTORS
330
192F
102
}
330
192F
100
AcDbXrecord
340
0
  0
XRECORD
  5
193E
102
{ACAD_REACTORS
330
192F
102
}
330
192F
100
AcDbXrecord
 70
     0
  0
XRECORD
  5
1933
102
{ACAD_REACTORS
330
192F
102
}
330
192F
100
AcDbXrecord
  1

  0
XRECORD
  5
1930
102
{ACAD_REACTORS
330
192F
102
}
330
192F
100
AcDbXrecord
 90
        1
  0
XRECORD
  5
1931
102
{ACAD_REACTORS
330
192F
102
}
330
192F
100
AcDbXrecord
 90
       70
  0
XRECORD
  5
1948
102
{ACAD_REACTORS
330
192F
102
}
330
192F
100
AcDbXrecord
340
0
  0
XRECORD
  5
194E
102
{ACAD_REACTORS
330
192F
102
}
330
192F
100
AcDbXrecord
 10
0.0
 20
0.0
 30
0.0
  0
XRECORD
  5
194A
102
{ACAD_REACTORS
330
192F
102
}
330
192F
100
AcDbXrecord
 10
0.0
 20
0.0
 30
0.0
  0
XRECORD
  5
194D
102
{ACAD_REACTORS
330
192F
102
}
330
192F
100
AcDbXrecord
 10
0.0
 20
0.0
 30
0.0
  0
XRECORD
  5
194B
102
{ACAD_REACTORS
330
192F
102
}
330
192F
100
AcDbXrecord
 10
0.0
 20
0.0
 30
0.0
  0
XRECORD
  5
194C
102
{ACAD_REACTORS
330
192F
102
}
330
192F
100
AcDbXrecord
 10
0.0
 20
0.0
 30
0.0
  0
XRECORD
  5
1949
102
{ACAD_REACTORS
330
192F
102
}
330
192F
100
AcDbXrecord
 10
0.0
 20
0.0
 30
0.0
  0
XRECORD
  5
1946
102
{ACAD_REACTORS
330
192F
102
}
330
192F
100
AcDbXrecord
340
0
  0
XRECORD
  5
1947
102
{ACAD_REACTORS
330
192F
102
}
330
192F
100
AcDbXrecord
 70
     0
  0
XRECORD
  5
193B
102
{ACAD_REACTORS
330
192F
102
}
330
192F
100
AcDbXrecord
  1
{967F3716-6B9E-40AD-A024-ADB562A487C4}
  0
DICTIONARYVAR
  5
10BD
102
{ACAD_REACTORS
330
10BC
102
}
330
10BC
100
DictionaryVariables
280
     0
  1
96
  0
ENDSEC
  0
EOF
