  0
SECTION
  2
HEADER
  9
$ACADVER
  1
AC1018
  9
$ACADMAINTVER
 70
   104
  9
$DWGCODEPAGE
  3
ANSI_1252
  9
$LASTSAVEDBY
  1
kamerka
  9
$INSBASE
 10
0.0
 20
0.0
 30
0.0
  9
$EXTMIN
 10
-18.8922559103139
 20
-31.4389026461156
 30
-0.0000000000112498
  9
$EXTMAX
 10
38.3526926950467
 20
37.55294874025617
 30
0.0000000000002956
  9
$LIMMIN
 10
-170.0
 20
-170.0
  9
$LIMMAX
 10
519.0
 20
260.0
  9
$ORTHOMODE
 70
     0
  9
$REGENMODE
 70
     1
  9
$FILLMODE
 70
     1
  9
$QTEXTMODE
 70
     0
  9
$MIRRTEXT
 70
     0
  9
$LTSCALE
 40
1.0
  9
$ATTMODE
 70
     1
  9
$TEXTSIZE
 40
5.0
  9
$TRACEWID
 40
1.0
  9
$TEXTSTYLE
  7
STANDARD
  9
$CLAYER
  8
0
  9
$CELTYPE
  6
BYLAYER
  9
$CECOLOR
 62
   256
  9
$CELTSCALE
 40
1.0
  9
$DISPSILH
 70
     0
  9
$DIMSCALE
 40
1.0
  9
$DIMASZ
 40
2.5
  9
$DIMEXO
 40
0.0
  9
$DIMDLI
 40
3.75
  9
$DIMRND
 40
0.0
  9
$DIMDLE
 40
0.0
  9
$DIMEXE
 40
1.25
  9
$DIMTP
 40
0.0
  9
$DIMTM
 40
0.0
  9
$DIMTXT
 40
3.5
  9
$DIMCEN
 40
0.0
  9
$DIMTSZ
 40
0.0
  9
$DIMTOL
 70
     0
  9
$DIMLIM
 70
     0
  9
$DIMTIH
 70
     0
  9
$DIMTOH
 70
     0
  9
$DIMSE1
 70
     0
  9
$DIMSE2
 70
     0
  9
$DIMTAD
 70
     1
  9
$DIMZIN
 70
     1
  9
$DIMBLK
  1

  9
$DIMASO
 70
     1
  9
$DIMSHO
 70
     1
  9
$DIMPOST
  1

  9
$DIMAPOST
  1

  9
$DIMALT
 70
     0
  9
$DIMALTD
 70
     3
  9
$DIMALTF
 40
0.039370078
  9
$DIMLFAC
 40
1.0
  9
$DIMTOFL
 70
     0
  9
$DIMTVP
 40
0.0
  9
$DIMTIX
 70
     0
  9
$DIMSOXD
 70
     0
  9
$DIMSAH
 70
     0
  9
$DIMBLK1
  1

  9
$DIMBLK2
  1

  9
$DIMSTYLE
  2
STANDARD
  9
$DIMCLRD
 70
     0
  9
$DIMCLRE
 70
     0
  9
$DIMCLRT
 70
     0
  9
$DIMTFAC
 40
1.0
  9
$DIMGAP
 40
0.625
  9
$DIMJUST
 70
     0
  9
$DIMSD1
 70
     0
  9
$DIMSD2
 70
     0
  9
$DIMTOLJ
 70
     0
  9
$DIMTZIN
 70
     8
  9
$DIMALTZ
 70
     0
  9
$DIMALTTZ
 70
     0
  9
$DIMUPT
 70
     0
  9
$DIMDEC
 70
     2
  9
$DIMTDEC
 70
     2
  9
$DIMALTU
 70
     2
  9
$DIMALTTD
 70
     3
  9
$DIMTXSTY
  7
STANDARD
  9
$DIMAUNIT
 70
     0
  9
$DIMADEC
 70
     2
  9
$DIMALTRND
 40
0.0
  9
$DIMAZIN
 70
     0
  9
$DIMDSEP
 70
    46
  9
$DIMATFIT
 70
     3
  9
$DIMFRAC
 70
     0
  9
$DIMLDRBLK
  1

  9
$DIMLUNIT
 70
     2
  9
$DIMLWD
 70
    -2
  9
$DIMLWE
 70
    -2
  9
$DIMTMOVE
 70
     0
  9
$LUNITS
 70
     2
  9
$LUPREC
 70
     4
  9
$SKETCHINC
 40
1.0
  9
$FILLETRAD
 40
0.0
  9
$AUNITS
 70
     0
  9
$AUPREC
 70
     0
  9
$MENU
  1
c:\tdm21\cad\caduti13\tdm13
  9
$ELEVATION
 40
0.0
  9
$PELEVATION
 40
0.0
  9
$THICKNESS
 40
0.0
  9
$LIMCHECK
 70
     0
  9
$CHAMFERA
 40
0.0
  9
$CHAMFERB
 40
0.0
  9
$CHAMFERC
 40
0.0
  9
$CHAMFERD
 40
0.0
  9
$SKPOLY
 70
     0
  9
$TDCREATE
 40
2455979.404544838
  9
$TDUCREATE
 40
2455979.321211505
  9
$TDUPDATE
 40
2456399.364717697
  9
$TDUUPDATE
 40
2456399.281384364
  9
$TDINDWG
 40
0.0037257060
  9
$TDUSRTIMER
 40
0.0037255208
  9
$USRTIMER
 70
     1
  9
$ANGBASE
 50
0.0
  9
$ANGDIR
 70
     0
  9
$PDMODE
 70
     1
  9
$PDSIZE
 40
0.0
  9
$PLINEWID
 40
0.0
  9
$SPLFRAME
 70
     0
  9
$SPLINETYPE
 70
     6
  9
$SPLINESEGS
 70
     8
  9
$HANDSEED
  5
1065
  9
$SURFTAB1
 70
     6
  9
$SURFTAB2
 70
     6
  9
$SURFTYPE
 70
     6
  9
$SURFU
 70
     6
  9
$SURFV
 70
     6
  9
$UCSBASE
  2

  9
$UCSNAME
  2

  9
$UCSORG
 10
0.0
 20
0.0
 30
0.0
  9
$UCSXDIR
 10
1.0
 20
0.0
 30
0.0
  9
$UCSYDIR
 10
0.0
 20
1.0
 30
0.0
  9
$UCSORTHOREF
  2

  9
$UCSORTHOVIEW
 70
     0
  9
$UCSORGTOP
 10
0.0
 20
0.0
 30
0.0
  9
$UCSORGBOTTOM
 10
0.0
 20
0.0
 30
0.0
  9
$UCSORGLEFT
 10
0.0
 20
0.0
 30
0.0
  9
$UCSORGRIGHT
 10
0.0
 20
0.0
 30
0.0
  9
$UCSORGFRONT
 10
0.0
 20
0.0
 30
0.0
  9
$UCSORGBACK
 10
0.0
 20
0.0
 30
0.0
  9
$PUCSBASE
  2

  9
$PUCSNAME
  2

  9
$PUCSORG
 10
0.0
 20
0.0
 30
0.0
  9
$PUCSXDIR
 10
1.0
 20
0.0
 30
0.0
  9
$PUCSYDIR
 10
0.0
 20
1.0
 30
0.0
  9
$PUCSORTHOREF
  2

  9
$PUCSORTHOVIEW
 70
     0
  9
$PUCSORGTOP
 10
0.0
 20
0.0
 30
0.0
  9
$PUCSORGBOTTOM
 10
0.0
 20
0.0
 30
0.0
  9
$PUCSORGLEFT
 10
0.0
 20
0.0
 30
0.0
  9
$PUCSORGRIGHT
 10
0.0
 20
0.0
 30
0.0
  9
$PUCSORGFRONT
 10
0.0
 20
0.0
 30
0.0
  9
$PUCSORGBACK
 10
0.0
 20
0.0
 30
0.0
  9
$USERI1
 70
     0
  9
$USERI2
 70
     0
  9
$USERI3
 70
     0
  9
$USERI4
 70
     0
  9
$USERI5
 70
     0
  9
$USERR1
 40
0.0
  9
$USERR2
 40
0.0
  9
$USERR3
 40
0.0
  9
$USERR4
 40
0.0
  9
$USERR5
 40
0.0
  9
$WORLDVIEW
 70
     1
  9
$SHADEDGE
 70
     3
  9
$SHADEDIF
 70
    70
  9
$TILEMODE
 70
     1
  9
$MAXACTVP
 70
    64
  9
$PINSBASE
 10
0.0
 20
0.0
 30
0.0
  9
$PLIMCHECK
 70
     0
  9
$PEXTMIN
 10
0.0
 20
0.0
 30
0.0
  9
$PEXTMAX
 10
0.0
 20
0.0
 30
0.0
  9
$PLIMMIN
 10
0.0
 20
0.0
  9
$PLIMMAX
 10
12.0
 20
9.0
  9
$UNITMODE
 70
     0
  9
$VISRETAIN
 70
     0
  9
$PLINEGEN
 70
     0
  9
$PSLTSCALE
 70
     1
  9
$TREEDEPTH
 70
  3020
  9
$CMLSTYLE
  2
STANDARD
  9
$CMLJUST
 70
     0
  9
$CMLSCALE
 40
20.0
  9
$PROXYGRAPHICS
 70
     1
  9
$MEASUREMENT
 70
     1
  9
$CELWEIGHT
370
    -1
  9
$ENDCAPS
280
     0
  9
$JOINSTYLE
280
     0
  9
$LWDISPLAY
290
     0
  9
$INSUNITS
 70
     4
  9
$HYPERLINKBASE
  1

  9
$STYLESHEET
  1
MONOCHROME.CTB
  9
$XEDIT
290
     1
  9
$CEPSNTYPE
380
     0
  9
$PSTYLEMODE
290
     1
  9
$FINGERPRINTGUID
  2
{8424E235-B7E9-4594-8A17-B296DA8C8B74}
  9
$VERSIONGUID
  2
{E1C23DF2-2BCA-493A-82E4-442DEE787D91}
  9
$EXTNAMES
290
     1
  9
$PSVPSCALE
 40
0.0
  9
$OLESTARTUP
290
     0
  9
$SORTENTS
280
   127
  9
$INDEXCTL
280
     0
  9
$HIDETEXT
280
     1
  9
$XCLIPFRAME
290
     0
  9
$HALOGAP
280
     0
  9
$OBSCOLOR
 70
   257
  9
$OBSLTYPE
280
     0
  9
$INTERSECTIONDISPLAY
280
     0
  9
$INTERSECTIONCOLOR
 70
   257
  9
$DIMASSOC
280
     2
  9
$PROJECTNAME
  1

  0
ENDSEC
  0
SECTION
  2
CLASSES
  0
CLASS
  1
ACDBDICTIONARYWDFLT
  2
AcDbDictionaryWithDefault
  3
ObjectDBX Classes
 90
        0
 91
        1
280
     0
281
     0
  0
CLASS
  1
DICTIONARYVAR
  2
AcDbDictionaryVar
  3
ObjectDBX Classes
 90
        0
 91
        7
280
     0
281
     0
  0
CLASS
  1
TABLESTYLE
  2
AcDbTableStyle
  3
ObjectDBX Classes
 90
     4095
 91
        1
280
     0
281
     0
  0
CLASS
  1
MATERIAL
  2
AcDbMaterial
  3
ObjectDBX Classes
 90
     1153
 91
        3
280
     0
281
     0
  0
CLASS
  1
VISUALSTYLE
  2
AcDbVisualStyle
  3
ObjectDBX Classes
 90
     4095
 91
       26
280
     0
281
     0
  0
CLASS
  1
SCALE
  2
AcDbScale
  3
ObjectDBX Classes
 90
     1153
 91
       33
280
     0
281
     0
  0
CLASS
  1
MLEADERSTYLE
  2
AcDbMLeaderStyle
  3
ACDB_MLEADERSTYLE_CLASS
 90
     4095
 91
        1
280
     0
281
     0
  0
CLASS
  1
CELLSTYLEMAP
  2
AcDbCellStyleMap
  3
ObjectDBX Classes
 90
     1152
 91
        2
280
     0
281
     0
  0
CLASS
  1
DIMASSOC
  2
AcDbDimAssoc
  3
"AcDbDimAssoc|Product Desc:     AcDim ARX App For Dimension|Company:          Autodesk, Inc.|WEB Address:      www.autodesk.com"
 90
        0
 91
        0
280
     0
281
     0
  0
CLASS
  1
SORTENTSTABLE
  2
AcDbSortentsTable
  3
ObjectDBX Classes
 90
        0
 91
        1
280
     0
281
     0
  0
CLASS
  1
MULTILEADER
  2
AcDbMLeader
  3
ACDB_MLEADER_CLASS
 90
     1025
 91
        1
280
     0
281
     1
  0
CLASS
  1
AEC_REFEDIT_STATUS_TRACKER
  2
AecDbRefEditStatusTracker
  3
AecArchBase60|Product Desc: Autodesk Architectural Desktop 2007 |Company: Autodesk,Inc. |WEB Address: www.autodesk.com
 90
      129
 91
        0
280
     0
281
     0
  0
CLASS
  1
NPOCOLLECTION
  2
AcDbImpNonPersistentObjectsCollection
  3
ObjectDBX Classes
 90
     1153
 91
        0
280
     0
281
     0
  0
ENDSEC
  0
SECTION
  2
TABLES
  0
TABLE
  2
VPORT
  5
8
330
0
100
AcDbSymbolTable
 70
     1
  0
VPORT
  5
3ED
330
8
100
AcDbSymbolTableRecord
100
AcDbViewportTableRecord
  2
*Active
 70
     0
 10
0.0
 20
0.0
 11
1.0
 21
1.0
 12
9.730218392366403
 22
3.057023047070284
 13
0.0
 23
0.0
 14
5.0
 24
5.0
 15
5.0
 25
5.0
 16
0.0
 26
0.0
 36
1.0
 17
0.0
 27
0.0
 37
0.0
 40
69.63563227022593
 41
1.922118380062305
 42
50.0
 43
0.0
 44
0.0
 50
0.0
 51
0.0
 71
     0
 72
  2000
 73
     1
 74
     3
 75
     0
 76
     0
 77
     0
 78
     0
281
     0
 65
     1
110
0.0
120
0.0
130
0.0
111
1.0
121
0.0
131
0.0
112
0.0
122
1.0
132
0.0
 79
     0
146
0.0
1001
ACAD_NAV_VCDISPLAY
1070
     3
  0
ENDTAB
  0
TABLE
  2
LTYPE
  5
5
330
0
100
AcDbSymbolTable
 70
     2
  0
LTYPE
  5
12
330
5
100
AcDbSymbolTableRecord
100
AcDbLinetypeTableRecord
  2
BYBLOCK
 70
     0
  3

 72
    65
 73
     0
 40
0.0
  0
LTYPE
  5
13
330
5
100
AcDbSymbolTableRecord
100
AcDbLinetypeTableRecord
  2
BYLAYER
 70
     0
  3

 72
    65
 73
     0
 40
0.0
  0
LTYPE
  5
14
330
5
100
AcDbSymbolTableRecord
100
AcDbLinetypeTableRecord
  2
CONTINUOUS
 70
     0
  3
Solid line
 72
    65
 73
     0
 40
0.0
  0
LTYPE
  5
6A7
330
5
100
AcDbSymbolTableRecord
100
AcDbLinetypeTableRecord
  2
CENTER2
 70
     0
  3
Center (.5x) ___ _ ___ _ ___ _ ___ _ ___ _ ___
 72
    65
 73
     4
 40
28.575
 49
19.05
 74
     0
 49
-3.174999999999998
 74
     0
 49
3.174999999999998
 74
     0
 49
-3.174999999999998
 74
     0
  0
ENDTAB
  0
TABLE
  2
LAYER
  5
2
102
{ACAD_XDICTIONARY
360
451
102
}
330
0
100
AcDbSymbolTable
 70
    11
  0
LAYER
  5
F
102
{ACAD_XDICTIONARY
360
F3A
102
}
330
2
100
AcDbSymbolTableRecord
100
AcDbLayerTableRecord
  2
0
 70
     0
 62
     7
  6
CONTINUOUS
370
    -3
390
300
  0
LAYER
  5
23
102
{ACAD_XDICTIONARY
360
F3C
102
}
330
2
100
AcDbSymbolTableRecord
100
AcDbLayerTableRecord
  2
1
 70
     0
 62
     4
  6
CONTINUOUS
370
    50
390
300
  0
LAYER
  5
24
102
{ACAD_XDICTIONARY
360
F3E
102
}
330
2
100
AcDbSymbolTableRecord
100
AcDbLayerTableRecord
  2
SK1
 70
     0
 62
     4
  6
CONTINUOUS
370
    50
390
300
  0
LAYER
  5
25
102
{ACAD_XDICTIONARY
360
F40
102
}
330
2
100
AcDbSymbolTableRecord
100
AcDbLayerTableRecord
  2
2
 70
     0
 62
     7
  6
CONTINUOUS
370
    25
390
300
  0
LAYER
  5
27
102
{ACAD_XDICTIONARY
360
F42
102
}
330
2
100
AcDbSymbolTableRecord
100
AcDbLayerTableRecord
  2
SK2
 70
     0
 62
     7
  6
CONTINUOUS
370
    25
390
300
  0
LAYER
  5
2A
102
{ACAD_XDICTIONARY
360
F44
102
}
330
2
100
AcDbSymbolTableRecord
100
AcDbLayerTableRecord
  2
4
 70
     0
 62
     2
  6
CENTER2
370
    25
390
300
  0
LAYER
  5
2B
102
{ACAD_XDICTIONARY
360
F46
102
}
330
2
100
AcDbSymbolTableRecord
100
AcDbLayerTableRecord
  2
SK4
 70
     0
 62
     2
  6
CENTER2
370
    25
390
300
  0
LAYER
  5
2E
102
{ACAD_XDICTIONARY
360
F48
102
}
330
2
100
AcDbSymbolTableRecord
100
AcDbLayerTableRecord
  2
SK6
 70
     0
 62
     5
  6
CONTINUOUS
370
    -3
390
300
  0
LAYER
  5
2F
330
2
100
AcDbSymbolTableRecord
100
AcDbLayerTableRecord
  2
DEFPOINTS
 70
     0
 62
     7
  6
CONTINUOUS
290
     0
370
    25
390
300
  0
LAYER
  5
375
102
{ACAD_XDICTIONARY
360
F4A
102
}
330
2
100
AcDbSymbolTableRecord
100
AcDbLayerTableRecord
  2
CUT
 70
     0
 62
     1
  6
CONTINUOUS
370
    25
390
300
  0
LAYER
  5
376
102
{ACAD_XDICTIONARY
360
F4C
102
}
330
2
100
AcDbSymbolTableRecord
100
AcDbLayerTableRecord
  2
NOCUT
 70
     0
 62
     7
  6
CONTINUOUS
370
    -3
390
300
  0
ENDTAB
  0
TABLE
  2
STYLE
  5
3
330
0
100
AcDbSymbolTable
 70
     1
  0
STYLE
  5
10
330
3
100
AcDbSymbolTableRecord
100
AcDbTextStyleTableRecord
  2
STANDARD
 70
     0
 40
0.0
 41
1.0
 50
0.0
 71
     0
 42
5.0
  3
isocp.shx
  4

  0
ENDTAB
  0
TABLE
  2
VIEW
  5
6
330
0
100
AcDbSymbolTable
 70
     0
  0
ENDTAB
  0
TABLE
  2
UCS
  5
7
330
0
100
AcDbSymbolTable
 70
     0
  0
ENDTAB
  0
TABLE
  2
APPID
  5
9
330
0
100
AcDbSymbolTable
 70
    15
  0
APPID
  5
11
330
9
100
AcDbSymbolTableRecord
100
AcDbRegAppTableRecord
  2
ACAD
 70
     0
  0
APPID
  5
3A6
330
9
100
AcDbSymbolTableRecord
100
AcDbRegAppTableRecord
  2
ACAD_PSEXT
 70
     0
  0
APPID
  5
3A8
330
9
100
AcDbSymbolTableRecord
100
AcDbRegAppTableRecord
  2
ACAD_EXEMPT_FROM_CAD_STANDARDS
 70
     0
  0
APPID
  5
43E
330
9
100
AcDbSymbolTableRecord
100
AcDbRegAppTableRecord
  2
ACAD_MLEADERVER
 70
     0
  0
APPID
  5
460
330
9
100
AcDbSymbolTableRecord
100
AcDbRegAppTableRecord
  2
ACAD_DSTYLE_DIMJAG
 70
     0
  0
APPID
  5
461
330
9
100
AcDbSymbolTableRecord
100
AcDbRegAppTableRecord
  2
ACAD_DSTYLE_DIMBREAK
 70
     0
  0
APPID
  5
462
330
9
100
AcDbSymbolTableRecord
100
AcDbRegAppTableRecord
  2
ACAD_DSTYLE_DIMTALN
 70
     0
  0
APPID
  5
47A
330
9
100
AcDbSymbolTableRecord
100
AcDbRegAppTableRecord
  2
AcAecLayerStandard
 70
     0
  0
APPID
  5
4AB
330
9
100
AcDbSymbolTableRecord
100
AcDbRegAppTableRecord
  2
DCO15
 70
     0
  0
APPID
  5
4B9
330
9
100
AcDbSymbolTableRecord
100
AcDbRegAppTableRecord
  2
AcadAnnoPO
 70
     0
  0
APPID
  5
55F
330
9
100
AcDbSymbolTableRecord
100
AcDbRegAppTableRecord
  2
ACAD_DSTYLE_DIMRADIAL_EXTENSION
 70
     0
  0
APPID
  5
701
330
9
100
AcDbSymbolTableRecord
100
AcDbRegAppTableRecord
  2
AcadAnnotative
 70
     0
  0
APPID
  5
702
330
9
100
AcDbSymbolTableRecord
100
AcDbRegAppTableRecord
  2
AcDbDynamicBlockGUID
 70
     0
  0
APPID
  5
703
330
9
100
AcDbSymbolTableRecord
100
AcDbRegAppTableRecord
  2
AcDbBlockRepETag
 70
     0
  0
APPID
  5
FF2
330
9
100
AcDbSymbolTableRecord
100
AcDbRegAppTableRecord
  2
ACAD_NAV_VCDISPLAY
 70
     0
  0
ENDTAB
  0
TABLE
  2
DIMSTYLE
  5
A
330
0
100
AcDbSymbolTable
 70
     2
100
AcDbDimStyleTable
 71
     2
340
467
340
3F
  0
DIMSTYLE
105
3F
102
{ACAD_REACTORS
330
E12
330
E13
330
E14
330
E15
330
E17
330
E18
330
E19
102
}
330
A
100
AcDbSymbolTableRecord
100
AcDbDimStyleTableRecord
  2
STANDARD
 70
     0
 41
2.5
 42
0.0
 43
3.75
 44
1.25
 73
     0
 74
     0
 77
     1
 78
     1
140
3.5
141
0.0
143
0.039370078
147
0.625
171
     3
179
     2
271
     2
272
     2
274
     3
283
     0
284
     8
340
10
1001
ACAD_DSTYLE_DIMJAG
1070
   388
1040
1.5
1001
ACAD_DSTYLE_DIMTALN
1070
   392
1070
     0
  0
DIMSTYLE
105
467
102
{ACAD_REACTORS
330
E16
102
}
330
A
100
AcDbSymbolTableRecord
100
AcDbDimStyleTableRecord
  2
DIAMETER
 70
     0
 41
2.5
 42
0.0
 43
3.75
 44
1.25
 73
     0
 74
     0
 76
     1
 77
     1
 78
     1
140
3.5
141
0.0
143
0.039370078
147
0.625
171
     3
173
     1
179
     2
271
     2
272
     2
274
     3
283
     0
284
     8
340
10
344
464
1001
ACAD_DSTYLE_DIMBREAK
1070
   391
1040
3.75
1001
ACAD_DSTYLE_DIMJAG
1070
   388
1040
1.5
1001
ACAD_DSTYLE_DIMTALN
1070
   392
1070
     0
  0
ENDTAB
  0
TABLE
  2
BLOCK_RECORD
  5
1
330
0
100
AcDbSymbolTable
 70
    10
  0
BLOCK_RECORD
  5
18
102
{ACAD_XDICTIONARY
360
F95
102
}
330
1
100
AcDbSymbolTableRecord
100
AcDbBlockTableRecord
  2
*MODEL_SPACE
340
303
  0
BLOCK_RECORD
  5
338
330
1
100
AcDbSymbolTableRecord
100
AcDbBlockTableRecord
  2
*Paper_Space
340
33B
  0
BLOCK_RECORD
  5
464
330
1
100
AcDbSymbolTableRecord
100
AcDbBlockTableRecord
  2
_None
340
0
  0
BLOCK_RECORD
  5
51F
330
1
100
AcDbSymbolTableRecord
100
AcDbBlockTableRecord
  2
CERO_POINT
340
0
310
2800000020000000200000000100080000000000000400000000000000000000000000000000000000000000000080000080000000808000800000008000800080800000C0C0C000C0DCC000F0CAA6000020400000206000002080000020A0000020C0000020E00000400000004020000040400000406000004080000040A0
310
000040C0000040E00000600000006020000060400000606000006080000060A0000060C0000060E00000800000008020000080400000806000008080000080A0000080C0000080E00000A0000000A0200000A0400000A0600000A0800000A0A00000A0C00000A0E00000C0000000C0200000C0400000C0600000C0800000C0
310
A00000C0C00000C0E00000E0000000E0200000E0400000E0600000E0800000E0A00000E0C00000E0E00040000000400020004000400040006000400080004000A0004000C0004000E00040200000402020004020400040206000402080004020A0004020C0004020E000404000004040200040404000404060004040800040
310
40A0004040C0004040E00040600000406020004060400040606000406080004060A0004060C0004060E00040800000408020004080400040806000408080004080A0004080C0004080E00040A0000040A0200040A0400040A0600040A0800040A0A00040A0C00040A0E00040C0000040C0200040C0400040C0600040C08000
310
40C0A00040C0C00040C0E00040E0000040E0200040E0400040E0600040E0800040E0A00040E0C00040E0E00080000000800020008000400080006000800080008000A0008000C0008000E00080200000802020008020400080206000802080008020A0008020C0008020E00080400000804020008040400080406000804080
310
008040A0008040C0008040E00080600000806020008060400080606000806080008060A0008060C0008060E00080800000808020008080400080806000808080008080A0008080C0008080E00080A0000080A0200080A0400080A0600080A0800080A0A00080A0C00080A0E00080C0000080C0200080C0400080C0600080C0
310
800080C0A00080C0C00080C0E00080E0000080E0200080E0400080E0600080E0800080E0A00080E0C00080E0E000C0000000C0002000C0004000C0006000C0008000C000A000C000C000C000E000C0200000C0202000C0204000C0206000C0208000C020A000C020C000C020E000C0400000C0402000C0404000C0406000C0
310
408000C040A000C040C000C040E000C0600000C0602000C0604000C0606000C0608000C060A000C060C000C060E000C0800000C0802000C0804000C0806000C0808000C080A000C080C000C080E000C0A00000C0A02000C0A04000C0A06000C0A08000C0A0A000C0A0C000C0A0E000C0C00000C0C02000C0C04000C0C06000
310
C0C08000C0C0A000F0FBFF00A4A0A000808080000000FF0000FF000000FFFF00FF000000FF00FF00FFFF0000FFFFFF00000000000000000000000000000000000000000000000000000000000000000000000000000000000000000000000000FF0000000000000000000000000000000000000000000000000000000000FF
310
FFFFFFFF000000000000000000000000000000000000000000FFFFFFFFFFFF0000FF0000FFFF00FF00000000000000000000000000000000FF00000000000000FFFFFF0000FFFFFFFF000000000000000000000000000000FF0000000000000000FF00FF0000FF00FFFF00000000000000000000000000FF00000000000000
310
0000FFFF00FF0000FF0000FFFF00000000000000000000FF000000000000000000FFFF00FF00FF0000FF0000FF000000000000000000FF0000000000000000000000FF0000FF00FF0000FF0000FF0000000000000000FF00000000000000000000FFFFFF0000FFFFFF0000FF00FFFF000000000000FF000000000000000000
310
000000FF00FF000000FFFF0000FF00FF0000000000FF00000000000000000000000000FFFF00FFFF0000FFFF0000FFFF0000000000FF000000000000000000000000FFFF00FF0000FF0000FFFF0000FF0000000000FF00000000000000000000000000FF0000FF0000FF0000FFFF0000FF00000000FF000000000000000000
310
000000FFFFFF0000FF0000FF0000FFFF00FF00000000FF00FF00000000FF0000FF00FF00FFFFFF0000FF0000FF0000FFFF00FF0000FFFFFFFFFFFFFFFFFFFFFFFFFFFFFFFFFFFFFFFFFFFFFFFFFFFFFFFFFFFF000000FF00FF00FF00FF0000FF0000FFFFFF00000000000000000000000000FF000000FF0000FF00FF00FF00
310
00FF0000FFFF000000000000000000000000FF00000000FFFF0000FF00FF00FF00FF000000FF000000000000000000000000FF00000000FF00FF0000FF00FF00FF00FF0000FF0000000000000000000000FF000000000000FF00FF0000FFFF0000FF00FF00FF0000000000000000000000FF000000000000FFFF00FF00FF00
310
FF0000FF00FFFF00000000000000000000FF0000000000000000FF0000FF00FF00FF0000FF00FF00000000000000000000FF000000000000000000FF0000FF00FF00FF0000FFFF000000000000000000FF0000000000000000000000FF0000FF00FF00FF0000FF000000000000000000FF000000000000000000000000FF00
310
00FF00FF00FF00FF00000000000000FFFF00000000000000000000000000FFFF0000FF00FF00FFFF0000000000FFFF00000000000000000000000000000000FFFFFFFFFF00FF00FF000000FFFF0000000000000000000000000000000000000000000000FFFFFFFFFFFFFF0000000000000000000000000000000000000000
310
0000000000000000FF0000000000000000000000000000000000000000000000000000000000000000000000000000000000000000000000
102
{BLKREFS
331
E0D
102
}
1001
ACAD
1000
DesignCenter Data
1002
{
1070
     1
1070
     4
1002
}
  0
BLOCK_RECORD
  5
E1C
330
1
100
AcDbSymbolTableRecord
100
AcDbBlockTableRecord
  2
*D2
340
0
  0
BLOCK_RECORD
  5
E29
330
1
100
AcDbSymbolTableRecord
100
AcDbBlockTableRecord
  2
*D3
340
0
  0
BLOCK_RECORD
  5
E37
330
1
100
AcDbSymbolTableRecord
100
AcDbBlockTableRecord
  2
*D4
340
0
  0
BLOCK_RECORD
  5
E45
330
1
100
AcDbSymbolTableRecord
100
AcDbBlockTableRecord
  2
*D5
340
0
  0
BLOCK_RECORD
  5
E52
330
1
100
AcDbSymbolTableRecord
100
AcDbBlockTableRecord
  2
*D6
340
0
  0
BLOCK_RECORD
  5
E5F
330
1
100
AcDbSymbolTableRecord
100
AcDbBlockTableRecord
  2
*D7
340
0
  0
BLOCK_RECORD
  5
E6C
330
1
100
AcDbSymbolTableRecord
100
AcDbBlockTableRecord
  2
*D8
340
0
  0
BLOCK_RECORD
  5
E79
330
1
100
AcDbSymbolTableRecord
100
AcDbBlockTableRecord
  2
*D9
340
0
  0
ENDTAB
  0
ENDSEC
  0
SECTION
  2
BLOCKS
  0
BLOCK
  5
32
330
18
100
AcDbEntity
  8
0
100
AcDbBlockBegin
  2
*MODEL_SPACE
 70
     0
 10
0.0
 20
0.0
 30
0.0
  3
*MODEL_SPACE
  1

  0
ENDBLK
  5
33
330
18
100
AcDbEntity
  8
0
100
AcDbBlockEnd
  0
BLOCK
  5
339
330
338
100
AcDbEntity
 67
     1
  8
0
100
AcDbBlockBegin
  2
*Paper_Space
 70
     0
 10
0.0
 20
0.0
 30
0.0
  3
*Paper_Space
  1

  0
ENDBLK
  5
33A
330
338
100
AcDbEntity
 67
     1
  8
0
100
AcDbBlockEnd
  0
BLOCK
  5
465
330
464
100
AcDbEntity
  8
0
100
AcDbBlockBegin
  2
_None
 70
     0
 10
0.0
 20
0.0
 30
0.0
  3
_None
  1

  0
ENDBLK
  5
466
330
464
100
AcDbEntity
  8
0
100
AcDbBlockEnd
  0
BLOCK
  5
520
330
51F
100
AcDbEntity
  8
0
100
AcDbBlockBegin
  2
CERO_POINT
 70
     0
 10
0.0
 20
0.0
 30
0.0
  3
CERO_POINT
  1

  0
CIRCLE
  5
521
102
{ACAD_REACTORS
330
526
102
}
330
51F
100
AcDbEntity
  8
SK2
100
AcDbCircle
 10
0.0
 20
0.0
 30
0.0
 40
2.5
  0
LINE
  5
522
330
51F
100
AcDbEntity
  8
SK2
100
AcDbLine
 10
0.0900000000037835
 20
0.0
 30
0.0
 11
-0.0899999999965076
 21
0.0
 31
0.0
  0
LINE
  5
523
330
51F
100
AcDbEntity
  8
SK2
100
AcDbLine
 10
0.0
 20
0.0899999999999182
 30
0.0
 11
0.0
 21
-0.0899999999999182
 31
0.0
  0
LINE
  5
524
102
{ACAD_REACTORS
330
526
102
}
330
51F
100
AcDbEntity
  8
SK2
100
AcDbLine
 10
0.0
 20
-2.5
 30
0.0
 11
0.0
 21
2.5
 31
0.0
  0
LINE
  5
525
102
{ACAD_REACTORS
330
526
102
}
330
51F
100
AcDbEntity
  8
SK2
100
AcDbLine
 10
2.5
 20
0.0
 30
0.0
 11
-2.5
 21
0.0
 31
0.0
  0
HATCH
  5
526
330
51F
100
AcDbEntity
  8
SK2
100
AcDbHatch
 10
0.0
 20
0.0
 30
0.0
210
0.0
220
0.0
230
1.0
  2
ANSI31
 70
     0
 71
     1
 91
        2
 92
        7
 72
     1
 73
     1
 93
        3
 10
0.0
 20
-2.5
 42
0.4142135623730951
 10
2.5
 20
0.0
 42
0.0
 10
0.0
 20
0.0
 42
0.0
 97
        3
330
521
330
525
330
524
 92
        7
 72
     1
 73
     1
 93
        3
 10
0.0
 20
0.0
 42
0.0
 10
0.0
 20
2.5
 42
0.4142135623730951
 10
-2.5
 20
0.0
 42
0.0
 97
        3
330
525
330
524
330
521
 75
     0
 76
     1
 52
180.0
 41
0.1
 77
     0
 78
     1
 53
225.0
 43
5.170976743218488
 44
0.0
 45
0.2245064030267288
 46
-0.2245064030267289
 79
     0
 47
0.0243816376539857
 98
        2
 10
0.8789156907296272
 20
-1.044463114528752
 10
-0.8545028512526187
 20
0.7841600866017872
  0
ENDBLK
  5
527
330
51F
100
AcDbEntity
  8
0
100
AcDbBlockEnd
  0
BLOCK
  5
E1D
330
E1C
100
AcDbEntity
  8
0
100
AcDbBlockBegin
  2
*D2
 70
     1
 10
0.0
 20
0.0
 30
0.0
  3
*D2
  1

  0
LINE
  5
FAC
330
E1C
100
AcDbEntity
  8
2
 62
     0
440
 16777216
370
    -2
100
AcDbLine
 10
-0.000000000003638
 20
3.798113160036336
 30
0.0
 11
-0.000000000003636
 21
35.78000969662208
 31
0.0
  0
LINE
  5
FAD
330
E1C
100
AcDbEntity
  8
2
 62
     0
440
 16777216
370
    -2
100
AcDbLine
 10
9.746667999996359
 20
0.0
 30
0.0
 11
9.746667999996359
 21
35.78000969662208
 31
0.0
  0
LINE
  5
FAE
330
E1C
100
AcDbEntity
  8
2
 62
     0
440
 16777216
370
    -2
100
AcDbLine
 10
2.499999999996363
 20
34.53000969662208
 30
0.0
 11
7.246667999996361
 21
34.53000969662208
 31
0.0
  0
LINE
  5
FAF
330
E1C
100
AcDbEntity
  8
2
 62
     0
440
 16777216
370
    -2
100
AcDbLine
 10
9.746667999996359
 20
34.53000969662208
 30
0.0
 11
21.98804640815816
 21
34.53000969662208
 31
0.0
  0
SOLID
  5
FB0
330
E1C
100
AcDbEntity
  8
2
 62
     0
440
 16777216
100
AcDbTrace
 10
2.499999999996363
 20
34.94667636328874
 30
0.0
 11
2.499999999996363
 21
34.11334302995541
 31
0.0
 12
-0.0000000000036361
 22
34.53000969662208
 32
0.0
 13
-0.0000000000036361
 23
34.53000969662208
 33
0.0
  0
SOLID
  5
FB1
330
E1C
100
AcDbEntity
  8
2
 62
     0
440
 16777216
100
AcDbTrace
 10
7.246667999996361
 20
34.94667636328874
 30
0.0
 11
7.246667999996361
 21
34.11334302995541
 31
0.0
 12
9.746667999996359
 22
34.53000969662208
 32
0.0
 13
9.746667999996359
 23
34.53000969662208
 33
0.0
  0
MTEXT
  5
FB2
330
E1C
100
AcDbEntity
  8
2
 62
     0
440
 16777216
100
AcDbMText
 10
18.63449301756489
 20
36.40500969662208
 30
0.0
 40
2.5
 41
0.0
 71
     5
 72
     1
  1
9.75
 73
     1
 44
1.0
  0
POINT
  5
FB3
330
E1C
100
AcDbEntity
  8
DEFPOINTS
 62
     0
440
 16777216
100
AcDbPoint
 10
-0.000000000003638
 20
3.798113160036336
 30
0.0
  0
POINT
  5
FB4
330
E1C
100
AcDbEntity
  8
DEFPOINTS
 62
     0
440
 16777216
100
AcDbPoint
 10
9.746667999996359
 20
0.0
 30
0.0
  0
POINT
  5
FB5
330
E1C
100
AcDbEntity
  8
DEFPOINTS
 62
     0
440
 16777216
100
AcDbPoint
 10
9.746667999996359
 20
34.53000969662208
 30
0.0
  0
ENDBLK
  5
E1E
330
E1C
100
AcDbEntity
  8
0
100
AcDbBlockEnd
  0
BLOCK
  5
E2A
330
E29
100
AcDbEntity
  8
0
100
AcDbBlockBegin
  2
*D3
 70
     1
 10
0.0
 20
0.0
 30
0.0
  3
*D3
  1

  0
LINE
  5
FBE
330
E29
100
AcDbEntity
  8
2
 62
     0
440
 16777216
370
    -2
100
AcDbLine
 10
9.746667999996304
 20
0.0
 30
0.0
 11
14.78331468704333
 21
-13.83807304243271
 31
0.0
  0
LINE
  5
FBF
330
E29
100
AcDbEntity
  8
2
 62
     0
440
 16777216
370
    -2
100
AcDbLine
 10
9.746667999996304
 20
0.0
 30
0.0
 11
14.78331468704341
 21
13.83807304243267
 31
0.0
  0
ARC
  5
FC0
330
E29
100
AcDbEntity
  8
2
 62
     0
440
 16777216
370
    -2
100
AcDbCircle
 10
9.746667999996304
 20
0.0
 30
0.0
 40
13.476169745655
100
AcDbArc
 50
300.6443930208407
 51
59.35560697915898
  0
SOLID
  5
FC1
330
E29
100
AcDbEntity
  8
2
 62
     0
440
 16777216
100
AcDbTrace
 10
16.79379351187428
 20
-11.97081913030026
 30
0.0
 11
16.43737011615058
 21
-11.2175550282582
 31
0.0
 12
14.35578950788625
 22
-12.66345726645032
 32
0.0
 13
14.35578950788625
 23
-12.66345726645032
 33
0.0
  0
SOLID
  5
FC2
330
E29
100
AcDbEntity
  8
2
 62
     0
440
 16777216
100
AcDbTrace
 10
16.43737011615065
 20
11.21755502825816
 30
0.0
 11
16.79379351187435
 21
11.97081913030022
 31
0.0
 12
14.35578950788632
 22
12.66345726645029
 32
0.0
 13
14.35578950788632
 23
12.66345726645029
 33
0.0
  0
MTEXT
  5
FC3
330
E29
100
AcDbEntity
  8
2
 62
     0
440
 16777216
100
AcDbMText
 10
21.3478377456513
 20
0.0000000000034146
 30
0.0
 40
2.5
 41
0.0
 71
     5
 72
     1
  1
140°
 11
0.0000000000000001
 21
1.0
 31
0.0
 73
     1
 44
1.0
  0
POINT
  5
FC4
330
E29
100
AcDbEntity
  8
DEFPOINTS
 62
     0
440
 16777216
100
AcDbPoint
 10
22.12070411950936
 20
-5.337638159963031
 30
0.0
  0
POINT
  5
FC5
330
E29
100
AcDbEntity
  8
DEFPOINTS
 62
     0
440
 16777216
100
AcDbPoint
 10
9.746667999996304
 20
0.0
 30
0.0
  0
POINT
  5
FC6
330
E29
100
AcDbEntity
  8
DEFPOINTS
 62
     0
440
 16777216
100
AcDbPoint
 10
9.746667999996304
 20
0.0
 30
0.0
  0
POINT
  5
FC7
330
E29
100
AcDbEntity
  8
DEFPOINTS
 62
     0
440
 16777216
100
AcDbPoint
 10
7.411362775984001
 20
-6.416198370508141
 30
0.0
  0
POINT
  5
FC8
330
E29
100
AcDbEntity
  8
DEFPOINTS
 62
     0
440
 16777216
100
AcDbPoint
 10
7.411362775984001
 20
6.416198370508252
 30
0.0
  0
ENDBLK
  5
E2B
330
E29
100
AcDbEntity
  8
0
100
AcDbBlockEnd
  0
BLOCK
  5
E38
330
E37
100
AcDbEntity
  8
0
100
AcDbBlockBegin
  2
*D4
 70
     1
 10
0.0
 20
0.0
 30
0.0
  3
*D4
  1

  0
LINE
  5
FDD
330
E37
100
AcDbEntity
  8
SK2
 62
     0
440
 16777216
370
    -2
100
AcDbLine
 10
6.045896039902827
 20
4.000000000000113
 30
0.0
 11
-5.03140011973892
 21
15.07729615964134
 31
0.0
  0
LINE
  5
FDE
330
E37
100
AcDbEntity
  8
SK2
 62
     0
440
 16777216
370
    -2
100
AcDbLine
 10
2.716636039903048
 20
0.0
 30
0.0
 11
-11.27662067297794
 21
0.0000000000000009
 31
0.0
  0
ARC
  5
FDF
330
E37
100
AcDbEntity
  8
SK2
 62
     0
440
 16777216
370
    -2
100
AcDbCircle
 10
10.04589603990313
 20
0.0000000000000004
 30
0.0
 40
20.07251671288107
100
AcDbArc
 50
142.1407185771285
 51
172.8592814228728
  0
SOLID
  5
FE0
330
E37
100
AcDbEntity
  8
SK2
 62
     0
440
 16777216
100
AcDbTrace
 10
-6.114169908168443
 20
12.594698810472
 30
0.0
 11
-5.489362529734402
 21
12.0432822852401
 31
0.0
 12
-4.147516643255716
 22
14.19341268315817
 32
0.0
 13
-4.147516643255716
 23
14.19341268315817
 33
0.0
  0
SOLID
  5
FE1
330
E37
100
AcDbEntity
  8
SK2
 62
     0
440
 16777216
100
AcDbTrace
 10
-9.455077213811147
 20
2.469200110439567
 30
0.0
 11
-10.28679311228705
 21
2.521095280415846
 31
0.0
 12
-10.02662067297794
 22
0.0000000000000004
 32
0.0
 13
-10.02662067297794
 23
0.0000000000000004
 33
0.0
  0
MTEXT
  5
FE2
330
E37
100
AcDbEntity
  8
SK2
 62
     0
440
 16777216
100
AcDbMText
 10
-9.827955933028766
 20
9.312545174128542
 30
0.0
 40
2.5
 41
0.0
 71
     5
 72
     1
  1
45°
 11
0.4243097429178845
 21
0.9055171130712874
 31
0.0
 73
     1
 44
1.0
  0
POINT
  5
FE3
330
E37
100
AcDbEntity
  8
DEFPOINTS
 62
     0
440
 16777216
100
AcDbPoint
 10
-9.342666251687694
 20
5.195149608432113
 30
0.0
  0
POINT
  5
FE4
330
E37
100
AcDbEntity
  8
DEFPOINTS
 62
     0
440
 16777216
100
AcDbPoint
 10
9.614054039903036
 20
0.4318420000000738
 30
0.0
  0
POINT
  5
FE5
330
E37
100
AcDbEntity
  8
DEFPOINTS
 62
     0
440
 16777216
100
AcDbPoint
 10
2.716636039903048
 20
0.0
 30
0.0
  0
POINT
  5
FE6
330
E37
100
AcDbEntity
  8
DEFPOINTS
 62
     0
440
 16777216
100
AcDbPoint
 10
9.71663603990305
 20
0.0000000000000004
 30
0.0
  0
POINT
  5
FE7
330
E37
100
AcDbEntity
  8
DEFPOINTS
 62
     0
440
 16777216
100
AcDbPoint
 10
6.045896039902827
 20
4.000000000000113
 30
0.0
  0
ENDBLK
  5
E39
330
E37
100
AcDbEntity
  8
0
100
AcDbBlockEnd
  0
BLOCK
  5
E46
330
E45
100
AcDbEntity
  8
0
100
AcDbBlockBegin
  2
*D5
 70
     1
 10
0.0
 20
0.0
 30
0.0
  3
*D5
  1

  0
LINE
  5
FE8
330
E45
100
AcDbEntity
  8
2
 62
     0
440
 16777216
370
    -2
100
AcDbLine
 10
9.622519931958748
 20
0.5
 30
0.0
 11
13.06290527949227
 21
0.4999999999999992
 31
0.0
  0
LINE
  5
FE9
330
E45
100
AcDbEntity
  8
2
 62
     0
440
 16777216
370
    -2
100
AcDbLine
 10
9.622519931959461
 20
-0.5000000000004548
 30
0.0
 11
13.06290527949227
 21
-0.5000000000004558
 31
0.0
  0
LINE
  5
FEA
330
E45
100
AcDbEntity
  8
2
 62
     0
440
 16777216
370
    -2
100
AcDbLine
 10
11.81290527949227
 20
2.999999999999998
 30
0.0
 11
11.81290527949227
 21
5.499999999999999
 31
0.0
  0
LINE
  5
FEB
330
E45
100
AcDbEntity
  8
2
 62
     0
440
 16777216
370
    -2
100
AcDbLine
 10
11.81290527949227
 20
-3.000000000000454
 30
0.0
 11
11.81290527949226
 21
-18.13610554368174
 31
0.0
  0
SOLID
  5
FEC
330
E45
100
AcDbEntity
  8
2
 62
     0
440
 16777216
100
AcDbTrace
 10
11.3962386128256
 20
2.999999999999998
 30
0.0
 11
12.22957194615893
 21
2.999999999999998
 31
0.0
 12
11.81290527949227
 22
0.4999999999999994
 32
0.0
 13
11.81290527949227
 23
0.4999999999999994
 33
0.0
  0
SOLID
  5
FED
330
E45
100
AcDbEntity
  8
2
 62
     0
440
 16777216
100
AcDbTrace
 10
11.3962386128256
 20
-3.000000000000454
 30
0.0
 11
12.22957194615893
 21
-3.000000000000454
 31
0.0
 12
11.81290527949227
 22
-0.5000000000004556
 32
0.0
 13
11.81290527949227
 23
-0.5000000000004556
 33
0.0
  0
MTEXT
  5
FEE
330
E45
100
AcDbEntity
  8
2
 62
     0
440
 16777216
100
AcDbMText
 10
9.937905279492268
 20
-14.01012129171323
 30
0.0
 40
2.5
 41
0.0
 71
     5
 72
     1
  1
%%C1.00
 11
0.0000000000000001
 21
1.0
 31
0.0
 73
     1
 44
1.0
  0
POINT
  5
FEF
330
E45
100
AcDbEntity
  8
DEFPOINTS
 62
     0
440
 16777216
100
AcDbPoint
 10
9.622519931958748
 20
0.5
 30
0.0
  0
POINT
  5
FF0
330
E45
100
AcDbEntity
  8
DEFPOINTS
 62
     0
440
 16777216
100
AcDbPoint
 10
9.622519931959461
 20
-0.5000000000004548
 30
0.0
  0
POINT
  5
FF1
330
E45
100
AcDbEntity
  8
DEFPOINTS
 62
     0
440
 16777216
100
AcDbPoint
 10
11.81290527949227
 20
-0.5000000000004556
 30
0.0
  0
ENDBLK
  5
E47
330
E45
100
AcDbEntity
  8
0
100
AcDbBlockEnd
  0
BLOCK
  5
E53
330
E52
100
AcDbEntity
  8
0
100
AcDbBlockBegin
  2
*D6
 70
     1
 10
0.0
 20
0.0
 30
0.0
  3
*D6
  1

  0
LINE
  5
FB6
330
E52
100
AcDbEntity
  8
2
 62
     0
440
 16777216
370
    -2
100
AcDbLine
 10
5.966753825654791
 20
4.000000000000113
 30
0.0
 11
30.49973982644224
 21
4.000000000000104
 31
0.0
  0
LINE
  5
FB7
330
E52
100
AcDbEntity
  8
2
 62
     0
440
 16777216
370
    -2
100
AcDbLine
 10
29.24973982644224
 20
1.500000000000106
 30
0.0
 11
29.24973982644224
 21
-3.999999999999893
 31
0.0
  0
LINE
  5
FB8
330
E52
100
AcDbEntity
  8
2
 62
     0
440
 16777216
370
    -2
100
AcDbLine
 10
29.24973982644224
 20
-3.999999999999893
 30
0.0
 11
29.24973982644223
 21
-15.2519685039369
 31
0.0
  0
SOLID
  5
FB9
330
E52
100
AcDbEntity
  8
2
 62
     0
440
 16777216
100
AcDbTrace
 10
28.83307315977557
 20
1.500000000000106
 30
0.0
 11
29.66640649310891
 21
1.500000000000106
 31
0.0
 12
29.24973982644224
 22
4.000000000000106
 32
0.0
 13
29.24973982644224
 23
4.000000000000106
 33
0.0
  0
MTEXT
  5
FBA
330
E52
100
AcDbEntity
  8
2
 62
     0
440
 16777216
100
AcDbMText
 10
27.37473982644224
 20
-10.87598425196839
 30
0.0
 40
2.5
 41
0.0
 71
     5
 72
     1
  1
%%C8.00
 11
0.0000000000000001
 21
1.0
 31
0.0
 73
     1
 44
1.0
  0
POINT
  5
FBB
330
E52
100
AcDbEntity
  8
DEFPOINTS
 62
     0
440
 16777216
100
AcDbPoint
 10
5.966753825654791
 20
4.000000000000113
 30
0.0
  0
POINT
  5
FBC
330
E52
100
AcDbEntity
  8
DEFPOINTS
 62
     0
440
 16777216
100
AcDbPoint
 10
5.966753825654791
 20
-3.999999999999886
 30
0.0
  0
POINT
  5
FBD
330
E52
100
AcDbEntity
  8
DEFPOINTS
 62
     0
440
 16777216
100
AcDbPoint
 10
29.24973982644224
 20
-3.999999999999893
 30
0.0
  0
ENDBLK
  5
E54
330
E52
100
AcDbEntity
  8
0
100
AcDbBlockEnd
  0
BLOCK
  5
E60
330
E5F
100
AcDbEntity
  8
0
100
AcDbBlockBegin
  2
*D7
 70
     1
 10
0.0
 20
0.0
 30
0.0
  3
*D7
  1

  0
LINE
  5
FD3
330
E5F
100
AcDbEntity
  8
SK2
 62
     0
440
 16777216
370
    -2
100
AcDbLine
 10
-0.000000000003638
 20
3.798113160036336
 30
0.0
 11
-16.78261936201352
 21
3.798113160036339
 31
0.0
  0
LINE
  5
FD4
330
E5F
100
AcDbEntity
  8
SK2
 62
     0
440
 16777216
370
    -2
100
AcDbLine
 10
-0.000000000003638
 20
-3.801886839963685
 30
0.0
 11
-16.78261936201352
 21
-3.80188683996368
 31
0.0
  0
LINE
  5
FD5
330
E5F
100
AcDbEntity
  8
SK2
 62
     0
440
 16777216
370
    -2
100
AcDbLine
 10
-15.53261936201352
 20
1.29811316003634
 30
0.0
 11
-15.53261936201352
 21
-1.301886839963679
 31
0.0
  0
LINE
  5
FD6
330
E5F
100
AcDbEntity
  8
SK2
 62
     0
440
 16777216
370
    -2
100
AcDbLine
 10
-15.53261936201352
 20
-3.80188683996368
 30
0.0
 11
-15.53261936201352
 21
-15.05385534390069
 31
0.0
  0
SOLID
  5
FD7
330
E5F
100
AcDbEntity
  8
SK2
 62
     0
440
 16777216
100
AcDbTrace
 10
-15.94928602868018
 20
1.29811316003634
 30
0.0
 11
-15.11595269534685
 21
1.29811316003634
 31
0.0
 12
-15.53261936201352
 22
3.798113160036339
 32
0.0
 13
-15.53261936201352
 23
3.798113160036339
 33
0.0
  0
SOLID
  5
FD8
330
E5F
100
AcDbEntity
  8
SK2
 62
     0
440
 16777216
100
AcDbTrace
 10
-15.94928602868018
 20
-1.301886839963679
 30
0.0
 11
-15.11595269534685
 21
-1.30188683996368
 31
0.0
 12
-15.53261936201352
 22
-3.80188683996368
 32
0.0
 13
-15.53261936201352
 23
-3.80188683996368
 33
0.0
  0
MTEXT
  5
FD9
330
E5F
100
AcDbEntity
  8
SK2
 62
     0
440
 16777216
100
AcDbMText
 10
-17.40761936201352
 20
-10.67787109193218
 30
0.0
 40
2.5
 41
0.0
 71
     5
 72
     1
  1
%%C7.60
 11
0.0000000000000001
 21
1.0
 31
0.0
 73
     1
 44
1.0
  0
POINT
  5
FDA
330
E5F
100
AcDbEntity
  8
DEFPOINTS
 62
     0
440
 16777216
100
AcDbPoint
 10
-0.000000000003638
 20
3.798113160036336
 30
0.0
  0
POINT
  5
FDB
330
E5F
100
AcDbEntity
  8
DEFPOINTS
 62
     0
440
 16777216
100
AcDbPoint
 10
-0.000000000003638
 20
-3.801886839963685
 30
0.0
  0
POINT
  5
FDC
330
E5F
100
AcDbEntity
  8
DEFPOINTS
 62
     0
440
 16777216
100
AcDbPoint
 10
-15.53261936201352
 20
-3.80188683996368
 30
0.0
  0
ENDBLK
  5
E61
330
E5F
100
AcDbEntity
  8
0
100
AcDbBlockEnd
  0
BLOCK
  5
E6D
330
E6C
100
AcDbEntity
  8
0
100
AcDbBlockBegin
  2
*D8
 70
     1
 10
0.0
 20
0.0
 30
0.0
  3
*D8
  1

  0
LINE
  5
FA2
330
E6C
100
AcDbEntity
  8
2
 62
     0
440
 16777216
370
    -2
100
AcDbLine
 10
9.746667999996359
 20
0.1076390000000629
 30
0.0
 11
9.746667999996359
 21
19.48265096593559
 31
0.0
  0
LINE
  5
FA3
330
E6C
100
AcDbEntity
  8
2
 62
     0
440
 16777216
370
    -2
100
AcDbLine
 10
6.046667999996372
 20
3.853247115573424
 30
0.0
 11
6.046667999996372
 21
19.48265096593559
 31
0.0
  0
LINE
  5
FA4
330
E6C
100
AcDbEntity
  8
2
 62
     0
440
 16777216
370
    -2
100
AcDbLine
 10
3.546667999996373
 20
18.23265096593559
 30
0.0
 11
1.046667999996372
 21
18.23265096593559
 31
0.0
  0
LINE
  5
FA5
330
E6C
100
AcDbEntity
  8
2
 62
     0
440
 16777216
370
    -2
100
AcDbLine
 10
12.24666799999636
 20
18.23265096593559
 30
0.0
 11
25.45786602460934
 21
18.23265096593559
 31
0.0
  0
SOLID
  5
FA6
330
E6C
100
AcDbEntity
  8
2
 62
     0
440
 16777216
100
AcDbTrace
 10
3.546667999996373
 20
18.64931763260226
 30
0.0
 11
3.546667999996373
 21
17.81598429926892
 31
0.0
 12
6.046667999996372
 22
18.23265096593559
 32
0.0
 13
6.046667999996372
 23
18.23265096593559
 33
0.0
  0
SOLID
  5
FA7
330
E6C
100
AcDbEntity
  8
2
 62
     0
440
 16777216
100
AcDbTrace
 10
12.24666799999636
 20
18.64931763260226
 30
0.0
 11
12.24666799999636
 21
17.81598429926892
 31
0.0
 12
9.746667999996359
 22
18.23265096593559
 32
0.0
 13
9.746667999996359
 23
18.23265096593559
 33
0.0
  0
MTEXT
  5
FA8
330
E6C
100
AcDbEntity
  8
2
 62
     0
440
 16777216
100
AcDbMText
 10
22.20688177264083
 20
20.10765096593559
 30
0.0
 40
2.5
 41
0.0
 71
     5
 72
     1
  1
3.70
 73
     1
 44
1.0
  0
POINT
  5
FA9
330
E6C
100
AcDbEntity
  8
DEFPOINTS
 62
     0
440
 16777216
100
AcDbPoint
 10
9.746667999996359
 20
0.1076390000000629
 30
0.0
  0
POINT
  5
FAA
330
E6C
100
AcDbEntity
  8
DEFPOINTS
 62
     0
440
 16777216
100
AcDbPoint
 10
6.046667999996372
 20
3.853247115573424
 30
0.0
  0
POINT
  5
FAB
330
E6C
100
AcDbEntity
  8
DEFPOINTS
 62
     0
440
 16777216
100
AcDbPoint
 10
6.046667999996372
 20
18.23265096593559
 30
0.0
  0
ENDBLK
  5
E6E
330
E6C
100
AcDbEntity
  8
0
100
AcDbBlockEnd
  0
BLOCK
  5
E7A
330
E79
100
AcDbEntity
  8
0
100
AcDbBlockBegin
  2
*D9
 70
     1
 10
0.0
 20
0.0
 30
0.0
  3
*D9
  1

  0
LINE
  5
F98
330
E79
100
AcDbEntity
  8
2
 62
     0
440
 16777216
370
    -2
100
AcDbLine
 10
9.746667999996359
 20
4.000000000000113
 30
0.0
 11
9.746667999996359
 21
28.03835325542832
 31
0.0
  0
LINE
  5
F99
330
E79
100
AcDbEntity
  8
2
 62
     0
440
 16777216
370
    -2
100
AcDbLine
 10
2.746667999996361
 20
4.000000000000113
 30
0.0
 11
2.746667999996361
 21
28.03835325542832
 31
0.0
  0
LINE
  5
F9A
330
E79
100
AcDbEntity
  8
2
 62
     0
440
 16777216
370
    -2
100
AcDbLine
 10
5.246667999996362
 20
26.78835325542832
 30
0.0
 11
7.246667999996361
 21
26.78835325542832
 31
0.0
  0
LINE
  5
F9B
330
E79
100
AcDbEntity
  8
2
 62
     0
440
 16777216
370
    -2
100
AcDbLine
 10
9.746667999996359
 20
26.78835325542832
 30
0.0
 11
24.95867932658988
 21
26.78835325542832
 31
0.0
  0
SOLID
  5
F9C
330
E79
100
AcDbEntity
  8
2
 62
     0
440
 16777216
100
AcDbTrace
 10
5.246667999996362
 20
27.20501992209499
 30
0.0
 11
5.246667999996362
 21
26.37168658876165
 31
0.0
 12
2.746667999996361
 22
26.78835325542832
 32
0.0
 13
2.746667999996361
 23
26.78835325542832
 33
0.0
  0
SOLID
  5
F9D
330
E79
100
AcDbEntity
  8
2
 62
     0
440
 16777216
100
AcDbTrace
 10
7.246667999996361
 20
27.20501992209499
 30
0.0
 11
7.246667999996361
 21
26.37168658876165
 31
0.0
 12
9.746667999996359
 22
26.78835325542832
 32
0.0
 13
9.746667999996359
 23
26.78835325542832
 33
0.0
  0
MTEXT
  5
F9E
330
E79
100
AcDbEntity
  8
2
 62
     0
440
 16777216
100
AcDbMText
 10
21.70769507462138
 20
28.66335325542832
 30
0.0
 40
2.5
 41
0.0
 71
     5
 72
     1
  1
7.00
 73
     1
 44
1.0
  0
POINT
  5
F9F
330
E79
100
AcDbEntity
  8
DEFPOINTS
 62
     0
440
 16777216
100
AcDbPoint
 10
9.746667999996359
 20
4.000000000000113
 30
0.0
  0
POINT
  5
FA0
330
E79
100
AcDbEntity
  8
DEFPOINTS
 62
     0
440
 16777216
100
AcDbPoint
 10
2.746667999996361
 20
4.000000000000113
 30
0.0
  0
POINT
  5
FA1
330
E79
100
AcDbEntity
  8
DEFPOINTS
 62
     0
440
 16777216
100
AcDbPoint
 10
2.746667999996361
 20
26.78835325542832
 30
0.0
  0
ENDBLK
  5
E7B
330
E79
100
AcDbEntity
  8
0
100
AcDbBlockEnd
  0
ENDSEC
  0
SECTION
  2
ENTITIES
  0
LINE
  5
AE3
330
18
100
AcDbEntity
  8
SK4
100
AcDbLine
 10
-7.391679852469906
 20
0.0
 30
0.0
 11
0.1407167791574011
 21
0.0
 31
0.0
  0
LINE
  5
AE4
330
18
100
AcDbEntity
  8
4
100
AcDbLine
 10
-0.1556959087381529
 20
0.0
 30
0.0
 11
9.974681116177862
 21
0.0
 31
0.0
  0
LINE
  5
AE5
330
18
100
AcDbEntity
  8
1
100
AcDbLine
 10
9.746667999996359
 20
-0.1076389999999492
 30
0.0
 11
9.622519931959461
 21
-0.5000000000004548
 31
0.0
  0
LINE
  5
AE6
330
18
100
AcDbEntity
  8
1
100
AcDbLine
 10
9.622519931959461
 20
-0.5000000000004548
 30
0.0
 11
9.538847999996363
 21
-0.4435179999999266
 31
0.0
  0
ARC
  5
AE7
330
18
100
AcDbEntity
  8
1
100
AcDbCircle
 10
2.377941999996352
 20
2.568996000000083
 30
0.0
 40
7.768816999999997
100
AcDbArc
 50
337.1840470000013
 51
341.3263829999987
  0
LINE
  5
AE8
330
18
100
AcDbEntity
  8
1
100
AcDbLine
 10
9.737838999996368
 20
0.0815850000000182
 30
0.0
 11
9.746667999996359
 21
0.1076390000000629
 31
0.0
  0
LINE
  5
AE9
330
18
100
AcDbEntity
  8
1
100
AcDbLine
 10
9.746667999996359
 20
-0.1076389999999492
 30
0.0
 11
9.746667999996359
 21
0.1076390000000629
 31
0.0
  0
LINE
  5
AEA
330
18
100
AcDbEntity
  8
1
100
AcDbLine
 10
9.746667999996359
 20
0.1076390000000629
 30
0.0
 11
9.622519931958763
 21
0.5
 31
0.0
  0
LINE
  5
AEB
330
18
100
AcDbEntity
  8
1
100
AcDbLine
 10
-0.000000000003638
 20
-3.590115999999965
 30
0.0
 11
-0.000000000003638
 21
3.547729000000003
 31
0.0
  0
LINE
  5
AEC
330
18
100
AcDbEntity
  8
1
100
AcDbLine
 10
2.81229399999637
 20
-3.602665999999998
 30
0.0
 11
2.845013999996352
 21
-2.463566000000014
 31
0.0
  0
LINE
  5
AED
330
18
100
AcDbEntity
  8
1
100
AcDbLine
 10
2.845013999996352
 20
-2.463566000000014
 30
0.0
 11
4.128517999996346
 21
-2.386340000000018
 31
0.0
  0
LINE
  5
AEE
330
18
100
AcDbEntity
  8
1
100
AcDbLine
 10
4.128517999996346
 20
-2.386340000000018
 30
0.0
 11
4.895846999996365
 21
-2.658066999999957
 31
0.0
  0
POLYLINE
  5
AEF
330
18
100
AcDbEntity
  8
1
100
AcDb2dPolyline
 66
     1
 10
0.0
 20
0.0
 30
0.0
  0
VERTEX
  5
AF0
330
AEF
100
AcDbEntity
  8
1
100
AcDbVertex
100
AcDb2dVertex
 10
4.895846999996365
 20
-2.658066999999957
 30
0.0
  0
VERTEX
  5
AF1
330
AEF
100
AcDbEntity
  8
1
100
AcDbVertex
100
AcDb2dVertex
 10
4.993408999996346
 20
-2.705226999999922
 30
0.0
  0
VERTEX
  5
AF2
330
AEF
100
AcDbEntity
  8
1
100
AcDbVertex
100
AcDb2dVertex
 10
5.028873999996363
 20
-2.735940000000025
 30
0.0
  0
VERTEX
  5
AF3
330
AEF
100
AcDbEntity
  8
1
100
AcDbVertex
100
AcDb2dVertex
 10
5.045226999996373
 20
-2.761698000000023
 30
0.0
  0
VERTEX
  5
AF4
330
AEF
100
AcDbEntity
  8
1
100
AcDbVertex
100
AcDb2dVertex
 10
5.04724699999636
 20
-2.775556999999935
 30
0.0
  0
SEQEND
  5
AF5
330
AEF
100
AcDbEntity
  8
1
  0
LINE
  5
AF6
330
18
100
AcDbEntity
  8
1
100
AcDbLine
 10
5.04724699999636
 20
-2.775556999999935
 30
0.0
 11
5.03915299999636
 21
-2.954791999999997
 31
0.0
  0
ARC
  5
AF7
330
18
100
AcDbEntity
  8
1
100
AcDbCircle
 10
5.564453999996374
 20
-2.981319999999982
 30
0.0
 40
0.5259080000000002
100
AcDbArc
 50
177.1089540000002
 51
196.702998
  0
LINE
  5
AF8
330
18
100
AcDbEntity
  8
1
100
AcDbLine
 10
5.060758999996378
 20
-3.132465000000023
 30
0.0
 11
5.447977999996367
 21
-3.313589999999976
 31
0.0
  0
LINE
  5
AF9
330
18
100
AcDbEntity
  8
1
100
AcDbLine
 10
5.447977999996367
 20
-3.313589999999976
 30
0.0
 11
5.484719999996341
 21
-3.350069999999958
 31
0.0
  0
LINE
  5
AFA
330
18
100
AcDbEntity
  8
1
100
AcDbLine
 10
5.484719999996341
 20
-3.350069999999958
 30
0.0
 11
5.489877999996366
 21
-3.638700999999969
 31
0.0
  0
ARC
  5
AFB
330
18
100
AcDbEntity
  8
1
100
AcDbCircle
 10
-3.025038000003631
 20
-536.5011360000002
 30
0.0
 40
532.9304509999998
100
AcDbArc
 50
89.08451600000008
 51
89.37241099999996
  0
POLYLINE
  5
AFC
330
18
100
AcDbEntity
  8
1
100
AcDb2dPolyline
 66
     1
 10
0.0
 20
0.0
 30
0.0
  0
VERTEX
  5
AFD
330
AFC
100
AcDbEntity
  8
1
100
AcDbVertex
100
AcDb2dVertex
 10
2.81229399999637
 20
-3.602665999999998
 30
0.0
  0
VERTEX
  5
AFE
330
AFC
100
AcDbEntity
  8
1
100
AcDbVertex
100
AcDb2dVertex
 10
2.37378099999637
 20
-3.598191999999925
 30
0.0
  0
VERTEX
  5
AFF
330
AFC
100
AcDbEntity
  8
1
100
AcDbVertex
100
AcDb2dVertex
 10
2.15835899999635
 20
-3.586029999999936
 30
0.0
  0
VERTEX
  5
B00
330
AFC
100
AcDbEntity
  8
1
100
AcDbVertex
100
AcDb2dVertex
 10
2.015708999996375
 20
-3.545301999999991
 30
0.0
  0
VERTEX
  5
B01
330
AFC
100
AcDbEntity
  8
1
100
AcDbVertex
100
AcDb2dVertex
 10
1.907804999996358
 20
-3.495201999999947
 30
0.0
  0
SEQEND
  5
B02
330
AFC
100
AcDbEntity
  8
1
  0
POLYLINE
  5
B03
330
18
100
AcDbEntity
  8
1
100
AcDb2dPolyline
 66
     1
 10
0.0
 20
0.0
 30
0.0
  0
VERTEX
  5
B04
330
B03
100
AcDbEntity
  8
1
100
AcDbVertex
100
AcDb2dVertex
 10
1.86761199999637
 20
-2.351369999999973
 30
0.0
  0
VERTEX
  5
B05
330
B03
100
AcDbEntity
  8
1
100
AcDbVertex
100
AcDb2dVertex
 10
1.756241999996348
 20
-2.633140000000024
 30
0.0
  0
VERTEX
  5
B06
330
B03
100
AcDbEntity
  8
1
100
AcDbVertex
100
AcDb2dVertex
 10
1.723852999996353
 20
-2.774658999999928
 30
0.0
  0
VERTEX
  5
B07
330
B03
100
AcDbEntity
  8
1
100
AcDbVertex
100
AcDb2dVertex
 10
1.72076899999635
 20
-2.981393000000025
 30
0.0
  0
VERTEX
  5
B08
330
B03
100
AcDbEntity
  8
1
100
AcDbVertex
100
AcDb2dVertex
 10
1.763043999996369
 20
-3.16426799999999
 30
0.0
  0
VERTEX
  5
B09
330
B03
100
AcDbEntity
  8
1
100
AcDbVertex
100
AcDb2dVertex
 10
1.807770999996364
 20
-3.28028699999993
 30
0.0
  0
VERTEX
  5
B0A
330
B03
100
AcDbEntity
  8
1
100
AcDbVertex
100
AcDb2dVertex
 10
1.907804999996358
 20
-3.495201999999947
 30
0.0
  0
SEQEND
  5
B0B
330
B03
100
AcDbEntity
  8
1
  0
ARC
  5
B0C
330
18
100
AcDbEntity
  8
1
100
AcDbCircle
 10
1.454752999996342
 20
-3.776580999999962
 30
0.0
 40
1.483854999999999
100
AcDbArc
 50
67.15073400000125
 51
73.84505700000111
  0
LINE
  5
B0D
330
18
100
AcDbEntity
  8
1
100
AcDbLine
 10
2.045660999996357
 20
-2.415111000000023
 30
0.0
 11
2.03097199999638
 21
-2.409102999999957
 31
0.0
  0
POLYLINE
  5
B0E
330
18
100
AcDbEntity
  8
1
100
AcDb2dPolyline
 66
     1
 10
0.0
 20
0.0
 30
0.0
  0
VERTEX
  5
B0F
330
B0E
100
AcDbEntity
  8
1
100
AcDbVertex
100
AcDb2dVertex
 10
2.045660999996357
 20
-2.415112000000021
 30
0.0
  0
VERTEX
  5
B10
330
B0E
100
AcDbEntity
  8
1
100
AcDbVertex
100
AcDb2dVertex
 10
2.174946999996365
 20
-2.453257000000006
 30
0.0
  0
VERTEX
  5
B11
330
B0E
100
AcDbEntity
  8
1
100
AcDbVertex
100
AcDb2dVertex
 10
2.44867899999636
 20
-2.481673999999996
 30
0.0
  0
VERTEX
  5
B12
330
B0E
100
AcDbEntity
  8
1
100
AcDbVertex
100
AcDb2dVertex
 10
2.753427999996345
 20
-2.470253999999953
 30
0.0
  0
SEQEND
  5
B13
330
B0E
100
AcDbEntity
  8
1
  0
LINE
  5
B14
330
18
100
AcDbEntity
  8
1
100
AcDbLine
 10
2.753427999996345
 20
-2.470254999999951
 30
0.0
 11
2.845013999996352
 21
-2.463566000000014
 31
0.0
  0
LINE
  5
B15
330
18
100
AcDbEntity
  8
1
100
AcDbLine
 10
2.034335999996358
 20
-2.400021999999919
 30
0.0
 11
2.030963999996345
 21
-2.409108999999943
 31
0.0
  0
LINE
  5
B16
330
18
100
AcDbEntity
  8
1
100
AcDbLine
 10
2.045660999996357
 20
-2.415112000000021
 30
0.0
 11
2.034335999996358
 21
-2.400021999999919
 31
0.0
  0
ARC
  5
B17
330
18
100
AcDbEntity
  8
1
100
AcDbCircle
 10
4.865056999996369
 20
0.4898860000000698
 30
0.0
 40
4.045332
100
AcDbArc
 50
219.2031449999998
 51
225.5927839999992
  0
ARC
  5
B18
330
18
100
AcDbEntity
  8
1
100
AcDbCircle
 10
-0.47933500000363
 20
-3.31079199999999
 30
0.0
 40
2.535517
100
AcDbArc
 50
22.23470900000169
 51
29.3739090000001
  0
LINE
  5
B19
330
18
100
AcDbEntity
  8
1
100
AcDbLine
 10
1.951198999996364
 20
-1.206642999999985
 30
0.0
 11
1.97990999999635
 21
-1.039890000000011
 31
0.0
  0
LINE
  5
B1A
330
18
100
AcDbEntity
  8
1
100
AcDbLine
 10
1.951232999996364
 20
-1.206443999999919
 30
0.0
 11
1.960249999996364
 21
-0.976675
 31
0.0
  0
POLYLINE
  5
B1B
330
18
100
AcDbEntity
  8
1
100
AcDb2dPolyline
 66
     1
 10
0.0
 20
0.0
 30
0.0
  0
VERTEX
  5
B1C
330
B1B
100
AcDbEntity
  8
1
100
AcDbVertex
100
AcDb2dVertex
 10
1.97990999999635
 20
-1.039890000000011
 30
0.0
  0
VERTEX
  5
B1D
330
B1B
100
AcDbEntity
  8
1
100
AcDbVertex
100
AcDb2dVertex
 10
2.043952999996349
 20
-0.3987149999999246
 30
0.0
  0
VERTEX
  5
B1E
330
B1B
100
AcDbEntity
  8
1
100
AcDbVertex
100
AcDb2dVertex
 10
2.064184999996371
 20
-0.0337630000000218
 30
0.0
  0
SEQEND
  5
B1F
330
B1B
100
AcDbEntity
  8
1
  0
LINE
  5
B20
330
18
100
AcDbEntity
  8
1
100
AcDbLine
 10
1.960249999996364
 20
-0.976675
 30
0.0
 11
1.99980199999635
 21
0.027859000000035
 31
0.0
  0
LINE
  5
B21
330
18
100
AcDbEntity
  8
1
100
AcDbLine
 10
2.064184999996371
 20
-0.0337630000000218
 30
0.0
 11
2.064230999996368
 21
0.0335509999999886
 31
0.0
  0
LINE
  5
B22
330
18
100
AcDbEntity
  8
1
100
AcDbLine
 10
1.99980199999635
 20
0.027859000000035
 30
0.0
 11
2.002080999996366
 21
0.0858510000000479
 31
0.0
  0
LINE
  5
B23
330
18
100
AcDbEntity
  8
1
100
AcDbLine
 10
2.064230999996368
 20
0.0335509999999886
 30
0.0
 11
2.026685999996344
 21
0.7104480000000422
 31
0.0
  0
LINE
  5
B24
330
18
100
AcDbEntity
  8
1
100
AcDbLine
 10
2.002080999996366
 20
0.0858510000000479
 30
0.0
 11
2.026663999996344
 21
0.7108420000000706
 31
0.0
  0
LINE
  5
B25
330
18
100
AcDbEntity
  8
1
100
AcDbLine
 10
2.414394999996375
 20
-1.437560999999957
 30
0.0
 11
2.42814999999635
 21
-1.357540999999969
 31
0.0
  0
POLYLINE
  5
B26
330
18
100
AcDbEntity
  8
1
100
AcDb2dPolyline
 66
     1
 10
0.0
 20
0.0
 30
0.0
  0
VERTEX
  5
B27
330
B26
100
AcDbEntity
  8
1
100
AcDbVertex
100
AcDb2dVertex
 10
2.42814999999635
 20
-1.357540999999969
 30
0.0
  0
VERTEX
  5
B28
330
B26
100
AcDbEntity
  8
1
100
AcDbVertex
100
AcDb2dVertex
 10
2.269145999996368
 20
-1.323204999999916
 30
0.0
  0
VERTEX
  5
B29
330
B26
100
AcDbEntity
  8
1
100
AcDbVertex
100
AcDb2dVertex
 10
2.12776199999635
 20
-1.250654999999937
 30
0.0
  0
VERTEX
  5
B2A
330
B26
100
AcDbEntity
  8
1
100
AcDbVertex
100
AcDb2dVertex
 10
2.044519999996365
 20
-1.173810000000002
 30
0.0
  0
VERTEX
  5
B2B
330
B26
100
AcDbEntity
  8
1
100
AcDbVertex
100
AcDb2dVertex
 10
1.99117499999636
 20
-1.08195999999998
 30
0.0
  0
VERTEX
  5
B2C
330
B26
100
AcDbEntity
  8
1
100
AcDbVertex
100
AcDb2dVertex
 10
1.97990999999635
 20
-1.039890000000011
 30
0.0
  0
SEQEND
  5
B2D
330
B26
100
AcDbEntity
  8
1
  0
POLYLINE
  5
B2E
330
18
100
AcDbEntity
  8
1
100
AcDb2dPolyline
 66
     1
 10
0.0
 20
0.0
 30
0.0
  0
VERTEX
  5
B2F
330
B2E
100
AcDbEntity
  8
1
100
AcDbVertex
100
AcDb2dVertex
 10
2.034370999996355
 20
-1.497537999999961
 30
0.0
  0
VERTEX
  5
B30
330
B2E
100
AcDbEntity
  8
1
100
AcDbVertex
100
AcDb2dVertex
 10
1.980678999996371
 20
-1.438069999999925
 30
0.0
  0
VERTEX
  5
B31
330
B2E
100
AcDbEntity
  8
1
100
AcDbVertex
100
AcDb2dVertex
 10
1.958778999996354
 20
-1.363796999999975
 30
0.0
  0
VERTEX
  5
B32
330
B2E
100
AcDbEntity
  8
1
100
AcDbVertex
100
AcDb2dVertex
 10
1.951198999996364
 20
-1.206642999999985
 30
0.0
  0
SEQEND
  5
B33
330
B2E
100
AcDbEntity
  8
1
  0
POLYLINE
  5
B34
330
18
100
AcDbEntity
  8
1
100
AcDb2dPolyline
 66
     1
 10
0.0
 20
0.0
 30
0.0
  0
VERTEX
  5
B35
330
B34
100
AcDbEntity
  8
1
100
AcDbVertex
100
AcDb2dVertex
 10
2.414394999996375
 20
-1.437560999999957
 30
0.0
  0
VERTEX
  5
B36
330
B34
100
AcDbEntity
  8
1
100
AcDbVertex
100
AcDb2dVertex
 10
2.274399999996376
 20
-1.49161600000002
 30
0.0
  0
VERTEX
  5
B37
330
B34
100
AcDbEntity
  8
1
100
AcDbVertex
100
AcDb2dVertex
 10
2.136520999996378
 20
-1.513659999999958
 30
0.0
  0
VERTEX
  5
B38
330
B34
100
AcDbEntity
  8
1
100
AcDbVertex
100
AcDb2dVertex
 10
2.06672599999635
 20
-1.508324000000014
 30
0.0
  0
VERTEX
  5
B39
330
B34
100
AcDbEntity
  8
1
100
AcDbVertex
100
AcDb2dVertex
 10
2.034370999996355
 20
-1.497537999999961
 30
0.0
  0
SEQEND
  5
B3A
330
B34
100
AcDbEntity
  8
1
  0
POLYLINE
  5
B3B
330
18
100
AcDbEntity
  8
1
100
AcDb2dPolyline
 66
     1
 10
0.0
 20
0.0
 30
0.0
  0
VERTEX
  5
B3C
330
B3B
100
AcDbEntity
  8
1
100
AcDbVertex
100
AcDb2dVertex
 10
2.42814999999635
 20
-1.357540999999969
 30
0.0
  0
VERTEX
  5
B3D
330
B3B
100
AcDbEntity
  8
1
100
AcDbVertex
100
AcDb2dVertex
 10
2.486117999996365
 20
-0.6552980000000162
 30
0.0
  0
VERTEX
  5
B3E
330
B3B
100
AcDbEntity
  8
1
100
AcDbVertex
100
AcDb2dVertex
 10
2.512444999996374
 20
-0.169832999999926
 30
0.0
  0
SEQEND
  5
B3F
330
B3B
100
AcDbEntity
  8
1
  0
POLYLINE
  5
B40
330
18
100
AcDbEntity
  8
1
100
AcDb2dPolyline
 66
     1
 10
0.0
 20
0.0
 30
0.0
  0
VERTEX
  5
B41
330
B40
100
AcDbEntity
  8
1
100
AcDbVertex
100
AcDb2dVertex
 10
2.512444999996374
 20
-0.169832999999926
 30
0.0
  0
VERTEX
  5
B42
330
B40
100
AcDbEntity
  8
1
100
AcDbVertex
100
AcDb2dVertex
 10
2.240631999996365
 20
-0.1291559999999663
 30
0.0
  0
VERTEX
  5
B43
330
B40
100
AcDbEntity
  8
1
100
AcDbVertex
100
AcDb2dVertex
 10
2.130787999996357
 20
-0.0884750000000168
 30
0.0
  0
VERTEX
  5
B44
330
B40
100
AcDbEntity
  8
1
100
AcDbVertex
100
AcDb2dVertex
 10
2.079118999996353
 20
-0.0530390000000125
 30
0.0
  0
VERTEX
  5
B45
330
B40
100
AcDbEntity
  8
1
100
AcDbVertex
100
AcDb2dVertex
 10
2.064184999996371
 20
-0.0337630000000218
 30
0.0
  0
SEQEND
  5
B46
330
B40
100
AcDbEntity
  8
1
  0
LINE
  5
B47
330
18
100
AcDbEntity
  8
1
100
AcDbLine
 10
2.512444999996374
 20
-0.169832999999926
 30
0.0
 11
2.512459999996365
 21
0.17005800000004
 31
0.0
  0
POLYLINE
  5
B48
330
18
100
AcDbEntity
  8
1
100
AcDb2dPolyline
 66
     1
 10
0.0
 20
0.0
 30
0.0
  0
VERTEX
  5
B49
330
B48
100
AcDbEntity
  8
1
100
AcDbVertex
100
AcDb2dVertex
 10
2.512458999996368
 20
0.17005800000004
 30
0.0
  0
VERTEX
  5
B4A
330
B48
100
AcDbEntity
  8
1
100
AcDbVertex
100
AcDb2dVertex
 10
2.240635999996356
 20
0.1292379999999866
 30
0.0
  0
VERTEX
  5
B4B
330
B48
100
AcDbEntity
  8
1
100
AcDbVertex
100
AcDb2dVertex
 10
2.130803999996373
 20
0.0884210000000394
 30
0.0
  0
VERTEX
  5
B4C
330
B48
100
AcDbEntity
  8
1
100
AcDbVertex
100
AcDb2dVertex
 10
2.07914999999636
 20
0.0528770000000805
 30
0.0
  0
VERTEX
  5
B4D
330
B48
100
AcDbEntity
  8
1
100
AcDbVertex
100
AcDb2dVertex
 10
2.064230999996368
 20
0.0335509999999886
 30
0.0
  0
SEQEND
  5
B4E
330
B48
100
AcDbEntity
  8
1
  0
LINE
  5
B4F
330
18
100
AcDbEntity
  8
1
100
AcDbLine
 10
2.512459999996365
 20
0.17005800000004
 30
0.0
 11
2.471705999996345
 21
0.9049959999999828
 31
0.0
  0
POLYLINE
  5
B50
330
18
100
AcDbEntity
  8
1
100
AcDb2dPolyline
 66
     1
 10
0.0
 20
0.0
 30
0.0
  0
VERTEX
  5
B51
330
B50
100
AcDbEntity
  8
1
100
AcDbVertex
100
AcDb2dVertex
 10
2.03437299999635
 20
0.8029520000000045
 30
0.0
  0
VERTEX
  5
B52
330
B50
100
AcDbEntity
  8
1
100
AcDbVertex
100
AcDb2dVertex
 10
2.06591099999636
 20
0.9204690000000256
 30
0.0
  0
VERTEX
  5
B53
330
B50
100
AcDbEntity
  8
1
100
AcDbVertex
100
AcDb2dVertex
 10
2.097702999996355
 20
0.9663790000000743
 30
0.0
  0
VERTEX
  5
B54
330
B50
100
AcDbEntity
  8
1
100
AcDbVertex
100
AcDb2dVertex
 10
2.172619999996356
 20
1.003499000000033
 30
0.0
  0
VERTEX
  5
B55
330
B50
100
AcDbEntity
  8
1
100
AcDbVertex
100
AcDb2dVertex
 10
2.227756999996358
 20
1.004636000000004
 30
0.0
  0
VERTEX
  5
B56
330
B50
100
AcDbEntity
  8
1
100
AcDbVertex
100
AcDb2dVertex
 10
2.341106999996354
 20
0.9737320000000407
 30
0.0
  0
VERTEX
  5
B57
330
B50
100
AcDbEntity
  8
1
100
AcDbVertex
100
AcDb2dVertex
 10
2.471705999996345
 20
0.9049959999999828
 30
0.0
  0
SEQEND
  5
B58
330
B50
100
AcDbEntity
  8
1
  0
ARC
  5
B59
330
18
100
AcDbEntity
  8
1
100
AcDbCircle
 10
2.976913999996355
 20
0.6785350000000108
 30
0.0
 40
0.950741
100
AcDbArc
 50
172.4803600000014
 51
178.0765060000012
  0
LINE
  5
B5A
330
18
100
AcDbEntity
  8
1
100
AcDbLine
 10
5.209823999996356
 20
-1.357540999999969
 30
0.0
 11
2.42814999999635
 21
-1.357540999999969
 31
0.0
  0
ARC
  5
B5B
330
18
100
AcDbEntity
  8
1
100
AcDbCircle
 10
2.747269999996376
 20
-2.098403999999959
 30
0.0
 40
0.739614
100
AcDbArc
 50
89.52204699999915
 51
116.7349590000016
  0
ARC
  5
B5C
330
18
100
AcDbEntity
  8
1
100
AcDbCircle
 10
3.585076999996373
 20
565.6445379999999
 30
0.0
 40
567.004132
100
AcDbArc
 50
269.9159629999994
 51
270.1641810000005
  0
LINE
  5
B5D
330
18
100
AcDbEntity
  8
1
100
AcDbLine
 10
6.676277999996356
 20
-0.169832999999926
 30
0.0
 11
2.512444999996374
 21
-0.169832999999926
 31
0.0
  0
LINE
  5
B5E
330
18
100
AcDbEntity
  8
1
100
AcDbLine
 10
5.772965999996356
 20
-1.357540999999969
 30
0.0
 11
5.209823999996356
 21
-1.357540999999969
 31
0.0
  0
POLYLINE
  5
B5F
330
18
100
AcDbEntity
  8
1
100
AcDb2dPolyline
 66
     1
 10
0.0
 20
0.0
 30
0.0
  0
VERTEX
  5
B60
330
B5F
100
AcDbEntity
  8
1
100
AcDbVertex
100
AcDb2dVertex
 10
6.333641999996356
 20
-1.029964999999945
 30
0.0
  0
VERTEX
  5
B61
330
B5F
100
AcDbEntity
  8
1
100
AcDbVertex
100
AcDb2dVertex
 10
6.160255999996365
 20
-1.173352000000021
 30
0.0
  0
VERTEX
  5
B62
330
B5F
100
AcDbEntity
  8
1
100
AcDbVertex
100
AcDb2dVertex
 10
5.938711999996371
 20
-1.293687999999972
 30
0.0
  0
VERTEX
  5
B63
330
B5F
100
AcDbEntity
  8
1
100
AcDbVertex
100
AcDb2dVertex
 10
5.772965999996356
 20
-1.357540999999969
 30
0.0
  0
SEQEND
  5
B64
330
B5F
100
AcDbEntity
  8
1
  0
POLYLINE
  5
B65
330
18
100
AcDbEntity
  8
1
100
AcDb2dPolyline
 66
     1
 10
0.0
 20
0.0
 30
0.0
  0
VERTEX
  5
B66
330
B65
100
AcDbEntity
  8
1
100
AcDbVertex
100
AcDb2dVertex
 10
6.676277999996356
 20
-0.169832999999926
 30
0.0
  0
VERTEX
  5
B67
330
B65
100
AcDbEntity
  8
1
100
AcDbVertex
100
AcDb2dVertex
 10
6.633041999996351
 20
-0.5078209999999217
 30
0.0
  0
VERTEX
  5
B68
330
B65
100
AcDbEntity
  8
1
100
AcDbVertex
100
AcDb2dVertex
 10
6.579920999996375
 20
-0.6803059999999732
 30
0.0
  0
VERTEX
  5
B69
330
B65
100
AcDbEntity
  8
1
100
AcDbVertex
100
AcDb2dVertex
 10
6.51301399999636
 20
-0.8039699999999355
 30
0.0
  0
VERTEX
  5
B6A
330
B65
100
AcDbEntity
  8
1
100
AcDbVertex
100
AcDb2dVertex
 10
6.333645999996347
 20
-1.029971999999929
 30
0.0
  0
SEQEND
  5
B6B
330
B65
100
AcDbEntity
  8
1
  0
LINE
  5
B6C
330
18
100
AcDbEntity
  8
1
100
AcDbLine
 10
6.361213999996378
 20
0.17005800000004
 30
0.0
 11
2.512459999996365
 21
0.17005800000004
 31
0.0
  0
POLYLINE
  5
B6D
330
18
100
AcDbEntity
  8
1
100
AcDb2dPolyline
 66
     1
 10
0.0
 20
0.0
 30
0.0
  0
VERTEX
  5
B6E
330
B6D
100
AcDbEntity
  8
1
100
AcDbVertex
100
AcDb2dVertex
 10
6.361213999996378
 20
0.17005800000004
 30
0.0
  0
VERTEX
  5
B6F
330
B6D
100
AcDbEntity
  8
1
100
AcDbVertex
100
AcDb2dVertex
 10
6.537812999996361
 20
0.0613399999999729
 30
0.0
  0
VERTEX
  5
B70
330
B6D
100
AcDbEntity
  8
1
100
AcDbVertex
100
AcDb2dVertex
 10
6.610687999996343
 20
-0.0073639999999386
 30
0.0
  0
VERTEX
  5
B71
330
B6D
100
AcDbEntity
  8
1
100
AcDbVertex
100
AcDb2dVertex
 10
6.670308999996365
 20
-0.114736999999991
 30
0.0
  0
VERTEX
  5
B72
330
B6D
100
AcDbEntity
  8
1
100
AcDbVertex
100
AcDb2dVertex
 10
6.676277999996356
 20
-0.169832999999926
 30
0.0
  0
SEQEND
  5
B73
330
B6D
100
AcDbEntity
  8
1
  0
ARC
  5
B74
330
18
100
AcDbEntity
  8
1
100
AcDbCircle
 10
4.667307999996353
 20
-1.714368999999918
 30
0.0
 40
2.533827999999999
100
AcDbArc
 50
48.04830599999821
 51
52.56650899999858
  0
LINE
  5
B75
330
18
100
AcDbEntity
  8
1
100
AcDbLine
 10
5.905487999996352
 20
0.5289670000000797
 30
0.0
 11
6.207475999996347
 21
0.2976489999999785
 31
0.0
  0
ARC
  5
B76
330
18
100
AcDbEntity
  8
1
100
AcDbCircle
 10
4.422903999996377
 20
-1.408531999999921
 30
0.0
 40
2.43968
100
AcDbArc
 50
52.57657299999792
 51
65.76010499999942
  0
LINE
  5
B77
330
18
100
AcDbEntity
  8
1
100
AcDbLine
 10
5.209823999996356
 20
0.8160669999999754
 30
0.0
 11
5.424540999996366
 21
0.8160669999999754
 31
0.0
  0
LINE
  5
B78
330
18
100
AcDbEntity
  8
1
100
AcDbLine
 10
2.753428999996344
 20
0.8160669999999754
 30
0.0
 11
5.209823999996356
 21
0.8160669999999754
 31
0.0
  0
ARC
  5
B79
330
18
100
AcDbEntity
  8
1
100
AcDbCircle
 10
2.762953999996368
 20
1.331821999999988
 30
0.0
 40
0.516231
100
AcDbArc
 50
235.6919679999981
 51
268.9419640000003
  0
LINE
  5
B7A
330
18
100
AcDbEntity
  8
1
100
AcDbLine
 10
2.034335999996358
 20
-2.400021999999919
 30
0.0
 11
2.034335999996358
 21
-1.497185999999941
 31
0.0
  0
LINE
  5
B7B
330
18
100
AcDbEntity
  8
1
100
AcDbLine
 10
2.034335999996358
 20
0.803007999999977
 30
0.0
 11
2.034335999996358
 21
1.734792000000084
 31
0.0
  0
POLYLINE
  5
B7C
330
18
100
AcDbEntity
  8
1
100
AcDb2dPolyline
 66
     1
 10
0.0
 20
0.0
 30
0.0
  0
VERTEX
  5
B7D
330
B7C
100
AcDbEntity
  8
1
100
AcDbVertex
100
AcDb2dVertex
 10
0.9807949999963623
 20
1.619341000000076
 30
0.0
  0
VERTEX
  5
B7E
330
B7C
100
AcDbEntity
  8
1
100
AcDbVertex
100
AcDb2dVertex
 10
1.13152599999637
 20
1.568741000000045
 30
0.0
  0
VERTEX
  5
B7F
330
B7C
100
AcDbEntity
  8
1
100
AcDbVertex
100
AcDb2dVertex
 10
1.28458999999637
 20
1.546845000000073
 30
0.0
  0
VERTEX
  5
B80
330
B7C
100
AcDbEntity
  8
1
100
AcDbVertex
100
AcDb2dVertex
 10
1.45220199999636
 20
1.550926999999999
 30
0.0
  0
VERTEX
  5
B81
330
B7C
100
AcDbEntity
  8
1
100
AcDbVertex
100
AcDb2dVertex
 10
1.61833599999636
 20
1.579419000000028
 30
0.0
  0
VERTEX
  5
B82
330
B7C
100
AcDbEntity
  8
1
100
AcDbVertex
100
AcDb2dVertex
 10
1.82807299999635
 20
1.644732999999973
 30
0.0
  0
VERTEX
  5
B83
330
B7C
100
AcDbEntity
  8
1
100
AcDbVertex
100
AcDb2dVertex
 10
2.034335999996358
 20
1.734792000000084
 30
0.0
  0
SEQEND
  5
B84
330
B7C
100
AcDbEntity
  8
1
  0
POLYLINE
  5
B85
330
18
100
AcDbEntity
  8
1
100
AcDb2dPolyline
 66
     1
 10
0.0
 20
0.0
 30
0.0
  0
VERTEX
  5
B86
330
B85
100
AcDbEntity
  8
1
100
AcDbVertex
100
AcDb2dVertex
 10
1.590565999996357
 20
-1.833788000000025
 30
0.0
  0
VERTEX
  5
B87
330
B85
100
AcDbEntity
  8
1
100
AcDbVertex
100
AcDb2dVertex
 10
1.305544999996355
 20
-1.325576999999952
 30
0.0
  0
VERTEX
  5
B88
330
B85
100
AcDbEntity
  8
1
100
AcDbVertex
100
AcDb2dVertex
 10
1.081226999996372
 20
-0.7720819999999549
 30
0.0
  0
VERTEX
  5
B89
330
B85
100
AcDbEntity
  8
1
100
AcDbVertex
100
AcDb2dVertex
 10
0.9951809999963645
 20
-0.482142999999951
 30
0.0
  0
VERTEX
  5
B8A
330
B85
100
AcDbEntity
  8
1
100
AcDbVertex
100
AcDb2dVertex
 10
0.9281519999963734
 20
-0.1859389999999621
 30
0.0
  0
VERTEX
  5
B8B
330
B85
100
AcDbEntity
  8
1
100
AcDbVertex
100
AcDb2dVertex
 10
0.8649959999963812
 20
0.2720310000000836
 30
0.0
  0
VERTEX
  5
B8C
330
B85
100
AcDbEntity
  8
1
100
AcDbVertex
100
AcDb2dVertex
 10
0.8514979999963543
 20
0.7322020000000295
 30
0.0
  0
VERTEX
  5
B8D
330
B85
100
AcDbEntity
  8
1
100
AcDbVertex
100
AcDb2dVertex
 10
0.8900009999963458
 20
1.184960000000044
 30
0.0
  0
VERTEX
  5
B8E
330
B85
100
AcDbEntity
  8
1
100
AcDbVertex
100
AcDb2dVertex
 10
0.9807949999963623
 20
1.619341000000076
 30
0.0
  0
SEQEND
  5
B8F
330
B85
100
AcDbEntity
  8
1
  0
ARC
  5
B90
330
18
100
AcDbEntity
  8
1
100
AcDbCircle
 10
-1.931659000003634
 20
-4.10030599999993
 30
0.0
 40
4.188486
100
AcDbArc
 50
29.04105900000029
 51
32.76089700000169
  0
LINE
  5
B91
330
18
100
AcDbEntity
  8
1
100
AcDbLine
 10
2.753428999996344
 20
-2.470307999999931
 30
0.0
 11
2.753428999996344
 21
-1.357541999999965
 31
0.0
  0
LINE
  5
B92
330
18
100
AcDbEntity
  8
1
100
AcDbLine
 10
2.753428999996344
 20
0.8160649999999805
 30
0.0
 11
2.753428999996344
 21
1.838106000000038
 31
0.0
  0
ARC
  5
B93
330
18
100
AcDbEntity
  8
1
100
AcDbCircle
 10
2.531523999996352
 20
0.7567579999999908
 30
0.0
 40
1.103674
100
AcDbArc
 50
78.40325899999971
 51
103.8394030000009
  0
ARC
  5
B94
330
18
100
AcDbEntity
  8
1
100
AcDbCircle
 10
2.475248999996352
 20
0.9662950000000591
 30
0.0
 40
0.8862299999999997
100
AcDbArc
 50
103.5476499999997
 51
119.8443330000019
  0
ARC
  5
B95
330
18
100
AcDbEntity
  8
1
100
AcDbCircle
 10
5.173146999996362
 20
-1.629213999999933
 30
0.0
 40
0.138352
100
AcDbArc
 50
176.2557659999995
 51
285.3453179999983
  0
ARC
  5
B96
330
18
100
AcDbEntity
  8
1
100
AcDbCircle
 10
5.173328999996356
 20
-1.632507999999915
 30
0.0
 40
0.13873
100
AcDbArc
 50
74.77036599999907
 51
174.9007779999993
  0
ARC
  5
B97
330
18
100
AcDbEntity
  8
1
100
AcDbCircle
 10
3.883665999996366
 20
2.315310000000065
 30
0.0
 40
4.707487
100
AcDbArc
 50
272.9811840000001
 51
286.3643219999987
  0
ARC
  5
B98
330
18
100
AcDbEntity
  8
1
100
AcDbCircle
 10
4.714926999996349
 20
-1.628409999999916
 30
0.0
 40
0.139312
100
AcDbArc
 50
176.6076880000009
 51
3.392306000000294
  0
ARC
  5
B99
330
18
100
AcDbEntity
  8
1
100
AcDbCircle
 10
4.714925999996353
 20
-1.633170999999945
 30
0.0
 40
0.139519
100
AcDbArc
 50
5.349297999999049
 51
174.6506820000012
  0
ARC
  5
B9A
330
18
100
AcDbEntity
  8
1
100
AcDbCircle
 10
4.397572999996356
 20
-0.48433399999999
 30
0.0
 40
1.999743
100
AcDbArc
 50
66.03514599999927
 51
79.34418299999895
  0
ARC
  5
B9B
330
18
100
AcDbEntity
  8
1
100
AcDbCircle
 10
-20.24617500000363
 20
-133.9498109999999
 30
0.0
 40
137.721579
100
AcDbArc
 50
79.5356259999985
 51
80.38654699999989
  0
POLYLINE
  5
B9C
330
18
100
AcDbEntity
  8
1
100
AcDb2dPolyline
 66
     1
 10
0.0
 20
0.0
 30
0.0
  0
VERTEX
  5
B9D
330
B9C
100
AcDbEntity
  8
1
100
AcDbVertex
100
AcDb2dVertex
 10
5.652286999996361
 20
1.07662700000003
 30
0.0
  0
VERTEX
  5
B9E
330
B9C
100
AcDbEntity
  8
1
100
AcDbVertex
100
AcDb2dVertex
 10
5.684009999996361
 20
1.012438999999971
 30
0.0
  0
VERTEX
  5
B9F
330
B9C
100
AcDbEntity
  8
1
100
AcDbVertex
100
AcDb2dVertex
 10
5.694570999996357
 20
0.9429569999999783
 30
0.0
  0
VERTEX
  5
BA0
330
B9C
100
AcDbEntity
  8
1
100
AcDbVertex
100
AcDb2dVertex
 10
5.672795999996367
 20
0.8879530000000386
 30
0.0
  0
VERTEX
  5
BA1
330
B9C
100
AcDbEntity
  8
1
100
AcDbVertex
100
AcDb2dVertex
 10
5.638816999996378
 20
0.8568629999999757
 30
0.0
  0
VERTEX
  5
BA2
330
B9C
100
AcDbEntity
  8
1
100
AcDbVertex
100
AcDb2dVertex
 10
5.59621599999636
 20
0.8367560000000365
 30
0.0
  0
VERTEX
  5
BA3
330
B9C
100
AcDbEntity
  8
1
100
AcDbVertex
100
AcDb2dVertex
 10
5.511024999996378
 20
0.8203560000000607
 30
0.0
  0
VERTEX
  5
BA4
330
B9C
100
AcDbEntity
  8
1
100
AcDbVertex
100
AcDb2dVertex
 10
5.424543999996358
 20
0.8160649999999805
 30
0.0
  0
SEQEND
  5
BA5
330
B9C
100
AcDbEntity
  8
1
  0
ARC
  5
BA6
330
18
100
AcDbEntity
  8
1
100
AcDbCircle
 10
4.345983999996348
 20
-0.5912690000000112
 30
0.0
 40
2.118491
100
AcDbArc
 50
51.93181399999964
 51
65.93486699999927
  0
ARC
  5
BA7
330
18
100
AcDbEntity
  8
1
100
AcDbCircle
 10
5.175621999996366
 20
-1.631610000000023
 30
0.0
 40
0.1374
100
AcDbArc
 50
4.766885999998615
 51
75.59388600000097
  0
ARC
  5
BA8
330
18
100
AcDbEntity
  8
1
100
AcDbCircle
 10
5.176116999996366
 20
-1.630066999999938
 30
0.0
 40
0.13679
100
AcDbArc
 50
284.2421740000008
 51
4.139782999999063
  0
ARC
  5
BA9
330
18
100
AcDbEntity
  8
1
100
AcDbCircle
 10
4.174191999996366
 20
1.213038999999978
 30
0.0
 40
3.567622
100
AcDbArc
 50
286.8750580000006
 51
289.9261110000013
  0
ARC
  5
BAA
330
18
100
AcDbEntity
  8
1
100
AcDbCircle
 10
4.676783999996358
 20
-0.1695179999999254
 30
0.0
 40
2.096502
100
AcDbArc
 50
289.8901319999983
 51
295.8649809999983
  0
ARC
  5
BAB
330
18
100
AcDbEntity
  8
1
100
AcDbCircle
 10
5.129661999996358
 20
-1.027473999999982
 30
0.0
 40
1.126463999999999
100
AcDbArc
 50
294.1830650000019
 51
318.6736209999997
  0
POLYLINE
  5
BAC
330
18
100
AcDbEntity
  8
1
100
AcDb2dPolyline
 66
     1
 10
0.0
 20
0.0
 30
0.0
  0
VERTEX
  5
BAD
330
BAC
100
AcDbEntity
  8
1
100
AcDbVertex
100
AcDb2dVertex
 10
5.77295399999636
 20
-1.357540999999969
 30
0.0
  0
VERTEX
  5
BAE
330
BAC
100
AcDbEntity
  8
1
100
AcDbVertex
100
AcDb2dVertex
 10
5.873346999996356
 20
-1.362964999999916
 30
0.0
  0
VERTEX
  5
BAF
330
BAC
100
AcDbEntity
  8
1
100
AcDbVertex
100
AcDb2dVertex
 10
5.970714999996346
 20
-1.385851999999999
 30
0.0
  0
VERTEX
  5
BB0
330
BAC
100
AcDbEntity
  8
1
100
AcDbVertex
100
AcDb2dVertex
 10
6.019021999996367
 20
-1.413248999999949
 30
0.0
  0
VERTEX
  5
BB1
330
BAC
100
AcDbEntity
  8
1
100
AcDbVertex
100
AcDb2dVertex
 10
6.074685999996347
 20
-1.504047000000014
 30
0.0
  0
VERTEX
  5
BB2
330
BAC
100
AcDbEntity
  8
1
100
AcDbVertex
100
AcDb2dVertex
 10
6.07621199999636
 20
-1.558657999999923
 30
0.0
  0
VERTEX
  5
BB3
330
BAC
100
AcDbEntity
  8
1
100
AcDbVertex
100
AcDb2dVertex
 10
6.033955999996351
 20
-1.684242999999923
 30
0.0
  0
VERTEX
  5
BB4
330
BAC
100
AcDbEntity
  8
1
100
AcDbVertex
100
AcDb2dVertex
 10
5.974956999996378
 20
-1.77077399999996
 30
0.0
  0
SEQEND
  5
BB5
330
BAC
100
AcDbEntity
  8
1
  0
ARC
  5
BB6
330
18
100
AcDbEntity
  8
1
100
AcDbCircle
 10
5.632930999996347
 20
-1.628457000000025
 30
0.0
 40
0.139285
100
AcDbArc
 50
176.5885439999991
 51
3.412027000001367
  0
ARC
  5
BB7
330
18
100
AcDbEntity
  8
1
100
AcDbCircle
 10
5.632914999996357
 20
-1.633117999999965
 30
0.0
 40
0.139483
100
AcDbArc
 50
5.327364000000256
 51
174.6723170000008
  0
POLYLINE
  5
BB8
330
18
100
AcDbEntity
  8
1
100
AcDb2dPolyline
 66
     1
 10
0.0
 20
0.0
 30
0.0
  0
VERTEX
  5
BB9
330
BB8
100
AcDbEntity
  8
1
100
AcDbVertex
100
AcDb2dVertex
 10
2.517176999996365
 20
3.327382000000056
 30
0.0
  0
VERTEX
  5
BBA
330
BB8
100
AcDbEntity
  8
1
100
AcDbVertex
100
AcDb2dVertex
 10
3.259428999996373
 20
3.245973000000049
 30
0.0
  0
VERTEX
  5
BBB
330
BB8
100
AcDbEntity
  8
1
100
AcDbVertex
100
AcDb2dVertex
 10
4.737815999996371
 20
3.082989999999995
 30
0.0
  0
VERTEX
  5
BBC
330
BB8
100
AcDbEntity
  8
1
100
AcDbVertex
100
AcDb2dVertex
 10
5.479388999996356
 20
3.005078000000025
 30
0.0
  0
VERTEX
  5
BBD
330
BB8
100
AcDbEntity
  8
1
100
AcDbVertex
100
AcDb2dVertex
 10
5.850742999996357
 20
2.960752000000069
 30
0.0
  0
SEQEND
  5
BBE
330
BB8
100
AcDbEntity
  8
1
  0
LINE
  5
BBF
330
18
100
AcDbEntity
  8
1
100
AcDbLine
 10
5.987044999996356
 20
3.655182000000081
 30
0.0
 11
5.850743999996383
 21
2.960752000000069
 31
0.0
  0
LINE
  5
BC0
330
18
100
AcDbEntity
  8
1
100
AcDbLine
 10
6.018472999996361
 20
3.815263000000071
 30
0.0
 11
5.987044999996356
 21
3.655182000000081
 31
0.0
  0
LINE
  5
BC1
330
18
100
AcDbEntity
  8
1
100
AcDbLine
 10
2.626693999996346
 20
3.891346999999995
 30
0.0
 11
4.107908999996368
 21
3.857925000000022
 31
0.0
  0
LINE
  5
BC2
330
18
100
AcDbEntity
  8
1
100
AcDbLine
 10
4.107908999996368
 20
3.857925000000022
 30
0.0
 11
6.018472999996361
 21
3.815263000000071
 31
0.0
  0
LINE
  5
BC3
330
18
100
AcDbEntity
  8
1
100
AcDbLine
 10
2.626693999996346
 20
3.891346999999995
 30
0.0
 11
2.595880999996381
 21
3.732654000000025
 31
0.0
  0
LINE
  5
BC4
330
18
100
AcDbEntity
  8
1
100
AcDbLine
 10
2.595880999996381
 20
3.732654000000025
 30
0.0
 11
2.517176999996365
 21
3.327382000000056
 31
0.0
  0
LINE
  5
BC5
330
18
100
AcDbEntity
  8
1
100
AcDbLine
 10
2.328836999996354
 20
2.428850000000009
 30
0.0
 11
4.827463999996382
 21
2.162113999999974
 31
0.0
  0
ARC
  5
BC6
330
18
100
AcDbEntity
  8
1
100
AcDbCircle
 10
13.47757899999635
 20
-11.39772499999992
 30
0.0
 40
16.083975
100
AcDbArc
 50
118.4798660000014
 51
122.534686000001
  0
LINE
  5
BC7
330
18
100
AcDbEntity
  8
1
100
AcDbLine
 10
5.850743999996383
 20
2.960752000000069
 30
0.0
 11
5.807902999996372
 21
2.739906000000019
 31
0.0
  0
ARC
  5
BC8
330
18
100
AcDbEntity
  8
1
100
AcDbCircle
 10
-24.42319000000364
 20
8.483634000000051
 30
0.0
 40
27.429085
100
AcDbArc
 50
347.2471099999992
 51
349.1649079999987
  0
LINE
  5
BC9
330
18
100
AcDbEntity
  8
1
100
AcDbLine
 10
2.328836999996354
 20
2.428850000000009
 30
0.0
 11
2.211139999996361
 21
1.935987000000068
 31
0.0
  0
ARC
  5
BCA
330
18
100
AcDbEntity
  8
1
100
AcDbCircle
 10
2.500156999996363
 20
0.4526730000000044
 30
0.0
 40
1.511537
100
AcDbArc
 50
79.60209699999936
 51
101.0256749999995
  0
ARC
  5
BCB
330
18
100
AcDbEntity
  8
1
100
AcDbCircle
 10
-19.37633500000362
 20
-126.1599409999999
 30
0.0
 40
129.999882
100
AcDbArc
 50
79.28808100000134
 51
80.19013899999938
  0
POLYLINE
  5
BCC
330
18
100
AcDbEntity
  8
1
100
AcDb2dPolyline
 66
     1
 10
0.0
 20
0.0
 30
0.0
  0
VERTEX
  5
BCD
330
BCC
100
AcDbEntity
  8
1
100
AcDbVertex
100
AcDb2dVertex
 10
4.827463999996382
 20
2.162113999999974
 30
0.0
  0
VERTEX
  5
BCE
330
BCC
100
AcDbEntity
  8
1
100
AcDbVertex
100
AcDb2dVertex
 10
4.813095999996363
 20
1.984131000000045
 30
0.0
  0
VERTEX
  5
BCF
330
BCC
100
AcDbEntity
  8
1
100
AcDbVertex
100
AcDb2dVertex
 10
4.786809999996363
 20
1.574278000000049
 30
0.0
  0
SEQEND
  5
BD0
330
BCC
100
AcDbEntity
  8
1
  0
POLYLINE
  5
BD1
330
18
100
AcDbEntity
  8
1
100
AcDb2dPolyline
 66
     1
 10
0.0
 20
0.0
 30
0.0
  0
VERTEX
  5
BD2
330
BD1
100
AcDbEntity
  8
1
100
AcDbVertex
100
AcDb2dVertex
 10
2.517176999996365
 20
3.327382000000056
 30
0.0
  0
VERTEX
  5
BD3
330
BD1
100
AcDbEntity
  8
1
100
AcDbVertex
100
AcDb2dVertex
 10
2.337527999996352
 20
3.369951000000013
 30
0.0
  0
VERTEX
  5
BD4
330
BD1
100
AcDbEntity
  8
1
100
AcDbVertex
100
AcDb2dVertex
 10
2.221268999996368
 20
3.412545000000021
 30
0.0
  0
VERTEX
  5
BD5
330
BD1
100
AcDbEntity
  8
1
100
AcDbVertex
100
AcDb2dVertex
 10
2.004298999996365
 20
3.509682999999995
 30
0.0
  0
VERTEX
  5
BD6
330
BD1
100
AcDbEntity
  8
1
100
AcDbVertex
100
AcDb2dVertex
 10
1.817241999996354
 20
3.612175999999976
 30
0.0
  0
SEQEND
  5
BD7
330
BD1
100
AcDbEntity
  8
1
  0
ARC
  5
BD8
330
18
100
AcDbEntity
  8
1
100
AcDbCircle
 10
1.592994999996361
 20
4.033117000000061
 30
0.0
 40
0.476941
100
AcDbArc
 50
298.0455019999991
 51
314.0483380000012
  0
LINE
  5
BD9
330
18
100
AcDbEntity
  8
1
100
AcDbLine
 10
2.145174999996354
 20
3.902431999999976
 30
0.0
 11
1.92459199999635
 21
3.69031700000005
 31
0.0
  0
LINE
  5
BDA
330
18
100
AcDbEntity
  8
1
100
AcDbLine
 10
2.145242999996353
 20
3.902497000000039
 30
0.0
 11
2.626690999996355
 21
3.891328000000044
 31
0.0
  0
POLYLINE
  5
BDB
330
18
100
AcDbEntity
  8
1
100
AcDb2dPolyline
 66
     1
 10
0.0
 20
0.0
 30
0.0
  0
VERTEX
  5
BDC
330
BDB
100
AcDbEntity
  8
1
100
AcDbVertex
100
AcDb2dVertex
 10
2.328827999996349
 20
2.428814999999983
 30
0.0
  0
VERTEX
  5
BDD
330
BDB
100
AcDbEntity
  8
1
100
AcDbVertex
100
AcDb2dVertex
 10
2.018683999996369
 20
2.454203000000004
 30
0.0
  0
VERTEX
  5
BDE
330
BDB
100
AcDbEntity
  8
1
100
AcDbVertex
100
AcDb2dVertex
 10
1.85461399999636
 20
2.479616000000078
 30
0.0
  0
VERTEX
  5
BDF
330
BDB
100
AcDbEntity
  8
1
100
AcDbVertex
100
AcDb2dVertex
 10
1.69126799999637
 20
2.522918000000002
 30
0.0
  0
VERTEX
  5
BE0
330
BDB
100
AcDbEntity
  8
1
100
AcDbVertex
100
AcDb2dVertex
 10
1.470477999996376
 20
2.620089000000005
 30
0.0
  0
VERTEX
  5
BE1
330
BDB
100
AcDbEntity
  8
1
100
AcDbVertex
100
AcDb2dVertex
 10
1.269651999996369
 20
2.760744000000044
 30
0.0
  0
VERTEX
  5
BE2
330
BDB
100
AcDbEntity
  8
1
100
AcDbVertex
100
AcDb2dVertex
 10
1.099232999996359
 20
2.939495000000078
 30
0.0
  0
VERTEX
  5
BE3
330
BDB
100
AcDbEntity
  8
1
100
AcDbVertex
100
AcDb2dVertex
 10
0.997323999996354
 20
3.09353800000008
 30
0.0
  0
VERTEX
  5
BE4
330
BDB
100
AcDbEntity
  8
1
100
AcDbVertex
100
AcDb2dVertex
 10
0.9247769999963679
 20
3.257391999999981
 30
0.0
  0
SEQEND
  5
BE5
330
BDB
100
AcDbEntity
  8
1
  0
ARC
  5
BE6
330
18
100
AcDbEntity
  8
1
100
AcDbCircle
 10
0.0605449999963526
 20
3.65451400000006
 30
0.0
 40
0.951246
100
AcDbArc
 50
335.3208629999995
 51
344.542542999999
  0
POLYLINE
  5
BE7
330
18
100
AcDbEntity
  8
1
100
AcDb2dPolyline
 66
     1
 10
0.0
 20
0.0
 30
0.0
  0
VERTEX
  5
BE8
330
BE7
100
AcDbEntity
  8
1
100
AcDbVertex
100
AcDb2dVertex
 10
1.517458999996364
 20
3.547728000000006
 30
0.0
  0
VERTEX
  5
BE9
330
BE7
100
AcDbEntity
  8
1
100
AcDbVertex
100
AcDb2dVertex
 10
1.22822899999636
 20
3.519342000000051
 30
0.0
  0
VERTEX
  5
BEA
330
BE7
100
AcDbEntity
  8
1
100
AcDbVertex
100
AcDb2dVertex
 10
1.113741999996364
 20
3.489364000000023
 30
0.0
  0
VERTEX
  5
BEB
330
BE7
100
AcDbEntity
  8
1
100
AcDbVertex
100
AcDb2dVertex
 10
0.9775359999963484
 20
3.400941999999986
 30
0.0
  0
SEQEND
  5
BEC
330
BE7
100
AcDbEntity
  8
1
  0
LINE
  5
BED
330
18
100
AcDbEntity
  8
1
100
AcDbLine
 10
1.590565999996357
 20
3.550844999999981
 30
0.0
 11
1.517458999996364
 21
3.547728000000006
 31
0.0
  0
ARC
  5
BEE
330
18
100
AcDbEntity
  8
1
100
AcDbCircle
 10
1.57063899999636
 20
4.073834000000033
 30
0.0
 40
0.523384
100
AcDbArc
 50
272.182052999999
 51
298.1097529999982
  0
POLYLINE
  5
BEF
330
18
100
AcDbEntity
  8
1
100
AcDb2dPolyline
 66
     1
 10
0.0
 20
0.0
 30
0.0
  0
VERTEX
  5
BF0
330
BEF
100
AcDbEntity
  8
1
100
AcDbVertex
100
AcDb2dVertex
 10
1.535364999996373
 20
1.674068000000031
 30
0.0
  0
VERTEX
  5
BF1
330
BEF
100
AcDbEntity
  8
1
100
AcDbVertex
100
AcDb2dVertex
 10
1.325878999996346
 20
1.701456000000005
 30
0.0
  0
VERTEX
  5
BF2
330
BEF
100
AcDbEntity
  8
1
100
AcDbVertex
100
AcDb2dVertex
 10
1.12823099999636
 20
1.796009000000025
 30
0.0
  0
VERTEX
  5
BF3
330
BEF
100
AcDbEntity
  8
1
100
AcDbVertex
100
AcDb2dVertex
 10
0.9409849999963739
 20
1.962929000000031
 30
0.0
  0
VERTEX
  5
BF4
330
BEF
100
AcDbEntity
  8
1
100
AcDbVertex
100
AcDb2dVertex
 10
0.7883549999963578
 20
2.177022000000079
 30
0.0
  0
SEQEND
  5
BF5
330
BEF
100
AcDbEntity
  8
1
  0
ARC
  5
BF6
330
18
100
AcDbEntity
  8
1
100
AcDbCircle
 10
2.725495999996354
 20
2.617209000000002
 30
0.0
 40
1.986393999999999
100
AcDbArc
 50
179.8914010000004
 51
192.802223
  0
ARC
  5
BF7
330
18
100
AcDbEntity
  8
1
100
AcDbCircle
 10
2.190456999996341
 20
2.540809000000081
 30
0.0
 40
1.453463999999999
100
AcDbArc
 50
151.4532689999993
 51
176.8381829999994
  0
LINE
  5
BF8
330
18
100
AcDbEntity
  8
1
100
AcDbLine
 10
0.9247779999963654
 20
3.257391999999981
 30
0.0
 11
0.9135669999963623
 21
3.235452000000008
 31
0.0
  0
ARC
  5
BF9
330
18
100
AcDbEntity
  8
1
100
AcDbCircle
 10
2.405696999996365
 20
0.948307999999997
 30
0.0
 40
1.00634
100
AcDbArc
 50
101.1436239999993
 51
116.8179250000011
  0
ARC
  5
BFA
330
18
100
AcDbEntity
  8
1
100
AcDbCircle
 10
1.001015999996353
 20
3.543407000000001
 30
0.0
 40
1.944696
100
AcDbArc
 50
285.952536
 51
299.2574079999992
  0
POLYLINE
  5
BFB
330
18
100
AcDbEntity
  8
1
100
AcDb2dPolyline
 66
     1
 10
0.0
 20
0.0
 30
0.0
  0
VERTEX
  5
BFC
330
BFB
100
AcDbEntity
  8
1
100
AcDbVertex
100
AcDb2dVertex
 10
0.9720219999963431
 20
1.693193000000064
 30
0.0
  0
VERTEX
  5
BFD
330
BFB
100
AcDbEntity
  8
1
100
AcDbVertex
100
AcDb2dVertex
 10
1.19986799999634
 20
1.639648000000079
 30
0.0
  0
VERTEX
  5
BFE
330
BFB
100
AcDbEntity
  8
1
100
AcDbVertex
100
AcDb2dVertex
 10
1.461902999996368
 20
1.65708500000005
 30
0.0
  0
VERTEX
  5
BFF
330
BFB
100
AcDbEntity
  8
1
100
AcDbVertex
100
AcDb2dVertex
 10
1.535364999996373
 20
1.674068000000031
 30
0.0
  0
SEQEND
  5
C00
330
BFB
100
AcDbEntity
  8
1
  0
ARC
  5
C01
330
18
100
AcDbEntity
  8
1
100
AcDbCircle
 10
2.55925799999636
 20
2.572744000000056
 30
0.0
 40
1.814611999999996
100
AcDbArc
 50
192.5962390000012
 51
208.9925940000008
  0
ARC
  5
C02
330
18
100
AcDbEntity
  8
1
100
AcDbCircle
 10
1.357826999996346
 20
3.020164000000022
 30
0.0
 40
0.537908
100
AcDbArc
 50
134.955933000001
 51
149.560414
  0
LINE
  5
C03
330
18
100
AcDbEntity
  8
1
100
AcDbLine
 10
0.8942319999963499
 20
3.292584000000033
 30
0.0
 11
0.9135619999963752
 21
3.235444000000028
 31
0.0
  0
POLYLINE
  5
C04
330
18
100
AcDbEntity
  8
1
100
AcDb2dPolyline
 66
     1
 10
0.0
 20
0.0
 30
0.0
  0
VERTEX
  5
C05
330
C04
100
AcDbEntity
  8
1
100
AcDbVertex
100
AcDb2dVertex
 10
0.7392389999963598
 20
2.621042999999984
 30
0.0
  0
VERTEX
  5
C06
330
C04
100
AcDbEntity
  8
1
100
AcDbVertex
100
AcDb2dVertex
 10
0.7756369999963795
 20
2.959971999999993
 30
0.0
  0
VERTEX
  5
C07
330
C04
100
AcDbEntity
  8
1
100
AcDbVertex
100
AcDb2dVertex
 10
0.8691559999963658
 20
3.243785000000001
 30
0.0
  0
VERTEX
  5
C08
330
C04
100
AcDbEntity
  8
1
100
AcDbVertex
100
AcDb2dVertex
 10
0.8942319999963499
 20
3.292584000000033
 30
0.0
  0
SEQEND
  5
C09
330
C04
100
AcDbEntity
  8
1
  0
LINE
  5
C0A
330
18
100
AcDbEntity
  8
1
100
AcDbLine
 10
5.850743999996383
 20
2.960752000000069
 30
0.0
 11
8.679175999996346
 21
0.3316710000000285
 31
0.0
  0
POLYLINE
  5
C0B
330
18
100
AcDbEntity
  8
1
100
AcDb2dPolyline
 66
     1
 10
0.0
 20
0.0
 30
0.0
  0
VERTEX
  5
C0C
330
C0B
100
AcDbEntity
  8
1
100
AcDbVertex
100
AcDb2dVertex
 10
6.167312999996369
 20
3.807030000000052
 30
0.0
  0
VERTEX
  5
C0D
330
C0B
100
AcDbEntity
  8
1
100
AcDbVertex
100
AcDb2dVertex
 10
6.730054999996355
 20
3.124467999999978
 30
0.0
  0
VERTEX
  5
C0E
330
C0B
100
AcDbEntity
  8
1
100
AcDbVertex
100
AcDb2dVertex
 10
7.262406999996357
 20
2.424406999999973
 30
0.0
  0
VERTEX
  5
C0F
330
C0B
100
AcDbEntity
  8
1
100
AcDbVertex
100
AcDb2dVertex
 10
7.771276999996357
 20
1.71396900000002
 30
0.0
  0
VERTEX
  5
C10
330
C0B
100
AcDbEntity
  8
1
100
AcDbVertex
100
AcDb2dVertex
 10
8.392151999996372
 20
0.7960440000000517
 30
0.0
  0
VERTEX
  5
C11
330
C0B
100
AcDbEntity
  8
1
100
AcDbVertex
100
AcDb2dVertex
 10
8.679175999996346
 20
0.3316710000000285
 30
0.0
  0
SEQEND
  5
C12
330
C0B
100
AcDbEntity
  8
1
  0
LINE
  5
C13
330
18
100
AcDbEntity
  8
1
100
AcDbLine
 10
6.167333999996342
 20
3.807048000000008
 30
0.0
 11
6.163182999996365
 21
3.811128000000053
 31
0.0
  0
LINE
  5
C14
330
18
100
AcDbEntity
  8
1
100
AcDbLine
 10
6.163182999996365
 20
3.811128000000053
 30
0.0
 11
6.018463999996357
 21
3.815219000000069
 31
0.0
  0
LINE
  5
C15
330
18
100
AcDbEntity
  8
1
100
AcDbLine
 10
6.329854999996371
 20
1.424730000000065
 30
0.0
 11
7.007132999996372
 21
0.7474510000000693
 31
0.0
  0
ARC
  5
C16
330
18
100
AcDbEntity
  8
1
100
AcDbCircle
 10
-3.514440000003643
 20
-17.23426599999993
 30
0.0
 40
20.83307
100
AcDbArc
 50
57.04273500000111
 51
59.66697900000161
  0
ARC
  5
C17
330
18
100
AcDbEntity
  8
1
100
AcDbCircle
 10
13.27999199999635
 20
8.454562000000008
 30
0.0
 40
9.859096
100
AcDbArc
 50
236.3642419999985
 51
239.2630810000011
  0
POLYLINE
  5
C18
330
18
100
AcDbEntity
  8
1
100
AcDb2dPolyline
 66
     1
 10
0.0
 20
0.0
 30
0.0
  0
VERTEX
  5
C19
330
C18
100
AcDbEntity
  8
1
100
AcDbVertex
100
AcDb2dVertex
 10
8.97940699999634
 20
-0.3695050000000037
 30
0.0
  0
VERTEX
  5
C1A
330
C18
100
AcDbEntity
  8
1
100
AcDbVertex
100
AcDb2dVertex
 10
8.74522599999636
 20
-0.2842429999999467
 30
0.0
  0
VERTEX
  5
C1B
330
C18
100
AcDbEntity
  8
1
100
AcDbVertex
100
AcDb2dVertex
 10
8.581138999996369
 20
-0.2073080000000118
 30
0.0
  0
VERTEX
  5
C1C
330
C18
100
AcDbEntity
  8
1
100
AcDbVertex
100
AcDb2dVertex
 10
8.241053999996381
 20
-0.019535000000019
 30
0.0
  0
SEQEND
  5
C1D
330
C18
100
AcDbEntity
  8
1
  0
ARC
  5
C1E
330
18
100
AcDbEntity
  8
1
100
AcDbCircle
 10
6.409677999996347
 20
-1.061161999999967
 30
0.0
 40
2.661941
100
AcDbArc
 50
15.06598900000104
 51
31.53821200000149
  0
POLYLINE
  5
C1F
330
18
100
AcDbEntity
  8
1
100
AcDb2dPolyline
 66
     1
 10
0.0
 20
0.0
 30
0.0
  0
VERTEX
  5
C20
330
C1F
100
AcDbEntity
  8
1
100
AcDbVertex
100
AcDb2dVertex
 10
5.807911999996347
 20
2.739981000000056
 30
0.0
  0
VERTEX
  5
C21
330
C1F
100
AcDbEntity
  8
1
100
AcDbVertex
100
AcDb2dVertex
 10
6.047912999996357
 20
2.208713999999984
 30
0.0
  0
VERTEX
  5
C22
330
C1F
100
AcDbEntity
  8
1
100
AcDbVertex
100
AcDb2dVertex
 10
6.243760999996367
 20
1.685323000000038
 30
0.0
  0
VERTEX
  5
C23
330
C1F
100
AcDbEntity
  8
1
100
AcDbVertex
100
AcDb2dVertex
 10
6.307426999996378
 20
1.48286500000006
 30
0.0
  0
SEQEND
  5
C24
330
C1F
100
AcDbEntity
  8
1
  0
ARC
  5
C25
330
18
100
AcDbEntity
  8
1
100
AcDbCircle
 10
6.629663999996352
 20
1.576392000000053
 30
0.0
 40
0.335422
100
AcDbArc
 50
196.1849739999991
 51
206.0760190000004
  0
LINE
  5
C26
330
18
100
AcDbEntity
  8
1
100
AcDbLine
 10
6.328488999996352
 20
1.429004000000077
 30
0.0
 11
6.329854999996371
 21
1.424730000000065
 31
0.0
  0
LINE
  5
C27
330
18
100
AcDbEntity
  8
1
100
AcDbLine
 10
6.329821999996369
 20
1.424697000000035
 30
0.0
 11
6.328573999996365
 21
1.418533000000024
 31
0.0
  0
LINE
  5
C28
330
18
100
AcDbEntity
  8
1
100
AcDbLine
 10
6.328573999996365
 20
1.418533000000024
 30
0.0
 11
6.316319999996378
 21
1.378940000000056
 31
0.0
  0
LINE
  5
C29
330
18
100
AcDbEntity
  8
1
100
AcDbLine
 10
6.316319999996378
 20
1.378940000000056
 30
0.0
 11
6.26222599999636
 21
1.207656000000042
 31
0.0
  0
LINE
  5
C2A
330
18
100
AcDbEntity
  8
1
100
AcDbLine
 10
6.26222599999636
 20
1.207656000000042
 30
0.0
 11
6.173014999996382
 21
0.9341920000000527
 31
0.0
  0
LINE
  5
C2B
330
18
100
AcDbEntity
  8
1
100
AcDbLine
 10
6.173014999996382
 20
0.9341920000000527
 30
0.0
 11
6.475000999996383
 21
0.7028730000000678
 31
0.0
  0
ARC
  5
C2C
330
18
100
AcDbEntity
  8
1
100
AcDbCircle
 10
6.902254999996356
 20
-1.21444199999996
 30
0.0
 40
1.964518999999999
100
AcDbArc
 50
86.93999999999975
 51
102.5625009999984
  0
LINE
  5
C2D
330
18
100
AcDbEntity
  8
1
100
AcDbLine
 10
7.558596999996383
 20
-1.583612000000014
 30
0.0
 11
6.064243999996361
 21
-3.077964999999948
 31
0.0
  0
ARC
  5
C2E
330
18
100
AcDbEntity
  8
1
100
AcDbCircle
 10
5.424470999996342
 20
-3.306765999999925
 30
0.0
 40
0.679439
100
AcDbArc
 50
0.7602930000005106
 51
19.67855099999965
  0
LINE
  5
C2F
330
18
100
AcDbEntity
  8
1
100
AcDbLine
 10
6.10401699999636
 20
-3.297747999999955
 30
0.0
 11
6.106025999996347
 21
-3.426569999999968
 31
0.0
  0
ARC
  5
C30
330
18
100
AcDbEntity
  8
1
100
AcDbCircle
 10
32.38689999999636
 20
-28.55470999999994
 30
0.0
 40
36.36027100000001
100
AcDbArc
 50
132.2568930000004
 51
136.2845159999998
  0
ARC
  5
C31
330
18
100
AcDbEntity
  8
1
100
AcDbCircle
 10
8.522374999996372
 20
3.269287000000076
 30
0.0
 40
4.947649
100
AcDbArc
 50
258.7672950000006
 51
263.2005440000002
  0
LINE
  5
C32
330
18
100
AcDbEntity
  8
1
100
AcDbLine
 10
7.558596999996383
 20
-1.583612000000014
 30
0.0
 11
6.962142999996356
 21
-2.02551299999993
 31
0.0
  0
ARC
  5
C33
330
18
100
AcDbEntity
  8
1
100
AcDbCircle
 10
12.01023699999635
 20
-8.938113999999927
 30
0.0
 40
8.559601999999998
100
AcDbArc
 50
126.1396909999977
 51
128.9219540000014
  0
LINE
  5
C34
330
18
100
AcDbEntity
  8
1
100
AcDbLine
 10
6.632559999996372
 20
-2.278708999999933
 30
0.0
 11
6.401538999996373
 21
-2.509730999999987
 31
0.0
  0
ARC
  5
C35
330
18
100
AcDbEntity
  8
1
100
AcDbCircle
 10
7.077004999996347
 20
-3.011073000000008
 30
0.0
 40
0.8410680000000001
100
AcDbArc
 50
143.4165780000014
 51
151.1116720000007
  0
ARC
  5
C36
330
18
100
AcDbEntity
  8
1
100
AcDbCircle
 10
-0.2907730000036395
 20
0.9581080000000383
 30
0.0
 40
7.528114999999997
100
AcDbArc
 50
327.580361999998
 51
331.7520419999988
  0
LINE
  5
C37
330
18
100
AcDbEntity
  8
1
100
AcDbLine
 10
6.632559999996372
 20
-2.278708999999933
 30
0.0
 11
6.409627999996357
 21
-2.330483999999954
 31
0.0
  0
LINE
  5
C38
330
18
100
AcDbEntity
  8
1
100
AcDbLine
 10
6.409627999996357
 20
-2.330483999999954
 30
0.0
 11
6.401538999996373
 21
-2.509730999999987
 31
0.0
  0
ARC
  5
C39
330
18
100
AcDbEntity
  8
1
100
AcDbCircle
 10
1.87958599999635
 20
-0.5007809999999611
 30
0.0
 40
6.379960999999997
100
AcDbArc
 50
351.636572
 51
4.325582999999879
  0
ARC
  5
C3A
330
18
100
AcDbEntity
  8
1
100
AcDbCircle
 10
14.43128299999637
 20
-9.526807999999959
 30
0.0
 40
10.223479
100
AcDbArc
 50
122.3308710000013
 51
127.6137480000002
  0
LINE
  5
C3B
330
18
100
AcDbEntity
  8
1
100
AcDbLine
 10
9.174825999996356
 20
-0.7098429999999781
 30
0.0
 11
8.963222999996361
 21
-0.8874720000000023
 31
0.0
  0
POLYLINE
  5
C3C
330
18
100
AcDbEntity
  8
1
100
AcDb2dPolyline
 66
     1
 10
0.0
 20
0.0
 30
0.0
  0
VERTEX
  5
C3D
330
C3C
100
AcDbEntity
  8
1
100
AcDbVertex
100
AcDb2dVertex
 10
9.174825999996356
 20
-0.7098429999999781
 30
0.0
  0
VERTEX
  5
C3E
330
C3C
100
AcDbEntity
  8
1
100
AcDbVertex
100
AcDb2dVertex
 10
9.054064999996366
 20
-0.5464509999999338
 30
0.0
  0
VERTEX
  5
C3F
330
C3C
100
AcDbEntity
  8
1
100
AcDbVertex
100
AcDb2dVertex
 10
8.979386999996362
 20
-0.3695549999999912
 30
0.0
  0
SEQEND
  5
C40
330
C3C
100
AcDbEntity
  8
1
  0
POLYLINE
  5
C41
330
18
100
AcDbEntity
  8
1
100
AcDb2dPolyline
 66
     1
 10
0.0
 20
0.0
 30
0.0
  0
VERTEX
  5
C42
330
C41
100
AcDbEntity
  8
1
100
AcDbVertex
100
AcDb2dVertex
 10
7.558595999996357
 20
-1.583612000000014
 30
0.0
  0
VERTEX
  5
C43
330
C41
100
AcDbEntity
  8
1
100
AcDbVertex
100
AcDb2dVertex
 10
7.616777999996372
 20
-1.383854999999925
 30
0.0
  0
VERTEX
  5
C44
330
C41
100
AcDbEntity
  8
1
100
AcDbVertex
100
AcDb2dVertex
 10
7.668375999996356
 20
-1.179496999999968
 30
0.0
  0
VERTEX
  5
C45
330
C41
100
AcDbEntity
  8
1
100
AcDbVertex
100
AcDb2dVertex
 10
7.71299099999635
 20
-0.972116000000028
 30
0.0
  0
VERTEX
  5
C46
330
C41
100
AcDbEntity
  8
1
100
AcDbVertex
100
AcDb2dVertex
 10
7.750278999996367
 20
-0.7633129999999257
 30
0.0
  0
VERTEX
  5
C47
330
C41
100
AcDbEntity
  8
1
100
AcDbVertex
100
AcDb2dVertex
 10
7.779951999996342
 20
-0.5546979999999167
 30
0.0
  0
VERTEX
  5
C48
330
C41
100
AcDbEntity
  8
1
100
AcDbVertex
100
AcDb2dVertex
 10
7.801781999996361
 20
-0.3478809999999157
 30
0.0
  0
VERTEX
  5
C49
330
C41
100
AcDbEntity
  8
1
100
AcDbVertex
100
AcDb2dVertex
 10
7.815598999996383
 20
-0.1444599999999809
 30
0.0
  0
VERTEX
  5
C4A
330
C41
100
AcDbEntity
  8
1
100
AcDbVertex
100
AcDb2dVertex
 10
7.82129599999638
 20
0.0539969999999812
 30
0.0
  0
VERTEX
  5
C4B
330
C41
100
AcDbEntity
  8
1
100
AcDbVertex
100
AcDb2dVertex
 10
7.818830999996349
 20
0.2459559999999783
 30
0.0
  0
SEQEND
  5
C4C
330
C41
100
AcDbEntity
  8
1
  0
ARC
  5
C4D
330
18
100
AcDbEntity
  8
1
100
AcDbCircle
 10
11.35094499999635
 20
-5.443042999999986
 30
0.0
 40
5.108226999999998
100
AcDbArc
 50
128.201458999998
 51
131.9439200000011
  0
POLYLINE
  5
C4E
330
18
100
AcDbEntity
  8
1
100
AcDb2dPolyline
 66
     1
 10
0.0
 20
0.0
 30
0.0
  0
VERTEX
  5
C4F
330
C4E
100
AcDbEntity
  8
1
100
AcDbVertex
100
AcDb2dVertex
 10
7.007132999996372
 20
0.7474510000000693
 30
0.0
  0
VERTEX
  5
C50
330
C4E
100
AcDbEntity
  8
1
100
AcDbVertex
100
AcDb2dVertex
 10
7.097619999996367
 20
0.5346140000000334
 30
0.0
  0
VERTEX
  5
C51
330
C4E
100
AcDbEntity
  8
1
100
AcDbVertex
100
AcDb2dVertex
 10
7.170593999996357
 20
0.3125099999999747
 30
0.0
  0
VERTEX
  5
C52
330
C4E
100
AcDbEntity
  8
1
100
AcDbVertex
100
AcDb2dVertex
 10
7.264767999996365
 20
-0.1507759999999507
 30
0.0
  0
VERTEX
  5
C53
330
C4E
100
AcDbEntity
  8
1
100
AcDbVertex
100
AcDb2dVertex
 10
7.291314999996356
 20
-0.6268759999999248
 30
0.0
  0
VERTEX
  5
C54
330
C4E
100
AcDbEntity
  8
1
100
AcDbVertex
100
AcDb2dVertex
 10
7.250141999996342
 20
-1.111581999999998
 30
0.0
  0
VERTEX
  5
C55
330
C4E
100
AcDbEntity
  8
1
100
AcDbVertex
100
AcDb2dVertex
 10
7.140470999996352
 20
-1.582846000000017
 30
0.0
  0
VERTEX
  5
C56
330
C4E
100
AcDbEntity
  8
1
100
AcDbVertex
100
AcDb2dVertex
 10
7.05989299999635
 20
-1.808786999999938
 30
0.0
  0
VERTEX
  5
C57
330
C4E
100
AcDbEntity
  8
1
100
AcDbVertex
100
AcDb2dVertex
 10
6.962126999996371
 20
-2.025473999999916
 30
0.0
  0
SEQEND
  5
C58
330
C4E
100
AcDbEntity
  8
1
  0
POLYLINE
  5
C59
330
18
100
AcDbEntity
  8
1
100
AcDb2dPolyline
 66
     1
 10
0.0
 20
0.0
 30
0.0
  0
VERTEX
  5
C5A
330
C59
100
AcDbEntity
  8
1
100
AcDbVertex
100
AcDb2dVertex
 10
6.964830999996363
 20
-0.7759159999999384
 30
0.0
  0
VERTEX
  5
C5B
330
C59
100
AcDbEntity
  8
1
100
AcDbVertex
100
AcDb2dVertex
 10
6.965980999996361
 20
-1.152532999999948
 30
0.0
  0
VERTEX
  5
C5C
330
C59
100
AcDbEntity
  8
1
100
AcDbVertex
100
AcDb2dVertex
 10
6.918305999996361
 20
-1.523503000000004
 30
0.0
  0
VERTEX
  5
C5D
330
C59
100
AcDbEntity
  8
1
100
AcDbVertex
100
AcDb2dVertex
 10
6.820122999996357
 20
-1.880380999999943
 30
0.0
  0
VERTEX
  5
C5E
330
C59
100
AcDbEntity
  8
1
100
AcDbVertex
100
AcDb2dVertex
 10
6.735803999996361
 20
-2.085092999999915
 30
0.0
  0
VERTEX
  5
C5F
330
C59
100
AcDbEntity
  8
1
100
AcDbVertex
100
AcDb2dVertex
 10
6.632559999996372
 20
-2.278708999999933
 30
0.0
  0
SEQEND
  5
C60
330
C59
100
AcDbEntity
  8
1
  0
ARC
  5
C61
330
18
100
AcDbEntity
  8
1
100
AcDbCircle
 10
4.71163599999636
 20
-1.374700999999957
 30
0.0
 40
2.724918
100
AcDbArc
 50
44.70230399999818
 51
49.67667799999926
  0
POLYLINE
  5
C62
330
18
100
AcDbEntity
  8
1
100
AcDb2dPolyline
 66
     1
 10
0.0
 20
0.0
 30
0.0
  0
VERTEX
  5
C63
330
C62
100
AcDbEntity
  8
1
100
AcDbVertex
100
AcDb2dVertex
 10
6.648370999996356
 20
0.5420129999999972
 30
0.0
  0
VERTEX
  5
C64
330
C62
100
AcDbEntity
  8
1
100
AcDbVertex
100
AcDb2dVertex
 10
6.757782999996378
 20
0.4194680000000517
 30
0.0
  0
VERTEX
  5
C65
330
C62
100
AcDbEntity
  8
1
100
AcDbVertex
100
AcDb2dVertex
 10
6.858959999996357
 20
0.2759009999999762
 30
0.0
  0
VERTEX
  5
C66
330
C62
100
AcDbEntity
  8
1
100
AcDbVertex
100
AcDb2dVertex
 10
6.940453999996348
 20
0.1147359999999935
 30
0.0
  0
VERTEX
  5
C67
330
C62
100
AcDbEntity
  8
1
100
AcDbVertex
100
AcDb2dVertex
 10
7.004211999996356
 20
-0.1162600000000111
 30
0.0
  0
VERTEX
  5
C68
330
C62
100
AcDbEntity
  8
1
100
AcDbVertex
100
AcDb2dVertex
 10
7.013223999996339
 20
-0.2215559999999641
 30
0.0
  0
SEQEND
  5
C69
330
C62
100
AcDbEntity
  8
1
  0
ARC
  5
C6A
330
18
100
AcDbEntity
  8
1
100
AcDbCircle
 10
4.491316999996342
 20
-0.2785149999999703
 30
0.0
 40
2.522825
100
AcDbArc
 50
348.6299949999997
 51
1.293864000000606
  0
ARC
  5
C6B
330
18
100
AcDbEntity
  8
1
100
AcDbCircle
 10
5.180562999996368
 20
-0.346539000000007
 30
0.0
 40
1.835651
100
AcDbArc
 50
325.4146539999989
 51
346.4695099999998
  0
ARC
  5
C6C
330
18
100
AcDbEntity
  8
1
100
AcDbCircle
 10
4.439378999996363
 20
-1.229841999999961
 30
0.0
 40
2.257657
100
AcDbArc
 50
330.810920000002
 51
355.9625009999999
  0
POLYLINE
  5
C6D
330
18
100
AcDbEntity
  8
1
100
AcDb2dPolyline
 66
     1
 10
0.0
 20
0.0
 30
0.0
  0
VERTEX
  5
C6E
330
C6D
100
AcDbEntity
  8
1
100
AcDbVertex
100
AcDb2dVertex
 10
5.039156999996349
 20
-2.954792999999995
 30
0.0
  0
VERTEX
  5
C6F
330
C6D
100
AcDbEntity
  8
1
100
AcDbVertex
100
AcDb2dVertex
 10
5.204474999996363
 20
-2.94395099999997
 30
0.0
  0
VERTEX
  5
C70
330
C6D
100
AcDbEntity
  8
1
100
AcDbVertex
100
AcDb2dVertex
 10
5.368250999996346
 20
-2.923020999999948
 30
0.0
  0
VERTEX
  5
C71
330
C6D
100
AcDbEntity
  8
1
100
AcDbVertex
100
AcDb2dVertex
 10
5.529625999996367
 20
-2.892112999999993
 30
0.0
  0
VERTEX
  5
C72
330
C6D
100
AcDbEntity
  8
1
100
AcDbVertex
100
AcDb2dVertex
 10
5.687753999996346
 20
-2.851388999999926
 30
0.0
  0
VERTEX
  5
C73
330
C6D
100
AcDbEntity
  8
1
100
AcDbVertex
100
AcDb2dVertex
 10
5.841807999996374
 20
-2.801062999999998
 30
0.0
  0
VERTEX
  5
C74
330
C6D
100
AcDbEntity
  8
1
100
AcDbVertex
100
AcDb2dVertex
 10
5.990978999996342
 20
-2.741398000000001
 30
0.0
  0
VERTEX
  5
C75
330
C6D
100
AcDbEntity
  8
1
100
AcDbVertex
100
AcDb2dVertex
 10
6.134487999996366
 20
-2.672706999999943
 30
0.0
  0
VERTEX
  5
C76
330
C6D
100
AcDbEntity
  8
1
100
AcDbVertex
100
AcDb2dVertex
 10
6.271579999996362
 20
-2.595348999999941
 30
0.0
  0
VERTEX
  5
C77
330
C6D
100
AcDbEntity
  8
1
100
AcDbVertex
100
AcDb2dVertex
 10
6.401538999996373
 20
-2.509730999999987
 30
0.0
  0
SEQEND
  5
C78
330
C6D
100
AcDbEntity
  8
1
  0
POLYLINE
  5
C79
330
18
100
AcDbEntity
  8
1
100
AcDb2dPolyline
 66
     1
 10
0.0
 20
0.0
 30
0.0
  0
VERTEX
  5
C7A
330
C79
100
AcDbEntity
  8
1
100
AcDbVertex
100
AcDb2dVertex
 10
5.047245999996363
 20
-2.77554599999996
 30
0.0
  0
VERTEX
  5
C7B
330
C79
100
AcDbEntity
  8
1
100
AcDbVertex
100
AcDb2dVertex
 10
5.212563999996346
 20
-2.764703999999936
 30
0.0
  0
VERTEX
  5
C7C
330
C79
100
AcDbEntity
  8
1
100
AcDbVertex
100
AcDb2dVertex
 10
5.376339999996361
 20
-2.743773999999914
 30
0.0
  0
VERTEX
  5
C7D
330
C79
100
AcDbEntity
  8
1
100
AcDbVertex
100
AcDb2dVertex
 10
5.537714999996353
 20
-2.71286599999996
 30
0.0
  0
VERTEX
  5
C7E
330
C79
100
AcDbEntity
  8
1
100
AcDbVertex
100
AcDb2dVertex
 10
5.695842999996356
 20
-2.672142000000008
 30
0.0
  0
VERTEX
  5
C7F
330
C79
100
AcDbEntity
  8
1
100
AcDbVertex
100
AcDb2dVertex
 10
5.84989699999636
 20
-2.621815999999967
 30
0.0
  0
VERTEX
  5
C80
330
C79
100
AcDbEntity
  8
1
100
AcDbVertex
100
AcDb2dVertex
 10
5.999068999996381
 20
-2.56215099999997
 30
0.0
  0
VERTEX
  5
C81
330
C79
100
AcDbEntity
  8
1
100
AcDbVertex
100
AcDb2dVertex
 10
6.142575999996379
 20
-2.493460000000025
 30
0.0
  0
VERTEX
  5
C82
330
C79
100
AcDbEntity
  8
1
100
AcDbVertex
100
AcDb2dVertex
 10
6.279668999996372
 20
-2.416102000000023
 30
0.0
  0
VERTEX
  5
C83
330
C79
100
AcDbEntity
  8
1
100
AcDbVertex
100
AcDb2dVertex
 10
6.409627999996357
 20
-2.330483999999954
 30
0.0
  0
SEQEND
  5
C84
330
C79
100
AcDbEntity
  8
1
  0
ARC
  5
C85
330
18
100
AcDbEntity
  8
1
100
AcDbCircle
 10
4.707161999996342
 20
-0.4557989999999565
 30
0.0
 40
2.699674
100
AcDbArc
 50
277.525471
 51
307.2379170000011
  0
ARC
  5
C86
330
18
100
AcDbEntity
  8
1
100
AcDbCircle
 10
3.865518999996368
 20
1.749991000000022
 30
0.0
 40
5.305067
100
AcDbArc
 50
287.3551770000002
 51
294.485250999999
  0
ARC
  5
C87
330
18
100
AcDbEntity
  8
1
100
AcDbCircle
 10
5.277705999996356
 20
2.806292999999982
 30
0.0
 40
6.159764
100
AcDbArc
 50
271.9317719999996
 51
277.7092249999991
  0
ARC
  5
C88
330
18
100
AcDbEntity
  8
1
100
AcDbCircle
 10
5.348637999996356
 20
-12.24438199999997
 30
0.0
 40
8.606846
100
AcDbArc
 50
86.36647100000123
 51
89.05971900000073
  0
ARC
  5
C89
330
18
100
AcDbEntity
  8
1
100
AcDbCircle
 10
12.73132999999637
 20
-9.789058999999953
 30
0.0
 40
9.185653999999999
100
AcDbArc
 50
136.1592479999987
 51
138.1021809999986
  0
ARC
  5
C8A
330
18
100
AcDbEntity
  8
1
100
AcDbCircle
 10
3.337750999996357
 20
-0.6799310000000105
 30
0.0
 40
2.518683999999999
100
AcDbArc
 50
308.2365360000011
 51
324.5524409999979
  0
POLYLINE
  5
C8B
330
18
100
AcDbEntity
  8
1
100
AcDb2dPolyline
 66
     1
 10
0.0
 20
0.0
 30
0.0
  0
VERTEX
  5
C8C
330
C8B
100
AcDbEntity
  8
1
100
AcDbVertex
100
AcDb2dVertex
 10
6.692241999996356
 20
-1.388859000000024
 30
0.0
  0
VERTEX
  5
C8D
330
C8B
100
AcDbEntity
  8
1
100
AcDbVertex
100
AcDb2dVertex
 10
6.559615999996367
 20
-1.538133000000014
 30
0.0
  0
VERTEX
  5
C8E
330
C8B
100
AcDbEntity
  8
1
100
AcDbVertex
100
AcDb2dVertex
 10
6.412492999996343
 20
-1.665735999999923
 30
0.0
  0
VERTEX
  5
C8F
330
C8B
100
AcDbEntity
  8
1
100
AcDbVertex
100
AcDb2dVertex
 10
6.211726999996357
 20
-1.79863799999998
 30
0.0
  0
VERTEX
  5
C90
330
C8B
100
AcDbEntity
  8
1
100
AcDbVertex
100
AcDb2dVertex
 10
6.000925999996352
 20
-1.905748000000014
 30
0.0
  0
SEQEND
  5
C91
330
C8B
100
AcDbEntity
  8
1
  0
ARC
  5
C92
330
18
100
AcDbEntity
  8
1
100
AcDbCircle
 10
4.674681999996378
 20
1.083481000000005
 30
0.0
 40
3.270363999999998
100
AcDbArc
 50
286.2773559999997
 51
293.925635000002
  0
ARC
  5
C93
330
18
100
AcDbEntity
  8
1
100
AcDbCircle
 10
3.959194999996356
 20
-1.682312000000024
 30
0.0
 40
3.941266999999998
100
AcDbArc
 50
53.42833600000207
 51
77.2731880000007
  0
ARC
  5
C94
330
18
100
AcDbEntity
  8
1
100
AcDbCircle
 10
4.374248999996352
 20
-1.444069000000013
 30
0.0
 40
2.981920999999998
100
AcDbArc
 50
52.89872099999933
 51
69.59740300000124
  0
ARC
  5
C95
330
18
100
AcDbEntity
  8
1
100
AcDbCircle
 10
4.383090999996368
 20
-0.5491109999999253
 30
0.0
 40
2.161472999999999
100
AcDbArc
 50
61.52023399999945
 51
79.23475499999944
  0
POLYLINE
  5
C96
330
18
100
AcDbEntity
  8
1
100
AcDb2dPolyline
 66
     1
 10
0.0
 20
0.0
 30
0.0
  0
VERTEX
  5
C97
330
C96
100
AcDbEntity
  8
1
100
AcDbVertex
100
AcDb2dVertex
 10
6.361189999996355
 20
0.17005800000004
 30
0.0
  0
VERTEX
  5
C98
330
C96
100
AcDbEntity
  8
1
100
AcDbVertex
100
AcDb2dVertex
 10
6.572435999996343
 20
0.4194089999999733
 30
0.0
  0
VERTEX
  5
C99
330
C96
100
AcDbEntity
  8
1
100
AcDbVertex
100
AcDb2dVertex
 10
6.648341999996373
 20
0.5419739999999821
 30
0.0
  0
SEQEND
  5
C9A
330
C96
100
AcDbEntity
  8
1
  0
POLYLINE
  5
C9B
330
18
100
AcDbEntity
  8
1
100
AcDb2dPolyline
 66
     1
 10
0.0
 20
0.0
 30
0.0
  0
VERTEX
  5
C9C
330
C9B
100
AcDbEntity
  8
1
100
AcDbVertex
100
AcDb2dVertex
 10
6.207475999996347
 20
0.2976489999999785
 30
0.0
  0
VERTEX
  5
C9D
330
C9B
100
AcDbEntity
  8
1
100
AcDbVertex
100
AcDb2dVertex
 10
6.350435999996361
 20
0.4856250000000273
 30
0.0
  0
VERTEX
  5
C9E
330
C9B
100
AcDbEntity
  8
1
100
AcDbVertex
100
AcDb2dVertex
 10
6.461901999996371
 20
0.6735800000000154
 30
0.0
  0
VERTEX
  5
C9F
330
C9B
100
AcDbEntity
  8
1
100
AcDbVertex
100
AcDb2dVertex
 10
6.475000999996383
 20
0.7028730000000678
 30
0.0
  0
SEQEND
  5
CA0
330
C9B
100
AcDbEntity
  8
1
  0
ARC
  5
CA1
330
18
100
AcDbEntity
  8
1
100
AcDbCircle
 10
6.674115999996357
 20
-1.343069000000014
 30
0.0
 40
1.172409
100
AcDbArc
 50
73.17140500000127
 51
89.89546399999991
  0
POLYLINE
  5
CA2
330
18
100
AcDbEntity
  8
1
100
AcDb2dPolyline
 66
     1
 10
0.0
 20
0.0
 30
0.0
  0
VERTEX
  5
CA3
330
CA2
100
AcDbEntity
  8
1
100
AcDbVertex
100
AcDb2dVertex
 10
6.333668999996347
 20
-1.02994000000001
 30
0.0
  0
VERTEX
  5
CA4
330
CA2
100
AcDbEntity
  8
1
100
AcDbVertex
100
AcDb2dVertex
 10
6.510171999996372
 20
-1.156595999999922
 30
0.0
  0
VERTEX
  5
CA5
330
CA2
100
AcDbEntity
  8
1
100
AcDbVertex
100
AcDb2dVertex
 10
6.650544999996355
 20
-1.31441099999995
 30
0.0
  0
VERTEX
  5
CA6
330
CA2
100
AcDbEntity
  8
1
100
AcDbVertex
100
AcDb2dVertex
 10
6.692241999996356
 20
-1.388827999999989
 30
0.0
  0
SEQEND
  5
CA7
330
CA2
100
AcDbEntity
  8
1
  0
ARC
  5
CA8
330
18
100
AcDbEntity
  8
1
100
AcDbCircle
 10
5.127309999996356
 20
-2.004265999999915
 30
0.0
 40
0.879211
100
AcDbArc
 50
6.431988000000742
 51
15.39643199999894
  0
ARC
  5
CA9
330
18
100
AcDbEntity
  8
1
100
AcDbCircle
 10
4.710049999996356
 20
0.5014170000000604
 30
0.0
 40
1.103627
100
AcDbArc
 50
31.40389799999889
 51
50.16344700000079
  0
POLYLINE
  5
CAA
330
18
100
AcDbEntity
  8
1
100
AcDb2dPolyline
 66
     1
 10
0.0
 20
0.0
 30
0.0
  0
VERTEX
  5
CAB
330
CAA
100
AcDbEntity
  8
1
100
AcDbVertex
100
AcDb2dVertex
 10
5.905488999996348
 20
0.5289680000000772
 30
0.0
  0
VERTEX
  5
CAC
330
CAA
100
AcDbEntity
  8
1
100
AcDbVertex
100
AcDb2dVertex
 10
6.105512999996361
 20
0.8054020000000717
 30
0.0
  0
VERTEX
  5
CAD
330
CAA
100
AcDbEntity
  8
1
100
AcDbVertex
100
AcDb2dVertex
 10
6.173013999996356
 20
0.9341920000000527
 30
0.0
  0
SEQEND
  5
CAE
330
CAA
100
AcDbEntity
  8
1
  0
ARC
  5
CAF
330
18
100
AcDbEntity
  8
1
100
AcDbCircle
 10
1.84958099999636
 20
1.684896999999976
 30
0.0
 40
0.191205
100
AcDbArc
 50
15.11233200000101
 51
57.66799000000046
  0
ARC
  5
CB0
330
18
100
AcDbEntity
  8
1
100
AcDbCircle
 10
0.8877799999963539
 20
1.645729000000073
 30
0.0
 40
0.096685
100
AcDbArc
 50
344.1610569999988
 51
29.38612199999815
  0
ARC
  5
CB1
330
18
100
AcDbEntity
  8
1
100
AcDbCircle
 10
2.056343999996355
 20
1.788167000000043
 30
0.0
 40
0.214546
100
AcDbArc
 50
10.70500799999859
 51
43.67889599999967
  0
LINE
  5
CB2
330
18
100
AcDbEntity
  8
1
100
AcDbLine
 10
2.753428999996344
 20
1.838107000000034
 30
0.0
 11
2.773047999996379
 21
1.939818000000059
 31
0.0
  0
LINE
  5
CB3
330
18
100
AcDbEntity
  8
1
100
AcDbLine
 10
4.76734799999636
 20
1.480916999999974
 30
0.0
 11
4.786817999996342
 21
1.574274000000059
 31
0.0
  0
LINE
  5
CB4
330
18
100
AcDbEntity
  8
1
100
AcDbLine
 10
2.626693999996346
 20
-3.891346999999995
 30
0.0
 11
4.107908999996368
 21
-3.857925000000022
 31
0.0
  0
LINE
  5
CB5
330
18
100
AcDbEntity
  8
1
100
AcDbLine
 10
2.145242999996353
 20
-3.902496999999923
 30
0.0
 11
2.626690999996355
 21
-3.89132799999993
 31
0.0
  0
LINE
  5
CB6
330
18
100
AcDbEntity
  8
1
100
AcDbLine
 10
6.167333999996342
 20
-3.807048000000008
 30
0.0
 11
6.163183999996361
 21
-3.811126999999942
 31
0.0
  0
LINE
  5
CB7
330
18
100
AcDbEntity
  8
1
100
AcDbLine
 10
1.92459199999635
 20
3.728474000000004
 30
0.0
 11
1.92459199999635
 21
3.690316000000051
 31
0.0
  0
LINE
  5
CB8
330
18
100
AcDbEntity
  8
1
100
AcDbLine
 10
1.590565999996357
 20
3.59011600000008
 30
0.0
 11
1.590565999996357
 21
3.550844999999981
 31
0.0
  0
ARC
  5
CB9
330
18
100
AcDbEntity
  8
1
100
AcDbCircle
 10
2.312709999996343
 20
-3.508527999999955
 30
0.0
 40
0.4052170000000002
100
AcDbArc
 50
178.113036
 51
196.7532390000004
  0
LINE
  5
CBA
330
18
100
AcDbEntity
  8
1
100
AcDbLine
 10
1.92459199999635
 20
-3.625362999999993
 30
0.0
 11
1.92459199999635
 21
-3.728474000000004
 31
0.0
  0
LINE
  5
CBB
330
18
100
AcDbEntity
  8
1
100
AcDbLine
 10
1.590565999996357
 20
-1.833788000000025
 30
0.0
 11
1.590565999996357
 21
-3.590115999999965
 31
0.0
  0
ARC
  5
CBC
330
18
100
AcDbEntity
  8
1
100
AcDbCircle
 10
2.519455999996353
 20
-3.436958000000004
 30
0.0
 40
0.624412
100
AcDbArc
 50
197.5739729999999
 51
222.6256749999997
  0
LINE
  5
CBD
330
18
100
AcDbEntity
  8
1
100
AcDbLine
 10
2.059676999996353
 20
-3.86012699999992
 30
0.0
 11
2.065949999996348
 21
-3.869832999999971
 31
0.0
  0
ARC
  5
CBE
330
18
100
AcDbEntity
  8
1
100
AcDbCircle
 10
2.173336999996365
 20
-3.716108999999959
 30
0.0
 40
0.187992
100
AcDbArc
 50
235.0628630000012
 51
261.4297209999989
  0
ARC
  5
CBF
330
18
100
AcDbEntity
  8
1
100
AcDbCircle
 10
2.173336999996365
 20
3.716110000000071
 30
0.0
 40
0.187992
100
AcDbArc
 50
98.57029299999879
 51
124.9372330000019
  0
LINE
  5
CC0
330
18
100
AcDbEntity
  8
1
100
AcDbLine
 10
6.085613999996382
 20
3.853180000000063
 30
0.0
 11
6.099431999996369
 21
3.851773999999976
 31
0.0
  0
LINE
  5
CC1
330
18
100
AcDbEntity
  8
1
100
AcDbLine
 10
6.163118999996356
 20
3.811124000000063
 30
0.0
 11
6.099431999996369
 21
3.851773999999976
 31
0.0
  0
LINE
  5
CC2
330
18
100
AcDbEntity
  8
1
100
AcDbLine
 10
6.085613999996382
 20
3.853180000000063
 30
0.0
 11
4.270489999996357
 21
3.856308000000011
 31
0.0
  0
LINE
  5
CC3
330
18
100
AcDbEntity
  8
1
100
AcDbLine
 10
6.167330999996352
 20
3.807041000000026
 30
0.0
 11
9.737826999996343
 21
0.0815860000000157
 31
0.0
  0
ARC
  5
CC4
330
18
100
AcDbEntity
  8
1
100
AcDbCircle
 10
3.377698999996368
 20
7.592132999999987
 30
0.0
 40
10.125737
100
AcDbArc
 50
304.9258489999991
 51
307.4783300000011
  0
ARC
  5
CC5
330
18
100
AcDbEntity
  8
1
100
AcDbCircle
 10
141.9769575073958
 20
142.2802056445505
 30
0.0
 40
193.9570154918901
100
AcDbArc
 50
225.5563798371898
 51
226.9692660802345
  0
ARC
  5
CC6
330
18
100
AcDbEntity
  8
1
100
AcDbCircle
 10
141.9704145183331
 20
-142.2734469931084
 30
0.0
 40
193.9476101264294
100
AcDbArc
 50
133.0306834607564
 51
134.4436413100989
  0
LINE
  5
CC7
330
18
100
AcDbEntity
  8
1
100
AcDbLine
 10
6.085613999996382
 20
-3.853179999999951
 30
0.0
 11
6.099431999996369
 21
-3.851773999999976
 31
0.0
  0
LINE
  5
CC8
330
18
100
AcDbEntity
  8
1
100
AcDbLine
 10
6.163118999996356
 20
-3.811123999999947
 30
0.0
 11
6.099431999996369
 21
-3.851773999999976
 31
0.0
  0
LINE
  5
CC9
330
18
100
AcDbEntity
  8
1
100
AcDbLine
 10
6.085613999996382
 20
-3.853179999999951
 30
0.0
 11
4.270489999996357
 21
-3.856308000000011
 31
0.0
  0
LINE
  5
CCA
330
18
100
AcDbEntity
  8
1
100
AcDbLine
 10
4.270489999996357
 20
-3.856308000000011
 30
0.0
 11
2.059676999996353
 21
-3.860128999999913
 31
0.0
  0
LINE
  5
CCB
330
18
100
AcDbEntity
  8
1
100
AcDbLine
 10
6.085613999996382
 20
-3.853179999999951
 30
0.0
 11
5.89408899999637
 21
-3.654822999999963
 31
0.0
  0
ARC
  5
CCC
330
18
100
AcDbEntity
  8
1
100
AcDbCircle
 10
208.3445529999964
 20
-195.7687469999999
 30
0.0
 40
278.809485
100
AcDbArc
 50
135.7515379999996
 51
136.500968
  0
LINE
  5
CCD
330
18
100
AcDbEntity
  8
1
100
AcDbLine
 10
8.963231999996366
 20
-0.8874419999999645
 30
0.0
 11
8.627974999996354
 21
-1.223921000000018
 31
0.0
  0
ARC
  5
CCE
330
18
100
AcDbEntity
  8
1
100
AcDbCircle
 10
1.590554999996354
 20
4.062526000000048
 30
0.0
 40
0.4724090000000001
100
AcDbArc
 50
270.0012839999994
 51
314.9987159999993
  0
ARC
  5
CCF
330
18
100
AcDbEntity
  8
1
100
AcDbCircle
 10
1.590554999996354
 20
-4.062525999999933
 30
0.0
 40
0.4724090000000001
100
AcDbArc
 50
45.0012840000013
 51
89.99871600000062
  0
LINE
  5
CD0
330
18
100
AcDbEntity
  8
1
100
AcDbLine
 10
-0.000000000003638
 20
-3.590115999999965
 30
0.0
 11
1.590565999996357
 21
-3.590115999999965
 31
0.0
  0
LINE
  5
CD1
330
18
100
AcDbEntity
  8
1
100
AcDbLine
 10
-0.000000000003638
 20
3.59011600000008
 30
0.0
 11
1.590565999996357
 21
3.59011600000008
 31
0.0
  0
LINE
  5
CD2
330
18
100
AcDbEntity
  8
1
100
AcDbLine
 10
1.92459199999635
 20
-3.728474000000004
 30
0.0
 11
2.065949999996348
 21
-3.869832999999971
 31
0.0
  0
LINE
  5
CD3
330
18
100
AcDbEntity
  8
1
100
AcDbLine
 10
1.92459199999635
 20
3.728474000000004
 30
0.0
 11
2.065949999996348
 21
3.869833000000085
 31
0.0
  0
LINE
  5
CD4
330
18
100
AcDbEntity
  8
1
100
AcDbLine
 10
4.110456999996356
 20
3.858239000000025
 30
0.0
 11
4.270489999996357
 21
3.856308000000011
 31
0.0
  0
LINE
  5
CD5
330
18
100
AcDbEntity
  8
1
100
AcDbLine
 10
4.110456999996356
 20
-3.858239000000025
 30
0.0
 11
4.270489999996357
 21
-3.856308000000011
 31
0.0
  0
LINE
  5
CD6
330
18
100
AcDbEntity
  8
SK1
100
AcDbLine
 10
-1.949523000003637
 20
-2.644000000000003
 30
0.0
 11
-1.949523000003637
 21
0.0
 31
0.0
  0
LINE
  5
CD7
330
18
100
AcDbEntity
  8
SK1
100
AcDbLine
 10
-1.949523000003637
 20
0.0
 30
0.0
 11
-1.949523000003637
 21
2.644000000000003
 31
0.0
  0
LINE
  5
CD8
330
18
100
AcDbEntity
  8
SK1
100
AcDbLine
 10
-2.138319000003633
 20
-2.50999999999999
 30
0.0
 11
-2.138319000003633
 21
0.0
 31
0.0
  0
LINE
  5
CD9
330
18
100
AcDbEntity
  8
SK1
100
AcDbLine
 10
-2.138319000003633
 20
0.0
 30
0.0
 11
-2.138319000003633
 21
2.50999999999999
 31
0.0
  0
POLYLINE
  5
CDA
330
18
100
AcDbEntity
  8
SK1
100
AcDb2dPolyline
 66
     1
 10
0.0
 20
0.0
 30
0.0
  0
VERTEX
  5
CDB
330
CDA
100
AcDbEntity
  8
SK1
100
AcDbVertex
100
AcDb2dVertex
 10
-6.089773000003646
 20
0.0
 30
0.0
  0
VERTEX
  5
CDC
330
CDA
100
AcDbEntity
  8
SK1
100
AcDbVertex
100
AcDb2dVertex
 10
-5.980975000003637
 20
-1.118579999999951
 30
0.0
  0
VERTEX
  5
CDD
330
CDA
100
AcDbEntity
  8
SK1
100
AcDbVertex
100
AcDb2dVertex
 10
-5.922397000003627
 20
-1.637168999999969
 30
0.0
  0
VERTEX
  5
CDE
330
CDA
100
AcDbEntity
  8
SK1
100
AcDbVertex
100
AcDb2dVertex
 10
-5.859387000003636
 20
-2.081856000000014
 30
0.0
  0
VERTEX
  5
CDF
330
CDA
100
AcDbEntity
  8
SK1
100
AcDbVertex
100
AcDb2dVertex
 10
-5.825823000003651
 20
-2.259878999999954
 30
0.0
  0
VERTEX
  5
CE0
330
CDA
100
AcDbEntity
  8
SK1
100
AcDbVertex
100
AcDb2dVertex
 10
-5.764904000003638
 20
-2.464068999999994
 30
0.0
  0
VERTEX
  5
CE1
330
CDA
100
AcDbEntity
  8
SK1
100
AcDbVertex
100
AcDb2dVertex
 10
-5.743819000003638
 20
-2.49693300000001
 30
0.0
  0
VERTEX
  5
CE2
330
CDA
100
AcDbEntity
  8
SK1
100
AcDbVertex
100
AcDb2dVertex
 10
-5.733196000003628
 20
-2.505925999999931
 30
0.0
  0
VERTEX
  5
CE3
330
CDA
100
AcDbEntity
  8
SK1
100
AcDbVertex
100
AcDb2dVertex
 10
-5.719774000003638
 20
-2.50999999999999
 30
0.0
  0
SEQEND
  5
CE4
330
CDA
100
AcDbEntity
  8
SK1
  0
LINE
  5
CE5
330
18
100
AcDbEntity
  8
SK1
100
AcDbLine
 10
-5.719773000003641
 20
-2.50999999999999
 30
0.0
 11
-5.707082000003651
 21
-2.506357999999976
 31
0.0
  0
POLYLINE
  5
CE6
330
18
100
AcDbEntity
  8
SK1
100
AcDb2dPolyline
 66
     1
 10
0.0
 20
0.0
 30
0.0
  0
VERTEX
  5
CE7
330
CE6
100
AcDbEntity
  8
SK1
100
AcDbVertex
100
AcDb2dVertex
 10
-6.614523000003627
 20
0.0
 30
0.0
  0
VERTEX
  5
CE8
330
CE6
100
AcDbEntity
  8
SK1
100
AcDbVertex
100
AcDb2dVertex
 10
-6.509077000003627
 20
-1.086475999999945
 30
0.0
  0
VERTEX
  5
CE9
330
CE6
100
AcDbEntity
  8
SK1
100
AcDbVertex
100
AcDb2dVertex
 10
-6.452672000003643
 20
-1.592122000000015
 30
0.0
  0
VERTEX
  5
CEA
330
CE6
100
AcDbEntity
  8
SK1
100
AcDbVertex
100
AcDb2dVertex
 10
-6.359926000003638
 20
-2.214738000000009
 30
0.0
  0
VERTEX
  5
CEB
330
CE6
100
AcDbEntity
  8
SK1
100
AcDbVertex
100
AcDb2dVertex
 10
-6.301178000003631
 20
-2.437745999999945
 30
0.0
  0
VERTEX
  5
CEC
330
CE6
100
AcDbEntity
  8
SK1
100
AcDbVertex
100
AcDb2dVertex
 10
-6.27045000000362
 20
-2.494809999999914
 30
0.0
  0
VERTEX
  5
CED
330
CE6
100
AcDbEntity
  8
SK1
100
AcDbVertex
100
AcDb2dVertex
 10
-6.257235000003646
 20
-2.506346000000005
 30
0.0
  0
SEQEND
  5
CEE
330
CE6
100
AcDbEntity
  8
SK1
  0
LINE
  5
CEF
330
18
100
AcDbEntity
  8
SK1
100
AcDbLine
 10
-6.257235000003646
 20
-2.506346000000005
 30
0.0
 11
-6.244523000003652
 21
-2.50999999999999
 31
0.0
  0
POLYLINE
  5
CF0
330
18
100
AcDbEntity
  8
SK1
100
AcDb2dPolyline
 66
     1
 10
0.0
 20
0.0
 30
0.0
  0
VERTEX
  5
CF1
330
CF0
100
AcDbEntity
  8
SK1
100
AcDbVertex
100
AcDb2dVertex
 10
-4.609773000003626
 20
0.0
 30
0.0
  0
VERTEX
  5
CF2
330
CF0
100
AcDbEntity
  8
SK1
100
AcDbVertex
100
AcDb2dVertex
 10
-4.500974000003623
 20
-1.118579999999951
 30
0.0
  0
VERTEX
  5
CF3
330
CF0
100
AcDbEntity
  8
SK1
100
AcDbVertex
100
AcDb2dVertex
 10
-4.442397000003636
 20
-1.637168999999969
 30
0.0
  0
VERTEX
  5
CF4
330
CF0
100
AcDbEntity
  8
SK1
100
AcDbVertex
100
AcDb2dVertex
 10
-4.379387000003646
 20
-2.081856000000014
 30
0.0
  0
VERTEX
  5
CF5
330
CF0
100
AcDbEntity
  8
SK1
100
AcDbVertex
100
AcDb2dVertex
 10
-4.345823000003633
 20
-2.259878999999954
 30
0.0
  0
VERTEX
  5
CF6
330
CF0
100
AcDbEntity
  8
SK1
100
AcDbVertex
100
AcDb2dVertex
 10
-4.284904000003621
 20
-2.464068999999994
 30
0.0
  0
VERTEX
  5
CF7
330
CF0
100
AcDbEntity
  8
SK1
100
AcDbVertex
100
AcDb2dVertex
 10
-4.26381900000365
 20
-2.49693300000001
 30
0.0
  0
VERTEX
  5
CF8
330
CF0
100
AcDbEntity
  8
SK1
100
AcDbVertex
100
AcDb2dVertex
 10
-4.253196000003638
 20
-2.505925999999931
 30
0.0
  0
VERTEX
  5
CF9
330
CF0
100
AcDbEntity
  8
SK1
100
AcDbVertex
100
AcDb2dVertex
 10
-4.239774000003649
 20
-2.50999999999999
 30
0.0
  0
SEQEND
  5
CFA
330
CF0
100
AcDbEntity
  8
SK1
  0
LINE
  5
CFB
330
18
100
AcDbEntity
  8
SK1
100
AcDbLine
 10
-4.239773000003651
 20
-2.50999999999999
 30
0.0
 11
-4.227086000003621
 21
-2.50635999999997
 31
0.0
  0
POLYLINE
  5
CFC
330
18
100
AcDbEntity
  8
SK1
100
AcDb2dPolyline
 66
     1
 10
0.0
 20
0.0
 30
0.0
  0
VERTEX
  5
CFD
330
CFC
100
AcDbEntity
  8
SK1
100
AcDbVertex
100
AcDb2dVertex
 10
-5.134523000003637
 20
0.0
 30
0.0
  0
VERTEX
  5
CFE
330
CFC
100
AcDbEntity
  8
SK1
100
AcDbVertex
100
AcDb2dVertex
 10
-5.029077000003636
 20
-1.086475999999945
 30
0.0
  0
VERTEX
  5
CFF
330
CFC
100
AcDbEntity
  8
SK1
100
AcDbVertex
100
AcDb2dVertex
 10
-4.972672000003624
 20
-1.592122000000015
 30
0.0
  0
VERTEX
  5
D00
330
CFC
100
AcDbEntity
  8
SK1
100
AcDbVertex
100
AcDb2dVertex
 10
-4.879926000003646
 20
-2.214738000000009
 30
0.0
  0
VERTEX
  5
D01
330
CFC
100
AcDbEntity
  8
SK1
100
AcDbVertex
100
AcDb2dVertex
 10
-4.821178000003642
 20
-2.437745999999945
 30
0.0
  0
VERTEX
  5
D02
330
CFC
100
AcDbEntity
  8
SK1
100
AcDbVertex
100
AcDb2dVertex
 10
-4.790450000003628
 20
-2.494809999999914
 30
0.0
  0
VERTEX
  5
D03
330
CFC
100
AcDbEntity
  8
SK1
100
AcDbVertex
100
AcDb2dVertex
 10
-4.777235000003628
 20
-2.506346000000005
 30
0.0
  0
SEQEND
  5
D04
330
CFC
100
AcDbEntity
  8
SK1
  0
LINE
  5
D05
330
18
100
AcDbEntity
  8
SK1
100
AcDbLine
 10
-4.777235000003628
 20
-2.506345000000009
 30
0.0
 11
-4.764523000003633
 21
-2.50999999999999
 31
0.0
  0
POLYLINE
  5
D06
330
18
100
AcDbEntity
  8
SK1
100
AcDb2dPolyline
 66
     1
 10
0.0
 20
0.0
 30
0.0
  0
VERTEX
  5
D07
330
D06
100
AcDbEntity
  8
SK1
100
AcDbVertex
100
AcDb2dVertex
 10
-3.129773000003638
 20
0.0
 30
0.0
  0
VERTEX
  5
D08
330
D06
100
AcDbEntity
  8
SK1
100
AcDbVertex
100
AcDb2dVertex
 10
-3.094457000003643
 20
-0.221053999999981
 30
0.0
  0
VERTEX
  5
D09
330
D06
100
AcDbEntity
  8
SK1
100
AcDbVertex
100
AcDb2dVertex
 10
-2.998244000003636
 20
-0.6520919999999251
 30
0.0
  0
SEQEND
  5
D0A
330
D06
100
AcDbEntity
  8
SK1
  0
ARC
  5
D0B
330
18
100
AcDbEntity
  8
SK1
100
AcDbCircle
 10
2.636292999996356
 20
0.4067059999999856
 30
0.0
 40
5.733020999999999
100
AcDbArc
 50
190.6424610000011
 51
195.7604570000009
  0
POLYLINE
  5
D0C
330
18
100
AcDbEntity
  8
SK1
100
AcDb2dPolyline
 66
     1
 10
0.0
 20
0.0
 30
0.0
  0
VERTEX
  5
D0D
330
D0C
100
AcDbEntity
  8
SK1
100
AcDbVertex
100
AcDb2dVertex
 10
-2.880859000003622
 20
-1.150378999999928
 30
0.0
  0
VERTEX
  5
D0E
330
D0C
100
AcDbEntity
  8
SK1
100
AcDbVertex
100
AcDb2dVertex
 10
-2.817532000003636
 20
-1.285327999999934
 30
0.0
  0
VERTEX
  5
D0F
330
D0C
100
AcDbEntity
  8
SK1
100
AcDbVertex
100
AcDb2dVertex
 10
-2.765234000003628
 20
-1.339958000000024
 30
0.0
  0
VERTEX
  5
D10
330
D0C
100
AcDbEntity
  8
SK1
100
AcDbVertex
100
AcDb2dVertex
 10
-2.721345000003622
 20
-1.36472900000001
 30
0.0
  0
VERTEX
  5
D11
330
D0C
100
AcDbEntity
  8
SK1
100
AcDbVertex
100
AcDb2dVertex
 10
-2.671104000003651
 20
-1.374734999999985
 30
0.0
  0
SEQEND
  5
D12
330
D0C
100
AcDbEntity
  8
SK1
  0
LINE
  5
D13
330
18
100
AcDbEntity
  8
SK1
100
AcDbLine
 10
-2.671103000003623
 20
-1.374734999999985
 30
0.0
 11
-2.324826000003639
 21
-1.374872999999979
 31
0.0
  0
POLYLINE
  5
D14
330
18
100
AcDbEntity
  8
SK1
100
AcDb2dPolyline
 66
     1
 10
0.0
 20
0.0
 30
0.0
  0
VERTEX
  5
D15
330
D14
100
AcDbEntity
  8
SK1
100
AcDbVertex
100
AcDb2dVertex
 10
-2.324826000003639
 20
-1.374872999999979
 30
0.0
  0
VERTEX
  5
D16
330
D14
100
AcDbEntity
  8
SK1
100
AcDbVertex
100
AcDb2dVertex
 10
-2.263653000003643
 20
-1.356997999999975
 30
0.0
  0
VERTEX
  5
D17
330
D14
100
AcDbEntity
  8
SK1
100
AcDbVertex
100
AcDb2dVertex
 10
-2.207348000003634
 20
-1.289107999999941
 30
0.0
  0
VERTEX
  5
D18
330
D14
100
AcDbEntity
  8
SK1
100
AcDbVertex
100
AcDb2dVertex
 10
-2.192353000003635
 20
-1.244286999999985
 30
0.0
  0
VERTEX
  5
D19
330
D14
100
AcDbEntity
  8
SK1
100
AcDbVertex
100
AcDb2dVertex
 10
-2.18073000000362
 20
-1.150338999999916
 30
0.0
  0
SEQEND
  5
D1A
330
D14
100
AcDbEntity
  8
SK1
  0
ARC
  5
D1B
330
18
100
AcDbEntity
  8
SK1
100
AcDbCircle
 10
-14.28466500000365
 20
-0.8767359999999371
 30
0.0
 40
12.107253
100
AcDbArc
 50
358.7050799999998
 51
1.063555000000758
  0
POLYLINE
  5
D1C
330
18
100
AcDbEntity
  8
SK1
100
AcDb2dPolyline
 66
     1
 10
0.0
 20
0.0
 30
0.0
  0
VERTEX
  5
D1D
330
D1C
100
AcDbEntity
  8
SK1
100
AcDbVertex
100
AcDb2dVertex
 10
-2.17938900000365
 20
-0.6520060000000285
 30
0.0
  0
VERTEX
  5
D1E
330
D1C
100
AcDbEntity
  8
SK1
100
AcDbVertex
100
AcDb2dVertex
 10
-2.169556000003638
 20
-0.2617900000000191
 30
0.0
  0
VERTEX
  5
D1F
330
D1C
100
AcDbEntity
  8
SK1
100
AcDbVertex
100
AcDb2dVertex
 10
-2.174523000003629
 20
0.0
 30
0.0
  0
SEQEND
  5
D20
330
D1C
100
AcDbEntity
  8
SK1
  0
POLYLINE
  5
D21
330
18
100
AcDbEntity
  8
SK1
100
AcDb2dPolyline
 66
     1
 10
0.0
 20
0.0
 30
0.0
  0
VERTEX
  5
D22
330
D21
100
AcDbEntity
  8
SK1
100
AcDbVertex
100
AcDb2dVertex
 10
-3.65452300000362
 20
0.0
 30
0.0
  0
VERTEX
  5
D23
330
D21
100
AcDbEntity
  8
SK1
100
AcDbVertex
100
AcDb2dVertex
 10
-3.549078000003646
 20
-1.086474999999949
 30
0.0
  0
VERTEX
  5
D24
330
D21
100
AcDbEntity
  8
SK1
100
AcDbVertex
100
AcDb2dVertex
 10
-3.492672000003636
 20
-1.592121000000019
 30
0.0
  0
VERTEX
  5
D25
330
D21
100
AcDbEntity
  8
SK1
100
AcDbVertex
100
AcDb2dVertex
 10
-3.399926000003631
 20
-2.214736000000016
 30
0.0
  0
VERTEX
  5
D26
330
D21
100
AcDbEntity
  8
SK1
100
AcDbVertex
100
AcDb2dVertex
 10
-3.341178000003651
 20
-2.437744999999949
 30
0.0
  0
VERTEX
  5
D27
330
D21
100
AcDbEntity
  8
SK1
100
AcDbVertex
100
AcDb2dVertex
 10
-3.310451000003638
 20
-2.494809999999914
 30
0.0
  0
VERTEX
  5
D28
330
D21
100
AcDbEntity
  8
SK1
100
AcDbVertex
100
AcDb2dVertex
 10
-3.297236000003636
 20
-2.506345000000009
 30
0.0
  0
SEQEND
  5
D29
330
D21
100
AcDbEntity
  8
SK1
  0
LINE
  5
D2A
330
18
100
AcDbEntity
  8
SK1
100
AcDbLine
 10
-3.297236000003636
 20
-2.506345000000009
 30
0.0
 11
-3.284523000003643
 21
-2.50999999999999
 31
0.0
  0
ARC
  5
D2B
330
18
100
AcDbEntity
  8
SK1
100
AcDbCircle
 10
-1.368383000003632
 20
-26.08043199999992
 30
0.0
 40
28.868138
100
AcDbArc
 50
99.98787500000119
 51
101.0024049999989
  0
POLYLINE
  5
D2C
330
18
100
AcDbEntity
  8
SK1
100
AcDb2dPolyline
 66
     1
 10
0.0
 20
0.0
 30
0.0
  0
VERTEX
  5
D2D
330
D2C
100
AcDbEntity
  8
SK1
100
AcDbVertex
100
AcDb2dVertex
 10
-6.375264000003652
 20
2.350179000000025
 30
0.0
  0
VERTEX
  5
D2E
330
D2C
100
AcDbEntity
  8
SK1
100
AcDbVertex
100
AcDb2dVertex
 10
-6.325347000003629
 20
2.112231000000063
 30
0.0
  0
VERTEX
  5
D2F
330
D2C
100
AcDbEntity
  8
SK1
100
AcDbVertex
100
AcDb2dVertex
 10
-6.234992000003643
 20
1.451264000000035
 30
0.0
  0
VERTEX
  5
D30
330
D2C
100
AcDbEntity
  8
SK1
100
AcDbVertex
100
AcDb2dVertex
 10
-6.089773000003646
 20
0.0
 30
0.0
  0
SEQEND
  5
D31
330
D2C
100
AcDbEntity
  8
SK1
  0
POLYLINE
  5
D32
330
18
100
AcDbEntity
  8
SK1
100
AcDb2dPolyline
 66
     1
 10
0.0
 20
0.0
 30
0.0
  0
VERTEX
  5
D33
330
D32
100
AcDbEntity
  8
SK1
100
AcDbVertex
100
AcDb2dVertex
 10
-6.877876000003652
 20
2.257102000000029
 30
0.0
  0
VERTEX
  5
D34
330
D32
100
AcDbEntity
  8
SK1
100
AcDbVertex
100
AcDb2dVertex
 10
-6.822290000003647
 20
1.937835000000063
 30
0.0
  0
VERTEX
  5
D35
330
D32
100
AcDbEntity
  8
SK1
100
AcDbVertex
100
AcDb2dVertex
 10
-6.722378000003629
 20
1.109557999999992
 30
0.0
  0
VERTEX
  5
D36
330
D32
100
AcDbEntity
  8
SK1
100
AcDbVertex
100
AcDb2dVertex
 10
-6.614523000003627
 20
0.0
 30
0.0
  0
SEQEND
  5
D37
330
D32
100
AcDbEntity
  8
SK1
  0
LINE
  5
D38
330
18
100
AcDbEntity
  8
SK1
100
AcDbLine
 10
-4.979773000003631
 20
2.50999999999999
 30
0.0
 11
-4.967083000003638
 21
2.506357999999976
 31
0.0
  0
POLYLINE
  5
D39
330
18
100
AcDbEntity
  8
SK1
100
AcDb2dPolyline
 66
     1
 10
0.0
 20
0.0
 30
0.0
  0
VERTEX
  5
D3A
330
D39
100
AcDbEntity
  8
SK1
100
AcDbVertex
100
AcDb2dVertex
 10
-4.967083000003638
 20
2.506357999999976
 30
0.0
  0
VERTEX
  5
D3B
330
D39
100
AcDbEntity
  8
SK1
100
AcDbVertex
100
AcDb2dVertex
 10
-4.957186000003645
 20
2.498469
 30
0.0
  0
VERTEX
  5
D3C
330
D39
100
AcDbEntity
  8
SK1
100
AcDbVertex
100
AcDb2dVertex
 10
-4.937524000003633
 20
2.469731000000022
 30
0.0
  0
VERTEX
  5
D3D
330
D39
100
AcDbEntity
  8
SK1
100
AcDbVertex
100
AcDb2dVertex
 10
-4.88047800000362
 20
2.290263999999979
 30
0.0
  0
VERTEX
  5
D3E
330
D39
100
AcDbEntity
  8
SK1
100
AcDbVertex
100
AcDb2dVertex
 10
-4.817406000003643
 20
1.936920999999983
 30
0.0
  0
VERTEX
  5
D3F
330
D39
100
AcDbEntity
  8
SK1
100
AcDbVertex
100
AcDb2dVertex
 10
-4.705338000003621
 20
0.9906260000000202
 30
0.0
  0
VERTEX
  5
D40
330
D39
100
AcDbEntity
  8
SK1
100
AcDbVertex
100
AcDb2dVertex
 10
-4.609773000003626
 20
0.0
 30
0.0
  0
SEQEND
  5
D41
330
D39
100
AcDbEntity
  8
SK1
  0
LINE
  5
D42
330
18
100
AcDbEntity
  8
SK1
100
AcDbLine
 10
-5.517252000003621
 20
2.50633600000003
 30
0.0
 11
-5.504523000003643
 21
2.50999999999999
 31
0.0
  0
POLYLINE
  5
D43
330
18
100
AcDbEntity
  8
SK1
100
AcDb2dPolyline
 66
     1
 10
0.0
 20
0.0
 30
0.0
  0
VERTEX
  5
D44
330
D43
100
AcDbEntity
  8
SK1
100
AcDbVertex
100
AcDb2dVertex
 10
-5.504523000003643
 20
2.50999999999999
 30
0.0
  0
VERTEX
  5
D45
330
D43
100
AcDbEntity
  8
SK1
100
AcDbVertex
100
AcDb2dVertex
 10
-5.492167000003632
 20
2.506547000000068
 30
0.0
  0
VERTEX
  5
D46
330
D43
100
AcDbEntity
  8
SK1
100
AcDbVertex
100
AcDb2dVertex
 10
-5.483947000003638
 20
2.500428000000054
 30
0.0
  0
VERTEX
  5
D47
330
D43
100
AcDbEntity
  8
SK1
100
AcDbVertex
100
AcDb2dVertex
 10
-5.467590000003638
 20
2.479206999999973
 30
0.0
  0
VERTEX
  5
D48
330
D43
100
AcDbEntity
  8
SK1
100
AcDbVertex
100
AcDb2dVertex
 10
-5.443384000003646
 20
2.425922000000014
 30
0.0
  0
VERTEX
  5
D49
330
D43
100
AcDbEntity
  8
SK1
100
AcDbVertex
100
AcDb2dVertex
 10
-5.396728000003632
 20
2.251724000000081
 30
0.0
  0
VERTEX
  5
D4A
330
D43
100
AcDbEntity
  8
SK1
100
AcDbVertex
100
AcDb2dVertex
 10
-5.33140300000363
 20
1.862053000000059
 30
0.0
  0
VERTEX
  5
D4B
330
D43
100
AcDbEntity
  8
SK1
100
AcDbVertex
100
AcDb2dVertex
 10
-5.215409000003631
 20
0.8450740000000678
 30
0.0
  0
VERTEX
  5
D4C
330
D43
100
AcDbEntity
  8
SK1
100
AcDbVertex
100
AcDb2dVertex
 10
-5.134523000003637
 20
0.0
 30
0.0
  0
SEQEND
  5
D4D
330
D43
100
AcDbEntity
  8
SK1
  0
LINE
  5
D4E
330
18
100
AcDbEntity
  8
SK1
100
AcDbLine
 10
-3.499773000003641
 20
2.50999999999999
 30
0.0
 11
-3.487085000003643
 21
2.506358999999974
 31
0.0
  0
POLYLINE
  5
D4F
330
18
100
AcDbEntity
  8
SK1
100
AcDb2dPolyline
 66
     1
 10
0.0
 20
0.0
 30
0.0
  0
VERTEX
  5
D50
330
D4F
100
AcDbEntity
  8
SK1
100
AcDbVertex
100
AcDb2dVertex
 10
-3.487085000003643
 20
2.506358999999974
 30
0.0
  0
VERTEX
  5
D51
330
D4F
100
AcDbEntity
  8
SK1
100
AcDbVertex
100
AcDb2dVertex
 10
-3.47718800000365
 20
2.498470999999995
 30
0.0
  0
VERTEX
  5
D52
330
D4F
100
AcDbEntity
  8
SK1
100
AcDbVertex
100
AcDb2dVertex
 10
-3.457525000003641
 20
2.469734000000016
 30
0.0
  0
VERTEX
  5
D53
330
D4F
100
AcDbEntity
  8
SK1
100
AcDbVertex
100
AcDb2dVertex
 10
-3.400479000003628
 20
2.290271000000075
 30
0.0
  0
VERTEX
  5
D54
330
D4F
100
AcDbEntity
  8
SK1
100
AcDbVertex
100
AcDb2dVertex
 10
-3.337407000003622
 20
1.936929000000077
 30
0.0
  0
VERTEX
  5
D55
330
D4F
100
AcDbEntity
  8
SK1
100
AcDbVertex
100
AcDb2dVertex
 10
-3.225339000003628
 20
0.990632000000005
 30
0.0
  0
VERTEX
  5
D56
330
D4F
100
AcDbEntity
  8
SK1
100
AcDbVertex
100
AcDb2dVertex
 10
-3.129773000003638
 20
0.0
 30
0.0
  0
SEQEND
  5
D57
330
D4F
100
AcDbEntity
  8
SK1
  0
LINE
  5
D58
330
18
100
AcDbEntity
  8
SK1
100
AcDbLine
 10
-4.037217000003636
 20
2.50635599999998
 30
0.0
 11
-4.024523000003623
 21
2.50999999999999
 31
0.0
  0
POLYLINE
  5
D59
330
18
100
AcDbEntity
  8
SK1
100
AcDb2dPolyline
 66
     1
 10
0.0
 20
0.0
 30
0.0
  0
VERTEX
  5
D5A
330
D59
100
AcDbEntity
  8
SK1
100
AcDbVertex
100
AcDb2dVertex
 10
-4.024523000003623
 20
2.50999999999999
 30
0.0
  0
VERTEX
  5
D5B
330
D59
100
AcDbEntity
  8
SK1
100
AcDbVertex
100
AcDb2dVertex
 10
-4.012167000003643
 20
2.506547000000068
 30
0.0
  0
VERTEX
  5
D5C
330
D59
100
AcDbEntity
  8
SK1
100
AcDbVertex
100
AcDb2dVertex
 10
-4.00394700000362
 20
2.500428000000054
 30
0.0
  0
VERTEX
  5
D5D
330
D59
100
AcDbEntity
  8
SK1
100
AcDbVertex
100
AcDb2dVertex
 10
-3.987590000003649
 20
2.479206999999973
 30
0.0
  0
VERTEX
  5
D5E
330
D59
100
AcDbEntity
  8
SK1
100
AcDbVertex
100
AcDb2dVertex
 10
-3.963384000003628
 20
2.425922000000014
 30
0.0
  0
VERTEX
  5
D5F
330
D59
100
AcDbEntity
  8
SK1
100
AcDbVertex
100
AcDb2dVertex
 10
-3.916728000003642
 20
2.251724000000081
 30
0.0
  0
VERTEX
  5
D60
330
D59
100
AcDbEntity
  8
SK1
100
AcDbVertex
100
AcDb2dVertex
 10
-3.851403000003641
 20
1.862053000000059
 30
0.0
  0
VERTEX
  5
D61
330
D59
100
AcDbEntity
  8
SK1
100
AcDbVertex
100
AcDb2dVertex
 10
-3.735409000003641
 20
0.8450740000000678
 30
0.0
  0
VERTEX
  5
D62
330
D59
100
AcDbEntity
  8
SK1
100
AcDbVertex
100
AcDb2dVertex
 10
-3.65452300000362
 20
0.0
 30
0.0
  0
SEQEND
  5
D63
330
D59
100
AcDbEntity
  8
SK1
  0
LINE
  5
D64
330
18
100
AcDbEntity
  8
SK1
100
AcDbLine
 10
-2.557234000003629
 20
2.506346000000005
 30
0.0
 11
-2.544523000003636
 21
2.50999999999999
 31
0.0
  0
POLYLINE
  5
D65
330
18
100
AcDbEntity
  8
SK1
100
AcDb2dPolyline
 66
     1
 10
0.0
 20
0.0
 30
0.0
  0
VERTEX
  5
D66
330
D65
100
AcDbEntity
  8
SK1
100
AcDbVertex
100
AcDb2dVertex
 10
-2.544523000003636
 20
2.50999999999999
 30
0.0
  0
VERTEX
  5
D67
330
D65
100
AcDbEntity
  8
SK1
100
AcDbVertex
100
AcDb2dVertex
 10
-2.532167000003653
 20
2.506547000000068
 30
0.0
  0
VERTEX
  5
D68
330
D65
100
AcDbEntity
  8
SK1
100
AcDbVertex
100
AcDb2dVertex
 10
-2.523947000003628
 20
2.500428000000054
 30
0.0
  0
VERTEX
  5
D69
330
D65
100
AcDbEntity
  8
SK1
100
AcDbVertex
100
AcDb2dVertex
 10
-2.507590000003629
 20
2.479206999999973
 30
0.0
  0
VERTEX
  5
D6A
330
D65
100
AcDbEntity
  8
SK1
100
AcDbVertex
100
AcDb2dVertex
 10
-2.483384000003638
 20
2.425922000000014
 30
0.0
  0
VERTEX
  5
D6B
330
D65
100
AcDbEntity
  8
SK1
100
AcDbVertex
100
AcDb2dVertex
 10
-2.436728000003623
 20
2.251724000000081
 30
0.0
  0
VERTEX
  5
D6C
330
D65
100
AcDbEntity
  8
SK1
100
AcDbVertex
100
AcDb2dVertex
 10
-2.371403000003624
 20
1.862053000000059
 30
0.0
  0
VERTEX
  5
D6D
330
D65
100
AcDbEntity
  8
SK1
100
AcDbVertex
100
AcDb2dVertex
 10
-2.255409000003623
 20
0.8450740000000678
 30
0.0
  0
VERTEX
  5
D6E
330
D65
100
AcDbEntity
  8
SK1
100
AcDbVertex
100
AcDb2dVertex
 10
-2.174523000003629
 20
0.0
 30
0.0
  0
SEQEND
  5
D6F
330
D65
100
AcDbEntity
  8
SK1
  0
LINE
  5
D70
330
18
100
AcDbEntity
  8
SK1
100
AcDbLine
 10
-7.099523000003642
 20
-1.854080999999949
 30
0.0
 11
-7.099523000003642
 21
1.456171000000038
 31
0.0
  0
LINE
  5
D71
330
18
100
AcDbEntity
  8
SK1
100
AcDbLine
 10
-7.099523000003642
 20
-2.089616999999973
 30
0.0
 11
-7.099523000003642
 21
-1.854083999999943
 31
0.0
  0
LINE
  5
D72
330
18
100
AcDbEntity
  8
SK1
100
AcDbLine
 10
-7.099523000003642
 20
1.456171000000038
 30
0.0
 11
-7.099523000003642
 21
2.076099999999995
 31
0.0
  0
ARC
  5
D73
330
18
100
AcDbEntity
  8
SK1
100
AcDbCircle
 10
-6.369253000003652
 20
2.29499700000008
 30
0.0
 40
0.054732
100
AcDbArc
 50
30.86970000000012
 51
96.22343399999969
  0
ARC
  5
D74
330
18
100
AcDbEntity
  8
SK1
100
AcDbCircle
 10
-6.980149000003621
 20
-2.092811999999979
 30
0.0
 40
0.027804
100
AcDbArc
 50
255.3804329999997
 51
299.0158810000022
  0
POLYLINE
  5
D75
330
18
100
AcDbEntity
  8
SK1
100
AcDb2dPolyline
 66
     1
 10
0.0
 20
0.0
 30
0.0
  0
VERTEX
  5
D76
330
D75
100
AcDbEntity
  8
SK1
100
AcDbVertex
100
AcDb2dVertex
 10
-6.987163000003647
 20
-2.119700999999963
 30
0.0
  0
VERTEX
  5
D77
330
D75
100
AcDbEntity
  8
SK1
100
AcDbVertex
100
AcDb2dVertex
 10
-6.998628000003632
 20
-2.114115999999965
 30
0.0
  0
VERTEX
  5
D78
330
D75
100
AcDbEntity
  8
SK1
100
AcDbVertex
100
AcDb2dVertex
 10
-7.021442000003642
 20
-2.08810699999992
 30
0.0
  0
VERTEX
  5
D79
330
D75
100
AcDbEntity
  8
SK1
100
AcDbVertex
100
AcDb2dVertex
 10
-7.043993000003638
 20
-2.043127000000025
 30
0.0
  0
VERTEX
  5
D7A
330
D75
100
AcDbEntity
  8
SK1
100
AcDbVertex
100
AcDb2dVertex
 10
-7.099503000003638
 20
-1.854082999999945
 30
0.0
  0
SEQEND
  5
D7B
330
D75
100
AcDbEntity
  8
SK1
  0
LINE
  5
D7C
330
18
100
AcDbEntity
  8
SK1
100
AcDbLine
 10
-2.825256000003633
 20
0.0
 30
0.0
 11
-2.47902700000364
 21
0.0
 31
0.0
  0
LINE
  5
D7D
330
18
100
AcDbEntity
  8
SK1
100
AcDbLine
 10
-3.002153000003628
 20
0.0
 30
0.0
 11
-2.825256000003633
 21
0.0
 31
0.0
  0
LINE
  5
D7E
330
18
100
AcDbEntity
  8
SK1
100
AcDbLine
 10
-3.061153000003628
 20
0.0
 30
0.0
 11
-3.002153000003628
 21
0.0
 31
0.0
  0
LINE
  5
D7F
330
18
100
AcDbEntity
  8
SK1
100
AcDbLine
 10
-3.129779000003622
 20
0.0
 30
0.0
 11
-3.061153000003628
 21
0.0
 31
0.0
  0
POLYLINE
  5
D80
330
18
100
AcDbEntity
  8
SK1
100
AcDb2dPolyline
 66
     1
 10
0.0
 20
0.0
 30
0.0
  0
VERTEX
  5
D81
330
D80
100
AcDbEntity
  8
SK1
100
AcDbVertex
100
AcDb2dVertex
 10
-7.099494000003629
 20
2.076097000000004
 30
0.0
  0
VERTEX
  5
D82
330
D80
100
AcDbEntity
  8
SK1
100
AcDbVertex
100
AcDb2dVertex
 10
-6.995381000003646
 20
2.168021000000065
 30
0.0
  0
VERTEX
  5
D83
330
D80
100
AcDbEntity
  8
SK1
100
AcDbVertex
100
AcDb2dVertex
 10
-6.961790000003643
 20
2.203281000000059
 30
0.0
  0
VERTEX
  5
D84
330
D80
100
AcDbEntity
  8
SK1
100
AcDbVertex
100
AcDb2dVertex
 10
-6.877869000003641
 20
2.257101000000034
 30
0.0
  0
SEQEND
  5
D85
330
D80
100
AcDbEntity
  8
SK1
  0
LINE
  5
D86
330
18
100
AcDbEntity
  8
SK1
100
AcDbLine
 10
-2.243143000003641
 20
0.0
 30
0.0
 11
-2.174517000003618
 21
0.0
 31
0.0
  0
LINE
  5
D87
330
18
100
AcDbEntity
  8
SK1
100
AcDbLine
 10
-2.302144000003634
 20
0.0
 30
0.0
 11
-2.243143000003641
 21
0.0
 31
0.0
  0
LINE
  5
D88
330
18
100
AcDbEntity
  8
SK1
100
AcDbLine
 10
-2.47902700000364
 20
0.0
 30
0.0
 11
-2.302144000003634
 21
0.0
 31
0.0
  0
LINE
  5
D89
330
18
100
AcDbEntity
  8
SK1
100
AcDbLine
 10
-3.061161000003636
 20
0.0
 30
0.0
 11
-2.997798000003626
 21
-0.6520110000000159
 31
0.0
  0
LINE
  5
D8A
330
18
100
AcDbEntity
  8
SK1
100
AcDbLine
 10
-3.002172000003638
 20
0.0
 30
0.0
 11
-2.880713000003651
 21
-1.150342000000021
 31
0.0
  0
LINE
  5
D8B
330
18
100
AcDbEntity
  8
SK1
100
AcDbLine
 10
-2.825255000003636
 20
0.0
 30
0.0
 11
-2.671041000003639
 21
-1.374872999999979
 31
0.0
  0
LINE
  5
D8C
330
18
100
AcDbEntity
  8
SK1
100
AcDbLine
 10
-2.324826000003639
 20
-1.374872999999979
 30
0.0
 11
-2.479041000003633
 21
0.0
 31
0.0
  0
LINE
  5
D8D
330
18
100
AcDbEntity
  8
SK1
100
AcDbLine
 10
-2.302125000003627
 20
0.0
 30
0.0
 11
-2.180666000003639
 21
-1.150342000000021
 31
0.0
  0
LINE
  5
D8E
330
18
100
AcDbEntity
  8
SK1
100
AcDbLine
 10
-2.243136000003628
 20
0.0
 30
0.0
 11
-2.179773000003649
 21
-0.6520110000000159
 31
0.0
  0
LINE
  5
D8F
330
18
100
AcDbEntity
  8
SK1
100
AcDbLine
 10
-1.949523000003637
 20
-2.644000000000003
 30
0.0
 11
0.0004769999963514
 21
-2.746194999999943
 31
0.0
  0
LINE
  5
D90
330
18
100
AcDbEntity
  8
SK1
100
AcDbLine
 10
-1.949523000003637
 20
2.644000000000003
 30
0.0
 11
0.0004769999963514
 21
2.746195000000056
 31
0.0
  0
ARC
  5
D91
330
18
100
AcDbEntity
  8
SK1
100
AcDbCircle
 10
-2.138291000003619
 20
-2.70995499999992
 30
0.0
 40
0.199959
100
AcDbArc
 50
19.2592900000001
 51
90.00796500000001
  0
ARC
  5
D92
330
18
100
AcDbEntity
  8
SK1
100
AcDbCircle
 10
-2.138291000003619
 20
2.709955000000036
 30
0.0
 40
0.199959
100
AcDbArc
 50
269.992035
 51
340.7407099999999
  0
LINE
  5
D93
330
18
100
AcDbEntity
  8
SK1
100
AcDbLine
 10
-6.244523000003652
 20
-2.50999999999999
 30
0.0
 11
-5.719773000003641
 21
-2.50999999999999
 31
0.0
  0
LINE
  5
D94
330
18
100
AcDbEntity
  8
SK1
100
AcDbLine
 10
-4.764523000003633
 20
-2.50999999999999
 30
0.0
 11
-4.239773000003651
 21
-2.50999999999999
 31
0.0
  0
LINE
  5
D95
330
18
100
AcDbEntity
  8
SK1
100
AcDbLine
 10
-3.284523000003643
 20
-2.50999999999999
 30
0.0
 11
-2.138319000003633
 21
-2.50999999999999
 31
0.0
  0
LINE
  5
D96
330
18
100
AcDbEntity
  8
SK1
100
AcDbLine
 10
-5.504523000003643
 20
2.50999999999999
 30
0.0
 11
-4.979773000003631
 21
2.50999999999999
 31
0.0
  0
LINE
  5
D97
330
18
100
AcDbEntity
  8
SK1
100
AcDbLine
 10
-4.024523000003623
 20
2.50999999999999
 30
0.0
 11
-3.499773000003641
 21
2.50999999999999
 31
0.0
  0
LINE
  5
D98
330
18
100
AcDbEntity
  8
SK1
100
AcDbLine
 10
-2.544523000003636
 20
2.50999999999999
 30
0.0
 11
-2.138319000003633
 21
2.50999999999999
 31
0.0
  0
POLYLINE
  5
D99
330
18
100
AcDbEntity
  8
SK1
100
AcDb2dPolyline
 66
     1
 10
0.0
 20
0.0
 30
0.0
  0
VERTEX
  5
D9A
330
D99
100
AcDbEntity
  8
SK1
100
AcDbVertex
100
AcDb2dVertex
 10
-3.487092000003626
 20
2.506354999999985
 30
0.0
  0
VERTEX
  5
D9B
330
D99
100
AcDbEntity
  8
SK1
100
AcDbVertex
100
AcDb2dVertex
 10
-3.365391000003626
 20
2.330028000000083
 30
0.0
  0
VERTEX
  5
D9C
330
D99
100
AcDbEntity
  8
SK1
100
AcDbVertex
100
AcDb2dVertex
 10
-3.295455000003641
 20
2.113429999999993
 30
0.0
  0
SEQEND
  5
D9D
330
D99
100
AcDbEntity
  8
SK1
  0
POLYLINE
  5
D9E
330
18
100
AcDbEntity
  8
SK1
100
AcDb2dPolyline
 66
     1
 10
0.0
 20
0.0
 30
0.0
  0
VERTEX
  5
D9F
330
D9E
100
AcDbEntity
  8
SK1
100
AcDbVertex
100
AcDb2dVertex
 10
-3.312477000003638
 20
2.156026999999994
 30
0.0
  0
VERTEX
  5
DA0
330
D9E
100
AcDbEntity
  8
SK1
100
AcDbVertex
100
AcDb2dVertex
 10
-3.242570000003638
 20
2.107262999999989
 30
0.0
  0
VERTEX
  5
DA1
330
D9E
100
AcDbEntity
  8
SK1
100
AcDbVertex
100
AcDb2dVertex
 10
-3.16894000000363
 20
2.100001000000018
 30
0.0
  0
VERTEX
  5
DA2
330
D9E
100
AcDbEntity
  8
SK1
100
AcDbVertex
100
AcDb2dVertex
 10
-2.849345000003636
 20
2.09997700000008
 30
0.0
  0
SEQEND
  5
DA3
330
D9E
100
AcDbEntity
  8
SK1
  0
POLYLINE
  5
DA4
330
18
100
AcDbEntity
  8
SK1
100
AcDb2dPolyline
 66
     1
 10
0.0
 20
0.0
 30
0.0
  0
VERTEX
  5
DA5
330
DA4
100
AcDbEntity
  8
SK1
100
AcDbVertex
100
AcDb2dVertex
 10
-4.227092000003636
 20
-2.50634400000001
 30
0.0
  0
VERTEX
  5
DA6
330
DA4
100
AcDbEntity
  8
SK1
100
AcDbVertex
100
AcDb2dVertex
 10
-4.106538000003638
 20
-2.333271999999964
 30
0.0
  0
VERTEX
  5
DA7
330
DA4
100
AcDbEntity
  8
SK1
100
AcDbVertex
100
AcDb2dVertex
 10
-4.035507000003633
 20
-2.113569999999981
 30
0.0
  0
SEQEND
  5
DA8
330
DA4
100
AcDbEntity
  8
SK1
  0
POLYLINE
  5
DA9
330
18
100
AcDbEntity
  8
SK1
100
AcDb2dPolyline
 66
     1
 10
0.0
 20
0.0
 30
0.0
  0
VERTEX
  5
DAA
330
DA9
100
AcDbEntity
  8
SK1
100
AcDbVertex
100
AcDb2dVertex
 10
-4.052479000003643
 20
-2.156019000000014
 30
0.0
  0
VERTEX
  5
DAB
330
DA9
100
AcDbEntity
  8
SK1
100
AcDbVertex
100
AcDb2dVertex
 10
-3.982607000003638
 20
-2.107264999999983
 30
0.0
  0
VERTEX
  5
DAC
330
DA9
100
AcDbEntity
  8
SK1
100
AcDbVertex
100
AcDb2dVertex
 10
-3.909028000003642
 20
-2.099991999999929
 30
0.0
  0
VERTEX
  5
DAD
330
DA9
100
AcDbEntity
  8
SK1
100
AcDbVertex
100
AcDb2dVertex
 10
-3.589349000003636
 20
-2.099967999999988
 30
0.0
  0
SEQEND
  5
DAE
330
DA9
100
AcDbEntity
  8
SK1
  0
POLYLINE
  5
DAF
330
18
100
AcDbEntity
  8
SK1
100
AcDb2dPolyline
 66
     1
 10
0.0
 20
0.0
 30
0.0
  0
VERTEX
  5
DB0
330
DAF
100
AcDbEntity
  8
SK1
100
AcDbVertex
100
AcDb2dVertex
 10
-4.96709000000362
 20
2.506343000000015
 30
0.0
  0
VERTEX
  5
DB1
330
DAF
100
AcDbEntity
  8
SK1
100
AcDbVertex
100
AcDb2dVertex
 10
-4.842282000003648
 20
2.320974999999974
 30
0.0
  0
VERTEX
  5
DB2
330
DAF
100
AcDbEntity
  8
SK1
100
AcDbVertex
100
AcDb2dVertex
 10
-4.775559000003624
 20
2.113727000000038
 30
0.0
  0
SEQEND
  5
DB3
330
DAF
100
AcDbEntity
  8
SK1
  0
POLYLINE
  5
DB4
330
18
100
AcDbEntity
  8
SK1
100
AcDb2dPolyline
 66
     1
 10
0.0
 20
0.0
 30
0.0
  0
VERTEX
  5
DB5
330
DB4
100
AcDbEntity
  8
SK1
100
AcDbVertex
100
AcDb2dVertex
 10
-4.792479000003652
 20
2.156021000000007
 30
0.0
  0
VERTEX
  5
DB6
330
DB4
100
AcDbEntity
  8
SK1
100
AcDbVertex
100
AcDb2dVertex
 10
-4.722875000003623
 20
2.107372000000053
 30
0.0
  0
VERTEX
  5
DB7
330
DB4
100
AcDbEntity
  8
SK1
100
AcDbVertex
100
AcDb2dVertex
 10
-4.649114000003633
 20
2.099992000000042
 30
0.0
  0
VERTEX
  5
DB8
330
DB4
100
AcDbEntity
  8
SK1
100
AcDbVertex
100
AcDb2dVertex
 10
-4.329350000003643
 20
2.099967999999988
 30
0.0
  0
SEQEND
  5
DB9
330
DB4
100
AcDbEntity
  8
SK1
  0
POLYLINE
  5
DBA
330
18
100
AcDbEntity
  8
SK1
100
AcDb2dPolyline
 66
     1
 10
0.0
 20
0.0
 30
0.0
  0
VERTEX
  5
DBB
330
DBA
100
AcDbEntity
  8
SK1
100
AcDbVertex
100
AcDb2dVertex
 10
-5.707089000003632
 20
-2.506343000000015
 30
0.0
  0
VERTEX
  5
DBC
330
DBA
100
AcDbEntity
  8
SK1
100
AcDbVertex
100
AcDb2dVertex
 10
-5.582858000003625
 20
-2.322674000000004
 30
0.0
  0
VERTEX
  5
DBD
330
DBA
100
AcDbEntity
  8
SK1
100
AcDbVertex
100
AcDb2dVertex
 10
-5.515613000003638
 20
-2.113878999999995
 30
0.0
  0
SEQEND
  5
DBE
330
DBA
100
AcDbEntity
  8
SK1
  0
POLYLINE
  5
DBF
330
18
100
AcDbEntity
  8
SK1
100
AcDb2dPolyline
 66
     1
 10
0.0
 20
0.0
 30
0.0
  0
VERTEX
  5
DC0
330
DBF
100
AcDbEntity
  8
SK1
100
AcDbVertex
100
AcDb2dVertex
 10
-5.532481000003656
 20
-2.156023000000004
 30
0.0
  0
VERTEX
  5
DC1
330
DBF
100
AcDbEntity
  8
SK1
100
AcDbVertex
100
AcDb2dVertex
 10
-5.463624000003619
 20
-2.107597999999939
 30
0.0
  0
VERTEX
  5
DC2
330
DBF
100
AcDbEntity
  8
SK1
100
AcDbVertex
100
AcDb2dVertex
 10
-5.390970000003619
 20
-2.099989999999934
 30
0.0
  0
VERTEX
  5
DC3
330
DBF
100
AcDbEntity
  8
SK1
100
AcDbVertex
100
AcDb2dVertex
 10
-5.069354000003642
 20
-2.099968999999985
 30
0.0
  0
SEQEND
  5
DC4
330
DBF
100
AcDbEntity
  8
SK1
  0
LINE
  5
DC5
330
18
100
AcDbEntity
  8
SK1
100
AcDbLine
 10
-6.322872000003656
 20
2.322721999999997
 30
0.0
 11
-6.255661000003641
 21
2.114025000000083
 31
0.0
  0
POLYLINE
  5
DC6
330
18
100
AcDbEntity
  8
SK1
100
AcDb2dPolyline
 66
     1
 10
0.0
 20
0.0
 30
0.0
  0
VERTEX
  5
DC7
330
DC6
100
AcDbEntity
  8
SK1
100
AcDbVertex
100
AcDb2dVertex
 10
-6.272480000003638
 20
2.156023000000004
 30
0.0
  0
VERTEX
  5
DC8
330
DC6
100
AcDbEntity
  8
SK1
100
AcDbVertex
100
AcDb2dVertex
 10
-6.203677000003636
 20
2.107613000000014
 30
0.0
  0
VERTEX
  5
DC9
330
DC6
100
AcDbEntity
  8
SK1
100
AcDbVertex
100
AcDb2dVertex
 10
-6.131148000003632
 20
2.099990000000045
 30
0.0
  0
VERTEX
  5
DCA
330
DC6
100
AcDbEntity
  8
SK1
100
AcDbVertex
100
AcDb2dVertex
 10
-5.809356000003647
 20
2.099968999999985
 30
0.0
  0
SEQEND
  5
DCB
330
DC6
100
AcDbEntity
  8
SK1
  0
POLYLINE
  5
DCC
330
18
100
AcDbEntity
  8
SK1
100
AcDb2dPolyline
 66
     1
 10
0.0
 20
0.0
 30
0.0
  0
VERTEX
  5
DCD
330
DCC
100
AcDbEntity
  8
SK1
100
AcDbVertex
100
AcDb2dVertex
 10
-6.966650000003652
 20
-2.117148999999926
 30
0.0
  0
VERTEX
  5
DCE
330
DCC
100
AcDbEntity
  8
SK1
100
AcDbVertex
100
AcDb2dVertex
 10
-6.905897000003648
 20
-2.10036500000001
 30
0.0
  0
VERTEX
  5
DCF
330
DCC
100
AcDbEntity
  8
SK1
100
AcDbVertex
100
AcDb2dVertex
 10
-6.788140000003638
 20
-2.100008000000002
 30
0.0
  0
VERTEX
  5
DD0
330
DCC
100
AcDbEntity
  8
SK1
100
AcDbVertex
100
AcDb2dVertex
 10
-6.549360000003643
 20
-2.099967999999988
 30
0.0
  0
SEQEND
  5
DD1
330
DCC
100
AcDbEntity
  8
SK1
  0
POLYLINE
  5
DD2
330
18
100
AcDbEntity
  8
SK1
100
AcDb2dPolyline
 66
     1
 10
0.0
 20
0.0
 30
0.0
  0
VERTEX
  5
DD3
330
DD2
100
AcDbEntity
  8
SK1
100
AcDbVertex
100
AcDb2dVertex
 10
-2.849345000003636
 20
2.09997700000008
 30
0.0
  0
VERTEX
  5
DD4
330
DD2
100
AcDbEntity
  8
SK1
100
AcDbVertex
100
AcDb2dVertex
 10
-2.758076000003625
 20
2.129268000000024
 30
0.0
  0
VERTEX
  5
DD5
330
DD2
100
AcDbEntity
  8
SK1
100
AcDbVertex
100
AcDb2dVertex
 10
-2.732760000003622
 20
2.154583000000001
 30
0.0
  0
VERTEX
  5
DD6
330
DD2
100
AcDbEntity
  8
SK1
100
AcDbVertex
100
AcDb2dVertex
 10
-2.731876000003635
 20
2.155871000000046
 30
0.0
  0
VERTEX
  5
DD7
330
DD2
100
AcDbEntity
  8
SK1
100
AcDbVertex
100
AcDb2dVertex
 10
-2.734197000003631
 20
2.151472000000012
 30
0.0
  0
VERTEX
  5
DD8
330
DD2
100
AcDbEntity
  8
SK1
100
AcDbVertex
100
AcDb2dVertex
 10
-2.746868000003644
 20
2.119596
 30
0.0
  0
VERTEX
  5
DD9
330
DD2
100
AcDbEntity
  8
SK1
100
AcDbVertex
100
AcDb2dVertex
 10
-2.746062000003631
 20
2.122351999999978
 30
0.0
  0
VERTEX
  5
DDA
330
DD2
100
AcDbEntity
  8
SK1
100
AcDbVertex
100
AcDb2dVertex
 10
-2.674979000003645
 20
2.341097999999988
 30
0.0
  0
VERTEX
  5
DDB
330
DD2
100
AcDbEntity
  8
SK1
100
AcDbVertex
100
AcDb2dVertex
 10
-2.621042000003626
 20
2.448166000000014
 30
0.0
  0
VERTEX
  5
DDC
330
DD2
100
AcDbEntity
  8
SK1
100
AcDbVertex
100
AcDb2dVertex
 10
-2.557227000003647
 20
2.506341000000019
 30
0.0
  0
SEQEND
  5
DDD
330
DD2
100
AcDbEntity
  8
SK1
  0
POLYLINE
  5
DDE
330
18
100
AcDbEntity
  8
SK1
100
AcDb2dPolyline
 66
     1
 10
0.0
 20
0.0
 30
0.0
  0
VERTEX
  5
DDF
330
DDE
100
AcDbEntity
  8
SK1
100
AcDbVertex
100
AcDb2dVertex
 10
-3.589349000003636
 20
-2.099967999999988
 30
0.0
  0
VERTEX
  5
DE0
330
DDE
100
AcDbEntity
  8
SK1
100
AcDbVertex
100
AcDb2dVertex
 10
-3.49807800000363
 20
-2.129258999999933
 30
0.0
  0
VERTEX
  5
DE1
330
DDE
100
AcDbEntity
  8
SK1
100
AcDbVertex
100
AcDb2dVertex
 10
-3.472187000003628
 20
-2.155435000000009
 30
0.0
  0
VERTEX
  5
DE2
330
DDE
100
AcDbEntity
  8
SK1
100
AcDbVertex
100
AcDb2dVertex
 10
-3.474200000003633
 20
-2.151460999999926
 30
0.0
  0
VERTEX
  5
DE3
330
DDE
100
AcDbEntity
  8
SK1
100
AcDbVertex
100
AcDb2dVertex
 10
-3.486875000003633
 20
-2.119572999999945
 30
0.0
  0
VERTEX
  5
DE4
330
DDE
100
AcDbEntity
  8
SK1
100
AcDbVertex
100
AcDb2dVertex
 10
-3.47749200000362
 20
-2.148802999999928
 30
0.0
  0
VERTEX
  5
DE5
330
DDE
100
AcDbEntity
  8
SK1
100
AcDbVertex
100
AcDb2dVertex
 10
-3.415002000003652
 20
-2.341030999999929
 30
0.0
  0
VERTEX
  5
DE6
330
DDE
100
AcDbEntity
  8
SK1
100
AcDbVertex
100
AcDb2dVertex
 10
-3.355215000003622
 20
-2.455727000000023
 30
0.0
  0
VERTEX
  5
DE7
330
DDE
100
AcDbEntity
  8
SK1
100
AcDbVertex
100
AcDb2dVertex
 10
-3.297229000003625
 20
-2.506329999999933
 30
0.0
  0
SEQEND
  5
DE8
330
DDE
100
AcDbEntity
  8
SK1
  0
ARC
  5
DE9
330
18
100
AcDbEntity
  8
SK1
100
AcDbCircle
 10
-4.32553500000364
 20
2.24479700000006
 30
0.0
 40
0.144686
100
AcDbArc
 50
268.4911169999997
 51
321.9931860000013
  0
POLYLINE
  5
DEA
330
18
100
AcDbEntity
  8
SK1
100
AcDb2dPolyline
 66
     1
 10
0.0
 20
0.0
 30
0.0
  0
VERTEX
  5
DEB
330
DEA
100
AcDbEntity
  8
SK1
100
AcDbVertex
100
AcDb2dVertex
 10
-4.226960000003629
 20
2.119327999999995
 30
0.0
  0
VERTEX
  5
DEC
330
DEA
100
AcDbEntity
  8
SK1
100
AcDbVertex
100
AcDb2dVertex
 10
-4.161685000003641
 20
2.321968000000083
 30
0.0
  0
VERTEX
  5
DED
330
DEA
100
AcDbEntity
  8
SK1
100
AcDbVertex
100
AcDb2dVertex
 10
-4.037210000003653
 20
2.50634000000002
 30
0.0
  0
SEQEND
  5
DEE
330
DEA
100
AcDbEntity
  8
SK1
  0
POLYLINE
  5
DEF
330
18
100
AcDbEntity
  8
SK1
100
AcDb2dPolyline
 66
     1
 10
0.0
 20
0.0
 30
0.0
  0
VERTEX
  5
DF0
330
DEF
100
AcDbEntity
  8
SK1
100
AcDbVertex
100
AcDb2dVertex
 10
-5.069354000003642
 20
-2.099968999999985
 30
0.0
  0
VERTEX
  5
DF1
330
DEF
100
AcDbEntity
  8
SK1
100
AcDbVertex
100
AcDb2dVertex
 10
-4.97807800000362
 20
-2.129259999999929
 30
0.0
  0
VERTEX
  5
DF2
330
DEF
100
AcDbEntity
  8
SK1
100
AcDbVertex
100
AcDb2dVertex
 10
-4.953878000003641
 20
-2.152991999999926
 30
0.0
  0
VERTEX
  5
DF3
330
DEF
100
AcDbEntity
  8
SK1
100
AcDbVertex
100
AcDb2dVertex
 10
-4.951773000003639
 20
-2.156129999999961
 30
0.0
  0
VERTEX
  5
DF4
330
DEF
100
AcDbEntity
  8
SK1
100
AcDbVertex
100
AcDb2dVertex
 10
-4.954210000003627
 20
-2.15143899999998
 30
0.0
  0
VERTEX
  5
DF5
330
DEF
100
AcDbEntity
  8
SK1
100
AcDbVertex
100
AcDb2dVertex
 10
-4.966900000003646
 20
-2.119497000000023
 30
0.0
  0
VERTEX
  5
DF6
330
DEF
100
AcDbEntity
  8
SK1
100
AcDbVertex
100
AcDb2dVertex
 10
-4.957512000003646
 20
-2.14874099999997
 30
0.0
  0
VERTEX
  5
DF7
330
DEF
100
AcDbEntity
  8
SK1
100
AcDbVertex
100
AcDb2dVertex
 10
-4.895917000003633
 20
-2.338497999999956
 30
0.0
  0
VERTEX
  5
DF8
330
DEF
100
AcDbEntity
  8
SK1
100
AcDbVertex
100
AcDb2dVertex
 10
-4.840883000003628
 20
-2.448372999999945
 30
0.0
  0
VERTEX
  5
DF9
330
DEF
100
AcDbEntity
  8
SK1
100
AcDbVertex
100
AcDb2dVertex
 10
-4.777229000003643
 20
-2.506330999999931
 30
0.0
  0
SEQEND
  5
DFA
330
DEF
100
AcDbEntity
  8
SK1
  0
ARC
  5
DFB
330
18
100
AcDbEntity
  8
SK1
100
AcDbCircle
 10
-5.805584000003647
 20
2.244938000000046
 30
0.0
 40
0.144829
100
AcDbArc
 50
268.5097710000002
 51
321.9293220000005
  0
POLYLINE
  5
DFC
330
18
100
AcDbEntity
  8
SK1
100
AcDb2dPolyline
 66
     1
 10
0.0
 20
0.0
 30
0.0
  0
VERTEX
  5
DFD
330
DFC
100
AcDbEntity
  8
SK1
100
AcDbVertex
100
AcDb2dVertex
 10
-5.706992000003651
 20
2.119233000000007
 30
0.0
  0
VERTEX
  5
DFE
330
DFC
100
AcDbEntity
  8
SK1
100
AcDbVertex
100
AcDb2dVertex
 10
-5.632638000003621
 20
2.347462000000064
 30
0.0
  0
VERTEX
  5
DFF
330
DFC
100
AcDbEntity
  8
SK1
100
AcDbVertex
100
AcDb2dVertex
 10
-5.517245000003637
 20
2.506321000000068
 30
0.0
  0
SEQEND
  5
E00
330
DFC
100
AcDbEntity
  8
SK1
  0
ARC
  5
E01
330
18
100
AcDbEntity
  8
SK1
100
AcDbCircle
 10
-6.545581000003638
 20
-2.244899999999915
 30
0.0
 40
0.144793
100
AcDbArc
 50
38.05262900000033
 51
91.49350599999971
  0
POLYLINE
  5
E02
330
18
100
AcDbEntity
  8
SK1
100
AcDb2dPolyline
 66
     1
 10
0.0
 20
0.0
 30
0.0
  0
VERTEX
  5
E03
330
E02
100
AcDbEntity
  8
SK1
100
AcDbVertex
100
AcDb2dVertex
 10
-6.447009000003646
 20
-2.119184000000018
 30
0.0
  0
VERTEX
  5
E04
330
E02
100
AcDbEntity
  8
SK1
100
AcDbVertex
100
AcDb2dVertex
 10
-6.374713000003621
 20
-2.341831999999953
 30
0.0
  0
VERTEX
  5
E05
330
E02
100
AcDbEntity
  8
SK1
100
AcDbVertex
100
AcDb2dVertex
 10
-6.257229000003632
 20
-2.506329999999933
 30
0.0
  0
SEQEND
  5
E06
330
E02
100
AcDbEntity
  8
SK1
  0
LINE
  5
E07
330
18
100
AcDbEntity
  8
SK1
100
AcDbLine
 10
-7.099523000003642
 20
-2.089594999999917
 30
0.0
 11
-6.987154000003641
 21
-2.119690999999988
 31
0.0
  0
MULTILEADER
  5
E08
330
18
100
AcDbEntity
  8
SK6
 92
      660
310
94020000180000000C00000016000000000000C00C00000033000000000000000C00000013000000993A0000A00000000B00000003D1E7D5623733C0E150674D20A63340000000000000000000000000000000000000000000000000000000000000F03F000000000000F03F00000000000000000000000000000000543035
310
0003000000010000000000000000000440000000000000F03F0000000000000000000000000000F03F000000000000000000000000000000000000000069736F63702E736878006500000000C00C00000033000000000000000C00000010000000070000000C00000016000000000000C00C00000012000000FF7F00000C00
310
000013000000010000000C0000001400000001000000540000000700000003000000B2D198525EE313C09C6D3EABEB9F114000000000000000005EAC1256866210C002C89C7FD396DC3F0000000000000000A8C50186DCD518C058C655F2C7430F4000000000000000000C00000013000000891300003C0000000600000002
310
000000AD4B4D6C9D5C16C064A834D2E7A0104000000000000000006F8916CD6E4127C0E150674D2026334000000000000000000C00000013000000112700003C00000006000000020000006F8916CD6E4127C0E150674D20263340000000000000000027A89BB8C0F927C0E150674D2026334000000000000000000C000000
310
16000000000000C00C00000012000000FF7F00000C00000017000000000000000C000000130000009A3A00003C000000060000000200000001D1E7D562D732C0E150674D20263340000000000000000023A89BB8C0F927C0E150674D2026334000000000000000000C00000016000000000000C00C00000012000000FF7F00
310
000C00000017000000FFFFFFFF0C0000003300000000000000
100
AcDbMLeader
300
CONTEXT_DATA{
 40
1.0
 10
-20.84135186109143
 20
20.89893039486276
 30
0.0
 41
2.5
140
4.0
145
2.0
174
     1
175
     6
176
     2
177
     0
290
     1
304
T05
 11
0.0
 21
0.0
 31
1.0
340
10
 12
-13.98779847049816
 22
22.14893039486276
 32
0.0
 13
1.0
 23
0.0
 33
0.0
 42
0.0
 43
0.0
 44
0.0
 45
1.0
170
     1
 90
-1073741824
171
     3
172
     5
 91
-1073741824
141
0.0
 92
 12312648
291
     0
292
     0
173
     0
293
     0
142
0.0
143
0.0
294
     0
295
     0
296
     0
110
-4.096215577020386
120
0.4467056986060244
130
0.0
111
1.0
121
0.0
131
0.0
112
0.0
122
1.0
132
0.0
297
     0
302
LEADER{
290
     1
291
     1
 10
-11.62779847049816
 20
19.14893039486276
 30
0.0
 11
-1.0
 21
0.0
 31
0.0
 90
        0
 40
0.36
304
LEADER_LINE{
 10
-4.096215577020386
 20
0.4467056986060244
 30
0.0
 91
        0
305
}
303
}
301
}
340
43D
 90
   345088
170
     1
 91
-1056964608
341
12
171
    -2
290
     1
291
     1
 41
0.36
 42
4.0
172
     2
343
10
173
     1
 95
        6
174
     1
175
     2
 92
-1056964608
292
     0
 93
-1056964608
 10
1.0
 20
1.0
 30
1.0
 43
0.0
176
     0
293
     0
294
     0
178
     0
179
     3
 45
1.0
1001
ACAD_MLEADERVER
1070
     2
  0
INSERT
  5
E0D
330
18
100
AcDbEntity
  8
SK2
100
AcDbBlockReference
  2
CERO_POINT
 10
-0.000000000003638
 20
0.0000000000001137
 30
0.0
 41
0.5
 42
0.5
 43
0.5
  0
DIMENSION
  5
E12
330
18
100
AcDbEntity
  8
2
100
AcDbDimension
  2
*D2
 10
9.746667999996359
 20
34.53000969662208
 30
0.0
 11
18.63449301756489
 21
34.53000969662208
 31
0.0
 70
   160
 71
     5
 42
9.746667999999996
  3
STANDARD
100
AcDbAlignedDimension
 13
-0.000000000003638
 23
3.798113160036336
 33
0.0
 14
9.746667999996359
 24
0.0
 34
0.0
100
AcDbRotatedDimension
1001
ACAD
1000
DSTYLE
1002
{
1070
   140
1040
2.5
1002
}
  0
DIMENSION
  5
E13
330
18
100
AcDbEntity
  8
2
100
AcDbDimension
  2
*D3
 10
7.411362775984001
 20
6.416198370508252
 30
0.0
 11
23.2228377456513
 21
0.0000000000034106
 31
0.0
 70
   162
 71
     5
 42
2.443460952792058
  3
STANDARD
100
AcDb2LineAngularDimension
 13
9.746667999996304
 23
0.0
 33
0.0
 14
7.411362775984001
 24
-6.416198370508141
 34
0.0
 15
9.746667999996304
 25
0.0
 35
0.0
 16
22.12070411950936
 26
-5.337638159963031
 36
0.0
1001
ACAD
1000
DSTYLE
1002
{
1070
   140
1040
2.5
1070
   179
1070
     0
1002
}
  0
DIMENSION
  5
E14
330
18
100
AcDbEntity
  8
SK2
100
AcDbDimension
  2
*D4
 10
6.045896039902827
 20
4.000000000000113
 30
0.0
 11
-8.1301113460201
 21
8.516964406157509
 31
0.0
 70
   162
 71
     5
 42
0.7853981633974249
  3
STANDARD
100
AcDb2LineAngularDimension
 13
2.71663603990305
 23
0.0
 33
0.0
 14
9.71663603990305
 24
0.0
 34
0.0
 15
9.614054039903036
 25
0.4318420000000743
 35
0.0
 16
-9.342666251687694
 26
5.195149608432113
 36
0.0
1001
ACAD
1000
DSTYLE
1002
{
1070
   140
1040
2.5
1070
   179
1070
     0
1002
}
  0
DIMENSION
  5
E15
330
18
100
AcDbEntity
  8
2
100
AcDbDimension
  2
*D5
 10
11.81290527949227
 20
-0.5000000000004556
 30
0.0
 11
11.81290527949227
 21
-14.01012129171323
 31
0.0
 70
   160
 71
     5
 42
1.000000000000454
  3
STANDARD
100
AcDbAlignedDimension
 13
9.622519931958748
 23
0.5
 33
0.0
 14
9.622519931959461
 24
-0.5000000000004548
 34
0.0
 50
90.0
100
AcDbRotatedDimension
1001
ACAD
1000
DSTYLE
1002
{
1070
     3
1000
%%C<>
1070
   140
1040
2.5
1002
}
  0
DIMENSION
  5
E16
330
18
100
AcDbEntity
  8
2
100
AcDbDimension
  2
*D6
 10
29.24973982644224
 20
-3.999999999999893
 30
0.0
 11
27.37473982644224
 21
-10.87598425196839
 31
0.0
 70
    32
 71
     5
 42
8.0
  3
DIAMETER
100
AcDbAlignedDimension
 13
5.966753825654791
 23
4.000000000000113
 33
0.0
 14
5.966753825654791
 24
-3.999999999999886
 34
0.0
 50
90.0
100
AcDbRotatedDimension
1001
ACAD
1000
DSTYLE
1002
{
1070
   140
1040
2.5
1070
     3
1000
%%C<>
1002
}
  0
DIMENSION
  5
E17
330
18
100
AcDbEntity
  8
SK2
100
AcDbDimension
  2
*D7
 10
-15.53261936201352
 20
-3.80188683996368
 30
0.0
 11
-17.40761936201352
 21
-10.67787109193218
 31
0.0
 70
    32
 71
     5
 42
7.600000000000019
  3
STANDARD
100
AcDbAlignedDimension
 13
-0.000000000003638
 23
3.798113160036336
 33
0.0
 14
-0.000000000003638
 24
-3.801886839963685
 34
0.0
 50
90.0
100
AcDbRotatedDimension
1001
ACAD
1000
DSTYLE
1002
{
1070
   140
1040
2.5
1070
     3
1000
%%C<>
1002
}
  0
DIMENSION
  5
E18
330
18
100
AcDbEntity
  8
2
100
AcDbDimension
  2
*D8
 10
6.046667999996372
 20
18.23265096593559
 30
0.0
 11
22.20688177264083
 21
18.23265096593559
 31
0.0
 70
   160
 71
     5
 42
3.699999999999986
  3
STANDARD
100
AcDbAlignedDimension
 13
9.746667999996359
 23
0.1076390000000629
 33
0.0
 14
6.046667999996372
 24
3.853247115573424
 34
0.0
100
AcDbRotatedDimension
1001
ACAD
1000
DSTYLE
1002
{
1070
   140
1040
2.5
1002
}
  0
DIMENSION
  5
E19
330
18
100
AcDbEntity
  8
2
100
AcDbDimension
  2
*D9
 10
2.746667999996361
 20
26.78835325542832
 30
0.0
 11
21.70769507462138
 21
26.78835325542832
 31
0.0
 70
   160
 71
     5
 42
6.999999999999997
  3
STANDARD
100
AcDbAlignedDimension
 13
9.746667999996359
 23
4.000000000000113
 33
0.0
 14
2.746667999996361
 24
4.000000000000113
 34
0.0
100
AcDbRotatedDimension
1001
ACAD
1000
DSTYLE
1002
{
1070
   140
1040
2.5
1002
}
  0
LWPOLYLINE
  5
E1A
330
18
100
AcDbEntity
  8
CUT
100
AcDbPolyline
 90
        6
 70
     1
 43
0.0
 10
9.746667999996359
 20
0.0000000000001137
 10
2.746667999996361
 20
0.0000000000001137
 10
2.746667999996347
 20
4.000000000000113
 10
6.075927999996167
 20
4.000000000000227
 10
9.622519931958748
 20
0.5
 10
9.746667999996359
 20
0.1076390000000629
  0
LWPOLYLINE
  5
E1B
330
18
100
AcDbEntity
  8
NOCUT
100
AcDbPolyline
 90
        7
 70
     1
 43
0.0
 10
-0.000000000003638
 20
0.0000000000001137
 10
-0.000000000003638
 20
3.798113160036336
 10
1.59055149117759
 20
3.798113160036336
 42
0.0708956172273575
 10
1.722515315991898
 20
3.816918995281013
 42
0.171133137797287
 10
1.977837175115539
 20
4.000000000000113
 10
2.746667999996361
 20
4.000000000000113
 10
2.746667999996361
 20
0.0000000000001137
  0
ATTDEF
  5
F94
330
18
100
AcDbEntity
  8
SK6
100
AcDbText
 10
1.39092250483138
 20
-31.60510821173013
 30
0.0
 40
3.5
  1

 72
     1
 11
20.18840987824666
 21
-31.60510821173013
 31
0.0
100
AcDbAttributeDefinition
  3

  2
45N08007TQRA45
 70
     0
  0
ENDSEC
  0
SECTION
  2
OBJECTS
  0
DICTIONARY
  5
C
330
0
100
AcDbDictionary
281
     1
  3
ACAD_CIP_PREVIOUS_PRODUCT_INFO
350
F69
  3
ACAD_COLOR
350
387
  3
ACAD_GROUP
350
D
  3
ACAD_LAYOUT
350
301
  3
ACAD_MATERIAL
350
386
  3
ACAD_MLEADERSTYLE
350
43C
  3
ACAD_MLINESTYLE
350
E
  3
ACAD_PLOTSETTINGS
350
302
  3
ACAD_PLOTSTYLENAME
350
2FF
  3
ACAD_SCALELIST
350
41A
  3
ACAD_TABLESTYLE
350
388
  3
ACAD_VISUALSTYLE
350
3F2
  3
ACDB_RECOMPOSE_DATA
350
102F
  3
AcDbVariableDictionary
350
357
  3
AEC_PROPERTY_SET_DEFS
350
5CF
  3
ASE_INDEX_DICTIONARY
350
69C
  0
DICTIONARY
  5
451
330
2
100
AcDbDictionary
280
     1
281
     1
  3
ACAD_LAYERFILTERS
360
6C6
  3
ACLYDICTIONARY
360
6C5
  0
DICTIONARY
  5
F3A
330
F
100
AcDbDictionary
280
     1
281
     1
  3
ADSK_XREC_LAYER_RECONCILED
360
F3B
  0
DICTIONARY
  5
F3C
330
23
100
AcDbDictionary
280
     1
281
     1
  3
ADSK_XREC_LAYER_RECONCILED
360
F3D
  0
DICTIONARY
  5
F3E
330
24
100
AcDbDictionary
280
     1
281
     1
  3
ADSK_XREC_LAYER_RECONCILED
360
F3F
  0
DICTIONARY
  5
F40
330
25
100
AcDbDictionary
280
     1
281
     1
  3
ADSK_XREC_LAYER_RECONCILED
360
F41
  0
DICTIONARY
  5
F42
330
27
100
AcDbDictionary
280
     1
281
     1
  3
ADSK_XREC_LAYER_RECONCILED
360
F43
  0
DICTIONARY
  5
F44
330
2A
100
AcDbDictionary
280
     1
281
     1
  3
ADSK_XREC_LAYER_RECONCILED
360
F45
  0
DICTIONARY
  5
F46
330
2B
100
AcDbDictionary
280
     1
281
     1
  3
ADSK_XREC_LAYER_RECONCILED
360
F47
  0
DICTIONARY
  5
F48
330
2E
100
AcDbDictionary
280
     1
281
     1
  3
ADSK_XREC_LAYER_RECONCILED
360
F49
  0
DICTIONARY
  5
F4A
330
375
100
AcDbDictionary
280
     1
281
     1
  3
ADSK_XREC_LAYER_RECONCILED
360
F4B
  0
DICTIONARY
  5
F4C
330
376
100
AcDbDictionary
280
     1
281
     1
  3
ADSK_XREC_LAYER_RECONCILED
360
F4D
  0
DICTIONARY
  5
F95
330
18
100
AcDbDictionary
280
     1
281
     1
  3
ACAD_SORTENTS
360
F96
  0
XRECORD
  5
F69
102
{ACAD_REACTORS
330
C
102
}
330
C
100
AcDbXrecord
280
     1
300
ACDLT
300
2012
300
ACDLT_F_S
  0
DICTIONARY
  5
387
102
{ACAD_REACTORS
330
C
102
}
330
C
100
AcDbDictionary
281
     1
  0
DICTIONARY
  5
D
102
{ACAD_REACTORS
330
C
102
}
330
C
100
AcDbDictionary
281
     1
  0
DICTIONARY
  5
301
102
{ACAD_REACTORS
330
C
102
}
330
C
100
AcDbDictionary
281
     1
  3
Layout1
350
33B
  3
Model
350
303
  0
DICTIONARY
  5
386
102
{ACAD_REACTORS
330
C
102
}
330
C
100
AcDbDictionary
281
     1
  3
ByBlock
350
3F0
  3
ByLayer
350
3EF
  3
Global
350
3F1
  0
DICTIONARY
  5
43C
102
{ACAD_REACTORS
330
C
102
}
330
C
100
AcDbDictionary
281
     1
  3
Standard
350
43D
  0
DICTIONARY
  5
E
102
{ACAD_REACTORS
330
C
102
}
330
C
100
AcDbDictionary
281
     1
  3
STANDARD
350
1B
  0
DICTIONARY
  5
302
102
{ACAD_REACTORS
330
C
102
}
330
C
100
AcDbDictionary
281
     1
  0
ACDBDICTIONARYWDFLT
  5
2FF
102
{ACAD_REACTORS
330
C
102
}
330
C
100
AcDbDictionary
281
     1
  3
Normal
350
300
100
AcDbDictionaryWithDefault
340
300
  0
DICTIONARY
  5
41A
102
{ACAD_REACTORS
330
C
102
}
330
C
100
AcDbDictionary
281
     1
  3
A0
350
41B
  3
A1
350
41C
  3
A2
350
41D
  3
A3
350
41E
  3
A4
350
41F
  3
A5
350
420
  3
A6
350
421
  3
A7
350
422
  3
A8
350
423
  3
A9
350
424
  3
B0
350
425
  3
B1
350
426
  3
B2
350
427
  3
B3
350
428
  3
B4
350
429
  3
B5
350
42A
  3
B6
350
42B
  3
B7
350
42C
  3
B8
350
42D
  3
B9
350
42E
  3
C0
350
42F
  3
C1
350
430
  3
C2
350
431
  3
C3
350
432
  3
C4
350
433
  3
C5
350
434
  3
C6
350
435
  3
C7
350
436
  3
C8
350
437
  3
C9
350
438
  3
D0
350
439
  3
D1
350
43A
  3
D2
350
43B
  0
DICTIONARY
  5
388
102
{ACAD_REACTORS
330
C
102
}
330
C
100
AcDbDictionary
281
     1
  3
Standard
350
389
  0
DICTIONARY
  5
3F2
102
{ACAD_REACTORS
330
C
102
}
330
C
100
AcDbDictionary
281
     1
  3
2dWireframe
350
3F8
  3
3D Hidden
350
3FA
  3
3dWireframe
350
3F9
  3
Basic
350
3F7
  3
Brighten
350
3FE
  3
ColorChange
350
402
  3
Conceptual
350
3FB
  3
Dim
350
3FD
  3
EdgeColorOff
350
F67
  3
Facepattern
350
401
  3
Flat
350
3F3
  3
FlatWithEdges
350
3F4
  3
Gouraud
350
3F5
  3
GouraudWithEdges
350
3F6
  3
Hidden
350
F5F
  3
JitterOff
350
F65
  3
Linepattern
350
400
  3
OverhangOff
350
F66
  3
Realistic
350
3FC
  3
Shaded
350
F64
  3
Shaded with edges
350
F63
  3
Shades of Gray
350
F60
  3
Sketchy
350
F61
  3
Thicken
350
3FF
  3
Wireframe
350
F5E
  3
X-Ray
350
F62
  0
XRECORD
  5
102F
102
{ACAD_REACTORS
330
C
102
}
330
C
100
AcDbXrecord
280
     1
 90
        1
330
389
  0
DICTIONARY
  5
357
102
{ACAD_REACTORS
330
C
102
}
330
C
100
AcDbDictionary
281
     1
  3
CANNOSCALE
350
449
  3
CMLEADERSTYLE
350
447
  3
CTABLESTYLE
350
38E
  3
DIMASSOC
350
359
  3
HIDETEXT
350
358
  3
LIGHTINGUNITS
350
44A
  3
MSLTSCALE
350
448
  0
DICTIONARY
  5
5CF
102
{ACAD_REACTORS
330
C
102
}
330
C
100
AcDbDictionary
281
     1
  0
DICTIONARY
  5
69C
102
{ACAD_REACTORS
330
C
102
}
330
C
100
AcDbDictionary
281
     1
  3
ASEBlockHierarchyIndexRecord
350
69D
1001
DCO15
1040
1680501600.633
  0
DICTIONARY
  5
6C6
102
{ACAD_REACTORS
330
451
102
}
330
451
100
AcDbDictionary
281
     1
  0
DICTIONARY
  5
6C5
102
{ACAD_REACTORS
330
451
102
}
330
451
100
AcDbDictionary
281
     1
1001
ACAD
1000
<All
  0
XRECORD
  5
F3B
102
{ACAD_REACTORS
330
F3A
102
}
330
F3A
100
AcDbXrecord
280
     1
290
     1
  0
XRECORD
  5
F3D
102
{ACAD_REACTORS
330
F3C
102
}
330
F3C
100
AcDbXrecord
280
     1
290
     1
  0
XRECORD
  5
F3F
102
{ACAD_REACTORS
330
F3E
102
}
330
F3E
100
AcDbXrecord
280
     1
290
     1
  0
XRECORD
  5
F41
102
{ACAD_REACTORS
330
F40
102
}
330
F40
100
AcDbXrecord
280
     1
290
     1
  0
XRECORD
  5
F43
102
{ACAD_REACTORS
330
F42
102
}
330
F42
100
AcDbXrecord
280
     1
290
     1
  0
XRECORD
  5
F45
102
{ACAD_REACTORS
330
F44
102
}
330
F44
100
AcDbXrecord
280
     1
290
     1
  0
XRECORD
  5
F47
102
{ACAD_REACTORS
330
F46
102
}
330
F46
100
AcDbXrecord
280
     1
290
     1
  0
XRECORD
  5
F49
102
{ACAD_REACTORS
330
F48
102
}
330
F48
100
AcDbXrecord
280
     1
290
     1
  0
XRECORD
  5
F4B
102
{ACAD_REACTORS
330
F4A
102
}
330
F4A
100
AcDbXrecord
280
     1
290
     1
  0
XRECORD
  5
F4D
102
{ACAD_REACTORS
330
F4C
102
}
330
F4C
100
AcDbXrecord
280
     1
290
     1
  0
SORTENTSTABLE
  5
F96
102
{ACAD_REACTORS
330
F95
102
}
330
F95
100
AcDbSortentsTable
330
18
331
DE9
  5
DE9
331
D73
  5
D73
331
D05
  5
D05
331
DBA
  5
DBA
331
E01
  5
E01
331
D8B
  5
D8B
331
E16
  5
F8F
331
AEA
  5
AEA
331
AFA
  5
AFA
331
B5C
  5
B5C
331
B93
  5
B93
331
BDA
  5
BDA
331
C87
  5
C87
331
CC6
  5
CC6
331
B25
  5
B25
331
B9B
  5
B9B
331
B6C
  5
B6C
331
CCE
  5
CCE
331
CD6
  5
CD6
331
B74
  5
B74
331
BAB
  5
BAB
331
DD2
  5
DD2
331
D93
  5
D93
331
D64
  5
D64
331
B7C
  5
B7C
331
C29
  5
C29
331
BFA
  5
BFA
331
C31
  5
C31
331
CE6
  5
CE6
331
CAF
  5
CAF
331
BC3
  5
BC3
331
C02
  5
C02
331
C39
  5
C39
331
C41
  5
C41
331
BCB
  5
BCB
331
CB7
  5
CB7
331
CBF
  5
CBF
331
DEA
  5
DEA
331
D74
  5
D74
331
D7C
  5
D7C
331
D06
  5
D06
331
D8C
  5
D8C
331
E02
  5
E02
331
AE3
  5
AE3
331
AEB
  5
AEB
331
E17
  5
F90
331
AFB
  5
AFB
331
B94
  5
B94
331
B5D
  5
B5D
331
C0A
  5
C0A
331
CC7
  5
CC7
331
B65
  5
B65
331
B9C
  5
B9C
331
B26
  5
B26
331
BDB
  5
BDB
331
C88
  5
C88
331
CCF
  5
CCF
331
B6D
  5
B6D
331
C59
  5
C59
331
B2E
  5
B2E
331
CD7
  5
CD7
331
B75
  5
B75
331
BAC
  5
BAC
331
C61
  5
C61
331
D94
  5
D94
331
D65
  5
D65
331
DA4
  5
DA4
331
B03
  5
B03
331
C2A
  5
C2A
331
C32
  5
C32
331
B85
  5
B85
331
BFB
  5
BFB
331
CA8
  5
CA8
331
CB0
  5
CB0
331
CEF
  5
CEF
331
C3A
  5
C3A
331
C79
  5
C79
331
BC4
  5
BC4
331
C03
  5
C03
331
CB8
  5
CB8
331
BCC
  5
BCC
331
DB4
  5
DB4
331
D75
  5
D75
331
D7D
  5
D7D
331
D4E
  5
D4E
331
DFB
  5
DFB
331
DCC
  5
DCC
331
D8D
  5
D8D
331
AE4
  5
AE4
331
E18
  5
F91
331
AEC
  5
AEC
331
AFC
  5
AFC
331
C0B
  5
C0B
331
CC0
  5
CC0
331
B5E
  5
B5E
331
B95
  5
B95
331
C89
  5
C89
331
C13
  5
C13
331
CC8
  5
CC8
331
CD0
  5
CD0
331
CD8
  5
CD8
331
B76
  5
B76
331
C62
  5
C62
331
D95
  5
D95
331
E08
  5
E08
331
B0C
  5
B0C
331
B14
  5
B14
331
CA1
  5
CA1
331
C2B
  5
C2B
331
C6A
  5
C6A
331
CA9
  5
CA9
331
B47
  5
B47
331
C33
  5
C33
331
CB1
  5
CB1
331
BC5
  5
BC5
331
B4F
  5
B4F
331
C04
  5
C04
331
C3B
  5
C3B
331
CF0
  5
CF0
331
CB9
  5
CB9
331
D7E
  5
D7E
331
DC5
  5
DC5
331
DFC
  5
DFC
331
D4F
  5
D4F
331
D86
  5
D86
331
D8E
  5
D8E
331
AE5
  5
AE5
331
E19
  5
F92
331
AED
  5
AED
331
B18
  5
B18
331
CC1
  5
CC1
331
B96
  5
B96
331
B20
  5
B20
331
B5F
  5
B5F
331
CC9
  5
CC9
331
C14
  5
C14
331
C8A
  5
C8A
331
C92
  5
C92
331
CD1
  5
CD1
331
BA6
  5
BA6
331
BED
  5
BED
331
B77
  5
B77
331
CD9
  5
CD9
331
D96
  5
D96
331
D9E
  5
D9E
331
B0D
  5
B0D
331
B15
  5
B15
331
C6B
  5
C6B
331
CA2
  5
CA2
331
BB6
  5
BB6
331
B40
  5
B40
331
C2C
  5
C2C
331
C34
  5
C34
331
B48
  5
B48
331
CAA
  5
CAA
331
CB2
  5
CB2
331
C3C
  5
C3C
331
BC6
  5
BC6
331
B50
  5
B50
331
CBA
  5
CBA
331
D38
  5
D38
331
D7F
  5
D7F
331
D87
  5
D87
331
DC6
  5
DC6
331
D8F
  5
D8F
331
E12
  5
F8B
331
AE6
  5
AE6
331
E1A
  5
F93
331
AEE
  5
AEE
331
AF6
  5
AF6
331
B19
  5
B19
331
CC2
  5
CC2
331
B21
  5
B21
331
B97
  5
B97
331
C8B
  5
C8B
331
C15
  5
C15
331
CCA
  5
CCA
331
CD2
  5
CD2
331
BA7
  5
BA7
331
BE6
  5
BE6
331
C93
  5
C93
331
CDA
  5
CDA
331
C25
  5
C25
331
BEE
  5
BEE
331
C9B
  5
C9B
331
D58
  5
D58
331
D21
  5
D21
331
D97
  5
D97
331
DDE
  5
DDE
331
DAF
  5
DAF
331
B0E
  5
B0E
331
B16
  5
B16
331
B78
  5
B78
331
BF6
  5
BF6
331
C2D
  5
C2D
331
BB7
  5
BB7
331
C6C
  5
C6C
331
C35
  5
C35
331
BBF
  5
BBF
331
BC7
  5
BC7
331
CB3
  5
CB3
331
CBB
  5
CBB
331
D70
  5
D70
331
D39
  5
D39
331
DBF
  5
DBF
331
D80
  5
D80
331
D88
  5
D88
331
AE7
  5
AE7
331
E13
  5
F8C
331
E1B
  5
F94
331
AEF
  5
AEF
331
AF7
  5
AF7
331
B90
  5
B90
331
B1A
  5
B1A
331
B59
  5
B59
331
CC3
  5
CC3
331
B98
  5
B98
331
C4D
  5
C4D
331
B22
  5
B22
331
C16
  5
C16
331
CCB
  5
CCB
331
C94
  5
C94
331
BE7
  5
BE7
331
C1E
  5
C1E
331
CD3
  5
CD3
331
BA8
  5
BA8
331
BEF
  5
BEF
331
C26
  5
C26
331
D90
  5
D90
331
D59
  5
D59
331
D98
  5
D98
331
D2A
  5
D2A
331
D32
  5
D32
331
B17
  5
B17
331
B79
  5
B79
331
C6D
  5
C6D
331
BB8
  5
BB8
331
BF7
  5
BF7
331
C2E
  5
C2E
331
C36
  5
C36
331
BC0
  5
BC0
331
CB4
  5
CB4
331
BC8
  5
BC8
331
CBC
  5
CBC
331
CFB
  5
CFB
331
D71
  5
D71
331
D42
  5
D42
331
DEF
  5
DEF
331
D0B
  5
D0B
331
D89
  5
D89
331
D13
  5
D13
331
E07
  5
E07
331
E14
  5
F8D
331
AE8
  5
AE8
331
AF8
  5
AF8
331
F94
  5
F85
331
B5A
  5
B5A
331
B91
  5
B91
331
B1B
  5
B1B
331
C85
  5
C85
331
CC4
  5
CC4
331
BD8
  5
BD8
331
B23
  5
B23
331
B99
  5
B99
331
C4E
  5
C4E
331
C17
  5
C17
331
CCC
  5
CCC
331
CD4
  5
CD4
331
C1F
  5
C1F
331
BA9
  5
BA9
331
C95
  5
C95
331
C27
  5
C27
331
D1B
  5
D1B
331
D91
  5
D91
331
D99
  5
D99
331
D2B
  5
D2B
331
DA9
  5
DA9
331
B7A
  5
B7A
331
B3B
  5
B3B
331
BF8
  5
BF8
331
C2F
  5
C2F
331
BC1
  5
BC1
331
C37
  5
C37
331
BC9
  5
BC9
331
CB5
  5
CB5
331
CBD
  5
CBD
331
D72
  5
D72
331
CFC
  5
CFC
331
D43
  5
D43
331
D0C
  5
D0C
331
D8A
  5
D8A
331
D14
  5
D14
331
AE9
  5
AE9
331
E15
  5
F8E
331
AF9
  5
AF9
331
B92
  5
B92
331
BD1
  5
BD1
331
B5B
  5
B5B
331
CC5
  5
CC5
331
B9A
  5
B9A
331
B24
  5
B24
331
BD9
  5
BD9
331
C86
  5
C86
331
C18
  5
C18
331
CCD
  5
CCD
331
C96
  5
C96
331
CD5
  5
CD5
331
B34
  5
B34
331
BAA
  5
BAA
331
D92
  5
D92
331
D1C
  5
D1C
331
D2C
  5
D2C
331
E0D
  5
F86
331
B7B
  5
B7B
331
C28
  5
C28
331
C30
  5
C30
331
CE5
  5
CE5
331
BF9
  5
BF9
331
C38
  5
C38
331
BC2
  5
BC2
331
C01
  5
C01
331
CB6
  5
CB6
331
BCA
  5
BCA
331
CBE
  5
CBE
  0
LAYOUT
  5
33B
102
{ACAD_REACTORS
330
301
102
}
330
301
100
AcDbPlotSettings
  1

  2
Lexmark Optra PS2
  4

  6

 40
0.0
 41
0.0
 42
0.0
 43
0.0
 44
0.0
 45
0.0
 46
0.0
 47
0.0
 48
0.0
 49
0.0
140
0.0
141
0.0
142
1.0
143
1.0
 70
   688
 72
     0
 73
     0
 74
     5
  7
monochrome.ctb
 75
    16
147
1.0
 76
     0
 77
     2
 78
   300
148
0.0
149
0.0
100
AcDbLayout
  1
Layout1
 70
     1
 71
     1
 10
0.0
 20
0.0
 11
12.0
 21
9.0
 12
0.0
 22
0.0
 32
0.0
 14
0.0
 24
0.0
 34
0.0
 15
0.0
 25
0.0
 35
0.0
146
0.0
 13
0.0
 23
0.0
 33
0.0
 16
1.0
 26
0.0
 36
0.0
 17
0.0
 27
1.0
 37
0.0
 76
     0
330
338
  0
LAYOUT
  5
303
102
{ACAD_REACTORS
330
301
102
}
330
301
100
AcDbPlotSettings
  1

  2
Default Windows System Printer.pc3
  4
A4
  6

 40
6.805083274841307
 41
5.535083293914794
 42
6.974411010742187
 43
7.14373779296875
 44
209.9733276367186
 45
296.9259948730469
 46
67.83299579489725
 47
0.0
 48
0.0
 49
0.0
140
0.0
141
0.0
142
1.0
143
0.3604333568168785
 70
  3764
 72
     1
 73
     1
 74
     1
  7
monochrome.ctb
 75
     0
147
2.774437995504559
 76
     1
 77
     2
 78
   300
148
-82.35087775247029
149
-53.69369632994493
100
AcDbLayout
  1
Model
 70
     1
 71
     0
 10
0.0
 20
0.0
 11
12.0
 21
9.0
 12
0.0
 22
0.0
 32
0.0
 14
0.0
 24
0.0
 34
0.0
 15
0.0
 25
0.0
 35
0.0
146
0.0
 13
0.0
 23
0.0
 33
0.0
 16
1.0
 26
0.0
 36
0.0
 17
0.0
 27
1.0
 37
0.0
 76
     0
330
18
331
3ED
1001
ACAD_PSEXT
1000
Default Windows System Printer.pc3
1000
Lexmark Optra Rx
1000
Lexmark Rx
1000
Erstellt von Lexmark Benutzerdefinierte Installation,Nov 13,2005,10:03
1070
     0
  0
MATERIAL
  5
3F0
102
{ACAD_XDICTIONARY
360
F57
102
}
102
{ACAD_REACTORS
330
386
102
}
330
386
100
AcDbMaterial
  1
ByBlock
 73
     1
 78
     1
172
     1
176
     1
270
     1
274
     1
  0
MATERIAL
  5
3EF
102
{ACAD_XDICTIONARY
360
F55
102
}
102
{ACAD_REACTORS
330
386
102
}
330
386
100
AcDbMaterial
  1
ByLayer
 73
     1
 78
     1
172
     1
176
     1
270
     1
274
     1
  0
MATERIAL
  5
3F1
102
{ACAD_XDICTIONARY
360
F59
102
}
102
{ACAD_REACTORS
330
386
102
}
330
386
100
AcDbMaterial
  1
Global
 73
     1
 78
     1
172
     1
176
     1
270
     1
274
     1
  0
MLEADERSTYLE
  5
43D
102
{ACAD_REACTORS
330
43C
330
E08
102
}
330
43C
100
AcDbMLeaderStyle
170
     2
171
     1
172
     0
 90
        2
 40
0.0
 41
0.0
173
     1
 91
-1056964608
340
12
 92
       -2
290
     1
 42
2.0
291
     1
 43
0.36
  3
Standard
 44
4.0
300

342
10
174
     1
178
     6
175
     1
176
     0
 93
-1056964608
 45
4.0
292
     0
297
     0
 46
4.0
 94
-1056964608
 47
1.0
 49
1.0
140
1.0
293
     1
141
0.0
294
     1
177
     0
142
1.0
295
     0
296
     0
143
0.125
1001
ACAD_MLEADERVER
1070
     2
  0
MLINESTYLE
  5
1B
102
{ACAD_REACTORS
330
E
102
}
330
E
100
AcDbMlineStyle
  2
STANDARD
 70
     0
  3

 62
     0
 51
90.0
 52
90.0
 71
     2
 49
0.5
 62
   256
  6
BYLAYER
 49
-0.5
 62
   256
  6
BYLAYER
  0
ACDBPLACEHOLDER
  5
300
102
{ACAD_REACTORS
330
2FF
102
}
330
2FF
  0
SCALE
  5
41B
102
{ACAD_REACTORS
330
41A
102
}
330
41A
100
AcDbScale
 70
     0
300
1:1
140
1.0
141
1.0
290
     1
  0
SCALE
  5
41C
102
{ACAD_REACTORS
330
41A
102
}
330
41A
100
AcDbScale
 70
     0
300
1:2
140
1.0
141
2.0
290
     0
  0
SCALE
  5
41D
102
{ACAD_REACTORS
330
41A
102
}
330
41A
100
AcDbScale
 70
     0
300
1:4
140
1.0
141
4.0
290
     0
  0
SCALE
  5
41E
102
{ACAD_REACTORS
330
41A
102
}
330
41A
100
AcDbScale
 70
     0
300
1:5
140
1.0
141
5.0
290
     0
  0
SCALE
  5
41F
102
{ACAD_REACTORS
330
41A
102
}
330
41A
100
AcDbScale
 70
     0
300
1:8
140
1.0
141
8.0
290
     0
  0
SCALE
  5
420
102
{ACAD_REACTORS
330
41A
102
}
330
41A
100
AcDbScale
 70
     0
300
1:10
140
1.0
141
10.0
290
     0
  0
SCALE
  5
421
102
{ACAD_REACTORS
330
41A
102
}
330
41A
100
AcDbScale
 70
     0
300
1:16
140
1.0
141
16.0
290
     0
  0
SCALE
  5
422
102
{ACAD_REACTORS
330
41A
102
}
330
41A
100
AcDbScale
 70
     0
300
1:20
140
1.0
141
20.0
290
     0
  0
SCALE
  5
423
102
{ACAD_REACTORS
330
41A
102
}
330
41A
100
AcDbScale
 70
     0
300
1:30
140
1.0
141
30.0
290
     0
  0
SCALE
  5
424
102
{ACAD_REACTORS
330
41A
102
}
330
41A
100
AcDbScale
 70
     0
300
1:40
140
1.0
141
40.0
290
     0
  0
SCALE
  5
425
102
{ACAD_REACTORS
330
41A
102
}
330
41A
100
AcDbScale
 70
     0
300
1:50
140
1.0
141
50.0
290
     0
  0
SCALE
  5
426
102
{ACAD_REACTORS
330
41A
102
}
330
41A
100
AcDbScale
 70
     0
300
1:100
140
1.0
141
100.0
290
     0
  0
SCALE
  5
427
102
{ACAD_REACTORS
330
41A
102
}
330
41A
100
AcDbScale
 70
     0
300
2:1
140
2.0
141
1.0
290
     0
  0
SCALE
  5
428
102
{ACAD_REACTORS
330
41A
102
}
330
41A
100
AcDbScale
 70
     0
300
4:1
140
4.0
141
1.0
290
     0
  0
SCALE
  5
429
102
{ACAD_REACTORS
330
41A
102
}
330
41A
100
AcDbScale
 70
     0
300
8:1
140
8.0
141
1.0
290
     0
  0
SCALE
  5
42A
102
{ACAD_REACTORS
330
41A
102
}
330
41A
100
AcDbScale
 70
     0
300
10:1
140
10.0
141
1.0
290
     0
  0
SCALE
  5
42B
102
{ACAD_REACTORS
330
41A
102
}
330
41A
100
AcDbScale
 70
     0
300
100:1
140
100.0
141
1.0
290
     0
  0
SCALE
  5
42C
102
{ACAD_REACTORS
330
41A
102
}
330
41A
100
AcDbScale
 70
     0
300
1/128" = 1'-0"
140
0.0078125
141
12.0
290
     0
  0
SCALE
  5
42D
102
{ACAD_REACTORS
330
41A
102
}
330
41A
100
AcDbScale
 70
     0
300
1/64" = 1'-0"
140
0.015625
141
12.0
290
     0
  0
SCALE
  5
42E
102
{ACAD_REACTORS
330
41A
102
}
330
41A
100
AcDbScale
 70
     0
300
1/32" = 1'-0"
140
0.03125
141
12.0
290
     0
  0
SCALE
  5
42F
102
{ACAD_REACTORS
330
41A
102
}
330
41A
100
AcDbScale
 70
     0
300
1/16" = 1'-0"
140
0.0625
141
12.0
290
     0
  0
SCALE
  5
430
102
{ACAD_REACTORS
330
41A
102
}
330
41A
100
AcDbScale
 70
     0
300
3/32" = 1'-0"
140
0.09375
141
12.0
290
     0
  0
SCALE
  5
431
102
{ACAD_REACTORS
330
41A
102
}
330
41A
100
AcDbScale
 70
     0
300
1/8" = 1'-0"
140
0.125
141
12.0
290
     0
  0
SCALE
  5
432
102
{ACAD_REACTORS
330
41A
102
}
330
41A
100
AcDbScale
 70
     0
300
3/16" = 1'-0"
140
0.1875
141
12.0
290
     0
  0
SCALE
  5
433
102
{ACAD_REACTORS
330
41A
102
}
330
41A
100
AcDbScale
 70
     0
300
1/4" = 1'-0"
140
0.25
141
12.0
290
     0
  0
SCALE
  5
434
102
{ACAD_REACTORS
330
41A
102
}
330
41A
100
AcDbScale
 70
     0
300
3/8" = 1'-0"
140
0.375
141
12.0
290
     0
  0
SCALE
  5
435
102
{ACAD_REACTORS
330
41A
102
}
330
41A
100
AcDbScale
 70
     0
300
1/2" = 1'-0"
140
0.5
141
12.0
290
     0
  0
SCALE
  5
436
102
{ACAD_REACTORS
330
41A
102
}
330
41A
100
AcDbScale
 70
     0
300
3/4" = 1'-0"
140
0.75
141
12.0
290
     0
  0
SCALE
  5
437
102
{ACAD_REACTORS
330
41A
102
}
330
41A
100
AcDbScale
 70
     0
300
1" = 1'-0"
140
1.0
141
12.0
290
     0
  0
SCALE
  5
438
102
{ACAD_REACTORS
330
41A
102
}
330
41A
100
AcDbScale
 70
     0
300
1-1/2" = 1'-0"
140
1.5
141
12.0
290
     0
  0
SCALE
  5
439
102
{ACAD_REACTORS
330
41A
102
}
330
41A
100
AcDbScale
 70
     0
300
3" = 1'-0"
140
3.0
141
12.0
290
     0
  0
SCALE
  5
43A
102
{ACAD_REACTORS
330
41A
102
}
330
41A
100
AcDbScale
 70
     0
300
6" = 1'-0"
140
6.0
141
12.0
290
     0
  0
SCALE
  5
43B
102
{ACAD_REACTORS
330
41A
102
}
330
41A
100
AcDbScale
 70
     0
300
1'-0" = 1'-0"
140
12.0
141
12.0
290
     0
  0
TABLESTYLE
  5
389
102
{ACAD_XDICTIONARY
360
444
102
}
102
{ACAD_REACTORS
330
388
102
}
330
388
100
AcDbTableStyle
  3
Standard
 70
     0
 71
     0
 40
1.5
 41
1.5
280
     0
281
     0
  7
STANDARD
140
4.5
170
     2
 62
     0
 63
     7
283
     0
274
    -2
284
     1
 64
     0
275
    -2
285
     1
 65
     0
276
    -2
286
     1
 66
     0
277
    -2
287
     1
 67
     0
278
    -2
288
     1
 68
     0
279
    -2
289
     1
 69
     0
  7
STANDARD
140
6.0
170
     5
 62
     0
 63
     7
283
     0
274
    -2
284
     1
 64
     0
275
    -2
285
     1
 65
     0
276
    -2
286
     1
 66
     0
277
    -2
287
     1
 67
     0
278
    -2
288
     1
 68
     0
279
    -2
289
     1
 69
     0
  7
STANDARD
140
4.5
170
     5
 62
     0
 63
     7
283
     0
274
    -2
284
     1
 64
     0
275
    -2
285
     1
 65
     0
276
    -2
286
     1
 66
     0
277
    -2
287
     1
 67
     0
278
    -2
288
     1
 68
     0
279
    -2
289
     1
 69
     0
  0
VISUALSTYLE
  5
3F8
102
{ACAD_XDICTIONARY
360
103B
102
}
102
{ACAD_REACTORS
330
3F2
102
}
330
3F2
100
AcDbVisualStyle
  2

 70
     4
 71
     0
 72
     2
 73
     0
 90
        0
 40
-0.6
 41
-30.0
 62
     5
 63
     7
421
 16777215
 74
     1
 91
        4
 64
     7
 65
   257
 75
     1
175
     1
 42
1.0
 92
        0
 66
   257
 43
1.0
 76
     1
 77
     6
 78
     2
 67
     7
 79
     5
170
     0
171
     0
290
     0
174
     0
 93
        1
 44
0.0
173
     0
291
     0
 45
0.0
1001
ACAD
1000
AcDbSavedByObjectVersion
1070
     0
  0
VISUALSTYLE
  5
3FA
102
{ACAD_XDICTIONARY
360
103F
102
}
102
{ACAD_REACTORS
330
3F2
102
}
330
3F2
100
AcDbVisualStyle
  2

 70
     6
 71
     1
 72
     2
 73
     2
 90
        0
 40
-0.6
 41
-30.0
 62
     5
 63
     7
421
 16777215
 74
     2
 91
        2
 64
     7
 65
   257
 75
     2
175
     1
 42
40.0
 92
        0
 66
   257
 43
1.0
 76
     1
 77
     6
 78
     2
 67
     7
 79
     3
170
     0
171
     0
290
     0
174
     0
 93
        1
 44
0.0
173
     0
291
     0
 45
0.0
1001
ACAD
1000
AcDbSavedByObjectVersion
1070
     0
  0
VISUALSTYLE
  5
3F9
102
{ACAD_XDICTIONARY
360
103D
102
}
102
{ACAD_REACTORS
330
3F2
102
}
330
3F2
100
AcDbVisualStyle
  2

 70
     5
 71
     0
 72
     2
 73
     0
 90
        0
 40
-0.6
 41
-30.0
 62
     5
 63
     7
421
 16777215
 74
     1
 91
        4
 64
     7
 65
   257
 75
     1
175
     1
 42
1.0
 92
        0
 66
   257
 43
1.0
 76
     1
 77
     6
 78
     2
 67
     7
 79
     5
170
     0
171
     0
290
     0
174
     0
 93
        1
 44
0.0
173
     0
291
     0
 45
0.0
1001
ACAD
1000
AcDbSavedByObjectVersion
1070
     0
  0
VISUALSTYLE
  5
3F7
102
{ACAD_XDICTIONARY
360
1039
102
}
102
{ACAD_REACTORS
330
3F2
102
}
330
3F2
100
AcDbVisualStyle
  2

 70
     7
 71
     1
 72
     0
 73
     1
 90
        0
 40
-0.6
 41
-30.0
 62
     5
 63
     7
421
 16777215
 74
     0
 91
        4
 64
     7
 65
   257
 75
     1
175
     1
 42
1.0
 92
        8
 66
     7
 43
1.0
 76
     1
 77
     6
 78
     2
 67
     7
 79
     5
170
     0
171
     0
290
     0
174
     0
 93
        1
 44
0.0
173
     0
291
     1
 45
0.0
1001
ACAD
1000
AcDbSavedByObjectVersion
1070
     0
  0
VISUALSTYLE
  5
3FE
102
{ACAD_XDICTIONARY
360
1047
102
}
102
{ACAD_REACTORS
330
3F2
102
}
330
3F2
100
AcDbVisualStyle
  2

 70
    12
 71
     2
 72
     2
 73
     0
 90
        0
 40
-0.6
 41
-30.0
 62
     5
 63
     7
421
 16777215
 74
     1
 91
        4
 64
     7
 65
   257
 75
     1
175
     1
 42
1.0
 92
        8
 66
     7
 43
1.0
 76
     1
 77
     6
 78
     2
 67
     7
 79
     5
170
     0
171
     0
290
     0
174
     0
 93
        1
 44
50.0
173
     0
291
     1
 45
0.0
1001
ACAD
1000
AcDbSavedByObjectVersion
1070
     0
  0
VISUALSTYLE
  5
402
102
{ACAD_XDICTIONARY
360
104F
102
}
102
{ACAD_REACTORS
330
3F2
102
}
330
3F2
100
AcDbVisualStyle
  2

 70
    16
 71
     2
 72
     2
 73
     3
 90
        0
 40
-0.6
 41
-30.0
 62
     5
 63
     8
421
  8421504
 74
     1
 91
        4
 64
     7
 65
   257
 75
     1
175
     1
 42
1.0
 92
        8
 66
     8
424
  8421504
 43
1.0
 76
     1
 77
     6
 78
     2
 67
     7
 79
     5
170
     0
171
     0
290
     0
174
     0
 93
        1
 44
0.0
173
     0
291
     1
 45
0.0
1001
ACAD
1000
AcDbSavedByObjectVersion
1070
     0
  0
VISUALSTYLE
  5
3FB
102
{ACAD_XDICTIONARY
360
1041
102
}
102
{ACAD_REACTORS
330
3F2
102
}
330
3F2
100
AcDbVisualStyle
  2

 70
     9
 71
     3
 72
     2
 73
     0
 90
        0
 40
-0.6
 41
-30.0
 62
     5
 63
     7
421
 16777215
 74
     2
 91
        2
 64
     7
 65
   257
 75
     1
175
     1
 42
40.0
 92
        8
 66
     7
 43
1.0
 76
     1
 77
     6
 78
     2
 67
     7
 79
     3
170
     0
171
     0
290
     0
174
     0
 93
        1
 44
0.0
173
     0
291
     0
 45
0.0
1001
ACAD
1000
AcDbSavedByObjectVersion
1070
     0
  0
VISUALSTYLE
  5
3FD
102
{ACAD_XDICTIONARY
360
1045
102
}
102
{ACAD_REACTORS
330
3F2
102
}
330
3F2
100
AcDbVisualStyle
  2

 70
    11
 71
     2
 72
     2
 73
     0
 90
        0
 40
-0.6
 41
-30.0
 62
     5
 63
     7
421
 16777215
 74
     1
 91
        4
 64
     7
 65
   257
 75
     1
175
     1
 42
1.0
 92
        8
 66
     7
 43
1.0
 76
     1
 77
     6
 78
     2
 67
     7
 79
     5
170
     0
171
     0
290
     0
174
     0
 93
        1
 44
-50.0
173
     0
291
     1
 45
0.0
1001
ACAD
1000
AcDbSavedByObjectVersion
1070
     0
  0
VISUALSTYLE
  5
F67
102
{ACAD_XDICTIONARY
360
1063
102
}
102
{ACAD_REACTORS
330
3F2
102
}
330
3F2
100
AcDbVisualStyle
  2

 70
    22
 71
     2
 72
     2
 73
     0
 90
        0
 40
-0.6
 41
-30.0
 62
     5
 63
     7
421
 16777215
 74
     1
 91
        4
 64
     7
 65
   257
 75
     1
175
     1
 42
1.0
 92
        8
 66
     7
 43
1.0
 76
     1
 77
     6
 78
     2
 67
     7
 79
     5
170
     0
171
     0
290
     0
174
     0
 93
        1
 44
0.0
173
     0
291
     1
 45
0.0
1001
ACAD
1000
AcDbSavedByObjectVersion
1070
     0
  0
VISUALSTYLE
  5
401
102
{ACAD_XDICTIONARY
360
104D
102
}
102
{ACAD_REACTORS
330
3F2
102
}
330
3F2
100
AcDbVisualStyle
  2

 70
    15
 71
     2
 72
     2
 73
     0
 90
        0
 40
-0.6
 41
-30.0
 62
     5
 63
     7
421
 16777215
 74
     1
 91
        4
 64
     7
 65
   257
 75
     1
175
     1
 42
1.0
 92
        8
 66
     7
 43
1.0
 76
     1
 77
     6
 78
     2
 67
     7
 79
     5
170
     0
171
     0
290
     0
174
     0
 93
        1
 44
0.0
173
     0
291
     1
 45
0.0
1001
ACAD
1000
AcDbSavedByObjectVersion
1070
     0
  0
VISUALSTYLE
  5
3F3
102
{ACAD_XDICTIONARY
360
1031
102
}
102
{ACAD_REACTORS
330
3F2
102
}
330
3F2
100
AcDbVisualStyle
  2

 70
     0
 71
     2
 72
     1
 73
     1
 90
        2
 40
-0.6
 41
30.0
 62
     5
 63
     7
421
 16777215
 74
     0
 91
        4
 64
     7
 65
   257
 75
     1
175
     1
 42
1.0
 92
        8
 66
     7
 43
1.0
 76
     1
 77
     6
 78
     2
 67
     7
 79
     5
170
     0
171
     0
290
     0
174
     0
 93
       13
 44
0.0
173
     0
291
     1
 45
0.0
1001
ACAD
1000
AcDbSavedByObjectVersion
1070
     0
  0
VISUALSTYLE
  5
3F4
102
{ACAD_XDICTIONARY
360
1033
102
}
102
{ACAD_REACTORS
330
3F2
102
}
330
3F2
100
AcDbVisualStyle
  2

 70
     1
 71
     2
 72
     1
 73
     1
 90
        2
 40
-0.6
 41
30.0
 62
     5
 63
     7
421
 16777215
 74
     1
 91
        4
 64
     7
 65
   257
 75
     1
175
     1
 42
1.0
 92
        0
 66
   257
 43
1.0
 76
     1
 77
     6
 78
     2
 67
     7
 79
     5
170
     0
171
     0
290
     0
174
     0
 93
       13
 44
0.0
173
     0
291
     1
 45
0.0
1001
ACAD
1000
AcDbSavedByObjectVersion
1070
     0
  0
VISUALSTYLE
  5
3F5
102
{ACAD_XDICTIONARY
360
1035
102
}
102
{ACAD_REACTORS
330
3F2
102
}
330
3F2
100
AcDbVisualStyle
  2

 70
     2
 71
     2
 72
     2
 73
     1
 90
        2
 40
-0.6
 41
30.0
 62
     5
 63
     7
421
 16777215
 74
     0
 91
        4
 64
     7
 65
   257
 75
     1
175
     1
 42
1.0
 92
        0
 66
     7
 43
1.0
 76
     1
 77
     6
 78
     2
 67
     7
 79
     5
170
     0
171
     0
290
     0
174
     0
 93
       13
 44
0.0
173
     0
291
     1
 45
0.0
1001
ACAD
1000
AcDbSavedByObjectVersion
1070
     0
  0
VISUALSTYLE
  5
3F6
102
{ACAD_XDICTIONARY
360
1037
102
}
102
{ACAD_REACTORS
330
3F2
102
}
330
3F2
100
AcDbVisualStyle
  2

 70
     3
 71
     2
 72
     2
 73
     1
 90
        2
 40
-0.6
 41
30.0
 62
     5
 63
     7
421
 16777215
 74
     1
 91
        4
 64
     7
 65
   257
 75
     1
175
     1
 42
1.0
 92
        0
 66
   257
 43
1.0
 76
     1
 77
     6
 78
     2
 67
     7
 79
     5
170
     0
171
     0
290
     0
174
     0
 93
       13
 44
0.0
173
     0
291
     1
 45
0.0
1001
ACAD
1000
AcDbSavedByObjectVersion
1070
     0
  0
VISUALSTYLE
  5
F5F
102
{ACAD_XDICTIONARY
360
1053
102
}
102
{ACAD_REACTORS
330
3F2
102
}
330
3F2
100
AcDbVisualStyle
  2

 70
     6
 71
     1
 72
     2
 73
     2
 90
        0
 40
-0.6
 41
-30.0
 62
     5
 63
     7
421
 16777215
 74
     2
 91
        2
 64
     7
 65
   257
 75
     2
175
     1
 42
40.0
 92
        0
 66
   257
 43
1.0
 76
     1
 77
     6
 78
     2
 67
     7
 79
     3
170
     0
171
     0
290
     0
174
     0
 93
        1
 44
0.0
173
     0
291
     0
 45
0.0
1001
ACAD
1000
AcDbSavedByObjectVersion
1070
     0
  0
VISUALSTYLE
  5
F65
102
{ACAD_XDICTIONARY
360
105F
102
}
102
{ACAD_REACTORS
330
3F2
102
}
330
3F2
100
AcDbVisualStyle
  2

 70
    20
 71
     2
 72
     2
 73
     0
 90
        0
 40
-0.6
 41
-30.0
 62
     5
 63
     7
421
 16777215
 74
     1
 91
        4
 64
     7
 65
   257
 75
     1
175
     1
 42
1.0
 92
       10
 66
     7
 43
1.0
 76
     1
 77
     6
 78
     2
 67
     7
 79
     5
170
     0
171
     0
290
     0
174
     0
 93
        1
 44
0.0
173
     0
291
     1
 45
0.0
1001
ACAD
1000
AcDbSavedByObjectVersion
1070
     0
  0
VISUALSTYLE
  5
400
102
{ACAD_XDICTIONARY
360
104B
102
}
102
{ACAD_REACTORS
330
3F2
102
}
330
3F2
100
AcDbVisualStyle
  2

 70
    14
 71
     2
 72
     2
 73
     0
 90
        0
 40
-0.6
 41
-30.0
 62
     5
 63
     7
421
 16777215
 74
     1
 91
        4
 64
     7
 65
   257
 75
     7
175
     7
 42
1.0
 92
        8
 66
     7
 43
1.0
 76
     1
 77
     6
 78
     2
 67
     7
 79
     5
170
     0
171
     0
290
     0
174
     0
 93
        1
 44
0.0
173
     0
291
     1
 45
0.0
1001
ACAD
1000
AcDbSavedByObjectVersion
1070
     0
  0
VISUALSTYLE
  5
F66
102
{ACAD_XDICTIONARY
360
1061
102
}
102
{ACAD_REACTORS
330
3F2
102
}
330
3F2
100
AcDbVisualStyle
  2

 70
    21
 71
     2
 72
     2
 73
     0
 90
        0
 40
-0.6
 41
-30.0
 62
     5
 63
     7
421
 16777215
 74
     1
 91
        4
 64
     7
 65
   257
 75
     1
175
     1
 42
1.0
 92
        9
 66
     7
 43
1.0
 76
     1
 77
     6
 78
     2
 67
     7
 79
     5
170
     0
171
     0
290
     0
174
     0
 93
        1
 44
0.0
173
     0
291
     1
 45
0.0
1001
ACAD
1000
AcDbSavedByObjectVersion
1070
     0
  0
VISUALSTYLE
  5
3FC
102
{ACAD_XDICTIONARY
360
1043
102
}
102
{ACAD_REACTORS
330
3F2
102
}
330
3F2
100
AcDbVisualStyle
  2

 70
     8
 71
     2
 72
     2
 73
     0
 90
        0
 40
-0.6
 41
-30.0
 62
     5
 63
     7
421
 16777215
 74
     1
 91
        0
 64
     7
 65
   257
 75
     1
175
     1
 42
1.0
 92
        8
 66
     8
424
  7895160
 43
1.0
 76
     1
 77
     6
 78
     2
 67
     7
 79
     5
170
     0
171
     0
290
     0
174
     0
 93
       13
 44
0.0
173
     0
291
     0
 45
0.0
1001
ACAD
1000
AcDbSavedByObjectVersion
1070
     0
  0
VISUALSTYLE
  5
F64
102
{ACAD_XDICTIONARY
360
105D
102
}
102
{ACAD_REACTORS
330
3F2
102
}
330
3F2
100
AcDbVisualStyle
  2

 70
    27
 71
     2
 72
     2
 73
     1
 90
        2
 40
-0.6
 41
30.0
 62
     5
 63
     7
421
 16777215
 74
     0
 91
        4
 64
     7
 65
   257
 75
     1
175
     1
 42
1.0
 92
        8
 66
   257
 43
1.0
 76
     1
 77
     6
 78
     2
 67
     8
425
  7895160
 79
     3
170
     0
171
     0
290
     0
174
     0
 93
        5
 44
0.0
173
     0
291
     0
 45
0.0
1001
ACAD
1000
AcDbSavedByObjectVersion
1070
     0
  0
VISUALSTYLE
  5
F63
102
{ACAD_XDICTIONARY
360
105B
102
}
102
{ACAD_REACTORS
330
3F2
102
}
330
3F2
100
AcDbVisualStyle
  2

 70
    26
 71
     2
 72
     2
 73
     1
 90
        2
 40
-0.6
 41
30.0
 62
     5
 63
     7
421
 16777215
 74
     1
 91
       10
 64
     7
 65
   257
 75
     2
175
     1
 42
1.0
 92
        8
 66
   257
 43
1.0
 76
     1
 77
     6
 78
     2
 67
     7
 79
     3
170
     0
171
     0
290
     0
174
     0
 93
        5
 44
0.0
173
     0
291
     0
 45
0.0
1001
ACAD
1000
AcDbSavedByObjectVersion
1070
     0
  0
VISUALSTYLE
  5
F60
102
{ACAD_XDICTIONARY
360
1055
102
}
102
{ACAD_REACTORS
330
3F2
102
}
330
3F2
100
AcDbVisualStyle
  2

 70
    23
 71
     2
 72
     2
 73
     3
 90
        0
 40
-0.6
 41
-30.0
 62
     5
 63
     7
421
 16777215
 74
     2
 91
        2
 64
     7
 65
     7
 75
     1
175
     1
 42
40.0
 92
        8
 66
     7
 43
1.0
 76
     1
 77
     6
 78
     2
 67
     7
 79
     3
170
     0
171
     0
290
     0
174
     0
 93
        1
 44
0.0
173
     0
291
     0
 45
0.0
1001
ACAD
1000
AcDbSavedByObjectVersion
1070
     0
  0
VISUALSTYLE
  5
F61
102
{ACAD_XDICTIONARY
360
1057
102
}
102
{ACAD_REACTORS
330
3F2
102
}
330
3F2
100
AcDbVisualStyle
  2

 70
    24
 71
     1
 72
     2
 73
     2
 90
        0
 40
-0.6
 41
-30.0
 62
     5
 63
     7
421
 16777215
 74
     2
 91
        2
 64
     7
 65
     7
 75
     1
175
     1
 42
40.0
 92
       11
 66
     7
 43
1.0
 76
     1
 77
     6
 78
     2
 67
     7
 79
     6
170
     0
171
     0
290
     0
174
     0
 93
        1
 44
0.0
173
     0
291
     0
 45
0.0
1001
ACAD
1000
AcDbSavedByObjectVersion
1070
     0
  0
VISUALSTYLE
  5
3FF
102
{ACAD_XDICTIONARY
360
1049
102
}
102
{ACAD_REACTORS
330
3F2
102
}
330
3F2
100
AcDbVisualStyle
  2

 70
    13
 71
     2
 72
     2
 73
     0
 90
        0
 40
-0.6
 41
-30.0
 62
     5
 63
     7
421
 16777215
 74
     1
 91
        4
 64
     7
 65
   257
 75
     1
175
     1
 42
1.0
 92
       12
 66
     7
 43
1.0
 76
     1
 77
     6
 78
     2
 67
     7
 79
     5
170
     0
171
     0
290
     0
174
     0
 93
        1
 44
0.0
173
     0
291
     1
 45
0.0
1001
ACAD
1000
AcDbSavedByObjectVersion
1070
     0
  0
VISUALSTYLE
  5
F5E
102
{ACAD_XDICTIONARY
360
1051
102
}
102
{ACAD_REACTORS
330
3F2
102
}
330
3F2
100
AcDbVisualStyle
  2

 70
     5
 71
     0
 72
     2
 73
     0
 90
        0
 40
-0.6
 41
-30.0
 62
     5
 63
     7
421
 16777215
 74
     1
 91
        4
 64
     7
 65
   257
 75
     1
175
     1
 42
1.0
 92
        0
 66
   257
 43
1.0
 76
     1
 77
     6
 78
     2
 67
     7
 79
     3
170
     0
171
     0
290
     0
174
     0
 93
        1
 44
0.0
173
     0
291
     0
 45
0.0
1001
ACAD
1000
AcDbSavedByObjectVersion
1070
     0
  0
VISUALSTYLE
  5
F62
102
{ACAD_XDICTIONARY
360
1059
102
}
102
{ACAD_REACTORS
330
3F2
102
}
330
3F2
100
AcDbVisualStyle
  2

 70
    25
 71
     2
 72
     2
 73
     1
 90
        1
 40
0.5
 41
-30.0
 62
     5
 63
     7
421
 16777215
 74
     1
 91
        0
 64
     7
 65
   257
 75
     1
175
     1
 42
1.0
 92
        8
 66
     7
 43
1.0
 76
     1
 77
     6
 78
     2
 67
     7
 79
     3
170
     0
171
     0
290
     0
174
     0
 93
       13
 44
0.0
173
     0
291
     0
 45
0.0
1001
ACAD
1000
AcDbSavedByObjectVersion
1070
     0
  0
DICTIONARYVAR
  5
449
102
{ACAD_REACTORS
330
357
102
}
330
357
100
DictionaryVariables
280
     0
  1
1:1
  0
DICTIONARYVAR
  5
447
102
{ACAD_REACTORS
330
357
102
}
330
357
100
DictionaryVariables
280
     0
  1
STANDARD
  0
DICTIONARYVAR
  5
38E
102
{ACAD_REACTORS
330
357
102
}
330
357
100
DictionaryVariables
280
     0
  1
STANDARD
  0
DICTIONARYVAR
  5
359
102
{ACAD_REACTORS
330
357
102
}
330
357
100
DictionaryVariables
280
     0
  1
2
  0
DICTIONARYVAR
  5
358
102
{ACAD_REACTORS
330
357
102
}
330
357
100
DictionaryVariables
280
     0
  1
1
  0
DICTIONARYVAR
  5
44A
102
{ACAD_REACTORS
330
357
102
}
330
357
100
DictionaryVariables
280
     0
  1
0
  0
DICTIONARYVAR
  5
448
102
{ACAD_REACTORS
330
357
102
}
330
357
100
DictionaryVariables
280
     0
  1
0
  0
XRECORD
  5
69D
102
{ACAD_REACTORS
330
69C
102
}
330
69C
100
AcDbXrecord
280
     1
  0
DICTIONARY
  5
F57
330
3F0
100
AcDbDictionary
280
     1
281
     1
  3
ACAD_XREC_ROUNDTRIP
360
F58
  0
DICTIONARY
  5
F55
330
3EF
100
AcDbDictionary
280
     1
281
     1
  3
ACAD_XREC_ROUNDTRIP
360
F56
  0
DICTIONARY
  5
F59
330
3F1
100
AcDbDictionary
280
     1
281
     1
  3
ACAD_XREC_ROUNDTRIP
360
F5A
  0
DICTIONARY
  5
444
330
389
100
AcDbDictionary
280
     1
281
     1
  3
ACAD_ROUNDTRIP_2008_TABLESTYLE_CELLSTYLEMAP
360
102E
  3
ACAD_XREC_ROUNDTRIP
360
1030
  0
DICTIONARY
  5
103B
330
3F8
100
AcDbDictionary
280
     1
281
     1
  3
ACAD_XREC_ROUNDTRIP
360
103C
  0
DICTIONARY
  5
103F
330
3FA
100
AcDbDictionary
280
     1
281
     1
  3
ACAD_XREC_ROUNDTRIP
360
1040
  0
DICTIONARY
  5
103D
330
3F9
100
AcDbDictionary
280
     1
281
     1
  3
ACAD_XREC_ROUNDTRIP
360
103E
  0
DICTIONARY
  5
1039
330
3F7
100
AcDbDictionary
280
     1
281
     1
  3
ACAD_XREC_ROUNDTRIP
360
103A
  0
DICTIONARY
  5
1047
330
3FE
100
AcDbDictionary
280
     1
281
     1
  3
ACAD_XREC_ROUNDTRIP
360
1048
  0
DICTIONARY
  5
104F
330
402
100
AcDbDictionary
280
     1
281
     1
  3
ACAD_XREC_ROUNDTRIP
360
1050
  0
DICTIONARY
  5
1041
330
3FB
100
AcDbDictionary
280
     1
281
     1
  3
ACAD_XREC_ROUNDTRIP
360
1042
  0
DICTIONARY
  5
1045
330
3FD
100
AcDbDictionary
280
     1
281
     1
  3
ACAD_XREC_ROUNDTRIP
360
1046
  0
DICTIONARY
  5
1063
330
F67
100
AcDbDictionary
280
     1
281
     1
  3
ACAD_XREC_ROUNDTRIP
360
1064
  0
DICTIONARY
  5
104D
330
401
100
AcDbDictionary
280
     1
281
     1
  3
ACAD_XREC_ROUNDTRIP
360
104E
  0
DICTIONARY
  5
1031
330
3F3
100
AcDbDictionary
280
     1
281
     1
  3
ACAD_XREC_ROUNDTRIP
360
1032
  0
DICTIONARY
  5
1033
330
3F4
100
AcDbDictionary
280
     1
281
     1
  3
ACAD_XREC_ROUNDTRIP
360
1034
  0
DICTIONARY
  5
1035
330
3F5
100
AcDbDictionary
280
     1
281
     1
  3
ACAD_XREC_ROUNDTRIP
360
1036
  0
DICTIONARY
  5
1037
330
3F6
100
AcDbDictionary
280
     1
281
     1
  3
ACAD_XREC_ROUNDTRIP
360
1038
  0
DICTIONARY
  5
1053
330
F5F
100
AcDbDictionary
280
     1
281
     1
  3
ACAD_XREC_ROUNDTRIP
360
1054
  0
DICTIONARY
  5
105F
330
F65
100
AcDbDictionary
280
     1
281
     1
  3
ACAD_XREC_ROUNDTRIP
360
1060
  0
DICTIONARY
  5
104B
330
400
100
AcDbDictionary
280
     1
281
     1
  3
ACAD_XREC_ROUNDTRIP
360
104C
  0
DICTIONARY
  5
1061
330
F66
100
AcDbDictionary
280
     1
281
     1
  3
ACAD_XREC_ROUNDTRIP
360
1062
  0
DICTIONARY
  5
1043
330
3FC
100
AcDbDictionary
280
     1
281
     1
  3
ACAD_XREC_ROUNDTRIP
360
1044
  0
DICTIONARY
  5
105D
330
F64
100
AcDbDictionary
280
     1
281
     1
  3
ACAD_XREC_ROUNDTRIP
360
105E
  0
DICTIONARY
  5
105B
330
F63
100
AcDbDictionary
280
     1
281
     1
  3
ACAD_XREC_ROUNDTRIP
360
105C
  0
DICTIONARY
  5
1055
330
F60
100
AcDbDictionary
280
     1
281
     1
  3
ACAD_XREC_ROUNDTRIP
360
1056
  0
DICTIONARY
  5
1057
330
F61
100
AcDbDictionary
280
     1
281
     1
  3
ACAD_XREC_ROUNDTRIP
360
1058
  0
DICTIONARY
  5
1049
330
3FF
100
AcDbDictionary
280
     1
281
     1
  3
ACAD_XREC_ROUNDTRIP
360
104A
  0
DICTIONARY
  5
1051
330
F5E
100
AcDbDictionary
280
     1
281
     1
  3
ACAD_XREC_ROUNDTRIP
360
1052
  0
DICTIONARY
  5
1059
330
F62
100
AcDbDictionary
280
     1
281
     1
  3
ACAD_XREC_ROUNDTRIP
360
105A
  0
XRECORD
  5
F58
102
{ACAD_REACTORS
330
F57
102
}
330
F57
100
AcDbXrecord
280
     1
102
MATERIAL
148
0.0
149
0.0
149
0.0
 93
        0
 94
      127
282
     0
 72
     1
 77
     1
171
     1
175
     1
179
     1
273
     0
  0
XRECORD
  5
F56
102
{ACAD_REACTORS
330
F55
102
}
330
F55
100
AcDbXrecord
280
     1
102
MATERIAL
148
0.0
149
0.0
149
0.0
 93
        0
 94
      127
282
     0
 72
     1
 77
     1
171
     1
175
     1
179
     1
273
     0
  0
XRECORD
  5
F5A
102
{ACAD_REACTORS
330
F59
102
}
330
F59
100
AcDbXrecord
280
     1
102
MATERIAL
148
0.0
149
0.0
149
0.0
 93
        0
 94
      127
282
     0
 72
     1
 77
     1
171
     1
175
     1
179
     1
273
     0
  0
CELLSTYLEMAP
  5
102E
102
{ACAD_REACTORS
330
444
102
}
330
444
100
AcDbCellStyleMap
 90
        3
300
CELLSTYLE
  1
TABLEFORMAT_BEGIN
 90
        5
170
     1
 91
        0
 92
    32768
 62
   257
 93
        1
300
CONTENTFORMAT
  1
CONTENTFORMAT_BEGIN
 90
        0
 91
        0
 92
        4
 93
        0
300

 40
0.0
140
1.0
 94
        5
 62
     0
340
10
144
6.0
309
CONTENTFORMAT_END
171
     1
301
MARGIN
  1
CELLMARGIN_BEGIN
 40
1.5
 40
1.5
 40
1.5
 40
1.5
 40
0.18
 40
0.18
309
CELLMARGIN_END
 94
        6
 95
        1
302
GRIDFORMAT
  1
GRIDFORMAT_BEGIN
 90
        0
 91
        1
 62
     0
 92
       -2
340
0
 93
        0
 40
0.045
309
GRIDFORMAT_END
 95
        2
302
GRIDFORMAT
  1
GRIDFORMAT_BEGIN
 90
        0
 91
        1
 62
     0
 92
       -2
340
0
 93
        0
 40
0.045
309
GRIDFORMAT_END
 95
        4
302
GRIDFORMAT
  1
GRIDFORMAT_BEGIN
 90
        0
 91
        1
 62
     0
 92
       -2
340
0
 93
        0
 40
0.045
309
GRIDFORMAT_END
 95
        8
302
GRIDFORMAT
  1
GRIDFORMAT_BEGIN
 90
        0
 91
        1
 62
     0
 92
       -2
340
0
 93
        0
 40
0.045
309
GRIDFORMAT_END
 95
       16
302
GRIDFORMAT
  1
GRIDFORMAT_BEGIN
 90
        0
 91
        1
 62
     0
 92
       -2
340
0
 93
        0
 40
0.045
309
GRIDFORMAT_END
 95
       32
302
GRIDFORMAT
  1
GRIDFORMAT_BEGIN
 90
        0
 91
        1
 62
     0
 92
       -2
340
0
 93
        0
 40
0.045
309
GRIDFORMAT_END
309
TABLEFORMAT_END
  1
CELLSTYLE_BEGIN
 90
        1
 91
        1
300
_TITLE
309
CELLSTYLE_END
300
CELLSTYLE
  1
TABLEFORMAT_BEGIN
 90
        5
170
     1
 91
        0
 92
        0
 62
   257
 93
        1
300
CONTENTFORMAT
  1
CONTENTFORMAT_BEGIN
 90
        0
 91
        0
 92
        4
 93
        0
300

 40
0.0
140
1.0
 94
        5
 62
     0
340
10
144
4.5
309
CONTENTFORMAT_END
171
     1
301
MARGIN
  1
CELLMARGIN_BEGIN
 40
1.5
 40
1.5
 40
1.5
 40
1.5
 40
0.18
 40
0.18
309
CELLMARGIN_END
 94
        6
 95
        1
302
GRIDFORMAT
  1
GRIDFORMAT_BEGIN
 90
        0
 91
        1
 62
     0
 92
       -2
340
0
 93
        0
 40
0.045
309
GRIDFORMAT_END
 95
        2
302
GRIDFORMAT
  1
GRIDFORMAT_BEGIN
 90
        0
 91
        1
 62
     0
 92
       -2
340
0
 93
        0
 40
0.045
309
GRIDFORMAT_END
 95
        4
302
GRIDFORMAT
  1
GRIDFORMAT_BEGIN
 90
        0
 91
        1
 62
     0
 92
       -2
340
0
 93
        0
 40
0.045
309
GRIDFORMAT_END
 95
        8
302
GRIDFORMAT
  1
GRIDFORMAT_BEGIN
 90
        0
 91
        1
 62
     0
 92
       -2
340
0
 93
        0
 40
0.045
309
GRIDFORMAT_END
 95
       16
302
GRIDFORMAT
  1
GRIDFORMAT_BEGIN
 90
        0
 91
        1
 62
     0
 92
       -2
340
0
 93
        0
 40
0.045
309
GRIDFORMAT_END
 95
       32
302
GRIDFORMAT
  1
GRIDFORMAT_BEGIN
 90
        0
 91
        1
 62
     0
 92
       -2
340
0
 93
        0
 40
0.045
309
GRIDFORMAT_END
309
TABLEFORMAT_END
  1
CELLSTYLE_BEGIN
 90
        2
 91
        1
300
_HEADER
309
CELLSTYLE_END
300
CELLSTYLE
  1
TABLEFORMAT_BEGIN
 90
        5
170
     1
 91
        0
 92
        0
 62
   257
 93
        1
300
CONTENTFORMAT
  1
CONTENTFORMAT_BEGIN
 90
        0
 91
        0
 92
        4
 93
        0
300

 40
0.0
140
1.0
 94
        2
 62
     0
340
10
144
4.5
309
CONTENTFORMAT_END
171
     1
301
MARGIN
  1
CELLMARGIN_BEGIN
 40
1.5
 40
1.5
 40
1.5
 40
1.5
 40
0.18
 40
0.18
309
CELLMARGIN_END
 94
        6
 95
        1
302
GRIDFORMAT
  1
GRIDFORMAT_BEGIN
 90
        0
 91
        1
 62
     0
 92
       -2
340
0
 93
        0
 40
0.045
309
GRIDFORMAT_END
 95
        2
302
GRIDFORMAT
  1
GRIDFORMAT_BEGIN
 90
        0
 91
        1
 62
     0
 92
       -2
340
0
 93
        0
 40
0.045
309
GRIDFORMAT_END
 95
        4
302
GRIDFORMAT
  1
GRIDFORMAT_BEGIN
 90
        0
 91
        1
 62
     0
 92
       -2
340
0
 93
        0
 40
0.045
309
GRIDFORMAT_END
 95
        8
302
GRIDFORMAT
  1
GRIDFORMAT_BEGIN
 90
        0
 91
        1
 62
     0
 92
       -2
340
0
 93
        0
 40
0.045
309
GRIDFORMAT_END
 95
       16
302
GRIDFORMAT
  1
GRIDFORMAT_BEGIN
 90
        0
 91
        1
 62
     0
 92
       -2
340
0
 93
        0
 40
0.045
309
GRIDFORMAT_END
 95
       32
302
GRIDFORMAT
  1
GRIDFORMAT_BEGIN
 90
        0
 91
        1
 62
     0
 92
       -2
340
0
 93
        0
 40
0.045
309
GRIDFORMAT_END
309
TABLEFORMAT_END
  1
CELLSTYLE_BEGIN
 90
        3
 91
        2
300
_DATA
309
CELLSTYLE_END
  0
XRECORD
  5
1030
102
{ACAD_REACTORS
330
444
102
}
330
444
100
AcDbXrecord
280
     1
102
ACAD_ROUNDTRIP_PRE2007_TABLESTYLE
 90
        4
 91
        0
  1

 92
        4
 93
        0
  2

 94
        4
 95
        0
  3

  0
XRECORD
  5
103C
102
{ACAD_REACTORS
330
103B
102
}
330
103B
100
AcDbXrecord
280
     1
102
RTVSPropertyOp0
 70
     1
102
RTVSPropertyOp1
 70
     1
102
RTVSPropertyOp2
 70
     1
102
RTVSPropertyOp3
 70
     1
102
RTVSPropertyOp4
 70
     1
102
RTVSPropertyOp5
 70
     1
102
RTVSPropertyOp6
 70
     1
102
RTVSPropertyOp7
 70
     1
102
RTVSPropertyOp8
 70
     1
102
RTVSPropertyOp9
 70
     1
102
RTVSPropertyOp10
 70
     1
102
RTVSPropertyOp11
 70
     1
102
RTVSPropertyOp12
 70
     1
102
RTVSPropertyOp13
 70
     1
102
RTVSPropertyOp14
 70
     1
102
RTVSPropertyOp15
 70
     1
102
RTVSPropertyOp16
 70
     1
102
RTVSPropertyOp17
 70
     1
102
RTVSPropertyOp18
 70
     1
102
RTVSPropertyOp19
 70
     1
102
RTVSPropertyOp20
 70
     1
102
RTVSPropertyOp21
 70
     1
102
RTVSPropertyOp22
 70
     1
102
RTVSPropertyOp23
 70
     1
102
RTVSPropertyOp24
 70
     1
102
RTVSPropertyOp25
 70
     1
102
RTVSPropertyOp26
 70
     1
102
RTVSPropertyOp27
 70
     1
102
RTVSPropertyOp28
 70
     1
102
RTVSPropertyOp29
 70
     1
102
RTVSPropertyOp30
 70
     1
102
RTVSPropertyOp31
 70
     1
102
RTVSPropertyOp32
 70
     1
  0
XRECORD
  5
1040
102
{ACAD_REACTORS
330
103F
102
}
330
103F
100
AcDbXrecord
280
     1
102
RTVSPropertyOp0
 70
     1
102
RTVSPropertyOp1
 70
     1
102
RTVSPropertyOp2
 70
     1
102
RTVSPropertyOp3
 70
     1
102
RTVSPropertyOp4
 70
     1
102
RTVSPropertyOp5
 70
     1
102
RTVSPropertyOp6
 70
     1
102
RTVSPropertyOp7
 70
     1
102
RTVSPropertyOp8
 70
     1
102
RTVSPropertyOp9
 70
     1
102
RTVSPropertyOp10
 70
     1
102
RTVSPropertyOp11
 70
     1
102
RTVSPropertyOp12
 70
     1
102
RTVSPropertyOp13
 70
     1
102
RTVSPropertyOp14
 70
     1
102
RTVSPropertyOp15
 70
     1
102
RTVSPropertyOp16
 70
     1
102
RTVSPropertyOp17
 70
     1
102
RTVSPropertyOp18
 70
     1
102
RTVSPropertyOp19
 70
     1
102
RTVSPropertyOp20
 70
     1
102
RTVSPropertyOp21
 70
     1
102
RTVSPropertyOp22
 70
     1
102
RTVSPropertyOp23
 70
     1
102
RTVSPropertyOp24
 70
     1
102
RTVSPropertyOp25
 70
     1
102
RTVSPropertyOp26
 70
     1
102
RTVSPropertyOp27
 70
     1
102
RTVSPropertyOp28
 70
     1
102
RTVSPropertyOp29
 70
     1
102
RTVSPropertyOp30
 70
     1
102
RTVSPropertyOp31
 70
     1
102
RTVSPropertyOp32
 70
     1
  0
XRECORD
  5
103E
102
{ACAD_REACTORS
330
103D
102
}
330
103D
100
AcDbXrecord
280
     1
102
RTVSPropertyOp0
 70
     1
102
RTVSPropertyOp1
 70
     1
102
RTVSPropertyOp2
 70
     1
102
RTVSPropertyOp3
 70
     1
102
RTVSPropertyOp4
 70
     1
102
RTVSPropertyOp5
 70
     1
102
RTVSPropertyOp6
 70
     1
102
RTVSPropertyOp7
 70
     1
102
RTVSPropertyOp8
 70
     1
102
RTVSPropertyOp9
 70
     1
102
RTVSPropertyOp10
 70
     1
102
RTVSPropertyOp11
 70
     1
102
RTVSPropertyOp12
 70
     1
102
RTVSPropertyOp13
 70
     1
102
RTVSPropertyOp14
 70
     1
102
RTVSPropertyOp15
 70
     1
102
RTVSPropertyOp16
 70
     1
102
RTVSPropertyOp17
 70
     1
102
RTVSPropertyOp18
 70
     1
102
RTVSPropertyOp19
 70
     1
102
RTVSPropertyOp20
 70
     1
102
RTVSPropertyOp21
 70
     1
102
RTVSPropertyOp22
 70
     1
102
RTVSPropertyOp23
 70
     1
102
RTVSPropertyOp24
 70
     1
102
RTVSPropertyOp25
 70
     1
102
RTVSPropertyOp26
 70
     1
102
RTVSPropertyOp27
 70
     1
102
RTVSPropertyOp28
 70
     1
102
RTVSPropertyOp29
 70
     1
102
RTVSPropertyOp30
 70
     1
102
RTVSPropertyOp31
 70
     1
102
RTVSPropertyOp32
 70
     1
  0
XRECORD
  5
103A
102
{ACAD_REACTORS
330
1039
102
}
330
1039
100
AcDbXrecord
280
     1
102
RTVSPropertyOp0
 70
     1
102
RTVSPropertyOp1
 70
     1
102
RTVSPropertyOp2
 70
     1
102
RTVSPropertyOp3
 70
     1
102
RTVSPropertyOp4
 70
     1
102
RTVSPropertyOp5
 70
     1
102
RTVSPropertyOp6
 70
     1
102
RTVSPropertyOp7
 70
     1
102
RTVSPropertyOp8
 70
     1
102
RTVSPropertyOp9
 70
     1
102
RTVSPropertyOp10
 70
     1
102
RTVSPropertyOp11
 70
     1
102
RTVSPropertyOp12
 70
     1
102
RTVSPropertyOp13
 70
     1
102
RTVSPropertyOp14
 70
     1
102
RTVSPropertyOp15
 70
     1
102
RTVSPropertyOp16
 70
     1
102
RTVSPropertyOp17
 70
     1
102
RTVSPropertyOp18
 70
     1
102
RTVSPropertyOp19
 70
     1
102
RTVSPropertyOp20
 70
     1
102
RTVSPropertyOp21
 70
     1
102
RTVSPropertyOp22
 70
     1
102
RTVSPropertyOp23
 70
     1
102
RTVSPropertyOp24
 70
     1
102
RTVSPropertyOp25
 70
     1
102
RTVSPropertyOp26
 70
     1
102
RTVSPropertyOp27
 70
     1
102
RTVSPropertyOp28
 70
     1
102
RTVSPropertyOp29
 70
     1
102
RTVSPropertyOp30
 70
     1
102
RTVSPropertyOp31
 70
     1
102
RTVSPropertyOp32
 70
     1
  0
XRECORD
  5
1048
102
{ACAD_REACTORS
330
1047
102
}
330
1047
100
AcDbXrecord
280
     1
102
RTVSPropertyOp0
 70
     1
102
RTVSPropertyOp1
 70
     1
102
RTVSPropertyOp2
 70
     1
102
RTVSPropertyOp3
 70
     1
102
RTVSPropertyOp4
 70
     1
102
RTVSPropertyOp5
 70
     1
102
RTVSPropertyOp6
 70
     1
102
RTVSPropertyOp7
 70
     1
102
RTVSPropertyOp8
 70
     1
102
RTVSPropertyOp9
 70
     1
102
RTVSPropertyOp10
 70
     1
102
RTVSPropertyOp11
 70
     1
102
RTVSPropertyOp12
 70
     1
102
RTVSPropertyOp13
 70
     1
102
RTVSPropertyOp14
 70
     1
102
RTVSPropertyOp15
 70
     1
102
RTVSPropertyOp16
 70
     1
102
RTVSPropertyOp17
 70
     1
102
RTVSPropertyOp18
 70
     1
102
RTVSPropertyOp19
 70
     1
102
RTVSPropertyOp20
 70
     1
102
RTVSPropertyOp21
 70
     1
102
RTVSPropertyOp22
 70
     1
102
RTVSPropertyOp23
 70
     1
102
RTVSPropertyOp24
 70
     1
102
RTVSPropertyOp25
 70
     1
102
RTVSPropertyOp26
 70
     1
102
RTVSPropertyOp27
 70
     1
102
RTVSPropertyOp28
 70
     1
102
RTVSPropertyOp29
 70
     1
102
RTVSPropertyOp30
 70
     1
102
RTVSPropertyOp31
 70
     1
102
RTVSPropertyOp32
 70
     1
  0
XRECORD
  5
1050
102
{ACAD_REACTORS
330
104F
102
}
330
104F
100
AcDbXrecord
280
     1
102
RTVSPropertyOp0
 70
     1
102
RTVSPropertyOp1
 70
     1
102
RTVSPropertyOp2
 70
     1
102
RTVSPropertyOp3
 70
     1
102
RTVSPropertyOp4
 70
     1
102
RTVSPropertyOp5
 70
     1
102
RTVSPropertyOp6
 70
     1
102
RTVSPropertyOp7
 70
     1
102
RTVSPropertyOp8
 70
     1
102
RTVSPropertyOp9
 70
     1
102
RTVSPropertyOp10
 70
     1
102
RTVSPropertyOp11
 70
     1
102
RTVSPropertyOp12
 70
     1
102
RTVSPropertyOp13
 70
     1
102
RTVSPropertyOp14
 70
     1
102
RTVSPropertyOp15
 70
     1
102
RTVSPropertyOp16
 70
     1
102
RTVSPropertyOp17
 70
     1
102
RTVSPropertyOp18
 70
     1
102
RTVSPropertyOp19
 70
     1
102
RTVSPropertyOp20
 70
     1
102
RTVSPropertyOp21
 70
     1
102
RTVSPropertyOp22
 70
     1
102
RTVSPropertyOp23
 70
     1
102
RTVSPropertyOp24
 70
     1
102
RTVSPropertyOp25
 70
     1
102
RTVSPropertyOp26
 70
     1
102
RTVSPropertyOp27
 70
     1
102
RTVSPropertyOp28
 70
     1
102
RTVSPropertyOp29
 70
     1
102
RTVSPropertyOp30
 70
     1
102
RTVSPropertyOp31
 70
     1
102
RTVSPropertyOp32
 70
     1
  0
XRECORD
  5
1042
102
{ACAD_REACTORS
330
1041
102
}
330
1041
100
AcDbXrecord
280
     1
102
RTVSPropertyOp0
 70
     1
102
RTVSPropertyOp1
 70
     1
102
RTVSPropertyOp2
 70
     1
102
RTVSPropertyOp3
 70
     1
102
RTVSPropertyOp4
 70
     1
102
RTVSPropertyOp5
 70
     1
102
RTVSPropertyOp6
 70
     1
102
RTVSPropertyOp7
 70
     1
102
RTVSPropertyOp8
 70
     1
102
RTVSPropertyOp9
 70
     1
102
RTVSPropertyOp10
 70
     1
102
RTVSPropertyOp11
 70
     1
102
RTVSPropertyOp12
 70
     1
102
RTVSPropertyOp13
 70
     1
102
RTVSPropertyOp14
 70
     1
102
RTVSPropertyOp15
 70
     1
102
RTVSPropertyOp16
 70
     1
102
RTVSPropertyOp17
 70
     1
102
RTVSPropertyOp18
 70
     1
102
RTVSPropertyOp19
 70
     1
102
RTVSPropertyOp20
 70
     1
102
RTVSPropertyOp21
 70
     1
102
RTVSPropertyOp22
 70
     1
102
RTVSPropertyOp23
 70
     1
102
RTVSPropertyOp24
 70
     1
102
RTVSPropertyOp25
 70
     1
102
RTVSPropertyOp26
 70
     1
102
RTVSPropertyOp27
 70
     1
102
RTVSPropertyOp28
 70
     1
102
RTVSPropertyOp29
 70
     1
102
RTVSPropertyOp30
 70
     1
102
RTVSPropertyOp31
 70
     1
102
RTVSPropertyOp32
 70
     1
  0
XRECORD
  5
1046
102
{ACAD_REACTORS
330
1045
102
}
330
1045
100
AcDbXrecord
280
     1
102
RTVSPropertyOp0
 70
     1
102
RTVSPropertyOp1
 70
     1
102
RTVSPropertyOp2
 70
     1
102
RTVSPropertyOp3
 70
     1
102
RTVSPropertyOp4
 70
     1
102
RTVSPropertyOp5
 70
     1
102
RTVSPropertyOp6
 70
     1
102
RTVSPropertyOp7
 70
     1
102
RTVSPropertyOp8
 70
     1
102
RTVSPropertyOp9
 70
     1
102
RTVSPropertyOp10
 70
     1
102
RTVSPropertyOp11
 70
     1
102
RTVSPropertyOp12
 70
     1
102
RTVSPropertyOp13
 70
     1
102
RTVSPropertyOp14
 70
     1
102
RTVSPropertyOp15
 70
     1
102
RTVSPropertyOp16
 70
     1
102
RTVSPropertyOp17
 70
     1
102
RTVSPropertyOp18
 70
     1
102
RTVSPropertyOp19
 70
     1
102
RTVSPropertyOp20
 70
     1
102
RTVSPropertyOp21
 70
     1
102
RTVSPropertyOp22
 70
     1
102
RTVSPropertyOp23
 70
     1
102
RTVSPropertyOp24
 70
     1
102
RTVSPropertyOp25
 70
     1
102
RTVSPropertyOp26
 70
     1
102
RTVSPropertyOp27
 70
     1
102
RTVSPropertyOp28
 70
     1
102
RTVSPropertyOp29
 70
     1
102
RTVSPropertyOp30
 70
     1
102
RTVSPropertyOp31
 70
     1
102
RTVSPropertyOp32
 70
     1
  0
XRECORD
  5
1064
102
{ACAD_REACTORS
330
1063
102
}
330
1063
100
AcDbXrecord
280
     1
102
RTVSPropertyOp0
 70
     0
102
RTVSPropertyOp1
 70
     0
102
RTVSPropertyOp2
 70
     0
102
RTVSPropertyOp3
 70
     0
102
RTVSPropertyOp4
 70
     0
102
RTVSPropertyOp5
 70
     0
102
RTVSPropertyOp6
 70
     0
102
RTVSPropertyOp7
 70
     0
102
RTVSPropertyOp8
 70
     0
102
RTVSPropertyOp9
 70
     0
102
RTVSPropertyOp10
 70
     0
102
RTVSPropertyOp11
 70
     0
102
RTVSPropertyOp12
 70
     0
102
RTVSPropertyOp13
 70
     0
102
RTVSPropertyOp14
 70
     2
102
RTVSPropertyOp15
 70
     0
102
RTVSPropertyOp16
 70
     0
102
RTVSPropertyOp17
 70
     0
102
RTVSPropertyOp18
 70
     0
102
RTVSPropertyOp19
 70
     0
102
RTVSPropertyOp20
 70
     0
102
RTVSPropertyOp21
 70
     0
102
RTVSPropertyOp22
 70
     0
102
RTVSPropertyOp23
 70
     0
102
RTVSPropertyOp24
 70
     0
102
RTVSPropertyOp25
 70
     0
102
RTVSPropertyOp26
 70
     0
102
RTVSPropertyOp27
 70
     0
102
RTVSPropertyOp28
 70
     0
102
RTVSPropertyOp29
 70
     0
102
RTVSPropertyOp30
 70
     0
102
RTVSPropertyOp31
 70
     0
102
RTVSPropertyOp32
 70
     0
  0
XRECORD
  5
104E
102
{ACAD_REACTORS
330
104D
102
}
330
104D
100
AcDbXrecord
280
     1
102
RTVSPropertyOp0
 70
     1
102
RTVSPropertyOp1
 70
     1
102
RTVSPropertyOp2
 70
     1
102
RTVSPropertyOp3
 70
     1
102
RTVSPropertyOp4
 70
     1
102
RTVSPropertyOp5
 70
     1
102
RTVSPropertyOp6
 70
     1
102
RTVSPropertyOp7
 70
     1
102
RTVSPropertyOp8
 70
     1
102
RTVSPropertyOp9
 70
     1
102
RTVSPropertyOp10
 70
     1
102
RTVSPropertyOp11
 70
     1
102
RTVSPropertyOp12
 70
     1
102
RTVSPropertyOp13
 70
     1
102
RTVSPropertyOp14
 70
     1
102
RTVSPropertyOp15
 70
     1
102
RTVSPropertyOp16
 70
     1
102
RTVSPropertyOp17
 70
     1
102
RTVSPropertyOp18
 70
     1
102
RTVSPropertyOp19
 70
     1
102
RTVSPropertyOp20
 70
     1
102
RTVSPropertyOp21
 70
     1
102
RTVSPropertyOp22
 70
     1
102
RTVSPropertyOp23
 70
     1
102
RTVSPropertyOp24
 70
     1
102
RTVSPropertyOp25
 70
     1
102
RTVSPropertyOp26
 70
     1
102
RTVSPropertyOp27
 70
     1
102
RTVSPropertyOp28
 70
     1
102
RTVSPropertyOp29
 70
     1
102
RTVSPropertyOp30
 70
     1
102
RTVSPropertyOp31
 70
     1
102
RTVSPropertyOp32
 70
     1
  0
XRECORD
  5
1032
102
{ACAD_REACTORS
330
1031
102
}
330
1031
100
AcDbXrecord
280
     1
102
RTVSPropertyOp0
 70
     1
102
RTVSPropertyOp1
 70
     1
102
RTVSPropertyOp2
 70
     1
102
RTVSPropertyOp3
 70
     1
102
RTVSPropertyOp4
 70
     1
102
RTVSPropertyOp5
 70
     1
102
RTVSPropertyOp6
 70
     1
102
RTVSPropertyOp7
 70
     1
102
RTVSPropertyOp8
 70
     1
102
RTVSPropertyOp9
 70
     1
102
RTVSPropertyOp10
 70
     1
102
RTVSPropertyOp11
 70
     1
102
RTVSPropertyOp12
 70
     1
102
RTVSPropertyOp13
 70
     1
102
RTVSPropertyOp14
 70
     1
102
RTVSPropertyOp15
 70
     1
102
RTVSPropertyOp16
 70
     1
102
RTVSPropertyOp17
 70
     1
102
RTVSPropertyOp18
 70
     1
102
RTVSPropertyOp19
 70
     1
102
RTVSPropertyOp20
 70
     1
102
RTVSPropertyOp21
 70
     1
102
RTVSPropertyOp22
 70
     1
102
RTVSPropertyOp23
 70
     1
102
RTVSPropertyOp24
 70
     1
102
RTVSPropertyOp25
 70
     1
102
RTVSPropertyOp26
 70
     1
102
RTVSPropertyOp27
 70
     1
102
RTVSPropertyOp28
 70
     1
102
RTVSPropertyOp29
 70
     1
102
RTVSPropertyOp30
 70
     1
102
RTVSPropertyOp31
 70
     1
102
RTVSPropertyOp32
 70
     1
  0
XRECORD
  5
1034
102
{ACAD_REACTORS
330
1033
102
}
330
1033
100
AcDbXrecord
280
     1
102
RTVSPropertyOp0
 70
     1
102
RTVSPropertyOp1
 70
     1
102
RTVSPropertyOp2
 70
     1
102
RTVSPropertyOp3
 70
     1
102
RTVSPropertyOp4
 70
     1
102
RTVSPropertyOp5
 70
     1
102
RTVSPropertyOp6
 70
     1
102
RTVSPropertyOp7
 70
     1
102
RTVSPropertyOp8
 70
     1
102
RTVSPropertyOp9
 70
     1
102
RTVSPropertyOp10
 70
     1
102
RTVSPropertyOp11
 70
     1
102
RTVSPropertyOp12
 70
     1
102
RTVSPropertyOp13
 70
     1
102
RTVSPropertyOp14
 70
     1
102
RTVSPropertyOp15
 70
     1
102
RTVSPropertyOp16
 70
     1
102
RTVSPropertyOp17
 70
     1
102
RTVSPropertyOp18
 70
     1
102
RTVSPropertyOp19
 70
     1
102
RTVSPropertyOp20
 70
     1
102
RTVSPropertyOp21
 70
     1
102
RTVSPropertyOp22
 70
     1
102
RTVSPropertyOp23
 70
     1
102
RTVSPropertyOp24
 70
     1
102
RTVSPropertyOp25
 70
     1
102
RTVSPropertyOp26
 70
     1
102
RTVSPropertyOp27
 70
     1
102
RTVSPropertyOp28
 70
     1
102
RTVSPropertyOp29
 70
     1
102
RTVSPropertyOp30
 70
     1
102
RTVSPropertyOp31
 70
     1
102
RTVSPropertyOp32
 70
     1
  0
XRECORD
  5
1036
102
{ACAD_REACTORS
330
1035
102
}
330
1035
100
AcDbXrecord
280
     1
102
RTVSPropertyOp0
 70
     1
102
RTVSPropertyOp1
 70
     1
102
RTVSPropertyOp2
 70
     1
102
RTVSPropertyOp3
 70
     1
102
RTVSPropertyOp4
 70
     1
102
RTVSPropertyOp5
 70
     1
102
RTVSPropertyOp6
 70
     1
102
RTVSPropertyOp7
 70
     1
102
RTVSPropertyOp8
 70
     1
102
RTVSPropertyOp9
 70
     1
102
RTVSPropertyOp10
 70
     1
102
RTVSPropertyOp11
 70
     1
102
RTVSPropertyOp12
 70
     1
102
RTVSPropertyOp13
 70
     1
102
RTVSPropertyOp14
 70
     1
102
RTVSPropertyOp15
 70
     1
102
RTVSPropertyOp16
 70
     1
102
RTVSPropertyOp17
 70
     1
102
RTVSPropertyOp18
 70
     1
102
RTVSPropertyOp19
 70
     1
102
RTVSPropertyOp20
 70
     1
102
RTVSPropertyOp21
 70
     1
102
RTVSPropertyOp22
 70
     1
102
RTVSPropertyOp23
 70
     1
102
RTVSPropertyOp24
 70
     1
102
RTVSPropertyOp25
 70
     1
102
RTVSPropertyOp26
 70
     1
102
RTVSPropertyOp27
 70
     1
102
RTVSPropertyOp28
 70
     1
102
RTVSPropertyOp29
 70
     1
102
RTVSPropertyOp30
 70
     1
102
RTVSPropertyOp31
 70
     1
102
RTVSPropertyOp32
 70
     1
  0
XRECORD
  5
1038
102
{ACAD_REACTORS
330
1037
102
}
330
1037
100
AcDbXrecord
280
     1
102
RTVSPropertyOp0
 70
     1
102
RTVSPropertyOp1
 70
     1
102
RTVSPropertyOp2
 70
     1
102
RTVSPropertyOp3
 70
     1
102
RTVSPropertyOp4
 70
     1
102
RTVSPropertyOp5
 70
     1
102
RTVSPropertyOp6
 70
     1
102
RTVSPropertyOp7
 70
     1
102
RTVSPropertyOp8
 70
     1
102
RTVSPropertyOp9
 70
     1
102
RTVSPropertyOp10
 70
     1
102
RTVSPropertyOp11
 70
     1
102
RTVSPropertyOp12
 70
     1
102
RTVSPropertyOp13
 70
     1
102
RTVSPropertyOp14
 70
     1
102
RTVSPropertyOp15
 70
     1
102
RTVSPropertyOp16
 70
     1
102
RTVSPropertyOp17
 70
     1
102
RTVSPropertyOp18
 70
     1
102
RTVSPropertyOp19
 70
     1
102
RTVSPropertyOp20
 70
     1
102
RTVSPropertyOp21
 70
     1
102
RTVSPropertyOp22
 70
     1
102
RTVSPropertyOp23
 70
     1
102
RTVSPropertyOp24
 70
     1
102
RTVSPropertyOp25
 70
     1
102
RTVSPropertyOp26
 70
     1
102
RTVSPropertyOp27
 70
     1
102
RTVSPropertyOp28
 70
     1
102
RTVSPropertyOp29
 70
     1
102
RTVSPropertyOp30
 70
     1
102
RTVSPropertyOp31
 70
     1
102
RTVSPropertyOp32
 70
     1
  0
XRECORD
  5
1054
102
{ACAD_REACTORS
330
1053
102
}
330
1053
100
AcDbXrecord
280
     1
102
RTVSPropertyOp0
 70
     1
102
RTVSPropertyOp1
 70
     1
102
RTVSPropertyOp2
 70
     1
102
RTVSPropertyOp3
 70
     1
102
RTVSPropertyOp4
 70
     1
102
RTVSPropertyOp5
 70
     1
102
RTVSPropertyOp6
 70
     1
102
RTVSPropertyOp7
 70
     1
102
RTVSPropertyOp8
 70
     1
102
RTVSPropertyOp9
 70
     1
102
RTVSPropertyOp10
 70
     1
102
RTVSPropertyOp11
 70
     1
102
RTVSPropertyOp12
 70
     1
102
RTVSPropertyOp13
 70
     1
102
RTVSPropertyOp14
 70
     1
102
RTVSPropertyOp15
 70
     1
102
RTVSPropertyOp16
 70
     1
102
RTVSPropertyOp17
 70
     1
102
RTVSPropertyOp18
 70
     1
102
RTVSPropertyOp19
 70
     1
102
RTVSPropertyOp20
 70
     1
102
RTVSPropertyOp21
 70
     1
102
RTVSPropertyOp22
 70
     1
102
RTVSPropertyOp23
 70
     1
102
RTVSPropertyOp24
 70
     1
102
RTVSPropertyOp25
 70
     1
102
RTVSPropertyOp26
 70
     1
102
RTVSPropertyOp27
 70
     1
102
RTVSPropertyOp28
 70
     1
102
RTVSPropertyOp29
 70
     1
102
RTVSPropertyOp30
 70
     1
102
RTVSPropertyOp31
 70
     1
102
RTVSPropertyOp32
 70
     1
  0
XRECORD
  5
1060
102
{ACAD_REACTORS
330
105F
102
}
330
105F
100
AcDbXrecord
280
     1
102
RTVSPropertyOp0
 70
     0
102
RTVSPropertyOp1
 70
     0
102
RTVSPropertyOp2
 70
     0
102
RTVSPropertyOp3
 70
     0
102
RTVSPropertyOp4
 70
     0
102
RTVSPropertyOp5
 70
     0
102
RTVSPropertyOp6
 70
     0
102
RTVSPropertyOp7
 70
     0
102
RTVSPropertyOp8
 70
     0
102
RTVSPropertyOp9
 70
     0
102
RTVSPropertyOp10
 70
     0
102
RTVSPropertyOp11
 70
     0
102
RTVSPropertyOp12
 70
     0
102
RTVSPropertyOp13
 70
     0
102
RTVSPropertyOp14
 70
     2
102
RTVSPropertyOp15
 70
     0
102
RTVSPropertyOp16
 70
     0
102
RTVSPropertyOp17
 70
     0
102
RTVSPropertyOp18
 70
     0
102
RTVSPropertyOp19
 70
     0
102
RTVSPropertyOp20
 70
     0
102
RTVSPropertyOp21
 70
     0
102
RTVSPropertyOp22
 70
     0
102
RTVSPropertyOp23
 70
     0
102
RTVSPropertyOp24
 70
     0
102
RTVSPropertyOp25
 70
     0
102
RTVSPropertyOp26
 70
     0
102
RTVSPropertyOp27
 70
     0
102
RTVSPropertyOp28
 70
     0
102
RTVSPropertyOp29
 70
     0
102
RTVSPropertyOp30
 70
     0
102
RTVSPropertyOp31
 70
     0
102
RTVSPropertyOp32
 70
     0
  0
XRECORD
  5
104C
102
{ACAD_REACTORS
330
104B
102
}
330
104B
100
AcDbXrecord
280
     1
102
RTVSPropertyOp0
 70
     1
102
RTVSPropertyOp1
 70
     1
102
RTVSPropertyOp2
 70
     1
102
RTVSPropertyOp3
 70
     1
102
RTVSPropertyOp4
 70
     1
102
RTVSPropertyOp5
 70
     1
102
RTVSPropertyOp6
 70
     1
102
RTVSPropertyOp7
 70
     1
102
RTVSPropertyOp8
 70
     1
102
RTVSPropertyOp9
 70
     1
102
RTVSPropertyOp10
 70
     1
102
RTVSPropertyOp11
 70
     1
102
RTVSPropertyOp12
 70
     1
102
RTVSPropertyOp13
 70
     1
102
RTVSPropertyOp14
 70
     1
102
RTVSPropertyOp15
 70
     1
102
RTVSPropertyOp16
 70
     1
102
RTVSPropertyOp17
 70
     1
102
RTVSPropertyOp18
 70
     1
102
RTVSPropertyOp19
 70
     1
102
RTVSPropertyOp20
 70
     1
102
RTVSPropertyOp21
 70
     1
102
RTVSPropertyOp22
 70
     1
102
RTVSPropertyOp23
 70
     1
102
RTVSPropertyOp24
 70
     1
102
RTVSPropertyOp25
 70
     1
102
RTVSPropertyOp26
 70
     1
102
RTVSPropertyOp27
 70
     1
102
RTVSPropertyOp28
 70
     1
102
RTVSPropertyOp29
 70
     1
102
RTVSPropertyOp30
 70
     1
102
RTVSPropertyOp31
 70
     1
102
RTVSPropertyOp32
 70
     1
  0
XRECORD
  5
1062
102
{ACAD_REACTORS
330
1061
102
}
330
1061
100
AcDbXrecord
280
     1
102
RTVSPropertyOp0
 70
     0
102
RTVSPropertyOp1
 70
     0
102
RTVSPropertyOp2
 70
     0
102
RTVSPropertyOp3
 70
     0
102
RTVSPropertyOp4
 70
     0
102
RTVSPropertyOp5
 70
     0
102
RTVSPropertyOp6
 70
     0
102
RTVSPropertyOp7
 70
     0
102
RTVSPropertyOp8
 70
     0
102
RTVSPropertyOp9
 70
     0
102
RTVSPropertyOp10
 70
     0
102
RTVSPropertyOp11
 70
     0
102
RTVSPropertyOp12
 70
     0
102
RTVSPropertyOp13
 70
     0
102
RTVSPropertyOp14
 70
     2
102
RTVSPropertyOp15
 70
     0
102
RTVSPropertyOp16
 70
     0
102
RTVSPropertyOp17
 70
     0
102
RTVSPropertyOp18
 70
     0
102
RTVSPropertyOp19
 70
     0
102
RTVSPropertyOp20
 70
     0
102
RTVSPropertyOp21
 70
     0
102
RTVSPropertyOp22
 70
     0
102
RTVSPropertyOp23
 70
     0
102
RTVSPropertyOp24
 70
     0
102
RTVSPropertyOp25
 70
     0
102
RTVSPropertyOp26
 70
     0
102
RTVSPropertyOp27
 70
     0
102
RTVSPropertyOp28
 70
     0
102
RTVSPropertyOp29
 70
     0
102
RTVSPropertyOp30
 70
     0
102
RTVSPropertyOp31
 70
     0
102
RTVSPropertyOp32
 70
     0
  0
XRECORD
  5
1044
102
{ACAD_REACTORS
330
1043
102
}
330
1043
100
AcDbXrecord
280
     1
102
RTVSPropertyOp0
 70
     1
102
RTVSPropertyOp1
 70
     1
102
RTVSPropertyOp2
 70
     1
102
RTVSPropertyOp3
 70
     1
102
RTVSPropertyOp4
 70
     1
102
RTVSPropertyOp5
 70
     1
102
RTVSPropertyOp6
 70
     1
102
RTVSPropertyOp7
 70
     1
102
RTVSPropertyOp8
 70
     1
102
RTVSPropertyOp9
 70
     1
102
RTVSPropertyOp10
 70
     1
102
RTVSPropertyOp11
 70
     1
102
RTVSPropertyOp12
 70
     1
102
RTVSPropertyOp13
 70
     1
102
RTVSPropertyOp14
 70
     1
102
RTVSPropertyOp15
 70
     1
102
RTVSPropertyOp16
 70
     1
102
RTVSPropertyOp17
 70
     1
102
RTVSPropertyOp18
 70
     1
102
RTVSPropertyOp19
 70
     1
102
RTVSPropertyOp20
 70
     1
102
RTVSPropertyOp21
 70
     1
102
RTVSPropertyOp22
 70
     1
102
RTVSPropertyOp23
 70
     1
102
RTVSPropertyOp24
 70
     1
102
RTVSPropertyOp25
 70
     1
102
RTVSPropertyOp26
 70
     1
102
RTVSPropertyOp27
 70
     1
102
RTVSPropertyOp28
 70
     1
102
RTVSPropertyOp29
 70
     1
102
RTVSPropertyOp30
 70
     1
102
RTVSPropertyOp31
 70
     1
102
RTVSPropertyOp32
 70
     1
  0
XRECORD
  5
105E
102
{ACAD_REACTORS
330
105D
102
}
330
105D
100
AcDbXrecord
280
     1
102
RTVSPropertyOp0
 70
     1
102
RTVSPropertyOp1
 70
     1
102
RTVSPropertyOp2
 70
     1
102
RTVSPropertyOp3
 70
     1
102
RTVSPropertyOp4
 70
     1
102
RTVSPropertyOp5
 70
     1
102
RTVSPropertyOp6
 70
     1
102
RTVSPropertyOp7
 70
     1
102
RTVSPropertyOp8
 70
     1
102
RTVSPropertyOp9
 70
     1
102
RTVSPropertyOp10
 70
     1
102
RTVSPropertyOp11
 70
     1
102
RTVSPropertyOp12
 70
     1
102
RTVSPropertyOp13
 70
     1
102
RTVSPropertyOp14
 70
     1
102
RTVSPropertyOp15
 70
     1
102
RTVSPropertyOp16
 70
     1
102
RTVSPropertyOp17
 70
     1
102
RTVSPropertyOp18
 70
     1
102
RTVSPropertyOp19
 70
     1
102
RTVSPropertyOp20
 70
     1
102
RTVSPropertyOp21
 70
     1
102
RTVSPropertyOp22
 70
     1
102
RTVSPropertyOp23
 70
     1
102
RTVSPropertyOp24
 70
     1
102
RTVSPropertyOp25
 70
     1
102
RTVSPropertyOp26
 70
     1
102
RTVSPropertyOp27
 70
     1
102
RTVSPropertyOp28
 70
     1
102
RTVSPropertyOp29
 70
     1
102
RTVSPropertyOp30
 70
     1
102
RTVSPropertyOp31
 70
     1
102
RTVSPropertyOp32
 70
     1
  0
XRECORD
  5
105C
102
{ACAD_REACTORS
330
105B
102
}
330
105B
100
AcDbXrecord
280
     1
102
RTVSPropertyOp0
 70
     1
102
RTVSPropertyOp1
 70
     1
102
RTVSPropertyOp2
 70
     1
102
RTVSPropertyOp3
 70
     1
102
RTVSPropertyOp4
 70
     1
102
RTVSPropertyOp5
 70
     1
102
RTVSPropertyOp6
 70
     1
102
RTVSPropertyOp7
 70
     1
102
RTVSPropertyOp8
 70
     1
102
RTVSPropertyOp9
 70
     1
102
RTVSPropertyOp10
 70
     1
102
RTVSPropertyOp11
 70
     1
102
RTVSPropertyOp12
 70
     1
102
RTVSPropertyOp13
 70
     1
102
RTVSPropertyOp14
 70
     1
102
RTVSPropertyOp15
 70
     1
102
RTVSPropertyOp16
 70
     1
102
RTVSPropertyOp17
 70
     1
102
RTVSPropertyOp18
 70
     1
102
RTVSPropertyOp19
 70
     1
102
RTVSPropertyOp20
 70
     1
102
RTVSPropertyOp21
 70
     1
102
RTVSPropertyOp22
 70
     1
102
RTVSPropertyOp23
 70
     1
102
RTVSPropertyOp24
 70
     1
102
RTVSPropertyOp25
 70
     1
102
RTVSPropertyOp26
 70
     1
102
RTVSPropertyOp27
 70
     1
102
RTVSPropertyOp28
 70
     1
102
RTVSPropertyOp29
 70
     1
102
RTVSPropertyOp30
 70
     1
102
RTVSPropertyOp31
 70
     1
102
RTVSPropertyOp32
 70
     1
  0
XRECORD
  5
1056
102
{ACAD_REACTORS
330
1055
102
}
330
1055
100
AcDbXrecord
280
     1
102
RTVSPropertyOp0
 70
     1
102
RTVSPropertyOp1
 70
     1
102
RTVSPropertyOp2
 70
     1
102
RTVSPropertyOp3
 70
     1
102
RTVSPropertyOp4
 70
     1
102
RTVSPropertyOp5
 70
     1
102
RTVSPropertyOp6
 70
     1
102
RTVSPropertyOp7
 70
     1
102
RTVSPropertyOp8
 70
     1
102
RTVSPropertyOp9
 70
     1
102
RTVSPropertyOp10
 70
     1
102
RTVSPropertyOp11
 70
     1
102
RTVSPropertyOp12
 70
     1
102
RTVSPropertyOp13
 70
     1
102
RTVSPropertyOp14
 70
     1
102
RTVSPropertyOp15
 70
     1
102
RTVSPropertyOp16
 70
     1
102
RTVSPropertyOp17
 70
     1
102
RTVSPropertyOp18
 70
     1
102
RTVSPropertyOp19
 70
     1
102
RTVSPropertyOp20
 70
     1
102
RTVSPropertyOp21
 70
     1
102
RTVSPropertyOp22
 70
     1
102
RTVSPropertyOp23
 70
     1
102
RTVSPropertyOp24
 70
     1
102
RTVSPropertyOp25
 70
     1
102
RTVSPropertyOp26
 70
     1
102
RTVSPropertyOp27
 70
     1
102
RTVSPropertyOp28
 70
     1
102
RTVSPropertyOp29
 70
     1
102
RTVSPropertyOp30
 70
     1
102
RTVSPropertyOp31
 70
     1
102
RTVSPropertyOp32
 70
     1
  0
XRECORD
  5
1058
102
{ACAD_REACTORS
330
1057
102
}
330
1057
100
AcDbXrecord
280
     1
102
RTVSPropertyOp0
 70
     1
102
RTVSPropertyOp1
 70
     1
102
RTVSPropertyOp2
 70
     1
102
RTVSPropertyOp3
 70
     1
102
RTVSPropertyOp4
 70
     1
102
RTVSPropertyOp5
 70
     1
102
RTVSPropertyOp6
 70
     1
102
RTVSPropertyOp7
 70
     1
102
RTVSPropertyOp8
 70
     1
102
RTVSPropertyOp9
 70
     1
102
RTVSPropertyOp10
 70
     1
102
RTVSPropertyOp11
 70
     1
102
RTVSPropertyOp12
 70
     1
102
RTVSPropertyOp13
 70
     1
102
RTVSPropertyOp14
 70
     1
102
RTVSPropertyOp15
 70
     1
102
RTVSPropertyOp16
 70
     1
102
RTVSPropertyOp17
 70
     1
102
RTVSPropertyOp18
 70
     1
102
RTVSPropertyOp19
 70
     1
102
RTVSPropertyOp20
 70
     1
102
RTVSPropertyOp21
 70
     1
102
RTVSPropertyOp22
 70
     1
102
RTVSPropertyOp23
 70
     1
102
RTVSPropertyOp24
 70
     1
102
RTVSPropertyOp25
 70
     1
102
RTVSPropertyOp26
 70
     1
102
RTVSPropertyOp27
 70
     1
102
RTVSPropertyOp28
 70
     1
102
RTVSPropertyOp29
 70
     1
102
RTVSPropertyOp30
 70
     1
102
RTVSPropertyOp31
 70
     1
102
RTVSPropertyOp32
 70
     1
  0
XRECORD
  5
104A
102
{ACAD_REACTORS
330
1049
102
}
330
1049
100
AcDbXrecord
280
     1
102
RTVSPropertyOp0
 70
     1
102
RTVSPropertyOp1
 70
     1
102
RTVSPropertyOp2
 70
     1
102
RTVSPropertyOp3
 70
     1
102
RTVSPropertyOp4
 70
     1
102
RTVSPropertyOp5
 70
     1
102
RTVSPropertyOp6
 70
     1
102
RTVSPropertyOp7
 70
     1
102
RTVSPropertyOp8
 70
     1
102
RTVSPropertyOp9
 70
     1
102
RTVSPropertyOp10
 70
     1
102
RTVSPropertyOp11
 70
     1
102
RTVSPropertyOp12
 70
     1
102
RTVSPropertyOp13
 70
     1
102
RTVSPropertyOp14
 70
     1
102
RTVSPropertyOp15
 70
     1
102
RTVSPropertyOp16
 70
     1
102
RTVSPropertyOp17
 70
     1
102
RTVSPropertyOp18
 70
     1
102
RTVSPropertyOp19
 70
     1
102
RTVSPropertyOp20
 70
     1
102
RTVSPropertyOp21
 70
     1
102
RTVSPropertyOp22
 70
     1
102
RTVSPropertyOp23
 70
     1
102
RTVSPropertyOp24
 70
     1
102
RTVSPropertyOp25
 70
     1
102
RTVSPropertyOp26
 70
     1
102
RTVSPropertyOp27
 70
     1
102
RTVSPropertyOp28
 70
     1
102
RTVSPropertyOp29
 70
     1
102
RTVSPropertyOp30
 70
     1
102
RTVSPropertyOp31
 70
     1
102
RTVSPropertyOp32
 70
     1
  0
XRECORD
  5
1052
102
{ACAD_REACTORS
330
1051
102
}
330
1051
100
AcDbXrecord
280
     1
102
RTVSPropertyOp0
 70
     1
102
RTVSPropertyOp1
 70
     1
102
RTVSPropertyOp2
 70
     1
102
RTVSPropertyOp3
 70
     1
102
RTVSPropertyOp4
 70
     1
102
RTVSPropertyOp5
 70
     1
102
RTVSPropertyOp6
 70
     1
102
RTVSPropertyOp7
 70
     1
102
RTVSPropertyOp8
 70
     1
102
RTVSPropertyOp9
 70
     1
102
RTVSPropertyOp10
 70
     1
102
RTVSPropertyOp11
 70
     1
102
RTVSPropertyOp12
 70
     1
102
RTVSPropertyOp13
 70
     1
102
RTVSPropertyOp14
 70
     1
102
RTVSPropertyOp15
 70
     1
102
RTVSPropertyOp16
 70
     1
102
RTVSPropertyOp17
 70
     1
102
RTVSPropertyOp18
 70
     1
102
RTVSPropertyOp19
 70
     1
102
RTVSPropertyOp20
 70
     1
102
RTVSPropertyOp21
 70
     1
102
RTVSPropertyOp22
 70
     1
102
RTVSPropertyOp23
 70
     1
102
RTVSPropertyOp24
 70
     1
102
RTVSPropertyOp25
 70
     1
102
RTVSPropertyOp26
 70
     1
102
RTVSPropertyOp27
 70
     1
102
RTVSPropertyOp28
 70
     1
102
RTVSPropertyOp29
 70
     1
102
RTVSPropertyOp30
 70
     1
102
RTVSPropertyOp31
 70
     1
102
RTVSPropertyOp32
 70
     1
  0
XRECORD
  5
105A
102
{ACAD_REACTORS
330
1059
102
}
330
1059
100
AcDbXrecord
280
     1
102
RTVSPropertyOp0
 70
     1
102
RTVSPropertyOp1
 70
     1
102
RTVSPropertyOp2
 70
     1
102
RTVSPropertyOp3
 70
     1
102
RTVSPropertyOp4
 70
     1
102
RTVSPropertyOp5
 70
     1
102
RTVSPropertyOp6
 70
     1
102
RTVSPropertyOp7
 70
     1
102
RTVSPropertyOp8
 70
     1
102
RTVSPropertyOp9
 70
     1
102
RTVSPropertyOp10
 70
     1
102
RTVSPropertyOp11
 70
     1
102
RTVSPropertyOp12
 70
     1
102
RTVSPropertyOp13
 70
     1
102
RTVSPropertyOp14
 70
     1
102
RTVSPropertyOp15
 70
     1
102
RTVSPropertyOp16
 70
     1
102
RTVSPropertyOp17
 70
     1
102
RTVSPropertyOp18
 70
     1
102
RTVSPropertyOp19
 70
     1
102
RTVSPropertyOp20
 70
     1
102
RTVSPropertyOp21
 70
     1
102
RTVSPropertyOp22
 70
     1
102
RTVSPropertyOp23
 70
     1
102
RTVSPropertyOp24
 70
     1
102
RTVSPropertyOp25
 70
     1
102
RTVSPropertyOp26
 70
     1
102
RTVSPropertyOp27
 70
     1
102
RTVSPropertyOp28
 70
     1
102
RTVSPropertyOp29
 70
     1
102
RTVSPropertyOp30
 70
     1
102
RTVSPropertyOp31
 70
     1
102
RTVSPropertyOp32
 70
     1
  0
ENDSEC
  0
EOF
