  0
SECTION
  2
HEADER
  9
$ACADVER
  1
AC1015
  9
$ACADMAINTVER
 70
    20
  9
$DWGCODEPAGE
  3
ANSI_1252
  9
$INSBASE
 10
0.0
 20
0.0
 30
0.0
  9
$EXTMIN
 10
-98.26771376639113
 20
-57.02789193371756
 30
-0.0015258207003583
  9
$EXTMAX
 10
41.34898481279265
 20
38.63555982550088
 30
0.0000000349246037
  9
$LIMMIN
 10
-170.0
 20
-170.0
  9
$LIMMAX
 10
519.0
 20
260.0
  9
$ORTHOMODE
 70
     0
  9
$REGENMODE
 70
     1
  9
$FILLMODE
 70
     1
  9
$QTEXTMODE
 70
     0
  9
$MIRRTEXT
 70
     0
  9
$LTSCALE
 40
1.0
  9
$ATTMODE
 70
     1
  9
$TEXTSIZE
 40
3.5
  9
$TRACEWID
 40
1.0
  9
$TEXTSTYLE
  7
MM_STANDARD
  9
$CLAYER
  8
0
  9
$CELTYPE
  6
ByLayer
  9
$CECOLOR
 62
   256
  9
$CELTSCALE
 40
1.0
  9
$DISPSILH
 70
     0
  9
$DIMSCALE
 40
1.0
  9
$DIMASZ
 40
2.5
  9
$DIMEXO
 40
0.0
  9
$DIMDLI
 40
3.75
  9
$DIMRND
 40
0.0
  9
$DIMDLE
 40
0.0
  9
$DIMEXE
 40
1.25
  9
$DIMTP
 40
0.0
  9
$DIMTM
 40
0.0
  9
$DIMTXT
 40
3.5
  9
$DIMCEN
 40
0.0
  9
$DIMTSZ
 40
0.0
  9
$DIMTOL
 70
     0
  9
$DIMLIM
 70
     0
  9
$DIMTIH
 70
     0
  9
$DIMTOH
 70
     0
  9
$DIMSE1
 70
     0
  9
$DIMSE2
 70
     0
  9
$DIMTAD
 70
     1
  9
$DIMZIN
 70
     9
  9
$DIMBLK
  1

  9
$DIMASO
 70
     1
  9
$DIMSHO
 70
     1
  9
$DIMPOST
  1

  9
$DIMAPOST
  1

  9
$DIMALT
 70
     0
  9
$DIMALTD
 70
     3
  9
$DIMALTF
 40
0.039370078
  9
$DIMLFAC
 40
1.0
  9
$DIMTOFL
 70
     0
  9
$DIMTVP
 40
0.0
  9
$DIMTIX
 70
     0
  9
$DIMSOXD
 70
     0
  9
$DIMSAH
 70
     0
  9
$DIMBLK1
  1

  9
$DIMBLK2
  1

  9
$DIMSTYLE
  2
MM_STANDARD
  9
$DIMCLRD
 70
   256
  9
$DIMCLRE
 70
   256
  9
$DIMCLRT
 70
   256
  9
$DIMTFAC
 40
1.0
  9
$DIMGAP
 40
0.625
  9
$DIMJUST
 70
     0
  9
$DIMSD1
 70
     0
  9
$DIMSD2
 70
     0
  9
$DIMTOLJ
 70
     1
  9
$DIMTZIN
 70
     8
  9
$DIMALTZ
 70
     0
  9
$DIMALTTZ
 70
     0
  9
$DIMUPT
 70
     0
  9
$DIMDEC
 70
     2
  9
$DIMTDEC
 70
     2
  9
$DIMALTU
 70
     2
  9
$DIMALTTD
 70
     3
  9
$DIMTXSTY
  7
MM_STANDARD
  9
$DIMAUNIT
 70
     0
  9
$DIMADEC
 70
     2
  9
$DIMALTRND
 40
0.0
  9
$DIMAZIN
 70
     2
  9
$DIMDSEP
 70
    46
  9
$DIMATFIT
 70
     3
  9
$DIMFRAC
 70
     0
  9
$DIMLDRBLK
  1

  9
$DIMLUNIT
 70
     2
  9
$DIMLWD
 70
    -1
  9
$DIMLWE
 70
    -1
  9
$DIMTMOVE
 70
     0
  9
$LUNITS
 70
     2
  9
$LUPREC
 70
     4
  9
$SKETCHINC
 40
1.0
  9
$FILLETRAD
 40
2.0
  9
$AUNITS
 70
     0
  9
$AUPREC
 70
     0
  9
$MENU
  1
.
  9
$ELEVATION
 40
0.0
  9
$PELEVATION
 40
0.0
  9
$THICKNESS
 40
0.0
  9
$LIMCHECK
 70
     0
  9
$CHAMFERA
 40
0.0
  9
$CHAMFERB
 40
0.0
  9
$CHAMFERC
 40
0.0
  9
$CHAMFERD
 40
0.0
  9
$SKPOLY
 70
     0
  9
$TDCREATE
 40
2453353.758792489
  9
$TDUCREATE
 40
2453353.717125822
  9
$TDUPDATE
 40
2459284.579875972
  9
$TDUUPDATE
 40
2459284.538209306
  9
$TDINDWG
 40
2.7796021296
  9
$TDUSRTIMER
 40
2.7795886574
  9
$USRTIMER
 70
     1
  9
$ANGBASE
 50
0.0
  9
$ANGDIR
 70
     0
  9
$PDMODE
 70
     1
  9
$PDSIZE
 40
0.0
  9
$PLINEWID
 40
0.0
  9
$SPLFRAME
 70
     0
  9
$SPLINETYPE
 70
     6
  9
$SPLINESEGS
 70
     8
  9
$HANDSEED
  5
2F85E
  9
$SURFTAB1
 70
     6
  9
$SURFTAB2
 70
     6
  9
$SURFTYPE
 70
     6
  9
$SURFU
 70
     6
  9
$SURFV
 70
     6
  9
$UCSBASE
  2

  9
$UCSNAME
  2

  9
$UCSORG
 10
0.0
 20
0.0
 30
0.0
  9
$UCSXDIR
 10
1.0
 20
0.0
 30
0.0
  9
$UCSYDIR
 10
0.0
 20
1.0
 30
0.0
  9
$UCSORTHOREF
  2

  9
$UCSORTHOVIEW
 70
     0
  9
$UCSORGTOP
 10
0.0
 20
0.0
 30
0.0
  9
$UCSORGBOTTOM
 10
0.0
 20
0.0
 30
0.0
  9
$UCSORGLEFT
 10
0.0
 20
0.0
 30
0.0
  9
$UCSORGRIGHT
 10
0.0
 20
0.0
 30
0.0
  9
$UCSORGFRONT
 10
0.0
 20
0.0
 30
0.0
  9
$UCSORGBACK
 10
0.0
 20
0.0
 30
0.0
  9
$PUCSBASE
  2

  9
$PUCSNAME
  2

  9
$PUCSORG
 10
0.0
 20
0.0
 30
0.0
  9
$PUCSXDIR
 10
1.0
 20
0.0
 30
0.0
  9
$PUCSYDIR
 10
0.0
 20
1.0
 30
0.0
  9
$PUCSORTHOREF
  2

  9
$PUCSORTHOVIEW
 70
     0
  9
$PUCSORGTOP
 10
0.0
 20
0.0
 30
0.0
  9
$PUCSORGBOTTOM
 10
0.0
 20
0.0
 30
0.0
  9
$PUCSORGLEFT
 10
0.0
 20
0.0
 30
0.0
  9
$PUCSORGRIGHT
 10
0.0
 20
0.0
 30
0.0
  9
$PUCSORGFRONT
 10
0.0
 20
0.0
 30
0.0
  9
$PUCSORGBACK
 10
0.0
 20
0.0
 30
0.0
  9
$USERI1
 70
     0
  9
$USERI2
 70
     0
  9
$USERI3
 70
     0
  9
$USERI4
 70
     0
  9
$USERI5
 70
     0
  9
$USERR1
 40
0.0
  9
$USERR2
 40
0.0
  9
$USERR3
 40
0.0
  9
$USERR4
 40
0.0
  9
$USERR5
 40
0.0
  9
$WORLDVIEW
 70
     1
  9
$SHADEDGE
 70
     3
  9
$SHADEDIF
 70
    70
  9
$TILEMODE
 70
     1
  9
$MAXACTVP
 70
    64
  9
$PINSBASE
 10
0.0
 20
0.0
 30
0.0
  9
$PLIMCHECK
 70
     0
  9
$PEXTMIN
 10
0.0
 20
0.0
 30
0.0
  9
$PEXTMAX
 10
0.0
 20
0.0
 30
0.0
  9
$PLIMMIN
 10
0.0
 20
0.0
  9
$PLIMMAX
 10
12.0
 20
9.0
  9
$UNITMODE
 70
     0
  9
$VISRETAIN
 70
     0
  9
$PLINEGEN
 70
     0
  9
$PSLTSCALE
 70
     1
  9
$TREEDEPTH
 70
  3020
  9
$CMLSTYLE
  2
Standard
  9
$CMLJUST
 70
     0
  9
$CMLSCALE
 40
20.0
  9
$PROXYGRAPHICS
 70
     0
  9
$MEASUREMENT
 70
     1
  9
$CELWEIGHT
370
    -1
  9
$ENDCAPS
280
     0
  9
$JOINSTYLE
280
     0
  9
$LWDISPLAY
290
     0
  9
$INSUNITS
 70
     4
  9
$HYPERLINKBASE
  1

  9
$STYLESHEET
  1

  9
$XEDIT
290
     1
  9
$CEPSNTYPE
380
     0
  9
$PSTYLEMODE
290
     1
  9
$FINGERPRINTGUID
  2
{049C219F-BC74-4B97-8A86-7E4B06A8BFF9}
  9
$VERSIONGUID
  2
{84118D1C-2E43-4478-8134-7B9E3C529CE7}
  9
$EXTNAMES
290
     1
  9
$PSVPSCALE
 40
0.0
  9
$OLESTARTUP
290
     0
  0
ENDSEC
  0
SECTION
  2
CLASSES
  0
CLASS
  1
ACDBDICTIONARYWDFLT
  2
AcDbDictionaryWithDefault
  3
ObjectDBX Classes
 90
        0
280
     0
281
     0
  0
CLASS
  1
ACDBPLACEHOLDER
  2
AcDbPlaceHolder
  3
ObjectDBX Classes
 90
        0
280
     0
281
     0
  0
CLASS
  1
LAYOUT
  2
AcDbLayout
  3
ObjectDBX Classes
 90
        0
280
     0
281
     0
  0
CLASS
  1
DICTIONARYVAR
  2
AcDbDictionaryVar
  3
ObjectDBX Classes
 90
        0
280
     0
281
     0
  0
CLASS
  1
TABLESTYLE
  2
AcDbTableStyle
  3
ObjectDBX Classes
 90
     4095
280
     0
281
     0
  0
CLASS
  1
SCALE
  2
AcDbScale
  3
ObjectDBX Classes
 90
     1153
280
     0
281
     0
  0
CLASS
  1
RASTERVARIABLES
  2
AcDbRasterVariables
  3
ISM
 90
        0
280
     0
281
     0
  0
CLASS
  1
SORTENTSTABLE
  2
AcDbSortentsTable
  3
ObjectDBX Classes
 90
        0
280
     0
281
     0
  0
CLASS
  1
MATERIAL
  2
AcDbMaterial
  3
ObjectDBX Classes
 90
     1153
280
     0
281
     0
  0
CLASS
  1
VISUALSTYLE
  2
AcDbVisualStyle
  3
ObjectDBX Classes
 90
     4095
280
     0
281
     0
  0
CLASS
  1
MLEADERSTYLE
  2
AcDbMLeaderStyle
  3
ACDB_MLEADERSTYLE_CLASS
 90
     4095
280
     0
281
     0
  0
CLASS
  1
ACDBSECTIONVIEWSTYLE
  2
AcDbSectionViewStyle
  3
ObjectDBX Classes
 90
     1025
280
     0
281
     0
  0
CLASS
  1
ACDBDETAILVIEWSTYLE
  2
AcDbDetailViewStyle
  3
ObjectDBX Classes
 90
     1025
280
     0
281
     0
  0
CLASS
  1
CELLSTYLEMAP
  2
AcDbCellStyleMap
  3
ObjectDBX Classes
 90
     1152
280
     0
281
     0
  0
ENDSEC
  0
SECTION
  2
TABLES
  0
TABLE
  2
VPORT
  5
8
330
0
100
AcDbSymbolTable
 70
     1
  0
VPORT
  5
97
330
8
100
AcDbSymbolTableRecord
100
AcDbViewportTableRecord
  2
*Active
 70
     0
 10
0.0
 20
0.0
 11
1.0
 21
1.0
 12
-28.45936447679924
 22
-9.196166054108346
 13
0.0
 23
0.0
 14
5.0
 24
5.0
 15
5.0
 25
5.0
 16
0.0
 26
0.0
 36
1.0
 17
0.0
 27
0.0
 37
0.0
 40
96.31422353989341
 41
1.793416572077185
 42
50.0
 43
0.0
 44
0.0
 50
0.0
 51
0.0
 71
    16
 72
  2000
 73
     1
 74
     1
 75
     0
 76
     0
 77
     0
 78
     0
281
     0
 65
     1
110
0.0
120
0.0
130
0.0
111
1.0
121
0.0
131
0.0
112
0.0
122
1.0
132
0.0
 79
     0
146
0.0
1001
ACAD_NAV_VCDISPLAY
1070
     3
  0
ENDTAB
  0
TABLE
  2
LTYPE
  5
5
330
0
100
AcDbSymbolTable
 70
     4
  0
LTYPE
  5
14
330
5
100
AcDbSymbolTableRecord
100
AcDbLinetypeTableRecord
  2
ByBlock
 70
     0
  3

 72
    65
 73
     0
 40
0.0
  0
LTYPE
  5
15
330
5
100
AcDbSymbolTableRecord
100
AcDbLinetypeTableRecord
  2
ByLayer
 70
     0
  3

 72
    65
 73
     0
 40
0.0
  0
LTYPE
  5
16
330
5
100
AcDbSymbolTableRecord
100
AcDbLinetypeTableRecord
  2
Continuous
 70
     0
  3
Solid line
 72
    65
 73
     0
 40
0.0
  0
LTYPE
  5
2F7A7
330
5
100
AcDbSymbolTableRecord
100
AcDbLinetypeTableRecord
  2
CENTER2
 70
     0
  3
Center (.5x) ___ _ ___ _ ___ _ ___ _ ___ _ ___
 72
    65
 73
     4
 40
28.57499999999999
 49
19.05
 74
     4
 75
     0
340
0
 46
1.0
 50
0.0
 44
0.0
 45
0.0
 49
-3.174999999999998
 74
     4
 75
     0
340
0
 46
1.0
 50
0.0
 44
0.0
 45
0.0
 49
3.174999999999998
 74
     4
 75
     0
340
0
 46
1.0
 50
0.0
 44
0.0
 45
0.0
 49
-3.174999999999998
 74
     4
 75
     0
340
0
 46
1.0
 50
0.0
 44
0.0
 45
0.0
  0
LTYPE
  5
2F7A8
330
5
100
AcDbSymbolTableRecord
100
AcDbLinetypeTableRecord
  2
HIDDEN
 70
     0
  3
Hidden __ __ __ __ __ __ __ __ __ __ __ __ __ _
 72
    65
 73
     2
 40
9.524999999999996
 49
6.349999999999997
 74
     4
 75
     0
340
0
 46
1.0
 50
0.0
 44
0.0
 45
0.0
 49
-3.174999999999998
 74
     4
 75
     0
340
0
 46
1.0
 50
0.0
 44
0.0
 45
0.0
  0
ENDTAB
  0
TABLE
  2
LAYER
  5
2
102
{ACAD_XDICTIONARY
360
2F7B2
102
}
330
0
100
AcDbSymbolTable
 70
    15
  0
LAYER
  5
10
102
{ACAD_XDICTIONARY
360
2F7A9
102
}
330
2
100
AcDbSymbolTableRecord
100
AcDbLayerTableRecord
  2
0
 70
     0
 62
     7
  6
Continuous
370
    -3
390
F
  0
LAYER
  5
23
102
{ACAD_XDICTIONARY
360
2F7AA
102
}
330
2
100
AcDbSymbolTableRecord
100
AcDbLayerTableRecord
  2
1
 70
     0
 62
     4
  6
Continuous
370
    50
390
F
  0
LAYER
  5
25
102
{ACAD_XDICTIONARY
360
2F7AB
102
}
330
2
100
AcDbSymbolTableRecord
100
AcDbLayerTableRecord
  2
2
 70
     0
 62
     7
  6
Continuous
370
    25
390
F
  0
LAYER
  5
173A
102
{ACAD_XDICTIONARY
360
2F7AC
102
}
330
2
100
AcDbSymbolTableRecord
100
AcDbLayerTableRecord
  2
SK2
 70
     0
 62
     7
  6
Continuous
370
    25
390
F
  0
LAYER
  5
2A
102
{ACAD_XDICTIONARY
360
2F7AD
102
}
330
2
100
AcDbSymbolTableRecord
100
AcDbLayerTableRecord
  2
4
 70
     0
 62
     2
  6
CENTER2
370
    25
390
F
  0
LAYER
  5
2E
102
{ACAD_XDICTIONARY
360
2F7AE
102
}
330
2
100
AcDbSymbolTableRecord
100
AcDbLayerTableRecord
  2
SK6
 70
     0
 62
     5
  6
Continuous
370
    -3
390
F
  0
LAYER
  5
2F
330
2
100
AcDbSymbolTableRecord
100
AcDbLayerTableRecord
  2
DEFPOINTS
 70
     0
 62
     7
  6
Continuous
290
     0
370
    25
390
F
  0
LAYER
  5
375
102
{ACAD_XDICTIONARY
360
2F7AF
102
}
330
2
100
AcDbSymbolTableRecord
100
AcDbLayerTableRecord
  2
CUT
 70
     0
 62
     1
  6
Continuous
370
    25
390
F
  0
LAYER
  5
49B
102
{ACAD_XDICTIONARY
360
2F7B0
102
}
330
2
100
AcDbSymbolTableRecord
100
AcDbLayerTableRecord
  2
INFTOTAL
 70
     0
 62
     9
  6
Continuous
370
    18
390
F
1001
AcAecLayerStandard
1000

1000

  0
LAYER
  5
6C2
102
{ACAD_XDICTIONARY
360
2F7B1
102
}
330
2
100
AcDbSymbolTableRecord
100
AcDbLayerTableRecord
  2
INSERT
 70
     0
 62
     4
  6
Continuous
370
    50
390
F
1001
AcAecLayerStandard
1000

1000

  0
LAYER
  5
2037B
330
2
100
AcDbSymbolTableRecord
100
AcDbLayerTableRecord
  2
SK3
 70
     0
 62
     1
  6
HIDDEN
370
    35
390
F
  0
LAYER
  5
24735
330
2
100
AcDbSymbolTableRecord
100
AcDbLayerTableRecord
  2
SKVIEW1
 70
     0
 62
     4
  6
Continuous
370
    50
390
F
1001
AcAecLayerStandard
1000

1000

  0
LAYER
  5
24737
330
2
100
AcDbSymbolTableRecord
100
AcDbLayerTableRecord
  2
SKVIEW2
 70
     0
 62
     7
  6
Continuous
370
    25
390
F
1001
AcAecLayerStandard
1000

1000

  0
LAYER
  5
2473B
330
2
100
AcDbSymbolTableRecord
100
AcDbLayerTableRecord
  2
SKVIEW4
 70
     0
 62
     2
  6
CENTER2
370
    25
390
F
1001
AcAecLayerStandard
1000

1000

  0
LAYER
  5
2F805
102
{ACAD_XDICTIONARY
360
2F806
102
}
330
2
100
AcDbSymbolTableRecord
100
AcDbLayerTableRecord
  2
NOCUT
 70
     0
 62
     7
  6
ByBlock
370
    25
390
F
1001
AcAecLayerStandard
1000

1000

  0
ENDTAB
  0
TABLE
  2
STYLE
  5
3
330
0
100
AcDbSymbolTable
 70
     2
  0
STYLE
  5
11
330
3
100
AcDbSymbolTableRecord
100
AcDbTextStyleTableRecord
  2
Standard
 70
     0
 40
0.0
 41
1.0
 50
0.0
 71
     0
 42
5.0
  3
monos.ttf
  4

1001
ACAD
1000
Monospac821 BT
1071
       49
  0
STYLE
  5
8B9
330
3
100
AcDbSymbolTableRecord
100
AcDbTextStyleTableRecord
  2
MM_STANDARD
 70
     0
 40
3.5
 41
1.0
 50
0.0
 71
     0
 42
3.5
  3
monos.ttf
  4

1001
ACAD
1000
Monospac821 BT
1071
       49
  0
ENDTAB
  0
TABLE
  2
VIEW
  5
6
330
0
100
AcDbSymbolTable
 70
     0
  0
ENDTAB
  0
TABLE
  2
UCS
  5
7
330
0
100
AcDbSymbolTable
 70
     0
  0
ENDTAB
  0
TABLE
  2
APPID
  5
9
330
0
100
AcDbSymbolTable
 70
    25
  0
APPID
  5
12
330
9
100
AcDbSymbolTableRecord
100
AcDbRegAppTableRecord
  2
ACAD
 70
     0
  0
APPID
  5
2F78F
330
9
100
AcDbSymbolTableRecord
100
AcDbRegAppTableRecord
  2
ACAD_PSEXT
 70
     0
  0
APPID
  5
2F790
330
9
100
AcDbSymbolTableRecord
100
AcDbRegAppTableRecord
  2
ACAD_EXEMPT_FROM_CAD_STANDARDS
 70
     0
  0
APPID
  5
2F791
330
9
100
AcDbSymbolTableRecord
100
AcDbRegAppTableRecord
  2
ACAD_MLEADERVER
 70
     0
  0
APPID
  5
2F792
330
9
100
AcDbSymbolTableRecord
100
AcDbRegAppTableRecord
  2
ACAD_DSTYLE_DIMJAG
 70
     0
  0
APPID
  5
2F793
330
9
100
AcDbSymbolTableRecord
100
AcDbRegAppTableRecord
  2
ACAD_DSTYLE_DIMBREAK
 70
     0
  0
APPID
  5
2F794
330
9
100
AcDbSymbolTableRecord
100
AcDbRegAppTableRecord
  2
ACAD_DSTYLE_DIMTALN
 70
     0
  0
APPID
  5
2F795
330
9
100
AcDbSymbolTableRecord
100
AcDbRegAppTableRecord
  2
AcAecLayerStandard
 70
     0
  0
APPID
  5
2F796
330
9
100
AcDbSymbolTableRecord
100
AcDbRegAppTableRecord
  2
DCO15
 70
     0
  0
APPID
  5
2F797
330
9
100
AcDbSymbolTableRecord
100
AcDbRegAppTableRecord
  2
AcadAnnoPO
 70
     0
  0
APPID
  5
2F798
330
9
100
AcDbSymbolTableRecord
100
AcDbRegAppTableRecord
  2
ACAD_DSTYLE_DIMRADIAL_EXTENSION
 70
     0
  0
APPID
  5
2F799
330
9
100
AcDbSymbolTableRecord
100
AcDbRegAppTableRecord
  2
AcadAnnotative
 70
     0
  0
APPID
  5
2F79A
330
9
100
AcDbSymbolTableRecord
100
AcDbRegAppTableRecord
  2
AcDbDynamicBlockGUID
 70
     0
  0
APPID
  5
2F79B
330
9
100
AcDbSymbolTableRecord
100
AcDbRegAppTableRecord
  2
AcDbBlockRepETag
 70
     0
  0
APPID
  5
2F79C
330
9
100
AcDbSymbolTableRecord
100
AcDbRegAppTableRecord
  2
MCAD_NO_VIS
 70
     0
  0
APPID
  5
2F79D
330
9
100
AcDbSymbolTableRecord
100
AcDbRegAppTableRecord
  2
ACAD_TEMP_GRAPHIC
 70
     0
  0
APPID
  5
2F79E
330
9
100
AcDbSymbolTableRecord
100
AcDbRegAppTableRecord
  2
ACATTRIBSERVICES
 70
     0
  0
APPID
  5
2F79F
330
9
100
AcDbSymbolTableRecord
100
AcDbRegAppTableRecord
  2
DESIGNERASSEMBLIES
 70
     0
  0
APPID
  5
2F7A0
330
9
100
AcDbSymbolTableRecord
100
AcDbRegAppTableRecord
  2
ACAD_NAV_VCDISPLAY
 70
     0
  0
APPID
  5
2F7A1
330
9
100
AcDbSymbolTableRecord
100
AcDbRegAppTableRecord
  2
ACAD_DSTYLE_DIM_LINETYPE
 70
     0
  0
APPID
  5
2F7A2
330
9
100
AcDbSymbolTableRecord
100
AcDbRegAppTableRecord
  2
ACAD_DSTYLE_DIM_EXT1_LINETYPE
 70
     0
  0
APPID
  5
2F7A3
330
9
100
AcDbSymbolTableRecord
100
AcDbRegAppTableRecord
  2
ACAD_DSTYLE_DIM_EXT2_LINETYPE
 70
     0
  0
APPID
  5
2F7A4
330
9
100
AcDbSymbolTableRecord
100
AcDbRegAppTableRecord
  2
ACAD_DSTYLE_DIMARC_LENGTH_SYMBOL
 70
     0
  0
APPID
  5
2F7A5
330
9
100
AcDbSymbolTableRecord
100
AcDbRegAppTableRecord
  2
AcDbAttr
 70
     0
  0
APPID
  5
2F7A6
330
9
100
AcDbSymbolTableRecord
100
AcDbRegAppTableRecord
  2
AcadAnnoMonitorAlertIconDisabled
 70
     0
  0
ENDTAB
  0
TABLE
  2
DIMSTYLE
  5
A
330
0
100
AcDbSymbolTable
 70
     3
100
AcDbDimStyleTable
 71
     1
340
3F
  0
DIMSTYLE
105
27
330
A
100
AcDbSymbolTableRecord
100
AcDbDimStyleTableRecord
  2
Standard
 70
     0
 77
     1
276
     1
278
     0
340
11
  0
DIMSTYLE
105
3F
102
{ACAD_REACTORS
330
2F203
330
2F20F
330
2F22D
330
2F23A
330
2F680
102
}
330
A
100
AcDbSymbolTableRecord
100
AcDbDimStyleTableRecord
  2
MM_STANDARD
 70
     0
 41
2.5
 42
0.0
 43
3.75
 44
1.25
 73
     0
 74
     0
 77
     1
 78
     1
140
3.5
141
0.0
143
0.039370078
147
0.625
171
     3
176
   256
177
   256
178
   256
179
     2
271
     2
272
     2
274
     3
284
     8
340
8B9
371
    -1
372
    -1
1001
ACAD_DSTYLE_DIMJAG
1070
   388
1040
1.5
1001
ACAD_DSTYLE_DIMTALN
1070
   392
1070
     0
  0
ENDTAB
  0
TABLE
  2
BLOCK_RECORD
  5
1
330
0
100
AcDbSymbolTable
 70
     9
  0
BLOCK_RECORD
  5
1F
102
{ACAD_XDICTIONARY
360
2F7C2
102
}
330
1
100
AcDbSymbolTableRecord
100
AcDbBlockTableRecord
  2
*Model_Space
340
22
  0
BLOCK_RECORD
  5
73
330
1
100
AcDbSymbolTableRecord
100
AcDbBlockTableRecord
  2
*Paper_Space
340
74
  0
BLOCK_RECORD
  5
962
330
1
100
AcDbSymbolTableRecord
100
AcDbBlockTableRecord
  2
CERO_POINT
340
0
102
{BLKREFS
331
970
102
}
1001
ACAD
1000
DesignCenter Data
1002
{
1070
     1
1070
     4
1002
}
  0
BLOCK_RECORD
  5
2F20E
330
1
100
AcDbSymbolTableRecord
100
AcDbBlockTableRecord
  2
*D2
340
0
  0
BLOCK_RECORD
  5
2F21B
330
1
100
AcDbSymbolTableRecord
100
AcDbBlockTableRecord
  2
*D3
340
0
  0
BLOCK_RECORD
  5
2F239
330
1
100
AcDbSymbolTableRecord
100
AcDbBlockTableRecord
  2
*D4
340
0
  0
BLOCK_RECORD
  5
2F245
330
1
100
AcDbSymbolTableRecord
100
AcDbBlockTableRecord
  2
*D5
340
0
  0
BLOCK_RECORD
  5
2F68B
330
1
100
AcDbSymbolTableRecord
100
AcDbBlockTableRecord
  2
*D6
340
0
  0
ENDTAB
  0
ENDSEC
  0
SECTION
  2
BLOCKS
  0
BLOCK
  5
20
330
1F
100
AcDbEntity
  8
0
100
AcDbBlockBegin
  2
*Model_Space
 70
     0
 10
0.0
 20
0.0
 30
0.0
  3
*Model_Space
  1

  0
ENDBLK
  5
21
330
1F
100
AcDbEntity
  8
0
100
AcDbBlockEnd
  0
BLOCK
  5
75
330
73
100
AcDbEntity
 67
     1
  8
0
100
AcDbBlockBegin
  2
*Paper_Space
 70
     0
 10
0.0
 20
0.0
 30
0.0
  3
*Paper_Space
  1

  0
ENDBLK
  5
76
330
73
100
AcDbEntity
 67
     1
  8
0
100
AcDbBlockEnd
  0
BLOCK
  5
2F7B3
330
962
100
AcDbEntity
  8
0
100
AcDbBlockBegin
  2
CERO_POINT
 70
     0
 10
0.0
 20
0.0
 30
0.0
  3
CERO_POINT
  1

  0
CIRCLE
  5
964
102
{ACAD_REACTORS
330
969
102
}
330
962
100
AcDbEntity
  8
SK2
100
AcDbCircle
 10
0.0
 20
0.0
 30
0.0
 40
2.5
  0
LINE
  5
965
330
962
100
AcDbEntity
  8
SK2
100
AcDbLine
 10
0.0900000000037835
 20
0.0
 30
0.0
 11
-0.0899999999965076
 21
0.0
 31
0.0
  0
LINE
  5
966
330
962
100
AcDbEntity
  8
SK2
100
AcDbLine
 10
0.0
 20
0.0899999999999182
 30
0.0
 11
0.0
 21
-0.0899999999999182
 31
0.0
  0
LINE
  5
967
102
{ACAD_REACTORS
330
969
102
}
330
962
100
AcDbEntity
  8
SK2
100
AcDbLine
 10
0.0
 20
-2.5
 30
0.0
 11
0.0
 21
2.5
 31
0.0
  0
LINE
  5
968
102
{ACAD_REACTORS
330
969
102
}
330
962
100
AcDbEntity
  8
SK2
100
AcDbLine
 10
2.5
 20
0.0
 30
0.0
 11
-2.5
 21
0.0
 31
0.0
  0
HATCH
  5
969
330
962
100
AcDbEntity
  8
SK2
100
AcDbHatch
 10
0.0
 20
0.0
 30
0.0
210
0.0
220
0.0
230
1.0
  2
ANSI31
 70
     0
 71
     1
 91
        2
 92
        7
 72
     1
 73
     1
 93
        3
 10
0.0
 20
-2.5
 42
0.4142135623730951
 10
2.5
 20
0.0
 42
0.0
 10
0.0
 20
0.0
 42
0.0
 97
        3
330
964
330
968
330
967
 92
        7
 72
     1
 73
     1
 93
        3
 10
0.0
 20
0.0
 42
0.0
 10
0.0
 20
2.5
 42
0.4142135623730951
 10
-2.5
 20
0.0
 42
0.0
 97
        3
330
968
330
967
330
964
 75
     0
 76
     1
 52
180.0
 41
0.1
 77
     0
 78
     1
 53
225.0
 43
5.170976743218488
 44
0.0
 45
0.2245064030267288
 46
-0.2245064030267289
 79
     0
 47
0.0243816376539857
 98
        2
 10
0.8789156907296272
 20
-1.044463114528752
 10
-0.8545028512526187
 20
0.7841600866017872
1001
ACAD
1010
0.0
1020
0.0
1030
0.0
  0
ENDBLK
  5
2F7B4
330
962
100
AcDbEntity
  8
0
100
AcDbBlockEnd
  0
BLOCK
  5
2F7B7
330
2F20E
100
AcDbEntity
  8
0
100
AcDbBlockBegin
  2
*D2
 70
     1
 10
0.0
 20
0.0
 30
0.0
  3
*D2
  1

  0
LINE
  5
2F6D5
330
2F20E
100
AcDbEntity
  8
2
  6
ByBlock
100
AcDbLine
 10
9.654295469266715
 20
13.77171239931076
 30
0.0
 11
20.69681752336139
 21
24.78090879114677
 31
0.0
  0
LINE
  5
2F6D6
330
2F20E
100
AcDbEntity
  8
2
  6
ByBlock
100
AcDbLine
 10
16.06077473094741
 20
20.15885729488414
 30
0.0
 11
16.06077473094741
 21
20.15885729488414
 31
0.0
  0
LINE
  5
2F6D7
330
2F20E
100
AcDbEntity
  8
2
  6
ByBlock
100
AcDbLine
 10
7.883859000000001
 20
12.006619
 30
0.0
 11
7.598565000000008
 21
11.72218599999999
 31
0.0
  0
SOLID
  5
2F6D8
330
2F20E
100
AcDbEntity
  8
2
  6
ByBlock
100
AcDbTrace
 10
7.883859000000001
 20
12.006619
 30
0.0
 11
9.948477702485236
 21
13.47663965443292
 31
0.0
 12
9.360113236048196
 22
14.0667851441886
 32
0.0
 13
9.360113236048196
 23
14.0667851441886
 33
0.0
  0
MTEXT
  5
2F6D9
330
2F20E
100
AcDbEntity
  8
2
  6
ByBlock
100
AcDbMText
 10
14.38393600160219
 20
21.84077194068752
 30
0.0
 40
3.5
 41
0.0
 71
     5
 72
     1
  1
\A1;R0.4
  7
MM_STANDARD
 11
0.7081745877066857
 21
0.7060373597243036
 31
0.0
 73
     1
 44
1.0
1001
ACAD
1000
MTEXTBEGIN
1070
    73
1070
     1
1070
    44
1040
1.0
1070
    74
1070
     0
1000
MTEXTEND
  0
POINT
  5
2F6DA
330
2F20E
100
AcDbEntity
  8
DEFPOINTS
  6
ByBlock
100
AcDbPoint
 10
7.598565000000008
 20
11.72218599999999
 30
0.0
  0
POINT
  5
2F6DB
330
2F20E
100
AcDbEntity
  8
DEFPOINTS
  6
ByBlock
100
AcDbPoint
 10
7.883859000000001
 20
12.006619
 30
0.0
  0
ENDBLK
  5
2F7B8
330
2F20E
100
AcDbEntity
  8
0
100
AcDbBlockEnd
  0
BLOCK
  5
2F7B9
330
2F21B
100
AcDbEntity
  8
0
100
AcDbBlockBegin
  2
*D3
 70
     1
 10
0.0
 20
0.0
 30
0.0
  3
*D3
  1

  0
POINT
  5
2F6E5
330
2F21B
100
AcDbEntity
  8
DEFPOINTS
  6
ByBlock
100
AcDbPoint
 10
8.0
 20
11.72480299999998
 30
0.0
  0
POINT
  5
2F6E6
330
2F21B
100
AcDbEntity
  8
DEFPOINTS
  6
ByBlock
100
AcDbPoint
 10
0.0
 20
11.67800499999998
 30
0.0
  0
LINE
  5
2F6E7
330
2F21B
100
AcDbEntity
  8
2
  6
ByBlock
100
AcDbLine
 10
8.0
 20
11.72480299999998
 30
0.0
 11
8.000212193510574
 21
24.46882039487589
 31
0.0
  0
LINE
  5
2F6E8
330
2F21B
100
AcDbEntity
  8
2
  6
ByBlock
100
AcDbLine
 10
-0.0000000000000001
 20
11.67800499999998
 30
0.0
 11
0.0002129749358131
 21
24.4689535983914
 31
0.0
  0
LINE
  5
2F6E9
330
2F21B
100
AcDbEntity
  8
2
  6
ByBlock
100
AcDbLine
 10
8.000191380459245
 20
23.21882039504916
 30
0.0
 11
0.0001921618844837
 21
23.21895359856468
 31
0.0
  0
SOLID
  5
2F6EA
330
2F21B
100
AcDbEntity
  8
2
  6
ByBlock
100
AcDbTrace
 10
8.000191380459245
 20
23.21882039504916
 30
0.0
 11
5.500198318489568
 21
23.63552868776081
 31
0.0
 12
5.500184443122014
 22
22.80219535454283
 32
0.0
 13
5.500184443122014
 23
22.80219535454283
 33
0.0
  0
SOLID
  5
2F6EB
330
2F21B
100
AcDbEntity
  8
2
  6
ByBlock
100
AcDbTrace
 10
0.0001921618844837
 20
23.21895359856468
 30
0.0
 11
2.500199099221713
 21
23.63557863907101
 31
0.0
 12
2.500185223854161
 22
22.80224530585304
 32
0.0
 13
2.500185223854161
 23
22.80224530585304
 33
0.0
  0
LINE
  5
2F6EC
330
2F21B
100
AcDbEntity
  8
2
  6
ByBlock
100
AcDbLine
 10
8.0
 20
11.72480299999998
 30
0.0
 11
8.0
 21
11.72480299999998
 31
0.0
  0
MTEXT
  5
2F6ED
330
2F21B
100
AcDbEntity
  8
2
  6
ByBlock
100
AcDbMText
 10
4.000040752919829
 20
25.66644497576754
 30
0.0
 40
3.5
 41
0.0
 71
     5
 72
     1
  1
\A1;8
  7
MM_STANDARD
 11
0.9999999998613816
 21
-0.0000166504410634
 31
0.0
 73
     1
 44
1.0
1001
ACAD
1000
MTEXTBEGIN
1070
    73
1070
     1
1070
    44
1040
1.0
1070
    74
1070
     0
1000
MTEXTEND
  0
ENDBLK
  5
2F7BA
330
2F21B
100
AcDbEntity
  8
0
100
AcDbBlockEnd
  0
BLOCK
  5
2F7BB
330
2F239
100
AcDbEntity
  8
0
100
AcDbBlockBegin
  2
*D4
 70
     1
 10
0.0
 20
0.0
 30
0.0
  3
*D4
  1

  0
POINT
  5
2F751
330
2F239
100
AcDbEntity
  8
DEFPOINTS
  6
ByBlock
100
AcDbPoint
 10
-49.10704529434235
 20
-12.12490650000001
 30
0.0
  0
POINT
  5
2F752
330
2F239
100
AcDbEntity
  8
DEFPOINTS
  6
ByBlock
100
AcDbPoint
 10
-49.01195529434236
 20
12.12490649999998
 30
0.0
  0
LINE
  5
2F753
330
2F239
100
AcDbEntity
  8
SKVIEW2
  6
ByBlock
100
AcDbLine
 10
-49.10704529434235
 20
-12.12490650000001
 30
0.0
 11
-74.63057668603089
 21
-12.02482190965551
 31
0.0
  0
LINE
  5
2F754
330
2F239
100
AcDbEntity
  8
SKVIEW2
  6
ByBlock
100
AcDbLine
 10
-49.01195529434236
 20
12.12490649999998
 30
0.0
 11
-74.5354866860309
 21
12.22499109034448
 31
0.0
  0
LINE
  5
2F755
330
2F239
100
AcDbEntity
  8
SKVIEW2
  6
ByBlock
100
AcDbLine
 10
-73.3805862961311
 20
-12.02972345616128
 30
0.0
 11
-73.2854962961311
 21
12.22008954383871
 31
0.0
  0
SOLID
  5
2F756
330
2F239
100
AcDbEntity
  8
SKVIEW2
  6
ByBlock
100
AcDbTrace
 10
-73.3805862961311
 20
-12.02972345616128
 30
0.0
 11
-72.95411973981955
 21
-9.531376525196931
 31
0.0
 12
-73.78744666641958
 22
-9.528108827526423
 32
0.0
 13
-73.78744666641958
 23
-9.528108827526423
 33
0.0
  0
SOLID
  5
2F757
330
2F239
100
AcDbEntity
  8
SKVIEW2
  6
ByBlock
100
AcDbTrace
 10
-73.2854962961311
 20
12.22008954383871
 30
0.0
 11
-72.87863592584258
 21
9.718474915203859
 31
0.0
 12
-73.71196285244264
 22
9.721742612874367
 32
0.0
 13
-73.71196285244264
 23
9.721742612874367
 33
0.0
  0
LINE
  5
2F758
330
2F239
100
AcDbEntity
  8
SKVIEW2
  6
ByBlock
100
AcDbLine
 10
-49.10704529434235
 20
-12.12490650000001
 30
0.0
 11
-49.10704529434235
 21
-12.12490650000001
 31
0.0
  0
MTEXT
  5
2F759
330
2F239
100
AcDbEntity
  8
SKVIEW2
  6
ByBlock
100
AcDbMText
 10
-75.87896339346155
 20
0.1051667412070554
 30
0.0
 40
3.5
 41
0.0
 71
     5
 72
     1
  1
%%c\A1;24.25
  7
MM_STANDARD
 11
0.0039212372046109
 21
0.9999923119198394
 31
0.0
 73
     1
 44
1.0
1001
ACAD
1000
MTEXTBEGIN
1070
    73
1070
     1
1070
    44
1040
1.0
1070
    74
1070
     0
1000
MTEXTEND
  0
ENDBLK
  5
2F7BC
330
2F239
100
AcDbEntity
  8
0
100
AcDbBlockEnd
  0
BLOCK
  5
2F7BD
330
2F245
100
AcDbEntity
  8
0
100
AcDbBlockBegin
  2
*D5
 70
     1
 10
0.0
 20
0.0
 30
0.0
  3
*D5
  1

  0
LINE
  5
2F785
330
2F245
100
AcDbEntity
  8
SKVIEW2
  6
ByBlock
100
AcDbLine
 10
-45.71874329431682
 20
-5.282219166707045
 30
0.0
 11
-33.99644518256093
 21
-23.81686221197377
 31
0.0
  0
LINE
  5
2F786
330
2F245
100
AcDbEntity
  8
SKVIEW2
  6
ByBlock
100
AcDbLine
 10
-37.48515386860792
 20
-18.30071089349167
 30
0.0
 11
-37.48515386860792
 21
-18.30071089349167
 31
0.0
  0
LINE
  5
2F787
330
2F245
100
AcDbEntity
  8
SKVIEW2
  6
ByBlock
100
AcDbLine
 10
-52.40025829436789
 20
5.282219166707045
 30
0.0
 11
-53.73656129439343
 21
7.395106833414093
 31
0.0
  0
LINE
  5
2F788
330
2F245
100
AcDbEntity
  8
SKVIEW2
  6
ByBlock
100
AcDbLine
 10
-47.05504629434236
 20
-3.169331499999998
 30
0.0
 11
-51.06395529434236
 21
3.169331499999998
 31
0.0
  0
SOLID
  5
2F789
330
2F245
100
AcDbEntity
  8
SKVIEW2
  6
ByBlock
100
AcDbTrace
 10
-51.06395529434236
 20
3.169331499999998
 30
0.0
 11
-52.75240623881914
 21
5.059502000036077
 31
0.0
 12
-52.04811034991664
 22
5.504936333378012
 32
0.0
 13
-52.04811034991664
 23
5.504936333378012
 33
0.0
  0
SOLID
  5
2F78A
330
2F245
100
AcDbEntity
  8
SKVIEW2
  6
ByBlock
100
AcDbTrace
 10
-47.05504629434236
 20
-3.169331499999998
 30
0.0
 11
-46.07089123876808
 21
-5.504936333378012
 31
0.0
 12
-45.36659534986557
 22
-5.059502000036077
 32
0.0
 13
-45.36659534986557
 23
-5.059502000036077
 33
0.0
  0
MTEXT
  5
2F78B
102
{ACAD_XDICTIONARY
360
2F824
102
}
330
2F245
100
AcDbEntity
  8
SKVIEW2
  6
ByBlock
100
AcDbMText
 10
-35.47791058523622
 20
-17.03122304346741
 30
0.0
 40
3.5
 41
0.0
 71
     5
 72
     1
  1
\A1;\U+22057.5
  7
MM_STANDARD
 11
0.5345212000102145
 21
-0.8451550666828191
 31
0.0
 73
     1
 44
1.0
1001
ACAD
1000
MTEXTBEGIN
1070
    73
1070
     1
1070
    44
1040
1.0
1070
    74
1070
     0
1000
MTEXTEND
  0
POINT
  5
2F78C
330
2F245
100
AcDbEntity
  8
DEFPOINTS
  6
ByBlock
100
AcDbPoint
 10
-51.06395529434236
 20
3.169331499999998
 30
0.0
  0
POINT
  5
2F78D
330
2F245
100
AcDbEntity
  8
DEFPOINTS
  6
ByBlock
100
AcDbPoint
 10
-47.05504629434236
 20
-3.169331499999998
 30
0.0
  0
ENDBLK
  5
2F7BE
330
2F245
100
AcDbEntity
  8
0
100
AcDbBlockEnd
  0
BLOCK
  5
2F7BF
330
2F68B
100
AcDbEntity
  8
0
100
AcDbBlockBegin
  2
*D6
 70
     1
 10
0.0
 20
0.0
 30
0.0
  3
*D6
  1

  0
POINT
  5
2F71B
330
2F68B
100
AcDbEntity
  8
DEFPOINTS
  6
ByBlock
100
AcDbPoint
 10
0.0
 20
6.5
 30
0.0
  0
POINT
  5
2F71C
330
2F68B
100
AcDbEntity
  8
DEFPOINTS
  6
ByBlock
100
AcDbPoint
 10
0.0
 20
-6.5
 30
0.0
  0
LINE
  5
2F71D
330
2F68B
100
AcDbEntity
  8
2
  6
ByBlock
100
AcDbLine
 10
0.0
 20
6.5
 30
0.0
 11
-14.65922395392006
 21
6.5
 31
0.0
  0
LINE
  5
2F71E
330
2F68B
100
AcDbEntity
  8
2
  6
ByBlock
100
AcDbLine
 10
0.0
 20
-6.5
 30
0.0
 11
-14.65922395392006
 21
-6.5
 31
0.0
  0
LINE
  5
2F71F
330
2F68B
100
AcDbEntity
  8
2
  6
ByBlock
100
AcDbLine
 10
-13.40922395392006
 20
6.5
 30
0.0
 11
-13.40922395392006
 21
-6.5
 31
0.0
  0
SOLID
  5
2F720
330
2F68B
100
AcDbEntity
  8
2
  6
ByBlock
100
AcDbTrace
 10
-13.40922395392006
 20
6.5
 30
0.0
 11
-13.82589062058681
 21
4.0
 31
0.0
 12
-12.99255728725331
 22
4.0
 32
0.0
 13
-12.99255728725331
 23
4.0
 33
0.0
  0
SOLID
  5
2F721
330
2F68B
100
AcDbEntity
  8
2
  6
ByBlock
100
AcDbTrace
 10
-13.40922395392006
 20
-6.5
 30
0.0
 11
-13.82589062058681
 21
-4.0
 31
0.0
 12
-12.99255728725331
 22
-4.0
 32
0.0
 13
-12.99255728725331
 23
-4.0
 33
0.0
  0
LINE
  5
2F722
330
2F68B
100
AcDbEntity
  8
2
  6
ByBlock
100
AcDbLine
 10
0.0
 20
6.5
 30
0.0
 11
0.0
 21
6.5
 31
0.0
  0
MTEXT
  5
2F723
330
2F68B
100
AcDbEntity
  8
2
  6
ByBlock
100
AcDbMText
 10
-15.9551656264429
 20
0.0
 30
0.0
 40
3.5
 41
0.0
 71
     5
 72
     1
  1
%%C\A1;13
  7
MM_STANDARD
 11
0.0000000000000001
 21
1.0
 31
0.0
 73
     1
 44
1.0
1001
ACAD
1000
MTEXTBEGIN
1070
    73
1070
     1
1070
    44
1040
1.0
1070
    74
1070
     0
1000
MTEXTEND
  0
ENDBLK
  5
2F7C0
330
2F68B
100
AcDbEntity
  8
0
100
AcDbBlockEnd
  0
ENDSEC
  0
SECTION
  2
ENTITIES
  0
INSERT
  5
970
330
1F
100
AcDbEntity
  8
SK2
100
AcDbBlockReference
  2
CERO_POINT
 10
-0.000000000003638
 20
0.0
 30
0.0
  0
LINE
  5
AA8
330
1F
100
AcDbEntity
  8
INFTOTAL
100
AcDbLine
 10
-98.23786195167851
 20
-4.970095281920294
 30
0.0
 11
-98.23786195167851
 21
38.62162711431847
 31
0.0
  0
LINE
  5
AA9
330
1F
100
AcDbEntity
  8
INFTOTAL
100
AcDbLine
 10
-98.23786195167851
 20
38.62162711431847
 30
0.0
 11
-41.83407558291945
 21
38.62162711431847
 31
0.0
  0
LINE
  5
AAA
330
1F
100
AcDbEntity
  8
INFTOTAL
100
AcDbLine
 10
-14.04391254727625
 20
-57.01592477446046
 30
0.0
 11
41.31486870380784
 21
-57.01592477446046
 31
0.0
  0
LINE
  5
AAB
330
1F
100
AcDbEntity
  8
INFTOTAL
100
AcDbLine
 10
41.31486870380784
 20
-57.01592477446046
 30
0.0
 11
41.31486870380784
 21
-16.56780857786589
 31
0.0
  0
POINT
  5
AFA
330
1F
100
AcDbEntity
  8
INSERT
100
AcDbPoint
 10
120.6316161181774
 20
18.06659889820604
 30
0.0
  0
POINT
  5
AFB
330
1F
100
AcDbEntity
  8
INSERT
100
AcDbPoint
 10
117.3316161181774
 20
20.61513489820602
 30
0.0
  0
POINT
  5
136D
330
1F
100
AcDbEntity
  8
CUT
100
AcDbPoint
 10
120.6316161181774
 20
18.03682647108094
 30
0.0
  0
POINT
  5
410F
330
1F
100
AcDbEntity
  8
0
 62
     7
370
     5
100
AcDbPoint
 10
694.5793644972614
 20
32.06429484497903
 30
0.0
  0
POINT
  5
4112
330
1F
100
AcDbEntity
  8
0
 62
     7
370
     5
100
AcDbPoint
 10
694.7265624972615
 20
3.587258844979031
 30
0.0
  0
POINT
  5
4BBB
330
1F
100
AcDbEntity
  8
0
 62
     7
370
     5
100
AcDbPoint
 10
928.2803214655135
 20
36.14402775200896
 30
0.0
  0
POINT
  5
4BBE
330
1F
100
AcDbEntity
  8
0
 62
     7
370
     5
100
AcDbPoint
 10
927.9725574655133
 20
-13.37717824799107
 30
0.0
  0
POINT
  5
4C3D
330
1F
100
AcDbEntity
  8
0
 62
     7
370
     5
100
AcDbPoint
 10
1260.468250897024
 20
34.18197122255629
 30
0.0
  0
POINT
  5
4C41
330
1F
100
AcDbEntity
  8
0
 62
     7
370
     5
100
AcDbPoint
 10
1192.987798897024
 20
34.42276422255628
 30
0.0
  0
POINT
  5
4CA6
330
1F
100
AcDbEntity
  8
0
 62
     7
370
     5
100
AcDbPoint
 10
1531.370477890708
 20
36.54134112174947
 30
0.0
  0
POINT
  5
4CAA
330
1F
100
AcDbEntity
  8
0
 62
     7
370
     5
100
AcDbPoint
 10
1454.809556890707
 20
33.56345212174947
 30
0.0
  0
POINT
  5
4D13
330
1F
100
AcDbEntity
  8
0
 62
     7
370
     5
100
AcDbPoint
 10
705.1278997494348
 20
-154.9600065549146
 30
0.0
  0
POINT
  5
4D16
330
1F
100
AcDbEntity
  8
0
 62
     7
370
     5
100
AcDbPoint
 10
704.8201357494348
 20
-214.4959135549147
 30
0.0
  0
POINT
  5
4D94
330
1F
100
AcDbEntity
  8
0
 62
     7
370
     5
100
AcDbPoint
 10
1787.824033288602
 20
31.89640981289145
 30
0.0
  0
POINT
  5
4D98
330
1F
100
AcDbEntity
  8
0
 62
     7
370
     5
100
AcDbPoint
 10
1715.838491288602
 20
29.33517681289146
 30
0.0
  0
POINT
  5
4DFF
330
1F
100
AcDbEntity
  8
0
 62
     3
370
     5
100
AcDbPoint
 10
1267.112797580298
 20
-159.0002427017263
 30
0.0
  0
POINT
  5
4E03
330
1F
100
AcDbEntity
  8
0
 62
     3
370
     5
100
AcDbPoint
 10
1194.506377580298
 20
-161.9343927017263
 30
0.0
  0
POINT
  5
4E6A
330
1F
100
AcDbEntity
  8
0
 62
     7
370
     5
100
AcDbPoint
 10
1544.710960196184
 20
-155.8112991948312
 30
0.0
  0
POINT
  5
4E6E
330
1F
100
AcDbEntity
  8
0
 62
     3
370
     5
100
AcDbPoint
 10
1456.283339196184
 20
-157.1011921948312
 30
0.0
  0
POINT
  5
4ED5
330
1F
100
AcDbEntity
  8
0
 62
     7
370
     5
100
AcDbPoint
 10
923.0975508391153
 20
-198.2811869580544
 30
0.0
  0
POINT
  5
4ED6
330
1F
100
AcDbEntity
  8
0
 62
     7
370
     5
100
AcDbPoint
 10
958.0975508391155
 20
-190.2811869580544
 30
0.0
  0
POINT
  5
4ED9
330
1F
100
AcDbEntity
  8
0
 62
     7
370
     5
100
AcDbPoint
 10
957.9030798391153
 20
-228.1917289580544
 30
0.0
  0
POINT
  5
4F57
330
1F
100
AcDbEntity
  8
0
 62
     7
370
     5
100
AcDbPoint
 10
450.9331152202981
 20
34.51099349283641
 30
0.0
  0
POINT
  5
4F5A
330
1F
100
AcDbEntity
  8
0
 62
     7
370
     5
100
AcDbPoint
 10
450.3789362202981
 20
-3.505724507163591
 30
0.0
  0
POINT
  5
4FD6
330
1F
100
AcDbEntity
  8
0
 62
     7
370
     5
100
AcDbPoint
 10
414.7355793530676
 20
-182.3643573412055
 30
0.0
  0
POINT
  5
4FD9
330
1F
100
AcDbEntity
  8
0
 62
     7
370
     5
100
AcDbPoint
 10
414.4028163530678
 20
-227.6410343412055
 30
0.0
  0
POINT
  5
5057
330
1F
100
AcDbEntity
  8
0
 62
     7
370
     5
100
AcDbPoint
 10
411.1596871436125
 20
-404.5108996529686
 30
0.0
  0
POINT
  5
505A
330
1F
100
AcDbEntity
  8
0
 62
     7
370
     5
100
AcDbPoint
 10
410.8519251436126
 20
-448.9004636529686
 30
0.0
  0
POINT
  5
50DA
330
1F
100
AcDbEntity
  8
0
 62
     7
370
     5
100
AcDbPoint
 10
696.3752719090887
 20
-405.5632373962983
 30
0.0
  0
POINT
  5
50DD
330
1F
100
AcDbEntity
  8
0
 62
     7
370
     5
100
AcDbPoint
 10
696.0675099090884
 20
-458.9718843962983
 30
0.0
  0
POINT
  5
515E
330
1F
100
AcDbEntity
  8
0
 62
     7
370
     5
100
AcDbPoint
 10
942.932329238496
 20
-403.2148016805113
 30
0.0
  0
POINT
  5
5161
330
1F
100
AcDbEntity
  8
0
 62
     3
370
     5
100
AcDbPoint
 10
942.624565238496
 20
-476.4638956805113
 30
0.0
  0
POINT
  5
51E0
330
1F
100
AcDbEntity
  8
0
 62
     7
370
     5
100
AcDbPoint
 10
380.0596661818993
 20
-637.2898669140809
 30
0.0
  0
POINT
  5
51E4
330
1F
100
AcDbEntity
  8
0
 62
     7
370
     5
100
AcDbPoint
 10
379.7269051818993
 20
-669.3765459140807
 30
0.0
  0
POINT
  5
5263
330
1F
100
AcDbEntity
  8
0
 62
     7
370
     5
100
AcDbPoint
 10
656.1064603234972
 20
-644.2320044768857
 30
0.0
  0
POINT
  5
5267
330
1F
100
AcDbEntity
  8
0
 62
     7
370
     5
100
AcDbPoint
 10
655.7736983234972
 20
-681.5918884768857
 30
0.0
  0
POINT
  5
52E6
330
1F
100
AcDbEntity
  8
0
 62
     7
370
     5
100
AcDbPoint
 10
921.5387707571863
 20
-642.2430056930917
 30
0.0
  0
POINT
  5
52EA
330
1F
100
AcDbEntity
  8
0
 62
     7
370
     5
100
AcDbPoint
 10
921.2310077571864
 20
-692.8111586930919
 30
0.0
  0
POINT
  5
536A
330
1F
100
AcDbEntity
  8
0
 62
     7
370
     5
100
AcDbPoint
 10
1232.563978885883
 20
-644.0998079544141
 30
0.0
  0
POINT
  5
536E
330
1F
100
AcDbEntity
  8
0
 62
     7
370
     5
100
AcDbPoint
 10
1232.256215885883
 20
-701.4147569544141
 30
0.0
  0
POINT
  5
53EE
330
1F
100
AcDbEntity
  8
0
 62
     7
370
     5
100
AcDbPoint
 10
1530.052638397992
 20
-643.475919607774
 30
0.0
  0
POINT
  5
53F2
330
1F
100
AcDbEntity
  8
0
 62
     7
370
     5
100
AcDbPoint
 10
1529.744875397992
 20
-702.095046607774
 30
0.0
  0
POINT
  5
5472
330
1F
100
AcDbEntity
  8
0
 62
     7
370
     5
100
AcDbPoint
 10
684.9908237883022
 20
27.90718926625232
 30
0.0
  0
POINT
  5
5475
330
1F
100
AcDbEntity
  8
0
 62
     7
370
     5
100
AcDbPoint
 10
685.1380217883022
 20
-0.5698467337476814
 30
0.0
  0
POINT
  5
C167
330
1F
100
AcDbEntity
  8
0
 62
     7
370
     5
100
AcDbPoint
 10
404.6381194571074
 20
31.25869005531058
 30
0.0
  0
POINT
  5
C170
330
1F
100
AcDbEntity
  8
0
 62
     7
370
     5
100
AcDbPoint
 10
404.6381194571074
 20
-40.40044294468938
 30
0.0
  0
POINT
  5
C178
330
1F
100
AcDbEntity
  8
0
 62
     7
370
     5
100
AcDbPoint
 10
693.6166312048997
 20
32.91651042690259
 30
0.0
  0
POINT
  5
C182
330
1F
100
AcDbEntity
  8
0
 62
     7
370
     5
100
AcDbPoint
 10
693.6166312048997
 20
-48.79153757309743
 30
0.0
  0
POINT
  5
C255
330
1F
100
AcDbEntity
  8
0
 62
     7
370
     5
100
AcDbPoint
 10
969.8580521302226
 20
-44.97487572475608
 30
0.0
  0
POINT
  5
C258
330
1F
100
AcDbEntity
  8
0
 62
     7
370
     5
100
AcDbPoint
 10
969.8580521302226
 20
15.7863642752439
 30
0.0
  0
POINT
  5
C2E1
330
1F
100
AcDbEntity
  8
0
 62
     7
370
     5
100
AcDbPoint
 10
1225.348704188238
 20
-52.24776141224177
 30
0.0
  0
POINT
  5
C2E4
330
1F
100
AcDbEntity
  8
0
 62
     7
370
     5
100
AcDbPoint
 10
1225.348704188238
 20
11.68361158775823
 30
0.0
  0
POINT
  5
C36E
330
1F
100
AcDbEntity
  8
0
 62
     7
370
     5
100
AcDbPoint
 10
1738.913115957113
 20
-214.1607529893734
 30
0.0
  0
POINT
  5
C377
330
1F
100
AcDbEntity
  8
0
 62
     3
370
     5
100
AcDbPoint
 10
1738.913115957113
 20
-286.8828409893735
 30
0.0
  0
POINT
  5
C42D
330
1F
100
AcDbEntity
  8
0
 62
     7
370
     5
100
AcDbPoint
 10
430.2380300204257
 20
-176.3158258460635
 30
0.0
  0
POINT
  5
C437
330
1F
100
AcDbEntity
  8
0
 62
     7
370
     5
100
AcDbPoint
 10
430.2380300204257
 20
-251.7521558460636
 30
0.0
  0
POINT
  5
C533
330
1F
100
AcDbEntity
  8
0
 62
     3
370
     5
100
AcDbPoint
 10
724.0359074233313
 20
-257.7049218719476
 30
0.0
  0
POINT
  5
C536
330
1F
100
AcDbEntity
  8
0
 62
     3
370
     5
100
AcDbPoint
 10
724.0359074233313
 20
-176.2890638719476
 30
0.0
  0
POINT
  5
C652
330
1F
100
AcDbEntity
  8
0
 62
     7
370
     5
100
AcDbPoint
 10
1006.718794540682
 20
-163.3460002642659
 30
0.0
  0
POINT
  5
C65C
330
1F
100
AcDbEntity
  8
0
 62
     7
370
     5
100
AcDbPoint
 10
1006.718794540682
 20
-271.4659132642659
 30
0.0
  0
POINT
  5
C79F
330
1F
100
AcDbEntity
  8
0
 62
     7
370
     5
100
AcDbPoint
 10
680.0273543974197
 20
-609.8288373451556
 30
0.0
  0
POINT
  5
C7A3
330
1F
100
AcDbEntity
  8
0
 62
     7
370
     5
100
AcDbPoint
 10
680.0273543974197
 20
-565.0385583451557
 30
0.0
  0
POINT
  5
C85B
330
1F
100
AcDbEntity
  8
0
 62
     7
370
     5
100
AcDbPoint
 10
981.854726218849
 20
-559.8376501395787
 30
0.0
  0
POINT
  5
C863
330
1F
100
AcDbEntity
  8
0
 62
     7
370
     5
100
AcDbPoint
 10
981.854726218849
 20
-623.6282751395788
 30
0.0
  0
POINT
  5
C930
330
1F
100
AcDbEntity
  8
0
 62
     7
370
     5
100
AcDbPoint
 10
1216.759569404171
 20
-624.5477225769705
 30
0.0
  0
POINT
  5
C934
330
1F
100
AcDbEntity
  8
0
 62
     7
370
     5
100
AcDbPoint
 10
1202.759569404171
 20
-560.1965945769704
 30
0.0
  0
POINT
  5
C935
330
1F
100
AcDbEntity
  8
0
 62
     7
370
     5
100
AcDbPoint
 10
1216.759569404171
 20
-551.6965945769704
 30
0.0
  0
POINT
  5
CA12
330
1F
100
AcDbEntity
  8
0
 62
     7
370
     5
100
AcDbPoint
 10
1458.761001673632
 20
-627.5597008720548
 30
0.0
  0
POINT
  5
CA16
330
1F
100
AcDbEntity
  8
0
 62
     7
370
     5
100
AcDbPoint
 10
1443.761001673632
 20
-571.7910898720547
 30
0.0
  0
POINT
  5
CA17
330
1F
100
AcDbEntity
  8
0
 62
     7
370
     5
100
AcDbPoint
 10
1458.761001673632
 20
-561.2910898720547
 30
0.0
  0
POINT
  5
CB25
330
1F
100
AcDbEntity
  8
0
 62
     7
370
     5
100
AcDbPoint
 10
1712.749014983699
 20
-637.6031663899041
 30
0.0
  0
POINT
  5
CB29
330
1F
100
AcDbEntity
  8
0
 62
     7
370
     5
100
AcDbPoint
 10
1712.749014983699
 20
-557.403845389904
 30
0.0
  0
POINT
  5
CC4B
330
1F
100
AcDbEntity
  8
0
 62
     7
370
     5
100
AcDbPoint
 10
1990.420039580178
 20
-639.3672597641932
 30
0.0
  0
POINT
  5
CC4F
330
1F
100
AcDbEntity
  8
0
 62
     7
370
     5
100
AcDbPoint
 10
1975.420039580178
 20
-571.8308197641934
 30
0.0
  0
POINT
  5
CC50
330
1F
100
AcDbEntity
  8
0
 62
     7
370
     5
100
AcDbPoint
 10
1990.420039580178
 20
-554.3308197641933
 30
0.0
  0
POINT
  5
D588
330
1F
100
AcDbEntity
  8
0
 62
     7
370
     5
100
AcDbPoint
 10
643.6762534904714
 20
-418.5518022854259
 30
0.0
  0
POINT
  5
D590
330
1F
100
AcDbEntity
  8
0
 62
     7
370
     5
100
AcDbPoint
 10
698.8426964904712
 20
-418.5518022854259
 30
0.0
  0
POINT
  5
D89C
330
1F
100
AcDbEntity
  8
0
 62
     7
370
     5
100
AcDbPoint
 10
918.4554480131433
 20
-418.2516555129392
 30
0.0
  0
POINT
  5
D8A3
330
1F
100
AcDbEntity
  8
0
 62
     7
370
     5
100
AcDbPoint
 10
998.0069960131432
 20
-418.2516555129392
 30
0.0
  0
POINT
  5
DAF2
330
1F
100
AcDbEntity
  8
0
 62
     7
370
     5
100
AcDbPoint
 10
1973.075374951941
 20
-60.50318164632196
 30
0.0
  0
POINT
  5
DAF5
330
1F
100
AcDbEntity
  8
0
 62
     7
370
     5
100
AcDbPoint
 10
1973.075374951941
 20
1.00896335367804
 30
0.0
  0
POINT
  5
DCBB
330
1F
100
AcDbEntity
  8
0
 62
     7
370
     5
100
AcDbPoint
 10
2228.446041001848
 20
-631.5679862622897
 30
0.0
  0
POINT
  5
DCBF
330
1F
100
AcDbEntity
  8
0
 62
     7
370
     5
100
AcDbPoint
 10
2228.446041001848
 20
-581.1017172622897
 30
0.0
  0
POINT
  5
DECF
330
1F
100
AcDbEntity
  8
0
 62
     7
370
     5
100
AcDbPoint
 10
2470.518201269178
 20
-576.6616946872675
 30
0.0
  0
POINT
  5
DED7
330
1F
100
AcDbEntity
  8
0
 62
     7
370
     5
100
AcDbPoint
 10
2470.518201269178
 20
-638.2022576872675
 30
0.0
  0
POINT
  5
E102
330
1F
100
AcDbEntity
  8
0
 62
     7
370
     5
100
AcDbPoint
 10
1449.716374392063
 20
-281.2570516923841
 30
0.0
  0
POINT
  5
E105
330
1F
100
AcDbEntity
  8
0
 62
     7
370
     5
100
AcDbPoint
 10
1449.716374392063
 20
-216.7933926923841
 30
0.0
  0
POINT
  5
E20E
330
1F
100
AcDbEntity
  8
0
 62
     7
370
     5
100
AcDbPoint
 10
1444.226360693917
 20
7.118696944552222
 30
0.0
  0
POINT
  5
E217
330
1F
100
AcDbEntity
  8
0
 62
     7
370
     5
100
AcDbPoint
 10
1444.226360693917
 20
-50.75492105544778
 30
0.0
  0
POINT
  5
E328
330
1F
100
AcDbEntity
  8
0
 62
     7
370
     5
100
AcDbPoint
 10
1674.557421043983
 20
-57.27887800498226
 30
0.0
  0
POINT
  5
E32B
330
1F
100
AcDbEntity
  8
0
 62
     7
370
     5
100
AcDbPoint
 10
1674.557421043983
 20
6.273895995017768
 30
0.0
  0
POINT
  5
E438
330
1F
100
AcDbEntity
  8
0
 62
     7
370
     5
100
AcDbPoint
 10
1221.741516539144
 20
-220.2351919986821
 30
0.0
  0
POINT
  5
E441
330
1F
100
AcDbEntity
  8
0
 62
     7
370
     5
100
AcDbPoint
 10
1221.741516539144
 20
-278.4038869986821
 30
0.0
  0
POINT
  5
E533
330
1F
100
AcDbEntity
  8
0
 62
     7
370
     5
100
AcDbPoint
 10
435.7613867553435
 20
-401.853645371286
 30
0.0
  0
POINT
  5
E537
330
1F
100
AcDbEntity
  8
0
 62
     7
370
     5
100
AcDbPoint
 10
336.0458187553437
 20
-401.853645371286
 30
0.0
  0
POINT
  5
E6D2
330
1F
100
AcDbEntity
  8
0
 62
     7
370
     5
100
AcDbPoint
 10
394.2075911881555
 20
-612.6712758301417
 30
0.0
  0
POINT
  5
E6D6
330
1F
100
AcDbEntity
  8
0
 62
     7
370
     5
100
AcDbPoint
 10
394.2075911881555
 20
-562.1020128301418
 30
0.0
  0
POINT
  5
12895
330
1F
100
AcDbEntity
  8
0
 62
     7
370
     5
100
AcDbPoint
 10
514.3576994832141
 20
-558.6978028967338
 30
0.0
  0
POINT
  5
1289C
330
1F
100
AcDbEntity
  8
0
 62
     7
370
     5
100
AcDbPoint
 10
514.3576994832141
 20
-524.0331488967338
 30
0.0
  0
POINT
  5
1289D
330
1F
100
AcDbEntity
  8
0
 62
     7
370
     5
100
AcDbPoint
 10
514.3576994832141
 20
-526.4631488967337
 30
0.0
  0
POINT
  5
1299A
330
1F
100
AcDbEntity
  8
0
 62
     7
370
     5
100
AcDbPoint
 10
273.0238152774181
 20
35.53337152575214
 30
0.0
  0
POINT
  5
1299D
330
1F
100
AcDbEntity
  8
0
 62
     7
370
     5
100
AcDbPoint
 10
273.0238152774181
 20
-16.30945047424785
 30
0.0
  0
POINT
  5
12A19
330
1F
100
AcDbEntity
  8
0
 62
     7
370
     5
100
AcDbPoint
 10
530.0071960054782
 20
34.28476473790624
 30
0.0
  0
POINT
  5
12A1A
330
1F
100
AcDbEntity
  8
0
 62
     7
370
     5
100
AcDbPoint
 10
530.0071960054782
 20
28.42976573790625
 30
0.0
  0
POINT
  5
12A1D
330
1F
100
AcDbEntity
  8
0
 62
     7
370
     5
100
AcDbPoint
 10
530.2789780054783
 20
-25.24190226209373
 30
0.0
  0
POINT
  5
12AA6
330
1F
100
AcDbEntity
  8
0
 62
     7
370
     5
100
AcDbPoint
 10
803.5390081451089
 20
38.33315219974614
 30
0.0
  0
POINT
  5
12AA7
330
1F
100
AcDbEntity
  8
0
 62
     7
370
     5
100
AcDbPoint
 10
803.5390081451089
 20
32.44315219974615
 30
0.0
  0
POINT
  5
12AAA
330
1F
100
AcDbEntity
  8
0
 62
     7
370
     5
100
AcDbPoint
 10
803.5390081451089
 20
-33.77549080025384
 30
0.0
  0
POINT
  5
12B2B
330
1F
100
AcDbEntity
  8
0
 62
     7
370
     5
100
AcDbPoint
 10
246.4739127018369
 20
-292.0641451649423
 30
0.0
  0
POINT
  5
12B40
330
1F
100
AcDbEntity
  8
0
 62
     7
370
     5
100
AcDbPoint
 10
246.1857397018369
 20
-234.4124741649423
 30
0.0
  0
POINT
  5
12B41
330
1F
100
AcDbEntity
  8
0
 62
     7
370
     5
100
AcDbPoint
 10
246.1857397018369
 20
-239.6974741649422
 30
0.0
  0
POINT
  5
12BA1
330
1F
100
AcDbEntity
  8
0
 62
     7
370
     5
100
AcDbPoint
 10
503.361992156836
 20
-293.942128217062
 30
0.0
  0
POINT
  5
12BB5
330
1F
100
AcDbEntity
  8
0
 62
     7
370
     5
100
AcDbPoint
 10
503.361992156836
 20
-232.058278217062
 30
0.0
  0
POINT
  5
12BB6
330
1F
100
AcDbEntity
  8
0
 62
     7
370
     5
100
AcDbPoint
 10
503.361992156836
 20
-237.898279217062
 30
0.0
  0
POINT
  5
12C16
330
1F
100
AcDbEntity
  8
0
 62
     7
370
     5
100
AcDbPoint
 10
773.9808530456294
 20
-320.1483272428673
 30
0.0
  0
POINT
  5
12C17
330
1F
100
AcDbEntity
  8
0
 62
     7
370
     5
100
AcDbPoint
 10
776.9808530456294
 20
-286.8983272428673
 30
0.0
  0
POINT
  5
12C2B
330
1F
100
AcDbEntity
  8
0
 62
     7
370
     5
100
AcDbPoint
 10
776.9808530456294
 20
-225.7099922428672
 30
0.0
  0
POINT
  5
12C8B
330
1F
100
AcDbEntity
  8
0
 62
     7
370
     5
100
AcDbPoint
 10
258.823540701837
 20
-572.0746798648522
 30
0.0
  0
POINT
  5
12C92
330
1F
100
AcDbEntity
  8
0
 62
     7
370
     5
100
AcDbPoint
 10
258.8235127018369
 20
-543.1961818648521
 30
0.0
  0
POINT
  5
12C93
330
1F
100
AcDbEntity
  8
0
 62
     7
370
     5
100
AcDbPoint
 10
258.8235127018369
 20
-544.8461818648523
 30
0.0
  0
POINT
  5
14051
330
1F
100
AcDbEntity
  8
0
 62
     7
370
     5
100
AcDbPoint
 10
690.9556627618442
 20
-532.2047645406313
 30
0.0
  0
POINT
  5
14058
330
1F
100
AcDbEntity
  8
0
 62
     7
370
     5
100
AcDbPoint
 10
690.9556627618442
 20
-497.5401105406314
 30
0.0
  0
POINT
  5
14059
330
1F
100
AcDbEntity
  8
0
 62
     7
370
     5
100
AcDbPoint
 10
690.9556627618442
 20
-499.9701105406314
 30
0.0
  0
POINT
  5
175ED
330
1F
100
AcDbEntity
  8
0
 62
     7
370
     5
100
AcDbPoint
 10
329.8984453452037
 20
37.75833189686949
 30
0.0
  0
POINT
  5
175F0
330
1F
100
AcDbEntity
  8
0
 62
     7
370
     5
100
AcDbPoint
 10
329.8984453452037
 20
-10.8089411031305
 30
0.0
  0
POINT
  5
17673
330
1F
100
AcDbEntity
  8
0
 62
     7
370
     5
100
AcDbPoint
 10
651.3183805762602
 20
33.1650220174441
 30
0.0
  0
POINT
  5
17677
330
1F
100
AcDbEntity
  8
0
 62
     7
370
     5
100
AcDbPoint
 10
651.3183805762602
 20
-21.99992098255592
 30
0.0
  0
POINT
  5
1770F
330
1F
100
AcDbEntity
  8
0
 62
     7
370
     5
100
AcDbPoint
 10
1014.212196760976
 20
-27.33731747488401
 30
0.0
  0
POINT
  5
17718
330
1F
100
AcDbEntity
  8
0
 62
     7
370
     5
100
AcDbPoint
 10
1014.212196760976
 20
30.00474752511599
 30
0.0
  0
POINT
  5
17790
330
1F
100
AcDbEntity
  8
0
 62
     7
370
     5
100
AcDbPoint
 10
1421.356448019548
 20
-26.9349024739204
 30
0.0
  0
POINT
  5
1779E
330
1F
100
AcDbEntity
  8
0
 62
     7
370
     5
100
AcDbPoint
 10
1421.356448019548
 20
21.9806675260796
 30
0.0
  0
POINT
  5
1779F
330
1F
100
AcDbEntity
  8
0
 62
     7
370
     5
100
AcDbPoint
 10
1413.056448019548
 20
21.9806675260796
 30
0.0
  0
POINT
  5
1781A
330
1F
100
AcDbEntity
  8
0
 62
     7
370
     5
100
AcDbPoint
 10
1720.045575829729
 20
23.92611327127983
 30
0.0
  0
POINT
  5
1781D
330
1F
100
AcDbEntity
  8
0
 62
     7
370
     5
100
AcDbPoint
 10
1720.045575829729
 20
-24.59612772872018
 30
0.0
  0
POINT
  5
178A0
330
1F
100
AcDbEntity
  8
0
 62
     7
370
     5
100
AcDbPoint
 10
359.2272976195882
 20
-230.0319820838431
 30
0.0
  0
POINT
  5
178A3
330
1F
100
AcDbEntity
  8
0
 62
     7
370
     5
100
AcDbPoint
 10
359.2273026195881
 20
-278.361407083843
 30
0.0
  0
POINT
  5
17926
330
1F
100
AcDbEntity
  8
0
 62
     7
370
     5
100
AcDbPoint
 10
669.6174077737214
 20
-230.0319820838431
 30
0.0
  0
POINT
  5
17929
330
1F
100
AcDbEntity
  8
0
 62
     7
370
     5
100
AcDbPoint
 10
669.6174087737214
 20
-278.361407083843
 30
0.0
  0
POINT
  5
179AC
330
1F
100
AcDbEntity
  8
0
 62
     7
370
     5
100
AcDbPoint
 10
1023.306532042488
 20
-235.6329118492064
 30
0.0
  0
POINT
  5
179AF
330
1F
100
AcDbEntity
  8
0
 62
     7
370
     5
100
AcDbPoint
 10
1023.306532042488
 20
-284.2001848492064
 30
0.0
  0
POINT
  5
17A32
330
1F
100
AcDbEntity
  8
0
 62
     7
370
     5
100
AcDbPoint
 10
1352.196645196622
 20
-235.6329118492064
 30
0.0
  0
POINT
  5
17A36
330
1F
100
AcDbEntity
  8
0
 62
     7
370
     5
100
AcDbPoint
 10
1352.196645196622
 20
-290.7980508492065
 30
0.0
  0
POINT
  5
17AD1
330
1F
100
AcDbEntity
  8
0
 62
     7
370
     5
100
AcDbPoint
 10
1715.365188016996
 20
-237.9716865944066
 30
0.0
  0
POINT
  5
17AD4
330
1F
100
AcDbEntity
  8
0
 62
     7
370
     5
100
AcDbPoint
 10
1715.365188016996
 20
-286.5389595944066
 30
0.0
  0
POINT
  5
17B57
330
1F
100
AcDbEntity
  8
0
 62
     7
370
     5
100
AcDbPoint
 10
331.5674947966618
 20
-480.7206417139288
 30
0.0
  0
POINT
  5
17B5A
330
1F
100
AcDbEntity
  8
0
 62
     7
370
     5
100
AcDbPoint
 10
331.5674987966619
 20
-532.8452337139288
 30
0.0
  0
POINT
  5
17BD8
330
1F
100
AcDbEntity
  8
0
 62
     7
370
     5
100
AcDbPoint
 10
667.4370134195751
 20
-483.059416459129
 30
0.0
  0
POINT
  5
17BDB
330
1F
100
AcDbEntity
  8
0
 62
     7
370
     5
100
AcDbPoint
 10
667.4370134195751
 20
-535.184008459129
 30
0.0
  0
POINT
  5
17C59
330
1F
100
AcDbEntity
  8
0
 62
     7
370
     5
100
AcDbPoint
 10
1032.757662940594
 20
-479.9258798209486
 30
0.0
  0
POINT
  5
17C5C
330
1F
100
AcDbEntity
  8
0
 62
     7
370
     5
100
AcDbPoint
 10
1032.757665940594
 20
-532.1255208209487
 30
0.0
  0
POINT
  5
17CDA
330
1F
100
AcDbEntity
  8
0
 62
     7
370
     5
100
AcDbPoint
 10
1350.446793750775
 20
-475.452849330548
 30
0.0
  0
POINT
  5
17CDE
330
1F
100
AcDbEntity
  8
0
 62
     7
370
     5
100
AcDbPoint
 10
1350.446795750775
 20
-535.7299113305479
 30
0.0
  0
POINT
  5
17D79
330
1F
100
AcDbEntity
  8
0
 62
     7
370
     5
100
AcDbPoint
 10
1724.816312373689
 20
-484.6034323315118
 30
0.0
  0
POINT
  5
17D7C
330
1F
100
AcDbEntity
  8
0
 62
     7
370
     5
100
AcDbPoint
 10
1724.816312373689
 20
-536.8030733315118
 30
0.0
  0
POINT
  5
17DFA
330
1F
100
AcDbEntity
  8
0
 62
     7
370
     5
100
AcDbPoint
 10
292.6784219762804
 20
-717.1006079596696
 30
0.0
  0
POINT
  5
17DFE
330
1F
100
AcDbEntity
  8
0
 62
     7
370
     5
100
AcDbPoint
 10
292.6784249762804
 20
-777.3013929596698
 30
0.0
  0
POINT
  5
17E99
330
1F
100
AcDbEntity
  8
0
 62
     7
370
     5
100
AcDbPoint
 10
668.1772397573285
 20
-728.8489624009062
 30
0.0
  0
POINT
  5
17E9C
330
1F
100
AcDbEntity
  8
0
 62
     7
370
     5
100
AcDbPoint
 10
668.1772397573285
 20
-780.9735614009062
 30
0.0
  0
POINT
  5
17F19
330
1F
100
AcDbEntity
  8
0
 62
     7
370
     5
100
AcDbPoint
 10
1014.680140542377
 20
-727.4779055808943
 30
0.0
  0
POINT
  5
17F1E
330
1F
100
AcDbEntity
  8
0
 62
     7
370
     5
100
AcDbPoint
 10
1014.680139542377
 20
-792.8842465808943
 30
0.0
  0
POINT
  5
17F82
330
1F
100
AcDbEntity
  8
0
 62
     7
370
     5
100
AcDbPoint
 10
1363.039112172955
 20
-778.9168242007557
 30
0.0
  0
POINT
  5
17F8B
330
1F
100
AcDbEntity
  8
0
 62
     7
370
     5
100
AcDbPoint
 10
1363.039112172955
 20
-712.5175752007558
 30
0.0
  0
POINT
  5
17FE8
330
1F
100
AcDbEntity
  8
0
 62
     7
370
     5
100
AcDbPoint
 10
1718.366870633272
 20
-723.7460446679111
 30
0.0
  0
POINT
  5
17FEB
330
1F
100
AcDbEntity
  8
0
 62
     7
370
     5
100
AcDbPoint
 10
1718.366871633272
 20
-789.389202667911
 30
0.0
  0
POINT
  5
18051
330
1F
100
AcDbEntity
  8
0
 62
     7
370
     5
100
AcDbPoint
 10
319.6383345054979
 20
-967.5893901625666
 30
0.0
  0
POINT
  5
18054
330
1F
100
AcDbEntity
  8
0
 62
     7
370
     5
100
AcDbPoint
 10
319.6383355054979
 20
-1032.973459162567
 30
0.0
  0
POINT
  5
180BA
330
1F
100
AcDbEntity
  8
0
 62
     7
370
     5
100
AcDbPoint
 10
680.5370709864296
 20
-963.1934877025301
 30
0.0
  0
POINT
  5
180BB
330
1F
100
AcDbEntity
  8
0
 62
     7
370
     5
100
AcDbPoint
 10
629.5370709864297
 20
-967.19348770253
 30
0.0
  0
POINT
  5
180BE
330
1F
100
AcDbEntity
  8
0
 62
     7
370
     5
100
AcDbPoint
 10
680.5370759864297
 20
-1028.58231170253
 30
0.0
  0
POINT
  5
18125
330
1F
100
AcDbEntity
  8
0
 62
     7
370
     5
100
AcDbPoint
 10
1025.504908559649
 20
-985.5078641637318
 30
0.0
  0
POINT
  5
18128
330
1F
100
AcDbEntity
  8
0
 62
     7
370
     5
100
AcDbPoint
 10
935.4436665596491
 20
-985.5078641637318
 30
0.0
  0
POINT
  5
181A3
330
1F
100
AcDbEntity
  8
0
 62
     7
370
     5
100
AcDbPoint
 10
1372.616021513803
 20
-994.9832624236179
 30
0.0
  0
POINT
  5
181A6
330
1F
100
AcDbEntity
  8
0
 62
     7
370
     5
100
AcDbPoint
 10
1282.554779513803
 20
-994.9832624236179
 30
0.0
  0
POINT
  5
18221
330
1F
100
AcDbEntity
  8
0
 62
     7
370
     5
100
AcDbPoint
 10
1726.183901955964
 20
-986.4057379766256
 30
0.0
  0
POINT
  5
18224
330
1F
100
AcDbEntity
  8
0
 62
     7
370
     5
100
AcDbPoint
 10
1636.122660955965
 20
-987.7852319766256
 30
0.0
  0
POINT
  5
1829F
330
1F
100
AcDbEntity
  8
0
 62
     7
370
     5
100
AcDbPoint
 10
315.0667151318947
 20
-1233.667447704089
 30
0.0
  0
POINT
  5
182A2
330
1F
100
AcDbEntity
  8
0
 62
     7
370
     5
100
AcDbPoint
 10
225.0054731318947
 20
-1234.512880704089
 30
0.0
  0
POINT
  5
1831D
330
1F
100
AcDbEntity
  8
0
 62
     7
370
     5
100
AcDbPoint
 10
666.5716365787308
 20
-1228.374582524101
 30
0.0
  0
POINT
  5
18320
330
1F
100
AcDbEntity
  8
0
 62
     7
370
     5
100
AcDbPoint
 10
576.510395578731
 20
-1229.476628524102
 30
0.0
  0
POINT
  5
1C1E5
330
1F
100
AcDbEntity
  8
0
 62
     7
370
     5
100
AcDbPoint
 10
565.1931729999843
 20
-252.0327741049043
 30
0.0
  0
POINT
  5
1C1E8
330
1F
100
AcDbEntity
  8
0
 62
     7
370
     5
100
AcDbPoint
 10
571.0793859999843
 20
-171.4824511049043
 30
0.0
  0
POINT
  5
1C393
330
1F
100
AcDbEntity
  8
0
 62
     7
370
     5
100
AcDbPoint
 10
852.7529560248229
 20
-161.0786730235244
 30
0.0
  0
POINT
  5
1C3A1
330
1F
100
AcDbEntity
  8
0
 62
     7
370
     5
100
AcDbPoint
 10
853.6840430248233
 20
-256.0650500235244
 30
0.0
  0
POINT
  5
1C476
330
1F
100
AcDbEntity
  8
0
 62
     7
370
     5
100
AcDbPoint
 10
1100.710829294269
 20
-179.9690311044011
 30
0.0
  0
POINT
  5
1C484
330
1F
100
AcDbEntity
  8
0
 62
     7
370
     5
100
AcDbPoint
 10
1097.008556294269
 20
-246.8144071044011
 30
0.0
  0
POINT
  5
1C54E
330
1F
100
AcDbEntity
  8
0
 62
     7
370
     5
100
AcDbPoint
 10
327.4559894717282
 20
-242.3690707660675
 30
0.0
  0
POINT
  5
1C54F
330
1F
100
AcDbEntity
  8
0
 62
     7
370
     5
100
AcDbPoint
 10
323.7573724717281
 20
-242.3490727660675
 30
0.0
  0
POINT
  5
1C632
330
1F
100
AcDbEntity
  8
0
 62
     7
370
     5
100
AcDbPoint
 10
301.1069300782104
 20
37.7626127561465
 30
0.0
  0
POINT
  5
1C640
330
1F
100
AcDbEntity
  8
0
 62
     7
370
     5
100
AcDbPoint
 10
301.4480630782105
 20
-36.93915824385351
 30
0.0
  0
POINT
  5
1C6B9
330
1F
100
AcDbEntity
  8
0
 62
     1
370
     5
100
AcDbPoint
 10
582.4029449258979
 20
29.4620864008466
 30
0.0
  0
POINT
  5
1C6C7
330
1F
100
AcDbEntity
  8
0
 62
     7
370
     5
100
AcDbPoint
 10
567.6899119258981
 20
-44.52450559915339
 30
0.0
  0
POINT
  5
1C740
330
1F
100
AcDbEntity
  8
0
 62
     7
370
     5
100
AcDbPoint
 10
838.8170717714807
 20
31.21800268959555
 30
0.0
  0
POINT
  5
1C74E
330
1F
100
AcDbEntity
  8
0
 62
     7
370
     5
100
AcDbPoint
 10
830.8810477714807
 20
-42.18143931040443
 30
0.0
  0
POINT
  5
1C7C7
330
1F
100
AcDbEntity
  8
0
 62
     7
370
     5
100
AcDbPoint
 10
1082.103046320498
 20
26.65705560741793
 30
0.0
  0
POINT
  5
1C850
330
1F
100
AcDbEntity
  8
0
 62
     7
370
     5
100
AcDbPoint
 10
1320.708032031059
 20
-54.79519568133104
 30
0.0
  0
POINT
  5
1C851
330
1F
100
AcDbEntity
  8
0
 62
     7
370
     5
100
AcDbPoint
 10
1317.008086031059
 20
-54.77519668133105
 30
0.0
  0
POINT
  5
1C9A2
330
1F
100
AcDbEntity
  8
0
 62
     7
370
     5
100
AcDbPoint
 10
1351.994597785224
 20
-177.9923767989125
 30
0.0
  0
POINT
  5
1C9B0
330
1F
100
AcDbEntity
  8
0
 62
     7
370
     5
100
AcDbPoint
 10
1347.069666785224
 20
-246.9150937989126
 30
0.0
  0
POINT
  5
1C9B1
330
1F
100
AcDbEntity
  8
0
 62
     7
370
     5
100
AcDbPoint
 10
1343.369666785224
 20
-246.9154057989126
 30
0.0
  0
POINT
  5
1CBC0
330
1F
100
AcDbEntity
  8
0
 62
     7
370
     5
100
AcDbPoint
 10
317.2946666194903
 20
-384.0973382926297
 30
0.0
  0
POINT
  5
1CBCE
330
1F
100
AcDbEntity
  8
0
 62
     7
370
     5
100
AcDbPoint
 10
305.7896836194903
 20
-451.8667572926297
 30
0.0
  0
POINT
  5
1CE43
330
1F
100
AcDbEntity
  8
0
 62
     7
370
     5
100
AcDbPoint
 10
610.2304875856865
 20
-368.9630837278421
 30
0.0
  0
POINT
  5
1CE51
330
1F
100
AcDbEntity
  8
0
 62
     7
370
     5
100
AcDbPoint
 10
597.1811595856864
 20
-452.2435397278421
 30
0.0
  0
POINT
  5
1CFFB
330
1F
100
AcDbEntity
  8
0
 62
     7
370
     5
100
AcDbPoint
 10
839.2202580447737
 20
-378.5041957660768
 30
0.0
  0
POINT
  5
1D009
330
1F
100
AcDbEntity
  8
0
 62
     7
370
     5
100
AcDbPoint
 10
825.6021750447738
 20
-448.0865117660767
 30
0.0
  0
POINT
  5
1D1B5
330
1F
100
AcDbEntity
  8
0
 62
     7
370
     5
100
AcDbPoint
 10
1100.187375054744
 20
-364.0090280464956
 30
0.0
  0
POINT
  5
1D1C3
330
1F
100
AcDbEntity
  8
0
 62
     7
370
     5
100
AcDbPoint
 10
1086.025427054744
 20
-454.4328780464955
 30
0.0
  0
POINT
  5
1D374
330
1F
100
AcDbEntity
  8
0
 62
     7
370
     5
100
AcDbPoint
 10
1381.669306853374
 20
-372.7791370028926
 30
0.0
  0
POINT
  5
1D382
330
1F
100
AcDbEntity
  8
0
 62
     7
370
     5
100
AcDbPoint
 10
1368.476322853373
 20
-450.1870130028925
 30
0.0
  0
POINT
  5
1D6D5
330
1F
100
AcDbEntity
  8
0
 62
     7
370
     5
100
AcDbPoint
 10
555.980533625745
 20
-586.1972507296687
 30
0.0
  0
POINT
  5
1D6E2
330
1F
100
AcDbEntity
  8
0
 62
     7
370
     5
100
AcDbPoint
 10
545.2688206257452
 20
-642.7388317296686
 30
0.0
  0
POINT
  5
1D913
330
1F
100
AcDbEntity
  8
0
 62
     7
370
     5
100
AcDbPoint
 10
811.7646110501747
 20
-579.6655508098913
 30
0.0
  0
POINT
  5
1D920
330
1F
100
AcDbEntity
  8
0
 62
     7
370
     5
100
AcDbPoint
 10
805.5538980501744
 20
-635.4594578098913
 30
0.0
  0
POINT
  5
1DA40
330
1F
100
AcDbEntity
  8
0
 62
     7
370
     5
100
AcDbPoint
 10
298.0831789389279
 20
-586.3373810040569
 30
0.0
  0
POINT
  5
1E2C1
330
1F
100
AcDbEntity
  8
0
 62
     7
370
     5
100
AcDbPoint
 10
1353.213944337289
 20
-176.2661773838116
 30
0.0
  0
POINT
  5
1E2CF
330
1F
100
AcDbEntity
  8
0
 62
     7
370
     5
100
AcDbPoint
 10
1348.289013337289
 20
-245.1888943838117
 30
0.0
  0
POINT
  5
1E2D0
330
1F
100
AcDbEntity
  8
0
 62
     7
370
     5
100
AcDbPoint
 10
1344.589013337289
 20
-245.1892063838116
 30
0.0
  0
POINT
  5
1E4A3
330
1F
100
AcDbEntity
  8
0
 62
     7
370
     5
100
AcDbPoint
 10
1326.152836266696
 20
34.20326680208106
 30
0.0
  0
POINT
  5
1E4B1
330
1F
100
AcDbEntity
  8
0
 62
     7
370
     5
100
AcDbPoint
 10
1326.493969266696
 20
-40.49850419791893
 30
0.0
  0
LINE
  5
2DB95
330
1F
100
AcDbEntity
  8
SK3
 48
0.5
100
AcDbLine
 10
-0.0000000000000284
 20
3.75
 30
0.0
 11
7.649999999999861
 21
3.75
 31
0.0
  0
LINE
  5
2DB96
330
1F
100
AcDbEntity
  8
SK3
 48
0.5
100
AcDbLine
 10
-0.0000000000000284
 20
-3.749999999999991
 30
0.0
 11
7.649999999999861
 21
-3.749999999999991
 31
0.0
  0
DIMENSION
  5
2F203
330
1F
100
AcDbEntity
  8
2
100
AcDbDimension
  2
*D2
 10
7.598565000000008
 20
11.72218599999999
 30
0.0
 11
16.06077473094741
 21
20.15885729488414
 31
0.0
 70
   164
 71
     5
 42
-1.0
  3
MM_STANDARD
100
AcDbRadialDimension
 15
7.883859000000001
 25
12.006619
 35
0.0
 40
0.0
1001
ACAD
1000
DSTYLE
1002
{
1070
    78
1070
     9
1070
    79
1070
     2
1070
    90
1070
     1
1070
   172
1070
     1
1070
   345
1005
14
1070
   346
1005
14
1070
   347
1005
14
1002
}
1001
ACAD_DSTYLE_DIMARC_LENGTH_SYMBOL
1070
   379
1070
     1
1001
ACAD_DSTYLE_DIM_LINETYPE
1070
   380
1005
14
1001
ACAD_DSTYLE_DIM_EXT1_LINETYPE
1070
   381
1005
14
1001
ACAD_DSTYLE_DIM_EXT2_LINETYPE
1070
   382
1005
14
  0
DIMENSION
  5
2F20F
330
1F
100
AcDbEntity
  8
2
100
AcDbDimension
  2
*D3
 10
0.0001921618844837
 20
23.21895359856468
 30
0.0
 11
4.0
 21
23.218887
 31
0.0
 70
   160
 71
     5
 42
7.999999219683711
  3
MM_STANDARD
100
AcDbAlignedDimension
 13
8.0
 23
11.72480299999998
 33
0.0
 14
0.0
 24
11.67800499999998
 34
0.0
 50
179.999046
100
AcDbRotatedDimension
1001
ACAD
1000
DSTYLE
1002
{
1070
    78
1070
     9
1070
    79
1070
     2
1070
    90
1070
     1
1070
   172
1070
     1
1070
   345
1005
14
1070
   346
1005
14
1070
   347
1005
14
1002
}
1001
ACAD_DSTYLE_DIMARC_LENGTH_SYMBOL
1070
   379
1070
     1
1001
ACAD_DSTYLE_DIM_LINETYPE
1070
   380
1005
14
1001
ACAD_DSTYLE_DIM_EXT1_LINETYPE
1070
   381
1005
14
1001
ACAD_DSTYLE_DIM_EXT2_LINETYPE
1070
   382
1005
14
  0
LINE
  5
2F22A
330
1F
100
AcDbEntity
  8
1
100
AcDbLine
 10
7.614983999999991
 20
2.25666799999999
 30
0.0
 11
8.035001999999991
 21
2.25666799999999
 31
0.0
  0
LINE
  5
2F22B
330
1F
100
AcDbEntity
  8
1
100
AcDbLine
 10
-0.0399889999999914
 20
0.0
 30
0.0
 11
0.4398769999999956
 21
0.0
 31
0.0
  0
LINE
  5
2F22C
330
1F
100
AcDbEntity
  8
4
100
AcDbLine
 10
-1.095369000000005
 20
0.0
 30
0.0
 11
9.306227000000008
 21
0.0
 31
0.0
  0
DIMENSION
  5
2F22D
330
1F
100
AcDbEntity
  8
SKVIEW2
100
AcDbDimension
  2
*D4
 10
-73.2854962961311
 20
12.22008954383871
 30
0.0
 11
-73.33304129434238
 21
0.0951834999999903
 31
0.0
 70
   161
  1
%%c<>
 71
     5
 42
24.24999943593955
  3
MM_STANDARD
100
AcDbAlignedDimension
 13
-49.10704529434235
 23
-12.12490650000001
 33
0.0
 14
-49.01195529434236
 24
12.12490649999998
 34
0.0
1001
ACAD
1000
DSTYLE
1002
{
1070
    78
1070
     9
1070
    79
1070
     2
1070
    90
1070
     1
1070
   172
1070
     1
1070
   345
1005
14
1070
   346
1005
14
1070
   347
1005
14
1002
}
1001
ACAD_DSTYLE_DIMARC_LENGTH_SYMBOL
1070
   379
1070
     1
1001
ACAD_DSTYLE_DIM_LINETYPE
1070
   380
1005
14
1001
ACAD_DSTYLE_DIM_EXT1_LINETYPE
1070
   381
1005
14
1001
ACAD_DSTYLE_DIM_EXT2_LINETYPE
1070
   382
1005
14
  0
DIMENSION
  5
2F23A
330
1F
100
AcDbEntity
  8
SKVIEW2
100
AcDbDimension
  2
*D5
 10
-51.06395529434236
 20
3.169331499999998
 30
0.0
 11
-37.48515386860792
 21
-18.30071089349167
 31
0.0
 70
   163
 71
     5
 42
-1.0
  3
MM_STANDARD
100
AcDbDiametricDimension
 15
-47.05504629434236
 25
-3.169331499999998
 35
0.0
 40
0.0
1001
ACAD
1000
DSTYLE
1002
{
1070
    78
1070
     9
1070
    79
1070
     2
1070
    90
1070
     1
1070
   172
1070
     1
1070
   345
1005
14
1070
   346
1005
14
1070
   347
1005
14
1002
}
1001
ACAD_DSTYLE_DIMARC_LENGTH_SYMBOL
1070
   379
1070
     1
1001
ACAD_DSTYLE_DIM_LINETYPE
1070
   380
1005
14
1001
ACAD_DSTYLE_DIM_EXT1_LINETYPE
1070
   381
1005
14
1001
ACAD_DSTYLE_DIM_EXT2_LINETYPE
1070
   382
1005
14
  0
LINE
  5
2F3BB
330
1F
100
AcDbEntity
  8
SKVIEW1
100
AcDbLine
 10
-49.12735129434235
 20
-11.7248035
 30
0.0
 11
-49.25160029434235
 21
-11.0243675
 31
0.0
  0
ARC
  5
2F3BC
330
1F
100
AcDbEntity
  8
SKVIEW1
100
AcDbCircle
 10
-49.05950029434236
 20
0.0000004999999987
 30
0.0
 40
11.026042
100
AcDbArc
 50
245.3803459999999
 51
269.0017209999999
  0
ARC
  5
2F3BD
330
1F
100
AcDbEntity
  8
SKVIEW1
100
AcDbCircle
 10
-51.78945129434236
 20
-9.241750500000001
 30
0.0
 40
2.020833
100
AcDbArc
 50
202.7644879999999
 51
247.771179
  0
ARC
  5
2F3BE
330
1F
100
AcDbEntity
  8
SKVIEW1
100
AcDbCircle
 10
-52.93225229434235
 20
-12.0380765
 30
0.0
 40
1.0
100
AcDbArc
 50
15.50000000000002
 51
67.77117900000003
  0
ARC
  5
2F3BF
330
1F
100
AcDbEntity
  8
SKVIEW1
100
AcDbCircle
 10
-49.05950029434236
 20
0.0000004999999987
 30
0.0
 40
11.725
100
AcDbArc
 50
254.0031269999999
 51
269.668433
  0
SPLINE
  5
2F3C0
330
1F
100
AcDbEntity
  8
SKVIEW1
100
AcDbSpline
210
0.0
220
0.0
230
1.0
 70
     8
 71
     5
 72
    18
 73
    12
 74
     0
 42
0.000000001
 43
0.0000000001
 40
0.0
 40
0.0
 40
0.0
 40
0.0
 40
0.0
 40
0.0
 40
0.2757630061465796
 40
0.2757630061465796
 40
0.2757630061465796
 40
0.9862184631706055
 40
0.9862184631706055
 40
0.9862184631706055
 40
0.9909810462760503
 40
0.9909810462760503
 40
0.9909810462760503
 40
0.9909810462760503
 40
0.9909810462760503
 40
0.9909810462760503
 10
-49.10704527382351
 20
-12.12490628211285
 30
0.0
 10
-49.10216733627473
 20
-12.1249254098014
 30
0.0
 10
-49.09807108549256
 20
-12.12032674394429
 30
0.0
 10
-49.09492855903779
 20
-12.1110396937138
 30
0.0
 10
-49.08725145589941
 20
-12.06295900072026
 30
0.0
 10
-49.0917637125988
 20
-11.97049067363026
 30
0.0
 10
-49.10073496674932
 20
-11.88953094541742
 30
0.0
 10
-49.11267474620128
 20
-11.80775100425641
 30
0.0
 10
-49.1270636507604
 20
-11.72642763125967
 30
0.0
 10
-49.12715957392665
 20
-11.72588612532054
 30
0.0
 10
-49.12725560556993
 20
-11.72534463951058
 30
0.0
 10
-49.12735174569431
 20
-11.72480317343306
 30
0.0
  0
ARC
  5
2F3C1
330
1F
100
AcDbEntity
  8
SKVIEW1
100
AcDbCircle
 10
-49.05950029434236
 20
0.0000004999999987
 30
0.0
 40
12.125
100
AcDbArc
 50
256.117736
 51
269.775329
  0
LINE
  5
2F3C2
330
1F
100
AcDbEntity
  8
SKVIEW1
100
AcDbLine
 10
-59.24740429434235
 20
-5.803640500000001
 30
0.0
 11
-58.70293329434236
 21
-5.345820500000001
 31
0.0
  0
ARC
  5
2F3C3
330
1F
100
AcDbEntity
  8
SKVIEW1
100
AcDbCircle
 10
-49.05950029434236
 20
0.0000004999999987
 30
0.0
 40
11.026042
100
AcDbArc
 50
185.3803459999999
 51
209.0017209999999
  0
ARC
  5
2F3C4
330
1F
100
AcDbEntity
  8
SKVIEW1
100
AcDbCircle
 10
-58.42806629434235
 20
-2.2566675
 30
0.0
 40
2.020832999999997
100
AcDbArc
 50
142.764488
 51
187.7711789999999
  0
ARC
  5
2F3C5
330
1F
100
AcDbEntity
  8
SKVIEW1
100
AcDbCircle
 10
-61.42115629434235
 20
-2.6651365
 30
0.0
 40
1.000000000000003
100
AcDbArc
 50
315.5000000000003
 51
7.771179000000234
  0
ARC
  5
2F3C6
330
1F
100
AcDbEntity
  8
SKVIEW1
100
AcDbCircle
 10
-49.05950029434236
 20
0.0000004999999987
 30
0.0
 40
11.725
100
AcDbArc
 50
194.003127
 51
209.6684329999999
  0
SPLINE
  5
2F3C7
330
1F
100
AcDbEntity
  8
SKVIEW1
100
AcDbSpline
210
0.0
220
0.0
230
1.0
 70
     8
 71
     5
 72
    18
 73
    12
 74
     0
 42
0.000000001
 43
0.0000000001
 40
0.0
 40
0.0
 40
0.0
 40
0.0
 40
0.0
 40
0.0
 40
0.2758065471259596
 40
0.2758065471259596
 40
0.2758065471259596
 40
0.9862135304809683
 40
0.9862135304809683
 40
0.9862135304809683
 40
0.990975735099885
 40
0.990975735099885
 40
0.990975735099885
 40
0.990975735099885
 40
0.990975735099885
 40
0.990975735099885
 10
-59.58375013923635
 20
-6.021277620320337
 30
0.0
 10
-59.58132735323212
 20
-6.025512270293284
 30
0.0
 10
-59.57529514348536
 20
-6.026760121758897
 30
0.0
 10
-59.56567672279011
 20
-6.024836442635737
 30
0.0
 10
-59.52019282012923
 20
-6.007438577581341
 30
0.0
 10
-59.44236709645052
 20
-5.957293592210281
 30
0.0
 10
-59.37674493638854
 20
-5.909047872574076
 30
0.0
 10
-59.31189586248629
 20
-5.857821116135897
 30
0.0
 10
-59.24866652950393
 20
-5.804701898250546
 30
0.0
 10
-59.24824556665579
 20
-5.804348101487648
 30
0.0
 10
-59.24782467546712
 20
-5.803994220858763
 30
0.0
 10
-59.24740385559647
 20
-5.803640256162087
 30
0.0
  0
ARC
  5
2F3C8
330
1F
100
AcDbEntity
  8
SKVIEW1
100
AcDbCircle
 10
-49.05950029434236
 20
0.0000004999999987
 30
0.0
 40
12.125
100
AcDbArc
 50
196.117736
 51
209.775329
  0
LINE
  5
2F3C9
330
1F
100
AcDbEntity
  8
SKVIEW1
100
AcDbLine
 10
-59.17955229434236
 20
5.921163499999998
 30
0.0
 11
-58.51083329434235
 21
5.678547499999998
 31
0.0
  0
ARC
  5
2F3CA
330
1F
100
AcDbEntity
  8
SKVIEW1
100
AcDbCircle
 10
-49.05950029434236
 20
0.0000004999999987
 30
0.0
 40
11.026042
100
AcDbArc
 50
125.380346
 51
149.001721
  0
ARC
  5
2F3CB
330
1F
100
AcDbEntity
  8
SKVIEW1
100
AcDbCircle
 10
-55.69811529434236
 20
6.985082499999998
 30
0.0
 40
2.020833
100
AcDbArc
 50
82.76448799999986
 51
127.7711789999998
  0
ARC
  5
2F3CC
330
1F
100
AcDbEntity
  8
SKVIEW1
100
AcDbCircle
 10
-57.54840429434235
 20
9.3729405
 30
0.0
 40
0.9999999999999985
100
AcDbArc
 50
255.5000000000003
 51
307.7711790000003
  0
ARC
  5
2F3CD
330
1F
100
AcDbEntity
  8
SKVIEW1
100
AcDbCircle
 10
-49.05950029434236
 20
0.0000004999999987
 30
0.0
 40
11.725
100
AcDbArc
 50
134.003127
 51
149.668433
  0
SPLINE
  5
2F3CE
330
1F
100
AcDbEntity
  8
SKVIEW1
100
AcDbSpline
210
0.0
220
0.0
230
1.0
 70
     8
 71
     5
 72
    18
 73
    12
 74
     0
 42
0.000000001
 43
0.0000000001
 40
0.0
 40
0.0
 40
0.0
 40
0.0
 40
0.0
 40
0.0
 40
0.2758065471181458
 40
0.2758065471181458
 40
0.2758065471181458
 40
0.9862135305377174
 40
0.9862135305377174
 40
0.9862135305377174
 40
0.9909757351567025
 40
0.9909757351567025
 40
0.9909757351567025
 40
0.9909757351567025
 40
0.9909757351567025
 40
0.9909757351567025
 10
-59.53620503223816
 20
6.103629161292504
 30
0.0
 10
-59.53866095368868
 20
6.099413642078547
 30
0.0
 10
-59.53672551988486
 20
6.093565669464298
 30
0.0
 10
-59.53025035454729
 20
6.086197712358798
 30
0.0
 10
-59.49244141010571
 20
6.055506429716582
 30
0.0
 10
-59.41010171705517
 20
6.013179868625289
 30
0.0
 10
-59.33550861821968
 20
5.980472270789268
 30
0.0
 10
-59.25872040883264
 20
5.949924703594247
 30
0.0
 10
-59.1811031502166
 20
5.921726103907317
 30
0.0
 10
-59.18058627180806
 20
5.921538437768224
 30
0.0
 10
-59.18006935659921
 20
5.921350875621053
 30
0.0
 10
-59.1795524042445
 20
5.921163417270979
 30
0.0
  0
ARC
  5
2F3CF
330
1F
100
AcDbEntity
  8
SKVIEW1
100
AcDbCircle
 10
-49.05950029434236
 20
0.0000004999999987
 30
0.0
 40
12.125
100
AcDbArc
 50
136.117736
 51
149.775329
  0
LINE
  5
2F3D0
330
1F
100
AcDbEntity
  8
SKVIEW1
100
AcDbLine
 10
-48.99164929434235
 20
11.7248045
 30
0.0
 11
-48.86740029434236
 21
11.0243685
 31
0.0
  0
ARC
  5
2F3D1
330
1F
100
AcDbEntity
  8
SKVIEW1
100
AcDbCircle
 10
-49.05950029434236
 20
0.0000004999999987
 30
0.0
 40
11.026042
100
AcDbArc
 50
65.38034599999997
 51
89.00172099999997
  0
ARC
  5
2F3D2
330
1F
100
AcDbEntity
  8
SKVIEW1
100
AcDbCircle
 10
-46.32954929434236
 20
9.241751499999999
 30
0.0
 40
2.020833000000001
100
AcDbArc
 50
22.76448799999998
 51
67.77117899999997
  0
ARC
  5
2F3D3
330
1F
100
AcDbEntity
  8
SKVIEW1
100
AcDbCircle
 10
-45.18674829434234
 20
12.0380775
 30
0.0
 40
0.9999999999999994
100
AcDbArc
 50
195.4999999999999
 51
247.771179
  0
ARC
  5
2F3D4
330
1F
100
AcDbEntity
  8
SKVIEW1
100
AcDbCircle
 10
-49.05950029434236
 20
0.0000004999999987
 30
0.0
 40
11.725
100
AcDbArc
 50
74.00312700000004
 51
89.66843300000002
  0
SPLINE
  5
2F3D5
330
1F
100
AcDbEntity
  8
SKVIEW1
100
AcDbSpline
210
0.0
220
0.0
230
1.0
 70
     8
 71
     5
 72
    18
 73
    12
 74
     0
 42
0.000000001
 43
0.0000000001
 40
0.0
 40
0.0
 40
0.0
 40
0.0
 40
0.0
 40
0.0
 40
0.2758065471170519
 40
0.2758065471170519
 40
0.2758065471170519
 40
0.9862135305498163
 40
0.9862135305498163
 40
0.9862135305498163
 40
0.9909757351688
 40
0.9909757351688
 40
0.9909757351688
 40
0.9909757351688
 40
0.9909757351688
 40
0.9909757351688
 10
-49.01195518734415
 20
12.12490728161282
 30
0.0
 10
-49.01683389479883
 20
12.12492641237169
 30
0.0
 10
-49.02093067074147
 20
12.12032629122314
 30
0.0
 10
-49.02407392610009
 20
12.11103465499422
 30
0.0
 10
-49.03174888432225
 20
12.06294550729581
 30
0.0
 10
-49.02723491495674
 20
11.97047396082685
 30
0.0
 10
-49.01826397616214
 20
11.88952064337572
 30
0.0
 10
-49.00632484068326
 20
11.80774631973646
 30
0.0
 10
-48.99193691505498
 20
11.72642850215787
 30
0.0
 10
-48.99184099949462
 20
11.72588703925588
 30
0.0
 10
-48.99174497547443
 20
11.72534559647982
 30
0.0
 10
-48.99164884299038
 20
11.72480417343306
 30
0.0
  0
ARC
  5
2F3D6
330
1F
100
AcDbEntity
  8
SKVIEW1
100
AcDbCircle
 10
-49.05950029434236
 20
0.0000004999999987
 30
0.0
 40
12.125
100
AcDbArc
 50
76.11773600000002
 51
89.77532900000005
  0
LINE
  5
2F3D7
330
1F
100
AcDbEntity
  8
SKVIEW1
100
AcDbLine
 10
-38.87159629434235
 20
5.803641499999998
 30
0.0
 11
-39.41606729434235
 21
5.345821499999998
 31
0.0
  0
ARC
  5
2F3D8
330
1F
100
AcDbEntity
  8
SKVIEW1
100
AcDbCircle
 10
-49.05950029434236
 20
0.0000004999999987
 30
0.0
 40
11.026042
100
AcDbArc
 50
5.380345999999998
 51
29.001721
  0
ARC
  5
2F3D9
330
1F
100
AcDbEntity
  8
SKVIEW1
100
AcDbCircle
 10
-39.69093429434235
 20
2.256668499999999
 30
0.0
 40
2.020832999999999
100
AcDbArc
 50
322.7644879999999
 51
7.77117899999998
  0
ARC
  5
2F3DA
330
1F
100
AcDbEntity
  8
SKVIEW1
100
AcDbCircle
 10
-36.69784429434236
 20
2.665137499999999
 30
0.0
 40
1.000000000000005
100
AcDbArc
 50
135.5000000000003
 51
187.7711790000002
  0
ARC
  5
2F3DB
330
1F
100
AcDbEntity
  8
SKVIEW1
100
AcDbCircle
 10
-49.05950029434236
 20
0.0000004999999987
 30
0.0
 40
11.725
100
AcDbArc
 50
14.003127
 51
29.668433
  0
SPLINE
  5
2F3DC
330
1F
100
AcDbEntity
  8
SKVIEW1
100
AcDbSpline
210
0.0
220
0.0
230
1.0
 70
     8
 71
     5
 72
    18
 73
    12
 74
     0
 42
0.000000001
 43
0.0000000001
 40
0.0
 40
0.0
 40
0.0
 40
0.0
 40
0.0
 40
0.0
 40
0.275806547117607
 40
0.275806547117607
 40
0.275806547117607
 40
0.9862135305433852
 40
0.9862135305433852
 40
0.9862135305433852
 40
0.9909757351623603
 40
0.9909757351623603
 40
0.9909757351623603
 40
0.9909757351623603
 40
0.9909757351623603
 40
0.9909757351623603
 10
-38.53525044944833
 20
6.021278620320326
 30
0.0
 10
-38.53767323545249
 20
6.025513270293144
 30
0.0
 10
-38.54370544519897
 20
6.026761121758807
 30
0.0
 10
-38.5533238658955
 20
6.024837442635407
 30
0.0
 10
-38.59880776855969
 20
6.007439577579538
 30
0.0
 10
-38.67663349224562
 20
5.957294592202848
 30
0.0
 10
-38.74225565228354
 20
5.909048872584465
 30
0.0
 10
-38.80710472619215
 20
5.857822116141183
 30
0.0
 10
-38.87033405918076
 20
5.804702898250571
 30
0.0
 10
-38.8707550220289
 20
5.804349101487667
 30
0.0
 10
-38.87117591321758
 20
5.803995220858777
 30
0.0
 10
-38.87159673308822
 20
5.803641256162097
 30
0.0
  0
ARC
  5
2F3DD
330
1F
100
AcDbEntity
  8
SKVIEW1
100
AcDbCircle
 10
-49.05950029434236
 20
0.0000004999999987
 30
0.0
 40
12.125
100
AcDbArc
 50
16.117736
 51
29.775329
  0
LINE
  5
2F3DE
330
1F
100
AcDbEntity
  8
SKVIEW1
100
AcDbLine
 10
-38.93944829434235
 20
-5.921162500000001
 30
0.0
 11
-39.60816729434235
 21
-5.678546500000001
 31
0.0
  0
ARC
  5
2F3DF
330
1F
100
AcDbEntity
  8
SKVIEW1
100
AcDbCircle
 10
-49.05950029434236
 20
0.0000004999999987
 30
0.0
 40
11.026042
100
AcDbArc
 50
305.380346
 51
329.001721
  0
ARC
  5
2F3E0
330
1F
100
AcDbEntity
  8
SKVIEW1
100
AcDbCircle
 10
-42.42088529434234
 20
-6.985081500000001
 30
0.0
 40
2.020833
100
AcDbArc
 50
262.7644879999999
 51
307.771179
  0
ARC
  5
2F3E1
330
1F
100
AcDbEntity
  8
SKVIEW1
100
AcDbCircle
 10
-40.57059629434234
 20
-9.372939499999999
 30
0.0
 40
0.9999999999999985
100
AcDbArc
 50
75.50000000000037
 51
127.7711790000004
  0
ARC
  5
2F3E2
330
1F
100
AcDbEntity
  8
SKVIEW1
100
AcDbCircle
 10
-49.05950029434236
 20
0.0000004999999987
 30
0.0
 40
11.725
100
AcDbArc
 50
314.003127
 51
329.668433
  0
SPLINE
  5
2F3E3
330
1F
100
AcDbEntity
  8
SKVIEW1
100
AcDbSpline
210
0.0
220
0.0
230
1.0
 70
     8
 71
     5
 72
    18
 73
    12
 74
     0
 42
0.000000001
 43
0.0000000001
 40
0.0
 40
0.0
 40
0.0
 40
0.0
 40
0.0
 40
0.0
 40
0.2758065471148211
 40
0.2758065471148211
 40
0.2758065471148211
 40
0.9862135304966935
 40
0.9862135304966935
 40
0.9862135304966935
 40
0.9909757351156276
 40
0.9909757351156276
 40
0.9909757351156276
 40
0.9909757351156276
 40
0.9909757351156276
 40
0.9909757351156276
 10
-38.58279555644653
 20
-6.103628161292509
 30
0.0
 10
-38.58033963499604
 20
-6.099412642078603
 30
0.0
 10
-38.58227506879982
 20
-6.093564669464432
 30
0.0
 10
-38.58875023413783
 20
-6.08619671235846
 30
0.0
 10
-38.62655917857814
 20
-6.055505429717446
 30
0.0
 10
-38.70889887162374
 20
-6.013178868628294
 30
0.0
 10
-38.78349197047315
 20
-5.980471270786138
 30
0.0
 10
-38.86028017985615
 20
-5.949923703592742
 30
0.0
 10
-38.93789743846812
 20
-5.921725103907299
 30
0.0
 10
-38.93841431687664
 20
-5.921537437768226
 30
0.0
 10
-38.9389312320855
 20
-5.921349875621053
 30
0.0
 10
-38.9394481844402
 20
-5.921162417270983
 30
0.0
  0
ARC
  5
2F3E4
330
1F
100
AcDbEntity
  8
SKVIEW1
100
AcDbCircle
 10
-49.05950029434236
 20
0.0000004999999987
 30
0.0
 40
12.125
100
AcDbArc
 50
316.1177359999999
 51
329.775329
  0
LINE
  5
2F3E5
330
1F
100
AcDbEntity
  8
SKVIEW1
100
AcDbLine
 10
-49.12735129434235
 20
-11.7248035
 30
0.0
 11
-49.25160029434235
 21
-11.0243675
 31
0.0
  0
ARC
  5
2F3E6
330
1F
100
AcDbEntity
  8
SKVIEW1
100
AcDbCircle
 10
-49.05950029434236
 20
0.0000004999999987
 30
0.0
 40
11.026042
100
AcDbArc
 50
245.3803459999999
 51
269.0017209999999
  0
ARC
  5
2F3E7
330
1F
100
AcDbEntity
  8
SKVIEW1
100
AcDbCircle
 10
-51.78945129434236
 20
-9.241750500000001
 30
0.0
 40
2.020833
100
AcDbArc
 50
202.7644879999999
 51
247.771179
  0
ARC
  5
2F3E8
330
1F
100
AcDbEntity
  8
SKVIEW1
100
AcDbCircle
 10
-52.93225229434235
 20
-12.0380765
 30
0.0
 40
1.0
100
AcDbArc
 50
15.50000000000002
 51
67.77117900000003
  0
ARC
  5
2F3E9
330
1F
100
AcDbEntity
  8
SKVIEW1
100
AcDbCircle
 10
-49.05950029434236
 20
0.0000004999999987
 30
0.0
 40
11.725
100
AcDbArc
 50
254.0031269999999
 51
269.668433
  0
SPLINE
  5
2F3EA
330
1F
100
AcDbEntity
  8
SKVIEW1
100
AcDbSpline
210
0.0
220
0.0
230
1.0
 70
     8
 71
     5
 72
    18
 73
    12
 74
     0
 42
0.000000001
 43
0.0000000001
 40
0.0
 40
0.0
 40
0.0
 40
0.0
 40
0.0
 40
0.0
 40
0.2758065471193154
 40
0.2758065471193154
 40
0.2758065471193154
 40
0.9862135304665645
 40
0.9862135304665645
 40
0.9862135304665645
 40
0.9909757350855063
 40
0.9909757350855063
 40
0.9909757350855063
 40
0.9909757350855063
 40
0.9909757350855063
 40
0.9909757350855063
 10
-49.10704540134055
 20
-12.12490628161282
 30
0.0
 10
-49.10216669388584
 20
-12.12492541237169
 30
0.0
 10
-49.09806991794317
 20
-12.12032529122306
 30
0.0
 10
-49.09492666258458
 20
-12.11103365499426
 30
0.0
 10
-49.08725170436309
 20
-12.06294450729989
 30
0.0
 10
-49.09176567372715
 20
-11.97047296084238
 30
0.0
 10
-49.1007366125252
 20
-11.88951964335612
 30
0.0
 10
-49.11267574800316
 20
-11.80774531972672
 30
0.0
 10
-49.12706367362972
 20
-11.72642750215786
 30
0.0
 10
-49.12715958919012
 20
-11.72588603925587
 30
0.0
 10
-49.12725561321028
 20
-11.72534459647981
 30
0.0
 10
-49.12735174569434
 20
-11.72480317343306
 30
0.0
  0
ARC
  5
2F3EB
330
1F
100
AcDbEntity
  8
SKVIEW1
100
AcDbCircle
 10
-49.05950029434236
 20
0.0000004999999987
 30
0.0
 40
12.125
100
AcDbArc
 50
256.117736
 51
269.775329
  0
LINE
  5
2F3EC
330
1F
100
AcDbEntity
  8
SKVIEW1
100
AcDbLine
 10
-59.24740429434235
 20
-5.803640500000001
 30
0.0
 11
-58.70293329434236
 21
-5.345820500000001
 31
0.0
  0
ARC
  5
2F3ED
330
1F
100
AcDbEntity
  8
SKVIEW1
100
AcDbCircle
 10
-49.05950029434236
 20
0.0000004999999987
 30
0.0
 40
11.026042
100
AcDbArc
 50
185.3803459999999
 51
209.0017209999999
  0
ARC
  5
2F3EE
330
1F
100
AcDbEntity
  8
SKVIEW1
100
AcDbCircle
 10
-58.42806629434235
 20
-2.2566675
 30
0.0
 40
2.020832999999997
100
AcDbArc
 50
142.764488
 51
187.7711789999999
  0
ARC
  5
2F3EF
330
1F
100
AcDbEntity
  8
SKVIEW1
100
AcDbCircle
 10
-61.42115629434235
 20
-2.6651365
 30
0.0
 40
1.000000000000003
100
AcDbArc
 50
315.5000000000003
 51
7.771179000000234
  0
ARC
  5
2F3F0
330
1F
100
AcDbEntity
  8
SKVIEW1
100
AcDbCircle
 10
-49.05950029434236
 20
0.0000004999999987
 30
0.0
 40
11.725
100
AcDbArc
 50
194.003127
 51
209.6684329999999
  0
SPLINE
  5
2F3F1
330
1F
100
AcDbEntity
  8
SKVIEW1
100
AcDbSpline
210
0.0
220
0.0
230
1.0
 70
     8
 71
     5
 72
    18
 73
    12
 74
     0
 42
0.000000001
 43
0.0000000001
 40
0.0
 40
0.0
 40
0.0
 40
0.0
 40
0.0
 40
0.0
 40
0.2758065471259596
 40
0.2758065471259596
 40
0.2758065471259596
 40
0.9862135304809683
 40
0.9862135304809683
 40
0.9862135304809683
 40
0.990975735099885
 40
0.990975735099885
 40
0.990975735099885
 40
0.990975735099885
 40
0.990975735099885
 40
0.990975735099885
 10
-59.58375013923635
 20
-6.021277620320337
 30
0.0
 10
-59.58132735323212
 20
-6.025512270293284
 30
0.0
 10
-59.57529514348536
 20
-6.026760121758897
 30
0.0
 10
-59.56567672279011
 20
-6.024836442635737
 30
0.0
 10
-59.52019282012923
 20
-6.007438577581341
 30
0.0
 10
-59.44236709645052
 20
-5.957293592210281
 30
0.0
 10
-59.37674493638854
 20
-5.909047872574076
 30
0.0
 10
-59.31189586248629
 20
-5.857821116135897
 30
0.0
 10
-59.24866652950393
 20
-5.804701898250546
 30
0.0
 10
-59.24824556665579
 20
-5.804348101487648
 30
0.0
 10
-59.24782467546712
 20
-5.803994220858763
 30
0.0
 10
-59.24740385559647
 20
-5.803640256162087
 30
0.0
  0
ARC
  5
2F3F2
330
1F
100
AcDbEntity
  8
SKVIEW1
100
AcDbCircle
 10
-49.05950029434236
 20
0.0000004999999987
 30
0.0
 40
12.125
100
AcDbArc
 50
196.117736
 51
209.775329
  0
LINE
  5
2F3F3
330
1F
100
AcDbEntity
  8
SKVIEW1
100
AcDbLine
 10
-59.17955229434236
 20
5.921163499999998
 30
0.0
 11
-58.51083329434235
 21
5.678547499999998
 31
0.0
  0
ARC
  5
2F3F4
330
1F
100
AcDbEntity
  8
SKVIEW1
100
AcDbCircle
 10
-49.05950029434236
 20
0.0000004999999987
 30
0.0
 40
11.026042
100
AcDbArc
 50
125.380346
 51
149.001721
  0
ARC
  5
2F3F5
330
1F
100
AcDbEntity
  8
SKVIEW1
100
AcDbCircle
 10
-55.69811529434236
 20
6.985082499999998
 30
0.0
 40
2.020833
100
AcDbArc
 50
82.76448799999986
 51
127.7711789999998
  0
ARC
  5
2F3F6
330
1F
100
AcDbEntity
  8
SKVIEW1
100
AcDbCircle
 10
-57.54840429434235
 20
9.3729405
 30
0.0
 40
0.9999999999999985
100
AcDbArc
 50
255.5000000000003
 51
307.7711790000003
  0
ARC
  5
2F3F7
330
1F
100
AcDbEntity
  8
SKVIEW1
100
AcDbCircle
 10
-49.05950029434236
 20
0.0000004999999987
 30
0.0
 40
11.725
100
AcDbArc
 50
134.003127
 51
149.668433
  0
SPLINE
  5
2F3F8
330
1F
100
AcDbEntity
  8
SKVIEW1
100
AcDbSpline
210
0.0
220
0.0
230
1.0
 70
     8
 71
     5
 72
    18
 73
    12
 74
     0
 42
0.000000001
 43
0.0000000001
 40
0.0
 40
0.0
 40
0.0
 40
0.0
 40
0.0
 40
0.0
 40
0.2758065471181458
 40
0.2758065471181458
 40
0.2758065471181458
 40
0.9862135305377174
 40
0.9862135305377174
 40
0.9862135305377174
 40
0.9909757351567025
 40
0.9909757351567025
 40
0.9909757351567025
 40
0.9909757351567025
 40
0.9909757351567025
 40
0.9909757351567025
 10
-59.53620503223816
 20
6.103629161292504
 30
0.0
 10
-59.53866095368868
 20
6.099413642078547
 30
0.0
 10
-59.53672551988486
 20
6.093565669464298
 30
0.0
 10
-59.53025035454729
 20
6.086197712358798
 30
0.0
 10
-59.49244141010571
 20
6.055506429716582
 30
0.0
 10
-59.41010171705517
 20
6.013179868625289
 30
0.0
 10
-59.33550861821968
 20
5.980472270789268
 30
0.0
 10
-59.25872040883264
 20
5.949924703594247
 30
0.0
 10
-59.1811031502166
 20
5.921726103907317
 30
0.0
 10
-59.18058627180806
 20
5.921538437768224
 30
0.0
 10
-59.18006935659921
 20
5.921350875621053
 30
0.0
 10
-59.1795524042445
 20
5.921163417270979
 30
0.0
  0
ARC
  5
2F3F9
330
1F
100
AcDbEntity
  8
SKVIEW1
100
AcDbCircle
 10
-49.05950029434236
 20
0.0000004999999987
 30
0.0
 40
12.125
100
AcDbArc
 50
136.117736
 51
149.775329
  0
LINE
  5
2F3FA
330
1F
100
AcDbEntity
  8
SKVIEW1
100
AcDbLine
 10
-48.99164929434235
 20
11.7248045
 30
0.0
 11
-48.86740029434236
 21
11.0243685
 31
0.0
  0
ARC
  5
2F3FB
330
1F
100
AcDbEntity
  8
SKVIEW1
100
AcDbCircle
 10
-49.05950029434236
 20
0.0000004999999987
 30
0.0
 40
11.026042
100
AcDbArc
 50
65.38034599999997
 51
89.00172099999997
  0
ARC
  5
2F3FC
330
1F
100
AcDbEntity
  8
SKVIEW1
100
AcDbCircle
 10
-46.32954929434236
 20
9.241751499999999
 30
0.0
 40
2.020833000000001
100
AcDbArc
 50
22.76448799999998
 51
67.77117899999997
  0
ARC
  5
2F3FD
330
1F
100
AcDbEntity
  8
SKVIEW1
100
AcDbCircle
 10
-45.18674829434234
 20
12.0380775
 30
0.0
 40
0.9999999999999994
100
AcDbArc
 50
195.4999999999999
 51
247.771179
  0
ARC
  5
2F3FE
330
1F
100
AcDbEntity
  8
SKVIEW1
100
AcDbCircle
 10
-49.05950029434236
 20
0.0000004999999987
 30
0.0
 40
11.725
100
AcDbArc
 50
74.00312700000004
 51
89.66843300000002
  0
SPLINE
  5
2F3FF
330
1F
100
AcDbEntity
  8
SKVIEW1
100
AcDbSpline
210
0.0
220
0.0
230
1.0
 70
     8
 71
     5
 72
    18
 73
    12
 74
     0
 42
0.000000001
 43
0.0000000001
 40
0.0
 40
0.0
 40
0.0
 40
0.0
 40
0.0
 40
0.0
 40
0.2758065471170519
 40
0.2758065471170519
 40
0.2758065471170519
 40
0.9862135305498163
 40
0.9862135305498163
 40
0.9862135305498163
 40
0.9909757351688
 40
0.9909757351688
 40
0.9909757351688
 40
0.9909757351688
 40
0.9909757351688
 40
0.9909757351688
 10
-49.01195518734415
 20
12.12490728161282
 30
0.0
 10
-49.01683389479883
 20
12.12492641237169
 30
0.0
 10
-49.02093067074147
 20
12.12032629122314
 30
0.0
 10
-49.02407392610009
 20
12.11103465499422
 30
0.0
 10
-49.03174888432225
 20
12.06294550729581
 30
0.0
 10
-49.02723491495674
 20
11.97047396082685
 30
0.0
 10
-49.01826397616214
 20
11.88952064337572
 30
0.0
 10
-49.00632484068326
 20
11.80774631973646
 30
0.0
 10
-48.99193691505498
 20
11.72642850215787
 30
0.0
 10
-48.99184099949462
 20
11.72588703925588
 30
0.0
 10
-48.99174497547443
 20
11.72534559647982
 30
0.0
 10
-48.99164884299038
 20
11.72480417343306
 30
0.0
  0
ARC
  5
2F400
330
1F
100
AcDbEntity
  8
SKVIEW1
100
AcDbCircle
 10
-49.05950029434236
 20
0.0000004999999987
 30
0.0
 40
12.125
100
AcDbArc
 50
76.11773600000002
 51
89.77532900000005
  0
CIRCLE
  5
2F401
330
1F
100
AcDbEntity
  8
SKVIEW1
100
AcDbCircle
 10
-49.05950029434236
 20
0.0000004999999987
 30
0.0
 40
3.75
  0
ARC
  5
2F402
330
1F
100
AcDbEntity
  8
SKVIEW1
100
AcDbCircle
 10
-55.69811529434236
 20
6.985082499999998
 30
0.0
 40
2.020833
100
AcDbArc
 50
74.4999999999998
 51
82.76448799999981
  0
LINE
  5
2F403
330
1F
100
AcDbEntity
  8
SKVIEW1
100
AcDbLine
 10
-55.15807129434235
 20
8.932419499999998
 30
0.0
 11
-53.01816229434235
 21
8.338970499999998
 31
0.0
  0
SPLINE
  5
2F404
330
1F
100
AcDbEntity
  8
SKVIEW1
100
AcDbSpline
210
0.0
220
0.0
230
1.0
 70
     8
 71
     5
 72
    18
 73
    12
 74
     0
 42
0.000000001
 43
0.0000000001
 40
0.0
 40
0.0
 40
0.0
 40
0.0
 40
0.0
 40
0.0
 40
1.763491034117476
 40
1.763491034117476
 40
1.763491034117476
 40
3.595467836191826
 40
3.595467836191826
 40
3.595467836191826
 40
5.428952575918853
 40
5.428952575918853
 40
5.428952575918853
 40
5.428952575918853
 40
5.428952575918853
 40
5.428952575918853
 10
-48.73940433471155
 20
10.51821913267711
 30
0.0
 10
-48.69863351065976
 20
10.28282103995549
 30
0.0
 10
-48.6856801319212
 20
10.0397549298545
 30
0.0
 10
-48.70271638965935
 20
9.793671466351936
 30
0.0
 10
-48.80021531604165
 20
9.297062977167366
 30
0.0
 10
-49.02162663542571
 20
8.833595534143858
 30
0.0
 10
-49.16554127644761
 20
8.612164112766
 30
0.0
 10
-49.50953653195518
 20
8.210250740091613
 30
0.0
 10
-49.94746583498934
 20
7.908460531002342
 30
0.0
 10
-50.18549564017195
 20
7.78702513103473
 30
0.0
 10
-50.43657155969385
 20
7.69815117006374
 30
0.0
 10
-50.69448366428645
 20
7.64296945007271
 30
0.0
  0
ARC
  5
2F405
330
1F
100
AcDbEntity
  8
SKVIEW1
100
AcDbCircle
 10
-51.22413629434236
 20
10.1034435
 30
0.0
 40
2.516595000000001
100
AcDbArc
 50
224.524173
 51
282.148365
  0
LINE
  5
2F406
330
1F
100
AcDbEntity
  8
SKVIEW1
100
AcDbLine
 10
-48.79217129434235
 20
10.8227535
 30
0.0
 11
-48.73940429434234
 21
10.5182195
 31
0.0
  0
ARC
  5
2F407
330
1F
100
AcDbEntity
  8
SKVIEW1
100
AcDbCircle
 10
-49.05950029434236
 20
0.0000004999999987
 30
0.0
 40
10.826042
100
AcDbArc
 50
64.369381
 51
88.58503399999998
  0
ARC
  5
2F408
330
1F
100
AcDbEntity
  8
SKVIEW1
100
AcDbCircle
 10
-46.32954929434236
 20
9.241751499999999
 30
0.0
 40
2.020832999999996
100
AcDbArc
 50
14.5
 51
22.764488
  0
LINE
  5
2F409
330
1F
100
AcDbEntity
  8
SKVIEW1
100
AcDbLine
 10
-44.37308429434235
 20
9.747727499999998
 30
0.0
 11
-43.81707129434235
 21
7.597787499999999
 31
0.0
  0
SPLINE
  5
2F40A
330
1F
100
AcDbEntity
  8
SKVIEW1
100
AcDbSpline
210
0.0
220
0.0
230
1.0
 70
     8
 71
     5
 72
    18
 73
    12
 74
     0
 42
0.000000001
 43
0.0000000001
 40
0.0
 40
0.0
 40
0.0
 40
0.0
 40
0.0
 40
0.0
 40
1.763491034147386
 40
1.763491034147386
 40
1.763491034147386
 40
3.595467836223136
 40
3.595467836223136
 40
3.595467836223136
 40
5.428952575976023
 40
5.428952575976023
 40
5.428952575976023
 40
5.428952575976023
 40
5.428952575976023
 40
5.428952575976023
 10
-39.79040777606975
 20
4.981898583649518
 30
0.0
 10
-39.97388309234631
 20
4.828890967924056
 30
0.0
 10
-40.17790782912661
 20
4.696139957819391
 30
0.0
 10
-40.39954048882617
 20
4.587852058062037
 30
0.0
 10
-40.87836551938974
 20
4.423984360555627
 30
0.0
 10
-41.39044575857196
 20
4.38399846631607
 30
0.0
 10
-41.65416831519133
 20
4.397916490728595
 30
0.0
 10
-42.17423313380558
 20
4.494868434442418
 30
0.0
 10
-42.65455577301081
 20
4.723231231390149
 30
0.0
 10
-42.87873681688097
 20
4.868653389544447
 30
0.0
 10
-43.08124188458022
 20
5.041654533645094
 30
0.0
 10
-43.25798670821572
 20
5.237422108173015
 30
0.0
  0
ARC
  5
2F40B
330
1F
100
AcDbEntity
  8
SKVIEW1
100
AcDbCircle
 10
-41.39198029434235
 20
6.926351499999999
 30
0.0
 40
2.516595000000005
100
AcDbArc
 50
164.524173
 51
222.1483650000001
  0
LINE
  5
2F40C
330
1F
100
AcDbEntity
  8
SKVIEW1
100
AcDbLine
 10
-39.55306629434235
 20
5.179855499999998
 30
0.0
 11
-39.79040729434235
 21
4.981898499999998
 31
0.0
  0
ARC
  5
2F40D
330
1F
100
AcDbEntity
  8
SKVIEW1
100
AcDbCircle
 10
-49.05950029434236
 20
0.0000004999999987
 30
0.0
 40
10.826042
100
AcDbArc
 50
4.369380999999998
 51
28.585034
  0
ARC
  5
2F40E
330
1F
100
AcDbEntity
  8
SKVIEW1
100
AcDbCircle
 10
-39.69093429434235
 20
2.256668499999999
 30
0.0
 40
2.020833000000003
100
AcDbArc
 50
314.5000000000001
 51
322.764488
  0
LINE
  5
2F40F
330
1F
100
AcDbEntity
  8
SKVIEW1
100
AcDbLine
 10
-38.27451329434235
 20
0.8153084999999988
 30
0.0
 11
-39.85840929434234
 21
-0.7411825000000012
 31
0.0
  0
SPLINE
  5
2F410
330
1F
100
AcDbEntity
  8
SKVIEW1
100
AcDbSpline
210
0.0
220
0.0
230
1.0
 70
     8
 71
     5
 72
    18
 73
    12
 74
     0
 42
0.000000001
 43
0.0000000001
 40
0.0
 40
0.0
 40
0.0
 40
0.0
 40
0.0
 40
0.0
 40
1.763491034130652
 40
1.763491034130652
 40
1.763491034130652
 40
3.595467836231148
 40
3.595467836231148
 40
3.595467836231148
 40
5.428952575943653
 40
5.428952575943653
 40
5.428952575943653
 40
5.428952575943653
 40
5.428952575943653
 40
5.428952575943653
 10
-40.11050373570054
 20
-5.536320049027597
 30
0.0
 10
-40.33474987602743
 20
-5.453929572028231
 30
0.0
 10
-40.55172799154474
 20
-5.343614472029288
 30
0.0
 10
-40.75632439351408
 20
-5.205818908294863
 30
0.0
 10
-41.13765049769649
 20
-4.873078116611368
 30
0.0
 10
-41.42831941749213
 20
-4.449596567821386
 30
0.0
 10
-41.54812733308395
 20
-4.214247122045016
 30
0.0
 10
-41.72419689618823
 20
-3.715381805655002
 30
0.0
 10
-41.7665902323567
 20
-3.185228799620187
 30
0.0
 10
-41.75274147105586
 20
-2.918371241482473
 30
0.0
 10
-41.7041706192306
 20
-2.656496136413943
 30
0.0
 10
-41.62300333827167
 20
-2.405546841899693
 30
0.0
  0
ARC
  5
2F411
330
1F
100
AcDbEntity
  8
SKVIEW1
100
AcDbCircle
 10
-39.22734429434235
 20
-3.177091500000001
 30
0.0
 40
2.516595000000001
100
AcDbArc
 50
104.5241730000001
 51
162.1483650000001
  0
LINE
  5
2F412
330
1F
100
AcDbEntity
  8
SKVIEW1
100
AcDbLine
 10
-39.82039729434235
 20
-5.6428845
 30
0.0
 11
-40.11050329434234
 21
-5.536320500000001
 31
0.0
  0
ARC
  5
2F413
330
1F
100
AcDbEntity
  8
SKVIEW1
100
AcDbCircle
 10
-49.05950029434236
 20
0.0000004999999987
 30
0.0
 40
10.82604199999999
100
AcDbArc
 50
304.3693809999999
 51
328.585034
  0
ARC
  5
2F414
330
1F
100
AcDbEntity
  8
SKVIEW1
100
AcDbCircle
 10
-42.42088529434234
 20
-6.985081500000001
 30
0.0
 40
2.020833
100
AcDbArc
 50
254.4999999999998
 51
262.7644879999998
  0
LINE
  5
2F415
330
1F
100
AcDbEntity
  8
SKVIEW1
100
AcDbLine
 10
-42.96092929434236
 20
-8.932418499999998
 30
0.0
 11
-45.10083829434235
 21
-8.338969500000001
 31
0.0
  0
SPLINE
  5
2F416
330
1F
100
AcDbEntity
  8
SKVIEW1
100
AcDbSpline
210
0.0
220
0.0
230
1.0
 70
     8
 71
     5
 72
    18
 73
    12
 74
     0
 42
0.000000001
 43
0.0000000001
 40
0.0
 40
0.0
 40
0.0
 40
0.0
 40
0.0
 40
0.0
 40
1.7634910341198
 40
1.7634910341198
 40
1.7634910341198
 40
3.595467836189428
 40
3.595467836189428
 40
3.595467836189428
 40
5.428952575927241
 40
5.428952575927241
 40
5.428952575927241
 40
5.428952575927241
 40
5.428952575927241
 40
5.428952575927241
 10
-49.37959625397315
 20
-10.51821813267711
 30
0.0
 10
-49.42036707802499
 20
-10.28282003995518
 30
0.0
 10
-49.43332045676346
 20
-10.03975392985386
 30
0.0
 10
-49.41628419902539
 20
-9.793670466352583
 30
0.0
 10
-49.31878527264339
 20
-9.29706197716832
 30
0.0
 10
-49.09737395325947
 20
-8.833594534145081
 30
0.0
 10
-48.95345931223603
 20
-8.612163112765154
 30
0.0
 10
-48.60946405672811
 20
-8.210249740089849
 30
0.0
 10
-48.17153475369259
 20
-7.908459531000756
 30
0.0
 10
-47.93350494851527
 20
-7.787024131035462
 30
0.0
 10
-47.68242902899234
 20
-7.69815017006405
 30
0.0
 10
-47.42451692439824
 20
-7.64296845007271
 30
0.0
  0
ARC
  5
2F417
330
1F
100
AcDbEntity
  8
SKVIEW1
100
AcDbCircle
 10
-46.89486429434235
 20
-10.1034425
 30
0.0
 40
2.516595000000001
100
AcDbArc
 50
44.52417299999996
 51
102.148365
  0
LINE
  5
2F418
330
1F
100
AcDbEntity
  8
SKVIEW1
100
AcDbLine
 10
-49.32682929434236
 20
-10.8227525
 30
0.0
 11
-49.37959629434235
 21
-10.5182185
 31
0.0
  0
ARC
  5
2F419
330
1F
100
AcDbEntity
  8
SKVIEW1
100
AcDbCircle
 10
-49.05950029434236
 20
0.0000004999999987
 30
0.0
 40
10.826042
100
AcDbArc
 50
244.369381
 51
268.585034
  0
ARC
  5
2F41A
330
1F
100
AcDbEntity
  8
SKVIEW1
100
AcDbCircle
 10
-51.78945129434236
 20
-9.241750500000001
 30
0.0
 40
2.020832999999997
100
AcDbArc
 50
194.5
 51
202.764488
  0
LINE
  5
2F41B
330
1F
100
AcDbEntity
  8
SKVIEW1
100
AcDbLine
 10
-53.74591629434235
 20
-9.7477265
 30
0.0
 11
-54.30192929434236
 21
-7.597786500000002
 31
0.0
  0
SPLINE
  5
2F41C
330
1F
100
AcDbEntity
  8
SKVIEW1
100
AcDbSpline
210
0.0
220
0.0
230
1.0
 70
     8
 71
     5
 72
    18
 73
    12
 74
     0
 42
0.000000001
 43
0.0000000001
 40
0.0
 40
0.0
 40
0.0
 40
0.0
 40
0.0
 40
0.0
 40
1.763491034143829
 40
1.763491034143829
 40
1.763491034143829
 40
3.595467836223213
 40
3.595467836223213
 40
3.595467836223213
 40
5.428952575963239
 40
5.428952575963239
 40
5.428952575963239
 40
5.428952575963239
 40
5.428952575963239
 40
5.428952575963239
 10
-58.32859281261495
 20
-4.981897583649514
 30
0.0
 10
-58.14511749633878
 20
-4.828889967924361
 30
0.0
 10
-57.94109275955893
 20
-4.696138957820266
 30
0.0
 10
-57.71946009985775
 20
-4.587851058061704
 30
0.0
 10
-57.24063506929379
 20
-4.423983360555421
 30
0.0
 10
-56.7285548301119
 20
-4.383997466315979
 30
0.0
 10
-56.46483227349439
 20
-4.397915490728071
 30
0.0
 10
-55.94476745488145
 20
-4.494867434442169
 30
0.0
 10
-55.46444481567728
 20
-4.723230231388212
 30
0.0
 10
-55.24026377180125
 20
-4.868652389546213
 30
0.0
 10
-55.03775870410325
 20
-5.041653533646431
 30
0.0
 10
-54.86101388046895
 20
-5.237421108173018
 30
0.0
  0
ARC
  5
2F41D
330
1F
100
AcDbEntity
  8
SKVIEW1
100
AcDbCircle
 10
-56.72702029434235
 20
-6.926350500000002
 30
0.0
 40
2.516595000000005
100
AcDbArc
 50
344.5241730000002
 51
42.14836500000004
  0
LINE
  5
2F41E
330
1F
100
AcDbEntity
  8
SKVIEW1
100
AcDbLine
 10
-58.56593429434235
 20
-5.179854500000001
 30
0.0
 11
-58.32859329434235
 21
-4.981897500000001
 31
0.0
  0
ARC
  5
2F41F
330
1F
100
AcDbEntity
  8
SKVIEW1
100
AcDbCircle
 10
-49.05950029434236
 20
0.0000004999999987
 30
0.0
 40
10.826042
100
AcDbArc
 50
184.3693809999999
 51
208.5850339999999
  0
ARC
  5
2F420
330
1F
100
AcDbEntity
  8
SKVIEW1
100
AcDbCircle
 10
-58.42806629434235
 20
-2.2566675
 30
0.0
 40
2.020833000000003
100
AcDbArc
 50
134.5000000000001
 51
142.764488
  0
LINE
  5
2F421
330
1F
100
AcDbEntity
  8
SKVIEW1
100
AcDbLine
 10
-59.84448729434236
 20
-0.8153075000000011
 30
0.0
 11
-58.26059129434235
 21
0.7411834999999988
 31
0.0
  0
SPLINE
  5
2F422
330
1F
100
AcDbEntity
  8
SKVIEW1
100
AcDbSpline
210
0.0
220
0.0
230
1.0
 70
     8
 71
     5
 72
    18
 73
    12
 74
     0
 42
0.000000001
 43
0.0000000001
 40
0.0
 40
0.0
 40
0.0
 40
0.0
 40
0.0
 40
0.0
 40
1.763491034129424
 40
1.763491034129424
 40
1.763491034129424
 40
3.595467836213638
 40
3.595467836213638
 40
3.595467836213638
 40
5.428952575949942
 40
5.428952575949942
 40
5.428952575949942
 40
5.428952575949942
 40
5.428952575949942
 40
5.428952575949942
 10
-58.00849685298414
 20
5.53632104902759
 30
0.0
 10
-57.78425071265743
 20
5.453930572028284
 30
0.0
 10
-57.56727259714042
 20
5.343615472029311
 30
0.0
 10
-57.36267619517017
 20
5.205819908295143
 30
0.0
 10
-56.98135009099004
 20
4.87307911661219
 30
0.0
 10
-56.690681171195
 20
4.449597567825768
 30
0.0
 10
-56.57087325559931
 20
4.214248122040393
 30
0.0
 10
-56.39480369249497
 20
3.715382805649582
 30
0.0
 10
-56.3524103563276
 20
3.185229799613111
 30
0.0
 10
-56.36625911762781
 20
2.918372241488212
 30
0.0
 10
-56.4148299694531
 20
2.656497136417142
 30
0.0
 10
-56.49599725041305
 20
2.405547841899674
 30
0.0
  0
ARC
  5
2F423
330
1F
100
AcDbEntity
  8
SKVIEW1
100
AcDbCircle
 10
-58.89165629434235
 20
3.177092499999998
 30
0.0
 40
2.516595000000001
100
AcDbArc
 50
284.5241730000001
 51
342.1483650000001
  0
LINE
  5
2F424
330
1F
100
AcDbEntity
  8
SKVIEW1
100
AcDbLine
 10
-58.29860329434236
 20
5.642885499999997
 30
0.0
 11
-58.00849729434236
 21
5.536321499999998
 31
0.0
  0
ARC
  5
2F425
330
1F
100
AcDbEntity
  8
SKVIEW1
100
AcDbCircle
 10
-49.05950029434236
 20
0.0000004999999987
 30
0.0
 40
10.826042
100
AcDbArc
 50
124.369381
 51
148.585034
  0
SPLINE
  5
2F426
330
1F
100
AcDbEntity
  8
SKVIEW1
100
AcDbSpline
210
0.0
220
0.0
230
1.0
 70
     8
 71
     5
 72
    15
 73
     9
 74
     0
 42
0.000000001
 43
0.0000000001
 40
0.0
 40
0.0
 40
0.0
 40
0.0
 40
0.0
 40
0.0
 40
0.1728187053917286
 40
0.1728187053917286
 40
0.1728187053917286
 40
0.5037431444248793
 40
0.5037431444248793
 40
0.5037431444248793
 40
0.5037431444248793
 40
0.5037431444248793
 40
0.5037431444248793
 10
-48.8500837435804
 20
11.02405327306565
 30
0.0
 10
-48.84730094341581
 20
11.02400041007379
 30
0.0
 10
-48.84389198138617
 20
11.02030251732316
 30
0.0
 10
-48.83987156319278
 20
11.01276704938394
 30
0.0
 10
-48.8277420366235
 20
10.98304091172218
 30
0.0
 10
-48.81472101427681
 20
10.93506858044963
 30
0.0
 10
-48.80618506686962
 20
10.89787593225112
 30
0.0
 10
-48.79869605881403
 20
10.86039134248076
 30
0.0
 10
-48.79216955575511
 20
10.82274102375872
 30
0.0
  0
ARC
  5
2F427
330
1F
100
AcDbEntity
  8
SKVIEW1
100
AcDbCircle
 10
-49.05950029434236
 20
0.0000004999999987
 30
0.0
 40
11.026042
100
AcDbArc
 50
65.38034599999997
 51
88.91172099999996
  0
SPLINE
  5
2F428
330
1F
100
AcDbEntity
  8
SKVIEW1
100
AcDbSpline
210
0.0
220
0.0
230
1.0
 70
     8
 71
     5
 72
    15
 73
     9
 74
     0
 42
0.000000001
 43
0.0000000001
 40
0.0
 40
0.0
 40
0.0
 40
0.0
 40
0.0
 40
0.0
 40
0.1728187053917301
 40
0.1728187053917301
 40
0.1728187053917301
 40
0.5037431444270429
 40
0.5037431444270429
 40
0.5037431444270429
 40
0.5037431444270429
 40
0.5037431444270429
 40
0.5037431444270429
 10
-39.40768226482624
 20
5.33066683360007
 30
0.0
 10
-39.40633664543781
 20
5.328230426467941
 30
0.0
 10
-39.4078346334855
 20
5.323429232374426
 30
0.0
 10
-39.41235033105357
 20
5.316179714115499
 30
0.0
 10
-39.43202915814053
 20
5.290812167139651
 30
0.0
 10
-39.46706390452816
 20
5.255549465367688
 30
0.0
 10
-39.49500570899785
 20
5.229560793969076
 30
0.0
 10
-39.52372381196177
 20
5.204332827858413
 30
0.0
 10
-39.55306669290636
 20
5.179855551050338
 30
0.0
  0
SPLINE
  5
2F429
330
1F
100
AcDbEntity
  8
SKVIEW1
100
AcDbSpline
210
0.0
220
0.0
230
1.0
 70
     8
 71
     5
 72
    15
 73
     9
 74
     0
 42
0.000000001
 43
0.0000000001
 40
0.0
 40
0.0
 40
0.0
 40
0.0
 40
0.0
 40
0.0
 40
0.1728187053917304
 40
0.1728187053917304
 40
0.1728187053917304
 40
0.5037431444286133
 40
0.5037431444286133
 40
0.5037431444286133
 40
0.5037431444286133
 40
0.5037431444286133
 40
0.5037431444286133
 10
-39.61709881558817
 20
-5.693385939465566
 30
0.0
 10
-39.61853599636434
 20
-5.695769483605841
 30
0.0
 10
-39.62344294644168
 20
-5.696872784948728
 30
0.0
 10
-39.63197906220315
 20
-5.696586835268456
 30
0.0
 10
-39.66378741585951
 20
-5.692228244582419
 30
0.0
 10
-39.71184318459411
 20
-5.679518615081449
 30
0.0
 10
-39.74832093647012
 20
-5.668314638282681
 30
0.0
 10
-39.78452804748989
 20
-5.656058014622665
 30
0.0
 10
-39.82039743149362
 20
-5.642884972708387
 30
0.0
  0
SPLINE
  5
2F42A
330
1F
100
AcDbEntity
  8
SKVIEW1
100
AcDbSpline
210
0.0
220
0.0
230
1.0
 70
     8
 71
     5
 72
    15
 73
     9
 74
     0
 42
0.000000001
 43
0.0000000001
 40
0.0
 40
0.0
 40
0.0
 40
0.0
 40
0.0
 40
0.0
 40
0.1728187053917296
 40
0.1728187053917296
 40
0.1728187053917296
 40
0.5037431444419932
 40
0.5037431444419932
 40
0.5037431444419932
 40
0.5037431444419932
 40
0.5037431444419932
 40
0.5037431444419932
 10
-49.26891684510429
 20
-11.02405227306565
 30
0.0
 10
-49.27169964526889
 20
-11.0239994100738
 30
0.0
 10
-49.2751086072985
 20
-11.02030151732317
 30
0.0
 10
-49.27912902549193
 20
-11.01276604938393
 30
0.0
 10
-49.2912585520616
 20
-10.98303991172117
 30
0.0
 10
-49.30427957440876
 20
-10.93506758044637
 30
0.0
 10
-49.31281552181431
 20
-10.897874932255
 30
0.0
 10
-49.32030452987035
 20
-10.86039034248271
 30
0.0
 10
-49.32683103292961
 20
-10.82274002375872
 30
0.0
  0
SPLINE
  5
2F42B
330
1F
100
AcDbEntity
  8
SKVIEW1
100
AcDbSpline
210
0.0
220
0.0
230
1.0
 70
     8
 71
     5
 72
    15
 73
     9
 74
     0
 42
0.000000001
 43
0.0000000001
 40
0.0
 40
0.0
 40
0.0
 40
0.0
 40
0.0
 40
0.0
 40
0.1728187053917288
 40
0.1728187053917288
 40
0.1728187053917288
 40
0.5037431444375942
 40
0.5037431444375942
 40
0.5037431444375942
 40
0.5037431444375942
 40
0.5037431444375942
 40
0.5037431444375942
 10
-58.71131832385846
 20
-5.33066583360008
 30
0.0
 10
-58.71266394324688
 20
-5.328229426467953
 30
0.0
 10
-58.71116595519921
 20
-5.323428232374438
 30
0.0
 10
-58.70665025763113
 20
-5.316178714115483
 30
0.0
 10
-58.68697143054378
 20
-5.290811167139128
 30
0.0
 10
-58.65193668415508
 20
-5.255548465366186
 30
0.0
 10
-58.62399487968874
 20
-5.229559793970646
 30
0.0
 10
-58.59527677672387
 20
-5.204331827859197
 30
0.0
 10
-58.56593389577835
 20
-5.179854551050341
 30
0.0
  0
ARC
  5
2F42C
330
1F
100
AcDbEntity
  8
SKVIEW1
100
AcDbCircle
 10
-49.05950029434236
 20
0.0000004999999987
 30
0.0
 40
11.026042
100
AcDbArc
 50
185.3803459999999
 51
208.9117209999999
  0
ARC
  5
2F42D
330
1F
100
AcDbEntity
  8
SKVIEW1
100
AcDbCircle
 10
-49.05950029434236
 20
0.0000004999999987
 30
0.0
 40
11.026042
100
AcDbArc
 50
125.380346
 51
148.911721
  0
SPLINE
  5
2F42E
330
1F
100
AcDbEntity
  8
SKVIEW1
100
AcDbSpline
210
0.0
220
0.0
230
1.0
 70
     8
 71
     5
 72
    15
 73
     9
 74
     0
 42
0.000000001
 43
0.0000000001
 40
0.0
 40
0.0
 40
0.0
 40
0.0
 40
0.0
 40
0.0
 40
0.1728187053917316
 40
0.1728187053917316
 40
0.1728187053917316
 40
0.5037431444382275
 40
0.5037431444382275
 40
0.5037431444382275
 40
0.5037431444382275
 40
0.5037431444382275
 40
0.5037431444382275
 10
-58.50190177309654
 20
5.693386939465545
 30
0.0
 10
-58.50046459232036
 20
5.695770483605819
 30
0.0
 10
-58.49555764224304
 20
5.696873784948706
 30
0.0
 10
-58.48702152648154
 20
5.69658783526845
 30
0.0
 10
-58.45521317282459
 20
5.692229244582325
 30
0.0
 10
-58.40715740408874
 20
5.679519615080957
 30
0.0
 10
-58.37067965221669
 20
5.668315638283406
 30
0.0
 10
-58.33447254119586
 20
5.656059014623036
 30
0.0
 10
-58.29860315719106
 20
5.642885972708375
 30
0.0
  0
ARC
  5
2F42F
330
1F
100
AcDbEntity
  8
SKVIEW1
100
AcDbCircle
 10
-47.66866329434234
 20
-10.2463365
 30
0.0
 40
2.524333999999997
100
AcDbArc
 50
70.3351150000001
 51
90.97178400000007
  0
ARC
  5
2F430
330
1F
100
AcDbEntity
  8
SKVIEW1
100
AcDbCircle
 10
-47.21882929434236
 20
-9.9308565
 30
0.0
 40
2.1
100
AcDbArc
 50
74.49999999999999
 51
79.02924799999998
  0
LINE
  5
2F431
330
1F
100
AcDbEntity
  8
SKVIEW1
100
AcDbLine
 10
-46.65762829434235
 20
-7.9072325
 30
0.0
 11
-45.10083829434235
 21
-8.338969500000001
 31
0.0
  0
ARC
  5
2F432
330
1F
100
AcDbEntity
  8
SKVIEW1
100
AcDbCircle
 10
-57.23780729434235
 20
-6.327718500000001
 30
0.0
 40
2.524478000000003
100
AcDbArc
 50
10.33566699999998
 51
30.97062399999998
  0
ARC
  5
2F433
330
1F
100
AcDbEntity
  8
SKVIEW1
100
AcDbCircle
 10
-56.73953929434234
 20
-6.559496500000002
 30
0.0
 40
2.100000000000001
100
AcDbArc
 50
14.49999999999999
 51
19.02924799999998
  0
LINE
  5
2F434
330
1F
100
AcDbEntity
  8
SKVIEW1
100
AcDbLine
 10
-54.70642929434236
 20
-6.033698500000002
 30
0.0
 11
-54.30192929434236
 21
-7.597786500000002
 31
0.0
  0
ARC
  5
2F435
330
1F
100
AcDbEntity
  8
SKVIEW1
100
AcDbCircle
 10
-58.62854929434235
 20
3.918713499999998
 30
0.0
 40
2.524394000000004
100
AcDbArc
 50
310.3351790000001
 51
330.9702710000002
  0
ARC
  5
2F436
330
1F
100
AcDbEntity
  8
SKVIEW1
100
AcDbCircle
 10
-58.58021029434234
 20
3.371361499999999
 30
0.0
 40
2.1
100
AcDbArc
 50
314.5000000000001
 51
319.029248
  0
LINE
  5
2F437
330
1F
100
AcDbEntity
  8
SKVIEW1
100
AcDbLine
 10
-57.10830129434235
 20
1.873535499999999
 30
0.0
 11
-58.26059129434235
 21
0.7411834999999988
 31
0.0
  0
ARC
  5
2F438
330
1F
100
AcDbEntity
  8
SKVIEW1
100
AcDbCircle
 10
-50.45033729434235
 20
10.2463375
 30
0.0
 40
2.524332999999999
100
AcDbArc
 50
250.3351140000001
 51
270.970826
  0
ARC
  5
2F439
330
1F
100
AcDbEntity
  8
SKVIEW1
100
AcDbCircle
 10
-50.90017129434236
 20
9.930857499999998
 30
0.0
 40
2.1
100
AcDbArc
 50
254.5
 51
259.029248
  0
LINE
  5
2F43A
330
1F
100
AcDbEntity
  8
SKVIEW1
100
AcDbLine
 10
-51.46137229434235
 20
7.907233499999997
 30
0.0
 11
-53.01816229434235
 21
8.338970499999998
 31
0.0
  0
ARC
  5
2F43B
330
1F
100
AcDbEntity
  8
SKVIEW1
100
AcDbCircle
 10
-40.88119329434235
 20
6.327719499999998
 30
0.0
 40
2.524478000000002
100
AcDbArc
 50
190.3356669999999
 51
210.9705619999999
  0
ARC
  5
2F43C
330
1F
100
AcDbEntity
  8
SKVIEW1
100
AcDbCircle
 10
-41.37946129434236
 20
6.559497499999999
 30
0.0
 40
2.100000000000001
100
AcDbArc
 50
194.5
 51
199.0292479999999
  0
LINE
  5
2F43D
330
1F
100
AcDbEntity
  8
SKVIEW1
100
AcDbLine
 10
-43.41257129434235
 20
6.033699499999999
 30
0.0
 11
-43.81707129434235
 21
7.597787499999999
 31
0.0
  0
ARC
  5
2F43E
330
1F
100
AcDbEntity
  8
SKVIEW1
100
AcDbCircle
 10
-39.49045129434234
 20
-3.918712500000001
 30
0.0
 40
2.524393999999997
100
AcDbArc
 50
130.33518
 51
150.9711659999999
  0
ARC
  5
2F43F
330
1F
100
AcDbEntity
  8
SKVIEW1
100
AcDbCircle
 10
-39.53879029434236
 20
-3.371360500000001
 30
0.0
 40
2.1
100
AcDbArc
 50
134.5
 51
139.029248
  0
LINE
  5
2F440
330
1F
100
AcDbEntity
  8
SKVIEW1
100
AcDbLine
 10
-41.01069929434235
 20
-1.8735345
 30
0.0
 11
-39.85840929434234
 21
-0.7411825000000012
 31
0.0
  0
LINE
  5
2F441
330
1F
100
AcDbEntity
  8
1
100
AcDbLine
 10
8.0
 20
-11.112396
 30
0.0
 11
8.0
 21
-10.0237
 31
0.0
  0
LINE
  5
2F442
330
1F
100
AcDbEntity
  8
1
100
AcDbLine
 10
8.0
 20
-11.27097
 30
0.0
 11
8.0
 21
-11.112396
 31
0.0
  0
ARC
  5
2F443
330
1F
100
AcDbEntity
  8
1
100
AcDbCircle
 10
7.600069000000004
 20
-11.725015
 30
0.0
 40
0.3999090000000001
100
AcDbArc
 50
269.9901369999998
 51
0.0302259999998231
  0
ARC
  5
2F444
330
1F
100
AcDbEntity
  8
1
100
AcDbCircle
 10
7.976626999999991
 20
740.7296109999999
 30
0.0
 40
752.8546129999999
100
AcDbArc
 50
269.423373
 51
269.971337
  0
LINE
  5
2F445
330
1F
100
AcDbEntity
  8
1
100
AcDbLine
 10
0.0
 20
-11.678005
 30
0.0
 11
0.4000000000000057
 21
-12.086877
 31
0.0
  0
LINE
  5
2F446
330
1F
100
AcDbEntity
  8
1
100
AcDbLine
 10
0.0
 20
-10.0237
 30
0.0
 11
0.1500000000000057
 21
-10.0237
 31
0.0
  0
LINE
  5
2F447
330
1F
100
AcDbEntity
  8
1
100
AcDbLine
 10
0.0
 20
-11.112396
 30
0.0
 11
0.0
 21
-10.0237
 31
0.0
  0
LINE
  5
2F448
330
1F
100
AcDbEntity
  8
1
100
AcDbLine
 10
8.0
 20
-11.112396
 30
0.0
 11
0.0
 21
-11.112396
 31
0.0
  0
LINE
  5
2F449
330
1F
100
AcDbEntity
  8
1
100
AcDbLine
 10
8.0
 20
-10.0237
 30
0.0
 11
0.1500000000000057
 21
-10.0237
 31
0.0
  0
SPLINE
  5
2F44A
330
1F
100
AcDbEntity
  8
1
100
AcDbSpline
210
0.0
220
0.0
230
1.0
 70
     8
 71
     5
 72
    18
 73
    12
 74
     0
 42
0.000000001
 43
0.0000000001
 40
0.0
 40
0.0
 40
0.0
 40
0.0
 40
0.0
 40
0.0
 40
0.4237177368577254
 40
0.4237177368577254
 40
0.4237177368577254
 40
0.8417386618831434
 40
0.8417386618831434
 40
0.8417386618831434
 40
1.354682557483653
 40
1.354682557483653
 40
1.354682557483653
 40
1.354682557483653
 40
1.354682557483653
 40
1.354682557483653
 10
7.599999999999994
 20
-11.77083841653168
 30
0.0
 10
7.64892670988705
 20
-11.77083841653168
 30
0.0
 10
7.697852878405853
 20
-11.76256551135767
 30
0.0
 10
7.744823425237499
 20
-11.74604371312488
 30
0.0
 10
7.830592271625135
 20
-11.69830482974991
 30
0.0
 10
7.89607177918711
 20
-11.62862461318747
 30
0.0
 10
7.922527444696172
 20
-11.59059504923211
 30
0.0
 10
7.969344474015557
 20
-11.50091470515613
 30
0.0
 10
7.991508212672429
 20
-11.40896625309009
 30
0.0
 10
7.997759073653327
 20
-11.35924242146779
 30
0.0
 10
8.0
 20
-11.31334983073861
 30
0.0
 10
8.0
 20
-11.27096976442379
 30
0.0
  0
LINE
  5
2F44B
330
1F
100
AcDbEntity
  8
1
100
AcDbLine
 10
0.0
 20
-11.27097
 30
0.0
 11
0.0
 21
-11.112396
 31
0.0
  0
SPLINE
  5
2F44C
330
1F
100
AcDbEntity
  8
1
100
AcDbSpline
210
0.0
220
0.0
230
1.0
 70
     8
 71
     5
 72
    12
 73
     6
 74
     0
 42
0.000000001
 43
0.0000000001
 40
0.0
 40
0.0
 40
0.0
 40
0.0
 40
0.0
 40
0.0
 40
1.212603311661956
 40
1.212603311661956
 40
1.212603311661956
 40
1.212603311661956
 40
1.212603311661956
 40
1.212603311661956
 10
0.0
 20
-11.2709697644238
 30
0.0
 10
0.0573903101760322
 20
-11.36181436143133
 30
0.0
 10
0.1337772722986017
 20
-11.46285847005259
 30
0.0
 10
0.2180818228926995
 20
-11.56545258829908
 30
0.0
 10
0.3073152206245027
 20
-11.66833969170438
 30
0.0
 10
0.4000000000000057
 20
-11.77083841653168
 30
0.0
  0
LINE
  5
2F44D
330
1F
100
AcDbEntity
  8
1
100
AcDbLine
 10
0.4000000000000057
 20
-11.770838
 30
0.0
 11
7.599999999999994
 21
-11.770838
 31
0.0
  0
LINE
  5
2F44E
330
1F
100
AcDbEntity
  8
1
100
AcDbLine
 10
7.599999999999994
 20
-11.770838
 30
0.0
 11
7.599999999999994
 21
-12.124907
 31
0.0
  0
LINE
  5
2F44F
330
1F
100
AcDbEntity
  8
1
100
AcDbLine
 10
0.4000000000000057
 20
-11.770838
 30
0.0
 11
0.4000000000000057
 21
-12.086877
 31
0.0
  0
LINE
  5
2F450
330
1F
100
AcDbEntity
  8
1
100
AcDbLine
 10
0.0
 20
-11.27097
 30
0.0
 11
0.0
 21
-11.678005
 31
0.0
  0
LINE
  5
2F451
330
1F
100
AcDbEntity
  8
1
100
AcDbLine
 10
8.0
 20
-2.52992
 30
0.0
 11
8.0
 21
-1.033876999999999
 31
0.0
  0
LINE
  5
2F452
330
1F
100
AcDbEntity
  8
1
100
AcDbLine
 10
8.0
 20
-2.837155
 30
0.0
 11
8.0
 21
-2.52992
 31
0.0
  0
LINE
  5
2F453
330
1F
100
AcDbEntity
  8
1
100
AcDbLine
 10
8.0
 20
-5.349986
 30
0.0
 11
8.0
 21
-2.837155
 31
0.0
  0
LINE
  5
2F454
330
1F
100
AcDbEntity
  8
1
100
AcDbLine
 10
8.0
 20
-5.803641
 30
0.0
 11
8.0
 21
-5.349986
 31
0.0
  0
SPLINE
  5
2F455
330
1F
100
AcDbEntity
  8
1
100
AcDbSpline
210
0.0
220
0.0
230
1.0
 70
     8
 71
     5
 72
    18
 73
    12
 74
     0
 42
0.000000001
 43
0.0000000001
 40
0.0
 40
0.0
 40
0.0
 40
0.0
 40
0.0
 40
0.0
 40
0.5373573844050137
 40
0.5373573844050137
 40
0.5373573844050137
 40
0.9409863918014298
 40
0.9409863918014298
 40
0.9409863918014298
 40
1.031541346552875
 40
1.031541346552875
 40
1.031541346552875
 40
1.031541346552875
 40
1.031541346552875
 40
1.031541346552875
 10
7.599999999999994
 20
-6.021278120320335
 30
0.0
 10
7.661467473830781
 20
-6.028052428793617
 30
0.0
 10
7.723381030054597
 20
-6.027190456218285
 30
0.0
 10
7.783596874838551
 20
-6.018170046943589
 30
0.0
 10
7.879895934886107
 20
-5.987103360171081
 30
0.0
 10
7.949573700130102
 20
-5.931810122918271
 30
0.0
 10
7.973001682794829
 20
-5.904000386638128
 30
0.0
 10
7.991996928751846
 20
-5.866242355275184
 30
0.0
 10
7.998761601630973
 20
-5.826066059188137
 30
0.0
 10
7.99958927669904
 20
-5.818615156091802
 30
0.0
 10
8.0
 20
-5.811143576830965
 30
0.0
 10
8.0
 20
-5.803640756162085
 30
0.0
  0
ARC
  5
2F456
330
1F
100
AcDbEntity
  8
1
100
AcDbCircle
 10
183.740659
 20
1591.891616
 30
0.0
 40
1607.591728
100
AcDbArc
 50
263.552543
 51
263.709585
  0
LINE
  5
2F457
330
1F
100
AcDbEntity
  8
1
100
AcDbLine
 10
0.4000000000000057
 20
-5.211412999999999
 30
0.0
 11
3.220935999999995
 21
-5.532502
 31
0.0
  0
LINE
  5
2F458
330
1F
100
AcDbEntity
  8
1
100
AcDbLine
 10
0.0
 20
-4.930784
 30
0.0
 11
0.4000000000000057
 21
-5.211412999999999
 31
0.0
  0
LINE
  5
2F459
330
1F
100
AcDbEntity
  8
1
100
AcDbLine
 10
0.0
 20
-1.033876999999999
 30
0.0
 11
0.1500000000000057
 21
-1.033876999999999
 31
0.0
  0
LINE
  5
2F45A
330
1F
100
AcDbEntity
  8
1
100
AcDbLine
 10
0.0
 20
-2.52992
 30
0.0
 11
0.0
 21
-1.033876999999999
 31
0.0
  0
LINE
  5
2F45B
330
1F
100
AcDbEntity
  8
1
100
AcDbLine
 10
8.0
 20
-2.52992
 30
0.0
 11
0.0
 21
-2.52992
 31
0.0
  0
LINE
  5
2F45C
330
1F
100
AcDbEntity
  8
1
100
AcDbLine
 10
8.0
 20
-1.033876999999999
 30
0.0
 11
0.1500000000000057
 21
-1.033876999999999
 31
0.0
  0
SPLINE
  5
2F45D
330
1F
100
AcDbEntity
  8
1
100
AcDbSpline
210
0.0
220
0.0
230
1.0
 70
     8
 71
     5
 72
    18
 73
    12
 74
     0
 42
0.000000001
 43
0.0000000001
 40
0.0
 40
0.0
 40
0.0
 40
0.0
 40
0.0
 40
0.0
 40
0.4207259549017384
 40
0.4207259549017384
 40
0.4207259549017384
 40
0.8316439949260894
 40
0.8316439949260894
 40
0.8316439949260894
 40
1.37760784532829
 40
1.37760784532829
 40
1.37760784532829
 40
1.37760784532829
 40
1.37760784532829
 40
1.37760784532829
 10
7.599999999999994
 20
-3.366046076130303
 30
0.0
 10
7.648581248663517
 20
-3.366046076130303
 30
0.0
 10
7.697162061690164
 20
-3.360008885228366
 30
0.0
 10
7.744138264335802
 20
-3.348020779555973
 30
0.0
 10
7.830427543561128
 20
-3.311161834911477
 30
0.0
 10
7.896646870610057
 20
-3.251056518195868
 30
0.0
 10
7.923139557804972
 20
-3.216331933137333
 30
0.0
 10
7.971236258434259
 20
-3.126303514588353
 30
0.0
 10
7.992287590072364
 20
-3.022547243928151
 30
0.0
 10
7.997938935546969
 20
-2.961444790865198
 30
0.0
 10
8.0
 20
-2.899566475915258
 30
0.0
 10
8.0
 20
-2.837155170208051
 30
0.0
  0
LINE
  5
2F45E
330
1F
100
AcDbEntity
  8
1
100
AcDbLine
 10
0.0
 20
-2.837155
 30
0.0
 11
0.0
 21
-2.52992
 31
0.0
  0
ARC
  5
2F45F
330
1F
100
AcDbEntity
  8
1
100
AcDbCircle
 10
1.258723000000002
 20
-2.298337
 30
0.0
 40
1.369740999999995
100
AcDbArc
 50
203.1741890000001
 51
231.19143
  0
LINE
  5
2F460
330
1F
100
AcDbEntity
  8
1
100
AcDbLine
 10
0.4000000000000057
 20
-3.366045999999999
 30
0.0
 11
7.599999999999994
 21
-3.366045999999999
 31
0.0
  0
LINE
  5
2F461
330
1F
100
AcDbEntity
  8
1
100
AcDbLine
 10
7.599999999999994
 20
-5.532502
 30
0.0
 11
7.599999999999994
 21
-3.366045999999999
 31
0.0
  0
LINE
  5
2F462
330
1F
100
AcDbEntity
  8
1
100
AcDbLine
 10
7.599999999999994
 20
-6.021277999999999
 30
0.0
 11
7.599999999999994
 21
-5.532502
 31
0.0
  0
LINE
  5
2F463
330
1F
100
AcDbEntity
  8
1
100
AcDbLine
 10
0.4000000000000057
 20
-5.211412999999999
 30
0.0
 11
0.4000000000000057
 21
-3.366045999999999
 31
0.0
  0
LINE
  5
2F464
330
1F
100
AcDbEntity
  8
1
100
AcDbLine
 10
0.0
 20
-4.930784
 30
0.0
 11
0.0
 21
-2.837155
 31
0.0
  0
LINE
  5
2F465
330
1F
100
AcDbEntity
  8
1
100
AcDbLine
 10
8.0
 20
5.921162999999999
 30
0.0
 11
8.0
 21
5.678547
 31
0.0
  0
LINE
  5
2F466
330
1F
100
AcDbEntity
  8
1
100
AcDbLine
 10
8.0
 20
8.582477
 30
0.0
 11
8.0
 21
9.005916
 31
0.0
  0
LINE
  5
2F467
330
1F
100
AcDbEntity
  8
1
100
AcDbLine
 10
8.0
 20
8.433814999999999
 30
0.0
 11
8.0
 21
8.582477
 31
0.0
  0
LINE
  5
2F468
330
1F
100
AcDbEntity
  8
1
100
AcDbLine
 10
8.0
 20
5.921162999999999
 30
0.0
 11
8.0
 21
8.433814999999999
 31
0.0
  0
LINE
  5
2F469
330
1F
100
AcDbEntity
  8
1
100
AcDbLine
 10
8.0
 20
5.678547
 30
0.0
 11
7.849999999999994
 21
5.693386
 31
0.0
  0
SPLINE
  5
2F46A
330
1F
100
AcDbEntity
  8
1
100
AcDbSpline
210
0.0
220
0.0
230
1.0
 70
     8
 71
     5
 72
    15
 73
     9
 74
     0
 42
0.000000001
 43
0.0000000001
 40
0.0
 40
0.0
 40
0.0
 40
0.0
 40
0.0
 40
0.0
 40
0.7355871503807439
 40
0.7355871503807439
 40
0.7355871503807439
 40
1.009006952868644
 40
1.009006952868644
 40
1.009006952868644
 40
1.009006952868644
 40
1.009006952868644
 40
1.009006952868644
 10
7.599999999999994
 20
6.103628661292505
 30
0.0
 10
7.684144174824581
 20
6.094397056279735
 30
0.0
 10
7.768327055156732
 20
6.077410458091306
 30
0.0
 10
7.849804848122658
 20
6.052720779488274
 30
0.0
 10
7.940940450128052
 20
6.009694803342504
 30
0.0
 10
7.986972054750125
 20
5.960921377176497
 30
0.0
 10
7.995728086888292
 20
5.94725096769272
 30
0.0
 10
8.0
 20
5.933977584907267
 30
0.0
 10
8.0
 20
5.92116291727098
 30
0.0
  0
ARC
  5
2F46B
330
1F
100
AcDbEntity
  8
1
100
AcDbCircle
 10
-148.269315
 20
-1413.856996
 30
0.0
 40
1428.489885
100
AcDbArc
 50
83.735713
 51
84.02615500000001
  0
LINE
  5
2F46C
330
1F
100
AcDbEntity
  8
1
100
AcDbLine
 10
0.0
 20
6.747221
 30
0.0
 11
0.4000000000000057
 21
6.875464999999999
 31
0.0
  0
LINE
  5
2F46D
330
1F
100
AcDbEntity
  8
1
100
AcDbLine
 10
0.0
 20
6.747221
 30
0.0
 11
0.0
 21
6.449498999999999
 31
0.0
  0
LINE
  5
2F46E
330
1F
100
AcDbEntity
  8
1
100
AcDbLine
 10
0.0
 20
6.449498999999999
 30
0.0
 11
0.1500000000000057
 21
6.435444
 31
0.0
  0
ARC
  5
2F46F
330
1F
100
AcDbEntity
  8
1
100
AcDbCircle
 10
-142.15303
 20
-1510.408499
 30
0.0
 40
1523.504436
100
AcDbArc
 50
84.34954899999999
 51
84.640471
  0
LINE
  5
2F470
330
1F
100
AcDbEntity
  8
1
100
AcDbLine
 10
0.0
 20
8.582477
 30
0.0
 11
0.0
 21
9.005916
 31
0.0
  0
LINE
  5
2F471
330
1F
100
AcDbEntity
  8
1
100
AcDbLine
 10
8.0
 20
8.582477
 30
0.0
 11
0.0
 21
8.582477
 31
0.0
  0
SPLINE
  5
2F472
330
1F
100
AcDbEntity
  8
1
100
AcDbSpline
210
0.0
220
0.0
230
1.0
 70
     8
 71
     5
 72
    15
 73
     9
 74
     0
 42
0.000000001
 43
0.0000000001
 40
0.0
 40
0.0
 40
0.0
 40
0.0
 40
0.0
 40
0.0
 40
0.6060668853844048
 40
0.6060668853844048
 40
0.6060668853844048
 40
0.736988858825465
 40
0.736988858825465
 40
0.736988858825465
 40
0.736988858825465
 40
0.736988858825465
 40
0.736988858825465
 10
7.599999999999994
 20
8.404792340401378
 30
0.0
 10
7.669982575884717
 20
8.404792340401378
 30
0.0
 10
7.739964464063405
 20
8.400394545319153
 30
0.0
 10
7.806703309091175
 20
8.391295197660063
 30
0.0
 10
7.875852420300673
 20
8.37916088492591
 30
0.0
 10
7.925044631294284
 20
8.373945994230663
 30
0.0
 10
7.933135454575363
 20
8.373286341535164
 30
0.0
 10
7.940553352404976
 20
8.372940245811614
 30
0.0
 10
7.947319387790884
 20
8.372939980906293
 30
0.0
  0
SPLINE
  5
2F473
330
1F
100
AcDbEntity
  8
1
100
AcDbSpline
210
0.0
220
0.0
230
1.0
 70
     8
 71
     5
 72
    15
 73
     9
 74
     0
 42
0.000000001
 43
0.0000000001
 40
0.0
 40
0.0
 40
0.0
 40
0.0
 40
0.0
 40
0.0
 40
0.4605295049158075
 40
0.4605295049158075
 40
0.4605295049158075
 40
0.5115596606647922
 40
0.5115596606647922
 40
0.5115596606647922
 40
0.5115596606647922
 40
0.5115596606647922
 40
0.5115596606647922
 10
7.947319387790884
 20
8.372939980906293
 30
0.0
 10
7.971119509684996
 20
8.372939049078624
 30
0.0
 10
7.986854276602017
 20
8.377218091783657
 30
0.0
 10
7.994985024260272
 20
8.387330326037597
 30
0.0
 10
7.999090476731467
 20
8.404236169689639
 30
0.0
 10
7.999921887625859
 20
8.426748939590034
 30
0.0
 10
7.999974746599717
 20
8.42905000276035
 30
0.0
 10
8.0
 20
8.431405185343498
 30
0.0
 10
8.0
 20
8.433814594215743
 30
0.0
  0
LINE
  5
2F474
330
1F
100
AcDbEntity
  8
1
100
AcDbLine
 10
0.0
 20
8.433814999999999
 30
0.0
 11
0.0
 21
8.582477
 31
0.0
  0
ARC
  5
2F475
330
1F
100
AcDbEntity
  8
1
100
AcDbCircle
 10
0.1803840000000037
 20
8.674493
 30
0.0
 40
0.3013879999999974
100
AcDbArc
 50
233.1490400000007
 51
273.4214620000008
  0
ARC
  5
2F476
330
1F
100
AcDbEntity
  8
1
100
AcDbCircle
 10
0.1832679999999982
 20
9.113805000000001
 30
0.0
 40
0.7412059999999997
100
AcDbArc
 50
271.1711180000003
 51
286.9974180000003
  0
LINE
  5
2F477
330
1F
100
AcDbEntity
  8
1
100
AcDbLine
 10
0.4000000000000057
 20
8.404792
 30
0.0
 11
7.599999999999994
 21
8.404792
 31
0.0
  0
LINE
  5
2F478
330
1F
100
AcDbEntity
  8
1
100
AcDbLine
 10
7.599999999999994
 20
6.103628999999999
 30
0.0
 11
7.599999999999994
 21
8.404792
 31
0.0
  0
LINE
  5
2F479
330
1F
100
AcDbEntity
  8
1
100
AcDbLine
 10
0.4000000000000057
 20
6.875464999999999
 30
0.0
 11
0.4000000000000057
 21
8.404792
 31
0.0
  0
LINE
  5
2F47A
330
1F
100
AcDbEntity
  8
1
100
AcDbLine
 10
0.0
 20
6.747221
 30
0.0
 11
0.0
 21
8.433814999999999
 31
0.0
  0
LINE
  5
2F47B
330
1F
100
AcDbEntity
  8
1
100
AcDbLine
 10
0.0
 20
9.005916
 30
0.0
 11
8.0
 21
9.005916
 31
0.0
  0
LINE
  5
2F47C
330
1F
100
AcDbEntity
  8
1
100
AcDbLine
 10
8.0
 20
11.724804
 30
0.0
 11
8.0
 21
11.024368
 31
0.0
  0
LINE
  5
2F47D
330
1F
100
AcDbEntity
  8
1
100
AcDbLine
 10
8.0
 20
10.0237
 30
0.0
 11
8.0
 21
11.024368
 31
0.0
  0
LINE
  5
2F47E
330
1F
100
AcDbEntity
  8
1
100
AcDbLine
 10
8.0
 20
11.024368
 30
0.0
 11
7.849999999999994
 21
11.024053
 31
0.0
  0
ARC
  5
2F47F
330
1F
100
AcDbEntity
  8
1
100
AcDbCircle
 10
7.600069000000004
 20
11.725015
 30
0.0
 40
0.3999089999999961
100
AcDbArc
 50
359.969774
 51
90.00986299999999
  0
ARC
  5
2F480
330
1F
100
AcDbEntity
  8
1
100
AcDbCircle
 10
7.976626999999991
 20
-740.7296109999999
 30
0.0
 40
752.8546129999999
100
AcDbArc
 50
90.02866299999999
 51
90.57662699999999
  0
LINE
  5
2F481
330
1F
100
AcDbEntity
  8
1
100
AcDbLine
 10
0.0
 20
11.678005
 30
0.0
 11
0.4000000000000057
 21
12.086877
 31
0.0
  0
LINE
  5
2F482
330
1F
100
AcDbEntity
  8
1
100
AcDbLine
 10
0.0
 20
11.678005
 30
0.0
 11
0.0
 21
10.96963
 31
0.0
  0
LINE
  5
2F483
330
1F
100
AcDbEntity
  8
1
100
AcDbLine
 10
0.0
 20
10.96963
 30
0.0
 11
0.1500000000000057
 21
10.971366
 31
0.0
  0
ARC
  5
2F484
330
1F
100
AcDbEntity
  8
1
100
AcDbCircle
 10
9.67031399999999
 20
-817.6451530000001
 30
0.0
 40
828.671207
100
AcDbArc
 50
90.12586
 51
90.65826599999999
  0
LINE
  5
2F485
330
1F
100
AcDbEntity
  8
1
100
AcDbLine
 10
0.1500000000000057
 20
10.0237
 30
0.0
 11
0.0
 21
10.0237
 31
0.0
  0
LINE
  5
2F486
330
1F
100
AcDbEntity
  8
1
100
AcDbLine
 10
8.0
 20
10.0237
 30
0.0
 11
7.650000000000005
 21
10.0237
 31
0.0
  0
LINE
  5
2F487
330
1F
100
AcDbEntity
  8
1
100
AcDbLine
 10
0.3499970000000019
 20
10.0237
 30
0.0
 11
0.1500000000000057
 21
10.0237
 31
0.0
  0
LINE
  5
2F488
330
1F
100
AcDbEntity
  8
1
100
AcDbLine
 10
0.0
 20
10.0237
 30
0.0
 11
0.0
 21
10.96963
 31
0.0
  0
LINE
  5
2F489
330
1F
100
AcDbEntity
  8
1
100
AcDbLine
 10
8.0
 20
5.678516
 30
0.0
 11
8.0
 21
5.345820999999999
 31
0.0
  0
LINE
  5
2F48A
330
1F
100
AcDbEntity
  8
1
100
AcDbLine
 10
8.0
 20
5.03106
 30
0.0
 11
8.0
 21
5.345820999999999
 31
0.0
  0
LINE
  5
2F48B
330
1F
100
AcDbEntity
  8
1
100
AcDbLine
 10
8.0
 20
1.033876999999999
 30
0.0
 11
8.0
 21
5.03106
 31
0.0
  0
LINE
  5
2F48C
330
1F
100
AcDbEntity
  8
1
100
AcDbLine
 10
8.0
 20
5.345820999999999
 30
0.0
 11
7.849999999999994
 21
5.330666
 31
0.0
  0
LINE
  5
2F48D
330
1F
100
AcDbEntity
  8
1
100
AcDbLine
 10
7.650000000000005
 20
5.310439999999999
 30
0.0
 11
7.849999999999994
 21
5.330666
 31
0.0
  0
LINE
  5
2F48E
330
1F
100
AcDbEntity
  8
1
100
AcDbLine
 10
8.0
 20
1.033876999999999
 30
0.0
 11
7.649985999999997
 21
1.033876999999999
 31
0.0
  0
LINE
  5
2F48F
330
1F
100
AcDbEntity
  8
1
100
AcDbLine
 10
8.0
 20
-8.989822999999999
 30
0.0
 11
8.0
 21
-5.678547
 31
0.0
  0
LINE
  5
2F490
330
1F
100
AcDbEntity
  8
1
100
AcDbLine
 10
8.0
 20
-9.005916
 30
0.0
 11
8.0
 21
-8.989822999999999
 31
0.0
  0
LINE
  5
2F491
330
1F
100
AcDbEntity
  8
1
100
AcDbLine
 10
0.0
 20
-8.989822999999999
 30
0.0
 11
0.1500000000000057
 21
-8.989822999999999
 31
0.0
  0
LINE
  5
2F492
330
1F
100
AcDbEntity
  8
1
100
AcDbLine
 10
0.0
 20
-9.005916
 30
0.0
 11
0.0
 21
-8.989822999999999
 31
0.0
  0
LINE
  5
2F493
330
1F
100
AcDbEntity
  8
1
100
AcDbLine
 10
8.0
 20
-8.989822999999999
 30
0.0
 11
7.849999999999994
 21
-8.989822999999999
 31
0.0
  0
LINE
  5
2F494
330
1F
100
AcDbEntity
  8
1
100
AcDbLine
 10
0.0
 20
-8.989822999999999
 30
0.0
 11
0.0
 21
-6.567541999999999
 31
0.0
  0
LINE
  5
2F495
330
1F
100
AcDbEntity
  8
1
100
AcDbLine
 10
0.0
 20
-9.005916
 30
0.0
 11
0.3499920000000003
 21
-9.005916
 31
0.0
  0
LINE
  5
2F496
330
1F
100
AcDbEntity
  8
1
100
AcDbLine
 10
7.649991999999997
 20
-9.005916
 30
0.0
 11
8.0
 21
-9.005916
 31
0.0
  0
LINE
  5
2F497
330
1F
100
AcDbEntity
  8
1
100
AcDbLine
 10
8.0
 20
-11.112396
 30
0.0
 11
8.0
 21
-10.0237
 31
0.0
  0
LINE
  5
2F498
330
1F
100
AcDbEntity
  8
1
100
AcDbLine
 10
8.0
 20
-11.27097
 30
0.0
 11
8.0
 21
-11.112396
 31
0.0
  0
LINE
  5
2F499
330
1F
100
AcDbEntity
  8
1
100
AcDbLine
 10
8.0
 20
-11.724804
 30
0.0
 11
8.0
 21
-11.27097
 31
0.0
  0
ARC
  5
2F49A
330
1F
100
AcDbEntity
  8
1
100
AcDbCircle
 10
7.600069000000004
 20
-11.725014
 30
0.0
 40
0.3999090000000002
100
AcDbArc
 50
269.9901329999998
 51
0.0301699999997543
  0
ARC
  5
2F49B
330
1F
100
AcDbEntity
  8
1
100
AcDbCircle
 10
7.976626999999991
 20
740.7296109999999
 30
0.0
 40
752.8546129999999
100
AcDbArc
 50
269.423373
 51
269.971337
  0
LINE
  5
2F49C
330
1F
100
AcDbEntity
  8
1
100
AcDbLine
 10
0.0
 20
-11.678005
 30
0.0
 11
0.4000000000000057
 21
-12.086877
 31
0.0
  0
LINE
  5
2F49D
330
1F
100
AcDbEntity
  8
1
100
AcDbLine
 10
0.0
 20
-10.0237
 30
0.0
 11
0.1500000000000057
 21
-10.0237
 31
0.0
  0
LINE
  5
2F49E
330
1F
100
AcDbEntity
  8
1
100
AcDbLine
 10
0.0
 20
-11.112396
 30
0.0
 11
0.0
 21
-10.0237
 31
0.0
  0
LINE
  5
2F49F
330
1F
100
AcDbEntity
  8
1
100
AcDbLine
 10
8.0
 20
-11.112396
 30
0.0
 11
0.0
 21
-11.112396
 31
0.0
  0
LINE
  5
2F4A0
330
1F
100
AcDbEntity
  8
1
100
AcDbLine
 10
8.0
 20
-10.0237
 30
0.0
 11
0.1500000000000057
 21
-10.0237
 31
0.0
  0
SPLINE
  5
2F4A1
330
1F
100
AcDbEntity
  8
1
100
AcDbSpline
210
0.0
220
0.0
230
1.0
 70
     8
 71
     5
 72
    18
 73
    12
 74
     0
 42
0.000000001
 43
0.0000000001
 40
0.0
 40
0.0
 40
0.0
 40
0.0
 40
0.0
 40
0.0
 40
0.4237177368588714
 40
0.4237177368588714
 40
0.4237177368588714
 40
0.8417386618842911
 40
0.8417386618842911
 40
0.8417386618842911
 40
1.354682557489985
 40
1.354682557489985
 40
1.354682557489985
 40
1.354682557489985
 40
1.354682557489985
 40
1.354682557489985
 10
7.599999999999994
 20
-11.77083841653168
 30
0.0
 10
7.648926709887177
 20
-11.77083841653168
 30
0.0
 10
7.697852878406109
 20
-11.76256551135778
 30
0.0
 10
7.744823425237228
 20
-11.74604371312503
 30
0.0
 10
7.830592271625023
 20
-11.69830482975004
 30
0.0
 10
7.896071779187082
 20
-11.6286246131875
 30
0.0
 10
7.922527444696128
 20
-11.59059504923221
 30
0.0
 10
7.969344474015784
 20
-11.50091470515568
 30
0.0
 10
7.991508212672699
 20
-11.40896625308905
 30
0.0
 10
7.997759073653156
 20
-11.35924242146877
 30
0.0
 10
8.0
 20
-11.31334983073905
 30
0.0
 10
8.0
 20
-11.27096976442379
 30
0.0
  0
LINE
  5
2F4A2
330
1F
100
AcDbEntity
  8
1
100
AcDbLine
 10
0.0
 20
-11.27097
 30
0.0
 11
0.0
 21
-11.112396
 31
0.0
  0
SPLINE
  5
2F4A3
330
1F
100
AcDbEntity
  8
1
100
AcDbSpline
210
0.0
220
0.0
230
1.0
 70
     8
 71
     5
 72
    12
 73
     6
 74
     0
 42
0.000000001
 43
0.0000000001
 40
0.0
 40
0.0
 40
0.0
 40
0.0
 40
0.0
 40
0.0
 40
1.212603311725197
 40
1.212603311725197
 40
1.212603311725197
 40
1.212603311725197
 40
1.212603311725197
 40
1.212603311725197
 10
0.0
 20
-11.27096976442379
 30
0.0
 10
0.0573903101790307
 20
-11.36181436143606
 30
0.0
 10
0.1337772723064319
 20
-11.46285847006333
 30
0.0
 10
0.2180818228835193
 20
-11.56545258828822
 30
0.0
 10
0.307315220619671
 20
-11.66833969169904
 30
0.0
 10
0.3999999999999915
 20
-11.77083841653168
 30
0.0
  0
LINE
  5
2F4A4
330
1F
100
AcDbEntity
  8
1
100
AcDbLine
 10
0.4000000000000057
 20
-11.770838
 30
0.0
 11
7.599999999999994
 21
-11.770838
 31
0.0
  0
LINE
  5
2F4A5
330
1F
100
AcDbEntity
  8
1
100
AcDbLine
 10
7.599999999999994
 20
-12.124907
 30
0.0
 11
7.599999999999994
 21
-11.770838
 31
0.0
  0
LINE
  5
2F4A6
330
1F
100
AcDbEntity
  8
1
100
AcDbLine
 10
0.4000000000000057
 20
-12.086877
 30
0.0
 11
0.4000000000000057
 21
-11.770838
 31
0.0
  0
LINE
  5
2F4A7
330
1F
100
AcDbEntity
  8
1
100
AcDbLine
 10
0.0
 20
-11.678005
 30
0.0
 11
0.0
 21
-11.27097
 31
0.0
  0
LINE
  5
2F4A8
330
1F
100
AcDbEntity
  8
1
100
AcDbLine
 10
8.0
 20
-2.52992
 30
0.0
 11
8.0
 21
-1.033876999999999
 31
0.0
  0
LINE
  5
2F4A9
330
1F
100
AcDbEntity
  8
1
100
AcDbLine
 10
8.0
 20
-2.837155
 30
0.0
 11
8.0
 21
-2.52992
 31
0.0
  0
LINE
  5
2F4AA
330
1F
100
AcDbEntity
  8
1
100
AcDbLine
 10
8.0
 20
-5.349986
 30
0.0
 11
8.0
 21
-2.837155
 31
0.0
  0
LINE
  5
2F4AB
330
1F
100
AcDbEntity
  8
1
100
AcDbLine
 10
8.0
 20
-5.803641
 30
0.0
 11
8.0
 21
-5.349986
 31
0.0
  0
SPLINE
  5
2F4AC
330
1F
100
AcDbEntity
  8
1
100
AcDbSpline
210
0.0
220
0.0
230
1.0
 70
     8
 71
     5
 72
    18
 73
    12
 74
     0
 42
0.000000001
 43
0.0000000001
 40
0.0
 40
0.0
 40
0.0
 40
0.0
 40
0.0
 40
0.0
 40
0.5373573844050137
 40
0.5373573844050137
 40
0.5373573844050137
 40
0.9409863918014298
 40
0.9409863918014298
 40
0.9409863918014298
 40
1.031541346552875
 40
1.031541346552875
 40
1.031541346552875
 40
1.031541346552875
 40
1.031541346552875
 40
1.031541346552875
 10
7.599999999999994
 20
-6.021278120320335
 30
0.0
 10
7.661467473830781
 20
-6.028052428793617
 30
0.0
 10
7.723381030054597
 20
-6.027190456218285
 30
0.0
 10
7.783596874838551
 20
-6.018170046943589
 30
0.0
 10
7.879895934886107
 20
-5.987103360171081
 30
0.0
 10
7.949573700130102
 20
-5.931810122918271
 30
0.0
 10
7.973001682794829
 20
-5.904000386638128
 30
0.0
 10
7.991996928751846
 20
-5.866242355275184
 30
0.0
 10
7.998761601630973
 20
-5.826066059188137
 30
0.0
 10
7.99958927669904
 20
-5.818615156091802
 30
0.0
 10
8.0
 20
-5.811143576830965
 30
0.0
 10
8.0
 20
-5.803640756162085
 30
0.0
  0
ARC
  5
2F4AD
330
1F
100
AcDbEntity
  8
1
100
AcDbCircle
 10
183.740659
 20
1591.891616
 30
0.0
 40
1607.591728
100
AcDbArc
 50
263.552543
 51
263.709585
  0
LINE
  5
2F4AE
330
1F
100
AcDbEntity
  8
1
100
AcDbLine
 10
0.4000000000000057
 20
-5.211412999999999
 30
0.0
 11
3.220935999999995
 21
-5.532502
 31
0.0
  0
LINE
  5
2F4AF
330
1F
100
AcDbEntity
  8
1
100
AcDbLine
 10
0.0
 20
-4.930784
 30
0.0
 11
0.4000000000000057
 21
-5.211412999999999
 31
0.0
  0
LINE
  5
2F4B0
330
1F
100
AcDbEntity
  8
1
100
AcDbLine
 10
0.0
 20
-1.033876999999999
 30
0.0
 11
0.1500000000000057
 21
-1.033876999999999
 31
0.0
  0
LINE
  5
2F4B1
330
1F
100
AcDbEntity
  8
1
100
AcDbLine
 10
0.0
 20
-2.52992
 30
0.0
 11
0.0
 21
-1.033876999999999
 31
0.0
  0
LINE
  5
2F4B2
330
1F
100
AcDbEntity
  8
1
100
AcDbLine
 10
8.0
 20
-2.52992
 30
0.0
 11
0.0
 21
-2.52992
 31
0.0
  0
LINE
  5
2F4B3
330
1F
100
AcDbEntity
  8
1
100
AcDbLine
 10
8.0
 20
-1.033876999999999
 30
0.0
 11
0.1500000000000057
 21
-1.033876999999999
 31
0.0
  0
SPLINE
  5
2F4B4
330
1F
100
AcDbEntity
  8
1
100
AcDbSpline
210
0.0
220
0.0
230
1.0
 70
     8
 71
     5
 72
    18
 73
    12
 74
     0
 42
0.000000001
 43
0.0000000001
 40
0.0
 40
0.0
 40
0.0
 40
0.0
 40
0.0
 40
0.0
 40
0.4207259549017384
 40
0.4207259549017384
 40
0.4207259549017384
 40
0.8316439949260894
 40
0.8316439949260894
 40
0.8316439949260894
 40
1.37760784532829
 40
1.37760784532829
 40
1.37760784532829
 40
1.37760784532829
 40
1.37760784532829
 40
1.37760784532829
 10
7.599999999999994
 20
-3.366046076130303
 30
0.0
 10
7.648581248663517
 20
-3.366046076130303
 30
0.0
 10
7.697162061690164
 20
-3.360008885228366
 30
0.0
 10
7.744138264335802
 20
-3.348020779555973
 30
0.0
 10
7.830427543561128
 20
-3.311161834911477
 30
0.0
 10
7.896646870610057
 20
-3.251056518195868
 30
0.0
 10
7.923139557804972
 20
-3.216331933137333
 30
0.0
 10
7.971236258434259
 20
-3.126303514588353
 30
0.0
 10
7.992287590072364
 20
-3.022547243928151
 30
0.0
 10
7.997938935546969
 20
-2.961444790865198
 30
0.0
 10
8.0
 20
-2.899566475915258
 30
0.0
 10
8.0
 20
-2.837155170208051
 30
0.0
  0
LINE
  5
2F4B5
330
1F
100
AcDbEntity
  8
1
100
AcDbLine
 10
0.0
 20
-2.837155
 30
0.0
 11
0.0
 21
-2.52992
 31
0.0
  0
ARC
  5
2F4B6
330
1F
100
AcDbEntity
  8
1
100
AcDbCircle
 10
1.258723000000002
 20
-2.298337
 30
0.0
 40
1.369740999999995
100
AcDbArc
 50
203.1741890000001
 51
231.19143
  0
LINE
  5
2F4B7
330
1F
100
AcDbEntity
  8
1
100
AcDbLine
 10
0.4000000000000057
 20
-3.366045999999999
 30
0.0
 11
7.599999999999994
 21
-3.366045999999999
 31
0.0
  0
LINE
  5
2F4B8
330
1F
100
AcDbEntity
  8
1
100
AcDbLine
 10
7.599999999999994
 20
-5.532502
 30
0.0
 11
7.599999999999994
 21
-3.366045999999999
 31
0.0
  0
LINE
  5
2F4B9
330
1F
100
AcDbEntity
  8
1
100
AcDbLine
 10
7.599999999999994
 20
-6.021277999999999
 30
0.0
 11
7.599999999999994
 21
-5.532502
 31
0.0
  0
LINE
  5
2F4BA
330
1F
100
AcDbEntity
  8
1
100
AcDbLine
 10
0.4000000000000057
 20
-5.211412999999999
 30
0.0
 11
0.4000000000000057
 21
-3.366045999999999
 31
0.0
  0
LINE
  5
2F4BB
330
1F
100
AcDbEntity
  8
1
100
AcDbLine
 10
0.0
 20
-4.930784
 30
0.0
 11
0.0
 21
-2.837155
 31
0.0
  0
LINE
  5
2F4BC
330
1F
100
AcDbEntity
  8
1
100
AcDbLine
 10
8.0
 20
5.921162999999999
 30
0.0
 11
8.0
 21
5.678547
 31
0.0
  0
LINE
  5
2F4BD
330
1F
100
AcDbEntity
  8
1
100
AcDbLine
 10
8.0
 20
8.582477
 30
0.0
 11
8.0
 21
9.005916
 31
0.0
  0
LINE
  5
2F4BE
330
1F
100
AcDbEntity
  8
1
100
AcDbLine
 10
8.0
 20
8.433814999999999
 30
0.0
 11
8.0
 21
8.582477
 31
0.0
  0
LINE
  5
2F4BF
330
1F
100
AcDbEntity
  8
1
100
AcDbLine
 10
8.0
 20
5.921162999999999
 30
0.0
 11
8.0
 21
8.433814999999999
 31
0.0
  0
LINE
  5
2F4C0
330
1F
100
AcDbEntity
  8
1
100
AcDbLine
 10
8.0
 20
5.678547
 30
0.0
 11
7.849999999999994
 21
5.693386
 31
0.0
  0
SPLINE
  5
2F4C1
330
1F
100
AcDbEntity
  8
1
100
AcDbSpline
210
0.0
220
0.0
230
1.0
 70
     8
 71
     5
 72
    15
 73
     9
 74
     0
 42
0.000000001
 43
0.0000000001
 40
0.0
 40
0.0
 40
0.0
 40
0.0
 40
0.0
 40
0.0
 40
0.7355871503807439
 40
0.7355871503807439
 40
0.7355871503807439
 40
1.009006952868644
 40
1.009006952868644
 40
1.009006952868644
 40
1.009006952868644
 40
1.009006952868644
 40
1.009006952868644
 10
7.599999999999994
 20
6.103628661292505
 30
0.0
 10
7.684144174824581
 20
6.094397056279735
 30
0.0
 10
7.768327055156732
 20
6.077410458091306
 30
0.0
 10
7.849804848122658
 20
6.052720779488274
 30
0.0
 10
7.940940450128052
 20
6.009694803342504
 30
0.0
 10
7.986972054750125
 20
5.960921377176497
 30
0.0
 10
7.995728086888292
 20
5.94725096769272
 30
0.0
 10
8.0
 20
5.933977584907267
 30
0.0
 10
8.0
 20
5.92116291727098
 30
0.0
  0
ARC
  5
2F4C2
330
1F
100
AcDbEntity
  8
1
100
AcDbCircle
 10
-148.269315
 20
-1413.856996
 30
0.0
 40
1428.489885
100
AcDbArc
 50
83.735713
 51
84.02615500000001
  0
LINE
  5
2F4C3
330
1F
100
AcDbEntity
  8
1
100
AcDbLine
 10
0.0
 20
6.747221
 30
0.0
 11
0.4000000000000057
 21
6.875464999999999
 31
0.0
  0
LINE
  5
2F4C4
330
1F
100
AcDbEntity
  8
1
100
AcDbLine
 10
0.0
 20
6.747221
 30
0.0
 11
0.0
 21
6.449498999999999
 31
0.0
  0
LINE
  5
2F4C5
330
1F
100
AcDbEntity
  8
1
100
AcDbLine
 10
0.0
 20
6.449498999999999
 30
0.0
 11
0.1500000000000057
 21
6.435444
 31
0.0
  0
ARC
  5
2F4C6
330
1F
100
AcDbEntity
  8
1
100
AcDbCircle
 10
-142.15303
 20
-1510.408499
 30
0.0
 40
1523.504436
100
AcDbArc
 50
84.34954899999999
 51
84.640471
  0
LINE
  5
2F4C7
330
1F
100
AcDbEntity
  8
1
100
AcDbLine
 10
0.0
 20
8.582477
 30
0.0
 11
0.0
 21
9.005916
 31
0.0
  0
LINE
  5
2F4C8
330
1F
100
AcDbEntity
  8
1
100
AcDbLine
 10
8.0
 20
8.582477
 30
0.0
 11
0.0
 21
8.582477
 31
0.0
  0
SPLINE
  5
2F4C9
330
1F
100
AcDbEntity
  8
1
100
AcDbSpline
210
0.0
220
0.0
230
1.0
 70
     8
 71
     5
 72
    15
 73
     9
 74
     0
 42
0.000000001
 43
0.0000000001
 40
0.0
 40
0.0
 40
0.0
 40
0.0
 40
0.0
 40
0.0
 40
0.6060668853844048
 40
0.6060668853844048
 40
0.6060668853844048
 40
0.736988858825465
 40
0.736988858825465
 40
0.736988858825465
 40
0.736988858825465
 40
0.736988858825465
 40
0.736988858825465
 10
7.599999999999994
 20
8.404792340401378
 30
0.0
 10
7.669982575884717
 20
8.404792340401378
 30
0.0
 10
7.739964464063405
 20
8.400394545319153
 30
0.0
 10
7.806703309091175
 20
8.391295197660063
 30
0.0
 10
7.875852420300673
 20
8.37916088492591
 30
0.0
 10
7.925044631294284
 20
8.373945994230663
 30
0.0
 10
7.933135454575363
 20
8.373286341535164
 30
0.0
 10
7.940553352404976
 20
8.372940245811614
 30
0.0
 10
7.947319387790884
 20
8.372939980906293
 30
0.0
  0
SPLINE
  5
2F4CA
330
1F
100
AcDbEntity
  8
1
100
AcDbSpline
210
0.0
220
0.0
230
1.0
 70
     8
 71
     5
 72
    15
 73
     9
 74
     0
 42
0.000000001
 43
0.0000000001
 40
0.0
 40
0.0
 40
0.0
 40
0.0
 40
0.0
 40
0.0
 40
0.4605295049158075
 40
0.4605295049158075
 40
0.4605295049158075
 40
0.5115596606647922
 40
0.5115596606647922
 40
0.5115596606647922
 40
0.5115596606647922
 40
0.5115596606647922
 40
0.5115596606647922
 10
7.947319387790884
 20
8.372939980906293
 30
0.0
 10
7.971119509684996
 20
8.372939049078624
 30
0.0
 10
7.986854276602017
 20
8.377218091783657
 30
0.0
 10
7.994985024260272
 20
8.387330326037597
 30
0.0
 10
7.999090476731467
 20
8.404236169689639
 30
0.0
 10
7.999921887625859
 20
8.426748939590034
 30
0.0
 10
7.999974746599717
 20
8.42905000276035
 30
0.0
 10
8.0
 20
8.431405185343498
 30
0.0
 10
8.0
 20
8.433814594215743
 30
0.0
  0
LINE
  5
2F4CB
330
1F
100
AcDbEntity
  8
1
100
AcDbLine
 10
0.0
 20
8.433814999999999
 30
0.0
 11
0.0
 21
8.582477
 31
0.0
  0
ARC
  5
2F4CC
330
1F
100
AcDbEntity
  8
1
100
AcDbCircle
 10
0.1803840000000037
 20
8.674493
 30
0.0
 40
0.3013879999999974
100
AcDbArc
 50
233.1490400000007
 51
273.4214620000008
  0
ARC
  5
2F4CD
330
1F
100
AcDbEntity
  8
1
100
AcDbCircle
 10
0.1832679999999982
 20
9.113805000000001
 30
0.0
 40
0.7412059999999997
100
AcDbArc
 50
271.1711180000003
 51
286.9974180000003
  0
LINE
  5
2F4CE
330
1F
100
AcDbEntity
  8
1
100
AcDbLine
 10
0.4000000000000057
 20
8.404792
 30
0.0
 11
7.599999999999994
 21
8.404792
 31
0.0
  0
LINE
  5
2F4CF
330
1F
100
AcDbEntity
  8
1
100
AcDbLine
 10
7.599999999999994
 20
6.103628999999999
 30
0.0
 11
7.599999999999994
 21
8.404792
 31
0.0
  0
LINE
  5
2F4D0
330
1F
100
AcDbEntity
  8
1
100
AcDbLine
 10
0.4000000000000057
 20
6.875464999999999
 30
0.0
 11
0.4000000000000057
 21
8.404792
 31
0.0
  0
LINE
  5
2F4D1
330
1F
100
AcDbEntity
  8
1
100
AcDbLine
 10
0.0
 20
6.747221
 30
0.0
 11
0.0
 21
8.433814999999999
 31
0.0
  0
LINE
  5
2F4D2
330
1F
100
AcDbEntity
  8
1
100
AcDbLine
 10
0.0
 20
9.005916
 30
0.0
 11
8.0
 21
9.005916
 31
0.0
  0
LINE
  5
2F4D3
330
1F
100
AcDbEntity
  8
CUT
 62
     1
 48
0.240324
370
    35
100
AcDbLine
 10
8.0
 20
11.724804
 30
0.0
 11
8.0
 21
11.024368
 31
0.0
  0
LINE
  5
2F4D4
330
1F
100
AcDbEntity
  8
1
100
AcDbLine
 10
8.0
 20
10.0237
 30
0.0
 11
8.0
 21
11.024368
 31
0.0
  0
LINE
  5
2F4D5
330
1F
100
AcDbEntity
  8
1
100
AcDbLine
 10
8.0
 20
11.024368
 30
0.0
 11
7.849999999999994
 21
11.024053
 31
0.0
  0
ARC
  5
2F4D6
330
1F
100
AcDbEntity
  8
CUT
 62
     1
 48
0.240324
370
    35
100
AcDbCircle
 10
7.600069000000004
 20
11.725015
 30
0.0
 40
0.3999089999999961
100
AcDbArc
 50
359.969774
 51
90.00986299999999
  0
ARC
  5
2F4D7
330
1F
100
AcDbEntity
  8
CUT
 62
     1
 48
0.240324
370
    35
100
AcDbCircle
 10
7.976626999999991
 20
-740.7296109999999
 30
0.0
 40
752.8546129999999
100
AcDbArc
 50
90.02866299999999
 51
90.57662699999999
  0
LINE
  5
2F4D8
330
1F
100
AcDbEntity
  8
CUT
 62
     1
 48
0.240324
370
    35
100
AcDbLine
 10
0.0
 20
11.678005
 30
0.0
 11
0.4000000000000057
 21
12.086877
 31
0.0
  0
LINE
  5
2F4D9
330
1F
100
AcDbEntity
  8
CUT
 62
     1
 48
0.240324
370
    35
100
AcDbLine
 10
0.0
 20
11.678005
 30
0.0
 11
0.0
 21
10.96963
 31
0.0
  0
LINE
  5
2F4DA
330
1F
100
AcDbEntity
  8
1
100
AcDbLine
 10
0.0
 20
10.96963
 30
0.0
 11
0.1500000000000057
 21
10.971366
 31
0.0
  0
ARC
  5
2F4DB
330
1F
100
AcDbEntity
  8
1
100
AcDbCircle
 10
9.67031399999999
 20
-817.6451530000001
 30
0.0
 40
828.671207
100
AcDbArc
 50
90.12586
 51
90.65826599999999
  0
LINE
  5
2F4DC
330
1F
100
AcDbEntity
  8
1
100
AcDbLine
 10
0.1500000000000057
 20
10.0237
 30
0.0
 11
0.0
 21
10.0237
 31
0.0
  0
LINE
  5
2F4DD
330
1F
100
AcDbEntity
  8
1
100
AcDbLine
 10
8.0
 20
10.0237
 30
0.0
 11
7.650000000000005
 21
10.0237
 31
0.0
  0
LINE
  5
2F4DE
330
1F
100
AcDbEntity
  8
1
100
AcDbLine
 10
0.3499970000000019
 20
10.0237
 30
0.0
 11
0.1500000000000057
 21
10.0237
 31
0.0
  0
LINE
  5
2F4DF
330
1F
100
AcDbEntity
  8
1
100
AcDbLine
 10
0.0
 20
10.0237
 30
0.0
 11
0.0
 21
10.96963
 31
0.0
  0
SPLINE
  5
2F4E0
330
1F
100
AcDbEntity
  8
1
100
AcDbSpline
210
0.0
220
0.0
230
1.0
 70
     8
 71
     5
 72
    21
 73
    15
 74
     0
 42
0.000000001
 43
0.0000000001
 40
0.0
 40
0.0
 40
0.0
 40
0.0
 40
0.0
 40
0.0
 40
0.0651432638262302
 40
0.0651432638262302
 40
0.0651432638262302
 40
0.1954379537091575
 40
0.1954379537091575
 40
0.1954379537091575
 40
0.5159446847790523
 40
0.5159446847790523
 40
0.5159446847790523
 40
0.6417094742868624
 40
0.6417094742868624
 40
0.6417094742868624
 40
0.6417094742868624
 40
0.6417094742868624
 40
0.6417094742868624
 10
0.1499999999999915
 20
10.02370019026878
 30
0.0
 10
0.1575220961811823
 20
10.02370019026878
 30
0.0
 10
0.1650442542943438
 20
10.0236962107432
 30
0.0
 10
0.1725933104248298
 20
10.02224175839642
 30
0.0
 10
0.1947242317073545
 20
10.01796032504686
 30
0.0
 10
0.2158432173785343
 20
10.00965943755945
 30
0.0
 10
0.2293655669472656
 20
10.00245701308994
 30
0.0
 10
0.2720565223396108
 20
9.973815110494529
 30
0.0
 10
0.3044473148910356
 20
9.932718247819707
 30
0.0
 10
0.3219742867133419
 20
9.900347756886759
 30
0.0
 10
0.3395406879992748
 20
9.852870090074064
 30
0.0
 10
0.3476775484932801
 20
9.803277064200868
 30
0.0
 10
0.3492210772364785
 20
9.789138161726679
 30
0.0
 10
0.3499999999999943
 20
9.774967132320947
 30
0.0
 10
0.3499999999999943
 20
9.760775316842952
 30
0.0
  0
LINE
  5
2F4E1
330
1F
100
AcDbEntity
  8
1
100
AcDbLine
 10
0.1500000000000057
 20
10.971366
 30
0.0
 11
0.1500000000000057
 21
10.0237
 31
0.0
  0
ARC
  5
2F4E2
330
1F
100
AcDbEntity
  8
1
100
AcDbCircle
 10
0.1511110000000002
 20
10.772926
 30
0.0
 40
0.1986339999999964
100
AcDbArc
 50
359.363358
 51
90.32071599999996
  0
SPLINE
  5
2F4E3
330
1F
100
AcDbEntity
  8
1
100
AcDbSpline
210
0.0
220
0.0
230
1.0
 70
     8
 71
     5
 72
    18
 73
    12
 74
     0
 42
0.000000001
 43
0.0000000001
 40
0.0
 40
0.0
 40
0.0
 40
0.0
 40
0.0
 40
0.0
 40
0.1291970036561983
 40
0.1291970036561983
 40
0.1291970036561983
 40
0.4234541769433808
 40
0.4234541769433808
 40
0.4234541769433808
 40
0.5805115576997225
 40
0.5805115576997225
 40
0.5805115576997225
 40
0.5805115576997225
 40
0.5805115576997225
 40
0.5805115576997225
 10
0.1499999999999915
 20
-8.989823448238498
 30
0.0
 10
0.1649183849678764
 20
-8.989823448238498
 30
0.0
 10
0.1798370135460061
 20
-8.989821310230501
 30
0.0
 10
0.1945064127899201
 20
-8.989048175332158
 30
0.0
 10
0.241407282150135
 20
-8.986464466110989
 30
0.0
 10
0.2807555239581347
 20
-8.981084580546788
 30
0.0
 10
0.3034255425383492
 20
-8.975904786514634
 30
0.0
 10
0.3304325161737296
 20
-8.965750260487007
 30
0.0
 10
0.3448469291760716
 20
-8.9522287043998
 30
0.0
 10
0.3482765324414885
 20
-8.947100320988022
 30
0.0
 10
0.3499999999999943
 20
-8.941677048388319
 30
0.0
 10
0.3499999999999943
 20
-8.935980406329498
 30
0.0
  0
LINE
  5
2F4E4
330
1F
100
AcDbEntity
  8
1
100
AcDbLine
 10
0.1500000000000057
 20
-6.663791999999999
 30
0.0
 11
0.1500000000000057
 21
-8.989822999999999
 31
0.0
  0
SPLINE
  5
2F4E5
330
1F
100
AcDbEntity
  8
1
100
AcDbSpline
210
0.0
220
0.0
230
1.0
 70
     8
 71
     5
 72
    21
 73
    15
 74
     0
 42
0.000000001
 43
0.0000000001
 40
0.0
 40
0.0
 40
0.0
 40
0.0
 40
0.0
 40
0.0
 40
0.0651432638262303
 40
0.0651432638262303
 40
0.0651432638262303
 40
0.1954379537091594
 40
0.1954379537091594
 40
0.1954379537091594
 40
0.5159446847761852
 40
0.5159446847761852
 40
0.5159446847761852
 40
0.6417094742839977
 40
0.6417094742839977
 40
0.6417094742839977
 40
0.6417094742839977
 40
0.6417094742839977
 40
0.6417094742839977
 10
0.1500000000000057
 20
-10.02370019026878
 30
0.0
 10
0.1575220961811965
 20
-10.02370019026878
 30
0.0
 10
0.165044254294358
 20
-10.0236962107432
 30
0.0
 10
0.1725933104248298
 20
-10.02224175839642
 30
0.0
 10
0.1947242317073687
 20
-10.01796032504686
 30
0.0
 10
0.2158432173785485
 20
-10.00965943755945
 30
0.0
 10
0.2293655669472656
 20
-10.00245701308995
 30
0.0
 10
0.2720565223393407
 20
-9.973815110494706
 30
0.0
 10
0.3044473148906377
 20
-9.932718247820231
 30
0.0
 10
0.3219742867135693
 20
-9.900347756886144
 30
0.0
 10
0.3395406879993317
 20
-9.852870090073743
 30
0.0
 10
0.3476775484932801
 20
-9.803277064200859
 30
0.0
 10
0.3492210772364785
 20
-9.78913816172667
 30
0.0
 10
0.3499999999999943
 20
-9.77496713232094
 30
0.0
 10
0.3499999999999943
 20
-9.760775316842947
 30
0.0
  0
SPLINE
  5
2F4E6
330
1F
100
AcDbEntity
  8
1
100
AcDbSpline
210
0.0
220
0.0
230
1.0
 70
     8
 71
     5
 72
    18
 73
    12
 74
     0
 42
0.000000001
 43
0.0000000001
 40
0.0
 40
0.0
 40
0.0
 40
0.0
 40
0.0
 40
0.0
 40
0.0650986117523959
 40
0.0650986117523959
 40
0.0650986117523959
 40
0.3192265171655718
 40
0.3192265171655718
 40
0.3192265171655718
 40
0.6170922172084045
 40
0.6170922172084045
 40
0.6170922172084045
 40
0.6170922172084045
 40
0.6170922172084045
 40
0.6170922172084045
 10
0.1499999999999915
 20
-1.03387674203028
 30
0.0
 10
0.1575169402038199
 20
-1.03387674203028
 30
0.0
 10
0.1650339422552918
 20
-1.033873310768387
 30
0.0
 10
0.1725733121348867
 20
-1.032620327357596
 30
0.0
 10
0.2087733065000634
 20
-1.026586623241859
 30
0.0
 10
0.242488223513746
 20
-1.011278899441784
 30
0.0
 10
0.2660502418380162
 20
-0.9943633652222093
 30
0.0
 10
0.3082535850245733
 20
-0.9538985772962607
 30
0.0
 10
0.3349429948715965
 20
-0.9056489019942612
 30
0.0
 10
0.3448679081985233
 20
-0.8785042039822862
 30
0.0
 10
0.3500000000000085
 20
-0.8513930340922573
 30
0.0
 10
0.3500000000000085
 20
-0.8247949105134487
 30
0.0
  0
SPLINE
  5
2F4E7
330
1F
100
AcDbEntity
  8
1
100
AcDbSpline
210
0.0
220
0.0
230
1.0
 70
     8
 71
     5
 72
    15
 73
     9
 74
     0
 42
0.000000001
 43
0.0000000001
 40
0.0
 40
0.0
 40
0.0
 40
0.0
 40
0.0
 40
0.0
 40
0.3715449372438561
 40
0.3715449372438561
 40
0.3715449372438561
 40
0.5100315591153044
 40
0.5100315591153044
 40
0.5100315591153044
 40
0.5100315591153044
 40
0.5100315591153044
 40
0.5100315591153044
 10
0.1499999999999915
 20
6.435443681537353
 30
0.0
 10
0.192539231543293
 20
6.431455327479502
 30
0.0
 10
0.235096552621286
 20
6.422655888653627
 30
0.0
 10
0.2747057805299278
 20
6.409583618704616
 30
0.0
 10
0.3205565320412234
 20
6.384920105734562
 30
0.0
 10
0.3435281411639721
 20
6.355991449644973
 30
0.0
 10
0.3478770893025427
 20
6.347815222913992
 30
0.0
 10
0.3499999999999943
 20
6.339811075236442
 30
0.0
 10
0.3499999999999943
 20
6.332004921677597
 30
0.0
  0
LINE
  5
2F4E8
330
1F
100
AcDbEntity
  8
1
100
AcDbLine
 10
7.650000000000005
 20
10.518219
 30
0.0
 11
7.650000000000005
 21
9.005456999999999
 31
0.0
  0
LINE
  5
2F4E9
330
1F
100
AcDbEntity
  8
1
100
AcDbLine
 10
7.650000000000005
 20
10.822753
 30
0.0
 11
7.650000000000005
 21
10.518219
 31
0.0
  0
LINE
  5
2F4EA
330
1F
100
AcDbEntity
  8
1
100
AcDbLine
 10
7.650000000000005
 20
-9.747727000000001
 30
0.0
 11
7.650000000000005
 21
-9.760775
 31
0.0
  0
LINE
  5
2F4EB
330
1F
100
AcDbEntity
  8
1
100
AcDbLine
 10
7.650000000000005
 20
-9.747727000000001
 30
0.0
 11
7.650000000000005
 21
-7.597786999999999
 31
0.0
  0
LINE
  5
2F4EC
330
1F
100
AcDbEntity
  8
1
100
AcDbLine
 10
7.650000000000005
 20
-6.023991
 30
0.0
 11
7.650000000000005
 21
-7.597786999999999
 31
0.0
  0
LINE
  5
2F4ED
330
1F
100
AcDbEntity
  8
1
100
AcDbLine
 10
7.650000000000005
 20
-0.8153079999999999
 30
0.0
 11
7.650000000000005
 21
-0.8247950000000001
 31
0.0
  0
LINE
  5
2F4EE
330
1F
100
AcDbEntity
  8
1
100
AcDbLine
 10
7.650000000000005
 20
-0.8153079999999999
 30
0.0
 11
7.650000000000005
 21
0.7411830000000001
 31
0.0
  0
LINE
  5
2F4EF
330
1F
100
AcDbEntity
  8
1
100
AcDbLine
 10
7.650000000000005
 20
5.536321
 30
0.0
 11
7.650000000000005
 21
0.7411830000000001
 31
0.0
  0
LINE
  5
2F4F0
330
1F
100
AcDbEntity
  8
1
100
AcDbLine
 10
7.650000000000005
 20
5.642884999999999
 30
0.0
 11
7.650000000000005
 21
5.536321
 31
0.0
  0
SPLINE
  5
2F4F1
330
1F
100
AcDbEntity
  8
1
100
AcDbSpline
210
0.0
220
0.0
230
1.0
 70
     8
 71
     5
 72
    21
 73
    15
 74
     0
 42
0.000000001
 43
0.0000000001
 40
0.0
 40
0.0
 40
0.0
 40
0.0
 40
0.0
 40
0.0
 40
0.065143263826231
 40
0.065143263826231
 40
0.065143263826231
 40
0.1954379537091593
 40
0.1954379537091593
 40
0.1954379537091593
 40
0.515944684778543
 40
0.515944684778543
 40
0.515944684778543
 40
0.6417094742863538
 40
0.6417094742863538
 40
0.6417094742863538
 40
0.6417094742863538
 40
0.6417094742863538
 40
0.6417094742863538
 10
7.849999999999994
 20
10.02370019026878
 30
0.0
 10
7.842477903818802
 20
10.02370019026878
 30
0.0
 10
7.834955745705642
 20
10.0236962107432
 30
0.0
 10
7.82740668957517
 20
10.02224175839642
 30
0.0
 10
7.805275768292631
 20
10.01796032504686
 30
0.0
 10
7.784156782621451
 20
10.00965943755945
 30
0.0
 10
7.77063443305272
 20
10.00245701308994
 30
0.0
 10
7.727943477660432
 20
9.973815110494552
 30
0.0
 10
7.695552685109021
 20
9.932718247819806
 30
0.0
 10
7.678025713286615
 20
9.900347756886647
 30
0.0
 10
7.66045931200071
 20
9.852870090074011
 30
0.0
 10
7.652322451506719
 20
9.803277064200868
 30
0.0
 10
7.650778922763521
 20
9.789138161726675
 30
0.0
 10
7.650000000000005
 20
9.774967132320943
 30
0.0
 10
7.650000000000005
 20
9.760775316842952
 30
0.0
  0
ARC
  5
2F4F2
330
1F
100
AcDbEntity
  8
1
100
AcDbCircle
 10
7.851016999999998
 20
10.823174
 30
0.0
 40
0.2009540000000007
100
AcDbArc
 50
90.28997900000142
 51
180.1235100000014
  0
LINE
  5
2F4F3
330
1F
100
AcDbEntity
  8
1
100
AcDbLine
 10
7.849999999999994
 20
11.024053
 30
0.0
 11
7.849999999999994
 21
10.0237
 31
0.0
  0
SPLINE
  5
2F4F4
330
1F
100
AcDbEntity
  8
1
100
AcDbSpline
210
0.0
220
0.0
230
1.0
 70
     8
 71
     5
 72
    15
 73
     9
 74
     0
 42
0.000000001
 43
0.0000000001
 40
0.0
 40
0.0
 40
0.0
 40
0.0
 40
0.0
 40
0.0
 40
0.3281874352944024
 40
0.3281874352944024
 40
0.3281874352944024
 40
0.5281440811637386
 40
0.5281440811637386
 40
0.5281440811637386
 40
0.5281440811637386
 40
0.5281440811637386
 40
0.5281440811637386
 10
7.849999999999994
 20
5.330666333600071
 30
0.0
 10
7.812433657063281
 20
5.326869369811547
 30
0.0
 10
7.77518747309611
 20
5.317332230115289
 30
0.0
 10
7.740249535901142
 20
5.302420401707299
 30
0.0
 10
7.691855775093487
 20
5.270759618578634
 30
0.0
 10
7.662175330887677
 20
5.230076211153661
 30
0.0
 10
7.653989117157692
 20
5.213138733178138
 30
0.0
 10
7.650000000000005
 20
5.196355375406711
 30
0.0
 10
7.650000000000005
 20
5.17985505105034
 30
0.0
  0
LINE
  5
2F4F5
330
1F
100
AcDbEntity
  8
1
100
AcDbLine
 10
7.849999999999994
 20
5.330666
 30
0.0
 11
7.849999999999994
 21
1.033876999999999
 31
0.0
  0
SPLINE
  5
2F4F6
330
1F
100
AcDbEntity
  8
1
100
AcDbSpline
210
0.0
220
0.0
230
1.0
 70
     8
 71
     5
 72
    18
 73
    12
 74
     0
 42
0.000000001
 43
0.0000000001
 40
0.0
 40
0.0
 40
0.0
 40
0.0
 40
0.0
 40
0.0
 40
0.0650986117523948
 40
0.0650986117523948
 40
0.0650986117523948
 40
0.3192265171655651
 40
0.3192265171655651
 40
0.3192265171655651
 40
0.6170922172097015
 40
0.6170922172097015
 40
0.6170922172097015
 40
0.6170922172097015
 40
0.6170922172097015
 40
0.6170922172097015
 10
7.849999999999994
 20
1.03387674203028
 30
0.0
 10
7.842483059796179
 20
1.03387674203028
 30
0.0
 10
7.834966057744706
 20
1.033873310768387
 30
0.0
 10
7.827426687865111
 20
1.032620327357597
 30
0.0
 10
7.791226693499937
 20
1.026586623241861
 30
0.0
 10
7.757511776486254
 20
1.011278899441776
 30
0.0
 10
7.733949758161983
 20
0.9943633652222059
 30
0.0
 10
7.691746414975327
 20
0.9538985772961609
 30
0.0
 10
7.665057005128276
 20
0.9056489019940372
 30
0.0
 10
7.655132091801577
 20
0.8785042039825276
 30
0.0
 10
7.650000000000005
 20
0.8513930340923753
 30
0.0
 10
7.650000000000005
 20
0.8247949105134503
 30
0.0
  0
LINE
  5
2F4F7
330
1F
100
AcDbEntity
  8
1
100
AcDbLine
 10
7.849999999999994
 20
-5.991544
 30
0.0
 11
7.849999999999994
 21
-8.989822999999999
 31
0.0
  0
SPLINE
  5
2F4F8
330
1F
100
AcDbEntity
  8
1
100
AcDbSpline
210
0.0
220
0.0
230
1.0
 70
     8
 71
     5
 72
    18
 73
    12
 74
     0
 42
0.000000001
 43
0.0000000001
 40
0.0
 40
0.0
 40
0.0
 40
0.0
 40
0.0
 40
0.0
 40
0.1291970036561987
 40
0.1291970036561987
 40
0.1291970036561987
 40
0.4234541769421118
 40
0.4234541769421118
 40
0.4234541769421118
 40
0.5805115576984523
 40
0.5805115576984523
 40
0.5805115576984523
 40
0.5805115576984523
 40
0.5805115576984523
 40
0.5805115576984523
 10
7.849999999999994
 20
-8.989823448238498
 30
0.0
 10
7.835081615032124
 20
-8.989823448238498
 30
0.0
 10
7.82016298645398
 20
-8.9898213102305
 30
0.0
 10
7.805493587210066
 20
-8.989048175332159
 30
0.0
 10
7.758592717850008
 20
-8.986464466110998
 30
0.0
 10
7.719244476042092
 20
-8.981084580546824
 30
0.0
 10
7.696574457461494
 20
-8.9759047865146
 30
0.0
 10
7.669567483826214
 20
-8.965750260486956
 30
0.0
 10
7.655153070823928
 20
-8.952228704399805
 30
0.0
 10
7.651723467558525
 20
-8.947100320988017
 30
0.0
 10
7.650000000000005
 20
-8.941677048388317
 30
0.0
 10
7.650000000000005
 20
-8.935980406329498
 30
0.0
  0
SPLINE
  5
2F4F9
330
1F
100
AcDbEntity
  8
1
100
AcDbSpline
210
0.0
220
0.0
230
1.0
 70
     8
 71
     5
 72
    21
 73
    15
 74
     0
 42
0.000000001
 43
0.0000000001
 40
0.0
 40
0.0
 40
0.0
 40
0.0
 40
0.0
 40
0.0
 40
0.0651432638262305
 40
0.0651432638262305
 40
0.0651432638262305
 40
0.1954379537091583
 40
0.1954379537091583
 40
0.1954379537091583
 40
0.5159446847769757
 40
0.5159446847769757
 40
0.5159446847769757
 40
0.641709474284789
 40
0.641709474284789
 40
0.641709474284789
 40
0.641709474284789
 40
0.641709474284789
 40
0.641709474284789
 10
7.849999999999994
 20
-10.02370019026878
 30
0.0
 10
7.842477903818802
 20
-10.02370019026878
 30
0.0
 10
7.834955745705642
 20
-10.0236962107432
 30
0.0
 10
7.82740668957517
 20
-10.02224175839642
 30
0.0
 10
7.805275768292631
 20
-10.01796032504686
 30
0.0
 10
7.784156782621451
 20
-10.00965943755945
 30
0.0
 10
7.77063443305272
 20
-10.00245701308994
 30
0.0
 10
7.727943477660573
 20
-9.973815110494653
 30
0.0
 10
7.695552685109249
 20
-9.932718247820089
 30
0.0
 10
7.678025713286486
 20
-9.900347756886317
 30
0.0
 10
7.660459312000682
 20
-9.852870090073835
 30
0.0
 10
7.652322451506719
 20
-9.803277064200864
 30
0.0
 10
7.650778922763521
 20
-9.789138161726674
 30
0.0
 10
7.650000000000005
 20
-9.774967132320943
 30
0.0
 10
7.650000000000005
 20
-9.760775316842947
 30
0.0
  0
SPLINE
  5
2F4FA
330
1F
100
AcDbEntity
  8
1
100
AcDbSpline
210
0.0
220
0.0
230
1.0
 70
     8
 71
     5
 72
    18
 73
    12
 74
     0
 42
0.000000001
 43
0.0000000001
 40
0.0
 40
0.0
 40
0.0
 40
0.0
 40
0.0
 40
0.0
 40
0.0650986117523952
 40
0.0650986117523952
 40
0.0650986117523952
 40
0.3192265171655679
 40
0.3192265171655679
 40
0.3192265171655679
 40
0.6170922172085407
 40
0.6170922172085407
 40
0.6170922172085407
 40
0.6170922172085407
 40
0.6170922172085407
 40
0.6170922172085407
 10
7.849999999999994
 20
-1.03387674203028
 30
0.0
 10
7.842483059796179
 20
-1.03387674203028
 30
0.0
 10
7.834966057744706
 20
-1.033873310768387
 30
0.0
 10
7.827426687865111
 20
-1.032620327357596
 30
0.0
 10
7.791226693499937
 20
-1.026586623241857
 30
0.0
 10
7.757511776486254
 20
-1.011278899441786
 30
0.0
 10
7.733949758161983
 20
-0.9943633652222207
 30
0.0
 10
7.691746414975427
 20
-0.953898577296224
 30
0.0
 10
7.665057005128388
 20
-0.9056489019942576
 30
0.0
 10
7.655132091801533
 20
-0.878504203982308
 30
0.0
 10
7.650000000000005
 20
-0.8513930340922687
 30
0.0
 10
7.650000000000005
 20
-0.8247949105134477
 30
0.0
  0
SPLINE
  5
2F4FB
330
1F
100
AcDbEntity
  8
1
100
AcDbSpline
210
0.0
220
0.0
230
1.0
 70
     8
 71
     5
 72
    15
 73
     9
 74
     0
 42
0.000000001
 43
0.0000000001
 40
0.0
 40
0.0
 40
0.0
 40
0.0
 40
0.0
 40
0.0
 40
0.3711428966831779
 40
0.3711428966831779
 40
0.3711428966831779
 40
0.5082769029733912
 40
0.5082769029733912
 40
0.5082769029733912
 40
0.5082769029733912
 40
0.5082769029733912
 40
0.5082769029733912
 10
7.849999999999994
 20
5.693386439465547
 30
0.0
 10
7.807513660592462
 20
5.697587512072647
 30
0.0
 10
7.765064589814244
 20
5.69784426777625
 30
0.0
 10
7.725574213377556
 20
5.694094390142753
 30
0.0
 10
7.679615429132156
 20
5.681766519383816
 30
0.0
 10
7.656505212050531
 20
5.661700836453241
 30
0.0
 10
7.652134408686862
 20
5.655666161524587
 30
0.0
 10
7.650000000000005
 20
5.649380982534079
 30
0.0
 10
7.650000000000005
 20
5.642885472708377
 30
0.0
  0
LINE
  5
2F4FC
330
1F
100
AcDbEntity
  8
1
100
AcDbLine
 10
0.3499999999999943
 20
10.770716
 30
0.0
 11
0.3499999999999943
 21
10.463054
 31
0.0
  0
LINE
  5
2F4FD
330
1F
100
AcDbEntity
  8
1
100
AcDbLine
 10
0.3499999999999943
 20
10.463054
 30
0.0
 11
0.3499999999999943
 21
9.004508999999998
 31
0.0
  0
LINE
  5
2F4FE
330
1F
100
AcDbEntity
  8
1
100
AcDbLine
 10
0.3499999999999943
 20
6.332005
 30
0.0
 11
0.3499999999999943
 21
6.203596
 31
0.0
  0
LINE
  5
2F4FF
330
1F
100
AcDbEntity
  8
1
100
AcDbLine
 10
0.3499999999999943
 20
6.203596
 30
0.0
 11
0.3499999999999943
 21
4.690069
 31
0.0
  0
LINE
  5
2F500
330
1F
100
AcDbEntity
  8
1
100
AcDbLine
 10
0.3499999999999943
 20
-0.8153079999999999
 30
0.0
 11
0.3499999999999943
 21
1.501855999999999
 31
0.0
  0
LINE
  5
2F501
330
1F
100
AcDbEntity
  8
1
100
AcDbLine
 10
0.3499999999999943
 20
-0.8153079999999999
 30
0.0
 11
0.3499999999999943
 21
-0.8247950000000001
 31
0.0
  0
LINE
  5
2F502
330
1F
100
AcDbEntity
  8
1
100
AcDbLine
 10
0.3499999999999943
 20
-9.747727000000001
 30
0.0
 11
0.3499999999999943
 21
-6.547088999999999
 31
0.0
  0
LINE
  5
2F503
330
1F
100
AcDbEntity
  8
1
100
AcDbLine
 10
0.3499999999999943
 20
-9.747727000000001
 30
0.0
 11
0.3499999999999943
 21
-9.760775
 31
0.0
  0
LINE
  5
2F504
330
1F
100
AcDbEntity
  8
1
100
AcDbLine
 10
0.0
 20
3.298441999999999
 30
0.0
 11
0.0
 21
6.449537
 31
0.0
  0
LINE
  5
2F505
330
1F
100
AcDbEntity
  8
1
100
AcDbLine
 10
0.0
 20
-6.567543999999999
 30
0.0
 11
0.0
 21
-4.926562
 31
0.0
  0
LINE
  5
2F506
330
1F
100
AcDbEntity
  8
1
100
AcDbLine
 10
0.0
 20
-1.033879999999999
 30
0.0
 11
0.0
 21
3.298441999999999
 31
0.0
  0
LINE
  5
2F507
330
1F
100
AcDbEntity
  8
1
100
AcDbLine
 10
0.4000000000000057
 20
-5.874792
 30
0.0
 11
0.4000000000000057
 21
-5.208162999999999
 31
0.0
  0
ARC
  5
2F508
330
1F
100
AcDbEntity
  8
1
100
AcDbCircle
 10
-0.8277329999999949
 20
-9.888322
 30
0.0
 40
4.196989000000001
100
AcDbArc
 50
66.70070099999995
 51
72.99120999999996
  0
SPLINE
  5
2F509
330
1F
100
AcDbEntity
  8
1
100
AcDbSpline
210
0.0
220
0.0
230
1.0
 70
     8
 71
     5
 72
    21
 73
    15
 74
     0
 42
0.000000001
 43
0.0000000001
 40
0.0
 40
0.0
 40
0.0
 40
0.0
 40
0.0
 40
0.0
 40
1.095943007534311
 40
1.095943007534311
 40
1.095943007534311
 40
3.617388051224089
 40
3.617388051224089
 40
3.617388051224089
 40
7.334062790591441
 40
7.334062790591441
 40
7.334062790591441
 40
10.05653790980793
 40
10.05653790980793
 40
10.05653790980793
 40
10.05653790980793
 40
10.05653790980793
 40
10.05653790980793
 10
0.8322740460513387
 20
-6.033698739583844
 30
0.0
 10
0.9717164518570628
 20
-6.094661523240655
 30
0.0
 10
1.114923339228454
 20
-6.147767861288473
 30
0.0
 10
1.253044149427722
 20
-6.195698254643759
 30
0.0
 10
1.732762659276801
 20
-6.350746895023607
 30
0.0
 10
2.220803230471631
 20
-6.481745345221862
 30
0.0
 10
2.548662545227188
 20
-6.565079575994224
 30
0.0
 10
3.396372703722193
 20
-6.7683810253069
 30
0.0
 10
4.249527600604651
 20
-6.951301284415486
 30
0.0
 10
4.754394711362706
 20
-7.054996752785882
 30
0.0
 10
5.638371697447297
 20
-7.229773571708596
 30
0.0
 10
6.524424286188434
 20
-7.395426902436073
 30
0.0
 10
6.899364231093514
 20
-7.464079734356236
 30
0.0
 10
7.274565379957607
 20
-7.531494542992556
 30
0.0
 10
7.650000005203566
 20
-7.59778667475798
 30
0.0
  0
ARC
  5
2F50A
330
1F
100
AcDbEntity
  8
1
100
AcDbCircle
 10
-0.7708389999999952
 20
4.353026999999999
 30
0.0
 40
1.170684999999997
100
AcDbArc
 50
359.105055
 51
16.73617099999998
  0
LINE
  5
2F50B
330
1F
100
AcDbEntity
  8
1
100
AcDbLine
 10
0.4000000000000057
 20
4.334735
 30
0.0
 11
0.4000000000000057
 21
1.994444999999999
 31
0.0
  0
ARC
  5
2F50C
330
1F
100
AcDbEntity
  8
1
100
AcDbCircle
 10
-1.315917999999995
 20
-4.980443
 30
0.0
 40
7.182796999999999
100
AcDbArc
 50
72.597825
 51
76.178922
  0
SPLINE
  5
2F50D
330
1F
100
AcDbEntity
  8
1
100
AcDbSpline
210
0.0
220
0.0
230
1.0
 70
     8
 71
     5
 72
    21
 73
    15
 74
     0
 42
0.000000001
 43
0.0000000001
 40
0.0
 40
0.0
 40
0.0
 40
0.0
 40
0.0
 40
0.0
 40
1.095943008547074
 40
1.095943008547074
 40
1.095943008547074
 40
3.617388051521618
 40
3.617388051521618
 40
3.617388051521618
 40
7.334062790707973
 40
7.334062790707973
 40
7.334062790707973
 40
10.05653790998474
 40
10.05653790998474
 40
10.05653790998474
 40
10.05653790998474
 40
10.05653790998474
 40
10.05653790998474
 10
0.8322740460512676
 20
1.873534748797745
 30
0.0
 10
0.9717164519858414
 20
1.829399558977559
 30
0.0
 10
1.114923339493116
 20
1.790952195365296
 30
0.0
 10
1.253044149118807
 20
1.756252057489821
 30
0.0
 10
1.732762659002901
 20
1.644001586649906
 30
0.0
 10
2.220803230239212
 20
1.549162717521354
 30
0.0
 10
2.548662545379016
 20
1.488831284570301
 30
0.0
 10
3.396372703756127
 20
1.341647256738053
 30
0.0
 10
4.249527600510489
 20
1.209218586902083
 30
0.0
 10
4.754394711370181
 20
1.134146241084117
 30
0.0
 10
5.638371697439496
 20
1.00761317272147
 30
0.0
 10
6.524424286162997
 20
0.8876852306133791
 30
0.0
 10
6.899364231076575
 20
0.8379826812217388
 30
0.0
 10
7.274565379949108
 20
0.7891764228015277
 30
0.0
 10
7.650000005203438
 20
0.7411829480795989
 30
0.0
  0
ARC
  5
2F50E
330
1F
100
AcDbEntity
  8
1
100
AcDbCircle
 10
-139.105329
 20
-1559.619143
 30
0.0
 40
1572.020577
100
AcDbArc
 50
84.643376
 51
84.910551
  0
ARC
  5
2F50F
330
1F
100
AcDbEntity
  8
1
100
AcDbCircle
 10
10.566022
 20
-858.3473169999999
 30
0.0
 40
868.870431
100
AcDbArc
 50
90.192291
 51
90.67368899999999
  0
LINE
  5
2F510
330
1F
100
AcDbEntity
  8
1
100
AcDbLine
 10
7.650000000000005
 20
-9.747727000000001
 30
0.0
 11
0.3499999999999943
 21
-9.747727000000001
 31
0.0
  0
LINE
  5
2F511
330
1F
100
AcDbEntity
  8
1
100
AcDbLine
 10
0.8322739999999981
 20
-6.033698999999999
 30
0.0
 11
0.4000000000000057
 21
-6.033698999999999
 31
0.0
  0
LINE
  5
2F512
330
1F
100
AcDbEntity
  8
1
100
AcDbLine
 10
0.4000000000000057
 20
-6.033698999999999
 30
0.0
 11
0.4000000000000057
 21
-6.098444
 31
0.0
  0
ARC
  5
2F513
330
1F
100
AcDbEntity
  8
1
100
AcDbCircle
 10
-1.538207999999996
 20
-6.111062
 30
0.0
 40
1.938074000000001
100
AcDbArc
 50
346.99713
 51
0.3729990000000034
  0
LINE
  5
2F514
330
1F
100
AcDbEntity
  8
1
100
AcDbLine
 10
0.4000000000000057
 20
-5.874789999999999
 30
0.0
 11
0.4000000000000057
 21
-6.033698999999999
 31
0.0
  0
LINE
  5
2F515
330
1F
100
AcDbEntity
  8
1
100
AcDbLine
 10
7.650000000000005
 20
-0.8153079999999999
 30
0.0
 11
0.3499999999999943
 21
-0.8153079999999999
 31
0.0
  0
LINE
  5
2F516
330
1F
100
AcDbEntity
  8
1
100
AcDbLine
 10
0.8322739999999981
 20
1.873535
 30
0.0
 11
0.4000000000000057
 21
1.873535
 31
0.0
  0
LINE
  5
2F517
330
1F
100
AcDbEntity
  8
1
100
AcDbLine
 10
0.4000000000000057
 20
1.873535
 30
0.0
 11
0.4000000000000057
 21
1.826661
 31
0.0
  0
ARC
  5
2F518
330
1F
100
AcDbEntity
  8
1
100
AcDbCircle
 10
-0.6362280000000027
 20
1.81905
 30
0.0
 40
1.036116000000005
100
AcDbArc
 50
342.1710020000001
 51
0.4208490000000995
  0
LINE
  5
2F519
330
1F
100
AcDbEntity
  8
1
100
AcDbLine
 10
0.4000000000000057
 20
1.994445999999999
 30
0.0
 11
0.4000000000000057
 21
1.873535
 31
0.0
  0
LINE
  5
2F51A
330
1F
100
AcDbEntity
  8
1
100
AcDbLine
 10
7.650000000000005
 20
5.310439999999999
 30
0.0
 11
7.849999999999994
 21
5.330666
 31
0.0
  0
ARC
  5
2F51B
330
1F
100
AcDbEntity
  8
CUT
 62
     1
 48
0.240324
370
    35
100
AcDbCircle
 10
9.67031399999999
 20
-817.6451530000001
 30
0.0
 40
828.671207
100
AcDbArc
 50
90.12586
 51
90.65826599999999
  0
ARC
  5
2F51C
330
1F
100
AcDbEntity
  8
1
100
AcDbCircle
 10
-142.15303
 20
-1510.4085
 30
0.0
 40
1523.504436
100
AcDbArc
 50
84.34954899999999
 51
84.640471
  0
LINE
  5
2F51D
330
1F
100
AcDbEntity
  8
1
100
AcDbLine
 10
7.849999999999994
 20
-8.989822999999999
 30
0.0
 11
7.649991999999997
 21
-8.989822999999999
 31
0.0
  0
LINE
  5
2F51E
330
1F
100
AcDbEntity
  8
1
100
AcDbLine
 10
0.3499920000000003
 20
-8.989822999999999
 30
0.0
 11
0.1500000000000057
 21
-8.989822999999999
 31
0.0
  0
LINE
  5
2F51F
330
1F
100
AcDbEntity
  8
1
100
AcDbLine
 10
0.1500000000000057
 20
-10.0237
 30
0.0
 11
7.849999999999994
 21
-10.0237
 31
0.0
  0
LINE
  5
2F520
330
1F
100
AcDbEntity
  8
1
100
AcDbLine
 10
7.849999999999994
 20
-1.033876999999999
 30
0.0
 11
0.1500000000000057
 21
-1.033876999999999
 31
0.0
  0
ARC
  5
2F521
330
1F
100
AcDbEntity
  8
1
100
AcDbCircle
 10
-0.3000119999999953
 20
-7.200008
 30
0.0
 40
0.7000120000000003
100
AcDbArc
 50
21.78844599999995
 51
64.62244099999995
  0
LINE
  5
2F534
330
1F
100
AcDbEntity
  8
SKVIEW1
  6
ByBlock
 62
     0
370
    -2
100
AcDbLine
 10
-49.14950079434237
 20
0.0
 30
0.0
 11
-48.96950079434236
 21
0.0
 31
0.0
  0
LINE
  5
2F535
330
1F
100
AcDbEntity
  8
SKVIEW1
  6
ByBlock
 62
     0
370
    -2
100
AcDbLine
 10
-49.05950079434235
 20
0.09
 30
0.0
 11
-49.05950079434235
 21
-0.09
 31
0.0
  0
LINE
  5
2F542
330
1F
100
AcDbEntity
  8
SKVIEW4
100
AcDbLine
 10
-33.79678929434235
 20
0.0000004999999987
 30
0.0
 11
-64.32221129434235
 21
0.0000004999999987
 31
0.0
  0
LINE
  5
2F543
330
1F
100
AcDbEntity
  8
SKVIEW4
100
AcDbLine
 10
-49.05950029434236
 20
15.2627115
 30
0.0
 11
-49.05950029434236
 21
-15.2627105
 31
0.0
  0
LINE
  5
2F57A
330
1F
100
AcDbEntity
  8
1
  6
ByBlock
 62
     0
370
    -2
100
AcDbLine
 10
7.508565000000003
 20
11.72218599999999
 30
0.0
 11
7.688565000000012
 21
11.72218599999999
 31
0.0
  0
LINE
  5
2F57B
330
1F
100
AcDbEntity
  8
1
  6
ByBlock
 62
     0
370
    -2
100
AcDbLine
 10
7.598565000000008
 20
11.81218599999999
 30
0.0
 11
7.598565000000008
 21
11.63218599999999
 31
0.0
  0
DIMENSION
  5
2F680
330
1F
100
AcDbEntity
  8
2
100
AcDbDimension
  2
*D6
 10
-13.40922395392006
 20
-6.499999999999999
 30
0.0
 11
-15.9551656264429
 21
0.0
 31
0.0
 70
    32
  1
%%C<>
 71
     5
 41
0.0
 42
13.0
  3
MM_STANDARD
100
AcDbAlignedDimension
 13
0.0
 23
6.5
 33
0.0
 14
0.0
 24
-6.5
 34
0.0
 50
90.0
100
AcDbRotatedDimension
1001
ACAD
1000
DSTYLE
1002
{
1070
    78
1070
     9
1070
    79
1070
     2
1070
    90
1070
     1
1070
   172
1070
     1
1070
   345
1005
14
1070
   346
1005
14
1070
   347
1005
14
1002
}
1001
ACAD_DSTYLE_DIMARC_LENGTH_SYMBOL
1070
   379
1070
     1
1001
ACAD_DSTYLE_DIM_LINETYPE
1070
   380
1005
14
1001
ACAD_DSTYLE_DIM_EXT1_LINETYPE
1070
   381
1005
14
1001
ACAD_DSTYLE_DIM_EXT2_LINETYPE
1070
   382
1005
14
  0
MTEXT
  5
2F804
330
1F
100
AcDbEntity
  8
SK6
100
AcDbMText
 10
-50.31094376180909
 20
-36.52591675238245
 30
0.0
 40
3.5
 41
43.63771960646522
 71
     1
 72
     1
  1
18F24280LPRA04
  7
MM_STANDARD
 73
     1
 44
1.0
1001
ACAD
1000
MTEXTBEGIN
1070
    73
1070
     1
1070
    44
1040
1.0
1070
    74
1070
     0
1000
MTEXTEND
  0
LWPOLYLINE
  5
2F80F
330
1F
100
AcDbEntity
  8
NOCUT
100
AcDbPolyline
 90
        4
 70
     1
 43
0.0
 10
0.3499999999999943
 20
0.0000000000000001
 10
7.650000000000005
 20
0.0
 10
7.650000000000005
 20
11.02359121699908
 10
0.3499999999999943
 20
10.97363815657161
  0
ENDSEC
  0
SECTION
  2
OBJECTS
  0
DICTIONARY
  5
C
330
0
100
AcDbDictionary
281
     1
  3
ACAD_2007HEADERVARS_RT
350
2F81B
  3
ACAD_CIP_PREVIOUS_PRODUCT_INFO
350
741
  3
ACAD_COLOR
350
6C
  3
ACAD_DETAILVIEWSTYLE
350
8E4
  3
ACAD_GROUP
350
D
  3
ACAD_IMAGE_VARS
350
959
  3
ACAD_LAYOUT
350
1A
  3
ACAD_MATERIAL
350
6B
  3
ACAD_MLEADERSTYLE
350
43C
  3
ACAD_MLINESTYLE
350
17
  3
ACAD_PLOTSETTINGS
350
19
  3
ACAD_PLOTSTYLENAME
350
E
  3
ACAD_SCALELIST
350
99
  3
ACAD_SECTIONVIEWSTYLE
350
8E2
  3
ACAD_TABLESTYLE
350
92
  3
ACAD_VISUALSTYLE
350
3F2
  3
ACDB_RECOMPOSE_DATA
350
2F819
  3
ACDBHEADERROUNDTRIPXREC
350
2F7C5
  3
AcDbVariableDictionary
350
59
  3
ACMDICTIONARY
350
76D
  3
AEC_PROPERTY_SET_DEFS
350
5CF
  3
AMG
350
743
  3
AMGSNAPSETTINGS
350
7F6
  3
APPDATA
350
958
  3
ASE_INDEX_DICTIONARY
350
8C6
  3
DWGPROPS
350
2F81A
  0
DICTIONARY
  5
2F7B2
330
2
100
AcDbDictionary
280
     1
281
     1
  3
ACAD_LAYERFILTERS
360
6C6
  3
ACAD_LAYERSTATES
360
17C7
  3
ACLYDICTIONARY
360
6C5
  0
DICTIONARY
  5
2F7A9
330
10
100
AcDbDictionary
280
     1
281
     1
  3
ADSK_XREC_LAYER_RECONCILED
360
904
  0
DICTIONARY
  5
2F7AA
330
23
100
AcDbDictionary
280
     1
281
     1
  3
ADSK_XREC_LAYER_RECONCILED
360
905
  0
DICTIONARY
  5
2F7AB
330
25
100
AcDbDictionary
280
     1
281
     1
  3
ADSK_XREC_LAYER_RECONCILED
360
907
  0
DICTIONARY
  5
2F7AC
330
173A
100
AcDbDictionary
280
     1
281
     1
  3
ADSK_XREC_LAYER_RECONCILED
360
908
  0
DICTIONARY
  5
2F7AD
330
2A
100
AcDbDictionary
280
     1
281
     1
  3
ADSK_XREC_LAYER_RECONCILED
360
90B
  0
DICTIONARY
  5
2F7AE
330
2E
100
AcDbDictionary
280
     1
281
     1
  3
ADSK_XREC_LAYER_RECONCILED
360
90E
  0
DICTIONARY
  5
2F7AF
330
375
100
AcDbDictionary
280
     1
281
     1
  3
ADSK_XREC_LAYER_RECONCILED
360
90F
  0
DICTIONARY
  5
2F7B0
330
49B
100
AcDbDictionary
280
     1
281
     1
  3
ADSK_XREC_LAYER_RECONCILED
360
918
  0
DICTIONARY
  5
2F7B1
330
6C2
100
AcDbDictionary
280
     1
281
     1
  3
ADSK_XREC_LAYER_RECONCILED
360
91D
  0
DICTIONARY
  5
2F806
330
2F805
100
AcDbDictionary
280
     1
281
     1
  0
DICTIONARY
  5
2F7C2
330
1F
100
AcDbDictionary
280
     1
281
     1
  3
ACAD_SORTENTS
360
2F7C3
  0
DICTIONARY
  5
2F824
330
2F78B
100
AcDbDictionary
280
     1
281
     1
  3
ACAD_MTEXT_RT
360
2F825
  0
DICTIONARY
  5
2F81B
102
{ACAD_REACTORS
330
C
102
}
330
C
100
AcDbDictionary
281
     1
  3
DIMARCSYM
350
2F81C
  3
DIMLTEX1
350
2F81E
  3
DIMLTEX2
350
2F81F
  3
DIMLTYPE
350
2F81D
  0
XRECORD
  5
741
102
{ACAD_REACTORS
330
C
102
}
330
C
100
AcDbXrecord
280
     1
300
ACDLT
300
2015
300
ACDLT_F_S
  0
DICTIONARY
  5
6C
102
{ACAD_REACTORS
330
C
102
}
330
C
100
AcDbDictionary
281
     1
  0
DICTIONARY
  5
8E4
102
{ACAD_REACTORS
330
C
102
}
330
C
100
AcDbDictionary
281
     1
  3
Metric50
350
2F801
  0
DICTIONARY
  5
D
102
{ACAD_REACTORS
330
C
102
}
330
C
100
AcDbDictionary
281
     1
  0
RASTERVARIABLES
  5
959
102
{ACAD_REACTORS
330
C
102
}
330
C
100
AcDbRasterVariables
 90
        0
 70
     1
 71
     1
 72
     1
  0
DICTIONARY
  5
1A
102
{ACAD_REACTORS
330
C
102
}
330
C
100
AcDbDictionary
281
     1
  3
Layout1
350
74
  3
Model
350
22
  0
DICTIONARY
  5
6B
102
{ACAD_REACTORS
330
C
102
}
330
C
100
AcDbDictionary
281
     1
  3
ByBlock
350
2F7D6
  3
ByLayer
350
2F7CE
  3
Global
350
2F7DE
  0
DICTIONARY
  5
43C
102
{ACAD_REACTORS
330
C
102
}
330
C
100
AcDbDictionary
281
     1
  3
Standard
350
2F7FF
  0
DICTIONARY
  5
17
102
{ACAD_REACTORS
330
C
102
}
330
C
100
AcDbDictionary
281
     1
  3
Standard
350
18
  0
DICTIONARY
  5
19
102
{ACAD_REACTORS
330
C
102
}
330
C
100
AcDbDictionary
281
     1
  0
ACDBDICTIONARYWDFLT
  5
E
102
{ACAD_REACTORS
330
C
102
}
330
C
100
AcDbDictionary
281
     1
  3
Normal
350
F
100
AcDbDictionaryWithDefault
340
F
  0
DICTIONARY
  5
99
102
{ACAD_REACTORS
330
C
102
}
330
C
100
AcDbDictionary
281
     1
  3
A0
350
9A
  3
A1
350
9B
  3
A2
350
9C
  3
A3
350
9D
  3
A4
350
9E
  3
A5
350
9F
  3
A6
350
A0
  3
A7
350
A1
  3
A8
350
A2
  3
A9
350
A3
  3
B0
350
A4
  3
B1
350
A5
  3
B2
350
A6
  3
B3
350
A7
  3
B4
350
A8
  3
B5
350
A9
  3
B6
350
AA
  3
B7
350
AB
  3
B8
350
AC
  3
B9
350
AD
  3
C0
350
AE
  3
C1
350
AF
  3
C2
350
B0
  3
C3
350
B1
  3
C4
350
B2
  3
C5
350
B3
  3
C6
350
B4
  3
C7
350
B5
  3
C8
350
B6
  3
C9
350
B7
  3
D0
350
B8
  3
D1
350
B9
  3
D2
350
BA
  0
DICTIONARY
  5
8E2
102
{ACAD_REACTORS
330
C
102
}
330
C
100
AcDbDictionary
281
     1
  3
Metric50
350
2F800
  0
DICTIONARY
  5
92
102
{ACAD_REACTORS
330
C
102
}
330
C
100
AcDbDictionary
281
     1
  3
Standard
350
2F7FE
  0
DICTIONARY
  5
3F2
102
{ACAD_REACTORS
330
C
102
}
330
C
100
AcDbDictionary
281
     1
  3
2dWireframe
350
2F7EB
  3
Basic
350
2F7EA
  3
Brighten
350
2F7F1
  3
ColorChange
350
2F7F5
  3
Conceptual
350
2F7EE
  3
Dim
350
2F7F0
  3
EdgeColorOff
350
2F7FD
  3
Facepattern
350
2F7F4
  3
Flat
350
2F7E6
  3
FlatWithEdges
350
2F7E7
  3
Gouraud
350
2F7E8
  3
GouraudWithEdges
350
2F7E9
  3
Hidden
350
2F7ED
  3
JitterOff
350
2F7FB
  3
Linepattern
350
2F7F3
  3
OverhangOff
350
2F7FC
  3
Realistic
350
2F7EF
  3
Shaded
350
2F7FA
  3
Shaded with edges
350
2F7F9
  3
Shades of Gray
350
2F7F6
  3
Sketchy
350
2F7F7
  3
Thicken
350
2F7F2
  3
Wireframe
350
2F7EC
  3
X-Ray
350
2F7F8
  0
XRECORD
  5
2F819
102
{ACAD_REACTORS
330
C
102
}
330
C
100
AcDbXrecord
280
     1
 90
        1
330
2F7FE
  0
DICTIONARY
  5
2F7C5
102
{ACAD_REACTORS
330
C
102
}
330
C
100
AcDbDictionary
281
     1
  3
COLORDICT
350
2F7C6
  3
MATERIALDICT
350
2F7C7
  0
DICTIONARY
  5
59
102
{ACAD_REACTORS
330
C
102
}
330
C
100
AcDbDictionary
281
     1
  3
CANNOSCALE
350
2F7C4
  3
CMLEADERSTYLE
350
447
  3
CTABLESTYLE
350
38E
  3
CVIEWDETAILSTYLE
350
8FB
  3
CVIEWSECTIONSTYLE
350
8FC
  3
DIMASSOC
350
359
  3
HALOGAP
350
AF7
  3
HIDETEXT
350
358
  3
INDEXCTL
350
9BE
  3
LAYEREVAL
350
7AE
  3
LAYERNOTIFY
350
7AF
  3
LIGHTINGUNITS
350
44A
  3
MSLTSCALE
350
448
  3
SORTENTS
350
9BD
  3
XCLIPFRAME
350
2F816
  0
DICTIONARY
  5
76D
102
{ACAD_REACTORS
330
C
102
}
330
C
100
AcDbDictionary
281
     1
  3
ACMSTDDICTIONARY
350
76F
  0
DICTIONARY
  5
5CF
102
{ACAD_REACTORS
330
C
102
}
330
C
100
AcDbDictionary
281
     1
  0
DICTIONARY
  5
743
102
{ACAD_REACTORS
330
C
102
}
330
C
100
AcDbDictionary
281
     1
  3
ACMGSETTINGS
350
744
  0
DICTIONARY
  5
7F6
102
{ACAD_REACTORS
330
C
102
}
330
C
100
AcDbDictionary
281
     1
  0
DICTIONARY
  5
958
102
{ACAD_REACTORS
330
C
102
}
330
C
100
AcDbDictionary
281
     1
  0
DICTIONARY
  5
8C6
102
{ACAD_REACTORS
330
C
102
}
330
C
100
AcDbDictionary
281
     1
  3
ASEBLOCKHIERARCHYINDEXRECORD
350
8C7
  0
XRECORD
  5
2F81A
102
{ACAD_REACTORS
330
C
102
}
330
C
100
AcDbXrecord
280
     1
  1
DWGPROPS COOKIE
  2

  3

  4

  6

  7

  8
ruebsamenm
  9

300
=
301
=
302
=
303
=
304
=
305
=
306
=
307
=
308
=
309
=
 40
2.779601030092592
 41
2453353.758792489
 42
2459284.579875972
  1

 90
        0
  0
DICTIONARY
  5
6C6
102
{ACAD_REACTORS
330
2F7B2
102
}
330
2F7B2
100
AcDbDictionary
281
     1
  0
DICTIONARY
  5
17C7
102
{ACAD_REACTORS
330
2F7B2
102
}
330
2F7B2
100
AcDbDictionary
281
     1
  0
DICTIONARY
  5
6C5
102
{ACAD_REACTORS
330
2F7B2
102
}
330
2F7B2
100
AcDbDictionary
281
     1
  0
XRECORD
  5
904
102
{ACAD_REACTORS
330
2F7A9
102
}
330
2F7A9
100
AcDbXrecord
280
     1
290
     1
  0
XRECORD
  5
905
102
{ACAD_REACTORS
330
2F7AA
102
}
330
2F7AA
100
AcDbXrecord
280
     1
290
     1
  0
XRECORD
  5
907
102
{ACAD_REACTORS
330
2F7AB
102
}
330
2F7AB
100
AcDbXrecord
280
     1
290
     1
  0
XRECORD
  5
908
102
{ACAD_REACTORS
330
2F7AC
102
}
330
2F7AC
100
AcDbXrecord
280
     1
290
     1
  0
XRECORD
  5
90B
102
{ACAD_REACTORS
330
2F7AD
102
}
330
2F7AD
100
AcDbXrecord
280
     1
290
     1
  0
XRECORD
  5
90E
102
{ACAD_REACTORS
330
2F7AE
102
}
330
2F7AE
100
AcDbXrecord
280
     1
290
     1
  0
XRECORD
  5
90F
102
{ACAD_REACTORS
330
2F7AF
102
}
330
2F7AF
100
AcDbXrecord
280
     1
290
     1
  0
XRECORD
  5
918
102
{ACAD_REACTORS
330
2F7B0
102
}
330
2F7B0
100
AcDbXrecord
280
     1
290
     1
  0
XRECORD
  5
91D
102
{ACAD_REACTORS
330
2F7B1
102
}
330
2F7B1
100
AcDbXrecord
280
     1
290
     1
  0
SORTENTSTABLE
  5
2F7C3
102
{ACAD_REACTORS
330
2F7C2
102
}
330
2F7C2
100
AcDbSortentsTable
330
1F
331
1C74E
  5
1C484
331
2DB96
  5
2DB95
331
C930
  5
D590
331
E533
  5
C178
331
12AAA
  5
12A1D
331
1C54F
  5
1C6B9
331
CC50
  5
E105
331
12B41
  5
12AAA
331
12B2B
  5
12AA6
331
12BB5
  5
12B40
331
C652
  5
CA16
331
1299D
  5
1289C
331
D588
  5
E20E
331
1C851
  5
1C632
331
12BA1
  5
12B2B
331
C255
  5
C2E1
331
C85B
  5
CC50
331
12C2B
  5
12BB6
331
D89C
  5
E328
331
12A1D
  5
1299D
331
E438
  5
C652
331
DAF2
  5
E438
331
12C8B
  5
12C16
331
C377
  5
C863
331
CB25
  5
DCBF
331
1C7C7
  5
1C54E
331
1C484
  5
1C740
331
CC4B
  5
DED7
331
1C640
  5
1C1E8
331
E105
  5
C7A3
331
DED7
  5
E6D6
331
12BB6
  5
12B41
331
1C632
  5
1C1E5
331
1D920
  5
1DA40
331
C182
  5
C258
331
D8A3
  5
E32B
331
C79F
  5
CC4B
331
CA16
  5
DAF5
331
12C16
  5
12BA1
331
1D6D5
  5
1D6E2
331
C2E4
  5
C377
331
DCBF
  5
E537
331
C258
  5
C2E4
331
12C92
  5
12C17
331
E32B
  5
C536
331
1DA40
  5
1D6D5
331
1C3A1
  5
1C851
331
E441
  5
C65C
331
DECF
  5
E6D2
331
D590
  5
E217
331
C863
  5
D588
331
C536
  5
CA12
331
E20E
  5
C42D
331
1C6B9
  5
1C393
331
CA17
  5
DCBB
331
12C17
  5
12BB5
331
1D913
  5
1D920
331
C65C
  5
CA17
331
12A19
  5
1289D
331
1C476
  5
1C6C7
331
12C93
  5
12C2B
331
C437
  5
C934
331
E6D6
  5
CB29
331
1C1E5
  5
1C74E
331
1299A
  5
12895
331
1289C
  5
12C92
331
1C393
  5
1C850
331
12AA6
  5
12A19
331
CA12
  5
DAF2
331
C934
  5
D89C
331
12A1A
  5
1299A
331
1C740
  5
1C476
331
DCBB
  5
E533
331
DAF5
  5
E441
331
C7A3
  5
CC4F
331
E537
  5
C182
331
C36E
  5
C85B
331
12895
  5
12C8B
331
E102
  5
C79F
331
1C6C7
  5
1C3A1
331
1289D
  5
12C93
331
12AA7
  5
12A1A
331
1C1E8
  5
1C7C7
331
C935
  5
D8A3
331
C2E1
  5
C36E
331
E328
  5
C533
331
CB29
  5
DECF
331
1C54E
  5
1C640
331
1D6E2
  5
1D913
331
CC4F
  5
E102
331
12B40
  5
12AA7
331
C42D
  5
C930
331
E6D2
  5
CB25
331
C178
  5
C255
331
1C850
  5
1C54F
331
C533
  5
C935
331
E217
  5
C437
  0
XRECORD
  5
2F825
102
{ACAD_REACTORS
330
2F824
102
}
330
2F824
100
AcDbXrecord
280
     1
 40
5789.0
  1
\A1;\U+22057.5
  0
XRECORD
  5
2F81C
102
{ACAD_REACTORS
330
2F81B
102
}
330
2F81B
100
AcDbXrecord
280
     1
 70
     1
  0
XRECORD
  5
2F81E
102
{ACAD_REACTORS
330
2F81B
102
}
330
2F81B
100
AcDbXrecord
280
     1
340
14
  0
XRECORD
  5
2F81F
102
{ACAD_REACTORS
330
2F81B
102
}
330
2F81B
100
AcDbXrecord
280
     1
340
14
  0
XRECORD
  5
2F81D
102
{ACAD_REACTORS
330
2F81B
102
}
330
2F81B
100
AcDbXrecord
280
     1
340
14
  0
ACDBDETAILVIEWSTYLE
  5
2F801
102
{ACAD_XDICTIONARY
360
2F85C
102
}
102
{ACAD_REACTORS
330
8E4
102
}
330
8E4
100
AcDbModelDocViewStyle
 70
     0
  3
Metric50
290
     0
100
AcDbDetailViewStyle
 70
     0
 71
     0
 90
        3
 71
     1
340
11
 40
5.0
340
0
 40
5.0
300

 40
0.0
280
     1
 71
     2
340
16
 90
       25
 71
     3
340
11
 40
5.0
 90
        0
 40
15.0
 90
        1
300
%<\AcVar ViewDetailId>% (%<\AcVar ViewScale \f "%sn">%)
 71
     4
340
16
 90
       25
340
16
 90
       25
280
     0
  0
LAYOUT
  5
74
102
{ACAD_XDICTIONARY
360
2F822
102
}
102
{ACAD_REACTORS
330
1A
102
}
330
1A
100
AcDbPlotSettings
  1

  2
\\ADSCCNDC1\hq601xrx1
  4

  6

 40
0.0
 41
0.0
 42
0.0
 43
0.0
 44
0.0
 45
0.0
 46
0.0
 47
0.0
 48
0.0
 49
0.0
140
0.0
141
0.0
142
1.0
143
1.0
 70
   688
 72
     0
 73
     0
 74
     5
  7
monochrome.ctb
 75
    16
147
1.0
148
0.0
149
0.0
100
AcDbLayout
  1
Layout1
 70
     1
 71
     1
 10
0.0
 20
0.0
 11
12.0
 21
9.0
 12
0.0
 22
0.0
 32
0.0
 14
0.0
 24
0.0
 34
0.0
 15
0.0
 25
0.0
 35
0.0
146
0.0
 13
0.0
 23
0.0
 33
0.0
 16
1.0
 26
0.0
 36
0.0
 17
0.0
 27
1.0
 37
0.0
 76
     0
330
73
  0
LAYOUT
  5
22
102
{ACAD_XDICTIONARY
360
2F820
102
}
102
{ACAD_REACTORS
330
1A
102
}
330
1A
100
AcDbPlotSettings
  1

  2
DWG To PDF.pc3
  4
ISO_expand_A0_(841.00_x_1189.00_MM)
  6

 40
5.793749809265137
 41
5.79376220703125
 42
10.79374980926514
 43
10.793701171875
 44
841.0
 45
1189.0
 46
0.0
 47
277.0515806674958
 48
0.0
 49
0.0
140
0.0
141
0.0
142
1.0
143
0.0145558200469394
 70
 11956
 72
     1
 73
     0
 74
     1
  7
monochrome.ctb
 75
     0
147
68.70104169845581
148
70.55856307424345
149
1453.505808791571
100
AcDbLayout
  1
Model
 70
     1
 71
     0
 10
-170.0
 20
-170.0
 11
519.0
 21
260.0
 12
0.0
 22
0.0
 32
0.0
 14
-98.23786195167851
 24
-57.01592477446046
 34
0.0
 15
41.31486870380784
 25
38.62162711431847
 35
0.0
146
0.0
 13
0.0
 23
0.0
 33
0.0
 16
1.0
 26
0.0
 36
0.0
 17
0.0
 27
1.0
 37
0.0
 76
     0
330
1F
331
97
  0
MATERIAL
  5
2F7D6
102
{ACAD_XDICTIONARY
360
2F7D7
102
}
102
{ACAD_REACTORS
330
6B
102
}
330
6B
100
AcDbMaterial
  1
ByBlock
 72
     0
 43
0.0008202099737533
 43
0.0
 43
0.0
 43
0.0
 43
0.0
 43
0.0008202099737533
 43
0.0
 43
0.0
 43
0.0
 43
0.0
 43
1.0
 43
0.0
 43
0.0
 43
0.0
 43
0.0
 43
1.0
 77
     0
 47
0.0008202099737533
 47
0.0
 47
0.0
 47
0.0
 47
0.0
 47
0.0008202099737533
 47
0.0
 47
0.0
 47
0.0
 47
0.0
 47
1.0
 47
0.0
 47
0.0
 47
0.0
 47
0.0
 47
1.0
171
     0
 49
0.0008202099737533
 49
0.0
 49
0.0
 49
0.0
 49
0.0
 49
0.0008202099737533
 49
0.0
 49
0.0
 49
0.0
 49
0.0
 49
1.0
 49
0.0
 49
0.0
 49
0.0
 49
0.0
 49
1.0
175
     0
142
0.0008202099737533
142
0.0
142
0.0
142
0.0
142
0.0
142
0.0008202099737533
142
0.0
142
0.0
142
0.0
142
0.0
142
1.0
142
0.0
142
0.0
142
0.0
142
0.0
142
1.0
179
     0
144
0.0008202099737533
144
0.0
144
0.0
144
0.0
144
0.0
144
0.0008202099737533
144
0.0
144
0.0
144
0.0
144
0.0
144
1.0
144
0.0
144
0.0
144
0.0
144
0.0
144
1.0
147
0.0008202099737533
147
0.0
147
0.0
147
0.0
147
0.0
147
0.0008202099737533
147
0.0
147
0.0
147
0.0
147
0.0
147
1.0
147
0.0
147
0.0
147
0.0
147
0.0
147
1.0
  0
MATERIAL
  5
2F7CE
102
{ACAD_XDICTIONARY
360
2F7CF
102
}
102
{ACAD_REACTORS
330
6B
102
}
330
6B
100
AcDbMaterial
  1
ByLayer
 72
     0
 43
0.0008202099737533
 43
0.0
 43
0.0
 43
0.0
 43
0.0
 43
0.0008202099737533
 43
0.0
 43
0.0
 43
0.0
 43
0.0
 43
1.0
 43
0.0
 43
0.0
 43
0.0
 43
0.0
 43
1.0
 77
     0
 47
0.0008202099737533
 47
0.0
 47
0.0
 47
0.0
 47
0.0
 47
0.0008202099737533
 47
0.0
 47
0.0
 47
0.0
 47
0.0
 47
1.0
 47
0.0
 47
0.0
 47
0.0
 47
0.0
 47
1.0
171
     0
 49
0.0008202099737533
 49
0.0
 49
0.0
 49
0.0
 49
0.0
 49
0.0008202099737533
 49
0.0
 49
0.0
 49
0.0
 49
0.0
 49
1.0
 49
0.0
 49
0.0
 49
0.0
 49
0.0
 49
1.0
175
     0
142
0.0008202099737533
142
0.0
142
0.0
142
0.0
142
0.0
142
0.0008202099737533
142
0.0
142
0.0
142
0.0
142
0.0
142
1.0
142
0.0
142
0.0
142
0.0
142
0.0
142
1.0
179
     0
144
0.0008202099737533
144
0.0
144
0.0
144
0.0
144
0.0
144
0.0008202099737533
144
0.0
144
0.0
144
0.0
144
0.0
144
1.0
144
0.0
144
0.0
144
0.0
144
0.0
144
1.0
147
0.0008202099737533
147
0.0
147
0.0
147
0.0
147
0.0
147
0.0008202099737533
147
0.0
147
0.0
147
0.0
147
0.0
147
1.0
147
0.0
147
0.0
147
0.0
147
0.0
147
1.0
  0
MATERIAL
  5
2F7DE
102
{ACAD_XDICTIONARY
360
2F7DF
102
}
102
{ACAD_REACTORS
330
6B
102
}
330
6B
100
AcDbMaterial
  1
Global
 72
     0
 43
0.0008202099737533
 43
0.0
 43
0.0
 43
0.0
 43
0.0
 43
0.0008202099737533
 43
0.0
 43
0.0
 43
0.0
 43
0.0
 43
1.0
 43
0.0
 43
0.0
 43
0.0
 43
0.0
 43
1.0
 77
     0
 47
0.0008202099737533
 47
0.0
 47
0.0
 47
0.0
 47
0.0
 47
0.0008202099737533
 47
0.0
 47
0.0
 47
0.0
 47
0.0
 47
1.0
 47
0.0
 47
0.0
 47
0.0
 47
0.0
 47
1.0
171
     0
 49
0.0008202099737533
 49
0.0
 49
0.0
 49
0.0
 49
0.0
 49
0.0008202099737533
 49
0.0
 49
0.0
 49
0.0
 49
0.0
 49
1.0
 49
0.0
 49
0.0
 49
0.0
 49
0.0
 49
1.0
175
     0
142
0.0008202099737533
142
0.0
142
0.0
142
0.0
142
0.0
142
0.0008202099737533
142
0.0
142
0.0
142
0.0
142
0.0
142
1.0
142
0.0
142
0.0
142
0.0
142
0.0
142
1.0
179
     0
144
0.0008202099737533
144
0.0
144
0.0
144
0.0
144
0.0
144
0.0008202099737533
144
0.0
144
0.0
144
0.0
144
0.0
144
1.0
144
0.0
144
0.0
144
0.0
144
0.0
144
1.0
147
0.0008202099737533
147
0.0
147
0.0
147
0.0
147
0.0
147
0.0008202099737533
147
0.0
147
0.0
147
0.0
147
0.0
147
1.0
147
0.0
147
0.0
147
0.0
147
0.0
147
1.0
  0
MLEADERSTYLE
  5
2F7FF
102
{ACAD_REACTORS
330
43C
102
}
330
43C
100
AcDbMLeaderStyle
170
     2
171
     1
172
     0
 90
        2
 40
0.0
 41
0.0
173
     1
 91
-1056964608
340
14
 92
       -2
290
     1
 42
2.0
291
     1
 43
0.36
  3
Standard
 44
4.0
300

342
11
174
     1
178
     6
175
     1
176
     0
 93
-1056964608
 45
4.0
292
     0
297
     0
 46
4.0
 94
-1056964608
 47
1.0
 49
1.0
140
1.0
293
     1
141
0.0
294
     1
177
     0
142
1.0
295
     0
296
     0
143
0.125
1001
ACAD_MLEADERVER
1070
     2
  0
MLINESTYLE
  5
18
102
{ACAD_REACTORS
330
17
102
}
330
17
100
AcDbMlineStyle
  2
STANDARD
 70
     0
  3

 62
     0
 51
90.0
 52
90.0
 71
     2
 49
0.5
 62
   256
  6
BYLAYER
 49
-0.5
 62
   256
  6
BYLAYER
  0
ACDBPLACEHOLDER
  5
F
102
{ACAD_REACTORS
330
E
102
}
330
E
  0
SCALE
  5
9A
102
{ACAD_REACTORS
330
99
102
}
330
99
100
AcDbScale
 70
     0
300
1:1
140
1.0
141
1.0
290
     1
  0
SCALE
  5
9B
102
{ACAD_REACTORS
330
99
102
}
330
99
100
AcDbScale
 70
     0
300
1:2
140
1.0
141
2.0
290
     0
  0
SCALE
  5
9C
102
{ACAD_REACTORS
330
99
102
}
330
99
100
AcDbScale
 70
     0
300
1:4
140
1.0
141
4.0
290
     0
  0
SCALE
  5
9D
102
{ACAD_REACTORS
330
99
102
}
330
99
100
AcDbScale
 70
     0
300
1:5
140
1.0
141
5.0
290
     0
  0
SCALE
  5
9E
102
{ACAD_REACTORS
330
99
102
}
330
99
100
AcDbScale
 70
     0
300
1:8
140
1.0
141
8.0
290
     0
  0
SCALE
  5
9F
102
{ACAD_REACTORS
330
99
102
}
330
99
100
AcDbScale
 70
     0
300
1:10
140
1.0
141
10.0
290
     0
  0
SCALE
  5
A0
102
{ACAD_REACTORS
330
99
102
}
330
99
100
AcDbScale
 70
     0
300
1:16
140
1.0
141
16.0
290
     0
  0
SCALE
  5
A1
102
{ACAD_REACTORS
330
99
102
}
330
99
100
AcDbScale
 70
     0
300
1:20
140
1.0
141
20.0
290
     0
  0
SCALE
  5
A2
102
{ACAD_REACTORS
330
99
102
}
330
99
100
AcDbScale
 70
     0
300
1:30
140
1.0
141
30.0
290
     0
  0
SCALE
  5
A3
102
{ACAD_REACTORS
330
99
102
}
330
99
100
AcDbScale
 70
     0
300
1:40
140
1.0
141
40.0
290
     0
  0
SCALE
  5
A4
102
{ACAD_REACTORS
330
99
102
}
330
99
100
AcDbScale
 70
     0
300
1:50
140
1.0
141
50.0
290
     0
  0
SCALE
  5
A5
102
{ACAD_REACTORS
330
99
102
}
330
99
100
AcDbScale
 70
     0
300
1:100
140
1.0
141
100.0
290
     0
  0
SCALE
  5
A6
102
{ACAD_REACTORS
330
99
102
}
330
99
100
AcDbScale
 70
     0
300
2:1
140
2.0
141
1.0
290
     0
  0
SCALE
  5
A7
102
{ACAD_REACTORS
330
99
102
}
330
99
100
AcDbScale
 70
     0
300
4:1
140
4.0
141
1.0
290
     0
  0
SCALE
  5
A8
102
{ACAD_REACTORS
330
99
102
}
330
99
100
AcDbScale
 70
     0
300
8:1
140
8.0
141
1.0
290
     0
  0
SCALE
  5
A9
102
{ACAD_REACTORS
330
99
102
}
330
99
100
AcDbScale
 70
     0
300
10:1
140
10.0
141
1.0
290
     0
  0
SCALE
  5
AA
102
{ACAD_REACTORS
330
99
102
}
330
99
100
AcDbScale
 70
     0
300
100:1
140
100.0
141
1.0
290
     0
  0
SCALE
  5
AB
102
{ACAD_REACTORS
330
99
102
}
330
99
100
AcDbScale
 70
     0
300
1/128" = 1'-0"
140
0.0078125
141
12.0
290
     0
  0
SCALE
  5
AC
102
{ACAD_REACTORS
330
99
102
}
330
99
100
AcDbScale
 70
     0
300
1/64" = 1'-0"
140
0.015625
141
12.0
290
     0
  0
SCALE
  5
AD
102
{ACAD_REACTORS
330
99
102
}
330
99
100
AcDbScale
 70
     0
300
1/32" = 1'-0"
140
0.03125
141
12.0
290
     0
  0
SCALE
  5
AE
102
{ACAD_REACTORS
330
99
102
}
330
99
100
AcDbScale
 70
     0
300
1/16" = 1'-0"
140
0.0625
141
12.0
290
     0
  0
SCALE
  5
AF
102
{ACAD_REACTORS
330
99
102
}
330
99
100
AcDbScale
 70
     0
300
3/32" = 1'-0"
140
0.09375
141
12.0
290
     0
  0
SCALE
  5
B0
102
{ACAD_REACTORS
330
99
102
}
330
99
100
AcDbScale
 70
     0
300
1/8" = 1'-0"
140
0.125
141
12.0
290
     0
  0
SCALE
  5
B1
102
{ACAD_REACTORS
330
99
102
}
330
99
100
AcDbScale
 70
     0
300
3/16" = 1'-0"
140
0.1875
141
12.0
290
     0
  0
SCALE
  5
B2
102
{ACAD_REACTORS
330
99
102
}
330
99
100
AcDbScale
 70
     0
300
1/4" = 1'-0"
140
0.25
141
12.0
290
     0
  0
SCALE
  5
B3
102
{ACAD_REACTORS
330
99
102
}
330
99
100
AcDbScale
 70
     0
300
3/8" = 1'-0"
140
0.375
141
12.0
290
     0
  0
SCALE
  5
B4
102
{ACAD_REACTORS
330
99
102
}
330
99
100
AcDbScale
 70
     0
300
1/2" = 1'-0"
140
0.5
141
12.0
290
     0
  0
SCALE
  5
B5
102
{ACAD_REACTORS
330
99
102
}
330
99
100
AcDbScale
 70
     0
300
3/4" = 1'-0"
140
0.75
141
12.0
290
     0
  0
SCALE
  5
B6
102
{ACAD_REACTORS
330
99
102
}
330
99
100
AcDbScale
 70
     0
300
1" = 1'-0"
140
1.0
141
12.0
290
     0
  0
SCALE
  5
B7
102
{ACAD_REACTORS
330
99
102
}
330
99
100
AcDbScale
 70
     0
300
1-1/2" = 1'-0"
140
1.5
141
12.0
290
     0
  0
SCALE
  5
B8
102
{ACAD_REACTORS
330
99
102
}
330
99
100
AcDbScale
 70
     0
300
3" = 1'-0"
140
3.0
141
12.0
290
     0
  0
SCALE
  5
B9
102
{ACAD_REACTORS
330
99
102
}
330
99
100
AcDbScale
 70
     0
300
6" = 1'-0"
140
6.0
141
12.0
290
     0
  0
SCALE
  5
BA
102
{ACAD_REACTORS
330
99
102
}
330
99
100
AcDbScale
 70
     0
300
1'-0" = 1'-0"
140
12.0
141
12.0
290
     0
  0
ACDBSECTIONVIEWSTYLE
  5
2F800
102
{ACAD_XDICTIONARY
360
2F85A
102
}
102
{ACAD_REACTORS
330
8E2
102
}
330
8E2
100
AcDbModelDocViewStyle
 70
     0
  3
Metric50
290
     0
100
AcDbSectionViewStyle
 70
     0
 71
     0
 90
      102
 71
     1
340
11
 40
5.0
340
0
340
0
 40
5.0
300
I, O, Q, S, X, Z
 40
10.0
 90
        0
 40
2.5
 90
        0
 71
     2
340
16
 90
       25
340
16
 90
       50
 40
5.0
 40
2.5
 40
5.0
 71
     3
340
11
 40
5.0
 90
        0
 40
15.0
 90
        1
300
%<\AcVar ViewSectionStartId>%-%<\AcVar ViewSectionEndId>% (%<\AcVar ViewScale \f "%sn">%)
 71
     4
300
ANSI31
 40
1.0
 90
        0
290
     0
290
     0
 90
        6
 40
0.0
 40
1.570796326794896
 40
0.2617993877991494
 40
1.308996938995747
 40
-0.2617993877991494
 40
1.832595714594046
  0
TABLESTYLE
  5
2F7FE
102
{ACAD_XDICTIONARY
360
2F817
102
}
102
{ACAD_REACTORS
330
92
102
}
330
92
100
AcDbTableStyle
  3
Standard
 70
     0
 71
     0
 40
1.5
 41
1.5
280
     0
281
     0
  7
Standard
140
4.5
170
     2
 62
     0
 63
     7
283
     0
274
    -2
284
     1
 64
     0
275
    -2
285
     1
 65
     0
276
    -2
286
     1
 66
     0
277
    -2
287
     1
 67
     0
278
    -2
288
     1
 68
     0
279
    -2
289
     1
 69
     0
  7
Standard
140
6.0
170
     5
 62
     0
 63
     7
283
     0
274
    -2
284
     1
 64
     0
275
    -2
285
     1
 65
     0
276
    -2
286
     1
 66
     0
277
    -2
287
     1
 67
     0
278
    -2
288
     1
 68
     0
279
    -2
289
     1
 69
     0
  7
Standard
140
4.5
170
     5
 62
     0
 63
     7
283
     0
274
    -2
284
     1
 64
     0
275
    -2
285
     1
 65
     0
276
    -2
286
     1
 66
     0
277
    -2
287
     1
 67
     0
278
    -2
288
     1
 68
     0
279
    -2
289
     1
 69
     0
  0
VISUALSTYLE
  5
2F7EB
102
{ACAD_XDICTIONARY
360
2F833
102
}
102
{ACAD_REACTORS
330
3F2
102
}
330
3F2
100
AcDbVisualStyle
  2
2dWireframe
 70
     4
 71
     0
 72
     2
 73
     0
 90
        0
 40
-0.6
 41
-30.0
 62
     5
 63
     7
 74
     1
 91
        4
 64
     7
 65
   257
 75
     1
175
     1
 42
1.0
 92
        0
 66
   257
 43
1.0
 76
     1
 77
     6
 78
     2
 67
     7
 79
     5
170
     0
171
     0
290
     0
174
     0
 93
        1
 44
0.0
173
     0
291
     0
 45
0.0
1001
ACAD
1000
AcDbSavedByObjectVersion
1070
     0
  0
VISUALSTYLE
  5
2F7EA
102
{ACAD_XDICTIONARY
360
2F831
102
}
102
{ACAD_REACTORS
330
3F2
102
}
330
3F2
100
AcDbVisualStyle
  2
Basic
 70
     7
 71
     1
 72
     0
 73
     1
 90
        0
 40
-0.6
 41
-30.0
 62
     5
 63
     7
 74
     0
 91
        4
 64
     7
 65
   257
 75
     1
175
     1
 42
1.0
 92
        8
 66
     7
 43
1.0
 76
     1
 77
     6
 78
     2
 67
     7
 79
     5
170
     0
171
     0
290
     0
174
     0
 93
        1
 44
0.0
173
     0
291
     1
 45
0.0
1001
ACAD
1000
AcDbSavedByObjectVersion
1070
     0
  0
VISUALSTYLE
  5
2F7F1
102
{ACAD_XDICTIONARY
360
2F83F
102
}
102
{ACAD_REACTORS
330
3F2
102
}
330
3F2
100
AcDbVisualStyle
  2
Brighten
 70
    12
 71
     2
 72
     2
 73
     0
 90
        0
 40
-0.6
 41
-30.0
 62
     5
 63
     7
 74
     1
 91
        4
 64
     7
 65
   257
 75
     1
175
     1
 42
1.0
 92
        8
 66
     7
 43
1.0
 76
     1
 77
     6
 78
     2
 67
     7
 79
     5
170
     0
171
     0
290
     0
174
     0
 93
        1
 44
50.0
173
     0
291
     1
 45
0.0
1001
ACAD
1000
AcDbSavedByObjectVersion
1070
     0
  0
VISUALSTYLE
  5
2F7F5
102
{ACAD_XDICTIONARY
360
2F847
102
}
102
{ACAD_REACTORS
330
3F2
102
}
330
3F2
100
AcDbVisualStyle
  2
ColorChange
 70
    16
 71
     2
 72
     2
 73
     3
 90
        0
 40
-0.6
 41
-30.0
 62
     5
 63
     8
 74
     1
 91
        4
 64
     7
 65
   257
 75
     1
175
     1
 42
1.0
 92
        8
 66
     8
 43
1.0
 76
     1
 77
     6
 78
     2
 67
     7
 79
     5
170
     0
171
     0
290
     0
174
     0
 93
        1
 44
0.0
173
     0
291
     1
 45
0.0
1001
ACAD
1000
AcDbSavedByObjectVersion
1070
     0
  0
VISUALSTYLE
  5
2F7EE
102
{ACAD_XDICTIONARY
360
2F839
102
}
102
{ACAD_REACTORS
330
3F2
102
}
330
3F2
100
AcDbVisualStyle
  2
Conceptual
 70
     9
 71
     3
 72
     2
 73
     0
 90
        0
 40
-0.6
 41
-30.0
 62
     5
 63
     7
 74
     2
 91
        2
 64
     7
 65
   257
 75
     1
175
     1
 42
179.0
 92
        8
 66
     7
 43
1.0
 76
     1
 77
     6
 78
     2
 67
     7
 79
     3
170
     0
171
     0
290
     0
174
     0
 93
        1
 44
0.0
173
     0
291
     0
 45
0.0
1001
ACAD
1000
AcDbSavedByObjectVersion
1070
     0
  0
VISUALSTYLE
  5
2F7F0
102
{ACAD_XDICTIONARY
360
2F83D
102
}
102
{ACAD_REACTORS
330
3F2
102
}
330
3F2
100
AcDbVisualStyle
  2
Dim
 70
    11
 71
     2
 72
     2
 73
     0
 90
        0
 40
-0.6
 41
-30.0
 62
     5
 63
     7
 74
     1
 91
        4
 64
     7
 65
   257
 75
     1
175
     1
 42
1.0
 92
        8
 66
     7
 43
1.0
 76
     1
 77
     6
 78
     2
 67
     7
 79
     5
170
     0
171
     0
290
     0
174
     0
 93
        1
 44
-50.0
173
     0
291
     1
 45
0.0
1001
ACAD
1000
AcDbSavedByObjectVersion
1070
     0
  0
VISUALSTYLE
  5
2F7FD
102
{ACAD_XDICTIONARY
360
2F857
102
}
102
{ACAD_REACTORS
330
3F2
102
}
330
3F2
100
AcDbVisualStyle
  2
EdgeColorOff
 70
    22
 71
     2
 72
     2
 73
     0
 90
        0
 40
-0.6
 41
-30.0
 62
     5
 63
     7
 74
     1
 91
        4
 64
     7
 65
   257
 75
     1
175
     1
 42
1.0
 92
        8
 66
     7
 43
1.0
 76
     1
 77
     6
 78
     2
 67
     7
 79
     5
170
     0
171
     0
290
     0
174
     0
 93
        1
 44
0.0
173
     0
291
     1
 45
0.0
1001
ACAD
1000
AcDbSavedByObjectVersion
1070
     0
  0
VISUALSTYLE
  5
2F7F4
102
{ACAD_XDICTIONARY
360
2F845
102
}
102
{ACAD_REACTORS
330
3F2
102
}
330
3F2
100
AcDbVisualStyle
  2
Facepattern
 70
    15
 71
     2
 72
     2
 73
     0
 90
        0
 40
-0.6
 41
-30.0
 62
     5
 63
     7
 74
     1
 91
        4
 64
     7
 65
   257
 75
     1
175
     1
 42
1.0
 92
        8
 66
     7
 43
1.0
 76
     1
 77
     6
 78
     2
 67
     7
 79
     5
170
     0
171
     0
290
     0
174
     0
 93
        1
 44
0.0
173
     0
291
     1
 45
0.0
1001
ACAD
1000
AcDbSavedByObjectVersion
1070
     0
  0
VISUALSTYLE
  5
2F7E6
102
{ACAD_XDICTIONARY
360
2F829
102
}
102
{ACAD_REACTORS
330
3F2
102
}
330
3F2
100
AcDbVisualStyle
  2
Flat
 70
     0
 71
     2
 72
     1
 73
     1
 90
        2
 40
-0.6
 41
30.0
 62
     5
 63
     7
 74
     0
 91
        0
 64
     7
 65
   257
 75
     1
175
     1
 42
1.0
 92
        8
 66
     7
 43
1.0
 76
     1
 77
     6
 78
     2
 67
     7
 79
     5
170
     0
171
     0
290
     0
174
     0
 93
       13
 44
0.0
173
     0
291
     1
 45
0.0
1001
ACAD
1000
AcDbSavedByObjectVersion
1070
     0
  0
VISUALSTYLE
  5
2F7E7
102
{ACAD_XDICTIONARY
360
2F82B
102
}
102
{ACAD_REACTORS
330
3F2
102
}
330
3F2
100
AcDbVisualStyle
  2
FlatWithEdges
 70
     1
 71
     2
 72
     1
 73
     1
 90
        2
 40
-0.6
 41
30.0
 62
     5
 63
     7
 74
     1
 91
        0
 64
     7
 65
   257
 75
     1
175
     1
 42
1.0
 92
        0
 66
   257
 43
1.0
 76
     1
 77
     6
 78
     2
 67
     7
 79
     5
170
     0
171
     0
290
     0
174
     0
 93
       13
 44
0.0
173
     0
291
     1
 45
0.0
1001
ACAD
1000
AcDbSavedByObjectVersion
1070
     0
  0
VISUALSTYLE
  5
2F7E8
102
{ACAD_XDICTIONARY
360
2F82D
102
}
102
{ACAD_REACTORS
330
3F2
102
}
330
3F2
100
AcDbVisualStyle
  2
Gouraud
 70
     2
 71
     2
 72
     2
 73
     1
 90
        2
 40
-0.6
 41
30.0
 62
     5
 63
     7
 74
     0
 91
        0
 64
     7
 65
   257
 75
     1
175
     1
 42
1.0
 92
        0
 66
     7
 43
1.0
 76
     1
 77
     6
 78
     2
 67
     7
 79
     5
170
     0
171
     0
290
     0
174
     0
 93
       13
 44
0.0
173
     0
291
     1
 45
0.0
1001
ACAD
1000
AcDbSavedByObjectVersion
1070
     0
  0
VISUALSTYLE
  5
2F7E9
102
{ACAD_XDICTIONARY
360
2F82F
102
}
102
{ACAD_REACTORS
330
3F2
102
}
330
3F2
100
AcDbVisualStyle
  2
GouraudWithEdges
 70
     3
 71
     2
 72
     2
 73
     1
 90
        2
 40
-0.6
 41
30.0
 62
     5
 63
     7
 74
     1
 91
        0
 64
     7
 65
   257
 75
     1
175
     1
 42
1.0
 92
        0
 66
   257
 43
1.0
 76
     1
 77
     6
 78
     2
 67
     7
 79
     5
170
     0
171
     0
290
     0
174
     0
 93
       13
 44
0.0
173
     0
291
     1
 45
0.0
1001
ACAD
1000
AcDbSavedByObjectVersion
1070
     0
  0
VISUALSTYLE
  5
2F7ED
102
{ACAD_XDICTIONARY
360
2F837
102
}
102
{ACAD_REACTORS
330
3F2
102
}
330
3F2
100
AcDbVisualStyle
  2
Hidden
 70
     6
 71
     1
 72
     2
 73
     2
 90
        0
 40
-0.6
 41
-30.0
 62
     5
 63
     7
 74
     2
 91
        2
 64
     7
 65
   257
 75
     2
175
     1
 42
40.0
 92
        0
 66
   257
 43
1.0
 76
     1
 77
     6
 78
     2
 67
     7
 79
     3
170
     0
171
     0
290
     0
174
     0
 93
        1
 44
0.0
173
     0
291
     0
 45
0.0
1001
ACAD
1000
AcDbSavedByObjectVersion
1070
     0
  0
VISUALSTYLE
  5
2F7FB
102
{ACAD_XDICTIONARY
360
2F853
102
}
102
{ACAD_REACTORS
330
3F2
102
}
330
3F2
100
AcDbVisualStyle
  2
JitterOff
 70
    20
 71
     2
 72
     2
 73
     0
 90
        0
 40
-0.6
 41
-30.0
 62
     5
 63
     7
 74
     1
 91
        4
 64
     7
 65
   257
 75
     1
175
     1
 42
1.0
 92
       10
 66
     7
 43
1.0
 76
     1
 77
     6
 78
     2
 67
     7
 79
     5
170
     0
171
     0
290
     0
174
     0
 93
        1
 44
0.0
173
     0
291
     1
 45
0.0
1001
ACAD
1000
AcDbSavedByObjectVersion
1070
     0
  0
VISUALSTYLE
  5
2F7F3
102
{ACAD_XDICTIONARY
360
2F843
102
}
102
{ACAD_REACTORS
330
3F2
102
}
330
3F2
100
AcDbVisualStyle
  2
Linepattern
 70
    14
 71
     2
 72
     2
 73
     0
 90
        0
 40
-0.6
 41
-30.0
 62
     5
 63
     7
 74
     1
 91
        4
 64
     7
 65
   257
 75
     7
175
     7
 42
1.0
 92
        8
 66
     7
 43
1.0
 76
     1
 77
     6
 78
     2
 67
     7
 79
     5
170
     0
171
     0
290
     0
174
     0
 93
        1
 44
0.0
173
     0
291
     1
 45
0.0
1001
ACAD
1000
AcDbSavedByObjectVersion
1070
     0
  0
VISUALSTYLE
  5
2F7FC
102
{ACAD_XDICTIONARY
360
2F855
102
}
102
{ACAD_REACTORS
330
3F2
102
}
330
3F2
100
AcDbVisualStyle
  2
OverhangOff
 70
    21
 71
     2
 72
     2
 73
     0
 90
        0
 40
-0.6
 41
-30.0
 62
     5
 63
     7
 74
     1
 91
        4
 64
     7
 65
   257
 75
     1
175
     1
 42
1.0
 92
        9
 66
     7
 43
1.0
 76
     1
 77
     6
 78
     2
 67
     7
 79
     5
170
     0
171
     0
290
     0
174
     0
 93
        1
 44
0.0
173
     0
291
     1
 45
0.0
1001
ACAD
1000
AcDbSavedByObjectVersion
1070
     0
  0
VISUALSTYLE
  5
2F7EF
102
{ACAD_XDICTIONARY
360
2F83B
102
}
102
{ACAD_REACTORS
330
3F2
102
}
330
3F2
100
AcDbVisualStyle
  2
Realistic
 70
     8
 71
     2
 72
     3
 73
     0
 90
        2
 40
-0.6
 41
30.0
 62
     5
 63
     7
 74
     0
 91
        0
 64
     7
 65
   257
 75
     1
175
     1
 42
1.0
 92
        8
 66
   257
 43
1.0
 76
     1
 77
     6
 78
     2
 67
     7
 79
     3
170
     0
171
     0
290
     0
174
     0
 93
       13
 44
0.0
173
     0
291
     0
 45
0.0
1001
ACAD
1000
AcDbSavedByObjectVersion
1070
     0
  0
VISUALSTYLE
  5
2F7FA
102
{ACAD_XDICTIONARY
360
2F851
102
}
102
{ACAD_REACTORS
330
3F2
102
}
330
3F2
100
AcDbVisualStyle
  2
Shaded
 70
    27
 71
     2
 72
     2
 73
     1
 90
        2
 40
-0.6
 41
30.0
 62
     5
 63
     7
 74
     0
 91
        4
 64
     7
 65
   257
 75
     1
175
     1
 42
1.0
 92
        8
 66
   257
 43
1.0
 76
     1
 77
     6
 78
     2
 67
     8
 79
     3
170
     0
171
     0
290
     0
174
     0
 93
        5
 44
0.0
173
     0
291
     0
 45
0.0
1001
ACAD
1000
AcDbSavedByObjectVersion
1070
     0
  0
VISUALSTYLE
  5
2F7F9
102
{ACAD_XDICTIONARY
360
2F84F
102
}
102
{ACAD_REACTORS
330
3F2
102
}
330
3F2
100
AcDbVisualStyle
  2
Shaded with edges
 70
    26
 71
     2
 72
     2
 73
     1
 90
        2
 40
-0.6
 41
30.0
 62
     5
 63
     7
 74
     1
 91
       10
 64
     7
 65
   257
 75
     2
175
     1
 42
1.0
 92
        8
 66
   257
 43
1.0
 76
     1
 77
     6
 78
     2
 67
     7
 79
     3
170
     0
171
     0
290
     0
174
     0
 93
        5
 44
0.0
173
     0
291
     0
 45
0.0
1001
ACAD
1000
AcDbSavedByObjectVersion
1070
     0
  0
VISUALSTYLE
  5
2F7F6
102
{ACAD_XDICTIONARY
360
2F849
102
}
102
{ACAD_REACTORS
330
3F2
102
}
330
3F2
100
AcDbVisualStyle
  2
Shades of Gray
 70
    23
 71
     2
 72
     2
 73
     3
 90
        0
 40
-0.6
 41
-30.0
 62
     5
 63
     7
 74
     2
 91
        2
 64
     7
 65
     7
 75
     1
175
     1
 42
40.0
 92
        8
 66
     7
 43
1.0
 76
     1
 77
     6
 78
     2
 67
     7
 79
     3
170
     0
171
     0
290
     0
174
     0
 93
        1
 44
0.0
173
     0
291
     0
 45
0.0
1001
ACAD
1000
AcDbSavedByObjectVersion
1070
     0
  0
VISUALSTYLE
  5
2F7F7
102
{ACAD_XDICTIONARY
360
2F84B
102
}
102
{ACAD_REACTORS
330
3F2
102
}
330
3F2
100
AcDbVisualStyle
  2
Sketchy
 70
    24
 71
     1
 72
     2
 73
     2
 90
        0
 40
-0.6
 41
-30.0
 62
     5
 63
     7
 74
     2
 91
        2
 64
     7
 65
     7
 75
     1
175
     1
 42
40.0
 92
       11
 66
     7
 43
1.0
 76
     1
 77
     6
 78
     2
 67
     7
 79
     6
170
     0
171
     0
290
     0
174
     0
 93
        1
 44
0.0
173
     0
291
     0
 45
0.0
1001
ACAD
1000
AcDbSavedByObjectVersion
1070
     0
  0
VISUALSTYLE
  5
2F7F2
102
{ACAD_XDICTIONARY
360
2F841
102
}
102
{ACAD_REACTORS
330
3F2
102
}
330
3F2
100
AcDbVisualStyle
  2
Thicken
 70
    13
 71
     2
 72
     2
 73
     0
 90
        0
 40
-0.6
 41
-30.0
 62
     5
 63
     7
 74
     1
 91
        4
 64
     7
 65
   257
 75
     1
175
     1
 42
1.0
 92
       12
 66
     7
 43
1.0
 76
     1
 77
     6
 78
     2
 67
     7
 79
     5
170
     0
171
     0
290
     0
174
     0
 93
        1
 44
0.0
173
     0
291
     1
 45
0.0
1001
ACAD
1000
AcDbSavedByObjectVersion
1070
     0
  0
VISUALSTYLE
  5
2F7EC
102
{ACAD_XDICTIONARY
360
2F835
102
}
102
{ACAD_REACTORS
330
3F2
102
}
330
3F2
100
AcDbVisualStyle
  2
Wireframe
 70
     5
 71
     0
 72
     2
 73
     0
 90
        0
 40
-0.6
 41
-30.0
 62
     5
 63
     7
 74
     1
 91
        4
 64
     7
 65
   257
 75
     1
175
     1
 42
1.0
 92
        0
 66
   257
 43
1.0
 76
     1
 77
     6
 78
     2
 67
     7
 79
     3
170
     0
171
     0
290
     0
174
     0
 93
        1
 44
0.0
173
     0
291
     0
 45
0.0
1001
ACAD
1000
AcDbSavedByObjectVersion
1070
     0
  0
VISUALSTYLE
  5
2F7F8
102
{ACAD_XDICTIONARY
360
2F84D
102
}
102
{ACAD_REACTORS
330
3F2
102
}
330
3F2
100
AcDbVisualStyle
  2
X-Ray
 70
    25
 71
     2
 72
     2
 73
     1
 90
        1
 40
0.5
 41
-30.0
 62
     5
 63
     7
 74
     1
 91
        0
 64
     7
 65
   257
 75
     1
175
     1
 42
1.0
 92
        8
 66
     7
 43
1.0
 76
     1
 77
     6
 78
     2
 67
     7
 79
     3
170
     0
171
     0
290
     0
174
     0
 93
       13
 44
0.0
173
     0
291
     0
 45
0.0
1001
ACAD
1000
AcDbSavedByObjectVersion
1070
     0
  0
XRECORD
  5
2F7C6
102
{ACAD_REACTORS
330
2F7C5
102
}
330
2F7C5
100
AcDbXrecord
280
     1
340
6C
  0
XRECORD
  5
2F7C7
102
{ACAD_REACTORS
330
2F7C5
102
}
330
2F7C5
100
AcDbXrecord
280
     1
340
6B
  0
DICTIONARYVAR
  5
2F7C4
102
{ACAD_REACTORS
330
59
102
}
330
59
100
DictionaryVariables
280
     0
  1
1:1
  0
DICTIONARYVAR
  5
447
102
{ACAD_REACTORS
330
59
102
}
330
59
100
DictionaryVariables
280
     0
  1
STANDARD
  0
DICTIONARYVAR
  5
38E
102
{ACAD_REACTORS
330
59
102
}
330
59
100
DictionaryVariables
280
     0
  1
STANDARD
  0
DICTIONARYVAR
  5
8FB
102
{ACAD_REACTORS
330
59
102
}
330
59
100
DictionaryVariables
280
     0
  1
Metric50
  0
DICTIONARYVAR
  5
8FC
102
{ACAD_REACTORS
330
59
102
}
330
59
100
DictionaryVariables
280
     0
  1
Metric50
  0
DICTIONARYVAR
  5
359
102
{ACAD_REACTORS
330
59
102
}
330
59
100
DictionaryVariables
280
     0
  1
2
  0
DICTIONARYVAR
  5
AF7
102
{ACAD_REACTORS
330
59
102
}
330
59
100
DictionaryVariables
280
     0
  1
0
  0
DICTIONARYVAR
  5
358
102
{ACAD_REACTORS
330
59
102
}
330
59
100
DictionaryVariables
280
     0
  1
1
  0
DICTIONARYVAR
  5
9BE
102
{ACAD_REACTORS
330
59
102
}
330
59
100
DictionaryVariables
280
     0
  1
0
  0
DICTIONARYVAR
  5
7AE
102
{ACAD_REACTORS
330
59
102
}
330
59
100
DictionaryVariables
280
     0
  1
1
  0
DICTIONARYVAR
  5
7AF
102
{ACAD_REACTORS
330
59
102
}
330
59
100
DictionaryVariables
280
     0
  1
15
  0
DICTIONARYVAR
  5
44A
102
{ACAD_REACTORS
330
59
102
}
330
59
100
DictionaryVariables
280
     0
  1
0
  0
DICTIONARYVAR
  5
448
102
{ACAD_REACTORS
330
59
102
}
330
59
100
DictionaryVariables
280
     0
  1
1
  0
DICTIONARYVAR
  5
9BD
102
{ACAD_REACTORS
330
59
102
}
330
59
100
DictionaryVariables
280
     0
  1
127
  0
DICTIONARYVAR
  5
2F816
102
{ACAD_REACTORS
330
59
102
}
330
59
100
DictionaryVariables
280
     0
  1
2
  0
DICTIONARY
  5
76F
102
{ACAD_REACTORS
330
76D
102
}
330
76D
100
AcDbDictionary
281
     1
  0
DICTIONARY
  5
744
102
{ACAD_REACTORS
330
743
102
}
330
743
100
AcDbDictionary
281
     1
  0
XRECORD
  5
8C7
102
{ACAD_REACTORS
330
8C6
102
}
330
8C6
100
AcDbXrecord
280
     1
  0
DICTIONARY
  5
2F85C
330
2F801
100
AcDbDictionary
280
     1
281
     1
  3
ACAD_XREC_ROUNDTRIP
360
2F85D
  0
DICTIONARY
  5
2F822
330
74
100
AcDbDictionary
280
     1
281
     1
  3
ACAD_XREC_ROUNDTRIP
360
2F823
  0
DICTIONARY
  5
2F820
330
22
100
AcDbDictionary
280
     1
281
     1
  3
ACAD_XREC_ROUNDTRIP
360
2F821
  0
DICTIONARY
  5
2F7D7
330
2F7D6
100
AcDbDictionary
280
     1
281
     1
  3
ACAD_XREC_ROUNDTRIP
360
2F827
  3
BUMPTILE
360
2F7D9
  3
DIFFUSETILE
360
2F7D8
  3
OPACITYTILE
360
2F7DC
  3
REFLECTIONTILE
360
2F7DB
  3
REFRACTIONTILE
360
2F7DD
  3
SPECULARTILE
360
2F7DA
  0
DICTIONARY
  5
2F7CF
330
2F7CE
100
AcDbDictionary
280
     1
281
     1
  3
ACAD_XREC_ROUNDTRIP
360
2F826
  3
BUMPTILE
360
2F7D1
  3
DIFFUSETILE
360
2F7D0
  3
OPACITYTILE
360
2F7D4
  3
REFLECTIONTILE
360
2F7D3
  3
REFRACTIONTILE
360
2F7D5
  3
SPECULARTILE
360
2F7D2
  0
DICTIONARY
  5
2F7DF
330
2F7DE
100
AcDbDictionary
280
     1
281
     1
  3
ACAD_XREC_ROUNDTRIP
360
2F828
  3
BUMPTILE
360
2F7E1
  3
DIFFUSETILE
360
2F7E0
  3
OPACITYTILE
360
2F7E4
  3
REFLECTIONTILE
360
2F7E3
  3
REFRACTIONTILE
360
2F7E5
  3
SPECULARTILE
360
2F7E2
  0
DICTIONARY
  5
2F85A
330
2F800
100
AcDbDictionary
280
     1
281
     1
  3
ACAD_XREC_ROUNDTRIP
360
2F85B
  0
DICTIONARY
  5
2F817
330
2F7FE
100
AcDbDictionary
280
     1
281
     1
  3
ACAD_ROUNDTRIP_2008_TABLESTYLE_CELLSTYLEMAP
360
2F818
  3
ACAD_XREC_ROUNDTRIP
360
2F859
  0
DICTIONARY
  5
2F833
330
2F7EB
100
AcDbDictionary
280
     1
281
     1
  3
ACAD_XREC_ROUNDTRIP
360
2F834
  0
DICTIONARY
  5
2F831
330
2F7EA
100
AcDbDictionary
280
     1
281
     1
  3
ACAD_XREC_ROUNDTRIP
360
2F832
  0
DICTIONARY
  5
2F83F
330
2F7F1
100
AcDbDictionary
280
     1
281
     1
  3
ACAD_XREC_ROUNDTRIP
360
2F840
  0
DICTIONARY
  5
2F847
330
2F7F5
100
AcDbDictionary
280
     1
281
     1
  3
ACAD_XREC_ROUNDTRIP
360
2F848
  0
DICTIONARY
  5
2F839
330
2F7EE
100
AcDbDictionary
280
     1
281
     1
  3
ACAD_XREC_ROUNDTRIP
360
2F83A
  0
DICTIONARY
  5
2F83D
330
2F7F0
100
AcDbDictionary
280
     1
281
     1
  3
ACAD_XREC_ROUNDTRIP
360
2F83E
  0
DICTIONARY
  5
2F857
330
2F7FD
100
AcDbDictionary
280
     1
281
     1
  3
ACAD_XREC_ROUNDTRIP
360
2F858
  0
DICTIONARY
  5
2F845
330
2F7F4
100
AcDbDictionary
280
     1
281
     1
  3
ACAD_XREC_ROUNDTRIP
360
2F846
  0
DICTIONARY
  5
2F829
330
2F7E6
100
AcDbDictionary
280
     1
281
     1
  3
ACAD_XREC_ROUNDTRIP
360
2F82A
  0
DICTIONARY
  5
2F82B
330
2F7E7
100
AcDbDictionary
280
     1
281
     1
  3
ACAD_XREC_ROUNDTRIP
360
2F82C
  0
DICTIONARY
  5
2F82D
330
2F7E8
100
AcDbDictionary
280
     1
281
     1
  3
ACAD_XREC_ROUNDTRIP
360
2F82E
  0
DICTIONARY
  5
2F82F
330
2F7E9
100
AcDbDictionary
280
     1
281
     1
  3
ACAD_XREC_ROUNDTRIP
360
2F830
  0
DICTIONARY
  5
2F837
330
2F7ED
100
AcDbDictionary
280
     1
281
     1
  3
ACAD_XREC_ROUNDTRIP
360
2F838
  0
DICTIONARY
  5
2F853
330
2F7FB
100
AcDbDictionary
280
     1
281
     1
  3
ACAD_XREC_ROUNDTRIP
360
2F854
  0
DICTIONARY
  5
2F843
330
2F7F3
100
AcDbDictionary
280
     1
281
     1
  3
ACAD_XREC_ROUNDTRIP
360
2F844
  0
DICTIONARY
  5
2F855
330
2F7FC
100
AcDbDictionary
280
     1
281
     1
  3
ACAD_XREC_ROUNDTRIP
360
2F856
  0
DICTIONARY
  5
2F83B
330
2F7EF
100
AcDbDictionary
280
     1
281
     1
  3
ACAD_XREC_ROUNDTRIP
360
2F83C
  0
DICTIONARY
  5
2F851
330
2F7FA
100
AcDbDictionary
280
     1
281
     1
  3
ACAD_XREC_ROUNDTRIP
360
2F852
  0
DICTIONARY
  5
2F84F
330
2F7F9
100
AcDbDictionary
280
     1
281
     1
  3
ACAD_XREC_ROUNDTRIP
360
2F850
  0
DICTIONARY
  5
2F849
330
2F7F6
100
AcDbDictionary
280
     1
281
     1
  3
ACAD_XREC_ROUNDTRIP
360
2F84A
  0
DICTIONARY
  5
2F84B
330
2F7F7
100
AcDbDictionary
280
     1
281
     1
  3
ACAD_XREC_ROUNDTRIP
360
2F84C
  0
DICTIONARY
  5
2F841
330
2F7F2
100
AcDbDictionary
280
     1
281
     1
  3
ACAD_XREC_ROUNDTRIP
360
2F842
  0
DICTIONARY
  5
2F835
330
2F7EC
100
AcDbDictionary
280
     1
281
     1
  3
ACAD_XREC_ROUNDTRIP
360
2F836
  0
DICTIONARY
  5
2F84D
330
2F7F8
100
AcDbDictionary
280
     1
281
     1
  3
ACAD_XREC_ROUNDTRIP
360
2F84E
  0
XRECORD
  5
2F85D
102
{ACAD_REACTORS
330
2F85C
102
}
330
2F85C
100
AcDbXrecord
280
     1
102
DISPLAYNAME
  1
Metric50
102
FLAGS
 90
        0
  0
XRECORD
  5
2F823
102
{ACAD_REACTORS
330
2F822
102
}
330
2F822
100
AcDbXrecord
280
     1
102
SHADEPLOT
 70
     0
102
SHADEPLOTRESLEVEL
 70
     2
102
SHADEPLOTCUSTOMDPI
 70
   300
  0
XRECORD
  5
2F821
102
{ACAD_REACTORS
330
2F820
102
}
330
2F820
100
AcDbXrecord
280
     1
102
SHADEPLOT
 70
     0
102
SHADEPLOTRESLEVEL
 70
     4
102
SHADEPLOTCUSTOMDPI
 70
   300
  0
XRECORD
  5
2F827
102
{ACAD_REACTORS
330
2F7D7
102
}
330
2F7D7
100
AcDbXrecord
280
     1
102
MATERIAL
148
0.0
149
0.0
149
0.0
 93
        0
 94
      127
282
     0
 72
     0
 77
     0
171
     0
175
     0
179
     0
273
     0
  0
XRECORD
  5
2F7D9
102
{ACAD_REACTORS
330
2F7D7
102
}
330
2F7D7
100
AcDbXrecord
280
     1
270
     1
271
     1
  0
XRECORD
  5
2F7D8
102
{ACAD_REACTORS
330
2F7D7
102
}
330
2F7D7
100
AcDbXrecord
280
     1
270
     1
271
     1
  0
XRECORD
  5
2F7DC
102
{ACAD_REACTORS
330
2F7D7
102
}
330
2F7D7
100
AcDbXrecord
280
     1
270
     1
271
     1
  0
XRECORD
  5
2F7DB
102
{ACAD_REACTORS
330
2F7D7
102
}
330
2F7D7
100
AcDbXrecord
280
     1
270
     1
271
     1
  0
XRECORD
  5
2F7DD
102
{ACAD_REACTORS
330
2F7D7
102
}
330
2F7D7
100
AcDbXrecord
280
     1
270
     1
271
     1
  0
XRECORD
  5
2F7DA
102
{ACAD_REACTORS
330
2F7D7
102
}
330
2F7D7
100
AcDbXrecord
280
     1
270
     1
271
     1
  0
XRECORD
  5
2F826
102
{ACAD_REACTORS
330
2F7CF
102
}
330
2F7CF
100
AcDbXrecord
280
     1
102
MATERIAL
148
0.0
149
0.0
149
0.0
 93
        0
 94
      127
282
     0
 72
     0
 77
     0
171
     0
175
     0
179
     0
273
     0
  0
XRECORD
  5
2F7D1
102
{ACAD_REACTORS
330
2F7CF
102
}
330
2F7CF
100
AcDbXrecord
280
     1
270
     1
271
     1
  0
XRECORD
  5
2F7D0
102
{ACAD_REACTORS
330
2F7CF
102
}
330
2F7CF
100
AcDbXrecord
280
     1
270
     1
271
     1
  0
XRECORD
  5
2F7D4
102
{ACAD_REACTORS
330
2F7CF
102
}
330
2F7CF
100
AcDbXrecord
280
     1
270
     1
271
     1
  0
XRECORD
  5
2F7D3
102
{ACAD_REACTORS
330
2F7CF
102
}
330
2F7CF
100
AcDbXrecord
280
     1
270
     1
271
     1
  0
XRECORD
  5
2F7D5
102
{ACAD_REACTORS
330
2F7CF
102
}
330
2F7CF
100
AcDbXrecord
280
     1
270
     1
271
     1
  0
XRECORD
  5
2F7D2
102
{ACAD_REACTORS
330
2F7CF
102
}
330
2F7CF
100
AcDbXrecord
280
     1
270
     1
271
     1
  0
XRECORD
  5
2F828
102
{ACAD_REACTORS
330
2F7DF
102
}
330
2F7DF
100
AcDbXrecord
280
     1
102
MATERIAL
148
0.0
149
0.0
149
0.0
 93
        0
 94
      127
282
     0
 72
     0
 77
     0
171
     0
175
     0
179
     0
273
     0
  0
XRECORD
  5
2F7E1
102
{ACAD_REACTORS
330
2F7DF
102
}
330
2F7DF
100
AcDbXrecord
280
     1
270
     1
271
     1
  0
XRECORD
  5
2F7E0
102
{ACAD_REACTORS
330
2F7DF
102
}
330
2F7DF
100
AcDbXrecord
280
     1
270
     1
271
     1
  0
XRECORD
  5
2F7E4
102
{ACAD_REACTORS
330
2F7DF
102
}
330
2F7DF
100
AcDbXrecord
280
     1
270
     1
271
     1
  0
XRECORD
  5
2F7E3
102
{ACAD_REACTORS
330
2F7DF
102
}
330
2F7DF
100
AcDbXrecord
280
     1
270
     1
271
     1
  0
XRECORD
  5
2F7E5
102
{ACAD_REACTORS
330
2F7DF
102
}
330
2F7DF
100
AcDbXrecord
280
     1
270
     1
271
     1
  0
XRECORD
  5
2F7E2
102
{ACAD_REACTORS
330
2F7DF
102
}
330
2F7DF
100
AcDbXrecord
280
     1
270
     1
271
     1
  0
XRECORD
  5
2F85B
102
{ACAD_REACTORS
330
2F85A
102
}
330
2F85A
100
AcDbXrecord
280
     1
102
DISPLAYNAME
  1
Metric50
102
FLAGS
 90
        0
  0
CELLSTYLEMAP
  5
2F818
102
{ACAD_REACTORS
330
2F817
102
}
330
2F817
100
AcDbCellStyleMap
 90
        3
300
CELLSTYLE
  1
TABLEFORMAT_BEGIN
 90
        5
170
     1
 91
        0
 92
    32768
 62
   257
 93
        1
300
CONTENTFORMAT
  1
CONTENTFORMAT_BEGIN
 90
        0
 91
        0
 92
      512
 93
        0
300

 40
0.0
140
1.0
 94
        5
 62
     0
340
11
144
6.0
309
CONTENTFORMAT_END
171
     1
301
MARGIN
  1
CELLMARGIN_BEGIN
 40
1.5
 40
1.5
 40
1.5
 40
1.5
 40
4.5
 40
4.5
309
CELLMARGIN_END
 94
        6
 95
        1
302
GRIDFORMAT
  1
GRIDFORMAT_BEGIN
 90
        0
 91
        1
 62
     0
 92
       -2
340
0
 93
        0
 40
1.125
309
GRIDFORMAT_END
 95
        2
302
GRIDFORMAT
  1
GRIDFORMAT_BEGIN
 90
        0
 91
        1
 62
     0
 92
       -2
340
0
 93
        0
 40
1.125
309
GRIDFORMAT_END
 95
        4
302
GRIDFORMAT
  1
GRIDFORMAT_BEGIN
 90
        0
 91
        1
 62
     0
 92
       -2
340
0
 93
        0
 40
1.125
309
GRIDFORMAT_END
 95
        8
302
GRIDFORMAT
  1
GRIDFORMAT_BEGIN
 90
        0
 91
        1
 62
     0
 92
       -2
340
0
 93
        0
 40
1.125
309
GRIDFORMAT_END
 95
       16
302
GRIDFORMAT
  1
GRIDFORMAT_BEGIN
 90
        0
 91
        1
 62
     0
 92
       -2
340
0
 93
        0
 40
1.125
309
GRIDFORMAT_END
 95
       32
302
GRIDFORMAT
  1
GRIDFORMAT_BEGIN
 90
        0
 91
        1
 62
     0
 92
       -2
340
0
 93
        0
 40
1.125
309
GRIDFORMAT_END
309
TABLEFORMAT_END
  1
CELLSTYLE_BEGIN
 90
        1
 91
        1
300
_TITLE
309
CELLSTYLE_END
300
CELLSTYLE
  1
TABLEFORMAT_BEGIN
 90
        5
170
     1
 91
        0
 92
        0
 62
   257
 93
        1
300
CONTENTFORMAT
  1
CONTENTFORMAT_BEGIN
 90
        0
 91
        0
 92
      512
 93
        0
300

 40
0.0
140
1.0
 94
        5
 62
     0
340
11
144
4.5
309
CONTENTFORMAT_END
171
     1
301
MARGIN
  1
CELLMARGIN_BEGIN
 40
1.5
 40
1.5
 40
1.5
 40
1.5
 40
4.5
 40
4.5
309
CELLMARGIN_END
 94
        6
 95
        1
302
GRIDFORMAT
  1
GRIDFORMAT_BEGIN
 90
        0
 91
        1
 62
     0
 92
       -2
340
0
 93
        0
 40
1.125
309
GRIDFORMAT_END
 95
        2
302
GRIDFORMAT
  1
GRIDFORMAT_BEGIN
 90
        0
 91
        1
 62
     0
 92
       -2
340
0
 93
        0
 40
1.125
309
GRIDFORMAT_END
 95
        4
302
GRIDFORMAT
  1
GRIDFORMAT_BEGIN
 90
        0
 91
        1
 62
     0
 92
       -2
340
0
 93
        0
 40
1.125
309
GRIDFORMAT_END
 95
        8
302
GRIDFORMAT
  1
GRIDFORMAT_BEGIN
 90
        0
 91
        1
 62
     0
 92
       -2
340
0
 93
        0
 40
1.125
309
GRIDFORMAT_END
 95
       16
302
GRIDFORMAT
  1
GRIDFORMAT_BEGIN
 90
        0
 91
        1
 62
     0
 92
       -2
340
0
 93
        0
 40
1.125
309
GRIDFORMAT_END
 95
       32
302
GRIDFORMAT
  1
GRIDFORMAT_BEGIN
 90
        0
 91
        1
 62
     0
 92
       -2
340
0
 93
        0
 40
1.125
309
GRIDFORMAT_END
309
TABLEFORMAT_END
  1
CELLSTYLE_BEGIN
 90
        2
 91
        1
300
_HEADER
309
CELLSTYLE_END
300
CELLSTYLE
  1
TABLEFORMAT_BEGIN
 90
        5
170
     1
 91
        0
 92
        0
 62
   257
 93
        1
300
CONTENTFORMAT
  1
CONTENTFORMAT_BEGIN
 90
        0
 91
        0
 92
      512
 93
        0
300

 40
0.0
140
1.0
 94
        2
 62
     0
340
11
144
4.5
309
CONTENTFORMAT_END
171
     1
301
MARGIN
  1
CELLMARGIN_BEGIN
 40
1.5
 40
1.5
 40
1.5
 40
1.5
 40
4.5
 40
4.5
309
CELLMARGIN_END
 94
        6
 95
        1
302
GRIDFORMAT
  1
GRIDFORMAT_BEGIN
 90
        0
 91
        1
 62
     0
 92
       -2
340
0
 93
        0
 40
1.125
309
GRIDFORMAT_END
 95
        2
302
GRIDFORMAT
  1
GRIDFORMAT_BEGIN
 90
        0
 91
        1
 62
     0
 92
       -2
340
0
 93
        0
 40
1.125
309
GRIDFORMAT_END
 95
        4
302
GRIDFORMAT
  1
GRIDFORMAT_BEGIN
 90
        0
 91
        1
 62
     0
 92
       -2
340
0
 93
        0
 40
1.125
309
GRIDFORMAT_END
 95
        8
302
GRIDFORMAT
  1
GRIDFORMAT_BEGIN
 90
        0
 91
        1
 62
     0
 92
       -2
340
0
 93
        0
 40
1.125
309
GRIDFORMAT_END
 95
       16
302
GRIDFORMAT
  1
GRIDFORMAT_BEGIN
 90
        0
 91
        1
 62
     0
 92
       -2
340
0
 93
        0
 40
1.125
309
GRIDFORMAT_END
 95
       32
302
GRIDFORMAT
  1
GRIDFORMAT_BEGIN
 90
        0
 91
        1
 62
     0
 92
       -2
340
0
 93
        0
 40
1.125
309
GRIDFORMAT_END
309
TABLEFORMAT_END
  1
CELLSTYLE_BEGIN
 90
        3
 91
        2
300
_DATA
309
CELLSTYLE_END
  0
XRECORD
  5
2F859
102
{ACAD_REACTORS
330
2F817
102
}
330
2F817
100
AcDbXrecord
280
     1
102
ACAD_ROUNDTRIP_PRE2007_TABLESTYLE
 90
      512
 91
        0
  1

 92
      512
 93
        0
  2

 94
      512
 95
        0
  3

  0
XRECORD
  5
2F834
102
{ACAD_REACTORS
330
2F833
102
}
330
2F833
100
AcDbXrecord
280
     1
102
RTVSPost2010Prop28
280
     1
102
RTVSPost2010PropOp28
 70
     1
102
RTVSPost2010Prop29
280
     1
102
RTVSPost2010PropOp29
 70
     1
102
RTVSPost2010Prop30
280
     0
102
RTVSPost2010PropOp30
 70
     1
102
RTVSPost2010Prop31
280
     0
102
RTVSPost2010PropOp31
 70
     1
102
RTVSPost2010Prop32
280
     0
102
RTVSPost2010PropOp32
 70
     1
102
RTVSPost2010Prop33
280
     0
102
RTVSPost2010PropOp33
 70
     1
102
RTVSPost2010Prop34
280
     0
102
RTVSPost2010PropOp34
 70
     1
102
RTVSPost2010Prop35
280
     0
102
RTVSPost2010PropOp35
 70
     1
102
RTVSPost2010Prop36
280
     0
102
RTVSPost2010PropOp36
 70
     1
102
RTVSPost2010Prop37
 90
       50
102
RTVSPost2010PropOp37
 70
     1
102
RTVSPost2010Prop38
140
0.0
102
RTVSPost2010PropOp38
 70
     1
102
RTVSPost2010Prop39
140
1.0
102
RTVSPost2010PropOp39
 70
     1
102
RTVSPost2010Prop40
 90
        0
102
RTVSPost2010PropOp40
 70
     1
102
RTVSPost2010Prop41ColorIndex
 90
       18
102
RTVSPost2010Prop41ColorRGB
 90
        0
102
RTVSPost2010PropOp41
 70
     1
102
RTVSPost2010Prop42
 90
       50
102
RTVSPost2010PropOp42
 70
     1
102
RTVSPost2010Prop43
 90
        3
102
RTVSPost2010PropOp43
 70
     1
102
RTVSPost2010Prop44ColorIndex
 90
        5
102
RTVSPost2010Prop44ColorRGB
 90
      255
102
RTVSPost2010PropOp44
 70
     1
102
RTVSPost2010Prop45
280
     0
102
RTVSPost2010PropOp45
 70
     1
102
RTVSPost2010Prop46
 90
       50
102
RTVSPost2010PropOp46
 70
     1
102
RTVSPost2010Prop47
 90
       50
102
RTVSPost2010PropOp47
 70
     1
102
RTVSPost2010Prop48
 90
       50
102
RTVSPost2010PropOp48
 70
     1
102
RTVSPost2010Prop49
280
     0
102
RTVSPost2010PropOp49
 70
     1
102
RTVSPost2010Prop50
 90
       50
102
RTVSPost2010PropOp50
 70
     1
102
RTVSPost2010Prop51ColorIndex
 90
      256
102
RTVSPost2010Prop51ColorRGB
 90
-16777216
102
RTVSPost2010PropOp51
 70
     0
102
RTVSPost2010Prop52
140
1.0
102
RTVSPost2010PropOp52
 70
     0
102
RTVSPost2010Prop53
 90
        2
102
RTVSPost2010PropOp53
 70
     1
102
RTVSPost2010Prop54
  1
strokes_ogs.tif
102
RTVSPost2010PropOp54
 70
     1
102
RTVSPost2010Prop55
280
     0
102
RTVSPost2010PropOp55
 70
     1
102
RTVSPost2010Prop56
140
1.0
102
RTVSPost2010PropOp56
 70
     1
102
RTVSPost2010Prop57
140
1.0
102
RTVSPost2010PropOp57
 70
     1
102
RTVSPropertyOp0
 70
     1
102
RTVSPropertyOp1
 70
     1
102
RTVSPropertyOp2
 70
     1
102
RTVSPropertyOp3
 70
     1
102
RTVSPropertyOp4
 70
     1
102
RTVSPropertyOp5
 70
     1
102
RTVSPropertyOp6
 70
     1
102
RTVSPropertyOp7
 70
     1
102
RTVSPropertyOp8
 70
     1
102
RTVSPropertyOp9
 70
     1
102
RTVSPropertyOp10
 70
     1
102
RTVSPropertyOp11
 70
     1
102
RTVSPropertyOp12
 70
     1
102
RTVSPropertyOp13
 70
     1
102
RTVSPropertyOp14
 70
     1
102
RTVSPropertyOp15
 70
     1
102
RTVSPropertyOp16
 70
     1
102
RTVSPropertyOp17
 70
     1
102
RTVSPropertyOp18
 70
     1
102
RTVSPropertyOp19
 70
     1
102
RTVSPropertyOp20
 70
     1
102
RTVSPropertyOp21
 70
     1
102
RTVSPropertyOp22
 70
     1
102
RTVSPropertyOp23
 70
     1
102
RTVSPropertyOp24
 70
     1
102
RTVSPropertyOp25
 70
     1
102
RTVSPropertyOp26
 70
     1
102
RTVSPropertyOp27
 70
     1
102
RTVSPropertyOp28
 70
     1
102
RTVSPropertyOp29
 70
     1
102
RTVSPropertyOp30
 70
     1
102
RTVSPropertyOp31
 70
     1
102
RTVSPropertyOp32
 70
     1
102
RTVSPropertyOp33
 70
     1
102
RTVSPropertyOp34
 70
     1
102
RTVSPropertyOp35
 70
     1
102
RTVSPropertyOp36
 70
     1
102
RTVSPropertyOp37
 70
     1
102
RTVSPropertyOp38
 70
     1
102
RTVSPropertyOp39
 70
     1
102
RTVSPropertyOp40
 70
     1
102
RTVSPropertyOp41
 70
     1
102
RTVSPropertyOp42
 70
     1
102
RTVSPropertyOp43
 70
     1
102
RTVSPropertyOp44
 70
     1
102
RTVSPropertyOp45
 70
     1
102
RTVSPropertyOp46
 70
     1
102
RTVSPropertyOp47
 70
     1
102
RTVSPropertyOp48
 70
     1
102
RTVSPropertyOp49
 70
     1
102
RTVSPropertyOp50
 70
     1
102
RTVSPropertyOp51
 70
     0
102
RTVSPropertyOp52
 70
     0
102
RTVSPropertyOp53
 70
     1
102
RTVSPropertyOp54
 70
     1
102
RTVSPropertyOp55
 70
     1
102
RTVSPropertyOp56
 70
     1
102
RTVSPropertyOp57
 70
     1
102
RTVSPropertyOp58
 70
     1
102
RTVSPropertyOp59
 70
     1
102
RTVSPropertyOp60
 70
     1
102
RTVSPropertyOp61
 70
     1
102
RTVSPropertyOp62
 70
     1
  0
XRECORD
  5
2F832
102
{ACAD_REACTORS
330
2F831
102
}
330
2F831
100
AcDbXrecord
280
     1
102
RTVSPost2010Prop28
280
     0
102
RTVSPost2010PropOp28
 70
     1
102
RTVSPost2010Prop29
280
     1
102
RTVSPost2010PropOp29
 70
     1
102
RTVSPost2010Prop30
280
     1
102
RTVSPost2010PropOp30
 70
     1
102
RTVSPost2010Prop31
280
     0
102
RTVSPost2010PropOp31
 70
     1
102
RTVSPost2010Prop32
280
     0
102
RTVSPost2010PropOp32
 70
     1
102
RTVSPost2010Prop33
280
     0
102
RTVSPost2010PropOp33
 70
     1
102
RTVSPost2010Prop34
280
     0
102
RTVSPost2010PropOp34
 70
     1
102
RTVSPost2010Prop35
280
     0
102
RTVSPost2010PropOp35
 70
     1
102
RTVSPost2010Prop36
280
     0
102
RTVSPost2010PropOp36
 70
     1
102
RTVSPost2010Prop37
 90
       50
102
RTVSPost2010PropOp37
 70
     1
102
RTVSPost2010Prop38
140
0.0
102
RTVSPost2010PropOp38
 70
     1
102
RTVSPost2010Prop39
140
1.0
102
RTVSPost2010PropOp39
 70
     1
102
RTVSPost2010Prop40
 90
        0
102
RTVSPost2010PropOp40
 70
     1
102
RTVSPost2010Prop41ColorIndex
 90
       18
102
RTVSPost2010Prop41ColorRGB
 90
        0
102
RTVSPost2010PropOp41
 70
     1
102
RTVSPost2010Prop42
 90
       50
102
RTVSPost2010PropOp42
 70
     1
102
RTVSPost2010Prop43
 90
        3
102
RTVSPost2010PropOp43
 70
     1
102
RTVSPost2010Prop44ColorIndex
 90
        5
102
RTVSPost2010Prop44ColorRGB
 90
      255
102
RTVSPost2010PropOp44
 70
     1
102
RTVSPost2010Prop45
280
     0
102
RTVSPost2010PropOp45
 70
     1
102
RTVSPost2010Prop46
 90
       50
102
RTVSPost2010PropOp46
 70
     1
102
RTVSPost2010Prop47
 90
       50
102
RTVSPost2010PropOp47
 70
     1
102
RTVSPost2010Prop48
 90
       50
102
RTVSPost2010PropOp48
 70
     1
102
RTVSPost2010Prop49
280
     0
102
RTVSPost2010PropOp49
 70
     1
102
RTVSPost2010Prop50
 90
       50
102
RTVSPost2010PropOp50
 70
     1
102
RTVSPost2010Prop51ColorIndex
 90
      256
102
RTVSPost2010Prop51ColorRGB
 90
-16777216
102
RTVSPost2010PropOp51
 70
     0
102
RTVSPost2010Prop52
140
1.0
102
RTVSPost2010PropOp52
 70
     0
102
RTVSPost2010Prop53
 90
        2
102
RTVSPost2010PropOp53
 70
     1
102
RTVSPost2010Prop54
  1
strokes_ogs.tif
102
RTVSPost2010PropOp54
 70
     1
102
RTVSPost2010Prop55
280
     0
102
RTVSPost2010PropOp55
 70
     1
102
RTVSPost2010Prop56
140
1.0
102
RTVSPost2010PropOp56
 70
     1
102
RTVSPost2010Prop57
140
1.0
102
RTVSPost2010PropOp57
 70
     1
102
RTVSPropertyOp0
 70
     1
102
RTVSPropertyOp1
 70
     1
102
RTVSPropertyOp2
 70
     1
102
RTVSPropertyOp3
 70
     1
102
RTVSPropertyOp4
 70
     1
102
RTVSPropertyOp5
 70
     1
102
RTVSPropertyOp6
 70
     1
102
RTVSPropertyOp7
 70
     1
102
RTVSPropertyOp8
 70
     1
102
RTVSPropertyOp9
 70
     1
102
RTVSPropertyOp10
 70
     1
102
RTVSPropertyOp11
 70
     1
102
RTVSPropertyOp12
 70
     1
102
RTVSPropertyOp13
 70
     1
102
RTVSPropertyOp14
 70
     1
102
RTVSPropertyOp15
 70
     1
102
RTVSPropertyOp16
 70
     1
102
RTVSPropertyOp17
 70
     1
102
RTVSPropertyOp18
 70
     1
102
RTVSPropertyOp19
 70
     1
102
RTVSPropertyOp20
 70
     1
102
RTVSPropertyOp21
 70
     1
102
RTVSPropertyOp22
 70
     1
102
RTVSPropertyOp23
 70
     1
102
RTVSPropertyOp24
 70
     1
102
RTVSPropertyOp25
 70
     1
102
RTVSPropertyOp26
 70
     1
102
RTVSPropertyOp27
 70
     1
102
RTVSPropertyOp28
 70
     1
102
RTVSPropertyOp29
 70
     1
102
RTVSPropertyOp30
 70
     1
102
RTVSPropertyOp31
 70
     1
102
RTVSPropertyOp32
 70
     1
102
RTVSPropertyOp33
 70
     1
102
RTVSPropertyOp34
 70
     1
102
RTVSPropertyOp35
 70
     1
102
RTVSPropertyOp36
 70
     1
102
RTVSPropertyOp37
 70
     1
102
RTVSPropertyOp38
 70
     1
102
RTVSPropertyOp39
 70
     1
102
RTVSPropertyOp40
 70
     1
102
RTVSPropertyOp41
 70
     1
102
RTVSPropertyOp42
 70
     1
102
RTVSPropertyOp43
 70
     1
102
RTVSPropertyOp44
 70
     1
102
RTVSPropertyOp45
 70
     1
102
RTVSPropertyOp46
 70
     1
102
RTVSPropertyOp47
 70
     1
102
RTVSPropertyOp48
 70
     1
102
RTVSPropertyOp49
 70
     1
102
RTVSPropertyOp50
 70
     1
102
RTVSPropertyOp51
 70
     0
102
RTVSPropertyOp52
 70
     0
102
RTVSPropertyOp53
 70
     1
102
RTVSPropertyOp54
 70
     1
102
RTVSPropertyOp55
 70
     1
102
RTVSPropertyOp56
 70
     1
102
RTVSPropertyOp57
 70
     1
102
RTVSPropertyOp58
 70
     1
102
RTVSPropertyOp59
 70
     1
102
RTVSPropertyOp60
 70
     1
102
RTVSPropertyOp61
 70
     1
102
RTVSPropertyOp62
 70
     1
  0
XRECORD
  5
2F840
102
{ACAD_REACTORS
330
2F83F
102
}
330
2F83F
100
AcDbXrecord
280
     1
102
RTVSPost2010Prop28
280
     0
102
RTVSPost2010PropOp28
 70
     1
102
RTVSPost2010Prop29
280
     1
102
RTVSPost2010PropOp29
 70
     1
102
RTVSPost2010Prop30
280
     1
102
RTVSPost2010PropOp30
 70
     1
102
RTVSPost2010Prop31
280
     0
102
RTVSPost2010PropOp31
 70
     1
102
RTVSPost2010Prop32
280
     0
102
RTVSPost2010PropOp32
 70
     1
102
RTVSPost2010Prop33
280
     0
102
RTVSPost2010PropOp33
 70
     1
102
RTVSPost2010Prop34
280
     0
102
RTVSPost2010PropOp34
 70
     1
102
RTVSPost2010Prop35
280
     0
102
RTVSPost2010PropOp35
 70
     1
102
RTVSPost2010Prop36
280
     0
102
RTVSPost2010PropOp36
 70
     1
102
RTVSPost2010Prop37
 90
       50
102
RTVSPost2010PropOp37
 70
     1
102
RTVSPost2010Prop38
140
0.0
102
RTVSPost2010PropOp38
 70
     1
102
RTVSPost2010Prop39
140
1.0
102
RTVSPost2010PropOp39
 70
     1
102
RTVSPost2010Prop40
 90
        0
102
RTVSPost2010PropOp40
 70
     1
102
RTVSPost2010Prop41ColorIndex
 90
       18
102
RTVSPost2010Prop41ColorRGB
 90
        0
102
RTVSPost2010PropOp41
 70
     1
102
RTVSPost2010Prop42
 90
       50
102
RTVSPost2010PropOp42
 70
     1
102
RTVSPost2010Prop43
 90
        3
102
RTVSPost2010PropOp43
 70
     1
102
RTVSPost2010Prop44ColorIndex
 90
        5
102
RTVSPost2010Prop44ColorRGB
 90
      255
102
RTVSPost2010PropOp44
 70
     1
102
RTVSPost2010Prop45
280
     0
102
RTVSPost2010PropOp45
 70
     1
102
RTVSPost2010Prop46
 90
       50
102
RTVSPost2010PropOp46
 70
     1
102
RTVSPost2010Prop47
 90
       50
102
RTVSPost2010PropOp47
 70
     1
102
RTVSPost2010Prop48
 90
       50
102
RTVSPost2010PropOp48
 70
     1
102
RTVSPost2010Prop49
280
     0
102
RTVSPost2010PropOp49
 70
     1
102
RTVSPost2010Prop50
 90
       50
102
RTVSPost2010PropOp50
 70
     1
102
RTVSPost2010Prop51ColorIndex
 90
      256
102
RTVSPost2010Prop51ColorRGB
 90
-16777216
102
RTVSPost2010PropOp51
 70
     0
102
RTVSPost2010Prop52
140
1.0
102
RTVSPost2010PropOp52
 70
     0
102
RTVSPost2010Prop53
 90
        2
102
RTVSPost2010PropOp53
 70
     1
102
RTVSPost2010Prop54
  1
strokes_ogs.tif
102
RTVSPost2010PropOp54
 70
     1
102
RTVSPost2010Prop55
280
     0
102
RTVSPost2010PropOp55
 70
     1
102
RTVSPost2010Prop56
140
1.0
102
RTVSPost2010PropOp56
 70
     1
102
RTVSPost2010Prop57
140
1.0
102
RTVSPost2010PropOp57
 70
     1
102
RTVSPropertyOp0
 70
     1
102
RTVSPropertyOp1
 70
     1
102
RTVSPropertyOp2
 70
     1
102
RTVSPropertyOp3
 70
     1
102
RTVSPropertyOp4
 70
     1
102
RTVSPropertyOp5
 70
     1
102
RTVSPropertyOp6
 70
     1
102
RTVSPropertyOp7
 70
     1
102
RTVSPropertyOp8
 70
     1
102
RTVSPropertyOp9
 70
     1
102
RTVSPropertyOp10
 70
     1
102
RTVSPropertyOp11
 70
     1
102
RTVSPropertyOp12
 70
     1
102
RTVSPropertyOp13
 70
     1
102
RTVSPropertyOp14
 70
     1
102
RTVSPropertyOp15
 70
     1
102
RTVSPropertyOp16
 70
     1
102
RTVSPropertyOp17
 70
     1
102
RTVSPropertyOp18
 70
     1
102
RTVSPropertyOp19
 70
     1
102
RTVSPropertyOp20
 70
     1
102
RTVSPropertyOp21
 70
     1
102
RTVSPropertyOp22
 70
     1
102
RTVSPropertyOp23
 70
     1
102
RTVSPropertyOp24
 70
     1
102
RTVSPropertyOp25
 70
     1
102
RTVSPropertyOp26
 70
     1
102
RTVSPropertyOp27
 70
     1
102
RTVSPropertyOp28
 70
     1
102
RTVSPropertyOp29
 70
     1
102
RTVSPropertyOp30
 70
     1
102
RTVSPropertyOp31
 70
     1
102
RTVSPropertyOp32
 70
     1
102
RTVSPropertyOp33
 70
     1
102
RTVSPropertyOp34
 70
     1
102
RTVSPropertyOp35
 70
     1
102
RTVSPropertyOp36
 70
     1
102
RTVSPropertyOp37
 70
     1
102
RTVSPropertyOp38
 70
     1
102
RTVSPropertyOp39
 70
     1
102
RTVSPropertyOp40
 70
     1
102
RTVSPropertyOp41
 70
     1
102
RTVSPropertyOp42
 70
     1
102
RTVSPropertyOp43
 70
     1
102
RTVSPropertyOp44
 70
     1
102
RTVSPropertyOp45
 70
     1
102
RTVSPropertyOp46
 70
     1
102
RTVSPropertyOp47
 70
     1
102
RTVSPropertyOp48
 70
     1
102
RTVSPropertyOp49
 70
     1
102
RTVSPropertyOp50
 70
     1
102
RTVSPropertyOp51
 70
     0
102
RTVSPropertyOp52
 70
     0
102
RTVSPropertyOp53
 70
     1
102
RTVSPropertyOp54
 70
     1
102
RTVSPropertyOp55
 70
     1
102
RTVSPropertyOp56
 70
     1
102
RTVSPropertyOp57
 70
     1
102
RTVSPropertyOp58
 70
     1
102
RTVSPropertyOp59
 70
     1
102
RTVSPropertyOp60
 70
     1
102
RTVSPropertyOp61
 70
     1
102
RTVSPropertyOp62
 70
     1
  0
XRECORD
  5
2F848
102
{ACAD_REACTORS
330
2F847
102
}
330
2F847
100
AcDbXrecord
280
     1
102
RTVSPost2010Prop28
280
     0
102
RTVSPost2010PropOp28
 70
     1
102
RTVSPost2010Prop29
280
     1
102
RTVSPost2010PropOp29
 70
     1
102
RTVSPost2010Prop30
280
     1
102
RTVSPost2010PropOp30
 70
     1
102
RTVSPost2010Prop31
280
     0
102
RTVSPost2010PropOp31
 70
     1
102
RTVSPost2010Prop32
280
     0
102
RTVSPost2010PropOp32
 70
     1
102
RTVSPost2010Prop33
280
     0
102
RTVSPost2010PropOp33
 70
     1
102
RTVSPost2010Prop34
280
     0
102
RTVSPost2010PropOp34
 70
     1
102
RTVSPost2010Prop35
280
     0
102
RTVSPost2010PropOp35
 70
     1
102
RTVSPost2010Prop36
280
     0
102
RTVSPost2010PropOp36
 70
     1
102
RTVSPost2010Prop37
 90
       50
102
RTVSPost2010PropOp37
 70
     1
102
RTVSPost2010Prop38
140
0.0
102
RTVSPost2010PropOp38
 70
     1
102
RTVSPost2010Prop39
140
1.0
102
RTVSPost2010PropOp39
 70
     1
102
RTVSPost2010Prop40
 90
        0
102
RTVSPost2010PropOp40
 70
     1
102
RTVSPost2010Prop41ColorIndex
 90
       18
102
RTVSPost2010Prop41ColorRGB
 90
        0
102
RTVSPost2010PropOp41
 70
     1
102
RTVSPost2010Prop42
 90
       50
102
RTVSPost2010PropOp42
 70
     1
102
RTVSPost2010Prop43
 90
        3
102
RTVSPost2010PropOp43
 70
     1
102
RTVSPost2010Prop44ColorIndex
 90
        5
102
RTVSPost2010Prop44ColorRGB
 90
      255
102
RTVSPost2010PropOp44
 70
     1
102
RTVSPost2010Prop45
280
     0
102
RTVSPost2010PropOp45
 70
     1
102
RTVSPost2010Prop46
 90
       50
102
RTVSPost2010PropOp46
 70
     1
102
RTVSPost2010Prop47
 90
       50
102
RTVSPost2010PropOp47
 70
     1
102
RTVSPost2010Prop48
 90
       50
102
RTVSPost2010PropOp48
 70
     1
102
RTVSPost2010Prop49
280
     0
102
RTVSPost2010PropOp49
 70
     1
102
RTVSPost2010Prop50
 90
       50
102
RTVSPost2010PropOp50
 70
     1
102
RTVSPost2010Prop51ColorIndex
 90
      256
102
RTVSPost2010Prop51ColorRGB
 90
-16777216
102
RTVSPost2010PropOp51
 70
     0
102
RTVSPost2010Prop52
140
1.0
102
RTVSPost2010PropOp52
 70
     0
102
RTVSPost2010Prop53
 90
        2
102
RTVSPost2010PropOp53
 70
     1
102
RTVSPost2010Prop54
  1
strokes_ogs.tif
102
RTVSPost2010PropOp54
 70
     1
102
RTVSPost2010Prop55
280
     0
102
RTVSPost2010PropOp55
 70
     1
102
RTVSPost2010Prop56
140
1.0
102
RTVSPost2010PropOp56
 70
     1
102
RTVSPost2010Prop57
140
1.0
102
RTVSPost2010PropOp57
 70
     1
102
RTVSPropertyOp0
 70
     1
102
RTVSPropertyOp1
 70
     1
102
RTVSPropertyOp2
 70
     1
102
RTVSPropertyOp3
 70
     1
102
RTVSPropertyOp4
 70
     1
102
RTVSPropertyOp5
 70
     1
102
RTVSPropertyOp6
 70
     1
102
RTVSPropertyOp7
 70
     1
102
RTVSPropertyOp8
 70
     1
102
RTVSPropertyOp9
 70
     1
102
RTVSPropertyOp10
 70
     1
102
RTVSPropertyOp11
 70
     1
102
RTVSPropertyOp12
 70
     1
102
RTVSPropertyOp13
 70
     1
102
RTVSPropertyOp14
 70
     1
102
RTVSPropertyOp15
 70
     1
102
RTVSPropertyOp16
 70
     1
102
RTVSPropertyOp17
 70
     1
102
RTVSPropertyOp18
 70
     1
102
RTVSPropertyOp19
 70
     1
102
RTVSPropertyOp20
 70
     1
102
RTVSPropertyOp21
 70
     1
102
RTVSPropertyOp22
 70
     1
102
RTVSPropertyOp23
 70
     1
102
RTVSPropertyOp24
 70
     1
102
RTVSPropertyOp25
 70
     1
102
RTVSPropertyOp26
 70
     1
102
RTVSPropertyOp27
 70
     1
102
RTVSPropertyOp28
 70
     1
102
RTVSPropertyOp29
 70
     1
102
RTVSPropertyOp30
 70
     1
102
RTVSPropertyOp31
 70
     1
102
RTVSPropertyOp32
 70
     1
102
RTVSPropertyOp33
 70
     1
102
RTVSPropertyOp34
 70
     1
102
RTVSPropertyOp35
 70
     1
102
RTVSPropertyOp36
 70
     1
102
RTVSPropertyOp37
 70
     1
102
RTVSPropertyOp38
 70
     1
102
RTVSPropertyOp39
 70
     1
102
RTVSPropertyOp40
 70
     1
102
RTVSPropertyOp41
 70
     1
102
RTVSPropertyOp42
 70
     1
102
RTVSPropertyOp43
 70
     1
102
RTVSPropertyOp44
 70
     1
102
RTVSPropertyOp45
 70
     1
102
RTVSPropertyOp46
 70
     1
102
RTVSPropertyOp47
 70
     1
102
RTVSPropertyOp48
 70
     1
102
RTVSPropertyOp49
 70
     1
102
RTVSPropertyOp50
 70
     1
102
RTVSPropertyOp51
 70
     0
102
RTVSPropertyOp52
 70
     0
102
RTVSPropertyOp53
 70
     1
102
RTVSPropertyOp54
 70
     1
102
RTVSPropertyOp55
 70
     1
102
RTVSPropertyOp56
 70
     1
102
RTVSPropertyOp57
 70
     1
102
RTVSPropertyOp58
 70
     1
102
RTVSPropertyOp59
 70
     1
102
RTVSPropertyOp60
 70
     1
102
RTVSPropertyOp61
 70
     1
102
RTVSPropertyOp62
 70
     1
  0
XRECORD
  5
2F83A
102
{ACAD_REACTORS
330
2F839
102
}
330
2F839
100
AcDbXrecord
280
     1
102
RTVSPost2010Prop28
280
     0
102
RTVSPost2010PropOp28
 70
     1
102
RTVSPost2010Prop29
280
     1
102
RTVSPost2010PropOp29
 70
     1
102
RTVSPost2010Prop30
280
     1
102
RTVSPost2010PropOp30
 70
     1
102
RTVSPost2010Prop31
280
     0
102
RTVSPost2010PropOp31
 70
     1
102
RTVSPost2010Prop32
280
     0
102
RTVSPost2010PropOp32
 70
     1
102
RTVSPost2010Prop33
280
     0
102
RTVSPost2010PropOp33
 70
     1
102
RTVSPost2010Prop34
280
     0
102
RTVSPost2010PropOp34
 70
     1
102
RTVSPost2010Prop35
280
     0
102
RTVSPost2010PropOp35
 70
     1
102
RTVSPost2010Prop36
280
     0
102
RTVSPost2010PropOp36
 70
     1
102
RTVSPost2010Prop37
 90
       50
102
RTVSPost2010PropOp37
 70
     1
102
RTVSPost2010Prop38
140
0.0
102
RTVSPost2010PropOp38
 70
     1
102
RTVSPost2010Prop39
140
1.0
102
RTVSPost2010PropOp39
 70
     1
102
RTVSPost2010Prop40
 90
        0
102
RTVSPost2010PropOp40
 70
     1
102
RTVSPost2010Prop41ColorIndex
 90
       18
102
RTVSPost2010Prop41ColorRGB
 90
        0
102
RTVSPost2010PropOp41
 70
     1
102
RTVSPost2010Prop42
 90
       50
102
RTVSPost2010PropOp42
 70
     1
102
RTVSPost2010Prop43
 90
        3
102
RTVSPost2010PropOp43
 70
     1
102
RTVSPost2010Prop44ColorIndex
 90
        5
102
RTVSPost2010Prop44ColorRGB
 90
      255
102
RTVSPost2010PropOp44
 70
     1
102
RTVSPost2010Prop45
280
     0
102
RTVSPost2010PropOp45
 70
     1
102
RTVSPost2010Prop46
 90
       50
102
RTVSPost2010PropOp46
 70
     1
102
RTVSPost2010Prop47
 90
       50
102
RTVSPost2010PropOp47
 70
     1
102
RTVSPost2010Prop48
 90
       50
102
RTVSPost2010PropOp48
 70
     1
102
RTVSPost2010Prop49
280
     0
102
RTVSPost2010PropOp49
 70
     1
102
RTVSPost2010Prop50
 90
       50
102
RTVSPost2010PropOp50
 70
     1
102
RTVSPost2010Prop51ColorIndex
 90
      256
102
RTVSPost2010Prop51ColorRGB
 90
-16777216
102
RTVSPost2010PropOp51
 70
     0
102
RTVSPost2010Prop52
140
1.0
102
RTVSPost2010PropOp52
 70
     0
102
RTVSPost2010Prop53
 90
        2
102
RTVSPost2010PropOp53
 70
     1
102
RTVSPost2010Prop54
  1
strokes_ogs.tif
102
RTVSPost2010PropOp54
 70
     1
102
RTVSPost2010Prop55
280
     0
102
RTVSPost2010PropOp55
 70
     1
102
RTVSPost2010Prop56
140
1.0
102
RTVSPost2010PropOp56
 70
     1
102
RTVSPost2010Prop57
140
1.0
102
RTVSPost2010PropOp57
 70
     1
102
RTVSPropertyOp0
 70
     1
102
RTVSPropertyOp1
 70
     1
102
RTVSPropertyOp2
 70
     1
102
RTVSPropertyOp3
 70
     1
102
RTVSPropertyOp4
 70
     1
102
RTVSPropertyOp5
 70
     1
102
RTVSPropertyOp6
 70
     1
102
RTVSPropertyOp7
 70
     1
102
RTVSPropertyOp8
 70
     1
102
RTVSPropertyOp9
 70
     1
102
RTVSPropertyOp10
 70
     1
102
RTVSPropertyOp11
 70
     1
102
RTVSPropertyOp12
 70
     1
102
RTVSPropertyOp13
 70
     1
102
RTVSPropertyOp14
 70
     1
102
RTVSPropertyOp15
 70
     1
102
RTVSPropertyOp16
 70
     1
102
RTVSPropertyOp17
 70
     1
102
RTVSPropertyOp18
 70
     1
102
RTVSPropertyOp19
 70
     1
102
RTVSPropertyOp20
 70
     1
102
RTVSPropertyOp21
 70
     1
102
RTVSPropertyOp22
 70
     1
102
RTVSPropertyOp23
 70
     1
102
RTVSPropertyOp24
 70
     1
102
RTVSPropertyOp25
 70
     1
102
RTVSPropertyOp26
 70
     1
102
RTVSPropertyOp27
 70
     1
102
RTVSPropertyOp28
 70
     1
102
RTVSPropertyOp29
 70
     1
102
RTVSPropertyOp30
 70
     1
102
RTVSPropertyOp31
 70
     1
102
RTVSPropertyOp32
 70
     1
102
RTVSPropertyOp33
 70
     1
102
RTVSPropertyOp34
 70
     1
102
RTVSPropertyOp35
 70
     1
102
RTVSPropertyOp36
 70
     1
102
RTVSPropertyOp37
 70
     1
102
RTVSPropertyOp38
 70
     1
102
RTVSPropertyOp39
 70
     1
102
RTVSPropertyOp40
 70
     1
102
RTVSPropertyOp41
 70
     1
102
RTVSPropertyOp42
 70
     1
102
RTVSPropertyOp43
 70
     1
102
RTVSPropertyOp44
 70
     1
102
RTVSPropertyOp45
 70
     1
102
RTVSPropertyOp46
 70
     1
102
RTVSPropertyOp47
 70
     1
102
RTVSPropertyOp48
 70
     1
102
RTVSPropertyOp49
 70
     1
102
RTVSPropertyOp50
 70
     1
102
RTVSPropertyOp51
 70
     0
102
RTVSPropertyOp52
 70
     0
102
RTVSPropertyOp53
 70
     1
102
RTVSPropertyOp54
 70
     1
102
RTVSPropertyOp55
 70
     1
102
RTVSPropertyOp56
 70
     1
102
RTVSPropertyOp57
 70
     1
102
RTVSPropertyOp58
 70
     1
102
RTVSPropertyOp59
 70
     1
102
RTVSPropertyOp60
 70
     1
102
RTVSPropertyOp61
 70
     1
102
RTVSPropertyOp62
 70
     1
  0
XRECORD
  5
2F83E
102
{ACAD_REACTORS
330
2F83D
102
}
330
2F83D
100
AcDbXrecord
280
     1
102
RTVSPost2010Prop28
280
     0
102
RTVSPost2010PropOp28
 70
     1
102
RTVSPost2010Prop29
280
     1
102
RTVSPost2010PropOp29
 70
     1
102
RTVSPost2010Prop30
280
     1
102
RTVSPost2010PropOp30
 70
     1
102
RTVSPost2010Prop31
280
     0
102
RTVSPost2010PropOp31
 70
     1
102
RTVSPost2010Prop32
280
     0
102
RTVSPost2010PropOp32
 70
     1
102
RTVSPost2010Prop33
280
     0
102
RTVSPost2010PropOp33
 70
     1
102
RTVSPost2010Prop34
280
     0
102
RTVSPost2010PropOp34
 70
     1
102
RTVSPost2010Prop35
280
     0
102
RTVSPost2010PropOp35
 70
     1
102
RTVSPost2010Prop36
280
     0
102
RTVSPost2010PropOp36
 70
     1
102
RTVSPost2010Prop37
 90
       50
102
RTVSPost2010PropOp37
 70
     1
102
RTVSPost2010Prop38
140
0.0
102
RTVSPost2010PropOp38
 70
     1
102
RTVSPost2010Prop39
140
1.0
102
RTVSPost2010PropOp39
 70
     1
102
RTVSPost2010Prop40
 90
        0
102
RTVSPost2010PropOp40
 70
     1
102
RTVSPost2010Prop41ColorIndex
 90
       18
102
RTVSPost2010Prop41ColorRGB
 90
        0
102
RTVSPost2010PropOp41
 70
     1
102
RTVSPost2010Prop42
 90
       50
102
RTVSPost2010PropOp42
 70
     1
102
RTVSPost2010Prop43
 90
        3
102
RTVSPost2010PropOp43
 70
     1
102
RTVSPost2010Prop44ColorIndex
 90
        5
102
RTVSPost2010Prop44ColorRGB
 90
      255
102
RTVSPost2010PropOp44
 70
     1
102
RTVSPost2010Prop45
280
     0
102
RTVSPost2010PropOp45
 70
     1
102
RTVSPost2010Prop46
 90
       50
102
RTVSPost2010PropOp46
 70
     1
102
RTVSPost2010Prop47
 90
       50
102
RTVSPost2010PropOp47
 70
     1
102
RTVSPost2010Prop48
 90
       50
102
RTVSPost2010PropOp48
 70
     1
102
RTVSPost2010Prop49
280
     0
102
RTVSPost2010PropOp49
 70
     1
102
RTVSPost2010Prop50
 90
       50
102
RTVSPost2010PropOp50
 70
     1
102
RTVSPost2010Prop51ColorIndex
 90
      256
102
RTVSPost2010Prop51ColorRGB
 90
-16777216
102
RTVSPost2010PropOp51
 70
     0
102
RTVSPost2010Prop52
140
1.0
102
RTVSPost2010PropOp52
 70
     0
102
RTVSPost2010Prop53
 90
        2
102
RTVSPost2010PropOp53
 70
     1
102
RTVSPost2010Prop54
  1
strokes_ogs.tif
102
RTVSPost2010PropOp54
 70
     1
102
RTVSPost2010Prop55
280
     0
102
RTVSPost2010PropOp55
 70
     1
102
RTVSPost2010Prop56
140
1.0
102
RTVSPost2010PropOp56
 70
     1
102
RTVSPost2010Prop57
140
1.0
102
RTVSPost2010PropOp57
 70
     1
102
RTVSPropertyOp0
 70
     1
102
RTVSPropertyOp1
 70
     1
102
RTVSPropertyOp2
 70
     1
102
RTVSPropertyOp3
 70
     1
102
RTVSPropertyOp4
 70
     1
102
RTVSPropertyOp5
 70
     1
102
RTVSPropertyOp6
 70
     1
102
RTVSPropertyOp7
 70
     1
102
RTVSPropertyOp8
 70
     1
102
RTVSPropertyOp9
 70
     1
102
RTVSPropertyOp10
 70
     1
102
RTVSPropertyOp11
 70
     1
102
RTVSPropertyOp12
 70
     1
102
RTVSPropertyOp13
 70
     1
102
RTVSPropertyOp14
 70
     1
102
RTVSPropertyOp15
 70
     1
102
RTVSPropertyOp16
 70
     1
102
RTVSPropertyOp17
 70
     1
102
RTVSPropertyOp18
 70
     1
102
RTVSPropertyOp19
 70
     1
102
RTVSPropertyOp20
 70
     1
102
RTVSPropertyOp21
 70
     1
102
RTVSPropertyOp22
 70
     1
102
RTVSPropertyOp23
 70
     1
102
RTVSPropertyOp24
 70
     1
102
RTVSPropertyOp25
 70
     1
102
RTVSPropertyOp26
 70
     1
102
RTVSPropertyOp27
 70
     1
102
RTVSPropertyOp28
 70
     1
102
RTVSPropertyOp29
 70
     1
102
RTVSPropertyOp30
 70
     1
102
RTVSPropertyOp31
 70
     1
102
RTVSPropertyOp32
 70
     1
102
RTVSPropertyOp33
 70
     1
102
RTVSPropertyOp34
 70
     1
102
RTVSPropertyOp35
 70
     1
102
RTVSPropertyOp36
 70
     1
102
RTVSPropertyOp37
 70
     1
102
RTVSPropertyOp38
 70
     1
102
RTVSPropertyOp39
 70
     1
102
RTVSPropertyOp40
 70
     1
102
RTVSPropertyOp41
 70
     1
102
RTVSPropertyOp42
 70
     1
102
RTVSPropertyOp43
 70
     1
102
RTVSPropertyOp44
 70
     1
102
RTVSPropertyOp45
 70
     1
102
RTVSPropertyOp46
 70
     1
102
RTVSPropertyOp47
 70
     1
102
RTVSPropertyOp48
 70
     1
102
RTVSPropertyOp49
 70
     1
102
RTVSPropertyOp50
 70
     1
102
RTVSPropertyOp51
 70
     0
102
RTVSPropertyOp52
 70
     0
102
RTVSPropertyOp53
 70
     1
102
RTVSPropertyOp54
 70
     1
102
RTVSPropertyOp55
 70
     1
102
RTVSPropertyOp56
 70
     1
102
RTVSPropertyOp57
 70
     1
102
RTVSPropertyOp58
 70
     1
102
RTVSPropertyOp59
 70
     1
102
RTVSPropertyOp60
 70
     1
102
RTVSPropertyOp61
 70
     1
102
RTVSPropertyOp62
 70
     1
  0
XRECORD
  5
2F858
102
{ACAD_REACTORS
330
2F857
102
}
330
2F857
100
AcDbXrecord
280
     1
102
RTVSPost2010Prop28
280
     0
102
RTVSPost2010PropOp28
 70
     1
102
RTVSPost2010Prop29
280
     1
102
RTVSPost2010PropOp29
 70
     1
102
RTVSPost2010Prop30
280
     1
102
RTVSPost2010PropOp30
 70
     1
102
RTVSPost2010Prop31
280
     0
102
RTVSPost2010PropOp31
 70
     1
102
RTVSPost2010Prop32
280
     0
102
RTVSPost2010PropOp32
 70
     1
102
RTVSPost2010Prop33
280
     0
102
RTVSPost2010PropOp33
 70
     1
102
RTVSPost2010Prop34
280
     0
102
RTVSPost2010PropOp34
 70
     1
102
RTVSPost2010Prop35
280
     0
102
RTVSPost2010PropOp35
 70
     1
102
RTVSPost2010Prop36
280
     0
102
RTVSPost2010PropOp36
 70
     1
102
RTVSPost2010Prop37
 90
       50
102
RTVSPost2010PropOp37
 70
     0
102
RTVSPost2010Prop38
140
0.0
102
RTVSPost2010PropOp38
 70
     0
102
RTVSPost2010Prop39
140
1.0
102
RTVSPost2010PropOp39
 70
     0
102
RTVSPost2010Prop40
 90
        0
102
RTVSPost2010PropOp40
 70
     0
102
RTVSPost2010Prop41ColorIndex
 90
       18
102
RTVSPost2010Prop41ColorRGB
 90
        0
102
RTVSPost2010PropOp41
 70
     0
102
RTVSPost2010Prop42
 90
       50
102
RTVSPost2010PropOp42
 70
     0
102
RTVSPost2010Prop43
 90
        3
102
RTVSPost2010PropOp43
 70
     0
102
RTVSPost2010Prop44ColorIndex
 90
        5
102
RTVSPost2010Prop44ColorRGB
 90
      255
102
RTVSPost2010PropOp44
 70
     0
102
RTVSPost2010Prop45
280
     0
102
RTVSPost2010PropOp45
 70
     1
102
RTVSPost2010Prop46
 90
       50
102
RTVSPost2010PropOp46
 70
     0
102
RTVSPost2010Prop47
 90
       50
102
RTVSPost2010PropOp47
 70
     0
102
RTVSPost2010Prop48
 90
       50
102
RTVSPost2010PropOp48
 70
     0
102
RTVSPost2010Prop49
280
     0
102
RTVSPost2010PropOp49
 70
     1
102
RTVSPost2010Prop50
 90
       50
102
RTVSPost2010PropOp50
 70
     0
102
RTVSPost2010Prop51ColorIndex
 90
      256
102
RTVSPost2010Prop51ColorRGB
 90
-16777216
102
RTVSPost2010PropOp51
 70
     0
102
RTVSPost2010Prop52
140
1.0
102
RTVSPost2010PropOp52
 70
     0
102
RTVSPost2010Prop53
 90
        2
102
RTVSPost2010PropOp53
 70
     0
102
RTVSPost2010Prop54
  1
strokes_ogs.tif
102
RTVSPost2010PropOp54
 70
     0
102
RTVSPost2010Prop55
280
     0
102
RTVSPost2010PropOp55
 70
     1
102
RTVSPost2010Prop56
140
1.0
102
RTVSPost2010PropOp56
 70
     0
102
RTVSPost2010Prop57
140
1.0
102
RTVSPost2010PropOp57
 70
     0
102
RTVSPropertyOp0
 70
     0
102
RTVSPropertyOp1
 70
     0
102
RTVSPropertyOp2
 70
     0
102
RTVSPropertyOp3
 70
     0
102
RTVSPropertyOp4
 70
     0
102
RTVSPropertyOp5
 70
     0
102
RTVSPropertyOp6
 70
     0
102
RTVSPropertyOp7
 70
     0
102
RTVSPropertyOp8
 70
     0
102
RTVSPropertyOp9
 70
     0
102
RTVSPropertyOp10
 70
     0
102
RTVSPropertyOp11
 70
     0
102
RTVSPropertyOp12
 70
     0
102
RTVSPropertyOp13
 70
     0
102
RTVSPropertyOp14
 70
     2
102
RTVSPropertyOp15
 70
     0
102
RTVSPropertyOp16
 70
     0
102
RTVSPropertyOp17
 70
     0
102
RTVSPropertyOp18
 70
     0
102
RTVSPropertyOp19
 70
     0
102
RTVSPropertyOp20
 70
     0
102
RTVSPropertyOp21
 70
     0
102
RTVSPropertyOp22
 70
     0
102
RTVSPropertyOp23
 70
     0
102
RTVSPropertyOp24
 70
     0
102
RTVSPropertyOp25
 70
     0
102
RTVSPropertyOp26
 70
     0
102
RTVSPropertyOp27
 70
     0
102
RTVSPropertyOp28
 70
     1
102
RTVSPropertyOp29
 70
     1
102
RTVSPropertyOp30
 70
     1
102
RTVSPropertyOp31
 70
     1
102
RTVSPropertyOp32
 70
     1
102
RTVSPropertyOp33
 70
     1
102
RTVSPropertyOp34
 70
     1
102
RTVSPropertyOp35
 70
     1
102
RTVSPropertyOp36
 70
     1
102
RTVSPropertyOp37
 70
     0
102
RTVSPropertyOp38
 70
     0
102
RTVSPropertyOp39
 70
     0
102
RTVSPropertyOp40
 70
     0
102
RTVSPropertyOp41
 70
     0
102
RTVSPropertyOp42
 70
     0
102
RTVSPropertyOp43
 70
     0
102
RTVSPropertyOp44
 70
     0
102
RTVSPropertyOp45
 70
     1
102
RTVSPropertyOp46
 70
     0
102
RTVSPropertyOp47
 70
     0
102
RTVSPropertyOp48
 70
     0
102
RTVSPropertyOp49
 70
     1
102
RTVSPropertyOp50
 70
     0
102
RTVSPropertyOp51
 70
     0
102
RTVSPropertyOp52
 70
     0
102
RTVSPropertyOp53
 70
     0
102
RTVSPropertyOp54
 70
     0
102
RTVSPropertyOp55
 70
     1
102
RTVSPropertyOp56
 70
     0
102
RTVSPropertyOp57
 70
     0
102
RTVSPropertyOp58
 70
     0
102
RTVSPropertyOp59
 70
     0
102
RTVSPropertyOp60
 70
     0
102
RTVSPropertyOp61
 70
     0
102
RTVSPropertyOp62
 70
     0
  0
XRECORD
  5
2F846
102
{ACAD_REACTORS
330
2F845
102
}
330
2F845
100
AcDbXrecord
280
     1
102
RTVSPost2010Prop28
280
     0
102
RTVSPost2010PropOp28
 70
     1
102
RTVSPost2010Prop29
280
     1
102
RTVSPost2010PropOp29
 70
     1
102
RTVSPost2010Prop30
280
     1
102
RTVSPost2010PropOp30
 70
     1
102
RTVSPost2010Prop31
280
     0
102
RTVSPost2010PropOp31
 70
     1
102
RTVSPost2010Prop32
280
     0
102
RTVSPost2010PropOp32
 70
     1
102
RTVSPost2010Prop33
280
     0
102
RTVSPost2010PropOp33
 70
     1
102
RTVSPost2010Prop34
280
     0
102
RTVSPost2010PropOp34
 70
     1
102
RTVSPost2010Prop35
280
     0
102
RTVSPost2010PropOp35
 70
     1
102
RTVSPost2010Prop36
280
     0
102
RTVSPost2010PropOp36
 70
     1
102
RTVSPost2010Prop37
 90
       50
102
RTVSPost2010PropOp37
 70
     1
102
RTVSPost2010Prop38
140
0.0
102
RTVSPost2010PropOp38
 70
     1
102
RTVSPost2010Prop39
140
1.0
102
RTVSPost2010PropOp39
 70
     1
102
RTVSPost2010Prop40
 90
        0
102
RTVSPost2010PropOp40
 70
     1
102
RTVSPost2010Prop41ColorIndex
 90
       18
102
RTVSPost2010Prop41ColorRGB
 90
        0
102
RTVSPost2010PropOp41
 70
     1
102
RTVSPost2010Prop42
 90
       50
102
RTVSPost2010PropOp42
 70
     1
102
RTVSPost2010Prop43
 90
        3
102
RTVSPost2010PropOp43
 70
     1
102
RTVSPost2010Prop44ColorIndex
 90
        5
102
RTVSPost2010Prop44ColorRGB
 90
      255
102
RTVSPost2010PropOp44
 70
     1
102
RTVSPost2010Prop45
280
     0
102
RTVSPost2010PropOp45
 70
     1
102
RTVSPost2010Prop46
 90
       50
102
RTVSPost2010PropOp46
 70
     1
102
RTVSPost2010Prop47
 90
       50
102
RTVSPost2010PropOp47
 70
     1
102
RTVSPost2010Prop48
 90
       50
102
RTVSPost2010PropOp48
 70
     1
102
RTVSPost2010Prop49
280
     0
102
RTVSPost2010PropOp49
 70
     1
102
RTVSPost2010Prop50
 90
       50
102
RTVSPost2010PropOp50
 70
     1
102
RTVSPost2010Prop51ColorIndex
 90
      256
102
RTVSPost2010Prop51ColorRGB
 90
-16777216
102
RTVSPost2010PropOp51
 70
     0
102
RTVSPost2010Prop52
140
1.0
102
RTVSPost2010PropOp52
 70
     0
102
RTVSPost2010Prop53
 90
        2
102
RTVSPost2010PropOp53
 70
     1
102
RTVSPost2010Prop54
  1
strokes_ogs.tif
102
RTVSPost2010PropOp54
 70
     1
102
RTVSPost2010Prop55
280
     0
102
RTVSPost2010PropOp55
 70
     1
102
RTVSPost2010Prop56
140
1.0
102
RTVSPost2010PropOp56
 70
     1
102
RTVSPost2010Prop57
140
1.0
102
RTVSPost2010PropOp57
 70
     1
102
RTVSPropertyOp0
 70
     1
102
RTVSPropertyOp1
 70
     1
102
RTVSPropertyOp2
 70
     1
102
RTVSPropertyOp3
 70
     1
102
RTVSPropertyOp4
 70
     1
102
RTVSPropertyOp5
 70
     1
102
RTVSPropertyOp6
 70
     1
102
RTVSPropertyOp7
 70
     1
102
RTVSPropertyOp8
 70
     1
102
RTVSPropertyOp9
 70
     1
102
RTVSPropertyOp10
 70
     1
102
RTVSPropertyOp11
 70
     1
102
RTVSPropertyOp12
 70
     1
102
RTVSPropertyOp13
 70
     1
102
RTVSPropertyOp14
 70
     1
102
RTVSPropertyOp15
 70
     1
102
RTVSPropertyOp16
 70
     1
102
RTVSPropertyOp17
 70
     1
102
RTVSPropertyOp18
 70
     1
102
RTVSPropertyOp19
 70
     1
102
RTVSPropertyOp20
 70
     1
102
RTVSPropertyOp21
 70
     1
102
RTVSPropertyOp22
 70
     1
102
RTVSPropertyOp23
 70
     1
102
RTVSPropertyOp24
 70
     1
102
RTVSPropertyOp25
 70
     1
102
RTVSPropertyOp26
 70
     1
102
RTVSPropertyOp27
 70
     1
102
RTVSPropertyOp28
 70
     1
102
RTVSPropertyOp29
 70
     1
102
RTVSPropertyOp30
 70
     1
102
RTVSPropertyOp31
 70
     1
102
RTVSPropertyOp32
 70
     1
102
RTVSPropertyOp33
 70
     1
102
RTVSPropertyOp34
 70
     1
102
RTVSPropertyOp35
 70
     1
102
RTVSPropertyOp36
 70
     1
102
RTVSPropertyOp37
 70
     1
102
RTVSPropertyOp38
 70
     1
102
RTVSPropertyOp39
 70
     1
102
RTVSPropertyOp40
 70
     1
102
RTVSPropertyOp41
 70
     1
102
RTVSPropertyOp42
 70
     1
102
RTVSPropertyOp43
 70
     1
102
RTVSPropertyOp44
 70
     1
102
RTVSPropertyOp45
 70
     1
102
RTVSPropertyOp46
 70
     1
102
RTVSPropertyOp47
 70
     1
102
RTVSPropertyOp48
 70
     1
102
RTVSPropertyOp49
 70
     1
102
RTVSPropertyOp50
 70
     1
102
RTVSPropertyOp51
 70
     0
102
RTVSPropertyOp52
 70
     0
102
RTVSPropertyOp53
 70
     1
102
RTVSPropertyOp54
 70
     1
102
RTVSPropertyOp55
 70
     1
102
RTVSPropertyOp56
 70
     1
102
RTVSPropertyOp57
 70
     1
102
RTVSPropertyOp58
 70
     1
102
RTVSPropertyOp59
 70
     1
102
RTVSPropertyOp60
 70
     1
102
RTVSPropertyOp61
 70
     1
102
RTVSPropertyOp62
 70
     1
  0
XRECORD
  5
2F82A
102
{ACAD_REACTORS
330
2F829
102
}
330
2F829
100
AcDbXrecord
280
     1
102
RTVSPost2010Prop28
280
     0
102
RTVSPost2010PropOp28
 70
     1
102
RTVSPost2010Prop29
280
     1
102
RTVSPost2010PropOp29
 70
     1
102
RTVSPost2010Prop30
280
     1
102
RTVSPost2010PropOp30
 70
     1
102
RTVSPost2010Prop31
280
     0
102
RTVSPost2010PropOp31
 70
     1
102
RTVSPost2010Prop32
280
     0
102
RTVSPost2010PropOp32
 70
     1
102
RTVSPost2010Prop33
280
     0
102
RTVSPost2010PropOp33
 70
     1
102
RTVSPost2010Prop34
280
     0
102
RTVSPost2010PropOp34
 70
     1
102
RTVSPost2010Prop35
280
     0
102
RTVSPost2010PropOp35
 70
     1
102
RTVSPost2010Prop36
280
     0
102
RTVSPost2010PropOp36
 70
     1
102
RTVSPost2010Prop37
 90
       50
102
RTVSPost2010PropOp37
 70
     1
102
RTVSPost2010Prop38
140
0.0
102
RTVSPost2010PropOp38
 70
     1
102
RTVSPost2010Prop39
140
1.0
102
RTVSPost2010PropOp39
 70
     1
102
RTVSPost2010Prop40
 90
        0
102
RTVSPost2010PropOp40
 70
     1
102
RTVSPost2010Prop41ColorIndex
 90
       18
102
RTVSPost2010Prop41ColorRGB
 90
        0
102
RTVSPost2010PropOp41
 70
     1
102
RTVSPost2010Prop42
 90
       50
102
RTVSPost2010PropOp42
 70
     1
102
RTVSPost2010Prop43
 90
        3
102
RTVSPost2010PropOp43
 70
     1
102
RTVSPost2010Prop44ColorIndex
 90
        5
102
RTVSPost2010Prop44ColorRGB
 90
      255
102
RTVSPost2010PropOp44
 70
     1
102
RTVSPost2010Prop45
280
     0
102
RTVSPost2010PropOp45
 70
     1
102
RTVSPost2010Prop46
 90
       50
102
RTVSPost2010PropOp46
 70
     1
102
RTVSPost2010Prop47
 90
       50
102
RTVSPost2010PropOp47
 70
     1
102
RTVSPost2010Prop48
 90
       50
102
RTVSPost2010PropOp48
 70
     1
102
RTVSPost2010Prop49
280
     0
102
RTVSPost2010PropOp49
 70
     1
102
RTVSPost2010Prop50
 90
       50
102
RTVSPost2010PropOp50
 70
     1
102
RTVSPost2010Prop51ColorIndex
 90
      256
102
RTVSPost2010Prop51ColorRGB
 90
-16777216
102
RTVSPost2010PropOp51
 70
     0
102
RTVSPost2010Prop52
140
1.0
102
RTVSPost2010PropOp52
 70
     0
102
RTVSPost2010Prop53
 90
        2
102
RTVSPost2010PropOp53
 70
     1
102
RTVSPost2010Prop54
  1
strokes_ogs.tif
102
RTVSPost2010PropOp54
 70
     1
102
RTVSPost2010Prop55
280
     0
102
RTVSPost2010PropOp55
 70
     1
102
RTVSPost2010Prop56
140
1.0
102
RTVSPost2010PropOp56
 70
     1
102
RTVSPost2010Prop57
140
1.0
102
RTVSPost2010PropOp57
 70
     1
102
RTVSPropertyOp0
 70
     1
102
RTVSPropertyOp1
 70
     1
102
RTVSPropertyOp2
 70
     1
102
RTVSPropertyOp3
 70
     1
102
RTVSPropertyOp4
 70
     1
102
RTVSPropertyOp5
 70
     1
102
RTVSPropertyOp6
 70
     1
102
RTVSPropertyOp7
 70
     1
102
RTVSPropertyOp8
 70
     1
102
RTVSPropertyOp9
 70
     1
102
RTVSPropertyOp10
 70
     1
102
RTVSPropertyOp11
 70
     1
102
RTVSPropertyOp12
 70
     1
102
RTVSPropertyOp13
 70
     1
102
RTVSPropertyOp14
 70
     1
102
RTVSPropertyOp15
 70
     1
102
RTVSPropertyOp16
 70
     1
102
RTVSPropertyOp17
 70
     1
102
RTVSPropertyOp18
 70
     1
102
RTVSPropertyOp19
 70
     1
102
RTVSPropertyOp20
 70
     1
102
RTVSPropertyOp21
 70
     1
102
RTVSPropertyOp22
 70
     1
102
RTVSPropertyOp23
 70
     1
102
RTVSPropertyOp24
 70
     1
102
RTVSPropertyOp25
 70
     1
102
RTVSPropertyOp26
 70
     1
102
RTVSPropertyOp27
 70
     1
102
RTVSPropertyOp28
 70
     1
102
RTVSPropertyOp29
 70
     1
102
RTVSPropertyOp30
 70
     1
102
RTVSPropertyOp31
 70
     1
102
RTVSPropertyOp32
 70
     1
102
RTVSPropertyOp33
 70
     1
102
RTVSPropertyOp34
 70
     1
102
RTVSPropertyOp35
 70
     1
102
RTVSPropertyOp36
 70
     1
102
RTVSPropertyOp37
 70
     1
102
RTVSPropertyOp38
 70
     1
102
RTVSPropertyOp39
 70
     1
102
RTVSPropertyOp40
 70
     1
102
RTVSPropertyOp41
 70
     1
102
RTVSPropertyOp42
 70
     1
102
RTVSPropertyOp43
 70
     1
102
RTVSPropertyOp44
 70
     1
102
RTVSPropertyOp45
 70
     1
102
RTVSPropertyOp46
 70
     1
102
RTVSPropertyOp47
 70
     1
102
RTVSPropertyOp48
 70
     1
102
RTVSPropertyOp49
 70
     1
102
RTVSPropertyOp50
 70
     1
102
RTVSPropertyOp51
 70
     0
102
RTVSPropertyOp52
 70
     0
102
RTVSPropertyOp53
 70
     1
102
RTVSPropertyOp54
 70
     1
102
RTVSPropertyOp55
 70
     1
102
RTVSPropertyOp56
 70
     1
102
RTVSPropertyOp57
 70
     1
102
RTVSPropertyOp58
 70
     1
102
RTVSPropertyOp59
 70
     1
102
RTVSPropertyOp60
 70
     1
102
RTVSPropertyOp61
 70
     1
102
RTVSPropertyOp62
 70
     1
  0
XRECORD
  5
2F82C
102
{ACAD_REACTORS
330
2F82B
102
}
330
2F82B
100
AcDbXrecord
280
     1
102
RTVSPost2010Prop28
280
     0
102
RTVSPost2010PropOp28
 70
     1
102
RTVSPost2010Prop29
280
     1
102
RTVSPost2010PropOp29
 70
     1
102
RTVSPost2010Prop30
280
     1
102
RTVSPost2010PropOp30
 70
     1
102
RTVSPost2010Prop31
280
     0
102
RTVSPost2010PropOp31
 70
     1
102
RTVSPost2010Prop32
280
     0
102
RTVSPost2010PropOp32
 70
     1
102
RTVSPost2010Prop33
280
     0
102
RTVSPost2010PropOp33
 70
     1
102
RTVSPost2010Prop34
280
     0
102
RTVSPost2010PropOp34
 70
     1
102
RTVSPost2010Prop35
280
     0
102
RTVSPost2010PropOp35
 70
     1
102
RTVSPost2010Prop36
280
     0
102
RTVSPost2010PropOp36
 70
     1
102
RTVSPost2010Prop37
 90
       50
102
RTVSPost2010PropOp37
 70
     1
102
RTVSPost2010Prop38
140
0.0
102
RTVSPost2010PropOp38
 70
     1
102
RTVSPost2010Prop39
140
1.0
102
RTVSPost2010PropOp39
 70
     1
102
RTVSPost2010Prop40
 90
        0
102
RTVSPost2010PropOp40
 70
     1
102
RTVSPost2010Prop41ColorIndex
 90
       18
102
RTVSPost2010Prop41ColorRGB
 90
        0
102
RTVSPost2010PropOp41
 70
     1
102
RTVSPost2010Prop42
 90
       50
102
RTVSPost2010PropOp42
 70
     1
102
RTVSPost2010Prop43
 90
        3
102
RTVSPost2010PropOp43
 70
     1
102
RTVSPost2010Prop44ColorIndex
 90
        5
102
RTVSPost2010Prop44ColorRGB
 90
      255
102
RTVSPost2010PropOp44
 70
     1
102
RTVSPost2010Prop45
280
     0
102
RTVSPost2010PropOp45
 70
     1
102
RTVSPost2010Prop46
 90
       50
102
RTVSPost2010PropOp46
 70
     1
102
RTVSPost2010Prop47
 90
       50
102
RTVSPost2010PropOp47
 70
     1
102
RTVSPost2010Prop48
 90
       50
102
RTVSPost2010PropOp48
 70
     1
102
RTVSPost2010Prop49
280
     0
102
RTVSPost2010PropOp49
 70
     1
102
RTVSPost2010Prop50
 90
       50
102
RTVSPost2010PropOp50
 70
     1
102
RTVSPost2010Prop51ColorIndex
 90
      256
102
RTVSPost2010Prop51ColorRGB
 90
-16777216
102
RTVSPost2010PropOp51
 70
     0
102
RTVSPost2010Prop52
140
1.0
102
RTVSPost2010PropOp52
 70
     0
102
RTVSPost2010Prop53
 90
        2
102
RTVSPost2010PropOp53
 70
     1
102
RTVSPost2010Prop54
  1
strokes_ogs.tif
102
RTVSPost2010PropOp54
 70
     1
102
RTVSPost2010Prop55
280
     0
102
RTVSPost2010PropOp55
 70
     1
102
RTVSPost2010Prop56
140
1.0
102
RTVSPost2010PropOp56
 70
     1
102
RTVSPost2010Prop57
140
1.0
102
RTVSPost2010PropOp57
 70
     1
102
RTVSPropertyOp0
 70
     1
102
RTVSPropertyOp1
 70
     1
102
RTVSPropertyOp2
 70
     1
102
RTVSPropertyOp3
 70
     1
102
RTVSPropertyOp4
 70
     1
102
RTVSPropertyOp5
 70
     1
102
RTVSPropertyOp6
 70
     1
102
RTVSPropertyOp7
 70
     1
102
RTVSPropertyOp8
 70
     1
102
RTVSPropertyOp9
 70
     1
102
RTVSPropertyOp10
 70
     1
102
RTVSPropertyOp11
 70
     1
102
RTVSPropertyOp12
 70
     1
102
RTVSPropertyOp13
 70
     1
102
RTVSPropertyOp14
 70
     1
102
RTVSPropertyOp15
 70
     1
102
RTVSPropertyOp16
 70
     1
102
RTVSPropertyOp17
 70
     1
102
RTVSPropertyOp18
 70
     1
102
RTVSPropertyOp19
 70
     1
102
RTVSPropertyOp20
 70
     1
102
RTVSPropertyOp21
 70
     1
102
RTVSPropertyOp22
 70
     1
102
RTVSPropertyOp23
 70
     1
102
RTVSPropertyOp24
 70
     1
102
RTVSPropertyOp25
 70
     1
102
RTVSPropertyOp26
 70
     1
102
RTVSPropertyOp27
 70
     1
102
RTVSPropertyOp28
 70
     1
102
RTVSPropertyOp29
 70
     1
102
RTVSPropertyOp30
 70
     1
102
RTVSPropertyOp31
 70
     1
102
RTVSPropertyOp32
 70
     1
102
RTVSPropertyOp33
 70
     1
102
RTVSPropertyOp34
 70
     1
102
RTVSPropertyOp35
 70
     1
102
RTVSPropertyOp36
 70
     1
102
RTVSPropertyOp37
 70
     1
102
RTVSPropertyOp38
 70
     1
102
RTVSPropertyOp39
 70
     1
102
RTVSPropertyOp40
 70
     1
102
RTVSPropertyOp41
 70
     1
102
RTVSPropertyOp42
 70
     1
102
RTVSPropertyOp43
 70
     1
102
RTVSPropertyOp44
 70
     1
102
RTVSPropertyOp45
 70
     1
102
RTVSPropertyOp46
 70
     1
102
RTVSPropertyOp47
 70
     1
102
RTVSPropertyOp48
 70
     1
102
RTVSPropertyOp49
 70
     1
102
RTVSPropertyOp50
 70
     1
102
RTVSPropertyOp51
 70
     0
102
RTVSPropertyOp52
 70
     0
102
RTVSPropertyOp53
 70
     1
102
RTVSPropertyOp54
 70
     1
102
RTVSPropertyOp55
 70
     1
102
RTVSPropertyOp56
 70
     1
102
RTVSPropertyOp57
 70
     1
102
RTVSPropertyOp58
 70
     1
102
RTVSPropertyOp59
 70
     1
102
RTVSPropertyOp60
 70
     1
102
RTVSPropertyOp61
 70
     1
102
RTVSPropertyOp62
 70
     1
  0
XRECORD
  5
2F82E
102
{ACAD_REACTORS
330
2F82D
102
}
330
2F82D
100
AcDbXrecord
280
     1
102
RTVSPost2010Prop28
280
     0
102
RTVSPost2010PropOp28
 70
     1
102
RTVSPost2010Prop29
280
     1
102
RTVSPost2010PropOp29
 70
     1
102
RTVSPost2010Prop30
280
     1
102
RTVSPost2010PropOp30
 70
     1
102
RTVSPost2010Prop31
280
     0
102
RTVSPost2010PropOp31
 70
     1
102
RTVSPost2010Prop32
280
     0
102
RTVSPost2010PropOp32
 70
     1
102
RTVSPost2010Prop33
280
     0
102
RTVSPost2010PropOp33
 70
     1
102
RTVSPost2010Prop34
280
     0
102
RTVSPost2010PropOp34
 70
     1
102
RTVSPost2010Prop35
280
     0
102
RTVSPost2010PropOp35
 70
     1
102
RTVSPost2010Prop36
280
     0
102
RTVSPost2010PropOp36
 70
     1
102
RTVSPost2010Prop37
 90
       50
102
RTVSPost2010PropOp37
 70
     1
102
RTVSPost2010Prop38
140
0.0
102
RTVSPost2010PropOp38
 70
     1
102
RTVSPost2010Prop39
140
1.0
102
RTVSPost2010PropOp39
 70
     1
102
RTVSPost2010Prop40
 90
        0
102
RTVSPost2010PropOp40
 70
     1
102
RTVSPost2010Prop41ColorIndex
 90
       18
102
RTVSPost2010Prop41ColorRGB
 90
        0
102
RTVSPost2010PropOp41
 70
     1
102
RTVSPost2010Prop42
 90
       50
102
RTVSPost2010PropOp42
 70
     1
102
RTVSPost2010Prop43
 90
        3
102
RTVSPost2010PropOp43
 70
     1
102
RTVSPost2010Prop44ColorIndex
 90
        5
102
RTVSPost2010Prop44ColorRGB
 90
      255
102
RTVSPost2010PropOp44
 70
     1
102
RTVSPost2010Prop45
280
     0
102
RTVSPost2010PropOp45
 70
     1
102
RTVSPost2010Prop46
 90
       50
102
RTVSPost2010PropOp46
 70
     1
102
RTVSPost2010Prop47
 90
       50
102
RTVSPost2010PropOp47
 70
     1
102
RTVSPost2010Prop48
 90
       50
102
RTVSPost2010PropOp48
 70
     1
102
RTVSPost2010Prop49
280
     0
102
RTVSPost2010PropOp49
 70
     1
102
RTVSPost2010Prop50
 90
       50
102
RTVSPost2010PropOp50
 70
     1
102
RTVSPost2010Prop51ColorIndex
 90
      256
102
RTVSPost2010Prop51ColorRGB
 90
-16777216
102
RTVSPost2010PropOp51
 70
     0
102
RTVSPost2010Prop52
140
1.0
102
RTVSPost2010PropOp52
 70
     0
102
RTVSPost2010Prop53
 90
        2
102
RTVSPost2010PropOp53
 70
     1
102
RTVSPost2010Prop54
  1
strokes_ogs.tif
102
RTVSPost2010PropOp54
 70
     1
102
RTVSPost2010Prop55
280
     0
102
RTVSPost2010PropOp55
 70
     1
102
RTVSPost2010Prop56
140
1.0
102
RTVSPost2010PropOp56
 70
     1
102
RTVSPost2010Prop57
140
1.0
102
RTVSPost2010PropOp57
 70
     1
102
RTVSPropertyOp0
 70
     1
102
RTVSPropertyOp1
 70
     1
102
RTVSPropertyOp2
 70
     1
102
RTVSPropertyOp3
 70
     1
102
RTVSPropertyOp4
 70
     1
102
RTVSPropertyOp5
 70
     1
102
RTVSPropertyOp6
 70
     1
102
RTVSPropertyOp7
 70
     1
102
RTVSPropertyOp8
 70
     1
102
RTVSPropertyOp9
 70
     1
102
RTVSPropertyOp10
 70
     1
102
RTVSPropertyOp11
 70
     1
102
RTVSPropertyOp12
 70
     1
102
RTVSPropertyOp13
 70
     1
102
RTVSPropertyOp14
 70
     1
102
RTVSPropertyOp15
 70
     1
102
RTVSPropertyOp16
 70
     1
102
RTVSPropertyOp17
 70
     1
102
RTVSPropertyOp18
 70
     1
102
RTVSPropertyOp19
 70
     1
102
RTVSPropertyOp20
 70
     1
102
RTVSPropertyOp21
 70
     1
102
RTVSPropertyOp22
 70
     1
102
RTVSPropertyOp23
 70
     1
102
RTVSPropertyOp24
 70
     1
102
RTVSPropertyOp25
 70
     1
102
RTVSPropertyOp26
 70
     1
102
RTVSPropertyOp27
 70
     1
102
RTVSPropertyOp28
 70
     1
102
RTVSPropertyOp29
 70
     1
102
RTVSPropertyOp30
 70
     1
102
RTVSPropertyOp31
 70
     1
102
RTVSPropertyOp32
 70
     1
102
RTVSPropertyOp33
 70
     1
102
RTVSPropertyOp34
 70
     1
102
RTVSPropertyOp35
 70
     1
102
RTVSPropertyOp36
 70
     1
102
RTVSPropertyOp37
 70
     1
102
RTVSPropertyOp38
 70
     1
102
RTVSPropertyOp39
 70
     1
102
RTVSPropertyOp40
 70
     1
102
RTVSPropertyOp41
 70
     1
102
RTVSPropertyOp42
 70
     1
102
RTVSPropertyOp43
 70
     1
102
RTVSPropertyOp44
 70
     1
102
RTVSPropertyOp45
 70
     1
102
RTVSPropertyOp46
 70
     1
102
RTVSPropertyOp47
 70
     1
102
RTVSPropertyOp48
 70
     1
102
RTVSPropertyOp49
 70
     1
102
RTVSPropertyOp50
 70
     1
102
RTVSPropertyOp51
 70
     0
102
RTVSPropertyOp52
 70
     0
102
RTVSPropertyOp53
 70
     1
102
RTVSPropertyOp54
 70
     1
102
RTVSPropertyOp55
 70
     1
102
RTVSPropertyOp56
 70
     1
102
RTVSPropertyOp57
 70
     1
102
RTVSPropertyOp58
 70
     1
102
RTVSPropertyOp59
 70
     1
102
RTVSPropertyOp60
 70
     1
102
RTVSPropertyOp61
 70
     1
102
RTVSPropertyOp62
 70
     1
  0
XRECORD
  5
2F830
102
{ACAD_REACTORS
330
2F82F
102
}
330
2F82F
100
AcDbXrecord
280
     1
102
RTVSPost2010Prop28
280
     0
102
RTVSPost2010PropOp28
 70
     1
102
RTVSPost2010Prop29
280
     1
102
RTVSPost2010PropOp29
 70
     1
102
RTVSPost2010Prop30
280
     1
102
RTVSPost2010PropOp30
 70
     1
102
RTVSPost2010Prop31
280
     0
102
RTVSPost2010PropOp31
 70
     1
102
RTVSPost2010Prop32
280
     0
102
RTVSPost2010PropOp32
 70
     1
102
RTVSPost2010Prop33
280
     0
102
RTVSPost2010PropOp33
 70
     1
102
RTVSPost2010Prop34
280
     0
102
RTVSPost2010PropOp34
 70
     1
102
RTVSPost2010Prop35
280
     0
102
RTVSPost2010PropOp35
 70
     1
102
RTVSPost2010Prop36
280
     0
102
RTVSPost2010PropOp36
 70
     1
102
RTVSPost2010Prop37
 90
       50
102
RTVSPost2010PropOp37
 70
     1
102
RTVSPost2010Prop38
140
0.0
102
RTVSPost2010PropOp38
 70
     1
102
RTVSPost2010Prop39
140
1.0
102
RTVSPost2010PropOp39
 70
     1
102
RTVSPost2010Prop40
 90
        0
102
RTVSPost2010PropOp40
 70
     1
102
RTVSPost2010Prop41ColorIndex
 90
       18
102
RTVSPost2010Prop41ColorRGB
 90
        0
102
RTVSPost2010PropOp41
 70
     1
102
RTVSPost2010Prop42
 90
       50
102
RTVSPost2010PropOp42
 70
     1
102
RTVSPost2010Prop43
 90
        3
102
RTVSPost2010PropOp43
 70
     1
102
RTVSPost2010Prop44ColorIndex
 90
        5
102
RTVSPost2010Prop44ColorRGB
 90
      255
102
RTVSPost2010PropOp44
 70
     1
102
RTVSPost2010Prop45
280
     0
102
RTVSPost2010PropOp45
 70
     1
102
RTVSPost2010Prop46
 90
       50
102
RTVSPost2010PropOp46
 70
     1
102
RTVSPost2010Prop47
 90
       50
102
RTVSPost2010PropOp47
 70
     1
102
RTVSPost2010Prop48
 90
       50
102
RTVSPost2010PropOp48
 70
     1
102
RTVSPost2010Prop49
280
     0
102
RTVSPost2010PropOp49
 70
     1
102
RTVSPost2010Prop50
 90
       50
102
RTVSPost2010PropOp50
 70
     1
102
RTVSPost2010Prop51ColorIndex
 90
      256
102
RTVSPost2010Prop51ColorRGB
 90
-16777216
102
RTVSPost2010PropOp51
 70
     0
102
RTVSPost2010Prop52
140
1.0
102
RTVSPost2010PropOp52
 70
     0
102
RTVSPost2010Prop53
 90
        2
102
RTVSPost2010PropOp53
 70
     1
102
RTVSPost2010Prop54
  1
strokes_ogs.tif
102
RTVSPost2010PropOp54
 70
     1
102
RTVSPost2010Prop55
280
     0
102
RTVSPost2010PropOp55
 70
     1
102
RTVSPost2010Prop56
140
1.0
102
RTVSPost2010PropOp56
 70
     1
102
RTVSPost2010Prop57
140
1.0
102
RTVSPost2010PropOp57
 70
     1
102
RTVSPropertyOp0
 70
     1
102
RTVSPropertyOp1
 70
     1
102
RTVSPropertyOp2
 70
     1
102
RTVSPropertyOp3
 70
     1
102
RTVSPropertyOp4
 70
     1
102
RTVSPropertyOp5
 70
     1
102
RTVSPropertyOp6
 70
     1
102
RTVSPropertyOp7
 70
     1
102
RTVSPropertyOp8
 70
     1
102
RTVSPropertyOp9
 70
     1
102
RTVSPropertyOp10
 70
     1
102
RTVSPropertyOp11
 70
     1
102
RTVSPropertyOp12
 70
     1
102
RTVSPropertyOp13
 70
     1
102
RTVSPropertyOp14
 70
     1
102
RTVSPropertyOp15
 70
     1
102
RTVSPropertyOp16
 70
     1
102
RTVSPropertyOp17
 70
     1
102
RTVSPropertyOp18
 70
     1
102
RTVSPropertyOp19
 70
     1
102
RTVSPropertyOp20
 70
     1
102
RTVSPropertyOp21
 70
     1
102
RTVSPropertyOp22
 70
     1
102
RTVSPropertyOp23
 70
     1
102
RTVSPropertyOp24
 70
     1
102
RTVSPropertyOp25
 70
     1
102
RTVSPropertyOp26
 70
     1
102
RTVSPropertyOp27
 70
     1
102
RTVSPropertyOp28
 70
     1
102
RTVSPropertyOp29
 70
     1
102
RTVSPropertyOp30
 70
     1
102
RTVSPropertyOp31
 70
     1
102
RTVSPropertyOp32
 70
     1
102
RTVSPropertyOp33
 70
     1
102
RTVSPropertyOp34
 70
     1
102
RTVSPropertyOp35
 70
     1
102
RTVSPropertyOp36
 70
     1
102
RTVSPropertyOp37
 70
     1
102
RTVSPropertyOp38
 70
     1
102
RTVSPropertyOp39
 70
     1
102
RTVSPropertyOp40
 70
     1
102
RTVSPropertyOp41
 70
     1
102
RTVSPropertyOp42
 70
     1
102
RTVSPropertyOp43
 70
     1
102
RTVSPropertyOp44
 70
     1
102
RTVSPropertyOp45
 70
     1
102
RTVSPropertyOp46
 70
     1
102
RTVSPropertyOp47
 70
     1
102
RTVSPropertyOp48
 70
     1
102
RTVSPropertyOp49
 70
     1
102
RTVSPropertyOp50
 70
     1
102
RTVSPropertyOp51
 70
     0
102
RTVSPropertyOp52
 70
     0
102
RTVSPropertyOp53
 70
     1
102
RTVSPropertyOp54
 70
     1
102
RTVSPropertyOp55
 70
     1
102
RTVSPropertyOp56
 70
     1
102
RTVSPropertyOp57
 70
     1
102
RTVSPropertyOp58
 70
     1
102
RTVSPropertyOp59
 70
     1
102
RTVSPropertyOp60
 70
     1
102
RTVSPropertyOp61
 70
     1
102
RTVSPropertyOp62
 70
     1
  0
XRECORD
  5
2F838
102
{ACAD_REACTORS
330
2F837
102
}
330
2F837
100
AcDbXrecord
280
     1
102
RTVSPost2010Prop28
280
     0
102
RTVSPost2010PropOp28
 70
     1
102
RTVSPost2010Prop29
280
     1
102
RTVSPost2010PropOp29
 70
     1
102
RTVSPost2010Prop30
280
     1
102
RTVSPost2010PropOp30
 70
     1
102
RTVSPost2010Prop31
280
     0
102
RTVSPost2010PropOp31
 70
     1
102
RTVSPost2010Prop32
280
     0
102
RTVSPost2010PropOp32
 70
     1
102
RTVSPost2010Prop33
280
     0
102
RTVSPost2010PropOp33
 70
     1
102
RTVSPost2010Prop34
280
     0
102
RTVSPost2010PropOp34
 70
     1
102
RTVSPost2010Prop35
280
     0
102
RTVSPost2010PropOp35
 70
     1
102
RTVSPost2010Prop36
280
     0
102
RTVSPost2010PropOp36
 70
     1
102
RTVSPost2010Prop37
 90
       50
102
RTVSPost2010PropOp37
 70
     1
102
RTVSPost2010Prop38
140
0.0
102
RTVSPost2010PropOp38
 70
     1
102
RTVSPost2010Prop39
140
1.0
102
RTVSPost2010PropOp39
 70
     1
102
RTVSPost2010Prop40
 90
        0
102
RTVSPost2010PropOp40
 70
     1
102
RTVSPost2010Prop41ColorIndex
 90
       18
102
RTVSPost2010Prop41ColorRGB
 90
        0
102
RTVSPost2010PropOp41
 70
     1
102
RTVSPost2010Prop42
 90
       50
102
RTVSPost2010PropOp42
 70
     1
102
RTVSPost2010Prop43
 90
        3
102
RTVSPost2010PropOp43
 70
     1
102
RTVSPost2010Prop44ColorIndex
 90
        5
102
RTVSPost2010Prop44ColorRGB
 90
      255
102
RTVSPost2010PropOp44
 70
     1
102
RTVSPost2010Prop45
280
     0
102
RTVSPost2010PropOp45
 70
     1
102
RTVSPost2010Prop46
 90
       50
102
RTVSPost2010PropOp46
 70
     1
102
RTVSPost2010Prop47
 90
       50
102
RTVSPost2010PropOp47
 70
     1
102
RTVSPost2010Prop48
 90
       50
102
RTVSPost2010PropOp48
 70
     1
102
RTVSPost2010Prop49
280
     0
102
RTVSPost2010PropOp49
 70
     1
102
RTVSPost2010Prop50
 90
       50
102
RTVSPost2010PropOp50
 70
     1
102
RTVSPost2010Prop51ColorIndex
 90
      256
102
RTVSPost2010Prop51ColorRGB
 90
-16777216
102
RTVSPost2010PropOp51
 70
     0
102
RTVSPost2010Prop52
140
1.0
102
RTVSPost2010PropOp52
 70
     0
102
RTVSPost2010Prop53
 90
        2
102
RTVSPost2010PropOp53
 70
     1
102
RTVSPost2010Prop54
  1
strokes_ogs.tif
102
RTVSPost2010PropOp54
 70
     1
102
RTVSPost2010Prop55
280
     0
102
RTVSPost2010PropOp55
 70
     1
102
RTVSPost2010Prop56
140
1.0
102
RTVSPost2010PropOp56
 70
     1
102
RTVSPost2010Prop57
140
1.0
102
RTVSPost2010PropOp57
 70
     1
102
RTVSPropertyOp0
 70
     1
102
RTVSPropertyOp1
 70
     1
102
RTVSPropertyOp2
 70
     1
102
RTVSPropertyOp3
 70
     1
102
RTVSPropertyOp4
 70
     1
102
RTVSPropertyOp5
 70
     1
102
RTVSPropertyOp6
 70
     1
102
RTVSPropertyOp7
 70
     1
102
RTVSPropertyOp8
 70
     1
102
RTVSPropertyOp9
 70
     1
102
RTVSPropertyOp10
 70
     1
102
RTVSPropertyOp11
 70
     1
102
RTVSPropertyOp12
 70
     1
102
RTVSPropertyOp13
 70
     1
102
RTVSPropertyOp14
 70
     1
102
RTVSPropertyOp15
 70
     1
102
RTVSPropertyOp16
 70
     1
102
RTVSPropertyOp17
 70
     1
102
RTVSPropertyOp18
 70
     1
102
RTVSPropertyOp19
 70
     1
102
RTVSPropertyOp20
 70
     1
102
RTVSPropertyOp21
 70
     1
102
RTVSPropertyOp22
 70
     1
102
RTVSPropertyOp23
 70
     1
102
RTVSPropertyOp24
 70
     1
102
RTVSPropertyOp25
 70
     1
102
RTVSPropertyOp26
 70
     1
102
RTVSPropertyOp27
 70
     1
102
RTVSPropertyOp28
 70
     1
102
RTVSPropertyOp29
 70
     1
102
RTVSPropertyOp30
 70
     1
102
RTVSPropertyOp31
 70
     1
102
RTVSPropertyOp32
 70
     1
102
RTVSPropertyOp33
 70
     1
102
RTVSPropertyOp34
 70
     1
102
RTVSPropertyOp35
 70
     1
102
RTVSPropertyOp36
 70
     1
102
RTVSPropertyOp37
 70
     1
102
RTVSPropertyOp38
 70
     1
102
RTVSPropertyOp39
 70
     1
102
RTVSPropertyOp40
 70
     1
102
RTVSPropertyOp41
 70
     1
102
RTVSPropertyOp42
 70
     1
102
RTVSPropertyOp43
 70
     1
102
RTVSPropertyOp44
 70
     1
102
RTVSPropertyOp45
 70
     1
102
RTVSPropertyOp46
 70
     1
102
RTVSPropertyOp47
 70
     1
102
RTVSPropertyOp48
 70
     1
102
RTVSPropertyOp49
 70
     1
102
RTVSPropertyOp50
 70
     1
102
RTVSPropertyOp51
 70
     0
102
RTVSPropertyOp52
 70
     0
102
RTVSPropertyOp53
 70
     1
102
RTVSPropertyOp54
 70
     1
102
RTVSPropertyOp55
 70
     1
102
RTVSPropertyOp56
 70
     1
102
RTVSPropertyOp57
 70
     1
102
RTVSPropertyOp58
 70
     1
102
RTVSPropertyOp59
 70
     1
102
RTVSPropertyOp60
 70
     1
102
RTVSPropertyOp61
 70
     1
102
RTVSPropertyOp62
 70
     1
  0
XRECORD
  5
2F854
102
{ACAD_REACTORS
330
2F853
102
}
330
2F853
100
AcDbXrecord
280
     1
102
RTVSPost2010Prop28
280
     0
102
RTVSPost2010PropOp28
 70
     1
102
RTVSPost2010Prop29
280
     1
102
RTVSPost2010PropOp29
 70
     1
102
RTVSPost2010Prop30
280
     1
102
RTVSPost2010PropOp30
 70
     1
102
RTVSPost2010Prop31
280
     0
102
RTVSPost2010PropOp31
 70
     1
102
RTVSPost2010Prop32
280
     0
102
RTVSPost2010PropOp32
 70
     1
102
RTVSPost2010Prop33
280
     0
102
RTVSPost2010PropOp33
 70
     1
102
RTVSPost2010Prop34
280
     0
102
RTVSPost2010PropOp34
 70
     1
102
RTVSPost2010Prop35
280
     0
102
RTVSPost2010PropOp35
 70
     1
102
RTVSPost2010Prop36
280
     0
102
RTVSPost2010PropOp36
 70
     1
102
RTVSPost2010Prop37
 90
       50
102
RTVSPost2010PropOp37
 70
     0
102
RTVSPost2010Prop38
140
0.0
102
RTVSPost2010PropOp38
 70
     0
102
RTVSPost2010Prop39
140
1.0
102
RTVSPost2010PropOp39
 70
     0
102
RTVSPost2010Prop40
 90
        0
102
RTVSPost2010PropOp40
 70
     0
102
RTVSPost2010Prop41ColorIndex
 90
       18
102
RTVSPost2010Prop41ColorRGB
 90
        0
102
RTVSPost2010PropOp41
 70
     0
102
RTVSPost2010Prop42
 90
       50
102
RTVSPost2010PropOp42
 70
     0
102
RTVSPost2010Prop43
 90
        3
102
RTVSPost2010PropOp43
 70
     0
102
RTVSPost2010Prop44ColorIndex
 90
        5
102
RTVSPost2010Prop44ColorRGB
 90
      255
102
RTVSPost2010PropOp44
 70
     0
102
RTVSPost2010Prop45
280
     0
102
RTVSPost2010PropOp45
 70
     1
102
RTVSPost2010Prop46
 90
       50
102
RTVSPost2010PropOp46
 70
     0
102
RTVSPost2010Prop47
 90
       50
102
RTVSPost2010PropOp47
 70
     0
102
RTVSPost2010Prop48
 90
       50
102
RTVSPost2010PropOp48
 70
     0
102
RTVSPost2010Prop49
280
     0
102
RTVSPost2010PropOp49
 70
     1
102
RTVSPost2010Prop50
 90
       50
102
RTVSPost2010PropOp50
 70
     0
102
RTVSPost2010Prop51ColorIndex
 90
      256
102
RTVSPost2010Prop51ColorRGB
 90
-16777216
102
RTVSPost2010PropOp51
 70
     0
102
RTVSPost2010Prop52
140
1.0
102
RTVSPost2010PropOp52
 70
     0
102
RTVSPost2010Prop53
 90
        2
102
RTVSPost2010PropOp53
 70
     0
102
RTVSPost2010Prop54
  1
strokes_ogs.tif
102
RTVSPost2010PropOp54
 70
     0
102
RTVSPost2010Prop55
280
     0
102
RTVSPost2010PropOp55
 70
     1
102
RTVSPost2010Prop56
140
1.0
102
RTVSPost2010PropOp56
 70
     0
102
RTVSPost2010Prop57
140
1.0
102
RTVSPost2010PropOp57
 70
     0
102
RTVSPropertyOp0
 70
     0
102
RTVSPropertyOp1
 70
     0
102
RTVSPropertyOp2
 70
     0
102
RTVSPropertyOp3
 70
     0
102
RTVSPropertyOp4
 70
     0
102
RTVSPropertyOp5
 70
     0
102
RTVSPropertyOp6
 70
     0
102
RTVSPropertyOp7
 70
     0
102
RTVSPropertyOp8
 70
     0
102
RTVSPropertyOp9
 70
     0
102
RTVSPropertyOp10
 70
     0
102
RTVSPropertyOp11
 70
     0
102
RTVSPropertyOp12
 70
     0
102
RTVSPropertyOp13
 70
     0
102
RTVSPropertyOp14
 70
     2
102
RTVSPropertyOp15
 70
     0
102
RTVSPropertyOp16
 70
     0
102
RTVSPropertyOp17
 70
     0
102
RTVSPropertyOp18
 70
     0
102
RTVSPropertyOp19
 70
     0
102
RTVSPropertyOp20
 70
     0
102
RTVSPropertyOp21
 70
     0
102
RTVSPropertyOp22
 70
     0
102
RTVSPropertyOp23
 70
     0
102
RTVSPropertyOp24
 70
     0
102
RTVSPropertyOp25
 70
     0
102
RTVSPropertyOp26
 70
     0
102
RTVSPropertyOp27
 70
     0
102
RTVSPropertyOp28
 70
     1
102
RTVSPropertyOp29
 70
     1
102
RTVSPropertyOp30
 70
     1
102
RTVSPropertyOp31
 70
     1
102
RTVSPropertyOp32
 70
     1
102
RTVSPropertyOp33
 70
     1
102
RTVSPropertyOp34
 70
     1
102
RTVSPropertyOp35
 70
     1
102
RTVSPropertyOp36
 70
     1
102
RTVSPropertyOp37
 70
     0
102
RTVSPropertyOp38
 70
     0
102
RTVSPropertyOp39
 70
     0
102
RTVSPropertyOp40
 70
     0
102
RTVSPropertyOp41
 70
     0
102
RTVSPropertyOp42
 70
     0
102
RTVSPropertyOp43
 70
     0
102
RTVSPropertyOp44
 70
     0
102
RTVSPropertyOp45
 70
     1
102
RTVSPropertyOp46
 70
     0
102
RTVSPropertyOp47
 70
     0
102
RTVSPropertyOp48
 70
     0
102
RTVSPropertyOp49
 70
     1
102
RTVSPropertyOp50
 70
     0
102
RTVSPropertyOp51
 70
     0
102
RTVSPropertyOp52
 70
     0
102
RTVSPropertyOp53
 70
     0
102
RTVSPropertyOp54
 70
     0
102
RTVSPropertyOp55
 70
     1
102
RTVSPropertyOp56
 70
     0
102
RTVSPropertyOp57
 70
     0
102
RTVSPropertyOp58
 70
     0
102
RTVSPropertyOp59
 70
     0
102
RTVSPropertyOp60
 70
     0
102
RTVSPropertyOp61
 70
     0
102
RTVSPropertyOp62
 70
     0
  0
XRECORD
  5
2F844
102
{ACAD_REACTORS
330
2F843
102
}
330
2F843
100
AcDbXrecord
280
     1
102
RTVSPost2010Prop28
280
     0
102
RTVSPost2010PropOp28
 70
     1
102
RTVSPost2010Prop29
280
     1
102
RTVSPost2010PropOp29
 70
     1
102
RTVSPost2010Prop30
280
     1
102
RTVSPost2010PropOp30
 70
     1
102
RTVSPost2010Prop31
280
     0
102
RTVSPost2010PropOp31
 70
     1
102
RTVSPost2010Prop32
280
     0
102
RTVSPost2010PropOp32
 70
     1
102
RTVSPost2010Prop33
280
     0
102
RTVSPost2010PropOp33
 70
     1
102
RTVSPost2010Prop34
280
     0
102
RTVSPost2010PropOp34
 70
     1
102
RTVSPost2010Prop35
280
     0
102
RTVSPost2010PropOp35
 70
     1
102
RTVSPost2010Prop36
280
     0
102
RTVSPost2010PropOp36
 70
     1
102
RTVSPost2010Prop37
 90
       50
102
RTVSPost2010PropOp37
 70
     1
102
RTVSPost2010Prop38
140
0.0
102
RTVSPost2010PropOp38
 70
     1
102
RTVSPost2010Prop39
140
1.0
102
RTVSPost2010PropOp39
 70
     1
102
RTVSPost2010Prop40
 90
        0
102
RTVSPost2010PropOp40
 70
     1
102
RTVSPost2010Prop41ColorIndex
 90
       18
102
RTVSPost2010Prop41ColorRGB
 90
        0
102
RTVSPost2010PropOp41
 70
     1
102
RTVSPost2010Prop42
 90
       50
102
RTVSPost2010PropOp42
 70
     1
102
RTVSPost2010Prop43
 90
        3
102
RTVSPost2010PropOp43
 70
     1
102
RTVSPost2010Prop44ColorIndex
 90
        5
102
RTVSPost2010Prop44ColorRGB
 90
      255
102
RTVSPost2010PropOp44
 70
     1
102
RTVSPost2010Prop45
280
     0
102
RTVSPost2010PropOp45
 70
     1
102
RTVSPost2010Prop46
 90
       50
102
RTVSPost2010PropOp46
 70
     1
102
RTVSPost2010Prop47
 90
       50
102
RTVSPost2010PropOp47
 70
     1
102
RTVSPost2010Prop48
 90
       50
102
RTVSPost2010PropOp48
 70
     1
102
RTVSPost2010Prop49
280
     0
102
RTVSPost2010PropOp49
 70
     1
102
RTVSPost2010Prop50
 90
       50
102
RTVSPost2010PropOp50
 70
     1
102
RTVSPost2010Prop51ColorIndex
 90
      256
102
RTVSPost2010Prop51ColorRGB
 90
-16777216
102
RTVSPost2010PropOp51
 70
     0
102
RTVSPost2010Prop52
140
1.0
102
RTVSPost2010PropOp52
 70
     0
102
RTVSPost2010Prop53
 90
        2
102
RTVSPost2010PropOp53
 70
     1
102
RTVSPost2010Prop54
  1
strokes_ogs.tif
102
RTVSPost2010PropOp54
 70
     1
102
RTVSPost2010Prop55
280
     0
102
RTVSPost2010PropOp55
 70
     1
102
RTVSPost2010Prop56
140
1.0
102
RTVSPost2010PropOp56
 70
     1
102
RTVSPost2010Prop57
140
1.0
102
RTVSPost2010PropOp57
 70
     1
102
RTVSPropertyOp0
 70
     1
102
RTVSPropertyOp1
 70
     1
102
RTVSPropertyOp2
 70
     1
102
RTVSPropertyOp3
 70
     1
102
RTVSPropertyOp4
 70
     1
102
RTVSPropertyOp5
 70
     1
102
RTVSPropertyOp6
 70
     1
102
RTVSPropertyOp7
 70
     1
102
RTVSPropertyOp8
 70
     1
102
RTVSPropertyOp9
 70
     1
102
RTVSPropertyOp10
 70
     1
102
RTVSPropertyOp11
 70
     1
102
RTVSPropertyOp12
 70
     1
102
RTVSPropertyOp13
 70
     1
102
RTVSPropertyOp14
 70
     1
102
RTVSPropertyOp15
 70
     1
102
RTVSPropertyOp16
 70
     1
102
RTVSPropertyOp17
 70
     1
102
RTVSPropertyOp18
 70
     1
102
RTVSPropertyOp19
 70
     1
102
RTVSPropertyOp20
 70
     1
102
RTVSPropertyOp21
 70
     1
102
RTVSPropertyOp22
 70
     1
102
RTVSPropertyOp23
 70
     1
102
RTVSPropertyOp24
 70
     1
102
RTVSPropertyOp25
 70
     1
102
RTVSPropertyOp26
 70
     1
102
RTVSPropertyOp27
 70
     1
102
RTVSPropertyOp28
 70
     1
102
RTVSPropertyOp29
 70
     1
102
RTVSPropertyOp30
 70
     1
102
RTVSPropertyOp31
 70
     1
102
RTVSPropertyOp32
 70
     1
102
RTVSPropertyOp33
 70
     1
102
RTVSPropertyOp34
 70
     1
102
RTVSPropertyOp35
 70
     1
102
RTVSPropertyOp36
 70
     1
102
RTVSPropertyOp37
 70
     1
102
RTVSPropertyOp38
 70
     1
102
RTVSPropertyOp39
 70
     1
102
RTVSPropertyOp40
 70
     1
102
RTVSPropertyOp41
 70
     1
102
RTVSPropertyOp42
 70
     1
102
RTVSPropertyOp43
 70
     1
102
RTVSPropertyOp44
 70
     1
102
RTVSPropertyOp45
 70
     1
102
RTVSPropertyOp46
 70
     1
102
RTVSPropertyOp47
 70
     1
102
RTVSPropertyOp48
 70
     1
102
RTVSPropertyOp49
 70
     1
102
RTVSPropertyOp50
 70
     1
102
RTVSPropertyOp51
 70
     0
102
RTVSPropertyOp52
 70
     0
102
RTVSPropertyOp53
 70
     1
102
RTVSPropertyOp54
 70
     1
102
RTVSPropertyOp55
 70
     1
102
RTVSPropertyOp56
 70
     1
102
RTVSPropertyOp57
 70
     1
102
RTVSPropertyOp58
 70
     1
102
RTVSPropertyOp59
 70
     1
102
RTVSPropertyOp60
 70
     1
102
RTVSPropertyOp61
 70
     1
102
RTVSPropertyOp62
 70
     1
  0
XRECORD
  5
2F856
102
{ACAD_REACTORS
330
2F855
102
}
330
2F855
100
AcDbXrecord
280
     1
102
RTVSPost2010Prop28
280
     0
102
RTVSPost2010PropOp28
 70
     1
102
RTVSPost2010Prop29
280
     1
102
RTVSPost2010PropOp29
 70
     1
102
RTVSPost2010Prop30
280
     1
102
RTVSPost2010PropOp30
 70
     1
102
RTVSPost2010Prop31
280
     0
102
RTVSPost2010PropOp31
 70
     1
102
RTVSPost2010Prop32
280
     0
102
RTVSPost2010PropOp32
 70
     1
102
RTVSPost2010Prop33
280
     0
102
RTVSPost2010PropOp33
 70
     1
102
RTVSPost2010Prop34
280
     0
102
RTVSPost2010PropOp34
 70
     1
102
RTVSPost2010Prop35
280
     0
102
RTVSPost2010PropOp35
 70
     1
102
RTVSPost2010Prop36
280
     0
102
RTVSPost2010PropOp36
 70
     1
102
RTVSPost2010Prop37
 90
       50
102
RTVSPost2010PropOp37
 70
     0
102
RTVSPost2010Prop38
140
0.0
102
RTVSPost2010PropOp38
 70
     0
102
RTVSPost2010Prop39
140
1.0
102
RTVSPost2010PropOp39
 70
     0
102
RTVSPost2010Prop40
 90
        0
102
RTVSPost2010PropOp40
 70
     0
102
RTVSPost2010Prop41ColorIndex
 90
       18
102
RTVSPost2010Prop41ColorRGB
 90
        0
102
RTVSPost2010PropOp41
 70
     0
102
RTVSPost2010Prop42
 90
       50
102
RTVSPost2010PropOp42
 70
     0
102
RTVSPost2010Prop43
 90
        3
102
RTVSPost2010PropOp43
 70
     0
102
RTVSPost2010Prop44ColorIndex
 90
        5
102
RTVSPost2010Prop44ColorRGB
 90
      255
102
RTVSPost2010PropOp44
 70
     0
102
RTVSPost2010Prop45
280
     0
102
RTVSPost2010PropOp45
 70
     1
102
RTVSPost2010Prop46
 90
       50
102
RTVSPost2010PropOp46
 70
     0
102
RTVSPost2010Prop47
 90
       50
102
RTVSPost2010PropOp47
 70
     0
102
RTVSPost2010Prop48
 90
       50
102
RTVSPost2010PropOp48
 70
     0
102
RTVSPost2010Prop49
280
     0
102
RTVSPost2010PropOp49
 70
     1
102
RTVSPost2010Prop50
 90
       50
102
RTVSPost2010PropOp50
 70
     0
102
RTVSPost2010Prop51ColorIndex
 90
      256
102
RTVSPost2010Prop51ColorRGB
 90
-16777216
102
RTVSPost2010PropOp51
 70
     0
102
RTVSPost2010Prop52
140
1.0
102
RTVSPost2010PropOp52
 70
     0
102
RTVSPost2010Prop53
 90
        2
102
RTVSPost2010PropOp53
 70
     0
102
RTVSPost2010Prop54
  1
strokes_ogs.tif
102
RTVSPost2010PropOp54
 70
     0
102
RTVSPost2010Prop55
280
     0
102
RTVSPost2010PropOp55
 70
     1
102
RTVSPost2010Prop56
140
1.0
102
RTVSPost2010PropOp56
 70
     0
102
RTVSPost2010Prop57
140
1.0
102
RTVSPost2010PropOp57
 70
     0
102
RTVSPropertyOp0
 70
     0
102
RTVSPropertyOp1
 70
     0
102
RTVSPropertyOp2
 70
     0
102
RTVSPropertyOp3
 70
     0
102
RTVSPropertyOp4
 70
     0
102
RTVSPropertyOp5
 70
     0
102
RTVSPropertyOp6
 70
     0
102
RTVSPropertyOp7
 70
     0
102
RTVSPropertyOp8
 70
     0
102
RTVSPropertyOp9
 70
     0
102
RTVSPropertyOp10
 70
     0
102
RTVSPropertyOp11
 70
     0
102
RTVSPropertyOp12
 70
     0
102
RTVSPropertyOp13
 70
     0
102
RTVSPropertyOp14
 70
     2
102
RTVSPropertyOp15
 70
     0
102
RTVSPropertyOp16
 70
     0
102
RTVSPropertyOp17
 70
     0
102
RTVSPropertyOp18
 70
     0
102
RTVSPropertyOp19
 70
     0
102
RTVSPropertyOp20
 70
     0
102
RTVSPropertyOp21
 70
     0
102
RTVSPropertyOp22
 70
     0
102
RTVSPropertyOp23
 70
     0
102
RTVSPropertyOp24
 70
     0
102
RTVSPropertyOp25
 70
     0
102
RTVSPropertyOp26
 70
     0
102
RTVSPropertyOp27
 70
     0
102
RTVSPropertyOp28
 70
     1
102
RTVSPropertyOp29
 70
     1
102
RTVSPropertyOp30
 70
     1
102
RTVSPropertyOp31
 70
     1
102
RTVSPropertyOp32
 70
     1
102
RTVSPropertyOp33
 70
     1
102
RTVSPropertyOp34
 70
     1
102
RTVSPropertyOp35
 70
     1
102
RTVSPropertyOp36
 70
     1
102
RTVSPropertyOp37
 70
     0
102
RTVSPropertyOp38
 70
     0
102
RTVSPropertyOp39
 70
     0
102
RTVSPropertyOp40
 70
     0
102
RTVSPropertyOp41
 70
     0
102
RTVSPropertyOp42
 70
     0
102
RTVSPropertyOp43
 70
     0
102
RTVSPropertyOp44
 70
     0
102
RTVSPropertyOp45
 70
     1
102
RTVSPropertyOp46
 70
     0
102
RTVSPropertyOp47
 70
     0
102
RTVSPropertyOp48
 70
     0
102
RTVSPropertyOp49
 70
     1
102
RTVSPropertyOp50
 70
     0
102
RTVSPropertyOp51
 70
     0
102
RTVSPropertyOp52
 70
     0
102
RTVSPropertyOp53
 70
     0
102
RTVSPropertyOp54
 70
     0
102
RTVSPropertyOp55
 70
     1
102
RTVSPropertyOp56
 70
     0
102
RTVSPropertyOp57
 70
     0
102
RTVSPropertyOp58
 70
     0
102
RTVSPropertyOp59
 70
     0
102
RTVSPropertyOp60
 70
     0
102
RTVSPropertyOp61
 70
     0
102
RTVSPropertyOp62
 70
     0
  0
XRECORD
  5
2F83C
102
{ACAD_REACTORS
330
2F83B
102
}
330
2F83B
100
AcDbXrecord
280
     1
102
RTVSPost2010Prop28
280
     0
102
RTVSPost2010PropOp28
 70
     1
102
RTVSPost2010Prop29
280
     1
102
RTVSPost2010PropOp29
 70
     1
102
RTVSPost2010Prop30
280
     1
102
RTVSPost2010PropOp30
 70
     1
102
RTVSPost2010Prop31
280
     0
102
RTVSPost2010PropOp31
 70
     1
102
RTVSPost2010Prop32
280
     0
102
RTVSPost2010PropOp32
 70
     1
102
RTVSPost2010Prop33
280
     0
102
RTVSPost2010PropOp33
 70
     1
102
RTVSPost2010Prop34
280
     0
102
RTVSPost2010PropOp34
 70
     1
102
RTVSPost2010Prop35
280
     0
102
RTVSPost2010PropOp35
 70
     1
102
RTVSPost2010Prop36
280
     0
102
RTVSPost2010PropOp36
 70
     1
102
RTVSPost2010Prop37
 90
       50
102
RTVSPost2010PropOp37
 70
     1
102
RTVSPost2010Prop38
140
0.0
102
RTVSPost2010PropOp38
 70
     1
102
RTVSPost2010Prop39
140
1.0
102
RTVSPost2010PropOp39
 70
     1
102
RTVSPost2010Prop40
 90
        0
102
RTVSPost2010PropOp40
 70
     1
102
RTVSPost2010Prop41ColorIndex
 90
       18
102
RTVSPost2010Prop41ColorRGB
 90
        0
102
RTVSPost2010PropOp41
 70
     1
102
RTVSPost2010Prop42
 90
       50
102
RTVSPost2010PropOp42
 70
     1
102
RTVSPost2010Prop43
 90
        3
102
RTVSPost2010PropOp43
 70
     1
102
RTVSPost2010Prop44ColorIndex
 90
        5
102
RTVSPost2010Prop44ColorRGB
 90
      255
102
RTVSPost2010PropOp44
 70
     1
102
RTVSPost2010Prop45
280
     0
102
RTVSPost2010PropOp45
 70
     1
102
RTVSPost2010Prop46
 90
       50
102
RTVSPost2010PropOp46
 70
     1
102
RTVSPost2010Prop47
 90
       50
102
RTVSPost2010PropOp47
 70
     1
102
RTVSPost2010Prop48
 90
       50
102
RTVSPost2010PropOp48
 70
     1
102
RTVSPost2010Prop49
280
     0
102
RTVSPost2010PropOp49
 70
     1
102
RTVSPost2010Prop50
 90
       50
102
RTVSPost2010PropOp50
 70
     1
102
RTVSPost2010Prop51ColorIndex
 90
      256
102
RTVSPost2010Prop51ColorRGB
 90
-16777216
102
RTVSPost2010PropOp51
 70
     0
102
RTVSPost2010Prop52
140
1.0
102
RTVSPost2010PropOp52
 70
     0
102
RTVSPost2010Prop53
 90
        2
102
RTVSPost2010PropOp53
 70
     1
102
RTVSPost2010Prop54
  1
strokes_ogs.tif
102
RTVSPost2010PropOp54
 70
     1
102
RTVSPost2010Prop55
280
     0
102
RTVSPost2010PropOp55
 70
     1
102
RTVSPost2010Prop56
140
1.0
102
RTVSPost2010PropOp56
 70
     1
102
RTVSPost2010Prop57
140
1.0
102
RTVSPost2010PropOp57
 70
     1
102
RTVSPropertyOp0
 70
     1
102
RTVSPropertyOp1
 70
     1
102
RTVSPropertyOp2
 70
     1
102
RTVSPropertyOp3
 70
     1
102
RTVSPropertyOp4
 70
     1
102
RTVSPropertyOp5
 70
     1
102
RTVSPropertyOp6
 70
     1
102
RTVSPropertyOp7
 70
     1
102
RTVSPropertyOp8
 70
     1
102
RTVSPropertyOp9
 70
     1
102
RTVSPropertyOp10
 70
     1
102
RTVSPropertyOp11
 70
     1
102
RTVSPropertyOp12
 70
     1
102
RTVSPropertyOp13
 70
     1
102
RTVSPropertyOp14
 70
     1
102
RTVSPropertyOp15
 70
     1
102
RTVSPropertyOp16
 70
     1
102
RTVSPropertyOp17
 70
     1
102
RTVSPropertyOp18
 70
     1
102
RTVSPropertyOp19
 70
     1
102
RTVSPropertyOp20
 70
     1
102
RTVSPropertyOp21
 70
     1
102
RTVSPropertyOp22
 70
     1
102
RTVSPropertyOp23
 70
     1
102
RTVSPropertyOp24
 70
     1
102
RTVSPropertyOp25
 70
     1
102
RTVSPropertyOp26
 70
     1
102
RTVSPropertyOp27
 70
     1
102
RTVSPropertyOp28
 70
     1
102
RTVSPropertyOp29
 70
     1
102
RTVSPropertyOp30
 70
     1
102
RTVSPropertyOp31
 70
     1
102
RTVSPropertyOp32
 70
     1
102
RTVSPropertyOp33
 70
     1
102
RTVSPropertyOp34
 70
     1
102
RTVSPropertyOp35
 70
     1
102
RTVSPropertyOp36
 70
     1
102
RTVSPropertyOp37
 70
     1
102
RTVSPropertyOp38
 70
     1
102
RTVSPropertyOp39
 70
     1
102
RTVSPropertyOp40
 70
     1
102
RTVSPropertyOp41
 70
     1
102
RTVSPropertyOp42
 70
     1
102
RTVSPropertyOp43
 70
     1
102
RTVSPropertyOp44
 70
     1
102
RTVSPropertyOp45
 70
     1
102
RTVSPropertyOp46
 70
     1
102
RTVSPropertyOp47
 70
     1
102
RTVSPropertyOp48
 70
     1
102
RTVSPropertyOp49
 70
     1
102
RTVSPropertyOp50
 70
     1
102
RTVSPropertyOp51
 70
     0
102
RTVSPropertyOp52
 70
     0
102
RTVSPropertyOp53
 70
     1
102
RTVSPropertyOp54
 70
     1
102
RTVSPropertyOp55
 70
     1
102
RTVSPropertyOp56
 70
     1
102
RTVSPropertyOp57
 70
     1
102
RTVSPropertyOp58
 70
     1
102
RTVSPropertyOp59
 70
     1
102
RTVSPropertyOp60
 70
     1
102
RTVSPropertyOp61
 70
     1
102
RTVSPropertyOp62
 70
     1
  0
XRECORD
  5
2F852
102
{ACAD_REACTORS
330
2F851
102
}
330
2F851
100
AcDbXrecord
280
     1
102
RTVSPost2010Prop28
280
     0
102
RTVSPost2010PropOp28
 70
     1
102
RTVSPost2010Prop29
280
     1
102
RTVSPost2010PropOp29
 70
     1
102
RTVSPost2010Prop30
280
     1
102
RTVSPost2010PropOp30
 70
     1
102
RTVSPost2010Prop31
280
     0
102
RTVSPost2010PropOp31
 70
     1
102
RTVSPost2010Prop32
280
     0
102
RTVSPost2010PropOp32
 70
     1
102
RTVSPost2010Prop33
280
     0
102
RTVSPost2010PropOp33
 70
     1
102
RTVSPost2010Prop34
280
     0
102
RTVSPost2010PropOp34
 70
     1
102
RTVSPost2010Prop35
280
     0
102
RTVSPost2010PropOp35
 70
     1
102
RTVSPost2010Prop36
280
     0
102
RTVSPost2010PropOp36
 70
     1
102
RTVSPost2010Prop37
 90
       50
102
RTVSPost2010PropOp37
 70
     1
102
RTVSPost2010Prop38
140
0.0
102
RTVSPost2010PropOp38
 70
     1
102
RTVSPost2010Prop39
140
1.0
102
RTVSPost2010PropOp39
 70
     1
102
RTVSPost2010Prop40
 90
        0
102
RTVSPost2010PropOp40
 70
     1
102
RTVSPost2010Prop41ColorIndex
 90
       18
102
RTVSPost2010Prop41ColorRGB
 90
        0
102
RTVSPost2010PropOp41
 70
     1
102
RTVSPost2010Prop42
 90
       50
102
RTVSPost2010PropOp42
 70
     1
102
RTVSPost2010Prop43
 90
        3
102
RTVSPost2010PropOp43
 70
     1
102
RTVSPost2010Prop44ColorIndex
 90
        5
102
RTVSPost2010Prop44ColorRGB
 90
      255
102
RTVSPost2010PropOp44
 70
     1
102
RTVSPost2010Prop45
280
     0
102
RTVSPost2010PropOp45
 70
     1
102
RTVSPost2010Prop46
 90
       50
102
RTVSPost2010PropOp46
 70
     1
102
RTVSPost2010Prop47
 90
       50
102
RTVSPost2010PropOp47
 70
     1
102
RTVSPost2010Prop48
 90
       50
102
RTVSPost2010PropOp48
 70
     1
102
RTVSPost2010Prop49
280
     0
102
RTVSPost2010PropOp49
 70
     1
102
RTVSPost2010Prop50
 90
       50
102
RTVSPost2010PropOp50
 70
     1
102
RTVSPost2010Prop51ColorIndex
 90
      256
102
RTVSPost2010Prop51ColorRGB
 90
-16777216
102
RTVSPost2010PropOp51
 70
     0
102
RTVSPost2010Prop52
140
1.0
102
RTVSPost2010PropOp52
 70
     0
102
RTVSPost2010Prop53
 90
        2
102
RTVSPost2010PropOp53
 70
     1
102
RTVSPost2010Prop54
  1
strokes_ogs.tif
102
RTVSPost2010PropOp54
 70
     1
102
RTVSPost2010Prop55
280
     0
102
RTVSPost2010PropOp55
 70
     1
102
RTVSPost2010Prop56
140
1.0
102
RTVSPost2010PropOp56
 70
     1
102
RTVSPost2010Prop57
140
1.0
102
RTVSPost2010PropOp57
 70
     1
102
RTVSPropertyOp0
 70
     1
102
RTVSPropertyOp1
 70
     1
102
RTVSPropertyOp2
 70
     1
102
RTVSPropertyOp3
 70
     1
102
RTVSPropertyOp4
 70
     1
102
RTVSPropertyOp5
 70
     1
102
RTVSPropertyOp6
 70
     1
102
RTVSPropertyOp7
 70
     1
102
RTVSPropertyOp8
 70
     1
102
RTVSPropertyOp9
 70
     1
102
RTVSPropertyOp10
 70
     1
102
RTVSPropertyOp11
 70
     1
102
RTVSPropertyOp12
 70
     1
102
RTVSPropertyOp13
 70
     1
102
RTVSPropertyOp14
 70
     1
102
RTVSPropertyOp15
 70
     1
102
RTVSPropertyOp16
 70
     1
102
RTVSPropertyOp17
 70
     1
102
RTVSPropertyOp18
 70
     1
102
RTVSPropertyOp19
 70
     1
102
RTVSPropertyOp20
 70
     1
102
RTVSPropertyOp21
 70
     1
102
RTVSPropertyOp22
 70
     1
102
RTVSPropertyOp23
 70
     1
102
RTVSPropertyOp24
 70
     1
102
RTVSPropertyOp25
 70
     1
102
RTVSPropertyOp26
 70
     1
102
RTVSPropertyOp27
 70
     1
102
RTVSPropertyOp28
 70
     1
102
RTVSPropertyOp29
 70
     1
102
RTVSPropertyOp30
 70
     1
102
RTVSPropertyOp31
 70
     1
102
RTVSPropertyOp32
 70
     1
102
RTVSPropertyOp33
 70
     1
102
RTVSPropertyOp34
 70
     1
102
RTVSPropertyOp35
 70
     1
102
RTVSPropertyOp36
 70
     1
102
RTVSPropertyOp37
 70
     1
102
RTVSPropertyOp38
 70
     1
102
RTVSPropertyOp39
 70
     1
102
RTVSPropertyOp40
 70
     1
102
RTVSPropertyOp41
 70
     1
102
RTVSPropertyOp42
 70
     1
102
RTVSPropertyOp43
 70
     1
102
RTVSPropertyOp44
 70
     1
102
RTVSPropertyOp45
 70
     1
102
RTVSPropertyOp46
 70
     1
102
RTVSPropertyOp47
 70
     1
102
RTVSPropertyOp48
 70
     1
102
RTVSPropertyOp49
 70
     1
102
RTVSPropertyOp50
 70
     1
102
RTVSPropertyOp51
 70
     0
102
RTVSPropertyOp52
 70
     0
102
RTVSPropertyOp53
 70
     1
102
RTVSPropertyOp54
 70
     1
102
RTVSPropertyOp55
 70
     1
102
RTVSPropertyOp56
 70
     1
102
RTVSPropertyOp57
 70
     1
102
RTVSPropertyOp58
 70
     1
102
RTVSPropertyOp59
 70
     1
102
RTVSPropertyOp60
 70
     1
102
RTVSPropertyOp61
 70
     1
102
RTVSPropertyOp62
 70
     1
  0
XRECORD
  5
2F850
102
{ACAD_REACTORS
330
2F84F
102
}
330
2F84F
100
AcDbXrecord
280
     1
102
RTVSPost2010Prop28
280
     0
102
RTVSPost2010PropOp28
 70
     1
102
RTVSPost2010Prop29
280
     1
102
RTVSPost2010PropOp29
 70
     1
102
RTVSPost2010Prop30
280
     1
102
RTVSPost2010PropOp30
 70
     1
102
RTVSPost2010Prop31
280
     0
102
RTVSPost2010PropOp31
 70
     1
102
RTVSPost2010Prop32
280
     0
102
RTVSPost2010PropOp32
 70
     1
102
RTVSPost2010Prop33
280
     0
102
RTVSPost2010PropOp33
 70
     1
102
RTVSPost2010Prop34
280
     0
102
RTVSPost2010PropOp34
 70
     1
102
RTVSPost2010Prop35
280
     0
102
RTVSPost2010PropOp35
 70
     1
102
RTVSPost2010Prop36
280
     0
102
RTVSPost2010PropOp36
 70
     1
102
RTVSPost2010Prop37
 90
       50
102
RTVSPost2010PropOp37
 70
     1
102
RTVSPost2010Prop38
140
0.0
102
RTVSPost2010PropOp38
 70
     1
102
RTVSPost2010Prop39
140
1.0
102
RTVSPost2010PropOp39
 70
     1
102
RTVSPost2010Prop40
 90
        0
102
RTVSPost2010PropOp40
 70
     1
102
RTVSPost2010Prop41ColorIndex
 90
       18
102
RTVSPost2010Prop41ColorRGB
 90
        0
102
RTVSPost2010PropOp41
 70
     1
102
RTVSPost2010Prop42
 90
       50
102
RTVSPost2010PropOp42
 70
     1
102
RTVSPost2010Prop43
 90
        3
102
RTVSPost2010PropOp43
 70
     1
102
RTVSPost2010Prop44ColorIndex
 90
        5
102
RTVSPost2010Prop44ColorRGB
 90
      255
102
RTVSPost2010PropOp44
 70
     1
102
RTVSPost2010Prop45
280
     0
102
RTVSPost2010PropOp45
 70
     1
102
RTVSPost2010Prop46
 90
       50
102
RTVSPost2010PropOp46
 70
     1
102
RTVSPost2010Prop47
 90
       50
102
RTVSPost2010PropOp47
 70
     1
102
RTVSPost2010Prop48
 90
       50
102
RTVSPost2010PropOp48
 70
     1
102
RTVSPost2010Prop49
280
     0
102
RTVSPost2010PropOp49
 70
     1
102
RTVSPost2010Prop50
 90
       50
102
RTVSPost2010PropOp50
 70
     1
102
RTVSPost2010Prop51ColorIndex
 90
      256
102
RTVSPost2010Prop51ColorRGB
 90
-16777216
102
RTVSPost2010PropOp51
 70
     0
102
RTVSPost2010Prop52
140
1.0
102
RTVSPost2010PropOp52
 70
     0
102
RTVSPost2010Prop53
 90
        2
102
RTVSPost2010PropOp53
 70
     1
102
RTVSPost2010Prop54
  1
strokes_ogs.tif
102
RTVSPost2010PropOp54
 70
     1
102
RTVSPost2010Prop55
280
     0
102
RTVSPost2010PropOp55
 70
     1
102
RTVSPost2010Prop56
140
1.0
102
RTVSPost2010PropOp56
 70
     1
102
RTVSPost2010Prop57
140
1.0
102
RTVSPost2010PropOp57
 70
     1
102
RTVSPropertyOp0
 70
     1
102
RTVSPropertyOp1
 70
     1
102
RTVSPropertyOp2
 70
     1
102
RTVSPropertyOp3
 70
     1
102
RTVSPropertyOp4
 70
     1
102
RTVSPropertyOp5
 70
     1
102
RTVSPropertyOp6
 70
     1
102
RTVSPropertyOp7
 70
     1
102
RTVSPropertyOp8
 70
     1
102
RTVSPropertyOp9
 70
     1
102
RTVSPropertyOp10
 70
     1
102
RTVSPropertyOp11
 70
     1
102
RTVSPropertyOp12
 70
     1
102
RTVSPropertyOp13
 70
     1
102
RTVSPropertyOp14
 70
     1
102
RTVSPropertyOp15
 70
     1
102
RTVSPropertyOp16
 70
     1
102
RTVSPropertyOp17
 70
     1
102
RTVSPropertyOp18
 70
     1
102
RTVSPropertyOp19
 70
     1
102
RTVSPropertyOp20
 70
     1
102
RTVSPropertyOp21
 70
     1
102
RTVSPropertyOp22
 70
     1
102
RTVSPropertyOp23
 70
     1
102
RTVSPropertyOp24
 70
     1
102
RTVSPropertyOp25
 70
     1
102
RTVSPropertyOp26
 70
     1
102
RTVSPropertyOp27
 70
     1
102
RTVSPropertyOp28
 70
     1
102
RTVSPropertyOp29
 70
     1
102
RTVSPropertyOp30
 70
     1
102
RTVSPropertyOp31
 70
     1
102
RTVSPropertyOp32
 70
     1
102
RTVSPropertyOp33
 70
     1
102
RTVSPropertyOp34
 70
     1
102
RTVSPropertyOp35
 70
     1
102
RTVSPropertyOp36
 70
     1
102
RTVSPropertyOp37
 70
     1
102
RTVSPropertyOp38
 70
     1
102
RTVSPropertyOp39
 70
     1
102
RTVSPropertyOp40
 70
     1
102
RTVSPropertyOp41
 70
     1
102
RTVSPropertyOp42
 70
     1
102
RTVSPropertyOp43
 70
     1
102
RTVSPropertyOp44
 70
     1
102
RTVSPropertyOp45
 70
     1
102
RTVSPropertyOp46
 70
     1
102
RTVSPropertyOp47
 70
     1
102
RTVSPropertyOp48
 70
     1
102
RTVSPropertyOp49
 70
     1
102
RTVSPropertyOp50
 70
     1
102
RTVSPropertyOp51
 70
     0
102
RTVSPropertyOp52
 70
     0
102
RTVSPropertyOp53
 70
     1
102
RTVSPropertyOp54
 70
     1
102
RTVSPropertyOp55
 70
     1
102
RTVSPropertyOp56
 70
     1
102
RTVSPropertyOp57
 70
     1
102
RTVSPropertyOp58
 70
     1
102
RTVSPropertyOp59
 70
     1
102
RTVSPropertyOp60
 70
     1
102
RTVSPropertyOp61
 70
     1
102
RTVSPropertyOp62
 70
     1
  0
XRECORD
  5
2F84A
102
{ACAD_REACTORS
330
2F849
102
}
330
2F849
100
AcDbXrecord
280
     1
102
RTVSPost2010Prop28
280
     0
102
RTVSPost2010PropOp28
 70
     1
102
RTVSPost2010Prop29
280
     1
102
RTVSPost2010PropOp29
 70
     1
102
RTVSPost2010Prop30
280
     1
102
RTVSPost2010PropOp30
 70
     1
102
RTVSPost2010Prop31
280
     0
102
RTVSPost2010PropOp31
 70
     1
102
RTVSPost2010Prop32
280
     0
102
RTVSPost2010PropOp32
 70
     1
102
RTVSPost2010Prop33
280
     0
102
RTVSPost2010PropOp33
 70
     1
102
RTVSPost2010Prop34
280
     0
102
RTVSPost2010PropOp34
 70
     1
102
RTVSPost2010Prop35
280
     0
102
RTVSPost2010PropOp35
 70
     1
102
RTVSPost2010Prop36
280
     0
102
RTVSPost2010PropOp36
 70
     1
102
RTVSPost2010Prop37
 90
       50
102
RTVSPost2010PropOp37
 70
     1
102
RTVSPost2010Prop38
140
0.0
102
RTVSPost2010PropOp38
 70
     1
102
RTVSPost2010Prop39
140
1.0
102
RTVSPost2010PropOp39
 70
     1
102
RTVSPost2010Prop40
 90
        0
102
RTVSPost2010PropOp40
 70
     1
102
RTVSPost2010Prop41ColorIndex
 90
       18
102
RTVSPost2010Prop41ColorRGB
 90
        0
102
RTVSPost2010PropOp41
 70
     1
102
RTVSPost2010Prop42
 90
       50
102
RTVSPost2010PropOp42
 70
     1
102
RTVSPost2010Prop43
 90
        3
102
RTVSPost2010PropOp43
 70
     1
102
RTVSPost2010Prop44ColorIndex
 90
        5
102
RTVSPost2010Prop44ColorRGB
 90
      255
102
RTVSPost2010PropOp44
 70
     1
102
RTVSPost2010Prop45
280
     0
102
RTVSPost2010PropOp45
 70
     1
102
RTVSPost2010Prop46
 90
       50
102
RTVSPost2010PropOp46
 70
     1
102
RTVSPost2010Prop47
 90
       50
102
RTVSPost2010PropOp47
 70
     1
102
RTVSPost2010Prop48
 90
       50
102
RTVSPost2010PropOp48
 70
     1
102
RTVSPost2010Prop49
280
     0
102
RTVSPost2010PropOp49
 70
     1
102
RTVSPost2010Prop50
 90
       50
102
RTVSPost2010PropOp50
 70
     1
102
RTVSPost2010Prop51ColorIndex
 90
      256
102
RTVSPost2010Prop51ColorRGB
 90
-16777216
102
RTVSPost2010PropOp51
 70
     0
102
RTVSPost2010Prop52
140
1.0
102
RTVSPost2010PropOp52
 70
     0
102
RTVSPost2010Prop53
 90
        2
102
RTVSPost2010PropOp53
 70
     1
102
RTVSPost2010Prop54
  1
strokes_ogs.tif
102
RTVSPost2010PropOp54
 70
     1
102
RTVSPost2010Prop55
280
     0
102
RTVSPost2010PropOp55
 70
     1
102
RTVSPost2010Prop56
140
1.0
102
RTVSPost2010PropOp56
 70
     1
102
RTVSPost2010Prop57
140
1.0
102
RTVSPost2010PropOp57
 70
     1
102
RTVSPropertyOp0
 70
     1
102
RTVSPropertyOp1
 70
     1
102
RTVSPropertyOp2
 70
     1
102
RTVSPropertyOp3
 70
     1
102
RTVSPropertyOp4
 70
     1
102
RTVSPropertyOp5
 70
     1
102
RTVSPropertyOp6
 70
     1
102
RTVSPropertyOp7
 70
     1
102
RTVSPropertyOp8
 70
     1
102
RTVSPropertyOp9
 70
     1
102
RTVSPropertyOp10
 70
     1
102
RTVSPropertyOp11
 70
     1
102
RTVSPropertyOp12
 70
     1
102
RTVSPropertyOp13
 70
     1
102
RTVSPropertyOp14
 70
     1
102
RTVSPropertyOp15
 70
     1
102
RTVSPropertyOp16
 70
     1
102
RTVSPropertyOp17
 70
     1
102
RTVSPropertyOp18
 70
     1
102
RTVSPropertyOp19
 70
     1
102
RTVSPropertyOp20
 70
     1
102
RTVSPropertyOp21
 70
     1
102
RTVSPropertyOp22
 70
     1
102
RTVSPropertyOp23
 70
     1
102
RTVSPropertyOp24
 70
     1
102
RTVSPropertyOp25
 70
     1
102
RTVSPropertyOp26
 70
     1
102
RTVSPropertyOp27
 70
     1
102
RTVSPropertyOp28
 70
     1
102
RTVSPropertyOp29
 70
     1
102
RTVSPropertyOp30
 70
     1
102
RTVSPropertyOp31
 70
     1
102
RTVSPropertyOp32
 70
     1
102
RTVSPropertyOp33
 70
     1
102
RTVSPropertyOp34
 70
     1
102
RTVSPropertyOp35
 70
     1
102
RTVSPropertyOp36
 70
     1
102
RTVSPropertyOp37
 70
     1
102
RTVSPropertyOp38
 70
     1
102
RTVSPropertyOp39
 70
     1
102
RTVSPropertyOp40
 70
     1
102
RTVSPropertyOp41
 70
     1
102
RTVSPropertyOp42
 70
     1
102
RTVSPropertyOp43
 70
     1
102
RTVSPropertyOp44
 70
     1
102
RTVSPropertyOp45
 70
     1
102
RTVSPropertyOp46
 70
     1
102
RTVSPropertyOp47
 70
     1
102
RTVSPropertyOp48
 70
     1
102
RTVSPropertyOp49
 70
     1
102
RTVSPropertyOp50
 70
     1
102
RTVSPropertyOp51
 70
     0
102
RTVSPropertyOp52
 70
     0
102
RTVSPropertyOp53
 70
     1
102
RTVSPropertyOp54
 70
     1
102
RTVSPropertyOp55
 70
     1
102
RTVSPropertyOp56
 70
     1
102
RTVSPropertyOp57
 70
     1
102
RTVSPropertyOp58
 70
     1
102
RTVSPropertyOp59
 70
     1
102
RTVSPropertyOp60
 70
     1
102
RTVSPropertyOp61
 70
     1
102
RTVSPropertyOp62
 70
     1
  0
XRECORD
  5
2F84C
102
{ACAD_REACTORS
330
2F84B
102
}
330
2F84B
100
AcDbXrecord
280
     1
102
RTVSPost2010Prop28
280
     0
102
RTVSPost2010PropOp28
 70
     1
102
RTVSPost2010Prop29
280
     1
102
RTVSPost2010PropOp29
 70
     1
102
RTVSPost2010Prop30
280
     1
102
RTVSPost2010PropOp30
 70
     1
102
RTVSPost2010Prop31
280
     0
102
RTVSPost2010PropOp31
 70
     1
102
RTVSPost2010Prop32
280
     0
102
RTVSPost2010PropOp32
 70
     1
102
RTVSPost2010Prop33
280
     0
102
RTVSPost2010PropOp33
 70
     1
102
RTVSPost2010Prop34
280
     0
102
RTVSPost2010PropOp34
 70
     1
102
RTVSPost2010Prop35
280
     0
102
RTVSPost2010PropOp35
 70
     1
102
RTVSPost2010Prop36
280
     0
102
RTVSPost2010PropOp36
 70
     1
102
RTVSPost2010Prop37
 90
       50
102
RTVSPost2010PropOp37
 70
     1
102
RTVSPost2010Prop38
140
0.0
102
RTVSPost2010PropOp38
 70
     1
102
RTVSPost2010Prop39
140
1.0
102
RTVSPost2010PropOp39
 70
     1
102
RTVSPost2010Prop40
 90
        0
102
RTVSPost2010PropOp40
 70
     1
102
RTVSPost2010Prop41ColorIndex
 90
       18
102
RTVSPost2010Prop41ColorRGB
 90
        0
102
RTVSPost2010PropOp41
 70
     1
102
RTVSPost2010Prop42
 90
       50
102
RTVSPost2010PropOp42
 70
     1
102
RTVSPost2010Prop43
 90
        3
102
RTVSPost2010PropOp43
 70
     1
102
RTVSPost2010Prop44ColorIndex
 90
        5
102
RTVSPost2010Prop44ColorRGB
 90
      255
102
RTVSPost2010PropOp44
 70
     1
102
RTVSPost2010Prop45
280
     0
102
RTVSPost2010PropOp45
 70
     1
102
RTVSPost2010Prop46
 90
       50
102
RTVSPost2010PropOp46
 70
     1
102
RTVSPost2010Prop47
 90
       50
102
RTVSPost2010PropOp47
 70
     1
102
RTVSPost2010Prop48
 90
       50
102
RTVSPost2010PropOp48
 70
     1
102
RTVSPost2010Prop49
280
     0
102
RTVSPost2010PropOp49
 70
     1
102
RTVSPost2010Prop50
 90
       50
102
RTVSPost2010PropOp50
 70
     1
102
RTVSPost2010Prop51ColorIndex
 90
      256
102
RTVSPost2010Prop51ColorRGB
 90
-16777216
102
RTVSPost2010PropOp51
 70
     0
102
RTVSPost2010Prop52
140
1.0
102
RTVSPost2010PropOp52
 70
     0
102
RTVSPost2010Prop53
 90
        2
102
RTVSPost2010PropOp53
 70
     1
102
RTVSPost2010Prop54
  1
strokes_ogs.tif
102
RTVSPost2010PropOp54
 70
     1
102
RTVSPost2010Prop55
280
     0
102
RTVSPost2010PropOp55
 70
     1
102
RTVSPost2010Prop56
140
1.0
102
RTVSPost2010PropOp56
 70
     1
102
RTVSPost2010Prop57
140
1.0
102
RTVSPost2010PropOp57
 70
     1
102
RTVSPropertyOp0
 70
     1
102
RTVSPropertyOp1
 70
     1
102
RTVSPropertyOp2
 70
     1
102
RTVSPropertyOp3
 70
     1
102
RTVSPropertyOp4
 70
     1
102
RTVSPropertyOp5
 70
     1
102
RTVSPropertyOp6
 70
     1
102
RTVSPropertyOp7
 70
     1
102
RTVSPropertyOp8
 70
     1
102
RTVSPropertyOp9
 70
     1
102
RTVSPropertyOp10
 70
     1
102
RTVSPropertyOp11
 70
     1
102
RTVSPropertyOp12
 70
     1
102
RTVSPropertyOp13
 70
     1
102
RTVSPropertyOp14
 70
     1
102
RTVSPropertyOp15
 70
     1
102
RTVSPropertyOp16
 70
     1
102
RTVSPropertyOp17
 70
     1
102
RTVSPropertyOp18
 70
     1
102
RTVSPropertyOp19
 70
     1
102
RTVSPropertyOp20
 70
     1
102
RTVSPropertyOp21
 70
     1
102
RTVSPropertyOp22
 70
     1
102
RTVSPropertyOp23
 70
     1
102
RTVSPropertyOp24
 70
     1
102
RTVSPropertyOp25
 70
     1
102
RTVSPropertyOp26
 70
     1
102
RTVSPropertyOp27
 70
     1
102
RTVSPropertyOp28
 70
     1
102
RTVSPropertyOp29
 70
     1
102
RTVSPropertyOp30
 70
     1
102
RTVSPropertyOp31
 70
     1
102
RTVSPropertyOp32
 70
     1
102
RTVSPropertyOp33
 70
     1
102
RTVSPropertyOp34
 70
     1
102
RTVSPropertyOp35
 70
     1
102
RTVSPropertyOp36
 70
     1
102
RTVSPropertyOp37
 70
     1
102
RTVSPropertyOp38
 70
     1
102
RTVSPropertyOp39
 70
     1
102
RTVSPropertyOp40
 70
     1
102
RTVSPropertyOp41
 70
     1
102
RTVSPropertyOp42
 70
     1
102
RTVSPropertyOp43
 70
     1
102
RTVSPropertyOp44
 70
     1
102
RTVSPropertyOp45
 70
     1
102
RTVSPropertyOp46
 70
     1
102
RTVSPropertyOp47
 70
     1
102
RTVSPropertyOp48
 70
     1
102
RTVSPropertyOp49
 70
     1
102
RTVSPropertyOp50
 70
     1
102
RTVSPropertyOp51
 70
     0
102
RTVSPropertyOp52
 70
     0
102
RTVSPropertyOp53
 70
     1
102
RTVSPropertyOp54
 70
     1
102
RTVSPropertyOp55
 70
     1
102
RTVSPropertyOp56
 70
     1
102
RTVSPropertyOp57
 70
     1
102
RTVSPropertyOp58
 70
     1
102
RTVSPropertyOp59
 70
     1
102
RTVSPropertyOp60
 70
     1
102
RTVSPropertyOp61
 70
     1
102
RTVSPropertyOp62
 70
     1
  0
XRECORD
  5
2F842
102
{ACAD_REACTORS
330
2F841
102
}
330
2F841
100
AcDbXrecord
280
     1
102
RTVSPost2010Prop28
280
     0
102
RTVSPost2010PropOp28
 70
     1
102
RTVSPost2010Prop29
280
     1
102
RTVSPost2010PropOp29
 70
     1
102
RTVSPost2010Prop30
280
     1
102
RTVSPost2010PropOp30
 70
     1
102
RTVSPost2010Prop31
280
     0
102
RTVSPost2010PropOp31
 70
     1
102
RTVSPost2010Prop32
280
     0
102
RTVSPost2010PropOp32
 70
     1
102
RTVSPost2010Prop33
280
     0
102
RTVSPost2010PropOp33
 70
     1
102
RTVSPost2010Prop34
280
     0
102
RTVSPost2010PropOp34
 70
     1
102
RTVSPost2010Prop35
280
     0
102
RTVSPost2010PropOp35
 70
     1
102
RTVSPost2010Prop36
280
     0
102
RTVSPost2010PropOp36
 70
     1
102
RTVSPost2010Prop37
 90
       50
102
RTVSPost2010PropOp37
 70
     1
102
RTVSPost2010Prop38
140
0.0
102
RTVSPost2010PropOp38
 70
     1
102
RTVSPost2010Prop39
140
1.0
102
RTVSPost2010PropOp39
 70
     1
102
RTVSPost2010Prop40
 90
        0
102
RTVSPost2010PropOp40
 70
     1
102
RTVSPost2010Prop41ColorIndex
 90
       18
102
RTVSPost2010Prop41ColorRGB
 90
        0
102
RTVSPost2010PropOp41
 70
     1
102
RTVSPost2010Prop42
 90
       50
102
RTVSPost2010PropOp42
 70
     1
102
RTVSPost2010Prop43
 90
        3
102
RTVSPost2010PropOp43
 70
     1
102
RTVSPost2010Prop44ColorIndex
 90
        5
102
RTVSPost2010Prop44ColorRGB
 90
      255
102
RTVSPost2010PropOp44
 70
     1
102
RTVSPost2010Prop45
280
     0
102
RTVSPost2010PropOp45
 70
     1
102
RTVSPost2010Prop46
 90
       50
102
RTVSPost2010PropOp46
 70
     1
102
RTVSPost2010Prop47
 90
       50
102
RTVSPost2010PropOp47
 70
     1
102
RTVSPost2010Prop48
 90
       50
102
RTVSPost2010PropOp48
 70
     1
102
RTVSPost2010Prop49
280
     0
102
RTVSPost2010PropOp49
 70
     1
102
RTVSPost2010Prop50
 90
       50
102
RTVSPost2010PropOp50
 70
     1
102
RTVSPost2010Prop51ColorIndex
 90
      256
102
RTVSPost2010Prop51ColorRGB
 90
-16777216
102
RTVSPost2010PropOp51
 70
     0
102
RTVSPost2010Prop52
140
1.0
102
RTVSPost2010PropOp52
 70
     0
102
RTVSPost2010Prop53
 90
        2
102
RTVSPost2010PropOp53
 70
     1
102
RTVSPost2010Prop54
  1
strokes_ogs.tif
102
RTVSPost2010PropOp54
 70
     1
102
RTVSPost2010Prop55
280
     0
102
RTVSPost2010PropOp55
 70
     1
102
RTVSPost2010Prop56
140
1.0
102
RTVSPost2010PropOp56
 70
     1
102
RTVSPost2010Prop57
140
1.0
102
RTVSPost2010PropOp57
 70
     1
102
RTVSPropertyOp0
 70
     1
102
RTVSPropertyOp1
 70
     1
102
RTVSPropertyOp2
 70
     1
102
RTVSPropertyOp3
 70
     1
102
RTVSPropertyOp4
 70
     1
102
RTVSPropertyOp5
 70
     1
102
RTVSPropertyOp6
 70
     1
102
RTVSPropertyOp7
 70
     1
102
RTVSPropertyOp8
 70
     1
102
RTVSPropertyOp9
 70
     1
102
RTVSPropertyOp10
 70
     1
102
RTVSPropertyOp11
 70
     1
102
RTVSPropertyOp12
 70
     1
102
RTVSPropertyOp13
 70
     1
102
RTVSPropertyOp14
 70
     1
102
RTVSPropertyOp15
 70
     1
102
RTVSPropertyOp16
 70
     1
102
RTVSPropertyOp17
 70
     1
102
RTVSPropertyOp18
 70
     1
102
RTVSPropertyOp19
 70
     1
102
RTVSPropertyOp20
 70
     1
102
RTVSPropertyOp21
 70
     1
102
RTVSPropertyOp22
 70
     1
102
RTVSPropertyOp23
 70
     1
102
RTVSPropertyOp24
 70
     1
102
RTVSPropertyOp25
 70
     1
102
RTVSPropertyOp26
 70
     1
102
RTVSPropertyOp27
 70
     1
102
RTVSPropertyOp28
 70
     1
102
RTVSPropertyOp29
 70
     1
102
RTVSPropertyOp30
 70
     1
102
RTVSPropertyOp31
 70
     1
102
RTVSPropertyOp32
 70
     1
102
RTVSPropertyOp33
 70
     1
102
RTVSPropertyOp34
 70
     1
102
RTVSPropertyOp35
 70
     1
102
RTVSPropertyOp36
 70
     1
102
RTVSPropertyOp37
 70
     1
102
RTVSPropertyOp38
 70
     1
102
RTVSPropertyOp39
 70
     1
102
RTVSPropertyOp40
 70
     1
102
RTVSPropertyOp41
 70
     1
102
RTVSPropertyOp42
 70
     1
102
RTVSPropertyOp43
 70
     1
102
RTVSPropertyOp44
 70
     1
102
RTVSPropertyOp45
 70
     1
102
RTVSPropertyOp46
 70
     1
102
RTVSPropertyOp47
 70
     1
102
RTVSPropertyOp48
 70
     1
102
RTVSPropertyOp49
 70
     1
102
RTVSPropertyOp50
 70
     1
102
RTVSPropertyOp51
 70
     0
102
RTVSPropertyOp52
 70
     0
102
RTVSPropertyOp53
 70
     1
102
RTVSPropertyOp54
 70
     1
102
RTVSPropertyOp55
 70
     1
102
RTVSPropertyOp56
 70
     1
102
RTVSPropertyOp57
 70
     1
102
RTVSPropertyOp58
 70
     1
102
RTVSPropertyOp59
 70
     1
102
RTVSPropertyOp60
 70
     1
102
RTVSPropertyOp61
 70
     1
102
RTVSPropertyOp62
 70
     1
  0
XRECORD
  5
2F836
102
{ACAD_REACTORS
330
2F835
102
}
330
2F835
100
AcDbXrecord
280
     1
102
RTVSPost2010Prop28
280
     0
102
RTVSPost2010PropOp28
 70
     1
102
RTVSPost2010Prop29
280
     1
102
RTVSPost2010PropOp29
 70
     1
102
RTVSPost2010Prop30
280
     1
102
RTVSPost2010PropOp30
 70
     1
102
RTVSPost2010Prop31
280
     0
102
RTVSPost2010PropOp31
 70
     1
102
RTVSPost2010Prop32
280
     0
102
RTVSPost2010PropOp32
 70
     1
102
RTVSPost2010Prop33
280
     0
102
RTVSPost2010PropOp33
 70
     1
102
RTVSPost2010Prop34
280
     0
102
RTVSPost2010PropOp34
 70
     1
102
RTVSPost2010Prop35
280
     0
102
RTVSPost2010PropOp35
 70
     1
102
RTVSPost2010Prop36
280
     0
102
RTVSPost2010PropOp36
 70
     1
102
RTVSPost2010Prop37
 90
       50
102
RTVSPost2010PropOp37
 70
     1
102
RTVSPost2010Prop38
140
0.0
102
RTVSPost2010PropOp38
 70
     1
102
RTVSPost2010Prop39
140
1.0
102
RTVSPost2010PropOp39
 70
     1
102
RTVSPost2010Prop40
 90
        0
102
RTVSPost2010PropOp40
 70
     1
102
RTVSPost2010Prop41ColorIndex
 90
       18
102
RTVSPost2010Prop41ColorRGB
 90
        0
102
RTVSPost2010PropOp41
 70
     1
102
RTVSPost2010Prop42
 90
       50
102
RTVSPost2010PropOp42
 70
     1
102
RTVSPost2010Prop43
 90
        3
102
RTVSPost2010PropOp43
 70
     1
102
RTVSPost2010Prop44ColorIndex
 90
        5
102
RTVSPost2010Prop44ColorRGB
 90
      255
102
RTVSPost2010PropOp44
 70
     1
102
RTVSPost2010Prop45
280
     0
102
RTVSPost2010PropOp45
 70
     1
102
RTVSPost2010Prop46
 90
       50
102
RTVSPost2010PropOp46
 70
     1
102
RTVSPost2010Prop47
 90
       50
102
RTVSPost2010PropOp47
 70
     1
102
RTVSPost2010Prop48
 90
       50
102
RTVSPost2010PropOp48
 70
     1
102
RTVSPost2010Prop49
280
     0
102
RTVSPost2010PropOp49
 70
     1
102
RTVSPost2010Prop50
 90
       50
102
RTVSPost2010PropOp50
 70
     1
102
RTVSPost2010Prop51ColorIndex
 90
      256
102
RTVSPost2010Prop51ColorRGB
 90
-16777216
102
RTVSPost2010PropOp51
 70
     0
102
RTVSPost2010Prop52
140
1.0
102
RTVSPost2010PropOp52
 70
     0
102
RTVSPost2010Prop53
 90
        2
102
RTVSPost2010PropOp53
 70
     1
102
RTVSPost2010Prop54
  1
strokes_ogs.tif
102
RTVSPost2010PropOp54
 70
     1
102
RTVSPost2010Prop55
280
     0
102
RTVSPost2010PropOp55
 70
     1
102
RTVSPost2010Prop56
140
1.0
102
RTVSPost2010PropOp56
 70
     1
102
RTVSPost2010Prop57
140
1.0
102
RTVSPost2010PropOp57
 70
     1
102
RTVSPropertyOp0
 70
     1
102
RTVSPropertyOp1
 70
     1
102
RTVSPropertyOp2
 70
     1
102
RTVSPropertyOp3
 70
     1
102
RTVSPropertyOp4
 70
     1
102
RTVSPropertyOp5
 70
     1
102
RTVSPropertyOp6
 70
     1
102
RTVSPropertyOp7
 70
     1
102
RTVSPropertyOp8
 70
     1
102
RTVSPropertyOp9
 70
     1
102
RTVSPropertyOp10
 70
     1
102
RTVSPropertyOp11
 70
     1
102
RTVSPropertyOp12
 70
     1
102
RTVSPropertyOp13
 70
     1
102
RTVSPropertyOp14
 70
     1
102
RTVSPropertyOp15
 70
     1
102
RTVSPropertyOp16
 70
     1
102
RTVSPropertyOp17
 70
     1
102
RTVSPropertyOp18
 70
     1
102
RTVSPropertyOp19
 70
     1
102
RTVSPropertyOp20
 70
     1
102
RTVSPropertyOp21
 70
     1
102
RTVSPropertyOp22
 70
     1
102
RTVSPropertyOp23
 70
     1
102
RTVSPropertyOp24
 70
     1
102
RTVSPropertyOp25
 70
     1
102
RTVSPropertyOp26
 70
     1
102
RTVSPropertyOp27
 70
     1
102
RTVSPropertyOp28
 70
     1
102
RTVSPropertyOp29
 70
     1
102
RTVSPropertyOp30
 70
     1
102
RTVSPropertyOp31
 70
     1
102
RTVSPropertyOp32
 70
     1
102
RTVSPropertyOp33
 70
     1
102
RTVSPropertyOp34
 70
     1
102
RTVSPropertyOp35
 70
     1
102
RTVSPropertyOp36
 70
     1
102
RTVSPropertyOp37
 70
     1
102
RTVSPropertyOp38
 70
     1
102
RTVSPropertyOp39
 70
     1
102
RTVSPropertyOp40
 70
     1
102
RTVSPropertyOp41
 70
     1
102
RTVSPropertyOp42
 70
     1
102
RTVSPropertyOp43
 70
     1
102
RTVSPropertyOp44
 70
     1
102
RTVSPropertyOp45
 70
     1
102
RTVSPropertyOp46
 70
     1
102
RTVSPropertyOp47
 70
     1
102
RTVSPropertyOp48
 70
     1
102
RTVSPropertyOp49
 70
     1
102
RTVSPropertyOp50
 70
     1
102
RTVSPropertyOp51
 70
     0
102
RTVSPropertyOp52
 70
     0
102
RTVSPropertyOp53
 70
     1
102
RTVSPropertyOp54
 70
     1
102
RTVSPropertyOp55
 70
     1
102
RTVSPropertyOp56
 70
     1
102
RTVSPropertyOp57
 70
     1
102
RTVSPropertyOp58
 70
     1
102
RTVSPropertyOp59
 70
     1
102
RTVSPropertyOp60
 70
     1
102
RTVSPropertyOp61
 70
     1
102
RTVSPropertyOp62
 70
     1
  0
XRECORD
  5
2F84E
102
{ACAD_REACTORS
330
2F84D
102
}
330
2F84D
100
AcDbXrecord
280
     1
102
RTVSPost2010Prop28
280
     0
102
RTVSPost2010PropOp28
 70
     1
102
RTVSPost2010Prop29
280
     1
102
RTVSPost2010PropOp29
 70
     1
102
RTVSPost2010Prop30
280
     1
102
RTVSPost2010PropOp30
 70
     1
102
RTVSPost2010Prop31
280
     0
102
RTVSPost2010PropOp31
 70
     1
102
RTVSPost2010Prop32
280
     0
102
RTVSPost2010PropOp32
 70
     1
102
RTVSPost2010Prop33
280
     0
102
RTVSPost2010PropOp33
 70
     1
102
RTVSPost2010Prop34
280
     0
102
RTVSPost2010PropOp34
 70
     1
102
RTVSPost2010Prop35
280
     0
102
RTVSPost2010PropOp35
 70
     1
102
RTVSPost2010Prop36
280
     0
102
RTVSPost2010PropOp36
 70
     1
102
RTVSPost2010Prop37
 90
       50
102
RTVSPost2010PropOp37
 70
     1
102
RTVSPost2010Prop38
140
0.0
102
RTVSPost2010PropOp38
 70
     1
102
RTVSPost2010Prop39
140
1.0
102
RTVSPost2010PropOp39
 70
     1
102
RTVSPost2010Prop40
 90
        0
102
RTVSPost2010PropOp40
 70
     1
102
RTVSPost2010Prop41ColorIndex
 90
       18
102
RTVSPost2010Prop41ColorRGB
 90
        0
102
RTVSPost2010PropOp41
 70
     1
102
RTVSPost2010Prop42
 90
       50
102
RTVSPost2010PropOp42
 70
     1
102
RTVSPost2010Prop43
 90
        3
102
RTVSPost2010PropOp43
 70
     1
102
RTVSPost2010Prop44ColorIndex
 90
        5
102
RTVSPost2010Prop44ColorRGB
 90
      255
102
RTVSPost2010PropOp44
 70
     1
102
RTVSPost2010Prop45
280
     0
102
RTVSPost2010PropOp45
 70
     1
102
RTVSPost2010Prop46
 90
       50
102
RTVSPost2010PropOp46
 70
     1
102
RTVSPost2010Prop47
 90
       50
102
RTVSPost2010PropOp47
 70
     1
102
RTVSPost2010Prop48
 90
       50
102
RTVSPost2010PropOp48
 70
     1
102
RTVSPost2010Prop49
280
     0
102
RTVSPost2010PropOp49
 70
     1
102
RTVSPost2010Prop50
 90
       50
102
RTVSPost2010PropOp50
 70
     1
102
RTVSPost2010Prop51ColorIndex
 90
      256
102
RTVSPost2010Prop51ColorRGB
 90
-16777216
102
RTVSPost2010PropOp51
 70
     0
102
RTVSPost2010Prop52
140
1.0
102
RTVSPost2010PropOp52
 70
     0
102
RTVSPost2010Prop53
 90
        2
102
RTVSPost2010PropOp53
 70
     1
102
RTVSPost2010Prop54
  1
strokes_ogs.tif
102
RTVSPost2010PropOp54
 70
     1
102
RTVSPost2010Prop55
280
     0
102
RTVSPost2010PropOp55
 70
     1
102
RTVSPost2010Prop56
140
1.0
102
RTVSPost2010PropOp56
 70
     1
102
RTVSPost2010Prop57
140
1.0
102
RTVSPost2010PropOp57
 70
     1
102
RTVSPropertyOp0
 70
     1
102
RTVSPropertyOp1
 70
     1
102
RTVSPropertyOp2
 70
     1
102
RTVSPropertyOp3
 70
     1
102
RTVSPropertyOp4
 70
     1
102
RTVSPropertyOp5
 70
     1
102
RTVSPropertyOp6
 70
     1
102
RTVSPropertyOp7
 70
     1
102
RTVSPropertyOp8
 70
     1
102
RTVSPropertyOp9
 70
     1
102
RTVSPropertyOp10
 70
     1
102
RTVSPropertyOp11
 70
     1
102
RTVSPropertyOp12
 70
     1
102
RTVSPropertyOp13
 70
     1
102
RTVSPropertyOp14
 70
     1
102
RTVSPropertyOp15
 70
     1
102
RTVSPropertyOp16
 70
     1
102
RTVSPropertyOp17
 70
     1
102
RTVSPropertyOp18
 70
     1
102
RTVSPropertyOp19
 70
     1
102
RTVSPropertyOp20
 70
     1
102
RTVSPropertyOp21
 70
     1
102
RTVSPropertyOp22
 70
     1
102
RTVSPropertyOp23
 70
     1
102
RTVSPropertyOp24
 70
     1
102
RTVSPropertyOp25
 70
     1
102
RTVSPropertyOp26
 70
     1
102
RTVSPropertyOp27
 70
     1
102
RTVSPropertyOp28
 70
     1
102
RTVSPropertyOp29
 70
     1
102
RTVSPropertyOp30
 70
     1
102
RTVSPropertyOp31
 70
     1
102
RTVSPropertyOp32
 70
     1
102
RTVSPropertyOp33
 70
     1
102
RTVSPropertyOp34
 70
     1
102
RTVSPropertyOp35
 70
     1
102
RTVSPropertyOp36
 70
     1
102
RTVSPropertyOp37
 70
     1
102
RTVSPropertyOp38
 70
     1
102
RTVSPropertyOp39
 70
     1
102
RTVSPropertyOp40
 70
     1
102
RTVSPropertyOp41
 70
     1
102
RTVSPropertyOp42
 70
     1
102
RTVSPropertyOp43
 70
     1
102
RTVSPropertyOp44
 70
     1
102
RTVSPropertyOp45
 70
     1
102
RTVSPropertyOp46
 70
     1
102
RTVSPropertyOp47
 70
     1
102
RTVSPropertyOp48
 70
     1
102
RTVSPropertyOp49
 70
     1
102
RTVSPropertyOp50
 70
     1
102
RTVSPropertyOp51
 70
     0
102
RTVSPropertyOp52
 70
     0
102
RTVSPropertyOp53
 70
     1
102
RTVSPropertyOp54
 70
     1
102
RTVSPropertyOp55
 70
     1
102
RTVSPropertyOp56
 70
     1
102
RTVSPropertyOp57
 70
     1
102
RTVSPropertyOp58
 70
     1
102
RTVSPropertyOp59
 70
     1
102
RTVSPropertyOp60
 70
     1
102
RTVSPropertyOp61
 70
     1
102
RTVSPropertyOp62
 70
     1
  0
ENDSEC
  0
EOF
