  0
SECTION
  2
HEADER
  9
$ACADVER
  1
AC1014
  9
$ACADMAINTVER
 70
     9
  9
$DWGCODEPAGE
  3
ANSI_1252
  9
$INSBASE
 10
0.0
 20
0.0
 30
0.0
  9
$EXTMIN
 10
-23.56604669871603
 20
-19.05256184780773
 30
-0.0000000349181948
  9
$EXTMAX
 10
32.30498288093304
 20
31.83114899625752
 30
0.0000000814935747
  9
$LIMMIN
 10
-798.297363
 20
-338.2568359999999
  9
$LIMMAX
 10
0.0
 20
0.0
  9
$ORTHOMODE
 70
     0
  9
$REGENMODE
 70
     1
  9
$FILLMODE
 70
     1
  9
$QTEXTMODE
 70
     0
  9
$MIRRTEXT
 70
     1
  9
$DRAGMODE
 70
     2
  9
$LTSCALE
 40
25.0
  9
$OSMODE
 70
   167
  9
$ATTMODE
 70
     1
  9
$TEXTSIZE
 40
4.1672
  9
$TRACEWID
 40
0.05
  9
$TEXTSTYLE
  7
STANDARD
  9
$CLAYER
  8
1
  9
$CELTYPE
  6
BYLAYER
  9
$CECOLOR
 62
   256
  9
$CELTSCALE
 40
1.0
  9
$DELOBJ
 70
     1
  9
$DISPSILH
 70
     0
  9
$DIMSCALE
 40
1.0
  9
$DIMASZ
 40
0.18
  9
$DIMEXO
 40
0.0625
  9
$DIMDLI
 40
0.38
  9
$DIMRND
 40
0.0
  9
$DIMDLE
 40
0.0
  9
$DIMEXE
 40
0.18
  9
$DIMTP
 40
0.0
  9
$DIMTM
 40
0.0
  9
$DIMTXT
 40
3.5
  9
$DIMCEN
 40
0.09
  9
$DIMTSZ
 40
0.0
  9
$DIMTOL
 70
     0
  9
$DIMLIM
 70
     0
  9
$DIMTIH
 70
     1
  9
$DIMTOH
 70
     1
  9
$DIMSE1
 70
     0
  9
$DIMSE2
 70
     0
  9
$DIMTAD
 70
     0
  9
$DIMZIN
 70
     0
  9
$DIMBLK
  1

  9
$DIMASO
 70
     1
  9
$DIMSHO
 70
     1
  9
$DIMPOST
  1

  9
$DIMAPOST
  1

  9
$DIMALT
 70
     0
  9
$DIMALTD
 70
     2
  9
$DIMALTF
 40
25.4
  9
$DIMLFAC
 40
1.0
  9
$DIMTOFL
 70
     0
  9
$DIMTVP
 40
0.0
  9
$DIMTIX
 70
     0
  9
$DIMSOXD
 70
     0
  9
$DIMSAH
 70
     0
  9
$DIMBLK1
  1

  9
$DIMBLK2
  1

  9
$DIMSTYLE
  2
STANDARD
  9
$DIMCLRD
 70
     0
  9
$DIMCLRE
 70
     0
  9
$DIMCLRT
 70
     0
  9
$DIMTFAC
 40
1.0
  9
$DIMGAP
 40
0.09
  9
$DIMJUST
 70
     0
  9
$DIMSD1
 70
     0
  9
$DIMSD2
 70
     0
  9
$DIMTOLJ
 70
     1
  9
$DIMTZIN
 70
     0
  9
$DIMALTZ
 70
     0
  9
$DIMALTTZ
 70
     0
  9
$DIMFIT
 70
     3
  9
$DIMUPT
 70
     0
  9
$DIMUNIT
 70
     2
  9
$DIMDEC
 70
     4
  9
$DIMTDEC
 70
     4
  9
$DIMALTU
 70
     2
  9
$DIMALTTD
 70
     2
  9
$DIMTXSTY
  7
STANDARD
  9
$DIMAUNIT
 70
     0
  9
$LUNITS
 70
     2
  9
$LUPREC
 70
     6
  9
$SKETCHINC
 40
0.1
  9
$FILLETRAD
 40
0.5
  9
$AUNITS
 70
     0
  9
$AUPREC
 70
     4
  9
$MENU
  1
.
  9
$ELEVATION
 40
0.0
  9
$PELEVATION
 40
0.0
  9
$THICKNESS
 40
0.0
  9
$LIMCHECK
 70
     0
  9
$BLIPMODE
 70
     0
  9
$CHAMFERA
 40
0.0
  9
$CHAMFERB
 40
0.0
  9
$CHAMFERC
 40
0.0
  9
$CHAMFERD
 40
0.0
  9
$SKPOLY
 70
     0
  9
$TDCREATE
 40
2311949.301279375
  9
$TDUPDATE
 40
2454187.626181389
  9
$TDINDWG
 40
0.0482978935
  9
$TDUSRTIMER
 40
0.0482977083
  9
$USRTIMER
 70
     1
  9
$ANGBASE
 50
0.0
  9
$ANGDIR
 70
     0
  9
$PDMODE
 70
     0
  9
$PDSIZE
 40
0.0
  9
$PLINEWID
 40
0.0
  9
$COORDS
 70
     0
  9
$SPLFRAME
 70
     0
  9
$SPLINETYPE
 70
     6
  9
$SPLINESEGS
 70
     8
  9
$ATTDIA
 70
     0
  9
$ATTREQ
 70
     1
  9
$HANDLING
 70
-16383
  9
$HANDSEED
  5
1D1D
  9
$SURFTAB1
 70
     6
  9
$SURFTAB2
 70
     6
  9
$SURFTYPE
 70
     6
  9
$SURFU
 70
     6
  9
$SURFV
 70
     6
  9
$UCSNAME
  2

  9
$UCSORG
 10
0.0
 20
0.0
 30
0.0
  9
$UCSXDIR
 10
1.0
 20
0.0
 30
0.0
  9
$UCSYDIR
 10
0.0
 20
1.0
 30
0.0
  9
$PUCSNAME
  2

  9
$PUCSORG
 10
0.0
 20
0.0
 30
0.0
  9
$PUCSXDIR
 10
1.0
 20
0.0
 30
0.0
  9
$PUCSYDIR
 10
0.0
 20
1.0
 30
0.0
  9
$USERI1
 70
     0
  9
$USERI2
 70
     0
  9
$USERI3
 70
     0
  9
$USERI4
 70
     0
  9
$USERI5
 70
     0
  9
$USERR1
 40
0.0
  9
$USERR2
 40
0.0
  9
$USERR3
 40
0.0
  9
$USERR4
 40
0.0
  9
$USERR5
 40
0.0
  9
$WORLDVIEW
 70
     1
  9
$SHADEDGE
 70
     3
  9
$SHADEDIF
 70
    70
  9
$TILEMODE
 70
     1
  9
$MAXACTVP
 70
    48
  9
$PINSBASE
 10
0.0
 20
0.0
 30
0.0
  9
$PLIMCHECK
 70
     0
  9
$PEXTMIN
 10
-798.297363
 20
-338.2568359999999
 30
1.000000000000000E+20
  9
$PEXTMAX
 10
0.0
 20
0.0
 30
-1.000000000000000E+20
  9
$PLIMMIN
 10
0.0
 20
0.0
  9
$PLIMMAX
 10
12.0
 20
9.0
  9
$UNITMODE
 70
     0
  9
$VISRETAIN
 70
     0
  9
$PLINEGEN
 70
     0
  9
$PSLTSCALE
 70
     1
  9
$TREEDEPTH
 70
  3020
  9
$PICKSTYLE
 70
     1
  9
$CMLSTYLE
  2
STANDARD
  9
$CMLJUST
 70
     0
  9
$CMLSCALE
 40
1.0
  9
$PROXYGRAPHICS
 70
     1
  9
$MEASUREMENT
 70
     0
  0
ENDSEC
  0
SECTION
  2
CLASSES
  0
CLASS
  1
LWPOLYLINE
  2
AcDbPolyline
  3
AutoCAD 2000
 90
        0
280
     0
281
     1
  0
CLASS
  1
IMAGE
  2
AcDbRasterImage
  3
ISM
 90
      127
280
     0
281
     1
  0
CLASS
  1
OLE2FRAME
  2
AcDbOle2Frame
  3
AutoCAD 2000
 90
        0
280
     0
281
     1
  0
CLASS
  1
HATCH
  2
AcDbHatch
  3
AutoCAD 2000
 90
        0
280
     0
281
     1
  0
CLASS
  1
DICTIONARYVAR
  2
AcDbDictionaryVar
  3
AutoCAD 2000
 90
        0
280
     0
281
     0
  0
CLASS
  1
RASTERVARIABLES
  2
AcDbRasterVariables
  3
ISM
 90
        0
280
     0
281
     0
  0
CLASS
  1
IMAGEDEF
  2
AcDbRasterImageDef
  3
ISM
 90
        0
280
     0
281
     0
  0
CLASS
  1
IMAGEDEF_REACTOR
  2
AcDbRasterImageDefReactor
  3
ISM
 90
        1
280
     0
281
     0
  0
CLASS
  1
IDBUFFER
  2
AcDbIdBuffer
  3
AutoCAD 2000
 90
        0
280
     0
281
     0
  0
CLASS
  1
SPATIAL_FILTER
  2
AcDbSpatialFilter
  3
AutoCAD 2000
 90
        0
280
     0
281
     0
  0
CLASS
  1
XRECORD
  2
AcDbXrecord
  3
AutoCAD 2000
 90
        0
280
     0
281
     0
  0
CLASS
  1
SORTENTSTABLE
  2
AcDbSortentsTable
  3
AutoCAD 2000
 90
        0
280
     0
281
     0
  0
CLASS
  1
LAYER_INDEX
  2
AcDbLayerIndex
  3
AutoCAD 2000
 90
        0
280
     0
281
     0
  0
CLASS
  1
SPATIAL_INDEX
  2
AcDbSpatialIndex
  3
AutoCAD 2000
 90
        0
280
     0
281
     0
  0
CLASS
  1
OBJECT_PTR
  2
CAseDLPNTableRecord
  3
"ASE-LPNTableRecord"
 90
        0
280
     0
281
     0
  0
CLASS
  1
LAYOUT
  2
AcDbLayout
  3
AutoCAD 2000
 90
        0
280
     0
281
     0
  0
CLASS
  1
PLOTSETTINGS
  2
AcDbPlotSettings
  3
AutoCAD 2000
 90
        0
280
     0
281
     0
  0
CLASS
  1
ACDBDICTIONARYWDFLT
  2
AcDbDictionaryWithDefault
  3
AutoCAD 2000
 90
        0
280
     0
281
     0
  0
CLASS
  1
ACDBPLACEHOLDER
  2
AcDbPlaceHolder
  3
AutoCAD 2000
 90
        0
280
     0
281
     0
  0
CLASS
  1
VBA_PROJECT
  2
AcDbVbaProject
  3
"acadvba"
 90
        0
280
     0
281
     0
  0
CLASS
  1
WIPEOUT
  2
AcDbWipeout
  3
WipeOut|AutoCAD Express Tool|expresstools@autodesk.com
 90
        0
280
     0
281
     1
  0
CLASS
  1
WIPEOUTVARIABLES
  2
AcDbWipeoutVariables
  3
WipeOut|AutoCAD Express Tool|expresstools@autodesk.com
 90
        0
280
     0
281
     0
  0
CLASS
  1
RTEXT
  2
RText
  3
RText|AutoCAD Express Tool|expresstools@autodesk.com
 90
        0
280
     0
281
     1
  0
CLASS
  1
ARCALIGNEDTEXT
  2
AcDbArcAlignedText
  3
ATEXT|AutoCAD Express Tool|expresstools@autodesk.com
 90
        0
280
     0
281
     1
  0
CLASS
  1
LONG_TRANSACTION
  2
AcDbLongTransaction
  3
AutoCAD 2000
 90
        0
280
     0
281
     0
  0
CLASS
  1
LWPOLYLINE
  2
AcDbPolyline
  3
AutoCAD 2000
 90
        0
280
     0
281
     1
  0
CLASS
  1
HATCH
  2
AcDbHatch
  3
AutoCAD 2000
 90
        0
280
     0
281
     1
  0
CLASS
  1
XRECORD
  2
AcDbXrecord
  3
AutoCAD 2000
 90
        0
280
     0
281
     0
  0
CLASS
  1
LONG_TRANSACTION
  2
AcDbLongTransaction
  3
AutoCAD 2000
 90
        0
280
     0
281
     0
  0
CLASS
  1
LWPOLYLINE
  2
AcDbPolyline
  3
AutoCAD 2000
 90
        0
280
     0
281
     1
  0
CLASS
  1
HATCH
  2
AcDbHatch
  3
AutoCAD 2000
 90
        0
280
     0
281
     1
  0
CLASS
  1
XRECORD
  2
AcDbXrecord
  3
AutoCAD 2000
 90
        0
280
     0
281
     0
  0
CLASS
  1
LONG_TRANSACTION
  2
AcDbLongTransaction
  3
AutoCAD 2000
 90
        0
280
     0
281
     0
  0
CLASS
  1
LWPOLYLINE
  2
AcDbPolyline
  3
AutoCAD 2000
 90
        0
280
     0
281
     1
  0
CLASS
  1
HATCH
  2
AcDbHatch
  3
AutoCAD 2000
 90
        0
280
     0
281
     1
  0
CLASS
  1
XRECORD
  2
AcDbXrecord
  3
AutoCAD 2000
 90
        0
280
     0
281
     0
  0
ENDSEC
  0
SECTION
  2
TABLES
  0
TABLE
  2
VPORT
  5
7
330
0
100
AcDbSymbolTable
 70
     3
  0
VPORT
  5
1CFA
330
7
100
AcDbSymbolTableRecord
100
AcDbViewportTableRecord
  2
*ACTIVE
 70
     0
 10
0.0
 20
0.0
 11
1.0
 21
1.0
 12
4.369468091108497
 22
6.389293574224893
 13
0.0
 23
0.0
 14
6.349999999999997
 24
6.349999999999997
 15
6.349999999999997
 25
6.349999999999997
 16
0.0
 26
0.0
 36
1.0
 17
0.0
 27
0.0
 37
0.0
 40
51.18628989764741
 41
1.297619047619047
 42
50.0
 43
0.0
 44
0.0
 50
0.0
 51
0.0
 71
     0
 72
   100
 73
     1
 74
     1
 75
     0
 76
     0
 77
     0
 78
     0
  0
ENDTAB
  0
TABLE
  2
LTYPE
  5
4
330
0
100
AcDbSymbolTable
 70
     2
  0
LTYPE
  5
11
330
4
100
AcDbSymbolTableRecord
100
AcDbLinetypeTableRecord
  2
BYBLOCK
 70
     0
  3

 72
    65
 73
     0
 40
0.0
  0
LTYPE
  5
12
330
4
100
AcDbSymbolTableRecord
100
AcDbLinetypeTableRecord
  2
BYLAYER
 70
     0
  3

 72
    65
 73
     0
 40
0.0
  0
LTYPE
  5
13
330
4
100
AcDbSymbolTableRecord
100
AcDbLinetypeTableRecord
  2
CONTINUOUS
 70
     0
  3
DXF Default line type
 72
    65
 73
     0
 40
0.0
  0
LTYPE
  5
12DC
330
4
100
AcDbSymbolTableRecord
100
AcDbLinetypeTableRecord
  2
CENTER
 70
     0
  3
____ _ ____ _ ____ _ ____ _ ____ _ ____ _ ____
 72
    65
 73
     4
 40
0.6
 49
0.375
 74
     0
 49
-0.075
 74
     0
 49
0.075
 74
     0
 49
-0.075
 74
     0
  0
ENDTAB
  0
TABLE
  2
LAYER
  5
2
330
0
100
AcDbSymbolTable
 70
    11
  0
LAYER
  5
14
330
2
100
AcDbSymbolTableRecord
100
AcDbLayerTableRecord
  2
0
 70
     0
 62
     7
  6
CONTINUOUS
  0
LAYER
  5
1263
330
2
100
AcDbSymbolTableRecord
100
AcDbLayerTableRecord
  2
DEFPOINTS
 70
     0
 62
     7
  6
CONTINUOUS
  0
LAYER
  5
12DD
330
2
100
AcDbSymbolTableRecord
100
AcDbLayerTableRecord
  2
1
 70
     0
 62
     4
  6
CONTINUOUS
  0
LAYER
  5
12DE
330
2
100
AcDbSymbolTableRecord
100
AcDbLayerTableRecord
  2
2
 70
     0
 62
     7
  6
CONTINUOUS
  0
LAYER
  5
12E0
330
2
100
AcDbSymbolTableRecord
100
AcDbLayerTableRecord
  2
6
 70
     0
 62
     5
  6
CONTINUOUS
  0
LAYER
  5
12E1
330
2
100
AcDbSymbolTableRecord
100
AcDbLayerTableRecord
  2
CUT
 70
     0
 62
     1
  6
CONTINUOUS
  0
LAYER
  5
12E2
330
2
100
AcDbSymbolTableRecord
100
AcDbLayerTableRecord
  2
NOCUT
 70
     0
 62
     7
  6
CONTINUOUS
  0
LAYER
  5
12E3
330
2
100
AcDbSymbolTableRecord
100
AcDbLayerTableRecord
  2
SK1
 70
     0
 62
     4
  6
CONTINUOUS
  0
LAYER
  5
12E4
330
2
100
AcDbSymbolTableRecord
100
AcDbLayerTableRecord
  2
SK4
 70
     0
 62
     2
  6
CENTER
  0
LAYER
  5
12E5
330
2
100
AcDbSymbolTableRecord
100
AcDbLayerTableRecord
  2
SK2
 70
     0
 62
     7
  6
CONTINUOUS
  0
LAYER
  5
171A
330
2
100
AcDbSymbolTableRecord
100
AcDbLayerTableRecord
  2
4
 70
     0
 62
     2
  6
CENTER
  0
ENDTAB
  0
TABLE
  2
STYLE
  5
3
330
0
100
AcDbSymbolTable
 70
     1
  0
STYLE
  5
17
330
3
100
AcDbSymbolTableRecord
100
AcDbTextStyleTableRecord
  2
STANDARD
 70
     0
 40
4.1672
 41
1.0
 50
0.0
 71
     0
 42
4.1672
  3
isocp.shx
  4

  0
ENDTAB
  0
TABLE
  2
VIEW
  5
5
330
0
100
AcDbSymbolTable
 70
     0
  0
ENDTAB
  0
TABLE
  2
UCS
  5
6
330
0
100
AcDbSymbolTable
 70
     2
  0
UCS
  5
49
330
6
100
AcDbSymbolTableRecord
100
AcDbUCSTableRecord
  2
MO_001_VIEW_PV_P
 70
     0
 10
0.0
 20
0.0
 30
0.0
 11
1.0
 21
0.0
 31
0.0
 12
0.0
 22
1.0
 32
0.0
  0
UCS
  5
4A
330
6
100
AcDbSymbolTableRecord
100
AcDbUCSTableRecord
  2
MO_001_VIEW_RA_P
 70
     0
 10
-435.5476989746093
 20
-288.849151611328
 30
0.0
 11
-1.0
 21
-0.0000000000000003
 31
0.0
 12
0.0
 22
-1.0
 32
0.0
  0
ENDTAB
  0
TABLE
  2
APPID
  5
8
330
0
100
AcDbSymbolTable
 70
     1
  0
APPID
  5
16
330
8
100
AcDbSymbolTableRecord
100
AcDbRegAppTableRecord
  2
ACAD
 70
     0
  0
ENDTAB
  0
TABLE
  2
DIMSTYLE
  5
9
330
0
100
AcDbSymbolTable
 70
     2
  0
DIMSTYLE
105
18
330
9
100
AcDbSymbolTableRecord
100
AcDbDimStyleTableRecord
  2
STANDARD
 70
     0
  3

  4

  5

  6

  7

 40
1.0
 41
0.18
 42
0.0625
 43
0.38
 44
0.18
 45
0.0
 46
0.0
 47
0.0
 48
0.0
140
3.5
141
0.09
142
0.0
143
25.4
144
1.0
145
0.0
146
1.0
147
0.09
 71
     0
 72
     0
 73
     0
 74
     0
 75
     0
 76
     0
 77
     0
 78
     0
170
     0
171
     2
172
     0
173
     0
174
     0
175
     0
176
     0
177
     0
178
     0
270
     2
271
     0
272
     0
273
     0
274
     0
340
17
275
     0
280
     0
281
     0
282
     0
283
     0
284
     0
285
     0
286
     0
287
     3
288
     0
  0
DIMSTYLE
105
12E6
102
{ACAD_REACTORS
330
1BEF
330
1BF2
330
1BF3
330
1BF5
330
1BE7
102
}
330
9
100
AcDbSymbolTableRecord
100
AcDbDimStyleTableRecord
  2
ISO-25
 70
     0
  3

  4

  5

  6

  7

 40
1.0
 41
2.5
 42
0.625
 43
3.75
 44
1.25
 45
0.0
 46
0.0
 47
0.0
 48
0.0
140
2.5
141
2.5
142
0.0
143
0.03937007874016
144
1.0
145
0.0
146
1.0
147
0.625
 71
     0
 72
     0
 73
     0
 74
     0
 75
     0
 76
     0
 77
     1
 78
     8
170
     0
171
     3
172
     1
173
     0
174
     0
175
     0
176
     0
177
     0
178
     0
270
     2
271
     2
272
     2
273
     2
274
     3
340
17
275
     0
280
     0
281
     0
282
     0
283
     0
284
     8
285
     0
286
     0
287
     3
288
     0
  0
ENDTAB
  0
TABLE
  2
BLOCK_RECORD
  5
1
330
0
100
AcDbSymbolTable
 70
    22
  0
BLOCK_RECORD
  5
A
102
{ACAD_XDICTIONARY
360
1256
102
}
330
1
100
AcDbSymbolTableRecord
100
AcDbBlockTableRecord
  2
*MODEL_SPACE
  0
BLOCK_RECORD
  5
B
102
{ACAD_XDICTIONARY
360
1258
102
}
330
1
100
AcDbSymbolTableRecord
100
AcDbBlockTableRecord
  2
*PAPER_SPACE
  0
BLOCK_RECORD
  5
1C85
330
1
100
AcDbSymbolTableRecord
100
AcDbBlockTableRecord
  2
*D17
  0
BLOCK_RECORD
  5
1C93
330
1
100
AcDbSymbolTableRecord
100
AcDbBlockTableRecord
  2
*D18
  0
BLOCK_RECORD
  5
1C9F
330
1
100
AcDbSymbolTableRecord
100
AcDbBlockTableRecord
  2
*D19
  0
BLOCK_RECORD
  5
1CAD
330
1
100
AcDbSymbolTableRecord
100
AcDbBlockTableRecord
  2
*D20
  0
BLOCK_RECORD
  5
1CB9
330
1
100
AcDbSymbolTableRecord
100
AcDbBlockTableRecord
  2
*D21
  0
ENDTAB
  0
ENDSEC
  0
SECTION
  2
BLOCKS
  0
BLOCK
  5
D
330
A
100
AcDbEntity
  8
0
100
AcDbBlockBegin
  2
*MODEL_SPACE
 70
     0
 10
0.0
 20
0.0
 30
0.0
  3
*MODEL_SPACE
  1

  0
ENDBLK
  5
E
330
A
100
AcDbEntity
  8
0
100
AcDbBlockEnd
  0
BLOCK
  5
F
330
B
100
AcDbEntity
 67
     1
  8
0
100
AcDbBlockBegin
  2
*PAPER_SPACE
 70
     0
 10
0.0
 20
0.0
 30
0.0
  3
*PAPER_SPACE
  1

  0
ENDBLK
  5
10
330
B
100
AcDbEntity
 67
     1
  8
0
100
AcDbBlockEnd
  0
BLOCK
  5
1C91
330
1C85
100
AcDbEntity
  8
0
100
AcDbBlockBegin
  2
*D17
 70
     1
 10
0.0
 20
0.0
 30
0.0
  3
*D17
  1

  0
LINE
  5
1CC7
330
1C85
100
AcDbEntity
  8
2
 62
     0
100
AcDbLine
 10
0.0000000000000142
 20
9.775000000000002
 30
0.0
 11
0.0000000000000154
 21
28.48568961325063
 31
0.0
  0
LINE
  5
1CC8
330
1C85
100
AcDbEntity
  8
2
 62
     0
100
AcDbLine
 10
4.900000000000034
 20
9.775000000000019
 30
0.0
 11
4.900000000000034
 21
28.48568961325063
 31
0.0
  0
LINE
  5
1CC9
330
1C85
100
AcDbEntity
  8
2
 62
     0
100
AcDbLine
 10
-2.499999999999984
 20
27.23568961325063
 30
0.0
 11
-4.999999999999984
 21
27.23568961325063
 31
0.0
  0
LINE
  5
1CCA
330
1C85
100
AcDbEntity
  8
2
 62
     0
100
AcDbLine
 10
7.400000000000034
 20
27.23568961325063
 30
0.0
 11
19.94360866990399
 21
27.23568961325063
 31
0.0
  0
LINE
  5
1CCB
330
1C85
100
AcDbEntity
  8
2
 62
     0
100
AcDbLine
 10
0.0000000000000153
 20
27.23568961325063
 30
0.0
 11
4.900000000000034
 21
27.23568961325063
 31
0.0
  0
SOLID
  5
1CCC
330
1C85
100
AcDbEntity
  8
2
 62
     0
100
AcDbTrace
 10
-2.499999999999984
 20
27.6523562799173
 30
0.0
 11
-2.499999999999984
 21
26.81902294658396
 31
0.0
 12
0.0000000000000153
 22
27.23568961325063
 32
0.0
 13
0.0000000000000153
 23
27.23568961325063
 33
0.0
  0
SOLID
  5
1CCD
330
1C85
100
AcDbEntity
  8
2
 62
     0
100
AcDbTrace
 10
7.400000000000034
 20
27.6523562799173
 30
0.0
 11
7.400000000000034
 21
26.81902294658396
 31
0.0
 12
4.900000000000034
 22
27.23568961325063
 32
0.0
 13
4.900000000000034
 23
27.23568961325063
 33
0.0
  0
MTEXT
  5
1CCE
330
1C85
100
AcDbEntity
  8
2
 62
     0
100
AcDbMText
 10
16.04403649705592
 20
29.94428961325063
 30
0.0
 40
4.1672
 41
0.0
 71
     5
 72
     1
  1
4.9
1001
ACAD
1000
MTEXTBEGIN
1070
    73
1070
     1
1070
    44
1040
1.0
1070
    74
1070
     0
1000
MTEXTEND
  0
POINT
  5
1CCF
330
1C85
100
AcDbEntity
  8
DEFPOINTS
 62
     0
100
AcDbPoint
 10
0.0000000000000142
 20
9.150000000000002
 30
0.0
  0
POINT
  5
1CD0
330
1C85
100
AcDbEntity
  8
DEFPOINTS
 62
     0
100
AcDbPoint
 10
4.900000000000034
 20
9.150000000000019
 30
0.0
  0
POINT
  5
1CD1
330
1C85
100
AcDbEntity
  8
DEFPOINTS
 62
     0
100
AcDbPoint
 10
4.900000000000034
 20
27.23568961325063
 30
0.0
  0
ENDBLK
  5
1C92
330
1C85
100
AcDbEntity
  8
0
100
AcDbBlockEnd
  0
BLOCK
  5
1C9D
330
1C93
100
AcDbEntity
  8
0
100
AcDbBlockBegin
  2
*D18
 70
     1
 10
0.0
 20
0.0
 30
0.0
  3
*D18
  1

  0
LINE
  5
1CD2
330
1C93
100
AcDbEntity
  8
2
 62
     0
100
AcDbLine
 10
3.7373023153459
 20
10.85000000000001
 30
0.0
 11
17.18682556072309
 21
10.85000000000001
 31
0.0
  0
LINE
  5
1CD3
330
1C93
100
AcDbEntity
  8
2
 62
     0
100
AcDbLine
 10
2.412697684654191
 20
-10.84999999999997
 30
0.0
 11
17.18682556072309
 21
-10.84999999999997
 31
0.0
  0
LINE
  5
1CD4
330
1C93
100
AcDbEntity
  8
2
 62
     0
100
AcDbLine
 10
15.93682556072309
 20
8.350000000000012
 30
0.0
 11
15.93682556072309
 21
-8.349999999999978
 31
0.0
  0
SOLID
  5
1CD5
330
1C93
100
AcDbEntity
  8
2
 62
     0
100
AcDbTrace
 10
15.52015889405643
 20
8.350000000000012
 30
0.0
 11
16.35349222738976
 21
8.350000000000012
 31
0.0
 12
15.93682556072309
 22
10.85000000000001
 32
0.0
 13
15.93682556072309
 23
10.85000000000001
 33
0.0
  0
SOLID
  5
1CD6
330
1C93
100
AcDbEntity
  8
2
 62
     0
100
AcDbTrace
 10
15.52015889405642
 20
-8.349999999999978
 30
0.0
 11
16.35349222738975
 21
-8.349999999999978
 31
0.0
 12
15.93682556072309
 22
-10.84999999999997
 32
0.0
 13
15.93682556072309
 23
-10.84999999999997
 33
0.0
  0
MTEXT
  5
1CD7
330
1C93
100
AcDbEntity
  8
2
 62
     0
100
AcDbMText
 10
13.22781540324277
 20
0.2167592129821565
 30
0.0
 40
4.1672
 41
0.0
 71
     5
 72
     1
  1
%%c21.7
 11
0.0000000000000001
 21
1.0
 31
0.0
1001
ACAD
1000
MTEXTBEGIN
1070
    73
1070
     1
1070
    44
1040
1.0
1070
    74
1070
     0
1000
MTEXTEND
  0
POINT
  5
1CD8
330
1C93
100
AcDbEntity
  8
DEFPOINTS
 62
     0
100
AcDbPoint
 10
3.1123023153459
 20
10.85000000000001
 30
0.0
  0
POINT
  5
1CD9
330
1C93
100
AcDbEntity
  8
DEFPOINTS
 62
     0
100
AcDbPoint
 10
1.78769768465419
 20
-10.84999999999997
 30
0.0
  0
POINT
  5
1CDA
330
1C93
100
AcDbEntity
  8
DEFPOINTS
 62
     0
100
AcDbPoint
 10
15.93682556072309
 20
-10.84999999999997
 30
0.0
  0
ENDBLK
  5
1C9E
330
1C93
100
AcDbEntity
  8
0
100
AcDbBlockEnd
  0
BLOCK
  5
1CAB
330
1C9F
100
AcDbEntity
  8
0
100
AcDbBlockBegin
  2
*D19
 70
     1
 10
0.0
 20
0.0
 30
0.0
  3
*D19
  1

  0
LINE
  5
1CDB
330
1C9F
100
AcDbEntity
  8
2
 62
     0
100
AcDbLine
 10
-0.6249999999999716
 20
9.150000000000019
 30
0.0
 11
-13.33644998653985
 21
9.150000000000023
 31
0.0
  0
LINE
  5
1CDC
330
1C9F
100
AcDbEntity
  8
2
 62
     0
100
AcDbLine
 10
2.487302315345885
 20
10.85000000000001
 30
0.0
 11
-13.33644998653985
 21
10.85000000000002
 31
0.0
  0
LINE
  5
1CDD
330
1C9F
100
AcDbEntity
  8
2
 62
     0
100
AcDbLine
 10
-12.08644998653985
 20
6.650000000000022
 30
0.0
 11
-12.08644998653985
 21
4.150000000000022
 31
0.0
  0
LINE
  5
1CDE
330
1C9F
100
AcDbEntity
  8
2
 62
     0
100
AcDbLine
 10
-12.08644998653985
 20
13.35000000000002
 30
0.0
 11
-12.08644998653985
 21
22.10064000000002
 31
0.0
  0
LINE
  5
1CDF
330
1C9F
100
AcDbEntity
  8
2
 62
     0
100
AcDbLine
 10
-12.08644998653985
 20
9.150000000000023
 30
0.0
 11
-12.08644998653985
 21
10.85000000000002
 31
0.0
  0
SOLID
  5
1CE0
330
1C9F
100
AcDbEntity
  8
2
 62
     0
100
AcDbTrace
 10
-12.50311665320652
 20
6.650000000000022
 30
0.0
 11
-11.66978331987318
 21
6.650000000000022
 31
0.0
 12
-12.08644998653985
 22
9.150000000000023
 32
0.0
 13
-12.08644998653985
 23
9.150000000000023
 33
0.0
  0
SOLID
  5
1CE1
330
1C9F
100
AcDbEntity
  8
2
 62
     0
100
AcDbTrace
 10
-12.50311665320651
 20
13.35000000000002
 30
0.0
 11
-11.66978331987318
 21
13.35000000000001
 31
0.0
 12
-12.08644998653985
 22
10.85000000000002
 32
0.0
 13
-12.08644998653985
 23
10.85000000000002
 33
0.0
  0
MTEXT
  5
1CE2
330
1C9F
100
AcDbEntity
  8
2
 62
     0
100
AcDbMText
 10
-14.79504998653985
 20
18.97532000000001
 30
0.0
 40
4.1672
 41
0.0
 71
     5
 72
     1
  1
1.7
 11
0.0000000000000001
 21
1.0
 31
0.0
1001
ACAD
1000
MTEXTBEGIN
1070
    73
1070
     1
1070
    44
1040
1.0
1070
    74
1070
     0
1000
MTEXTEND
  0
POINT
  5
1CE3
330
1C9F
100
AcDbEntity
  8
DEFPOINTS
 62
     0
100
AcDbPoint
 10
0.0000000000000284
 20
9.150000000000019
 30
0.0
  0
POINT
  5
1CE4
330
1C9F
100
AcDbEntity
  8
DEFPOINTS
 62
     0
100
AcDbPoint
 10
3.112302315345885
 20
10.85000000000001
 30
0.0
  0
POINT
  5
1CE5
330
1C9F
100
AcDbEntity
  8
DEFPOINTS
 62
     0
100
AcDbPoint
 10
-12.08644998653985
 20
10.85000000000002
 30
0.0
  0
ENDBLK
  5
1CAC
330
1C9F
100
AcDbEntity
  8
0
100
AcDbBlockEnd
  0
BLOCK
  5
1CB7
330
1CAD
100
AcDbEntity
  8
0
100
AcDbBlockBegin
  2
*D20
 70
     1
 10
0.0
 20
0.0
 30
0.0
  3
*D20
  1

  0
LINE
  5
1CE6
330
1CAD
100
AcDbEntity
  8
SK2
 62
     0
100
AcDbLine
 10
-6.140105976299928
 20
4.110006996850033
 30
0.0
 11
-15.42434844746481
 21
4.110006996850035
 31
0.0
  0
LINE
  5
1CE7
330
1CAD
100
AcDbEntity
  8
SK2
 62
     0
100
AcDbLine
 10
-7.054450926799944
 20
-4.110003000849968
 30
0.0
 11
-15.42434844746481
 21
-4.110003000849966
 31
0.0
  0
LINE
  5
1CE8
330
1CAD
100
AcDbEntity
  8
SK2
 62
     0
100
AcDbLine
 10
-14.17434844746481
 20
1.610006996850035
 30
0.0
 11
-14.17434844746481
 21
-1.610003000849966
 31
0.0
  0
SOLID
  5
1CE9
330
1CAD
100
AcDbEntity
  8
SK2
 62
     0
100
AcDbTrace
 10
-14.59101511413148
 20
1.610006996850035
 30
0.0
 11
-13.75768178079814
 21
1.610006996850035
 31
0.0
 12
-14.17434844746481
 22
4.110006996850035
 32
0.0
 13
-14.17434844746481
 23
4.110006996850035
 33
0.0
  0
SOLID
  5
1CEA
330
1CAD
100
AcDbEntity
  8
SK2
 62
     0
100
AcDbTrace
 10
-14.59101511413148
 20
-1.610003000849966
 30
0.0
 11
-13.75768178079814
 21
-1.610003000849966
 31
0.0
 12
-14.17434844746481
 22
-4.110003000849966
 32
0.0
 13
-14.17434844746481
 23
-4.110003000849966
 33
0.0
  0
MTEXT
  5
1CEB
330
1CAD
100
AcDbEntity
  8
SK2
 62
     0
100
AcDbMText
 10
-16.88294844746481
 20
0.0000019980000324
 30
0.0
 40
4.1672
 41
0.0
 71
     5
 72
     1
  1
Ts8
 11
0.0000000000000001
 21
1.0
 31
0.0
1001
ACAD
1000
MTEXTBEGIN
1070
    73
1070
     1
1070
    44
1040
1.0
1070
    74
1070
     0
1000
MTEXTEND
  0
POINT
  5
1CEC
330
1CAD
100
AcDbEntity
  8
DEFPOINTS
 62
     0
100
AcDbPoint
 10
-5.515105976299928
 20
4.110006996850032
 30
0.0
  0
POINT
  5
1CED
330
1CAD
100
AcDbEntity
  8
DEFPOINTS
 62
     0
100
AcDbPoint
 10
-6.429450926799944
 20
-4.110003000849968
 30
0.0
  0
POINT
  5
1CEE
330
1CAD
100
AcDbEntity
  8
DEFPOINTS
 62
     0
100
AcDbPoint
 10
-14.17434844746481
 20
-4.110003000849966
 30
0.0
  0
ENDBLK
  5
1CB8
330
1CAD
100
AcDbEntity
  8
0
100
AcDbBlockEnd
  0
BLOCK
  5
1CC5
330
1CB9
100
AcDbEntity
  8
0
100
AcDbBlockBegin
  2
*D21
 70
     1
 10
0.0
 20
0.0
 30
0.0
  3
*D21
  1

  0
LINE
  5
1CEF
330
1CB9
100
AcDbEntity
  8
2
 62
     0
100
AcDbLine
 10
1.700000000000031
 20
11.47500000000001
 30
0.0
 11
1.700000000000031
 21
19.8742428353834
 31
0.0
  0
LINE
  5
1CF0
330
1CB9
100
AcDbEntity
  8
2
 62
     0
100
AcDbLine
 10
3.200000000000031
 20
11.47500000000001
 30
0.0
 11
3.200000000000031
 21
19.8742428353834
 31
0.0
  0
LINE
  5
1CF1
330
1CB9
100
AcDbEntity
  8
2
 62
     0
100
AcDbLine
 10
-0.7999999999999683
 20
18.6242428353834
 30
0.0
 11
-3.299999999999968
 21
18.6242428353834
 31
0.0
  0
LINE
  5
1CF2
330
1CB9
100
AcDbEntity
  8
2
 62
     0
100
AcDbLine
 10
5.700000000000031
 20
18.6242428353834
 30
0.0
 11
14.62325107571214
 21
18.6242428353834
 31
0.0
  0
LINE
  5
1CF3
330
1CB9
100
AcDbEntity
  8
2
 62
     0
100
AcDbLine
 10
1.700000000000031
 20
18.6242428353834
 30
0.0
 11
3.200000000000031
 21
18.6242428353834
 31
0.0
  0
SOLID
  5
1CF4
330
1CB9
100
AcDbEntity
  8
2
 62
     0
100
AcDbTrace
 10
-0.7999999999999683
 20
19.04090950205006
 30
0.0
 11
-0.7999999999999683
 21
18.20757616871673
 31
0.0
 12
1.700000000000031
 22
18.6242428353834
 32
0.0
 13
1.700000000000031
 23
18.6242428353834
 33
0.0
  0
SOLID
  5
1CF5
330
1CB9
100
AcDbEntity
  8
2
 62
     0
100
AcDbTrace
 10
5.700000000000031
 20
19.04090950205006
 30
0.0
 11
5.700000000000031
 21
18.20757616871673
 31
0.0
 12
3.200000000000031
 22
18.6242428353834
 32
0.0
 13
3.200000000000031
 23
18.6242428353834
 33
0.0
  0
MTEXT
  5
1CF6
330
1CB9
100
AcDbEntity
  8
2
 62
     0
100
AcDbMText
 10
11.41162553785608
 20
21.3328428353834
 30
0.0
 40
4.1672
 41
0.0
 71
     5
 72
     1
  1
1.5
1001
ACAD
1000
MTEXTBEGIN
1070
    73
1070
     1
1070
    44
1040
1.0
1070
    74
1070
     0
1000
MTEXTEND
  0
POINT
  5
1CF7
330
1CB9
100
AcDbEntity
  8
DEFPOINTS
 62
     0
100
AcDbPoint
 10
1.700000000000031
 20
10.85000000000001
 30
0.0
  0
POINT
  5
1CF8
330
1CB9
100
AcDbEntity
  8
DEFPOINTS
 62
     0
100
AcDbPoint
 10
3.200000000000031
 20
10.85000000000001
 30
0.0
  0
POINT
  5
1CF9
330
1CB9
100
AcDbEntity
  8
DEFPOINTS
 62
     0
100
AcDbPoint
 10
3.200000000000031
 20
18.6242428353834
 30
0.0
  0
ENDBLK
  5
1CC6
330
1CB9
100
AcDbEntity
  8
0
100
AcDbBlockEnd
  0
ENDSEC
  0
SECTION
  2
ENTITIES
  0
DIMENSION
  5
1BE7
330
A
100
AcDbEntity
  8
2
100
AcDbDimension
  2
*D21
 10
3.200000000000031
 20
18.6242428353834
 30
0.0
 11
11.41162553785608
 21
21.3328428353834
 31
0.0
 70
    33
  3
ISO-25
100
AcDbAlignedDimension
 13
1.700000000000031
 23
10.85000000000001
 33
0.0
 14
3.200000000000031
 24
10.85000000000001
 34
0.0
  0
LWPOLYLINE
  5
1BE8
330
A
100
AcDbEntity
  8
CUT
100
AcDbPolyline
 90
        4
 70
     1
 43
0.0
 10
0.0000000000000284
 20
9.150000000000019
 10
4.900000000000034
 20
9.150000000000019
 10
3.200000000000031
 20
10.85000000000001
 10
1.700000000000031
 20
10.85000000000001
  0
LINE
  5
1BE9
330
A
100
AcDbEntity
  8
1
100
AcDbLine
 10
0.0000000000000284
 20
-7.530400257020438
 30
0.0
 11
4.900000000000048
 21
-7.530400257020437
 31
0.0
  0
LINE
  5
1BEA
330
A
100
AcDbEntity
  8
1
100
AcDbLine
 10
4.900000000000048
 20
-5.626059864777704
 30
0.0
 11
3.200000000000031
 21
-6.451633868416988
 31
0.0
  0
LINE
  5
1BEB
330
A
100
AcDbEntity
  8
1
100
AcDbLine
 10
4.900000000000048
 20
-4.743917551065059
 30
0.0
 11
3.200000000000031
 21
-5.569491554704343
 31
0.0
  0
LINE
  5
1BEC
330
A
100
AcDbEntity
  8
1
100
AcDbLine
 10
4.900000000000048
 20
-4.619866249741026
 30
0.0
 11
3.200000000000031
 21
-5.445440253380304
 31
0.0
  0
LINE
  5
1BED
330
A
100
AcDbEntity
  8
1
100
AcDbLine
 10
4.900000000000005
 20
9.150000000000021
 30
0.0
 11
3.200000000000031
 21
10.85000000000001
 31
0.0
  0
LINE
  5
1BEE
330
A
100
AcDbEntity
  8
4
100
AcDbLine
 10
0.0
 20
0.0
 30
0.0
 11
6.720788838867449
 21
0.0
 31
0.0
  0
DIMENSION
  5
1BEF
330
A
100
AcDbEntity
  8
2
100
AcDbDimension
  2
*D17
 10
4.900000000000034
 20
27.23568961325063
 30
0.0
 11
16.04403649705592
 21
27.23568961325063
 31
0.0
 70
   160
  3
ISO-25
100
AcDbAlignedDimension
 13
0.0000000000000142
 23
9.150000000000002
 33
0.0
 14
4.900000000000034
 24
9.150000000000019
 34
0.0
100
AcDbRotatedDimension
  0
TEXT
  5
1BF0
330
A
100
AcDbEntity
  8
6
100
AcDbText
 10
-24.46297429951709
 20
-19.08882660643852
 30
0.0
 40
5.0
  1
17N21755T8RP17
 41
1.199999999999999
 72
     1
 11
4.337025700482897
 21
-19.08882660643852
 31
0.0
100
AcDbText
  0
LWPOLYLINE
  5
1BF1
330
A
100
AcDbEntity
  8
NOCUT
100
AcDbPolyline
 90
        4
 70
     1
 43
0.0
 10
4.900000000000034
 20
0.0
 10
4.900000000000034
 20
9.150000000000019
 10
0.0000000000000142
 20
9.150000000000019
 10
0.0000000000000426
 20
0.0000000000000353
  0
DIMENSION
  5
1BF2
330
A
100
AcDbEntity
  8
2
100
AcDbDimension
  2
*D18
 10
15.93682556072309
 20
-10.84999999999997
 30
0.0
 11
15.93682556072309
 21
0.2167592129821561
 31
0.0
 70
   160
  1
%%c<>
  3
ISO-25
100
AcDbAlignedDimension
 13
3.1123023153459
 23
10.85000000000001
 33
0.0
 14
1.78769768465419
 24
-10.84999999999997
 34
0.0
 50
270.0
100
AcDbRotatedDimension
1001
ACAD
1000
DSTYLE
1002
{
1070
   271
1070
     3
1002
}
  0
DIMENSION
  5
1BF3
330
A
100
AcDbEntity
  8
2
100
AcDbDimension
  2
*D19
 10
-12.08644998653985
 20
10.85000000000002
 30
0.0
 11
-14.79504998653985
 21
18.97532000000001
 31
0.0
 70
    32
  3
ISO-25
100
AcDbAlignedDimension
 13
0.0000000000000284
 23
9.150000000000019
 33
0.0
 14
3.112302315345885
 24
10.85000000000001
 34
0.0
 50
90.0
100
AcDbRotatedDimension
  0
LINE
  5
1BF4
330
A
100
AcDbEntity
  8
1
100
AcDbLine
 10
0.0000000000000142
 20
-7.530400257020438
 30
0.0
 11
0.0000000000000142
 21
9.150000000000021
 31
0.0
  0
DIMENSION
  5
1BF5
330
A
100
AcDbEntity
  8
SK2
100
AcDbDimension
  2
*D20
 10
-14.17434844746481
 20
-4.110003000849966
 30
0.0
 11
-14.17434844746481
 21
0.0000019980000321
 31
0.0
 70
   160
  1
Ts<>
  3
ISO-25
100
AcDbAlignedDimension
 13
-5.515105976299928
 23
4.110006996850032
 33
0.0
 14
-6.429450926799944
 24
-4.110003000849968
 34
0.0
 50
90.0
100
AcDbRotatedDimension
1001
ACAD
1000
DSTYLE
1002
{
1070
   279
1070
     0
1070
   271
1070
     0
1002
}
  0
LWPOLYLINE
  5
1BF6
330
A
100
AcDbEntity
  8
SK1
100
AcDbPolyline
 90
        6
 70
     0
 43
0.0
 10
-1.650465567599951
 20
-1.911473146049983
 10
-1.636825514699943
 20
-1.70552710754998
 10
-1.631278548999958
 20
-1.607517793649986
 10
-1.62797953779993
 20
-1.514046962549981
 10
-1.628502634299955
 20
-1.426383545249987
 10
-1.632323120799945
 20
-1.344399143549975
  0
LINE
  5
1BF7
330
A
100
AcDbEntity
  8
SK1
100
AcDbLine
 10
-2.846113265399928
 20
-0.6803647129499649
 30
0.0
 11
-2.792166003599923
 21
-1.411169868949965
 31
0.0
  0
LINE
  5
1BF8
330
A
100
AcDbEntity
  8
SK1
100
AcDbLine
 10
-3.413999708199924
 20
-1.95937494454999
 30
0.0
 11
-3.462143592399947
 21
-1.338089156749971
 31
0.0
  0
LINE
  5
1BF9
330
A
100
AcDbEntity
  8
SK1
100
AcDbLine
 10
-5.245244840699925
 20
-1.959350090649974
 30
0.0
 11
-5.293118823499952
 21
-1.338089156749971
 31
0.0
  0
LINE
  5
1BFA
330
A
100
AcDbEntity
  8
SK1
100
AcDbLine
 10
-6.481245879599953
 20
-1.015101576349974
 30
0.0
 11
-6.43318861349995
 21
-1.654375533949971
 31
0.0
  0
LINE
  5
1BFB
330
A
100
AcDbEntity
  8
SK1
100
AcDbLine
 10
-7.074469668699926
 20
-1.959322999749968
 30
0.0
 11
-7.12230048529993
 21
-1.338089156749971
 31
0.0
  0
LINE
  5
1BFC
330
A
100
AcDbEntity
  8
SK1
100
AcDbLine
 10
-4.652364136699951
 20
-1.012708642949971
 30
0.0
 11
-4.604311814799942
 21
-1.654397098049966
 31
0.0
  0
LWPOLYLINE
  5
1BFD
330
A
100
AcDbEntity
  8
SK1
100
AcDbPolyline
 90
        3
 70
     0
 43
0.0
 10
-7.862804987399947
 20
-1.559359885049969
 10
-7.914281497699924
 20
-0.9607608819499777
 10
-7.940012497999951
 20
-0.6491569151499858
  0
LINE
  5
1BFE
330
A
100
AcDbEntity
  8
SK1
100
AcDbLine
 10
-1.49999999999995
 20
-4.262306300649964
 30
0.0
 11
-1.49999999999995
 21
4.262306313550029
 31
0.0
  0
LINE
  5
1BFF
330
A
100
AcDbEntity
  8
SK1
100
AcDbLine
 10
-7.939999999999947
 20
-3.512716674049966
 30
0.0
 11
-7.939999999999947
 21
3.266687896350021
 31
0.0
  0
HATCH
  5
1C00
330
A
100
AcDbEntity
  8
1
100
AcDbHatch
 10
0.0
 20
0.0
 30
0.0
210
0.0
220
0.0
230
1.0
  2
SOLID
 70
     1
 71
     0
 91
        2
 92
        7
 72
     1
 73
     1
 93
        3
 10
0.0000000000000142
 20
0.0000000000000018
 42
0.0
 10
2.213229040584479
 20
0.0000000000000018
 42
0.4142135623730966
 10
0.0000000000000142
 20
2.213229040584438
 42
0.0
 97
        0
 92
        7
 72
     1
 73
     1
 93
        3
 10
0.0000000000000142
 20
-2.213229040584435
 42
0.0
 10
0.0000000000000142
 20
0.0000000000000018
 42
0.0
 10
-2.213229040584465
 20
0.0000000000000018
 42
0.4142135623730953
 97
        0
 75
     0
 76
     1
 47
0.1190009775223266
 98
        2
 10
0.5584147941090265
 20
0.6909183550323537
 10
-0.959598451389624
 20
-1.272597692284759
  0
CIRCLE
  5
1C01
330
A
100
AcDbEntity
  8
1
100
AcDbCircle
 10
0.0000000000000142
 20
0.0000000000000018
 30
0.0
 40
2.213229040584451
  0
LWPOLYLINE
  5
1C02
330
A
100
AcDbEntity
  8
SK1
100
AcDbPolyline
 90
       15
 70
     0
 43
0.0
 10
-4.604311814799942
 20
-1.654397098049966
 10
-4.580217832699922
 20
-1.959425691449976
 10
-4.556069547999939
 20
-2.251097947749979
 10
-4.531876165499944
 20
-2.527391787949963
 10
-4.50763927289995
 20
-2.786386696849985
 10
-4.483378653499961
 20
-3.026353471249988
 10
-4.459100643199946
 20
-3.245684628249972
 10
-4.434847172599944
 20
-3.442839198349969
 10
-4.410663910999943
 20
-3.61644312594998
 10
-4.386545977599951
 20
-3.765342966349973
 10
-4.362509893599927
 20
-3.88853643254998
 10
-4.338537122399948
 20
-3.985167225849974
 10
-4.314637941399944
 20
-4.054571366149983
 10
-4.290742429699932
 20
-4.096277026149988
 10
-4.267065576699948
 20
-4.110003000849968
  0
LINE
  5
1C03
330
A
100
AcDbEntity
  8
SK1
100
AcDbLine
 10
-4.267019375199943
 20
-4.110003000849968
 30
0.0
 11
-4.931532390099938
 21
-4.110003000849968
 31
0.0
  0
LWPOLYLINE
  5
1C04
330
A
100
AcDbEntity
  8
SK1
100
AcDbPolyline
 90
       14
 70
     0
 43
0.0
 10
-4.94195377849995
 20
-4.107359391949981
 10
-4.955355315399948
 20
-4.096273364049975
 10
-4.979573449299941
 20
-4.054561831649973
 10
-5.003854580999963
 20
-3.985149425849979
 10
-5.028185344799922
 20
-3.888507944649971
 10
-5.052535040299929
 20
-3.765302171249983
 10
-5.07687950259995
 20
-3.616389881449973
 10
-5.101185759699951
 20
-3.442774472849988
 10
-5.125414097199943
 20
-3.245611210749967
 10
-5.149560576499943
 20
-3.026274484749973
 10
-5.173601403999946
 20
-2.786306189049978
 10
-5.197556430599952
 20
-2.527312390049981
 10
-5.221408252599943
 20
-2.251016191649979
 10
-5.245244840699925
 20
-1.959350090649974
  0
LWPOLYLINE
  5
1C05
330
A
100
AcDbEntity
  8
SK1
100
AcDbPolyline
 90
       14
 70
     0
 43
0.0
 10
-6.772163529599929
 20
-4.107425030349983
 10
-6.785565671499945
 20
-4.096265743049966
 10
-6.809224159799924
 20
-4.054549910049982
 10
-6.83288024159993
 20
-3.985137152049984
 10
-6.856838106399933
 20
-3.888498174849968
 10
-6.880954383099933
 20
-3.765296139749976
 10
-6.905212672699924
 20
-3.616384981049973
 10
-6.929536249199948
 20
-3.442768454649962
 10
-6.953849567199945
 20
-3.245602479849976
 10
-6.978132685999952
 20
-3.02626136564997
 10
-7.002340305299945
 20
-2.786287307749983
 10
-7.026472958799942
 20
-2.52728800584998
 10
-7.050503154699939
 20
-2.250988148949968
 10
-7.074469668699926
 20
-1.959322999749968
  0
LWPOLYLINE
  5
1C06
330
A
100
AcDbEntity
  8
SK1
100
AcDbPolyline
 90
       15
 70
     0
 43
0.0
 10
-6.43318861349995
 20
-1.654375533949971
 10
-6.408961888599925
 20
-1.959400377949973
 10
-6.384658670999954
 20
-2.251089364849971
 10
-6.360358698799942
 20
-2.527404148849965
 10
-6.336132090299926
 20
-2.786411805749975
 10
-6.311981126199945
 20
-3.026384621549976
 10
-6.287937801899929
 20
-3.245712016049976
 10
-6.263983090799946
 20
-3.442859793449981
 10
-6.240119360899953
 20
-3.616457690549961
 10
-6.216314422899948
 20
-3.765352490949976
 10
-6.192559593399948
 20
-3.888542599349973
 10
-6.168786722799929
 20
-3.98517131584998
 10
-6.144924625999955
 20
-4.054574198049973
 10
-6.120973726599949
 20
-4.096278817749988
 10
-6.097153337299943
 20
-4.110003000849968
  0
LWPOLYLINE
  5
1C07
330
A
100
AcDbEntity
  8
SK1
100
AcDbPolyline
 90
       16
 70
     0
 43
0.0
 10
-5.317365742099951
 20
-3.619924525749975
 10
-5.31443772059994
 20
-3.619938937949964
 10
-5.307630279399923
 20
-3.620105020149975
 10
-5.301323479099956
 20
-3.620445208849969
 10
-5.295101848599927
 20
-3.620978687049981
 10
-5.288405957099946
 20
-3.621772637049984
 10
-5.281538576199928
 20
-3.622812124749968
 10
-5.274588209999947
 20
-3.624089748949967
 10
-5.267638354899943
 20
-3.625598914149973
 10
-5.260799285099942
 20
-3.627317391049982
 10
-5.254073884799943
 20
-3.629241458549981
 10
-5.247503237999929
 20
-3.63135492574997
 10
-5.241076611299931
 20
-3.63365450864998
 10
-5.234787319999952
 20
-3.636135266649969
 10
-5.228660165399929
 20
-3.638779706149986
 10
-5.222708185799959
 20
-3.641573142849989
  0
LWPOLYLINE
  5
1C08
330
A
100
AcDbEntity
  8
SK1
100
AcDbPolyline
 90
        6
 70
     0
 43
0.0
 10
-5.820890780399928
 20
-3.648842384149968
 10
-5.794682251099928
 20
-3.635999561149983
 10
-5.77259343039995
 20
-3.628385035649967
 10
-5.752287591099928
 20
-3.623666556949981
 10
-5.732246012699924
 20
-3.620977737449973
 10
-5.713424979299951
 20
-3.620184965549964
  0
LWPOLYLINE
  5
1C09
330
A
100
AcDbEntity
  8
SK1
100
AcDbPolyline
 90
        9
 70
     0
 43
0.0
 10
-6.086564472899929
 20
-4.107201464749975
 10
-6.050510161399941
 20
-4.083506961549968
 10
-6.023283925799951
 20
-4.057612998749986
 10
-6.002594605299925
 20
-4.031472098749983
 10
-5.986569492899931
 20
-4.005998864749965
 10
-5.973392018299946
 20
-3.980659167449968
 10
-5.961753754699941
 20
-3.954304314749973
 10
-5.951161612899952
 20
-3.926607363849964
 10
-5.940213460199927
 20
-3.89388412924998
  0
LINE
  5
1C0A
330
A
100
AcDbEntity
  8
SK1
100
AcDbLine
 10
-5.845222456299943
 20
-3.665422312349972
 30
0.0
 11
-5.820890780399928
 21
-3.648842384149968
 31
0.0
  0
LINE
  5
1C0B
330
A
100
AcDbEntity
  8
SK1
100
AcDbLine
 10
-6.097153337299943
 20
-4.110003000849968
 30
0.0
 11
-6.086366867999942
 21
-4.107201983249975
 31
0.0
  0
LWPOLYLINE
  5
1C0C
330
A
100
AcDbEntity
  8
SK1
100
AcDbPolyline
 90
       36
 70
     0
 43
0.0
 10
-7.535122264899946
 20
-3.620558974649963
 10
-7.146226649599952
 20
-3.620055682449968
 10
-7.139233035399946
 20
-3.620152720849969
 10
-7.133272124099946
 20
-3.620388810549966
 10
-7.127599898199946
 20
-3.620785807149968
 10
-7.121517601199947
 20
-3.621416758949973
 10
-7.115155643699949
 20
-3.62228518334997
 10
-7.108300111799941
 20
-3.623435338049968
 10
-7.101297061699952
 20
-3.624834081249983
 10
-7.094436650799956
 20
-3.626431374449975
 10
-7.087660125199924
 20
-3.628238922449976
 10
-7.081016566499947
 20
-3.630243118349977
 10
-7.074469159999949
 20
-3.632454503949968
 10
-7.067986911599945
 20
-3.63488392254997
 10
-7.061604145199922
 20
-3.637518048549976
 10
-7.055331578399943
 20
-3.640350599149979
 10
-7.049206552499931
 20
-3.643361160449968
 10
-7.043257832199941
 20
-3.646529100649968
 10
-7.037513233099943
 20
-3.649830482149961
 10
-7.032000455899954
 20
-3.653237405849976
 10
-7.026737276899943
 20
-3.656724389849966
 10
-7.021750203299951
 20
-3.660256600349978
 10
-7.01702914279992
 20
-3.663822450249977
 10
-7.012564847599954
 20
-3.667409668549976
 10
-7.008374472799928
 20
-3.670983801849982
 10
-7.004466449099957
 20
-3.674514673149968
 10
-7.000846944999949
 20
-3.677971971549976
 10
-6.997522871799951
 20
-3.681322489349977
 10
-6.994490124999948
 20
-3.684542501049986
 10
-6.991748104499947
 20
-3.687603965749968
 10
-6.989286497399959
 20
-3.690489316449966
 10
-6.987098811099926
 20
-3.693177098549977
 10
-6.985170014799955
 20
-3.695657120849968
 10
-6.983489202999933
 20
-3.697915541449968
 10
-6.982038322899946
 20
-3.699949866149975
 10
-6.98080205119993
 20
-3.701756329349973
  0
LINE
  5
1C0D
330
A
100
AcDbEntity
  8
SK1
100
AcDbLine
 10
-5.713424979299951
 20
-3.620184965549964
 30
0.0
 11
-5.317347187599949
 21
-3.619904682949962
 31
0.0
  0
LINE
  5
1C0E
330
A
100
AcDbEntity
  8
SK1
100
AcDbLine
 10
-6.097125248999958
 20
-4.110003000849968
 30
0.0
 11
-6.76177660459993
 21
-4.110003000849968
 31
0.0
  0
LINE
  5
1C0F
330
A
100
AcDbEntity
  8
SK1
100
AcDbLine
 10
-6.97997350214878
 20
-3.703016426770734
 30
0.0
 11
-6.919667898599925
 21
-3.894089742949969
 31
0.0
  0
LWPOLYLINE
  5
1C10
330
A
100
AcDbEntity
  8
SK1
100
AcDbPolyline
 90
        9
 70
     0
 43
0.0
 10
-6.919369653099934
 20
-3.895057936449971
 10
-6.91134369549993
 20
-3.919280930849975
 10
-6.900444510299927
 20
-3.948577205149984
 10
-6.888371542099932
 20
-3.976594980849978
 10
-6.874502570599943
 20
-4.003753399149968
 10
-6.857433633699947
 20
-4.031090291549968
 10
-6.83459188539993
 20
-4.059598118349978
 10
-6.805350299299945
 20
-4.086369824749962
 10
-6.772355727999944
 20
-4.107326731349968
  0
LINE
  5
1C11
330
A
100
AcDbEntity
  8
SK1
100
AcDbLine
 10
-6.98080205119993
 20
-3.701756329349973
 30
0.0
 11
-6.979949514299953
 21
-3.703052908649976
 31
0.0
  0
LINE
  5
1C12
330
A
100
AcDbEntity
  8
SK1
100
AcDbLine
 10
-7.535093888199924
 20
-3.619984626549976
 30
0.0
 11
-7.541138468499951
 21
-3.619149000949971
 31
0.0
  0
LINE
  5
1C13
330
A
100
AcDbEntity
  8
SK1
100
AcDbLine
 10
-6.76188559049995
 20
-4.110003000849968
 30
0.0
 11
-6.772163529599929
 21
-4.107425030349983
 31
0.0
  0
LINE
  5
1C14
330
A
100
AcDbEntity
  8
SK1
100
AcDbLine
 10
-5.940097619199953
 20
-3.89360671334998
 30
0.0
 11
-5.880202905999951
 21
-3.702985817449968
 31
0.0
  0
LWPOLYLINE
  5
1C15
330
A
100
AcDbEntity
  8
SK1
100
AcDbPolyline
 90
        9
 70
     0
 43
0.0
 10
-5.089834320799958
 20
-3.893776707049978
 10
-5.081960385799945
 20
-3.917683621649969
 10
-5.071265192299954
 20
-3.946662365449964
 10
-5.059475168999945
 20
-3.974315979749971
 10
-5.046027366099949
 20
-4.001032797649981
 10
-5.029644335799957
 20
-4.027821502749984
 10
-5.008483315399949
 20
-4.055154853349973
 10
-4.980583617299942
 20
-4.082031004549986
 10
-4.941828124299952
 20
-4.107359072049984
  0
LINE
  5
1C16
330
A
100
AcDbEntity
  8
SK1
100
AcDbLine
 10
-4.93149748379993
 20
-4.110003000849968
 30
0.0
 11
-4.94195377849995
 21
-4.107359391949981
 31
0.0
  0
LWPOLYLINE
  5
1C17
330
A
100
AcDbEntity
  8
SK1
100
AcDbPolyline
 90
       24
 70
     0
 43
0.0
 10
-5.222708185799959
 20
-3.641573142849989
 10
-5.216954661799945
 20
-3.64449419014998
 10
-5.211419168799928
 20
-3.647520509349986
 10
-5.206117288299957
 20
-3.650629498949964
 10
-5.201065714199948
 20
-3.653795577349963
 10
-5.196271431399935
 20
-3.656997190549968
 10
-5.191749764099931
 20
-3.66020543074998
 10
-5.18748419959995
 20
-3.663412948149966
 10
-5.18346120679994
 20
-3.66661119434998
 10
-5.179683927399956
 20
-3.669778841949975
 10
-5.176150223999947
 20
-3.672898398849963
 10
-5.172858547899949
 20
-3.675951712949964
 10
-5.169807149299941
 20
-3.678920549849973
 10
-5.166990955299944
 20
-3.681789823849966
 10
-5.164406459199952
 20
-3.684543002049988
 10
-5.162044906999945
 20
-3.687169459049965
 10
-5.159899745199943
 20
-3.689656858349974
 10
-5.157960410299949
 20
-3.691998274349981
 10
-5.156218176699951
 20
-3.694185681249988
 10
-5.154661959599927
 20
-3.696215110549968
 10
-5.153283544099956
 20
-3.69808005334998
 10
-5.15206752079996
 20
-3.699785146949975
 10
-5.150999855599934
 20
-3.701335131749981
 10
-5.150071842799924
 20
-3.702728588349981
  0
LINE
  5
1C18
330
A
100
AcDbEntity
  8
SK1
100
AcDbLine
 10
-5.15010679912126
 20
-3.702676099724099
 30
0.0
 11
-5.089726522899951
 21
-3.893982871549978
 31
0.0
  0
LWPOLYLINE
  5
1C19
330
A
100
AcDbEntity
  8
SK1
100
AcDbPolyline
 90
        4
 70
     0
 43
0.0
 10
-5.88020290591811
 20
-3.702985817189531
 10
-5.876702079399926
 20
-3.697700915149978
 10
-5.863960594699932
 20
-3.682549692849986
 10
-5.845222456299943
 20
-3.665422312349972
  0
LWPOLYLINE
  5
1C1A
330
A
100
AcDbEntity
  8
SK1
100
AcDbPolyline
 90
       14
 70
     0
 43
0.0
 10
-7.541138468499951
 20
-3.619149000949971
 10
-7.55397436449995
 20
-3.612212549949971
 10
-7.579778160899948
 20
-3.577169332549983
 10
-7.60563648669995
 20
-3.514036164249969
 10
-7.631498682199932
 20
-3.42313573434998
 10
-7.657311551999946
 20
-3.305378100949977
 10
-7.683107524699941
 20
-3.161859717849989
 10
-7.708936428099953
 20
-2.993447317749979
 10
-7.734694942199929
 20
-2.802025907149966
 10
-7.76023793629993
 20
-2.590433518649983
 10
-7.785748274599946
 20
-2.359264529849977
 10
-7.811386566899926
 20
-2.10880741144997
 10
-7.837077244399928
 20
-1.841483675549963
 10
-7.862804987399947
 20
-1.559359885049969
  0
LINE
  5
1C1B
330
A
100
AcDbEntity
  8
SK1
100
AcDbLine
 10
-7.939999999999947
 20
-3.512720684049977
 30
0.0
 11
-7.541138468499951
 21
-3.619149000949971
 31
0.0
  0
LWPOLYLINE
  5
1C1C
330
A
100
AcDbEntity
  8
SK1
100
AcDbPolyline
 90
       14
 70
     0
 43
0.0
 10
-3.11191461999995
 20
-4.10743339844998
 10
-3.125476358999947
 20
-4.096270284949977
 10
-3.14971616559994
 20
-4.054556072649984
 10
-3.17397881119993
 20
-3.985141465049975
 10
-3.198191005399927
 20
-3.888499594349977
 10
-3.222349392399955
 20
-3.765295486149977
 10
-3.246418213599945
 20
-3.616387540249986
 10
-3.270421387799927
 20
-3.442778439949973
 10
-3.294360775499932
 20
-3.24562229554996
 10
-3.318266793199946
 20
-3.026292527049986
 10
-3.342164155999952
 20
-2.786329204149976
 10
-3.366071828099933
 20
-2.527338367749973
 10
-3.390014590099951
 20
-2.251043607249965
 10
-3.413999708199924
 20
-1.95937494454999
  0
LWPOLYLINE
  5
1C1D
330
A
100
AcDbEntity
  8
SK1
100
AcDbPolyline
 90
        4
 70
     0
 43
0.0
 10
-3.994413114499927
 20
-3.651077405149973
 10
-3.963257910699944
 20
-3.635571570049973
 10
-3.925995074199953
 20
-3.624531753049961
 10
-3.883331562165025
 20
-3.620135002811108
  0
LWPOLYLINE
  5
1C1E
330
A
100
AcDbEntity
  8
SK1
100
AcDbPolyline
 90
       10
 70
     0
 43
0.0
 10
-4.256393136799943
 20
-4.107228830449966
 10
-4.229269536099927
 20
-4.090359014549986
 10
-4.201049997299946
 20
-4.065976641449974
 10
-4.178312642499946
 20
-4.039455754549988
 10
-4.160567716299944
 20
-4.012924548649988
 10
-4.145916100199926
 20
-3.985948863349973
 10
-4.133268242199932
 20
-3.958089778349969
 10
-4.121897514099948
 20
-3.928826899549986
 10
-4.111249074599932
 20
-3.897397444049969
 10
-4.050226667899949
 20
-3.703137834049966
  0
LINE
  5
1C1F
330
A
100
AcDbEntity
  8
SK1
100
AcDbLine
 10
-4.018802132399947
 20
-3.668498446049977
 30
0.0
 11
-3.994413114499927
 21
-3.651077405149973
 31
0.0
  0
LINE
  5
1C20
330
A
100
AcDbEntity
  8
SK1
100
AcDbLine
 10
-4.267065576699948
 20
-4.110003000849968
 30
0.0
 11
-4.25640209889994
 21
-4.107228807149962
 31
0.0
  0
LINE
  5
1C21
330
A
100
AcDbEntity
  8
SK1
100
AcDbLine
 10
-3.883330015899943
 20
-3.620135001749983
 30
0.0
 11
-3.487255138899939
 21
-3.619863189849976
 31
0.0
  0
LWPOLYLINE
  5
1C22
330
A
100
AcDbEntity
  8
SK1
100
AcDbPolyline
 90
        5
 70
     0
 43
0.0
 10
-3.487322701399932
 20
-3.619948616249982
 10
-3.472286968799934
 20
-3.620505722649978
 10
-3.443227197599952
 20
-3.624510155149974
 10
-3.415040664499947
 20
-3.63236066334998
 10
-3.389454844799942
 20
-3.643350990349984
  0
LINE
  5
1C23
330
A
100
AcDbEntity
  8
SK1
100
AcDbLine
 10
-1.599999999999951
 20
-4.110003000849968
 30
0.0
 11
-3.101644603299945
 21
-4.110003000849968
 31
0.0
  0
LINE
  5
1C24
330
A
100
AcDbEntity
  8
SK1
100
AcDbLine
 10
-3.101594804199947
 20
-4.110003000849968
 30
0.0
 11
-3.11191461999995
 21
-4.10743339844998
 31
0.0
  0
LINE
  5
1C25
330
A
100
AcDbEntity
  8
SK1
100
AcDbLine
 10
-3.320078629299942
 20
-3.70291282774998
 30
0.0
 11
-3.259813354999948
 21
-3.893896059849976
 31
0.0
  0
LWPOLYLINE
  5
1C26
330
A
100
AcDbEntity
  8
SK1
100
AcDbPolyline
 90
        9
 70
     0
 43
0.0
 10
-3.259190329599931
 20
-3.895946046849982
 10
-3.254922827099932
 20
-3.909029874249978
 10
-3.243853787499951
 20
-3.939958812949964
 10
-3.231724629599952
 20
-3.969224532249964
 10
-3.217984383099953
 20
-3.997246131749973
 10
-3.201351883099952
 20
-4.025110217849982
 10
-3.179996174399924
 20
-4.053316780049978
 10
-3.151831068699927
 20
-4.080970419249975
 10
-3.111725034499947
 20
-4.107432922149966
  0
LWPOLYLINE
  5
1C27
330
A
100
AcDbEntity
  8
SK1
100
AcDbPolyline
 90
        6
 70
     0
 43
0.0
 10
-3.389454844799942
 20
-3.643350990349984
 10
-3.367438954399922
 20
-3.65634434904997
 10
-3.34997405679995
 20
-3.669664968749982
 10
-3.336704620799949
 20
-3.682215221449976
 10
-3.327543684299953
 20
-3.692632156849978
 10
-3.321573854199947
 20
-3.700607178349981
  0
LINE
  5
1C28
330
A
100
AcDbEntity
  8
SK1
100
AcDbLine
 10
-3.321573854199947
 20
-3.700607178349981
 30
0.0
 11
-3.320078629299942
 21
-3.70291282774998
 31
0.0
  0
LINE
  5
1C29
330
A
100
AcDbEntity
  8
SK1
100
AcDbLine
 10
-2.27753141909995
 20
-2.923218531649976
 30
0.0
 11
-1.881900748399942
 21
-2.920268873249978
 31
0.0
  0
LWPOLYLINE
  5
1C2A
330
A
100
AcDbEntity
  8
SK1
100
AcDbPolyline
 90
       15
 70
     0
 43
0.0
 10
-1.881895303199947
 20
-2.920281396649981
 10
-1.858066227999941
 20
-2.918142205449964
 10
-1.834881446499927
 20
-2.912836172549969
 10
-1.812084887899949
 20
-2.904290187149966
 10
-1.790444764199946
 20
-2.892643392649984
 10
-1.770640351599951
 20
-2.87784364324997
 10
-1.752682386099927
 20
-2.86034420544996
 10
-1.736877579399923
 20
-2.840527355949971
 10
-1.723017281099927
 20
-2.818562572049981
 10
-1.711004513099943
 20
-2.794775876049979
 10
-1.700810969499947
 20
-2.769102335649972
 10
-1.692403601899926
 20
-2.741583795049973
 10
-1.685699659999947
 20
-2.712226869649964
 10
-1.680593656499929
 20
-2.681074327149968
 10
-1.677120753999957
 20
-2.648061702649979
  0
LWPOLYLINE
  5
1C2B
330
A
100
AcDbEntity
  8
SK1
100
AcDbPolyline
 90
        7
 70
     0
 43
0.0
 10
-1.677120753999957
 20
-2.648061702649979
 10
-1.671445601199948
 20
-2.565168755649975
 10
-1.666765601499953
 20
-2.480531839949973
 10
-1.663081258799941
 20
-2.394205432049983
 10
-1.660391061399934
 20
-2.306258061549965
 10
-1.658693497699928
 20
-2.216760056849975
 10
-1.657989071599949
 20
-2.125769840449959
  0
LWPOLYLINE
  5
1C2C
330
A
100
AcDbEntity
  8
SK1
100
AcDbPolyline
 90
        3
 70
     0
 43
0.0
 10
-1.657989071599949
 20
-2.125769840449959
 10
-1.654991888199944
 20
-2.017708895249978
 10
-1.650465567599951
 20
-1.911473146049983
  0
LWPOLYLINE
  5
1C2D
330
A
100
AcDbEntity
  8
SK1
100
AcDbPolyline
 90
        5
 70
     0
 43
0.0
 10
-2.792166003599923
 20
-1.411169868949965
 10
-2.780910041799941
 20
-1.489109705949983
 10
-2.766424616999927
 20
-1.571410913949972
 10
-2.748225856699953
 20
-1.658102683949974
 10
-2.727765378299956
 20
-1.748402270649973
  0
LWPOLYLINE
  5
1C2E
330
A
100
AcDbEntity
  8
SK1
100
AcDbPolyline
 90
        7
 70
     0
 43
0.0
 10
-2.643946673999927
 20
-2.13463752434998
 10
-2.627613828399951
 20
-2.225211475849971
 10
-2.610402359399927
 20
-2.314325265949973
 10
-2.59231408199993
 20
-2.401919238149968
 10
-2.573343551199947
 20
-2.487923017049976
 10
-2.55348532209993
 20
-2.57226783044997
 10
-2.532741209599933
 20
-2.654897525049972
  0
LWPOLYLINE
  5
1C2F
330
A
100
AcDbEntity
  8
SK1
100
AcDbPolyline
 90
        4
 70
     0
 43
0.0
 10
-2.727765378299956
 20
-1.748402270649973
 10
-2.683930246999949
 20
-1.93747441124999
 10
-2.663457015799949
 20
-2.035154358149962
 10
-2.643946673999927
 20
-2.13463752434998
  0
LWPOLYLINE
  5
1C30
330
A
100
AcDbEntity
  8
SK1
100
AcDbPolyline
 90
       13
 70
     0
 43
0.0
 10
-2.532741209599933
 20
-2.654897525049972
 10
-2.521522317399949
 20
-2.693158420249984
 10
-2.508531574699951
 20
-2.728737303649976
 10
-2.493800744099949
 20
-2.761737170249983
 10
-2.477234537699928
 20
-2.792104992049982
 10
-2.458737880899953
 20
-2.819877730749975
 10
-2.438341895999954
 20
-2.844885826949988
 10
-2.416053414499927
 20
-2.867155047849988
 10
-2.391850234299951
 20
-2.88614214004998
 10
-2.365595887999944
 20
-2.901333334149978
 10
-2.337640003699931
 20
-2.912686615949976
 10
-2.308324737399949
 20
-2.919921985249983
 10
-2.277536037199944
 20
-2.923178067349975
  0
LWPOLYLINE
  5
1C31
330
A
100
AcDbEntity
  8
SK1
100
AcDbPolyline
 90
        4
 70
     0
 43
0.0
 10
-4.050226667938709
 20
-3.703137834173371
 10
-4.047635806999927
 20
-3.699143509949973
 10
-4.036406087999942
 20
-3.685328727549969
 10
-4.018802132399947
 20
-3.668498446049977
  0
LINE
  5
1C32
330
A
100
AcDbEntity
  8
SK1
100
AcDbLine
 10
0.000008423500077
 20
-4.340999299549988
 30
0.0
 11
-1.49999192759995
 21
-4.262397644649961
 31
0.0
  0
ARC
  5
1C33
330
A
100
AcDbEntity
  8
SK1
100
AcDbCircle
 10
-1.599327078699921
 20
-4.210011975749974
 30
0.0
 40
0.1000090827
100
AcDbArc
 50
4.039132533600096
 51
90.21289997290077
  0
LINE
  5
1C34
330
A
100
AcDbEntity
  8
1
100
AcDbLine
 10
1.700000000000031
 20
-6.451633868416991
 30
0.0
 11
3.200000000000031
 21
-6.451633868416988
 31
0.0
  0
LINE
  5
1C35
330
A
100
AcDbEntity
  8
1
100
AcDbLine
 10
1.700000000000031
 20
-5.569491554704339
 30
0.0
 11
3.200000000000031
 21
-5.569491554704343
 31
0.0
  0
LINE
  5
1C36
330
A
100
AcDbEntity
  8
1
100
AcDbLine
 10
1.700000000000031
 20
-5.445440253380309
 30
0.0
 11
3.200000000000031
 21
-5.445440253380304
 31
0.0
  0
LINE
  5
1C37
330
A
100
AcDbEntity
  8
1
100
AcDbLine
 10
0.0
 20
-5.626059864777704
 30
0.0
 11
1.700000000000031
 21
-6.451633868416991
 31
0.0
  0
LINE
  5
1C38
330
A
100
AcDbEntity
  8
1
100
AcDbLine
 10
0.0
 20
-4.743917551065059
 30
0.0
 11
1.700000000000031
 21
-5.569491554704339
 31
0.0
  0
LINE
  5
1C39
330
A
100
AcDbEntity
  8
1
100
AcDbLine
 10
0.0
 20
-4.619866249741026
 30
0.0
 11
1.700000000000031
 21
-5.445440253380309
 31
0.0
  0
LINE
  5
1C3A
330
A
100
AcDbEntity
  8
SK1
100
AcDbLine
 10
-4.400537165286358
 20
3.618813794780148
 30
0.0
 11
-4.798562122999932
 21
3.619119342250017
 31
0.0
  0
LINE
  5
1C3B
330
A
100
AcDbEntity
  8
SK4
100
AcDbLine
 10
0.0000000000000426
 20
0.0000000000000089
 30
0.0
 11
-9.036977284701166
 21
0.0000000000000018
 31
0.0
  0
LINE
  5
1C3C
330
A
100
AcDbEntity
  8
SK1
100
AcDbLine
 10
-5.182686591499944
 20
4.110006996850032
 30
0.0
 11
-5.847525361099926
 21
4.110006996850032
 31
0.0
  0
LINE
  5
1C3D
330
A
100
AcDbEntity
  8
SK1
100
AcDbLine
 10
-5.847552156799949
 20
4.110006996750032
 30
0.0
 11
-5.857888971799951
 21
4.107398973650036
 31
0.0
  0
LINE
  5
1C3E
330
A
100
AcDbEntity
  8
SK1
100
AcDbLine
 10
-6.232427712299944
 20
3.62066889345003
 30
0.0
 11
-6.620062989864635
 21
3.620951139616478
 31
0.0
  0
LINE
  5
1C3F
330
A
100
AcDbEntity
  8
SK1
100
AcDbLine
 10
-6.226331930899938
 20
3.62033315665002
 30
0.0
 11
-6.232185533899944
 21
3.62031384125001
 31
0.0
  0
LINE
  5
1C40
330
A
100
AcDbEntity
  8
SK1
100
AcDbLine
 10
-5.486670879799945
 20
1.330963125450012
 30
0.0
 11
-5.534623845699947
 21
1.952795268250015
 31
0.0
  0
LWPOLYLINE
  5
1C41
330
A
100
AcDbEntity
  8
SK1
100
AcDbPolyline
 90
       14
 70
     0
 43
0.0
 10
-5.534623845699947
 20
1.952795268250015
 10
-5.558473089499948
 20
2.244773404950025
 10
-5.582283689599933
 20
2.521422435550023
 10
-5.606081775699955
 20
2.780840901850028
 10
-5.629927505999944
 20
3.021259203350028
 10
-5.653894547699927
 20
3.241028799050013
 10
-5.677968503699929
 20
3.438666603650034
 10
-5.702189098499943
 20
3.612839642250023
 10
-5.726467635599952
 20
3.762327253250021
 10
-5.750733292699926
 20
3.886090192450028
 10
-5.77497217139993
 20
3.983310066950026
 10
-5.79914558039993
 20
4.053332148450024
 10
-5.823257075999954
 20
4.095660449550025
 10
-5.847552156799949
 20
4.110006996750032
  0
LWPOLYLINE
  5
1C42
330
A
100
AcDbEntity
  8
SK1
100
AcDbPolyline
 90
        8
 70
     0
 43
0.0
 10
-6.857096285583423
 20
3.557304053431213
 10
-6.816358838399949
 20
3.217676671550023
 10
-6.792394366499948
 20
2.997225188650034
 10
-6.768283924599948
 20
2.756632755250024
 10
-6.74411219869993
 20
2.497492363850016
 10
-6.71994694919995
 20
2.221502077050034
 10
-6.695810724899956
 20
1.930557313550026
 10
-6.671750468299947
 20
1.626659250550019
  0
LWPOLYLINE
  5
1C43
330
A
100
AcDbEntity
  8
SK1
100
AcDbPolyline
 90
        9
 70
     0
 43
0.0
 10
-5.857608769399924
 20
4.107398269250028
 10
-5.894694944699935
 20
4.083118633750019
 10
-5.923059872399946
 20
4.055932575550016
 10
-5.944801447899926
 20
4.027822372750023
 10
-5.961681298099946
 20
4.00001683595002
 10
-5.97563668199993
 20
3.971933139450031
 10
-5.987956612299925
 20
3.94250840335002
 10
-5.999166406799943
 20
3.911418579350028
 10
-6.004519765799948
 20
3.894996631850021
  0
LWPOLYLINE
  5
1C44
330
A
100
AcDbEntity
  8
SK1
100
AcDbPolyline
 90
       14
 70
     0
 43
0.0
 10
-6.099033546199926
 20
3.666073552050037
 10
-6.101440655699953
 20
3.664160610950021
 10
-6.103919811599958
 20
3.662253969150015
 10
-6.106473550299945
 20
3.660354556250013
 10
-6.109103084499928
 20
3.658464396050023
 10
-6.111807797899949
 20
3.656586687750022
 10
-6.11458847329996
 20
3.654723621650021
 10
-6.117441613899941
 20
3.652880177050036
 10
-6.120364646399934
 20
3.651060445750019
 10
-6.12335471959993
 20
3.649268461250019
 10
-6.12640888049993
 20
3.647508078950012
 10
-6.12952403349994
 20
3.645782999650009
 10
-6.13269693199993
 20
3.644096768950022
 10
-6.135924313099941
 20
3.642452704850015
  0
LWPOLYLINE
  5
1C45
330
A
100
AcDbEntity
  8
SK1
100
AcDbPolyline
 90
       39
 70
     0
 43
0.0
 10
-6.061504194299942
 20
3.708472711550017
 10
-6.06153375889994
 20
3.708414890350028
 10
-6.06159380699993
 20
3.708299449050017
 10
-6.061686951199931
 20
3.708123480650016
 10
-6.061814310399931
 20
3.707887125950023
 10
-6.06197711219994
 20
3.707590424850026
 10
-6.062176594199947
 20
3.707233505450021
 10
-6.062414055099949
 20
3.706816495850021
 10
-6.062690817999943
 20
3.706339592750028
 10
-6.063008270999944
 20
3.705802994950019
 10
-6.063367827799943
 20
3.70520697545001
 10
-6.063770972199932
 20
3.704551811750023
 10
-6.064219214199951
 20
3.703837862050037
 10
-6.064714139699944
 20
3.703065490550018
 10
-6.065257361399943
 20
3.702235150450007
 10
-6.065850574599927
 20
3.701347301850021
 10
-6.066494991299933
 20
3.700403242150017
 10
-6.06719395419995
 20
3.69940132015003
 10
-6.067949607899926
 20
3.698341877850028
 10
-6.068767360999963
 20
3.697220899250028
 10
-6.069653238799951
 20
3.696034012250009
 10
-6.070608521799961
 20
3.694783613150023
 10
-6.07163599929995
 20
3.693470235150031
 10
-6.072737526899928
 20
3.69209578715001
 10
-6.073915408999944
 20
3.690661746450019
 10
-6.075171207699924
 20
3.689170620450015
 10
-6.07650681169995
 20
3.687624612450023
 10
-6.077923481199931
 20
3.686026732750023
 10
-6.079422788999927
 20
3.684379686150024
 10
-6.081005485499943
 20
3.682687115950033
 10
-6.082672665099948
 20
3.68095229005003
 10
-6.084424492699945
 20
3.679179424650017
 10
-6.08626147619995
 20
3.677372322350024
 10
-6.088183120499934
 20
3.675535694150029
 10
-6.090189253599923
 20
3.673673814650017
 10
-6.092278672799928
 20
3.671791775450018
 10
-6.094450461099945
 20
3.669894222550028
 10
-6.096702682799914
 20
3.667986492850034
 10
-6.099033546199926
 20
3.666073552050037
  0
LINE
  5
1C46
330
A
100
AcDbEntity
  8
SK1
100
AcDbLine
 10
-6.061565712499948
 20
3.708347649450033
 30
0.0
 11
-6.061549330299946
 21
3.708381208750013
 31
0.0
  0
LINE
  5
1C47
330
A
100
AcDbEntity
  8
SK1
100
AcDbLine
 10
-6.004776799199952
 20
3.894256189150028
 30
0.0
 11
-6.065446026099948
 21
3.701952780350026
 31
0.0
  0
LINE
  5
1C48
330
A
100
AcDbEntity
  8
SK1
100
AcDbLine
 10
-7.32432285429995
 20
1.467256078050014
 30
0.0
 11
-7.368708321599946
 21
2.041676852450025
 31
0.0
  0
LWPOLYLINE
  5
1C49
330
A
100
AcDbEntity
  8
SK1
100
AcDbPolyline
 90
        6
 70
     0
 43
0.0
 10
-7.368708321599946
 20
2.041676852450025
 10
-7.390864230999952
 20
2.311410324750013
 10
-7.413043918399949
 20
2.567286420950026
 10
-7.435344669399945
 20
2.807778786350014
 10
-7.457886383099946
 20
3.031447519050018
 10
-7.497063635229011
 20
3.385462975429356
  0
LWPOLYLINE
  5
1C4A
330
A
100
AcDbEntity
  8
SK1
100
AcDbPolyline
 90
       27
 70
     0
 43
0.0
 10
-6.135924313099941
 20
3.642452704850015
 10
-6.139202725199943
 20
3.640853988850011
 10
-6.142528809699932
 20
3.639303526350019
 10
-6.14589899449993
 20
3.637804099250018
 10
-6.149309888099935
 20
3.63635818875001
 10
-6.152758010099944
 20
3.63496810705003
 10
-6.156239578199944
 20
3.633636074250021
 10
-6.159745503199957
 20
3.632365956550017
 10
-6.163287805599942
 20
3.631153965350023
 10
-6.166871102899932
 20
3.629999578950021
 10
-6.170509497999944
 20
3.628899018150023
 10
-6.174224985599941
 20
3.627846978250019
 10
-6.177999618399951
 20
3.626850028950017
 10
-6.181826109299954
 20
3.625910897150022
 10
-6.18569325949992
 20
3.625032674450026
 10
-6.189601962899949
 20
3.624215289150015
 10
-6.193507526299939
 20
3.623467145350034
 10
-6.197421670799947
 20
3.622784318450031
 10
-6.201173646399936
 20
3.622192590650016
 10
-6.204558318499955
 20
3.621717761850023
 10
-6.207684259699945
 20
3.621335621550017
 10
-6.210537457099931
 20
3.621039291850024
 10
-6.213285127699926
 20
3.620805670450011
 10
-6.216010020899943
 20
3.620627820350023
 10
-6.218956265299944
 20
3.620491528650036
 10
-6.222411439299953
 20
3.620390708250013
 10
-6.226331930899938
 20
3.62033315665002
  0
LWPOLYLINE
  5
1C4B
330
A
100
AcDbEntity
  8
SK1
100
AcDbPolyline
 90
       10
 70
     0
 43
0.0
 10
-4.798562122999932
 20
3.619119342250017
 10
-4.800103456999927
 20
3.619223380050031
 10
-4.800736602499931
 20
3.619241924350023
 10
-4.801237849899955
 20
3.619263066450018
 10
-4.801670434999948
 20
3.619286836150024
 10
-4.80210822339994
 20
3.619316589550025
 10
-4.802580796099924
 20
3.619354063550034
 10
-4.80328480719995
 20
3.619417706250019
 10
-4.804342161499953
 20
3.619525040950023
 10
-4.806007024199949
 20
3.619707935350036
  0
LINE
  5
1C4C
330
A
100
AcDbEntity
  8
SK1
100
AcDbLine
 10
-4.806007024199949
 20
3.619707935350036
 30
0.0
 11
-4.814786748299958
 21
3.620727658850016
 31
0.0
  0
LWPOLYLINE
  5
1C4D
330
A
100
AcDbEntity
  8
SK1
100
AcDbPolyline
 90
       29
 70
     0
 43
0.0
 10
-4.814786748299958
 20
3.620727658850016
 10
-4.824140226499928
 20
3.621780232150017
 10
-4.826939829099949
 20
3.622112519750019
 10
-4.829454752099927
 20
3.622431041150023
 10
-4.831656280399947
 20
3.622731450450018
 10
-4.833710952299945
 20
3.623034932850033
 10
-4.835777494699939
 20
3.623365556950035
 10
-4.837845132899929
 20
3.623721804150023
 10
-4.839955465199928
 20
3.624111376850024
 10
-4.842108683699926
 20
3.624535625150033
 10
-4.844319624899931
 20
3.624999079950016
 10
-4.846585159399943
 20
3.625502932550021
 10
-4.848906518299948
 20
3.626049289950019
 10
-4.851284960099938
 20
3.62664035215002
 10
-4.853721520199925
 20
3.627278349750015
 10
-4.856217504199946
 20
3.627965671150037
 10
-4.858773556399931
 20
3.628704608450023
 10
-4.861391971099926
 20
3.629498031650015
 10
-4.864081531099927
 20
3.630351077850036
 10
-4.866822451299938
 20
3.631259758450029
 10
-4.869600378699921
 20
3.632221247550022
 10
-4.872408532499946
 20
3.63323529515003
 10
-4.875234885799947
 20
3.634299389050015
 10
-4.878081282899948
 20
3.63541592365003
 10
-4.880946311199927
 20
3.636586162950011
 10
-4.883827306399943
 20
3.637810853450019
 10
-4.886722114299942
 20
3.639090916750023
 10
-4.889627447199941
 20
3.640426724850017
 10
-4.892540443599926
 20
3.641818759550035
  0
LINE
  5
1C4E
330
A
100
AcDbEntity
  8
SK1
100
AcDbLine
 10
-5.182662699999951
 20
4.110006996850032
 30
0.0
 11
-5.172148405699942
 21
4.107263322550026
 31
0.0
  0
LWPOLYLINE
  5
1C4F
330
A
100
AcDbEntity
  8
SK1
100
AcDbPolyline
 90
       34
 70
     0
 43
0.0
 10
-4.892540443599926
 20
3.641818759550035
 10
-4.895457407399945
 20
3.643267012550027
 10
-4.898375027699927
 20
3.644771545650016
 10
-4.901289103999943
 20
3.646331829350033
 10
-4.904195953599945
 20
3.647947445750021
 10
-4.907090639299951
 20
3.649617094250019
 10
-4.909968827399929
 20
3.651339580950023
 10
-4.912825142399945
 20
3.653112832050028
 10
-4.915654796399934
 20
3.654934829450028
 10
-4.918452019099945
 20
3.656802593250021
 10
-4.921209595399929
 20
3.658711715550013
 10
-4.923927644399945
 20
3.66066256085003
 10
-4.926603468699944
 20
3.662653462650028
 10
-4.929238187699922
 20
3.664685198450031
 10
-4.931834997299944
 20
3.666760299850026
 10
-4.934384472999944
 20
3.668871182650023
 10
-4.936880868999942
 20
3.671012517950019
 10
-4.939317440999943
 20
3.673177507550023
 10
-4.94168818759995
 20
3.675359315150033
 10
-4.943986609999946
 20
3.677549933050017
 10
-4.94620715449993
 20
3.679741495150026
 10
-4.948342789099946
 20
3.681923862650024
 10
-4.950387277599951
 20
3.684086752950008
 10
-4.952335020199924
 20
3.686219646550015
 10
-4.954180346399944
 20
3.688311007250023
 10
-4.955919720899942
 20
3.690350823850011
 10
-4.957549250399949
 20
3.692327893750019
 10
-4.959066562099948
 20
3.694232085550013
 10
-4.960468562599942
 20
3.696051646050023
 10
-4.961755516199922
 20
3.697778553150016
 10
-4.962925036099925
 20
3.699400747150008
 10
-4.963983275599943
 20
3.700917685950033
 10
-4.964935882399949
 20
3.702328462950006
 10
-4.965113153199929
 20
3.702599619950021
  0
LWPOLYLINE
  5
1C50
330
A
100
AcDbEntity
  8
SK1
100
AcDbPolyline
 90
       13
 70
     0
 43
0.0
 10
-5.172148405699942
 20
4.107263322550026
 10
-5.158606880599933
 20
4.09565188525002
 10
-5.13484042159996
 20
4.053315798250026
 10
-5.111032880099941
 20
3.983287472250013
 10
-5.08714440759995
 20
3.886066123150016
 10
-5.063082631299934
 20
3.762303074950026
 10
-5.038679454299952
 20
3.612808004750023
 10
-5.014122200299944
 20
3.438622521850023
 10
-4.98944174259995
 20
3.240967577950017
 10
-4.964939336299934
 20
3.021183634950021
 10
-4.94104269549993
 20
2.780770817650023
 10
-4.917403317499946
 20
2.521363554950029
 10
-4.893863053899934
 20
2.244714656550017
  0
LWPOLYLINE
  5
1C51
330
A
100
AcDbEntity
  8
SK1
100
AcDbPolyline
 90
        9
 70
     0
 43
0.0
 10
-5.026538737799945
 20
3.897724696750018
 10
-5.036748650599953
 20
3.92790372025003
 10
-5.047496088899933
 20
3.955761737250015
 10
-5.059361631199926
 20
3.982292221450023
 10
-5.073107383199946
 20
4.008245888650024
 10
-5.089847305799956
 20
4.034256787050027
 10
-5.111150376499942
 20
4.060463578250023
 10
-5.138561944999949
 20
4.085685248550021
 10
-5.171333650199926
 20
4.106838005550017
  0
LINE
  5
1C52
330
A
100
AcDbEntity
  8
SK1
100
AcDbLine
 10
-4.965113153199929
 20
3.702599619950021
 30
0.0
 11
-5.026538737799945
 21
3.897724696750018
 31
0.0
  0
LINE
  5
1C53
330
A
100
AcDbEntity
  8
SK1
100
AcDbLine
 10
-4.893863053899934
 20
2.244714656550017
 30
0.0
 11
-4.846426923799931
 21
1.647442456450023
 31
0.0
  0
LWPOLYLINE
  5
1C54
330
A
100
AcDbEntity
  8
SK1
100
AcDbPolyline
 90
        3
 70
     0
 43
0.0
 10
-6.620062989864635
 20
3.620951139616478
 10
-7.791686479899944
 20
3.306352209450026
 10
-7.939999999999947
 20
3.266677177750026
  0
LINE
  5
1C55
330
A
100
AcDbEntity
  8
SK1
100
AcDbLine
 10
-5.293127213999945
 20
-1.338087848849963
 30
0.0
 11
-5.341471934599951
 21
-0.6802731983499779
 31
0.0
  0
LWPOLYLINE
  5
1C56
330
A
100
AcDbEntity
  8
SK1
100
AcDbPolyline
 90
        3
 70
     0
 43
0.0
 10
-6.623857747099947
 20
0.9881142080500231
 10
-6.55252503289995
 20
-0.0139197002499838
 10
-6.481245879599953
 20
-1.015101576349974
  0
LINE
  5
1C57
330
A
100
AcDbEntity
  8
SK1
100
AcDbLine
 10
-7.16716384219994
 20
-0.7228914378499792
 30
0.0
 11
-7.257220887899933
 21
0.544309187950022
 31
0.0
  0
LINE
  5
1C58
330
A
100
AcDbEntity
  8
SK1
100
AcDbLine
 10
-7.122303314999946
 20
-1.338089517349968
 30
0.0
 11
-7.16716384219994
 21
-0.7228914378499792
 31
0.0
  0
LWPOLYLINE
  5
1C59
330
A
100
AcDbEntity
  8
SK1
100
AcDbPolyline
 90
        3
 70
     0
 43
0.0
 10
-4.798138937699924
 20
1.005192789250018
 10
-4.724934207299945
 20
-0.003891920749977
 10
-4.652364136699951
 20
-1.012708642949971
  0
LINE
  5
1C5A
330
A
100
AcDbEntity
  8
SK1
100
AcDbLine
 10
-5.341471934599951
 20
-0.6802731983499779
 30
0.0
 11
-5.486670879799945
 21
1.330963125450012
 31
0.0
  0
LINE
  5
1C5B
330
A
100
AcDbEntity
  8
SK1
100
AcDbLine
 10
-7.257220887899933
 20
0.544309187950022
 30
0.0
 11
-7.32432285429995
 21
1.467256078050014
 31
0.0
  0
LINE
  5
1C5C
330
A
100
AcDbEntity
  8
SK1
100
AcDbLine
 10
-6.671750468299947
 20
1.626659250550019
 30
0.0
 11
-6.623857747099947
 21
0.9881142080500231
 31
0.0
  0
LINE
  5
1C5D
330
A
100
AcDbEntity
  8
SK1
100
AcDbLine
 10
-4.846426923799931
 20
1.647442456450023
 30
0.0
 11
-4.798138937699924
 21
1.005192789250018
 31
0.0
  0
LINE
  5
1C5E
330
A
100
AcDbEntity
  8
SK1
100
AcDbLine
 10
-4.015781219599929
 20
4.110006996750032
 30
0.0
 11
-4.026288039999947
 21
4.107391030250028
 31
0.0
  0
LINE
  5
1C5F
330
A
100
AcDbEntity
  8
SK1
100
AcDbLine
 10
-2.18777668609993
 20
4.110006996750032
 30
0.0
 11
-2.198169521399933
 21
4.107339490750023
 31
0.0
  0
LINE
  5
1C60
330
A
100
AcDbEntity
  8
SK1
100
AcDbLine
 10
-3.350898625399928
 20
4.110006996850032
 30
0.0
 11
-4.015765062999932
 21
4.110006996850032
 31
0.0
  0
LINE
  5
1C61
330
A
100
AcDbEntity
  8
SK1
100
AcDbLine
 10
-1.599999999999951
 20
4.110006996850032
 30
0.0
 11
-2.187757216099946
 21
4.110006996850032
 31
0.0
  0
LINE
  5
1C62
330
A
100
AcDbEntity
  8
SK1
100
AcDbLine
 10
-2.968309806299942
 20
3.62063476205003
 30
0.0
 11
-2.969188366299931
 21
3.620566056250013
 31
0.0
  0
LWPOLYLINE
  5
1C63
330
A
100
AcDbEntity
  8
SK1
100
AcDbPolyline
 90
        5
 70
     0
 43
0.0
 10
-2.969188366299931
 20
3.620566056250013
 10
-2.993826748099934
 20
3.622106390950023
 10
-3.023213205199944
 20
3.627706532950015
 10
-3.057066087899947
 20
3.639680445050019
 10
-3.088382001299933
 20
3.657245889150019
  0
LINE
  5
1C64
330
A
100
AcDbEntity
  8
SK1
100
AcDbLine
 10
-2.572225668899946
 20
3.620363508250023
 30
0.0
 11
-2.968309806299942
 21
3.62063476205003
 31
0.0
  0
LINE
  5
1C65
330
A
100
AcDbEntity
  8
SK1
100
AcDbLine
 10
-3.350880484299949
 20
4.110006996850032
 30
0.0
 11
-3.339826566699947
 21
4.107098499850026
 31
0.0
  0
LWPOLYLINE
  5
1C66
330
A
100
AcDbEntity
  8
SK1
100
AcDbPolyline
 90
       14
 70
     0
 43
0.0
 10
-3.339826566699947
 20
4.107098499850026
 10
-3.326343322199932
 20
4.095648844950019
 10
-3.30218429999995
 20
4.053308882050033
 10
-3.27810685159995
 20
3.983276345950033
 10
-3.254117741499946
 20
3.886048730850022
 10
-3.230200611899924
 20
3.762281089450028
 10
-3.206356211799942
 20
3.612791939650008
 10
-3.182539984399923
 20
3.438618776050021
 10
-3.158721796099946
 20
3.240977866550025
 10
-3.134859126799952
 20
3.02120478255003
 10
-3.110899226799951
 20
2.780788850750014
 10
-3.086842652499946
 20
2.521368380650018
 10
-3.06264081249995
 20
2.244696611950034
 10
-3.038388400199927
 20
1.952689542150011
  0
LWPOLYLINE
  5
1C67
330
A
100
AcDbEntity
  8
SK1
100
AcDbPolyline
 90
        3
 70
     0
 43
0.0
 10
-3.088382001299933
 20
3.657245889150019
 10
-3.112089182699925
 20
3.676305497350015
 10
-3.128375428199944
 20
3.69397567805001
  0
LINE
  5
1C68
330
A
100
AcDbEntity
  8
SK1
100
AcDbLine
 10
-3.128375428199944
 20
3.69397567805001
 30
0.0
 11
-3.134691842899947
 21
3.702603367550026
 31
0.0
  0
LINE
  5
1C69
330
A
100
AcDbEntity
  8
SK1
100
AcDbLine
 10
-3.134691842899947
 20
3.702603367550026
 30
0.0
 11
-3.196730436699951
 21
3.899482649750012
 31
0.0
  0
LWPOLYLINE
  5
1C6A
330
A
100
AcDbEntity
  8
SK1
100
AcDbPolyline
 90
        9
 70
     0
 43
0.0
 10
-3.196730436699951
 20
3.899482649750012
 10
-3.20675414749995
 20
3.929025165650019
 10
-3.217367688399953
 20
3.956536670550023
 10
-3.229058121199948
 20
3.982778664850016
 10
-3.24226939759994
 20
4.007960139350032
 10
-3.258332208399949
 20
4.033251537650031
 10
-3.279150617199931
 20
4.059277083950021
 10
-3.306425142199941
 20
4.084936245550013
 10
-3.340069895299947
 20
4.107097845950024
  0
LINE
  5
1C6B
330
A
100
AcDbEntity
  8
SK1
100
AcDbLine
 10
-1.826319812099946
 20
1.338116403650034
 30
0.0
 11
-1.874242525899944
 21
1.959042132750029
 31
0.0
  0
LWPOLYLINE
  5
1C6C
330
A
100
AcDbEntity
  8
SK1
100
AcDbPolyline
 90
       14
 70
     0
 43
0.0
 10
-1.874242525899944
 20
1.959042132750029
 10
-1.898136214699931
 20
2.250509115650018
 10
-1.922053633199929
 20
2.526627001250005
 10
-1.946061874199948
 20
2.785509468750008
 10
-1.970166185399932
 20
3.025390133650034
 10
-1.994420420399933
 20
3.24462761045001
 10
-2.018745853999945
 20
3.441739929550025
 10
-2.043096041799941
 20
3.615396538950023
 10
-2.067427995699944
 20
3.76438476205003
 10
-2.091684527899928
 20
3.887671356550017
 10
-2.115861792699924
 20
3.984443191850035
 10
-2.139931061999931
 20
4.054050160950028
 10
-2.163909795499932
 20
4.096000229850018
 10
-2.18777668609993
 20
4.110006996750032
  0
LINE
  5
1C6D
330
A
100
AcDbEntity
  8
SK1
100
AcDbLine
 10
-4.174656847699942
 20
3.894538570350036
 30
0.0
 11
-4.235312881099929
 21
3.702268634350019
 31
0.0
  0
LWPOLYLINE
  5
1C6E
330
A
100
AcDbEntity
  8
SK1
100
AcDbPolyline
 90
        5
 70
     0
 43
0.0
 10
-2.457971007399954
 20
3.652986255450016
 10
-2.485555879199949
 20
3.638370216450013
 10
-2.518620848899942
 20
3.627024536250019
 10
-2.552939544799947
 20
3.621155615650026
 10
-2.572225668899946
 20
3.620363508250023
  0
LINE
  5
1C6F
330
A
100
AcDbEntity
  8
SK1
100
AcDbLine
 10
-2.344713884599947
 20
3.894479344050028
 30
0.0
 11
-2.405095762699922
 21
3.703075052150012
 31
0.0
  0
LINE
  5
1C70
330
A
100
AcDbEntity
  8
SK1
100
AcDbLine
 10
-3.038388400199927
 20
1.952689542150011
 30
0.0
 11
-2.989967347699924
 21
1.330820850750016
 31
0.0
  0
LWPOLYLINE
  5
1C71
330
A
100
AcDbEntity
  8
SK1
100
AcDbPolyline
 90
        4
 70
     0
 43
0.0
 10
-4.303263769399926
 20
3.643775434850013
 10
-4.338337003299947
 20
3.629379130150028
 10
-4.375804563299958
 20
3.621554646250019
 10
-4.400849182299928
 20
3.618779217250023
  0
LWPOLYLINE
  5
1C72
330
A
100
AcDbEntity
  8
SK1
100
AcDbPolyline
 90
        9
 70
     0
 43
0.0
 10
-2.198054673099946
 20
4.107339200450015
 10
-2.231718385999961
 20
4.085688309550038
 10
-2.260978107699926
 20
4.058470982450019
 10
-2.283695234399928
 20
4.029658644250018
 10
-2.30066875369993
 20
4.002055039250024
 10
-2.314476999299955
 20
3.974617683750011
 10
-2.326547609899954
 20
3.946204082650027
 10
-2.337474910599944
 20
3.916415679150021
 10
-2.344953339999946
 20
3.893608100550013
  0
LINE
  5
1C73
330
A
100
AcDbEntity
  8
SK1
100
AcDbLine
 10
-2.43603329929995
 20
3.669003747750026
 30
0.0
 11
-2.457971007399954
 21
3.652986255450016
 31
0.0
  0
LWPOLYLINE
  5
1C74
330
A
100
AcDbEntity
  8
SK1
100
AcDbPolyline
 90
       15
 70
     0
 43
0.0
 10
-3.67742511119993
 20
1.647468604550028
 10
-3.701551361199932
 20
1.952757201050035
 10
-3.725996932099931
 20
2.244735135550016
 10
-3.750592311199945
 20
2.521391202150014
 10
-3.775338173399951
 20
2.780838823150021
 10
-3.799861162599952
 20
3.021277711050033
 10
-3.823628093799939
 20
3.241035562650027
 10
-3.847119128499954
 20
3.438654645550017
 10
-3.870586484299948
 20
3.612812845750013
 10
-3.894180807299946
 20
3.762292141250015
 10
-3.918215445199926
 20
3.886056379750017
 10
-3.942454510399947
 20
3.983283076050028
 10
-3.966777550399946
 20
4.053315305850022
 10
-3.991151606699951
 20
4.09565314945003
 10
-4.015781219599929
 20
4.110006996750032
  0
LWPOLYLINE
  5
1C75
330
A
100
AcDbEntity
  8
SK1
100
AcDbPolyline
 90
        2
 70
     0
 43
0.0
 10
-4.232027649899954
 20
3.707515718550028
 10
-4.232032461099926
 20
3.707573573050013
  0
LWPOLYLINE
  5
1C76
330
A
100
AcDbEntity
  8
SK1
100
AcDbPolyline
 90
        9
 70
     0
 43
0.0
 10
-4.026958717799928
 20
4.106981952350026
 10
-4.064275521099929
 20
4.082757850650013
 10
-4.093437566699947
 20
4.054817406650018
 10
-4.116033020499941
 20
4.025323210750016
 10
-4.13350486969994
 20
3.996045490750022
 10
-4.147889586899943
 20
3.966417466850033
 10
-4.16037957099995
 20
3.935770697550028
 10
-4.171716365199927
 20
3.903427056850021
 10
-4.174017713499949
 20
3.896297133450019
  0
LWPOLYLINE
  5
1C77
330
A
100
AcDbEntity
  8
SK1
100
AcDbPolyline
 90
        3
 70
     0
 43
0.0
 10
-4.25412444449995
 20
3.679431421050028
 10
-4.273637280999956
 20
3.662395279750016
 10
-4.303263769399926
 20
3.643775434850013
  0
LWPOLYLINE
  5
1C78
330
A
100
AcDbEntity
  8
SK1
100
AcDbPolyline
 90
        3
 70
     0
 43
0.0
 10
-4.235312881149098
 20
3.702268634194198
 10
-4.241580763599927
 20
3.693548790350036
 10
-4.25412444449995
 20
3.679431421050028
  0
LWPOLYLINE
  5
1C79
330
A
100
AcDbEntity
  8
SK1
100
AcDbPolyline
 90
        4
 70
     0
 43
0.0
 10
-2.405095762756467
 20
3.703075051970776
 10
-2.410266375299919
 20
3.695737433050013
 10
-2.420550475599945
 20
3.683651845150023
 10
-2.43603329929995
 20
3.669003747750026
  0
LINE
  5
1C7A
330
A
100
AcDbEntity
  8
SK1
100
AcDbLine
 10
-2.941837158099943
 20
0.6725682348500204
 30
0.0
 11
-2.846113265399928
 21
-0.6803647129499649
 31
0.0
  0
LINE
  5
1C7B
330
A
100
AcDbEntity
  8
SK1
100
AcDbLine
 10
-3.510294115099959
 20
-0.6802650988499704
 30
0.0
 11
-3.629662655499942
 21
1.005236896350013
 31
0.0
  0
LINE
  5
1C7C
330
A
100
AcDbEntity
  8
SK1
100
AcDbLine
 10
-3.462148562499947
 20
-1.338087848849963
 30
0.0
 11
-3.510294115099959
 21
-0.6802650988499704
 31
0.0
  0
LWPOLYLINE
  5
1C7D
330
A
100
AcDbEntity
  8
SK1
100
AcDbPolyline
 90
        3
 70
     0
 43
0.0
 10
-1.633727949199951
 20
-1.329086631849972
 10
-1.729730589299954
 20
0.0048112435500247
 10
-1.826319812099946
 20
1.338116403650034
  0
LINE
  5
1C7E
330
A
100
AcDbEntity
  8
SK1
100
AcDbLine
 10
-2.989967347699924
 20
1.330820850750016
 30
0.0
 11
-2.941837158099943
 21
0.6725682348500204
 31
0.0
  0
LINE
  5
1C7F
330
A
100
AcDbEntity
  8
SK1
100
AcDbLine
 10
-3.629662655499942
 20
1.005236896350013
 30
0.0
 11
-3.67742511119993
 21
1.647468604550028
 31
0.0
  0
LINE
  5
1C80
330
A
100
AcDbEntity
  8
SK1
100
AcDbLine
 10
-0.00000782449996
 20
4.341003678150016
 30
0.0
 11
-1.500007669899957
 21
4.262392400550013
 31
0.0
  0
ARC
  5
1C81
330
A
100
AcDbEntity
  8
SK1
100
AcDbCircle
 10
-1.599254209699935
 20
4.210017066750028
 30
0.0
 40
0.1000102025
100
AcDbArc
 50
269.7640915652003
 51
355.5312699432001
  0
LINE
  5
1C82
330
A
100
AcDbEntity
  8
1
100
AcDbLine
 10
1.700000000000031
 20
10.85000000000001
 30
0.0
 11
0.0000000000000284
 21
9.150000000000021
 31
0.0
  0
LINE
  5
1C83
330
A
100
AcDbEntity
  8
1
100
AcDbLine
 10
4.900000000000048
 20
-7.530400257020438
 30
0.0
 11
4.900000000000048
 21
9.149999999999998
 31
0.0
  0
TEXT
  5
1C84
330
A
100
AcDbEntity
  8
6
100
AcDbText
 10
21.63964026363207
 20
-4.025001120989964
 30
0.0
 40
3.5
  1
Z=4
 50
90.0
 72
     4
 11
19.88964026363207
 21
-0.000001120989964
 31
0.0
100
AcDbText
  0
VIEWPORT
  5
B5C
330
B
100
AcDbEntity
 67
     1
  8
0
 62
     0
100
AcDbViewport
 10
0.0
 20
0.0
 30
0.0
 40
1000.0
 41
1000.0
 68
     1
 69
     1
1001
ACAD
1000
MVIEW
1002
{
1070
    16
1010
0.0
1020
0.0
1030
0.0
1010
0.0
1020
0.0
1030
1.0
1040
0.0
1040
1000.0
1040
0.0
1040
0.0
1040
50.0
1040
0.0
1040
0.0
1070
     0
1070
   100
1070
     1
1070
     1
1070
     0
1070
     0
1070
     0
1070
     0
1040
0.0
1040
0.0
1040
0.0
1040
1.0
1040
1.0
1040
1.0
1040
1.0
1070
     0
1002
{
1002
}
1002
}
  0
ENDSEC
  0
SECTION
  2
OBJECTS
  0
DICTIONARY
  5
19
330
0
100
AcDbDictionary
  3
ACAD_GROUP
350
1A
  3
ACAD_LAYOUT
350
1186
  3
ACAD_MLINESTYLE
350
1B
  3
ACAD_PLOTSETTINGS
350
1187
  3
ACAD_PLOTSTYLENAME
350
1184
  3
ACDBHEADERROUNDTRIPXREC
350
1CFB
  0
DICTIONARY
  5
1256
330
A
100
AcDbDictionary
280
     1
  3
ACAD_LAYOUTSELFREF
360
1D1B
  0
DICTIONARY
  5
1258
330
B
100
AcDbDictionary
280
     1
  3
ACAD_LAYOUTSELFREF
360
1D1C
  0
DICTIONARY
  5
1A
102
{ACAD_REACTORS
330
19
102
}
330
19
100
AcDbDictionary
  0
DICTIONARY
  5
1186
102
{ACAD_REACTORS
330
19
102
}
330
19
100
AcDbDictionary
  0
DICTIONARY
  5
1B
102
{ACAD_REACTORS
330
19
102
}
330
19
100
AcDbDictionary
  3
STANDARD
350
1C
  0
DICTIONARY
  5
1187
102
{ACAD_REACTORS
330
19
102
}
330
19
100
AcDbDictionary
  0
ACDBDICTIONARYWDFLT
  5
1184
102
{ACAD_REACTORS
330
19
102
}
330
19
100
AcDbDictionary
281
     1
  3
Normal
350
1185
100
AcDbDictionaryWithDefault
340
1185
  0
DICTIONARY
  5
1CFB
102
{ACAD_REACTORS
330
19
102
}
330
19
100
AcDbDictionary
  3
CEPSNTYPE
350
1D05
  3
FINGERPRINTGUID
350
1D06
  3
HYPERLINKBASE
350
1CFE
  3
INSUNITS
350
1D04
  3
LAYOUTDICT
350
1D00
  3
LWETCUNION
350
1D03
  3
PLOTSETDICT
350
1D01
  3
PLOTSTYLNAMDICT
350
1D02
  3
PSVPSCALE
350
1D08
  3
PUCSBASE
350
1D0B
  3
PUCSORGBACK
350
1D11
  3
PUCSORGBOTTOM
350
1D0D
  3
PUCSORGFRONT
350
1D10
  3
PUCSORGLEFT
350
1D0E
  3
PUCSORGRIGHT
350
1D0F
  3
PUCSORGTOP
350
1D0C
  3
PUCSORTHOREF
350
1D09
  3
PUCSORTHOVIEW
350
1D0A
  3
STYLESHEET
350
1CFF
  3
TSTACKALIGN
350
1CFC
  3
TSTACKSIZE
350
1CFD
  3
UCSBASE
350
1D14
  3
UCSORGBACK
350
1D1A
  3
UCSORGBOTTOM
350
1D16
  3
UCSORGFRONT
350
1D19
  3
UCSORGLEFT
350
1D17
  3
UCSORGRIGHT
350
1D18
  3
UCSORGTOP
350
1D15
  3
UCSORTHOREF
350
1D12
  3
UCSORTHOVIEW
350
1D13
  3
VERSIONGUID
350
1D07
  0
XRECORD
  5
1D1B
102
{ACAD_REACTORS
330
1256
102
}
330
1256
100
AcDbXrecord
340
A
  0
XRECORD
  5
1D1C
102
{ACAD_REACTORS
330
1258
102
}
330
1258
100
AcDbXrecord
340
B
  0
MLINESTYLE
  5
1C
102
{ACAD_REACTORS
330
1B
102
}
330
1B
100
AcDbMlineStyle
  2
STANDARD
 70
     0
  3

 62
     0
 51
90.0
 52
90.0
 71
     2
 49
0.5
 62
   256
  6
BYLAYER
 49
-0.5
 62
   256
  6
BYLAYER
  0
ACDBPLACEHOLDER
  5
1185
102
{ACAD_REACTORS
330
1184
102
}
330
1184
100
AcDbPlaceHolder
280
     0
  0
XRECORD
  5
1D05
102
{ACAD_REACTORS
330
1CFB
102
}
330
1CFB
100
AcDbXrecord
 90
        0
  0
XRECORD
  5
1D06
102
{ACAD_REACTORS
330
1CFB
102
}
330
1CFB
100
AcDbXrecord
  1
{B27BBB66-F627-47B2-9D4E-55AD3026DC60}
  0
XRECORD
  5
1CFE
102
{ACAD_REACTORS
330
1CFB
102
}
330
1CFB
100
AcDbXrecord
  1

  0
XRECORD
  5
1D04
102
{ACAD_REACTORS
330
1CFB
102
}
330
1CFB
100
AcDbXrecord
 90
        0
  0
XRECORD
  5
1D00
102
{ACAD_REACTORS
330
1CFB
102
}
330
1CFB
100
AcDbXrecord
340
1186
  0
XRECORD
  5
1D03
102
{ACAD_REACTORS
330
1CFB
102
}
330
1CFB
100
AcDbXrecord
 90
    10781
  0
XRECORD
  5
1D01
102
{ACAD_REACTORS
330
1CFB
102
}
330
1CFB
100
AcDbXrecord
340
1187
  0
XRECORD
  5
1D02
102
{ACAD_REACTORS
330
1CFB
102
}
330
1CFB
100
AcDbXrecord
340
1184
  0
XRECORD
  5
1D08
102
{ACAD_REACTORS
330
1CFB
102
}
330
1CFB
100
AcDbXrecord
 40
0.0
  0
XRECORD
  5
1D0B
102
{ACAD_REACTORS
330
1CFB
102
}
330
1CFB
100
AcDbXrecord
340
0
  0
XRECORD
  5
1D11
102
{ACAD_REACTORS
330
1CFB
102
}
330
1CFB
100
AcDbXrecord
 10
0.0
 20
0.0
 30
0.0
  0
XRECORD
  5
1D0D
102
{ACAD_REACTORS
330
1CFB
102
}
330
1CFB
100
AcDbXrecord
 10
0.0
 20
0.0
 30
0.0
  0
XRECORD
  5
1D10
102
{ACAD_REACTORS
330
1CFB
102
}
330
1CFB
100
AcDbXrecord
 10
0.0
 20
0.0
 30
0.0
  0
XRECORD
  5
1D0E
102
{ACAD_REACTORS
330
1CFB
102
}
330
1CFB
100
AcDbXrecord
 10
0.0
 20
0.0
 30
0.0
  0
XRECORD
  5
1D0F
102
{ACAD_REACTORS
330
1CFB
102
}
330
1CFB
100
AcDbXrecord
 10
0.0
 20
0.0
 30
0.0
  0
XRECORD
  5
1D0C
102
{ACAD_REACTORS
330
1CFB
102
}
330
1CFB
100
AcDbXrecord
 10
0.0
 20
0.0
 30
0.0
  0
XRECORD
  5
1D09
102
{ACAD_REACTORS
330
1CFB
102
}
330
1CFB
100
AcDbXrecord
340
0
  0
XRECORD
  5
1D0A
102
{ACAD_REACTORS
330
1CFB
102
}
330
1CFB
100
AcDbXrecord
 70
     0
  0
XRECORD
  5
1CFF
102
{ACAD_REACTORS
330
1CFB
102
}
330
1CFB
100
AcDbXrecord
  1

  0
XRECORD
  5
1CFC
102
{ACAD_REACTORS
330
1CFB
102
}
330
1CFB
100
AcDbXrecord
 90
        1
  0
XRECORD
  5
1CFD
102
{ACAD_REACTORS
330
1CFB
102
}
330
1CFB
100
AcDbXrecord
 90
       70
  0
XRECORD
  5
1D14
102
{ACAD_REACTORS
330
1CFB
102
}
330
1CFB
100
AcDbXrecord
340
0
  0
XRECORD
  5
1D1A
102
{ACAD_REACTORS
330
1CFB
102
}
330
1CFB
100
AcDbXrecord
 10
0.0
 20
0.0
 30
0.0
  0
XRECORD
  5
1D16
102
{ACAD_REACTORS
330
1CFB
102
}
330
1CFB
100
AcDbXrecord
 10
0.0
 20
0.0
 30
0.0
  0
XRECORD
  5
1D19
102
{ACAD_REACTORS
330
1CFB
102
}
330
1CFB
100
AcDbXrecord
 10
0.0
 20
0.0
 30
0.0
  0
XRECORD
  5
1D17
102
{ACAD_REACTORS
330
1CFB
102
}
330
1CFB
100
AcDbXrecord
 10
0.0
 20
0.0
 30
0.0
  0
XRECORD
  5
1D18
102
{ACAD_REACTORS
330
1CFB
102
}
330
1CFB
100
AcDbXrecord
 10
0.0
 20
0.0
 30
0.0
  0
XRECORD
  5
1D15
102
{ACAD_REACTORS
330
1CFB
102
}
330
1CFB
100
AcDbXrecord
 10
0.0
 20
0.0
 30
0.0
  0
XRECORD
  5
1D12
102
{ACAD_REACTORS
330
1CFB
102
}
330
1CFB
100
AcDbXrecord
340
0
  0
XRECORD
  5
1D13
102
{ACAD_REACTORS
330
1CFB
102
}
330
1CFB
100
AcDbXrecord
 70
     0
  0
XRECORD
  5
1D07
102
{ACAD_REACTORS
330
1CFB
102
}
330
1CFB
100
AcDbXrecord
  1
{F5D0A761-9B99-4A54-9DD0-71F3BC6EF1A9}
  0
ENDSEC
  0
EOF
