  0
SECTION
  2
HEADER
  9
$ACADVER
  1
AC1015
  9
$ACADMAINTVER
 70
    20
  9
$DWGCODEPAGE
  3
ANSI_1252
  9
$INSBASE
 10
0.0
 20
0.0
 30
0.0
  9
$EXTMIN
 10
-50.94759234641583
 20
-25.3130734715935
 30
-0.0015258207003583
  9
$EXTMAX
 10
34.6746903807325
 20
32.42949219261982
 30
0.0000000349246037
  9
$LIMMIN
 10
0.0
 20
0.0
  9
$LIMMAX
 10
420.0
 20
297.0
  9
$ORTHOMODE
 70
     0
  9
$REGENMODE
 70
     1
  9
$FILLMODE
 70
     1
  9
$QTEXTMODE
 70
     0
  9
$MIRRTEXT
 70
     0
  9
$LTSCALE
 40
23.1
  9
$ATTMODE
 70
     1
  9
$TEXTSIZE
 40
3.5
  9
$TRACEWID
 40
0.05
  9
$TEXTSTYLE
  7
STANDARD
  9
$CLAYER
  8
0
  9
$CELTYPE
  6
BYLAYER
  9
$CECOLOR
 62
   256
  9
$CELTSCALE
 40
1.0
  9
$DISPSILH
 70
     0
  9
$DIMSCALE
 40
1.0
  9
$DIMASZ
 40
4.57
  9
$DIMEXO
 40
0.0625
  9
$DIMDLI
 40
0.38
  9
$DIMRND
 40
0.0
  9
$DIMDLE
 40
0.0
  9
$DIMEXE
 40
0.18
  9
$DIMTP
 40
0.01
  9
$DIMTM
 40
0.01
  9
$DIMTXT
 40
3.5
  9
$DIMCEN
 40
0.09
  9
$DIMTSZ
 40
0.0
  9
$DIMTOL
 70
     0
  9
$DIMLIM
 70
     0
  9
$DIMTIH
 70
     0
  9
$DIMTOH
 70
     0
  9
$DIMSE1
 70
     0
  9
$DIMSE2
 70
     0
  9
$DIMTAD
 70
     1
  9
$DIMZIN
 70
     8
  9
$DIMBLK
  1

  9
$DIMASO
 70
     1
  9
$DIMSHO
 70
     1
  9
$DIMPOST
  1

  9
$DIMAPOST
  1

  9
$DIMALT
 70
     0
  9
$DIMALTD
 70
     2
  9
$DIMALTF
 40
25.4
  9
$DIMLFAC
 40
1.0
  9
$DIMTOFL
 70
     0
  9
$DIMTVP
 40
0.0
  9
$DIMTIX
 70
     0
  9
$DIMSOXD
 70
     0
  9
$DIMSAH
 70
     0
  9
$DIMBLK1
  1

  9
$DIMBLK2
  1

  9
$DIMSTYLE
  2
STANDARD
  9
$DIMCLRD
 70
     0
  9
$DIMCLRE
 70
     0
  9
$DIMCLRT
 70
     0
  9
$DIMTFAC
 40
1.0
  9
$DIMGAP
 40
0.09
  9
$DIMJUST
 70
     0
  9
$DIMSD1
 70
     0
  9
$DIMSD2
 70
     0
  9
$DIMTOLJ
 70
     1
  9
$DIMTZIN
 70
     8
  9
$DIMALTZ
 70
     0
  9
$DIMALTTZ
 70
     0
  9
$DIMUPT
 70
     0
  9
$DIMDEC
 70
     3
  9
$DIMTDEC
 70
     3
  9
$DIMALTU
 70
     2
  9
$DIMALTTD
 70
     2
  9
$DIMTXSTY
  7
STANDARD
  9
$DIMAUNIT
 70
     0
  9
$DIMADEC
 70
     0
  9
$DIMALTRND
 40
0.0
  9
$DIMAZIN
 70
     0
  9
$DIMDSEP
 70
    46
  9
$DIMATFIT
 70
     0
  9
$DIMFRAC
 70
     0
  9
$DIMLDRBLK
  1

  9
$DIMLUNIT
 70
     2
  9
$DIMLWD
 70
    -2
  9
$DIMLWE
 70
    -2
  9
$DIMTMOVE
 70
     0
  9
$LUNITS
 70
     2
  9
$LUPREC
 70
     4
  9
$SKETCHINC
 40
0.1
  9
$FILLETRAD
 40
0.0
  9
$AUNITS
 70
     0
  9
$AUPREC
 70
     0
  9
$MENU
  1
.
  9
$ELEVATION
 40
0.0
  9
$PELEVATION
 40
0.0
  9
$THICKNESS
 40
0.0
  9
$LIMCHECK
 70
     0
  9
$CHAMFERA
 40
0.0
  9
$CHAMFERB
 40
0.0
  9
$CHAMFERC
 40
0.0
  9
$CHAMFERD
 40
0.0
  9
$SKPOLY
 70
     0
  9
$TDCREATE
 40
2457351.313439815
  9
$TDUCREATE
 40
2457351.271773148
  9
$TDUPDATE
 40
2457351.341645324
  9
$TDUUPDATE
 40
2457351.299978658
  9
$TDINDWG
 40
0.0011852315
  9
$TDUSRTIMER
 40
0.0011851389
  9
$USRTIMER
 70
     1
  9
$ANGBASE
 50
0.0
  9
$ANGDIR
 70
     0
  9
$PDMODE
 70
     3
  9
$PDSIZE
 40
0.3125
  9
$PLINEWID
 40
0.0
  9
$SPLFRAME
 70
     0
  9
$SPLINETYPE
 70
     6
  9
$SPLINESEGS
 70
     8
  9
$HANDSEED
  5
20E4F
  9
$SURFTAB1
 70
     6
  9
$SURFTAB2
 70
     6
  9
$SURFTYPE
 70
     6
  9
$SURFU
 70
     6
  9
$SURFV
 70
     6
  9
$UCSBASE
  2

  9
$UCSNAME
  2

  9
$UCSORG
 10
0.0
 20
0.0
 30
0.0
  9
$UCSXDIR
 10
1.0
 20
0.0
 30
0.0
  9
$UCSYDIR
 10
0.0
 20
1.0
 30
0.0
  9
$UCSORTHOREF
  2

  9
$UCSORTHOVIEW
 70
     0
  9
$UCSORGTOP
 10
0.0
 20
0.0
 30
0.0
  9
$UCSORGBOTTOM
 10
0.0
 20
0.0
 30
0.0
  9
$UCSORGLEFT
 10
0.0
 20
0.0
 30
0.0
  9
$UCSORGRIGHT
 10
0.0
 20
0.0
 30
0.0
  9
$UCSORGFRONT
 10
0.0
 20
0.0
 30
0.0
  9
$UCSORGBACK
 10
0.0
 20
0.0
 30
0.0
  9
$PUCSBASE
  2

  9
$PUCSNAME
  2

  9
$PUCSORG
 10
0.0
 20
0.0
 30
0.0
  9
$PUCSXDIR
 10
1.0
 20
0.0
 30
0.0
  9
$PUCSYDIR
 10
0.0
 20
1.0
 30
0.0
  9
$PUCSORTHOREF
  2

  9
$PUCSORTHOVIEW
 70
     0
  9
$PUCSORGTOP
 10
0.0
 20
0.0
 30
0.0
  9
$PUCSORGBOTTOM
 10
0.0
 20
0.0
 30
0.0
  9
$PUCSORGLEFT
 10
0.0
 20
0.0
 30
0.0
  9
$PUCSORGRIGHT
 10
0.0
 20
0.0
 30
0.0
  9
$PUCSORGFRONT
 10
0.0
 20
0.0
 30
0.0
  9
$PUCSORGBACK
 10
0.0
 20
0.0
 30
0.0
  9
$USERI1
 70
     0
  9
$USERI2
 70
     0
  9
$USERI3
 70
     0
  9
$USERI4
 70
     0
  9
$USERI5
 70
     0
  9
$USERR1
 40
0.0
  9
$USERR2
 40
0.0
  9
$USERR3
 40
0.0
  9
$USERR4
 40
0.0
  9
$USERR5
 40
0.0
  9
$WORLDVIEW
 70
     1
  9
$SHADEDGE
 70
     3
  9
$SHADEDIF
 70
    70
  9
$TILEMODE
 70
     1
  9
$MAXACTVP
 70
    64
  9
$PINSBASE
 10
0.0
 20
0.0
 30
0.0
  9
$PLIMCHECK
 70
     0
  9
$PEXTMIN
 10
28.69141678810127
 20
19.6363175392151
 30
0.0
  9
$PEXTMAX
 10
258.2227510929107
 20
176.7268578529358
 30
0.0
  9
$PLIMMIN
 10
-5.027069091796875
 20
-6.805083274841307
  9
$PLIMMAX
 10
291.9412536621094
 20
203.1682443618775
  9
$UNITMODE
 70
     0
  9
$VISRETAIN
 70
     1
  9
$PLINEGEN
 70
     0
  9
$PSLTSCALE
 70
     1
  9
$TREEDEPTH
 70
  3020
  9
$CMLSTYLE
  2
STANDARD
  9
$CMLJUST
 70
     0
  9
$CMLSCALE
 40
1.0
  9
$PROXYGRAPHICS
 70
     1
  9
$MEASUREMENT
 70
     1
  9
$CELWEIGHT
370
    -1
  9
$ENDCAPS
280
     0
  9
$JOINSTYLE
280
     0
  9
$LWDISPLAY
290
     0
  9
$INSUNITS
 70
     0
  9
$HYPERLINKBASE
  1

  9
$STYLESHEET
  1
A1-A2.CTB
  9
$XEDIT
290
     1
  9
$CEPSNTYPE
380
     0
  9
$PSTYLEMODE
290
     1
  9
$FINGERPRINTGUID
  2
{840DA257-58B1-436F-8C66-AB7A2A938268}
  9
$VERSIONGUID
  2
{BB6F6489-4D1A-486A-B33F-D63E5DB9A900}
  9
$EXTNAMES
290
     1
  9
$PSVPSCALE
 40
0.0
  9
$OLESTARTUP
290
     0
  0
ENDSEC
  0
SECTION
  2
CLASSES
  0
CLASS
  1
ACDBDICTIONARYWDFLT
  2
AcDbDictionaryWithDefault
  3
ObjectDBX Classes
 90
        0
280
     0
281
     0
  0
CLASS
  1
MATERIAL
  2
AcDbMaterial
  3
ObjectDBX Classes
 90
     1153
280
     0
281
     0
  0
CLASS
  1
VISUALSTYLE
  2
AcDbVisualStyle
  3
ObjectDBX Classes
 90
     4095
280
     0
281
     0
  0
CLASS
  1
TABLESTYLE
  2
AcDbTableStyle
  3
ObjectDBX Classes
 90
     4095
280
     0
281
     0
  0
CLASS
  1
SORTENTSTABLE
  2
AcDbSortentsTable
  3
ObjectDBX Classes
 90
        0
280
     0
281
     0
  0
CLASS
  1
DICTIONARYVAR
  2
AcDbDictionaryVar
  3
ObjectDBX Classes
 90
        0
280
     0
281
     0
  0
CLASS
  1
EXACXREFPANELOBJECT
  2
ExAcXREFPanelObject
  3
EXAC_ESW
 90
    33793
280
     1
281
     0
  0
CLASS
  1
NPOCOLLECTION
  2
AcDbImpNonPersistentObjectsCollection
  3
ObjectDBX Classes
 90
    33921
280
     1
281
     0
  0
CLASS
  1
ACDBPLACEHOLDER
  2
AcDbPlaceHolder
  3
ObjectDBX Classes
 90
        0
280
     0
281
     0
  0
CLASS
  1
LAYOUT
  2
AcDbLayout
  3
ObjectDBX Classes
 90
        0
280
     0
281
     0
  0
CLASS
  1
SCALE
  2
AcDbScale
  3
ObjectDBX Classes
 90
     1153
280
     0
281
     0
  0
CLASS
  1
MLEADERSTYLE
  2
AcDbMLeaderStyle
  3
ACDB_MLEADERSTYLE_CLASS
 90
     4095
280
     0
281
     0
  0
CLASS
  1
ACDBSECTIONVIEWSTYLE
  2
AcDbSectionViewStyle
  3
ObjectDBX Classes
 90
     1025
280
     0
281
     0
  0
CLASS
  1
ACDBDETAILVIEWSTYLE
  2
AcDbDetailViewStyle
  3
ObjectDBX Classes
 90
     1025
280
     0
281
     0
  0
CLASS
  1
CELLSTYLEMAP
  2
AcDbCellStyleMap
  3
ObjectDBX Classes
 90
     1152
280
     0
281
     0
  0
CLASS
  1
ACAD_EVALUATION_GRAPH
  2
AcDbEvalGraph
  3
ObjectDBX Classes
 90
    33921
280
     0
281
     0
  0
CLASS
  1
ACAECUSTOBJ
  2
AcAeEditorObj
  3
AcAeEditorObj
 90
    33792
280
     0
281
     0
  0
CLASS
  1
ACDB_DYNAMICBLOCKPURGEPREVENTER_VERSION
  2
AcDbDynamicBlockPurgePreventer
  3
ObjectDBX Classes
 90
    33921
280
     0
281
     0
  0
CLASS
  1
DIMASSOC
  2
AcDbDimAssoc
  3
"AcDbDimAssoc|Product Desc:     AcDim ARX App For Dimension|Company:          Autodesk, Inc.|WEB Address:      www.autodesk.com"
 90
        0
280
     0
281
     0
  0
ENDSEC
  0
SECTION
  2
TABLES
  0
TABLE
  2
VPORT
  5
8
330
0
100
AcDbSymbolTable
 70
     1
  0
VPORT
  5
1F4
330
8
100
AcDbSymbolTableRecord
100
AcDbViewportTableRecord
  2
*ACTIVE
 70
     0
 10
0.0
 20
0.0
 11
1.0
 21
1.0
 12
-8.136450982841658
 22
3.558209360513156
 13
0.0
 23
0.0
 14
1.0
 24
1.0
 15
0.0
 25
0.0
 16
0.0
 26
0.0
 36
1.0
 17
0.0
 27
0.0
 37
0.0
 40
58.23750194133514
 41
2.336194563662374
 42
50.0
 43
0.0
 44
0.0
 50
0.0
 51
0.0
 71
     0
 72
  2000
 73
     1
 74
     1
 75
     0
 76
     0
 77
     0
 78
     0
281
     0
 65
     1
110
0.0
120
0.0
130
0.0
111
1.0
121
0.0
131
0.0
112
0.0
122
1.0
132
0.0
 79
     0
146
0.0
1001
ACAD_NAV_VCDISPLAY
1070
     3
  0
ENDTAB
  0
TABLE
  2
LTYPE
  5
5
330
0
100
AcDbSymbolTable
 70
     5
  0
LTYPE
  5
14
330
5
100
AcDbSymbolTableRecord
100
AcDbLinetypeTableRecord
  2
BYBLOCK
 70
     0
  3

 72
    65
 73
     0
 40
0.0
  0
LTYPE
  5
15
330
5
100
AcDbSymbolTableRecord
100
AcDbLinetypeTableRecord
  2
BYLAYER
 70
     0
  3

 72
    65
 73
     0
 40
0.0
  0
LTYPE
  5
16
330
5
100
AcDbSymbolTableRecord
100
AcDbLinetypeTableRecord
  2
CONTINUOUS
 70
     0
  3
Solid line
 72
    65
 73
     0
 40
0.0
  0
LTYPE
  5
9C48
330
5
100
AcDbSymbolTableRecord
100
AcDbLinetypeTableRecord
  2
CENTER
 70
     0
  3
____ _ ____ _ ____ _ ____ _ ____ _ ____ _ ____
 72
    65
 73
     4
 40
0.6
 49
0.375
 74
     0
 49
-0.075
 74
     0
 49
0.075
 74
     0
 49
-0.075
 74
     0
  0
ENDTAB
  0
TABLE
  2
LAYER
  5
2
102
{ACAD_XDICTIONARY
360
422A
102
}
330
0
100
AcDbSymbolTable
 70
    15
  0
LAYER
  5
10
102
{ACAD_XDICTIONARY
360
1B2F5
102
}
330
2
100
AcDbSymbolTableRecord
100
AcDbLayerTableRecord
  2
0
 70
     0
 62
     7
  6
CONTINUOUS
370
    -3
390
318A
  0
LAYER
  5
3F8C
102
{ACAD_XDICTIONARY
360
1B2F7
102
}
330
2
100
AcDbSymbolTableRecord
100
AcDbLayerTableRecord
  2
1
 70
     0
 62
     4
  6
BYBLOCK
370
    50
390
318A
  0
LAYER
  5
3FA7
330
2
100
AcDbSymbolTableRecord
100
AcDbLayerTableRecord
  2
Defpoints
 70
     0
 62
     7
  6
CONTINUOUS
290
     0
370
    -3
390
318A
  0
LAYER
  5
9C4A
102
{ACAD_XDICTIONARY
360
1B2F9
102
}
330
2
100
AcDbSymbolTableRecord
100
AcDbLayerTableRecord
  2
2
 70
     0
 62
     7
  6
BYBLOCK
370
    25
390
318A
  0
LAYER
  5
9C4B
102
{ACAD_XDICTIONARY
360
1B2FB
102
}
330
2
100
AcDbSymbolTableRecord
100
AcDbLayerTableRecord
  2
4
 70
     0
 62
     2
  6
CENTER
370
    25
390
318A
  0
LAYER
  5
9C4D
102
{ACAD_XDICTIONARY
360
1B2FD
102
}
330
2
100
AcDbSymbolTableRecord
100
AcDbLayerTableRecord
  2
CUT
 70
     0
 62
     1
  6
BYBLOCK
370
    25
390
318A
  0
LAYER
  5
9C4E
102
{ACAD_XDICTIONARY
360
1B2FF
102
}
330
2
100
AcDbSymbolTableRecord
100
AcDbLayerTableRecord
  2
NOCUT
 70
     0
 62
     7
  6
BYBLOCK
370
    25
390
318A
  0
LAYER
  5
9C4F
102
{ACAD_XDICTIONARY
360
1B301
102
}
330
2
100
AcDbSymbolTableRecord
100
AcDbLayerTableRecord
  2
SK2
 70
     0
 62
     7
  6
BYBLOCK
370
    25
390
318A
  0
LAYER
  5
9C50
102
{ACAD_XDICTIONARY
360
1B303
102
}
330
2
100
AcDbSymbolTableRecord
100
AcDbLayerTableRecord
  2
SK1
 70
     0
 62
     4
  6
BYBLOCK
370
    50
390
318A
  0
LAYER
  5
9C51
102
{ACAD_XDICTIONARY
360
1B305
102
}
330
2
100
AcDbSymbolTableRecord
100
AcDbLayerTableRecord
  2
SK4
 70
     0
 62
     2
  6
CENTER
370
    25
390
318A
  0
LAYER
  5
13335
102
{ACAD_XDICTIONARY
360
1B307
102
}
330
2
100
AcDbSymbolTableRecord
100
AcDbLayerTableRecord
  2
INFTOTAL
 70
     0
 62
     9
  6
BYBLOCK
370
    18
390
318A
1001
AcAecLayerStandard
1000

1000

  0
LAYER
  5
1686E
102
{ACAD_XDICTIONARY
360
1B309
102
}
330
2
100
AcDbSymbolTableRecord
100
AcDbLayerTableRecord
  2
SK6
 70
     0
 62
     5
  6
BYBLOCK
370
    -3
390
318A
  0
ENDTAB
  0
TABLE
  2
STYLE
  5
3
330
0
100
AcDbSymbolTable
 70
     2
  0
STYLE
  5
11
330
3
100
AcDbSymbolTableRecord
100
AcDbTextStyleTableRecord
  2
STANDARD
 70
     0
 40
3.5
 41
0.8
 50
0.0
 71
     0
 42
3.5
  3
monos.ttf
  4

1001
ACAD
1000
Monospac821 BT
1071
       49
  0
ENDTAB
  0
TABLE
  2
VIEW
  5
6
330
0
100
AcDbSymbolTable
 70
     0
  0
ENDTAB
  0
TABLE
  2
UCS
  5
7
330
0
100
AcDbSymbolTable
 70
     0
  0
ENDTAB
  0
TABLE
  2
APPID
  5
9
330
0
100
AcDbSymbolTable
 70
    15
  0
APPID
  5
23B
330
9
100
AcDbSymbolTableRecord
100
AcDbRegAppTableRecord
  2
ACAD
 70
     0
  0
APPID
  5
3395
330
9
100
AcDbSymbolTableRecord
100
AcDbRegAppTableRecord
  2
ACAD_EXEMPT_FROM_CAD_STANDARDS
 70
     0
  0
APPID
  5
4229
330
9
100
AcDbSymbolTableRecord
100
AcDbRegAppTableRecord
  2
AcAecLayerStandard
 70
     0
  0
APPID
  5
9A1B
330
9
100
AcDbSymbolTableRecord
100
AcDbRegAppTableRecord
  2
ACAD_PSEXT
 70
     0
  0
APPID
  5
1B313
330
9
100
AcDbSymbolTableRecord
100
AcDbRegAppTableRecord
  2
ACAD_NAV_VCDISPLAY
 70
     0
  0
APPID
  5
1B355
330
9
100
AcDbSymbolTableRecord
100
AcDbRegAppTableRecord
  2
ACAD_MLEADERVER
 70
     0
  0
APPID
  5
1EC7F
330
9
100
AcDbSymbolTableRecord
100
AcDbRegAppTableRecord
  2
ACAUTHENVIRON
 70
     0
  0
APPID
  5
1EC82
330
9
100
AcDbSymbolTableRecord
100
AcDbRegAppTableRecord
  2
AcDbDynamicBlockTrueName
 70
     0
  0
APPID
  5
1EC83
330
9
100
AcDbSymbolTableRecord
100
AcDbRegAppTableRecord
  2
AcDbDynamicBlockGUID
 70
     0
  0
APPID
  5
20A85
330
9
100
AcDbSymbolTableRecord
100
AcDbRegAppTableRecord
  2
AcCmTransparency
 70
     0
  0
APPID
  5
20B1A
330
9
100
AcDbSymbolTableRecord
100
AcDbRegAppTableRecord
  2
ACAD_DSTYLE_DIMJAG
 70
     0
  0
APPID
  5
20B1B
330
9
100
AcDbSymbolTableRecord
100
AcDbRegAppTableRecord
  2
ACAD_DSTYLE_DIMBREAK
 70
     0
  0
APPID
  5
20B1C
330
9
100
AcDbSymbolTableRecord
100
AcDbRegAppTableRecord
  2
ACAD_DSTYLE_DIMTALN
 70
     0
  0
APPID
  5
20B1D
330
9
100
AcDbSymbolTableRecord
100
AcDbRegAppTableRecord
  2
ACAD_DSTYLE_DIMRADIAL_EXTENSION
 70
     0
  0
APPID
  5
20DBB
330
9
100
AcDbSymbolTableRecord
100
AcDbRegAppTableRecord
  2
AcadAnnoMonitorAlertIconDisabled
 70
     0
  0
ENDTAB
  0
TABLE
  2
DIMSTYLE
  5
A
330
0
100
AcDbSymbolTable
 70
     2
100
AcDbDimStyleTable
 71
     1
340
243
  0
DIMSTYLE
105
243
102
{ACAD_REACTORS
330
20D55
330
20D56
330
20D9C
102
}
330
A
100
AcDbSymbolTableRecord
100
AcDbDimStyleTableRecord
  2
STANDARD
 70
     0
 41
4.57
 47
0.01
 48
0.01
 73
     0
 74
     0
 77
     1
 78
     8
140
3.5
271
     3
272
     3
284
     8
289
     0
340
11
  0
ENDTAB
  0
TABLE
  2
BLOCK_RECORD
  5
1
330
0
100
AcDbSymbolTable
 70
    17
  0
BLOCK_RECORD
  5
1F
102
{ACAD_XDICTIONARY
360
339C
102
}
330
1
100
AcDbSymbolTableRecord
100
AcDbBlockTableRecord
  2
*MODEL_SPACE
340
31A6
  0
BLOCK_RECORD
  5
1B
330
1
100
AcDbSymbolTableRecord
100
AcDbBlockTableRecord
  2
*PAPER_SPACE
340
31A7
  0
BLOCK_RECORD
  5
1B3D7
102
{ACAD_XDICTIONARY
360
1DE81
102
}
330
1
100
AcDbSymbolTableRecord
100
AcDbBlockTableRecord
  2
cero_point
340
0
310
28000000200000002000000001002000000000000010000001000000010000000000000000000000302821FF302821FF302821FF302821FF302821FF302821FF302821FF302821FF302821FF302821FF302821FF302821FF302821FF302821FF302821FF302821FF302821FF302821FF302821FF302821FF302821FF302821
310
FF302821FF302821FF302821FF302821FF302821FF302821FF302821FF302821FF302821FF302821FF302821FF302821FF302821FF302821FF302821FF302821FF302821FF302821FF302821FF302821FF302821FF302821FF302821FF302821FF302821FFFFFF00FFFFFF00FFFFFF00FF302821FF302821FF302821FF3028
310
21FF302821FF302821FF302821FF302821FF302821FF302821FF302821FF302821FF302821FF302821FF302821FF302821FF302821FF302821FF302821FF302821FF302821FF302821FF302821FF302821FFFFFF00FFFFFF00FFFFFF00FFFFFF00FFFFFF00FFFFFF00FFFFFF00FF302821FFFFFF00FFFFFF00FFFFFF00FF30
310
2821FF302821FF302821FF302821FF302821FF302821FF302821FF302821FF302821FF302821FF302821FF302821FF302821FF302821FF302821FF302821FF302821FF302821FF302821FFFFFF00FFFFFF00FFFFFF00FFFFFF00FFFFFF00FFFFFF00FFFFFF00FFFFFF00FFFFFF00FF302821FF302821FF302821FF302821FF
310
FFFF00FFFFFF00FF302821FF302821FF302821FF302821FF302821FF302821FF302821FF302821FF302821FF302821FF302821FF302821FF302821FF302821FF302821FF302821FFFFFF00FFFFFF00FFFFFF00FFFFFF00FFFFFF00FFFFFF00FFFFFF00FFFFFF00FFFFFF00FFFFFF00FF302821FF302821FF302821FF302821
310
FF302821FF302821FFFFFF00FFFFFF00FF302821FF302821FF302821FF302821FF302821FF302821FF302821FF302821FF302821FF302821FF302821FF302821FF302821FFFFFF00FFFFFF00FFFFFF00FFFFFF00FFFFFF00FFFFFF00FFFFFF00FFFFFF00FFFFFF00FFFFFF00FFFFFF00FF302821FF302821FF302821FF3028
310
21FF302821FF302821FF302821FF302821FFFFFF00FF302821FF302821FF302821FF302821FF302821FF302821FF302821FF302821FF302821FF302821FF302821FFFFFF00FFFFFF00FFFFFF00FFFFFF00FFFFFF00FFFFFF00FFFFFF00FFFFFF00FFFFFF00FFFFFF00FFFFFF00FFFFFF00FF302821FF302821FF302821FF30
310
2821FF302821FF302821FF302821FF302821FF302821FFFFFF00FF302821FF302821FF302821FF302821FF302821FF302821FF302821FF302821FF302821FFFFFF00FFFFFF00FFFFFF00FFFFFF00FFFFFF00FFFFFF00FFFFFF00FFFFFF00FFFFFF00FFFFFF00FFFFFF00FFFFFF00FFFFFF00FF302821FF302821FF302821FF
310
302821FF302821FF302821FF302821FF302821FF302821FF302821FFFFFF00FF302821FF302821FF302821FF302821FF302821FF302821FF302821FFFFFF00FFFFFF00FFFFFF00FFFFFF00FFFFFF00FFFFFF00FFFFFF00FFFFFF00FFFFFF00FFFFFF00FFFFFF00FFFFFF00FFFFFF00FFFFFF00FF302821FF302821FF302821
310
FF302821FF302821FF302821FF302821FF302821FF302821FF302821FFFFFF00FF302821FF302821FF302821FF302821FF302821FF302821FF302821FFFFFF00FFFFFF00FFFFFF00FFFFFF00FFFFFF00FFFFFF00FFFFFF00FFFFFF00FFFFFF00FFFFFF00FFFFFF00FFFFFF00FFFFFF00FFFFFF00FF302821FF302821FF3028
310
21FF302821FF302821FF302821FF302821FF302821FF302821FF302821FF302821FFFFFF00FF302821FF302821FF302821FF302821FF302821FFFFFF00FFFFFF00FFFFFF00FFFFFF00FFFFFF00FFFFFF00FFFFFF00FFFFFF00FFFFFF00FFFFFF00FFFFFF00FFFFFF00FFFFFF00FFFFFF00FFFFFF00FF302821FF302821FF30
310
2821FF302821FF302821FF302821FF302821FF302821FF302821FF302821FF302821FF302821FFFFFF00FF302821FF302821FF302821FF302821FFFFFF00FFFFFF00FFFFFF00FFFFFF00FFFFFF00FFFFFF00FFFFFF00FFFFFF00FFFFFF00FFFFFF00FFFFFF00FFFFFF00FFFFFF00FFFFFF00FFFFFF00FF302821FF302821FF
310
302821FF302821FF302821FF302821FF302821FF302821FF302821FF302821FF302821FF302821FFFFFF00FF302821FF302821FF302821FF302821FFFFFF00FFFFFF00FFFFFF00FFFFFF00FFFFFF00FFFFFF00FFFFFF00FFFFFF00FFFFFF00FFFFFF00FFFFFF00FFFFFF00FFFFFF00FFFFFF00FFFFFF00FF302821FF302821
310
FF302821FF302821FF302821FF302821FF302821FF302821FF302821FF302821FF302821FF302821FFFFFF00FF302821FF302821FF302821FF302821FFFFFF00FFFFFF00FFFFFF00FFFFFF00FFFFFF00FFFFFF00FFFFFF00FFFFFF00FFFFFF00FFFFFF00FFFFFF00FFFFFF00FFFFFF00FFFFFF00FFFFFF00FF302821FF3028
310
21FF302821FF302821FF302821FF302821FF302821FF302821FF302821FF302821FF302821FF302821FFFFFF00FF302821FF302821FF302821FFFFFF00FFFFFF00FFFFFF00FFFFFF00FFFFFF00FFFFFF00FFFFFF00FFFFFF00FFFFFF00FFFFFF00FFFFFF00FFFFFF00FFFFFF00FFFFFF00FFFFFF00FFFFFF00FF302821FF30
310
2821FF302821FF302821FF302821FF302821FF302821FF302821FF302821FF302821FF302821FF302821FF302821FFFFFF00FF302821FF302821FFFFFF00FFFFFF00FFFFFF00FFFFFF00FFFFFF00FFFFFF00FFFFFF00FFFFFF00FFFFFF00FFFFFF00FFFFFF00FFFFFF00FFFFFF00FFFFFF00FFFFFF00FFFFFF00FFFFFF00FF
310
FFFF00FFFFFF00FFFFFF00FFFFFF00FFFFFF00FFFFFF00FFFFFF00FFFFFF00FFFFFF00FFFFFF00FFFFFF00FFFFFF00FFFFFF00FF302821FF302821FFFFFF00FF302821FF302821FF302821FF302821FF302821FF302821FF302821FF302821FF302821FF302821FF302821FF302821FF302821FF302821FFFFFF00FFFFFF00
310
FFFFFF00FFFFFF00FFFFFF00FFFFFF00FFFFFF00FFFFFF00FFFFFF00FFFFFF00FFFFFF00FFFFFF00FFFFFF00FFFFFF00FFFFFF00FF302821FF302821FFFFFF00FF302821FF302821FF302821FF302821FF302821FF302821FF302821FF302821FF302821FF302821FF302821FF302821FF302821FF302821FFFFFF00FFFFFF
310
00FFFFFF00FFFFFF00FFFFFF00FFFFFF00FFFFFF00FFFFFF00FFFFFF00FFFFFF00FFFFFF00FFFFFF00FFFFFF00FFFFFF00FF302821FF302821FF302821FF302821FFFFFF00FF302821FF302821FF302821FF302821FF302821FF302821FF302821FF302821FF302821FF302821FF302821FF302821FF302821FFFFFF00FFFF
310
FF00FFFFFF00FFFFFF00FFFFFF00FFFFFF00FFFFFF00FFFFFF00FFFFFF00FFFFFF00FFFFFF00FFFFFF00FFFFFF00FFFFFF00FF302821FF302821FF302821FF302821FFFFFF00FF302821FF302821FF302821FF302821FF302821FF302821FF302821FF302821FF302821FF302821FF302821FF302821FF302821FFFFFF00FF
310
FFFF00FFFFFF00FFFFFF00FFFFFF00FFFFFF00FFFFFF00FFFFFF00FFFFFF00FFFFFF00FFFFFF00FFFFFF00FFFFFF00FFFFFF00FF302821FF302821FF302821FF302821FFFFFF00FF302821FF302821FF302821FF302821FF302821FF302821FF302821FF302821FF302821FF302821FF302821FF302821FF302821FFFFFF00
310
FFFFFF00FFFFFF00FFFFFF00FFFFFF00FFFFFF00FFFFFF00FFFFFF00FFFFFF00FFFFFF00FFFFFF00FFFFFF00FFFFFF00FFFFFF00FF302821FF302821FF302821FF302821FF302821FFFFFF00FF302821FF302821FF302821FF302821FF302821FF302821FF302821FF302821FF302821FF302821FF302821FF302821FFFFFF
310
00FFFFFF00FFFFFF00FFFFFF00FFFFFF00FFFFFF00FFFFFF00FFFFFF00FFFFFF00FFFFFF00FFFFFF00FFFFFF00FFFFFF00FFFFFF00FF302821FF302821FF302821FF302821FF302821FFFFFF00FF302821FF302821FF302821FF302821FF302821FF302821FF302821FF302821FF302821FF302821FF302821FF302821FFFF
310
FF00FFFFFF00FFFFFF00FFFFFF00FFFFFF00FFFFFF00FFFFFF00FFFFFF00FFFFFF00FFFFFF00FFFFFF00FFFFFF00FFFFFF00FF302821FF302821FF302821FF302821FF302821FF302821FF302821FFFFFF00FF302821FF302821FF302821FF302821FF302821FF302821FF302821FF302821FF302821FF302821FF302821FF
310
FFFF00FFFFFF00FFFFFF00FFFFFF00FFFFFF00FFFFFF00FFFFFF00FFFFFF00FFFFFF00FFFFFF00FFFFFF00FFFFFF00FFFFFF00FF302821FF302821FF302821FF302821FF302821FF302821FF302821FFFFFF00FF302821FF302821FF302821FF302821FF302821FF302821FF302821FF302821FF302821FF302821FF302821
310
FFFFFF00FFFFFF00FFFFFF00FFFFFF00FFFFFF00FFFFFF00FFFFFF00FFFFFF00FFFFFF00FFFFFF00FFFFFF00FFFFFF00FF302821FF302821FF302821FF302821FF302821FF302821FF302821FF302821FF302821FFFFFF00FF302821FF302821FF302821FF302821FF302821FF302821FF302821FF302821FF302821FF3028
310
21FFFFFF00FFFFFF00FFFFFF00FFFFFF00FFFFFF00FFFFFF00FFFFFF00FFFFFF00FFFFFF00FFFFFF00FFFFFF00FF302821FF302821FF302821FF302821FF302821FF302821FF302821FF302821FF302821FF302821FF302821FFFFFF00FF302821FF302821FF302821FF302821FF302821FF302821FF302821FF302821FF30
310
2821FFFFFF00FFFFFF00FFFFFF00FFFFFF00FFFFFF00FFFFFF00FFFFFF00FFFFFF00FFFFFF00FFFFFF00FF302821FF302821FF302821FF302821FF302821FF302821FF302821FF302821FF302821FF302821FF302821FF302821FF302821FFFFFF00FF302821FF302821FF302821FF302821FF302821FF302821FF302821FF
310
302821FFFFFF00FFFFFF00FFFFFF00FFFFFF00FFFFFF00FFFFFF00FFFFFF00FFFFFF00FFFFFF00FF302821FF302821FF302821FF302821FF302821FF302821FF302821FF302821FF302821FF302821FF302821FF302821FF302821FF302821FF302821FFFFFF00FFFFFF00FF302821FF302821FF302821FF302821FF302821
310
FF302821FFFFFF00FFFFFF00FFFFFF00FFFFFF00FFFFFF00FFFFFF00FFFFFF00FFFFFF00FF302821FF302821FF302821FF302821FF302821FF302821FF302821FF302821FF302821FF302821FF302821FF302821FF302821FF302821FF302821FF302821FF302821FF302821FFFFFF00FFFFFF00FFFFFF00FFFFFF00FFFFFF
310
00FF302821FFFFFF00FFFFFF00FFFFFF00FFFFFF00FFFFFF00FFFFFF00FF302821FF302821FF302821FF302821FF302821FF302821FF302821FF302821FF302821FF302821FF302821FF302821FF302821FF302821FF302821FF302821FF302821FF302821FF302821FF302821FF302821FF302821FF302821FF302821FF30
310
2821FFFFFF00FFFFFF00FFFFFF00FF302821FF302821FF302821FF302821FF302821FF302821FF302821FF302821FF302821FF302821FF302821FF302821FF302821FF302821FF302821FF302821FF302821FF302821FF302821FF302821FF302821FF302821FF302821FF302821FF302821FF302821FF302821FF302821FF
310
302821FF302821FF302821FF302821FF302821FF302821FF302821FF302821FF302821FF302821FF302821FF302821FF302821FF302821FF302821FF302821FF302821FF302821FF
102
{BLKREFS
331
20D5D
102
}
  0
BLOCK_RECORD
  5
20D5F
330
1
100
AcDbSymbolTableRecord
100
AcDbBlockTableRecord
  2
*D14
340
0
  0
BLOCK_RECORD
  5
20D76
330
1
100
AcDbSymbolTableRecord
100
AcDbBlockTableRecord
  2
*D15
340
0
  0
BLOCK_RECORD
  5
20D9D
330
1
100
AcDbSymbolTableRecord
100
AcDbBlockTableRecord
  2
*D16
340
0
  0
ENDTAB
  0
ENDSEC
  0
SECTION
  2
BLOCKS
  0
BLOCK
  5
20
330
1F
100
AcDbEntity
  8
0
100
AcDbBlockBegin
  2
*MODEL_SPACE
 70
     0
 10
0.0
 20
0.0
 30
0.0
  3
*MODEL_SPACE
  1

  0
ENDBLK
  5
21
330
1F
100
AcDbEntity
  8
0
100
AcDbBlockEnd
  0
BLOCK
  5
1C
330
1B
100
AcDbEntity
 67
     1
  8
0
100
AcDbBlockBegin
  2
*PAPER_SPACE
 70
     0
 10
0.0
 20
0.0
 30
0.0
  3
*PAPER_SPACE
  1

  0
ENDBLK
  5
1D
330
1B
100
AcDbEntity
 67
     1
  8
0
100
AcDbBlockEnd
  0
BLOCK
  5
1B3D8
330
1B3D7
100
AcDbEntity
  8
0
100
AcDbBlockBegin
  2
cero_point
 70
     0
 10
0.0
 20
0.0
 30
0.0
  3
cero_point
  1

  0
HATCH
  5
1B3DA
330
1B3D7
100
AcDbEntity
  8
1
  6
ByBlock
370
    50
100
AcDbHatch
 10
0.0
 20
0.0
 30
0.0
210
0.0
220
0.0
230
1.0
  2
SOLID
 70
     1
 71
     0
 91
        2
 92
        7
 72
     1
 73
     1
 93
        3
 10
-0.0000000000001137
 20
0.0
 42
0.0
 10
-2.950972054112752
 20
0.0
 42
0.4142135623730968
 10
-0.0000000000001137
 20
-2.950972054112583
 42
0.0
 97
        0
 92
        7
 72
     1
 73
     1
 93
        3
 10
-0.0000000000001137
 20
2.950972054112638
 42
0.0
 10
-0.0000000000001137
 20
0.0
 42
0.0
 10
2.950972054112526
 20
0.0
 42
0.4142135623730966
 97
        0
 75
     0
 76
     1
 47
0.1190009775223266
 98
        2
 10
-0.7445530588121301
 20
-0.9212244733764125
 10
1.279464601852737
 20
1.696796923046345
  0
LWPOLYLINE
  5
1B3DB
330
1B3D7
100
AcDbEntity
  8
1
  6
ByBlock
370
    50
100
AcDbPolyline
 90
        3
 70
     1
 43
0.0
 10
-0.0000000000001137
 20
0.0
 10
2.950972054112526
 20
0.0
 42
0.4142135623730966
 10
-0.0000000000001137
 20
2.950972054112638
  0
LINE
  5
1B3DC
330
1B3D7
100
AcDbEntity
  8
1
  6
ByBlock
370
    50
100
AcDbLine
 10
-0.0000000000001137
 20
-2.950972054112583
 30
0.0
 11
-0.0000000000001137
 21
2.950972054112638
 31
0.0
  0
LWPOLYLINE
  5
1B3DD
330
1B3D7
100
AcDbEntity
  8
1
  6
ByBlock
370
    50
100
AcDbPolyline
 90
        3
 70
     1
 43
0.0
 10
-0.0000000000001137
 20
-2.950972054112583
 10
-0.0000000000001137
 20
0.0
 10
-2.950972054112752
 20
0.0
 42
0.4142135623730966
  0
LINE
  5
1B3DE
330
1B3D7
100
AcDbEntity
  8
1
  6
ByBlock
370
    50
100
AcDbLine
 10
2.950972054112638
 20
0.0
 30
0.0
 11
-2.950972054112638
 21
0.0
 31
0.0
  0
CIRCLE
  5
1B3DF
330
1B3D7
100
AcDbEntity
  8
1
  6
ByBlock
370
    50
100
AcDbCircle
 10
-0.0000000000001137
 20
0.0
 30
0.0
 40
2.950972054112601
  0
ENDBLK
  5
1B3D9
330
1B3D7
100
AcDbEntity
  8
0
100
AcDbBlockEnd
  0
BLOCK
  5
20D60
330
20D5F
100
AcDbEntity
  8
0
100
AcDbBlockBegin
  2
*D14
 70
     1
 10
0.0
 20
0.0
 30
0.0
  3
*D14
  1

  0
LINE
  5
20DFD
330
20D5F
100
AcDbEntity
  8
2
 62
     0
370
    -2
100
AcDbLine
 10
3.319624553980872
 20
8.69649038815271
 30
0.0
 11
3.319624553980873
 21
21.15617892695041
 31
0.0
  0
LINE
  5
20DFE
330
20D5F
100
AcDbEntity
  8
2
 62
     0
370
    -2
100
AcDbLine
 10
0.150491193769426
 20
8.68651205143783
 30
0.0
 11
0.1504911937694268
 21
21.15617892695041
 31
0.0
  0
LINE
  5
20DFF
330
20D5F
100
AcDbEntity
  8
2
 62
     0
370
    -2
100
AcDbLine
 10
7.889624553980874
 20
20.97617892695041
 30
0.0
 11
12.45962455398087
 21
20.97617892695041
 31
0.0
  0
LINE
  5
20E00
330
20D5F
100
AcDbEntity
  8
2
 62
     0
370
    -2
100
AcDbLine
 10
-4.419508806230573
 20
20.97617892695041
 30
0.0
 11
-20.8614272883107
 21
20.97617892695041
 31
0.0
  0
LINE
  5
20E01
330
20D5F
100
AcDbEntity
  8
2
 62
     0
370
    -2
100
AcDbLine
 10
3.319624553980873
 20
20.97617892695041
 30
0.0
 11
0.1504911937694267
 21
20.97617892695041
 31
0.0
  0
SOLID
  5
20E02
330
20D5F
100
AcDbEntity
  8
2
 62
     0
100
AcDbTrace
 10
7.889624553980874
 20
21.73784559361708
 30
0.0
 11
7.889624553980874
 21
20.21451226028375
 31
0.0
 12
3.319624553980873
 22
20.97617892695041
 32
0.0
 13
3.319624553980873
 23
20.97617892695041
 33
0.0
  0
SOLID
  5
20E03
330
20D5F
100
AcDbEntity
  8
2
 62
     0
100
AcDbTrace
 10
-4.419508806230573
 20
21.73784559361708
 30
0.0
 11
-4.419508806230573
 21
20.21451226028375
 31
0.0
 12
0.1504911937694267
 22
20.97617892695041
 32
0.0
 13
0.1504911937694267
 23
20.97617892695041
 33
0.0
  0
MTEXT
  5
20E04
330
20D5F
100
AcDbEntity
  8
2
 62
     0
100
AcDbMText
 10
-14.92546804727064
 20
22.87766873721043
 30
0.0
 40
3.5
 41
0.0
 71
     5
 72
     1
  1
\A1;3.169
 73
     1
 44
1.0
1001
ACAD
1000
MTEXTBEGIN
1070
    73
1070
     1
1070
    44
1040
1.0
1070
    74
1070
     0
1000
MTEXTEND
  0
POINT
  5
20E05
330
20D5F
100
AcDbEntity
  8
Defpoints
 62
     0
100
AcDbPoint
 10
3.319624553980872
 20
8.63399038815271
 30
0.0
  0
POINT
  5
20E06
330
20D5F
100
AcDbEntity
  8
Defpoints
 62
     0
100
AcDbPoint
 10
0.150491193769426
 20
8.62401205143783
 30
0.0
  0
POINT
  5
20E07
330
20D5F
100
AcDbEntity
  8
Defpoints
 62
     0
100
AcDbPoint
 10
0.1504911937694267
 20
20.97617892695041
 30
0.0
  0
ENDBLK
  5
20D61
330
20D5F
100
AcDbEntity
  8
0
100
AcDbBlockEnd
  0
BLOCK
  5
20D77
330
20D76
100
AcDbEntity
  8
0
100
AcDbBlockBegin
  2
*D15
 70
     1
 10
0.0
 20
0.0
 30
0.0
  3
*D15
  1

  0
LINE
  5
20DEA
330
20D76
100
AcDbEntity
  8
2
 62
     0
370
    -2
100
AcDbLine
 10
7.02649152656401
 20
11.38696502105966
 30
0.0
 11
22.33774107791052
 21
22.15490465615307
 31
0.0
  0
SOLID
  5
20DEB
330
20D76
100
AcDbEntity
  8
2
 62
     0
100
AcDbTrace
 10
6.588338194567364
 20
12.0099881095334
 30
0.0
 11
7.464644858560655
 21
10.76394193258593
 31
0.0
 12
3.288352995721613
 22
8.758045029079795
 32
0.0
 13
3.288352995721613
 23
8.758045029079795
 33
0.0
  0
MTEXT
  5
20DEC
330
20D76
100
AcDbEntity
  8
2
 62
     0
100
AcDbMText
 10
15.45734211541807
 20
19.64076295838999
 30
0.0
 40
3.5
 41
0.0
 71
     5
 72
     1
  1
\A1;R0.203
 11
0.8179734203156229
 21
0.5752560157505189
 31
0.0
 73
     1
 44
1.0
1001
ACAD
1000
MTEXTBEGIN
1070
    73
1070
     1
1070
    44
1040
1.0
1070
    74
1070
     0
1000
MTEXTEND
  0
LINE
  5
20DED
330
20D76
100
AcDbEntity
  8
2
 62
     0
370
    -2
100
AcDbLine
 10
3.032155637238127
 20
8.641163443572311
 30
0.0
 11
3.212155637238129
 21
8.641163443572313
 31
0.0
  0
LINE
  5
20DEE
330
20D76
100
AcDbEntity
  8
2
 62
     0
370
    -2
100
AcDbLine
 10
3.122155637238128
 20
8.551163443572313
 30
0.0
 11
3.122155637238129
 21
8.731163443572311
 31
0.0
  0
ARC
  5
20DEF
330
20D76
100
AcDbEntity
  8
2
 62
     0
370
    -2
100
AcDbCircle
 10
3.122155637238128
 20
8.641163443572311
 30
0.0
 40
0.2031818569597972
100
AcDbArc
 50
344.3588956408449
 51
44.71259425555888
  0
POINT
  5
20DF0
330
20D76
100
AcDbEntity
  8
Defpoints
 62
     0
100
AcDbPoint
 10
3.288352995721613
 20
8.758045029079795
 30
0.0
  0
POINT
  5
20DF1
330
20D76
100
AcDbEntity
  8
Defpoints
 62
     0
100
AcDbPoint
 10
3.122155637238128
 20
8.641163443572311
 30
0.0
  0
ENDBLK
  5
20D78
330
20D76
100
AcDbEntity
  8
0
100
AcDbBlockEnd
  0
BLOCK
  5
20D9E
330
20D9D
100
AcDbEntity
  8
0
100
AcDbBlockBegin
  2
*D16
 70
     1
 10
0.0
 20
0.0
 30
0.0
  3
*D16
  1

  0
LINE
  5
20DE1
330
20D9D
100
AcDbEntity
  8
2
 62
     0
370
    -2
100
AcDbLine
 10
3.183512681551349
 20
8.844456282849591
 30
0.0
 11
17.70175486653466
 21
8.844456282849586
 31
0.0
  0
LINE
  5
20DE2
330
20D9D
100
AcDbEntity
  8
2
 62
     0
370
    -2
100
AcDbLine
 10
3.183512681551349
 20
-8.844452717150375
 30
0.0
 11
17.70175486653465
 21
-8.84445271715038
 31
0.0
  0
LINE
  5
20DE3
330
20D9D
100
AcDbEntity
  8
2
 62
     0
370
    -2
100
AcDbLine
 10
17.52175486653465
 20
4.274456282849588
 30
0.0
 11
17.52175486653465
 21
-4.274452717150378
 31
0.0
  0
SOLID
  5
20DE4
330
20D9D
100
AcDbEntity
  8
2
 62
     0
100
AcDbTrace
 10
16.76008819986799
 20
4.274456282849588
 30
0.0
 11
18.28342153320132
 21
4.274456282849587
 31
0.0
 12
17.52175486653466
 22
8.844456282849588
 32
0.0
 13
17.52175486653466
 23
8.844456282849588
 33
0.0
  0
SOLID
  5
20DE5
330
20D9D
100
AcDbEntity
  8
2
 62
     0
100
AcDbTrace
 10
16.76008819986799
 20
-4.274452717150378
 30
0.0
 11
18.28342153320132
 21
-4.274452717150379
 31
0.0
 12
17.52175486653465
 22
-8.844452717150378
 32
0.0
 13
17.52175486653465
 23
-8.844452717150378
 33
0.0
  0
MTEXT
  5
20DE6
330
20D9D
100
AcDbEntity
  8
2
 62
     0
100
AcDbMText
 10
15.56861361565623
 20
0.0000017828496076
 30
0.0
 40
3.5
 41
0.0
 71
     5
 72
     1
  1
\A1;%%C17.689
 11
0.0000000000000001
 21
1.0
 31
0.0
 73
     1
 44
1.0
1001
ACAD
1000
MTEXTBEGIN
1070
    73
1070
     1
1070
    44
1040
1.0
1070
    74
1070
     0
1000
MTEXTEND
  0
POINT
  5
20DE7
330
20D9D
100
AcDbEntity
  8
Defpoints
 62
     0
100
AcDbPoint
 10
3.121012681551349
 20
8.844456282849591
 30
0.0
  0
POINT
  5
20DE8
330
20D9D
100
AcDbEntity
  8
Defpoints
 62
     0
100
AcDbPoint
 10
3.121012681551349
 20
-8.844452717150375
 30
0.0
  0
POINT
  5
20DE9
330
20D9D
100
AcDbEntity
  8
Defpoints
 62
     0
100
AcDbPoint
 10
17.52175486653465
 20
-8.844452717150378
 30
0.0
  0
ENDBLK
  5
20D9F
330
20D9D
100
AcDbEntity
  8
0
100
AcDbBlockEnd
  0
ENDSEC
  0
SECTION
  2
ENTITIES
  0
LINE
  5
20C43
330
1F
100
AcDbEntity
  8
SK4
 48
0.188532
100
AcDbLine
 10
0.0000000000000568
 20
0.0000017828496084
 30
0.0
 11
-6.73273598417785
 21
0.0000017828496084
 31
0.0
  0
SPLINE
  5
20C44
330
1F
100
AcDbEntity
  8
SK1
100
AcDbSpline
210
0.0
220
0.0
230
1.0
 70
     8
 71
     5
 72
    12
 73
     6
 74
     0
 42
0.000000001
 43
0.0000000001
 40
0.0
 40
0.0
 40
0.0
 40
0.0
 40
0.0
 40
0.0
 40
0.6403771924769477
 40
0.6403771924769477
 40
0.6403771924769477
 40
0.6403771924769477
 40
0.6403771924769477
 40
0.6403771924769477
 10
-6.193267047063216
 20
2.715105370643755
 30
0.0
 10
-6.202557074793674
 20
2.73670169040804
 30
0.0
 10
-6.211921471789537
 20
2.753204075079793
 30
0.0
 10
-6.221397882309929
 20
2.764377509036876
 30
0.0
 10
-6.230847194159139
 20
2.769909462073542
 30
0.0
 10
-6.240300521480378
 20
2.769871386766453
 30
0.0
  0
SPLINE
  5
20C45
330
1F
100
AcDbEntity
  8
SK1
100
AcDbSpline
210
0.0
220
0.0
230
1.0
 70
     8
 71
     5
 72
    12
 73
     6
 74
     0
 42
0.000000001
 43
0.0000000001
 40
0.0
 40
0.0
 40
0.0
 40
0.0
 40
0.0
 40
0.0
 40
0.6566024389826484
 40
0.6566024389826484
 40
0.6566024389826484
 40
0.6566024389826484
 40
0.6566024389826484
 40
0.6566024389826484
 10
-6.505347862396149
 20
2.710469770432837
 30
0.0
 10
-6.515022010182349
 20
2.734013064926216
 30
0.0
 10
-6.524784097500571
 20
2.752052915756621
 30
0.0
 10
-6.534679205018846
 20
2.764309840499436
 30
0.0
 10
-6.544543656502526
 20
2.770399669028165
 30
0.0
 10
-6.554413812537916
 20
2.770411293430242
 30
0.0
  0
LINE
  5
20C46
330
1F
100
AcDbEntity
  8
SK1
 48
0.000131
100
AcDbLine
 10
-6.554413999999894
 20
2.770411782849578
 30
0.0
 11
-6.559629999999913
 21
2.769738782849572
 31
0.0
  0
SPLINE
  5
20C47
330
1F
100
AcDbEntity
  8
SK1
100
AcDbSpline
210
0.0
220
0.0
230
1.0
 70
     8
 71
     5
 72
    15
 73
     9
 74
     0
 42
0.000000001
 43
0.0000000001
 40
0.0
 40
0.0
 40
0.0
 40
0.0
 40
0.0
 40
0.0
 40
6.321775404775571
 40
6.321775404775571
 40
6.321775404775571
 40
8.706563786847411
 40
8.706563786847411
 40
8.706563786847411
 40
8.706563786847411
 40
8.706563786847411
 40
8.706563786847411
 10
-5.970296130392455
 20
-2.18579849787892
 30
0.0
 10
-6.053635673784526
 20
-1.584105530085707
 30
0.0
 10
-6.126701955633109
 20
-0.7119484662139258
 30
0.0
 10
-6.195101401194108
 20
0.1291675000059058
 30
0.0
 10
-6.291139215349005
 20
1.340241759932212
 30
0.0
 10
-6.40316832652013
 20
2.246757181595228
 30
0.0
 10
-6.435919662157687
 20
2.46601117266573
 30
0.0
 10
-6.470199908231904
 20
2.624960542954568
 30
0.0
 10
-6.505347862396149
 20
2.710469770432837
 30
0.0
  0
SPLINE
  5
20C48
330
1F
100
AcDbEntity
  8
SK1
100
AcDbSpline
210
0.0
220
0.0
230
1.0
 70
     8
 71
     5
 72
    15
 73
     9
 74
     0
 42
0.000000001
 43
0.0000000001
 40
0.0
 40
0.0
 40
0.0
 40
0.0
 40
0.0
 40
0.0
 40
5.355533071508653
 40
5.355533071508653
 40
5.355533071508653
 40
8.631102846401727
 40
8.631102846401727
 40
8.631102846401727
 40
8.631102846401727
 40
8.631102846401727
 40
8.631102846401727
 10
-5.658182161598574
 20
-2.170234425031708
 30
0.0
 10
-5.727789112235257
 20
-1.661344515061159
 30
0.0
 10
-5.790180188891156
 20
-0.9686804742617596
 30
0.0
 10
-5.848970207958529
 20
-0.2586280122311564
 30
0.0
 10
-5.943049486707593
 20
0.9090184031971375
 30
0.0
 10
-6.046395817639506
 20
1.921828134664565
 30
0.0
 10
-6.089360249731214
 20
2.283703411824376
 30
0.0
 10
-6.13475382513576
 20
2.549836804072072
 30
0.0
 10
-6.18186338331867
 20
2.685432698755903
 30
0.0
  0
LINE
  5
20C49
330
1F
100
AcDbEntity
  8
SK1
 48
0.000795
100
AcDbLine
 10
-6.181862999999964
 20
2.685432782849602
 30
0.0
 11
-6.193266999999934
 21
2.715105782849605
 31
0.0
  0
SPLINE
  5
20C4A
330
1F
100
AcDbEntity
  8
SK1
100
AcDbSpline
210
0.0
220
0.0
230
1.0
 70
     8
 71
     5
 72
    15
 73
     9
 74
     0
 42
0.000000001
 43
0.0000000001
 40
0.0
 40
0.0
 40
0.0
 40
0.0
 40
0.0
 40
0.0
 40
1.304815637661662
 40
1.304815637661662
 40
1.304815637661662
 40
1.678484073087561
 40
1.678484073087561
 40
1.678484073087561
 40
1.678484073087561
 40
1.678484073087561
 40
1.678484073087561
 10
-5.991209357883292
 20
2.826429026485698
 30
0.0
 10
-6.009253748480489
 20
2.879899024515736
 30
0.0
 10
-6.027624538116981
 20
2.913630934324828
 30
0.0
 10
-6.04615915707518
 20
2.924965987178666
 30
0.0
 10
-6.070007109494497
 20
2.909718954287086
 30
0.0
 10
-6.093529932183002
 20
2.858951860039155
 30
0.0
 10
-6.098755906041503
 20
2.845903946909913
 30
0.0
 10
-6.103949406124456
 20
2.831207543786831
 30
0.0
 10
-6.109116976612597
 20
2.814899475217657
 30
0.0
  0
LINE
  5
20C4B
330
1F
100
AcDbEntity
  8
SK1
 48
0.132431
100
AcDbLine
 10
-6.639999999999929
 20
2.748096782849643
 30
0.0
 11
-6.639999999999929
 21
-2.549146217150394
 31
0.0
  0
LINE
  5
20C4C
330
1F
100
AcDbEntity
  8
SK1
 48
0.000134
100
AcDbLine
 10
-5.814449999999908
 20
-2.770571217150404
 30
0.0
 11
-5.819757999999922
 21
-2.769873217150404
 31
0.0
  0
SPLINE
  5
20C4D
330
1F
100
AcDbEntity
  8
SK1
100
AcDbSpline
210
0.0
220
0.0
230
1.0
 70
     8
 71
     5
 72
    15
 73
     9
 74
     0
 42
0.000000001
 43
0.0000000001
 40
0.0
 40
0.0
 40
0.0
 40
0.0
 40
0.0
 40
0.0
 40
1.248114367673149
 40
1.248114367673149
 40
1.248114367673149
 40
2.108020955925301
 40
2.108020955925301
 40
2.108020955925301
 40
2.108020955925301
 40
2.108020955925301
 40
2.108020955925301
 10
-5.819757935707286
 20
-2.769873338629338
 30
0.0
 10
-5.838500562089222
 20
-2.764925179097474
 30
0.0
 10
-5.857217350850191
 20
-2.738047725087994
 30
0.0
 10
-5.875695927057847
 20
-2.689474521155034
 30
0.0
 10
-5.906273102685361
 20
-2.57560481053315
 30
0.0
 10
-5.93562281944861
 20
-2.41651950355822
 30
0.0
 10
-5.947434087996214
 20
-2.34470111607186
 30
0.0
 10
-5.958968316589562
 20
-2.267643130663032
 30
0.0
 10
-5.970296130392455
 20
-2.18579849787892
 30
0.0
  0
SPLINE
  5
20C4E
330
1F
100
AcDbEntity
  8
SK1
100
AcDbSpline
210
0.0
220
0.0
230
1.0
 70
     8
 71
     5
 72
    12
 73
     6
 74
     0
 42
0.000000001
 43
0.0000000001
 40
0.0
 40
0.0
 40
0.0
 40
0.0
 40
0.0
 40
0.0
 40
1.074037148912565
 40
1.074037148912565
 40
1.074037148912565
 40
1.074037148912565
 40
1.074037148912565
 40
1.074037148912565
 10
-5.500350624916904
 20
-2.769847940177669
 30
0.0
 10
-5.516214455720671
 20
-2.769749592302218
 30
0.0
 10
-5.53207151026578
 20
-2.753960697195338
 30
0.0
 10
-5.547790529611177
 20
-2.722515557515748
 30
0.0
 10
-5.563279740718428
 20
-2.676809987536614
 30
0.0
 10
-5.578478959670462
 20
-2.618655145724915
 30
0.0
  0
ARC
  5
20C4F
330
1F
100
AcDbEntity
  8
SK1
100
AcDbCircle
 10
-1.479697999999928
 20
-1.668286217150352
 30
0.0
 40
4.208002999999998
100
AcDbArc
 50
186.8499420000004
 51
193.0542809999971
  0
LINE
  5
20C50
330
1F
100
AcDbEntity
  8
SK1
 48
0.002707
100
AcDbLine
 10
-5.387783999999953
 20
-2.747203217150399
 30
0.0
 11
-5.410572999999942
 21
-2.641329217150428
 31
0.0
  0
SPLINE
  5
20C51
330
1F
100
AcDbEntity
  8
SK1
100
AcDbSpline
210
0.0
220
0.0
230
1.0
 70
     8
 71
     5
 72
    18
 73
    12
 74
     0
 42
0.000000001
 43
0.0000000001
 40
0.0
 40
0.0
 40
0.0
 40
0.0
 40
0.0
 40
0.0
 40
3.692063142024609
 40
3.692063142024609
 40
3.692063142024609
 40
8.723742470528296
 40
8.723742470528296
 40
8.723742470528296
 40
9.575525855285773
 40
9.575525855285773
 40
9.575525855285773
 40
9.575525855285773
 40
9.575525855285773
 40
9.575525855285773
 10
-5.410573438346148
 20
-2.641329525683318
 30
0.0
 10
-5.459435279528918
 20
-2.387664197225092
 30
0.0
 10
-5.505253395512625
 20
-2.006539597808966
 30
0.0
 10
-5.548525532990595
 20
-1.555957005828645
 30
0.0
 10
-5.644042248544337
 20
-0.4525325421650451
 30
0.0
 10
-5.735275201078309
 20
0.7199852657138309
 30
0.0
 10
-5.790043560667697
 20
1.388448881931708
 30
0.0
 10
-5.857942936155325
 20
2.111371013356347
 30
0.0
 10
-5.93421283406468
 20
2.581102287251098
 30
0.0
 10
-5.94549473736049
 20
2.643396548401369
 30
0.0
 10
-5.956884106597385
 20
2.698436105393284
 30
0.0
 10
-5.968417369784731
 20
2.74579708248433
 30
0.0
  0
LINE
  5
20C52
330
1F
100
AcDbEntity
  8
SK1
 48
0.002095
100
AcDbLine
 10
-5.968416999999931
 20
2.745796782849595
 30
0.0
 11
-5.991208999999969
 21
2.826428782849575
 31
0.0
  0
SPLINE
  5
20C53
330
1F
100
AcDbEntity
  8
SK1
100
AcDbSpline
210
0.0
220
0.0
230
1.0
 70
     8
 71
     5
 72
    15
 73
     9
 74
     0
 42
0.000000001
 43
0.0000000001
 40
0.0
 40
0.0
 40
0.0
 40
0.0
 40
0.0
 40
0.0
 40
2.744451235983823
 40
2.744451235983823
 40
2.744451235983823
 40
3.73073372216485
 40
3.73073372216485
 40
3.73073372216485
 40
3.73073372216485
 40
3.73073372216485
 40
3.73073372216485
 10
-4.831342279601187
 20
1.309065089554053
 30
0.0
 10
-4.863886149268694
 20
1.645662602668267
 30
0.0
 10
-4.897643205080555
 20
1.964863525266196
 30
0.0
 10
-4.933921497159701
 20
2.260712611574945
 30
0.0
 10
-4.985891346526102
 20
2.577099420490867
 30
0.0
 10
-5.041146454030524
 20
2.729425206419477
 30
0.0
 10
-5.055928940916089
 20
2.756849870889311
 30
0.0
 10
-5.070810390293445
 20
2.770436849388374
 30
0.0
 10
-5.085685818503918
 20
2.770217444438117
 30
0.0
  0
LINE
  5
20C54
330
1F
100
AcDbEntity
  8
SK1
 48
0.008095
100
AcDbLine
 10
-4.508320999999966
 20
1.331230782849615
 30
0.0
 11
-4.831341999999892
 21
1.309064782849645
 31
0.0
  0
SPLINE
  5
20C55
330
1F
100
AcDbEntity
  8
SK1
100
AcDbSpline
210
0.0
220
0.0
230
1.0
 70
     8
 71
     5
 72
    15
 73
     9
 74
     0
 42
0.000000001
 43
0.0000000001
 40
0.0
 40
0.0
 40
0.0
 40
0.0
 40
0.0
 40
0.0
 40
2.76424950914364
 40
2.76424950914364
 40
2.76424950914364
 40
3.764330652173783
 40
3.764330652173783
 40
3.764330652173783
 40
3.764330652173783
 40
3.764330652173783
 40
3.764330652173783
 10
-4.508303917210071
 20
1.331250861763237
 30
0.0
 10
-4.540786613724151
 20
1.666275663794635
 30
0.0
 10
-4.574392505317973
 20
1.981101563446941
 30
0.0
 10
-4.610261770306749
 20
2.270163672934984
 30
0.0
 10
-4.661622829368297
 20
2.579622625458227
 30
0.0
 10
-4.716103967209846
 20
2.729254606593428
 30
0.0
 10
-4.730750477424123
 20
2.756417490614808
 30
0.0
 10
-4.745499665729028
 20
2.770012394187745
 30
0.0
 10
-4.760253632292403
 20
2.77001865960176
 30
0.0
  0
LINE
  5
20C56
330
1F
100
AcDbEntity
  8
SK1
 48
0.001766
100
AcDbLine
 10
-5.368995999999924
 20
-2.815297217150373
 30
0.0
 11
-5.387783999999953
 21
-2.747203217150399
 31
0.0
  0
SPLINE
  5
20C57
330
1F
100
AcDbEntity
  8
SK1
100
AcDbSpline
210
0.0
220
0.0
230
1.0
 70
     8
 71
     5
 72
    18
 73
    12
 74
     0
 42
0.000000001
 43
0.0000000001
 40
0.0
 40
0.0
 40
0.0
 40
0.0
 40
0.0
 40
0.0
 40
1.765169951909749
 40
1.765169951909749
 40
1.765169951909749
 40
3.295558654135756
 40
3.295558654135756
 40
3.295558654135756
 40
3.382113376339138
 40
3.382113376339138
 40
3.382113376339138
 40
3.382113376339138
 40
3.382113376339138
 40
3.382113376339138
 10
-5.83317171978507
 20
2.413727016022505
 30
0.0
 10
-5.853773678889581
 20
2.583071617943119
 30
0.0
 10
-5.875026552282918
 20
2.73478561313226
 30
0.0
 10
-5.897057509096157
 20
2.864142419069821
 30
0.0
 10
-5.939403511189027
 20
3.048193636591463
 30
0.0
 10
-5.983226302067407
 20
3.109273318729947
 30
0.0
 10
-6.003661938625043
 20
3.107922924748436
 30
0.0
 10
-6.025138216668949
 20
3.075286672388642
 30
0.0
 10
-6.046244315183059
 20
3.013373579033554
 30
0.0
 10
-6.04737312019597
 20
3.009975782117976
 30
0.0
 10
-6.048500714521196
 20
3.006495523170769
 30
0.0
 10
-6.049627160363854
 20
3.002933138870503
 30
0.0
  0
LINE
  5
20C58
330
1F
100
AcDbEntity
  8
SK1
 48
0.000257
100
AcDbLine
 10
-5.923899999999946
 20
3.180001782849615
 30
0.0
 11
-5.933782999999891
 21
3.177138782849624
 31
0.0
  0
LINE
  5
20C59
330
1F
100
AcDbEntity
  8
SK1
 48
0.013087
100
AcDbLine
 10
-5.400411999999903
 20
3.180001782849615
 30
0.0
 11
-5.923899999999946
 21
3.180001782849615
 31
0.0
  0
SPLINE
  5
20C5A
330
1F
100
AcDbEntity
  8
SK1
100
AcDbSpline
210
0.0
220
0.0
230
1.0
 70
     8
 71
     5
 72
    15
 73
     9
 74
     0
 42
0.000000001
 43
0.0000000001
 40
0.0
 40
0.0
 40
0.0
 40
0.0
 40
0.0
 40
0.0
 40
3.524360931906417
 40
3.524360931906417
 40
3.524360931906417
 40
4.229824835709116
 40
4.229824835709116
 40
4.229824835709116
 40
4.229824835709116
 40
4.229824835709116
 40
4.229824835709116
 10
-4.953717045601649
 20
0.5721761178419343
 30
0.0
 10
-4.992481197371091
 20
1.042356200638664
 30
0.0
 10
-5.031987279651104
 20
1.502168520104305
 30
0.0
 10
-5.074007465949478
 20
1.944760454644779
 30
0.0
 10
-5.127465759932817
 20
2.40545632612293
 30
0.0
 10
-5.185946159812658
 20
2.699992604186491
 30
0.0
 10
-5.19589073003857
 20
2.744206835926206
 30
0.0
 10
-5.205909045750388
 20
2.782477258653102
 30
0.0
 10
-5.216034336006543
 20
2.814589211028078
 30
0.0
  0
LINE
  5
20C5B
330
1F
100
AcDbEntity
  8
SK1
 48
0.021077
100
AcDbLine
 10
-4.885402999999939
 20
-0.268150217150378
 30
0.0
 11
-4.953716999999926
 21
0.5721757828496266
 31
0.0
  0
ARC
  5
20C5C
330
1F
100
AcDbEntity
  8
SK1
100
AcDbCircle
 10
-142.0085259999999
 20
-11.48830221715036
 30
0.0
 40
137.773076
100
AcDbArc
 50
4.68180800000103
 51
5.32974199999993
  0
SPLINE
  5
20C5D
330
1F
100
AcDbEntity
  8
SK1
100
AcDbSpline
210
0.0
220
0.0
230
1.0
 70
     8
 71
     5
 72
    15
 73
     9
 74
     0
 42
0.000000001
 43
0.0000000001
 40
0.0
 40
0.0
 40
0.0
 40
0.0
 40
0.0
 40
0.0
 40
3.228632789720652
 40
3.228632789720652
 40
3.228632789720652
 40
3.884558938544915
 40
3.884558938544915
 40
3.884558938544915
 40
3.884558938544915
 40
3.884558938544915
 40
3.884558938544915
 10
-5.043462053692508
 20
1.039345668579017
 30
0.0
 10
-5.077542720985547
 20
1.461065477586316
 30
0.0
 10
-5.11257548643573
 20
1.867819919781595
 30
0.0
 10
-5.149872710186684
 20
2.25367081065201
 30
0.0
 10
-5.197343835315678
 20
2.648469898772077
 30
0.0
 10
-5.248555449031584
 20
2.901766023829281
 30
0.0
 10
-5.25734498670323
 20
2.940287081877158
 30
0.0
 10
-5.266189428037421
 20
2.973822230306041
 30
0.0
 10
-5.275113013673944
 20
3.002228122485462
 30
0.0
  0
LINE
  5
20C5E
330
1F
100
AcDbEntity
  8
SK1
 48
0.010835
100
AcDbLine
 10
-5.009285999999917
 20
0.607289782849648
 30
0.0
 11
-5.043461999999919
 21
1.039345782849636
 31
0.0
  0
SPLINE
  5
20C5F
330
1F
100
AcDbEntity
  8
SK1
100
AcDbSpline
210
0.0
220
0.0
230
1.0
 70
     8
 71
     5
 72
    18
 73
    12
 74
     0
 42
0.000000001
 43
0.0000000001
 40
0.0
 40
0.0
 40
0.0
 40
0.0
 40
0.0
 40
0.0
 40
1.386434338688322
 40
1.386434338688322
 40
1.386434338688322
 40
4.074623362236305
 40
4.074623362236305
 40
4.074623362236305
 40
5.394501345713676
 40
5.394501345713676
 40
5.394501345713676
 40
5.394501345713676
 40
5.394501345713676
 40
5.394501345713676
 10
-4.34543394033966
 20
-2.770279688172138
 30
0.0
 10
-4.366336633498519
 20
-2.770304962455043
 30
0.0
 10
-4.387239741785663
 20
-2.743056853214511
 30
0.0
 10
-4.407835902251747
 20
-2.688498462628899
 30
0.0
 10
-4.466926021830147
 20
-2.460355644149558
 30
0.0
 10
-4.521344626133327
 20
-2.067891408304035
 30
0.0
 10
-4.555458306925004
 20
-1.763759376570703
 30
0.0
 10
-4.603616694165282
 20
-1.280492742638671
 30
0.0
 10
-4.649800829065611
 20
-0.7641956390771157
 30
0.0
 10
-4.664861526304832
 20
-0.591682887239017
 30
0.0
 10
-4.679818942654719
 20
-0.4176733785495799
 30
0.0
 10
-4.694731969853592
 20
-0.2429457235672316
 30
0.0
  0
SPLINE
  5
20C60
330
1F
100
AcDbEntity
  8
SK1
100
AcDbSpline
210
0.0
220
0.0
230
1.0
 70
     8
 71
     5
 72
    18
 73
    12
 74
     0
 42
0.000000001
 43
0.0000000001
 40
0.0
 40
0.0
 40
0.0
 40
0.0
 40
0.0
 40
0.0
 40
1.425641965749925
 40
1.425641965749925
 40
1.425641965749925
 40
4.179958144538889
 40
4.179958144538889
 40
4.179958144538889
 40
5.524364184901663
 40
5.524364184901663
 40
5.524364184901663
 40
5.524364184901663
 40
5.524364184901663
 40
5.524364184901663
 10
-4.020231248805032
 20
-2.770141523884944
 30
0.0
 10
-4.0412222834222
 20
-2.770096730177101
 30
0.0
 10
-4.062206218281573
 20
-2.742548816973226
 30
0.0
 10
-4.082897942653005
 20
-2.68753525779141
 30
0.0
 10
-4.142204757139495
 20
-2.457644085206425
 30
0.0
 10
-4.197054769629232
 20
-2.061058191499398
 30
0.0
 10
-4.231474699560976
 20
-1.753062945541898
 30
0.0
 10
-4.28000804109962
 20
-1.263797462709703
 30
0.0
 10
-4.326575900194882
 20
-0.7415829090566604
 30
0.0
 10
-4.341701909229584
 20
-0.5679238541695213
 30
0.0
 10
-4.356725802907419
 20
-0.3929662295070102
 30
0.0
 10
-4.371707231428274
 20
-0.2176718602351002
 30
0.0
  0
ARC
  5
20C61
330
1F
100
AcDbEntity
  8
SK1
100
AcDbCircle
 10
-137.8509619999999
 20
-11.15033321715043
 30
0.0
 40
133.925803
100
AcDbArc
 50
4.682376999999254
 51
5.347607999999569
  0
ARC
  5
20C62
330
1F
100
AcDbEntity
  8
SK1
100
AcDbCircle
 10
-4.23726199999993
 20
-1.47962321715039
 30
0.0
 40
1.268515
100
AcDbArc
 50
87.45818100000022
 51
96.08122300000088
  0
ARC
  5
20C63
330
1F
100
AcDbEntity
  8
SK1
100
AcDbCircle
 10
-116.0370309999999
 20
-8.764161217150387
 30
0.0
 40
112.181698
100
AcDbArc
 50
4.371637999999495
 51
5.327776000001072
  0
SPLINE
  5
20C64
330
1F
100
AcDbEntity
  8
SK1
100
AcDbSpline
210
0.0
220
0.0
230
1.0
 70
     8
 71
     5
 72
    18
 73
    12
 74
     0
 42
0.000000001
 43
0.0000000001
 40
0.0
 40
0.0
 40
0.0
 40
0.0
 40
0.0
 40
0.0
 40
2.293515806045875
 40
2.293515806045875
 40
2.293515806045875
 40
3.68890743668508
 40
3.68890743668508
 40
3.68890743668508
 40
4.268482279140433
 40
4.268482279140433
 40
4.268482279140433
 40
4.268482279140433
 40
4.268482279140433
 40
4.268482279140433
 10
-4.340419796857133
 20
1.652237654423629
 30
0.0
 10
-4.366691920922619
 20
1.919277189760123
 30
0.0
 10
-4.393829412459638
 20
2.17005613698808
 30
0.0
 10
-4.42234446207766
 20
2.398838657219016
 30
0.0
 10
-4.470225629746607
 20
2.702875783203012
 30
0.0
 10
-4.521109061742151
 20
2.867992646113691
 30
0.0
 10
-4.540684067689824
 20
2.907059172838387
 30
0.0
 10
-4.568625192444017
 20
2.925528593193178
 30
0.0
 10
-4.596407040356268
 20
2.893403062849074
 30
0.0
 10
-4.604567270199083
 20
2.879600829923333
 30
0.0
 10
-4.612648202534785
 20
2.861687301548101
 30
0.0
 10
-4.62067546505051
 20
2.839801185149326
 30
0.0
  0
SPLINE
  5
20C65
330
1F
100
AcDbEntity
  8
SK1
100
AcDbSpline
210
0.0
220
0.0
230
1.0
 70
     8
 71
     5
 72
    18
 73
    12
 74
     0
 42
0.000000001
 43
0.0000000001
 40
0.0
 40
0.0
 40
0.0
 40
0.0
 40
0.0
 40
0.0
 40
2.382112407518633
 40
2.382112407518633
 40
2.382112407518633
 40
8.063239480575973
 40
8.063239480575973
 40
8.063239480575973
 40
9.037231641014953
 40
9.037231641014953
 40
9.037231641014953
 40
9.037231641014953
 40
9.037231641014953
 40
9.037231641014953
 10
-5.30946236229812
 20
-3.003504637398577
 30
0.0
 10
-5.34044629265486
 20
-2.905947462150038
 30
0.0
 10
-5.37059811939855
 20
-2.74614975522337
 30
0.0
 10
-5.399544764699157
 20
-2.535362510587731
 30
0.0
 10
-5.492440507149694
 20
-1.724216492262826
 30
0.0
 10
-5.574066568972114
 20
-0.6567201482359906
 30
0.0
 10
-5.629452451967324
 20
0.0985467813318337
 30
0.0
 10
-5.695318936535784
 20
0.9963281687611242
 30
0.0
 10
-5.766742649877073
 20
1.782668962342654
 30
0.0
 10
-5.777345741809597
 20
1.895055496288307
 30
0.0
 10
-5.788088755348667
 20
2.003904814605164
 30
0.0
 10
-5.799000884183385
 20
2.108670080486035
 30
0.0
  0
LINE
  5
20C66
330
1F
100
AcDbEntity
  8
SK1
 48
0.007674
100
AcDbLine
 10
-5.799000999999918
 20
2.108669782849574
 30
0.0
 11
-5.833171999999933
 21
2.413726782849607
 31
0.0
  0
SPLINE
  5
20C67
330
1F
100
AcDbEntity
  8
SK1
100
AcDbSpline
210
0.0
220
0.0
230
1.0
 70
     8
 71
     5
 72
    15
 73
     9
 74
     0
 42
0.000000001
 43
0.0000000001
 40
0.0
 40
0.0
 40
0.0
 40
0.0
 40
0.0
 40
0.0
 40
1.811835303578464
 40
1.811835303578464
 40
1.811835303578464
 40
2.852968908818826
 40
2.852968908818826
 40
2.852968908818826
 40
2.852968908818826
 40
2.852968908818826
 40
2.852968908818826
 10
-5.730978089341476
 20
2.171182504346802
 30
0.0
 10
-5.752618217715223
 20
2.384196918529369
 30
0.0
 10
-5.775070909637747
 20
2.58228106369512
 30
0.0
 10
-5.798643959245225
 20
2.76142890380845
 30
0.0
 10
-5.837397551169999
 20
2.995240753711868
 30
0.0
 10
-5.878308469374871
 20
3.129414345443706
 30
0.0
 10
-5.89345684799116
 20
3.163139847022193
 30
0.0
 10
-5.908708458067451
 20
3.180001782849615
 30
0.0
 10
-5.923900435047642
 20
3.180001782849615
 30
0.0
  0
LINE
  5
20C68
330
1F
100
AcDbEntity
  8
SK1
 48
0.000267
100
AcDbLine
 10
-5.400411999999903
 20
3.180001782849615
 30
0.0
 11
-5.390152999999941
 21
3.176996782849641
 31
0.0
  0
SPLINE
  5
20C69
330
1F
100
AcDbEntity
  8
SK1
100
AcDbSpline
210
0.0
220
0.0
230
1.0
 70
     8
 71
     5
 72
    18
 73
    12
 74
     0
 42
0.000000001
 43
0.0000000001
 40
0.0
 40
0.0
 40
0.0
 40
0.0
 40
0.0
 40
0.0
 40
1.34062987908492
 40
1.34062987908492
 40
1.34062987908492
 40
4.074905981196311
 40
4.074905981196311
 40
4.074905981196311
 40
4.425517551536502
 40
4.425517551536502
 40
4.425517551536502
 40
4.425517551536502
 40
4.425517551536502
 40
4.425517551536502
 10
-5.390152776665729
 20
3.176997091914188
 30
0.0
 10
-5.370384746878528
 20
3.165418541253302
 30
0.0
 10
-5.350717368647508
 20
3.126018993774096
 30
0.0
 10
-5.331443442579768
 20
3.059619914612085
 30
0.0
 10
-5.274573587680549
 20
2.791098658530643
 30
0.0
 10
-5.223005073395256
 20
2.357230748226811
 30
0.0
 10
-5.190388550961699
 20
2.023040804052811
 30
0.0
 10
-5.155670215424436
 20
1.624623358282519
 30
0.0
 10
-5.122165883644527
 20
1.2079705005616
 30
0.0
 10
-5.11837233235667
 20
1.160397207710616
 30
0.0
 10
-5.114592482251623
 20
1.11262823968201
 30
0.0
 10
-5.110825081135828
 20
1.064677831012772
 30
0.0
  0
LINE
  5
20C6A
330
1F
100
AcDbEntity
  8
SK1
 48
0.000259
100
AcDbLine
 10
-5.18407099999996
 20
-3.179998217150398
 30
0.0
 11
-5.194010999999932
 21
-3.177132217150415
 31
0.0
  0
SPLINE
  5
20C6B
330
1F
100
AcDbEntity
  8
SK1
100
AcDbSpline
210
0.0
220
0.0
230
1.0
 70
     8
 71
     5
 72
    12
 73
     6
 74
     0
 42
0.000000001
 43
0.0000000001
 40
0.0
 40
0.0
 40
0.0
 40
0.0
 40
0.0
 40
0.0
 40
0.6509953382498451
 40
0.6509953382498451
 40
0.6509953382498451
 40
0.6509953382498451
 40
0.6509953382498451
 40
0.6509953382498451
 10
-5.194010797556586
 20
-3.177132525490037
 30
0.0
 10
-5.203543167267866
 20
-3.171640979000699
 30
0.0
 10
-5.213071786292459
 20
-3.159587031304909
 30
0.0
 10
-5.222635222714245
 20
-3.1408972404829
 30
0.0
 10
-5.232052025280893
 20
-3.116190412873038
 30
0.0
 10
-5.24137529540593
 20
-3.08576727956489
 30
0.0
  0
SPLINE
  5
20C6C
330
1F
100
AcDbEntity
  8
SK1
100
AcDbSpline
210
0.0
220
0.0
230
1.0
 70
     8
 71
     5
 72
    18
 73
    12
 74
     0
 42
0.000000001
 43
0.0000000001
 40
0.0
 40
0.0
 40
0.0
 40
0.0
 40
0.0
 40
0.0
 40
2.192757962522204
 40
2.192757962522204
 40
2.192757962522204
 40
6.713058542598183
 40
6.713058542598183
 40
6.713058542598183
 40
8.565735695790973
 40
8.565735695790973
 40
8.565735695790973
 40
8.565735695790973
 40
8.565735695790973
 40
8.565735695790973
 10
-5.24137529540593
 20
-3.085767279564834
 30
0.0
 10
-5.272779014606896
 20
-2.983292555266984
 30
0.0
 10
-5.303121435511684
 20
-2.815964975457291
 30
0.0
 10
-5.331957831536612
 20
-2.598615827802063
 30
0.0
 10
-5.414693090636149
 20
-1.855806134465126
 30
0.0
 10
-5.48678164162959
 20
-0.9235647660909762
 30
0.0
 10
-5.532243379199883
 20
-0.2995928372750995
 30
0.0
 10
-5.597629040900244
 20
0.6148845623819739
 30
0.0
 10
-5.666886167347286
 20
1.475767193923388
 30
0.0
 10
-5.687571809077496
 20
1.719940103829685
 30
0.0
 10
-5.708850155665061
 20
1.953366382938099
 30
0.0
 10
-5.730978089341476
 20
2.171182504346802
 30
0.0
  0
SPLINE
  5
20C6D
330
1F
100
AcDbEntity
  8
SK1
100
AcDbSpline
210
0.0
220
0.0
230
1.0
 70
     8
 71
     5
 72
    18
 73
    12
 74
     0
 42
0.000000001
 43
0.0000000001
 40
0.0
 40
0.0
 40
0.0
 40
0.0
 40
0.0
 40
0.0
 40
5.762109962266805
 40
5.762109962266805
 40
5.762109962266805
 40
7.110686590859987
 40
7.110686590859987
 40
7.110686590859987
 40
7.617853761954053
 40
7.617853761954053
 40
7.617853761954053
 40
7.617853761954053
 40
7.617853761954053
 40
7.617853761954053
 10
-5.110825081135828
 20
1.064677831012772
 30
0.0
 10
-5.048909898244971
 20
0.2766390129568208
 30
0.0
 10
-4.990356849606939
 20
-0.5604016387541151
 30
0.0
 10
-4.931158932241771
 20
-1.362234678361687
 30
0.0
 10
-4.851135104417892
 20
-2.355737474419299
 30
0.0
 10
-4.75520090563549
 20
-2.938040317177637
 30
0.0
 10
-4.736370392107346
 20
-3.030247330241707
 30
0.0
 10
-4.709746669771789
 20
-3.124291929537719
 30
0.0
 10
-4.682548429153314
 20
-3.167948022943448
 30
0.0
 10
-4.675047224697607
 20
-3.175997858650362
 30
0.0
 10
-4.667568886874903
 20
-3.179998217150455
 30
0.0
 10
-4.660091434602009
 20
-3.179998217150398
 30
0.0
  0
LINE
  5
20C6E
330
1F
100
AcDbEntity
  8
SK1
 48
0.013099
100
AcDbLine
 10
-4.660090999999908
 20
-3.179998217150398
 30
0.0
 11
-5.18407099999996
 21
-3.179998217150398
 31
0.0
  0
SPLINE
  5
20C6F
330
1F
100
AcDbEntity
  8
SK1
100
AcDbSpline
210
0.0
220
0.0
230
1.0
 70
     8
 71
     5
 72
    18
 73
    12
 74
     0
 42
0.000000001
 43
0.0000000001
 40
0.0
 40
0.0
 40
0.0
 40
0.0
 40
0.0
 40
0.0
 40
1.84994950910528
 40
1.84994950910528
 40
1.84994950910528
 40
4.096773204722273
 40
4.096773204722273
 40
4.096773204722273
 40
8.017491890933667
 40
8.017491890933667
 40
8.017491890933667
 40
8.017491890933667
 40
8.017491890933667
 40
8.017491890933667
 10
-4.535265368032014
 20
-3.00281837015558
 30
0.0
 10
-4.560462430191478
 20
-3.082919795159682
 30
0.0
 10
-4.586301392306324
 20
-3.122102103139525
 30
0.0
 10
-4.612232326751325
 20
-3.112161372609989
 30
0.0
 10
-4.669008396065976
 20
-2.985154469480107
 30
0.0
 10
-4.722206835383246
 20
-2.669037293021233
 30
0.0
 10
-4.750112454232294
 20
-2.452201970771682
 30
0.0
 10
-4.822761845790182
 20
-1.789941374253203
 30
0.0
 10
-4.888351940163033
 20
-0.9839807193059186
 30
0.0
 10
-4.928745160234655
 20
-0.4531282620648654
 30
0.0
 10
-4.96863085033334
 20
0.0843994071082079
 30
0.0
 10
-5.009285748383433
 20
0.6072902692500293
 30
0.0
  0
SPLINE
  5
20C70
330
1F
100
AcDbEntity
  8
SK1
100
AcDbSpline
210
0.0
220
0.0
230
1.0
 70
     8
 71
     5
 72
    18
 73
    12
 74
     0
 42
0.000000001
 43
0.0000000001
 40
0.0
 40
0.0
 40
0.0
 40
0.0
 40
0.0
 40
0.0
 40
1.473905063607021
 40
1.473905063607021
 40
1.473905063607021
 40
3.225195559065815
 40
3.225195559065815
 40
3.225195559065815
 40
6.262791940640387
 40
6.262791940640387
 40
6.262791940640387
 40
6.262791940640387
 40
6.262791940640387
 40
6.262791940640387
 10
-4.484492567976019
 20
-2.839884251485784
 30
0.0
 10
-4.505776347336507
 20
-2.898172247713546
 30
0.0
 10
-4.527467382625047
 20
-2.928561574831974
 30
0.0
 10
-4.549260817230901
 20
-2.927002173458276
 30
0.0
 10
-4.596635845903222
 20
-2.85424261956598
 30
0.0
 10
-4.641961180242731
 20
-2.649790798727906
 30
0.0
 10
-4.665726368472576
 20
-2.506225407142324
 30
0.0
 10
-4.727997378850375
 20
-2.053808343832429
 30
0.0
 10
-4.784540877429492
 20
-1.472736431010275
 30
0.0
 10
-4.818889817414458
 20
-1.080099666775822
 30
0.0
 10
-4.852270934192063
 20
-0.6752230187385067
 30
0.0
 10
-4.885402750323748
 20
-0.268150587210414
 30
0.0
  0
LINE
  5
20C71
330
1F
100
AcDbEntity
  8
SK1
 48
0.000266
100
AcDbLine
 10
-4.660090999999908
 20
-3.179998217150398
 30
0.0
 11
-4.649892999999963
 21
-3.17699921715041
 31
0.0
  0
SPLINE
  5
20C72
330
1F
100
AcDbEntity
  8
SK1
100
AcDbSpline
210
0.0
220
0.0
230
1.0
 70
     8
 71
     5
 72
    15
 73
     9
 74
     0
 42
0.000000001
 43
0.0000000001
 40
0.0
 40
0.0
 40
0.0
 40
0.0
 40
0.0
 40
0.0
 40
2.255633239306849
 40
2.255633239306849
 40
2.255633239306849
 40
4.934815753355584
 40
4.934815753355584
 40
4.934815753355584
 40
4.934815753355584
 40
4.934815753355584
 40
4.934815753355584
 10
-3.889011981816963
 20
-2.815295052920191
 30
0.0
 10
-3.920082419973084
 20
-2.717478322879856
 30
0.0
 10
-3.950243431692513
 20
-2.561332366815747
 30
0.0
 10
-3.979175145365388
 20
-2.358277574377609
 30
0.0
 10
-4.039206861861828
 20
-1.85615821229976
 30
0.0
 10
-4.094605076333266
 20
-1.255781502778518
 30
0.0
 10
-4.123856100982663
 20
-0.9138783379627284
 30
0.0
 10
-4.152506536952103
 20
-0.5645834199410729
 30
0.0
 10
-4.181024821005905
 20
-0.2130071170748806
 30
0.0
  0
LINE
  5
20C73
330
1F
100
AcDbEntity
  8
SK1
 48
0.01077
100
AcDbLine
 10
-4.193739999999934
 20
0.6697757828495697
 30
0.0
 11
-4.227922999999918
 21
1.099202782849602
 31
0.0
  0
SPLINE
  5
20C74
330
1F
100
AcDbEntity
  8
SK1
100
AcDbSpline
210
0.0
220
0.0
230
1.0
 70
     8
 71
     5
 72
    18
 73
    12
 74
     0
 42
0.000000001
 43
0.0000000001
 40
0.0
 40
0.0
 40
0.0
 40
0.0
 40
0.0
 40
0.0
 40
3.633919366889876
 40
3.633919366889876
 40
3.633919366889876
 40
5.198667968024559
 40
5.198667968024559
 40
5.198667968024559
 40
5.642153129495066
 40
5.642153129495066
 40
5.642153129495066
 40
5.642153129495066
 40
5.642153129495066
 40
5.642153129495066
 10
-4.22792263745913
 20
1.099202734359437
 30
0.0
 10
-4.265389096828641
 20
1.558321949057813
 30
0.0
 10
-4.30405282204282
 20
1.999238537889198
 30
0.0
 10
-4.346051980326706
 20
2.41734308390977
 30
0.0
 10
-4.409515478474133
 20
2.886014855929488
 30
0.0
 10
-4.477944397071894
 20
3.078594149869331
 30
0.0
 10
-4.498824353251904
 20
3.107206792821898
 30
0.0
 10
-4.525731774843393
 20
3.103303982475722
 30
0.0
 10
-4.552303465533327
 20
3.050835415747656
 30
0.0
 10
-4.558162927522459
 20
3.036893469095787
 30
0.0
 10
-4.563982786016424
 20
3.020728569953575
 30
0.0
 10
-4.569772490778802
 20
3.002393500106677
 30
0.0
  0
SPLINE
  5
20C75
330
1F
100
AcDbEntity
  8
SK1
100
AcDbSpline
210
0.0
220
0.0
230
1.0
 70
     8
 71
     5
 72
    18
 73
    12
 74
     0
 42
0.000000001
 43
0.0000000001
 40
0.0
 40
0.0
 40
0.0
 40
0.0
 40
0.0
 40
0.0
 40
2.912752564807181
 40
2.912752564807181
 40
2.912752564807181
 40
4.142048776320589
 40
4.142048776320589
 40
4.142048776320589
 40
4.460722570597743
 40
4.460722570597743
 40
4.460722570597743
 40
4.460722570597743
 40
4.460722570597743
 40
4.460722570597743
 10
-4.159325148866116
 20
1.134777441735877
 30
0.0
 10
-4.190784431329859
 20
1.531289407118833
 30
0.0
 10
-4.223178178855619
 20
1.914236729976778
 30
0.0
 10
-4.257499705152042
 20
2.278587819292738
 30
0.0
 10
-4.309372829458311
 20
2.733891152834871
 30
0.0
 10
-4.366655556901207
 20
3.024312555055416
 30
0.0
 10
-4.384136487913735
 20
3.092954835339924
 30
0.0
 10
-4.406603487357131
 20
3.152290137052546
 30
0.0
 10
-4.429320797938771
 20
3.175255621840051
 30
0.0
 10
-4.434014055717966
 20
3.17842230318422
 30
0.0
 10
-4.438701009328326
 20
3.180001782849615
 30
0.0
 10
-4.443387282165417
 20
3.180001782849615
 30
0.0
  0
LINE
  5
20C76
330
1F
100
AcDbEntity
  8
SK1
 48
0.00026
100
AcDbLine
 10
-4.443386999999916
 20
3.180001782849615
 30
0.0
 11
-4.453392999999948
 21
3.177143782849611
 31
0.0
  0
LINE
  5
20C77
330
1F
100
AcDbEntity
  8
SK1
 48
0.013082
100
AcDbLine
 10
-3.920112999999957
 20
3.180001782849615
 30
0.0
 11
-4.443386999999916
 21
3.180001782849615
 31
0.0
  0
SPLINE
  5
20C78
330
1F
100
AcDbEntity
  8
SK1
100
AcDbSpline
210
0.0
220
0.0
230
1.0
 70
     8
 71
     5
 72
    18
 73
    12
 74
     0
 42
0.000000001
 43
0.0000000001
 40
0.0
 40
0.0
 40
0.0
 40
0.0
 40
0.0
 40
0.0
 40
3.446177326421781
 40
3.446177326421781
 40
3.446177326421781
 40
6.642217995743227
 40
6.642217995743227
 40
6.642217995743227
 40
7.919057203614088
 40
7.919057203614088
 40
7.919057203614088
 40
7.919057203614088
 40
7.919057203614088
 40
7.919057203614088
 10
-3.112268513332139
 20
-1.383306406133783
 30
0.0
 10
-3.153360958522114
 20
-0.9652144194703851
 30
0.0
 10
-3.19258950939087
 20
-0.5119619358301862
 30
0.0
 10
-3.230179041076155
 20
-0.0613898065473677
 30
0.0
 10
-3.304447113205128
 20
0.8280191494245627
 30
0.0
 10
-3.382771091830761
 20
1.6520610278763
 30
0.0
 10
-3.423103917068544
 20
2.029606040475982
 30
0.0
 10
-3.482815841388458
 20
2.469344032455865
 30
0.0
 10
-3.547962290207749
 20
2.701218864783697
 30
0.0
 10
-3.566939344246065
 20
2.747304246876637
 30
0.0
 10
-3.586147294291151
 20
2.770310499673428
 30
0.0
 10
-3.605346050677439
 20
2.77033331038092
 30
0.0
  0
SPLINE
  5
20C79
330
1F
100
AcDbEntity
  8
SK1
100
AcDbSpline
210
0.0
220
0.0
230
1.0
 70
     8
 71
     5
 72
    18
 73
    12
 74
     0
 42
0.000000001
 43
0.0000000001
 40
0.0
 40
0.0
 40
0.0
 40
0.0
 40
0.0
 40
0.0
 40
3.473654137044461
 40
3.473654137044461
 40
3.473654137044461
 40
6.701071503844461
 40
6.701071503844461
 40
6.701071503844461
 40
8.000241250835131
 40
8.000241250835131
 40
8.000241250835131
 40
8.000241250835131
 40
8.000241250835131
 40
8.000241250835131
 10
-2.789260018795459
 20
-1.36115365260423
 30
0.0
 10
-2.830054509404646
 20
-0.9436469220496519
 30
0.0
 10
-2.869063890370284
 20
-0.4925670037224564
 30
0.0
 10
-2.906776939384087
 20
-0.0402422275539038
 30
0.0
 10
-2.980803165596114
 20
0.8454637480265319
 30
0.0
 10
-3.058848930604824
 20
1.66403410156596
 30
0.0
 10
-3.099043015791323
 20
2.03859385813098
 30
0.0
 10
-3.158539828527352
 20
2.473468587746083
 30
0.0
 10
-3.223135589617243
 20
2.701954850138463
 30
0.0
 10
-3.242028548563041
 20
2.747457577761565
 30
0.0
 10
-3.261132312879738
 20
2.77012240433396
 30
0.0
 10
-3.280220633111923
 20
2.770126521894212
 30
0.0
  0
ARC
  5
20C7A
330
1F
100
AcDbEntity
  8
SK1
100
AcDbCircle
 10
-3.005653999999935
 20
2.807607782849572
 30
0.0
 40
0.137955
100
AcDbArc
 50
133.0743980000011
 51
166.1893910000002
  0
SPLINE
  5
20C7B
330
1F
100
AcDbEntity
  8
SK1
100
AcDbSpline
210
0.0
220
0.0
230
1.0
 70
     8
 71
     5
 72
    15
 73
     9
 74
     0
 42
0.000000001
 43
0.0000000001
 40
0.0
 40
0.0
 40
0.0
 40
0.0
 40
0.0
 40
0.0
 40
2.36497506687838
 40
2.36497506687838
 40
2.36497506687838
 40
6.642284648515611
 40
6.642284648515611
 40
6.642284648515611
 40
6.642284648515611
 40
6.642284648515611
 40
6.642284648515611
 10
-3.829600109444584
 20
-3.003060374907477
 30
0.0
 10
-3.860477636468601
 20
-2.905465783595218
 30
0.0
 10
-3.890466827612101
 20
-2.746134374257678
 30
0.0
 10
-3.919236142187287
 20
-2.536955987797114
 30
0.0
 10
-3.995910359713434
 20
-1.868911134716938
 30
0.0
 10
-4.064938918538189
 20
-1.025426735679047
 30
0.0
 10
-4.107930031919693
 20
-0.4597805604862515
 30
0.0
 10
-4.150390657502441
 20
0.1138873577498884
 30
0.0
 10
-4.193740444578963
 20
0.6697756485046967
 30
0.0
  0
LINE
  5
20C7C
330
1F
100
AcDbEntity
  8
SK1
 48
0.000262
100
AcDbLine
 10
-3.703679999999906
 20
-3.179998217150398
 30
0.0
 11
-3.713741999999967
 21
-3.177099217150384
 31
0.0
  0
SPLINE
  5
20C7D
330
1F
100
AcDbEntity
  8
SK1
100
AcDbSpline
210
0.0
220
0.0
230
1.0
 70
     8
 71
     5
 72
    15
 73
     9
 74
     0
 42
0.000000001
 43
0.0000000001
 40
0.0
 40
0.0
 40
0.0
 40
0.0
 40
0.0
 40
0.0
 40
1.653137831996248
 40
1.653137831996248
 40
1.653137831996248
 40
7.575514728591683
 40
7.575514728591683
 40
7.575514728591683
 40
7.575514728591683
 40
7.575514728591683
 40
7.575514728591683
 10
-3.713741714102297
 20
-3.177098777172261
 30
0.0
 10
-3.738079564515032
 20
-3.163072678785056
 30
0.0
 10
-3.76226618561742
 20
-3.106734992464907
 30
0.0
 10
-3.785777106904049
 20
-3.009557162225689
 30
0.0
 10
-3.889086653018864
 20
-2.42844169125999
 30
0.0
 10
-3.974240228135556
 20
-1.363105061386818
 30
0.0
 10
-4.035258450507342
 20
-0.5337187072675534
 30
0.0
 10
-4.095360317147026
 20
0.3285663919610897
 30
0.0
 10
-4.159325148866116
 20
1.134777441735877
 30
0.0
  0
LINE
  5
20C7E
330
1F
100
AcDbEntity
  8
SK1
 48
0.00027
100
AcDbLine
 10
-3.920112999999957
 20
3.180001782849615
 30
0.0
 11
-3.909751999999969
 21
3.176948782849649
 31
0.0
  0
SPLINE
  5
20C7F
330
1F
100
AcDbEntity
  8
SK1
100
AcDbSpline
210
0.0
220
0.0
230
1.0
 70
     8
 71
     5
 72
    18
 73
    12
 74
     0
 42
0.000000001
 43
0.0000000001
 40
0.0
 40
0.0
 40
0.0
 40
0.0
 40
0.0
 40
0.0
 40
1.758563157706125
 40
1.758563157706125
 40
1.758563157706125
 40
6.764968375424523
 40
6.764968375424523
 40
6.764968375424523
 40
8.075236558010299
 40
8.075236558010299
 40
8.075236558010299
 40
8.075236558010299
 40
8.075236558010299
 40
8.075236558010299
 10
-3.909751585656579
 20
3.176948638671944
 30
0.0
 10
-3.883778136178648
 20
3.161639142833905
 30
0.0
 10
-3.858014654923749
 20
3.09846395891293
 30
0.0
 10
-3.833063865463884
 20
2.989217411719607
 30
0.0
 10
-3.741480386707905
 20
2.446155342560359
 30
0.0
 10
-3.664267147654641
 20
1.539718695486442
 30
0.0
 10
-3.61153951875957
 20
0.8455556089847391
 30
0.0
 10
-3.546610868249217
 20
-0.0610336696223612
 30
0.0
 10
-3.479559031158032
 20
-0.9384154457561635
 30
0.0
 10
-3.465502130159393
 20
-1.118538047742731
 30
0.0
 10
-3.451260146120205
 20
-1.295786267031701
 30
0.0
 10
-3.436766200150202
 20
-1.469132802436604
 30
0.0
  0
SPLINE
  5
20C80
330
1F
100
AcDbEntity
  8
SK1
100
AcDbSpline
210
0.0
220
0.0
230
1.0
 70
     8
 71
     5
 72
    18
 73
    12
 74
     0
 42
0.000000001
 43
0.0000000001
 40
0.0
 40
0.0
 40
0.0
 40
0.0
 40
0.0
 40
0.0
 40
2.571093864197724
 40
2.571093864197724
 40
2.571093864197724
 40
3.828027290359695
 40
3.828027290359695
 40
3.828027290359695
 40
3.964749362507004
 40
3.964749362507004
 40
3.964749362507004
 40
3.964749362507004
 40
3.964749362507004
 40
3.964749362507004
 10
-3.436766200150202
 20
-1.469132802436604
 30
0.0
 10
-3.40832523207456
 20
-1.809284703767161
 30
0.0
 10
-3.378914041441078
 20
-2.134412311124833
 30
0.0
 10
-3.347746221108025
 20
-2.440113566861782
 30
0.0
 10
-3.298654335044375
 20
-2.832435094955314
 30
0.0
 10
-3.245064594855136
 20
-3.072347111113458
 30
0.0
 10
-3.227011653292095
 20
-3.131276800961359
 30
0.0
 10
-3.206652864526347
 20
-3.170238135853765
 30
0.0
 10
-3.186214416138398
 20
-3.179125699659152
 30
0.0
 10
-3.184208113508873
 20
-3.179707465549427
 30
0.0
 10
-3.182202397514345
 20
-3.179998217150455
 30
0.0
 10
-3.180196813600218
 20
-3.179998217150398
 30
0.0
  0
LINE
  5
20C81
330
1F
100
AcDbEntity
  8
SK1
 48
0.013087
100
AcDbLine
 10
-3.180196999999964
 20
-3.179998217150398
 30
0.0
 11
-3.703679999999906
 21
-3.179998217150398
 31
0.0
  0
SPLINE
  5
20C82
330
1F
100
AcDbEntity
  8
SK1
100
AcDbSpline
210
0.0
220
0.0
230
1.0
 70
     8
 71
     5
 72
    18
 73
    12
 74
     0
 42
0.000000001
 43
0.0000000001
 40
0.0
 40
0.0
 40
0.0
 40
0.0
 40
0.0
 40
0.0
 40
3.257072860290908
 40
3.257072860290908
 40
3.257072860290908
 40
7.025495764255705
 40
7.025495764255705
 40
7.025495764255705
 40
7.597595399704054
 40
7.597595399704054
 40
7.597595399704054
 40
7.597595399704054
 40
7.597595399704054
 40
7.597595399704054
 10
-3.369900410269053
 20
-1.426584500191552
 30
0.0
 10
-3.405118064661621
 20
-1.016635961568908
 30
0.0
 10
-3.439002368861451
 20
-0.5810890150401065
 30
0.0
 10
-3.471812759625095
 20
-0.1447203532605954
 30
0.0
 10
-3.543601283931991
 20
0.8125622749332706
 30
0.0
 10
-3.618410890713448
 20
1.719939664744572
 30
0.0
 10
-3.661574004979172
 20
2.189596545372694
 30
0.0
 10
-3.714419890741112
 20
2.644718592115452
 30
0.0
 10
-3.771945489542702
 20
2.916659532476046
 30
0.0
 10
-3.77963256489977
 20
2.949172652956804
 30
0.0
 10
-3.787364164081111
 20
2.977867427389924
 30
0.0
 10
-3.795156852296656
 20
3.002644656179313
 30
0.0
  0
SPLINE
  5
20C83
330
1F
100
AcDbEntity
  8
SK1
100
AcDbSpline
210
0.0
220
0.0
230
1.0
 70
     8
 71
     5
 72
    15
 73
     9
 74
     0
 42
0.000000001
 43
0.0000000001
 40
0.0
 40
0.0
 40
0.0
 40
0.0
 40
0.0
 40
0.0
 40
5.279348586288282
 40
5.279348586288282
 40
5.279348586288282
 40
7.152269346533683
 40
7.152269346533683
 40
7.152269346533683
 40
7.152269346533683
 40
7.152269346533683
 40
7.152269346533683
 10
-3.314346273722492
 20
-1.341890855948463
 30
0.0
 10
-3.374754801826099
 20
-0.6793274738564606
 30
0.0
 10
-3.431228947261558
 20
0.0517202631921805
 30
0.0
 10
-3.487185511168775
 20
0.7651296793519009
 30
0.0
 10
-3.566564568287674
 20
1.728603881440108
 30
0.0
 10
-3.658049915288245
 20
2.438273195582041
 30
0.0
 10
-3.68315634203094
 20
2.601897329656083
 30
0.0
 10
-3.709247208929298
 20
2.730160850417632
 30
0.0
 10
-3.73607402299865
 20
2.815077511498202
 30
0.0
  0
LINE
  5
20C84
330
1F
100
AcDbEntity
  8
SK1
 48
0.006106
100
AcDbLine
 10
-3.291558999999949
 20
-1.585066217150369
 30
0.0
 11
-3.314345999999943
 21
-1.341891217150418
 31
0.0
  0
LINE
  5
20C85
330
1F
100
AcDbEntity
  8
SK1
 48
0.002873
100
AcDbLine
 10
-3.100870999999926
 20
-1.497656217150392
 30
0.0
 11
-3.112268999999912
 21
-1.383306217150391
 31
0.0
  0
SPLINE
  5
20C86
330
1F
100
AcDbEntity
  8
SK1
100
AcDbSpline
210
0.0
220
0.0
230
1.0
 70
     8
 71
     5
 72
    15
 73
     9
 74
     0
 42
0.000000001
 43
0.0000000001
 40
0.0
 40
0.0
 40
0.0
 40
0.0
 40
0.0
 40
0.0
 40
1.408091187570774
 40
1.408091187570774
 40
1.408091187570774
 40
3.442620012864348
 40
3.442620012864348
 40
3.442620012864348
 40
3.442620012864348
 40
3.442620012864348
 40
3.442620012864348
 10
-2.865398648167968
 20
-2.770349465387653
 30
0.0
 10
-2.886534125446644
 20
-2.770374835356165
 30
0.0
 10
-2.90767028098628
 20
-2.742548437985078
 30
0.0
 10
-2.928503361081311
 20
-2.686840909434124
 30
0.0
 10
-2.978248583526408
 20
-2.492829392667317
 30
0.0
 10
-3.02473763781893
 20
-2.182405358908795
 30
0.0
 10
-3.051102062568645
 20
-1.969813814324311
 30
0.0
 10
-3.076350755171688
 20
-1.740061519305868
 30
0.0
 10
-3.100870521902095
 20
-1.497656060715939
 30
0.0
  0
SPLINE
  5
20C87
330
1F
100
AcDbEntity
  8
SK1
100
AcDbSpline
210
0.0
220
0.0
230
1.0
 70
     8
 71
     5
 72
    15
 73
     9
 74
     0
 42
0.000000001
 43
0.0000000001
 40
0.0
 40
0.0
 40
0.0
 40
0.0
 40
0.0
 40
0.0
 40
1.450863932669821
 40
1.450863932669821
 40
1.450863932669821
 40
3.540482964834352
 40
3.540482964834352
 40
3.540482964834352
 40
3.540482964834352
 40
3.540482964834352
 40
3.540482964834352
 10
-2.540246587175886
 20
-2.770108686569301
 30
0.0
 10
-2.561569049777972
 20
-2.770119907765888
 30
0.0
 10
-2.582892161303846
 20
-2.7417909995645
 30
0.0
 10
-2.603916171299204
 20
-2.6850904465619
 30
0.0
 10
-2.654048777535933
 20
-2.487844042244034
 30
0.0
 10
-2.700970516048926
 20
-2.172107676160635
 30
0.0
 10
-2.727571938110997
 20
-1.956054406625071
 30
0.0
 10
-2.753072522593413
 20
-1.722489860297059
 30
0.0
 10
-2.777863268324779
 20
-1.476125918897878
 30
0.0
  0
LINE
  5
20C88
330
1F
100
AcDbEntity
  8
SK1
 48
0.002888
100
AcDbLine
 10
-2.777862999999967
 20
-1.476126217150408
 30
0.0
 11
-2.789259999999956
 21
-1.361153217150388
 31
0.0
  0
LINE
  5
20C89
330
1F
100
AcDbEntity
  8
SK1
 48
0.009372
100
AcDbLine
 10
-2.587161999999921
 20
-1.538024217150393
 30
0.0
 11
-2.621340999999915
 21
-1.164712217150395
 31
0.0
  0
SPLINE
  5
20C8A
330
1F
100
AcDbEntity
  8
SK1
100
AcDbSpline
210
0.0
220
0.0
230
1.0
 70
     8
 71
     5
 72
    18
 73
    12
 74
     0
 42
0.000000001
 43
0.0000000001
 40
0.0
 40
0.0
 40
0.0
 40
0.0
 40
0.0
 40
0.0
 40
4.392753751430319
 40
4.392753751430319
 40
4.392753751430319
 40
6.760665193581627
 40
6.760665193581627
 40
6.760665193581627
 40
8.054127818904348
 40
8.054127818904348
 40
8.054127818904348
 40
8.054127818904348
 40
8.054127818904348
 40
8.054127818904348
 10
-2.621341187984114
 20
-1.164712210848733
 30
0.0
 10
-2.669755130828434
 20
-0.6172011468343044
 30
0.0
 10
-2.716139346349109
 20
-0.0282265454980006
 30
0.0
 10
-2.763385835381257
 20
0.5717116335257515
 30
0.0
 10
-2.836150865643162
 20
1.456864811603225
 30
0.0
 10
-2.916387861914188
 20
2.192960771674563
 30
0.0
 10
-2.945985671085338
 20
2.427073857579102
 30
0.0
 10
-2.993836021488448
 20
2.721305966018235
 30
0.0
 10
-3.044618121391238
 20
2.874139129398997
 30
0.0
 10
-3.062835404599525
 20
2.907695037932967
 30
0.0
 10
-3.081193517027031
 20
2.9187742185714
 30
0.0
 10
-3.099487011301619
 20
2.907969594575661
 30
0.0
  0
LINE
  5
20C8B
330
1F
100
AcDbEntity
  8
SK1
 48
0.00026
100
AcDbLine
 10
-2.963662999999939
 20
3.180001782849615
 30
0.0
 11
-2.973661999999933
 21
3.177140782849619
 31
0.0
  0
LINE
  5
20C8C
330
1F
100
AcDbEntity
  8
SK1
 48
0.000269
100
AcDbLine
 10
-3.180196999999964
 20
-3.179998217150398
 30
0.0
 11
-3.169860999999912
 21
-3.176971217150367
 31
0.0
  0
LINE
  5
20C8D
330
1F
100
AcDbEntity
  8
SK1
 48
0.013087
100
AcDbLine
 10
-2.440185999999926
 20
3.180001782849615
 30
0.0
 11
-2.963662999999939
 21
3.180001782849615
 31
0.0
  0
SPLINE
  5
20C8E
330
1F
100
AcDbEntity
  8
SK1
100
AcDbSpline
210
0.0
220
0.0
230
1.0
 70
     8
 71
     5
 72
    18
 73
    12
 74
     0
 42
0.000000001
 43
0.0000000001
 40
0.0
 40
0.0
 40
0.0
 40
0.0
 40
0.0
 40
0.0
 40
1.370961847508004
 40
1.370961847508004
 40
1.370961847508004
 40
3.284880767933736
 40
3.284880767933736
 40
3.284880767933736
 40
4.963918223960139
 40
4.963918223960139
 40
4.963918223960139
 40
4.963918223960139
 40
4.963918223960139
 40
4.963918223960139
 10
-3.055100520464236
 20
-3.002322559343042
 30
0.0
 10
-3.073746574944891
 20
-3.061635665167955
 30
0.0
 10
-3.092735605544817
 20
-3.098534136546845
 30
0.0
 10
-3.11188921218212
 20
-3.10995447724332
 30
0.0
 10
-3.157752702323818
 20
-3.074242422705538
 30
0.0
 10
-3.202245540084675
 20
-2.900205642020864
 30
0.0
 10
-3.227300984649332
 20
-2.757381023335597
 30
0.0
 10
-3.272260007133013
 20
-2.437127072002681
 30
0.0
 10
-3.314150127547407
 20
-2.040982955163599
 30
0.0
 10
-3.333229251992861
 20
-1.843215182608332
 30
0.0
 10
-3.351745532139204
 20
-1.637915035588036
 30
0.0
 10
-3.369900410269053
 20
-1.426584500191552
 30
0.0
  0
SPLINE
  5
20C8F
330
1F
100
AcDbEntity
  8
SK1
100
AcDbSpline
210
0.0
220
0.0
230
1.0
 70
     8
 71
     5
 72
    18
 73
    12
 74
     0
 42
0.000000001
 43
0.0000000001
 40
0.0
 40
0.0
 40
0.0
 40
0.0
 40
0.0
 40
0.0
 40
1.490023707575724
 40
1.490023707575724
 40
1.490023707575724
 40
3.166154110864816
 40
3.166154110864816
 40
3.166154110864816
 40
4.238809698748087
 40
4.238809698748087
 40
4.238809698748087
 40
4.238809698748087
 40
4.238809698748087
 40
4.238809698748087
 10
-3.004538457362116
 20
-2.83990498433809
 30
0.0
 10
-3.02600481880205
 20
-2.898621391611527
 30
0.0
 10
-3.047887592987308
 20
-2.929021102633612
 30
0.0
 10
-3.069880539943198
 20
-2.926965762542636
 30
0.0
 10
-3.116312614456489
 20
-2.854003775662704
 30
0.0
 10
-3.160772096982896
 20
-2.654721323105263
 30
0.0
 10
-3.183532494640076
 20
-2.519314977971987
 30
0.0
 10
-3.219373684685194
 20
-2.263389624813726
 30
0.0
 10
-3.253286299626154
 20
-1.963855535779316
 30
0.0
 10
-3.266285728027355
 20
-1.841367018894288
 30
0.0
 10
-3.279020711676992
 20
-1.714925262390977
 30
0.0
 10
-3.291558768299466
 20
-1.585066139429613
 30
0.0
  0
SPLINE
  5
20C90
330
1F
100
AcDbEntity
  8
SK1
100
AcDbSpline
210
0.0
220
0.0
230
1.0
 70
     8
 71
     5
 72
    15
 73
     9
 74
     0
 42
0.000000001
 43
0.0000000001
 40
0.0
 40
0.0
 40
0.0
 40
0.0
 40
0.0
 40
0.0
 40
1.911549246158358
 40
1.911549246158358
 40
1.911549246158358
 40
2.845879236812845
 40
2.845879236812845
 40
2.845879236812845
 40
2.845879236812845
 40
2.845879236812845
 40
2.845879236812845
 10
-2.409072298346416
 20
-2.815093543724742
 30
0.0
 10
-2.435404476228143
 20
-2.732051014224452
 30
0.0
 10
-2.461085571254727
 20
-2.607097208198524
 30
0.0
 10
-2.485883983172186
 20
-2.447397214468026
 30
0.0
 10
-2.521270339335501
 20
-2.175439008904504
 30
0.0
 10
-2.554934306947359
 20
-1.863955256741803
 30
0.0
 10
-2.565832983375457
 20
-1.75799315126801
 30
0.0
 10
-2.576563812277129
 20
-1.649236907217186
 30
0.0
 10
-2.587161805769312
 20
-1.538024124867206
 30
0.0
  0
SPLINE
  5
20C91
330
1F
100
AcDbEntity
  8
SK1
100
AcDbSpline
210
0.0
220
0.0
230
1.0
 70
     8
 71
     5
 72
    21
 73
    15
 74
     0
 42
0.000000001
 43
0.0000000001
 40
0.0
 40
0.0
 40
0.0
 40
0.0
 40
0.0
 40
0.0
 40
3.143625263174518
 40
3.143625263174518
 40
3.143625263174518
 40
7.090380646846289
 40
7.090380646846289
 40
7.090380646846289
 40
8.779101007649035
 40
8.779101007649035
 40
8.779101007649035
 40
9.463096072666683
 40
9.463096072666683
 40
9.463096072666683
 40
9.463096072666683
 40
9.463096072666683
 40
9.463096072666683
 10
-2.554385318105175
 20
-1.369190940339819
 30
0.0
 10
-2.587306451950837
 20
-0.9819818904524026
 30
0.0
 10
-2.619170217426471
 20
-0.5727606836317137
 30
0.0
 10
-2.650558603809429
 20
-0.1561587326818881
 30
0.0
 10
-2.721257938786322
 20
0.7849811179768267
 30
0.0
 10
-2.794480732586123
 20
1.680558260045131
 30
0.0
 10
-2.838168519204998
 20
2.16079581960497
 30
0.0
 10
-2.904175213270093
 20
2.736161224521765
 30
0.0
 10
-2.976941445504166
 20
3.028453721735786
 30
0.0
 10
-2.999255252637965
 20
3.084901983949237
 30
0.0
 10
-3.030992839873761
 20
3.113019840500442
 30
0.0
 10
-3.06249544718031
 20
3.071993964868454
 30
0.0
 10
-3.071584395295474
 20
3.054401101075541
 30
0.0
 10
-3.080561483621352
 20
3.031479246977312
 30
0.0
 10
-3.089461758678112
 20
3.003472551727668
 30
0.0
  0
SPLINE
  5
20C92
330
1F
100
AcDbEntity
  8
SK1
100
AcDbSpline
210
0.0
220
0.0
230
1.0
 70
     8
 71
     5
 72
    21
 73
    15
 74
     0
 42
0.000000001
 43
0.0000000001
 40
0.0
 40
0.0
 40
0.0
 40
0.0
 40
0.0
 40
0.0
 40
4.506140092389492
 40
4.506140092389492
 40
4.506140092389492
 40
6.896353739513387
 40
6.896353739513387
 40
6.896353739513387
 40
8.103326902486683
 40
8.103326902486683
 40
8.103326902486683
 40
8.142425114464296
 40
8.142425114464296
 40
8.142425114464296
 40
8.142425114464296
 40
8.142425114464296
 40
8.142425114464296
 10
-2.486340148226133
 20
-1.402543785914986
 30
0.0
 10
-2.535826601702922
 20
-0.8024056362804685
 30
0.0
 10
-2.582449467454921
 20
-0.1591209901584989
 30
0.0
 10
-2.627289856335778
 20
0.4649648652829228
 30
0.0
 10
-2.699485787027867
 20
1.441703055431503
 30
0.0
 10
-2.780079304536627
 20
2.28471158379159
 30
0.0
 10
-2.809727382728738
 20
2.556538246159902
 30
0.0
 10
-2.856870434931352
 20
2.902139642031329
 30
0.0
 10
-2.907877707644672
 20
3.103172038188404
 30
0.0
 10
-2.925369490605419
 20
3.151242257111221
 30
0.0
 10
-2.943661447994657
 20
3.17765718194073
 30
0.0
 10
-2.96194225994003
 20
3.17993044983666
 30
0.0
 10
-2.962515859790244
 20
3.179978005751081
 30
0.0
 10
-2.963089416164791
 20
3.180001782849615
 30
0.0
 10
-2.963662939462437
 20
3.180001782849615
 30
0.0
  0
LINE
  5
20C93
330
1F
100
AcDbEntity
  8
SK1
 48
0.000127
100
AcDbLine
 10
-2.440185999999926
 20
3.180001782849615
 30
0.0
 11
-2.435157999999944
 21
3.179296782849633
 31
0.0
  0
LINE
  5
20C94
330
1F
100
AcDbEntity
  8
SK1
 48
0.01909
100
AcDbLine
 10
-1.459999999999922
 20
-3.179998217150398
 30
0.0
 11
-2.223603999999966
 21
-3.179998217150398
 31
0.0
  0
LINE
  5
20C95
330
1F
100
AcDbEntity
  8
SK1
 48
0.000262
100
AcDbLine
 10
-2.223603999999966
 20
-3.179998217150398
 30
0.0
 11
-2.233664999999916
 21
-3.177116217150398
 31
0.0
  0
SPLINE
  5
20C96
330
1F
100
AcDbEntity
  8
SK1
100
AcDbSpline
210
0.0
220
0.0
230
1.0
 70
     8
 71
     5
 72
    18
 73
    12
 74
     0
 42
0.000000001
 43
0.0000000001
 40
0.0
 40
0.0
 40
0.0
 40
0.0
 40
0.0
 40
0.0
 40
1.206493793227106
 40
1.206493793227106
 40
1.206493793227106
 40
3.624905715500632
 40
3.624905715500632
 40
3.624905715500632
 40
3.930000653675346
 40
3.930000653675346
 40
3.930000653675346
 40
3.930000653675346
 40
3.930000653675346
 40
3.930000653675346
 10
-2.233665272313658
 20
-3.177116307042979
 30
0.0
 10
-2.251482092616072
 20
-3.166911037895374
 30
0.0
 10
-2.269226029981894
 20
-3.134169957023061
 30
0.0
 10
-2.286676096494545
 20
-3.079484641437318
 30
0.0
 10
-2.337817280264232
 20
-2.859372165129968
 30
0.0
 10
-2.384804577643365
 20
-2.499109392609625
 30
0.0
 10
-2.414453175457651
 20
-2.218675576470559
 30
0.0
 10
-2.445966496926587
 20
-1.880891482673632
 30
0.0
 10
-2.476248088882641
 20
-1.523839557191763
 30
0.0
 10
-2.479625912043672
 20
-1.483612480342003
 30
0.0
 10
-2.482989594059063
 20
-1.443177034749851
 30
0.0
 10
-2.486340148226133
 20
-1.402543785914986
 30
0.0
  0
ARC
  5
20C97
330
1F
100
AcDbEntity
  8
SK1
100
AcDbCircle
 10
-2.481003999999927
 20
2.981722782849601
 30
0.0
 40
0.202833
100
AcDbArc
 50
36.48216399999898
 51
76.92774000000078
  0
ARC
  5
20C98
330
1F
100
AcDbEntity
  8
SK1
100
AcDbCircle
 10
-3.754662999999936
 20
2.147779782849625
 30
0.0
 40
1.724913999999999
100
AcDbArc
 50
27.28831599999857
 51
33.59890099999968
  0
LINE
  5
20C99
330
1F
100
AcDbEntity
  8
SK1
 48
0.001019
100
AcDbLine
 10
-2.199199999999962
 20
2.904623782849625
 30
0.0
 11
-2.221578999999962
 21
2.93866778284962
 31
0.0
  0
ARC
  5
20C9A
330
1F
100
AcDbEntity
  8
SK1
100
AcDbCircle
 10
-2.006990999999914
 20
3.057375782849589
 30
0.0
 40
0.245548
100
AcDbArc
 50
218.4749270000001
 51
269.6394679999988
  0
LINE
  5
20C9B
330
1F
100
AcDbEntity
  8
SK1
 48
0.00812
100
AcDbLine
 10
-1.683721999999931
 20
2.813255782849637
 30
0.0
 11
-2.008535999999935
 21
2.811916782849607
 31
0.0
  0
ARC
  5
20C9C
330
1F
100
AcDbEntity
  8
SK1
100
AcDbCircle
 10
-1.681860999999969
 20
3.008058782849616
 30
0.0
 40
0.194739
100
AcDbArc
 50
269.4525189999981
 51
304.3615079999989
  0
ARC
  5
20C9D
330
1F
100
AcDbEntity
  8
SK1
100
AcDbCircle
 10
-1.654505999999912
 20
2.964612782849599
 30
0.0
 40
0.143333
100
AcDbArc
 50
305.137247
 51
345.3859660000012
  0
LINE
  5
20C9E
330
1F
100
AcDbEntity
  8
SK1
 48
0.000321
100
AcDbLine
 10
-1.515782999999942
 20
2.928441782849631
 30
0.0
 11
-1.513319999999964
 21
2.941042782849649
 31
0.0
  0
LINE
  5
20C9F
330
1F
100
AcDbEntity
  8
SK1
 48
0.001994
100
AcDbLine
 10
-1.50297699999993
 20
3.02014078284958
 30
0.0
 11
-1.513319999999964
 21
2.941042782849649
 31
0.0
  0
ARC
  5
20CA0
330
1F
100
AcDbEntity
  8
SK1
100
AcDbCircle
 10
-2.269812999999942
 20
3.108740782849622
 30
0.0
 40
0.7718850000000002
100
AcDbArc
 50
353.4092859999988
 51
359.6255780000005
  0
SPLINE
  5
20CA1
330
1F
100
AcDbEntity
  8
SK1
100
AcDbSpline
210
0.0
220
0.0
230
1.0
 70
     8
 71
     5
 72
    12
 73
     6
 74
     0
 42
0.000000001
 43
0.0000000001
 40
0.0
 40
0.0
 40
0.0
 40
0.0
 40
0.0
 40
0.0
 40
0.7013679407271743
 40
0.7013679407271743
 40
0.7013679407271743
 40
0.7013679407271743
 40
0.7013679407271743
 40
0.7013679407271743
 10
-1.483518631928916
 20
3.180001782849615
 30
0.0
 10
-1.472344501669397
 20
3.180001782849615
 30
0.0
 10
-1.478483454030254
 20
3.172365947770856
 30
0.0
 10
-1.490901293043805
 20
3.156501446437459
 30
0.0
 10
-1.498033469345443
 20
3.133520494339904
 30
0.0
 10
-1.497995250197789
 20
3.103682250840734
 30
0.0
  0
LINE
  5
20CA2
330
1F
100
AcDbEntity
  8
SK1
 48
0.000588
100
AcDbLine
 10
-1.459999999999922
 20
3.180001782849615
 30
0.0
 11
-1.483518999999944
 21
3.180001782849615
 31
0.0
  0
LINE
  5
20CA3
330
1F
100
AcDbEntity
  8
SK1
 48
0.159
100
AcDbLine
 10
-1.459999999999922
 20
-3.179998217150398
 30
0.0
 11
-1.459999999999922
 21
3.180001782849615
 31
0.0
  0
ELLIPSE
  5
20CA4
330
1F
100
AcDbEntity
  8
SK1
100
AcDbEllipse
 10
-1.79878699999989
 20
2.970001782849635
 30
0.0
 11
0.0000000000041631
 21
0.2000000029802322
 31
0.0
210
0.0
220
0.0
230
1.0
 40
0.9969319999999999
 41
3.813136604551529
 42
4.415685319602768
  0
SPLINE
  5
20CA5
330
1F
100
AcDbEntity
  8
SK1
100
AcDbSpline
210
0.0
220
0.0
230
1.0
 70
     8
 71
     5
 72
    12
 73
     6
 74
     0
 42
0.000000001
 43
0.0000000001
 40
0.0
 40
0.0
 40
0.0
 40
0.0
 40
0.0
 40
0.0
 40
0.7526180923782566
 40
0.7526180923782566
 40
0.7526180923782566
 40
0.7526180923782566
 40
0.7526180923782566
 40
0.7526180923782566
 10
-1.608114729620353
 20
2.911579569305047
 30
0.0
 10
-1.6187133509207
 20
2.911583271389815
 30
0.0
 10
-1.629315011419009
 20
2.904276871100364
 30
0.0
 10
-1.63996551778149
 20
2.889486088670992
 30
0.0
 10
-1.650469737128503
 20
2.867681915018692
 30
0.0
 10
-1.660883980585367
 20
2.839191628641856
 30
0.0
  0
LINE
  5
20CA6
330
1F
100
AcDbEntity
  8
SK1
 48
0.002312
100
AcDbLine
 10
-1.581145999999932
 20
3.000001782849608
 30
0.0
 11
-1.608111999999948
 21
2.911527782849589
 31
0.0
  0
SPLINE
  5
20CA7
330
1F
100
AcDbEntity
  8
SK1
100
AcDbSpline
210
0.0
220
0.0
230
1.0
 70
     8
 71
     5
 72
    15
 73
     9
 74
     0
 42
0.000000001
 43
0.0000000001
 40
0.0
 40
0.0
 40
0.0
 40
0.0
 40
0.0
 40
0.0
 40
1.986476959608267
 40
1.986476959608267
 40
1.986476959608267
 40
3.509904557077832
 40
3.509904557077832
 40
3.509904557077832
 40
3.509904557077832
 40
3.509904557077832
 40
3.509904557077832
 10
-2.349673663807664
 20
-3.002820217841133
 30
0.0
 10
-2.375547710667035
 20
-2.921009399493357
 30
0.0
 10
-2.400820126401583
 20
-2.795824910742453
 30
0.0
 10
-2.425245712972809
 20
-2.634223868156368
 30
0.0
 10
-2.466640227766333
 20
-2.305455748854228
 30
0.0
 10
-2.505640255417063
 20
-1.917239816855953
 30
0.0
 10
-2.522222456534279
 20
-1.739900257852696
 30
0.0
 10
-2.538431456037699
 20
-1.556835746321837
 30
0.0
 10
-2.554385318105175
 20
-1.369190940339819
 30
0.0
  0
LINE
  5
20CA8
330
1F
100
AcDbEntity
  8
SK1
 48
0.000244
100
AcDbLine
 10
-1.484253999999907
 20
3.179992782849581
 30
0.0
 11
-1.493578999999897
 21
3.1771707828496
 31
0.0
  0
ELLIPSE
  5
20CA9
330
1F
100
AcDbEntity
  8
SK1
100
AcDbEllipse
 10
-1.608111999999948
 20
27.77000078284959
 30
0.0
 11
-0.0000000000000046
 21
-24.85847282409668
 31
0.0
210
0.0
220
0.0
230
1.0
 40
0.078276
 41
0.0000000000000012
 42
0.0487354565031687
  0
ELLIPSE
  5
20CAA
330
1F
100
AcDbEntity
  8
SK1
100
AcDbEllipse
 10
-1.552544999999952
 20
27.77000078284959
 30
0.0
 11
-0.0000000000000045
 21
-24.6761589050293
 31
0.0
210
0.0
220
0.0
230
1.0
 40
0.078276
 41
6.283185307179584
 42
6.31143057195188
  0
LINE
  5
20CAB
330
1F
100
AcDbEntity
  8
SK1
 48
0.002453
100
AcDbLine
 10
-1.552539999999964
 20
3.093857782849568
 30
0.0
 11
-1.581145999999932
 21
3.000001782849608
 31
0.0
  0
ELLIPSE
  5
20CAC
330
1F
100
AcDbEntity
  8
SK1
100
AcDbEllipse
 10
-1.409538999999938
 20
3.049985782849603
 30
0.0
 11
-0.00000000000315
 21
-0.1500000059604645
 31
0.0
210
0.0
220
0.0
230
1.0
 40
0.9969319999999996
 41
3.66381900817104
 42
4.415685319450336
  0
ARC
  5
20CAD
330
1F
100
AcDbEntity
  8
SK1
100
AcDbCircle
 10
-1.459999999999922
 20
-3.279998217150364
 30
0.0
 40
0.1
100
AcDbArc
 50
0.0
 51
90.0
  0
ARC
  5
20CAE
330
1F
100
AcDbEntity
  8
SK1
100
AcDbCircle
 10
-1.459999999999922
 20
3.280001782849581
 30
0.0
 40
0.1
100
AcDbArc
 50
270.0
 51
0.0
  0
SPLINE
  5
20CAF
330
1F
100
AcDbEntity
  8
SK1
100
AcDbSpline
210
0.0
220
0.0
230
1.0
 70
     8
 71
     5
 72
    12
 73
     6
 74
     0
 42
0.000000001
 43
0.0000000001
 40
0.0
 40
0.0
 40
0.0
 40
0.0
 40
0.0
 40
0.0
 40
0.8651108076176681
 40
0.8651108076176681
 40
0.8651108076176681
 40
0.8651108076176681
 40
0.8651108076176681
 40
0.8651108076176681
 10
-1.552542186870937
 20
3.093912870676035
 30
0.0
 10
-1.564035728068745
 20
3.093697940657079
 30
0.0
 10
-1.575532129922805
 20
3.084347493398695
 30
0.0
 10
-1.587089053018019
 20
3.065612326211237
 30
0.0
 10
-1.598458552500574
 20
3.038201673482035
 30
0.0
 10
-1.609714156052802
 20
3.002585305963179
 30
0.0
  0
LINE
  5
20CB0
330
1F
100
AcDbEntity
  8
SK1
 48
0.165996
100
AcDbLine
 10
-1.359999999999956
 20
3.31993078284961
 30
0.0
 11
-1.359999999999956
 21
-3.319927217150393
 31
0.0
  0
LINE
  5
20CB1
330
1F
100
AcDbEntity
  8
SK1
 48
0.029302
100
AcDbLine
 10
-0.1895329999999262
 20
3.381272782849578
 30
0.0
 11
-1.359999999999956
 21
3.31993078284961
 31
0.0
  0
LINE
  5
20CB2
330
1F
100
AcDbEntity
  8
SK1
 48
0.029302
100
AcDbLine
 10
-0.1895329999999262
 20
-3.381269217150361
 30
0.0
 11
-1.359999999999956
 21
-3.319927217150393
 31
0.0
  0
LINE
  5
20CB3
330
1F
100
AcDbEntity
  8
SK1
 48
0.169064
100
AcDbLine
 10
-0.1895329999999262
 20
-3.381269217150361
 30
0.0
 11
-0.1895329999999262
 21
3.381272782849578
 31
0.0
  0
ARC
  5
20CB4
330
1F
100
AcDbEntity
  8
SK1
100
AcDbCircle
 10
-0.1999999999999318
 20
-3.580995217150416
 30
0.0
 40
0.2
100
AcDbArc
 50
0.0
 51
86.99999999999766
  0
ARC
  5
20CB5
330
1F
100
AcDbEntity
  8
SK1
100
AcDbCircle
 10
-0.1999999999999318
 20
3.580998782849633
 30
0.0
 40
0.2
100
AcDbArc
 50
273.0000000000023
 51
0.0
  0
LINE
  5
20CB6
330
1F
100
AcDbEntity
  8
1
 48
0.013494
100
AcDbLine
 10
0.0000000000000568
 20
4.409029782849643
 30
0.0
 11
0.0000000000000568
 21
3.869288782849594
 31
0.0
  0
LINE
  5
20CB7
330
1F
100
AcDbEntity
  8
1
 48
0.206958
100
AcDbLine
 10
0.0000000000000568
 20
3.869288782849594
 30
0.0
 11
0.0000000000000568
 21
-4.409026217150426
 31
0.0
  0
LINE
  5
20CB8
330
1F
100
AcDbEntity
  8
1
 48
0.013529
100
AcDbLine
 10
0.0750000000001023
 20
3.879394782849601
 30
0.0
 11
0.0749999999960664
 21
4.420546782847566
 31
0.0
  0
LINE
  5
20CB9
330
1F
100
AcDbEntity
  8
1
 48
0.207498
100
AcDbLine
 10
0.0750000000001023
 20
-4.420542217150398
 30
0.0
 11
0.0750000000001023
 21
3.879394782849601
 31
0.0
  0
LINE
  5
20CBA
330
1F
100
AcDbEntity
  8
1
 48
0.004012
100
AcDbLine
 10
0.3600000000000705
 20
0.0308427828496178
 30
0.0
 11
0.3600000000000705
 21
-0.1296262171504168
 31
0.0
  0
LINE
  5
20CBB
330
1F
100
AcDbEntity
  8
1
 48
0.040521
100
AcDbLine
 10
0.3600000000000705
 20
0.0308427828496178
 30
0.0
 11
0.3600000000000705
 21
1.651691782849638
 31
0.0
  0
LINE
  5
20CBC
330
1F
100
AcDbEntity
  8
1
 48
0.006837
100
AcDbLine
 10
0.3600000000000705
 20
1.651691782849638
 30
0.0
 11
0.3600000000000705
 21
1.925172782849585
 31
0.0
  0
LINE
  5
20CBD
330
1F
100
AcDbEntity
  8
1
 48
0.055165
100
AcDbLine
 10
0.3600000000000705
 20
4.131768782849576
 30
0.0
 11
0.3600000000000705
 21
1.925172782849585
 31
0.0
  0
LINE
  5
20CBE
330
1F
100
AcDbEntity
  8
1
 48
0.014331
100
AcDbLine
 10
0.3600000000000705
 20
4.131768782849576
 30
0.0
 11
0.3600000000000705
 21
4.705027782849583
 31
0.0
  0
LINE
  5
20CBF
330
1F
100
AcDbEntity
  8
1
 48
0.036713
100
AcDbLine
 10
0.3600000000000705
 20
6.173565782849607
 30
0.0
 11
0.3600000000000705
 21
4.705027782849583
 31
0.0
  0
LINE
  5
20CC0
330
1F
100
AcDbEntity
  8
1
 48
0.005574
100
AcDbLine
 10
0.3600000000000705
 20
-6.560815217150434
 30
0.0
 11
0.3600000000000705
 21
-6.337852217150384
 31
0.0
  0
LINE
  5
20CC1
330
1F
100
AcDbEntity
  8
1
 48
0.051699
100
AcDbLine
 10
0.3600000000000705
 20
-4.269906217150378
 30
0.0
 11
0.3600000000000705
 21
-6.337852217150384
 31
0.0
  0
LINE
  5
20CC2
330
1F
100
AcDbEntity
  8
1
 48
0.071804
100
AcDbLine
 10
0.3600000000000705
 20
-0.1296262171504168
 30
0.0
 11
0.193121000000076
 21
-2.996941217150379
 31
0.0
  0
LINE
  5
20CC3
330
1F
100
AcDbEntity
  8
1
 48
0.010543
100
AcDbLine
 10
3.289156000000104
 20
-3.37831221715038
 30
0.0
 11
3.275096000000075
 21
-2.956841217150383
 31
0.0
  0
LINE
  5
20CC4
330
1F
100
AcDbEntity
  8
1
 48
0.00954
100
AcDbLine
 10
0.18011400000006
 20
-3.37831221715038
 30
0.0
 11
0.193121000000076
 21
-2.996941217150379
 31
0.0
  0
LINE
  5
20CC5
330
1F
100
AcDbEntity
  8
1
 48
0.06442
100
AcDbLine
 10
0.3600000000000705
 20
-6.337852217150384
 30
0.0
 11
2.93678600000004
 21
-6.337852217150384
 31
0.0
  0
LINE
  5
20CC6
330
1F
100
AcDbEntity
  8
1
 48
0.021972
100
AcDbLine
 10
2.64440600000006
 20
-5.509022217150402
 30
0.0
 11
2.93678600000004
 21
-6.337852217150384
 31
0.0
  0
LINE
  5
20CC7
330
1F
100
AcDbEntity
  8
1
 48
0.031456
100
AcDbLine
 10
2.64440600000006
 20
-5.509022217150402
 30
0.0
 11
2.863030000000037
 21
-4.269906217150378
 31
0.0
  0
LINE
  5
20CC8
330
1F
100
AcDbEntity
  8
1
 48
0.000665
100
AcDbLine
 10
0.2568110000000843
 20
-6.028490217150419
 30
0.0
 11
0.2589090000000738
 21
-6.054990217150361
 31
0.0
  0
ELLIPSE
  5
20CC9
330
1F
100
AcDbEntity
  8
1
100
AcDbEllipse
 10
0.24242600000008
 20
-2.654355217150396
 30
0.0
 11
0.1517520546913145
 21
-4.252843856811522
 31
0.0
210
0.0
220
0.0
230
1.0
 40
0.040927
 41
6.281724880682753
 42
6.635100680794785
  0
ELLIPSE
  5
20CCA
330
1F
100
AcDbEntity
  8
1
100
AcDbEllipse
 10
0.2424250000000825
 20
-2.654254217150423
 30
0.0
 11
0.1517523676156997
 21
-4.252944946289061
 31
0.0
210
0.0
220
0.0
230
1.0
 40
0.040927
 41
5.637587851103383
 42
6.28172500091446
  0
SPLINE
  5
20CCB
330
1F
100
AcDbEntity
  8
1
100
AcDbSpline
210
0.0
220
0.0
230
1.0
 70
     8
 71
     5
 72
    15
 73
     9
 74
     0
 42
0.000000001
 43
0.0000000001
 40
0.0
 40
0.0
 40
0.0
 40
0.0
 40
0.0
 40
0.0
 40
0.2810349396423778
 40
0.2810349396423778
 40
0.2810349396423778
 40
0.3465821221077015
 40
0.3465821221077015
 40
0.3465821221077015
 40
0.3465821221077015
 40
0.3465821221077015
 40
0.3465821221077015
 10
0.3600000000000705
 20
-6.560819465362214
 30
0.0
 10
0.3843376548803121
 20
-6.570905415498657
 30
0.0
 10
0.4055384294798046
 20
-6.582496606436848
 30
0.0
 10
0.4228574229859987
 20
-6.595604218534674
 30
0.0
 10
0.4372843799818043
 20
-6.612264024063335
 30
0.0
 10
0.443311692197824
 20
-6.629122164204204
 30
0.0
 10
0.4441475645989499
 20
-6.632313429104101
 30
0.0
 10
0.444672869448084
 20
-6.635483831316662
 30
0.0
 10
0.4448905007577082
 20
-6.638633195756597
 30
0.0
  0
LINE
  5
20CCC
330
1F
100
AcDbEntity
  8
1
 48
0.000145
100
AcDbLine
 10
0.444891000000041
 20
-6.638633217150413
 30
0.0
 11
0.444874000000084
 21
-6.644419217150357
 31
0.0
  0
ARC
  5
20CCD
330
1F
100
AcDbEntity
  8
1
100
AcDbCircle
 10
5.926071000000035
 20
-5.295032217150378
 30
0.0
 40
3.165916999999998
100
AcDbArc
 50
199.2314540000006
 51
203.3276099999998
  0
ELLIPSE
  5
20CCE
330
1F
100
AcDbEntity
  8
1
100
AcDbEllipse
 10
3.226671000000067
 20
-2.858228217150383
 30
0.0
 11
-0.1516442596912384
 21
-4.048970699310303
 31
0.0
210
0.0
220
0.0
230
1.0
 40
0.041788
 41
5.860756891354721
 42
6.284652391827965
  0
SPLINE
  5
20CCF
330
1F
100
AcDbEntity
  8
1
100
AcDbSpline
210
0.0
220
0.0
230
1.0
 70
     8
 71
     5
 72
    15
 73
     9
 74
     0
 42
0.000000001
 43
0.0000000001
 40
0.0
 40
0.0
 40
0.0
 40
0.0
 40
0.0
 40
0.0
 40
3.134530814352751
 40
3.134530814352751
 40
3.134530814352751
 40
4.001062276326778
 40
4.001062276326778
 40
4.001062276326778
 40
4.001062276326778
 40
4.001062276326778
 40
4.001062276326778
 10
3.075274663805203
 20
-6.907203749184361
 30
0.0
 10
3.093347056877121
 20
-6.907240429953844
 30
0.0
 10
3.113559946634438
 20
-6.849657006139068
 30
0.0
 10
3.135241024753611
 20
-6.734484941828441
 30
0.0
 10
3.163701794341989
 20
-6.525109796879746
 30
0.0
 10
3.192243128334553
 20
-6.250404463708775
 30
0.0
 10
3.19842248756197
 20
-6.187965442560141
 30
0.0
 10
3.204577056503637
 20
-6.122888007589665
 30
0.0
 10
3.210703776997149
 20
-6.055284861676682
 30
0.0
  0
LINE
  5
20CD0
330
1F
100
AcDbEntity
  8
1
 48
0.000673
100
AcDbLine
 10
3.212836000000095
 20
-6.028442217150427
 30
0.0
 11
3.210704000000077
 21
-6.055285217150412
 31
0.0
  0
LINE
  5
20CD1
330
1F
100
AcDbEntity
  8
1
 48
0.000289
100
AcDbLine
 10
0.444874000000084
 20
-6.644419217150357
 30
0.0
 11
0.4440820000000372
 21
-6.63290121715039
 31
0.0
  0
SPLINE
  5
20CD2
330
1F
100
AcDbEntity
  8
1
100
AcDbSpline
210
0.0
220
0.0
230
1.0
 70
     8
 71
     5
 72
    36
 73
    30
 74
     0
 42
0.000000001
 43
0.0000000001
 40
0.0
 40
0.0
 40
0.0
 40
0.0
 40
0.0
 40
0.0
 40
0.0125171464483208
 40
0.0125171464483208
 40
0.0125171464483208
 40
0.0344681128881482
 40
0.0344681128881482
 40
0.0344681128881482
 40
0.0564190793279753
 40
0.0564190793279753
 40
0.0564190793279753
 40
0.1865514573819197
 40
0.1865514573819197
 40
0.1865514573819197
 40
0.4105877390742834
 40
0.4105877390742834
 40
0.4105877390742834
 40
0.5679016482106059
 40
0.5679016482106059
 40
0.5679016482106059
 40
0.7252155573469281
 40
0.7252155573469281
 40
0.7252155573469281
 40
1.912004152884557
 40
1.912004152884557
 40
1.912004152884557
 40
3.440954041954538
 40
3.440954041954538
 40
3.440954041954538
 40
3.440954041954538
 40
3.440954041954538
 40
3.440954041954538
 10
0.3600000000000705
 20
-6.043934316860941
 30
0.0
 10
0.3600000000000705
 20
-6.045112971268736
 30
0.0
 10
0.3599904441053354
 20
-6.046290329970474
 30
0.0
 10
0.3599784639526433
 20
-6.047613170272143
 30
0.0
 10
0.3598432152406303
 20
-6.048882537601969
 30
0.0
 10
0.3597079665286174
 20
-6.050151904931794
 30
0.0
 10
0.3595152823026524
 20
-6.049414364335802
 30
0.0
 10
0.3592205581404073
 20
-6.04788007973741
 30
0.0
 10
0.3589241206805696
 20
-6.045466347640513
 30
0.0
 10
0.3587610893616215
 20
-6.04429173139232
 30
0.0
 10
0.3576824004733794
 20
-6.034853199764484
 30
0.0
 10
0.3566047458612047
 20
-6.021698388722256
 30
0.0
 10
0.3556966156984345
 20
-6.011033923072886
 30
0.0
 10
0.3532440902837948
 20
-5.97985777092299
 30
0.0
 10
0.35091381056003
 20
-5.947861748491732
 30
0.0
 10
0.349533565586114
 20
-5.928564949046517
 30
0.0
 10
0.3471983426203451
 20
-5.895545283566093
 30
0.0
 10
0.3447900978845269
 20
-5.860778224746923
 30
0.0
 10
0.3437688118253277
 20
-5.845912897118068
 30
0.0
 10
0.3416936311833183
 20
-5.815478023618993
 30
0.0
 10
0.3396283084339871
 20
-5.784845648845134
 30
0.0
 10
0.3385993910779348
 20
-5.769510178446296
 30
0.0
 10
0.3298433656304383
 20
-5.638444433331414
 30
0.0
 10
0.321377612853496
 20
-5.507451120571886
 30
0.0
 10
0.3206720468328399
 20
-5.496767705271679
 30
0.0
 10
0.3032042211752355
 20
-5.223553830036507
 30
0.0
 10
0.2860956396929737
 20
-4.950690737319064
 30
0.0
 10
0.2765806522579055
 20
-4.798167824632287
 30
0.0
 10
0.2669435312097335
 20
-4.642778680851051
 30
0.0
 10
0.2572961264770015
 20
-4.486465169893563
 30
0.0
  0
LINE
  5
20CD3
330
1F
100
AcDbEntity
  8
1
 48
0.001002
100
AcDbLine
 10
0.1500970000000734
 20
-4.47137621715035
 30
0.0
 11
0.1529590000000667
 21
-4.431409217150417
 31
0.0
  0
LINE
  5
20CD4
330
1F
100
AcDbEntity
  8
1
 48
0.039684
100
AcDbLine
 10
0.2589090000000738
 20
-6.054990217150361
 30
0.0
 11
0.1500970000000734
 21
-4.47137621715035
 31
0.0
  0
LINE
  5
20CD5
330
1F
100
AcDbEntity
  8
1
 48
0.020061
100
AcDbLine
 10
0.1801100000000701
 20
7.235420782849587
 30
0.0
 11
0.1931020000000671
 21
6.433100782849578
 31
0.0
  0
ARC
  5
20CD6
330
1F
100
AcDbEntity
  8
1
100
AcDbCircle
 10
-8.710801999999887
 20
7.338902782849572
 30
0.0
 40
8.891555999999997
100
AcDbArc
 50
359.3330699999997
 51
1.537365999998809
  0
LINE
  5
20CD7
330
1F
100
AcDbEntity
  8
1
 48
0.026554
100
AcDbLine
 10
0.1500970000000734
 20
8.639239782849585
 30
0.0
 11
0.1775830000000838
 21
7.577453782849602
 31
0.0
  0
ARC
  5
20CD8
330
1F
100
AcDbEntity
  8
1
100
AcDbCircle
 10
0.0747500000000514
 20
6.173565782849607
 30
0.0
 40
0.28525
100
AcDbArc
 50
0.0
 51
65.48666300000109
  0
ARC
  5
20CD9
330
1F
100
AcDbEntity
  8
1
100
AcDbCircle
 10
97.3705300000001
 20
5.319296782849619
 30
0.0
 40
94.100868
100
AcDbArc
 50
178.833237000001
 51
179.3837050000023
  0
LINE
  5
20CDA
330
1F
100
AcDbEntity
  8
1
 48
0.077726
100
AcDbLine
 10
0.1801100000000701
 20
7.235420782849587
 30
0.0
 11
3.289160000000094
 21
7.235420782849587
 31
0.0
  0
LINE
  5
20CDB
330
1F
100
AcDbEntity
  8
1
 48
0.065708
100
AcDbLine
 10
0.3600000000000705
 20
4.705027782849583
 30
0.0
 11
2.988334000000065
 21
4.705027782849583
 31
0.0
  0
LINE
  5
20CDC
330
1F
100
AcDbEntity
  8
1
 48
0.041288
100
AcDbLine
 10
2.988334000000065
 20
4.705027782849583
 30
0.0
 11
3.275118000000077
 21
6.331458782849608
 31
0.0
  0
LINE
  5
20CDD
330
1F
100
AcDbEntity
  8
1
 48
0.014553
100
AcDbLine
 10
2.988334000000065
 20
4.705027782849583
 30
0.0
 11
2.887253000000043
 21
4.131768782849576
 31
0.0
  0
LINE
  5
20CDE
330
1F
100
AcDbEntity
  8
1
 48
0.063181
100
AcDbLine
 10
0.3600000000000705
 20
4.131768782849576
 30
0.0
 11
2.887253000000043
 21
4.131768782849576
 31
0.0
  0
LINE
  5
20CDF
330
1F
100
AcDbEntity
  8
1
 48
0.06442
100
AcDbLine
 10
0.3600000000000705
 20
1.925172782849585
 30
0.0
 11
2.93678600000004
 21
1.925172782849585
 31
0.0
  0
LINE
  5
20CE0
330
1F
100
AcDbEntity
  8
1
 48
0.021984
100
AcDbLine
 10
2.64440600000006
 20
2.754513782849585
 30
0.0
 11
2.93678600000004
 21
1.925172782849585
 31
0.0
  0
LINE
  5
20CE1
330
1F
100
AcDbEntity
  8
1
 48
0.034963
100
AcDbLine
 10
2.64440600000006
 20
2.754513782849585
 30
0.0
 11
2.887253000000043
 21
4.131768782849576
 31
0.0
  0
LINE
  5
20CE2
330
1F
100
AcDbEntity
  8
1
 48
0.073888
100
AcDbLine
 10
0.2570970000001012
 20
-3.002523217150383
 30
0.0
 11
3.212625000000059
 21
-3.002523217150383
 31
0.0
  0
SPLINE
  5
20CE3
330
1F
100
AcDbEntity
  8
1
100
AcDbSpline
210
0.0
220
0.0
230
1.0
 70
     8
 71
     5
 72
    12
 73
     6
 74
     0
 42
0.000000001
 43
0.0000000001
 40
0.0
 40
0.0
 40
0.0
 40
0.0
 40
0.0
 40
0.0
 40
1.305393517541464
 40
1.305393517541464
 40
1.305393517541464
 40
1.305393517541464
 40
1.305393517541464
 40
1.305393517541464
 10
0.2570967450528201
 20
-3.002523657357926
 30
0.0
 10
0.2574489194852276
 20
-2.856292766698629
 30
0.0
 10
0.2541962432674722
 20
-2.708672112563419
 30
0.0
 10
0.2510435082173785
 20
-2.568216309833132
 30
0.0
 10
0.2507374980478403
 20
-2.418516451045093
 30
0.0
 10
0.2589090997996664
 20
-2.268735377665962
 30
0.0
  0
ARC
  5
20CE4
330
1F
100
AcDbEntity
  8
1
100
AcDbCircle
 10
-309.5966699999999
 20
14.93117278284961
 30
0.0
 40
310.332246
100
AcDbArc
 50
356.8228040000023
 51
357.5217099999997
  0
SPLINE
  5
20CE5
330
1F
100
AcDbEntity
  8
1
100
AcDbSpline
210
0.0
220
0.0
230
1.0
 70
     8
 71
     5
 72
    15
 73
     9
 74
     0
 42
0.000000001
 43
0.0000000001
 40
0.0
 40
0.0
 40
0.0
 40
0.0
 40
0.0
 40
0.0
 40
0.2741640357439212
 40
0.2741640357439212
 40
0.2741640357439212
 40
0.3877554280864564
 40
0.3877554280864564
 40
0.3877554280864564
 40
0.3877554280864564
 40
0.3877554280864564
 40
0.3877554280864564
 10
0.3600000000000705
 20
1.651685699173071
 30
0.0
 10
0.3832654504422521
 20
1.63710482360625
 30
0.0
 10
0.4034890343111215
 20
1.620170463647696
 30
0.0
 10
0.4200364924134306
 20
1.600695227507287
 30
0.0
 10
0.4365055186195832
 20
1.571510167274993
 30
0.0
 10
0.4435768599608423
 20
1.540200492388521
 30
0.0
 10
0.4448341250424051
 20
1.530856316377594
 30
0.0
 10
0.445255795857463
 20
1.521523612826115
 30
0.0
 10
0.4448736335746731
 20
1.512167411488121
 30
0.0
  0
ARC
  5
20CE6
330
1F
100
AcDbEntity
  8
1
100
AcDbCircle
 10
-2.043489999999962
 20
0.1822947828495671
 30
0.0
 40
5.276463999999998
100
AcDbArc
 50
16.37438599999994
 51
19.28780500000115
  0
ARC
  5
20CE7
330
1F
100
AcDbEntity
  8
1
100
AcDbCircle
 10
267.7462080000001
 20
12.6746697828496
 30
0.0
 40
264.956586
100
AcDbArc
 50
182.3804489999996
 51
183.2330530000009
  0
SPLINE
  5
20CE8
330
1F
100
AcDbEntity
  8
1
100
AcDbSpline
210
0.0
220
0.0
230
1.0
 70
     8
 71
     5
 72
    12
 73
     6
 74
     0
 42
0.000000001
 43
0.0000000001
 40
0.0
 40
0.0
 40
0.0
 40
0.0
 40
0.0
 40
0.0
 40
1.503843277135569
 40
1.503843277135569
 40
1.503843277135569
 40
1.503843277135569
 40
1.503843277135569
 40
1.503843277135569
 10
3.212624794360124
 20
-3.002523657357926
 30
0.0
 10
3.212257561613739
 20
-2.856939366101016
 30
0.0
 10
3.215462466174528
 20
-2.709559547255651
 30
0.0
 10
3.218589652188768
 20
-2.569789448146877
 30
0.0
 10
3.218989994215178
 20
-2.419418350704575
 30
0.0
 10
3.210703768648556
 20
-2.268248447356427
 30
0.0
  0
LINE
  5
20CE9
330
1F
100
AcDbEntity
  8
1
 48
0.037094
100
AcDbLine
 10
0.444874000000084
 20
1.512167782849587
 30
0.0
 11
0.3600000000000705
 21
0.0308427828496178
 31
0.0
  0
LINE
  5
20CEA
330
1F
100
AcDbEntity
  8
1
 48
0.002798
100
AcDbLine
 10
0.1775830000000838
 20
-3.48996921715036
 30
0.0
 11
0.1802800000000957
 21
-3.378089217150431
 31
0.0
  0
LINE
  5
20CEB
330
1F
100
AcDbEntity
  8
1
 48
0.016961
100
AcDbLine
 10
0.1500970000000734
 20
-4.16785821715041
 30
0.0
 11
0.1775830000000838
 21
-3.48996921715036
 31
0.0
  0
LINE
  5
20CEC
330
1F
100
AcDbEntity
  8
1
 48
0.047556
100
AcDbLine
 10
0.2589090000000738
 20
-2.268736217150376
 30
0.0
 11
0.1500970000000734
 21
-4.16785821715041
 31
0.0
  0
LINE
  5
20CED
330
1F
100
AcDbEntity
  8
1
 48
0.047566
100
AcDbLine
 10
3.319759000000033
 20
-4.16776021715043
 30
0.0
 11
3.210704000000077
 21
-2.268248217150357
 31
0.0
  0
LINE
  5
20CEE
330
1F
100
AcDbEntity
  8
1
 48
0.016959
100
AcDbLine
 10
3.291747000000043
 20
-3.48996921715036
 30
0.0
 11
3.319759000000033
 21
-4.16776021715043
 31
0.0
  0
LINE
  5
20CEF
330
1F
100
AcDbEntity
  8
1
 48
0.002798
100
AcDbLine
 10
3.288991000000066
 20
-3.378089217150431
 30
0.0
 11
3.291747000000043
 21
-3.48996921715036
 31
0.0
  0
LINE
  5
20CF0
330
1F
100
AcDbEntity
  8
1
 48
0.115843
100
AcDbLine
 10
3.275096000000075
 20
-2.956839217150388
 30
0.0
 11
3.01898900000009
 21
1.66980478284961
 31
0.0
  0
LINE
  5
20CF1
330
1F
100
AcDbEntity
  8
1
 48
0.05727
100
AcDbLine
 10
3.203133000000036
 20
-4.265308217150391
 30
0.0
 11
3.01898900000009
 21
-6.548680217150376
 31
0.0
  0
LINE
  5
20CF2
330
1F
100
AcDbEntity
  8
1
 48
0.0001
100
AcDbLine
 10
3.319768000000067
 20
-4.475335217150359
 30
0.0
 11
3.319759000000033
 21
-4.471320217150378
 31
0.0
  0
LINE
  5
20CF3
330
1F
100
AcDbEntity
  8
1
 48
0.039693
100
AcDbLine
 10
3.319759000000033
 20
-4.471320217150378
 30
0.0
 11
3.210704000000077
 21
-6.055285217150412
 31
0.0
  0
LINE
  5
20CF4
330
1F
100
AcDbEntity
  8
1
 48
0.006148
100
AcDbLine
 10
3.301800000000071
 20
-4.226062217150399
 30
0.0
 11
3.319759000000033
 21
-4.471320217150378
 31
0.0
  0
LINE
  5
20CF5
330
1F
100
AcDbEntity
  8
1
 48
0.000099
100
AcDbLine
 10
0.1500920000000292
 20
-4.475322217150392
 30
0.0
 11
0.1500970000000734
 21
-4.47137621715035
 31
0.0
  0
ARC
  5
20CF6
330
1F
100
AcDbEntity
  8
1
100
AcDbCircle
 10
3.110148000000037
 20
8.645481782849628
 30
0.0
 40
0.209671
100
AcDbArc
 50
358.2522250000015
 51
36.39635499999847
  0
LINE
  5
20CF7
330
1F
100
AcDbEntity
  8
1
 48
0.02655
100
AcDbLine
 10
3.291747000000043
 20
7.577453782849602
 30
0.0
 11
3.319759000000033
 21
8.639085782849633
 31
0.0
  0
ARC
  5
20CF8
330
1F
100
AcDbEntity
  8
1
100
AcDbCircle
 10
12.14372500000007
 20
7.33763878284958
 30
0.0
 40
8.855197
100
AcDbArc
 50
178.4481399999993
 51
180.6614909999988
  0
ARC
  5
20CF9
330
1F
100
AcDbEntity
  8
1
100
AcDbCircle
 10
0.3597020000000839
 20
8.645480782849631
 30
0.0
 40
0.20966
100
AcDbArc
 50
143.6011030000027
 51
181.7054489999998
  0
LINE
  5
20CFA
330
1F
100
AcDbEntity
  8
1
 48
0.077854
100
AcDbLine
 10
3.291747000000043
 20
7.577453782849602
 30
0.0
 11
0.1775830000000838
 21
7.577453782849602
 31
0.0
  0
LINE
  5
20CFB
330
1F
100
AcDbEntity
  8
1
 48
0.077198
100
AcDbLine
 10
3.278886000000056
 20
8.769869782849582
 30
0.0
 11
0.1909780000000296
 21
8.769869782849582
 31
0.0
  0
ARC
  5
20CFC
330
1F
100
AcDbEntity
  8
1
100
AcDbCircle
 10
3.134585000000072
 20
-3.683966217150384
 30
0.0
 40
0.585759
100
AcDbArc
 50
268.6889479999998
 51
284.271673999999
  0
ARC
  5
20CFD
330
1F
100
AcDbEntity
  8
1
100
AcDbCircle
 10
3.215062000000045
 20
-4.167430217150354
 30
0.0
 40
0.104996
100
AcDbArc
 50
307.2845280000006
 51
359.8192659999981
  0
SPLINE
  5
20CFE
330
1F
100
AcDbEntity
  8
1
100
AcDbSpline
210
0.0
220
0.0
230
1.0
 70
     8
 71
     5
 72
    21
 73
    15
 74
     0
 42
0.000000001
 43
0.0000000001
 40
0.0
 40
0.0
 40
0.0
 40
0.0
 40
0.0
 40
0.0
 40
0.1792520168284401
 40
0.1792520168284401
 40
0.1792520168284401
 40
0.2718910370834897
 40
0.2718910370834897
 40
0.2718910370834897
 40
0.4177999812376045
 40
0.4177999812376045
 40
0.4177999812376045
 40
0.4702042811220771
 40
0.4702042811220771
 40
0.4702042811220771
 40
0.4702042811220771
 40
0.4702042811220771
 40
0.4702042811220771
 10
3.212624794360124
 20
-3.002523657357926
 30
0.0
 10
3.212668567013508
 20
-3.019876714171175
 30
0.0
 10
3.211392920931814
 20
-3.037711640157453
 30
0.0
 10
3.208636246140883
 20
-3.056204680005521
 30
0.0
 10
3.201774875041394
 20
-3.083935607807234
 30
0.0
 10
3.18874082823396
 20
-3.110799409551759
 30
0.0
 10
3.183507141870848
 20
-3.119730576902384
 30
0.0
 10
3.167547607838912
 20
-3.14174572563877
 30
0.0
 10
3.145046663577261
 20
-3.160237448157772
 30
0.0
 10
3.12855271125187
 20
-3.169342391046257
 30
0.0
 10
3.104377492640821
 20
-3.177821418011887
 30
0.0
 10
3.079041622296529
 20
-3.181523282793023
 30
0.0
 10
3.072263476887599
 20
-3.182486048772375
 30
0.0
 10
3.065504493133232
 20
-3.182490367914056
 30
0.0
 10
3.058745704030286
 20
-3.182490367914056
 30
0.0
  0
LINE
  5
20CFF
330
1F
100
AcDbEntity
  8
1
 48
0.02723
100
AcDbLine
 10
3.12117500000005
 20
-4.269910217150368
 30
0.0
 11
3.058746000000098
 21
-3.182490217150416
 31
0.0
  0
LINE
  5
20D00
330
1F
100
AcDbEntity
  8
1
 48
0.02723
100
AcDbLine
 10
0.4109920000000784
 20
-3.182490217150416
 30
0.0
 11
0.3486880000000951
 21
-4.269910217150368
 31
0.0
  0
SPLINE
  5
20D01
330
1F
100
AcDbEntity
  8
1
100
AcDbSpline
210
0.0
220
0.0
230
1.0
 70
     8
 71
     5
 72
    21
 73
    15
 74
     0
 42
0.000000001
 43
0.0000000001
 40
0.0
 40
0.0
 40
0.0
 40
0.0
 40
0.0
 40
0.0
 40
0.0938768266272888
 40
0.0938768266272888
 40
0.0938768266272888
 40
0.2335826947089462
 40
0.2335826947089462
 40
0.2335826947089462
 40
0.3739157997119788
 40
0.3739157997119788
 40
0.3739157997119788
 40
0.4655941982889717
 40
0.4655941982889717
 40
0.4655941982889717
 40
0.4655941982889717
 40
0.4655941982889717
 40
0.4655941982889717
 10
0.4109924873014848
 20
-3.182490367914056
 30
0.0
 10
0.4001525250767486
 20
-3.182490367914056
 30
0.0
 10
0.3893126439653542
 20
-3.181665138049311
 30
0.0
 10
0.3783571003739325
 20
-3.179954668795119
 30
0.0
 10
0.3520117253235071
 20
-3.173612092215932
 30
0.0
 10
0.3280619154930378
 20
-3.161794122805133
 30
0.0
 10
0.314391779387563
 20
-3.15231142966553
 30
0.0
 10
0.2914380502953691
 20
-3.130146340130579
 30
0.0
 10
0.2755301019782905
 20
-3.101726347807357
 30
0.0
 10
0.2694368564131651
 20
-3.086383540569499
 30
0.0
 10
0.2620618766013081
 20
-3.060238616258402
 30
0.0
 10
0.258416465322
 20
-3.033663107323036
 30
0.0
 10
0.2575094787909506
 20
-3.023190881422351
 30
0.0
 10
0.2570720116772804
 20
-3.012793521347589
 30
0.0
 10
0.2570967450527064
 20
-3.002523657357926
 30
0.0
  0
ARC
  5
20D02
330
1F
100
AcDbEntity
  8
1
100
AcDbCircle
 10
0.2548370000000659
 20
-4.167403217150422
 30
0.0
 40
0.105038
100
AcDbArc
 50
180.2488200000009
 51
232.7091050000038
  0
ARC
  5
20D03
330
1F
100
AcDbEntity
  8
1
100
AcDbCircle
 10
0.3352850000000558
 20
-3.683916217150397
 30
0.0
 40
0.5858090000000002
100
AcDbArc
 50
255.7289850000012
 51
271.310205
  0
LINE
  5
20D04
330
1F
100
AcDbEntity
  8
1
 48
0.066194
100
AcDbLine
 10
0.4109920000000784
 20
-3.182490217150416
 30
0.0
 11
3.058746000000098
 21
-3.182490217150416
 31
0.0
  0
LINE
  5
20D05
330
1F
100
AcDbEntity
  8
1
 48
0.069312
100
AcDbLine
 10
3.12117500000005
 20
-4.269910217150368
 30
0.0
 11
0.3486880000000951
 21
-4.269910217150368
 31
0.0
  0
LINE
  5
20D06
330
1F
100
AcDbEntity
  8
SK1
 48
0.007853
100
AcDbLine
 10
-6.240278999999929
 20
2.770148782849616
 30
0.0
 11
-6.554413999999894
 21
2.770411782849578
 31
0.0
  0
ARC
  5
20D07
330
1F
100
AcDbEntity
  8
SK1
100
AcDbCircle
 10
-6.236342999999919
 20
2.937470782849572
 30
0.0
 40
0.167365
100
AcDbArc
 50
268.6782450000006
 51
325.4521509999989
  0
LINE
  5
20D08
330
1F
100
AcDbEntity
  8
SK1
 48
0.002077
100
AcDbLine
 10
-6.55972899999989
 20
2.769454782849606
 30
0.0
 11
-6.640006999999911
 21
2.748033782849574
 31
0.0
  0
LINE
  5
20D09
330
1F
100
AcDbEntity
  8
SK1
 48
0.021235
100
AcDbLine
 10
-5.819810999999901
 20
-2.769436217150428
 30
0.0
 11
-6.640134999999929
 21
-2.549088217150369
 31
0.0
  0
LINE
  5
20D0A
330
1F
100
AcDbEntity
  8
SK1
 48
0.007855
100
AcDbLine
 10
-5.500269999999943
 20
-2.770306217150391
 30
0.0
 11
-5.814449999999908
 21
-2.770571217150404
 31
0.0
  0
LINE
  5
20D0B
330
1F
100
AcDbEntity
  8
SK1
 48
0.001791
100
AcDbLine
 10
-6.080232999999964
 20
2.906035782849585
 30
0.0
 11
-6.101872999999898
 21
2.83773578284962
 31
0.0
  0
LINE
  5
20D0C
330
1F
100
AcDbEntity
  8
SK1
 48
0.008129
100
AcDbLine
 10
-4.760202999999933
 20
2.769949782849607
 30
0.0
 11
-5.085365999999964
 21
2.770219782849608
 31
0.0
  0
ARC
  5
20D0D
330
1F
100
AcDbEntity
  8
SK1
100
AcDbCircle
 10
-5.49703699999992
 20
-2.939359217150354
 30
0.0
 40
0.169329
100
AcDbArc
 50
36.40811299999845
 51
91.07448100000043
  0
LINE
  5
20D0E
330
1F
100
AcDbEntity
  8
SK1
 48
0.002394
100
AcDbLine
 10
-5.340143999999952
 20
-2.906339217150389
 30
0.0
 11
-5.369057999999938
 21
-2.815034217150355
 31
0.0
  0
LINE
  5
20D0F
330
1F
100
AcDbEntity
  8
SK1
 48
0.002542
100
AcDbLine
 10
-6.049621999999942
 20
3.003004782849643
 30
0.0
 11
-6.080232999999964
 21
2.906035782849585
 31
0.0
  0
ARC
  5
20D10
330
1F
100
AcDbEntity
  8
SK1
100
AcDbCircle
 10
-5.088093999999898
 20
2.940424782849618
 30
0.0
 40
0.169953
100
AcDbArc
 50
217.1195440000009
 51
270.9017220000007
  0
LINE
  5
20D11
330
1F
100
AcDbEntity
  8
SK1
 48
0.004918
100
AcDbLine
 10
-5.216033999999922
 20
2.814588782849568
 30
0.0
 11
-5.275112999999919
 21
3.002227782849615
 31
0.0
  0
LINE
  5
20D12
330
1F
100
AcDbEntity
  8
SK1
 48
0.008129
100
AcDbLine
 10
-4.020269999999925
 20
-2.770002217150363
 30
0.0
 11
-4.345433999999897
 21
-2.770279217150402
 31
0.0
  0
ARC
  5
20D13
330
1F
100
AcDbEntity
  8
SK1
100
AcDbCircle
 10
-4.75645999999989
 20
2.937815782849611
 30
0.0
 40
0.16757
100
AcDbArc
 50
268.7049809999992
 51
325.3954809999998
  0
LINE
  5
20D14
330
1F
100
AcDbEntity
  8
SK1
 48
0.002527
100
AcDbLine
 10
-5.309746999999958
 20
-3.002637217150379
 30
0.0
 11
-5.340219999999931
 21
-2.9062672171504
 31
0.0
  0
SPLINE
  5
20D15
330
1F
100
AcDbEntity
  8
SK1
100
AcDbSpline
210
0.0
220
0.0
230
1.0
 70
     8
 71
     3
 72
    20
 73
    16
 74
     0
 42
0.000000001
 43
0.0000000001
 40
0.0
 40
0.0
 40
0.0
 40
0.0
 40
0.0140348580301583
 40
0.0271000477817218
 40
0.0423620973177769
 40
0.0564623981146444
 40
0.0740100699724741
 40
0.0901397805164202
 40
0.1053135057002503
 40
0.1203086177696917
 40
0.134765365471456
 40
0.1543609730594811
 40
0.173897644829098
 40
0.1937690312543886
 40
0.2141868726463759
 40
0.2141868726463759
 40
0.2141868726463759
 40
0.2141868726463759
 10
-5.933821502773696
 20
3.177144266846198
 30
0.0
 10
-5.937876925882108
 20
3.174807013617169
 30
0.0
 10
-5.945525888069425
 20
3.169986994613395
 30
0.0
 10
-5.95689032488309
 20
3.161585843654563
 30
0.0
 10
-5.967608661006636
 20
3.152335579351415
 30
0.0
 10
-5.978659275736333
 20
3.141255645666319
 30
0.0
 10
-5.989025403407026
 20
3.129140815904179
 30
0.0
 10
-5.998670166373472
 20
3.116005698099229
 30
0.0
 10
-6.007015931848798
 20
3.103014192159889
 30
0.0
 10
-6.014378759239264
 20
3.090081907842431
 30
0.0
 10
-6.021812784807309
 20
3.075515526069182
 30
0.0
 10
-6.029197518773969
 20
3.059242514830202
 30
0.0
 10
-6.036552558152948
 20
3.040996456511265
 30
0.0
 10
-6.043341677093678
 20
3.022242225682077
 30
0.0
 10
-6.047569993477225
 20
3.009494138003447
 30
0.0
 10
-6.049621625490942
 20
3.003004365542722
 30
0.0
  0
SPLINE
  5
20D16
330
1F
100
AcDbEntity
  8
SK1
100
AcDbSpline
210
0.0
220
0.0
230
1.0
 70
     8
 71
     3
 72
    19
 73
    15
 74
     0
 42
0.000000001
 43
0.0000000001
 40
0.0
 40
0.0
 40
0.0
 40
0.0
 40
0.0207845562666509
 40
0.0407277945549506
 40
0.0603238923262932
 40
0.0799166169382286
 40
0.1014088567009623
 40
0.1243280668054501
 40
0.140450498794239
 40
0.1579851166665225
 40
0.1805201268012243
 40
0.187254770099571
 40
0.200272124104488
 40
0.2142506547063906
 40
0.2142506547063906
 40
0.2142506547063906
 40
0.2142506547063906
 10
-5.275113013673944
 20
3.002228122485462
 30
0.0
 10
-5.277192581943438
 20
3.008837328757124
 30
0.0
 10
-5.281424473763593
 20
3.021738104726068
 30
0.0
 10
-5.28824824694027
 20
3.040656553057829
 30
0.0
 10
-5.295584105444675
 20
3.058956433025173
 30
0.0
 10
-5.303907516029255
 20
3.077399672290653
 30
0.0
 10
-5.313742250096254
 20
3.096347805271989
 30
0.0
 10
-5.324331174726523
 20
3.113553418449612
 30
0.0
 10
-5.335433790390368
 20
3.128814937241941
 30
0.0
 10
-5.347551941342544
 20
3.14312090913495
 30
0.0
 10
-5.358762581487383
 20
3.154027980866715
 30
0.0
 10
-5.369586661237406
 20
3.163059314742042
 30
0.0
 10
-5.378593551813423
 20
3.169807108873783
 30
0.0
 10
-5.386179920280596
 20
3.17466031532848
 30
0.0
 10
-5.390202365552511
 20
3.177016627164334
 30
0.0
  0
LINE
  5
20D17
330
1F
100
AcDbEntity
  8
SK1
 48
0.00431
100
AcDbLine
 10
-4.483490999999901
 20
-2.838376217150425
 30
0.0
 11
-4.535264999999924
 21
-3.002818217150434
 31
0.0
  0
ARC
  5
20D18
330
1F
100
AcDbEntity
  8
SK1
100
AcDbCircle
 10
-4.348922999999956
 20
-2.937877217150401
 30
0.0
 40
0.167284
100
AcDbArc
 50
88.80745000000066
 51
145.5477339999997
  0
SPLINE
  5
20D19
330
1F
100
AcDbEntity
  8
SK1
100
AcDbSpline
210
0.0
220
0.0
230
1.0
 70
     8
 71
     3
 72
    19
 73
    15
 74
     0
 42
0.000000001
 43
0.0000000001
 40
0.0
 40
0.0
 40
0.0
 40
0.0
 40
0.0202846918371183
 40
0.0402174294709947
 40
0.0598056439802615
 40
0.0794419942338056
 40
0.101011271501872
 40
0.1239780022489113
 40
0.1400772392425217
 40
0.1575835324832029
 40
0.171855618898693
 40
0.1872917514726151
 40
0.1998897968234801
 40
0.2134211661819986
 40
0.2134211661819986
 40
0.2134211661819986
 40
0.2134211661819986
 10
-4.535265368032014
 20
-3.00281837015558
 30
0.0
 10
-4.537293989595752
 20
-3.009268804565977
 30
0.0
 10
-4.541529624157021
 20
-3.02198932322932
 30
0.0
 10
-4.548268474742883
 20
-3.04075397293792
 30
0.0
 10
-4.555607450133777
 20
-3.059062065899354
 30
0.0
 10
-4.563938882119657
 20
-3.077542789923313
 30
0.0
 10
-4.57379622514685
 20
-3.096542495491689
 30
0.0
 10
-4.584403741679977
 20
-3.113776895385399
 30
0.0
 10
-4.595507006646755
 20
-3.129035141429881
 30
0.0
 10
-4.605835604415176
 20
-3.141225557248844
 30
0.0
 10
-4.616903761120909
 20
-3.152431442207614
 30
0.0
 10
-4.627553187957232
 20
-3.161700072532994
 30
0.0
 10
-4.638661235221832
 20
-3.169999097627055
 30
0.0
 10
-4.645998882892115
 20
-3.174704235986666
 30
0.0
 10
-4.649887317035961
 20
-3.176994217546848
 30
0.0
  0
ARC
  5
20D1A
330
1F
100
AcDbEntity
  8
SK1
100
AcDbCircle
 10
-4.017803999999898
 20
-2.941072217150349
 30
0.0
 40
0.170886
100
AcDbArc
 50
37.09710399999812
 51
90.82594400000052
  0
LINE
  5
20D1B
330
1F
100
AcDbEntity
  8
SK1
 48
0.002376
100
AcDbLine
 10
-3.860274999999944
 20
-2.905964217150426
 30
0.0
 11
-3.888980999999887
 21
-2.815342217150373
 31
0.0
  0
LINE
  5
20D1C
330
1F
100
AcDbEntity
  8
SK1
 48
0.002527
100
AcDbLine
 10
-4.56978399999997
 20
3.002562782849622
 30
0.0
 11
-4.600210999999887
 21
2.90617678284957
 31
0.0
  0
SPLINE
  5
20D1D
330
1F
100
AcDbEntity
  8
SK1
100
AcDbSpline
210
0.0
220
0.0
230
1.0
 70
     8
 71
     3
 72
    19
 73
    15
 74
     0
 42
0.000000001
 43
0.0000000001
 40
0.0
 40
0.0
 40
0.0
 40
0.0
 40
0.0141285168190181
 40
0.0272837796711366
 40
0.0425671835329082
 40
0.0566967027459818
 40
0.0742745510485969
 40
0.090440089561938
 40
0.1133016245242632
 40
0.1349538686067782
 40
0.150164985727471
 40
0.165391557292155
 40
0.1898734163943386
 40
0.2149866409514284
 40
0.2149866409514284
 40
0.2149866409514284
 40
0.2149866409514284
 10
-4.453336155401018
 20
3.177165660249102
 30
0.0
 10
-4.457427065364925
 20
3.174827412641207
 30
0.0
 10
-4.465143857587975
 20
3.169999934311249
 30
0.0
 10
-4.4765861932608
 20
3.161588808153737
 30
0.0
 10
-4.487361586233703
 20
3.152332766340236
 30
0.0
 10
-4.498454340114221
 20
3.141256778451975
 30
0.0
 10
-4.508863161219153
 20
3.1291363061639
 30
0.0
 10
-4.520061459958412
 20
3.113933697183256
 30
0.0
 10
-4.530766129113658
 20
3.096741951063791
 30
0.0
 10
-4.540016972867931
 20
3.079098107901359
 30
0.0
 10
-4.547303644303042
 20
3.063333743632597
 30
0.0
 10
-4.554401960289908
 20
3.046455561387233
 30
0.0
 10
-4.561958204645804
 20
3.02620615418732
 30
0.0
 10
-4.56726339940684
 20
3.010546129187218
 30
0.0
 10
-4.569784423091391
 20
3.00256305228163
 30
0.0
  0
SPLINE
  5
20D1E
330
1F
100
AcDbEntity
  8
SK1
100
AcDbSpline
210
0.0
220
0.0
230
1.0
 70
     8
 71
     3
 72
    19
 73
    15
 74
     0
 42
0.000000001
 43
0.0000000001
 40
0.0
 40
0.0
 40
0.0
 40
0.0
 40
0.0138608525422652
 40
0.0267620977751737
 40
0.0420335395312212
 40
0.0561422051217124
 40
0.0737270537577037
 40
0.089888400297125
 40
0.1128519199223969
 40
0.1344470366072617
 40
0.1538733146444352
 40
0.1732864861254162
 40
0.1930194206979233
 40
0.2135302722641433
 40
0.2135302722641433
 40
0.2135302722641433
 40
0.2135302722641433
 10
-5.193988649378354
 20
-3.177132036130331
 30
0.0
 10
-5.197990464212864
 20
-3.174818110106002
 30
0.0
 10
-5.205539520843046
 20
-3.170051382733845
 30
0.0
 10
-5.216815738870138
 20
-3.161715835257041
 30
0.0
 10
-5.227501052343427
 20
-3.152501862890744
 30
0.0
 10
-5.238568576846148
 20
-3.141412958690352
 30
0.0
 10
-5.248954454695706
 20
-3.129280793595455
 30
0.0
 10
-5.260151969892547
 20
-3.114034359263314
 30
0.0
 10
-5.270840317761496
 20
-3.096816259978027
 30
0.0
 10
-5.280729453372543
 20
-3.077903374898369
 30
0.0
 10
-5.289068506493492
 20
-3.059557466561273
 30
0.0
 10
-5.296383141820399
 20
-3.041450189163469
 30
0.0
 10
-5.303181545011
 20
-3.022759019899694
 30
0.0
 10
-5.307394885690371
 20
-3.010021986127071
 30
0.0
 10
-5.30946236229812
 20
-3.003504637398577
 30
0.0
  0
LINE
  5
20D1F
330
1F
100
AcDbEntity
  8
SK1
 48
0.008129
100
AcDbLine
 10
-3.280179999999916
 20
2.770062782849606
 30
0.0
 11
-3.60534599999994
 21
2.770333782849604
 31
0.0
  0
ARC
  5
20D20
330
1F
100
AcDbEntity
  8
SK1
100
AcDbCircle
 10
-3.262345999999922
 20
2.921905782849648
 30
0.0
 40
0.146669
100
AcDbArc
 50
296.7061629999997
 51
327.4949469999989
  0
LINE
  5
20D21
330
1F
100
AcDbEntity
  8
SK1
 48
0.002532
100
AcDbLine
 10
-3.82961599999993
 20
-3.003121217150351
 30
0.0
 11
-3.860149999999919
 21
-2.906546217150378
 31
0.0
  0
SPLINE
  5
20D22
330
1F
100
AcDbEntity
  8
SK1
100
AcDbSpline
210
0.0
220
0.0
230
1.0
 70
     8
 71
     3
 72
    19
 73
    15
 74
     0
 42
0.000000001
 43
0.0000000001
 40
0.0
 40
0.0
 40
0.0
 40
0.0
 40
0.0138715765291515
 40
0.0267897142472417
 40
0.0420874558408722
 40
0.0562285646842578
 40
0.0737903932857838
 40
0.0899443371028208
 40
0.1128768142175393
 40
0.1345072309606293
 40
0.1583025947572365
 40
0.1822041551339347
 40
0.197936758164287
 40
0.2140551827165678
 40
0.2140551827165678
 40
0.2140551827165678
 40
0.2140551827165678
 10
-3.713787104103801
 20
-3.177089508546714
 30
0.0
 10
-3.717797023001708
 20
-3.174782459469497
 30
0.0
 10
-3.725363916893059
 20
-3.170026719117686
 30
0.0
 10
-3.736670973256025
 20
-3.161702583914916
 30
0.0
 10
-3.747391654693331
 20
-3.15249086813003
 30
0.0
 10
-3.758484230156966
 20
-3.141410007687454
 30
0.0
 10
-3.768886745682891
 20
-3.129291194262918
 30
0.0
 10
-3.780090701145127
 20
-3.114074859081767
 30
0.0
 10
-3.790796446664217
 20
-3.096868651483646
 30
0.0
 10
-3.801376311295427
 20
-3.07667072873636
 30
0.0
 10
-3.810826487824499
 20
-3.055568380410818
 30
0.0
 10
-3.818500157580388
 20
-3.035859012196624
 30
0.0
 10
-3.824649521193066
 20
-3.018320550378064
 30
0.0
 10
-3.827995430864973
 20
-3.008243779212648
 30
0.0
 10
-3.829615673513274
 20
-3.003120905416153
 30
0.0
  0
SPLINE
  5
20D23
330
1F
100
AcDbEntity
  8
SK1
100
AcDbSpline
210
0.0
220
0.0
230
1.0
 70
     8
 71
     3
 72
    19
 73
    15
 74
     0
 42
0.000000001
 43
0.0000000001
 40
0.0
 40
0.0
 40
0.0
 40
0.0
 40
0.0205207409728015
 40
0.040417635417999
 40
0.0599706290777588
 40
0.0794830496580307
 40
0.1009308957768375
 40
0.123746980412012
 40
0.1398468466351408
 40
0.1573627491472371
 40
0.1713610459059942
 40
0.1865126112042482
 40
0.1994762147180823
 40
0.2134021499169571
 40
0.2134021499169571
 40
0.2134021499169571
 40
0.2134021499169571
 10
-3.79518395507381
 20
3.002691359116738
 30
0.0
 10
-3.797237080087313
 20
3.009216687135449
 30
0.0
 10
-3.801436498426824
 20
3.022019292100821
 30
0.0
 10
-3.808219687689017
 20
3.040827178344329
 30
0.0
 10
-3.815531670917721
 20
3.059075620030512
 30
0.0
 10
-3.823826906946521
 20
3.077470126663001
 30
0.0
 10
-3.833617143618425
 20
3.096355568696822
 30
0.0
 10
-3.844162324659066
 20
3.113521446125389
 30
0.0
 10
-3.85521754869643
 20
3.128756622291916
 30
0.0
 10
-3.865471585298735
 20
3.140894921766403
 30
0.0
 10
-3.876386259964476
 20
3.151994325322675
 30
0.0
 10
-3.886951539839685
 20
3.161260319528537
 30
0.0
 10
-3.898155643136135
 20
3.169696839942332
 30
0.0
 10
-3.90569856447513
 20
3.174552322809461
 30
0.0
 10
-3.909698929688886
 20
3.176911782860088
 30
0.0
  0
LINE
  5
20D24
330
1F
100
AcDbEntity
  8
SK1
 48
0.004925
100
AcDbLine
 10
-3.735999999999933
 20
2.814809782849579
 30
0.0
 11
-3.795183999999892
 21
3.002691782849638
 31
0.0
  0
ARC
  5
20D25
330
1F
100
AcDbEntity
  8
SK1
100
AcDbCircle
 10
-3.607890999999938
 20
2.94062378284957
 30
0.0
 40
0.170113
100
AcDbArc
 50
217.0671279999983
 51
270.8561959999986
  0
LINE
  5
20D26
330
1F
100
AcDbEntity
  8
SK1
 48
0.008129
100
AcDbLine
 10
-2.540231999999889
 20
-2.770076217150403
 30
0.0
 11
-2.865398999999968
 21
-2.770349217150396
 31
0.0
  0
ARC
  5
20D27
330
1F
100
AcDbEntity
  8
SK1
100
AcDbCircle
 10
-3.28046699999993
 20
2.950977782849577
 30
0.0
 40
0.180912
100
AcDbArc
 50
270.0908009999978
 51
297.6950460000014
  0
LINE
  5
20D28
330
1F
100
AcDbEntity
  8
SK1
 48
0.00176
100
AcDbLine
 10
-3.120233999999925
 20
2.905733782849608
 30
0.0
 11
-3.141501999999888
 21
2.838615782849615
 31
0.0
  0
SPLINE
  5
20D29
330
1F
100
AcDbEntity
  8
SK1
100
AcDbSpline
210
0.0
220
0.0
230
1.0
 70
     8
 71
     3
 72
    20
 73
    16
 74
     0
 42
0.000000001
 43
0.0000000001
 40
0.0
 40
0.0
 40
0.0
 40
0.0
 40
0.0205475051628771
 40
0.0405118325784133
 40
0.0601260510114645
 40
0.0797397109347958
 40
0.0875935216526063
 40
0.1053896724417163
 40
0.1241815127406274
 40
0.1402580640945419
 40
0.1577503912793998
 40
0.1717549710372174
 40
0.1869160120269973
 40
0.1999551112141937
 40
0.2139631767800802
 40
0.2139631767800802
 40
0.2139631767800802
 40
0.2139631767800802
 10
-3.055101247419486
 20
-3.002322984741283
 30
0.0
 10
-3.057155436274172
 20
-3.008857301867976
 30
0.0
 10
-3.061361099578334
 20
-3.021690912558312
 30
0.0
 10
-3.068156261381773
 20
-3.040549666961055
 30
0.0
 10
-3.075491416232409
 20
-3.058870987406521
 30
0.0
 10
-3.081942915960723
 20
-3.073185070250019
 30
0.0
 10
-3.08864205866547
 20
-3.086704920184615
 30
0.0
 10
-3.095709286912665
 20
-3.099733465308531
 30
0.0
 10
-3.105030496006463
 20
-3.114626332388695
 30
0.0
 10
-3.11529357955834
 20
-3.128758849161613
 30
0.0
 10
-3.125542103596558
 20
-3.140883876902591
 30
0.0
 10
-3.136457424383877
 20
-3.151979034840906
 30
0.0
 10
-3.147047957248048
 20
-3.161262411601796
 30
0.0
 10
-3.158300732603436
 20
-3.169727212790462
 30
0.0
 10
-3.165892400229608
 20
-3.174604279145569
 30
0.0
 10
-3.169919110156911
 20
-3.176973037463312
 30
0.0
  0
LINE
  5
20D2A
330
1F
100
AcDbEntity
  8
SK1
 48
0.004304
100
AcDbLine
 10
-3.003391999999905
 20
-2.838111217150412
 30
0.0
 11
-3.055100999999922
 21
-3.002323217150433
 31
0.0
  0
ARC
  5
20D2B
330
1F
100
AcDbEntity
  8
SK1
100
AcDbCircle
 10
-2.868962999999951
 20
-2.938124217150402
 30
0.0
 40
0.16752
100
AcDbArc
 50
88.78292299999975
 51
145.4430649999986
  0
ARC
  5
20D2C
330
1F
100
AcDbEntity
  8
SK1
100
AcDbCircle
 10
-2.53737099999995
 20
-2.940314217150387
 30
0.0
 40
0.170057
100
AcDbArc
 50
36.93496699999999
 51
90.96304900000049
  0
LINE
  5
20D2D
330
1F
100
AcDbEntity
  8
SK1
 48
0.002394
100
AcDbLine
 10
-2.380143999999916
 20
-2.906371217150422
 30
0.0
 11
-2.409127999999952
 21
-2.815120217150365
 31
0.0
  0
LINE
  5
20D2E
330
1F
100
AcDbEntity
  8
SK1
 48
0.002537
100
AcDbLine
 10
-3.089751999999919
 20
3.002520782849614
 30
0.0
 11
-3.120233999999925
 21
2.905733782849608
 31
0.0
  0
SPLINE
  5
20D2F
330
1F
100
AcDbEntity
  8
SK1
100
AcDbSpline
210
0.0
220
0.0
230
1.0
 70
     8
 71
     3
 72
    19
 73
    15
 74
     0
 42
0.000000001
 43
0.0000000001
 40
0.0
 40
0.0
 40
0.0
 40
0.0
 40
0.0141229000433538
 40
0.0272721768685192
 40
0.0425417532664674
 40
0.056650112238054
 40
0.0742322781561641
 40
0.0903932009279305
 40
0.1133341165480201
 40
0.1349206118465027
 40
0.1542882871941867
 40
0.173651444594783
 40
0.1933293892492343
 40
0.2138011636841709
 40
0.2138011636841709
 40
0.2138011636841709
 40
0.2138011636841709
 10
-2.973633115306199
 20
3.177137277141923
 30
0.0
 10
-2.977717066521393
 20
3.174790666531919
 30
0.0
 10
-2.985419761397167
 20
3.169948027858538
 30
0.0
 10
-2.996837251703652
 20
3.161517538769032
 30
0.0
 10
-3.007583688288946
 20
3.152248916076018
 30
0.0
 10
-3.018649156765604
 20
3.141160233529944
 30
0.0
 10
-3.029033537275324
 20
3.12902830989276
 30
0.0
 10
-3.040225322155436
 20
3.11378830849469
 30
0.0
 10
-3.050908260702669
 20
3.096579350295883
 30
0.0
 10
-3.060784384209625
 20
3.077693462058846
 30
0.0
 10
-3.069109177855978
 20
3.05938405634788
 30
0.0
 10
-3.076406353442678
 20
3.041328562090711
 30
0.0
 10
-3.083191730396436
 20
3.022683772055643
 30
0.0
 10
-3.087397312764778
 20
3.009977196867623
 30
0.0
 10
-3.089461758678112
 20
3.003472551727668
 30
0.0
  0
LINE
  5
20D30
330
1F
100
AcDbEntity
  8
SK1
 48
0.000965
100
AcDbLine
 10
-1.658883999999886
 20
2.842731782849568
 30
0.0
 11
-1.683797999999967
 21
2.813264782849614
 31
0.0
  0
LINE
  5
20D31
330
1F
100
AcDbEntity
  8
SK1
 48
0.001792
100
AcDbLine
 10
-1.64021299999996
 20
2.906139782849606
 30
0.0
 11
-1.661858999999935
 21
2.837819782849578
 31
0.0
  0
LINE
  5
20D32
330
1F
100
AcDbEntity
  8
SK1
 48
0.002529
100
AcDbLine
 10
-2.349670999999887
 20
-3.002818217150434
 30
0.0
 11
-2.380143999999916
 21
-2.906371217150422
 31
0.0
  0
SPLINE
  5
20D33
330
1F
100
AcDbEntity
  8
SK1
100
AcDbSpline
210
0.0
220
0.0
230
1.0
 70
     8
 71
     3
 72
    20
 73
    16
 74
     0
 42
0.000000001
 43
0.0000000001
 40
0.0
 40
0.0
 40
0.0
 40
0.0
 40
0.0141343277141627
 40
0.0272938002528303
 40
0.0425648797899119
 40
0.0566744901378212
 40
0.0742316636298097
 40
0.090371526207399
 40
0.1010529680535033
 40
0.1184031149000701
 40
0.1350122762898261
 40
0.1546043825213466
 40
0.1741352064033117
 40
0.1940011008394424
 40
0.2144900776353095
 40
0.2144900776353095
 40
0.2144900776353095
 40
0.2144900776353095
 10
-2.233629425971912
 20
-3.17711825447111
 30
0.0
 10
-2.237717522646732
 20
-3.174771200013651
 30
0.0
 10
-2.245427887146263
 20
-3.169927182476101
 30
0.0
 10
-2.256853714898568
 20
-3.161494948811935
 30
0.0
 10
-2.267605325030501
 20
-3.152225724531774
 30
0.0
 10
-2.278667573678774
 20
-3.141144190922659
 30
0.0
 10
-2.289044596337873
 20
-3.129026125557061
 30
0.0
 10
-2.297810289976723
 20
-3.117095877344581
 30
0.0
 10
-2.305884059028187
 20
-3.104778999389338
 30
0.0
 10
-2.313394845012396
 20
-3.09192205745694
 30
0.0
 10
-2.321560470588735
 20
-3.076041471994926
 30
0.0
 10
-2.329243427046151
 20
-3.059119041516794
 30
0.0
 10
-2.336595776291687
 20
-3.040877401308989
 30
0.0
 10
-2.343403937465723
 20
-3.022108502411242
 30
0.0
 10
-2.347612040876185
 20
-3.009330751992592
 30
0.0
 10
-2.349671145573722
 20
-3.002818410998656
 30
0.0
  0
LINE
  5
20D34
330
1F
100
AcDbEntity
  8
SK1
 48
0.002529
100
AcDbLine
 10
-1.609713999999939
 20
3.002585782849621
 30
0.0
 11
-1.64021299999996
 21
2.906139782849606
 31
0.0
  0
SPLINE
  5
20D35
330
1F
100
AcDbEntity
  8
SK1
100
AcDbSpline
210
0.0
220
0.0
230
1.0
 70
     8
 71
     3
 72
    19
 73
    15
 74
     0
 42
0.000000001
 43
0.0000000001
 40
0.0
 40
0.0
 40
0.0
 40
0.0
 40
0.0140901652012802
 40
0.0271984247961135
 40
0.0424853965612512
 40
0.0566071662370766
 40
0.0741863788043629
 40
0.0903424811495865
 40
0.1132822837162237
 40
0.1349280585993084
 40
0.1545565627471891
 40
0.1741958608399647
 40
0.1941757948340919
 40
0.2147527934011662
 40
0.2147527934011662
 40
0.2147527934011662
 40
0.2147527934011662
 10
-1.493570136217442
 20
3.177135597239043
 30
0.0
 10
-1.497644742234172
 20
3.174794664170974
 30
0.0
 10
-1.505327451158166
 20
3.169966551462323
 30
0.0
 10
-1.516733411608413
 20
3.161552274709208
 30
0.0
 10
-1.527482370950167
 20
3.152291751595043
 30
0.0
 10
-1.538560019671933
 20
3.141202085481154
 30
0.0
 10
-1.548951807339847
 20
3.129074050774192
 30
0.0
 10
-1.560149916731973
 20
3.113842380081791
 30
0.0
 10
-1.570851046032942
 20
3.09662372019568
 30
0.0
 10
-1.580782616743647
 20
3.077646617105358
 30
0.0
 10
-1.589186273594066
 20
3.059154409261282
 30
0.0
 10
-1.596574516814996
 20
3.040833903281907
 30
0.0
 10
-1.603415930168466
 20
3.021966989620807
 30
0.0
 10
-1.607647337525861
 20
3.009125991933387
 30
0.0
 10
-1.609714157341898
 20
3.002585306994831
 30
0.0
  0
ARC
  5
20D36
330
1F
100
AcDbEntity
  8
1
100
AcDbCircle
 10
0.0750010000000998
 20
4.170538782849575
 30
0.0
 40
0.250008
100
AcDbArc
 50
90.00026799999831
 51
107.4573350000008
  0
ARC
  5
20D37
330
1F
100
AcDbEntity
  8
1
100
AcDbCircle
 10
0.0750010000000998
 20
-4.170535217150359
 30
0.0
 40
0.250008
100
AcDbArc
 50
252.5426649999992
 51
269.9997319999984
  0
ARC
  5
20D38
330
1F
100
AcDbEntity
  8
1
100
AcDbCircle
 10
0.0729330693691281
 20
4.70640623019932
 30
0.0
 40
0.2870682201699477
100
AcDbArc
 50
280.1897567230134
 51
359.8282635555364
  0
ARC
  5
20D39
330
1F
100
AcDbEntity
  8
1
100
AcDbCircle
 10
0.0750000000001023
 20
-4.705542217150423
 30
0.0
 40
0.285
100
AcDbArc
 50
0.0
 51
90.0
  0
LINE
  5
20D3A
330
1F
100
AcDbEntity
  8
1
 48
0.067034
100
AcDbLine
 10
3.07527500000009
 20
-6.907204217150365
 30
0.0
 11
0.3939230000000293
 21
-6.907204217150365
 31
0.0
  0
LINE
  5
20D3B
330
1F
100
AcDbEntity
  8
1
 48
0.03892
100
AcDbLine
 10
3.319769000000064
 20
-4.475336217150356
 30
0.0
 11
3.212836000000095
 21
-6.028442217150427
 31
0.0
  0
LINE
  5
20D3C
330
1F
100
AcDbEntity
  8
1
 48
0.038921
100
AcDbLine
 10
0.2568110000000843
 20
-6.028490217150419
 30
0.0
 11
0.1500920000000292
 21
-4.475322217150392
 31
0.0
  0
LINE
  5
20D3D
330
1F
100
AcDbEntity
  8
4
100
AcDbLine
 10
0.0000000000000568
 20
0.0000017828496084
 30
0.0
 11
4.043850676963813
 21
0.0000017828496084
 31
0.0
  0
LWPOLYLINE
  5
20D3E
102
{ACAD_REACTORS
330
20D58
102
}
330
1F
100
AcDbEntity
  8
CUT
100
AcDbPolyline
 90
       71
 70
     1
 43
0.0
 10
3.077338081905907
 20
5.211254538384821
 10
3.07263963575906
 20
5.185056546144778
 10
3.068036144054758
 20
5.15946987606145
 10
3.063530528922626
 20
5.134515661191528
 10
3.05912570137923
 20
5.110215053166768
 10
3.054824554754702
 20
5.086589180181874
 10
3.050629958119316
 20
5.063659104981809
 10
3.046544749710278
 20
5.041445782849564
 10
0.3600000000000705
 20
5.041445782849564
 10
0.3600000000000705
 20
6.177163383561435
 10
0.3560497067625192
 20
6.225041559709381
 42
0.1687373497206218
 10
0.2659422099691824
 20
6.390032947516601
 42
0.0766108251732732
 10
0.1931203101128176
 20
6.438130368682493
 10
0.1801279437123639
 20
7.24013205582986
 10
0.1805067011636652
 20
7.413152149128393
 10
0.1775237368935336
 20
7.587579028619643
 10
0.1501003062281825
 20
8.640889793425287
 10
0.1562783706794448
 20
8.697815508833457
 42
-0.0490206679899168
 10
0.1700057568976376
 20
8.736235905338446
 10
0.1903963857585609
 20
8.770323389847021
 10
0.2343059044822553
 20
8.809774475176766
 42
-0.0497731722920421
 10
0.2698799742586289
 20
8.828844358446076
 10
0.3085106701659015
 20
8.840542410359375
 10
0.3491550336380556
 20
8.844456282849591
 10
3.121012681551349
 20
8.844456282849591
 10
3.179052388855382
 20
8.836216325255804
 42
-0.0497871075484802
 10
3.216486502639327
 20
8.821120535208876
 10
3.250218912141406
 20
8.798954800726619
 10
3.279946623481066
 20
8.769364652137426
 10
3.30633984188222
 20
8.720961455886936
 42
-0.0490204323960669
 10
3.316968784189612
 20
8.6815709800656
 10
3.319749755316252
 20
8.640515420444955
 10
3.291775315141364
 20
7.586369766958796
 10
3.288785929579091
 20
7.413152794644929
 10
3.289149394797561
 20
7.239853924336216
 10
3.281026956266828
 20
6.788478877912041
 42
0.0006069459577271
 10
3.277779466801064
 20
6.562208395194943
 10
3.275080183577017
 20
6.335835212303834
 10
3.268606935058414
 20
6.298957414398728
 10
3.262141708132901
 20
6.262115299645927
 10
3.255701605588114
 20
6.225406828410939
 10
3.249287809433837
 20
6.188839332646466
 10
3.242901678419741
 20
6.152421226468732
 10
3.236544705084043
 20
6.116161765226308
 10
3.230218472802107
 20
6.080070804569402
 10
3.223924612834821
 20
6.044158559519075
 10
3.217664761377477
 20
6.008435363536307
 10
3.211440516608206
 20
5.972911427591043
 10
3.205253395736576
 20
5.93759659923171
 10
3.199104792170544
 20
5.902500122082756
 10
3.192995987622396
 20
5.86763065201103
 10
3.186928343436761
 20
5.832997309574466
 10
3.180903363182551
 20
5.798610190025669
 10
3.174922683928457
 20
5.764480331466472
 10
3.168988069669808
 20
5.730619672835189
 10
3.163101404755309
 20
5.697041011894384
 10
3.157264687313499
 20
5.663757963218245
 10
3.15148002267955
 20
5.630784916180175
 10
3.145749616822001
 20
5.59813699294051
 10
3.140075769769282
 20
5.565830006433827
 10
3.134460869036672
 20
5.533880418356773
 10
3.128907383052592
 20
5.502305297155317
 10
3.123417854585625
 20
5.471122276012522
 10
3.117994894170976
 20
5.440349510836085
 10
3.112641173537269
 20
5.410005638245763
 10
3.107359419033173
 20
5.380109733560971
 10
3.102152405054027
 20
5.350681268788548
 10
3.097022947468758
 20
5.321740070609905
 10
3.091973897046216
 20
5.293306278368959
 10
3.087008132882147
 20
5.265400302059447
 10
3.08212855582559
 20
5.238042780312639
  0
LINE
  5
20D3F
330
1F
100
AcDbEntity
  8
1
100
AcDbLine
 10
0.123717959145381
 20
4.423865864938079
 30
0.0
 11
0.1211816234731486
 21
4.423423423929705
 31
0.0
  0
LINE
  5
20D40
330
1F
100
AcDbEntity
  8
1
100
AcDbLine
 10
0.1211816234731486
 20
4.423423423929705
 30
0.0
 11
0.1127787302929732
 21
4.422900011861258
 31
0.0
  0
LINE
  5
20D41
330
1F
100
AcDbEntity
  8
1
100
AcDbLine
 10
0.1127787302929732
 20
4.422900011861258
 30
0.0
 11
0.1063636618308692
 21
4.422500420413257
 31
0.0
  0
LINE
  5
20D42
330
1F
100
AcDbEntity
  8
1
100
AcDbLine
 10
0.0989173669757406
 20
4.422036594382291
 30
0.0
 11
0.0962017468730778
 21
4.421867439746563
 31
0.0
  0
LINE
  5
20D43
330
1F
100
AcDbEntity
  8
1
100
AcDbLine
 10
0.0962017468730778
 20
4.421867439746563
 30
0.0
 11
0.0935946598537498
 21
4.421705045582996
 31
0.0
  0
LINE
  5
20D44
330
1F
100
AcDbEntity
  8
1
100
AcDbLine
 10
0.0935946598537498
 20
4.421705045582996
 30
0.0
 11
0.0919752266094065
 21
4.421604171885576
 31
0.0
  0
LINE
  5
20D45
330
1F
100
AcDbEntity
  8
1
100
AcDbLine
 10
0.0919752266094065
 20
4.421604171885576
 30
0.0
 11
0.088150794696503
 21
4.4213659499095
 31
0.0
  0
LINE
  5
20D46
330
1F
100
AcDbEntity
  8
1
100
AcDbLine
 10
0.088150794696503
 20
4.4213659499095
 30
0.0
 11
0.0865850812252234
 21
4.421268422390198
 31
0.0
  0
LINE
  5
20D47
330
1F
100
AcDbEntity
  8
1
100
AcDbLine
 10
0.0865850812252234
 20
4.421268422390198
 30
0.0
 11
0.0843091973702599
 21
4.42112665870826
 31
0.0
  0
LINE
  5
20D48
330
1F
100
AcDbEntity
  8
1
100
AcDbLine
 10
0.0843091973702599
 20
4.42112665870826
 30
0.0
 11
0.0829356102323118
 21
4.421041098643456
 31
0.0
  0
LINE
  5
20D49
330
1F
100
AcDbEntity
  8
1
100
AcDbLine
 10
0.0829356102323118
 20
4.421041098643456
 30
0.0
 11
0.0814813869672548
 21
4.420950515794118
 31
0.0
  0
LINE
  5
20D4A
330
1F
100
AcDbEntity
  8
1
100
AcDbLine
 10
0.0814813869672548
 20
4.420950515794118
 30
0.0
 11
0.0803297618516013
 21
4.420878781634087
 31
0.0
  0
LINE
  5
20D4B
330
1F
100
AcDbEntity
  8
1
100
AcDbLine
 10
0.0803297618516013
 20
4.420878781634087
 30
0.0
 11
0.079083967315853
 21
4.420801181707417
 31
0.0
  0
LINE
  5
20D4C
330
1F
100
AcDbEntity
  8
1
100
AcDbLine
 10
0.079083967315853
 20
4.420801181707417
 30
0.0
 11
0.0782998673397515
 21
4.420752340506908
 31
0.0
  0
LINE
  5
20D4D
330
1F
100
AcDbEntity
  8
1
100
AcDbLine
 10
0.0782998673397515
 20
4.420752340506908
 30
0.0
 11
0.0777738695802555
 21
4.420719576366138
 31
0.0
  0
LINE
  5
20D4E
330
1F
100
AcDbEntity
  8
1
100
AcDbLine
 10
0.0777738695802555
 20
4.420719576366138
 30
0.0
 11
0.0770867380670097
 21
4.420676775283311
 31
0.0
  0
LINE
  5
20D4F
330
1F
100
AcDbEntity
  8
1
100
AcDbLine
 10
0.0770867380670097
 20
4.420676775283311
 30
0.0
 11
0.0766158716665473
 21
4.420647445247652
 31
0.0
  0
LINE
  5
20D50
330
1F
100
AcDbEntity
  8
1
100
AcDbLine
 10
0.0766158716665473
 20
4.420647445247652
 30
0.0
 11
0.0759245348363038
 21
4.420604382217788
 31
0.0
  0
LINE
  5
20D51
330
1F
100
AcDbEntity
  8
1
100
AcDbLine
 10
0.0759245348363038
 20
4.420604382217788
 30
0.0
 11
0.0754103871794882
 21
4.420572356213995
 31
0.0
  0
LINE
  5
20D52
330
1F
100
AcDbEntity
  8
1
100
AcDbLine
 10
0.0754103871794882
 20
4.420572356213995
 30
0.0
 11
0.0749999999960664
 21
4.420546782847566
 31
0.0
  0
LINE
  5
20D53
330
1F
100
AcDbEntity
  8
1
100
AcDbLine
 10
0.1063636618308692
 20
4.422500420413257
 30
0.0
 11
0.0989173669757406
 21
4.422036594382291
 31
0.0
  0
LWPOLYLINE
  5
20D54
330
1F
100
AcDbEntity
  8
NOCUT
100
AcDbPolyline
 90
       12
 70
     1
 43
0.0
 10
0.0749998305920485
 20
4.420546782846827
 42
0.076595314815119
 10
0.0000000000000568
 20
4.409029782849643
 10
0.0000000000000568
 20
3.86928878284965
 10
0.0000000000000568
 20
0.0
 10
2.158711283940078
 20
0.0
 10
2.644406283940099
 20
2.754511999999976
 10
2.887253283940083
 20
4.131767000000024
 10
2.988334283940105
 20
4.705025999999975
 10
3.047654237264111
 20
5.041445782849564
 10
0.36000028394011
 20
5.041445782849564
 10
0.36000028394011
 20
4.705543999999918
 42
-0.3650936120385806
 10
0.1211816234730918
 20
4.423423423929705
  0
DIMENSION
  5
20D55
330
1F
100
AcDbEntity
  8
2
100
AcDbDimension
  2
*D14
 10
0.1504911937694267
 20
20.97617892695041
 30
0.0
 11
-14.92546804727064
 21
20.97617892695041
 31
0.0
 70
   160
 71
     5
 42
3.169133360211446
  3
STANDARD
100
AcDbAlignedDimension
 13
3.319624553980872
 23
8.63399038815271
 33
0.0
 14
0.150491193769426
 24
8.62401205143783
 34
0.0
100
AcDbRotatedDimension
1001
ACAD
1000
DSTYLE
1002
{
1070
   172
1070
     1
1002
}
  0
DIMENSION
  5
20D56
102
{ACAD_XDICTIONARY
360
20D57
102
}
102
{ACAD_REACTORS
330
20D58
102
}
330
1F
100
AcDbEntity
  8
2
100
AcDbDimension
  2
*D15
 10
3.122155637238128
 20
8.641163443572311
 30
0.0
 11
15.45734211541807
 21
19.64076295838999
 31
0.0
 70
    36
 71
     5
 42
0.2031818569597972
  3
STANDARD
100
AcDbRadialDimension
 15
3.288352995721613
 25
8.758045029079795
 35
0.0
 40
0.0
1001
ACAD
1000
DSTYLE
1002
{
1070
   288
1070
     1
1002
}
1001
ACAD_DSTYLE_DIMRADIAL_EXTENSION
1070
   387
1070
     1
1070
   388
1040
1.08798819214216
1070
   390
1040
1.286972319832517
  0
LINE
  5
20D59
330
1F
100
AcDbEntity
  8
INFTOTAL
100
AcDbLine
 10
29.34180554595372
 20
32.42252288536509
 30
0.0
 11
-50.94341214407854
 21
32.42252288536509
 31
0.0
  0
LINE
  5
20D5A
330
1F
100
AcDbEntity
  8
INFTOTAL
100
AcDbLine
 10
-50.94341214407854
 20
32.42252288536509
 30
0.0
 11
-50.94341214407854
 21
-4.073079833292865
 31
0.0
  0
LINE
  5
20D5B
330
1F
100
AcDbEntity
  8
INFTOTAL
100
AcDbLine
 10
34.6622110586307
 20
22.7605252146214
 30
0.0
 11
34.6622110586307
 21
-25.31163959408071
 31
0.0
  0
LINE
  5
20D5C
330
1F
100
AcDbEntity
  8
INFTOTAL
100
AcDbLine
 10
34.6622110586307
 20
-25.31163959408071
 30
0.0
 11
-49.35263790568473
 21
-25.31163959408071
 31
0.0
  0
INSERT
  5
20D5D
330
1F
100
AcDbEntity
  8
SK2
100
AcDbBlockReference
  2
cero_point
 10
0.0000000000000568
 20
0.0000011121907733
 30
0.0
 41
0.3761724232892334
 42
0.3761724232892334
 43
0.3761724232892334
  0
ATTDEF
  5
20D5E
330
1F
100
AcDbEntity
  8
SK6
100
AcDbText
 10
-25.87156012292716
 20
-16.69122908343666
 30
0.0
 40
3.5
  1

 72
     1
 11
-4.642818028759904
 21
-16.69122908343666
 31
0.0
100
AcDbAttributeDefinition
  3

  2
16T17731T6RK02
 70
     0
  0
DIMENSION
  5
20D9C
330
1F
100
AcDbEntity
  8
2
100
AcDbDimension
  2
*D16
 10
17.52175486653465
 20
-8.844452717150378
 30
0.0
 11
15.56861361565623
 21
0.0000017828496076
 31
0.0
 70
    32
  1
%%C<>
 71
     5
 42
17.68890899999997
  3
STANDARD
100
AcDbAlignedDimension
 13
3.121012681551349
 23
8.844456282849591
 33
0.0
 14
3.121012681551349
 24
-8.844452717150375
 34
0.0
 50
90.0
100
AcDbRotatedDimension
  0
VIEWPORT
  5
9C00
102
{ACAD_XDICTIONARY
360
20E31
102
}
330
1B
100
AcDbEntity
 67
     1
  8
0
100
AcDbViewport
 10
108.2280559557949
 20
71.69854161746989
 30
0.0
 40
251.8950231529317
 41
201.8884082081047
 68
     1
 69
     1
 12
108.2280559557949
 22
71.69854161746989
 13
0.0
 23
0.0
 14
10.0
 24
10.0
 15
10.0
 25
10.0
 16
0.0
 26
0.0
 36
1.0
 17
0.0
 27
0.0
 37
0.0
 42
50.0
 43
0.0
 44
0.0
 45
201.8884082081047
 50
0.0
 51
0.0
 72
   100
 90
   557088
  1

281
     0
 71
     1
 74
     0
110
0.0
120
0.0
130
0.0
111
1.0
121
0.0
131
0.0
112
0.0
122
1.0
132
0.0
 79
     0
146
0.0
  0
VIEWPORT
  5
9C02
102
{ACAD_XDICTIONARY
360
20E33
102
}
330
1B
100
AcDbEntity
 67
     1
  8
1
100
AcDbViewport
 10
143.457083940506
 20
98.18158769607544
 30
0.0
 40
229.5313343048095
 41
157.0905403137207
 68
     2
 69
     2
 12
-44.37697124786255
 22
-35.12342998133886
 13
0.0
 23
0.0
 14
10.0
 24
10.0
 15
10.0
 25
10.0
 16
0.0
 26
0.0
 36
1.0
 17
0.0
 27
0.0
 37
0.0
 42
50.0
 43
0.0
 44
0.0
 45
300.3886240724386
 50
0.0
 51
0.0
 72
   100
 90
   557088
  1

281
     0
 71
     1
 74
     0
110
0.0
120
0.0
130
0.0
111
1.0
121
0.0
131
0.0
112
0.0
122
1.0
132
0.0
 79
     0
146
0.0
  0
ENDSEC
  0
SECTION
  2
OBJECTS
  0
DICTIONARY
  5
3182
330
0
100
AcDbDictionary
281
     1
  3
ACAD_CIP_PREVIOUS_PRODUCT_INFO
350
1B2F4
  3
ACAD_COLOR
350
31A0
  3
ACAD_DETAILVIEWSTYLE
350
1B2F0
  3
ACAD_GROUP
350
3183
  3
ACAD_LAYOUT
350
31A5
  3
ACAD_MATERIAL
350
318B
  3
ACAD_MLEADERSTYLE
350
1B221
  3
ACAD_MLINESTYLE
350
3184
  3
ACAD_PLOTSETTINGS
350
31A4
  3
ACAD_PLOTSTYLENAME
350
3189
  3
ACAD_SCALELIST
350
1B1FC
  3
ACAD_SECTIONVIEWSTYLE
350
1B2EE
  3
ACAD_TABLESTYLE
350
31A1
  3
ACAD_VISUALSTYLE
350
318F
  3
ACDB_RECOMPOSE_DATA
350
20E0A
  3
AcDbVariableDictionary
350
33A3
  3
AEC_PROPERTY_SET_DEFS
350
20C3F
  3
DWGPROPS
350
20E0B
  0
DICTIONARY
  5
422A
330
2
100
AcDbDictionary
280
     1
281
     1
  3
ACAD_LAYERFILTERS
360
1B063
  3
ACAD_LAYERSTATES
360
9A1C
  3
ACLYDICTIONARY
360
1B062
  0
DICTIONARY
  5
1B2F5
330
10
100
AcDbDictionary
280
     1
281
     1
  3
ADSK_XREC_LAYER_RECONCILED
360
20A9D
  0
DICTIONARY
  5
1B2F7
330
3F8C
100
AcDbDictionary
280
     1
281
     1
  3
ADSK_XREC_LAYER_RECONCILED
360
20A9E
  0
DICTIONARY
  5
1B2F9
330
9C4A
100
AcDbDictionary
280
     1
281
     1
  3
ADSK_XREC_LAYER_RECONCILED
360
20A9F
  0
DICTIONARY
  5
1B2FB
330
9C4B
100
AcDbDictionary
280
     1
281
     1
  3
ADSK_XREC_LAYER_RECONCILED
360
20AA0
  0
DICTIONARY
  5
1B2FD
330
9C4D
100
AcDbDictionary
280
     1
281
     1
  3
ADSK_XREC_LAYER_RECONCILED
360
20AA1
  0
DICTIONARY
  5
1B2FF
330
9C4E
100
AcDbDictionary
280
     1
281
     1
  3
ADSK_XREC_LAYER_RECONCILED
360
20AA2
  0
DICTIONARY
  5
1B301
330
9C4F
100
AcDbDictionary
280
     1
281
     1
  3
ADSK_XREC_LAYER_RECONCILED
360
20AA3
  0
DICTIONARY
  5
1B303
330
9C50
100
AcDbDictionary
280
     1
281
     1
  3
ADSK_XREC_LAYER_RECONCILED
360
20AA4
  0
DICTIONARY
  5
1B305
330
9C51
100
AcDbDictionary
280
     1
281
     1
  3
ADSK_XREC_LAYER_RECONCILED
360
20AA5
  0
DICTIONARY
  5
1B307
330
13335
100
AcDbDictionary
280
     1
281
     1
  3
ADSK_XREC_LAYER_RECONCILED
360
20AA6
  0
DICTIONARY
  5
1B309
330
1686E
100
AcDbDictionary
280
     1
281
     1
  3
ADSK_XREC_LAYER_RECONCILED
360
20AA7
  0
DICTIONARY
  5
339C
330
1F
100
AcDbDictionary
280
     1
281
     1
  3
ACAD_SORTENTS
360
339D
  0
DICTIONARY
  5
1DE81
330
1B3D7
100
AcDbDictionary
280
     1
281
     1
  3
AcDbBlockTableRecordData
360
20E4D
  0
DICTIONARY
  5
20D57
330
20D56
100
AcDbDictionary
280
     1
281
     1
  3
ACAD_DIMASSOC
360
20D58
  0
DICTIONARY
  5
20E31
330
9C00
100
AcDbDictionary
280
     1
281
     1
  3
ACAD_XREC_ROUNDTRIP
360
20E32
  0
DICTIONARY
  5
20E33
330
9C02
100
AcDbDictionary
280
     1
281
     1
  3
ACAD_XREC_ROUNDTRIP
360
20E34
  0
XRECORD
  5
1B2F4
102
{ACAD_REACTORS
330
3182
102
}
330
3182
100
AcDbXrecord
280
     1
300
ACDLT
300
2015
300
ACDLT_F_S
  0
DICTIONARY
  5
31A0
102
{ACAD_REACTORS
330
3182
102
}
330
3182
100
AcDbDictionary
281
     1
  0
DICTIONARY
  5
1B2F0
102
{ACAD_REACTORS
330
3182
102
}
330
3182
100
AcDbDictionary
281
     1
  3
Metric50
350
1B2F1
  0
DICTIONARY
  5
3183
102
{ACAD_REACTORS
330
3182
102
}
330
3182
100
AcDbDictionary
281
     1
  0
DICTIONARY
  5
31A5
102
{ACAD_REACTORS
330
3182
102
}
330
3182
100
AcDbDictionary
281
     1
  3
Layout1
350
31A7
  3
Model
350
31A6
  0
DICTIONARY
  5
318B
102
{ACAD_REACTORS
330
3182
102
}
330
3182
100
AcDbDictionary
281
     1
  3
ByBlock
350
318D
  3
ByLayer
350
318C
  3
Global
350
318E
  0
DICTIONARY
  5
1B221
102
{ACAD_REACTORS
330
3182
102
}
330
3182
100
AcDbDictionary
281
     1
  3
Standard
350
1B2ED
  0
DICTIONARY
  5
3184
102
{ACAD_REACTORS
330
3182
102
}
330
3182
100
AcDbDictionary
281
     1
  3
STANDARD
350
3185
  0
DICTIONARY
  5
31A4
102
{ACAD_REACTORS
330
3182
102
}
330
3182
100
AcDbDictionary
281
     1
  0
ACDBDICTIONARYWDFLT
  5
3189
102
{ACAD_REACTORS
330
3182
102
}
330
3182
100
AcDbDictionary
281
     1
  3
Normal
350
318A
100
AcDbDictionaryWithDefault
340
318A
  0
DICTIONARY
  5
1B1FC
102
{ACAD_REACTORS
330
3182
102
}
330
3182
100
AcDbDictionary
281
     1
  3
A0
350
1B1FD
  3
A1
350
1B1FE
  3
A2
350
1B1FF
  3
A3
350
1B200
  3
A4
350
1B201
  3
A5
350
1B202
  3
A6
350
1B203
  3
A7
350
1B204
  3
A8
350
1B205
  3
A9
350
1B206
  3
B0
350
1B207
  3
B1
350
1B208
  3
B2
350
1B209
  3
B3
350
1B20A
  3
B4
350
1B20B
  3
B5
350
1B20C
  3
B6
350
1B20D
  3
B7
350
1B20E
  3
B8
350
1B20F
  3
B9
350
1B210
  3
C0
350
1B211
  3
C1
350
1B212
  3
C2
350
1B213
  3
C3
350
1B214
  3
C4
350
1B215
  3
C5
350
1B216
  3
C6
350
1B217
  3
C7
350
1B218
  3
C8
350
1B219
  3
C9
350
1B21A
  3
D0
350
1B21B
  3
D1
350
1B21C
  3
D2
350
1B21D
  0
DICTIONARY
  5
1B2EE
102
{ACAD_REACTORS
330
3182
102
}
330
3182
100
AcDbDictionary
281
     1
  3
Metric50
350
1B2EF
  0
DICTIONARY
  5
31A1
102
{ACAD_REACTORS
330
3182
102
}
330
3182
100
AcDbDictionary
281
     1
  3
Standard
350
31A2
  0
DICTIONARY
  5
318F
102
{ACAD_REACTORS
330
3182
102
}
330
3182
100
AcDbDictionary
281
     1
  3
2dWireframe
350
3195
  3
3D Hidden
350
3197
  3
3dWireframe
350
3196
  3
Basic
350
3194
  3
Brighten
350
319B
  3
ColorChange
350
319F
  3
Conceptual
350
3198
  3
Dim
350
319A
  3
EdgeColorOff
350
1B2EC
  3
Facepattern
350
319E
  3
Flat
350
3190
  3
FlatWithEdges
350
3191
  3
Gouraud
350
3192
  3
GouraudWithEdges
350
3193
  3
Hidden
350
1B2E4
  3
JitterOff
350
1B2EA
  3
Linepattern
350
319D
  3
OverhangOff
350
1B2EB
  3
Realistic
350
3199
  3
Shaded
350
1B2E9
  3
Shaded with edges
350
1B2E8
  3
Shades of Gray
350
1B2E5
  3
Sketchy
350
1B2E6
  3
Thicken
350
319C
  3
Wireframe
350
1B2E3
  3
X-Ray
350
1B2E7
  0
XRECORD
  5
20E0A
102
{ACAD_REACTORS
330
3182
102
}
330
3182
100
AcDbXrecord
280
     1
 90
        1
330
31A2
  0
DICTIONARY
  5
33A3
102
{ACAD_REACTORS
330
3182
102
}
330
3182
100
AcDbDictionary
281
     1
  3
CANNOSCALE
350
1B222
  3
CMLEADERSTYLE
350
1B30F
  3
CTABLESTYLE
350
33A4
  3
CVIEWDETAILSTYLE
350
1B310
  3
CVIEWSECTIONSTYLE
350
1B311
  3
DIMASSOC
350
9BE8
  3
INDEXCTL
350
9BE7
  3
LAYEREVAL
350
20993
  3
LAYERNOTIFY
350
20994
  3
LIGHTINGUNITS
350
20992
  3
MSLTSCALE
350
20991
  3
SORTENTS
350
9BE6
  3
XCLIPFRAME
350
20E08
  0
DICTIONARY
  5
20C3F
102
{ACAD_REACTORS
330
3182
102
}
330
3182
100
AcDbDictionary
281
     1
  0
XRECORD
  5
20E0B
102
{ACAD_REACTORS
330
3182
102
}
330
3182
100
AcDbXrecord
280
     1
  1
DWGPROPS COOKIE
  2

  3

  4

  6

  7

  8
kamerka
  9

300
=
301
=
302
=
303
=
304
=
305
=
306
=
307
=
308
=
309
=
 40
0.0011836805555556
 41
2457351.313439815
 42
2457351.341645324
  1

 90
        0
  0
DICTIONARY
  5
1B063
102
{ACAD_REACTORS
330
422A
102
}
330
422A
100
AcDbDictionary
281
     1
  0
DICTIONARY
  5
9A1C
102
{ACAD_REACTORS
330
422A
102
}
330
422A
100
AcDbDictionary
281
     1
  0
DICTIONARY
  5
1B062
102
{ACAD_REACTORS
330
422A
102
}
330
422A
100
AcDbDictionary
281
     1
1001
ACAD
1000
<All
  0
XRECORD
  5
20A9D
102
{ACAD_REACTORS
330
1B2F5
102
}
330
1B2F5
100
AcDbXrecord
280
     1
290
     1
  0
XRECORD
  5
20A9E
102
{ACAD_REACTORS
330
1B2F7
102
}
330
1B2F7
100
AcDbXrecord
280
     1
290
     1
  0
XRECORD
  5
20A9F
102
{ACAD_REACTORS
330
1B2F9
102
}
330
1B2F9
100
AcDbXrecord
280
     1
290
     1
  0
XRECORD
  5
20AA0
102
{ACAD_REACTORS
330
1B2FB
102
}
330
1B2FB
100
AcDbXrecord
280
     1
290
     1
  0
XRECORD
  5
20AA1
102
{ACAD_REACTORS
330
1B2FD
102
}
330
1B2FD
100
AcDbXrecord
280
     1
290
     1
  0
XRECORD
  5
20AA2
102
{ACAD_REACTORS
330
1B2FF
102
}
330
1B2FF
100
AcDbXrecord
280
     1
290
     1
  0
XRECORD
  5
20AA3
102
{ACAD_REACTORS
330
1B301
102
}
330
1B301
100
AcDbXrecord
280
     1
290
     1
  0
XRECORD
  5
20AA4
102
{ACAD_REACTORS
330
1B303
102
}
330
1B303
100
AcDbXrecord
280
     1
290
     1
  0
XRECORD
  5
20AA5
102
{ACAD_REACTORS
330
1B305
102
}
330
1B305
100
AcDbXrecord
280
     1
290
     1
  0
XRECORD
  5
20AA6
102
{ACAD_REACTORS
330
1B307
102
}
330
1B307
100
AcDbXrecord
280
     1
290
     1
  0
XRECORD
  5
20AA7
102
{ACAD_REACTORS
330
1B309
102
}
330
1B309
100
AcDbXrecord
280
     1
290
     1
  0
SORTENTSTABLE
  5
339D
102
{ACAD_REACTORS
330
339C
102
}
330
339C
100
AcDbSortentsTable
330
1F
  0
DICTIONARY
  5
20E4D
102
{ACAD_REACTORS
330
1DE81
102
}
330
1DE81
100
AcDbDictionary
280
     1
281
     1
  3
Edit
360
20E4E
  0
DIMASSOC
  5
20D58
102
{ACAD_REACTORS
330
20D57
102
}
330
20D57
100
AcDbDimAssoc
330
20D56
 90
        2
 70
     0
 71
     0
  1
AcDbOsnapPointRef
 72
     3
331
20D3E
 73
     2
 91
       26
 40
0.0
 10
0.0
 20
0.0
 30
0.0
 75
     0
  0
XRECORD
  5
20E32
102
{ACAD_REACTORS
330
20E31
102
}
330
20E31
100
AcDbXrecord
280
     1
102
SHADEPLOT
 70
     0
  0
XRECORD
  5
20E34
102
{ACAD_REACTORS
330
20E33
102
}
330
20E33
100
AcDbXrecord
280
     1
102
SHADEPLOT
 70
     0
  0
ACDBDETAILVIEWSTYLE
  5
1B2F1
102
{ACAD_XDICTIONARY
360
20E4B
102
}
102
{ACAD_REACTORS
330
1B2F0
102
}
330
1B2F0
100
AcDbModelDocViewStyle
 70
     0
  3
Metric50
290
     0
100
AcDbDetailViewStyle
 70
     0
 71
     0
 90
        3
 71
     1
340
11
 40
5.0
340
0
 40
5.0
300

 40
0.0
280
     1
 71
     2
340
16
 90
       25
 71
     3
340
11
 40
5.0
 90
        0
 40
15.0
 90
        1
300
%<\AcVar ViewDetailId>% (%<\AcVar ViewScale \f "%sn">%)
 71
     4
340
16
 90
       25
340
16
 90
       25
280
     0
  0
LAYOUT
  5
31A7
102
{ACAD_XDICTIONARY
360
20E2F
102
}
102
{ACAD_REACTORS
330
31A5
102
}
330
31A5
100
AcDbPlotSettings
  1

  2
\\ingdc01\ITB3
  4
A4
  6

 40
6.805083274841307
 41
5.027085781097412
 42
6.805068969726562
 43
5.027069091796875
 44
209.9733276367186
 45
296.9683227539062
 46
0.0
 47
0.0
 48
0.0
 49
0.0
140
0.0
141
0.0
142
1.0
143
1.0
 70
   688
 72
     1
 73
     1
 74
     5
  7

 75
    16
147
1.0
148
0.0
149
0.0
100
AcDbLayout
  1
Layout1
 70
     1
 71
     1
 10
-5.027069091796875
 20
-6.805083274841307
 11
291.9412536621094
 21
203.1682443618775
 12
0.0
 22
0.0
 32
0.0
 14
28.69141678810127
 24
19.6363175392151
 34
0.0
 15
258.2227510929107
 25
176.7268578529358
 35
0.0
146
0.0
 13
0.0
 23
0.0
 33
0.0
 16
1.0
 26
0.0
 36
0.0
 17
0.0
 27
1.0
 37
0.0
 76
     0
330
1B
331
9C00
1001
ACAD_PSEXT
1000
\\ingdc01\ITB3
1000
HP LaserJet 5000 Series PCL
1000
TB
1000

1070
     0
  0
LAYOUT
  5
31A6
102
{ACAD_XDICTIONARY
360
20E2D
102
}
102
{ACAD_REACTORS
330
31A5
102
}
330
31A5
100
AcDbPlotSettings
  1

  2
\\ingdc01\ITB3
  4
A4
  6

 40
6.805083274841307
 41
5.027085781097412
 42
6.805068969726562
 43
5.027069091796875
 44
209.9733276367186
 45
296.9683227539062
 46
0.0
 47
0.0
 48
0.0
 49
0.0
140
0.0
141
0.0
142
1.0
143
1.500313223655698
 70
 11952
 72
     1
 73
     1
 74
     0
  7

 75
     0
147
0.6665274852163048
148
239.0155119930048
149
102.2558208723354
100
AcDbLayout
  1
Model
 70
     1
 71
     0
 10
0.0
 20
0.0
 11
12.0
 21
9.0
 12
0.0
 22
0.0
 32
0.0
 14
0.0
 24
0.0
 34
0.0
 15
0.0
 25
0.0
 35
0.0
146
0.0
 13
0.0
 23
0.0
 33
0.0
 16
1.0
 26
0.0
 36
0.0
 17
0.0
 27
1.0
 37
0.0
 76
     0
330
1F
331
1F4
1001
ACAD_PSEXT
1000
\\ingdc01\ITB3
1000
HP LaserJet 5000 Series PCL
1000
TB
1000

1070
     0
  0
MATERIAL
  5
318D
102
{ACAD_XDICTIONARY
360
1B22B
102
}
102
{ACAD_REACTORS
330
318B
102
}
330
318B
100
AcDbMaterial
  1
ByBlock
  0
MATERIAL
  5
318C
102
{ACAD_XDICTIONARY
360
1B22D
102
}
102
{ACAD_REACTORS
330
318B
102
}
330
318B
100
AcDbMaterial
  1
ByLayer
  0
MATERIAL
  5
318E
102
{ACAD_XDICTIONARY
360
1B22F
102
}
102
{ACAD_REACTORS
330
318B
102
}
330
318B
100
AcDbMaterial
  1
Global
  0
MLEADERSTYLE
  5
1B2ED
102
{ACAD_REACTORS
330
1B221
102
}
330
1B221
100
AcDbMLeaderStyle
170
     2
171
     1
172
     0
 90
        2
 40
0.0
 41
0.0
173
     1
 91
-1056964608
340
14
 92
       -2
290
     1
 42
2.0
291
     1
 43
0.36
  3
Standard
 44
4.0
300

342
11
174
     1
178
     6
175
     1
176
     0
 93
-1056964608
 45
4.0
292
     0
297
     0
 46
4.0
 94
-1056964608
 47
1.0
 49
1.0
140
1.0
293
     1
141
0.0
294
     1
177
     0
142
1.0
295
     0
296
     0
143
0.125
1001
ACAD_MLEADERVER
1070
     2
  0
MLINESTYLE
  5
3185
102
{ACAD_REACTORS
330
3184
102
}
330
3184
100
AcDbMlineStyle
  2
STANDARD
 70
     0
  3

 62
   256
 51
90.0
 52
90.0
 71
     2
 49
0.5
 62
   256
  6
BYLAYER
 49
-0.5
 62
   256
  6
BYLAYER
  0
ACDBPLACEHOLDER
  5
318A
102
{ACAD_REACTORS
330
3189
102
}
330
3189
  0
SCALE
  5
1B1FD
102
{ACAD_REACTORS
330
1B1FC
102
}
330
1B1FC
100
AcDbScale
 70
     0
300
1:1
140
1.0
141
1.0
290
     1
1001
ACAD
1000
AcRTDxfName
1000
SCALE
  0
SCALE
  5
1B1FE
102
{ACAD_REACTORS
330
1B1FC
102
}
330
1B1FC
100
AcDbScale
 70
     0
300
1:2
140
1.0
141
2.0
290
     0
1001
ACAD
1000
AcRTDxfName
1000
SCALE
  0
SCALE
  5
1B1FF
102
{ACAD_REACTORS
330
1B1FC
102
}
330
1B1FC
100
AcDbScale
 70
     0
300
1:4
140
1.0
141
4.0
290
     0
1001
ACAD
1000
AcRTDxfName
1000
SCALE
  0
SCALE
  5
1B200
102
{ACAD_REACTORS
330
1B1FC
102
}
330
1B1FC
100
AcDbScale
 70
     0
300
1:5
140
1.0
141
5.0
290
     0
1001
ACAD
1000
AcRTDxfName
1000
SCALE
  0
SCALE
  5
1B201
102
{ACAD_REACTORS
330
1B1FC
102
}
330
1B1FC
100
AcDbScale
 70
     0
300
1:8
140
1.0
141
8.0
290
     0
1001
ACAD
1000
AcRTDxfName
1000
SCALE
  0
SCALE
  5
1B202
102
{ACAD_REACTORS
330
1B1FC
102
}
330
1B1FC
100
AcDbScale
 70
     0
300
1:10
140
1.0
141
10.0
290
     0
1001
ACAD
1000
AcRTDxfName
1000
SCALE
  0
SCALE
  5
1B203
102
{ACAD_REACTORS
330
1B1FC
102
}
330
1B1FC
100
AcDbScale
 70
     0
300
1:16
140
1.0
141
16.0
290
     0
1001
ACAD
1000
AcRTDxfName
1000
SCALE
  0
SCALE
  5
1B204
102
{ACAD_REACTORS
330
1B1FC
102
}
330
1B1FC
100
AcDbScale
 70
     0
300
1:20
140
1.0
141
20.0
290
     0
1001
ACAD
1000
AcRTDxfName
1000
SCALE
  0
SCALE
  5
1B205
102
{ACAD_REACTORS
330
1B1FC
102
}
330
1B1FC
100
AcDbScale
 70
     0
300
1:30
140
1.0
141
30.0
290
     0
1001
ACAD
1000
AcRTDxfName
1000
SCALE
  0
SCALE
  5
1B206
102
{ACAD_REACTORS
330
1B1FC
102
}
330
1B1FC
100
AcDbScale
 70
     0
300
1:40
140
1.0
141
40.0
290
     0
1001
ACAD
1000
AcRTDxfName
1000
SCALE
  0
SCALE
  5
1B207
102
{ACAD_REACTORS
330
1B1FC
102
}
330
1B1FC
100
AcDbScale
 70
     0
300
1:50
140
1.0
141
50.0
290
     0
1001
ACAD
1000
AcRTDxfName
1000
SCALE
  0
SCALE
  5
1B208
102
{ACAD_REACTORS
330
1B1FC
102
}
330
1B1FC
100
AcDbScale
 70
     0
300
1:100
140
1.0
141
100.0
290
     0
1001
ACAD
1000
AcRTDxfName
1000
SCALE
  0
SCALE
  5
1B209
102
{ACAD_REACTORS
330
1B1FC
102
}
330
1B1FC
100
AcDbScale
 70
     0
300
2:1
140
2.0
141
1.0
290
     0
1001
ACAD
1000
AcRTDxfName
1000
SCALE
  0
SCALE
  5
1B20A
102
{ACAD_REACTORS
330
1B1FC
102
}
330
1B1FC
100
AcDbScale
 70
     0
300
4:1
140
4.0
141
1.0
290
     0
1001
ACAD
1000
AcRTDxfName
1000
SCALE
  0
SCALE
  5
1B20B
102
{ACAD_REACTORS
330
1B1FC
102
}
330
1B1FC
100
AcDbScale
 70
     0
300
8:1
140
8.0
141
1.0
290
     0
1001
ACAD
1000
AcRTDxfName
1000
SCALE
  0
SCALE
  5
1B20C
102
{ACAD_REACTORS
330
1B1FC
102
}
330
1B1FC
100
AcDbScale
 70
     0
300
10:1
140
10.0
141
1.0
290
     0
1001
ACAD
1000
AcRTDxfName
1000
SCALE
  0
SCALE
  5
1B20D
102
{ACAD_REACTORS
330
1B1FC
102
}
330
1B1FC
100
AcDbScale
 70
     0
300
100:1
140
100.0
141
1.0
290
     0
1001
ACAD
1000
AcRTDxfName
1000
SCALE
  0
SCALE
  5
1B20E
102
{ACAD_REACTORS
330
1B1FC
102
}
330
1B1FC
100
AcDbScale
 70
     0
300
1/128" = 1'-0"
140
0.0078125
141
12.0
290
     0
1001
ACAD
1000
AcRTDxfName
1000
SCALE
  0
SCALE
  5
1B20F
102
{ACAD_REACTORS
330
1B1FC
102
}
330
1B1FC
100
AcDbScale
 70
     0
300
1/64" = 1'-0"
140
0.015625
141
12.0
290
     0
1001
ACAD
1000
AcRTDxfName
1000
SCALE
  0
SCALE
  5
1B210
102
{ACAD_REACTORS
330
1B1FC
102
}
330
1B1FC
100
AcDbScale
 70
     0
300
1/32" = 1'-0"
140
0.03125
141
12.0
290
     0
1001
ACAD
1000
AcRTDxfName
1000
SCALE
  0
SCALE
  5
1B211
102
{ACAD_REACTORS
330
1B1FC
102
}
330
1B1FC
100
AcDbScale
 70
     0
300
1/16" = 1'-0"
140
0.0625
141
12.0
290
     0
1001
ACAD
1000
AcRTDxfName
1000
SCALE
  0
SCALE
  5
1B212
102
{ACAD_REACTORS
330
1B1FC
102
}
330
1B1FC
100
AcDbScale
 70
     0
300
3/32" = 1'-0"
140
0.09375
141
12.0
290
     0
1001
ACAD
1000
AcRTDxfName
1000
SCALE
  0
SCALE
  5
1B213
102
{ACAD_REACTORS
330
1B1FC
102
}
330
1B1FC
100
AcDbScale
 70
     0
300
1/8" = 1'-0"
140
0.125
141
12.0
290
     0
1001
ACAD
1000
AcRTDxfName
1000
SCALE
  0
SCALE
  5
1B214
102
{ACAD_REACTORS
330
1B1FC
102
}
330
1B1FC
100
AcDbScale
 70
     0
300
3/16" = 1'-0"
140
0.1875
141
12.0
290
     0
1001
ACAD
1000
AcRTDxfName
1000
SCALE
  0
SCALE
  5
1B215
102
{ACAD_REACTORS
330
1B1FC
102
}
330
1B1FC
100
AcDbScale
 70
     0
300
1/4" = 1'-0"
140
0.25
141
12.0
290
     0
1001
ACAD
1000
AcRTDxfName
1000
SCALE
  0
SCALE
  5
1B216
102
{ACAD_REACTORS
330
1B1FC
102
}
330
1B1FC
100
AcDbScale
 70
     0
300
3/8" = 1'-0"
140
0.375
141
12.0
290
     0
1001
ACAD
1000
AcRTDxfName
1000
SCALE
  0
SCALE
  5
1B217
102
{ACAD_REACTORS
330
1B1FC
102
}
330
1B1FC
100
AcDbScale
 70
     0
300
1/2" = 1'-0"
140
0.5
141
12.0
290
     0
1001
ACAD
1000
AcRTDxfName
1000
SCALE
  0
SCALE
  5
1B218
102
{ACAD_REACTORS
330
1B1FC
102
}
330
1B1FC
100
AcDbScale
 70
     0
300
3/4" = 1'-0"
140
0.75
141
12.0
290
     0
1001
ACAD
1000
AcRTDxfName
1000
SCALE
  0
SCALE
  5
1B219
102
{ACAD_REACTORS
330
1B1FC
102
}
330
1B1FC
100
AcDbScale
 70
     0
300
1" = 1'-0"
140
1.0
141
12.0
290
     0
1001
ACAD
1000
AcRTDxfName
1000
SCALE
  0
SCALE
  5
1B21A
102
{ACAD_REACTORS
330
1B1FC
102
}
330
1B1FC
100
AcDbScale
 70
     0
300
1-1/2" = 1'-0"
140
1.5
141
12.0
290
     0
1001
ACAD
1000
AcRTDxfName
1000
SCALE
  0
SCALE
  5
1B21B
102
{ACAD_REACTORS
330
1B1FC
102
}
330
1B1FC
100
AcDbScale
 70
     0
300
3" = 1'-0"
140
3.0
141
12.0
290
     0
1001
ACAD
1000
AcRTDxfName
1000
SCALE
  0
SCALE
  5
1B21C
102
{ACAD_REACTORS
330
1B1FC
102
}
330
1B1FC
100
AcDbScale
 70
     0
300
6" = 1'-0"
140
6.0
141
12.0
290
     0
1001
ACAD
1000
AcRTDxfName
1000
SCALE
  0
SCALE
  5
1B21D
102
{ACAD_REACTORS
330
1B1FC
102
}
330
1B1FC
100
AcDbScale
 70
     0
300
1'-0" = 1'-0"
140
12.0
141
12.0
290
     0
1001
ACAD
1000
AcRTDxfName
1000
SCALE
  0
ACDBSECTIONVIEWSTYLE
  5
1B2EF
102
{ACAD_XDICTIONARY
360
20E49
102
}
102
{ACAD_REACTORS
330
1B2EE
102
}
330
1B2EE
100
AcDbModelDocViewStyle
 70
     0
  3
Metric50
290
     0
100
AcDbSectionViewStyle
 70
     0
 71
     0
 90
      102
 71
     1
340
11
 40
5.0
340
0
340
0
 40
5.0
300
I, O, Q, S, X, Z
 40
10.0
 90
        0
 40
2.5
 90
        0
 71
     2
340
16
 90
       25
340
16
 90
       50
 40
5.0
 40
2.5
 40
5.0
 71
     3
340
11
 40
5.0
 90
        0
 40
15.0
 90
        1
300
%<\AcVar ViewSectionStartId>%-%<\AcVar ViewSectionEndId>% (%<\AcVar ViewScale \f "%sn">%)
 71
     4
300
ANSI31
 40
1.0
 90
        0
290
     0
290
     0
 90
        6
 40
0.0
 40
1.570796326794896
 40
0.2617993877991494
 40
1.308996938995747
 40
-0.2617993877991494
 40
1.832595714594044
  0
TABLESTYLE
  5
31A2
102
{ACAD_XDICTIONARY
360
1B314
102
}
102
{ACAD_REACTORS
330
31A1
102
}
330
31A1
100
AcDbTableStyle
  3
Standard
 70
     0
 71
     0
 40
1.5
 41
1.5
280
     0
281
     0
  7
STANDARD
140
4.5
170
     2
 62
     0
 63
     7
283
     0
274
    -2
284
     1
 64
     0
275
    -2
285
     1
 65
     0
276
    -2
286
     1
 66
     0
277
    -2
287
     1
 67
     0
278
    -2
288
     1
 68
     0
279
    -2
289
     1
 69
     0
  7
STANDARD
140
6.0
170
     5
 62
     0
 63
     7
283
     0
274
    -2
284
     1
 64
     0
275
    -2
285
     1
 65
     0
276
    -2
286
     1
 66
     0
277
    -2
287
     1
 67
     0
278
    -2
288
     1
 68
     0
279
    -2
289
     1
 69
     0
  7
STANDARD
140
4.5
170
     5
 62
     0
 63
     7
283
     0
274
    -2
284
     1
 64
     0
275
    -2
285
     1
 65
     0
276
    -2
286
     1
 66
     0
277
    -2
287
     1
 67
     0
278
    -2
288
     1
 68
     0
279
    -2
289
     1
 69
     0
  0
VISUALSTYLE
  5
3195
102
{ACAD_XDICTIONARY
360
20E16
102
}
102
{ACAD_REACTORS
330
318F
102
}
330
318F
100
AcDbVisualStyle
  2

 70
     4
 71
     0
 72
     2
 73
     0
 90
        0
 40
-0.6
 41
-30.0
 62
     5
 63
     7
 74
     1
 91
        4
 64
     7
 65
   257
 75
     1
175
     1
 42
1.0
 92
        0
 66
   257
 43
1.0
 76
     1
 77
     6
 78
     2
 67
     7
 79
     5
170
     0
171
     0
290
     0
174
     0
 93
        1
 44
0.0
173
     0
291
     0
 45
0.0
1001
ACAD
1000
AcDbSavedByObjectVersion
1070
     0
  0
VISUALSTYLE
  5
3197
102
{ACAD_XDICTIONARY
360
20E1A
102
}
102
{ACAD_REACTORS
330
318F
102
}
330
318F
100
AcDbVisualStyle
  2

 70
     6
 71
     1
 72
     2
 73
     2
 90
        0
 40
-0.6
 41
-30.0
 62
     5
 63
     7
 74
     2
 91
        2
 64
     7
 65
   257
 75
     2
175
     1
 42
40.0
 92
        0
 66
   257
 43
1.0
 76
     1
 77
     6
 78
     2
 67
     7
 79
     3
170
     0
171
     0
290
     0
174
     0
 93
        1
 44
0.0
173
     0
291
     0
 45
0.0
1001
ACAD
1000
AcDbSavedByObjectVersion
1070
     0
  0
VISUALSTYLE
  5
3196
102
{ACAD_XDICTIONARY
360
20E18
102
}
102
{ACAD_REACTORS
330
318F
102
}
330
318F
100
AcDbVisualStyle
  2

 70
     5
 71
     0
 72
     2
 73
     0
 90
        0
 40
-0.6
 41
-30.0
 62
     5
 63
     7
 74
     1
 91
        4
 64
     7
 65
   257
 75
     1
175
     1
 42
1.0
 92
        0
 66
   257
 43
1.0
 76
     1
 77
     6
 78
     2
 67
     7
 79
     5
170
     0
171
     0
290
     0
174
     0
 93
        1
 44
0.0
173
     0
291
     0
 45
0.0
1001
ACAD
1000
AcDbSavedByObjectVersion
1070
     0
  0
VISUALSTYLE
  5
3194
102
{ACAD_XDICTIONARY
360
20E14
102
}
102
{ACAD_REACTORS
330
318F
102
}
330
318F
100
AcDbVisualStyle
  2

 70
     7
 71
     1
 72
     0
 73
     1
 90
        0
 40
-0.6
 41
-30.0
 62
     5
 63
     7
 74
     0
 91
        4
 64
     7
 65
   257
 75
     1
175
     1
 42
1.0
 92
        8
 66
     7
 43
1.0
 76
     1
 77
     6
 78
     2
 67
     7
 79
     5
170
     0
171
     0
290
     0
174
     0
 93
        1
 44
0.0
173
     0
291
     1
 45
0.0
1001
ACAD
1000
AcDbSavedByObjectVersion
1070
     0
  0
VISUALSTYLE
  5
319B
102
{ACAD_XDICTIONARY
360
20E22
102
}
102
{ACAD_REACTORS
330
318F
102
}
330
318F
100
AcDbVisualStyle
  2

 70
    12
 71
     2
 72
     2
 73
     0
 90
        0
 40
-0.6
 41
-30.0
 62
     5
 63
     7
 74
     1
 91
        4
 64
     7
 65
   257
 75
     1
175
     1
 42
1.0
 92
        8
 66
     7
 43
1.0
 76
     1
 77
     6
 78
     2
 67
     7
 79
     5
170
     0
171
     0
290
     0
174
     0
 93
        1
 44
50.0
173
     0
291
     1
 45
0.0
1001
ACAD
1000
AcDbSavedByObjectVersion
1070
     0
  0
VISUALSTYLE
  5
319F
102
{ACAD_XDICTIONARY
360
20E2A
102
}
102
{ACAD_REACTORS
330
318F
102
}
330
318F
100
AcDbVisualStyle
  2

 70
    16
 71
     2
 72
     2
 73
     3
 90
        0
 40
-0.6
 41
-30.0
 62
     5
 63
     8
 74
     1
 91
        4
 64
     7
 65
   257
 75
     1
175
     1
 42
1.0
 92
        8
 66
     8
 43
1.0
 76
     1
 77
     6
 78
     2
 67
     7
 79
     5
170
     0
171
     0
290
     0
174
     0
 93
        1
 44
0.0
173
     0
291
     1
 45
0.0
1001
ACAD
1000
AcDbSavedByObjectVersion
1070
     0
  0
VISUALSTYLE
  5
3198
102
{ACAD_XDICTIONARY
360
20E1C
102
}
102
{ACAD_REACTORS
330
318F
102
}
330
318F
100
AcDbVisualStyle
  2

 70
     9
 71
     3
 72
     2
 73
     0
 90
        0
 40
-0.6
 41
-30.0
 62
     5
 63
     7
 74
     2
 91
        2
 64
     7
 65
   257
 75
     1
175
     1
 42
40.0
 92
        8
 66
     7
 43
1.0
 76
     1
 77
     6
 78
     2
 67
     7
 79
     3
170
     0
171
     0
290
     0
174
     0
 93
        1
 44
0.0
173
     0
291
     0
 45
0.0
1001
ACAD
1000
AcDbSavedByObjectVersion
1070
     0
  0
VISUALSTYLE
  5
319A
102
{ACAD_XDICTIONARY
360
20E20
102
}
102
{ACAD_REACTORS
330
318F
102
}
330
318F
100
AcDbVisualStyle
  2

 70
    11
 71
     2
 72
     2
 73
     0
 90
        0
 40
-0.6
 41
-30.0
 62
     5
 63
     7
 74
     1
 91
        4
 64
     7
 65
   257
 75
     1
175
     1
 42
1.0
 92
        8
 66
     7
 43
1.0
 76
     1
 77
     6
 78
     2
 67
     7
 79
     5
170
     0
171
     0
290
     0
174
     0
 93
        1
 44
-50.0
173
     0
291
     1
 45
0.0
1001
ACAD
1000
AcDbSavedByObjectVersion
1070
     0
  0
VISUALSTYLE
  5
1B2EC
102
{ACAD_XDICTIONARY
360
20E47
102
}
102
{ACAD_REACTORS
330
318F
102
}
330
318F
100
AcDbVisualStyle
  2

 70
    22
 71
     2
 72
     2
 73
     0
 90
        0
 40
-0.6
 41
-30.0
 62
     5
 63
     7
 74
     1
 91
        4
 64
     7
 65
   257
 75
     1
175
     1
 42
1.0
 92
        8
 66
     7
 43
1.0
 76
     1
 77
     6
 78
     2
 67
     7
 79
     5
170
     0
171
     0
290
     0
174
     0
 93
        1
 44
0.0
173
     0
291
     1
 45
0.0
1001
ACAD
1000
AcDbSavedByObjectVersion
1070
     0
  0
VISUALSTYLE
  5
319E
102
{ACAD_XDICTIONARY
360
20E28
102
}
102
{ACAD_REACTORS
330
318F
102
}
330
318F
100
AcDbVisualStyle
  2

 70
    15
 71
     2
 72
     2
 73
     0
 90
        0
 40
-0.6
 41
-30.0
 62
     5
 63
     7
 74
     1
 91
        4
 64
     7
 65
   257
 75
     1
175
     1
 42
1.0
 92
        8
 66
     7
 43
1.0
 76
     1
 77
     6
 78
     2
 67
     7
 79
     5
170
     0
171
     0
290
     0
174
     0
 93
        1
 44
0.0
173
     0
291
     1
 45
0.0
1001
ACAD
1000
AcDbSavedByObjectVersion
1070
     0
  0
VISUALSTYLE
  5
3190
102
{ACAD_XDICTIONARY
360
20E0C
102
}
102
{ACAD_REACTORS
330
318F
102
}
330
318F
100
AcDbVisualStyle
  2

 70
     0
 71
     2
 72
     1
 73
     1
 90
        2
 40
-0.6
 41
30.0
 62
     5
 63
     7
 74
     0
 91
        4
 64
     7
 65
   257
 75
     1
175
     1
 42
1.0
 92
        8
 66
     7
 43
1.0
 76
     1
 77
     6
 78
     2
 67
     7
 79
     5
170
     0
171
     0
290
     0
174
     0
 93
       13
 44
0.0
173
     0
291
     1
 45
0.0
1001
ACAD
1000
AcDbSavedByObjectVersion
1070
     0
  0
VISUALSTYLE
  5
3191
102
{ACAD_XDICTIONARY
360
20E0E
102
}
102
{ACAD_REACTORS
330
318F
102
}
330
318F
100
AcDbVisualStyle
  2

 70
     1
 71
     2
 72
     1
 73
     1
 90
        2
 40
-0.6
 41
30.0
 62
     5
 63
     7
 74
     1
 91
        4
 64
     7
 65
   257
 75
     1
175
     1
 42
1.0
 92
        0
 66
   257
 43
1.0
 76
     1
 77
     6
 78
     2
 67
     7
 79
     5
170
     0
171
     0
290
     0
174
     0
 93
       13
 44
0.0
173
     0
291
     1
 45
0.0
1001
ACAD
1000
AcDbSavedByObjectVersion
1070
     0
  0
VISUALSTYLE
  5
3192
102
{ACAD_XDICTIONARY
360
20E10
102
}
102
{ACAD_REACTORS
330
318F
102
}
330
318F
100
AcDbVisualStyle
  2

 70
     2
 71
     2
 72
     2
 73
     1
 90
        2
 40
-0.6
 41
30.0
 62
     5
 63
     7
 74
     0
 91
        4
 64
     7
 65
   257
 75
     1
175
     1
 42
1.0
 92
        0
 66
     7
 43
1.0
 76
     1
 77
     6
 78
     2
 67
     7
 79
     5
170
     0
171
     0
290
     0
174
     0
 93
       13
 44
0.0
173
     0
291
     1
 45
0.0
1001
ACAD
1000
AcDbSavedByObjectVersion
1070
     0
  0
VISUALSTYLE
  5
3193
102
{ACAD_XDICTIONARY
360
20E12
102
}
102
{ACAD_REACTORS
330
318F
102
}
330
318F
100
AcDbVisualStyle
  2

 70
     3
 71
     2
 72
     2
 73
     1
 90
        2
 40
-0.6
 41
30.0
 62
     5
 63
     7
 74
     1
 91
        4
 64
     7
 65
   257
 75
     1
175
     1
 42
1.0
 92
        0
 66
   257
 43
1.0
 76
     1
 77
     6
 78
     2
 67
     7
 79
     5
170
     0
171
     0
290
     0
174
     0
 93
       13
 44
0.0
173
     0
291
     1
 45
0.0
1001
ACAD
1000
AcDbSavedByObjectVersion
1070
     0
  0
VISUALSTYLE
  5
1B2E4
102
{ACAD_XDICTIONARY
360
20E37
102
}
102
{ACAD_REACTORS
330
318F
102
}
330
318F
100
AcDbVisualStyle
  2

 70
     6
 71
     1
 72
     2
 73
     2
 90
        0
 40
-0.6
 41
-30.0
 62
     5
 63
     7
 74
     2
 91
        2
 64
     7
 65
   257
 75
     2
175
     1
 42
40.0
 92
        0
 66
   257
 43
1.0
 76
     1
 77
     6
 78
     2
 67
     7
 79
     3
170
     0
171
     0
290
     0
174
     0
 93
        1
 44
0.0
173
     0
291
     0
 45
0.0
1001
ACAD
1000
AcDbSavedByObjectVersion
1070
     0
  0
VISUALSTYLE
  5
1B2EA
102
{ACAD_XDICTIONARY
360
20E43
102
}
102
{ACAD_REACTORS
330
318F
102
}
330
318F
100
AcDbVisualStyle
  2

 70
    20
 71
     2
 72
     2
 73
     0
 90
        0
 40
-0.6
 41
-30.0
 62
     5
 63
     7
 74
     1
 91
        4
 64
     7
 65
   257
 75
     1
175
     1
 42
1.0
 92
       10
 66
     7
 43
1.0
 76
     1
 77
     6
 78
     2
 67
     7
 79
     5
170
     0
171
     0
290
     0
174
     0
 93
        1
 44
0.0
173
     0
291
     1
 45
0.0
1001
ACAD
1000
AcDbSavedByObjectVersion
1070
     0
  0
VISUALSTYLE
  5
319D
102
{ACAD_XDICTIONARY
360
20E26
102
}
102
{ACAD_REACTORS
330
318F
102
}
330
318F
100
AcDbVisualStyle
  2

 70
    14
 71
     2
 72
     2
 73
     0
 90
        0
 40
-0.6
 41
-30.0
 62
     5
 63
     7
 74
     1
 91
        4
 64
     7
 65
   257
 75
     7
175
     7
 42
1.0
 92
        8
 66
     7
 43
1.0
 76
     1
 77
     6
 78
     2
 67
     7
 79
     5
170
     0
171
     0
290
     0
174
     0
 93
        1
 44
0.0
173
     0
291
     1
 45
0.0
1001
ACAD
1000
AcDbSavedByObjectVersion
1070
     0
  0
VISUALSTYLE
  5
1B2EB
102
{ACAD_XDICTIONARY
360
20E45
102
}
102
{ACAD_REACTORS
330
318F
102
}
330
318F
100
AcDbVisualStyle
  2

 70
    21
 71
     2
 72
     2
 73
     0
 90
        0
 40
-0.6
 41
-30.0
 62
     5
 63
     7
 74
     1
 91
        4
 64
     7
 65
   257
 75
     1
175
     1
 42
1.0
 92
        9
 66
     7
 43
1.0
 76
     1
 77
     6
 78
     2
 67
     7
 79
     5
170
     0
171
     0
290
     0
174
     0
 93
        1
 44
0.0
173
     0
291
     1
 45
0.0
1001
ACAD
1000
AcDbSavedByObjectVersion
1070
     0
  0
VISUALSTYLE
  5
3199
102
{ACAD_XDICTIONARY
360
20E1E
102
}
102
{ACAD_REACTORS
330
318F
102
}
330
318F
100
AcDbVisualStyle
  2

 70
     8
 71
     2
 72
     2
 73
     0
 90
        0
 40
-0.6
 41
-30.0
 62
     5
 63
     7
 74
     1
 91
        0
 64
     7
 65
   257
 75
     1
175
     1
 42
1.0
 92
        8
 66
     8
 43
1.0
 76
     1
 77
     6
 78
     2
 67
     7
 79
     5
170
     0
171
     0
290
     0
174
     0
 93
       13
 44
0.0
173
     0
291
     0
 45
0.0
1001
ACAD
1000
AcDbSavedByObjectVersion
1070
     0
  0
VISUALSTYLE
  5
1B2E9
102
{ACAD_XDICTIONARY
360
20E41
102
}
102
{ACAD_REACTORS
330
318F
102
}
330
318F
100
AcDbVisualStyle
  2

 70
    27
 71
     2
 72
     2
 73
     1
 90
        2
 40
-0.6
 41
30.0
 62
     5
 63
     7
 74
     0
 91
        4
 64
     7
 65
   257
 75
     1
175
     1
 42
1.0
 92
        8
 66
   257
 43
1.0
 76
     1
 77
     6
 78
     2
 67
     8
 79
     3
170
     0
171
     0
290
     0
174
     0
 93
        5
 44
0.0
173
     0
291
     0
 45
0.0
1001
ACAD
1000
AcDbSavedByObjectVersion
1070
     0
  0
VISUALSTYLE
  5
1B2E8
102
{ACAD_XDICTIONARY
360
20E3F
102
}
102
{ACAD_REACTORS
330
318F
102
}
330
318F
100
AcDbVisualStyle
  2

 70
    26
 71
     2
 72
     2
 73
     1
 90
        2
 40
-0.6
 41
30.0
 62
     5
 63
     7
 74
     1
 91
       10
 64
     7
 65
   257
 75
     2
175
     1
 42
1.0
 92
        8
 66
   257
 43
1.0
 76
     1
 77
     6
 78
     2
 67
     7
 79
     3
170
     0
171
     0
290
     0
174
     0
 93
        5
 44
0.0
173
     0
291
     0
 45
0.0
1001
ACAD
1000
AcDbSavedByObjectVersion
1070
     0
  0
VISUALSTYLE
  5
1B2E5
102
{ACAD_XDICTIONARY
360
20E39
102
}
102
{ACAD_REACTORS
330
318F
102
}
330
318F
100
AcDbVisualStyle
  2

 70
    23
 71
     2
 72
     2
 73
     3
 90
        0
 40
-0.6
 41
-30.0
 62
     5
 63
     7
 74
     2
 91
        2
 64
     7
 65
     7
 75
     1
175
     1
 42
40.0
 92
        8
 66
     7
 43
1.0
 76
     1
 77
     6
 78
     2
 67
     7
 79
     3
170
     0
171
     0
290
     0
174
     0
 93
        1
 44
0.0
173
     0
291
     0
 45
0.0
1001
ACAD
1000
AcDbSavedByObjectVersion
1070
     0
  0
VISUALSTYLE
  5
1B2E6
102
{ACAD_XDICTIONARY
360
20E3B
102
}
102
{ACAD_REACTORS
330
318F
102
}
330
318F
100
AcDbVisualStyle
  2

 70
    24
 71
     1
 72
     2
 73
     2
 90
        0
 40
-0.6
 41
-30.0
 62
     5
 63
     7
 74
     2
 91
        2
 64
     7
 65
     7
 75
     1
175
     1
 42
40.0
 92
       11
 66
     7
 43
1.0
 76
     1
 77
     6
 78
     2
 67
     7
 79
     6
170
     0
171
     0
290
     0
174
     0
 93
        1
 44
0.0
173
     0
291
     0
 45
0.0
1001
ACAD
1000
AcDbSavedByObjectVersion
1070
     0
  0
VISUALSTYLE
  5
319C
102
{ACAD_XDICTIONARY
360
20E24
102
}
102
{ACAD_REACTORS
330
318F
102
}
330
318F
100
AcDbVisualStyle
  2

 70
    13
 71
     2
 72
     2
 73
     0
 90
        0
 40
-0.6
 41
-30.0
 62
     5
 63
     7
 74
     1
 91
        4
 64
     7
 65
   257
 75
     1
175
     1
 42
1.0
 92
       12
 66
     7
 43
1.0
 76
     1
 77
     6
 78
     2
 67
     7
 79
     5
170
     0
171
     0
290
     0
174
     0
 93
        1
 44
0.0
173
     0
291
     1
 45
0.0
1001
ACAD
1000
AcDbSavedByObjectVersion
1070
     0
  0
VISUALSTYLE
  5
1B2E3
102
{ACAD_XDICTIONARY
360
20E35
102
}
102
{ACAD_REACTORS
330
318F
102
}
330
318F
100
AcDbVisualStyle
  2

 70
     5
 71
     0
 72
     2
 73
     0
 90
        0
 40
-0.6
 41
-30.0
 62
     5
 63
     7
 74
     1
 91
        4
 64
     7
 65
   257
 75
     1
175
     1
 42
1.0
 92
        0
 66
   257
 43
1.0
 76
     1
 77
     6
 78
     2
 67
     7
 79
     3
170
     0
171
     0
290
     0
174
     0
 93
        1
 44
0.0
173
     0
291
     0
 45
0.0
1001
ACAD
1000
AcDbSavedByObjectVersion
1070
     0
  0
VISUALSTYLE
  5
1B2E7
102
{ACAD_XDICTIONARY
360
20E3D
102
}
102
{ACAD_REACTORS
330
318F
102
}
330
318F
100
AcDbVisualStyle
  2

 70
    25
 71
     2
 72
     2
 73
     1
 90
        1
 40
0.5
 41
-30.0
 62
     5
 63
     7
 74
     1
 91
        0
 64
     7
 65
   257
 75
     1
175
     1
 42
1.0
 92
        8
 66
     7
 43
1.0
 76
     1
 77
     6
 78
     2
 67
     7
 79
     3
170
     0
171
     0
290
     0
174
     0
 93
       13
 44
0.0
173
     0
291
     0
 45
0.0
1001
ACAD
1000
AcDbSavedByObjectVersion
1070
     0
  0
DICTIONARYVAR
  5
1B222
102
{ACAD_REACTORS
330
33A3
102
}
330
33A3
100
DictionaryVariables
280
     0
  1
1:1
  0
DICTIONARYVAR
  5
1B30F
102
{ACAD_REACTORS
330
33A3
102
}
330
33A3
100
DictionaryVariables
280
     0
  1
STANDARD
  0
DICTIONARYVAR
  5
33A4
102
{ACAD_REACTORS
330
33A3
102
}
330
33A3
100
DictionaryVariables
280
     0
  1
STANDARD
  0
DICTIONARYVAR
  5
1B310
102
{ACAD_REACTORS
330
33A3
102
}
330
33A3
100
DictionaryVariables
280
     0
  1
Metric50
  0
DICTIONARYVAR
  5
1B311
102
{ACAD_REACTORS
330
33A3
102
}
330
33A3
100
DictionaryVariables
280
     0
  1
Metric50
  0
DICTIONARYVAR
  5
9BE8
102
{ACAD_REACTORS
330
33A3
102
}
330
33A3
100
DictionaryVariables
280
     0
  1
1
  0
DICTIONARYVAR
  5
9BE7
102
{ACAD_REACTORS
330
33A3
102
}
330
33A3
100
DictionaryVariables
280
     0
  1
0
  0
DICTIONARYVAR
  5
20993
102
{ACAD_REACTORS
330
33A3
102
}
330
33A3
100
DictionaryVariables
280
     0
  1
1
  0
DICTIONARYVAR
  5
20994
102
{ACAD_REACTORS
330
33A3
102
}
330
33A3
100
DictionaryVariables
280
     0
  1
15
  0
DICTIONARYVAR
  5
20992
102
{ACAD_REACTORS
330
33A3
102
}
330
33A3
100
DictionaryVariables
280
     0
  1
0
  0
DICTIONARYVAR
  5
20991
102
{ACAD_REACTORS
330
33A3
102
}
330
33A3
100
DictionaryVariables
280
     0
  1
0
  0
DICTIONARYVAR
  5
9BE6
102
{ACAD_REACTORS
330
33A3
102
}
330
33A3
100
DictionaryVariables
280
     0
  1
127
  0
DICTIONARYVAR
  5
20E08
102
{ACAD_REACTORS
330
33A3
102
}
330
33A3
100
DictionaryVariables
280
     0
  1
2
  0
XRECORD
  5
20E4E
102
{ACAD_REACTORS
330
20E4D
102
}
330
20E4D
100
AcDbXrecord
280
     1
1070
     0
1070
     1
1070
     1
  0
DICTIONARY
  5
20E4B
330
1B2F1
100
AcDbDictionary
280
     1
281
     1
  3
ACAD_XREC_ROUNDTRIP
360
20E4C
  0
DICTIONARY
  5
20E2F
330
31A7
100
AcDbDictionary
280
     1
281
     1
  3
ACAD_XREC_ROUNDTRIP
360
20E30
  0
DICTIONARY
  5
20E2D
330
31A6
100
AcDbDictionary
280
     1
281
     1
  3
ACAD_XREC_ROUNDTRIP
360
20E2E
  0
DICTIONARY
  5
1B22B
330
318D
100
AcDbDictionary
280
     1
281
     1
  3
ACAD_XREC_ROUNDTRIP
360
1B22C
  0
DICTIONARY
  5
1B22D
330
318C
100
AcDbDictionary
280
     1
281
     1
  3
ACAD_XREC_ROUNDTRIP
360
1B22E
  0
DICTIONARY
  5
1B22F
330
318E
100
AcDbDictionary
280
     1
281
     1
  3
ACAD_XREC_ROUNDTRIP
360
1B230
  0
DICTIONARY
  5
20E49
330
1B2EF
100
AcDbDictionary
280
     1
281
     1
  3
ACAD_XREC_ROUNDTRIP
360
20E4A
  0
DICTIONARY
  5
1B314
330
31A2
100
AcDbDictionary
280
     1
281
     1
  3
ACAD_ROUNDTRIP_2008_TABLESTYLE_CELLSTYLEMAP
360
20E09
  3
ACAD_XREC_ROUNDTRIP
360
20E2C
  0
DICTIONARY
  5
20E16
330
3195
100
AcDbDictionary
280
     1
281
     1
  3
ACAD_XREC_ROUNDTRIP
360
20E17
  0
DICTIONARY
  5
20E1A
330
3197
100
AcDbDictionary
280
     1
281
     1
  3
ACAD_XREC_ROUNDTRIP
360
20E1B
  0
DICTIONARY
  5
20E18
330
3196
100
AcDbDictionary
280
     1
281
     1
  3
ACAD_XREC_ROUNDTRIP
360
20E19
  0
DICTIONARY
  5
20E14
330
3194
100
AcDbDictionary
280
     1
281
     1
  3
ACAD_XREC_ROUNDTRIP
360
20E15
  0
DICTIONARY
  5
20E22
330
319B
100
AcDbDictionary
280
     1
281
     1
  3
ACAD_XREC_ROUNDTRIP
360
20E23
  0
DICTIONARY
  5
20E2A
330
319F
100
AcDbDictionary
280
     1
281
     1
  3
ACAD_XREC_ROUNDTRIP
360
20E2B
  0
DICTIONARY
  5
20E1C
330
3198
100
AcDbDictionary
280
     1
281
     1
  3
ACAD_XREC_ROUNDTRIP
360
20E1D
  0
DICTIONARY
  5
20E20
330
319A
100
AcDbDictionary
280
     1
281
     1
  3
ACAD_XREC_ROUNDTRIP
360
20E21
  0
DICTIONARY
  5
20E47
330
1B2EC
100
AcDbDictionary
280
     1
281
     1
  3
ACAD_XREC_ROUNDTRIP
360
20E48
  0
DICTIONARY
  5
20E28
330
319E
100
AcDbDictionary
280
     1
281
     1
  3
ACAD_XREC_ROUNDTRIP
360
20E29
  0
DICTIONARY
  5
20E0C
330
3190
100
AcDbDictionary
280
     1
281
     1
  3
ACAD_XREC_ROUNDTRIP
360
20E0D
  0
DICTIONARY
  5
20E0E
330
3191
100
AcDbDictionary
280
     1
281
     1
  3
ACAD_XREC_ROUNDTRIP
360
20E0F
  0
DICTIONARY
  5
20E10
330
3192
100
AcDbDictionary
280
     1
281
     1
  3
ACAD_XREC_ROUNDTRIP
360
20E11
  0
DICTIONARY
  5
20E12
330
3193
100
AcDbDictionary
280
     1
281
     1
  3
ACAD_XREC_ROUNDTRIP
360
20E13
  0
DICTIONARY
  5
20E37
330
1B2E4
100
AcDbDictionary
280
     1
281
     1
  3
ACAD_XREC_ROUNDTRIP
360
20E38
  0
DICTIONARY
  5
20E43
330
1B2EA
100
AcDbDictionary
280
     1
281
     1
  3
ACAD_XREC_ROUNDTRIP
360
20E44
  0
DICTIONARY
  5
20E26
330
319D
100
AcDbDictionary
280
     1
281
     1
  3
ACAD_XREC_ROUNDTRIP
360
20E27
  0
DICTIONARY
  5
20E45
330
1B2EB
100
AcDbDictionary
280
     1
281
     1
  3
ACAD_XREC_ROUNDTRIP
360
20E46
  0
DICTIONARY
  5
20E1E
330
3199
100
AcDbDictionary
280
     1
281
     1
  3
ACAD_XREC_ROUNDTRIP
360
20E1F
  0
DICTIONARY
  5
20E41
330
1B2E9
100
AcDbDictionary
280
     1
281
     1
  3
ACAD_XREC_ROUNDTRIP
360
20E42
  0
DICTIONARY
  5
20E3F
330
1B2E8
100
AcDbDictionary
280
     1
281
     1
  3
ACAD_XREC_ROUNDTRIP
360
20E40
  0
DICTIONARY
  5
20E39
330
1B2E5
100
AcDbDictionary
280
     1
281
     1
  3
ACAD_XREC_ROUNDTRIP
360
20E3A
  0
DICTIONARY
  5
20E3B
330
1B2E6
100
AcDbDictionary
280
     1
281
     1
  3
ACAD_XREC_ROUNDTRIP
360
20E3C
  0
DICTIONARY
  5
20E24
330
319C
100
AcDbDictionary
280
     1
281
     1
  3
ACAD_XREC_ROUNDTRIP
360
20E25
  0
DICTIONARY
  5
20E35
330
1B2E3
100
AcDbDictionary
280
     1
281
     1
  3
ACAD_XREC_ROUNDTRIP
360
20E36
  0
DICTIONARY
  5
20E3D
330
1B2E7
100
AcDbDictionary
280
     1
281
     1
  3
ACAD_XREC_ROUNDTRIP
360
20E3E
  0
XRECORD
  5
20E4C
102
{ACAD_REACTORS
330
20E4B
102
}
330
20E4B
100
AcDbXrecord
280
     1
102
DISPLAYNAME
  1
Metric50
102
FLAGS
 90
        0
  0
XRECORD
  5
20E30
102
{ACAD_REACTORS
330
20E2F
102
}
330
20E2F
100
AcDbXrecord
280
     1
102
SHADEPLOT
 70
     0
102
SHADEPLOTRESLEVEL
 70
     2
102
SHADEPLOTCUSTOMDPI
 70
   300
  0
XRECORD
  5
20E2E
102
{ACAD_REACTORS
330
20E2D
102
}
330
20E2D
100
AcDbXrecord
280
     1
102
SHADEPLOT
 70
     0
102
SHADEPLOTRESLEVEL
 70
     2
102
SHADEPLOTCUSTOMDPI
 70
   300
  0
XRECORD
  5
1B22C
102
{ACAD_REACTORS
330
1B22B
102
}
330
1B22B
100
AcDbXrecord
280
     1
102
MATERIAL
148
0.0
149
0.0
149
0.0
 93
        0
 94
      127
282
     0
 72
     1
 77
     1
171
     1
175
     1
179
     1
273
     0
  0
XRECORD
  5
1B22E
102
{ACAD_REACTORS
330
1B22D
102
}
330
1B22D
100
AcDbXrecord
280
     1
102
MATERIAL
148
0.0
149
0.0
149
0.0
 93
        0
 94
      127
282
     0
 72
     1
 77
     1
171
     1
175
     1
179
     1
273
     0
  0
XRECORD
  5
1B230
102
{ACAD_REACTORS
330
1B22F
102
}
330
1B22F
100
AcDbXrecord
280
     1
102
MATERIAL
148
0.0
149
0.0
149
0.0
 93
        0
 94
      127
282
     0
 72
     1
 77
     1
171
     1
175
     1
179
     1
273
     0
  0
XRECORD
  5
20E4A
102
{ACAD_REACTORS
330
20E49
102
}
330
20E49
100
AcDbXrecord
280
     1
102
DISPLAYNAME
  1
Metric50
102
FLAGS
 90
        0
  0
CELLSTYLEMAP
  5
20E09
102
{ACAD_REACTORS
330
1B314
102
}
330
1B314
100
AcDbCellStyleMap
 90
        3
300
CELLSTYLE
  1
TABLEFORMAT_BEGIN
 90
        5
170
     1
 91
        0
 92
    32768
 62
   257
 93
        1
300
CONTENTFORMAT
  1
CONTENTFORMAT_BEGIN
 90
        0
 91
        0
 92
        4
 93
        0
300

 40
0.0
140
1.0
 94
        5
 62
     0
340
11
144
6.0
309
CONTENTFORMAT_END
171
     1
301
MARGIN
  1
CELLMARGIN_BEGIN
 40
1.5
 40
1.5
 40
1.5
 40
1.5
 40
0.18
 40
0.18
309
CELLMARGIN_END
 94
        6
 95
        1
302
GRIDFORMAT
  1
GRIDFORMAT_BEGIN
 90
        0
 91
        1
 62
     0
 92
       -2
340
0
 93
        0
 40
0.045
309
GRIDFORMAT_END
 95
        2
302
GRIDFORMAT
  1
GRIDFORMAT_BEGIN
 90
        0
 91
        1
 62
     0
 92
       -2
340
0
 93
        0
 40
0.045
309
GRIDFORMAT_END
 95
        4
302
GRIDFORMAT
  1
GRIDFORMAT_BEGIN
 90
        0
 91
        1
 62
     0
 92
       -2
340
0
 93
        0
 40
0.045
309
GRIDFORMAT_END
 95
        8
302
GRIDFORMAT
  1
GRIDFORMAT_BEGIN
 90
        0
 91
        1
 62
     0
 92
       -2
340
0
 93
        0
 40
0.045
309
GRIDFORMAT_END
 95
       16
302
GRIDFORMAT
  1
GRIDFORMAT_BEGIN
 90
        0
 91
        1
 62
     0
 92
       -2
340
0
 93
        0
 40
0.045
309
GRIDFORMAT_END
 95
       32
302
GRIDFORMAT
  1
GRIDFORMAT_BEGIN
 90
        0
 91
        1
 62
     0
 92
       -2
340
0
 93
        0
 40
0.045
309
GRIDFORMAT_END
309
TABLEFORMAT_END
  1
CELLSTYLE_BEGIN
 90
        1
 91
        1
300
_TITLE
309
CELLSTYLE_END
300
CELLSTYLE
  1
TABLEFORMAT_BEGIN
 90
        5
170
     1
 91
        0
 92
        0
 62
   257
 93
        1
300
CONTENTFORMAT
  1
CONTENTFORMAT_BEGIN
 90
        0
 91
        0
 92
        4
 93
        0
300

 40
0.0
140
1.0
 94
        5
 62
     0
340
11
144
4.5
309
CONTENTFORMAT_END
171
     1
301
MARGIN
  1
CELLMARGIN_BEGIN
 40
1.5
 40
1.5
 40
1.5
 40
1.5
 40
0.18
 40
0.18
309
CELLMARGIN_END
 94
        6
 95
        1
302
GRIDFORMAT
  1
GRIDFORMAT_BEGIN
 90
        0
 91
        1
 62
     0
 92
       -2
340
0
 93
        0
 40
0.045
309
GRIDFORMAT_END
 95
        2
302
GRIDFORMAT
  1
GRIDFORMAT_BEGIN
 90
        0
 91
        1
 62
     0
 92
       -2
340
0
 93
        0
 40
0.045
309
GRIDFORMAT_END
 95
        4
302
GRIDFORMAT
  1
GRIDFORMAT_BEGIN
 90
        0
 91
        1
 62
     0
 92
       -2
340
0
 93
        0
 40
0.045
309
GRIDFORMAT_END
 95
        8
302
GRIDFORMAT
  1
GRIDFORMAT_BEGIN
 90
        0
 91
        1
 62
     0
 92
       -2
340
0
 93
        0
 40
0.045
309
GRIDFORMAT_END
 95
       16
302
GRIDFORMAT
  1
GRIDFORMAT_BEGIN
 90
        0
 91
        1
 62
     0
 92
       -2
340
0
 93
        0
 40
0.045
309
GRIDFORMAT_END
 95
       32
302
GRIDFORMAT
  1
GRIDFORMAT_BEGIN
 90
        0
 91
        1
 62
     0
 92
       -2
340
0
 93
        0
 40
0.045
309
GRIDFORMAT_END
309
TABLEFORMAT_END
  1
CELLSTYLE_BEGIN
 90
        2
 91
        1
300
_HEADER
309
CELLSTYLE_END
300
CELLSTYLE
  1
TABLEFORMAT_BEGIN
 90
        5
170
     1
 91
        0
 92
        0
 62
   257
 93
        1
300
CONTENTFORMAT
  1
CONTENTFORMAT_BEGIN
 90
        0
 91
        0
 92
        4
 93
        0
300

 40
0.0
140
1.0
 94
        2
 62
     0
340
11
144
4.5
309
CONTENTFORMAT_END
171
     1
301
MARGIN
  1
CELLMARGIN_BEGIN
 40
1.5
 40
1.5
 40
1.5
 40
1.5
 40
0.18
 40
0.18
309
CELLMARGIN_END
 94
        6
 95
        1
302
GRIDFORMAT
  1
GRIDFORMAT_BEGIN
 90
        0
 91
        1
 62
     0
 92
       -2
340
0
 93
        0
 40
0.045
309
GRIDFORMAT_END
 95
        2
302
GRIDFORMAT
  1
GRIDFORMAT_BEGIN
 90
        0
 91
        1
 62
     0
 92
       -2
340
0
 93
        0
 40
0.045
309
GRIDFORMAT_END
 95
        4
302
GRIDFORMAT
  1
GRIDFORMAT_BEGIN
 90
        0
 91
        1
 62
     0
 92
       -2
340
0
 93
        0
 40
0.045
309
GRIDFORMAT_END
 95
        8
302
GRIDFORMAT
  1
GRIDFORMAT_BEGIN
 90
        0
 91
        1
 62
     0
 92
       -2
340
0
 93
        0
 40
0.045
309
GRIDFORMAT_END
 95
       16
302
GRIDFORMAT
  1
GRIDFORMAT_BEGIN
 90
        0
 91
        1
 62
     0
 92
       -2
340
0
 93
        0
 40
0.045
309
GRIDFORMAT_END
 95
       32
302
GRIDFORMAT
  1
GRIDFORMAT_BEGIN
 90
        0
 91
        1
 62
     0
 92
       -2
340
0
 93
        0
 40
0.045
309
GRIDFORMAT_END
309
TABLEFORMAT_END
  1
CELLSTYLE_BEGIN
 90
        3
 91
        2
300
_DATA
309
CELLSTYLE_END
  0
XRECORD
  5
20E2C
102
{ACAD_REACTORS
330
1B314
102
}
330
1B314
100
AcDbXrecord
280
     1
102
ACAD_ROUNDTRIP_PRE2007_TABLESTYLE
 90
        4
 91
        0
  1

 92
        4
 93
        0
  2

 94
        4
 95
        0
  3

  0
XRECORD
  5
20E17
102
{ACAD_REACTORS
330
20E16
102
}
330
20E16
100
AcDbXrecord
280
     1
102
RTVSPost2010Prop28
280
     1
102
RTVSPost2010PropOp28
 70
     1
102
RTVSPost2010Prop29
280
     1
102
RTVSPost2010PropOp29
 70
     1
102
RTVSPost2010Prop30
280
     0
102
RTVSPost2010PropOp30
 70
     1
102
RTVSPost2010Prop31
280
     0
102
RTVSPost2010PropOp31
 70
     1
102
RTVSPost2010Prop32
280
     0
102
RTVSPost2010PropOp32
 70
     1
102
RTVSPost2010Prop33
280
     0
102
RTVSPost2010PropOp33
 70
     1
102
RTVSPost2010Prop34
280
     0
102
RTVSPost2010PropOp34
 70
     1
102
RTVSPost2010Prop35
280
     0
102
RTVSPost2010PropOp35
 70
     1
102
RTVSPost2010Prop36
280
     0
102
RTVSPost2010PropOp36
 70
     1
102
RTVSPost2010Prop37
 90
       50
102
RTVSPost2010PropOp37
 70
     1
102
RTVSPost2010Prop38
140
0.0
102
RTVSPost2010PropOp38
 70
     1
102
RTVSPost2010Prop39
140
1.0
102
RTVSPost2010PropOp39
 70
     1
102
RTVSPost2010Prop40
 90
        0
102
RTVSPost2010PropOp40
 70
     1
102
RTVSPost2010Prop41ColorIndex
 90
       18
102
RTVSPost2010Prop41ColorRGB
 90
        0
102
RTVSPost2010PropOp41
 70
     1
102
RTVSPost2010Prop42
 90
       50
102
RTVSPost2010PropOp42
 70
     1
102
RTVSPost2010Prop43
 90
        3
102
RTVSPost2010PropOp43
 70
     1
102
RTVSPost2010Prop44ColorIndex
 90
        5
102
RTVSPost2010Prop44ColorRGB
 90
      255
102
RTVSPost2010PropOp44
 70
     1
102
RTVSPost2010Prop45
280
     0
102
RTVSPost2010PropOp45
 70
     1
102
RTVSPost2010Prop46
 90
       50
102
RTVSPost2010PropOp46
 70
     1
102
RTVSPost2010Prop47
 90
       50
102
RTVSPost2010PropOp47
 70
     1
102
RTVSPost2010Prop48
 90
       50
102
RTVSPost2010PropOp48
 70
     1
102
RTVSPost2010Prop49
280
     0
102
RTVSPost2010PropOp49
 70
     1
102
RTVSPost2010Prop50
 90
       50
102
RTVSPost2010PropOp50
 70
     1
102
RTVSPost2010Prop51ColorIndex
 90
      256
102
RTVSPost2010Prop51ColorRGB
 90
-16777216
102
RTVSPost2010PropOp51
 70
     0
102
RTVSPost2010Prop52
140
1.0
102
RTVSPost2010PropOp52
 70
     0
102
RTVSPost2010Prop53
 90
        2
102
RTVSPost2010PropOp53
 70
     1
102
RTVSPost2010Prop54
  1
strokes_ogs.tif
102
RTVSPost2010PropOp54
 70
     1
102
RTVSPost2010Prop55
280
     0
102
RTVSPost2010PropOp55
 70
     1
102
RTVSPost2010Prop56
140
1.0
102
RTVSPost2010PropOp56
 70
     1
102
RTVSPost2010Prop57
140
1.0
102
RTVSPost2010PropOp57
 70
     1
102
RTVSPropertyOp0
 70
     1
102
RTVSPropertyOp1
 70
     1
102
RTVSPropertyOp2
 70
     1
102
RTVSPropertyOp3
 70
     1
102
RTVSPropertyOp4
 70
     1
102
RTVSPropertyOp5
 70
     1
102
RTVSPropertyOp6
 70
     1
102
RTVSPropertyOp7
 70
     1
102
RTVSPropertyOp8
 70
     1
102
RTVSPropertyOp9
 70
     1
102
RTVSPropertyOp10
 70
     1
102
RTVSPropertyOp11
 70
     1
102
RTVSPropertyOp12
 70
     1
102
RTVSPropertyOp13
 70
     1
102
RTVSPropertyOp14
 70
     1
102
RTVSPropertyOp15
 70
     1
102
RTVSPropertyOp16
 70
     1
102
RTVSPropertyOp17
 70
     1
102
RTVSPropertyOp18
 70
     1
102
RTVSPropertyOp19
 70
     1
102
RTVSPropertyOp20
 70
     1
102
RTVSPropertyOp21
 70
     1
102
RTVSPropertyOp22
 70
     1
102
RTVSPropertyOp23
 70
     1
102
RTVSPropertyOp24
 70
     1
102
RTVSPropertyOp25
 70
     1
102
RTVSPropertyOp26
 70
     1
102
RTVSPropertyOp27
 70
     1
102
RTVSPropertyOp28
 70
     1
102
RTVSPropertyOp29
 70
     1
102
RTVSPropertyOp30
 70
     1
102
RTVSPropertyOp31
 70
     1
102
RTVSPropertyOp32
 70
     1
102
RTVSPropertyOp33
 70
     1
102
RTVSPropertyOp34
 70
     1
102
RTVSPropertyOp35
 70
     1
102
RTVSPropertyOp36
 70
     1
102
RTVSPropertyOp37
 70
     1
102
RTVSPropertyOp38
 70
     1
102
RTVSPropertyOp39
 70
     1
102
RTVSPropertyOp40
 70
     1
102
RTVSPropertyOp41
 70
     1
102
RTVSPropertyOp42
 70
     1
102
RTVSPropertyOp43
 70
     1
102
RTVSPropertyOp44
 70
     1
102
RTVSPropertyOp45
 70
     1
102
RTVSPropertyOp46
 70
     1
102
RTVSPropertyOp47
 70
     1
102
RTVSPropertyOp48
 70
     1
102
RTVSPropertyOp49
 70
     1
102
RTVSPropertyOp50
 70
     1
102
RTVSPropertyOp51
 70
     0
102
RTVSPropertyOp52
 70
     0
102
RTVSPropertyOp53
 70
     1
102
RTVSPropertyOp54
 70
     1
102
RTVSPropertyOp55
 70
     1
102
RTVSPropertyOp56
 70
     1
102
RTVSPropertyOp57
 70
     1
102
RTVSPropertyOp58
 70
     1
102
RTVSPropertyOp59
 70
     1
102
RTVSPropertyOp60
 70
     1
102
RTVSPropertyOp61
 70
     1
102
RTVSPropertyOp62
 70
     1
  0
XRECORD
  5
20E1B
102
{ACAD_REACTORS
330
20E1A
102
}
330
20E1A
100
AcDbXrecord
280
     1
102
RTVSPost2010Prop28
280
     0
102
RTVSPost2010PropOp28
 70
     1
102
RTVSPost2010Prop29
280
     1
102
RTVSPost2010PropOp29
 70
     1
102
RTVSPost2010Prop30
280
     1
102
RTVSPost2010PropOp30
 70
     1
102
RTVSPost2010Prop31
280
     0
102
RTVSPost2010PropOp31
 70
     1
102
RTVSPost2010Prop32
280
     0
102
RTVSPost2010PropOp32
 70
     1
102
RTVSPost2010Prop33
280
     0
102
RTVSPost2010PropOp33
 70
     1
102
RTVSPost2010Prop34
280
     0
102
RTVSPost2010PropOp34
 70
     1
102
RTVSPost2010Prop35
280
     0
102
RTVSPost2010PropOp35
 70
     1
102
RTVSPost2010Prop36
280
     0
102
RTVSPost2010PropOp36
 70
     1
102
RTVSPost2010Prop37
 90
       50
102
RTVSPost2010PropOp37
 70
     1
102
RTVSPost2010Prop38
140
0.0
102
RTVSPost2010PropOp38
 70
     1
102
RTVSPost2010Prop39
140
1.0
102
RTVSPost2010PropOp39
 70
     1
102
RTVSPost2010Prop40
 90
        0
102
RTVSPost2010PropOp40
 70
     1
102
RTVSPost2010Prop41ColorIndex
 90
       18
102
RTVSPost2010Prop41ColorRGB
 90
        0
102
RTVSPost2010PropOp41
 70
     1
102
RTVSPost2010Prop42
 90
       50
102
RTVSPost2010PropOp42
 70
     1
102
RTVSPost2010Prop43
 90
        3
102
RTVSPost2010PropOp43
 70
     1
102
RTVSPost2010Prop44ColorIndex
 90
        5
102
RTVSPost2010Prop44ColorRGB
 90
      255
102
RTVSPost2010PropOp44
 70
     1
102
RTVSPost2010Prop45
280
     0
102
RTVSPost2010PropOp45
 70
     1
102
RTVSPost2010Prop46
 90
       50
102
RTVSPost2010PropOp46
 70
     1
102
RTVSPost2010Prop47
 90
       50
102
RTVSPost2010PropOp47
 70
     1
102
RTVSPost2010Prop48
 90
       50
102
RTVSPost2010PropOp48
 70
     1
102
RTVSPost2010Prop49
280
     0
102
RTVSPost2010PropOp49
 70
     1
102
RTVSPost2010Prop50
 90
       50
102
RTVSPost2010PropOp50
 70
     1
102
RTVSPost2010Prop51ColorIndex
 90
      256
102
RTVSPost2010Prop51ColorRGB
 90
-16777216
102
RTVSPost2010PropOp51
 70
     0
102
RTVSPost2010Prop52
140
1.0
102
RTVSPost2010PropOp52
 70
     0
102
RTVSPost2010Prop53
 90
        2
102
RTVSPost2010PropOp53
 70
     1
102
RTVSPost2010Prop54
  1
strokes_ogs.tif
102
RTVSPost2010PropOp54
 70
     1
102
RTVSPost2010Prop55
280
     0
102
RTVSPost2010PropOp55
 70
     1
102
RTVSPost2010Prop56
140
1.0
102
RTVSPost2010PropOp56
 70
     1
102
RTVSPost2010Prop57
140
1.0
102
RTVSPost2010PropOp57
 70
     1
102
RTVSPropertyOp0
 70
     1
102
RTVSPropertyOp1
 70
     1
102
RTVSPropertyOp2
 70
     1
102
RTVSPropertyOp3
 70
     1
102
RTVSPropertyOp4
 70
     1
102
RTVSPropertyOp5
 70
     1
102
RTVSPropertyOp6
 70
     1
102
RTVSPropertyOp7
 70
     1
102
RTVSPropertyOp8
 70
     1
102
RTVSPropertyOp9
 70
     1
102
RTVSPropertyOp10
 70
     1
102
RTVSPropertyOp11
 70
     1
102
RTVSPropertyOp12
 70
     1
102
RTVSPropertyOp13
 70
     1
102
RTVSPropertyOp14
 70
     1
102
RTVSPropertyOp15
 70
     1
102
RTVSPropertyOp16
 70
     1
102
RTVSPropertyOp17
 70
     1
102
RTVSPropertyOp18
 70
     1
102
RTVSPropertyOp19
 70
     1
102
RTVSPropertyOp20
 70
     1
102
RTVSPropertyOp21
 70
     1
102
RTVSPropertyOp22
 70
     1
102
RTVSPropertyOp23
 70
     1
102
RTVSPropertyOp24
 70
     1
102
RTVSPropertyOp25
 70
     1
102
RTVSPropertyOp26
 70
     1
102
RTVSPropertyOp27
 70
     1
102
RTVSPropertyOp28
 70
     1
102
RTVSPropertyOp29
 70
     1
102
RTVSPropertyOp30
 70
     1
102
RTVSPropertyOp31
 70
     1
102
RTVSPropertyOp32
 70
     1
102
RTVSPropertyOp33
 70
     1
102
RTVSPropertyOp34
 70
     1
102
RTVSPropertyOp35
 70
     1
102
RTVSPropertyOp36
 70
     1
102
RTVSPropertyOp37
 70
     1
102
RTVSPropertyOp38
 70
     1
102
RTVSPropertyOp39
 70
     1
102
RTVSPropertyOp40
 70
     1
102
RTVSPropertyOp41
 70
     1
102
RTVSPropertyOp42
 70
     1
102
RTVSPropertyOp43
 70
     1
102
RTVSPropertyOp44
 70
     1
102
RTVSPropertyOp45
 70
     1
102
RTVSPropertyOp46
 70
     1
102
RTVSPropertyOp47
 70
     1
102
RTVSPropertyOp48
 70
     1
102
RTVSPropertyOp49
 70
     1
102
RTVSPropertyOp50
 70
     1
102
RTVSPropertyOp51
 70
     0
102
RTVSPropertyOp52
 70
     0
102
RTVSPropertyOp53
 70
     1
102
RTVSPropertyOp54
 70
     1
102
RTVSPropertyOp55
 70
     1
102
RTVSPropertyOp56
 70
     1
102
RTVSPropertyOp57
 70
     1
102
RTVSPropertyOp58
 70
     1
102
RTVSPropertyOp59
 70
     1
102
RTVSPropertyOp60
 70
     1
102
RTVSPropertyOp61
 70
     1
102
RTVSPropertyOp62
 70
     1
  0
XRECORD
  5
20E19
102
{ACAD_REACTORS
330
20E18
102
}
330
20E18
100
AcDbXrecord
280
     1
102
RTVSPost2010Prop28
280
     0
102
RTVSPost2010PropOp28
 70
     1
102
RTVSPost2010Prop29
280
     1
102
RTVSPost2010PropOp29
 70
     1
102
RTVSPost2010Prop30
280
     1
102
RTVSPost2010PropOp30
 70
     1
102
RTVSPost2010Prop31
280
     0
102
RTVSPost2010PropOp31
 70
     1
102
RTVSPost2010Prop32
280
     0
102
RTVSPost2010PropOp32
 70
     1
102
RTVSPost2010Prop33
280
     0
102
RTVSPost2010PropOp33
 70
     1
102
RTVSPost2010Prop34
280
     0
102
RTVSPost2010PropOp34
 70
     1
102
RTVSPost2010Prop35
280
     0
102
RTVSPost2010PropOp35
 70
     1
102
RTVSPost2010Prop36
280
     0
102
RTVSPost2010PropOp36
 70
     1
102
RTVSPost2010Prop37
 90
       50
102
RTVSPost2010PropOp37
 70
     1
102
RTVSPost2010Prop38
140
0.0
102
RTVSPost2010PropOp38
 70
     1
102
RTVSPost2010Prop39
140
1.0
102
RTVSPost2010PropOp39
 70
     1
102
RTVSPost2010Prop40
 90
        0
102
RTVSPost2010PropOp40
 70
     1
102
RTVSPost2010Prop41ColorIndex
 90
       18
102
RTVSPost2010Prop41ColorRGB
 90
        0
102
RTVSPost2010PropOp41
 70
     1
102
RTVSPost2010Prop42
 90
       50
102
RTVSPost2010PropOp42
 70
     1
102
RTVSPost2010Prop43
 90
        3
102
RTVSPost2010PropOp43
 70
     1
102
RTVSPost2010Prop44ColorIndex
 90
        5
102
RTVSPost2010Prop44ColorRGB
 90
      255
102
RTVSPost2010PropOp44
 70
     1
102
RTVSPost2010Prop45
280
     0
102
RTVSPost2010PropOp45
 70
     1
102
RTVSPost2010Prop46
 90
       50
102
RTVSPost2010PropOp46
 70
     1
102
RTVSPost2010Prop47
 90
       50
102
RTVSPost2010PropOp47
 70
     1
102
RTVSPost2010Prop48
 90
       50
102
RTVSPost2010PropOp48
 70
     1
102
RTVSPost2010Prop49
280
     0
102
RTVSPost2010PropOp49
 70
     1
102
RTVSPost2010Prop50
 90
       50
102
RTVSPost2010PropOp50
 70
     1
102
RTVSPost2010Prop51ColorIndex
 90
      256
102
RTVSPost2010Prop51ColorRGB
 90
-16777216
102
RTVSPost2010PropOp51
 70
     0
102
RTVSPost2010Prop52
140
1.0
102
RTVSPost2010PropOp52
 70
     0
102
RTVSPost2010Prop53
 90
        2
102
RTVSPost2010PropOp53
 70
     1
102
RTVSPost2010Prop54
  1
strokes_ogs.tif
102
RTVSPost2010PropOp54
 70
     1
102
RTVSPost2010Prop55
280
     0
102
RTVSPost2010PropOp55
 70
     1
102
RTVSPost2010Prop56
140
1.0
102
RTVSPost2010PropOp56
 70
     1
102
RTVSPost2010Prop57
140
1.0
102
RTVSPost2010PropOp57
 70
     1
102
RTVSPropertyOp0
 70
     1
102
RTVSPropertyOp1
 70
     1
102
RTVSPropertyOp2
 70
     1
102
RTVSPropertyOp3
 70
     1
102
RTVSPropertyOp4
 70
     1
102
RTVSPropertyOp5
 70
     1
102
RTVSPropertyOp6
 70
     1
102
RTVSPropertyOp7
 70
     1
102
RTVSPropertyOp8
 70
     1
102
RTVSPropertyOp9
 70
     1
102
RTVSPropertyOp10
 70
     1
102
RTVSPropertyOp11
 70
     1
102
RTVSPropertyOp12
 70
     1
102
RTVSPropertyOp13
 70
     1
102
RTVSPropertyOp14
 70
     1
102
RTVSPropertyOp15
 70
     1
102
RTVSPropertyOp16
 70
     1
102
RTVSPropertyOp17
 70
     1
102
RTVSPropertyOp18
 70
     1
102
RTVSPropertyOp19
 70
     1
102
RTVSPropertyOp20
 70
     1
102
RTVSPropertyOp21
 70
     1
102
RTVSPropertyOp22
 70
     1
102
RTVSPropertyOp23
 70
     1
102
RTVSPropertyOp24
 70
     1
102
RTVSPropertyOp25
 70
     1
102
RTVSPropertyOp26
 70
     1
102
RTVSPropertyOp27
 70
     1
102
RTVSPropertyOp28
 70
     1
102
RTVSPropertyOp29
 70
     1
102
RTVSPropertyOp30
 70
     1
102
RTVSPropertyOp31
 70
     1
102
RTVSPropertyOp32
 70
     1
102
RTVSPropertyOp33
 70
     1
102
RTVSPropertyOp34
 70
     1
102
RTVSPropertyOp35
 70
     1
102
RTVSPropertyOp36
 70
     1
102
RTVSPropertyOp37
 70
     1
102
RTVSPropertyOp38
 70
     1
102
RTVSPropertyOp39
 70
     1
102
RTVSPropertyOp40
 70
     1
102
RTVSPropertyOp41
 70
     1
102
RTVSPropertyOp42
 70
     1
102
RTVSPropertyOp43
 70
     1
102
RTVSPropertyOp44
 70
     1
102
RTVSPropertyOp45
 70
     1
102
RTVSPropertyOp46
 70
     1
102
RTVSPropertyOp47
 70
     1
102
RTVSPropertyOp48
 70
     1
102
RTVSPropertyOp49
 70
     1
102
RTVSPropertyOp50
 70
     1
102
RTVSPropertyOp51
 70
     0
102
RTVSPropertyOp52
 70
     0
102
RTVSPropertyOp53
 70
     1
102
RTVSPropertyOp54
 70
     1
102
RTVSPropertyOp55
 70
     1
102
RTVSPropertyOp56
 70
     1
102
RTVSPropertyOp57
 70
     1
102
RTVSPropertyOp58
 70
     1
102
RTVSPropertyOp59
 70
     1
102
RTVSPropertyOp60
 70
     1
102
RTVSPropertyOp61
 70
     1
102
RTVSPropertyOp62
 70
     1
  0
XRECORD
  5
20E15
102
{ACAD_REACTORS
330
20E14
102
}
330
20E14
100
AcDbXrecord
280
     1
102
RTVSPost2010Prop28
280
     0
102
RTVSPost2010PropOp28
 70
     1
102
RTVSPost2010Prop29
280
     1
102
RTVSPost2010PropOp29
 70
     1
102
RTVSPost2010Prop30
280
     1
102
RTVSPost2010PropOp30
 70
     1
102
RTVSPost2010Prop31
280
     0
102
RTVSPost2010PropOp31
 70
     1
102
RTVSPost2010Prop32
280
     0
102
RTVSPost2010PropOp32
 70
     1
102
RTVSPost2010Prop33
280
     0
102
RTVSPost2010PropOp33
 70
     1
102
RTVSPost2010Prop34
280
     0
102
RTVSPost2010PropOp34
 70
     1
102
RTVSPost2010Prop35
280
     0
102
RTVSPost2010PropOp35
 70
     1
102
RTVSPost2010Prop36
280
     0
102
RTVSPost2010PropOp36
 70
     1
102
RTVSPost2010Prop37
 90
       50
102
RTVSPost2010PropOp37
 70
     1
102
RTVSPost2010Prop38
140
0.0
102
RTVSPost2010PropOp38
 70
     1
102
RTVSPost2010Prop39
140
1.0
102
RTVSPost2010PropOp39
 70
     1
102
RTVSPost2010Prop40
 90
        0
102
RTVSPost2010PropOp40
 70
     1
102
RTVSPost2010Prop41ColorIndex
 90
       18
102
RTVSPost2010Prop41ColorRGB
 90
        0
102
RTVSPost2010PropOp41
 70
     1
102
RTVSPost2010Prop42
 90
       50
102
RTVSPost2010PropOp42
 70
     1
102
RTVSPost2010Prop43
 90
        3
102
RTVSPost2010PropOp43
 70
     1
102
RTVSPost2010Prop44ColorIndex
 90
        5
102
RTVSPost2010Prop44ColorRGB
 90
      255
102
RTVSPost2010PropOp44
 70
     1
102
RTVSPost2010Prop45
280
     0
102
RTVSPost2010PropOp45
 70
     1
102
RTVSPost2010Prop46
 90
       50
102
RTVSPost2010PropOp46
 70
     1
102
RTVSPost2010Prop47
 90
       50
102
RTVSPost2010PropOp47
 70
     1
102
RTVSPost2010Prop48
 90
       50
102
RTVSPost2010PropOp48
 70
     1
102
RTVSPost2010Prop49
280
     0
102
RTVSPost2010PropOp49
 70
     1
102
RTVSPost2010Prop50
 90
       50
102
RTVSPost2010PropOp50
 70
     1
102
RTVSPost2010Prop51ColorIndex
 90
      256
102
RTVSPost2010Prop51ColorRGB
 90
-16777216
102
RTVSPost2010PropOp51
 70
     0
102
RTVSPost2010Prop52
140
1.0
102
RTVSPost2010PropOp52
 70
     0
102
RTVSPost2010Prop53
 90
        2
102
RTVSPost2010PropOp53
 70
     1
102
RTVSPost2010Prop54
  1
strokes_ogs.tif
102
RTVSPost2010PropOp54
 70
     1
102
RTVSPost2010Prop55
280
     0
102
RTVSPost2010PropOp55
 70
     1
102
RTVSPost2010Prop56
140
1.0
102
RTVSPost2010PropOp56
 70
     1
102
RTVSPost2010Prop57
140
1.0
102
RTVSPost2010PropOp57
 70
     1
102
RTVSPropertyOp0
 70
     1
102
RTVSPropertyOp1
 70
     1
102
RTVSPropertyOp2
 70
     1
102
RTVSPropertyOp3
 70
     1
102
RTVSPropertyOp4
 70
     1
102
RTVSPropertyOp5
 70
     1
102
RTVSPropertyOp6
 70
     1
102
RTVSPropertyOp7
 70
     1
102
RTVSPropertyOp8
 70
     1
102
RTVSPropertyOp9
 70
     1
102
RTVSPropertyOp10
 70
     1
102
RTVSPropertyOp11
 70
     1
102
RTVSPropertyOp12
 70
     1
102
RTVSPropertyOp13
 70
     1
102
RTVSPropertyOp14
 70
     1
102
RTVSPropertyOp15
 70
     1
102
RTVSPropertyOp16
 70
     1
102
RTVSPropertyOp17
 70
     1
102
RTVSPropertyOp18
 70
     1
102
RTVSPropertyOp19
 70
     1
102
RTVSPropertyOp20
 70
     1
102
RTVSPropertyOp21
 70
     1
102
RTVSPropertyOp22
 70
     1
102
RTVSPropertyOp23
 70
     1
102
RTVSPropertyOp24
 70
     1
102
RTVSPropertyOp25
 70
     1
102
RTVSPropertyOp26
 70
     1
102
RTVSPropertyOp27
 70
     1
102
RTVSPropertyOp28
 70
     1
102
RTVSPropertyOp29
 70
     1
102
RTVSPropertyOp30
 70
     1
102
RTVSPropertyOp31
 70
     1
102
RTVSPropertyOp32
 70
     1
102
RTVSPropertyOp33
 70
     1
102
RTVSPropertyOp34
 70
     1
102
RTVSPropertyOp35
 70
     1
102
RTVSPropertyOp36
 70
     1
102
RTVSPropertyOp37
 70
     1
102
RTVSPropertyOp38
 70
     1
102
RTVSPropertyOp39
 70
     1
102
RTVSPropertyOp40
 70
     1
102
RTVSPropertyOp41
 70
     1
102
RTVSPropertyOp42
 70
     1
102
RTVSPropertyOp43
 70
     1
102
RTVSPropertyOp44
 70
     1
102
RTVSPropertyOp45
 70
     1
102
RTVSPropertyOp46
 70
     1
102
RTVSPropertyOp47
 70
     1
102
RTVSPropertyOp48
 70
     1
102
RTVSPropertyOp49
 70
     1
102
RTVSPropertyOp50
 70
     1
102
RTVSPropertyOp51
 70
     0
102
RTVSPropertyOp52
 70
     0
102
RTVSPropertyOp53
 70
     1
102
RTVSPropertyOp54
 70
     1
102
RTVSPropertyOp55
 70
     1
102
RTVSPropertyOp56
 70
     1
102
RTVSPropertyOp57
 70
     1
102
RTVSPropertyOp58
 70
     1
102
RTVSPropertyOp59
 70
     1
102
RTVSPropertyOp60
 70
     1
102
RTVSPropertyOp61
 70
     1
102
RTVSPropertyOp62
 70
     1
  0
XRECORD
  5
20E23
102
{ACAD_REACTORS
330
20E22
102
}
330
20E22
100
AcDbXrecord
280
     1
102
RTVSPost2010Prop28
280
     0
102
RTVSPost2010PropOp28
 70
     1
102
RTVSPost2010Prop29
280
     1
102
RTVSPost2010PropOp29
 70
     1
102
RTVSPost2010Prop30
280
     1
102
RTVSPost2010PropOp30
 70
     1
102
RTVSPost2010Prop31
280
     0
102
RTVSPost2010PropOp31
 70
     1
102
RTVSPost2010Prop32
280
     0
102
RTVSPost2010PropOp32
 70
     1
102
RTVSPost2010Prop33
280
     0
102
RTVSPost2010PropOp33
 70
     1
102
RTVSPost2010Prop34
280
     0
102
RTVSPost2010PropOp34
 70
     1
102
RTVSPost2010Prop35
280
     0
102
RTVSPost2010PropOp35
 70
     1
102
RTVSPost2010Prop36
280
     0
102
RTVSPost2010PropOp36
 70
     1
102
RTVSPost2010Prop37
 90
       50
102
RTVSPost2010PropOp37
 70
     1
102
RTVSPost2010Prop38
140
0.0
102
RTVSPost2010PropOp38
 70
     1
102
RTVSPost2010Prop39
140
1.0
102
RTVSPost2010PropOp39
 70
     1
102
RTVSPost2010Prop40
 90
        0
102
RTVSPost2010PropOp40
 70
     1
102
RTVSPost2010Prop41ColorIndex
 90
       18
102
RTVSPost2010Prop41ColorRGB
 90
        0
102
RTVSPost2010PropOp41
 70
     1
102
RTVSPost2010Prop42
 90
       50
102
RTVSPost2010PropOp42
 70
     1
102
RTVSPost2010Prop43
 90
        3
102
RTVSPost2010PropOp43
 70
     1
102
RTVSPost2010Prop44ColorIndex
 90
        5
102
RTVSPost2010Prop44ColorRGB
 90
      255
102
RTVSPost2010PropOp44
 70
     1
102
RTVSPost2010Prop45
280
     0
102
RTVSPost2010PropOp45
 70
     1
102
RTVSPost2010Prop46
 90
       50
102
RTVSPost2010PropOp46
 70
     1
102
RTVSPost2010Prop47
 90
       50
102
RTVSPost2010PropOp47
 70
     1
102
RTVSPost2010Prop48
 90
       50
102
RTVSPost2010PropOp48
 70
     1
102
RTVSPost2010Prop49
280
     0
102
RTVSPost2010PropOp49
 70
     1
102
RTVSPost2010Prop50
 90
       50
102
RTVSPost2010PropOp50
 70
     1
102
RTVSPost2010Prop51ColorIndex
 90
      256
102
RTVSPost2010Prop51ColorRGB
 90
-16777216
102
RTVSPost2010PropOp51
 70
     0
102
RTVSPost2010Prop52
140
1.0
102
RTVSPost2010PropOp52
 70
     0
102
RTVSPost2010Prop53
 90
        2
102
RTVSPost2010PropOp53
 70
     1
102
RTVSPost2010Prop54
  1
strokes_ogs.tif
102
RTVSPost2010PropOp54
 70
     1
102
RTVSPost2010Prop55
280
     0
102
RTVSPost2010PropOp55
 70
     1
102
RTVSPost2010Prop56
140
1.0
102
RTVSPost2010PropOp56
 70
     1
102
RTVSPost2010Prop57
140
1.0
102
RTVSPost2010PropOp57
 70
     1
102
RTVSPropertyOp0
 70
     1
102
RTVSPropertyOp1
 70
     1
102
RTVSPropertyOp2
 70
     1
102
RTVSPropertyOp3
 70
     1
102
RTVSPropertyOp4
 70
     1
102
RTVSPropertyOp5
 70
     1
102
RTVSPropertyOp6
 70
     1
102
RTVSPropertyOp7
 70
     1
102
RTVSPropertyOp8
 70
     1
102
RTVSPropertyOp9
 70
     1
102
RTVSPropertyOp10
 70
     1
102
RTVSPropertyOp11
 70
     1
102
RTVSPropertyOp12
 70
     1
102
RTVSPropertyOp13
 70
     1
102
RTVSPropertyOp14
 70
     1
102
RTVSPropertyOp15
 70
     1
102
RTVSPropertyOp16
 70
     1
102
RTVSPropertyOp17
 70
     1
102
RTVSPropertyOp18
 70
     1
102
RTVSPropertyOp19
 70
     1
102
RTVSPropertyOp20
 70
     1
102
RTVSPropertyOp21
 70
     1
102
RTVSPropertyOp22
 70
     1
102
RTVSPropertyOp23
 70
     1
102
RTVSPropertyOp24
 70
     1
102
RTVSPropertyOp25
 70
     1
102
RTVSPropertyOp26
 70
     1
102
RTVSPropertyOp27
 70
     1
102
RTVSPropertyOp28
 70
     1
102
RTVSPropertyOp29
 70
     1
102
RTVSPropertyOp30
 70
     1
102
RTVSPropertyOp31
 70
     1
102
RTVSPropertyOp32
 70
     1
102
RTVSPropertyOp33
 70
     1
102
RTVSPropertyOp34
 70
     1
102
RTVSPropertyOp35
 70
     1
102
RTVSPropertyOp36
 70
     1
102
RTVSPropertyOp37
 70
     1
102
RTVSPropertyOp38
 70
     1
102
RTVSPropertyOp39
 70
     1
102
RTVSPropertyOp40
 70
     1
102
RTVSPropertyOp41
 70
     1
102
RTVSPropertyOp42
 70
     1
102
RTVSPropertyOp43
 70
     1
102
RTVSPropertyOp44
 70
     1
102
RTVSPropertyOp45
 70
     1
102
RTVSPropertyOp46
 70
     1
102
RTVSPropertyOp47
 70
     1
102
RTVSPropertyOp48
 70
     1
102
RTVSPropertyOp49
 70
     1
102
RTVSPropertyOp50
 70
     1
102
RTVSPropertyOp51
 70
     0
102
RTVSPropertyOp52
 70
     0
102
RTVSPropertyOp53
 70
     1
102
RTVSPropertyOp54
 70
     1
102
RTVSPropertyOp55
 70
     1
102
RTVSPropertyOp56
 70
     1
102
RTVSPropertyOp57
 70
     1
102
RTVSPropertyOp58
 70
     1
102
RTVSPropertyOp59
 70
     1
102
RTVSPropertyOp60
 70
     1
102
RTVSPropertyOp61
 70
     1
102
RTVSPropertyOp62
 70
     1
  0
XRECORD
  5
20E2B
102
{ACAD_REACTORS
330
20E2A
102
}
330
20E2A
100
AcDbXrecord
280
     1
102
RTVSPost2010Prop28
280
     0
102
RTVSPost2010PropOp28
 70
     1
102
RTVSPost2010Prop29
280
     1
102
RTVSPost2010PropOp29
 70
     1
102
RTVSPost2010Prop30
280
     1
102
RTVSPost2010PropOp30
 70
     1
102
RTVSPost2010Prop31
280
     0
102
RTVSPost2010PropOp31
 70
     1
102
RTVSPost2010Prop32
280
     0
102
RTVSPost2010PropOp32
 70
     1
102
RTVSPost2010Prop33
280
     0
102
RTVSPost2010PropOp33
 70
     1
102
RTVSPost2010Prop34
280
     0
102
RTVSPost2010PropOp34
 70
     1
102
RTVSPost2010Prop35
280
     0
102
RTVSPost2010PropOp35
 70
     1
102
RTVSPost2010Prop36
280
     0
102
RTVSPost2010PropOp36
 70
     1
102
RTVSPost2010Prop37
 90
       50
102
RTVSPost2010PropOp37
 70
     1
102
RTVSPost2010Prop38
140
0.0
102
RTVSPost2010PropOp38
 70
     1
102
RTVSPost2010Prop39
140
1.0
102
RTVSPost2010PropOp39
 70
     1
102
RTVSPost2010Prop40
 90
        0
102
RTVSPost2010PropOp40
 70
     1
102
RTVSPost2010Prop41ColorIndex
 90
       18
102
RTVSPost2010Prop41ColorRGB
 90
        0
102
RTVSPost2010PropOp41
 70
     1
102
RTVSPost2010Prop42
 90
       50
102
RTVSPost2010PropOp42
 70
     1
102
RTVSPost2010Prop43
 90
        3
102
RTVSPost2010PropOp43
 70
     1
102
RTVSPost2010Prop44ColorIndex
 90
        5
102
RTVSPost2010Prop44ColorRGB
 90
      255
102
RTVSPost2010PropOp44
 70
     1
102
RTVSPost2010Prop45
280
     0
102
RTVSPost2010PropOp45
 70
     1
102
RTVSPost2010Prop46
 90
       50
102
RTVSPost2010PropOp46
 70
     1
102
RTVSPost2010Prop47
 90
       50
102
RTVSPost2010PropOp47
 70
     1
102
RTVSPost2010Prop48
 90
       50
102
RTVSPost2010PropOp48
 70
     1
102
RTVSPost2010Prop49
280
     0
102
RTVSPost2010PropOp49
 70
     1
102
RTVSPost2010Prop50
 90
       50
102
RTVSPost2010PropOp50
 70
     1
102
RTVSPost2010Prop51ColorIndex
 90
      256
102
RTVSPost2010Prop51ColorRGB
 90
-16777216
102
RTVSPost2010PropOp51
 70
     0
102
RTVSPost2010Prop52
140
1.0
102
RTVSPost2010PropOp52
 70
     0
102
RTVSPost2010Prop53
 90
        2
102
RTVSPost2010PropOp53
 70
     1
102
RTVSPost2010Prop54
  1
strokes_ogs.tif
102
RTVSPost2010PropOp54
 70
     1
102
RTVSPost2010Prop55
280
     0
102
RTVSPost2010PropOp55
 70
     1
102
RTVSPost2010Prop56
140
1.0
102
RTVSPost2010PropOp56
 70
     1
102
RTVSPost2010Prop57
140
1.0
102
RTVSPost2010PropOp57
 70
     1
102
RTVSPropertyOp0
 70
     1
102
RTVSPropertyOp1
 70
     1
102
RTVSPropertyOp2
 70
     1
102
RTVSPropertyOp3
 70
     1
102
RTVSPropertyOp4
 70
     1
102
RTVSPropertyOp5
 70
     1
102
RTVSPropertyOp6
 70
     1
102
RTVSPropertyOp7
 70
     1
102
RTVSPropertyOp8
 70
     1
102
RTVSPropertyOp9
 70
     1
102
RTVSPropertyOp10
 70
     1
102
RTVSPropertyOp11
 70
     1
102
RTVSPropertyOp12
 70
     1
102
RTVSPropertyOp13
 70
     1
102
RTVSPropertyOp14
 70
     1
102
RTVSPropertyOp15
 70
     1
102
RTVSPropertyOp16
 70
     1
102
RTVSPropertyOp17
 70
     1
102
RTVSPropertyOp18
 70
     1
102
RTVSPropertyOp19
 70
     1
102
RTVSPropertyOp20
 70
     1
102
RTVSPropertyOp21
 70
     1
102
RTVSPropertyOp22
 70
     1
102
RTVSPropertyOp23
 70
     1
102
RTVSPropertyOp24
 70
     1
102
RTVSPropertyOp25
 70
     1
102
RTVSPropertyOp26
 70
     1
102
RTVSPropertyOp27
 70
     1
102
RTVSPropertyOp28
 70
     1
102
RTVSPropertyOp29
 70
     1
102
RTVSPropertyOp30
 70
     1
102
RTVSPropertyOp31
 70
     1
102
RTVSPropertyOp32
 70
     1
102
RTVSPropertyOp33
 70
     1
102
RTVSPropertyOp34
 70
     1
102
RTVSPropertyOp35
 70
     1
102
RTVSPropertyOp36
 70
     1
102
RTVSPropertyOp37
 70
     1
102
RTVSPropertyOp38
 70
     1
102
RTVSPropertyOp39
 70
     1
102
RTVSPropertyOp40
 70
     1
102
RTVSPropertyOp41
 70
     1
102
RTVSPropertyOp42
 70
     1
102
RTVSPropertyOp43
 70
     1
102
RTVSPropertyOp44
 70
     1
102
RTVSPropertyOp45
 70
     1
102
RTVSPropertyOp46
 70
     1
102
RTVSPropertyOp47
 70
     1
102
RTVSPropertyOp48
 70
     1
102
RTVSPropertyOp49
 70
     1
102
RTVSPropertyOp50
 70
     1
102
RTVSPropertyOp51
 70
     0
102
RTVSPropertyOp52
 70
     0
102
RTVSPropertyOp53
 70
     1
102
RTVSPropertyOp54
 70
     1
102
RTVSPropertyOp55
 70
     1
102
RTVSPropertyOp56
 70
     1
102
RTVSPropertyOp57
 70
     1
102
RTVSPropertyOp58
 70
     1
102
RTVSPropertyOp59
 70
     1
102
RTVSPropertyOp60
 70
     1
102
RTVSPropertyOp61
 70
     1
102
RTVSPropertyOp62
 70
     1
  0
XRECORD
  5
20E1D
102
{ACAD_REACTORS
330
20E1C
102
}
330
20E1C
100
AcDbXrecord
280
     1
102
RTVSPost2010Prop28
280
     0
102
RTVSPost2010PropOp28
 70
     1
102
RTVSPost2010Prop29
280
     1
102
RTVSPost2010PropOp29
 70
     1
102
RTVSPost2010Prop30
280
     1
102
RTVSPost2010PropOp30
 70
     1
102
RTVSPost2010Prop31
280
     0
102
RTVSPost2010PropOp31
 70
     1
102
RTVSPost2010Prop32
280
     0
102
RTVSPost2010PropOp32
 70
     1
102
RTVSPost2010Prop33
280
     0
102
RTVSPost2010PropOp33
 70
     1
102
RTVSPost2010Prop34
280
     0
102
RTVSPost2010PropOp34
 70
     1
102
RTVSPost2010Prop35
280
     0
102
RTVSPost2010PropOp35
 70
     1
102
RTVSPost2010Prop36
280
     0
102
RTVSPost2010PropOp36
 70
     1
102
RTVSPost2010Prop37
 90
       50
102
RTVSPost2010PropOp37
 70
     1
102
RTVSPost2010Prop38
140
0.0
102
RTVSPost2010PropOp38
 70
     1
102
RTVSPost2010Prop39
140
1.0
102
RTVSPost2010PropOp39
 70
     1
102
RTVSPost2010Prop40
 90
        0
102
RTVSPost2010PropOp40
 70
     1
102
RTVSPost2010Prop41ColorIndex
 90
       18
102
RTVSPost2010Prop41ColorRGB
 90
        0
102
RTVSPost2010PropOp41
 70
     1
102
RTVSPost2010Prop42
 90
       50
102
RTVSPost2010PropOp42
 70
     1
102
RTVSPost2010Prop43
 90
        3
102
RTVSPost2010PropOp43
 70
     1
102
RTVSPost2010Prop44ColorIndex
 90
        5
102
RTVSPost2010Prop44ColorRGB
 90
      255
102
RTVSPost2010PropOp44
 70
     1
102
RTVSPost2010Prop45
280
     0
102
RTVSPost2010PropOp45
 70
     1
102
RTVSPost2010Prop46
 90
       50
102
RTVSPost2010PropOp46
 70
     1
102
RTVSPost2010Prop47
 90
       50
102
RTVSPost2010PropOp47
 70
     1
102
RTVSPost2010Prop48
 90
       50
102
RTVSPost2010PropOp48
 70
     1
102
RTVSPost2010Prop49
280
     0
102
RTVSPost2010PropOp49
 70
     1
102
RTVSPost2010Prop50
 90
       50
102
RTVSPost2010PropOp50
 70
     1
102
RTVSPost2010Prop51ColorIndex
 90
      256
102
RTVSPost2010Prop51ColorRGB
 90
-16777216
102
RTVSPost2010PropOp51
 70
     0
102
RTVSPost2010Prop52
140
1.0
102
RTVSPost2010PropOp52
 70
     0
102
RTVSPost2010Prop53
 90
        2
102
RTVSPost2010PropOp53
 70
     1
102
RTVSPost2010Prop54
  1
strokes_ogs.tif
102
RTVSPost2010PropOp54
 70
     1
102
RTVSPost2010Prop55
280
     0
102
RTVSPost2010PropOp55
 70
     1
102
RTVSPost2010Prop56
140
1.0
102
RTVSPost2010PropOp56
 70
     1
102
RTVSPost2010Prop57
140
1.0
102
RTVSPost2010PropOp57
 70
     1
102
RTVSPropertyOp0
 70
     1
102
RTVSPropertyOp1
 70
     1
102
RTVSPropertyOp2
 70
     1
102
RTVSPropertyOp3
 70
     1
102
RTVSPropertyOp4
 70
     1
102
RTVSPropertyOp5
 70
     1
102
RTVSPropertyOp6
 70
     1
102
RTVSPropertyOp7
 70
     1
102
RTVSPropertyOp8
 70
     1
102
RTVSPropertyOp9
 70
     1
102
RTVSPropertyOp10
 70
     1
102
RTVSPropertyOp11
 70
     1
102
RTVSPropertyOp12
 70
     1
102
RTVSPropertyOp13
 70
     1
102
RTVSPropertyOp14
 70
     1
102
RTVSPropertyOp15
 70
     1
102
RTVSPropertyOp16
 70
     1
102
RTVSPropertyOp17
 70
     1
102
RTVSPropertyOp18
 70
     1
102
RTVSPropertyOp19
 70
     1
102
RTVSPropertyOp20
 70
     1
102
RTVSPropertyOp21
 70
     1
102
RTVSPropertyOp22
 70
     1
102
RTVSPropertyOp23
 70
     1
102
RTVSPropertyOp24
 70
     1
102
RTVSPropertyOp25
 70
     1
102
RTVSPropertyOp26
 70
     1
102
RTVSPropertyOp27
 70
     1
102
RTVSPropertyOp28
 70
     1
102
RTVSPropertyOp29
 70
     1
102
RTVSPropertyOp30
 70
     1
102
RTVSPropertyOp31
 70
     1
102
RTVSPropertyOp32
 70
     1
102
RTVSPropertyOp33
 70
     1
102
RTVSPropertyOp34
 70
     1
102
RTVSPropertyOp35
 70
     1
102
RTVSPropertyOp36
 70
     1
102
RTVSPropertyOp37
 70
     1
102
RTVSPropertyOp38
 70
     1
102
RTVSPropertyOp39
 70
     1
102
RTVSPropertyOp40
 70
     1
102
RTVSPropertyOp41
 70
     1
102
RTVSPropertyOp42
 70
     1
102
RTVSPropertyOp43
 70
     1
102
RTVSPropertyOp44
 70
     1
102
RTVSPropertyOp45
 70
     1
102
RTVSPropertyOp46
 70
     1
102
RTVSPropertyOp47
 70
     1
102
RTVSPropertyOp48
 70
     1
102
RTVSPropertyOp49
 70
     1
102
RTVSPropertyOp50
 70
     1
102
RTVSPropertyOp51
 70
     0
102
RTVSPropertyOp52
 70
     0
102
RTVSPropertyOp53
 70
     1
102
RTVSPropertyOp54
 70
     1
102
RTVSPropertyOp55
 70
     1
102
RTVSPropertyOp56
 70
     1
102
RTVSPropertyOp57
 70
     1
102
RTVSPropertyOp58
 70
     1
102
RTVSPropertyOp59
 70
     1
102
RTVSPropertyOp60
 70
     1
102
RTVSPropertyOp61
 70
     1
102
RTVSPropertyOp62
 70
     1
  0
XRECORD
  5
20E21
102
{ACAD_REACTORS
330
20E20
102
}
330
20E20
100
AcDbXrecord
280
     1
102
RTVSPost2010Prop28
280
     0
102
RTVSPost2010PropOp28
 70
     1
102
RTVSPost2010Prop29
280
     1
102
RTVSPost2010PropOp29
 70
     1
102
RTVSPost2010Prop30
280
     1
102
RTVSPost2010PropOp30
 70
     1
102
RTVSPost2010Prop31
280
     0
102
RTVSPost2010PropOp31
 70
     1
102
RTVSPost2010Prop32
280
     0
102
RTVSPost2010PropOp32
 70
     1
102
RTVSPost2010Prop33
280
     0
102
RTVSPost2010PropOp33
 70
     1
102
RTVSPost2010Prop34
280
     0
102
RTVSPost2010PropOp34
 70
     1
102
RTVSPost2010Prop35
280
     0
102
RTVSPost2010PropOp35
 70
     1
102
RTVSPost2010Prop36
280
     0
102
RTVSPost2010PropOp36
 70
     1
102
RTVSPost2010Prop37
 90
       50
102
RTVSPost2010PropOp37
 70
     1
102
RTVSPost2010Prop38
140
0.0
102
RTVSPost2010PropOp38
 70
     1
102
RTVSPost2010Prop39
140
1.0
102
RTVSPost2010PropOp39
 70
     1
102
RTVSPost2010Prop40
 90
        0
102
RTVSPost2010PropOp40
 70
     1
102
RTVSPost2010Prop41ColorIndex
 90
       18
102
RTVSPost2010Prop41ColorRGB
 90
        0
102
RTVSPost2010PropOp41
 70
     1
102
RTVSPost2010Prop42
 90
       50
102
RTVSPost2010PropOp42
 70
     1
102
RTVSPost2010Prop43
 90
        3
102
RTVSPost2010PropOp43
 70
     1
102
RTVSPost2010Prop44ColorIndex
 90
        5
102
RTVSPost2010Prop44ColorRGB
 90
      255
102
RTVSPost2010PropOp44
 70
     1
102
RTVSPost2010Prop45
280
     0
102
RTVSPost2010PropOp45
 70
     1
102
RTVSPost2010Prop46
 90
       50
102
RTVSPost2010PropOp46
 70
     1
102
RTVSPost2010Prop47
 90
       50
102
RTVSPost2010PropOp47
 70
     1
102
RTVSPost2010Prop48
 90
       50
102
RTVSPost2010PropOp48
 70
     1
102
RTVSPost2010Prop49
280
     0
102
RTVSPost2010PropOp49
 70
     1
102
RTVSPost2010Prop50
 90
       50
102
RTVSPost2010PropOp50
 70
     1
102
RTVSPost2010Prop51ColorIndex
 90
      256
102
RTVSPost2010Prop51ColorRGB
 90
-16777216
102
RTVSPost2010PropOp51
 70
     0
102
RTVSPost2010Prop52
140
1.0
102
RTVSPost2010PropOp52
 70
     0
102
RTVSPost2010Prop53
 90
        2
102
RTVSPost2010PropOp53
 70
     1
102
RTVSPost2010Prop54
  1
strokes_ogs.tif
102
RTVSPost2010PropOp54
 70
     1
102
RTVSPost2010Prop55
280
     0
102
RTVSPost2010PropOp55
 70
     1
102
RTVSPost2010Prop56
140
1.0
102
RTVSPost2010PropOp56
 70
     1
102
RTVSPost2010Prop57
140
1.0
102
RTVSPost2010PropOp57
 70
     1
102
RTVSPropertyOp0
 70
     1
102
RTVSPropertyOp1
 70
     1
102
RTVSPropertyOp2
 70
     1
102
RTVSPropertyOp3
 70
     1
102
RTVSPropertyOp4
 70
     1
102
RTVSPropertyOp5
 70
     1
102
RTVSPropertyOp6
 70
     1
102
RTVSPropertyOp7
 70
     1
102
RTVSPropertyOp8
 70
     1
102
RTVSPropertyOp9
 70
     1
102
RTVSPropertyOp10
 70
     1
102
RTVSPropertyOp11
 70
     1
102
RTVSPropertyOp12
 70
     1
102
RTVSPropertyOp13
 70
     1
102
RTVSPropertyOp14
 70
     1
102
RTVSPropertyOp15
 70
     1
102
RTVSPropertyOp16
 70
     1
102
RTVSPropertyOp17
 70
     1
102
RTVSPropertyOp18
 70
     1
102
RTVSPropertyOp19
 70
     1
102
RTVSPropertyOp20
 70
     1
102
RTVSPropertyOp21
 70
     1
102
RTVSPropertyOp22
 70
     1
102
RTVSPropertyOp23
 70
     1
102
RTVSPropertyOp24
 70
     1
102
RTVSPropertyOp25
 70
     1
102
RTVSPropertyOp26
 70
     1
102
RTVSPropertyOp27
 70
     1
102
RTVSPropertyOp28
 70
     1
102
RTVSPropertyOp29
 70
     1
102
RTVSPropertyOp30
 70
     1
102
RTVSPropertyOp31
 70
     1
102
RTVSPropertyOp32
 70
     1
102
RTVSPropertyOp33
 70
     1
102
RTVSPropertyOp34
 70
     1
102
RTVSPropertyOp35
 70
     1
102
RTVSPropertyOp36
 70
     1
102
RTVSPropertyOp37
 70
     1
102
RTVSPropertyOp38
 70
     1
102
RTVSPropertyOp39
 70
     1
102
RTVSPropertyOp40
 70
     1
102
RTVSPropertyOp41
 70
     1
102
RTVSPropertyOp42
 70
     1
102
RTVSPropertyOp43
 70
     1
102
RTVSPropertyOp44
 70
     1
102
RTVSPropertyOp45
 70
     1
102
RTVSPropertyOp46
 70
     1
102
RTVSPropertyOp47
 70
     1
102
RTVSPropertyOp48
 70
     1
102
RTVSPropertyOp49
 70
     1
102
RTVSPropertyOp50
 70
     1
102
RTVSPropertyOp51
 70
     0
102
RTVSPropertyOp52
 70
     0
102
RTVSPropertyOp53
 70
     1
102
RTVSPropertyOp54
 70
     1
102
RTVSPropertyOp55
 70
     1
102
RTVSPropertyOp56
 70
     1
102
RTVSPropertyOp57
 70
     1
102
RTVSPropertyOp58
 70
     1
102
RTVSPropertyOp59
 70
     1
102
RTVSPropertyOp60
 70
     1
102
RTVSPropertyOp61
 70
     1
102
RTVSPropertyOp62
 70
     1
  0
XRECORD
  5
20E48
102
{ACAD_REACTORS
330
20E47
102
}
330
20E47
100
AcDbXrecord
280
     1
102
RTVSPost2010Prop28
280
     0
102
RTVSPost2010PropOp28
 70
     1
102
RTVSPost2010Prop29
280
     1
102
RTVSPost2010PropOp29
 70
     1
102
RTVSPost2010Prop30
280
     1
102
RTVSPost2010PropOp30
 70
     1
102
RTVSPost2010Prop31
280
     0
102
RTVSPost2010PropOp31
 70
     1
102
RTVSPost2010Prop32
280
     0
102
RTVSPost2010PropOp32
 70
     1
102
RTVSPost2010Prop33
280
     0
102
RTVSPost2010PropOp33
 70
     1
102
RTVSPost2010Prop34
280
     0
102
RTVSPost2010PropOp34
 70
     1
102
RTVSPost2010Prop35
280
     0
102
RTVSPost2010PropOp35
 70
     1
102
RTVSPost2010Prop36
280
     0
102
RTVSPost2010PropOp36
 70
     1
102
RTVSPost2010Prop37
 90
       50
102
RTVSPost2010PropOp37
 70
     0
102
RTVSPost2010Prop38
140
0.0
102
RTVSPost2010PropOp38
 70
     0
102
RTVSPost2010Prop39
140
1.0
102
RTVSPost2010PropOp39
 70
     0
102
RTVSPost2010Prop40
 90
        0
102
RTVSPost2010PropOp40
 70
     0
102
RTVSPost2010Prop41ColorIndex
 90
       18
102
RTVSPost2010Prop41ColorRGB
 90
        0
102
RTVSPost2010PropOp41
 70
     0
102
RTVSPost2010Prop42
 90
       50
102
RTVSPost2010PropOp42
 70
     0
102
RTVSPost2010Prop43
 90
        3
102
RTVSPost2010PropOp43
 70
     0
102
RTVSPost2010Prop44ColorIndex
 90
        5
102
RTVSPost2010Prop44ColorRGB
 90
      255
102
RTVSPost2010PropOp44
 70
     0
102
RTVSPost2010Prop45
280
     0
102
RTVSPost2010PropOp45
 70
     1
102
RTVSPost2010Prop46
 90
       50
102
RTVSPost2010PropOp46
 70
     0
102
RTVSPost2010Prop47
 90
       50
102
RTVSPost2010PropOp47
 70
     0
102
RTVSPost2010Prop48
 90
       50
102
RTVSPost2010PropOp48
 70
     0
102
RTVSPost2010Prop49
280
     0
102
RTVSPost2010PropOp49
 70
     1
102
RTVSPost2010Prop50
 90
       50
102
RTVSPost2010PropOp50
 70
     0
102
RTVSPost2010Prop51ColorIndex
 90
      256
102
RTVSPost2010Prop51ColorRGB
 90
-16777216
102
RTVSPost2010PropOp51
 70
     0
102
RTVSPost2010Prop52
140
1.0
102
RTVSPost2010PropOp52
 70
     0
102
RTVSPost2010Prop53
 90
        2
102
RTVSPost2010PropOp53
 70
     0
102
RTVSPost2010Prop54
  1
strokes_ogs.tif
102
RTVSPost2010PropOp54
 70
     0
102
RTVSPost2010Prop55
280
     0
102
RTVSPost2010PropOp55
 70
     1
102
RTVSPost2010Prop56
140
1.0
102
RTVSPost2010PropOp56
 70
     0
102
RTVSPost2010Prop57
140
1.0
102
RTVSPost2010PropOp57
 70
     0
102
RTVSPropertyOp0
 70
     0
102
RTVSPropertyOp1
 70
     0
102
RTVSPropertyOp2
 70
     0
102
RTVSPropertyOp3
 70
     0
102
RTVSPropertyOp4
 70
     0
102
RTVSPropertyOp5
 70
     0
102
RTVSPropertyOp6
 70
     0
102
RTVSPropertyOp7
 70
     0
102
RTVSPropertyOp8
 70
     0
102
RTVSPropertyOp9
 70
     0
102
RTVSPropertyOp10
 70
     0
102
RTVSPropertyOp11
 70
     0
102
RTVSPropertyOp12
 70
     0
102
RTVSPropertyOp13
 70
     0
102
RTVSPropertyOp14
 70
     2
102
RTVSPropertyOp15
 70
     0
102
RTVSPropertyOp16
 70
     0
102
RTVSPropertyOp17
 70
     0
102
RTVSPropertyOp18
 70
     0
102
RTVSPropertyOp19
 70
     0
102
RTVSPropertyOp20
 70
     0
102
RTVSPropertyOp21
 70
     0
102
RTVSPropertyOp22
 70
     0
102
RTVSPropertyOp23
 70
     0
102
RTVSPropertyOp24
 70
     0
102
RTVSPropertyOp25
 70
     0
102
RTVSPropertyOp26
 70
     0
102
RTVSPropertyOp27
 70
     0
102
RTVSPropertyOp28
 70
     1
102
RTVSPropertyOp29
 70
     1
102
RTVSPropertyOp30
 70
     1
102
RTVSPropertyOp31
 70
     1
102
RTVSPropertyOp32
 70
     1
102
RTVSPropertyOp33
 70
     1
102
RTVSPropertyOp34
 70
     1
102
RTVSPropertyOp35
 70
     1
102
RTVSPropertyOp36
 70
     1
102
RTVSPropertyOp37
 70
     0
102
RTVSPropertyOp38
 70
     0
102
RTVSPropertyOp39
 70
     0
102
RTVSPropertyOp40
 70
     0
102
RTVSPropertyOp41
 70
     0
102
RTVSPropertyOp42
 70
     0
102
RTVSPropertyOp43
 70
     0
102
RTVSPropertyOp44
 70
     0
102
RTVSPropertyOp45
 70
     1
102
RTVSPropertyOp46
 70
     0
102
RTVSPropertyOp47
 70
     0
102
RTVSPropertyOp48
 70
     0
102
RTVSPropertyOp49
 70
     1
102
RTVSPropertyOp50
 70
     0
102
RTVSPropertyOp51
 70
     0
102
RTVSPropertyOp52
 70
     0
102
RTVSPropertyOp53
 70
     0
102
RTVSPropertyOp54
 70
     0
102
RTVSPropertyOp55
 70
     1
102
RTVSPropertyOp56
 70
     0
102
RTVSPropertyOp57
 70
     0
102
RTVSPropertyOp58
 70
     1
102
RTVSPropertyOp59
 70
     1
102
RTVSPropertyOp60
 70
     1
102
RTVSPropertyOp61
 70
     1
102
RTVSPropertyOp62
 70
     1
  0
XRECORD
  5
20E29
102
{ACAD_REACTORS
330
20E28
102
}
330
20E28
100
AcDbXrecord
280
     1
102
RTVSPost2010Prop28
280
     0
102
RTVSPost2010PropOp28
 70
     1
102
RTVSPost2010Prop29
280
     1
102
RTVSPost2010PropOp29
 70
     1
102
RTVSPost2010Prop30
280
     1
102
RTVSPost2010PropOp30
 70
     1
102
RTVSPost2010Prop31
280
     0
102
RTVSPost2010PropOp31
 70
     1
102
RTVSPost2010Prop32
280
     0
102
RTVSPost2010PropOp32
 70
     1
102
RTVSPost2010Prop33
280
     0
102
RTVSPost2010PropOp33
 70
     1
102
RTVSPost2010Prop34
280
     0
102
RTVSPost2010PropOp34
 70
     1
102
RTVSPost2010Prop35
280
     0
102
RTVSPost2010PropOp35
 70
     1
102
RTVSPost2010Prop36
280
     0
102
RTVSPost2010PropOp36
 70
     1
102
RTVSPost2010Prop37
 90
       50
102
RTVSPost2010PropOp37
 70
     1
102
RTVSPost2010Prop38
140
0.0
102
RTVSPost2010PropOp38
 70
     1
102
RTVSPost2010Prop39
140
1.0
102
RTVSPost2010PropOp39
 70
     1
102
RTVSPost2010Prop40
 90
        0
102
RTVSPost2010PropOp40
 70
     1
102
RTVSPost2010Prop41ColorIndex
 90
       18
102
RTVSPost2010Prop41ColorRGB
 90
        0
102
RTVSPost2010PropOp41
 70
     1
102
RTVSPost2010Prop42
 90
       50
102
RTVSPost2010PropOp42
 70
     1
102
RTVSPost2010Prop43
 90
        3
102
RTVSPost2010PropOp43
 70
     1
102
RTVSPost2010Prop44ColorIndex
 90
        5
102
RTVSPost2010Prop44ColorRGB
 90
      255
102
RTVSPost2010PropOp44
 70
     1
102
RTVSPost2010Prop45
280
     0
102
RTVSPost2010PropOp45
 70
     1
102
RTVSPost2010Prop46
 90
       50
102
RTVSPost2010PropOp46
 70
     1
102
RTVSPost2010Prop47
 90
       50
102
RTVSPost2010PropOp47
 70
     1
102
RTVSPost2010Prop48
 90
       50
102
RTVSPost2010PropOp48
 70
     1
102
RTVSPost2010Prop49
280
     0
102
RTVSPost2010PropOp49
 70
     1
102
RTVSPost2010Prop50
 90
       50
102
RTVSPost2010PropOp50
 70
     1
102
RTVSPost2010Prop51ColorIndex
 90
      256
102
RTVSPost2010Prop51ColorRGB
 90
-16777216
102
RTVSPost2010PropOp51
 70
     0
102
RTVSPost2010Prop52
140
1.0
102
RTVSPost2010PropOp52
 70
     0
102
RTVSPost2010Prop53
 90
        2
102
RTVSPost2010PropOp53
 70
     1
102
RTVSPost2010Prop54
  1
strokes_ogs.tif
102
RTVSPost2010PropOp54
 70
     1
102
RTVSPost2010Prop55
280
     0
102
RTVSPost2010PropOp55
 70
     1
102
RTVSPost2010Prop56
140
1.0
102
RTVSPost2010PropOp56
 70
     1
102
RTVSPost2010Prop57
140
1.0
102
RTVSPost2010PropOp57
 70
     1
102
RTVSPropertyOp0
 70
     1
102
RTVSPropertyOp1
 70
     1
102
RTVSPropertyOp2
 70
     1
102
RTVSPropertyOp3
 70
     1
102
RTVSPropertyOp4
 70
     1
102
RTVSPropertyOp5
 70
     1
102
RTVSPropertyOp6
 70
     1
102
RTVSPropertyOp7
 70
     1
102
RTVSPropertyOp8
 70
     1
102
RTVSPropertyOp9
 70
     1
102
RTVSPropertyOp10
 70
     1
102
RTVSPropertyOp11
 70
     1
102
RTVSPropertyOp12
 70
     1
102
RTVSPropertyOp13
 70
     1
102
RTVSPropertyOp14
 70
     1
102
RTVSPropertyOp15
 70
     1
102
RTVSPropertyOp16
 70
     1
102
RTVSPropertyOp17
 70
     1
102
RTVSPropertyOp18
 70
     1
102
RTVSPropertyOp19
 70
     1
102
RTVSPropertyOp20
 70
     1
102
RTVSPropertyOp21
 70
     1
102
RTVSPropertyOp22
 70
     1
102
RTVSPropertyOp23
 70
     1
102
RTVSPropertyOp24
 70
     1
102
RTVSPropertyOp25
 70
     1
102
RTVSPropertyOp26
 70
     1
102
RTVSPropertyOp27
 70
     1
102
RTVSPropertyOp28
 70
     1
102
RTVSPropertyOp29
 70
     1
102
RTVSPropertyOp30
 70
     1
102
RTVSPropertyOp31
 70
     1
102
RTVSPropertyOp32
 70
     1
102
RTVSPropertyOp33
 70
     1
102
RTVSPropertyOp34
 70
     1
102
RTVSPropertyOp35
 70
     1
102
RTVSPropertyOp36
 70
     1
102
RTVSPropertyOp37
 70
     1
102
RTVSPropertyOp38
 70
     1
102
RTVSPropertyOp39
 70
     1
102
RTVSPropertyOp40
 70
     1
102
RTVSPropertyOp41
 70
     1
102
RTVSPropertyOp42
 70
     1
102
RTVSPropertyOp43
 70
     1
102
RTVSPropertyOp44
 70
     1
102
RTVSPropertyOp45
 70
     1
102
RTVSPropertyOp46
 70
     1
102
RTVSPropertyOp47
 70
     1
102
RTVSPropertyOp48
 70
     1
102
RTVSPropertyOp49
 70
     1
102
RTVSPropertyOp50
 70
     1
102
RTVSPropertyOp51
 70
     0
102
RTVSPropertyOp52
 70
     0
102
RTVSPropertyOp53
 70
     1
102
RTVSPropertyOp54
 70
     1
102
RTVSPropertyOp55
 70
     1
102
RTVSPropertyOp56
 70
     1
102
RTVSPropertyOp57
 70
     1
102
RTVSPropertyOp58
 70
     1
102
RTVSPropertyOp59
 70
     1
102
RTVSPropertyOp60
 70
     1
102
RTVSPropertyOp61
 70
     1
102
RTVSPropertyOp62
 70
     1
  0
XRECORD
  5
20E0D
102
{ACAD_REACTORS
330
20E0C
102
}
330
20E0C
100
AcDbXrecord
280
     1
102
RTVSPost2010Prop28
280
     0
102
RTVSPost2010PropOp28
 70
     1
102
RTVSPost2010Prop29
280
     1
102
RTVSPost2010PropOp29
 70
     1
102
RTVSPost2010Prop30
280
     1
102
RTVSPost2010PropOp30
 70
     1
102
RTVSPost2010Prop31
280
     0
102
RTVSPost2010PropOp31
 70
     1
102
RTVSPost2010Prop32
280
     0
102
RTVSPost2010PropOp32
 70
     1
102
RTVSPost2010Prop33
280
     0
102
RTVSPost2010PropOp33
 70
     1
102
RTVSPost2010Prop34
280
     0
102
RTVSPost2010PropOp34
 70
     1
102
RTVSPost2010Prop35
280
     0
102
RTVSPost2010PropOp35
 70
     1
102
RTVSPost2010Prop36
280
     0
102
RTVSPost2010PropOp36
 70
     1
102
RTVSPost2010Prop37
 90
       50
102
RTVSPost2010PropOp37
 70
     1
102
RTVSPost2010Prop38
140
0.0
102
RTVSPost2010PropOp38
 70
     1
102
RTVSPost2010Prop39
140
1.0
102
RTVSPost2010PropOp39
 70
     1
102
RTVSPost2010Prop40
 90
        0
102
RTVSPost2010PropOp40
 70
     1
102
RTVSPost2010Prop41ColorIndex
 90
       18
102
RTVSPost2010Prop41ColorRGB
 90
        0
102
RTVSPost2010PropOp41
 70
     1
102
RTVSPost2010Prop42
 90
       50
102
RTVSPost2010PropOp42
 70
     1
102
RTVSPost2010Prop43
 90
        3
102
RTVSPost2010PropOp43
 70
     1
102
RTVSPost2010Prop44ColorIndex
 90
        5
102
RTVSPost2010Prop44ColorRGB
 90
      255
102
RTVSPost2010PropOp44
 70
     1
102
RTVSPost2010Prop45
280
     0
102
RTVSPost2010PropOp45
 70
     1
102
RTVSPost2010Prop46
 90
       50
102
RTVSPost2010PropOp46
 70
     1
102
RTVSPost2010Prop47
 90
       50
102
RTVSPost2010PropOp47
 70
     1
102
RTVSPost2010Prop48
 90
       50
102
RTVSPost2010PropOp48
 70
     1
102
RTVSPost2010Prop49
280
     0
102
RTVSPost2010PropOp49
 70
     1
102
RTVSPost2010Prop50
 90
       50
102
RTVSPost2010PropOp50
 70
     1
102
RTVSPost2010Prop51ColorIndex
 90
      256
102
RTVSPost2010Prop51ColorRGB
 90
-16777216
102
RTVSPost2010PropOp51
 70
     0
102
RTVSPost2010Prop52
140
1.0
102
RTVSPost2010PropOp52
 70
     0
102
RTVSPost2010Prop53
 90
        2
102
RTVSPost2010PropOp53
 70
     1
102
RTVSPost2010Prop54
  1
strokes_ogs.tif
102
RTVSPost2010PropOp54
 70
     1
102
RTVSPost2010Prop55
280
     0
102
RTVSPost2010PropOp55
 70
     1
102
RTVSPost2010Prop56
140
1.0
102
RTVSPost2010PropOp56
 70
     1
102
RTVSPost2010Prop57
140
1.0
102
RTVSPost2010PropOp57
 70
     1
102
RTVSPropertyOp0
 70
     1
102
RTVSPropertyOp1
 70
     1
102
RTVSPropertyOp2
 70
     1
102
RTVSPropertyOp3
 70
     1
102
RTVSPropertyOp4
 70
     1
102
RTVSPropertyOp5
 70
     1
102
RTVSPropertyOp6
 70
     1
102
RTVSPropertyOp7
 70
     1
102
RTVSPropertyOp8
 70
     1
102
RTVSPropertyOp9
 70
     1
102
RTVSPropertyOp10
 70
     1
102
RTVSPropertyOp11
 70
     1
102
RTVSPropertyOp12
 70
     1
102
RTVSPropertyOp13
 70
     1
102
RTVSPropertyOp14
 70
     1
102
RTVSPropertyOp15
 70
     1
102
RTVSPropertyOp16
 70
     1
102
RTVSPropertyOp17
 70
     1
102
RTVSPropertyOp18
 70
     1
102
RTVSPropertyOp19
 70
     1
102
RTVSPropertyOp20
 70
     1
102
RTVSPropertyOp21
 70
     1
102
RTVSPropertyOp22
 70
     1
102
RTVSPropertyOp23
 70
     1
102
RTVSPropertyOp24
 70
     1
102
RTVSPropertyOp25
 70
     1
102
RTVSPropertyOp26
 70
     1
102
RTVSPropertyOp27
 70
     1
102
RTVSPropertyOp28
 70
     1
102
RTVSPropertyOp29
 70
     1
102
RTVSPropertyOp30
 70
     1
102
RTVSPropertyOp31
 70
     1
102
RTVSPropertyOp32
 70
     1
102
RTVSPropertyOp33
 70
     1
102
RTVSPropertyOp34
 70
     1
102
RTVSPropertyOp35
 70
     1
102
RTVSPropertyOp36
 70
     1
102
RTVSPropertyOp37
 70
     1
102
RTVSPropertyOp38
 70
     1
102
RTVSPropertyOp39
 70
     1
102
RTVSPropertyOp40
 70
     1
102
RTVSPropertyOp41
 70
     1
102
RTVSPropertyOp42
 70
     1
102
RTVSPropertyOp43
 70
     1
102
RTVSPropertyOp44
 70
     1
102
RTVSPropertyOp45
 70
     1
102
RTVSPropertyOp46
 70
     1
102
RTVSPropertyOp47
 70
     1
102
RTVSPropertyOp48
 70
     1
102
RTVSPropertyOp49
 70
     1
102
RTVSPropertyOp50
 70
     1
102
RTVSPropertyOp51
 70
     0
102
RTVSPropertyOp52
 70
     0
102
RTVSPropertyOp53
 70
     1
102
RTVSPropertyOp54
 70
     1
102
RTVSPropertyOp55
 70
     1
102
RTVSPropertyOp56
 70
     1
102
RTVSPropertyOp57
 70
     1
102
RTVSPropertyOp58
 70
     1
102
RTVSPropertyOp59
 70
     1
102
RTVSPropertyOp60
 70
     1
102
RTVSPropertyOp61
 70
     1
102
RTVSPropertyOp62
 70
     1
  0
XRECORD
  5
20E0F
102
{ACAD_REACTORS
330
20E0E
102
}
330
20E0E
100
AcDbXrecord
280
     1
102
RTVSPost2010Prop28
280
     0
102
RTVSPost2010PropOp28
 70
     1
102
RTVSPost2010Prop29
280
     1
102
RTVSPost2010PropOp29
 70
     1
102
RTVSPost2010Prop30
280
     1
102
RTVSPost2010PropOp30
 70
     1
102
RTVSPost2010Prop31
280
     0
102
RTVSPost2010PropOp31
 70
     1
102
RTVSPost2010Prop32
280
     0
102
RTVSPost2010PropOp32
 70
     1
102
RTVSPost2010Prop33
280
     0
102
RTVSPost2010PropOp33
 70
     1
102
RTVSPost2010Prop34
280
     0
102
RTVSPost2010PropOp34
 70
     1
102
RTVSPost2010Prop35
280
     0
102
RTVSPost2010PropOp35
 70
     1
102
RTVSPost2010Prop36
280
     0
102
RTVSPost2010PropOp36
 70
     1
102
RTVSPost2010Prop37
 90
       50
102
RTVSPost2010PropOp37
 70
     1
102
RTVSPost2010Prop38
140
0.0
102
RTVSPost2010PropOp38
 70
     1
102
RTVSPost2010Prop39
140
1.0
102
RTVSPost2010PropOp39
 70
     1
102
RTVSPost2010Prop40
 90
        0
102
RTVSPost2010PropOp40
 70
     1
102
RTVSPost2010Prop41ColorIndex
 90
       18
102
RTVSPost2010Prop41ColorRGB
 90
        0
102
RTVSPost2010PropOp41
 70
     1
102
RTVSPost2010Prop42
 90
       50
102
RTVSPost2010PropOp42
 70
     1
102
RTVSPost2010Prop43
 90
        3
102
RTVSPost2010PropOp43
 70
     1
102
RTVSPost2010Prop44ColorIndex
 90
        5
102
RTVSPost2010Prop44ColorRGB
 90
      255
102
RTVSPost2010PropOp44
 70
     1
102
RTVSPost2010Prop45
280
     0
102
RTVSPost2010PropOp45
 70
     1
102
RTVSPost2010Prop46
 90
       50
102
RTVSPost2010PropOp46
 70
     1
102
RTVSPost2010Prop47
 90
       50
102
RTVSPost2010PropOp47
 70
     1
102
RTVSPost2010Prop48
 90
       50
102
RTVSPost2010PropOp48
 70
     1
102
RTVSPost2010Prop49
280
     0
102
RTVSPost2010PropOp49
 70
     1
102
RTVSPost2010Prop50
 90
       50
102
RTVSPost2010PropOp50
 70
     1
102
RTVSPost2010Prop51ColorIndex
 90
      256
102
RTVSPost2010Prop51ColorRGB
 90
-16777216
102
RTVSPost2010PropOp51
 70
     0
102
RTVSPost2010Prop52
140
1.0
102
RTVSPost2010PropOp52
 70
     0
102
RTVSPost2010Prop53
 90
        2
102
RTVSPost2010PropOp53
 70
     1
102
RTVSPost2010Prop54
  1
strokes_ogs.tif
102
RTVSPost2010PropOp54
 70
     1
102
RTVSPost2010Prop55
280
     0
102
RTVSPost2010PropOp55
 70
     1
102
RTVSPost2010Prop56
140
1.0
102
RTVSPost2010PropOp56
 70
     1
102
RTVSPost2010Prop57
140
1.0
102
RTVSPost2010PropOp57
 70
     1
102
RTVSPropertyOp0
 70
     1
102
RTVSPropertyOp1
 70
     1
102
RTVSPropertyOp2
 70
     1
102
RTVSPropertyOp3
 70
     1
102
RTVSPropertyOp4
 70
     1
102
RTVSPropertyOp5
 70
     1
102
RTVSPropertyOp6
 70
     1
102
RTVSPropertyOp7
 70
     1
102
RTVSPropertyOp8
 70
     1
102
RTVSPropertyOp9
 70
     1
102
RTVSPropertyOp10
 70
     1
102
RTVSPropertyOp11
 70
     1
102
RTVSPropertyOp12
 70
     1
102
RTVSPropertyOp13
 70
     1
102
RTVSPropertyOp14
 70
     1
102
RTVSPropertyOp15
 70
     1
102
RTVSPropertyOp16
 70
     1
102
RTVSPropertyOp17
 70
     1
102
RTVSPropertyOp18
 70
     1
102
RTVSPropertyOp19
 70
     1
102
RTVSPropertyOp20
 70
     1
102
RTVSPropertyOp21
 70
     1
102
RTVSPropertyOp22
 70
     1
102
RTVSPropertyOp23
 70
     1
102
RTVSPropertyOp24
 70
     1
102
RTVSPropertyOp25
 70
     1
102
RTVSPropertyOp26
 70
     1
102
RTVSPropertyOp27
 70
     1
102
RTVSPropertyOp28
 70
     1
102
RTVSPropertyOp29
 70
     1
102
RTVSPropertyOp30
 70
     1
102
RTVSPropertyOp31
 70
     1
102
RTVSPropertyOp32
 70
     1
102
RTVSPropertyOp33
 70
     1
102
RTVSPropertyOp34
 70
     1
102
RTVSPropertyOp35
 70
     1
102
RTVSPropertyOp36
 70
     1
102
RTVSPropertyOp37
 70
     1
102
RTVSPropertyOp38
 70
     1
102
RTVSPropertyOp39
 70
     1
102
RTVSPropertyOp40
 70
     1
102
RTVSPropertyOp41
 70
     1
102
RTVSPropertyOp42
 70
     1
102
RTVSPropertyOp43
 70
     1
102
RTVSPropertyOp44
 70
     1
102
RTVSPropertyOp45
 70
     1
102
RTVSPropertyOp46
 70
     1
102
RTVSPropertyOp47
 70
     1
102
RTVSPropertyOp48
 70
     1
102
RTVSPropertyOp49
 70
     1
102
RTVSPropertyOp50
 70
     1
102
RTVSPropertyOp51
 70
     0
102
RTVSPropertyOp52
 70
     0
102
RTVSPropertyOp53
 70
     1
102
RTVSPropertyOp54
 70
     1
102
RTVSPropertyOp55
 70
     1
102
RTVSPropertyOp56
 70
     1
102
RTVSPropertyOp57
 70
     1
102
RTVSPropertyOp58
 70
     1
102
RTVSPropertyOp59
 70
     1
102
RTVSPropertyOp60
 70
     1
102
RTVSPropertyOp61
 70
     1
102
RTVSPropertyOp62
 70
     1
  0
XRECORD
  5
20E11
102
{ACAD_REACTORS
330
20E10
102
}
330
20E10
100
AcDbXrecord
280
     1
102
RTVSPost2010Prop28
280
     0
102
RTVSPost2010PropOp28
 70
     1
102
RTVSPost2010Prop29
280
     1
102
RTVSPost2010PropOp29
 70
     1
102
RTVSPost2010Prop30
280
     1
102
RTVSPost2010PropOp30
 70
     1
102
RTVSPost2010Prop31
280
     0
102
RTVSPost2010PropOp31
 70
     1
102
RTVSPost2010Prop32
280
     0
102
RTVSPost2010PropOp32
 70
     1
102
RTVSPost2010Prop33
280
     0
102
RTVSPost2010PropOp33
 70
     1
102
RTVSPost2010Prop34
280
     0
102
RTVSPost2010PropOp34
 70
     1
102
RTVSPost2010Prop35
280
     0
102
RTVSPost2010PropOp35
 70
     1
102
RTVSPost2010Prop36
280
     0
102
RTVSPost2010PropOp36
 70
     1
102
RTVSPost2010Prop37
 90
       50
102
RTVSPost2010PropOp37
 70
     1
102
RTVSPost2010Prop38
140
0.0
102
RTVSPost2010PropOp38
 70
     1
102
RTVSPost2010Prop39
140
1.0
102
RTVSPost2010PropOp39
 70
     1
102
RTVSPost2010Prop40
 90
        0
102
RTVSPost2010PropOp40
 70
     1
102
RTVSPost2010Prop41ColorIndex
 90
       18
102
RTVSPost2010Prop41ColorRGB
 90
        0
102
RTVSPost2010PropOp41
 70
     1
102
RTVSPost2010Prop42
 90
       50
102
RTVSPost2010PropOp42
 70
     1
102
RTVSPost2010Prop43
 90
        3
102
RTVSPost2010PropOp43
 70
     1
102
RTVSPost2010Prop44ColorIndex
 90
        5
102
RTVSPost2010Prop44ColorRGB
 90
      255
102
RTVSPost2010PropOp44
 70
     1
102
RTVSPost2010Prop45
280
     0
102
RTVSPost2010PropOp45
 70
     1
102
RTVSPost2010Prop46
 90
       50
102
RTVSPost2010PropOp46
 70
     1
102
RTVSPost2010Prop47
 90
       50
102
RTVSPost2010PropOp47
 70
     1
102
RTVSPost2010Prop48
 90
       50
102
RTVSPost2010PropOp48
 70
     1
102
RTVSPost2010Prop49
280
     0
102
RTVSPost2010PropOp49
 70
     1
102
RTVSPost2010Prop50
 90
       50
102
RTVSPost2010PropOp50
 70
     1
102
RTVSPost2010Prop51ColorIndex
 90
      256
102
RTVSPost2010Prop51ColorRGB
 90
-16777216
102
RTVSPost2010PropOp51
 70
     0
102
RTVSPost2010Prop52
140
1.0
102
RTVSPost2010PropOp52
 70
     0
102
RTVSPost2010Prop53
 90
        2
102
RTVSPost2010PropOp53
 70
     1
102
RTVSPost2010Prop54
  1
strokes_ogs.tif
102
RTVSPost2010PropOp54
 70
     1
102
RTVSPost2010Prop55
280
     0
102
RTVSPost2010PropOp55
 70
     1
102
RTVSPost2010Prop56
140
1.0
102
RTVSPost2010PropOp56
 70
     1
102
RTVSPost2010Prop57
140
1.0
102
RTVSPost2010PropOp57
 70
     1
102
RTVSPropertyOp0
 70
     1
102
RTVSPropertyOp1
 70
     1
102
RTVSPropertyOp2
 70
     1
102
RTVSPropertyOp3
 70
     1
102
RTVSPropertyOp4
 70
     1
102
RTVSPropertyOp5
 70
     1
102
RTVSPropertyOp6
 70
     1
102
RTVSPropertyOp7
 70
     1
102
RTVSPropertyOp8
 70
     1
102
RTVSPropertyOp9
 70
     1
102
RTVSPropertyOp10
 70
     1
102
RTVSPropertyOp11
 70
     1
102
RTVSPropertyOp12
 70
     1
102
RTVSPropertyOp13
 70
     1
102
RTVSPropertyOp14
 70
     1
102
RTVSPropertyOp15
 70
     1
102
RTVSPropertyOp16
 70
     1
102
RTVSPropertyOp17
 70
     1
102
RTVSPropertyOp18
 70
     1
102
RTVSPropertyOp19
 70
     1
102
RTVSPropertyOp20
 70
     1
102
RTVSPropertyOp21
 70
     1
102
RTVSPropertyOp22
 70
     1
102
RTVSPropertyOp23
 70
     1
102
RTVSPropertyOp24
 70
     1
102
RTVSPropertyOp25
 70
     1
102
RTVSPropertyOp26
 70
     1
102
RTVSPropertyOp27
 70
     1
102
RTVSPropertyOp28
 70
     1
102
RTVSPropertyOp29
 70
     1
102
RTVSPropertyOp30
 70
     1
102
RTVSPropertyOp31
 70
     1
102
RTVSPropertyOp32
 70
     1
102
RTVSPropertyOp33
 70
     1
102
RTVSPropertyOp34
 70
     1
102
RTVSPropertyOp35
 70
     1
102
RTVSPropertyOp36
 70
     1
102
RTVSPropertyOp37
 70
     1
102
RTVSPropertyOp38
 70
     1
102
RTVSPropertyOp39
 70
     1
102
RTVSPropertyOp40
 70
     1
102
RTVSPropertyOp41
 70
     1
102
RTVSPropertyOp42
 70
     1
102
RTVSPropertyOp43
 70
     1
102
RTVSPropertyOp44
 70
     1
102
RTVSPropertyOp45
 70
     1
102
RTVSPropertyOp46
 70
     1
102
RTVSPropertyOp47
 70
     1
102
RTVSPropertyOp48
 70
     1
102
RTVSPropertyOp49
 70
     1
102
RTVSPropertyOp50
 70
     1
102
RTVSPropertyOp51
 70
     0
102
RTVSPropertyOp52
 70
     0
102
RTVSPropertyOp53
 70
     1
102
RTVSPropertyOp54
 70
     1
102
RTVSPropertyOp55
 70
     1
102
RTVSPropertyOp56
 70
     1
102
RTVSPropertyOp57
 70
     1
102
RTVSPropertyOp58
 70
     1
102
RTVSPropertyOp59
 70
     1
102
RTVSPropertyOp60
 70
     1
102
RTVSPropertyOp61
 70
     1
102
RTVSPropertyOp62
 70
     1
  0
XRECORD
  5
20E13
102
{ACAD_REACTORS
330
20E12
102
}
330
20E12
100
AcDbXrecord
280
     1
102
RTVSPost2010Prop28
280
     0
102
RTVSPost2010PropOp28
 70
     1
102
RTVSPost2010Prop29
280
     1
102
RTVSPost2010PropOp29
 70
     1
102
RTVSPost2010Prop30
280
     1
102
RTVSPost2010PropOp30
 70
     1
102
RTVSPost2010Prop31
280
     0
102
RTVSPost2010PropOp31
 70
     1
102
RTVSPost2010Prop32
280
     0
102
RTVSPost2010PropOp32
 70
     1
102
RTVSPost2010Prop33
280
     0
102
RTVSPost2010PropOp33
 70
     1
102
RTVSPost2010Prop34
280
     0
102
RTVSPost2010PropOp34
 70
     1
102
RTVSPost2010Prop35
280
     0
102
RTVSPost2010PropOp35
 70
     1
102
RTVSPost2010Prop36
280
     0
102
RTVSPost2010PropOp36
 70
     1
102
RTVSPost2010Prop37
 90
       50
102
RTVSPost2010PropOp37
 70
     1
102
RTVSPost2010Prop38
140
0.0
102
RTVSPost2010PropOp38
 70
     1
102
RTVSPost2010Prop39
140
1.0
102
RTVSPost2010PropOp39
 70
     1
102
RTVSPost2010Prop40
 90
        0
102
RTVSPost2010PropOp40
 70
     1
102
RTVSPost2010Prop41ColorIndex
 90
       18
102
RTVSPost2010Prop41ColorRGB
 90
        0
102
RTVSPost2010PropOp41
 70
     1
102
RTVSPost2010Prop42
 90
       50
102
RTVSPost2010PropOp42
 70
     1
102
RTVSPost2010Prop43
 90
        3
102
RTVSPost2010PropOp43
 70
     1
102
RTVSPost2010Prop44ColorIndex
 90
        5
102
RTVSPost2010Prop44ColorRGB
 90
      255
102
RTVSPost2010PropOp44
 70
     1
102
RTVSPost2010Prop45
280
     0
102
RTVSPost2010PropOp45
 70
     1
102
RTVSPost2010Prop46
 90
       50
102
RTVSPost2010PropOp46
 70
     1
102
RTVSPost2010Prop47
 90
       50
102
RTVSPost2010PropOp47
 70
     1
102
RTVSPost2010Prop48
 90
       50
102
RTVSPost2010PropOp48
 70
     1
102
RTVSPost2010Prop49
280
     0
102
RTVSPost2010PropOp49
 70
     1
102
RTVSPost2010Prop50
 90
       50
102
RTVSPost2010PropOp50
 70
     1
102
RTVSPost2010Prop51ColorIndex
 90
      256
102
RTVSPost2010Prop51ColorRGB
 90
-16777216
102
RTVSPost2010PropOp51
 70
     0
102
RTVSPost2010Prop52
140
1.0
102
RTVSPost2010PropOp52
 70
     0
102
RTVSPost2010Prop53
 90
        2
102
RTVSPost2010PropOp53
 70
     1
102
RTVSPost2010Prop54
  1
strokes_ogs.tif
102
RTVSPost2010PropOp54
 70
     1
102
RTVSPost2010Prop55
280
     0
102
RTVSPost2010PropOp55
 70
     1
102
RTVSPost2010Prop56
140
1.0
102
RTVSPost2010PropOp56
 70
     1
102
RTVSPost2010Prop57
140
1.0
102
RTVSPost2010PropOp57
 70
     1
102
RTVSPropertyOp0
 70
     1
102
RTVSPropertyOp1
 70
     1
102
RTVSPropertyOp2
 70
     1
102
RTVSPropertyOp3
 70
     1
102
RTVSPropertyOp4
 70
     1
102
RTVSPropertyOp5
 70
     1
102
RTVSPropertyOp6
 70
     1
102
RTVSPropertyOp7
 70
     1
102
RTVSPropertyOp8
 70
     1
102
RTVSPropertyOp9
 70
     1
102
RTVSPropertyOp10
 70
     1
102
RTVSPropertyOp11
 70
     1
102
RTVSPropertyOp12
 70
     1
102
RTVSPropertyOp13
 70
     1
102
RTVSPropertyOp14
 70
     1
102
RTVSPropertyOp15
 70
     1
102
RTVSPropertyOp16
 70
     1
102
RTVSPropertyOp17
 70
     1
102
RTVSPropertyOp18
 70
     1
102
RTVSPropertyOp19
 70
     1
102
RTVSPropertyOp20
 70
     1
102
RTVSPropertyOp21
 70
     1
102
RTVSPropertyOp22
 70
     1
102
RTVSPropertyOp23
 70
     1
102
RTVSPropertyOp24
 70
     1
102
RTVSPropertyOp25
 70
     1
102
RTVSPropertyOp26
 70
     1
102
RTVSPropertyOp27
 70
     1
102
RTVSPropertyOp28
 70
     1
102
RTVSPropertyOp29
 70
     1
102
RTVSPropertyOp30
 70
     1
102
RTVSPropertyOp31
 70
     1
102
RTVSPropertyOp32
 70
     1
102
RTVSPropertyOp33
 70
     1
102
RTVSPropertyOp34
 70
     1
102
RTVSPropertyOp35
 70
     1
102
RTVSPropertyOp36
 70
     1
102
RTVSPropertyOp37
 70
     1
102
RTVSPropertyOp38
 70
     1
102
RTVSPropertyOp39
 70
     1
102
RTVSPropertyOp40
 70
     1
102
RTVSPropertyOp41
 70
     1
102
RTVSPropertyOp42
 70
     1
102
RTVSPropertyOp43
 70
     1
102
RTVSPropertyOp44
 70
     1
102
RTVSPropertyOp45
 70
     1
102
RTVSPropertyOp46
 70
     1
102
RTVSPropertyOp47
 70
     1
102
RTVSPropertyOp48
 70
     1
102
RTVSPropertyOp49
 70
     1
102
RTVSPropertyOp50
 70
     1
102
RTVSPropertyOp51
 70
     0
102
RTVSPropertyOp52
 70
     0
102
RTVSPropertyOp53
 70
     1
102
RTVSPropertyOp54
 70
     1
102
RTVSPropertyOp55
 70
     1
102
RTVSPropertyOp56
 70
     1
102
RTVSPropertyOp57
 70
     1
102
RTVSPropertyOp58
 70
     1
102
RTVSPropertyOp59
 70
     1
102
RTVSPropertyOp60
 70
     1
102
RTVSPropertyOp61
 70
     1
102
RTVSPropertyOp62
 70
     1
  0
XRECORD
  5
20E38
102
{ACAD_REACTORS
330
20E37
102
}
330
20E37
100
AcDbXrecord
280
     1
102
RTVSPost2010Prop28
280
     0
102
RTVSPost2010PropOp28
 70
     1
102
RTVSPost2010Prop29
280
     1
102
RTVSPost2010PropOp29
 70
     1
102
RTVSPost2010Prop30
280
     1
102
RTVSPost2010PropOp30
 70
     1
102
RTVSPost2010Prop31
280
     0
102
RTVSPost2010PropOp31
 70
     1
102
RTVSPost2010Prop32
280
     0
102
RTVSPost2010PropOp32
 70
     1
102
RTVSPost2010Prop33
280
     0
102
RTVSPost2010PropOp33
 70
     1
102
RTVSPost2010Prop34
280
     0
102
RTVSPost2010PropOp34
 70
     1
102
RTVSPost2010Prop35
280
     0
102
RTVSPost2010PropOp35
 70
     1
102
RTVSPost2010Prop36
280
     0
102
RTVSPost2010PropOp36
 70
     1
102
RTVSPost2010Prop37
 90
       50
102
RTVSPost2010PropOp37
 70
     1
102
RTVSPost2010Prop38
140
0.0
102
RTVSPost2010PropOp38
 70
     1
102
RTVSPost2010Prop39
140
1.0
102
RTVSPost2010PropOp39
 70
     1
102
RTVSPost2010Prop40
 90
        0
102
RTVSPost2010PropOp40
 70
     1
102
RTVSPost2010Prop41ColorIndex
 90
       18
102
RTVSPost2010Prop41ColorRGB
 90
        0
102
RTVSPost2010PropOp41
 70
     1
102
RTVSPost2010Prop42
 90
       50
102
RTVSPost2010PropOp42
 70
     1
102
RTVSPost2010Prop43
 90
        3
102
RTVSPost2010PropOp43
 70
     1
102
RTVSPost2010Prop44ColorIndex
 90
        5
102
RTVSPost2010Prop44ColorRGB
 90
      255
102
RTVSPost2010PropOp44
 70
     1
102
RTVSPost2010Prop45
280
     0
102
RTVSPost2010PropOp45
 70
     1
102
RTVSPost2010Prop46
 90
       50
102
RTVSPost2010PropOp46
 70
     1
102
RTVSPost2010Prop47
 90
       50
102
RTVSPost2010PropOp47
 70
     1
102
RTVSPost2010Prop48
 90
       50
102
RTVSPost2010PropOp48
 70
     1
102
RTVSPost2010Prop49
280
     0
102
RTVSPost2010PropOp49
 70
     1
102
RTVSPost2010Prop50
 90
       50
102
RTVSPost2010PropOp50
 70
     1
102
RTVSPost2010Prop51ColorIndex
 90
      256
102
RTVSPost2010Prop51ColorRGB
 90
-16777216
102
RTVSPost2010PropOp51
 70
     0
102
RTVSPost2010Prop52
140
1.0
102
RTVSPost2010PropOp52
 70
     0
102
RTVSPost2010Prop53
 90
        2
102
RTVSPost2010PropOp53
 70
     1
102
RTVSPost2010Prop54
  1
strokes_ogs.tif
102
RTVSPost2010PropOp54
 70
     1
102
RTVSPost2010Prop55
280
     0
102
RTVSPost2010PropOp55
 70
     1
102
RTVSPost2010Prop56
140
1.0
102
RTVSPost2010PropOp56
 70
     1
102
RTVSPost2010Prop57
140
1.0
102
RTVSPost2010PropOp57
 70
     1
102
RTVSPropertyOp0
 70
     1
102
RTVSPropertyOp1
 70
     1
102
RTVSPropertyOp2
 70
     1
102
RTVSPropertyOp3
 70
     1
102
RTVSPropertyOp4
 70
     1
102
RTVSPropertyOp5
 70
     1
102
RTVSPropertyOp6
 70
     1
102
RTVSPropertyOp7
 70
     1
102
RTVSPropertyOp8
 70
     1
102
RTVSPropertyOp9
 70
     1
102
RTVSPropertyOp10
 70
     1
102
RTVSPropertyOp11
 70
     1
102
RTVSPropertyOp12
 70
     1
102
RTVSPropertyOp13
 70
     1
102
RTVSPropertyOp14
 70
     1
102
RTVSPropertyOp15
 70
     1
102
RTVSPropertyOp16
 70
     1
102
RTVSPropertyOp17
 70
     1
102
RTVSPropertyOp18
 70
     1
102
RTVSPropertyOp19
 70
     1
102
RTVSPropertyOp20
 70
     1
102
RTVSPropertyOp21
 70
     1
102
RTVSPropertyOp22
 70
     1
102
RTVSPropertyOp23
 70
     1
102
RTVSPropertyOp24
 70
     1
102
RTVSPropertyOp25
 70
     1
102
RTVSPropertyOp26
 70
     1
102
RTVSPropertyOp27
 70
     1
102
RTVSPropertyOp28
 70
     1
102
RTVSPropertyOp29
 70
     1
102
RTVSPropertyOp30
 70
     1
102
RTVSPropertyOp31
 70
     1
102
RTVSPropertyOp32
 70
     1
102
RTVSPropertyOp33
 70
     1
102
RTVSPropertyOp34
 70
     1
102
RTVSPropertyOp35
 70
     1
102
RTVSPropertyOp36
 70
     1
102
RTVSPropertyOp37
 70
     1
102
RTVSPropertyOp38
 70
     1
102
RTVSPropertyOp39
 70
     1
102
RTVSPropertyOp40
 70
     1
102
RTVSPropertyOp41
 70
     1
102
RTVSPropertyOp42
 70
     1
102
RTVSPropertyOp43
 70
     1
102
RTVSPropertyOp44
 70
     1
102
RTVSPropertyOp45
 70
     1
102
RTVSPropertyOp46
 70
     1
102
RTVSPropertyOp47
 70
     1
102
RTVSPropertyOp48
 70
     1
102
RTVSPropertyOp49
 70
     1
102
RTVSPropertyOp50
 70
     1
102
RTVSPropertyOp51
 70
     0
102
RTVSPropertyOp52
 70
     0
102
RTVSPropertyOp53
 70
     1
102
RTVSPropertyOp54
 70
     1
102
RTVSPropertyOp55
 70
     1
102
RTVSPropertyOp56
 70
     1
102
RTVSPropertyOp57
 70
     1
102
RTVSPropertyOp58
 70
     1
102
RTVSPropertyOp59
 70
     1
102
RTVSPropertyOp60
 70
     1
102
RTVSPropertyOp61
 70
     1
102
RTVSPropertyOp62
 70
     1
  0
XRECORD
  5
20E44
102
{ACAD_REACTORS
330
20E43
102
}
330
20E43
100
AcDbXrecord
280
     1
102
RTVSPost2010Prop28
280
     0
102
RTVSPost2010PropOp28
 70
     1
102
RTVSPost2010Prop29
280
     1
102
RTVSPost2010PropOp29
 70
     1
102
RTVSPost2010Prop30
280
     1
102
RTVSPost2010PropOp30
 70
     1
102
RTVSPost2010Prop31
280
     0
102
RTVSPost2010PropOp31
 70
     1
102
RTVSPost2010Prop32
280
     0
102
RTVSPost2010PropOp32
 70
     1
102
RTVSPost2010Prop33
280
     0
102
RTVSPost2010PropOp33
 70
     1
102
RTVSPost2010Prop34
280
     0
102
RTVSPost2010PropOp34
 70
     1
102
RTVSPost2010Prop35
280
     0
102
RTVSPost2010PropOp35
 70
     1
102
RTVSPost2010Prop36
280
     0
102
RTVSPost2010PropOp36
 70
     1
102
RTVSPost2010Prop37
 90
       50
102
RTVSPost2010PropOp37
 70
     0
102
RTVSPost2010Prop38
140
0.0
102
RTVSPost2010PropOp38
 70
     0
102
RTVSPost2010Prop39
140
1.0
102
RTVSPost2010PropOp39
 70
     0
102
RTVSPost2010Prop40
 90
        0
102
RTVSPost2010PropOp40
 70
     0
102
RTVSPost2010Prop41ColorIndex
 90
       18
102
RTVSPost2010Prop41ColorRGB
 90
        0
102
RTVSPost2010PropOp41
 70
     0
102
RTVSPost2010Prop42
 90
       50
102
RTVSPost2010PropOp42
 70
     0
102
RTVSPost2010Prop43
 90
        3
102
RTVSPost2010PropOp43
 70
     0
102
RTVSPost2010Prop44ColorIndex
 90
        5
102
RTVSPost2010Prop44ColorRGB
 90
      255
102
RTVSPost2010PropOp44
 70
     0
102
RTVSPost2010Prop45
280
     0
102
RTVSPost2010PropOp45
 70
     1
102
RTVSPost2010Prop46
 90
       50
102
RTVSPost2010PropOp46
 70
     0
102
RTVSPost2010Prop47
 90
       50
102
RTVSPost2010PropOp47
 70
     0
102
RTVSPost2010Prop48
 90
       50
102
RTVSPost2010PropOp48
 70
     0
102
RTVSPost2010Prop49
280
     0
102
RTVSPost2010PropOp49
 70
     1
102
RTVSPost2010Prop50
 90
       50
102
RTVSPost2010PropOp50
 70
     0
102
RTVSPost2010Prop51ColorIndex
 90
      256
102
RTVSPost2010Prop51ColorRGB
 90
-16777216
102
RTVSPost2010PropOp51
 70
     0
102
RTVSPost2010Prop52
140
1.0
102
RTVSPost2010PropOp52
 70
     0
102
RTVSPost2010Prop53
 90
        2
102
RTVSPost2010PropOp53
 70
     0
102
RTVSPost2010Prop54
  1
strokes_ogs.tif
102
RTVSPost2010PropOp54
 70
     0
102
RTVSPost2010Prop55
280
     0
102
RTVSPost2010PropOp55
 70
     1
102
RTVSPost2010Prop56
140
1.0
102
RTVSPost2010PropOp56
 70
     0
102
RTVSPost2010Prop57
140
1.0
102
RTVSPost2010PropOp57
 70
     0
102
RTVSPropertyOp0
 70
     0
102
RTVSPropertyOp1
 70
     0
102
RTVSPropertyOp2
 70
     0
102
RTVSPropertyOp3
 70
     0
102
RTVSPropertyOp4
 70
     0
102
RTVSPropertyOp5
 70
     0
102
RTVSPropertyOp6
 70
     0
102
RTVSPropertyOp7
 70
     0
102
RTVSPropertyOp8
 70
     0
102
RTVSPropertyOp9
 70
     0
102
RTVSPropertyOp10
 70
     0
102
RTVSPropertyOp11
 70
     0
102
RTVSPropertyOp12
 70
     0
102
RTVSPropertyOp13
 70
     0
102
RTVSPropertyOp14
 70
     2
102
RTVSPropertyOp15
 70
     0
102
RTVSPropertyOp16
 70
     0
102
RTVSPropertyOp17
 70
     0
102
RTVSPropertyOp18
 70
     0
102
RTVSPropertyOp19
 70
     0
102
RTVSPropertyOp20
 70
     0
102
RTVSPropertyOp21
 70
     0
102
RTVSPropertyOp22
 70
     0
102
RTVSPropertyOp23
 70
     0
102
RTVSPropertyOp24
 70
     0
102
RTVSPropertyOp25
 70
     0
102
RTVSPropertyOp26
 70
     0
102
RTVSPropertyOp27
 70
     0
102
RTVSPropertyOp28
 70
     1
102
RTVSPropertyOp29
 70
     1
102
RTVSPropertyOp30
 70
     1
102
RTVSPropertyOp31
 70
     1
102
RTVSPropertyOp32
 70
     1
102
RTVSPropertyOp33
 70
     1
102
RTVSPropertyOp34
 70
     1
102
RTVSPropertyOp35
 70
     1
102
RTVSPropertyOp36
 70
     1
102
RTVSPropertyOp37
 70
     0
102
RTVSPropertyOp38
 70
     0
102
RTVSPropertyOp39
 70
     0
102
RTVSPropertyOp40
 70
     0
102
RTVSPropertyOp41
 70
     0
102
RTVSPropertyOp42
 70
     0
102
RTVSPropertyOp43
 70
     0
102
RTVSPropertyOp44
 70
     0
102
RTVSPropertyOp45
 70
     1
102
RTVSPropertyOp46
 70
     0
102
RTVSPropertyOp47
 70
     0
102
RTVSPropertyOp48
 70
     0
102
RTVSPropertyOp49
 70
     1
102
RTVSPropertyOp50
 70
     0
102
RTVSPropertyOp51
 70
     0
102
RTVSPropertyOp52
 70
     0
102
RTVSPropertyOp53
 70
     0
102
RTVSPropertyOp54
 70
     0
102
RTVSPropertyOp55
 70
     1
102
RTVSPropertyOp56
 70
     0
102
RTVSPropertyOp57
 70
     0
102
RTVSPropertyOp58
 70
     1
102
RTVSPropertyOp59
 70
     1
102
RTVSPropertyOp60
 70
     1
102
RTVSPropertyOp61
 70
     1
102
RTVSPropertyOp62
 70
     1
  0
XRECORD
  5
20E27
102
{ACAD_REACTORS
330
20E26
102
}
330
20E26
100
AcDbXrecord
280
     1
102
RTVSPost2010Prop28
280
     0
102
RTVSPost2010PropOp28
 70
     1
102
RTVSPost2010Prop29
280
     1
102
RTVSPost2010PropOp29
 70
     1
102
RTVSPost2010Prop30
280
     1
102
RTVSPost2010PropOp30
 70
     1
102
RTVSPost2010Prop31
280
     0
102
RTVSPost2010PropOp31
 70
     1
102
RTVSPost2010Prop32
280
     0
102
RTVSPost2010PropOp32
 70
     1
102
RTVSPost2010Prop33
280
     0
102
RTVSPost2010PropOp33
 70
     1
102
RTVSPost2010Prop34
280
     0
102
RTVSPost2010PropOp34
 70
     1
102
RTVSPost2010Prop35
280
     0
102
RTVSPost2010PropOp35
 70
     1
102
RTVSPost2010Prop36
280
     0
102
RTVSPost2010PropOp36
 70
     1
102
RTVSPost2010Prop37
 90
       50
102
RTVSPost2010PropOp37
 70
     1
102
RTVSPost2010Prop38
140
0.0
102
RTVSPost2010PropOp38
 70
     1
102
RTVSPost2010Prop39
140
1.0
102
RTVSPost2010PropOp39
 70
     1
102
RTVSPost2010Prop40
 90
        0
102
RTVSPost2010PropOp40
 70
     1
102
RTVSPost2010Prop41ColorIndex
 90
       18
102
RTVSPost2010Prop41ColorRGB
 90
        0
102
RTVSPost2010PropOp41
 70
     1
102
RTVSPost2010Prop42
 90
       50
102
RTVSPost2010PropOp42
 70
     1
102
RTVSPost2010Prop43
 90
        3
102
RTVSPost2010PropOp43
 70
     1
102
RTVSPost2010Prop44ColorIndex
 90
        5
102
RTVSPost2010Prop44ColorRGB
 90
      255
102
RTVSPost2010PropOp44
 70
     1
102
RTVSPost2010Prop45
280
     0
102
RTVSPost2010PropOp45
 70
     1
102
RTVSPost2010Prop46
 90
       50
102
RTVSPost2010PropOp46
 70
     1
102
RTVSPost2010Prop47
 90
       50
102
RTVSPost2010PropOp47
 70
     1
102
RTVSPost2010Prop48
 90
       50
102
RTVSPost2010PropOp48
 70
     1
102
RTVSPost2010Prop49
280
     0
102
RTVSPost2010PropOp49
 70
     1
102
RTVSPost2010Prop50
 90
       50
102
RTVSPost2010PropOp50
 70
     1
102
RTVSPost2010Prop51ColorIndex
 90
      256
102
RTVSPost2010Prop51ColorRGB
 90
-16777216
102
RTVSPost2010PropOp51
 70
     0
102
RTVSPost2010Prop52
140
1.0
102
RTVSPost2010PropOp52
 70
     0
102
RTVSPost2010Prop53
 90
        2
102
RTVSPost2010PropOp53
 70
     1
102
RTVSPost2010Prop54
  1
strokes_ogs.tif
102
RTVSPost2010PropOp54
 70
     1
102
RTVSPost2010Prop55
280
     0
102
RTVSPost2010PropOp55
 70
     1
102
RTVSPost2010Prop56
140
1.0
102
RTVSPost2010PropOp56
 70
     1
102
RTVSPost2010Prop57
140
1.0
102
RTVSPost2010PropOp57
 70
     1
102
RTVSPropertyOp0
 70
     1
102
RTVSPropertyOp1
 70
     1
102
RTVSPropertyOp2
 70
     1
102
RTVSPropertyOp3
 70
     1
102
RTVSPropertyOp4
 70
     1
102
RTVSPropertyOp5
 70
     1
102
RTVSPropertyOp6
 70
     1
102
RTVSPropertyOp7
 70
     1
102
RTVSPropertyOp8
 70
     1
102
RTVSPropertyOp9
 70
     1
102
RTVSPropertyOp10
 70
     1
102
RTVSPropertyOp11
 70
     1
102
RTVSPropertyOp12
 70
     1
102
RTVSPropertyOp13
 70
     1
102
RTVSPropertyOp14
 70
     1
102
RTVSPropertyOp15
 70
     1
102
RTVSPropertyOp16
 70
     1
102
RTVSPropertyOp17
 70
     1
102
RTVSPropertyOp18
 70
     1
102
RTVSPropertyOp19
 70
     1
102
RTVSPropertyOp20
 70
     1
102
RTVSPropertyOp21
 70
     1
102
RTVSPropertyOp22
 70
     1
102
RTVSPropertyOp23
 70
     1
102
RTVSPropertyOp24
 70
     1
102
RTVSPropertyOp25
 70
     1
102
RTVSPropertyOp26
 70
     1
102
RTVSPropertyOp27
 70
     1
102
RTVSPropertyOp28
 70
     1
102
RTVSPropertyOp29
 70
     1
102
RTVSPropertyOp30
 70
     1
102
RTVSPropertyOp31
 70
     1
102
RTVSPropertyOp32
 70
     1
102
RTVSPropertyOp33
 70
     1
102
RTVSPropertyOp34
 70
     1
102
RTVSPropertyOp35
 70
     1
102
RTVSPropertyOp36
 70
     1
102
RTVSPropertyOp37
 70
     1
102
RTVSPropertyOp38
 70
     1
102
RTVSPropertyOp39
 70
     1
102
RTVSPropertyOp40
 70
     1
102
RTVSPropertyOp41
 70
     1
102
RTVSPropertyOp42
 70
     1
102
RTVSPropertyOp43
 70
     1
102
RTVSPropertyOp44
 70
     1
102
RTVSPropertyOp45
 70
     1
102
RTVSPropertyOp46
 70
     1
102
RTVSPropertyOp47
 70
     1
102
RTVSPropertyOp48
 70
     1
102
RTVSPropertyOp49
 70
     1
102
RTVSPropertyOp50
 70
     1
102
RTVSPropertyOp51
 70
     0
102
RTVSPropertyOp52
 70
     0
102
RTVSPropertyOp53
 70
     1
102
RTVSPropertyOp54
 70
     1
102
RTVSPropertyOp55
 70
     1
102
RTVSPropertyOp56
 70
     1
102
RTVSPropertyOp57
 70
     1
102
RTVSPropertyOp58
 70
     1
102
RTVSPropertyOp59
 70
     1
102
RTVSPropertyOp60
 70
     1
102
RTVSPropertyOp61
 70
     1
102
RTVSPropertyOp62
 70
     1
  0
XRECORD
  5
20E46
102
{ACAD_REACTORS
330
20E45
102
}
330
20E45
100
AcDbXrecord
280
     1
102
RTVSPost2010Prop28
280
     0
102
RTVSPost2010PropOp28
 70
     1
102
RTVSPost2010Prop29
280
     1
102
RTVSPost2010PropOp29
 70
     1
102
RTVSPost2010Prop30
280
     1
102
RTVSPost2010PropOp30
 70
     1
102
RTVSPost2010Prop31
280
     0
102
RTVSPost2010PropOp31
 70
     1
102
RTVSPost2010Prop32
280
     0
102
RTVSPost2010PropOp32
 70
     1
102
RTVSPost2010Prop33
280
     0
102
RTVSPost2010PropOp33
 70
     1
102
RTVSPost2010Prop34
280
     0
102
RTVSPost2010PropOp34
 70
     1
102
RTVSPost2010Prop35
280
     0
102
RTVSPost2010PropOp35
 70
     1
102
RTVSPost2010Prop36
280
     0
102
RTVSPost2010PropOp36
 70
     1
102
RTVSPost2010Prop37
 90
       50
102
RTVSPost2010PropOp37
 70
     0
102
RTVSPost2010Prop38
140
0.0
102
RTVSPost2010PropOp38
 70
     0
102
RTVSPost2010Prop39
140
1.0
102
RTVSPost2010PropOp39
 70
     0
102
RTVSPost2010Prop40
 90
        0
102
RTVSPost2010PropOp40
 70
     0
102
RTVSPost2010Prop41ColorIndex
 90
       18
102
RTVSPost2010Prop41ColorRGB
 90
        0
102
RTVSPost2010PropOp41
 70
     0
102
RTVSPost2010Prop42
 90
       50
102
RTVSPost2010PropOp42
 70
     0
102
RTVSPost2010Prop43
 90
        3
102
RTVSPost2010PropOp43
 70
     0
102
RTVSPost2010Prop44ColorIndex
 90
        5
102
RTVSPost2010Prop44ColorRGB
 90
      255
102
RTVSPost2010PropOp44
 70
     0
102
RTVSPost2010Prop45
280
     0
102
RTVSPost2010PropOp45
 70
     1
102
RTVSPost2010Prop46
 90
       50
102
RTVSPost2010PropOp46
 70
     0
102
RTVSPost2010Prop47
 90
       50
102
RTVSPost2010PropOp47
 70
     0
102
RTVSPost2010Prop48
 90
       50
102
RTVSPost2010PropOp48
 70
     0
102
RTVSPost2010Prop49
280
     0
102
RTVSPost2010PropOp49
 70
     1
102
RTVSPost2010Prop50
 90
       50
102
RTVSPost2010PropOp50
 70
     0
102
RTVSPost2010Prop51ColorIndex
 90
      256
102
RTVSPost2010Prop51ColorRGB
 90
-16777216
102
RTVSPost2010PropOp51
 70
     0
102
RTVSPost2010Prop52
140
1.0
102
RTVSPost2010PropOp52
 70
     0
102
RTVSPost2010Prop53
 90
        2
102
RTVSPost2010PropOp53
 70
     0
102
RTVSPost2010Prop54
  1
strokes_ogs.tif
102
RTVSPost2010PropOp54
 70
     0
102
RTVSPost2010Prop55
280
     0
102
RTVSPost2010PropOp55
 70
     1
102
RTVSPost2010Prop56
140
1.0
102
RTVSPost2010PropOp56
 70
     0
102
RTVSPost2010Prop57
140
1.0
102
RTVSPost2010PropOp57
 70
     0
102
RTVSPropertyOp0
 70
     0
102
RTVSPropertyOp1
 70
     0
102
RTVSPropertyOp2
 70
     0
102
RTVSPropertyOp3
 70
     0
102
RTVSPropertyOp4
 70
     0
102
RTVSPropertyOp5
 70
     0
102
RTVSPropertyOp6
 70
     0
102
RTVSPropertyOp7
 70
     0
102
RTVSPropertyOp8
 70
     0
102
RTVSPropertyOp9
 70
     0
102
RTVSPropertyOp10
 70
     0
102
RTVSPropertyOp11
 70
     0
102
RTVSPropertyOp12
 70
     0
102
RTVSPropertyOp13
 70
     0
102
RTVSPropertyOp14
 70
     2
102
RTVSPropertyOp15
 70
     0
102
RTVSPropertyOp16
 70
     0
102
RTVSPropertyOp17
 70
     0
102
RTVSPropertyOp18
 70
     0
102
RTVSPropertyOp19
 70
     0
102
RTVSPropertyOp20
 70
     0
102
RTVSPropertyOp21
 70
     0
102
RTVSPropertyOp22
 70
     0
102
RTVSPropertyOp23
 70
     0
102
RTVSPropertyOp24
 70
     0
102
RTVSPropertyOp25
 70
     0
102
RTVSPropertyOp26
 70
     0
102
RTVSPropertyOp27
 70
     0
102
RTVSPropertyOp28
 70
     1
102
RTVSPropertyOp29
 70
     1
102
RTVSPropertyOp30
 70
     1
102
RTVSPropertyOp31
 70
     1
102
RTVSPropertyOp32
 70
     1
102
RTVSPropertyOp33
 70
     1
102
RTVSPropertyOp34
 70
     1
102
RTVSPropertyOp35
 70
     1
102
RTVSPropertyOp36
 70
     1
102
RTVSPropertyOp37
 70
     0
102
RTVSPropertyOp38
 70
     0
102
RTVSPropertyOp39
 70
     0
102
RTVSPropertyOp40
 70
     0
102
RTVSPropertyOp41
 70
     0
102
RTVSPropertyOp42
 70
     0
102
RTVSPropertyOp43
 70
     0
102
RTVSPropertyOp44
 70
     0
102
RTVSPropertyOp45
 70
     1
102
RTVSPropertyOp46
 70
     0
102
RTVSPropertyOp47
 70
     0
102
RTVSPropertyOp48
 70
     0
102
RTVSPropertyOp49
 70
     1
102
RTVSPropertyOp50
 70
     0
102
RTVSPropertyOp51
 70
     0
102
RTVSPropertyOp52
 70
     0
102
RTVSPropertyOp53
 70
     0
102
RTVSPropertyOp54
 70
     0
102
RTVSPropertyOp55
 70
     1
102
RTVSPropertyOp56
 70
     0
102
RTVSPropertyOp57
 70
     0
102
RTVSPropertyOp58
 70
     1
102
RTVSPropertyOp59
 70
     1
102
RTVSPropertyOp60
 70
     1
102
RTVSPropertyOp61
 70
     1
102
RTVSPropertyOp62
 70
     1
  0
XRECORD
  5
20E1F
102
{ACAD_REACTORS
330
20E1E
102
}
330
20E1E
100
AcDbXrecord
280
     1
102
RTVSPost2010Prop28
280
     0
102
RTVSPost2010PropOp28
 70
     1
102
RTVSPost2010Prop29
280
     1
102
RTVSPost2010PropOp29
 70
     1
102
RTVSPost2010Prop30
280
     1
102
RTVSPost2010PropOp30
 70
     1
102
RTVSPost2010Prop31
280
     0
102
RTVSPost2010PropOp31
 70
     1
102
RTVSPost2010Prop32
280
     0
102
RTVSPost2010PropOp32
 70
     1
102
RTVSPost2010Prop33
280
     0
102
RTVSPost2010PropOp33
 70
     1
102
RTVSPost2010Prop34
280
     0
102
RTVSPost2010PropOp34
 70
     1
102
RTVSPost2010Prop35
280
     0
102
RTVSPost2010PropOp35
 70
     1
102
RTVSPost2010Prop36
280
     0
102
RTVSPost2010PropOp36
 70
     1
102
RTVSPost2010Prop37
 90
       50
102
RTVSPost2010PropOp37
 70
     1
102
RTVSPost2010Prop38
140
0.0
102
RTVSPost2010PropOp38
 70
     1
102
RTVSPost2010Prop39
140
1.0
102
RTVSPost2010PropOp39
 70
     1
102
RTVSPost2010Prop40
 90
        0
102
RTVSPost2010PropOp40
 70
     1
102
RTVSPost2010Prop41ColorIndex
 90
       18
102
RTVSPost2010Prop41ColorRGB
 90
        0
102
RTVSPost2010PropOp41
 70
     1
102
RTVSPost2010Prop42
 90
       50
102
RTVSPost2010PropOp42
 70
     1
102
RTVSPost2010Prop43
 90
        3
102
RTVSPost2010PropOp43
 70
     1
102
RTVSPost2010Prop44ColorIndex
 90
        5
102
RTVSPost2010Prop44ColorRGB
 90
      255
102
RTVSPost2010PropOp44
 70
     1
102
RTVSPost2010Prop45
280
     0
102
RTVSPost2010PropOp45
 70
     1
102
RTVSPost2010Prop46
 90
       50
102
RTVSPost2010PropOp46
 70
     1
102
RTVSPost2010Prop47
 90
       50
102
RTVSPost2010PropOp47
 70
     1
102
RTVSPost2010Prop48
 90
       50
102
RTVSPost2010PropOp48
 70
     1
102
RTVSPost2010Prop49
280
     0
102
RTVSPost2010PropOp49
 70
     1
102
RTVSPost2010Prop50
 90
       50
102
RTVSPost2010PropOp50
 70
     1
102
RTVSPost2010Prop51ColorIndex
 90
      256
102
RTVSPost2010Prop51ColorRGB
 90
-16777216
102
RTVSPost2010PropOp51
 70
     0
102
RTVSPost2010Prop52
140
1.0
102
RTVSPost2010PropOp52
 70
     0
102
RTVSPost2010Prop53
 90
        2
102
RTVSPost2010PropOp53
 70
     1
102
RTVSPost2010Prop54
  1
strokes_ogs.tif
102
RTVSPost2010PropOp54
 70
     1
102
RTVSPost2010Prop55
280
     0
102
RTVSPost2010PropOp55
 70
     1
102
RTVSPost2010Prop56
140
1.0
102
RTVSPost2010PropOp56
 70
     1
102
RTVSPost2010Prop57
140
1.0
102
RTVSPost2010PropOp57
 70
     1
102
RTVSPropertyOp0
 70
     1
102
RTVSPropertyOp1
 70
     1
102
RTVSPropertyOp2
 70
     1
102
RTVSPropertyOp3
 70
     1
102
RTVSPropertyOp4
 70
     1
102
RTVSPropertyOp5
 70
     1
102
RTVSPropertyOp6
 70
     1
102
RTVSPropertyOp7
 70
     1
102
RTVSPropertyOp8
 70
     1
102
RTVSPropertyOp9
 70
     1
102
RTVSPropertyOp10
 70
     1
102
RTVSPropertyOp11
 70
     1
102
RTVSPropertyOp12
 70
     1
102
RTVSPropertyOp13
 70
     1
102
RTVSPropertyOp14
 70
     1
102
RTVSPropertyOp15
 70
     1
102
RTVSPropertyOp16
 70
     1
102
RTVSPropertyOp17
 70
     1
102
RTVSPropertyOp18
 70
     1
102
RTVSPropertyOp19
 70
     1
102
RTVSPropertyOp20
 70
     1
102
RTVSPropertyOp21
 70
     1
102
RTVSPropertyOp22
 70
     1
102
RTVSPropertyOp23
 70
     1
102
RTVSPropertyOp24
 70
     1
102
RTVSPropertyOp25
 70
     1
102
RTVSPropertyOp26
 70
     1
102
RTVSPropertyOp27
 70
     1
102
RTVSPropertyOp28
 70
     1
102
RTVSPropertyOp29
 70
     1
102
RTVSPropertyOp30
 70
     1
102
RTVSPropertyOp31
 70
     1
102
RTVSPropertyOp32
 70
     1
102
RTVSPropertyOp33
 70
     1
102
RTVSPropertyOp34
 70
     1
102
RTVSPropertyOp35
 70
     1
102
RTVSPropertyOp36
 70
     1
102
RTVSPropertyOp37
 70
     1
102
RTVSPropertyOp38
 70
     1
102
RTVSPropertyOp39
 70
     1
102
RTVSPropertyOp40
 70
     1
102
RTVSPropertyOp41
 70
     1
102
RTVSPropertyOp42
 70
     1
102
RTVSPropertyOp43
 70
     1
102
RTVSPropertyOp44
 70
     1
102
RTVSPropertyOp45
 70
     1
102
RTVSPropertyOp46
 70
     1
102
RTVSPropertyOp47
 70
     1
102
RTVSPropertyOp48
 70
     1
102
RTVSPropertyOp49
 70
     1
102
RTVSPropertyOp50
 70
     1
102
RTVSPropertyOp51
 70
     0
102
RTVSPropertyOp52
 70
     0
102
RTVSPropertyOp53
 70
     1
102
RTVSPropertyOp54
 70
     1
102
RTVSPropertyOp55
 70
     1
102
RTVSPropertyOp56
 70
     1
102
RTVSPropertyOp57
 70
     1
102
RTVSPropertyOp58
 70
     1
102
RTVSPropertyOp59
 70
     1
102
RTVSPropertyOp60
 70
     1
102
RTVSPropertyOp61
 70
     1
102
RTVSPropertyOp62
 70
     1
  0
XRECORD
  5
20E42
102
{ACAD_REACTORS
330
20E41
102
}
330
20E41
100
AcDbXrecord
280
     1
102
RTVSPost2010Prop28
280
     0
102
RTVSPost2010PropOp28
 70
     1
102
RTVSPost2010Prop29
280
     1
102
RTVSPost2010PropOp29
 70
     1
102
RTVSPost2010Prop30
280
     1
102
RTVSPost2010PropOp30
 70
     1
102
RTVSPost2010Prop31
280
     0
102
RTVSPost2010PropOp31
 70
     1
102
RTVSPost2010Prop32
280
     0
102
RTVSPost2010PropOp32
 70
     1
102
RTVSPost2010Prop33
280
     0
102
RTVSPost2010PropOp33
 70
     1
102
RTVSPost2010Prop34
280
     0
102
RTVSPost2010PropOp34
 70
     1
102
RTVSPost2010Prop35
280
     0
102
RTVSPost2010PropOp35
 70
     1
102
RTVSPost2010Prop36
280
     0
102
RTVSPost2010PropOp36
 70
     1
102
RTVSPost2010Prop37
 90
       50
102
RTVSPost2010PropOp37
 70
     1
102
RTVSPost2010Prop38
140
0.0
102
RTVSPost2010PropOp38
 70
     1
102
RTVSPost2010Prop39
140
1.0
102
RTVSPost2010PropOp39
 70
     1
102
RTVSPost2010Prop40
 90
        0
102
RTVSPost2010PropOp40
 70
     1
102
RTVSPost2010Prop41ColorIndex
 90
       18
102
RTVSPost2010Prop41ColorRGB
 90
        0
102
RTVSPost2010PropOp41
 70
     1
102
RTVSPost2010Prop42
 90
       50
102
RTVSPost2010PropOp42
 70
     1
102
RTVSPost2010Prop43
 90
        3
102
RTVSPost2010PropOp43
 70
     1
102
RTVSPost2010Prop44ColorIndex
 90
        5
102
RTVSPost2010Prop44ColorRGB
 90
      255
102
RTVSPost2010PropOp44
 70
     1
102
RTVSPost2010Prop45
280
     0
102
RTVSPost2010PropOp45
 70
     1
102
RTVSPost2010Prop46
 90
       50
102
RTVSPost2010PropOp46
 70
     1
102
RTVSPost2010Prop47
 90
       50
102
RTVSPost2010PropOp47
 70
     1
102
RTVSPost2010Prop48
 90
       50
102
RTVSPost2010PropOp48
 70
     1
102
RTVSPost2010Prop49
280
     0
102
RTVSPost2010PropOp49
 70
     1
102
RTVSPost2010Prop50
 90
       50
102
RTVSPost2010PropOp50
 70
     1
102
RTVSPost2010Prop51ColorIndex
 90
      256
102
RTVSPost2010Prop51ColorRGB
 90
-16777216
102
RTVSPost2010PropOp51
 70
     0
102
RTVSPost2010Prop52
140
1.0
102
RTVSPost2010PropOp52
 70
     0
102
RTVSPost2010Prop53
 90
        2
102
RTVSPost2010PropOp53
 70
     1
102
RTVSPost2010Prop54
  1
strokes_ogs.tif
102
RTVSPost2010PropOp54
 70
     1
102
RTVSPost2010Prop55
280
     0
102
RTVSPost2010PropOp55
 70
     1
102
RTVSPost2010Prop56
140
1.0
102
RTVSPost2010PropOp56
 70
     1
102
RTVSPost2010Prop57
140
1.0
102
RTVSPost2010PropOp57
 70
     1
102
RTVSPropertyOp0
 70
     1
102
RTVSPropertyOp1
 70
     1
102
RTVSPropertyOp2
 70
     1
102
RTVSPropertyOp3
 70
     1
102
RTVSPropertyOp4
 70
     1
102
RTVSPropertyOp5
 70
     1
102
RTVSPropertyOp6
 70
     1
102
RTVSPropertyOp7
 70
     1
102
RTVSPropertyOp8
 70
     1
102
RTVSPropertyOp9
 70
     1
102
RTVSPropertyOp10
 70
     1
102
RTVSPropertyOp11
 70
     1
102
RTVSPropertyOp12
 70
     1
102
RTVSPropertyOp13
 70
     1
102
RTVSPropertyOp14
 70
     1
102
RTVSPropertyOp15
 70
     1
102
RTVSPropertyOp16
 70
     1
102
RTVSPropertyOp17
 70
     1
102
RTVSPropertyOp18
 70
     1
102
RTVSPropertyOp19
 70
     1
102
RTVSPropertyOp20
 70
     1
102
RTVSPropertyOp21
 70
     1
102
RTVSPropertyOp22
 70
     1
102
RTVSPropertyOp23
 70
     1
102
RTVSPropertyOp24
 70
     1
102
RTVSPropertyOp25
 70
     1
102
RTVSPropertyOp26
 70
     1
102
RTVSPropertyOp27
 70
     1
102
RTVSPropertyOp28
 70
     1
102
RTVSPropertyOp29
 70
     1
102
RTVSPropertyOp30
 70
     1
102
RTVSPropertyOp31
 70
     1
102
RTVSPropertyOp32
 70
     1
102
RTVSPropertyOp33
 70
     1
102
RTVSPropertyOp34
 70
     1
102
RTVSPropertyOp35
 70
     1
102
RTVSPropertyOp36
 70
     1
102
RTVSPropertyOp37
 70
     1
102
RTVSPropertyOp38
 70
     1
102
RTVSPropertyOp39
 70
     1
102
RTVSPropertyOp40
 70
     1
102
RTVSPropertyOp41
 70
     1
102
RTVSPropertyOp42
 70
     1
102
RTVSPropertyOp43
 70
     1
102
RTVSPropertyOp44
 70
     1
102
RTVSPropertyOp45
 70
     1
102
RTVSPropertyOp46
 70
     1
102
RTVSPropertyOp47
 70
     1
102
RTVSPropertyOp48
 70
     1
102
RTVSPropertyOp49
 70
     1
102
RTVSPropertyOp50
 70
     1
102
RTVSPropertyOp51
 70
     0
102
RTVSPropertyOp52
 70
     0
102
RTVSPropertyOp53
 70
     1
102
RTVSPropertyOp54
 70
     1
102
RTVSPropertyOp55
 70
     1
102
RTVSPropertyOp56
 70
     1
102
RTVSPropertyOp57
 70
     1
102
RTVSPropertyOp58
 70
     1
102
RTVSPropertyOp59
 70
     1
102
RTVSPropertyOp60
 70
     1
102
RTVSPropertyOp61
 70
     1
102
RTVSPropertyOp62
 70
     1
  0
XRECORD
  5
20E40
102
{ACAD_REACTORS
330
20E3F
102
}
330
20E3F
100
AcDbXrecord
280
     1
102
RTVSPost2010Prop28
280
     0
102
RTVSPost2010PropOp28
 70
     1
102
RTVSPost2010Prop29
280
     1
102
RTVSPost2010PropOp29
 70
     1
102
RTVSPost2010Prop30
280
     1
102
RTVSPost2010PropOp30
 70
     1
102
RTVSPost2010Prop31
280
     0
102
RTVSPost2010PropOp31
 70
     1
102
RTVSPost2010Prop32
280
     0
102
RTVSPost2010PropOp32
 70
     1
102
RTVSPost2010Prop33
280
     0
102
RTVSPost2010PropOp33
 70
     1
102
RTVSPost2010Prop34
280
     0
102
RTVSPost2010PropOp34
 70
     1
102
RTVSPost2010Prop35
280
     0
102
RTVSPost2010PropOp35
 70
     1
102
RTVSPost2010Prop36
280
     0
102
RTVSPost2010PropOp36
 70
     1
102
RTVSPost2010Prop37
 90
       50
102
RTVSPost2010PropOp37
 70
     1
102
RTVSPost2010Prop38
140
0.0
102
RTVSPost2010PropOp38
 70
     1
102
RTVSPost2010Prop39
140
1.0
102
RTVSPost2010PropOp39
 70
     1
102
RTVSPost2010Prop40
 90
        0
102
RTVSPost2010PropOp40
 70
     1
102
RTVSPost2010Prop41ColorIndex
 90
       18
102
RTVSPost2010Prop41ColorRGB
 90
        0
102
RTVSPost2010PropOp41
 70
     1
102
RTVSPost2010Prop42
 90
       50
102
RTVSPost2010PropOp42
 70
     1
102
RTVSPost2010Prop43
 90
        3
102
RTVSPost2010PropOp43
 70
     1
102
RTVSPost2010Prop44ColorIndex
 90
        5
102
RTVSPost2010Prop44ColorRGB
 90
      255
102
RTVSPost2010PropOp44
 70
     1
102
RTVSPost2010Prop45
280
     0
102
RTVSPost2010PropOp45
 70
     1
102
RTVSPost2010Prop46
 90
       50
102
RTVSPost2010PropOp46
 70
     1
102
RTVSPost2010Prop47
 90
       50
102
RTVSPost2010PropOp47
 70
     1
102
RTVSPost2010Prop48
 90
       50
102
RTVSPost2010PropOp48
 70
     1
102
RTVSPost2010Prop49
280
     0
102
RTVSPost2010PropOp49
 70
     1
102
RTVSPost2010Prop50
 90
       50
102
RTVSPost2010PropOp50
 70
     1
102
RTVSPost2010Prop51ColorIndex
 90
      256
102
RTVSPost2010Prop51ColorRGB
 90
-16777216
102
RTVSPost2010PropOp51
 70
     0
102
RTVSPost2010Prop52
140
1.0
102
RTVSPost2010PropOp52
 70
     0
102
RTVSPost2010Prop53
 90
        2
102
RTVSPost2010PropOp53
 70
     1
102
RTVSPost2010Prop54
  1
strokes_ogs.tif
102
RTVSPost2010PropOp54
 70
     1
102
RTVSPost2010Prop55
280
     0
102
RTVSPost2010PropOp55
 70
     1
102
RTVSPost2010Prop56
140
1.0
102
RTVSPost2010PropOp56
 70
     1
102
RTVSPost2010Prop57
140
1.0
102
RTVSPost2010PropOp57
 70
     1
102
RTVSPropertyOp0
 70
     1
102
RTVSPropertyOp1
 70
     1
102
RTVSPropertyOp2
 70
     1
102
RTVSPropertyOp3
 70
     1
102
RTVSPropertyOp4
 70
     1
102
RTVSPropertyOp5
 70
     1
102
RTVSPropertyOp6
 70
     1
102
RTVSPropertyOp7
 70
     1
102
RTVSPropertyOp8
 70
     1
102
RTVSPropertyOp9
 70
     1
102
RTVSPropertyOp10
 70
     1
102
RTVSPropertyOp11
 70
     1
102
RTVSPropertyOp12
 70
     1
102
RTVSPropertyOp13
 70
     1
102
RTVSPropertyOp14
 70
     1
102
RTVSPropertyOp15
 70
     1
102
RTVSPropertyOp16
 70
     1
102
RTVSPropertyOp17
 70
     1
102
RTVSPropertyOp18
 70
     1
102
RTVSPropertyOp19
 70
     1
102
RTVSPropertyOp20
 70
     1
102
RTVSPropertyOp21
 70
     1
102
RTVSPropertyOp22
 70
     1
102
RTVSPropertyOp23
 70
     1
102
RTVSPropertyOp24
 70
     1
102
RTVSPropertyOp25
 70
     1
102
RTVSPropertyOp26
 70
     1
102
RTVSPropertyOp27
 70
     1
102
RTVSPropertyOp28
 70
     1
102
RTVSPropertyOp29
 70
     1
102
RTVSPropertyOp30
 70
     1
102
RTVSPropertyOp31
 70
     1
102
RTVSPropertyOp32
 70
     1
102
RTVSPropertyOp33
 70
     1
102
RTVSPropertyOp34
 70
     1
102
RTVSPropertyOp35
 70
     1
102
RTVSPropertyOp36
 70
     1
102
RTVSPropertyOp37
 70
     1
102
RTVSPropertyOp38
 70
     1
102
RTVSPropertyOp39
 70
     1
102
RTVSPropertyOp40
 70
     1
102
RTVSPropertyOp41
 70
     1
102
RTVSPropertyOp42
 70
     1
102
RTVSPropertyOp43
 70
     1
102
RTVSPropertyOp44
 70
     1
102
RTVSPropertyOp45
 70
     1
102
RTVSPropertyOp46
 70
     1
102
RTVSPropertyOp47
 70
     1
102
RTVSPropertyOp48
 70
     1
102
RTVSPropertyOp49
 70
     1
102
RTVSPropertyOp50
 70
     1
102
RTVSPropertyOp51
 70
     0
102
RTVSPropertyOp52
 70
     0
102
RTVSPropertyOp53
 70
     1
102
RTVSPropertyOp54
 70
     1
102
RTVSPropertyOp55
 70
     1
102
RTVSPropertyOp56
 70
     1
102
RTVSPropertyOp57
 70
     1
102
RTVSPropertyOp58
 70
     1
102
RTVSPropertyOp59
 70
     1
102
RTVSPropertyOp60
 70
     1
102
RTVSPropertyOp61
 70
     1
102
RTVSPropertyOp62
 70
     1
  0
XRECORD
  5
20E3A
102
{ACAD_REACTORS
330
20E39
102
}
330
20E39
100
AcDbXrecord
280
     1
102
RTVSPost2010Prop28
280
     0
102
RTVSPost2010PropOp28
 70
     1
102
RTVSPost2010Prop29
280
     1
102
RTVSPost2010PropOp29
 70
     1
102
RTVSPost2010Prop30
280
     1
102
RTVSPost2010PropOp30
 70
     1
102
RTVSPost2010Prop31
280
     0
102
RTVSPost2010PropOp31
 70
     1
102
RTVSPost2010Prop32
280
     0
102
RTVSPost2010PropOp32
 70
     1
102
RTVSPost2010Prop33
280
     0
102
RTVSPost2010PropOp33
 70
     1
102
RTVSPost2010Prop34
280
     0
102
RTVSPost2010PropOp34
 70
     1
102
RTVSPost2010Prop35
280
     0
102
RTVSPost2010PropOp35
 70
     1
102
RTVSPost2010Prop36
280
     0
102
RTVSPost2010PropOp36
 70
     1
102
RTVSPost2010Prop37
 90
       50
102
RTVSPost2010PropOp37
 70
     1
102
RTVSPost2010Prop38
140
0.0
102
RTVSPost2010PropOp38
 70
     1
102
RTVSPost2010Prop39
140
1.0
102
RTVSPost2010PropOp39
 70
     1
102
RTVSPost2010Prop40
 90
        0
102
RTVSPost2010PropOp40
 70
     1
102
RTVSPost2010Prop41ColorIndex
 90
       18
102
RTVSPost2010Prop41ColorRGB
 90
        0
102
RTVSPost2010PropOp41
 70
     1
102
RTVSPost2010Prop42
 90
       50
102
RTVSPost2010PropOp42
 70
     1
102
RTVSPost2010Prop43
 90
        3
102
RTVSPost2010PropOp43
 70
     1
102
RTVSPost2010Prop44ColorIndex
 90
        5
102
RTVSPost2010Prop44ColorRGB
 90
      255
102
RTVSPost2010PropOp44
 70
     1
102
RTVSPost2010Prop45
280
     0
102
RTVSPost2010PropOp45
 70
     1
102
RTVSPost2010Prop46
 90
       50
102
RTVSPost2010PropOp46
 70
     1
102
RTVSPost2010Prop47
 90
       50
102
RTVSPost2010PropOp47
 70
     1
102
RTVSPost2010Prop48
 90
       50
102
RTVSPost2010PropOp48
 70
     1
102
RTVSPost2010Prop49
280
     0
102
RTVSPost2010PropOp49
 70
     1
102
RTVSPost2010Prop50
 90
       50
102
RTVSPost2010PropOp50
 70
     1
102
RTVSPost2010Prop51ColorIndex
 90
      256
102
RTVSPost2010Prop51ColorRGB
 90
-16777216
102
RTVSPost2010PropOp51
 70
     0
102
RTVSPost2010Prop52
140
1.0
102
RTVSPost2010PropOp52
 70
     0
102
RTVSPost2010Prop53
 90
        2
102
RTVSPost2010PropOp53
 70
     1
102
RTVSPost2010Prop54
  1
strokes_ogs.tif
102
RTVSPost2010PropOp54
 70
     1
102
RTVSPost2010Prop55
280
     0
102
RTVSPost2010PropOp55
 70
     1
102
RTVSPost2010Prop56
140
1.0
102
RTVSPost2010PropOp56
 70
     1
102
RTVSPost2010Prop57
140
1.0
102
RTVSPost2010PropOp57
 70
     1
102
RTVSPropertyOp0
 70
     1
102
RTVSPropertyOp1
 70
     1
102
RTVSPropertyOp2
 70
     1
102
RTVSPropertyOp3
 70
     1
102
RTVSPropertyOp4
 70
     1
102
RTVSPropertyOp5
 70
     1
102
RTVSPropertyOp6
 70
     1
102
RTVSPropertyOp7
 70
     1
102
RTVSPropertyOp8
 70
     1
102
RTVSPropertyOp9
 70
     1
102
RTVSPropertyOp10
 70
     1
102
RTVSPropertyOp11
 70
     1
102
RTVSPropertyOp12
 70
     1
102
RTVSPropertyOp13
 70
     1
102
RTVSPropertyOp14
 70
     1
102
RTVSPropertyOp15
 70
     1
102
RTVSPropertyOp16
 70
     1
102
RTVSPropertyOp17
 70
     1
102
RTVSPropertyOp18
 70
     1
102
RTVSPropertyOp19
 70
     1
102
RTVSPropertyOp20
 70
     1
102
RTVSPropertyOp21
 70
     1
102
RTVSPropertyOp22
 70
     1
102
RTVSPropertyOp23
 70
     1
102
RTVSPropertyOp24
 70
     1
102
RTVSPropertyOp25
 70
     1
102
RTVSPropertyOp26
 70
     1
102
RTVSPropertyOp27
 70
     1
102
RTVSPropertyOp28
 70
     1
102
RTVSPropertyOp29
 70
     1
102
RTVSPropertyOp30
 70
     1
102
RTVSPropertyOp31
 70
     1
102
RTVSPropertyOp32
 70
     1
102
RTVSPropertyOp33
 70
     1
102
RTVSPropertyOp34
 70
     1
102
RTVSPropertyOp35
 70
     1
102
RTVSPropertyOp36
 70
     1
102
RTVSPropertyOp37
 70
     1
102
RTVSPropertyOp38
 70
     1
102
RTVSPropertyOp39
 70
     1
102
RTVSPropertyOp40
 70
     1
102
RTVSPropertyOp41
 70
     1
102
RTVSPropertyOp42
 70
     1
102
RTVSPropertyOp43
 70
     1
102
RTVSPropertyOp44
 70
     1
102
RTVSPropertyOp45
 70
     1
102
RTVSPropertyOp46
 70
     1
102
RTVSPropertyOp47
 70
     1
102
RTVSPropertyOp48
 70
     1
102
RTVSPropertyOp49
 70
     1
102
RTVSPropertyOp50
 70
     1
102
RTVSPropertyOp51
 70
     0
102
RTVSPropertyOp52
 70
     0
102
RTVSPropertyOp53
 70
     1
102
RTVSPropertyOp54
 70
     1
102
RTVSPropertyOp55
 70
     1
102
RTVSPropertyOp56
 70
     1
102
RTVSPropertyOp57
 70
     1
102
RTVSPropertyOp58
 70
     1
102
RTVSPropertyOp59
 70
     1
102
RTVSPropertyOp60
 70
     1
102
RTVSPropertyOp61
 70
     1
102
RTVSPropertyOp62
 70
     1
  0
XRECORD
  5
20E3C
102
{ACAD_REACTORS
330
20E3B
102
}
330
20E3B
100
AcDbXrecord
280
     1
102
RTVSPost2010Prop28
280
     0
102
RTVSPost2010PropOp28
 70
     1
102
RTVSPost2010Prop29
280
     1
102
RTVSPost2010PropOp29
 70
     1
102
RTVSPost2010Prop30
280
     1
102
RTVSPost2010PropOp30
 70
     1
102
RTVSPost2010Prop31
280
     0
102
RTVSPost2010PropOp31
 70
     1
102
RTVSPost2010Prop32
280
     0
102
RTVSPost2010PropOp32
 70
     1
102
RTVSPost2010Prop33
280
     0
102
RTVSPost2010PropOp33
 70
     1
102
RTVSPost2010Prop34
280
     0
102
RTVSPost2010PropOp34
 70
     1
102
RTVSPost2010Prop35
280
     0
102
RTVSPost2010PropOp35
 70
     1
102
RTVSPost2010Prop36
280
     0
102
RTVSPost2010PropOp36
 70
     1
102
RTVSPost2010Prop37
 90
       50
102
RTVSPost2010PropOp37
 70
     1
102
RTVSPost2010Prop38
140
0.0
102
RTVSPost2010PropOp38
 70
     1
102
RTVSPost2010Prop39
140
1.0
102
RTVSPost2010PropOp39
 70
     1
102
RTVSPost2010Prop40
 90
        0
102
RTVSPost2010PropOp40
 70
     1
102
RTVSPost2010Prop41ColorIndex
 90
       18
102
RTVSPost2010Prop41ColorRGB
 90
        0
102
RTVSPost2010PropOp41
 70
     1
102
RTVSPost2010Prop42
 90
       50
102
RTVSPost2010PropOp42
 70
     1
102
RTVSPost2010Prop43
 90
        3
102
RTVSPost2010PropOp43
 70
     1
102
RTVSPost2010Prop44ColorIndex
 90
        5
102
RTVSPost2010Prop44ColorRGB
 90
      255
102
RTVSPost2010PropOp44
 70
     1
102
RTVSPost2010Prop45
280
     0
102
RTVSPost2010PropOp45
 70
     1
102
RTVSPost2010Prop46
 90
       50
102
RTVSPost2010PropOp46
 70
     1
102
RTVSPost2010Prop47
 90
       50
102
RTVSPost2010PropOp47
 70
     1
102
RTVSPost2010Prop48
 90
       50
102
RTVSPost2010PropOp48
 70
     1
102
RTVSPost2010Prop49
280
     0
102
RTVSPost2010PropOp49
 70
     1
102
RTVSPost2010Prop50
 90
       50
102
RTVSPost2010PropOp50
 70
     1
102
RTVSPost2010Prop51ColorIndex
 90
      256
102
RTVSPost2010Prop51ColorRGB
 90
-16777216
102
RTVSPost2010PropOp51
 70
     0
102
RTVSPost2010Prop52
140
1.0
102
RTVSPost2010PropOp52
 70
     0
102
RTVSPost2010Prop53
 90
        2
102
RTVSPost2010PropOp53
 70
     1
102
RTVSPost2010Prop54
  1
strokes_ogs.tif
102
RTVSPost2010PropOp54
 70
     1
102
RTVSPost2010Prop55
280
     0
102
RTVSPost2010PropOp55
 70
     1
102
RTVSPost2010Prop56
140
1.0
102
RTVSPost2010PropOp56
 70
     1
102
RTVSPost2010Prop57
140
1.0
102
RTVSPost2010PropOp57
 70
     1
102
RTVSPropertyOp0
 70
     1
102
RTVSPropertyOp1
 70
     1
102
RTVSPropertyOp2
 70
     1
102
RTVSPropertyOp3
 70
     1
102
RTVSPropertyOp4
 70
     1
102
RTVSPropertyOp5
 70
     1
102
RTVSPropertyOp6
 70
     1
102
RTVSPropertyOp7
 70
     1
102
RTVSPropertyOp8
 70
     1
102
RTVSPropertyOp9
 70
     1
102
RTVSPropertyOp10
 70
     1
102
RTVSPropertyOp11
 70
     1
102
RTVSPropertyOp12
 70
     1
102
RTVSPropertyOp13
 70
     1
102
RTVSPropertyOp14
 70
     1
102
RTVSPropertyOp15
 70
     1
102
RTVSPropertyOp16
 70
     1
102
RTVSPropertyOp17
 70
     1
102
RTVSPropertyOp18
 70
     1
102
RTVSPropertyOp19
 70
     1
102
RTVSPropertyOp20
 70
     1
102
RTVSPropertyOp21
 70
     1
102
RTVSPropertyOp22
 70
     1
102
RTVSPropertyOp23
 70
     1
102
RTVSPropertyOp24
 70
     1
102
RTVSPropertyOp25
 70
     1
102
RTVSPropertyOp26
 70
     1
102
RTVSPropertyOp27
 70
     1
102
RTVSPropertyOp28
 70
     1
102
RTVSPropertyOp29
 70
     1
102
RTVSPropertyOp30
 70
     1
102
RTVSPropertyOp31
 70
     1
102
RTVSPropertyOp32
 70
     1
102
RTVSPropertyOp33
 70
     1
102
RTVSPropertyOp34
 70
     1
102
RTVSPropertyOp35
 70
     1
102
RTVSPropertyOp36
 70
     1
102
RTVSPropertyOp37
 70
     1
102
RTVSPropertyOp38
 70
     1
102
RTVSPropertyOp39
 70
     1
102
RTVSPropertyOp40
 70
     1
102
RTVSPropertyOp41
 70
     1
102
RTVSPropertyOp42
 70
     1
102
RTVSPropertyOp43
 70
     1
102
RTVSPropertyOp44
 70
     1
102
RTVSPropertyOp45
 70
     1
102
RTVSPropertyOp46
 70
     1
102
RTVSPropertyOp47
 70
     1
102
RTVSPropertyOp48
 70
     1
102
RTVSPropertyOp49
 70
     1
102
RTVSPropertyOp50
 70
     1
102
RTVSPropertyOp51
 70
     0
102
RTVSPropertyOp52
 70
     0
102
RTVSPropertyOp53
 70
     1
102
RTVSPropertyOp54
 70
     1
102
RTVSPropertyOp55
 70
     1
102
RTVSPropertyOp56
 70
     1
102
RTVSPropertyOp57
 70
     1
102
RTVSPropertyOp58
 70
     1
102
RTVSPropertyOp59
 70
     1
102
RTVSPropertyOp60
 70
     1
102
RTVSPropertyOp61
 70
     1
102
RTVSPropertyOp62
 70
     1
  0
XRECORD
  5
20E25
102
{ACAD_REACTORS
330
20E24
102
}
330
20E24
100
AcDbXrecord
280
     1
102
RTVSPost2010Prop28
280
     0
102
RTVSPost2010PropOp28
 70
     1
102
RTVSPost2010Prop29
280
     1
102
RTVSPost2010PropOp29
 70
     1
102
RTVSPost2010Prop30
280
     1
102
RTVSPost2010PropOp30
 70
     1
102
RTVSPost2010Prop31
280
     0
102
RTVSPost2010PropOp31
 70
     1
102
RTVSPost2010Prop32
280
     0
102
RTVSPost2010PropOp32
 70
     1
102
RTVSPost2010Prop33
280
     0
102
RTVSPost2010PropOp33
 70
     1
102
RTVSPost2010Prop34
280
     0
102
RTVSPost2010PropOp34
 70
     1
102
RTVSPost2010Prop35
280
     0
102
RTVSPost2010PropOp35
 70
     1
102
RTVSPost2010Prop36
280
     0
102
RTVSPost2010PropOp36
 70
     1
102
RTVSPost2010Prop37
 90
       50
102
RTVSPost2010PropOp37
 70
     1
102
RTVSPost2010Prop38
140
0.0
102
RTVSPost2010PropOp38
 70
     1
102
RTVSPost2010Prop39
140
1.0
102
RTVSPost2010PropOp39
 70
     1
102
RTVSPost2010Prop40
 90
        0
102
RTVSPost2010PropOp40
 70
     1
102
RTVSPost2010Prop41ColorIndex
 90
       18
102
RTVSPost2010Prop41ColorRGB
 90
        0
102
RTVSPost2010PropOp41
 70
     1
102
RTVSPost2010Prop42
 90
       50
102
RTVSPost2010PropOp42
 70
     1
102
RTVSPost2010Prop43
 90
        3
102
RTVSPost2010PropOp43
 70
     1
102
RTVSPost2010Prop44ColorIndex
 90
        5
102
RTVSPost2010Prop44ColorRGB
 90
      255
102
RTVSPost2010PropOp44
 70
     1
102
RTVSPost2010Prop45
280
     0
102
RTVSPost2010PropOp45
 70
     1
102
RTVSPost2010Prop46
 90
       50
102
RTVSPost2010PropOp46
 70
     1
102
RTVSPost2010Prop47
 90
       50
102
RTVSPost2010PropOp47
 70
     1
102
RTVSPost2010Prop48
 90
       50
102
RTVSPost2010PropOp48
 70
     1
102
RTVSPost2010Prop49
280
     0
102
RTVSPost2010PropOp49
 70
     1
102
RTVSPost2010Prop50
 90
       50
102
RTVSPost2010PropOp50
 70
     1
102
RTVSPost2010Prop51ColorIndex
 90
      256
102
RTVSPost2010Prop51ColorRGB
 90
-16777216
102
RTVSPost2010PropOp51
 70
     0
102
RTVSPost2010Prop52
140
1.0
102
RTVSPost2010PropOp52
 70
     0
102
RTVSPost2010Prop53
 90
        2
102
RTVSPost2010PropOp53
 70
     1
102
RTVSPost2010Prop54
  1
strokes_ogs.tif
102
RTVSPost2010PropOp54
 70
     1
102
RTVSPost2010Prop55
280
     0
102
RTVSPost2010PropOp55
 70
     1
102
RTVSPost2010Prop56
140
1.0
102
RTVSPost2010PropOp56
 70
     1
102
RTVSPost2010Prop57
140
1.0
102
RTVSPost2010PropOp57
 70
     1
102
RTVSPropertyOp0
 70
     1
102
RTVSPropertyOp1
 70
     1
102
RTVSPropertyOp2
 70
     1
102
RTVSPropertyOp3
 70
     1
102
RTVSPropertyOp4
 70
     1
102
RTVSPropertyOp5
 70
     1
102
RTVSPropertyOp6
 70
     1
102
RTVSPropertyOp7
 70
     1
102
RTVSPropertyOp8
 70
     1
102
RTVSPropertyOp9
 70
     1
102
RTVSPropertyOp10
 70
     1
102
RTVSPropertyOp11
 70
     1
102
RTVSPropertyOp12
 70
     1
102
RTVSPropertyOp13
 70
     1
102
RTVSPropertyOp14
 70
     1
102
RTVSPropertyOp15
 70
     1
102
RTVSPropertyOp16
 70
     1
102
RTVSPropertyOp17
 70
     1
102
RTVSPropertyOp18
 70
     1
102
RTVSPropertyOp19
 70
     1
102
RTVSPropertyOp20
 70
     1
102
RTVSPropertyOp21
 70
     1
102
RTVSPropertyOp22
 70
     1
102
RTVSPropertyOp23
 70
     1
102
RTVSPropertyOp24
 70
     1
102
RTVSPropertyOp25
 70
     1
102
RTVSPropertyOp26
 70
     1
102
RTVSPropertyOp27
 70
     1
102
RTVSPropertyOp28
 70
     1
102
RTVSPropertyOp29
 70
     1
102
RTVSPropertyOp30
 70
     1
102
RTVSPropertyOp31
 70
     1
102
RTVSPropertyOp32
 70
     1
102
RTVSPropertyOp33
 70
     1
102
RTVSPropertyOp34
 70
     1
102
RTVSPropertyOp35
 70
     1
102
RTVSPropertyOp36
 70
     1
102
RTVSPropertyOp37
 70
     1
102
RTVSPropertyOp38
 70
     1
102
RTVSPropertyOp39
 70
     1
102
RTVSPropertyOp40
 70
     1
102
RTVSPropertyOp41
 70
     1
102
RTVSPropertyOp42
 70
     1
102
RTVSPropertyOp43
 70
     1
102
RTVSPropertyOp44
 70
     1
102
RTVSPropertyOp45
 70
     1
102
RTVSPropertyOp46
 70
     1
102
RTVSPropertyOp47
 70
     1
102
RTVSPropertyOp48
 70
     1
102
RTVSPropertyOp49
 70
     1
102
RTVSPropertyOp50
 70
     1
102
RTVSPropertyOp51
 70
     0
102
RTVSPropertyOp52
 70
     0
102
RTVSPropertyOp53
 70
     1
102
RTVSPropertyOp54
 70
     1
102
RTVSPropertyOp55
 70
     1
102
RTVSPropertyOp56
 70
     1
102
RTVSPropertyOp57
 70
     1
102
RTVSPropertyOp58
 70
     1
102
RTVSPropertyOp59
 70
     1
102
RTVSPropertyOp60
 70
     1
102
RTVSPropertyOp61
 70
     1
102
RTVSPropertyOp62
 70
     1
  0
XRECORD
  5
20E36
102
{ACAD_REACTORS
330
20E35
102
}
330
20E35
100
AcDbXrecord
280
     1
102
RTVSPost2010Prop28
280
     0
102
RTVSPost2010PropOp28
 70
     1
102
RTVSPost2010Prop29
280
     1
102
RTVSPost2010PropOp29
 70
     1
102
RTVSPost2010Prop30
280
     1
102
RTVSPost2010PropOp30
 70
     1
102
RTVSPost2010Prop31
280
     0
102
RTVSPost2010PropOp31
 70
     1
102
RTVSPost2010Prop32
280
     0
102
RTVSPost2010PropOp32
 70
     1
102
RTVSPost2010Prop33
280
     0
102
RTVSPost2010PropOp33
 70
     1
102
RTVSPost2010Prop34
280
     0
102
RTVSPost2010PropOp34
 70
     1
102
RTVSPost2010Prop35
280
     0
102
RTVSPost2010PropOp35
 70
     1
102
RTVSPost2010Prop36
280
     0
102
RTVSPost2010PropOp36
 70
     1
102
RTVSPost2010Prop37
 90
       50
102
RTVSPost2010PropOp37
 70
     1
102
RTVSPost2010Prop38
140
0.0
102
RTVSPost2010PropOp38
 70
     1
102
RTVSPost2010Prop39
140
1.0
102
RTVSPost2010PropOp39
 70
     1
102
RTVSPost2010Prop40
 90
        0
102
RTVSPost2010PropOp40
 70
     1
102
RTVSPost2010Prop41ColorIndex
 90
       18
102
RTVSPost2010Prop41ColorRGB
 90
        0
102
RTVSPost2010PropOp41
 70
     1
102
RTVSPost2010Prop42
 90
       50
102
RTVSPost2010PropOp42
 70
     1
102
RTVSPost2010Prop43
 90
        3
102
RTVSPost2010PropOp43
 70
     1
102
RTVSPost2010Prop44ColorIndex
 90
        5
102
RTVSPost2010Prop44ColorRGB
 90
      255
102
RTVSPost2010PropOp44
 70
     1
102
RTVSPost2010Prop45
280
     0
102
RTVSPost2010PropOp45
 70
     1
102
RTVSPost2010Prop46
 90
       50
102
RTVSPost2010PropOp46
 70
     1
102
RTVSPost2010Prop47
 90
       50
102
RTVSPost2010PropOp47
 70
     1
102
RTVSPost2010Prop48
 90
       50
102
RTVSPost2010PropOp48
 70
     1
102
RTVSPost2010Prop49
280
     0
102
RTVSPost2010PropOp49
 70
     1
102
RTVSPost2010Prop50
 90
       50
102
RTVSPost2010PropOp50
 70
     1
102
RTVSPost2010Prop51ColorIndex
 90
      256
102
RTVSPost2010Prop51ColorRGB
 90
-16777216
102
RTVSPost2010PropOp51
 70
     0
102
RTVSPost2010Prop52
140
1.0
102
RTVSPost2010PropOp52
 70
     0
102
RTVSPost2010Prop53
 90
        2
102
RTVSPost2010PropOp53
 70
     1
102
RTVSPost2010Prop54
  1
strokes_ogs.tif
102
RTVSPost2010PropOp54
 70
     1
102
RTVSPost2010Prop55
280
     0
102
RTVSPost2010PropOp55
 70
     1
102
RTVSPost2010Prop56
140
1.0
102
RTVSPost2010PropOp56
 70
     1
102
RTVSPost2010Prop57
140
1.0
102
RTVSPost2010PropOp57
 70
     1
102
RTVSPropertyOp0
 70
     1
102
RTVSPropertyOp1
 70
     1
102
RTVSPropertyOp2
 70
     1
102
RTVSPropertyOp3
 70
     1
102
RTVSPropertyOp4
 70
     1
102
RTVSPropertyOp5
 70
     1
102
RTVSPropertyOp6
 70
     1
102
RTVSPropertyOp7
 70
     1
102
RTVSPropertyOp8
 70
     1
102
RTVSPropertyOp9
 70
     1
102
RTVSPropertyOp10
 70
     1
102
RTVSPropertyOp11
 70
     1
102
RTVSPropertyOp12
 70
     1
102
RTVSPropertyOp13
 70
     1
102
RTVSPropertyOp14
 70
     1
102
RTVSPropertyOp15
 70
     1
102
RTVSPropertyOp16
 70
     1
102
RTVSPropertyOp17
 70
     1
102
RTVSPropertyOp18
 70
     1
102
RTVSPropertyOp19
 70
     1
102
RTVSPropertyOp20
 70
     1
102
RTVSPropertyOp21
 70
     1
102
RTVSPropertyOp22
 70
     1
102
RTVSPropertyOp23
 70
     1
102
RTVSPropertyOp24
 70
     1
102
RTVSPropertyOp25
 70
     1
102
RTVSPropertyOp26
 70
     1
102
RTVSPropertyOp27
 70
     1
102
RTVSPropertyOp28
 70
     1
102
RTVSPropertyOp29
 70
     1
102
RTVSPropertyOp30
 70
     1
102
RTVSPropertyOp31
 70
     1
102
RTVSPropertyOp32
 70
     1
102
RTVSPropertyOp33
 70
     1
102
RTVSPropertyOp34
 70
     1
102
RTVSPropertyOp35
 70
     1
102
RTVSPropertyOp36
 70
     1
102
RTVSPropertyOp37
 70
     1
102
RTVSPropertyOp38
 70
     1
102
RTVSPropertyOp39
 70
     1
102
RTVSPropertyOp40
 70
     1
102
RTVSPropertyOp41
 70
     1
102
RTVSPropertyOp42
 70
     1
102
RTVSPropertyOp43
 70
     1
102
RTVSPropertyOp44
 70
     1
102
RTVSPropertyOp45
 70
     1
102
RTVSPropertyOp46
 70
     1
102
RTVSPropertyOp47
 70
     1
102
RTVSPropertyOp48
 70
     1
102
RTVSPropertyOp49
 70
     1
102
RTVSPropertyOp50
 70
     1
102
RTVSPropertyOp51
 70
     0
102
RTVSPropertyOp52
 70
     0
102
RTVSPropertyOp53
 70
     1
102
RTVSPropertyOp54
 70
     1
102
RTVSPropertyOp55
 70
     1
102
RTVSPropertyOp56
 70
     1
102
RTVSPropertyOp57
 70
     1
102
RTVSPropertyOp58
 70
     1
102
RTVSPropertyOp59
 70
     1
102
RTVSPropertyOp60
 70
     1
102
RTVSPropertyOp61
 70
     1
102
RTVSPropertyOp62
 70
     1
  0
XRECORD
  5
20E3E
102
{ACAD_REACTORS
330
20E3D
102
}
330
20E3D
100
AcDbXrecord
280
     1
102
RTVSPost2010Prop28
280
     0
102
RTVSPost2010PropOp28
 70
     1
102
RTVSPost2010Prop29
280
     1
102
RTVSPost2010PropOp29
 70
     1
102
RTVSPost2010Prop30
280
     1
102
RTVSPost2010PropOp30
 70
     1
102
RTVSPost2010Prop31
280
     0
102
RTVSPost2010PropOp31
 70
     1
102
RTVSPost2010Prop32
280
     0
102
RTVSPost2010PropOp32
 70
     1
102
RTVSPost2010Prop33
280
     0
102
RTVSPost2010PropOp33
 70
     1
102
RTVSPost2010Prop34
280
     0
102
RTVSPost2010PropOp34
 70
     1
102
RTVSPost2010Prop35
280
     0
102
RTVSPost2010PropOp35
 70
     1
102
RTVSPost2010Prop36
280
     0
102
RTVSPost2010PropOp36
 70
     1
102
RTVSPost2010Prop37
 90
       50
102
RTVSPost2010PropOp37
 70
     1
102
RTVSPost2010Prop38
140
0.0
102
RTVSPost2010PropOp38
 70
     1
102
RTVSPost2010Prop39
140
1.0
102
RTVSPost2010PropOp39
 70
     1
102
RTVSPost2010Prop40
 90
        0
102
RTVSPost2010PropOp40
 70
     1
102
RTVSPost2010Prop41ColorIndex
 90
       18
102
RTVSPost2010Prop41ColorRGB
 90
        0
102
RTVSPost2010PropOp41
 70
     1
102
RTVSPost2010Prop42
 90
       50
102
RTVSPost2010PropOp42
 70
     1
102
RTVSPost2010Prop43
 90
        3
102
RTVSPost2010PropOp43
 70
     1
102
RTVSPost2010Prop44ColorIndex
 90
        5
102
RTVSPost2010Prop44ColorRGB
 90
      255
102
RTVSPost2010PropOp44
 70
     1
102
RTVSPost2010Prop45
280
     0
102
RTVSPost2010PropOp45
 70
     1
102
RTVSPost2010Prop46
 90
       50
102
RTVSPost2010PropOp46
 70
     1
102
RTVSPost2010Prop47
 90
       50
102
RTVSPost2010PropOp47
 70
     1
102
RTVSPost2010Prop48
 90
       50
102
RTVSPost2010PropOp48
 70
     1
102
RTVSPost2010Prop49
280
     0
102
RTVSPost2010PropOp49
 70
     1
102
RTVSPost2010Prop50
 90
       50
102
RTVSPost2010PropOp50
 70
     1
102
RTVSPost2010Prop51ColorIndex
 90
      256
102
RTVSPost2010Prop51ColorRGB
 90
-16777216
102
RTVSPost2010PropOp51
 70
     0
102
RTVSPost2010Prop52
140
1.0
102
RTVSPost2010PropOp52
 70
     0
102
RTVSPost2010Prop53
 90
        2
102
RTVSPost2010PropOp53
 70
     1
102
RTVSPost2010Prop54
  1
strokes_ogs.tif
102
RTVSPost2010PropOp54
 70
     1
102
RTVSPost2010Prop55
280
     0
102
RTVSPost2010PropOp55
 70
     1
102
RTVSPost2010Prop56
140
1.0
102
RTVSPost2010PropOp56
 70
     1
102
RTVSPost2010Prop57
140
1.0
102
RTVSPost2010PropOp57
 70
     1
102
RTVSPropertyOp0
 70
     1
102
RTVSPropertyOp1
 70
     1
102
RTVSPropertyOp2
 70
     1
102
RTVSPropertyOp3
 70
     1
102
RTVSPropertyOp4
 70
     1
102
RTVSPropertyOp5
 70
     1
102
RTVSPropertyOp6
 70
     1
102
RTVSPropertyOp7
 70
     1
102
RTVSPropertyOp8
 70
     1
102
RTVSPropertyOp9
 70
     1
102
RTVSPropertyOp10
 70
     1
102
RTVSPropertyOp11
 70
     1
102
RTVSPropertyOp12
 70
     1
102
RTVSPropertyOp13
 70
     1
102
RTVSPropertyOp14
 70
     1
102
RTVSPropertyOp15
 70
     1
102
RTVSPropertyOp16
 70
     1
102
RTVSPropertyOp17
 70
     1
102
RTVSPropertyOp18
 70
     1
102
RTVSPropertyOp19
 70
     1
102
RTVSPropertyOp20
 70
     1
102
RTVSPropertyOp21
 70
     1
102
RTVSPropertyOp22
 70
     1
102
RTVSPropertyOp23
 70
     1
102
RTVSPropertyOp24
 70
     1
102
RTVSPropertyOp25
 70
     1
102
RTVSPropertyOp26
 70
     1
102
RTVSPropertyOp27
 70
     1
102
RTVSPropertyOp28
 70
     1
102
RTVSPropertyOp29
 70
     1
102
RTVSPropertyOp30
 70
     1
102
RTVSPropertyOp31
 70
     1
102
RTVSPropertyOp32
 70
     1
102
RTVSPropertyOp33
 70
     1
102
RTVSPropertyOp34
 70
     1
102
RTVSPropertyOp35
 70
     1
102
RTVSPropertyOp36
 70
     1
102
RTVSPropertyOp37
 70
     1
102
RTVSPropertyOp38
 70
     1
102
RTVSPropertyOp39
 70
     1
102
RTVSPropertyOp40
 70
     1
102
RTVSPropertyOp41
 70
     1
102
RTVSPropertyOp42
 70
     1
102
RTVSPropertyOp43
 70
     1
102
RTVSPropertyOp44
 70
     1
102
RTVSPropertyOp45
 70
     1
102
RTVSPropertyOp46
 70
     1
102
RTVSPropertyOp47
 70
     1
102
RTVSPropertyOp48
 70
     1
102
RTVSPropertyOp49
 70
     1
102
RTVSPropertyOp50
 70
     1
102
RTVSPropertyOp51
 70
     0
102
RTVSPropertyOp52
 70
     0
102
RTVSPropertyOp53
 70
     1
102
RTVSPropertyOp54
 70
     1
102
RTVSPropertyOp55
 70
     1
102
RTVSPropertyOp56
 70
     1
102
RTVSPropertyOp57
 70
     1
102
RTVSPropertyOp58
 70
     1
102
RTVSPropertyOp59
 70
     1
102
RTVSPropertyOp60
 70
     1
102
RTVSPropertyOp61
 70
     1
102
RTVSPropertyOp62
 70
     1
  0
ENDSEC
  0
EOF
