  0
SECTION
  2
HEADER
  9
$ACADVER
  1
AC1018
  9
$ACADMAINTVER
 70
   104
  9
$DWGCODEPAGE
  3
ANSI_1252
  9
$LASTSAVEDBY
  1
kamerka
  9
$INSBASE
 10
0.0
 20
0.0
 30
0.0
  9
$EXTMIN
 10
-16.63189518990907
 20
-33.44009283399214
 30
-0.0000000349181948
  9
$EXTMAX
 10
41.71695051146321
 20
27.67822338696374
 30
0.0000000814935747
  9
$LIMMIN
 10
-170.0
 20
-170.0
  9
$LIMMAX
 10
519.0
 20
260.0
  9
$ORTHOMODE
 70
     0
  9
$REGENMODE
 70
     1
  9
$FILLMODE
 70
     1
  9
$QTEXTMODE
 70
     0
  9
$MIRRTEXT
 70
     0
  9
$LTSCALE
 40
1.0
  9
$ATTMODE
 70
     1
  9
$TEXTSIZE
 40
3.5
  9
$TRACEWID
 40
1.0
  9
$TEXTSTYLE
  7
SIMPLEX
  9
$CLAYER
  8
0
  9
$CELTYPE
  6
BYLAYER
  9
$CECOLOR
 62
   256
  9
$CELTSCALE
 40
1.0
  9
$DISPSILH
 70
     0
  9
$DIMSCALE
 40
1.0
  9
$DIMASZ
 40
2.5
  9
$DIMEXO
 40
0.0
  9
$DIMDLI
 40
3.75
  9
$DIMRND
 40
0.0
  9
$DIMDLE
 40
0.0
  9
$DIMEXE
 40
1.25
  9
$DIMTP
 40
0.0
  9
$DIMTM
 40
0.0
  9
$DIMTXT
 40
3.5
  9
$DIMCEN
 40
0.0
  9
$DIMTSZ
 40
0.0
  9
$DIMTOL
 70
     0
  9
$DIMLIM
 70
     0
  9
$DIMTIH
 70
     0
  9
$DIMTOH
 70
     0
  9
$DIMSE1
 70
     0
  9
$DIMSE2
 70
     0
  9
$DIMTAD
 70
     1
  9
$DIMZIN
 70
     8
  9
$DIMBLK
  1

  9
$DIMASO
 70
     1
  9
$DIMSHO
 70
     1
  9
$DIMPOST
  1

  9
$DIMAPOST
  1

  9
$DIMALT
 70
     0
  9
$DIMALTD
 70
     3
  9
$DIMALTF
 40
0.039370078
  9
$DIMLFAC
 40
1.0
  9
$DIMTOFL
 70
     0
  9
$DIMTVP
 40
0.0
  9
$DIMTIX
 70
     0
  9
$DIMSOXD
 70
     0
  9
$DIMSAH
 70
     0
  9
$DIMBLK1
  1

  9
$DIMBLK2
  1

  9
$DIMSTYLE
  2
STANDARD
  9
$DIMCLRD
 70
     0
  9
$DIMCLRE
 70
     0
  9
$DIMCLRT
 70
     0
  9
$DIMTFAC
 40
1.0
  9
$DIMGAP
 40
0.625
  9
$DIMJUST
 70
     0
  9
$DIMSD1
 70
     0
  9
$DIMSD2
 70
     0
  9
$DIMTOLJ
 70
     0
  9
$DIMTZIN
 70
     8
  9
$DIMALTZ
 70
     0
  9
$DIMALTTZ
 70
     0
  9
$DIMUPT
 70
     0
  9
$DIMDEC
 70
     2
  9
$DIMTDEC
 70
     2
  9
$DIMALTU
 70
     2
  9
$DIMALTTD
 70
     3
  9
$DIMTXSTY
  7
SIMPLEX
  9
$DIMAUNIT
 70
     0
  9
$DIMADEC
 70
     2
  9
$DIMALTRND
 40
0.0
  9
$DIMAZIN
 70
     2
  9
$DIMDSEP
 70
    46
  9
$DIMATFIT
 70
     3
  9
$DIMFRAC
 70
     0
  9
$DIMLDRBLK
  1

  9
$DIMLUNIT
 70
     2
  9
$DIMLWD
 70
    -2
  9
$DIMLWE
 70
    -2
  9
$DIMTMOVE
 70
     0
  9
$LUNITS
 70
     2
  9
$LUPREC
 70
     4
  9
$SKETCHINC
 40
1.0
  9
$FILLETRAD
 40
1.5
  9
$AUNITS
 70
     0
  9
$AUPREC
 70
     0
  9
$MENU
  1
c:\tdm21\cad\caduti13\tdm13
  9
$ELEVATION
 40
0.0
  9
$PELEVATION
 40
0.0
  9
$THICKNESS
 40
0.0
  9
$LIMCHECK
 70
     0
  9
$CHAMFERA
 40
0.0
  9
$CHAMFERB
 40
0.0
  9
$CHAMFERC
 40
0.0
  9
$CHAMFERD
 40
0.0
  9
$SKPOLY
 70
     0
  9
$TDCREATE
 40
2455236.467077327
  9
$TDUCREATE
 40
2455236.383743993
  9
$TDUPDATE
 40
2456835.576903090
  9
$TDUUPDATE
 40
2456835.493569757
  9
$TDINDWG
 40
0.0111113773
  9
$TDUSRTIMER
 40
0.0111110069
  9
$USRTIMER
 70
     1
  9
$ANGBASE
 50
0.0
  9
$ANGDIR
 70
     0
  9
$PDMODE
 70
     1
  9
$PDSIZE
 40
0.0
  9
$PLINEWID
 40
0.0
  9
$SPLFRAME
 70
     0
  9
$SPLINETYPE
 70
     6
  9
$SPLINESEGS
 70
     8
  9
$HANDSEED
  5
9FD
  9
$SURFTAB1
 70
     6
  9
$SURFTAB2
 70
     6
  9
$SURFTYPE
 70
     6
  9
$SURFU
 70
     6
  9
$SURFV
 70
     6
  9
$UCSBASE
  2

  9
$UCSNAME
  2

  9
$UCSORG
 10
0.0
 20
0.0
 30
0.0
  9
$UCSXDIR
 10
1.0
 20
0.0
 30
0.0
  9
$UCSYDIR
 10
0.0
 20
1.0
 30
0.0
  9
$UCSORTHOREF
  2

  9
$UCSORTHOVIEW
 70
     0
  9
$UCSORGTOP
 10
0.0
 20
0.0
 30
0.0
  9
$UCSORGBOTTOM
 10
0.0
 20
0.0
 30
0.0
  9
$UCSORGLEFT
 10
0.0
 20
0.0
 30
0.0
  9
$UCSORGRIGHT
 10
0.0
 20
0.0
 30
0.0
  9
$UCSORGFRONT
 10
0.0
 20
0.0
 30
0.0
  9
$UCSORGBACK
 10
0.0
 20
0.0
 30
0.0
  9
$PUCSBASE
  2

  9
$PUCSNAME
  2

  9
$PUCSORG
 10
0.0
 20
0.0
 30
0.0
  9
$PUCSXDIR
 10
1.0
 20
0.0
 30
0.0
  9
$PUCSYDIR
 10
0.0
 20
1.0
 30
0.0
  9
$PUCSORTHOREF
  2

  9
$PUCSORTHOVIEW
 70
     0
  9
$PUCSORGTOP
 10
0.0
 20
0.0
 30
0.0
  9
$PUCSORGBOTTOM
 10
0.0
 20
0.0
 30
0.0
  9
$PUCSORGLEFT
 10
0.0
 20
0.0
 30
0.0
  9
$PUCSORGRIGHT
 10
0.0
 20
0.0
 30
0.0
  9
$PUCSORGFRONT
 10
0.0
 20
0.0
 30
0.0
  9
$PUCSORGBACK
 10
0.0
 20
0.0
 30
0.0
  9
$USERI1
 70
     0
  9
$USERI2
 70
     0
  9
$USERI3
 70
     0
  9
$USERI4
 70
     0
  9
$USERI5
 70
     0
  9
$USERR1
 40
0.0
  9
$USERR2
 40
0.0
  9
$USERR3
 40
0.0
  9
$USERR4
 40
0.0
  9
$USERR5
 40
0.0
  9
$WORLDVIEW
 70
     1
  9
$SHADEDGE
 70
     3
  9
$SHADEDIF
 70
    70
  9
$TILEMODE
 70
     1
  9
$MAXACTVP
 70
    64
  9
$PINSBASE
 10
0.0
 20
0.0
 30
0.0
  9
$PLIMCHECK
 70
     0
  9
$PEXTMIN
 10
0.0
 20
0.0
 30
0.0
  9
$PEXTMAX
 10
0.0
 20
0.0
 30
0.0
  9
$PLIMMIN
 10
0.0
 20
0.0
  9
$PLIMMAX
 10
12.0
 20
9.0
  9
$UNITMODE
 70
     0
  9
$VISRETAIN
 70
     0
  9
$PLINEGEN
 70
     0
  9
$PSLTSCALE
 70
     1
  9
$TREEDEPTH
 70
  3020
  9
$CMLSTYLE
  2
STANDARD
  9
$CMLJUST
 70
     0
  9
$CMLSCALE
 40
20.0
  9
$PROXYGRAPHICS
 70
     1
  9
$MEASUREMENT
 70
     1
  9
$CELWEIGHT
370
    -1
  9
$ENDCAPS
280
     0
  9
$JOINSTYLE
280
     0
  9
$LWDISPLAY
290
     0
  9
$INSUNITS
 70
     4
  9
$HYPERLINKBASE
  1

  9
$STYLESHEET
  1
MONOCHROME.CTB
  9
$XEDIT
290
     1
  9
$CEPSNTYPE
380
     0
  9
$PSTYLEMODE
290
     1
  9
$FINGERPRINTGUID
  2
{7BC11D9D-9F2B-48E9-9C98-6CC4F88E6C2F}
  9
$VERSIONGUID
  2
{9D1D3372-D311-4FD6-AF10-C8F07279C2A5}
  9
$EXTNAMES
290
     1
  9
$PSVPSCALE
 40
0.0
  9
$OLESTARTUP
290
     0
  9
$SORTENTS
280
   127
  9
$INDEXCTL
280
     0
  9
$HIDETEXT
280
     1
  9
$XCLIPFRAME
290
     0
  9
$HALOGAP
280
     0
  9
$OBSCOLOR
 70
   257
  9
$OBSLTYPE
280
     0
  9
$INTERSECTIONDISPLAY
280
     0
  9
$INTERSECTIONCOLOR
 70
   257
  9
$DIMASSOC
280
     2
  9
$PROJECTNAME
  1

  0
ENDSEC
  0
SECTION
  2
CLASSES
  0
CLASS
  1
ACDBDICTIONARYWDFLT
  2
AcDbDictionaryWithDefault
  3
ObjectDBX Classes
 90
        0
 91
        1
280
     0
281
     0
  0
CLASS
  1
DICTIONARYVAR
  2
AcDbDictionaryVar
  3
ObjectDBX Classes
 90
        0
 91
       10
280
     0
281
     0
  0
CLASS
  1
TABLESTYLE
  2
AcDbTableStyle
  3
ObjectDBX Classes
 90
     4095
 91
        1
280
     0
281
     0
  0
CLASS
  1
MATERIAL
  2
AcDbMaterial
  3
ObjectDBX Classes
 90
     1153
 91
        3
280
     0
281
     0
  0
CLASS
  1
VISUALSTYLE
  2
AcDbVisualStyle
  3
ObjectDBX Classes
 90
     4095
 91
       26
280
     0
281
     0
  0
CLASS
  1
SCALE
  2
AcDbScale
  3
ObjectDBX Classes
 90
     1153
 91
       33
280
     0
281
     0
  0
CLASS
  1
MLEADERSTYLE
  2
AcDbMLeaderStyle
  3
ACDB_MLEADERSTYLE_CLASS
 90
     4095
 91
        1
280
     0
281
     0
  0
CLASS
  1
CELLSTYLEMAP
  2
AcDbCellStyleMap
  3
ObjectDBX Classes
 90
     1152
 91
        2
280
     0
281
     0
  0
CLASS
  1
SORTENTSTABLE
  2
AcDbSortentsTable
  3
ObjectDBX Classes
 90
        0
 91
        3
280
     0
281
     0
  0
CLASS
  1
DIMASSOC
  2
AcDbDimAssoc
  3
"AcDbDimAssoc|Product Desc:     AcDim ARX App For Dimension|Company:          Autodesk, Inc.|WEB Address:      www.autodesk.com"
 90
        0
 91
        2
280
     0
281
     0
  0
CLASS
  1
ACAD_EVALUATION_GRAPH
  2
AcDbEvalGraph
  3
ObjectDBX Classes
 90
     1153
 91
        0
280
     0
281
     0
  0
CLASS
  1
ACAECUSTOBJ
  2
AcAeEditorObj
  3
AcAeEditorObj
 90
     1024
 91
        0
280
     0
281
     0
  0
CLASS
  1
ACDB_DYNAMICBLOCKPURGEPREVENTER_VERSION
  2
AcDbDynamicBlockPurgePreventer
  3
ObjectDBX Classes
 90
     1153
 91
        0
280
     0
281
     0
  0
ENDSEC
  0
SECTION
  2
TABLES
  0
TABLE
  2
VPORT
  5
8
330
0
100
AcDbSymbolTable
 70
     1
  0
VPORT
  5
3ED
330
8
100
AcDbSymbolTableRecord
100
AcDbViewportTableRecord
  2
*Active
 70
     0
 10
0.0
 20
0.0
 11
1.0
 21
1.0
 12
12.54252766077707
 22
-2.880934723514201
 13
0.0
 23
0.0
 14
5.0
 24
5.0
 15
5.0
 25
5.0
 16
0.0
 26
0.0
 36
1.0
 17
0.0
 27
0.0
 37
0.0
 40
61.68862710326651
 41
1.922118380062305
 42
50.0
 43
0.0
 44
0.0
 50
0.0
 51
0.0
 71
     0
 72
  2000
 73
     1
 74
     3
 75
     0
 76
     0
 77
     0
 78
     0
281
     0
 65
     1
110
0.0
120
0.0
130
0.0
111
1.0
121
0.0
131
0.0
112
0.0
122
1.0
132
0.0
 79
     0
146
0.0
1001
ACAD_NAV_VCDISPLAY
1070
     3
  0
ENDTAB
  0
TABLE
  2
LTYPE
  5
5
330
0
100
AcDbSymbolTable
 70
     3
  0
LTYPE
  5
12
330
5
100
AcDbSymbolTableRecord
100
AcDbLinetypeTableRecord
  2
BYBLOCK
 70
     0
  3

 72
    65
 73
     0
 40
0.0
  0
LTYPE
  5
13
330
5
100
AcDbSymbolTableRecord
100
AcDbLinetypeTableRecord
  2
BYLAYER
 70
     0
  3

 72
    65
 73
     0
 40
0.0
  0
LTYPE
  5
14
330
5
100
AcDbSymbolTableRecord
100
AcDbLinetypeTableRecord
  2
CONTINUOUS
 70
     0
  3
Solid line
 72
    65
 73
     0
 40
0.0
  0
LTYPE
  5
20
330
5
100
AcDbSymbolTableRecord
100
AcDbLinetypeTableRecord
  2
HIDDEN
 70
     0
  3
Hidden __ __ __ __ __ __ __ __ __ __ __ __ __ _
 72
    65
 73
     2
 40
9.524999999999996
 49
6.349999999999998
 74
     0
 49
-3.174999999999998
 74
     0
  0
LTYPE
  5
351
330
5
100
AcDbSymbolTableRecord
100
AcDbLinetypeTableRecord
  2
CENTER
 70
     0
  3
Dash dot __ . __ . __ . __ . __ . __ . __ . __
 72
    65
 73
     4
 40
25.4
 49
12.7
 74
     0
 49
-6.349999999999998
 74
     0
 49
0.0
 74
     0
 49
-6.349999999999998
 74
     0
  0
ENDTAB
  0
TABLE
  2
LAYER
  5
2
102
{ACAD_XDICTIONARY
360
451
102
}
330
0
100
AcDbSymbolTable
 70
    16
  0
LAYER
  5
F
102
{ACAD_XDICTIONARY
360
7F3
102
}
330
2
100
AcDbSymbolTableRecord
100
AcDbLayerTableRecord
  2
0
 70
     0
 62
     7
  6
CONTINUOUS
370
    -3
390
300
  0
LAYER
  5
23
102
{ACAD_XDICTIONARY
360
7F5
102
}
330
2
100
AcDbSymbolTableRecord
100
AcDbLayerTableRecord
  2
1
 70
     0
 62
     4
  6
CONTINUOUS
370
    -3
390
300
  0
LAYER
  5
24
102
{ACAD_XDICTIONARY
360
7F7
102
}
330
2
100
AcDbSymbolTableRecord
100
AcDbLayerTableRecord
  2
SK1
 70
     0
 62
     4
  6
CONTINUOUS
370
    -3
390
300
  0
LAYER
  5
25
102
{ACAD_XDICTIONARY
360
7F9
102
}
330
2
100
AcDbSymbolTableRecord
100
AcDbLayerTableRecord
  2
2
 70
     0
 62
     7
  6
CONTINUOUS
370
    -3
390
300
  0
LAYER
  5
27
102
{ACAD_XDICTIONARY
360
7FB
102
}
330
2
100
AcDbSymbolTableRecord
100
AcDbLayerTableRecord
  2
SK2
 70
     0
 62
     7
  6
CONTINUOUS
370
    -3
390
300
  0
LAYER
  5
2A
102
{ACAD_XDICTIONARY
360
7FD
102
}
330
2
100
AcDbSymbolTableRecord
100
AcDbLayerTableRecord
  2
4
 70
     0
 62
     2
  6
CENTER
370
    -3
390
300
  0
LAYER
  5
2B
102
{ACAD_XDICTIONARY
360
7FF
102
}
330
2
100
AcDbSymbolTableRecord
100
AcDbLayerTableRecord
  2
SK4
 70
     0
 62
     2
  6
CENTER
370
    -3
390
300
  0
LAYER
  5
2E
102
{ACAD_XDICTIONARY
360
801
102
}
330
2
100
AcDbSymbolTableRecord
100
AcDbLayerTableRecord
  2
SK6
 70
     0
 62
     5
  6
CONTINUOUS
370
    -3
390
300
  0
LAYER
  5
2F
330
2
100
AcDbSymbolTableRecord
100
AcDbLayerTableRecord
  2
DEFPOINTS
 70
     0
 62
     7
  6
CONTINUOUS
290
     0
370
    -3
390
300
  0
LAYER
  5
375
102
{ACAD_XDICTIONARY
360
803
102
}
330
2
100
AcDbSymbolTableRecord
100
AcDbLayerTableRecord
  2
CUT
 70
     0
 62
     1
  6
CONTINUOUS
370
    -3
390
300
  0
LAYER
  5
376
102
{ACAD_XDICTIONARY
360
805
102
}
330
2
100
AcDbSymbolTableRecord
100
AcDbLayerTableRecord
  2
NOCUT
 70
     0
 62
     7
  6
CONTINUOUS
370
    -3
390
300
  0
LAYER
  5
479
102
{ACAD_XDICTIONARY
360
807
102
}
330
2
100
AcDbSymbolTableRecord
100
AcDbLayerTableRecord
  2
SKVIEW1
 70
     0
 62
     4
  6
CONTINUOUS
370
    -3
390
300
1001
AcAecLayerStandard
1000

1000

  0
LAYER
  5
47D
102
{ACAD_XDICTIONARY
360
809
102
}
330
2
100
AcDbSymbolTableRecord
100
AcDbLayerTableRecord
  2
SKVIEW2
 70
     0
 62
     7
  6
CONTINUOUS
370
    -3
390
300
1001
AcAecLayerStandard
1000

1000

  0
LAYER
  5
47E
102
{ACAD_XDICTIONARY
360
80B
102
}
330
2
100
AcDbSymbolTableRecord
100
AcDbLayerTableRecord
  2
SKVIEW3
 70
     0
 62
     1
  6
HIDDEN
370
    -3
390
300
1001
AcAecLayerStandard
1000

1000

  0
LAYER
  5
47F
102
{ACAD_XDICTIONARY
360
80D
102
}
330
2
100
AcDbSymbolTableRecord
100
AcDbLayerTableRecord
  2
SKVIEW4
 70
     0
 62
     2
  6
CENTER
370
    -3
390
300
1001
AcAecLayerStandard
1000

1000

  0
LAYER
  5
49B
102
{ACAD_XDICTIONARY
360
80F
102
}
330
2
100
AcDbSymbolTableRecord
100
AcDbLayerTableRecord
  2
INFTOTAL
 70
     0
 62
     9
  6
CONTINUOUS
370
    18
390
300
1001
AcAecLayerStandard
1000

1000

  0
ENDTAB
  0
TABLE
  2
STYLE
  5
3
330
0
100
AcDbSymbolTable
 70
     2
  0
STYLE
  5
10
330
3
100
AcDbSymbolTableRecord
100
AcDbTextStyleTableRecord
  2
STANDARD
 70
     0
 40
0.0
 41
1.0
 50
0.0
 71
     0
 42
5.0
  3
txt
  4

  0
STYLE
  5
1E
330
3
100
AcDbSymbolTableRecord
100
AcDbTextStyleTableRecord
  2
SIMPLEX
 70
     0
 40
0.0
 41
1.0
 50
0.0
 71
     0
 42
3.5
  3
simplex
  4

  0
ENDTAB
  0
TABLE
  2
VIEW
  5
6
330
0
100
AcDbSymbolTable
 70
     0
  0
ENDTAB
  0
TABLE
  2
UCS
  5
7
330
0
100
AcDbSymbolTable
 70
     0
  0
ENDTAB
  0
TABLE
  2
APPID
  5
9
330
0
100
AcDbSymbolTable
 70
    14
  0
APPID
  5
11
330
9
100
AcDbSymbolTableRecord
100
AcDbRegAppTableRecord
  2
ACAD
 70
     0
  0
APPID
  5
3A6
330
9
100
AcDbSymbolTableRecord
100
AcDbRegAppTableRecord
  2
ACAD_PSEXT
 70
     0
  0
APPID
  5
3A8
330
9
100
AcDbSymbolTableRecord
100
AcDbRegAppTableRecord
  2
ACAD_EXEMPT_FROM_CAD_STANDARDS
 70
     0
  0
APPID
  5
43E
330
9
100
AcDbSymbolTableRecord
100
AcDbRegAppTableRecord
  2
ACAD_MLEADERVER
 70
     0
  0
APPID
  5
460
330
9
100
AcDbSymbolTableRecord
100
AcDbRegAppTableRecord
  2
ACAD_DSTYLE_DIMJAG
 70
     0
  0
APPID
  5
461
330
9
100
AcDbSymbolTableRecord
100
AcDbRegAppTableRecord
  2
ACAD_DSTYLE_DIMBREAK
 70
     0
  0
APPID
  5
462
330
9
100
AcDbSymbolTableRecord
100
AcDbRegAppTableRecord
  2
ACAD_DSTYLE_DIMTALN
 70
     0
  0
APPID
  5
47A
330
9
100
AcDbSymbolTableRecord
100
AcDbRegAppTableRecord
  2
AcAecLayerStandard
 70
     0
  0
APPID
  5
527
330
9
100
AcDbSymbolTableRecord
100
AcDbRegAppTableRecord
  2
AcDbDynamicBlockGUID
 70
     0
  0
APPID
  5
528
330
9
100
AcDbSymbolTableRecord
100
AcDbRegAppTableRecord
  2
AcDbBlockRepETag
 70
     0
  0
APPID
  5
529
330
9
100
AcDbSymbolTableRecord
100
AcDbRegAppTableRecord
  2
ACAD_DSTYLE_DIMRADIAL_EXTENSION
 70
     0
  0
APPID
  5
845
330
9
100
AcDbSymbolTableRecord
100
AcDbRegAppTableRecord
  2
ACAUTHENVIRON
 70
     0
  0
APPID
  5
84B
330
9
100
AcDbSymbolTableRecord
100
AcDbRegAppTableRecord
  2
AcDbDynamicBlockTrueName
 70
     0
  0
APPID
  5
9C5
330
9
100
AcDbSymbolTableRecord
100
AcDbRegAppTableRecord
  2
ACAD_NAV_VCDISPLAY
 70
     0
  0
ENDTAB
  0
TABLE
  2
DIMSTYLE
  5
A
330
0
100
AcDbSymbolTable
 70
     1
100
AcDbDimStyleTable
 71
     1
340
3F
  0
DIMSTYLE
105
3F
102
{ACAD_REACTORS
330
8BF
330
729
330
726
330
720
102
}
330
A
100
AcDbSymbolTableRecord
100
AcDbDimStyleTableRecord
  2
STANDARD
 70
     0
 41
2.5
 42
0.0
 43
3.75
 44
1.25
 73
     0
 74
     0
 77
     1
 78
     8
 79
     2
140
3.5
141
0.0
143
0.039370078
147
0.625
171
     3
179
     2
271
     2
272
     2
274
     3
283
     0
284
     8
340
1E
  0
ENDTAB
  0
TABLE
  2
BLOCK_RECORD
  5
1
330
0
100
AcDbSymbolTable
 70
     8
  0
BLOCK_RECORD
  5
18
102
{ACAD_XDICTIONARY
360
8BD
102
}
330
1
100
AcDbSymbolTableRecord
100
AcDbBlockTableRecord
  2
*MODEL_SPACE
340
303
  0
BLOCK_RECORD
  5
338
330
1
100
AcDbSymbolTableRecord
100
AcDbBlockTableRecord
  2
*Paper_Space
340
33B
  0
BLOCK_RECORD
  5
4A6
102
{ACAD_XDICTIONARY
360
846
102
}
330
1
100
AcDbSymbolTableRecord
100
AcDbBlockTableRecord
  2
CUT
340
0
310
2800000020000000200000000100080000000000000400000000000000000000000000000000000000000000000080000080000000808000800000008000800080800000C0C0C000C0DCC000F0CAA6000020400000206000002080000020A0000020C0000020E00000400000004020000040400000406000004080000040A0
310
000040C0000040E00000600000006020000060400000606000006080000060A0000060C0000060E00000800000008020000080400000806000008080000080A0000080C0000080E00000A0000000A0200000A0400000A0600000A0800000A0A00000A0C00000A0E00000C0000000C0200000C0400000C0600000C0800000C0
310
A00000C0C00000C0E00000E0000000E0200000E0400000E0600000E0800000E0A00000E0C00000E0E00040000000400020004000400040006000400080004000A0004000C0004000E00040200000402020004020400040206000402080004020A0004020C0004020E000404000004040200040404000404060004040800040
310
40A0004040C0004040E00040600000406020004060400040606000406080004060A0004060C0004060E00040800000408020004080400040806000408080004080A0004080C0004080E00040A0000040A0200040A0400040A0600040A0800040A0A00040A0C00040A0E00040C0000040C0200040C0400040C0600040C08000
310
40C0A00040C0C00040C0E00040E0000040E0200040E0400040E0600040E0800040E0A00040E0C00040E0E00080000000800020008000400080006000800080008000A0008000C0008000E00080200000802020008020400080206000802080008020A0008020C0008020E00080400000804020008040400080406000804080
310
008040A0008040C0008040E00080600000806020008060400080606000806080008060A0008060C0008060E00080800000808020008080400080806000808080008080A0008080C0008080E00080A0000080A0200080A0400080A0600080A0800080A0A00080A0C00080A0E00080C0000080C0200080C0400080C0600080C0
310
800080C0A00080C0C00080C0E00080E0000080E0200080E0400080E0600080E0800080E0A00080E0C00080E0E000C0000000C0002000C0004000C0006000C0008000C000A000C000C000C000E000C0200000C0202000C0204000C0206000C0208000C020A000C020C000C020E000C0400000C0402000C0404000C0406000C0
310
408000C040A000C040C000C040E000C0600000C0602000C0604000C0606000C0608000C060A000C060C000C060E000C0800000C0802000C0804000C0806000C0808000C080A000C080C000C080E000C0A00000C0A02000C0A04000C0A06000C0A08000C0A0A000C0A0C000C0A0E000C0C00000C0C02000C0C04000C0C06000
310
C0C08000C0C0A000F0FBFF00A4A0A000808080000000FF0000FF000000FFFF00FF000000FF00FF00FFFF0000FFFFFF000000000000000000000000000000000000000000000000000000000000000000000000000000F9F9F9F9F9F9F9F9F9F9F9F9F9F9F9F9F9F9F9F9F90000000000000000000000F90000000000000000
310
0000000000000000000000F90000000000000000000000F900000000000000000000000000000000000000F90000000000000000000000F900000000000000000000000000000000000000F90000000000000000000000F900000000000000000000000000000000000000F90000000000000000000000F900000000000000
310
000000000000000000000000F90000000000000000000000F900000000000000000000000000000000000000F90000000000000000000000F900000000000000000000000000000000000000F90000000000000000000000F900000000000000000000000000000000000000F90000000000000000000000F9000000000000
310
00000000000000000000000000F90000000000000000000000F900000000000000000000000000000000000000F900000000000000000000F90000000000000000000000000000000000000000F900000000000000000000F90000000000000000000000000000000000000000F900000000000000000000F9000000000000
310
0000000000000000000000000000F900000000000000000000F90000000000000000000000000000000000000000F900000000000000000000F90000000000000000000000000000000000000000F900000000000000000000F90000000000000000000000000000000000000000F900000000000000000000F90000000000
310
000000000000000000000000000000F900000000000000000000F90000000000000000000000000000000000000000F900000000000000000000F90000000000000000000000000000000000000000F900000000000000000000F90000000000000000000000000000000000000000F900000000000000000000F900000000
310
00000000000000000000000000000000F900000000000000000000F90000000000000000000000000000000000000000F900000000000000000000F90000000000000000000000000000000000000000F9000000000000000000F900000000000000000000000000000000000000000000F90000000000000000F900000000
310
000000000000000000000000000000000000F90000000000000000F900000000000000000000000000000000000000000000F90000000000000000F900000000000000000000000000000000000000000000F9000000000000000000F90000000000000000000000000000000000000000F90000000000000000000000F9F9
310
F9F9F9F9F9F9F9F9F9F9F9F9F9F9F9F9F9F90000000000000000000000000000000000000000000000000000000000000000000000000000
102
{BLKREFS
331
71E
102
}
1001
AcDbDynamicBlockGUID
1000
{DB1B3D97-D494-46CC-B42B-BB7ACBA79391}
1001
AcDbBlockRepETag
1070
     1
1071
       10
1001
ACAD
1000
DesignCenter Data
1002
{
1070
     1
1070
     4
1002
}
  0
BLOCK_RECORD
  5
4B9
102
{ACAD_XDICTIONARY
360
8B9
102
}
330
1
100
AcDbSymbolTableRecord
100
AcDbBlockTableRecord
  2
NOCUT
340
0
310
2800000020000000200000000100080000000000000400000000000000000000000000000000000000000000000080000080000000808000800000008000800080800000C0C0C000C0DCC000F0CAA6000020400000206000002080000020A0000020C0000020E00000400000004020000040400000406000004080000040A0
310
000040C0000040E00000600000006020000060400000606000006080000060A0000060C0000060E00000800000008020000080400000806000008080000080A0000080C0000080E00000A0000000A0200000A0400000A0600000A0800000A0A00000A0C00000A0E00000C0000000C0200000C0400000C0600000C0800000C0
310
A00000C0C00000C0E00000E0000000E0200000E0400000E0600000E0800000E0A00000E0C00000E0E00040000000400020004000400040006000400080004000A0004000C0004000E00040200000402020004020400040206000402080004020A0004020C0004020E000404000004040200040404000404060004040800040
310
40A0004040C0004040E00040600000406020004060400040606000406080004060A0004060C0004060E00040800000408020004080400040806000408080004080A0004080C0004080E00040A0000040A0200040A0400040A0600040A0800040A0A00040A0C00040A0E00040C0000040C0200040C0400040C0600040C08000
310
40C0A00040C0C00040C0E00040E0000040E0200040E0400040E0600040E0800040E0A00040E0C00040E0E00080000000800020008000400080006000800080008000A0008000C0008000E00080200000802020008020400080206000802080008020A0008020C0008020E00080400000804020008040400080406000804080
310
008040A0008040C0008040E00080600000806020008060400080606000806080008060A0008060C0008060E00080800000808020008080400080806000808080008080A0008080C0008080E00080A0000080A0200080A0400080A0600080A0800080A0A00080A0C00080A0E00080C0000080C0200080C0400080C0600080C0
310
800080C0A00080C0C00080C0E00080E0000080E0200080E0400080E0600080E0800080E0A00080E0C00080E0E000C0000000C0002000C0004000C0006000C0008000C000A000C000C000C000E000C0200000C0202000C0204000C0206000C0208000C020A000C020C000C020E000C0400000C0402000C0404000C0406000C0
310
408000C040A000C040C000C040E000C0600000C0602000C0604000C0606000C0608000C060A000C060C000C060E000C0800000C0802000C0804000C0806000C0808000C080A000C080C000C080E000C0A00000C0A02000C0A04000C0A06000C0A08000C0A0A000C0A0C000C0A0E000C0C00000C0C02000C0C04000C0C06000
310
C0C08000C0C0A000F0FBFF00A4A0A000808080000000FF0000FF000000FFFF00FF000000FF00FF00FFFF0000FFFFFF00000000000000000000000000000000000000000000000000000000000000000000000000000000FFFFFFFFFFFFFFFFFFFFFFFFFFFFFFFFFFFF0000000000000000000000000000FF00000000000000
310
000000000000000000FF0000000000000000000000000000FF00000000000000000000000000000000FF0000000000000000000000000000FF00000000000000000000000000000000FF0000000000000000000000000000FF00000000000000000000000000000000FF0000000000000000000000000000FF000000000000
310
000000000000000000FF000000000000000000000000000000FF000000000000000000000000000000FF000000000000000000000000000000FF000000000000000000000000000000FF000000000000000000000000000000FF000000000000000000000000000000FF000000000000000000000000000000FF0000000000
310
00000000000000000000FF000000000000000000000000000000FF000000000000000000000000000000FF000000000000000000000000000000FF000000000000000000000000000000FF000000000000000000000000000000FF000000000000000000000000000000FF000000000000000000000000000000FF00000000
310
00000000000000000000FF00000000000000000000000000000000FF0000000000000000000000000000FF00000000000000000000000000000000FF0000000000000000000000000000FF00000000000000000000000000000000FF0000000000000000000000000000FF00000000000000000000000000000000FF000000
310
0000000000000000000000FF00000000000000000000000000000000FF0000000000000000000000000000FF00000000000000000000000000000000FF0000000000000000000000000000FF00000000000000000000000000000000FF000000000000000000000000000000FF000000000000000000000000000000FF0000
310
00000000000000000000000000FF000000000000000000000000000000FF000000000000000000000000000000FF000000000000000000000000000000FF000000000000000000000000000000FF000000000000000000000000000000FF000000000000000000000000000000FF000000000000000000000000000000FFFF
310
0000000000000000000000000000FF0000000000000000000000000000000000FF0000000000000000000000000000FF00000000000000000000000000000000FF0000000000000000000000000000FF00000000000000000000000000000000FF0000000000000000000000000000FF000000000000000000000000000000
310
00FFFFFFFFFFFFFFFFFFFFFFFFFFFFFFFF000000000000000000000000000000000000000000000000000000000000000000000000000000
102
{BLKREFS
331
71F
102
}
1001
AcDbDynamicBlockGUID
1000
{59C35E5F-CE50-4E4B-ACD8-462D1D6724B5}
1001
AcDbBlockRepETag
1070
     1
1071
        8
1001
ACAD
1000
DesignCenter Data
1002
{
1070
     1
1070
     4
1002
}
  0
BLOCK_RECORD
  5
4EF
330
1
100
AcDbSymbolTableRecord
100
AcDbBlockTableRecord
  2
CERO_POINT
340
0
310
2800000020000000200000000100080000000000000400000000000000000000000000000000000000000000000080000080000000808000800000008000800080800000C0C0C000C0DCC000F0CAA6000020400000206000002080000020A0000020C0000020E00000400000004020000040400000406000004080000040A0
310
000040C0000040E00000600000006020000060400000606000006080000060A0000060C0000060E00000800000008020000080400000806000008080000080A0000080C0000080E00000A0000000A0200000A0400000A0600000A0800000A0A00000A0C00000A0E00000C0000000C0200000C0400000C0600000C0800000C0
310
A00000C0C00000C0E00000E0000000E0200000E0400000E0600000E0800000E0A00000E0C00000E0E00040000000400020004000400040006000400080004000A0004000C0004000E00040200000402020004020400040206000402080004020A0004020C0004020E000404000004040200040404000404060004040800040
310
40A0004040C0004040E00040600000406020004060400040606000406080004060A0004060C0004060E00040800000408020004080400040806000408080004080A0004080C0004080E00040A0000040A0200040A0400040A0600040A0800040A0A00040A0C00040A0E00040C0000040C0200040C0400040C0600040C08000
310
40C0A00040C0C00040C0E00040E0000040E0200040E0400040E0600040E0800040E0A00040E0C00040E0E00080000000800020008000400080006000800080008000A0008000C0008000E00080200000802020008020400080206000802080008020A0008020C0008020E00080400000804020008040400080406000804080
310
008040A0008040C0008040E00080600000806020008060400080606000806080008060A0008060C0008060E00080800000808020008080400080806000808080008080A0008080C0008080E00080A0000080A0200080A0400080A0600080A0800080A0A00080A0C00080A0E00080C0000080C0200080C0400080C0600080C0
310
800080C0A00080C0C00080C0E00080E0000080E0200080E0400080E0600080E0800080E0A00080E0C00080E0E000C0000000C0002000C0004000C0006000C0008000C000A000C000C000C000E000C0200000C0202000C0204000C0206000C0208000C020A000C020C000C020E000C0400000C0402000C0404000C0406000C0
310
408000C040A000C040C000C040E000C0600000C0602000C0604000C0606000C0608000C060A000C060C000C060E000C0800000C0802000C0804000C0806000C0808000C080A000C080C000C080E000C0A00000C0A02000C0A04000C0A06000C0A08000C0A0A000C0A0C000C0A0E000C0C00000C0C02000C0C04000C0C06000
310
C0C08000C0C0A000F0FBFF00A4A0A000808080000000FF0000FF000000FFFF00FF000000FF00FF00FFFF0000FFFFFF00000000000000000000000000000000000000000000000000000000000000000000000000000000000000000000000000FF0000000000000000000000000000000000000000000000000000000000FF
310
FFFFFFFF000000000000000000000000000000000000000000FFFFFFFFFFFF0000FF0000FFFF00FF00000000000000000000000000000000FF00000000000000FFFFFF0000FFFFFFFF000000000000000000000000000000FF0000000000000000FF00FF0000FF00FFFF00000000000000000000000000FF00000000000000
310
0000FFFF00FF0000FF0000FFFF00000000000000000000FF000000000000000000FFFF00FF00FF0000FF0000FF000000000000000000FF0000000000000000000000FF0000FF00FF0000FF0000FF0000000000000000FF00000000000000000000FFFFFF0000FFFFFF0000FF00FFFF000000000000FF000000000000000000
310
000000FF00FF000000FFFF0000FF00FF0000000000FF00000000000000000000000000FFFF00FFFF0000FFFF0000FFFF0000000000FF000000000000000000000000FFFF00FF0000FF0000FFFF0000FF0000000000FF00000000000000000000000000FF0000FF0000FF0000FFFF0000FF00000000FF000000000000000000
310
000000FFFFFF0000FF0000FF0000FFFF00FF00000000FF00FF00000000FF0000FF00FF00FFFFFF0000FF0000FF0000FFFF00FF0000FFFFFFFFFFFFFFFFFFFFFFFFFFFFFFFFFFFFFFFFFFFFFFFFFFFFFFFFFFFF000000FF00FF00FF00FF0000FF0000FFFFFF00000000000000000000000000FF000000FF0000FF00FF00FF00
310
00FF0000FFFF000000000000000000000000FF00000000FFFF0000FF00FF00FF00FF000000FF000000000000000000000000FF00000000FF00FF0000FF00FF00FF00FF0000FF0000000000000000000000FF000000000000FF00FF0000FFFF0000FF00FF00FF0000000000000000000000FF000000000000FFFF00FF00FF00
310
FF0000FF00FFFF00000000000000000000FF0000000000000000FF0000FF00FF00FF0000FF00FF00000000000000000000FF000000000000000000FF0000FF00FF00FF0000FFFF000000000000000000FF0000000000000000000000FF0000FF00FF00FF0000FF000000000000000000FF000000000000000000000000FF00
310
00FF00FF00FF00FF00000000000000FFFF00000000000000000000000000FFFF0000FF00FF00FFFF0000000000FFFF00000000000000000000000000000000FFFFFFFFFF00FF00FF000000FFFF0000000000000000000000000000000000000000000000FFFFFFFFFFFFFF0000000000000000000000000000000000000000
310
0000000000000000FF0000000000000000000000000000000000000000000000000000000000000000000000000000000000000000000000
102
{BLKREFS
331
72C
102
}
1001
ACAD
1000
DesignCenter Data
1002
{
1070
     1
1070
     4
1002
}
  0
BLOCK_RECORD
  5
4F8
102
{ACAD_XDICTIONARY
360
4F9
102
}
330
1
100
AcDbSymbolTableRecord
100
AcDbBlockTableRecord
  2
ISCAR_LOGO
340
0
310
2800000020000000200000000100080000000000000400000000000000000000000000000000000000000000000080000080000000808000800000008000800080800000C0C0C000C0DCC000F0CAA6000020400000206000002080000020A0000020C0000020E00000400000004020000040400000406000004080000040A0
310
000040C0000040E00000600000006020000060400000606000006080000060A0000060C0000060E00000800000008020000080400000806000008080000080A0000080C0000080E00000A0000000A0200000A0400000A0600000A0800000A0A00000A0C00000A0E00000C0000000C0200000C0400000C0600000C0800000C0
310
A00000C0C00000C0E00000E0000000E0200000E0400000E0600000E0800000E0A00000E0C00000E0E00040000000400020004000400040006000400080004000A0004000C0004000E00040200000402020004020400040206000402080004020A0004020C0004020E000404000004040200040404000404060004040800040
310
40A0004040C0004040E00040600000406020004060400040606000406080004060A0004060C0004060E00040800000408020004080400040806000408080004080A0004080C0004080E00040A0000040A0200040A0400040A0600040A0800040A0A00040A0C00040A0E00040C0000040C0200040C0400040C0600040C08000
310
40C0A00040C0C00040C0E00040E0000040E0200040E0400040E0600040E0800040E0A00040E0C00040E0E00080000000800020008000400080006000800080008000A0008000C0008000E00080200000802020008020400080206000802080008020A0008020C0008020E00080400000804020008040400080406000804080
310
008040A0008040C0008040E00080600000806020008060400080606000806080008060A0008060C0008060E00080800000808020008080400080806000808080008080A0008080C0008080E00080A0000080A0200080A0400080A0600080A0800080A0A00080A0C00080A0E00080C0000080C0200080C0400080C0600080C0
310
800080C0A00080C0C00080C0E00080E0000080E0200080E0400080E0600080E0800080E0A00080E0C00080E0E000C0000000C0002000C0004000C0006000C0008000C000A000C000C000C000E000C0200000C0202000C0204000C0206000C0208000C020A000C020C000C020E000C0400000C0402000C0404000C0406000C0
310
408000C040A000C040C000C040E000C0600000C0602000C0604000C0606000C0608000C060A000C060C000C060E000C0800000C0802000C0804000C0806000C0808000C080A000C080C000C080E000C0A00000C0A02000C0A04000C0A06000C0A08000C0A0A000C0A0C000C0A0E000C0C00000C0C02000C0C04000C0C06000
310
C0C08000C0C0A000F0FBFF00A4A0A000808080000000FF0000FF000000FFFF00FF000000FF00FF00FFFF0000FFFFFF0000000000000000000000000000000000000000000000000000000000000000000000000000000000000000000000000000000000000000000000000000000000000000000000000000000000000000
310
0000000000000000000000000000000000000000000000000000000000FC0000FC00000000000000000000000000000000000000000000000000000000FC000000FC000000000000000000000000000000000000000000000000000000FCFC0000FC000000000000000000000000000000000000000000000000000000FC00
310
000000FC0000000000000000000000000000000000000000000000000000FCFCFCFCFCFC000000000000000000000000000000000000000000000000000000000000000000000000000000000000000000000000000000000000000000FCFC00FCFCFC00FC000000000000000000000000000000000000000000000000FCFC
310
FCFCFCFCFCFC000000000000000000000000000000000000000000000000FC00FCFCFC00FCFC000000000000000000000000000000000000000000000000FC0000FCFC0000FC000000000000000000000000000000000000000000000000000000000000000000000000000000000000000000000000000000000000000000
310
000000000000000000000000000000000000000000FCFCFCFCFCFCFCFC0000000000FCFCFCFCFCFCFCFCFCFCFCFCFC000000000000FC0000FCFC000000FC000000FC000000FC0000FCFC00FCFC00FC000000000000FC0000FCFC000000FC0000FC00000000FC0000FCFC00FCFC00FC000000000000FC0000FCFCFCFCFCFCFC
310
FCFCFCFCFCFCFC0000FCFC00FCFCFCFC000000000000FC0000FCFCFCFCFCFCFCFCFCFCFCFCFCFC0000FCFC00FCFCFCFCFCFCFCFC0000FC0000FC00FC000000FC00FCFC000000FCFCFCFCFCFC0000FC00000000FC0000FCFCFCFC0000FCFCFCFC000000FCFCFCFC0000FCFC00000000FCFCFCFCFC0000000000FC0000000000
310
000000000000000000000000000000000000000000000000FCFCFC00000000000000000000000000000000000000000000000000000000FC0000FC00000000000000000000000000000000000000000000000000000000FC0000FC00000000000000000000000000000000000000000000000000000000FC00FC0000000000
310
000000000000000000000000000000000000000000000000FCFC000000000000000000000000000000000000000000000000000000000000FC00000000000000000000000000000000000000000000000000000000000000000000000000000000000000000000000000000000000000000000000000000000000000000000
310
0000000000000000000000000000000000000000000000000000000000000000000000000000000000000000000000000000000000000000
  0
BLOCK_RECORD
  5
733
330
1
100
AcDbSymbolTableRecord
100
AcDbBlockTableRecord
  2
*D4
340
0
  0
BLOCK_RECORD
  5
743
330
1
100
AcDbSymbolTableRecord
100
AcDbBlockTableRecord
  2
*D5
340
0
  0
BLOCK_RECORD
  5
750
330
1
100
AcDbSymbolTableRecord
100
AcDbBlockTableRecord
  2
*D6
340
0
  0
BLOCK_RECORD
  5
8C0
330
1
100
AcDbSymbolTableRecord
100
AcDbBlockTableRecord
  2
*D7
340
0
  0
ENDTAB
  0
ENDSEC
  0
SECTION
  2
BLOCKS
  0
BLOCK
  5
32
330
18
100
AcDbEntity
  8
0
100
AcDbBlockBegin
  2
*MODEL_SPACE
 70
     0
 10
0.0
 20
0.0
 30
0.0
  3
*MODEL_SPACE
  1

  0
ENDBLK
  5
33
330
18
100
AcDbEntity
  8
0
100
AcDbBlockEnd
  0
BLOCK
  5
339
330
338
100
AcDbEntity
 67
     1
  8
0
100
AcDbBlockBegin
  2
*Paper_Space
 70
     0
 10
0.0
 20
0.0
 30
0.0
  3
*Paper_Space
  1

  0
ENDBLK
  5
33A
330
338
100
AcDbEntity
 67
     1
  8
0
100
AcDbBlockEnd
  0
BLOCK
  5
4A7
330
4A6
100
AcDbEntity
  8
0
100
AcDbBlockBegin
  2
CUT
 70
     0
 10
0.0
 20
0.0
 30
0.0
  3
CUT
  1

  0
LINE
  5
835
330
4A6
100
AcDbEntity
  8
CUT
100
AcDbLine
 10
57.80364838065389
 20
59.71805272558648
 30
0.0
 11
57.87067890940932
 21
60.09819972558648
 31
0.0
1001
AcDbBlockRepETag
1070
     1
1071
        0
1005
835
  0
LINE
  5
836
330
4A6
100
AcDbEntity
  8
CUT
100
AcDbLine
 10
55.11568090940929
 20
60.84839372558647
 30
0.0
 11
55.11568090940929
 21
59.71805272558648
 31
0.0
1001
AcDbBlockRepETag
1070
     1
1071
        1
1005
836
  0
ARC
  5
837
330
4A6
100
AcDbEntity
  8
CUT
100
AcDbCircle
 10
137.1303889094093
 20
60.60024172558648
 30
0.0
 40
79.26171700000002
100
AcDbArc
 50
178.8969190000001
 51
180.362914
1001
AcDbBlockRepETag
1070
     1
1071
        2
1005
837
  0
LINE
  5
838
330
4A6
100
AcDbEntity
  8
CUT
100
AcDbLine
 10
54.93688490940932
 20
61.53568872558648
 30
0.0
 11
54.92836890940932
 21
62.12613272558648
 31
0.0
1001
AcDbBlockRepETag
1070
     1
1071
        3
1005
838
  0
LINE
  5
839
330
4A6
100
AcDbEntity
  8
CUT
100
AcDbLine
 10
54.93688590940929
 20
61.53568872558648
 30
0.0
 11
54.94094190940931
 21
61.11136472558648
 31
0.0
1001
AcDbBlockRepETag
1070
     1
1071
        4
1005
839
  0
ARC
  5
83A
330
4A6
100
AcDbEntity
  8
CUT
100
AcDbCircle
 10
54.83043090940931
 20
60.84839272558648
 30
0.0
 40
0.28525
100
AcDbArc
 50
359.999946
 51
67.20620100000008
1001
AcDbBlockRepETag
1070
     1
1071
        5
1005
83A
  0
ARC
  5
83C
330
4A6
100
AcDbEntity
  8
CUT
100
AcDbCircle
 10
62.75710890940931
 20
62.28016172558648
 30
0.0
 40
4.876693
100
AcDbArc
 50
179.8594913416241
 51
181.810042
1001
AcDbBlockRepETag
1070
     1
1071
        6
1005
83C
  0
ARC
  5
83D
330
4A6
100
AcDbEntity
  8
CUT
100
AcDbCircle
 10
50.04645190940929
 20
62.27999972558648
 30
0.0
 40
4.884491999999998
100
AcDbArc
 50
358.194752
 51
0.1420366031075246
1001
AcDbBlockRepETag
1070
     1
1071
        7
1005
83D
  0
LINE
  5
844
330
4A6
100
AcDbEntity
  8
CUT
100
AcDbLine
 10
57.80364838065389
 20
59.71805272558648
 30
0.0
 11
55.11568090940929
 21
59.71805272558648
 31
0.0
1001
AcDbBlockRepETag
1070
     1
1071
        8
1005
844
  0
ARC
  5
849
330
4A6
100
AcDbEntity
  8
CUT
100
AcDbCircle
 10
56.40568090940909
 20
62.01805272558647
 30
0.0
 40
1.5
100
AcDbArc
 50
10.52777746043837
 51
169.4727127099713
1001
AcDbBlockRepETag
1070
     1
1071
        9
1005
849
  0
ENDBLK
  5
4B8
330
4A6
100
AcDbEntity
  8
0
100
AcDbBlockEnd
  0
BLOCK
  5
4BB
330
4B9
100
AcDbEntity
  8
0
100
AcDbBlockBegin
  2
NOCUT
 70
     0
 10
0.0
 20
0.0
 30
0.0
  3
NOCUT
  1

  0
LINE
  5
8B1
330
4B9
100
AcDbEntity
  8
NOCUT
100
AcDbLine
 10
57.21527464141147
 20
61.44088170433323
 30
0.0
 11
57.21527464141147
 21
61.10320170433054
 31
0.0
1001
AcDbBlockRepETag
1070
     1
1071
        0
1005
8B1
  0
LINE
  5
8B2
330
4B9
100
AcDbEntity
  8
NOCUT
100
AcDbLine
 10
59.89696464141148
 20
61.44088170433323
 30
0.0
 11
57.21527464141147
 21
61.44088170433323
 31
0.0
1001
AcDbBlockRepETag
1070
     1
1071
        1
1005
8B2
  0
LINE
  5
8B3
330
4B9
100
AcDbEntity
  8
NOCUT
100
AcDbLine
 10
59.49968064141149
 20
59.15216870433322
 30
0.0
 11
59.89696464141148
 21
61.44088170433323
 31
0.0
1001
AcDbBlockRepETag
1070
     1
1071
        2
1005
8B3
  0
LINE
  5
8B4
330
4B9
100
AcDbEntity
  8
NOCUT
100
AcDbLine
 10
59.49968064141149
 20
59.15216870433322
 30
0.0
 11
59.82509481007816
 21
56.39765770433323
 31
0.0
1001
AcDbBlockRepETag
1070
     1
1071
        3
1005
8B4
  0
LINE
  5
8B5
330
4B9
100
AcDbEntity
  8
NOCUT
100
AcDbLine
 10
59.82509481007816
 20
56.39765770433323
 30
0.0
 11
56.85346742104604
 21
56.39765770433323
 31
0.0
1001
AcDbBlockRepETag
1070
     1
1071
        4
1005
8B5
  0
LINE
  5
8B6
330
4B9
100
AcDbEntity
  8
NOCUT
100
AcDbLine
 10
56.85346742104604
 20
56.39765770433323
 30
0.0
 11
56.85346742104604
 21
60.81820170433324
 31
0.0
1001
AcDbBlockRepETag
1070
     1
1071
        5
1005
8B6
  0
ARC
  5
8B7
330
4B9
100
AcDbEntity
  8
NOCUT
100
AcDbCircle
 10
56.92717969765547
 20
61.10631054360738
 30
0.0
 40
0.2881117170464012
100
AcDbArc
 50
270.2560859442605
 51
359.3817439007257
1001
AcDbBlockRepETag
1070
     1
1071
        6
1005
8B7
  0
LINE
  5
8B8
330
4B9
100
AcDbEntity
  8
NOCUT
100
AcDbLine
 10
56.85346742104604
 20
60.81820170433324
 30
0.0
 11
56.92846742104603
 21
60.81820170433324
 31
0.0
1001
AcDbBlockRepETag
1070
     1
1071
        7
1005
8B8
  0
ENDBLK
  5
4C4
330
4B9
100
AcDbEntity
  8
0
100
AcDbBlockEnd
  0
BLOCK
  5
4F0
330
4EF
100
AcDbEntity
  8
0
100
AcDbBlockBegin
  2
CERO_POINT
 70
     0
 10
0.0
 20
0.0
 30
0.0
  3
CERO_POINT
  1

  0
CIRCLE
  5
4F1
102
{ACAD_REACTORS
330
4F6
102
}
330
4EF
100
AcDbEntity
  8
SK2
100
AcDbCircle
 10
0.0
 20
0.0
 30
0.0
 40
2.5
  0
LINE
  5
4F2
330
4EF
100
AcDbEntity
  8
SK2
100
AcDbLine
 10
0.0900000000037835
 20
0.0
 30
0.0
 11
-0.0899999999965076
 21
0.0
 31
0.0
  0
LINE
  5
4F3
330
4EF
100
AcDbEntity
  8
SK2
100
AcDbLine
 10
0.0
 20
0.0899999999999182
 30
0.0
 11
0.0
 21
-0.0899999999999182
 31
0.0
  0
LINE
  5
4F4
102
{ACAD_REACTORS
330
4F6
102
}
330
4EF
100
AcDbEntity
  8
SK2
100
AcDbLine
 10
0.0
 20
-2.5
 30
0.0
 11
0.0
 21
2.5
 31
0.0
  0
LINE
  5
4F5
102
{ACAD_REACTORS
330
4F6
102
}
330
4EF
100
AcDbEntity
  8
SK2
100
AcDbLine
 10
2.5
 20
0.0
 30
0.0
 11
-2.5
 21
0.0
 31
0.0
  0
HATCH
  5
4F6
330
4EF
100
AcDbEntity
  8
SK2
100
AcDbHatch
 10
0.0
 20
0.0
 30
0.0
210
0.0
220
0.0
230
1.0
  2
ANSI31
 70
     0
 71
     1
 91
        2
 92
        7
 72
     1
 73
     1
 93
        3
 10
0.0
 20
-2.5
 42
0.4142135623730951
 10
2.5
 20
0.0
 42
0.0
 10
0.0
 20
0.0
 42
0.0
 97
        3
330
4F1
330
4F5
330
4F4
 92
        7
 72
     1
 73
     1
 93
        3
 10
0.0
 20
0.0
 42
0.0
 10
0.0
 20
2.5
 42
0.4142135623730951
 10
-2.5
 20
0.0
 42
0.0
 97
        3
330
4F5
330
4F4
330
4F1
 75
     0
 76
     1
 52
180.0
 41
0.1
 77
     0
 78
     1
 53
225.0
 43
5.170976743218488
 44
0.0
 45
0.2245064030267288
 46
-0.2245064030267289
 79
     0
 47
0.0243816376539857
 98
        2
 10
0.8789156907296272
 20
-1.044463114528752
 10
-0.8545028512526187
 20
0.7841600866017872
  0
ENDBLK
  5
4F7
330
4EF
100
AcDbEntity
  8
0
100
AcDbBlockEnd
  0
BLOCK
  5
4FB
330
4F8
100
AcDbEntity
  8
0
100
AcDbBlockBegin
  2
ISCAR_LOGO
 70
     2
 10
0.0
 20
0.0
 30
0.0
  3
ISCAR_LOGO
  1

  0
LINE
  5
4FC
330
4F8
100
AcDbEntity
  8
SK6
100
AcDbLine
 10
0.0
 20
6.250000000000794
 30
0.0
 11
1.750000000007275
 21
4.499999999999204
 31
0.0
  0
LINE
  5
4FD
330
4F8
100
AcDbEntity
  8
SK6
100
AcDbLine
 10
1.750000000007275
 20
4.499999999999204
 30
0.0
 11
1.750000000007275
 21
6.750000000000341
 31
0.0
  0
LINE
  5
4FE
330
4F8
100
AcDbEntity
  8
SK6
100
AcDbLine
 10
4.000000000007275
 20
4.0
 30
0.0
 11
6.250000000007275
 21
4.0
 31
0.0
  0
LINE
  5
4FF
330
4F8
100
AcDbEntity
  8
SK6
100
AcDbLine
 10
8.500000000003637
 20
4.0
 30
0.0
 11
10.74999999999636
 21
4.0
 31
0.0
  0
LINE
  5
500
330
4F8
100
AcDbEntity
  8
SK6
100
AcDbLine
 10
17.49999999997453
 20
4.0
 30
0.0
 11
19.74999999996362
 21
4.0
 31
0.0
  0
LINE
  5
501
330
4F8
100
AcDbEntity
  8
SK6
100
AcDbLine
 10
0.0
 20
4.0
 30
0.0
 11
1.750000000007275
 21
4.0
 31
0.0
  0
LINE
  5
502
330
4F8
100
AcDbEntity
  8
SK6
100
AcDbLine
 10
15.75000000000727
 20
1.750000000000681
 30
0.0
 11
17.49999999997453
 21
1.750000000000681
 31
0.0
  0
LINE
  5
503
330
4F8
100
AcDbEntity
  8
SK6
100
AcDbLine
 10
15.75000000000727
 20
2.250000000000113
 30
0.0
 11
19.74999999996362
 21
2.250000000000113
 31
0.0
  0
LINE
  5
504
330
4F8
100
AcDbEntity
  8
SK6
100
AcDbLine
 10
15.75000000000727
 20
0.0
 30
0.0
 11
17.49999999997453
 21
0.0
 31
0.0
  0
LINE
  5
505
330
4F8
100
AcDbEntity
  8
SK6
100
AcDbLine
 10
15.24999999997453
 20
0.0
 30
0.0
 11
15.24999999997453
 21
2.250000000000113
 31
0.0
  0
LINE
  5
506
330
4F8
100
AcDbEntity
  8
SK6
100
AcDbLine
 10
11.25000000000727
 20
0.0
 30
0.0
 11
11.25000000000727
 21
2.250000000000113
 31
0.0
  0
LINE
  5
507
330
4F8
100
AcDbEntity
  8
SK6
100
AcDbLine
 10
2.249999999996361
 20
1.750000000000681
 30
0.0
 11
6.250000000007275
 21
1.750000000000681
 31
0.0
  0
ARC
  5
508
330
4F8
100
AcDbEntity
  8
SK6
100
AcDbCircle
 10
4.499999999974534
 20
1.750000000000681
 30
0.0
 40
1.749999999999998
100
AcDbArc
 50
270.0
 51
0.0
  0
LINE
  5
509
330
4F8
100
AcDbEntity
  8
SK6
100
AcDbLine
 10
2.249999999996361
 20
0.0
 30
0.0
 11
4.499999999974534
 21
0.0
 31
0.0
  0
LINE
  5
50A
330
4F8
100
AcDbEntity
  8
SK6
100
AcDbLine
 10
2.249999999996361
 20
0.0
 30
0.0
 11
2.249999999996361
 21
1.750000000000681
 31
0.0
  0
LINE
  5
50B
330
4F8
100
AcDbEntity
  8
SK6
100
AcDbLine
 10
8.500000000003637
 20
0.0
 30
0.0
 11
10.74999999999636
 21
0.0
 31
0.0
  0
LINE
  5
50C
330
4F8
100
AcDbEntity
  8
SK6
100
AcDbLine
 10
6.750000000003637
 20
1.750000000000681
 30
0.0
 11
10.74999999999636
 21
1.750000000000681
 31
0.0
  0
ARC
  5
50D
330
4F8
100
AcDbEntity
  8
SK6
100
AcDbCircle
 10
8.500000000003637
 20
1.750000000000681
 30
0.0
 40
1.749999999999998
100
AcDbArc
 50
180.0
 51
270.0
  0
LINE
  5
50E
330
4F8
100
AcDbEntity
  8
SK6
100
AcDbLine
 10
10.74999999999636
 20
0.0
 30
0.0
 11
10.74999999999636
 21
1.750000000000681
 31
0.0
  0
LINE
  5
50F
330
4F8
100
AcDbEntity
  8
SK6
100
AcDbLine
 10
15.75000000000727
 20
0.0
 30
0.0
 11
15.75000000000727
 21
1.750000000000681
 31
0.0
  0
LINE
  5
510
330
4F8
100
AcDbEntity
  8
SK6
100
AcDbLine
 10
11.25000000000727
 20
0.0
 30
0.0
 11
12.99999999999272
 21
0.0
 31
0.0
  0
LINE
  5
511
330
4F8
100
AcDbEntity
  8
SK6
100
AcDbLine
 10
13.4999999999527
 20
0.0
 30
0.0
 11
15.24999999997453
 21
0.0
 31
0.0
  0
LINE
  5
512
330
4F8
100
AcDbEntity
  8
SK6
100
AcDbLine
 10
2.249999999996361
 20
2.250000000000113
 30
0.0
 11
6.250000000007275
 21
2.250000000000113
 31
0.0
  0
LINE
  5
513
330
4F8
100
AcDbEntity
  8
SK6
100
AcDbLine
 10
6.750000000003637
 20
2.250000000000113
 30
0.0
 11
10.74999999999636
 21
2.250000000000113
 31
0.0
  0
LINE
  5
514
330
4F8
100
AcDbEntity
  8
SK6
100
AcDbLine
 10
17.49999999997453
 20
0.0
 30
0.0
 11
17.49999999997453
 21
1.750000000000681
 31
0.0
  0
LINE
  5
515
330
4F8
100
AcDbEntity
  8
SK6
100
AcDbLine
 10
0.0
 20
0.0
 30
0.0
 11
1.750000000007275
 21
0.0
 31
0.0
  0
ARC
  5
516
330
4F8
100
AcDbEntity
  8
SK6
100
AcDbCircle
 10
17.49999999997453
 20
2.250000000000113
 30
0.0
 40
1.749999999999998
100
AcDbArc
 50
90.0
 51
180.0
  0
LINE
  5
517
330
4F8
100
AcDbEntity
  8
SK6
100
AcDbLine
 10
0.0
 20
0.0
 30
0.0
 11
0.0
 21
4.0
 31
0.0
  0
LINE
  5
518
330
4F8
100
AcDbEntity
  8
SK6
100
AcDbLine
 10
1.750000000007275
 20
0.0
 30
0.0
 11
1.750000000007275
 21
4.0
 31
0.0
  0
LINE
  5
519
330
4F8
100
AcDbEntity
  8
SK6
100
AcDbLine
 10
12.99999999999272
 20
0.0
 30
0.0
 11
12.99999999999272
 21
4.0
 31
0.0
  0
LINE
  5
51A
330
4F8
100
AcDbEntity
  8
SK6
100
AcDbLine
 10
13.4999999999527
 20
0.0
 30
0.0
 11
13.4999999999527
 21
4.0
 31
0.0
  0
ARC
  5
51B
330
4F8
100
AcDbEntity
  8
SK6
100
AcDbCircle
 10
4.000000000007275
 20
2.250000000000113
 30
0.0
 40
1.749999999999998
100
AcDbArc
 50
90.0
 51
180.0
  0
ARC
  5
51C
330
4F8
100
AcDbEntity
  8
SK6
100
AcDbCircle
 10
12.99999999999272
 20
2.250000000000113
 30
0.0
 40
1.749999999999998
100
AcDbArc
 50
90.0
 51
180.0
  0
LINE
  5
51D
330
4F8
100
AcDbEntity
  8
SK6
100
AcDbLine
 10
6.250000000007275
 20
2.250000000000113
 30
0.0
 11
6.250000000007275
 21
4.0
 31
0.0
  0
ARC
  5
51E
330
4F8
100
AcDbEntity
  8
SK6
100
AcDbCircle
 10
8.500000000003637
 20
2.250000000000113
 30
0.0
 40
1.749999999999998
100
AcDbArc
 50
90.0
 51
180.0
  0
LINE
  5
51F
330
4F8
100
AcDbEntity
  8
SK6
100
AcDbLine
 10
10.74999999999636
 20
2.250000000000113
 30
0.0
 11
10.74999999999636
 21
4.0
 31
0.0
  0
ARC
  5
520
330
4F8
100
AcDbEntity
  8
SK6
100
AcDbCircle
 10
13.4999999999527
 20
2.250000000000113
 30
0.0
 40
1.749999999999998
100
AcDbArc
 50
0.0
 51
90.0
  0
LINE
  5
521
330
4F8
100
AcDbEntity
  8
SK6
100
AcDbLine
 10
19.74999999996362
 20
2.250000000000113
 30
0.0
 11
19.74999999996362
 21
4.0
 31
0.0
  0
LINE
  5
522
330
4F8
100
AcDbEntity
  8
SK6
100
AcDbLine
 10
0.0
 20
8.499999999999545
 30
0.0
 11
1.750000000007275
 21
6.750000000000341
 31
0.0
  0
LINE
  5
523
330
4F8
100
AcDbEntity
  8
SK6
100
AcDbLine
 10
0.0
 20
6.250000000000794
 30
0.0
 11
0.0
 21
8.499999999999545
 31
0.0
  0
ATTDEF
  5
524
330
4F8
100
AcDbEntity
  8
SK6
100
AcDbText
 10
4.554821837822013
 20
-4.612942253799473
 30
0.0
 40
2.5
  1
----
 72
     1
 11
9.138155171155347
 21
-4.612942253799473
 31
0.0
100
AcDbAttributeDefinition
  3
NAME OF TOOL?
  2
MM
 70
     0
  0
ATTDEF
  5
525
330
4F8
100
AcDbEntity
  8
SK6
100
AcDbText
 10
9.138155171155347
 20
-8.489844117586358
 30
0.0
 40
2.5
  1

 72
     1
 11
9.138155171155347
 21
-8.489844117586358
 31
0.0
100
AcDbAttributeDefinition
  3

  2
F7
 70
     0
  0
ENDBLK
  5
526
330
4F8
100
AcDbEntity
  8
0
100
AcDbBlockEnd
  0
BLOCK
  5
734
330
733
100
AcDbEntity
  8
0
100
AcDbBlockBegin
  2
*D4
 70
     1
 10
0.0
 20
0.0
 30
0.0
  3
*D4
  1

  0
LINE
  5
946
330
733
100
AcDbEntity
  8
SKVIEW2
 62
     0
440
 16777216
370
    -2
100
AcDbLine
 10
41.69364439297793
 20
20.1278501464517
 30
0.0
 11
34.62560528378013
 21
10.12258537480021
 31
0.0
  0
MTEXT
  5
947
330
733
100
AcDbEntity
  8
SKVIEW2
 62
     0
440
 16777216
100
AcDbMText
 10
36.94105708767086
 20
17.51649725849609
 30
0.0
 40
3.5
 41
0.0
 71
     5
 72
     1
  1
D18
  7
SIMPLEX
 11
0.5769827844243115
 21
0.8167563078899169
 31
0.0
 73
     1
 44
1.0
  0
SOLID
  5
948
330
733
100
AcDbEntity
  8
SKVIEW2
 62
     0
440
 16777216
100
AcDbTrace
 10
34.28529015549266
 20
10.36299486831034
 30
0.0
 11
34.96592041206759
 21
9.882175881290081
 31
0.0
 12
33.18314832271934
 22
8.080694605075418
 32
0.0
 13
33.18314832271934
 23
8.080694605075418
 33
0.0
  0
POINT
  5
949
330
733
100
AcDbEntity
  8
DEFPOINTS
 62
     0
440
 16777216
100
AcDbPoint
 10
33.18314832271934
 20
8.080694605075418
 30
0.0
  0
POINT
  5
94A
330
733
100
AcDbEntity
  8
DEFPOINTS
 62
     0
440
 16777216
100
AcDbPoint
 10
22.97975660411144
 20
-6.362863804314097
 30
0.0
  0
ENDBLK
  5
735
330
733
100
AcDbEntity
  8
0
100
AcDbBlockEnd
  0
BLOCK
  5
744
330
743
100
AcDbEntity
  8
0
100
AcDbBlockBegin
  2
*D5
 70
     1
 10
0.0
 20
0.0
 30
0.0
  3
*D5
  1

  0
LINE
  5
94B
330
743
100
AcDbEntity
  8
2
 62
     0
440
 16777216
370
    -2
100
AcDbLine
 10
3.142138610730559
 20
7.451309353653782
 30
0.0
 11
3.14213861073056
 21
24.7760617305893
 31
0.0
  0
LINE
  5
94C
330
743
100
AcDbEntity
  8
2
 62
     0
440
 16777216
370
    -2
100
AcDbLine
 10
0.1500839999999993
 20
7.452446664125602
 30
0.0
 11
0.1500840000000004
 21
24.7760617305893
 31
0.0
  0
LINE
  5
94D
330
743
100
AcDbEntity
  8
2
 62
     0
440
 16777216
370
    -2
100
AcDbLine
 10
5.642138610730561
 20
23.5260617305893
 30
0.0
 11
8.142138610730562
 21
23.5260617305893
 31
0.0
  0
LINE
  5
94E
330
743
100
AcDbEntity
  8
2
 62
     0
440
 16777216
370
    -2
100
AcDbLine
 10
-2.349915999999999
 20
23.5260617305893
 30
0.0
 11
-4.849915999999998
 21
23.5260617305893
 31
0.0
  0
SOLID
  5
94F
330
743
100
AcDbEntity
  8
2
 62
     0
440
 16777216
100
AcDbTrace
 10
5.642138610730561
 20
23.94272839725597
 30
0.0
 11
5.642138610730561
 21
23.10939506392263
 31
0.0
 12
3.14213861073056
 22
23.5260617305893
 32
0.0
 13
3.14213861073056
 23
23.5260617305893
 33
0.0
  0
SOLID
  5
950
330
743
100
AcDbEntity
  8
2
 62
     0
440
 16777216
100
AcDbTrace
 10
-2.349915999999999
 20
23.94272839725597
 30
0.0
 11
-2.349915999999999
 21
23.10939506392263
 31
0.0
 12
0.1500840000000003
 22
23.5260617305893
 32
0.0
 13
0.1500840000000003
 23
23.5260617305893
 33
0.0
  0
MTEXT
  5
951
330
743
100
AcDbEntity
  8
2
 62
     0
440
 16777216
100
AcDbMText
 10
1.646111305365281
 20
25.9010617305893
 30
0.0
 40
3.5
 41
0.0
 71
     5
 72
     1
  1
3
  7
SIMPLEX
 73
     1
 44
1.0
  0
POINT
  5
952
330
743
100
AcDbEntity
  8
DEFPOINTS
 62
     0
440
 16777216
100
AcDbPoint
 10
3.142138610730559
 20
7.451309353653782
 30
0.0
  0
POINT
  5
953
330
743
100
AcDbEntity
  8
DEFPOINTS
 62
     0
440
 16777216
100
AcDbPoint
 10
0.1500839999999993
 20
7.452446664125602
 30
0.0
  0
POINT
  5
954
330
743
100
AcDbEntity
  8
DEFPOINTS
 62
     0
440
 16777216
100
AcDbPoint
 10
0.1500840000000003
 20
23.5260617305893
 30
0.0
  0
ENDBLK
  5
745
330
743
100
AcDbEntity
  8
0
100
AcDbBlockEnd
  0
BLOCK
  5
751
330
750
100
AcDbEntity
  8
0
100
AcDbBlockBegin
  2
*D6
 70
     1
 10
0.0
 20
0.0
 30
0.0
  3
*D6
  1

  0
LINE
  5
955
330
750
100
AcDbEntity
  8
2
 62
     0
440
 16777216
370
    -2
100
AcDbLine
 10
1.67063225847797
 20
8.843223999999992
 30
0.0
 11
-13.75661267474038
 21
8.843223999999997
 31
0.0
  0
LINE
  5
956
330
750
100
AcDbEntity
  8
2
 62
     0
440
 16777216
370
    -2
100
AcDbLine
 10
0.3744586993971009
 20
5.043224000000007
 30
0.0
 11
-13.75661267474038
 21
5.043224000000011
 31
0.0
  0
LINE
  5
957
330
750
100
AcDbEntity
  8
2
 62
     0
440
 16777216
370
    -2
100
AcDbLine
 10
-12.50661267474038
 20
2.54322400000001
 30
0.0
 11
-12.50661267474038
 21
0.043224000000012
 31
0.0
  0
LINE
  5
958
330
750
100
AcDbEntity
  8
2
 62
     0
440
 16777216
370
    -2
100
AcDbLine
 10
-12.50661267474038
 20
11.34322399999999
 30
0.0
 11
-12.50661267474038
 21
24.92655733333336
 31
0.0
  0
SOLID
  5
959
330
750
100
AcDbEntity
  8
2
 62
     0
440
 16777216
100
AcDbTrace
 10
-12.92327934140705
 20
2.54322400000001
 30
0.0
 11
-12.08994600807372
 21
2.54322400000001
 31
0.0
 12
-12.50661267474038
 22
5.043224000000011
 32
0.0
 13
-12.50661267474038
 23
5.043224000000011
 33
0.0
  0
SOLID
  5
95A
330
750
100
AcDbEntity
  8
2
 62
     0
440
 16777216
100
AcDbTrace
 10
-12.92327934140705
 20
11.34322399999999
 30
0.0
 11
-12.08994600807371
 21
11.34322399999999
 31
0.0
 12
-12.50661267474038
 22
8.843223999999993
 32
0.0
 13
-12.50661267474038
 23
8.843223999999993
 33
0.0
  0
MTEXT
  5
95B
330
750
100
AcDbEntity
  8
2
 62
     0
440
 16777216
100
AcDbMText
 10
-14.88161267474038
 20
20.63489066666669
 30
0.0
 40
3.5
 41
0.0
 71
     5
 72
     1
  1
3.8
  7
SIMPLEX
 11
0.0000000000000001
 21
1.0
 31
0.0
 73
     1
 44
1.0
  0
POINT
  5
95C
330
750
100
AcDbEntity
  8
DEFPOINTS
 62
     0
440
 16777216
100
AcDbPoint
 10
1.67063225847797
 20
8.843223999999992
 30
0.0
  0
POINT
  5
95D
330
750
100
AcDbEntity
  8
DEFPOINTS
 62
     0
440
 16777216
100
AcDbPoint
 10
0.3744586993971009
 20
5.043224000000007
 30
0.0
  0
POINT
  5
95E
330
750
100
AcDbEntity
  8
DEFPOINTS
 62
     0
440
 16777216
100
AcDbPoint
 10
-12.50661267474038
 20
5.043224000000011
 30
0.0
  0
ENDBLK
  5
752
330
750
100
AcDbEntity
  8
0
100
AcDbBlockEnd
  0
BLOCK
  5
8C1
330
8C0
100
AcDbEntity
  8
0
100
AcDbBlockBegin
  2
*D7
 70
     1
 10
0.0
 20
0.0
 30
0.0
  3
*D7
  1

  0
LINE
  5
969
330
8C0
100
AcDbEntity
  8
2
 62
     0
440
 16777216
370
    -2
100
AcDbLine
 10
18.24675473643938
 20
23.33902772243223
 30
0.0
 11
4.530088950609606
 21
10.11902796220181
 31
0.0
  0
MTEXT
  5
96A
330
8C0
100
AcDbEntity
  8
2
 62
     0
440
 16777216
100
AcDbMText
 10
12.48849419394929
 20
21.08777696579799
 30
0.0
 40
3.5
 41
0.0
 71
     5
 72
     1
  1
R1.5
  7
SIMPLEX
 11
0.720022237652456
 21
0.6939509905504499
 31
0.0
 73
     1
 44
1.0
  0
SOLID
  5
96B
330
8C0
100
AcDbEntity
  8
2
 62
     0
440
 16777216
100
AcDbTrace
 10
4.240942704546919
 20
10.41903722789033
 30
0.0
 11
4.819235196672294
 21
9.819018696513282
 31
0.0
 12
2.730033356478466
 22
8.384150485825683
 32
0.0
 13
2.730033356478466
 23
8.384150485825683
 33
0.0
  0
POINT
  5
96C
330
8C0
100
AcDbEntity
  8
DEFPOINTS
 62
     0
440
 16777216
100
AcDbPoint
 10
2.730033356478466
 20
8.384150485825683
 30
0.0
  0
POINT
  5
96D
330
8C0
100
AcDbEntity
  8
DEFPOINTS
 62
     0
440
 16777216
100
AcDbPoint
 10
1.649999999999776
 20
7.343224000000005
 30
0.0
  0
ENDBLK
  5
8C2
330
8C0
100
AcDbEntity
  8
0
100
AcDbBlockEnd
  0
ENDSEC
  0
SECTION
  2
ENTITIES
  0
LINE
  5
632
330
18
100
AcDbEntity
  8
4
100
AcDbLine
 10
4.901627389032113
 20
0.0
 30
0.0
 11
0.0
 21
0.0
 31
0.0
  0
LINE
  5
633
330
18
100
AcDbEntity
  8
SK4
100
AcDbLine
 10
0.0
 20
0.0
 30
0.0
 11
-7.110894999999969
 21
0.0
 31
0.0
  0
ARC
  5
634
330
18
100
AcDbEntity
  8
SKVIEW1
100
AcDbCircle
 10
28.03860500000002
 20
0.8574830000000018
 30
0.0
 40
4.771443999999998
100
AcDbArc
 50
99.56325200000023
 51
120.0102009999998
  0
LWPOLYLINE
  5
635
330
18
100
AcDbEntity
  8
SKVIEW1
100
AcDbPolyline
 90
        7
 70
     0
 43
0.0
 10
27.24589400000002
 20
5.562624999999997
 10
27.43559300000001
 20
5.620265999999999
 10
27.60936300000002
 20
5.723766000000011
 10
27.71948100000002
 20
5.819814000000008
 10
27.81904500000002
 20
5.931777000000009
 10
27.93354500000003
 20
6.097970000000002
 10
28.03039800000002
 20
6.280854000000005
  0
LINE
  5
636
330
18
100
AcDbEntity
  8
SKVIEW1
100
AcDbLine
 10
23.26765000000002
 20
3.611994000000009
 30
0.0
 11
25.65214700000002
 21
4.989249999999998
 31
0.0
  0
LINE
  5
637
330
18
100
AcDbEntity
  8
SKVIEW1
100
AcDbLine
 10
23.26765000000002
 20
3.611994000000009
 30
0.0
 11
26.68817900000002
 21
1.637151000000002
 31
0.0
  0
LINE
  5
638
330
18
100
AcDbEntity
  8
SKVIEW1
100
AcDbLine
 10
29.38903000000002
 20
1.637151999999999
 30
0.0
 11
26.68817900000002
 21
1.637151000000002
 31
0.0
  0
LINE
  5
639
330
18
100
AcDbEntity
  8
SKVIEW1
100
AcDbLine
 10
32.80955900000002
 20
3.611995000000006
 30
0.0
 11
29.38903000000002
 21
1.637151999999999
 31
0.0
  0
LINE
  5
63A
330
18
100
AcDbEntity
  8
SKVIEW1
100
AcDbLine
 10
32.80955900000002
 20
3.611995000000006
 30
0.0
 11
32.80934700000002
 21
4.803815
 31
0.0
  0
LINE
  5
63B
330
18
100
AcDbEntity
  8
SKVIEW1
100
AcDbLine
 10
32.80955900000002
 20
4.803815
 30
0.0
 11
28.03039800000002
 21
6.280854000000005
 31
0.0
  0
LINE
  5
63C
330
18
100
AcDbEntity
  8
SKVIEW1
100
AcDbLine
 10
21.83178000000002
 20
2.782653000000009
 30
0.0
 11
22.23555300000002
 21
3.015868000000011
 31
0.0
  0
LINE
  5
63D
330
18
100
AcDbEntity
  8
SKVIEW1
100
AcDbLine
 10
23.26765000000002
 20
3.611994000000009
 30
0.0
 11
22.23555300000002
 21
3.015868000000011
 31
0.0
  0
LWPOLYLINE
  5
63E
330
18
100
AcDbEntity
  8
SKVIEW1
100
AcDbPolyline
 90
        6
 70
     0
 43
0.0
 10
28.30121600000003
 20
8.308785999999997
 10
28.32048100000001
 20
7.740797999999997
 10
28.27869300000002
 20
7.181054000000002
 10
28.23192800000003
 20
6.908168000000002
 10
28.16570700000001
 20
6.643247000000002
 10
28.03039800000002
 20
6.280854000000005
  0
LWPOLYLINE
  5
63F
330
18
100
AcDbEntity
  8
SKVIEW1
100
AcDbPolyline
 90
        7
 70
     0
 43
0.0
 10
24.36052200000002
 20
-2.181987999999988
 10
24.21731600000001
 20
-2.049154999999998
 10
24.04198200000002
 20
-1.953657999999989
 10
23.90520800000002
 20
-1.908990999999999
 10
23.76006900000001
 20
-1.881320999999999
 10
23.55778900000002
 20
-1.868328999999988
 10
23.35001500000001
 20
-1.879245999999993
  0
ARC
  5
640
330
18
100
AcDbEntity
  8
SKVIEW1
100
AcDbCircle
 10
28.03860500000002
 20
0.8574830000000018
 30
0.0
 40
4.771443999999998
100
AcDbArc
 50
219.5694349999996
 51
240.0098639999995
  0
LINE
  5
641
330
18
100
AcDbEntity
  8
SKVIEW1
100
AcDbLine
 10
28.03860600000002
 20
-4.65155899999999
 30
0.0
 11
25.65359400000001
 21
-3.275120000000001
 31
0.0
  0
LINE
  5
642
330
18
100
AcDbEntity
  8
SKVIEW1
100
AcDbLine
 10
28.03860600000002
 20
-4.65155899999999
 30
0.0
 11
28.03860500000002
 21
-0.7018539999999974
 31
0.0
  0
LINE
  5
643
330
18
100
AcDbEntity
  8
SKVIEW1
100
AcDbLine
 10
28.03860500000002
 20
-0.7018539999999974
 30
0.0
 11
26.68817900000002
 21
1.637151000000002
 31
0.0
  0
LINE
  5
644
330
18
100
AcDbEntity
  8
SKVIEW1
100
AcDbLine
 10
22.23550400000002
 20
3.016084000000006
 30
0.0
 11
23.35001500000001
 21
-1.879245999999993
 31
0.0
  0
LINE
  5
645
330
18
100
AcDbEntity
  8
SKVIEW1
100
AcDbLine
 10
29.38903000000002
 20
1.637151999999999
 30
0.0
 11
28.03860500000002
 21
-0.7018539999999974
 31
0.0
  0
LWPOLYLINE
  5
646
330
18
100
AcDbEntity
  8
SKVIEW1
100
AcDbPolyline
 90
        7
 70
     0
 43
0.0
 10
32.50995400000002
 20
-0.8079639999999983
 10
32.46504500000002
 20
-1.001110999999994
 10
32.46782200000001
 20
-1.203394000000001
 10
32.49596400000001
 20
-1.346817
 10
32.54316500000002
 20
-1.489057999999999
 10
32.62987400000002
 20
-1.671370999999993
 10
32.73986100000002
 20
-1.846746999999993
  0
ARC
  5
647
330
18
100
AcDbEntity
  8
SKVIEW1
100
AcDbCircle
 10
28.03860500000002
 20
0.8574830000000018
 30
0.0
 40
4.771443999999998
100
AcDbArc
 50
339.5711079999998
 51
0.0102010000005668
  0
LINE
  5
648
330
18
100
AcDbEntity
  8
SKVIEW1
100
AcDbLine
 10
32.80955900000002
 20
3.611995000000006
 30
0.0
 11
32.81004900000002
 21
0.8583330000000016
 31
0.0
  0
LINE
  5
649
330
18
100
AcDbEntity
  8
SKVIEW1
100
AcDbLine
 10
28.03860600000002
 20
-4.65155899999999
 30
0.0
 11
29.07084200000002
 21
-5.247284000000006
 31
0.0
  0
LINE
  5
64A
330
18
100
AcDbEntity
  8
SKVIEW1
100
AcDbLine
 10
29.07074000000001
 20
-5.247461999999997
 30
0.0
 11
32.73986100000002
 21
-1.846746999999993
 31
0.0
  0
LINE
  5
64B
330
18
100
AcDbEntity
  8
SKVIEW1
100
AcDbLine
 10
32.80926400000002
 20
5.270166000000003
 30
0.0
 11
32.80934700000002
 21
4.803881000000004
 31
0.0
  0
LINE
  5
64C
330
18
100
AcDbEntity
  8
SKVIEW1
100
AcDbLine
 10
28.38826100000002
 20
8.605012000000002
 30
0.0
 11
28.15629900000002
 21
9.495888000000007
 31
0.0
  0
ARC
  5
64D
330
18
100
AcDbEntity
  8
SKVIEW1
100
AcDbCircle
 10
28.09794000000002
 20
8.529420000000001
 30
0.0
 40
0.3
100
AcDbArc
 50
312.6550650000002
 51
14.59434599999972
  0
ARC
  5
64E
330
18
100
AcDbEntity
  8
SKVIEW1
100
AcDbCircle
 10
28.55674000000002
 20
5.269408999999996
 30
0.0
 40
4.252524
100
AcDbArc
 50
0.0102010000005668
 51
77.02767000000031
  0
LWPOLYLINE
  5
64F
330
18
100
AcDbEntity
  8
SKVIEW1
100
AcDbPolyline
 90
        6
 70
     0
 43
0.0
 10
34.36027900000002
 20
-3.095424000000008
 10
33.85888800000002
 20
-2.828024999999995
 10
33.39515900000002
 20
-2.511901999999991
 10
33.18227200000001
 20
-2.334941999999998
 10
32.98600500000002
 20
-2.145123999999995
 10
32.73986100000002
 20
-1.846747999999989
  0
ARC
  5
650
330
18
100
AcDbEntity
  8
SKVIEW1
100
AcDbCircle
 10
31.60055600000001
 20
-1.797330999999999
 30
0.0
 40
4.252524
100
AcDbArc
 50
240.0098639999995
 51
317.0273589999994
  0
LINE
  5
651
330
18
100
AcDbEntity
  8
SKVIEW1
100
AcDbLine
 10
29.47492800000002
 20
-5.480491
 30
0.0
 11
29.07089700000002
 21
-5.247315999999996
 31
0.0
  0
LWPOLYLINE
  5
652
330
18
100
AcDbEntity
  8
SKVIEW1
100
AcDbPolyline
 90
        6
 70
     0
 43
0.0
 10
21.49483900000001
 20
-2.656726999999989
 10
21.96867900000002
 20
-2.36110099999999
 10
22.46450800000002
 20
-2.119614999999996
 10
22.71897000000001
 20
-2.023470000000003
 10
22.97617700000002
 20
-1.947136
 10
23.35001400000002
 20
-1.879245999999993
  0
ARC
  5
653
330
18
100
AcDbEntity
  8
SKVIEW1
100
AcDbCircle
 10
23.95869700000002
 20
-0.8997619999999955
 30
0.0
 40
4.252524
100
AcDbArc
 50
120.0102009999998
 51
197.0276700000002
  0
LINE
  5
654
330
18
100
AcDbEntity
  8
SKVIEW1
100
AcDbLine
 10
21.15422000000002
 20
-2.713470999999998
 30
0.0
 11
20.49868000000002
 21
-3.359792999999995
 31
0.0
  0
ARC
  5
655
330
18
100
AcDbEntity
  8
SKVIEW1
100
AcDbCircle
 10
21.36484500000002
 20
-2.927098999999998
 30
0.0
 40
0.3
100
AcDbArc
 50
64.32177299999988
 51
134.5943459999999
  0
LINE
  5
656
330
18
100
AcDbEntity
  8
SKVIEW1
100
AcDbLine
 10
34.57333400000002
 20
-3.319091999999996
 30
0.0
 11
35.46083600000002
 21
-3.563644999999993
 31
0.0
  0
ARC
  5
657
330
18
100
AcDbEntity
  8
SKVIEW1
100
AcDbCircle
 10
34.65303000000002
 20
-3.029870999999998
 30
0.0
 40
0.3
100
AcDbArc
 50
192.6214139999999
 51
254.5943459999997
  0
LINE
  5
658
330
18
100
AcDbEntity
  8
SKVIEW1
100
AcDbLine
 10
28.12368800000001
 20
9.621133
 30
0.0
 11
28.15629900000002
 21
9.495888000000007
 31
0.0
  0
ARC
  5
659
330
18
100
AcDbEntity
  8
SKVIEW1
100
AcDbCircle
 10
29.56280000000004
 20
9.636756000000003
 30
0.0
 40
0.229202
100
AcDbArc
 50
210.4846510000001
 51
257.0276669999997
  0
LINE
  5
65A
330
18
100
AcDbEntity
  8
SKVIEW1
100
AcDbLine
 10
29.36528100000002
 20
9.520480000000006
 30
0.0
 11
28.14561500000002
 21
9.700707000000008
 31
0.0
  0
LINE
  5
65B
330
18
100
AcDbEntity
  8
SKVIEW1
100
AcDbLine
 10
28.14561500000002
 20
9.700707000000008
 30
0.0
 11
28.12368800000001
 21
9.621133
 31
0.0
  0
LINE
  5
65C
330
18
100
AcDbEntity
  8
SKVIEW1
100
AcDbLine
 10
35.58560700000003
 20
-3.598026000000004
 30
0.0
 11
35.46083600000002
 21
-3.563644999999993
 31
0.0
  0
ARC
  5
65D
330
18
100
AcDbEntity
  8
SKVIEW1
100
AcDbCircle
 10
34.87958100000002
 20
-4.852145000000006
 30
0.0
 40
0.228981
100
AcDbArc
 50
90.52931299999995
 51
137.0273559999997
  0
LINE
  5
65E
330
18
100
AcDbEntity
  8
SKVIEW1
100
AcDbLine
 10
34.87746500000002
 20
-4.623172999999994
 30
0.0
 11
35.64355700000002
 21
-3.656802999999996
 31
0.0
  0
LINE
  5
65F
330
18
100
AcDbEntity
  8
SKVIEW1
100
AcDbLine
 10
35.64355700000002
 20
-3.656802999999996
 30
0.0
 11
35.58560700000003
 21
-3.598026000000004
 31
0.0
  0
LINE
  5
660
330
18
100
AcDbEntity
  8
SKVIEW1
100
AcDbLine
 10
20.40652000000001
 20
-3.450658000000004
 30
0.0
 11
20.49868000000002
 21
-3.359792999999995
 31
0.0
  0
ARC
  5
661
330
18
100
AcDbEntity
  8
SKVIEW1
100
AcDbCircle
 10
19.67343400000001
 20
-2.212162000000005
 30
0.0
 40
0.229202
100
AcDbArc
 50
330.4846510000001
 51
17.02766699999948
  0
LINE
  5
662
330
18
100
AcDbEntity
  8
SKVIEW1
100
AcDbLine
 10
19.87289200000002
 20
-2.325079999999998
 30
0.0
 11
20.32664300000002
 21
-3.471455999999988
 31
0.0
  0
LINE
  5
663
330
18
100
AcDbEntity
  8
SKVIEW1
100
AcDbLine
 10
20.32664300000002
 20
-3.471455999999988
 30
0.0
 11
20.40652000000001
 21
-3.450658000000004
 31
0.0
  0
LINE
  5
664
330
18
100
AcDbEntity
  8
1
100
AcDbLine
 10
2.988353000000003
 20
4.705134000000001
 30
0.0
 11
2.887253000000001
 21
4.131766999999995
 31
0.0
  0
LINE
  5
665
330
18
100
AcDbEntity
  8
1
100
AcDbLine
 10
0.3599999999999994
 20
4.705134000000001
 30
0.0
 11
0.3599999999999994
 21
4.131766999999995
 31
0.0
  0
LINE
  5
666
330
18
100
AcDbEntity
  8
1
100
AcDbLine
 10
2.988354000000001
 20
4.705140999999996
 30
0.0
 11
3.114997999999998
 21
5.423371000000002
 31
0.0
  0
LINE
  5
667
330
18
100
AcDbEntity
  8
1
100
AcDbLine
 10
2.644406000000003
 20
2.754511000000006
 30
0.0
 11
2.887253000000001
 21
4.131766999999995
 31
0.0
  0
LINE
  5
668
330
18
100
AcDbEntity
  8
1
100
AcDbLine
 10
0.3599999999999994
 20
-6.337974000000002
 30
0.0
 11
0.3599999999999994
 21
-6.611479000000002
 31
0.0
  0
LINE
  5
669
330
18
100
AcDbEntity
  8
1
100
AcDbLine
 10
0.3599999999999994
 20
-4.328935000000001
 30
0.0
 11
0.3599999999999994
 21
-6.337974000000002
 31
0.0
  0
LINE
  5
66A
330
18
100
AcDbEntity
  8
1
100
AcDbLine
 10
0.3599999999999994
 20
0.2822500000000048
 30
0.0
 11
0.3599999999999994
 21
0.0700259999999986
 31
0.0
  0
LINE
  5
66B
330
18
100
AcDbEntity
  8
1
100
AcDbLine
 10
0.3599999999999994
 20
0.2822500000000048
 30
0.0
 11
0.3599999999999994
 21
1.570595999999994
 31
0.0
  0
LINE
  5
66C
330
18
100
AcDbEntity
  8
1
100
AcDbLine
 10
0.3599999999999994
 20
1.925170000000008
 30
0.0
 11
0.3599999999999994
 21
1.570595999999994
 31
0.0
  0
LINE
  5
66D
330
18
100
AcDbEntity
  8
1
100
AcDbLine
 10
0.3599999999999994
 20
4.131766999999995
 30
0.0
 11
0.3599999999999994
 21
1.925170000000008
 31
0.0
  0
LINE
  5
66E
330
18
100
AcDbEntity
  8
1
100
AcDbLine
 10
0.3599999999999994
 20
6.173564999999996
 30
0.0
 11
0.3599999999999994
 21
4.706367999999996
 31
0.0
  0
LINE
  5
66F
330
18
100
AcDbEntity
  8
1
100
AcDbLine
 10
2.860550000000003
 20
1.925170000000008
 30
0.0
 11
2.854567000000001
 21
2.158385000000008
 31
0.0
  0
LINE
  5
670
330
18
100
AcDbEntity
  8
1
100
AcDbLine
 10
2.644406000000003
 20
2.754511000000006
 30
0.0
 11
2.854567000000001
 21
2.158385000000008
 31
0.0
  0
ARC
  5
671
330
18
100
AcDbEntity
  8
1
100
AcDbCircle
 10
-689.0938487722926
 20
15.843979567816
 30
0.0
 40
692.2868620411406
100
AcDbArc
 50
359.1375258161181
 51
359.3053788593223
  0
LINE
  5
672
330
18
100
AcDbEntity
  8
1
100
AcDbLine
 10
0.1500839999999993
 20
7.452446664125602
 30
0.0
 11
3.141770699397103
 21
7.451302999999994
 31
0.0
  0
LINE
  5
673
330
18
100
AcDbEntity
  8
1
100
AcDbLine
 10
0.1812040000000081
 20
6.860860000000002
 30
0.0
 11
0.1500839999999993
 21
7.452446664125602
 31
0.0
  0
LINE
  5
674
330
18
100
AcDbEntity
  8
1
100
AcDbLine
 10
0.1812050000000056
 20
6.860860000000002
 30
0.0
 11
0.185260999999997
 21
6.436536000000002
 31
0.0
  0
ARC
  5
675
330
18
100
AcDbEntity
  8
1
100
AcDbCircle
 10
0.0747499999999946
 20
6.173563999999998
 30
0.0
 40
0.28525
100
AcDbArc
 50
359.999946
 51
67.20620100000008
  0
LINE
  5
676
330
18
100
AcDbEntity
  8
1
100
AcDbLine
 10
2.644407000000001
 20
-5.509041999999992
 30
0.0
 11
2.852615999999997
 21
-4.328935000000001
 31
0.0
  0
LINE
  5
677
330
18
100
AcDbEntity
  8
1
100
AcDbLine
 10
2.854556000000001
 20
2.158601000000003
 30
0.0
 11
3.115954999999998
 21
-2.736728999999995
 31
0.0
  0
LINE
  5
678
330
18
100
AcDbEntity
  8
1
100
AcDbLine
 10
2.644407000000001
 20
-5.509041999999992
 30
0.0
 11
2.854555000000003
 21
-6.104767000000008
 31
0.0
  0
LINE
  5
679
330
18
100
AcDbEntity
  8
1
100
AcDbLine
 10
2.854555000000003
 20
-6.104944999999999
 30
0.0
 11
2.990650999999998
 21
-4.328062999999999
 31
0.0
  0
LWPOLYLINE
  5
67E
330
18
100
AcDbEntity
  8
1
100
AcDbPolyline
 90
        5
 70
     0
 43
0.0
 10
0.3599999999999994
 20
-6.243589999999997
 10
0.3598640000000017
 20
-6.247940999999997
 10
0.3593290000000024
 20
-6.246398999999996
 10
0.3468090000000075
 20
-6.079194000000001
 10
0.2475280000000026
 20
-4.478723000000002
  0
ARC
  5
67F
330
18
100
AcDbEntity
  8
1
100
AcDbCircle
 10
12.844352
 20
-5.047840000000006
 30
0.0
 40
12.625748
100
AcDbArc
 50
184.4796900000005
 51
187.3527219999993
  0
LWPOLYLINE
  5
680
330
18
100
AcDbEntity
  8
1
100
AcDbPolyline
 90
       10
 70
     0
 43
0.0
 10
0.3834060000000079
 20
-6.907338000000008
 10
0.3889350000000036
 20
-6.904516
 10
0.3942460000000096
 20
-6.896051999999997
 10
0.3993309999999894
 20
-6.881957999999997
 10
0.4041849999999984
 20
-6.862251999999998
 10
0.4087999999999994
 20
-6.836960000000003
 10
0.4131700000000082
 20
-6.806116999999999
 10
0.4172900000000084
 20
-6.769764000000008
 10
0.421154999999999
 20
-6.727947999999997
 10
0.4247579999999971
 20
-6.68072699999999
  0
LWPOLYLINE
  5
681
330
18
100
AcDbEntity
  8
1
100
AcDbPolyline
 90
       10
 70
     0
 43
0.0
 10
0.3226970000000051
 20
-6.663613999999995
 10
0.3301390000000026
 20
-6.714375000000002
 10
0.3374310000000094
 20
-6.75933599999999
 10
0.3445619999999963
 20
-6.798433999999999
 10
0.3515209999999911
 20
-6.831609999999997
 10
0.3582990000000024
 20
-6.858820000000008
 10
0.3648850000000011
 20
-6.880023999999991
 10
0.3712720000000047
 20
-6.895190999999996
 10
0.3774480000000011
 20
-6.904300000000006
 10
0.3834060000000079
 20
-6.907338000000008
  0
LWPOLYLINE
  5
682
330
18
100
AcDbEntity
  8
1
100
AcDbPolyline
 90
        4
 70
     0
 43
0.0
 10
0.3599999999999994
 20
-6.61148
 10
0.4128900000000045
 20
-6.649316999999996
 10
0.4237589999999898
 20
-6.669789000000008
 10
0.4247560000000023
 20
-6.676042999999991
  0
LINE
  5
683
330
18
100
AcDbEntity
  8
1
100
AcDbLine
 10
0.4247560000000023
 20
-6.676042999999991
 30
0.0
 11
0.4247579999999971
 21
-6.680725999999991
 31
0.0
  0
LINE
  5
684
330
18
100
AcDbEntity
  8
1
100
AcDbLine
 10
0.2551109999999994
 20
-6.010541000000002
 30
0.0
 11
0.2568929999999909
 21
-6.034008
 31
0.0
  0
LINE
  5
685
330
18
100
AcDbEntity
  8
1
100
AcDbLine
 10
3.044888999999996
 20
-6.010541000000002
 30
0.0
 11
3.043106999999991
 21
-6.034008
 31
0.0
  0
LWPOLYLINE
  5
686
330
18
100
AcDbEntity
  8
1
100
AcDbPolyline
 90
        7
 70
     0
 43
0.0
 10
2.860550999999999
 20
-6.337974000000002
 10
2.878010000000002
 20
-6.717445999999995
 10
2.890814000000004
 20
-6.834287000000002
 10
2.906182999999998
 20
-6.896860000000001
 10
2.91183699999999
 20
-6.905192999999997
 10
2.914757000000008
 20
-6.906981
 10
2.916577000000002
 20
-6.907291999999997
  0
LWPOLYLINE
  5
687
330
18
100
AcDbEntity
  8
1
100
AcDbPolyline
 90
        7
 70
     0
 43
0.0
 10
2.916577000000002
 20
-6.907291999999997
 10
2.919707999999998
 20
-6.906455999999991
 10
2.921829999999998
 20
-6.90494799999999
 10
2.926153999999995
 20
-6.899652000000002
 10
2.932834999999997
 20
-6.886027999999996
 10
2.969156999999995
 20
-6.718748000000005
 10
3.043108000000002
 20
-6.034008999999997
  0
LINE
  5
688
330
18
100
AcDbEntity
  8
1
100
AcDbLine
 10
2.860550999999999
 20
-6.337974000000002
 30
0.0
 11
2.854566000000004
 21
-6.104798999999998
 31
0.0
  0
LWPOLYLINE
  5
689
330
18
100
AcDbEntity
  8
1
100
AcDbPolyline
 90
        3
 70
     0
 43
0.0
 10
3.128689000000008
 20
-3.51420999999999
 10
3.1143
 20
-2.886397000000001
 10
3.115954999999998
 20
-2.736728999999995
  0
LINE
  5
68A
330
18
100
AcDbEntity
  8
1
100
AcDbLine
 10
0.1795970000000011
 20
-3.211829999999991
 30
0.0
 11
0.1713110000000029
 21
-3.51420999999999
 31
0.0
  0
LINE
  5
68B
330
18
100
AcDbEntity
  8
1
100
AcDbLine
 10
0.1795970000000011
 20
-3.211829999999991
 30
0.0
 11
0.1836810000000071
 21
-3.025604999999998
 31
0.0
  0
ARC
  5
68C
330
18
100
AcDbEntity
  8
1
100
AcDbCircle
 10
-966.8716419999999
 20
53.88526200000001
 30
0.0
 40
968.7281379999999
100
AcDbArc
 50
356.6320480000003
 51
356.8154370000002
  0
LINE
  5
68D
330
18
100
AcDbEntity
  8
1
100
AcDbLine
 10
0.1732879999999994
 20
-3.570953999999999
 30
0.0
 11
0.1746359999999925
 21
-3.484582000000003
 31
0.0
  0
LINE
  5
68E
330
18
100
AcDbEntity
  8
1
100
AcDbLine
 10
0.1746359999999925
 20
-3.484582000000003
 30
0.0
 11
0.1713110000000029
 21
-3.51420999999999
 31
0.0
  0
LINE
  5
68F
330
18
100
AcDbEntity
  8
1
100
AcDbLine
 10
0.1732879999999994
 20
-3.570953999999999
 30
0.0
 11
0.1501450000000091
 21
-4.217275999999998
 31
0.0
  0
LINE
  5
690
330
18
100
AcDbEntity
  8
1
100
AcDbLine
 10
0.3226860000000045
 20
-0.9819609999999984
 30
0.0
 11
0.2568469999999934
 21
-2.30434199999999
 31
0.0
  0
ARC
  5
691
330
18
100
AcDbEntity
  8
1
100
AcDbCircle
 10
-191.001568
 20
8.324134999999998
 30
0.0
 40
191.550235
100
AcDbArc
 50
357.2153029999997
 51
357.9409129999996
  0
ARC
  5
692
330
18
100
AcDbEntity
  8
1
100
AcDbCircle
 10
0.2657450000000097
 20
1.441463999999995
 30
0.0
 40
0.159399
100
AcDbArc
 50
0.0932299999994171
 51
53.8734479999999
  0
LWPOLYLINE
  5
693
330
18
100
AcDbEntity
  8
1
100
AcDbPolyline
 90
        3
 70
     0
 43
0.0
 10
0.2570100000000082
 20
-3.002527
 10
0.2518929999999955
 20
-2.655527000000005
 10
0.2568469999999934
 20
-2.304336000000005
  0
LWPOLYLINE
  5
694
330
18
100
AcDbEntity
  8
1
100
AcDbPolyline
 90
        3
 70
     0
 43
0.0
 10
3.042990000000003
 20
-3.002527
 10
3.048107000000001
 20
-2.655527000000005
 10
3.043152999999988
 20
-2.304336000000005
  0
LWPOLYLINE
  5
695
330
18
100
AcDbEntity
  8
1
100
AcDbPolyline
 90
        3
 70
     0
 43
0.0
 10
2.860550000000003
 20
1.925170000000008
 10
2.889476000000001
 20
1.046638000000001
 10
3.043152999999988
 20
-2.304336000000005
  0
LINE
  5
696
330
18
100
AcDbEntity
  8
1
100
AcDbLine
 10
3.126711999999996
 20
-3.570953999999999
 30
0.0
 11
3.149855000000001
 21
-4.217275999999998
 31
0.0
  0
LINE
  5
697
330
18
100
AcDbEntity
  8
1
100
AcDbLine
 10
3.126711999999996
 20
-3.570953999999999
 30
0.0
 11
3.125362999999993
 21
-3.484582000000003
 31
0.0
  0
LINE
  5
698
330
18
100
AcDbEntity
  8
1
100
AcDbLine
 10
3.125362999999993
 20
-3.484582000000003
 30
0.0
 11
3.128689000000008
 21
-3.51420999999999
 31
0.0
  0
LINE
  5
699
330
18
100
AcDbEntity
  8
1
100
AcDbLine
 10
3.136178999999998
 20
-4.276621000000004
 30
0.0
 11
3.149855000000001
 21
-4.421127999999995
 31
0.0
  0
LINE
  5
69F
330
18
100
AcDbEntity
  8
1
100
AcDbLine
 10
3.149892999999991
 20
-4.423801999999994
 30
0.0
 11
3.149855000000001
 21
-4.421127999999995
 31
0.0
  0
ARC
  5
6A0
330
18
100
AcDbEntity
  8
1
100
AcDbCircle
 10
0.2764600000000001
 20
-4.219347999999995
 30
0.0
 40
0.126478
100
AcDbArc
 50
179.0603430000001
 51
224.5130839999998
  0
ARC
  5
6A1
330
18
100
AcDbEntity
  8
1
100
AcDbCircle
 10
3.023741000000001
 20
-4.219434000000006
 30
0.0
 40
0.126273
100
AcDbArc
 50
315.450805
 51
0.980167999999923
  0
LWPOLYLINE
  5
6A2
330
18
100
AcDbEntity
  8
1
100
AcDbPolyline
 90
        4
 70
     0
 43
0.0
 10
0.4122539999999903
 20
-3.182563000000001
 10
0.3586119999999937
 20
-3.174103999999998
 10
0.279516000000001
 20
-3.105710000000001
 10
0.2570100000000082
 20
-3.002527
  0
ARC
  5
6A3
330
18
100
AcDbEntity
  8
1
100
AcDbCircle
 10
0.3330559999999991
 20
-3.781255999999998
 30
0.0
 40
0.5474740000000002
100
AcDbArc
 50
254.4199979999993
 51
271.5953500000001
  0
LWPOLYLINE
  5
6A4
330
18
100
AcDbEntity
  8
1
100
AcDbPolyline
 90
        4
 70
     0
 43
0.0
 10
2.887745999999991
 20
-3.182563000000001
 10
2.941382000000004
 20
-3.174097999999999
 10
3.020509000000004
 20
-3.105673999999993
 10
3.042990000000003
 20
-3.002527
  0
LINE
  5
6A5
330
18
100
AcDbEntity
  8
1
100
AcDbLine
 10
2.887745999999991
 20
-3.182563000000001
 30
0.0
 11
0.4122539999999903
 21
-3.182563000000001
 31
0.0
  0
ARC
  5
6A6
330
18
100
AcDbEntity
  8
1
100
AcDbCircle
 10
2.966943999999998
 20
-3.781255999999998
 30
0.0
 40
0.5474740000000002
100
AcDbArc
 50
268.40465
 51
285.5800019999997
  0
LINE
  5
6A7
330
18
100
AcDbEntity
  8
1
100
AcDbLine
 10
0.0
 20
-4.420544000000005
 30
0.0
 11
0.0
 21
0.1043090000000006
 31
0.0
  0
LINE
  5
6A8
330
18
100
AcDbEntity
  8
1
100
AcDbLine
 10
0.0
 20
0.1043090000000006
 30
0.0
 11
0.0
 21
4.420544000000005
 31
0.0
  0
LINE
  5
6AA
330
18
100
AcDbEntity
  8
1
100
AcDbLine
 10
2.951689999999998
 20
-4.328938999999991
 30
0.0
 11
0.3483099999999979
 21
-4.328938999999991
 31
0.0
  0
LINE
  5
6AB
330
18
100
AcDbEntity
  8
SK1
100
AcDbLine
 10
-1.359999999999999
 20
-3.323000000000006
 30
0.0
 11
-1.359999999999999
 21
3.323925000000001
 31
0.0
  0
LINE
  5
6AC
330
18
100
AcDbEntity
  8
SK1
100
AcDbLine
 10
-2.12775400000001
 20
-3.179114999999995
 30
0.0
 11
-2.135249999999999
 21
-3.175148000000006
 31
0.0
  0
LWPOLYLINE
  5
6AD
330
18
100
AcDbEntity
  8
SK1
100
AcDbPolyline
 90
       15
 70
     0
 43
0.0
 10
-2.135249999999999
 20
-3.175148000000006
 10
-2.149042000000008
 20
-3.159565999999998
 10
-2.176487000000007
 20
-3.096899000000006
 10
-2.203564999999997
 20
-2.994354000000001
 10
-2.256010999999999
 20
-2.684359
 10
-2.31300999999999
 20
-2.194198999999996
 10
-2.468538999999991
 20
-0.322141000000002
 10
-2.623996000000004
 20
1.688459999999991
 10
-2.702889999999996
 20
2.480116000000009
 10
-2.766350999999999
 20
2.918159999999999
 10
-2.822460000000006
 20
3.133590999999995
 10
-2.84028599999999
 20
3.165605999999995
 10
-2.849208000000004
 20
3.174812000000001
 10
-2.858123000000006
 20
3.179422999999998
 10
-2.862577000000001
 20
3.180000000000006
  0
LINE
  5
6AE
330
18
100
AcDbEntity
  8
SK1
100
AcDbLine
 10
-2.862577000000001
 20
3.180000000000006
 30
0.0
 11
-2.868104000000002
 21
3.179114999999995
 31
0.0
  0
LINE
  5
6AF
330
18
100
AcDbEntity
  8
SK1
100
AcDbLine
 10
-2.12775400000001
 20
-3.179114999999995
 30
0.0
 11
-2.122208
 21
-3.180002000000001
 31
0.0
  0
LINE
  5
6B0
330
18
100
AcDbEntity
  8
SK1
100
AcDbLine
 10
-2.868104000000002
 20
3.179114999999995
 30
0.0
 11
-2.875396999999991
 21
3.175230999999995
 31
0.0
  0
LINE
  5
6B1
330
18
100
AcDbEntity
  8
SK1
100
AcDbLine
 10
-3.602316999999998
 20
-3.179997
 30
0.0
 11
-3.607919000000008
 21
-3.179112000000003
 31
0.0
  0
LINE
  5
6B2
330
18
100
AcDbEntity
  8
SK1
100
AcDbLine
 10
-4.347743000000001
 20
3.179114999999995
 30
0.0
 11
-4.342190999999998
 21
3.180000000000006
 31
0.0
  0
LWPOLYLINE
  5
6B3
330
18
100
AcDbEntity
  8
SK1
100
AcDbPolyline
 90
       14
 70
     0
 43
0.0
 10
-4.342190999999998
 20
3.180000000000006
 10
-4.333223000000002
 20
3.177658000000008
 10
-4.327252000000001
 20
3.173509999999993
 10
-4.315341000000002
 20
3.159053999999997
 10
-4.271473
 20
3.035958999999991
 10
-4.242569000000003
 20
2.897418999999998
 10
-4.186322000000004
 20
2.507486999999997
 10
-4.080553
 20
1.413055999999996
 10
-3.913227999999995
 20
-0.792575999999997
 10
-3.794569999999999
 20
-2.174485000000004
 10
-3.712398999999996
 20
-2.840440999999998
 10
-3.676971000000001
 20
-3.023141000000008
 10
-3.636113999999998
 20
-3.147695999999995
 10
-3.615504000000001
 20
-3.175080000000008
  0
LINE
  5
6B4
330
18
100
AcDbEntity
  8
SK1
100
AcDbLine
 10
-3.615504000000001
 20
-3.175080000000008
 30
0.0
 11
-3.607658999999998
 21
-3.179305999999995
 31
0.0
  0
LINE
  5
6B5
330
18
100
AcDbEntity
  8
SK1
100
AcDbLine
 10
-4.347743000000001
 20
3.179114999999995
 30
0.0
 11
-4.355043999999998
 21
3.175240999999998
 31
0.0
  0
LINE
  5
6B6
330
18
100
AcDbEntity
  8
SK1
100
AcDbLine
 10
-5.083413999999996
 20
-3.179974000000001
 30
0.0
 11
-5.087653999999999
 21
-3.179402000000009
 31
0.0
  0
LINE
  5
6B7
330
18
100
AcDbEntity
  8
SK1
100
AcDbLine
 10
-5.827675999999996
 20
3.179114999999995
 30
0.0
 11
-5.821572999999999
 21
3.179991000000001
 31
0.0
  0
LWPOLYLINE
  5
6B8
330
18
100
AcDbEntity
  8
SK1
100
AcDbPolyline
 90
       15
 70
     0
 43
0.0
 10
-5.821572999999999
 20
3.179991000000001
 10
-5.810585999999999
 20
3.176160000000009
 10
-5.803277999999997
 20
3.169753
 10
-5.78871
 20
3.147782000000006
 10
-5.767008000000003
 20
3.092472999999998
 10
-5.724229000000001
 20
2.906739000000001
 10
-5.661869999999999
 20
2.468487000000009
 10
-5.554688999999996
 20
1.340865000000007
 10
-5.391483999999997
 20
-0.8170530000000011
 10
-5.313499
 20
-1.766051000000004
 10
-5.226070999999996
 20
-2.605474
 10
-5.180303999999998
 20
-2.909761999999999
 10
-5.133231000000002
 20
-3.106831999999997
 10
-5.109319999999995
 20
-3.159508000000001
 10
-5.095629000000001
 20
-3.175072
  0
LINE
  5
6B9
330
18
100
AcDbEntity
  8
SK1
100
AcDbLine
 10
-5.095629000000001
 20
-3.175072
 30
0.0
 11
-5.088037999999997
 21
-3.179114999999995
 31
0.0
  0
LINE
  5
6BA
330
18
100
AcDbEntity
  8
SK1
100
AcDbLine
 10
-5.827675999999996
 20
3.179114999999995
 30
0.0
 11
-5.835005000000002
 21
3.175234999999999
 31
0.0
  0
ARC
  5
6BB
330
18
100
AcDbEntity
  8
SK1
100
AcDbCircle
 10
-3.041910000000001
 20
-3.152650999999991
 30
0.0
 40
0.027612
100
AcDbArc
 50
275.8775779999993
 51
324.4967510000002
  0
LINE
  5
6BC
330
18
100
AcDbEntity
  8
SK1
100
AcDbLine
 10
-3.039095000000002
 20
-3.180000000000006
 30
0.0
 11
-3.044639000000002
 21
-3.179114999999995
 31
0.0
  0
LINE
  5
6BD
330
18
100
AcDbEntity
  8
SK1
100
AcDbLine
 10
-6.649999999999997
 20
-2.580287999999995
 30
0.0
 11
-6.649999999999997
 21
-1.462601000000006
 31
0.0
  0
LINE
  5
6BE
330
18
100
AcDbEntity
  8
SK1
100
AcDbLine
 10
-6.431722999999997
 20
-3.179114999999995
 30
0.0
 11
-6.431722999999997
 21
-2.618056999999993
 31
0.0
  0
ARC
  5
6BF
330
18
100
AcDbEntity
  8
SK1
100
AcDbCircle
 10
1.825766
 20
-0.4496520000000004
 30
0.0
 40
8.536747999999999
100
AcDbArc
 50
186.8151809999997
 51
194.7135849999999
  0
LWPOLYLINE
  5
6C0
330
18
100
AcDbEntity
  8
SK1
100
AcDbPolyline
 90
       13
 70
     0
 43
0.0
 10
-3.044639000000002
 20
-3.179114999999995
 10
-3.054265999999998
 20
-3.173367999999995
 10
-3.073463000000002
 20
-3.145989
 10
-3.092548999999991
 20
-3.097914000000001
 10
-3.130245000000001
 20
-2.943499999999999
 10
-3.194270000000003
 20
-2.513255999999997
 10
-3.232090999999995
 20
-2.170968999999999
 10
-3.368206999999998
 20
-0.5454289999999986
 10
-3.515306000000009
 20
1.387022
 10
-3.617617999999993
 20
2.461601999999999
 10
-3.695129
 20
2.981265000000006
 10
-3.738239
 20
3.132869999999996
 10
-3.760108000000002
 20
3.169888
  0
ARC
  5
6C1
330
18
100
AcDbEntity
  8
SK1
100
AcDbCircle
 10
-3.781345000000001
 20
3.153486
 30
0.0
 40
0.02672
100
AcDbArc
 50
37.67913699999957
 51
84.85579499999978
  0
LINE
  5
6C2
330
18
100
AcDbEntity
  8
SK1
100
AcDbLine
 10
-4.524360999999998
 20
-3.179114999999995
 30
0.0
 11
-4.518828999999995
 21
-3.180000000000006
 31
0.0
  0
ARC
  5
6C3
330
18
100
AcDbEntity
  8
SK1
100
AcDbCircle
 10
-4.521309999999998
 20
-3.153592999999999
 30
0.0
 40
0.026627
100
AcDbArc
 50
275.3673350000004
 51
323.0469180000001
  0
ARC
  5
6C4
330
18
100
AcDbEntity
  8
SK1
100
AcDbCircle
 10
-5.26144
 20
3.153413
 30
0.0
 40
0.026795
100
AcDbArc
 50
37.71519599999973
 51
84.83109699999998
  0
LWPOLYLINE
  5
6C5
330
18
100
AcDbEntity
  8
SK1
100
AcDbPolyline
 90
       13
 70
     0
 43
0.0
 10
-5.240152999999998
 20
3.169873999999991
 10
-5.211758000000003
 20
3.116768000000006
 10
-5.156201000000002
 20
2.883920000000003
 10
-5.095229999999999
 20
2.443297
 10
-4.972762999999999
 20
1.105981999999996
 10
-4.923869999999999
 20
0.4700009999999965
 10
-4.771042000000001
 20
-1.527887999999989
 10
-4.673706000000001
 20
-2.518501999999998
 10
-4.606858000000001
 20
-2.959846999999995
 10
-4.570414999999997
 20
-3.103538999999996
 10
-4.552030000000002
 20
-3.148203999999991
 10
-4.533590000000002
 20
-3.173699999999995
 10
-4.524360999999998
 20
-3.179114999999995
  0
ARC
  5
6C6
330
18
100
AcDbEntity
  8
SK1
100
AcDbCircle
 10
-6.001075999999997
 20
-3.153895000000004
 30
0.0
 40
0.026308
100
AcDbArc
 50
275.1606250000001
 51
322.3418709999998
  0
LINE
  5
6C7
330
18
100
AcDbEntity
  8
SK1
100
AcDbLine
 10
-5.998717999999996
 20
-3.180000000000006
 30
0.0
 11
-6.004266999999997
 21
-3.179114999999995
 31
0.0
  0
ARC
  5
6C8
330
18
100
AcDbEntity
  8
SK1
100
AcDbCircle
 10
-6.482542999999998
 20
-2.406722999999999
 30
0.0
 40
0.359894
100
AcDbArc
 50
337.3387219999994
 51
354.4995499999995
  0
LWPOLYLINE
  5
6C9
330
18
100
AcDbEntity
  8
SK1
100
AcDbPolyline
 90
        7
 70
     0
 43
0.0
 10
-6.004266999999997
 20
-3.179114999999995
 10
-6.009447000000001
 20
-3.176686000000002
 10
-6.019809999999998
 20
-3.167198999999995
 10
-6.050857999999997
 20
-3.102243999999998
 10
-6.081684000000002
 20
-2.984927999999996
 10
-6.141936999999997
 20
-2.612662999999996
 10
-6.150212000000002
 20
-2.54509999999999
  0
LINE
  5
6CA
330
18
100
AcDbEntity
  8
SK1
100
AcDbLine
 10
-5.649999999999997
 20
-0.9474869999999951
 30
0.0
 11
-5.709524999999998
 21
-0.2665470000000027
 31
0.0
  0
LINE
  5
6CB
330
18
100
AcDbEntity
  8
SK1
100
AcDbLine
 10
-5.709524999999998
 20
-0.2665470000000027
 30
0.0
 11
-5.772061999999997
 21
0.4664400000000059
 31
0.0
  0
LINE
  5
6CC
330
18
100
AcDbEntity
  8
SK1
100
AcDbLine
 10
-5.772061999999997
 20
0.4664400000000059
 30
0.0
 11
-5.833879000000002
 21
1.159030999999998
 31
0.0
  0
ARC
  5
6CD
330
18
100
AcDbEntity
  8
SK1
100
AcDbCircle
 10
-42.661995
 20
-2.243649000000004
 30
0.0
 40
36.984935
100
AcDbArc
 50
5.27877399999978
 51
6.218579000000278
  0
ARC
  5
6CE
330
18
100
AcDbEntity
  8
SK1
100
AcDbCircle
 10
-20.46676
 20
0.199512999999996
 30
0.0
 40
14.655552
100
AcDbArc
 50
6.122562999999431
 51
7.996079999999867
  0
ARC
  5
6CF
330
18
100
AcDbEntity
  8
SK1
100
AcDbCircle
 10
-10.49265099999999
 20
1.61945
 30
0.0
 40
4.580720999999998
100
AcDbArc
 50
7.762430999999764
 51
11.76936899999969
  0
ARC
  5
6D0
330
18
100
AcDbEntity
  8
SK1
100
AcDbCircle
 10
-6.774866000000002
 20
2.419409
 30
0.0
 40
0.777654
100
AcDbArc
 50
9.942107999999807
 51
24.05688599999982
  0
ARC
  5
6D1
330
18
100
AcDbEntity
  8
SK1
100
AcDbCircle
 10
-6.115692000000002
 20
2.720033
 30
0.0
 40
0.052363
100
AcDbArc
 50
17.76885799999945
 51
74.82131800000058
  0
LINE
  5
6D2
330
18
100
AcDbEntity
  8
SK1
100
AcDbLine
 10
-6.102131999999997
 20
2.770016999999995
 30
0.0
 11
-6.107989000000002
 21
2.769157000000006
 31
0.0
  0
LINE
  5
6D3
330
18
100
AcDbEntity
  8
SK1
100
AcDbLine
 10
-5.647409999999999
 20
-0.9808079999999959
 30
0.0
 11
-5.650432000000002
 21
-0.9475219999999922
 31
0.0
  0
LWPOLYLINE
  5
6D4
330
18
100
AcDbEntity
  8
SK1
100
AcDbPolyline
 90
        6
 70
     0
 43
0.0
 10
-5.647409999999999
 20
-0.9808079999999959
 10
-5.655244000000002
 20
-1.086049000000002
 10
-5.681277999999998
 20
-1.186973999999991
 10
-5.777470999999997
 20
-1.370045000000004
 10
-5.865898000000001
 20
-1.476432000000002
 10
-5.967612000000002
 20
-1.571832999999997
  0
LWPOLYLINE
  5
6D5
330
18
100
AcDbEntity
  8
SK1
100
AcDbPolyline
 90
        5
 70
     0
 43
0.0
 10
-5.967612000000002
 20
-1.571832999999997
 10
-5.993228999999998
 20
-1.601109000000008
 10
-6.028475999999997
 20
-1.673472000000003
 10
-6.063499999999997
 20
-1.793391999999996
 10
-6.086401999999998
 20
-1.962459999999991
  0
LINE
  5
6D6
330
18
100
AcDbEntity
  8
SK1
100
AcDbLine
 10
-6.649999999999997
 20
-0.8557519999999954
 30
0.0
 11
-6.649999999999997
 21
-1.462601000000006
 31
0.0
  0
LINE
  5
6D7
330
18
100
AcDbEntity
  8
SK1
100
AcDbLine
 10
-6.649999999999997
 20
2.005938999999996
 30
0.0
 11
-6.649999999999997
 21
-0.8557519999999954
 31
0.0
  0
LINE
  5
6D8
330
18
100
AcDbEntity
  8
SK1
100
AcDbLine
 10
-6.649999999999997
 20
2.005938999999996
 30
0.0
 11
-6.649999999999997
 21
2.580287999999995
 31
0.0
  0
LINE
  5
6D9
330
18
100
AcDbEntity
  8
SK1
100
AcDbLine
 10
-6.649999999999997
 20
2.005938999999996
 30
0.0
 11
-6.632575999999999
 21
2.628161000000004
 31
0.0
  0
LINE
  5
6DA
330
18
100
AcDbEntity
  8
SK1
100
AcDbLine
 10
-6.632575999999999
 20
2.628161000000004
 30
0.0
 11
-6.631934999999997
 21
2.629073000000004
 31
0.0
  0
LINE
  5
6DB
330
18
100
AcDbEntity
  8
SK1
100
AcDbLine
 10
-6.150492999999997
 20
-2.545361999999997
 30
0.0
 11
-6.431722999999997
 21
-2.618056999999993
 31
0.0
  0
ARC
  5
6DC
330
18
100
AcDbEntity
  8
SK1
100
AcDbCircle
 10
-14.734787
 20
-1.518888000000004
 30
0.0
 40
8.659777
100
AcDbArc
 50
353.8859449999995
 51
357.0638970000003
  0
LINE
  5
6DD
330
18
100
AcDbEntity
  8
1
100
AcDbLine
 10
2.916600999999998
 20
-6.907338000000008
 30
0.0
 11
0.3834060000000079
 21
-6.907338000000008
 31
0.0
  0
ARC
  5
6DE
330
18
100
AcDbEntity
  8
1
100
AcDbCircle
 10
0.0750000000000029
 20
-4.705544000000003
 30
0.0
 40
0.285
100
AcDbArc
 50
0.0
 51
90.0
  0
ARC
  5
6DF
330
18
100
AcDbEntity
  8
1
100
AcDbCircle
 10
0.0750000000000029
 20
4.705544000000003
 30
0.0
 40
0.285
100
AcDbArc
 50
270.0
 51
0.0
  0
LINE
  5
6E0
330
18
100
AcDbEntity
  8
1
100
AcDbLine
 10
0.2551249999999925
 20
-6.010548
 30
0.0
 11
0.1501069999999913
 21
-4.423800999999997
 31
0.0
  0
LINE
  5
6E1
330
18
100
AcDbEntity
  8
1
100
AcDbLine
 10
3.04487499999999
 20
-6.010548
 30
0.0
 11
3.149892999999991
 21
-4.423801999999994
 31
0.0
  0
LINE
  5
6E2
330
18
100
AcDbEntity
  8
1
100
AcDbLine
 10
0.0
 20
-4.420544000000005
 30
0.0
 11
0.0750000000000029
 21
-4.420544000000005
 31
0.0
  0
LINE
  5
6E3
330
18
100
AcDbEntity
  8
1
100
AcDbLine
 10
0.0
 20
4.420544000000005
 30
0.0
 11
0.0750000000000029
 21
4.420544000000005
 31
0.0
  0
ARC
  5
6E4
330
18
100
AcDbEntity
  8
SK1
100
AcDbCircle
 10
-0.2000000000000028
 20
3.584992999999997
 30
0.0
 40
0.2
100
AcDbArc
 50
272.9999999999999
 51
0.000000999999775
  0
ARC
  5
6E5
330
18
100
AcDbEntity
  8
SK1
100
AcDbCircle
 10
-0.2000000000000028
 20
-3.584992999999997
 30
0.0
 40
0.2
100
AcDbArc
 50
359.9999989999994
 51
87.00000000000009
  0
LINE
  5
6E6
330
18
100
AcDbEntity
  8
SK1
100
AcDbLine
 10
-1.359999999999999
 20
3.323925000000001
 30
0.0
 11
-0.1895329999999973
 21
3.385266999999998
 31
0.0
  0
LINE
  5
6E7
330
18
100
AcDbEntity
  8
SK1
100
AcDbLine
 10
-1.359999999999999
 20
-3.323925000000001
 30
0.0
 11
-0.1895329999999973
 21
-3.385266999999998
 31
0.0
  0
ARC
  5
6E8
330
18
100
AcDbEntity
  8
SK1
100
AcDbCircle
 10
-1.551977999999991
 20
3.379999999999995
 30
0.0
 40
0.2
100
AcDbArc
 50
270.0
 51
343.7175380000002
  0
ARC
  5
6E9
330
18
100
AcDbEntity
  8
SK1
100
AcDbCircle
 10
-1.551977999999991
 20
-3.379999999999995
 30
0.0
 40
0.2
100
AcDbArc
 50
16.28246199999989
 51
90.0
  0
LINE
  5
6EA
330
18
100
AcDbEntity
  8
SK1
100
AcDbLine
 10
-2.862577000000001
 20
3.180000000000006
 30
0.0
 11
-1.551977999999991
 21
3.180000000000006
 31
0.0
  0
LWPOLYLINE
  5
6EB
330
18
100
AcDbEntity
  8
SK1
100
AcDbPolyline
 90
        3
 70
     0
 43
0.0
 10
-2.233697000000006
 20
-3.011826999999995
 10
-2.183171000000001
 20
-3.124356000000004
 10
-2.135264000000006
 20
-3.175137000000006
  0
LWPOLYLINE
  5
6EC
330
18
100
AcDbEntity
  8
SK1
100
AcDbPolyline
 90
        3
 70
     0
 43
0.0
 10
-2.973479999999995
 20
3.01227
 10
-2.923029999999997
 20
3.124667000000001
 10
-2.875396999999991
 20
3.175230999999995
  0
LWPOLYLINE
  5
6ED
330
18
100
AcDbEntity
  8
SK1
100
AcDbPolyline
 90
        3
 70
     0
 43
0.0
 10
-3.713495000000001
 20
-3.012158999999996
 10
-3.663040999999998
 20
-3.124569000000008
 10
-3.615504000000001
 20
-3.175080000000008
  0
LWPOLYLINE
  5
6EE
330
18
100
AcDbEntity
  8
SK1
100
AcDbPolyline
 90
        3
 70
     0
 43
0.0
 10
-4.453567999999997
 20
3.011811999999991
 10
-4.403025999999996
 20
3.124408999999998
 10
-4.355043999999998
 20
3.175240999999998
  0
LWPOLYLINE
  5
6EF
330
18
100
AcDbEntity
  8
SK1
100
AcDbPolyline
 90
        3
 70
     0
 43
0.0
 10
-5.193483999999997
 20
-3.012237999999995
 10
-5.143019999999999
 20
-3.124670000000008
 10
-5.095629000000001
 20
-3.175072
  0
LWPOLYLINE
  5
6F0
330
18
100
AcDbEntity
  8
SK1
100
AcDbPolyline
 90
        3
 70
     0
 43
0.0
 10
-5.933555999999994
 20
3.011878999999993
 10
-5.883074999999998
 20
3.124324
 10
-5.835005000000002
 20
3.175234999999999
  0
LINE
  5
6F1
330
18
100
AcDbEntity
  8
SK1
100
AcDbLine
 10
-2.122168999999999
 20
-3.180000000000006
 30
0.0
 11
-1.551977999999991
 21
-3.180000000000006
 31
0.0
  0
LINE
  5
6F2
330
18
100
AcDbEntity
  8
SK1
100
AcDbLine
 10
-3.602316000000001
 20
-3.180000000000006
 30
0.0
 11
-3.039095000000002
 21
-3.180000000000006
 31
0.0
  0
LINE
  5
6F3
330
18
100
AcDbEntity
  8
SK1
100
AcDbLine
 10
-6.649999999999997
 20
-2.580287999999995
 30
0.0
 11
-6.431722999999997
 21
-3.180000000000006
 31
0.0
  0
LINE
  5
6F4
330
18
100
AcDbEntity
  8
SK1
100
AcDbLine
 10
-2.233697000000006
 20
-3.011826999999995
 30
0.0
 11
-2.305187000000002
 21
-2.785392999999998
 31
0.0
  0
LINE
  5
6F5
330
18
100
AcDbEntity
  8
SK1
100
AcDbLine
 10
-2.973479999999995
 20
3.01227
 30
0.0
 11
-3.044935000000009
 21
2.785908000000005
 31
0.0
  0
LINE
  5
6F6
330
18
100
AcDbEntity
  8
SK1
100
AcDbLine
 10
-3.713495000000001
 20
-3.012158999999996
 30
0.0
 11
-3.784976
 21
-2.785724999999998
 31
0.0
  0
LINE
  5
6F7
330
18
100
AcDbEntity
  8
SK1
100
AcDbLine
 10
-4.453567999999997
 20
3.011811999999991
 30
0.0
 11
-4.525022999999997
 21
2.785482000000001
 31
0.0
  0
LINE
  5
6F8
330
18
100
AcDbEntity
  8
SK1
100
AcDbLine
 10
-5.193483999999997
 20
-3.012237999999995
 30
0.0
 11
-5.264972999999996
 21
-2.785773000000006
 31
0.0
  0
LINE
  5
6F9
330
18
100
AcDbEntity
  8
SK1
100
AcDbLine
 10
-5.933555999999994
 20
3.011878999999993
 30
0.0
 11
-6.005093000000002
 21
2.785296999999999
 31
0.0
  0
LINE
  5
6FA
330
18
100
AcDbEntity
  8
SK1
100
AcDbLine
 10
-4.342201000000001
 20
3.180000000000006
 30
0.0
 11
-3.778958999999999
 21
3.180000000000006
 31
0.0
  0
LINE
  5
6FB
330
18
100
AcDbEntity
  8
SK1
100
AcDbLine
 10
-5.082439999999998
 20
-3.180000000000006
 30
0.0
 11
-4.518828999999995
 21
-3.180000000000006
 31
0.0
  0
LINE
  5
6FC
330
18
100
AcDbEntity
  8
SK1
100
AcDbLine
 10
-5.822131999999996
 20
3.180000000000006
 30
0.0
 11
-5.259034999999997
 21
3.180000000000006
 31
0.0
  0
LINE
  5
6FD
330
18
100
AcDbEntity
  8
SK1
100
AcDbLine
 10
-6.431722999999997
 20
-3.180000000000006
 30
0.0
 11
-5.998717999999996
 21
-3.180000000000006
 31
0.0
  0
ARC
  5
6FE
330
18
100
AcDbEntity
  8
SK1
100
AcDbCircle
 10
-2.394393000000006
 20
-2.900643999999998
 30
0.0
 40
0.130483
100
AcDbArc
 50
39.49496299999998
 51
90.95319699999985
  0
ARC
  5
6FF
330
18
100
AcDbEntity
  8
SK1
100
AcDbCircle
 10
-3.133710000000006
 20
2.898963000000009
 30
0.0
 40
0.128558
100
AcDbArc
 50
268.7371269999994
 51
322.9088120000005
  0
ARC
  5
700
330
18
100
AcDbEntity
  8
SK1
100
AcDbCircle
 10
-3.874628999999998
 20
-2.901576000000004
 30
0.0
 40
0.131285
100
AcDbArc
 50
40.54226599999974
 51
90.82277599999986
  0
ARC
  5
701
330
18
100
AcDbEntity
  8
SK1
100
AcDbCircle
 10
-4.613596000000001
 20
2.898652999999995
 30
0.0
 40
0.128422
100
AcDbArc
 50
268.7229069999997
 51
322.927916
  0
ARC
  5
702
330
18
100
AcDbEntity
  8
SK1
100
AcDbCircle
 10
-5.354222999999996
 20
-2.900907000000002
 30
0.0
 40
0.130469
100
AcDbArc
 50
39.60399699999971
 51
90.9882140000006
  0
ARC
  5
703
330
18
100
AcDbEntity
  8
SK1
100
AcDbCircle
 10
-6.093501000000002
 20
2.898375000000001
 30
0.0
 40
0.128189
100
AcDbArc
 50
268.6657650000005
 51
322.9394420000007
  0
ARC
  5
704
330
18
100
AcDbEntity
  8
SK1
100
AcDbCircle
 10
-3.296479000000004
 20
-2.942244000000001
 30
0.0
 40
0.35832
100
AcDbArc
 50
320.738129
 51
345.6947799999999
  0
ARC
  5
705
330
18
100
AcDbEntity
  8
SK1
100
AcDbCircle
 10
-4.033869000000001
 20
2.944388000000003
 30
0.0
 40
0.355213
100
AcDbArc
 50
14.1462239999998
 51
39.47644000000007
  0
ARC
  5
706
330
18
100
AcDbEntity
  8
SK1
100
AcDbCircle
 10
-4.776324999999999
 20
-2.942920999999998
 30
0.0
 40
0.357985
100
AcDbArc
 50
320.6043549999995
 51
345.69531
  0
ARC
  5
707
330
18
100
AcDbEntity
  8
SK1
100
AcDbCircle
 10
-5.518286000000002
 20
2.941592999999997
 30
0.0
 40
0.360345
100
AcDbArc
 50
14.30874299999973
 51
39.36634900000021
  0
ARC
  5
708
330
18
100
AcDbEntity
  8
SK1
100
AcDbCircle
 10
-6.256658000000001
 20
-2.942768999999998
 30
0.0
 40
0.358407
100
AcDbArc
 50
320.582397
 51
345.7280700000003
  0
LINE
  5
709
330
18
100
AcDbEntity
  8
SK1
100
AcDbLine
 10
-2.396566000000006
 20
-2.770039999999994
 30
0.0
 11
-2.779810999999995
 21
-2.770039999999994
 31
0.0
  0
LINE
  5
70A
330
18
100
AcDbEntity
  8
SK1
100
AcDbLine
 10
-3.136547000000006
 20
2.770249000000005
 30
0.0
 11
-3.519745999999996
 21
2.770249000000005
 31
0.0
  0
LINE
  5
70B
330
18
100
AcDbEntity
  8
SK1
100
AcDbLine
 10
-3.876514999999996
 20
-2.770201999999997
 30
0.0
 11
-4.259719000000004
 21
-2.770201999999997
 31
0.0
  0
LINE
  5
70C
330
18
100
AcDbEntity
  8
SK1
100
AcDbLine
 10
-4.616462999999995
 20
2.77007499999999
 30
0.0
 11
-4.999665999999996
 21
2.77007499999999
 31
0.0
  0
LINE
  5
70D
330
18
100
AcDbEntity
  8
SK1
100
AcDbLine
 10
-5.356475999999999
 20
-2.77028899999999
 30
0.0
 11
-5.739688999999997
 21
-2.77028899999999
 31
0.0
  0
LINE
  5
70E
330
18
100
AcDbEntity
  8
SK1
100
AcDbLine
 10
-6.096490000000001
 20
2.770016999999995
 30
0.0
 11
-6.102131999999997
 21
2.770016999999995
 31
0.0
  0
ARC
  5
70F
330
18
100
AcDbEntity
  8
SK1
100
AcDbCircle
 10
-2.782957000000009
 20
-2.898004999999996
 30
0.0
 40
0.127788
100
AcDbArc
 50
88.59153899999961
 51
142.922414
  0
ARC
  5
710
330
18
100
AcDbEntity
  8
SK1
100
AcDbCircle
 10
-3.522179999999991
 20
2.900565999999996
 30
0.0
 40
0.130183
100
AcDbArc
 50
219.357484
 51
271.0696469999995
  0
ARC
  5
711
330
18
100
AcDbEntity
  8
SK1
100
AcDbCircle
 10
-4.262652000000001
 20
-2.898859999999998
 30
0.0
 40
0.128476
100
AcDbArc
 50
88.69393200000002
 51
142.8387480000001
  0
ARC
  5
712
330
18
100
AcDbEntity
  8
SK1
100
AcDbCircle
 10
-5.001702999999999
 20
2.901195999999998
 30
0.0
 40
0.131024
100
AcDbArc
 50
220.7970089999996
 51
270.8898670000005
  0
ARC
  5
713
330
18
100
AcDbEntity
  8
SK1
100
AcDbCircle
 10
-5.742590999999997
 20
-2.899137999999993
 30
0.0
 40
0.128689
100
AcDbArc
 50
88.70992799999951
 51
142.801828
  0
LINE
  5
714
330
18
100
AcDbEntity
  8
SK1
100
AcDbLine
 10
-6.649999999999997
 20
2.580287999999995
 30
0.0
 11
-6.632575999999999
 21
2.628161000000004
 31
0.0
  0
LINE
  5
715
330
18
100
AcDbEntity
  8
SK1
100
AcDbLine
 10
-6.107471000000002
 20
2.769581999999998
 30
0.0
 11
-6.631974999999997
 21
2.629064999999997
 31
0.0
  0
LINE
  5
716
330
18
100
AcDbEntity
  8
SK1
100
AcDbLine
 10
-2.871215000000006
 20
-2.78541899999999
 30
0.0
 11
-2.948710000000004
 21
-3.030923000000001
 31
0.0
  0
LINE
  5
717
330
18
100
AcDbEntity
  8
SK1
100
AcDbLine
 10
-3.611289999999995
 20
2.785761000000006
 30
0.0
 11
-3.688805000000001
 21
3.031357999999996
 31
0.0
  0
LINE
  5
718
330
18
100
AcDbEntity
  8
SK1
100
AcDbLine
 10
-4.351304999999995
 20
-2.785764999999996
 30
0.0
 11
-4.428866999999995
 21
-3.031517000000008
 31
0.0
  0
LINE
  5
719
330
18
100
AcDbEntity
  8
SK1
100
AcDbLine
 10
-5.091073999999998
 20
2.78546399999999
 30
0.0
 11
-5.168517000000001
 21
3.030804999999999
 31
0.0
  0
LINE
  5
71A
330
18
100
AcDbEntity
  8
SK1
100
AcDbLine
 10
-5.840756999999996
 20
-2.815793999999995
 30
0.0
 11
-5.90874
 21
-3.031270000000006
 31
0.0
  0
CIRCLE
  5
71B
102
{ACAD_REACTORS
330
722
102
}
330
18
100
AcDbEntity
  8
SKVIEW3
100
AcDbCircle
 10
28.0814524634154
 20
0.8589154003806669
 30
0.0
 40
8.842024401809824
  0
LINE
  5
71C
330
18
100
AcDbEntity
  8
SKVIEW4
100
AcDbLine
 10
38.33349659629687
 20
0.8589154003806669
 30
0.0
 11
17.07468098362516
 21
0.8436408552301202
 31
0.0
  0
LINE
  5
71D
330
18
100
AcDbEntity
  8
SKVIEW4
100
AcDbLine
 10
28.0814524634154
 20
11.03299660378562
 30
0.0
 11
28.0814524634154
 21
-9.913894369726762
 31
0.0
  0
INSERT
  5
71E
102
{ACAD_REACTORS
330
8CE
102
}
330
18
100
AcDbEntity
  8
4
100
AcDbBlockReference
  2
CUT
 10
-54.75568090940932
 20
-54.67482872558647
 30
0.0
  0
INSERT
  5
71F
330
18
100
AcDbEntity
  8
0
100
AcDbBlockReference
  2
NOCUT
 10
-56.85346742104604
 20
-56.39765770433323
 30
0.0
  0
DIMENSION
  5
720
102
{ACAD_XDICTIONARY
360
721
102
}
102
{ACAD_REACTORS
330
722
102
}
330
18
100
AcDbEntity
  8
SKVIEW2
100
AcDbDimension
  2
*D4
 10
22.97975660411144
 20
-6.362863804314097
 30
0.0
 11
36.94105708767086
 21
17.51649725849609
 31
0.0
 70
    35
  1
D18
 71
     5
 42
17.68404880361968
  3
STANDARD
100
AcDbDiametricDimension
 15
33.18314832271934
 25
8.080694605075418
 35
0.0
 40
0.0
1001
ACAD_DSTYLE_DIMRADIAL_EXTENSION
1070
   387
1070
     1
1070
   388
1040
0.0
1070
   390
1040
0.0
  0
DIMENSION
  5
726
330
18
100
AcDbEntity
  8
2
100
AcDbDimension
  2
*D5
 10
0.1500840000000003
 20
23.5260617305893
 30
0.0
 11
1.646111305365279
 21
23.5260617305893
 31
0.0
 70
   160
 71
     5
 42
2.992054610730561
  3
STANDARD
100
AcDbAlignedDimension
 13
3.142138610730559
 23
7.451309353653782
 33
0.0
 14
0.1500839999999993
 24
7.452446664125602
 34
0.0
100
AcDbRotatedDimension
1001
ACAD
1000
DSTYLE
1002
{
1070
   271
1070
     0
1002
}
  0
DIMENSION
  5
729
330
18
100
AcDbEntity
  8
2
100
AcDbDimension
  2
*D6
 10
-12.50661267474038
 20
5.043224000000011
 30
0.0
 11
-12.50661267474038
 21
20.63489066666669
 31
0.0
 70
   160
 71
     5
 42
3.799999999999982
  3
STANDARD
100
AcDbAlignedDimension
 13
1.67063225847797
 23
8.843223999999992
 33
0.0
 14
0.3744586993971009
 24
5.043224000000007
 34
0.0
 50
90.0
100
AcDbRotatedDimension
1001
ACAD
1000
DSTYLE
1002
{
1070
   271
1070
     1
1002
}
  0
INSERT
  5
72C
330
18
100
AcDbEntity
  8
2
100
AcDbBlockReference
  2
CERO_POINT
 10
0.0
 20
0.0
 30
0.0
  0
ELLIPSE
  5
853
330
18
100
AcDbEntity
  8
1
100
AcDbEllipse
 10
1.646071031692963
 20
7.345925386514505
 30
0.0
 11
1.060500820739292
 21
1.060500820739294
 31
0.0
210
0.0
220
0.0
230
-1.0
 40
0.9999999999999976
 41
3.998075523131951
 42
6.998258984792585
  0
DIMENSION
  5
8BF
102
{ACAD_XDICTIONARY
360
8C8
102
}
102
{ACAD_REACTORS
330
8CE
102
}
330
18
100
AcDbEntity
  8
2
100
AcDbDimension
  2
*D7
 10
1.649999999999776
 20
7.343224000000005
 30
0.0
 11
14.13662779650661
 21
19.37772415137341
 31
0.0
 70
   164
 71
     5
 42
1.500000000000006
  3
STANDARD
100
AcDbRadialDimension
 15
2.730033356478466
 25
8.384150485825683
 35
0.0
 40
0.0
1001
ACAD
1000
DSTYLE
1002
{
1070
   271
1070
     1
1002
}
1001
ACAD_DSTYLE_DIMRADIAL_EXTENSION
1070
   387
1070
     1
1070
   388
1040
0.1837443796018985
1070
   390
1040
2.957856829075442
  0
ATTDEF
  5
9C3
330
18
100
AcDbEntity
  8
SK6
100
AcDbText
 10
0.9691079695172728
 20
-33.41599329734196
 30
0.0
 40
2.5
  1

 72
     1
 11
16.80244130285061
 21
-33.41599329734196
 31
0.0
100
AcDbAttributeDefinition
  3

  2
16T17730T6RK02
 70
     0
  0
ENDSEC
  0
SECTION
  2
OBJECTS
  0
DICTIONARY
  5
C
330
0
100
AcDbDictionary
281
     1
  3
ACAD_CIP_PREVIOUS_PRODUCT_INFO
350
999
  3
ACAD_COLOR
350
387
  3
ACAD_GROUP
350
D
  3
ACAD_LAYOUT
350
301
  3
ACAD_MATERIAL
350
386
  3
ACAD_MLEADERSTYLE
350
43C
  3
ACAD_MLINESTYLE
350
E
  3
ACAD_PLOTSETTINGS
350
302
  3
ACAD_PLOTSTYLENAME
350
2FF
  3
ACAD_SCALELIST
350
41A
  3
ACAD_TABLESTYLE
350
388
  3
ACAD_VISUALSTYLE
350
3F2
  3
ACDB_RECOMPOSE_DATA
350
9C7
  3
AcDbVariableDictionary
350
357
  3
AEC_PROPERTY_SET_DEFS
350
630
  0
DICTIONARY
  5
451
330
2
100
AcDbDictionary
280
     1
281
     1
  3
ACAD_LAYERFILTERS
360
49D
  3
ACLYDICTIONARY
360
49C
  0
DICTIONARY
  5
7F3
330
F
100
AcDbDictionary
280
     1
281
     1
  3
ADSK_XREC_LAYER_RECONCILED
360
7F4
  0
DICTIONARY
  5
7F5
330
23
100
AcDbDictionary
280
     1
281
     1
  3
ADSK_XREC_LAYER_RECONCILED
360
7F6
  0
DICTIONARY
  5
7F7
330
24
100
AcDbDictionary
280
     1
281
     1
  3
ADSK_XREC_LAYER_RECONCILED
360
7F8
  0
DICTIONARY
  5
7F9
330
25
100
AcDbDictionary
280
     1
281
     1
  3
ADSK_XREC_LAYER_RECONCILED
360
7FA
  0
DICTIONARY
  5
7FB
330
27
100
AcDbDictionary
280
     1
281
     1
  3
ADSK_XREC_LAYER_RECONCILED
360
7FC
  0
DICTIONARY
  5
7FD
330
2A
100
AcDbDictionary
280
     1
281
     1
  3
ADSK_XREC_LAYER_RECONCILED
360
7FE
  0
DICTIONARY
  5
7FF
330
2B
100
AcDbDictionary
280
     1
281
     1
  3
ADSK_XREC_LAYER_RECONCILED
360
800
  0
DICTIONARY
  5
801
330
2E
100
AcDbDictionary
280
     1
281
     1
  3
ADSK_XREC_LAYER_RECONCILED
360
802
  0
DICTIONARY
  5
803
330
375
100
AcDbDictionary
280
     1
281
     1
  3
ADSK_XREC_LAYER_RECONCILED
360
804
  0
DICTIONARY
  5
805
330
376
100
AcDbDictionary
280
     1
281
     1
  3
ADSK_XREC_LAYER_RECONCILED
360
806
  0
DICTIONARY
  5
807
330
479
100
AcDbDictionary
280
     1
281
     1
  3
ADSK_XREC_LAYER_RECONCILED
360
808
  0
DICTIONARY
  5
809
330
47D
100
AcDbDictionary
280
     1
281
     1
  3
ADSK_XREC_LAYER_RECONCILED
360
80A
  0
DICTIONARY
  5
80B
330
47E
100
AcDbDictionary
280
     1
281
     1
  3
ADSK_XREC_LAYER_RECONCILED
360
80C
  0
DICTIONARY
  5
80D
330
47F
100
AcDbDictionary
280
     1
281
     1
  3
ADSK_XREC_LAYER_RECONCILED
360
80E
  0
DICTIONARY
  5
80F
330
49B
100
AcDbDictionary
280
     1
281
     1
  3
ADSK_XREC_LAYER_RECONCILED
360
810
  0
DICTIONARY
  5
8BD
330
18
100
AcDbDictionary
280
     1
281
     1
  3
ACAD_SORTENTS
360
8BE
  0
DICTIONARY
  5
846
330
4A6
100
AcDbDictionary
280
     1
281
     1
  3
ACAD_SORTENTS
360
84A
  0
DICTIONARY
  5
8B9
330
4B9
100
AcDbDictionary
280
     1
281
     1
  0
DICTIONARY
  5
4F9
330
4F8
100
AcDbDictionary
280
     1
281
     1
  3
ACAD_SORTENTS
360
4FA
  0
DICTIONARY
  5
721
330
720
100
AcDbDictionary
280
     1
281
     1
  3
ACAD_DIMASSOC
360
722
  0
DICTIONARY
  5
8C8
330
8BF
100
AcDbDictionary
280
     1
281
     1
  3
ACAD_DIMASSOC
360
8CE
  0
XRECORD
  5
999
102
{ACAD_REACTORS
330
C
102
}
330
C
100
AcDbXrecord
280
     1
300
ACDLT
300
2012
300
ACDLT_F_S
  0
DICTIONARY
  5
387
102
{ACAD_REACTORS
330
C
102
}
330
C
100
AcDbDictionary
281
     1
  0
DICTIONARY
  5
D
102
{ACAD_REACTORS
330
C
102
}
330
C
100
AcDbDictionary
281
     1
  0
DICTIONARY
  5
301
102
{ACAD_REACTORS
330
C
102
}
330
C
100
AcDbDictionary
281
     1
  3
Layout1
350
33B
  3
Model
350
303
  0
DICTIONARY
  5
386
102
{ACAD_REACTORS
330
C
102
}
330
C
100
AcDbDictionary
281
     1
  3
ByBlock
350
3F0
  3
ByLayer
350
3EF
  3
Global
350
3F1
  0
DICTIONARY
  5
43C
102
{ACAD_REACTORS
330
C
102
}
330
C
100
AcDbDictionary
281
     1
  3
Standard
350
43D
  0
DICTIONARY
  5
E
102
{ACAD_REACTORS
330
C
102
}
330
C
100
AcDbDictionary
281
     1
  3
STANDARD
350
1B
  0
DICTIONARY
  5
302
102
{ACAD_REACTORS
330
C
102
}
330
C
100
AcDbDictionary
281
     1
  0
ACDBDICTIONARYWDFLT
  5
2FF
102
{ACAD_REACTORS
330
C
102
}
330
C
100
AcDbDictionary
281
     1
  3
Normal
350
300
100
AcDbDictionaryWithDefault
340
300
  0
DICTIONARY
  5
41A
102
{ACAD_REACTORS
330
C
102
}
330
C
100
AcDbDictionary
281
     1
  3
A0
350
41B
  3
A1
350
41C
  3
A2
350
41D
  3
A3
350
41E
  3
A4
350
41F
  3
A5
350
420
  3
A6
350
421
  3
A7
350
422
  3
A8
350
423
  3
A9
350
424
  3
B0
350
425
  3
B1
350
426
  3
B2
350
427
  3
B3
350
428
  3
B4
350
429
  3
B5
350
42A
  3
B6
350
42B
  3
B7
350
42C
  3
B8
350
42D
  3
B9
350
42E
  3
C0
350
42F
  3
C1
350
430
  3
C2
350
431
  3
C3
350
432
  3
C4
350
433
  3
C5
350
434
  3
C6
350
435
  3
C7
350
436
  3
C8
350
437
  3
C9
350
438
  3
D0
350
439
  3
D1
350
43A
  3
D2
350
43B
  0
DICTIONARY
  5
388
102
{ACAD_REACTORS
330
C
102
}
330
C
100
AcDbDictionary
281
     1
  3
Standard
350
389
  0
DICTIONARY
  5
3F2
102
{ACAD_REACTORS
330
C
102
}
330
C
100
AcDbDictionary
281
     1
  3
2dWireframe
350
3F8
  3
3D Hidden
350
3FA
  3
3dWireframe
350
3F9
  3
Basic
350
3F7
  3
Brighten
350
3FE
  3
ColorChange
350
402
  3
Conceptual
350
3FB
  3
Dim
350
3FD
  3
EdgeColorOff
350
997
  3
Facepattern
350
401
  3
Flat
350
3F3
  3
FlatWithEdges
350
3F4
  3
Gouraud
350
3F5
  3
GouraudWithEdges
350
3F6
  3
Hidden
350
98F
  3
JitterOff
350
995
  3
Linepattern
350
400
  3
OverhangOff
350
996
  3
Realistic
350
3FC
  3
Shaded
350
994
  3
Shaded with edges
350
993
  3
Shades of Gray
350
990
  3
Sketchy
350
991
  3
Thicken
350
3FF
  3
Wireframe
350
98E
  3
X-Ray
350
992
  0
XRECORD
  5
9C7
102
{ACAD_REACTORS
330
C
102
}
330
C
100
AcDbXrecord
280
     1
 90
        1
330
389
  0
DICTIONARY
  5
357
102
{ACAD_REACTORS
330
C
102
}
330
C
100
AcDbDictionary
281
     1
  3
CANNOSCALE
350
449
  3
CMLEADERSTYLE
350
447
  3
CTABLESTYLE
350
38E
  3
DIMASSOC
350
359
  3
HIDETEXT
350
358
  3
INDEXCTL
350
824
  3
LIGHTINGUNITS
350
44A
  3
MSLTSCALE
350
448
  3
SORTENTS
350
823
  3
XCLIPFRAME
350
9C4
  0
DICTIONARY
  5
630
102
{ACAD_REACTORS
330
C
102
}
330
C
100
AcDbDictionary
281
     1
  0
DICTIONARY
  5
49D
102
{ACAD_REACTORS
330
451
102
}
330
451
100
AcDbDictionary
281
     1
  0
DICTIONARY
  5
49C
102
{ACAD_REACTORS
330
451
102
}
330
451
100
AcDbDictionary
281
     1
1001
ACAD
1000
<All
  0
XRECORD
  5
7F4
102
{ACAD_REACTORS
330
7F3
102
}
330
7F3
100
AcDbXrecord
280
     1
290
     1
  0
XRECORD
  5
7F6
102
{ACAD_REACTORS
330
7F5
102
}
330
7F5
100
AcDbXrecord
280
     1
290
     1
  0
XRECORD
  5
7F8
102
{ACAD_REACTORS
330
7F7
102
}
330
7F7
100
AcDbXrecord
280
     1
290
     1
  0
XRECORD
  5
7FA
102
{ACAD_REACTORS
330
7F9
102
}
330
7F9
100
AcDbXrecord
280
     1
290
     1
  0
XRECORD
  5
7FC
102
{ACAD_REACTORS
330
7FB
102
}
330
7FB
100
AcDbXrecord
280
     1
290
     1
  0
XRECORD
  5
7FE
102
{ACAD_REACTORS
330
7FD
102
}
330
7FD
100
AcDbXrecord
280
     1
290
     1
  0
XRECORD
  5
800
102
{ACAD_REACTORS
330
7FF
102
}
330
7FF
100
AcDbXrecord
280
     1
290
     1
  0
XRECORD
  5
802
102
{ACAD_REACTORS
330
801
102
}
330
801
100
AcDbXrecord
280
     1
290
     1
  0
XRECORD
  5
804
102
{ACAD_REACTORS
330
803
102
}
330
803
100
AcDbXrecord
280
     1
290
     1
  0
XRECORD
  5
806
102
{ACAD_REACTORS
330
805
102
}
330
805
100
AcDbXrecord
280
     1
290
     1
  0
XRECORD
  5
808
102
{ACAD_REACTORS
330
807
102
}
330
807
100
AcDbXrecord
280
     1
290
     1
  0
XRECORD
  5
80A
102
{ACAD_REACTORS
330
809
102
}
330
809
100
AcDbXrecord
280
     1
290
     1
  0
XRECORD
  5
80C
102
{ACAD_REACTORS
330
80B
102
}
330
80B
100
AcDbXrecord
280
     1
290
     1
  0
XRECORD
  5
80E
102
{ACAD_REACTORS
330
80D
102
}
330
80D
100
AcDbXrecord
280
     1
290
     1
  0
XRECORD
  5
810
102
{ACAD_REACTORS
330
80F
102
}
330
80F
100
AcDbXrecord
280
     1
290
     1
  0
SORTENTSTABLE
  5
8BE
102
{ACAD_REACTORS
330
8BD
102
}
330
8BD
100
AcDbSortentsTable
330
18
331
68C
  5
68C
331
6E0
  5
6E0
331
71D
  5
71D
331
694
  5
694
331
6E8
  5
6E8
331
6F0
  5
6F0
331
65D
  5
65D
331
632
  5
632
331
6F8
  5
6F8
331
6A4
  5
6A4
331
665
  5
665
331
63A
  5
63A
331
642
  5
642
331
6C1
  5
6C1
331
720
  5
71F
331
66D
  5
66D
331
6AC
  5
6AC
331
700
  5
700
331
64A
  5
64A
331
6C9
  5
6C9
331
675
  5
675
331
6B4
  5
6B4
331
708
  5
708
331
710
  5
710
331
652
  5
652
331
6D1
  5
6D1
331
6BC
  5
6BC
331
685
  5
685
331
6D9
  5
6D9
331
68D
  5
68D
331
6E1
  5
6E1
331
71E
  5
9C2
331
695
  5
695
331
6E9
  5
6E9
331
65E
  5
65E
331
633
  5
633
331
6F1
  5
6F1
331
63B
  5
63B
331
666
  5
666
331
6A5
  5
6A5
331
6F9
  5
6F9
331
729
  5
726
331
701
  5
701
331
6AD
  5
6AD
331
66E
  5
66E
331
643
  5
643
331
6C2
  5
6C2
331
6CA
  5
6CA
331
709
  5
709
331
6B5
  5
6B5
331
676
  5
676
331
64B
  5
64B
331
653
  5
653
331
6D2
  5
6D2
331
67E
  5
67E
331
6BD
  5
6BD
331
711
  5
711
331
686
  5
686
331
6DA
  5
6DA
331
68E
  5
68E
331
6E2
  5
6E2
331
71F
  5
71E
331
696
  5
696
331
6EA
  5
6EA
331
6F2
  5
6F2
331
65F
  5
65F
331
634
  5
634
331
63C
  5
63C
331
6A6
  5
6A6
331
6FA
  5
6FA
331
667
  5
667
331
644
  5
644
331
6C3
  5
6C3
331
66F
  5
66F
331
6AE
  5
6AE
331
702
  5
702
331
64C
  5
64C
331
6CB
  5
6CB
331
677
  5
677
331
6B6
  5
6B6
331
70A
  5
70A
331
712
  5
712
331
6BE
  5
6BE
331
67F
  5
67F
331
654
  5
654
331
6D3
  5
6D3
331
6DB
  5
6DB
331
687
  5
687
331
68F
  5
68F
331
6E3
  5
6E3
331
718
  5
718
331
658
  5
658
331
697
  5
697
331
6EB
  5
6EB
331
635
  5
635
331
660
  5
660
331
69F
  5
69F
331
6F3
  5
6F3
331
63D
  5
63D
331
6A7
  5
6A7
331
6FB
  5
6FB
331
668
  5
668
331
703
  5
703
331
6AF
  5
6AF
331
670
  5
670
331
645
  5
645
331
6C4
  5
6C4
331
64D
  5
64D
331
6CC
  5
6CC
331
6B7
  5
6B7
331
70B
  5
70B
331
678
  5
678
331
655
  5
655
331
6D4
  5
6D4
331
680
  5
680
331
6BF
  5
6BF
331
713
  5
713
331
6DC
  5
6DC
331
688
  5
688
331
853
  5
9C1
331
719
  5
719
331
690
  5
690
331
6E4
  5
6E4
331
6EC
  5
6EC
331
659
  5
659
331
698
  5
698
331
6F4
  5
6F4
331
6A0
  5
6A0
331
661
  5
661
331
636
  5
636
331
63E
  5
63E
331
6FC
  5
6FC
331
669
  5
669
331
6A8
  5
6A8
331
72C
  5
729
331
646
  5
646
331
6C5
  5
6C5
331
671
  5
671
331
6B0
  5
6B0
331
704
  5
704
331
64E
  5
64E
331
6CD
  5
6CD
331
679
  5
679
331
6B8
  5
6B8
331
70C
  5
70C
331
714
  5
714
331
681
  5
681
331
656
  5
656
331
6D5
  5
6D5
331
6DD
  5
6DD
331
689
  5
689
331
691
  5
691
331
6E5
  5
6E5
331
71A
  5
71A
331
65A
  5
65A
331
699
  5
699
331
6ED
  5
6ED
331
637
  5
637
331
662
  5
662
331
6A1
  5
6A1
331
6F5
  5
6F5
331
6FD
  5
6FD
331
63F
  5
63F
331
66A
  5
66A
331
9C3
  5
9C0
331
705
  5
705
331
6B1
  5
6B1
331
672
  5
672
331
647
  5
647
331
6C6
  5
6C6
331
64F
  5
64F
331
6CE
  5
6CE
331
6B9
  5
6B9
331
70D
  5
70D
331
682
  5
682
331
657
  5
657
331
6D6
  5
6D6
331
715
  5
715
331
6DE
  5
6DE
331
68A
  5
68A
331
71B
  5
71B
331
692
  5
692
331
6E6
  5
6E6
331
6EE
  5
6EE
331
65B
  5
65B
331
6F6
  5
6F6
331
6A2
  5
6A2
331
663
  5
663
331
638
  5
638
331
6FE
  5
6FE
331
640
  5
640
331
66B
  5
66B
331
6AA
  5
6AA
331
648
  5
648
331
6C7
  5
6C7
331
726
  5
723
331
673
  5
673
331
6B2
  5
6B2
331
706
  5
706
331
70E
  5
70E
331
650
  5
650
331
6CF
  5
6CF
331
6BA
  5
6BA
331
716
  5
716
331
683
  5
683
331
6D7
  5
6D7
331
6DF
  5
6DF
331
68B
  5
68B
331
693
  5
693
331
6E7
  5
6E7
331
71C
  5
71C
331
65C
  5
65C
331
6EF
  5
6EF
331
639
  5
639
331
8BF
  5
9C3
331
664
  5
664
331
6A3
  5
6A3
331
6F7
  5
6F7
331
6FF
  5
6FF
331
641
  5
641
331
6C0
  5
6C0
331
66C
  5
66C
331
6AB
  5
6AB
331
707
  5
707
331
6B3
  5
6B3
331
674
  5
674
331
649
  5
649
331
6C8
  5
6C8
331
651
  5
651
331
6D0
  5
6D0
331
70F
  5
70F
331
6BB
  5
6BB
331
684
  5
684
331
6D8
  5
6D8
331
717
  5
717
  0
SORTENTSTABLE
  5
84A
102
{ACAD_REACTORS
330
846
102
}
330
846
100
AcDbSortentsTable
330
4A6
331
839
  5
839
331
837
  5
837
331
835
  5
835
331
83C
  5
83D
331
83A
  5
83A
331
838
  5
838
331
836
  5
836
331
844
  5
849
331
83D
  5
83E
331
849
  5
83C
  0
SORTENTSTABLE
  5
4FA
102
{ACAD_REACTORS
330
4F9
102
}
330
4F9
100
AcDbSortentsTable
330
4F8
  0
DIMASSOC
  5
722
102
{ACAD_REACTORS
330
721
102
}
330
721
100
AcDbDimAssoc
330
720
 90
        2
 70
     0
 71
     0
  1
AcDbOsnapPointRef
 72
     3
331
71B
 73
     2
 91
        0
 40
0.0
 10
0.0
 20
0.0
 30
0.0
 75
     0
  0
DIMASSOC
  5
8CE
102
{ACAD_REACTORS
330
8C8
102
}
330
8C8
100
AcDbDimAssoc
330
8BF
 90
        2
 70
     0
 71
     0
  1
AcDbOsnapPointRef
 72
     3
331
71E
331
849
 73
     2
 91
        0
 40
0.0
 10
0.0
 20
0.0
 30
0.0
 75
     0
  0
LAYOUT
  5
33B
102
{ACAD_REACTORS
330
301
102
}
330
301
100
AcDbPlotSettings
  1

  2
Lexmark Optra PS2
  4

  6

 40
0.0
 41
0.0
 42
0.0
 43
0.0
 44
0.0
 45
0.0
 46
0.0
 47
0.0
 48
0.0
 49
0.0
140
0.0
141
0.0
142
1.0
143
1.0
 70
   688
 72
     0
 73
     0
 74
     5
  7
monochrome.ctb
 75
    16
147
1.0
 76
     0
 77
     2
 78
   300
148
0.0
149
0.0
100
AcDbLayout
  1
Layout1
 70
     1
 71
     1
 10
0.0
 20
0.0
 11
12.0
 21
9.0
 12
0.0
 22
0.0
 32
0.0
 14
0.0
 24
0.0
 34
0.0
 15
0.0
 25
0.0
 35
0.0
146
0.0
 13
0.0
 23
0.0
 33
0.0
 16
1.0
 26
0.0
 36
0.0
 17
0.0
 27
1.0
 37
0.0
 76
     0
330
338
  0
LAYOUT
  5
303
102
{ACAD_REACTORS
330
301
102
}
330
301
100
AcDbPlotSettings
  1

  2
Default Windows System Printer.pc3
  4
A4
  6

 40
6.805083274841307
 41
5.535083293914794
 42
6.974411010742187
 43
7.14373779296875
 44
209.9733276367186
 45
296.9259948730469
 46
67.83299579489725
 47
0.0
 48
0.0
 49
0.0
140
0.0
141
0.0
142
1.0
143
0.3604333568168785
 70
  3764
 72
     1
 73
     1
 74
     1
  7
monochrome.ctb
 75
     0
147
2.774437995504559
 76
     1
 77
     2
 78
   300
148
-82.35087775247029
149
-53.69369632994493
100
AcDbLayout
  1
Model
 70
     1
 71
     0
 10
0.0
 20
0.0
 11
12.0
 21
9.0
 12
0.0
 22
0.0
 32
0.0
 14
0.0
 24
0.0
 34
0.0
 15
0.0
 25
0.0
 35
0.0
146
0.0
 13
0.0
 23
0.0
 33
0.0
 16
1.0
 26
0.0
 36
0.0
 17
0.0
 27
1.0
 37
0.0
 76
     0
330
18
331
3ED
1001
ACAD_PSEXT
1000
Default Windows System Printer.pc3
1000
Lexmark Optra Rx
1000
Lexmark Rx
1000
Erstellt von Lexmark Benutzerdefinierte Installation,Nov 13,2005,10:03
1070
     0
  0
MATERIAL
  5
3F0
102
{ACAD_XDICTIONARY
360
987
102
}
102
{ACAD_REACTORS
330
386
102
}
330
386
100
AcDbMaterial
  1
ByBlock
 73
     1
 78
     1
172
     1
176
     1
270
     1
274
     1
  0
MATERIAL
  5
3EF
102
{ACAD_XDICTIONARY
360
985
102
}
102
{ACAD_REACTORS
330
386
102
}
330
386
100
AcDbMaterial
  1
ByLayer
 73
     1
 78
     1
172
     1
176
     1
270
     1
274
     1
  0
MATERIAL
  5
3F1
102
{ACAD_XDICTIONARY
360
989
102
}
102
{ACAD_REACTORS
330
386
102
}
330
386
100
AcDbMaterial
  1
Global
 73
     1
 78
     1
172
     1
176
     1
270
     1
274
     1
  0
MLEADERSTYLE
  5
43D
102
{ACAD_REACTORS
330
43C
102
}
330
43C
100
AcDbMLeaderStyle
170
     2
171
     1
172
     0
 90
        2
 40
0.0
 41
0.0
173
     1
 91
-1056964608
340
12
 92
       -2
290
     1
 42
2.0
291
     1
 43
0.36
  3
Standard
 44
4.0
300

342
10
174
     1
178
     6
175
     1
176
     0
 93
-1056964608
 45
4.0
292
     0
297
     0
 46
4.0
 94
-1056964608
 47
1.0
 49
1.0
140
1.0
293
     1
141
0.0
294
     1
177
     0
142
1.0
295
     0
296
     0
143
0.125
1001
ACAD_MLEADERVER
1070
     2
  0
MLINESTYLE
  5
1B
102
{ACAD_REACTORS
330
E
102
}
330
E
100
AcDbMlineStyle
  2
STANDARD
 70
     0
  3

 62
     0
 51
90.0
 52
90.0
 71
     2
 49
0.5
 62
   256
  6
BYLAYER
 49
-0.5
 62
   256
  6
BYLAYER
  0
ACDBPLACEHOLDER
  5
300
102
{ACAD_REACTORS
330
2FF
102
}
330
2FF
  0
SCALE
  5
41B
102
{ACAD_REACTORS
330
41A
102
}
330
41A
100
AcDbScale
 70
     0
300
1:1
140
1.0
141
1.0
290
     1
  0
SCALE
  5
41C
102
{ACAD_REACTORS
330
41A
102
}
330
41A
100
AcDbScale
 70
     0
300
1:2
140
1.0
141
2.0
290
     0
  0
SCALE
  5
41D
102
{ACAD_REACTORS
330
41A
102
}
330
41A
100
AcDbScale
 70
     0
300
1:4
140
1.0
141
4.0
290
     0
  0
SCALE
  5
41E
102
{ACAD_REACTORS
330
41A
102
}
330
41A
100
AcDbScale
 70
     0
300
1:5
140
1.0
141
5.0
290
     0
  0
SCALE
  5
41F
102
{ACAD_REACTORS
330
41A
102
}
330
41A
100
AcDbScale
 70
     0
300
1:8
140
1.0
141
8.0
290
     0
  0
SCALE
  5
420
102
{ACAD_REACTORS
330
41A
102
}
330
41A
100
AcDbScale
 70
     0
300
1:10
140
1.0
141
10.0
290
     0
  0
SCALE
  5
421
102
{ACAD_REACTORS
330
41A
102
}
330
41A
100
AcDbScale
 70
     0
300
1:16
140
1.0
141
16.0
290
     0
  0
SCALE
  5
422
102
{ACAD_REACTORS
330
41A
102
}
330
41A
100
AcDbScale
 70
     0
300
1:20
140
1.0
141
20.0
290
     0
  0
SCALE
  5
423
102
{ACAD_REACTORS
330
41A
102
}
330
41A
100
AcDbScale
 70
     0
300
1:30
140
1.0
141
30.0
290
     0
  0
SCALE
  5
424
102
{ACAD_REACTORS
330
41A
102
}
330
41A
100
AcDbScale
 70
     0
300
1:40
140
1.0
141
40.0
290
     0
  0
SCALE
  5
425
102
{ACAD_REACTORS
330
41A
102
}
330
41A
100
AcDbScale
 70
     0
300
1:50
140
1.0
141
50.0
290
     0
  0
SCALE
  5
426
102
{ACAD_REACTORS
330
41A
102
}
330
41A
100
AcDbScale
 70
     0
300
1:100
140
1.0
141
100.0
290
     0
  0
SCALE
  5
427
102
{ACAD_REACTORS
330
41A
102
}
330
41A
100
AcDbScale
 70
     0
300
2:1
140
2.0
141
1.0
290
     0
  0
SCALE
  5
428
102
{ACAD_REACTORS
330
41A
102
}
330
41A
100
AcDbScale
 70
     0
300
4:1
140
4.0
141
1.0
290
     0
  0
SCALE
  5
429
102
{ACAD_REACTORS
330
41A
102
}
330
41A
100
AcDbScale
 70
     0
300
8:1
140
8.0
141
1.0
290
     0
  0
SCALE
  5
42A
102
{ACAD_REACTORS
330
41A
102
}
330
41A
100
AcDbScale
 70
     0
300
10:1
140
10.0
141
1.0
290
     0
  0
SCALE
  5
42B
102
{ACAD_REACTORS
330
41A
102
}
330
41A
100
AcDbScale
 70
     0
300
100:1
140
100.0
141
1.0
290
     0
  0
SCALE
  5
42C
102
{ACAD_REACTORS
330
41A
102
}
330
41A
100
AcDbScale
 70
     0
300
1/128" = 1'-0"
140
0.0078125
141
12.0
290
     0
  0
SCALE
  5
42D
102
{ACAD_REACTORS
330
41A
102
}
330
41A
100
AcDbScale
 70
     0
300
1/64" = 1'-0"
140
0.015625
141
12.0
290
     0
  0
SCALE
  5
42E
102
{ACAD_REACTORS
330
41A
102
}
330
41A
100
AcDbScale
 70
     0
300
1/32" = 1'-0"
140
0.03125
141
12.0
290
     0
  0
SCALE
  5
42F
102
{ACAD_REACTORS
330
41A
102
}
330
41A
100
AcDbScale
 70
     0
300
1/16" = 1'-0"
140
0.0625
141
12.0
290
     0
  0
SCALE
  5
430
102
{ACAD_REACTORS
330
41A
102
}
330
41A
100
AcDbScale
 70
     0
300
3/32" = 1'-0"
140
0.09375
141
12.0
290
     0
  0
SCALE
  5
431
102
{ACAD_REACTORS
330
41A
102
}
330
41A
100
AcDbScale
 70
     0
300
1/8" = 1'-0"
140
0.125
141
12.0
290
     0
  0
SCALE
  5
432
102
{ACAD_REACTORS
330
41A
102
}
330
41A
100
AcDbScale
 70
     0
300
3/16" = 1'-0"
140
0.1875
141
12.0
290
     0
  0
SCALE
  5
433
102
{ACAD_REACTORS
330
41A
102
}
330
41A
100
AcDbScale
 70
     0
300
1/4" = 1'-0"
140
0.25
141
12.0
290
     0
  0
SCALE
  5
434
102
{ACAD_REACTORS
330
41A
102
}
330
41A
100
AcDbScale
 70
     0
300
3/8" = 1'-0"
140
0.375
141
12.0
290
     0
  0
SCALE
  5
435
102
{ACAD_REACTORS
330
41A
102
}
330
41A
100
AcDbScale
 70
     0
300
1/2" = 1'-0"
140
0.5
141
12.0
290
     0
  0
SCALE
  5
436
102
{ACAD_REACTORS
330
41A
102
}
330
41A
100
AcDbScale
 70
     0
300
3/4" = 1'-0"
140
0.75
141
12.0
290
     0
  0
SCALE
  5
437
102
{ACAD_REACTORS
330
41A
102
}
330
41A
100
AcDbScale
 70
     0
300
1" = 1'-0"
140
1.0
141
12.0
290
     0
  0
SCALE
  5
438
102
{ACAD_REACTORS
330
41A
102
}
330
41A
100
AcDbScale
 70
     0
300
1-1/2" = 1'-0"
140
1.5
141
12.0
290
     0
  0
SCALE
  5
439
102
{ACAD_REACTORS
330
41A
102
}
330
41A
100
AcDbScale
 70
     0
300
3" = 1'-0"
140
3.0
141
12.0
290
     0
  0
SCALE
  5
43A
102
{ACAD_REACTORS
330
41A
102
}
330
41A
100
AcDbScale
 70
     0
300
6" = 1'-0"
140
6.0
141
12.0
290
     0
  0
SCALE
  5
43B
102
{ACAD_REACTORS
330
41A
102
}
330
41A
100
AcDbScale
 70
     0
300
1'-0" = 1'-0"
140
12.0
141
12.0
290
     0
  0
TABLESTYLE
  5
389
102
{ACAD_XDICTIONARY
360
444
102
}
102
{ACAD_REACTORS
330
388
102
}
330
388
100
AcDbTableStyle
  3
Standard
 70
     0
 71
     0
 40
1.5
 41
1.5
280
     0
281
     0
  7
STANDARD
140
4.5
170
     2
 62
     0
 63
     7
283
     0
274
    -2
284
     1
 64
     0
275
    -2
285
     1
 65
     0
276
    -2
286
     1
 66
     0
277
    -2
287
     1
 67
     0
278
    -2
288
     1
 68
     0
279
    -2
289
     1
 69
     0
  7
STANDARD
140
6.0
170
     5
 62
     0
 63
     7
283
     0
274
    -2
284
     1
 64
     0
275
    -2
285
     1
 65
     0
276
    -2
286
     1
 66
     0
277
    -2
287
     1
 67
     0
278
    -2
288
     1
 68
     0
279
    -2
289
     1
 69
     0
  7
STANDARD
140
4.5
170
     5
 62
     0
 63
     7
283
     0
274
    -2
284
     1
 64
     0
275
    -2
285
     1
 65
     0
276
    -2
286
     1
 66
     0
277
    -2
287
     1
 67
     0
278
    -2
288
     1
 68
     0
279
    -2
289
     1
 69
     0
  0
VISUALSTYLE
  5
3F8
102
{ACAD_XDICTIONARY
360
9D3
102
}
102
{ACAD_REACTORS
330
3F2
102
}
330
3F2
100
AcDbVisualStyle
  2

 70
     4
 71
     0
 72
     2
 73
     0
 90
        0
 40
-0.6
 41
-30.0
 62
     5
 63
     7
 74
     1
 91
        4
 64
     7
 65
   257
 75
     1
175
     1
 42
1.0
 92
        0
 66
   257
 43
1.0
 76
     1
 77
     6
 78
     2
 67
     7
 79
     5
170
     0
171
     0
290
     0
174
     0
 93
        1
 44
0.0
173
     0
291
     0
 45
0.0
1001
ACAD
1000
AcDbSavedByObjectVersion
1070
     0
  0
VISUALSTYLE
  5
3FA
102
{ACAD_XDICTIONARY
360
9D7
102
}
102
{ACAD_REACTORS
330
3F2
102
}
330
3F2
100
AcDbVisualStyle
  2

 70
     6
 71
     1
 72
     2
 73
     2
 90
        0
 40
-0.6
 41
-30.0
 62
     5
 63
     7
 74
     2
 91
        2
 64
     7
 65
   257
 75
     2
175
     1
 42
40.0
 92
        0
 66
   257
 43
1.0
 76
     1
 77
     6
 78
     2
 67
     7
 79
     3
170
     0
171
     0
290
     0
174
     0
 93
        1
 44
0.0
173
     0
291
     0
 45
0.0
1001
ACAD
1000
AcDbSavedByObjectVersion
1070
     0
  0
VISUALSTYLE
  5
3F9
102
{ACAD_XDICTIONARY
360
9D5
102
}
102
{ACAD_REACTORS
330
3F2
102
}
330
3F2
100
AcDbVisualStyle
  2

 70
     5
 71
     0
 72
     2
 73
     0
 90
        0
 40
-0.6
 41
-30.0
 62
     5
 63
     7
 74
     1
 91
        4
 64
     7
 65
   257
 75
     1
175
     1
 42
1.0
 92
        0
 66
   257
 43
1.0
 76
     1
 77
     6
 78
     2
 67
     7
 79
     5
170
     0
171
     0
290
     0
174
     0
 93
        1
 44
0.0
173
     0
291
     0
 45
0.0
1001
ACAD
1000
AcDbSavedByObjectVersion
1070
     0
  0
VISUALSTYLE
  5
3F7
102
{ACAD_XDICTIONARY
360
9D1
102
}
102
{ACAD_REACTORS
330
3F2
102
}
330
3F2
100
AcDbVisualStyle
  2

 70
     7
 71
     1
 72
     0
 73
     1
 90
        0
 40
-0.6
 41
-30.0
 62
     5
 63
     7
 74
     0
 91
        4
 64
     7
 65
   257
 75
     1
175
     1
 42
1.0
 92
        8
 66
     7
 43
1.0
 76
     1
 77
     6
 78
     2
 67
     7
 79
     5
170
     0
171
     0
290
     0
174
     0
 93
        1
 44
0.0
173
     0
291
     1
 45
0.0
1001
ACAD
1000
AcDbSavedByObjectVersion
1070
     0
  0
VISUALSTYLE
  5
3FE
102
{ACAD_XDICTIONARY
360
9DF
102
}
102
{ACAD_REACTORS
330
3F2
102
}
330
3F2
100
AcDbVisualStyle
  2

 70
    12
 71
     2
 72
     2
 73
     0
 90
        0
 40
-0.6
 41
-30.0
 62
     5
 63
     7
 74
     1
 91
        4
 64
     7
 65
   257
 75
     1
175
     1
 42
1.0
 92
        8
 66
     7
 43
1.0
 76
     1
 77
     6
 78
     2
 67
     7
 79
     5
170
     0
171
     0
290
     0
174
     0
 93
        1
 44
50.0
173
     0
291
     1
 45
0.0
1001
ACAD
1000
AcDbSavedByObjectVersion
1070
     0
  0
VISUALSTYLE
  5
402
102
{ACAD_XDICTIONARY
360
9E7
102
}
102
{ACAD_REACTORS
330
3F2
102
}
330
3F2
100
AcDbVisualStyle
  2

 70
    16
 71
     2
 72
     2
 73
     3
 90
        0
 40
-0.6
 41
-30.0
 62
     5
 63
     8
 74
     1
 91
        4
 64
     7
 65
   257
 75
     1
175
     1
 42
1.0
 92
        8
 66
     8
 43
1.0
 76
     1
 77
     6
 78
     2
 67
     7
 79
     5
170
     0
171
     0
290
     0
174
     0
 93
        1
 44
0.0
173
     0
291
     1
 45
0.0
1001
ACAD
1000
AcDbSavedByObjectVersion
1070
     0
  0
VISUALSTYLE
  5
3FB
102
{ACAD_XDICTIONARY
360
9D9
102
}
102
{ACAD_REACTORS
330
3F2
102
}
330
3F2
100
AcDbVisualStyle
  2

 70
     9
 71
     3
 72
     2
 73
     0
 90
        0
 40
-0.6
 41
-30.0
 62
     5
 63
     7
 74
     2
 91
        2
 64
     7
 65
   257
 75
     1
175
     1
 42
40.0
 92
        8
 66
     7
 43
1.0
 76
     1
 77
     6
 78
     2
 67
     7
 79
     3
170
     0
171
     0
290
     0
174
     0
 93
        1
 44
0.0
173
     0
291
     0
 45
0.0
1001
ACAD
1000
AcDbSavedByObjectVersion
1070
     0
  0
VISUALSTYLE
  5
3FD
102
{ACAD_XDICTIONARY
360
9DD
102
}
102
{ACAD_REACTORS
330
3F2
102
}
330
3F2
100
AcDbVisualStyle
  2

 70
    11
 71
     2
 72
     2
 73
     0
 90
        0
 40
-0.6
 41
-30.0
 62
     5
 63
     7
 74
     1
 91
        4
 64
     7
 65
   257
 75
     1
175
     1
 42
1.0
 92
        8
 66
     7
 43
1.0
 76
     1
 77
     6
 78
     2
 67
     7
 79
     5
170
     0
171
     0
290
     0
174
     0
 93
        1
 44
-50.0
173
     0
291
     1
 45
0.0
1001
ACAD
1000
AcDbSavedByObjectVersion
1070
     0
  0
VISUALSTYLE
  5
997
102
{ACAD_XDICTIONARY
360
9FB
102
}
102
{ACAD_REACTORS
330
3F2
102
}
330
3F2
100
AcDbVisualStyle
  2
EdgeColorOff
 70
    22
 71
     2
 72
     2
 73
     0
 90
        0
 40
-0.6
 41
-30.0
 62
     5
 63
     7
421
 16777215
 74
     1
 91
        4
 64
     7
 65
   257
 75
     1
175
     1
 42
1.0
 92
        8
 66
     7
 43
1.0
 76
     1
 77
     6
 78
     2
 67
     7
 79
     5
170
     0
171
     0
290
     0
174
     0
 93
        1
 44
0.0
173
     0
291
     1
 45
0.0
1001
ACAD
1000
AcDbSavedByObjectVersion
1070
     0
  0
VISUALSTYLE
  5
401
102
{ACAD_XDICTIONARY
360
9E5
102
}
102
{ACAD_REACTORS
330
3F2
102
}
330
3F2
100
AcDbVisualStyle
  2

 70
    15
 71
     2
 72
     2
 73
     0
 90
        0
 40
-0.6
 41
-30.0
 62
     5
 63
     7
 74
     1
 91
        4
 64
     7
 65
   257
 75
     1
175
     1
 42
1.0
 92
        8
 66
     7
 43
1.0
 76
     1
 77
     6
 78
     2
 67
     7
 79
     5
170
     0
171
     0
290
     0
174
     0
 93
        1
 44
0.0
173
     0
291
     1
 45
0.0
1001
ACAD
1000
AcDbSavedByObjectVersion
1070
     0
  0
VISUALSTYLE
  5
3F3
102
{ACAD_XDICTIONARY
360
9C9
102
}
102
{ACAD_REACTORS
330
3F2
102
}
330
3F2
100
AcDbVisualStyle
  2

 70
     0
 71
     2
 72
     1
 73
     1
 90
        2
 40
-0.6
 41
30.0
 62
     5
 63
     7
 74
     0
 91
        4
 64
     7
 65
   257
 75
     1
175
     1
 42
1.0
 92
        8
 66
     7
 43
1.0
 76
     1
 77
     6
 78
     2
 67
     7
 79
     5
170
     0
171
     0
290
     0
174
     0
 93
       13
 44
0.0
173
     0
291
     1
 45
0.0
1001
ACAD
1000
AcDbSavedByObjectVersion
1070
     0
  0
VISUALSTYLE
  5
3F4
102
{ACAD_XDICTIONARY
360
9CB
102
}
102
{ACAD_REACTORS
330
3F2
102
}
330
3F2
100
AcDbVisualStyle
  2

 70
     1
 71
     2
 72
     1
 73
     1
 90
        2
 40
-0.6
 41
30.0
 62
     5
 63
     7
 74
     1
 91
        4
 64
     7
 65
   257
 75
     1
175
     1
 42
1.0
 92
        0
 66
   257
 43
1.0
 76
     1
 77
     6
 78
     2
 67
     7
 79
     5
170
     0
171
     0
290
     0
174
     0
 93
       13
 44
0.0
173
     0
291
     1
 45
0.0
1001
ACAD
1000
AcDbSavedByObjectVersion
1070
     0
  0
VISUALSTYLE
  5
3F5
102
{ACAD_XDICTIONARY
360
9CD
102
}
102
{ACAD_REACTORS
330
3F2
102
}
330
3F2
100
AcDbVisualStyle
  2

 70
     2
 71
     2
 72
     2
 73
     1
 90
        2
 40
-0.6
 41
30.0
 62
     5
 63
     7
 74
     0
 91
        4
 64
     7
 65
   257
 75
     1
175
     1
 42
1.0
 92
        0
 66
     7
 43
1.0
 76
     1
 77
     6
 78
     2
 67
     7
 79
     5
170
     0
171
     0
290
     0
174
     0
 93
       13
 44
0.0
173
     0
291
     1
 45
0.0
1001
ACAD
1000
AcDbSavedByObjectVersion
1070
     0
  0
VISUALSTYLE
  5
3F6
102
{ACAD_XDICTIONARY
360
9CF
102
}
102
{ACAD_REACTORS
330
3F2
102
}
330
3F2
100
AcDbVisualStyle
  2

 70
     3
 71
     2
 72
     2
 73
     1
 90
        2
 40
-0.6
 41
30.0
 62
     5
 63
     7
 74
     1
 91
        4
 64
     7
 65
   257
 75
     1
175
     1
 42
1.0
 92
        0
 66
   257
 43
1.0
 76
     1
 77
     6
 78
     2
 67
     7
 79
     5
170
     0
171
     0
290
     0
174
     0
 93
       13
 44
0.0
173
     0
291
     1
 45
0.0
1001
ACAD
1000
AcDbSavedByObjectVersion
1070
     0
  0
VISUALSTYLE
  5
98F
102
{ACAD_XDICTIONARY
360
9EB
102
}
102
{ACAD_REACTORS
330
3F2
102
}
330
3F2
100
AcDbVisualStyle
  2
Hidden
 70
     6
 71
     1
 72
     2
 73
     2
 90
        0
 40
-0.6
 41
-30.0
 62
     5
 63
     7
421
 16777215
 74
     2
 91
        2
 64
     7
 65
   257
 75
     2
175
     1
 42
40.0
 92
        0
 66
   257
 43
1.0
 76
     1
 77
     6
 78
     2
 67
     7
 79
     3
170
     0
171
     0
290
     0
174
     0
 93
        1
 44
0.0
173
     0
291
     0
 45
0.0
1001
ACAD
1000
AcDbSavedByObjectVersion
1070
     0
  0
VISUALSTYLE
  5
995
102
{ACAD_XDICTIONARY
360
9F7
102
}
102
{ACAD_REACTORS
330
3F2
102
}
330
3F2
100
AcDbVisualStyle
  2
JitterOff
 70
    20
 71
     2
 72
     2
 73
     0
 90
        0
 40
-0.6
 41
-30.0
 62
     5
 63
     7
421
 16777215
 74
     1
 91
        4
 64
     7
 65
   257
 75
     1
175
     1
 42
1.0
 92
       10
 66
     7
 43
1.0
 76
     1
 77
     6
 78
     2
 67
     7
 79
     5
170
     0
171
     0
290
     0
174
     0
 93
        1
 44
0.0
173
     0
291
     1
 45
0.0
1001
ACAD
1000
AcDbSavedByObjectVersion
1070
     0
  0
VISUALSTYLE
  5
400
102
{ACAD_XDICTIONARY
360
9E3
102
}
102
{ACAD_REACTORS
330
3F2
102
}
330
3F2
100
AcDbVisualStyle
  2

 70
    14
 71
     2
 72
     2
 73
     0
 90
        0
 40
-0.6
 41
-30.0
 62
     5
 63
     7
 74
     1
 91
        4
 64
     7
 65
   257
 75
     7
175
     7
 42
1.0
 92
        8
 66
     7
 43
1.0
 76
     1
 77
     6
 78
     2
 67
     7
 79
     5
170
     0
171
     0
290
     0
174
     0
 93
        1
 44
0.0
173
     0
291
     1
 45
0.0
1001
ACAD
1000
AcDbSavedByObjectVersion
1070
     0
  0
VISUALSTYLE
  5
996
102
{ACAD_XDICTIONARY
360
9F9
102
}
102
{ACAD_REACTORS
330
3F2
102
}
330
3F2
100
AcDbVisualStyle
  2
OverhangOff
 70
    21
 71
     2
 72
     2
 73
     0
 90
        0
 40
-0.6
 41
-30.0
 62
     5
 63
     7
421
 16777215
 74
     1
 91
        4
 64
     7
 65
   257
 75
     1
175
     1
 42
1.0
 92
        9
 66
     7
 43
1.0
 76
     1
 77
     6
 78
     2
 67
     7
 79
     5
170
     0
171
     0
290
     0
174
     0
 93
        1
 44
0.0
173
     0
291
     1
 45
0.0
1001
ACAD
1000
AcDbSavedByObjectVersion
1070
     0
  0
VISUALSTYLE
  5
3FC
102
{ACAD_XDICTIONARY
360
9DB
102
}
102
{ACAD_REACTORS
330
3F2
102
}
330
3F2
100
AcDbVisualStyle
  2

 70
     8
 71
     2
 72
     2
 73
     0
 90
        0
 40
-0.6
 41
-30.0
 62
     5
 63
     7
 74
     1
 91
        0
 64
     7
 65
   257
 75
     1
175
     1
 42
1.0
 92
        8
 66
     8
 43
1.0
 76
     1
 77
     6
 78
     2
 67
     7
 79
     5
170
     0
171
     0
290
     0
174
     0
 93
       13
 44
0.0
173
     0
291
     0
 45
0.0
1001
ACAD
1000
AcDbSavedByObjectVersion
1070
     0
  0
VISUALSTYLE
  5
994
102
{ACAD_XDICTIONARY
360
9F5
102
}
102
{ACAD_REACTORS
330
3F2
102
}
330
3F2
100
AcDbVisualStyle
  2
Shaded
 70
    27
 71
     2
 72
     2
 73
     1
 90
        2
 40
-0.6
 41
30.0
 62
     5
 63
     7
421
 16777215
 74
     0
 91
        4
 64
     7
 65
   257
 75
     1
175
     1
 42
1.0
 92
        8
 66
   257
 43
1.0
 76
     1
 77
     6
 78
     2
 67
     8
425
  7895160
 79
     3
170
     0
171
     0
290
     0
174
     0
 93
        5
 44
0.0
173
     0
291
     0
 45
0.0
1001
ACAD
1000
AcDbSavedByObjectVersion
1070
     0
  0
VISUALSTYLE
  5
993
102
{ACAD_XDICTIONARY
360
9F3
102
}
102
{ACAD_REACTORS
330
3F2
102
}
330
3F2
100
AcDbVisualStyle
  2
Shaded with edges
 70
    26
 71
     2
 72
     2
 73
     1
 90
        2
 40
-0.6
 41
30.0
 62
     5
 63
     7
421
 16777215
 74
     1
 91
       10
 64
     7
 65
   257
 75
     2
175
     1
 42
1.0
 92
        8
 66
   257
 43
1.0
 76
     1
 77
     6
 78
     2
 67
     7
 79
     3
170
     0
171
     0
290
     0
174
     0
 93
        5
 44
0.0
173
     0
291
     0
 45
0.0
1001
ACAD
1000
AcDbSavedByObjectVersion
1070
     0
  0
VISUALSTYLE
  5
990
102
{ACAD_XDICTIONARY
360
9ED
102
}
102
{ACAD_REACTORS
330
3F2
102
}
330
3F2
100
AcDbVisualStyle
  2
Shades of Gray
 70
    23
 71
     2
 72
     2
 73
     3
 90
        0
 40
-0.6
 41
-30.0
 62
     5
 63
     7
421
 16777215
 74
     2
 91
        2
 64
     7
 65
     7
 75
     1
175
     1
 42
40.0
 92
        8
 66
     7
 43
1.0
 76
     1
 77
     6
 78
     2
 67
     7
 79
     3
170
     0
171
     0
290
     0
174
     0
 93
        1
 44
0.0
173
     0
291
     0
 45
0.0
1001
ACAD
1000
AcDbSavedByObjectVersion
1070
     0
  0
VISUALSTYLE
  5
991
102
{ACAD_XDICTIONARY
360
9EF
102
}
102
{ACAD_REACTORS
330
3F2
102
}
330
3F2
100
AcDbVisualStyle
  2
Sketchy
 70
    24
 71
     1
 72
     2
 73
     2
 90
        0
 40
-0.6
 41
-30.0
 62
     5
 63
     7
421
 16777215
 74
     2
 91
        2
 64
     7
 65
     7
 75
     1
175
     1
 42
40.0
 92
       11
 66
     7
 43
1.0
 76
     1
 77
     6
 78
     2
 67
     7
 79
     6
170
     0
171
     0
290
     0
174
     0
 93
        1
 44
0.0
173
     0
291
     0
 45
0.0
1001
ACAD
1000
AcDbSavedByObjectVersion
1070
     0
  0
VISUALSTYLE
  5
3FF
102
{ACAD_XDICTIONARY
360
9E1
102
}
102
{ACAD_REACTORS
330
3F2
102
}
330
3F2
100
AcDbVisualStyle
  2

 70
    13
 71
     2
 72
     2
 73
     0
 90
        0
 40
-0.6
 41
-30.0
 62
     5
 63
     7
 74
     1
 91
        4
 64
     7
 65
   257
 75
     1
175
     1
 42
1.0
 92
       12
 66
     7
 43
1.0
 76
     1
 77
     6
 78
     2
 67
     7
 79
     5
170
     0
171
     0
290
     0
174
     0
 93
        1
 44
0.0
173
     0
291
     1
 45
0.0
1001
ACAD
1000
AcDbSavedByObjectVersion
1070
     0
  0
VISUALSTYLE
  5
98E
102
{ACAD_XDICTIONARY
360
9E9
102
}
102
{ACAD_REACTORS
330
3F2
102
}
330
3F2
100
AcDbVisualStyle
  2
Wireframe
 70
     5
 71
     0
 72
     2
 73
     0
 90
        0
 40
-0.6
 41
-30.0
 62
     5
 63
     7
421
 16777215
 74
     1
 91
        4
 64
     7
 65
   257
 75
     1
175
     1
 42
1.0
 92
        0
 66
   257
 43
1.0
 76
     1
 77
     6
 78
     2
 67
     7
 79
     3
170
     0
171
     0
290
     0
174
     0
 93
        1
 44
0.0
173
     0
291
     0
 45
0.0
1001
ACAD
1000
AcDbSavedByObjectVersion
1070
     0
  0
VISUALSTYLE
  5
992
102
{ACAD_XDICTIONARY
360
9F1
102
}
102
{ACAD_REACTORS
330
3F2
102
}
330
3F2
100
AcDbVisualStyle
  2
X-Ray
 70
    25
 71
     2
 72
     2
 73
     1
 90
        1
 40
0.5
 41
-30.0
 62
     5
 63
     7
421
 16777215
 74
     1
 91
        0
 64
     7
 65
   257
 75
     1
175
     1
 42
1.0
 92
        8
 66
     7
 43
1.0
 76
     1
 77
     6
 78
     2
 67
     7
 79
     3
170
     0
171
     0
290
     0
174
     0
 93
       13
 44
0.0
173
     0
291
     0
 45
0.0
1001
ACAD
1000
AcDbSavedByObjectVersion
1070
     0
  0
DICTIONARYVAR
  5
449
102
{ACAD_REACTORS
330
357
102
}
330
357
100
DictionaryVariables
280
     0
  1
1:1
  0
DICTIONARYVAR
  5
447
102
{ACAD_REACTORS
330
357
102
}
330
357
100
DictionaryVariables
280
     0
  1
STANDARD
  0
DICTIONARYVAR
  5
38E
102
{ACAD_REACTORS
330
357
102
}
330
357
100
DictionaryVariables
280
     0
  1
STANDARD
  0
DICTIONARYVAR
  5
359
102
{ACAD_REACTORS
330
357
102
}
330
357
100
DictionaryVariables
280
     0
  1
2
  0
DICTIONARYVAR
  5
358
102
{ACAD_REACTORS
330
357
102
}
330
357
100
DictionaryVariables
280
     0
  1
1
  0
DICTIONARYVAR
  5
824
102
{ACAD_REACTORS
330
357
102
}
330
357
100
DictionaryVariables
280
     0
  1
0
  0
DICTIONARYVAR
  5
44A
102
{ACAD_REACTORS
330
357
102
}
330
357
100
DictionaryVariables
280
     0
  1
0
  0
DICTIONARYVAR
  5
448
102
{ACAD_REACTORS
330
357
102
}
330
357
100
DictionaryVariables
280
     0
  1
0
  0
DICTIONARYVAR
  5
823
102
{ACAD_REACTORS
330
357
102
}
330
357
100
DictionaryVariables
280
     0
  1
127
  0
DICTIONARYVAR
  5
9C4
102
{ACAD_REACTORS
330
357
102
}
330
357
100
DictionaryVariables
280
     0
  1
2
  0
DICTIONARY
  5
987
330
3F0
100
AcDbDictionary
280
     1
281
     1
  3
ACAD_XREC_ROUNDTRIP
360
988
  0
DICTIONARY
  5
985
330
3EF
100
AcDbDictionary
280
     1
281
     1
  3
ACAD_XREC_ROUNDTRIP
360
986
  0
DICTIONARY
  5
989
330
3F1
100
AcDbDictionary
280
     1
281
     1
  3
ACAD_XREC_ROUNDTRIP
360
98A
  0
DICTIONARY
  5
444
330
389
100
AcDbDictionary
280
     1
281
     1
  3
ACAD_ROUNDTRIP_2008_TABLESTYLE_CELLSTYLEMAP
360
9C6
  3
ACAD_XREC_ROUNDTRIP
360
9C8
  0
DICTIONARY
  5
9D3
330
3F8
100
AcDbDictionary
280
     1
281
     1
  3
ACAD_XREC_ROUNDTRIP
360
9D4
  0
DICTIONARY
  5
9D7
330
3FA
100
AcDbDictionary
280
     1
281
     1
  3
ACAD_XREC_ROUNDTRIP
360
9D8
  0
DICTIONARY
  5
9D5
330
3F9
100
AcDbDictionary
280
     1
281
     1
  3
ACAD_XREC_ROUNDTRIP
360
9D6
  0
DICTIONARY
  5
9D1
330
3F7
100
AcDbDictionary
280
     1
281
     1
  3
ACAD_XREC_ROUNDTRIP
360
9D2
  0
DICTIONARY
  5
9DF
330
3FE
100
AcDbDictionary
280
     1
281
     1
  3
ACAD_XREC_ROUNDTRIP
360
9E0
  0
DICTIONARY
  5
9E7
330
402
100
AcDbDictionary
280
     1
281
     1
  3
ACAD_XREC_ROUNDTRIP
360
9E8
  0
DICTIONARY
  5
9D9
330
3FB
100
AcDbDictionary
280
     1
281
     1
  3
ACAD_XREC_ROUNDTRIP
360
9DA
  0
DICTIONARY
  5
9DD
330
3FD
100
AcDbDictionary
280
     1
281
     1
  3
ACAD_XREC_ROUNDTRIP
360
9DE
  0
DICTIONARY
  5
9FB
330
997
100
AcDbDictionary
280
     1
281
     1
  3
ACAD_XREC_ROUNDTRIP
360
9FC
  0
DICTIONARY
  5
9E5
330
401
100
AcDbDictionary
280
     1
281
     1
  3
ACAD_XREC_ROUNDTRIP
360
9E6
  0
DICTIONARY
  5
9C9
330
3F3
100
AcDbDictionary
280
     1
281
     1
  3
ACAD_XREC_ROUNDTRIP
360
9CA
  0
DICTIONARY
  5
9CB
330
3F4
100
AcDbDictionary
280
     1
281
     1
  3
ACAD_XREC_ROUNDTRIP
360
9CC
  0
DICTIONARY
  5
9CD
330
3F5
100
AcDbDictionary
280
     1
281
     1
  3
ACAD_XREC_ROUNDTRIP
360
9CE
  0
DICTIONARY
  5
9CF
330
3F6
100
AcDbDictionary
280
     1
281
     1
  3
ACAD_XREC_ROUNDTRIP
360
9D0
  0
DICTIONARY
  5
9EB
330
98F
100
AcDbDictionary
280
     1
281
     1
  3
ACAD_XREC_ROUNDTRIP
360
9EC
  0
DICTIONARY
  5
9F7
330
995
100
AcDbDictionary
280
     1
281
     1
  3
ACAD_XREC_ROUNDTRIP
360
9F8
  0
DICTIONARY
  5
9E3
330
400
100
AcDbDictionary
280
     1
281
     1
  3
ACAD_XREC_ROUNDTRIP
360
9E4
  0
DICTIONARY
  5
9F9
330
996
100
AcDbDictionary
280
     1
281
     1
  3
ACAD_XREC_ROUNDTRIP
360
9FA
  0
DICTIONARY
  5
9DB
330
3FC
100
AcDbDictionary
280
     1
281
     1
  3
ACAD_XREC_ROUNDTRIP
360
9DC
  0
DICTIONARY
  5
9F5
330
994
100
AcDbDictionary
280
     1
281
     1
  3
ACAD_XREC_ROUNDTRIP
360
9F6
  0
DICTIONARY
  5
9F3
330
993
100
AcDbDictionary
280
     1
281
     1
  3
ACAD_XREC_ROUNDTRIP
360
9F4
  0
DICTIONARY
  5
9ED
330
990
100
AcDbDictionary
280
     1
281
     1
  3
ACAD_XREC_ROUNDTRIP
360
9EE
  0
DICTIONARY
  5
9EF
330
991
100
AcDbDictionary
280
     1
281
     1
  3
ACAD_XREC_ROUNDTRIP
360
9F0
  0
DICTIONARY
  5
9E1
330
3FF
100
AcDbDictionary
280
     1
281
     1
  3
ACAD_XREC_ROUNDTRIP
360
9E2
  0
DICTIONARY
  5
9E9
330
98E
100
AcDbDictionary
280
     1
281
     1
  3
ACAD_XREC_ROUNDTRIP
360
9EA
  0
DICTIONARY
  5
9F1
330
992
100
AcDbDictionary
280
     1
281
     1
  3
ACAD_XREC_ROUNDTRIP
360
9F2
  0
XRECORD
  5
988
102
{ACAD_REACTORS
330
987
102
}
330
987
100
AcDbXrecord
280
     1
102
MATERIAL
148
0.0
149
0.0
149
0.0
 93
        0
 94
      127
282
     0
 72
     1
 77
     1
171
     1
175
     1
179
     1
273
     0
  0
XRECORD
  5
986
102
{ACAD_REACTORS
330
985
102
}
330
985
100
AcDbXrecord
280
     1
102
MATERIAL
148
0.0
149
0.0
149
0.0
 93
        0
 94
      127
282
     0
 72
     1
 77
     1
171
     1
175
     1
179
     1
273
     0
  0
XRECORD
  5
98A
102
{ACAD_REACTORS
330
989
102
}
330
989
100
AcDbXrecord
280
     1
102
MATERIAL
148
0.0
149
0.0
149
0.0
 93
        0
 94
      127
282
     0
 72
     1
 77
     1
171
     1
175
     1
179
     1
273
     0
  0
CELLSTYLEMAP
  5
9C6
102
{ACAD_REACTORS
330
444
102
}
330
444
100
AcDbCellStyleMap
 90
        3
300
CELLSTYLE
  1
TABLEFORMAT_BEGIN
 90
        5
170
     1
 91
        0
 92
    32768
 62
   257
 93
        1
300
CONTENTFORMAT
  1
CONTENTFORMAT_BEGIN
 90
        0
 91
        0
 92
        4
 93
        0
300

 40
0.0
140
1.0
 94
        5
 62
     0
340
10
144
6.0
309
CONTENTFORMAT_END
171
     1
301
MARGIN
  1
CELLMARGIN_BEGIN
 40
1.5
 40
1.5
 40
1.5
 40
1.5
 40
0.18
 40
0.18
309
CELLMARGIN_END
 94
        6
 95
        1
302
GRIDFORMAT
  1
GRIDFORMAT_BEGIN
 90
        0
 91
        1
 62
     0
 92
       -2
340
0
 93
        0
 40
0.045
309
GRIDFORMAT_END
 95
        2
302
GRIDFORMAT
  1
GRIDFORMAT_BEGIN
 90
        0
 91
        1
 62
     0
 92
       -2
340
0
 93
        0
 40
0.045
309
GRIDFORMAT_END
 95
        4
302
GRIDFORMAT
  1
GRIDFORMAT_BEGIN
 90
        0
 91
        1
 62
     0
 92
       -2
340
0
 93
        0
 40
0.045
309
GRIDFORMAT_END
 95
        8
302
GRIDFORMAT
  1
GRIDFORMAT_BEGIN
 90
        0
 91
        1
 62
     0
 92
       -2
340
0
 93
        0
 40
0.045
309
GRIDFORMAT_END
 95
       16
302
GRIDFORMAT
  1
GRIDFORMAT_BEGIN
 90
        0
 91
        1
 62
     0
 92
       -2
340
0
 93
        0
 40
0.045
309
GRIDFORMAT_END
 95
       32
302
GRIDFORMAT
  1
GRIDFORMAT_BEGIN
 90
        0
 91
        1
 62
     0
 92
       -2
340
0
 93
        0
 40
0.045
309
GRIDFORMAT_END
309
TABLEFORMAT_END
  1
CELLSTYLE_BEGIN
 90
        1
 91
        1
300
_TITLE
309
CELLSTYLE_END
300
CELLSTYLE
  1
TABLEFORMAT_BEGIN
 90
        5
170
     1
 91
        0
 92
        0
 62
   257
 93
        1
300
CONTENTFORMAT
  1
CONTENTFORMAT_BEGIN
 90
        0
 91
        0
 92
        4
 93
        0
300

 40
0.0
140
1.0
 94
        5
 62
     0
340
10
144
4.5
309
CONTENTFORMAT_END
171
     1
301
MARGIN
  1
CELLMARGIN_BEGIN
 40
1.5
 40
1.5
 40
1.5
 40
1.5
 40
0.18
 40
0.18
309
CELLMARGIN_END
 94
        6
 95
        1
302
GRIDFORMAT
  1
GRIDFORMAT_BEGIN
 90
        0
 91
        1
 62
     0
 92
       -2
340
0
 93
        0
 40
0.045
309
GRIDFORMAT_END
 95
        2
302
GRIDFORMAT
  1
GRIDFORMAT_BEGIN
 90
        0
 91
        1
 62
     0
 92
       -2
340
0
 93
        0
 40
0.045
309
GRIDFORMAT_END
 95
        4
302
GRIDFORMAT
  1
GRIDFORMAT_BEGIN
 90
        0
 91
        1
 62
     0
 92
       -2
340
0
 93
        0
 40
0.045
309
GRIDFORMAT_END
 95
        8
302
GRIDFORMAT
  1
GRIDFORMAT_BEGIN
 90
        0
 91
        1
 62
     0
 92
       -2
340
0
 93
        0
 40
0.045
309
GRIDFORMAT_END
 95
       16
302
GRIDFORMAT
  1
GRIDFORMAT_BEGIN
 90
        0
 91
        1
 62
     0
 92
       -2
340
0
 93
        0
 40
0.045
309
GRIDFORMAT_END
 95
       32
302
GRIDFORMAT
  1
GRIDFORMAT_BEGIN
 90
        0
 91
        1
 62
     0
 92
       -2
340
0
 93
        0
 40
0.045
309
GRIDFORMAT_END
309
TABLEFORMAT_END
  1
CELLSTYLE_BEGIN
 90
        2
 91
        1
300
_HEADER
309
CELLSTYLE_END
300
CELLSTYLE
  1
TABLEFORMAT_BEGIN
 90
        5
170
     1
 91
        0
 92
        0
 62
   257
 93
        1
300
CONTENTFORMAT
  1
CONTENTFORMAT_BEGIN
 90
        0
 91
        0
 92
        4
 93
        0
300

 40
0.0
140
1.0
 94
        2
 62
     0
340
10
144
4.5
309
CONTENTFORMAT_END
171
     1
301
MARGIN
  1
CELLMARGIN_BEGIN
 40
1.5
 40
1.5
 40
1.5
 40
1.5
 40
0.18
 40
0.18
309
CELLMARGIN_END
 94
        6
 95
        1
302
GRIDFORMAT
  1
GRIDFORMAT_BEGIN
 90
        0
 91
        1
 62
     0
 92
       -2
340
0
 93
        0
 40
0.045
309
GRIDFORMAT_END
 95
        2
302
GRIDFORMAT
  1
GRIDFORMAT_BEGIN
 90
        0
 91
        1
 62
     0
 92
       -2
340
0
 93
        0
 40
0.045
309
GRIDFORMAT_END
 95
        4
302
GRIDFORMAT
  1
GRIDFORMAT_BEGIN
 90
        0
 91
        1
 62
     0
 92
       -2
340
0
 93
        0
 40
0.045
309
GRIDFORMAT_END
 95
        8
302
GRIDFORMAT
  1
GRIDFORMAT_BEGIN
 90
        0
 91
        1
 62
     0
 92
       -2
340
0
 93
        0
 40
0.045
309
GRIDFORMAT_END
 95
       16
302
GRIDFORMAT
  1
GRIDFORMAT_BEGIN
 90
        0
 91
        1
 62
     0
 92
       -2
340
0
 93
        0
 40
0.045
309
GRIDFORMAT_END
 95
       32
302
GRIDFORMAT
  1
GRIDFORMAT_BEGIN
 90
        0
 91
        1
 62
     0
 92
       -2
340
0
 93
        0
 40
0.045
309
GRIDFORMAT_END
309
TABLEFORMAT_END
  1
CELLSTYLE_BEGIN
 90
        3
 91
        2
300
_DATA
309
CELLSTYLE_END
  0
XRECORD
  5
9C8
102
{ACAD_REACTORS
330
444
102
}
330
444
100
AcDbXrecord
280
     1
102
ACAD_ROUNDTRIP_PRE2007_TABLESTYLE
 90
        4
 91
        0
  1

 92
        4
 93
        0
  2

 94
        4
 95
        0
  3

  0
XRECORD
  5
9D4
102
{ACAD_REACTORS
330
9D3
102
}
330
9D3
100
AcDbXrecord
280
     1
102
RTVSPropertyOp0
 70
     1
102
RTVSPropertyOp1
 70
     1
102
RTVSPropertyOp2
 70
     1
102
RTVSPropertyOp3
 70
     1
102
RTVSPropertyOp4
 70
     1
102
RTVSPropertyOp5
 70
     1
102
RTVSPropertyOp6
 70
     1
102
RTVSPropertyOp7
 70
     1
102
RTVSPropertyOp8
 70
     1
102
RTVSPropertyOp9
 70
     1
102
RTVSPropertyOp10
 70
     1
102
RTVSPropertyOp11
 70
     1
102
RTVSPropertyOp12
 70
     1
102
RTVSPropertyOp13
 70
     1
102
RTVSPropertyOp14
 70
     1
102
RTVSPropertyOp15
 70
     1
102
RTVSPropertyOp16
 70
     1
102
RTVSPropertyOp17
 70
     1
102
RTVSPropertyOp18
 70
     1
102
RTVSPropertyOp19
 70
     1
102
RTVSPropertyOp20
 70
     1
102
RTVSPropertyOp21
 70
     1
102
RTVSPropertyOp22
 70
     1
102
RTVSPropertyOp23
 70
     1
102
RTVSPropertyOp24
 70
     1
102
RTVSPropertyOp25
 70
     1
102
RTVSPropertyOp26
 70
     1
102
RTVSPropertyOp27
 70
     1
102
RTVSPropertyOp28
 70
     1
102
RTVSPropertyOp29
 70
     1
102
RTVSPropertyOp30
 70
     1
102
RTVSPropertyOp31
 70
     1
102
RTVSPropertyOp32
 70
     1
  0
XRECORD
  5
9D8
102
{ACAD_REACTORS
330
9D7
102
}
330
9D7
100
AcDbXrecord
280
     1
102
RTVSPropertyOp0
 70
     1
102
RTVSPropertyOp1
 70
     1
102
RTVSPropertyOp2
 70
     1
102
RTVSPropertyOp3
 70
     1
102
RTVSPropertyOp4
 70
     1
102
RTVSPropertyOp5
 70
     1
102
RTVSPropertyOp6
 70
     1
102
RTVSPropertyOp7
 70
     1
102
RTVSPropertyOp8
 70
     1
102
RTVSPropertyOp9
 70
     1
102
RTVSPropertyOp10
 70
     1
102
RTVSPropertyOp11
 70
     1
102
RTVSPropertyOp12
 70
     1
102
RTVSPropertyOp13
 70
     1
102
RTVSPropertyOp14
 70
     1
102
RTVSPropertyOp15
 70
     1
102
RTVSPropertyOp16
 70
     1
102
RTVSPropertyOp17
 70
     1
102
RTVSPropertyOp18
 70
     1
102
RTVSPropertyOp19
 70
     1
102
RTVSPropertyOp20
 70
     1
102
RTVSPropertyOp21
 70
     1
102
RTVSPropertyOp22
 70
     1
102
RTVSPropertyOp23
 70
     1
102
RTVSPropertyOp24
 70
     1
102
RTVSPropertyOp25
 70
     1
102
RTVSPropertyOp26
 70
     1
102
RTVSPropertyOp27
 70
     1
102
RTVSPropertyOp28
 70
     1
102
RTVSPropertyOp29
 70
     1
102
RTVSPropertyOp30
 70
     1
102
RTVSPropertyOp31
 70
     1
102
RTVSPropertyOp32
 70
     1
  0
XRECORD
  5
9D6
102
{ACAD_REACTORS
330
9D5
102
}
330
9D5
100
AcDbXrecord
280
     1
102
RTVSPropertyOp0
 70
     1
102
RTVSPropertyOp1
 70
     1
102
RTVSPropertyOp2
 70
     1
102
RTVSPropertyOp3
 70
     1
102
RTVSPropertyOp4
 70
     1
102
RTVSPropertyOp5
 70
     1
102
RTVSPropertyOp6
 70
     1
102
RTVSPropertyOp7
 70
     1
102
RTVSPropertyOp8
 70
     1
102
RTVSPropertyOp9
 70
     1
102
RTVSPropertyOp10
 70
     1
102
RTVSPropertyOp11
 70
     1
102
RTVSPropertyOp12
 70
     1
102
RTVSPropertyOp13
 70
     1
102
RTVSPropertyOp14
 70
     1
102
RTVSPropertyOp15
 70
     1
102
RTVSPropertyOp16
 70
     1
102
RTVSPropertyOp17
 70
     1
102
RTVSPropertyOp18
 70
     1
102
RTVSPropertyOp19
 70
     1
102
RTVSPropertyOp20
 70
     1
102
RTVSPropertyOp21
 70
     1
102
RTVSPropertyOp22
 70
     1
102
RTVSPropertyOp23
 70
     1
102
RTVSPropertyOp24
 70
     1
102
RTVSPropertyOp25
 70
     1
102
RTVSPropertyOp26
 70
     1
102
RTVSPropertyOp27
 70
     1
102
RTVSPropertyOp28
 70
     1
102
RTVSPropertyOp29
 70
     1
102
RTVSPropertyOp30
 70
     1
102
RTVSPropertyOp31
 70
     1
102
RTVSPropertyOp32
 70
     1
  0
XRECORD
  5
9D2
102
{ACAD_REACTORS
330
9D1
102
}
330
9D1
100
AcDbXrecord
280
     1
102
RTVSPropertyOp0
 70
     1
102
RTVSPropertyOp1
 70
     1
102
RTVSPropertyOp2
 70
     1
102
RTVSPropertyOp3
 70
     1
102
RTVSPropertyOp4
 70
     1
102
RTVSPropertyOp5
 70
     1
102
RTVSPropertyOp6
 70
     1
102
RTVSPropertyOp7
 70
     1
102
RTVSPropertyOp8
 70
     1
102
RTVSPropertyOp9
 70
     1
102
RTVSPropertyOp10
 70
     1
102
RTVSPropertyOp11
 70
     1
102
RTVSPropertyOp12
 70
     1
102
RTVSPropertyOp13
 70
     1
102
RTVSPropertyOp14
 70
     1
102
RTVSPropertyOp15
 70
     1
102
RTVSPropertyOp16
 70
     1
102
RTVSPropertyOp17
 70
     1
102
RTVSPropertyOp18
 70
     1
102
RTVSPropertyOp19
 70
     1
102
RTVSPropertyOp20
 70
     1
102
RTVSPropertyOp21
 70
     1
102
RTVSPropertyOp22
 70
     1
102
RTVSPropertyOp23
 70
     1
102
RTVSPropertyOp24
 70
     1
102
RTVSPropertyOp25
 70
     1
102
RTVSPropertyOp26
 70
     1
102
RTVSPropertyOp27
 70
     1
102
RTVSPropertyOp28
 70
     1
102
RTVSPropertyOp29
 70
     1
102
RTVSPropertyOp30
 70
     1
102
RTVSPropertyOp31
 70
     1
102
RTVSPropertyOp32
 70
     1
  0
XRECORD
  5
9E0
102
{ACAD_REACTORS
330
9DF
102
}
330
9DF
100
AcDbXrecord
280
     1
102
RTVSPropertyOp0
 70
     1
102
RTVSPropertyOp1
 70
     1
102
RTVSPropertyOp2
 70
     1
102
RTVSPropertyOp3
 70
     1
102
RTVSPropertyOp4
 70
     1
102
RTVSPropertyOp5
 70
     1
102
RTVSPropertyOp6
 70
     1
102
RTVSPropertyOp7
 70
     1
102
RTVSPropertyOp8
 70
     1
102
RTVSPropertyOp9
 70
     1
102
RTVSPropertyOp10
 70
     1
102
RTVSPropertyOp11
 70
     1
102
RTVSPropertyOp12
 70
     1
102
RTVSPropertyOp13
 70
     1
102
RTVSPropertyOp14
 70
     1
102
RTVSPropertyOp15
 70
     1
102
RTVSPropertyOp16
 70
     1
102
RTVSPropertyOp17
 70
     1
102
RTVSPropertyOp18
 70
     1
102
RTVSPropertyOp19
 70
     1
102
RTVSPropertyOp20
 70
     1
102
RTVSPropertyOp21
 70
     1
102
RTVSPropertyOp22
 70
     1
102
RTVSPropertyOp23
 70
     1
102
RTVSPropertyOp24
 70
     1
102
RTVSPropertyOp25
 70
     1
102
RTVSPropertyOp26
 70
     1
102
RTVSPropertyOp27
 70
     1
102
RTVSPropertyOp28
 70
     1
102
RTVSPropertyOp29
 70
     1
102
RTVSPropertyOp30
 70
     1
102
RTVSPropertyOp31
 70
     1
102
RTVSPropertyOp32
 70
     1
  0
XRECORD
  5
9E8
102
{ACAD_REACTORS
330
9E7
102
}
330
9E7
100
AcDbXrecord
280
     1
102
RTVSPropertyOp0
 70
     1
102
RTVSPropertyOp1
 70
     1
102
RTVSPropertyOp2
 70
     1
102
RTVSPropertyOp3
 70
     1
102
RTVSPropertyOp4
 70
     1
102
RTVSPropertyOp5
 70
     1
102
RTVSPropertyOp6
 70
     1
102
RTVSPropertyOp7
 70
     1
102
RTVSPropertyOp8
 70
     1
102
RTVSPropertyOp9
 70
     1
102
RTVSPropertyOp10
 70
     1
102
RTVSPropertyOp11
 70
     1
102
RTVSPropertyOp12
 70
     1
102
RTVSPropertyOp13
 70
     1
102
RTVSPropertyOp14
 70
     1
102
RTVSPropertyOp15
 70
     1
102
RTVSPropertyOp16
 70
     1
102
RTVSPropertyOp17
 70
     1
102
RTVSPropertyOp18
 70
     1
102
RTVSPropertyOp19
 70
     1
102
RTVSPropertyOp20
 70
     1
102
RTVSPropertyOp21
 70
     1
102
RTVSPropertyOp22
 70
     1
102
RTVSPropertyOp23
 70
     1
102
RTVSPropertyOp24
 70
     1
102
RTVSPropertyOp25
 70
     1
102
RTVSPropertyOp26
 70
     1
102
RTVSPropertyOp27
 70
     1
102
RTVSPropertyOp28
 70
     1
102
RTVSPropertyOp29
 70
     1
102
RTVSPropertyOp30
 70
     1
102
RTVSPropertyOp31
 70
     1
102
RTVSPropertyOp32
 70
     1
  0
XRECORD
  5
9DA
102
{ACAD_REACTORS
330
9D9
102
}
330
9D9
100
AcDbXrecord
280
     1
102
RTVSPropertyOp0
 70
     1
102
RTVSPropertyOp1
 70
     1
102
RTVSPropertyOp2
 70
     1
102
RTVSPropertyOp3
 70
     1
102
RTVSPropertyOp4
 70
     1
102
RTVSPropertyOp5
 70
     1
102
RTVSPropertyOp6
 70
     1
102
RTVSPropertyOp7
 70
     1
102
RTVSPropertyOp8
 70
     1
102
RTVSPropertyOp9
 70
     1
102
RTVSPropertyOp10
 70
     1
102
RTVSPropertyOp11
 70
     1
102
RTVSPropertyOp12
 70
     1
102
RTVSPropertyOp13
 70
     1
102
RTVSPropertyOp14
 70
     1
102
RTVSPropertyOp15
 70
     1
102
RTVSPropertyOp16
 70
     1
102
RTVSPropertyOp17
 70
     1
102
RTVSPropertyOp18
 70
     1
102
RTVSPropertyOp19
 70
     1
102
RTVSPropertyOp20
 70
     1
102
RTVSPropertyOp21
 70
     1
102
RTVSPropertyOp22
 70
     1
102
RTVSPropertyOp23
 70
     1
102
RTVSPropertyOp24
 70
     1
102
RTVSPropertyOp25
 70
     1
102
RTVSPropertyOp26
 70
     1
102
RTVSPropertyOp27
 70
     1
102
RTVSPropertyOp28
 70
     1
102
RTVSPropertyOp29
 70
     1
102
RTVSPropertyOp30
 70
     1
102
RTVSPropertyOp31
 70
     1
102
RTVSPropertyOp32
 70
     1
  0
XRECORD
  5
9DE
102
{ACAD_REACTORS
330
9DD
102
}
330
9DD
100
AcDbXrecord
280
     1
102
RTVSPropertyOp0
 70
     1
102
RTVSPropertyOp1
 70
     1
102
RTVSPropertyOp2
 70
     1
102
RTVSPropertyOp3
 70
     1
102
RTVSPropertyOp4
 70
     1
102
RTVSPropertyOp5
 70
     1
102
RTVSPropertyOp6
 70
     1
102
RTVSPropertyOp7
 70
     1
102
RTVSPropertyOp8
 70
     1
102
RTVSPropertyOp9
 70
     1
102
RTVSPropertyOp10
 70
     1
102
RTVSPropertyOp11
 70
     1
102
RTVSPropertyOp12
 70
     1
102
RTVSPropertyOp13
 70
     1
102
RTVSPropertyOp14
 70
     1
102
RTVSPropertyOp15
 70
     1
102
RTVSPropertyOp16
 70
     1
102
RTVSPropertyOp17
 70
     1
102
RTVSPropertyOp18
 70
     1
102
RTVSPropertyOp19
 70
     1
102
RTVSPropertyOp20
 70
     1
102
RTVSPropertyOp21
 70
     1
102
RTVSPropertyOp22
 70
     1
102
RTVSPropertyOp23
 70
     1
102
RTVSPropertyOp24
 70
     1
102
RTVSPropertyOp25
 70
     1
102
RTVSPropertyOp26
 70
     1
102
RTVSPropertyOp27
 70
     1
102
RTVSPropertyOp28
 70
     1
102
RTVSPropertyOp29
 70
     1
102
RTVSPropertyOp30
 70
     1
102
RTVSPropertyOp31
 70
     1
102
RTVSPropertyOp32
 70
     1
  0
XRECORD
  5
9FC
102
{ACAD_REACTORS
330
9FB
102
}
330
9FB
100
AcDbXrecord
280
     1
102
RTVSPropertyOp0
 70
     0
102
RTVSPropertyOp1
 70
     0
102
RTVSPropertyOp2
 70
     0
102
RTVSPropertyOp3
 70
     0
102
RTVSPropertyOp4
 70
     0
102
RTVSPropertyOp5
 70
     0
102
RTVSPropertyOp6
 70
     0
102
RTVSPropertyOp7
 70
     0
102
RTVSPropertyOp8
 70
     0
102
RTVSPropertyOp9
 70
     0
102
RTVSPropertyOp10
 70
     0
102
RTVSPropertyOp11
 70
     0
102
RTVSPropertyOp12
 70
     0
102
RTVSPropertyOp13
 70
     0
102
RTVSPropertyOp14
 70
     2
102
RTVSPropertyOp15
 70
     0
102
RTVSPropertyOp16
 70
     0
102
RTVSPropertyOp17
 70
     0
102
RTVSPropertyOp18
 70
     0
102
RTVSPropertyOp19
 70
     0
102
RTVSPropertyOp20
 70
     0
102
RTVSPropertyOp21
 70
     0
102
RTVSPropertyOp22
 70
     0
102
RTVSPropertyOp23
 70
     0
102
RTVSPropertyOp24
 70
     0
102
RTVSPropertyOp25
 70
     0
102
RTVSPropertyOp26
 70
     0
102
RTVSPropertyOp27
 70
     0
102
RTVSPropertyOp28
 70
     0
102
RTVSPropertyOp29
 70
     0
102
RTVSPropertyOp30
 70
     0
102
RTVSPropertyOp31
 70
     0
102
RTVSPropertyOp32
 70
     0
  0
XRECORD
  5
9E6
102
{ACAD_REACTORS
330
9E5
102
}
330
9E5
100
AcDbXrecord
280
     1
102
RTVSPropertyOp0
 70
     1
102
RTVSPropertyOp1
 70
     1
102
RTVSPropertyOp2
 70
     1
102
RTVSPropertyOp3
 70
     1
102
RTVSPropertyOp4
 70
     1
102
RTVSPropertyOp5
 70
     1
102
RTVSPropertyOp6
 70
     1
102
RTVSPropertyOp7
 70
     1
102
RTVSPropertyOp8
 70
     1
102
RTVSPropertyOp9
 70
     1
102
RTVSPropertyOp10
 70
     1
102
RTVSPropertyOp11
 70
     1
102
RTVSPropertyOp12
 70
     1
102
RTVSPropertyOp13
 70
     1
102
RTVSPropertyOp14
 70
     1
102
RTVSPropertyOp15
 70
     1
102
RTVSPropertyOp16
 70
     1
102
RTVSPropertyOp17
 70
     1
102
RTVSPropertyOp18
 70
     1
102
RTVSPropertyOp19
 70
     1
102
RTVSPropertyOp20
 70
     1
102
RTVSPropertyOp21
 70
     1
102
RTVSPropertyOp22
 70
     1
102
RTVSPropertyOp23
 70
     1
102
RTVSPropertyOp24
 70
     1
102
RTVSPropertyOp25
 70
     1
102
RTVSPropertyOp26
 70
     1
102
RTVSPropertyOp27
 70
     1
102
RTVSPropertyOp28
 70
     1
102
RTVSPropertyOp29
 70
     1
102
RTVSPropertyOp30
 70
     1
102
RTVSPropertyOp31
 70
     1
102
RTVSPropertyOp32
 70
     1
  0
XRECORD
  5
9CA
102
{ACAD_REACTORS
330
9C9
102
}
330
9C9
100
AcDbXrecord
280
     1
102
RTVSPropertyOp0
 70
     1
102
RTVSPropertyOp1
 70
     1
102
RTVSPropertyOp2
 70
     1
102
RTVSPropertyOp3
 70
     1
102
RTVSPropertyOp4
 70
     1
102
RTVSPropertyOp5
 70
     1
102
RTVSPropertyOp6
 70
     1
102
RTVSPropertyOp7
 70
     1
102
RTVSPropertyOp8
 70
     1
102
RTVSPropertyOp9
 70
     1
102
RTVSPropertyOp10
 70
     1
102
RTVSPropertyOp11
 70
     1
102
RTVSPropertyOp12
 70
     1
102
RTVSPropertyOp13
 70
     1
102
RTVSPropertyOp14
 70
     1
102
RTVSPropertyOp15
 70
     1
102
RTVSPropertyOp16
 70
     1
102
RTVSPropertyOp17
 70
     1
102
RTVSPropertyOp18
 70
     1
102
RTVSPropertyOp19
 70
     1
102
RTVSPropertyOp20
 70
     1
102
RTVSPropertyOp21
 70
     1
102
RTVSPropertyOp22
 70
     1
102
RTVSPropertyOp23
 70
     1
102
RTVSPropertyOp24
 70
     1
102
RTVSPropertyOp25
 70
     1
102
RTVSPropertyOp26
 70
     1
102
RTVSPropertyOp27
 70
     1
102
RTVSPropertyOp28
 70
     1
102
RTVSPropertyOp29
 70
     1
102
RTVSPropertyOp30
 70
     1
102
RTVSPropertyOp31
 70
     1
102
RTVSPropertyOp32
 70
     1
  0
XRECORD
  5
9CC
102
{ACAD_REACTORS
330
9CB
102
}
330
9CB
100
AcDbXrecord
280
     1
102
RTVSPropertyOp0
 70
     1
102
RTVSPropertyOp1
 70
     1
102
RTVSPropertyOp2
 70
     1
102
RTVSPropertyOp3
 70
     1
102
RTVSPropertyOp4
 70
     1
102
RTVSPropertyOp5
 70
     1
102
RTVSPropertyOp6
 70
     1
102
RTVSPropertyOp7
 70
     1
102
RTVSPropertyOp8
 70
     1
102
RTVSPropertyOp9
 70
     1
102
RTVSPropertyOp10
 70
     1
102
RTVSPropertyOp11
 70
     1
102
RTVSPropertyOp12
 70
     1
102
RTVSPropertyOp13
 70
     1
102
RTVSPropertyOp14
 70
     1
102
RTVSPropertyOp15
 70
     1
102
RTVSPropertyOp16
 70
     1
102
RTVSPropertyOp17
 70
     1
102
RTVSPropertyOp18
 70
     1
102
RTVSPropertyOp19
 70
     1
102
RTVSPropertyOp20
 70
     1
102
RTVSPropertyOp21
 70
     1
102
RTVSPropertyOp22
 70
     1
102
RTVSPropertyOp23
 70
     1
102
RTVSPropertyOp24
 70
     1
102
RTVSPropertyOp25
 70
     1
102
RTVSPropertyOp26
 70
     1
102
RTVSPropertyOp27
 70
     1
102
RTVSPropertyOp28
 70
     1
102
RTVSPropertyOp29
 70
     1
102
RTVSPropertyOp30
 70
     1
102
RTVSPropertyOp31
 70
     1
102
RTVSPropertyOp32
 70
     1
  0
XRECORD
  5
9CE
102
{ACAD_REACTORS
330
9CD
102
}
330
9CD
100
AcDbXrecord
280
     1
102
RTVSPropertyOp0
 70
     1
102
RTVSPropertyOp1
 70
     1
102
RTVSPropertyOp2
 70
     1
102
RTVSPropertyOp3
 70
     1
102
RTVSPropertyOp4
 70
     1
102
RTVSPropertyOp5
 70
     1
102
RTVSPropertyOp6
 70
     1
102
RTVSPropertyOp7
 70
     1
102
RTVSPropertyOp8
 70
     1
102
RTVSPropertyOp9
 70
     1
102
RTVSPropertyOp10
 70
     1
102
RTVSPropertyOp11
 70
     1
102
RTVSPropertyOp12
 70
     1
102
RTVSPropertyOp13
 70
     1
102
RTVSPropertyOp14
 70
     1
102
RTVSPropertyOp15
 70
     1
102
RTVSPropertyOp16
 70
     1
102
RTVSPropertyOp17
 70
     1
102
RTVSPropertyOp18
 70
     1
102
RTVSPropertyOp19
 70
     1
102
RTVSPropertyOp20
 70
     1
102
RTVSPropertyOp21
 70
     1
102
RTVSPropertyOp22
 70
     1
102
RTVSPropertyOp23
 70
     1
102
RTVSPropertyOp24
 70
     1
102
RTVSPropertyOp25
 70
     1
102
RTVSPropertyOp26
 70
     1
102
RTVSPropertyOp27
 70
     1
102
RTVSPropertyOp28
 70
     1
102
RTVSPropertyOp29
 70
     1
102
RTVSPropertyOp30
 70
     1
102
RTVSPropertyOp31
 70
     1
102
RTVSPropertyOp32
 70
     1
  0
XRECORD
  5
9D0
102
{ACAD_REACTORS
330
9CF
102
}
330
9CF
100
AcDbXrecord
280
     1
102
RTVSPropertyOp0
 70
     1
102
RTVSPropertyOp1
 70
     1
102
RTVSPropertyOp2
 70
     1
102
RTVSPropertyOp3
 70
     1
102
RTVSPropertyOp4
 70
     1
102
RTVSPropertyOp5
 70
     1
102
RTVSPropertyOp6
 70
     1
102
RTVSPropertyOp7
 70
     1
102
RTVSPropertyOp8
 70
     1
102
RTVSPropertyOp9
 70
     1
102
RTVSPropertyOp10
 70
     1
102
RTVSPropertyOp11
 70
     1
102
RTVSPropertyOp12
 70
     1
102
RTVSPropertyOp13
 70
     1
102
RTVSPropertyOp14
 70
     1
102
RTVSPropertyOp15
 70
     1
102
RTVSPropertyOp16
 70
     1
102
RTVSPropertyOp17
 70
     1
102
RTVSPropertyOp18
 70
     1
102
RTVSPropertyOp19
 70
     1
102
RTVSPropertyOp20
 70
     1
102
RTVSPropertyOp21
 70
     1
102
RTVSPropertyOp22
 70
     1
102
RTVSPropertyOp23
 70
     1
102
RTVSPropertyOp24
 70
     1
102
RTVSPropertyOp25
 70
     1
102
RTVSPropertyOp26
 70
     1
102
RTVSPropertyOp27
 70
     1
102
RTVSPropertyOp28
 70
     1
102
RTVSPropertyOp29
 70
     1
102
RTVSPropertyOp30
 70
     1
102
RTVSPropertyOp31
 70
     1
102
RTVSPropertyOp32
 70
     1
  0
XRECORD
  5
9EC
102
{ACAD_REACTORS
330
9EB
102
}
330
9EB
100
AcDbXrecord
280
     1
102
RTVSPropertyOp0
 70
     1
102
RTVSPropertyOp1
 70
     1
102
RTVSPropertyOp2
 70
     1
102
RTVSPropertyOp3
 70
     1
102
RTVSPropertyOp4
 70
     1
102
RTVSPropertyOp5
 70
     1
102
RTVSPropertyOp6
 70
     1
102
RTVSPropertyOp7
 70
     1
102
RTVSPropertyOp8
 70
     1
102
RTVSPropertyOp9
 70
     1
102
RTVSPropertyOp10
 70
     1
102
RTVSPropertyOp11
 70
     1
102
RTVSPropertyOp12
 70
     1
102
RTVSPropertyOp13
 70
     1
102
RTVSPropertyOp14
 70
     1
102
RTVSPropertyOp15
 70
     1
102
RTVSPropertyOp16
 70
     1
102
RTVSPropertyOp17
 70
     1
102
RTVSPropertyOp18
 70
     1
102
RTVSPropertyOp19
 70
     1
102
RTVSPropertyOp20
 70
     1
102
RTVSPropertyOp21
 70
     1
102
RTVSPropertyOp22
 70
     1
102
RTVSPropertyOp23
 70
     1
102
RTVSPropertyOp24
 70
     1
102
RTVSPropertyOp25
 70
     1
102
RTVSPropertyOp26
 70
     1
102
RTVSPropertyOp27
 70
     1
102
RTVSPropertyOp28
 70
     1
102
RTVSPropertyOp29
 70
     1
102
RTVSPropertyOp30
 70
     1
102
RTVSPropertyOp31
 70
     1
102
RTVSPropertyOp32
 70
     1
  0
XRECORD
  5
9F8
102
{ACAD_REACTORS
330
9F7
102
}
330
9F7
100
AcDbXrecord
280
     1
102
RTVSPropertyOp0
 70
     0
102
RTVSPropertyOp1
 70
     0
102
RTVSPropertyOp2
 70
     0
102
RTVSPropertyOp3
 70
     0
102
RTVSPropertyOp4
 70
     0
102
RTVSPropertyOp5
 70
     0
102
RTVSPropertyOp6
 70
     0
102
RTVSPropertyOp7
 70
     0
102
RTVSPropertyOp8
 70
     0
102
RTVSPropertyOp9
 70
     0
102
RTVSPropertyOp10
 70
     0
102
RTVSPropertyOp11
 70
     0
102
RTVSPropertyOp12
 70
     0
102
RTVSPropertyOp13
 70
     0
102
RTVSPropertyOp14
 70
     2
102
RTVSPropertyOp15
 70
     0
102
RTVSPropertyOp16
 70
     0
102
RTVSPropertyOp17
 70
     0
102
RTVSPropertyOp18
 70
     0
102
RTVSPropertyOp19
 70
     0
102
RTVSPropertyOp20
 70
     0
102
RTVSPropertyOp21
 70
     0
102
RTVSPropertyOp22
 70
     0
102
RTVSPropertyOp23
 70
     0
102
RTVSPropertyOp24
 70
     0
102
RTVSPropertyOp25
 70
     0
102
RTVSPropertyOp26
 70
     0
102
RTVSPropertyOp27
 70
     0
102
RTVSPropertyOp28
 70
     0
102
RTVSPropertyOp29
 70
     0
102
RTVSPropertyOp30
 70
     0
102
RTVSPropertyOp31
 70
     0
102
RTVSPropertyOp32
 70
     0
  0
XRECORD
  5
9E4
102
{ACAD_REACTORS
330
9E3
102
}
330
9E3
100
AcDbXrecord
280
     1
102
RTVSPropertyOp0
 70
     1
102
RTVSPropertyOp1
 70
     1
102
RTVSPropertyOp2
 70
     1
102
RTVSPropertyOp3
 70
     1
102
RTVSPropertyOp4
 70
     1
102
RTVSPropertyOp5
 70
     1
102
RTVSPropertyOp6
 70
     1
102
RTVSPropertyOp7
 70
     1
102
RTVSPropertyOp8
 70
     1
102
RTVSPropertyOp9
 70
     1
102
RTVSPropertyOp10
 70
     1
102
RTVSPropertyOp11
 70
     1
102
RTVSPropertyOp12
 70
     1
102
RTVSPropertyOp13
 70
     1
102
RTVSPropertyOp14
 70
     1
102
RTVSPropertyOp15
 70
     1
102
RTVSPropertyOp16
 70
     1
102
RTVSPropertyOp17
 70
     1
102
RTVSPropertyOp18
 70
     1
102
RTVSPropertyOp19
 70
     1
102
RTVSPropertyOp20
 70
     1
102
RTVSPropertyOp21
 70
     1
102
RTVSPropertyOp22
 70
     1
102
RTVSPropertyOp23
 70
     1
102
RTVSPropertyOp24
 70
     1
102
RTVSPropertyOp25
 70
     1
102
RTVSPropertyOp26
 70
     1
102
RTVSPropertyOp27
 70
     1
102
RTVSPropertyOp28
 70
     1
102
RTVSPropertyOp29
 70
     1
102
RTVSPropertyOp30
 70
     1
102
RTVSPropertyOp31
 70
     1
102
RTVSPropertyOp32
 70
     1
  0
XRECORD
  5
9FA
102
{ACAD_REACTORS
330
9F9
102
}
330
9F9
100
AcDbXrecord
280
     1
102
RTVSPropertyOp0
 70
     0
102
RTVSPropertyOp1
 70
     0
102
RTVSPropertyOp2
 70
     0
102
RTVSPropertyOp3
 70
     0
102
RTVSPropertyOp4
 70
     0
102
RTVSPropertyOp5
 70
     0
102
RTVSPropertyOp6
 70
     0
102
RTVSPropertyOp7
 70
     0
102
RTVSPropertyOp8
 70
     0
102
RTVSPropertyOp9
 70
     0
102
RTVSPropertyOp10
 70
     0
102
RTVSPropertyOp11
 70
     0
102
RTVSPropertyOp12
 70
     0
102
RTVSPropertyOp13
 70
     0
102
RTVSPropertyOp14
 70
     2
102
RTVSPropertyOp15
 70
     0
102
RTVSPropertyOp16
 70
     0
102
RTVSPropertyOp17
 70
     0
102
RTVSPropertyOp18
 70
     0
102
RTVSPropertyOp19
 70
     0
102
RTVSPropertyOp20
 70
     0
102
RTVSPropertyOp21
 70
     0
102
RTVSPropertyOp22
 70
     0
102
RTVSPropertyOp23
 70
     0
102
RTVSPropertyOp24
 70
     0
102
RTVSPropertyOp25
 70
     0
102
RTVSPropertyOp26
 70
     0
102
RTVSPropertyOp27
 70
     0
102
RTVSPropertyOp28
 70
     0
102
RTVSPropertyOp29
 70
     0
102
RTVSPropertyOp30
 70
     0
102
RTVSPropertyOp31
 70
     0
102
RTVSPropertyOp32
 70
     0
  0
XRECORD
  5
9DC
102
{ACAD_REACTORS
330
9DB
102
}
330
9DB
100
AcDbXrecord
280
     1
102
RTVSPropertyOp0
 70
     1
102
RTVSPropertyOp1
 70
     1
102
RTVSPropertyOp2
 70
     1
102
RTVSPropertyOp3
 70
     1
102
RTVSPropertyOp4
 70
     1
102
RTVSPropertyOp5
 70
     1
102
RTVSPropertyOp6
 70
     1
102
RTVSPropertyOp7
 70
     1
102
RTVSPropertyOp8
 70
     1
102
RTVSPropertyOp9
 70
     1
102
RTVSPropertyOp10
 70
     1
102
RTVSPropertyOp11
 70
     1
102
RTVSPropertyOp12
 70
     1
102
RTVSPropertyOp13
 70
     1
102
RTVSPropertyOp14
 70
     1
102
RTVSPropertyOp15
 70
     1
102
RTVSPropertyOp16
 70
     1
102
RTVSPropertyOp17
 70
     1
102
RTVSPropertyOp18
 70
     1
102
RTVSPropertyOp19
 70
     1
102
RTVSPropertyOp20
 70
     1
102
RTVSPropertyOp21
 70
     1
102
RTVSPropertyOp22
 70
     1
102
RTVSPropertyOp23
 70
     1
102
RTVSPropertyOp24
 70
     1
102
RTVSPropertyOp25
 70
     1
102
RTVSPropertyOp26
 70
     1
102
RTVSPropertyOp27
 70
     1
102
RTVSPropertyOp28
 70
     1
102
RTVSPropertyOp29
 70
     1
102
RTVSPropertyOp30
 70
     1
102
RTVSPropertyOp31
 70
     1
102
RTVSPropertyOp32
 70
     1
  0
XRECORD
  5
9F6
102
{ACAD_REACTORS
330
9F5
102
}
330
9F5
100
AcDbXrecord
280
     1
102
RTVSPropertyOp0
 70
     1
102
RTVSPropertyOp1
 70
     1
102
RTVSPropertyOp2
 70
     1
102
RTVSPropertyOp3
 70
     1
102
RTVSPropertyOp4
 70
     1
102
RTVSPropertyOp5
 70
     1
102
RTVSPropertyOp6
 70
     1
102
RTVSPropertyOp7
 70
     1
102
RTVSPropertyOp8
 70
     1
102
RTVSPropertyOp9
 70
     1
102
RTVSPropertyOp10
 70
     1
102
RTVSPropertyOp11
 70
     1
102
RTVSPropertyOp12
 70
     1
102
RTVSPropertyOp13
 70
     1
102
RTVSPropertyOp14
 70
     1
102
RTVSPropertyOp15
 70
     1
102
RTVSPropertyOp16
 70
     1
102
RTVSPropertyOp17
 70
     1
102
RTVSPropertyOp18
 70
     1
102
RTVSPropertyOp19
 70
     1
102
RTVSPropertyOp20
 70
     1
102
RTVSPropertyOp21
 70
     1
102
RTVSPropertyOp22
 70
     1
102
RTVSPropertyOp23
 70
     1
102
RTVSPropertyOp24
 70
     1
102
RTVSPropertyOp25
 70
     1
102
RTVSPropertyOp26
 70
     1
102
RTVSPropertyOp27
 70
     1
102
RTVSPropertyOp28
 70
     1
102
RTVSPropertyOp29
 70
     1
102
RTVSPropertyOp30
 70
     1
102
RTVSPropertyOp31
 70
     1
102
RTVSPropertyOp32
 70
     1
  0
XRECORD
  5
9F4
102
{ACAD_REACTORS
330
9F3
102
}
330
9F3
100
AcDbXrecord
280
     1
102
RTVSPropertyOp0
 70
     1
102
RTVSPropertyOp1
 70
     1
102
RTVSPropertyOp2
 70
     1
102
RTVSPropertyOp3
 70
     1
102
RTVSPropertyOp4
 70
     1
102
RTVSPropertyOp5
 70
     1
102
RTVSPropertyOp6
 70
     1
102
RTVSPropertyOp7
 70
     1
102
RTVSPropertyOp8
 70
     1
102
RTVSPropertyOp9
 70
     1
102
RTVSPropertyOp10
 70
     1
102
RTVSPropertyOp11
 70
     1
102
RTVSPropertyOp12
 70
     1
102
RTVSPropertyOp13
 70
     1
102
RTVSPropertyOp14
 70
     1
102
RTVSPropertyOp15
 70
     1
102
RTVSPropertyOp16
 70
     1
102
RTVSPropertyOp17
 70
     1
102
RTVSPropertyOp18
 70
     1
102
RTVSPropertyOp19
 70
     1
102
RTVSPropertyOp20
 70
     1
102
RTVSPropertyOp21
 70
     1
102
RTVSPropertyOp22
 70
     1
102
RTVSPropertyOp23
 70
     1
102
RTVSPropertyOp24
 70
     1
102
RTVSPropertyOp25
 70
     1
102
RTVSPropertyOp26
 70
     1
102
RTVSPropertyOp27
 70
     1
102
RTVSPropertyOp28
 70
     1
102
RTVSPropertyOp29
 70
     1
102
RTVSPropertyOp30
 70
     1
102
RTVSPropertyOp31
 70
     1
102
RTVSPropertyOp32
 70
     1
  0
XRECORD
  5
9EE
102
{ACAD_REACTORS
330
9ED
102
}
330
9ED
100
AcDbXrecord
280
     1
102
RTVSPropertyOp0
 70
     1
102
RTVSPropertyOp1
 70
     1
102
RTVSPropertyOp2
 70
     1
102
RTVSPropertyOp3
 70
     1
102
RTVSPropertyOp4
 70
     1
102
RTVSPropertyOp5
 70
     1
102
RTVSPropertyOp6
 70
     1
102
RTVSPropertyOp7
 70
     1
102
RTVSPropertyOp8
 70
     1
102
RTVSPropertyOp9
 70
     1
102
RTVSPropertyOp10
 70
     1
102
RTVSPropertyOp11
 70
     1
102
RTVSPropertyOp12
 70
     1
102
RTVSPropertyOp13
 70
     1
102
RTVSPropertyOp14
 70
     1
102
RTVSPropertyOp15
 70
     1
102
RTVSPropertyOp16
 70
     1
102
RTVSPropertyOp17
 70
     1
102
RTVSPropertyOp18
 70
     1
102
RTVSPropertyOp19
 70
     1
102
RTVSPropertyOp20
 70
     1
102
RTVSPropertyOp21
 70
     1
102
RTVSPropertyOp22
 70
     1
102
RTVSPropertyOp23
 70
     1
102
RTVSPropertyOp24
 70
     1
102
RTVSPropertyOp25
 70
     1
102
RTVSPropertyOp26
 70
     1
102
RTVSPropertyOp27
 70
     1
102
RTVSPropertyOp28
 70
     1
102
RTVSPropertyOp29
 70
     1
102
RTVSPropertyOp30
 70
     1
102
RTVSPropertyOp31
 70
     1
102
RTVSPropertyOp32
 70
     1
  0
XRECORD
  5
9F0
102
{ACAD_REACTORS
330
9EF
102
}
330
9EF
100
AcDbXrecord
280
     1
102
RTVSPropertyOp0
 70
     1
102
RTVSPropertyOp1
 70
     1
102
RTVSPropertyOp2
 70
     1
102
RTVSPropertyOp3
 70
     1
102
RTVSPropertyOp4
 70
     1
102
RTVSPropertyOp5
 70
     1
102
RTVSPropertyOp6
 70
     1
102
RTVSPropertyOp7
 70
     1
102
RTVSPropertyOp8
 70
     1
102
RTVSPropertyOp9
 70
     1
102
RTVSPropertyOp10
 70
     1
102
RTVSPropertyOp11
 70
     1
102
RTVSPropertyOp12
 70
     1
102
RTVSPropertyOp13
 70
     1
102
RTVSPropertyOp14
 70
     1
102
RTVSPropertyOp15
 70
     1
102
RTVSPropertyOp16
 70
     1
102
RTVSPropertyOp17
 70
     1
102
RTVSPropertyOp18
 70
     1
102
RTVSPropertyOp19
 70
     1
102
RTVSPropertyOp20
 70
     1
102
RTVSPropertyOp21
 70
     1
102
RTVSPropertyOp22
 70
     1
102
RTVSPropertyOp23
 70
     1
102
RTVSPropertyOp24
 70
     1
102
RTVSPropertyOp25
 70
     1
102
RTVSPropertyOp26
 70
     1
102
RTVSPropertyOp27
 70
     1
102
RTVSPropertyOp28
 70
     1
102
RTVSPropertyOp29
 70
     1
102
RTVSPropertyOp30
 70
     1
102
RTVSPropertyOp31
 70
     1
102
RTVSPropertyOp32
 70
     1
  0
XRECORD
  5
9E2
102
{ACAD_REACTORS
330
9E1
102
}
330
9E1
100
AcDbXrecord
280
     1
102
RTVSPropertyOp0
 70
     1
102
RTVSPropertyOp1
 70
     1
102
RTVSPropertyOp2
 70
     1
102
RTVSPropertyOp3
 70
     1
102
RTVSPropertyOp4
 70
     1
102
RTVSPropertyOp5
 70
     1
102
RTVSPropertyOp6
 70
     1
102
RTVSPropertyOp7
 70
     1
102
RTVSPropertyOp8
 70
     1
102
RTVSPropertyOp9
 70
     1
102
RTVSPropertyOp10
 70
     1
102
RTVSPropertyOp11
 70
     1
102
RTVSPropertyOp12
 70
     1
102
RTVSPropertyOp13
 70
     1
102
RTVSPropertyOp14
 70
     1
102
RTVSPropertyOp15
 70
     1
102
RTVSPropertyOp16
 70
     1
102
RTVSPropertyOp17
 70
     1
102
RTVSPropertyOp18
 70
     1
102
RTVSPropertyOp19
 70
     1
102
RTVSPropertyOp20
 70
     1
102
RTVSPropertyOp21
 70
     1
102
RTVSPropertyOp22
 70
     1
102
RTVSPropertyOp23
 70
     1
102
RTVSPropertyOp24
 70
     1
102
RTVSPropertyOp25
 70
     1
102
RTVSPropertyOp26
 70
     1
102
RTVSPropertyOp27
 70
     1
102
RTVSPropertyOp28
 70
     1
102
RTVSPropertyOp29
 70
     1
102
RTVSPropertyOp30
 70
     1
102
RTVSPropertyOp31
 70
     1
102
RTVSPropertyOp32
 70
     1
  0
XRECORD
  5
9EA
102
{ACAD_REACTORS
330
9E9
102
}
330
9E9
100
AcDbXrecord
280
     1
102
RTVSPropertyOp0
 70
     1
102
RTVSPropertyOp1
 70
     1
102
RTVSPropertyOp2
 70
     1
102
RTVSPropertyOp3
 70
     1
102
RTVSPropertyOp4
 70
     1
102
RTVSPropertyOp5
 70
     1
102
RTVSPropertyOp6
 70
     1
102
RTVSPropertyOp7
 70
     1
102
RTVSPropertyOp8
 70
     1
102
RTVSPropertyOp9
 70
     1
102
RTVSPropertyOp10
 70
     1
102
RTVSPropertyOp11
 70
     1
102
RTVSPropertyOp12
 70
     1
102
RTVSPropertyOp13
 70
     1
102
RTVSPropertyOp14
 70
     1
102
RTVSPropertyOp15
 70
     1
102
RTVSPropertyOp16
 70
     1
102
RTVSPropertyOp17
 70
     1
102
RTVSPropertyOp18
 70
     1
102
RTVSPropertyOp19
 70
     1
102
RTVSPropertyOp20
 70
     1
102
RTVSPropertyOp21
 70
     1
102
RTVSPropertyOp22
 70
     1
102
RTVSPropertyOp23
 70
     1
102
RTVSPropertyOp24
 70
     1
102
RTVSPropertyOp25
 70
     1
102
RTVSPropertyOp26
 70
     1
102
RTVSPropertyOp27
 70
     1
102
RTVSPropertyOp28
 70
     1
102
RTVSPropertyOp29
 70
     1
102
RTVSPropertyOp30
 70
     1
102
RTVSPropertyOp31
 70
     1
102
RTVSPropertyOp32
 70
     1
  0
XRECORD
  5
9F2
102
{ACAD_REACTORS
330
9F1
102
}
330
9F1
100
AcDbXrecord
280
     1
102
RTVSPropertyOp0
 70
     1
102
RTVSPropertyOp1
 70
     1
102
RTVSPropertyOp2
 70
     1
102
RTVSPropertyOp3
 70
     1
102
RTVSPropertyOp4
 70
     1
102
RTVSPropertyOp5
 70
     1
102
RTVSPropertyOp6
 70
     1
102
RTVSPropertyOp7
 70
     1
102
RTVSPropertyOp8
 70
     1
102
RTVSPropertyOp9
 70
     1
102
RTVSPropertyOp10
 70
     1
102
RTVSPropertyOp11
 70
     1
102
RTVSPropertyOp12
 70
     1
102
RTVSPropertyOp13
 70
     1
102
RTVSPropertyOp14
 70
     1
102
RTVSPropertyOp15
 70
     1
102
RTVSPropertyOp16
 70
     1
102
RTVSPropertyOp17
 70
     1
102
RTVSPropertyOp18
 70
     1
102
RTVSPropertyOp19
 70
     1
102
RTVSPropertyOp20
 70
     1
102
RTVSPropertyOp21
 70
     1
102
RTVSPropertyOp22
 70
     1
102
RTVSPropertyOp23
 70
     1
102
RTVSPropertyOp24
 70
     1
102
RTVSPropertyOp25
 70
     1
102
RTVSPropertyOp26
 70
     1
102
RTVSPropertyOp27
 70
     1
102
RTVSPropertyOp28
 70
     1
102
RTVSPropertyOp29
 70
     1
102
RTVSPropertyOp30
 70
     1
102
RTVSPropertyOp31
 70
     1
102
RTVSPropertyOp32
 70
     1
  0
ENDSEC
  0
EOF
