  0
SECTION
  2
HEADER
  9
$ACADVER
  1
AC1015
  9
$ACADMAINTVER
 70
    20
  9
$DWGCODEPAGE
  3
ANSI_1252
  9
$INSBASE
 10
0.0
 20
0.0
 30
0.0
  9
$EXTMIN
 10
-61.60491835735331
 20
-33.3293537627851
 30
0.0
  9
$EXTMAX
 10
192.3984764997332
 20
43.96476411281628
 30
0.0
  9
$LIMMIN
 10
0.0
 20
0.0
  9
$LIMMAX
 10
420.0
 20
297.0
  9
$ORTHOMODE
 70
     0
  9
$REGENMODE
 70
     1
  9
$FILLMODE
 70
     1
  9
$QTEXTMODE
 70
     0
  9
$MIRRTEXT
 70
     0
  9
$LTSCALE
 40
23.1
  9
$ATTMODE
 70
     1
  9
$TEXTSIZE
 40
3.5
  9
$TRACEWID
 40
0.05
  9
$TEXTSTYLE
  7
STANDARD
  9
$CLAYER
  8
0
  9
$CELTYPE
  6
BYLAYER
  9
$CECOLOR
 62
   256
  9
$CELTSCALE
 40
1.0
  9
$DISPSILH
 70
     0
  9
$DIMSCALE
 40
1.0
  9
$DIMASZ
 40
4.57
  9
$DIMEXO
 40
0.0625
  9
$DIMDLI
 40
0.38
  9
$DIMRND
 40
0.0
  9
$DIMDLE
 40
0.0
  9
$DIMEXE
 40
0.18
  9
$DIMTP
 40
0.01
  9
$DIMTM
 40
0.01
  9
$DIMTXT
 40
3.5
  9
$DIMCEN
 40
0.09
  9
$DIMTSZ
 40
0.0
  9
$DIMTOL
 70
     0
  9
$DIMLIM
 70
     0
  9
$DIMTIH
 70
     0
  9
$DIMTOH
 70
     0
  9
$DIMSE1
 70
     0
  9
$DIMSE2
 70
     0
  9
$DIMTAD
 70
     1
  9
$DIMZIN
 70
     8
  9
$DIMBLK
  1

  9
$DIMASO
 70
     1
  9
$DIMSHO
 70
     1
  9
$DIMPOST
  1

  9
$DIMAPOST
  1

  9
$DIMALT
 70
     0
  9
$DIMALTD
 70
     2
  9
$DIMALTF
 40
25.4
  9
$DIMLFAC
 40
1.0
  9
$DIMTOFL
 70
     0
  9
$DIMTVP
 40
0.0
  9
$DIMTIX
 70
     0
  9
$DIMSOXD
 70
     0
  9
$DIMSAH
 70
     0
  9
$DIMBLK1
  1

  9
$DIMBLK2
  1

  9
$DIMSTYLE
  2
STANDARD
  9
$DIMCLRD
 70
     0
  9
$DIMCLRE
 70
     0
  9
$DIMCLRT
 70
     0
  9
$DIMTFAC
 40
1.0
  9
$DIMGAP
 40
0.09
  9
$DIMJUST
 70
     0
  9
$DIMSD1
 70
     0
  9
$DIMSD2
 70
     0
  9
$DIMTOLJ
 70
     1
  9
$DIMTZIN
 70
     8
  9
$DIMALTZ
 70
     0
  9
$DIMALTTZ
 70
     0
  9
$DIMUPT
 70
     0
  9
$DIMDEC
 70
     3
  9
$DIMTDEC
 70
     3
  9
$DIMALTU
 70
     2
  9
$DIMALTTD
 70
     2
  9
$DIMTXSTY
  7
STANDARD
  9
$DIMAUNIT
 70
     0
  9
$DIMADEC
 70
     0
  9
$DIMALTRND
 40
0.0
  9
$DIMAZIN
 70
     0
  9
$DIMDSEP
 70
    46
  9
$DIMATFIT
 70
     0
  9
$DIMFRAC
 70
     0
  9
$DIMLDRBLK
  1

  9
$DIMLUNIT
 70
     2
  9
$DIMLWD
 70
    -2
  9
$DIMLWE
 70
    -2
  9
$DIMTMOVE
 70
     0
  9
$LUNITS
 70
     2
  9
$LUPREC
 70
     4
  9
$SKETCHINC
 40
0.1
  9
$FILLETRAD
 40
0.0
  9
$AUNITS
 70
     0
  9
$AUPREC
 70
     0
  9
$MENU
  1
.
  9
$ELEVATION
 40
0.0
  9
$PELEVATION
 40
0.0
  9
$THICKNESS
 40
0.0
  9
$LIMCHECK
 70
     0
  9
$CHAMFERA
 40
0.0
  9
$CHAMFERB
 40
0.0
  9
$CHAMFERC
 40
0.0
  9
$CHAMFERD
 40
0.0
  9
$SKPOLY
 70
     0
  9
$TDCREATE
 40
2457402.355344479
  9
$TDUCREATE
 40
2457402.313677813
  9
$TDUPDATE
 40
2457402.366366470
  9
$TDUUPDATE
 40
2457402.324699803
  9
$TDINDWG
 40
0.0110786111
  9
$TDUSRTIMER
 40
0.0110321759
  9
$USRTIMER
 70
     1
  9
$ANGBASE
 50
0.0
  9
$ANGDIR
 70
     0
  9
$PDMODE
 70
     3
  9
$PDSIZE
 40
0.3125
  9
$PLINEWID
 40
0.0
  9
$SPLFRAME
 70
     0
  9
$SPLINETYPE
 70
     6
  9
$SPLINESEGS
 70
     8
  9
$HANDSEED
  5
216A2
  9
$SURFTAB1
 70
     6
  9
$SURFTAB2
 70
     6
  9
$SURFTYPE
 70
     6
  9
$SURFU
 70
     6
  9
$SURFV
 70
     6
  9
$UCSBASE
  2

  9
$UCSNAME
  2

  9
$UCSORG
 10
0.0
 20
0.0
 30
0.0
  9
$UCSXDIR
 10
1.0
 20
0.0
 30
0.0
  9
$UCSYDIR
 10
0.0
 20
1.0
 30
0.0
  9
$UCSORTHOREF
  2

  9
$UCSORTHOVIEW
 70
     0
  9
$UCSORGTOP
 10
0.0
 20
0.0
 30
0.0
  9
$UCSORGBOTTOM
 10
0.0
 20
0.0
 30
0.0
  9
$UCSORGLEFT
 10
0.0
 20
0.0
 30
0.0
  9
$UCSORGRIGHT
 10
0.0
 20
0.0
 30
0.0
  9
$UCSORGFRONT
 10
0.0
 20
0.0
 30
0.0
  9
$UCSORGBACK
 10
0.0
 20
0.0
 30
0.0
  9
$PUCSBASE
  2

  9
$PUCSNAME
  2

  9
$PUCSORG
 10
0.0
 20
0.0
 30
0.0
  9
$PUCSXDIR
 10
1.0
 20
0.0
 30
0.0
  9
$PUCSYDIR
 10
0.0
 20
1.0
 30
0.0
  9
$PUCSORTHOREF
  2

  9
$PUCSORTHOVIEW
 70
     0
  9
$PUCSORGTOP
 10
0.0
 20
0.0
 30
0.0
  9
$PUCSORGBOTTOM
 10
0.0
 20
0.0
 30
0.0
  9
$PUCSORGLEFT
 10
0.0
 20
0.0
 30
0.0
  9
$PUCSORGRIGHT
 10
0.0
 20
0.0
 30
0.0
  9
$PUCSORGFRONT
 10
0.0
 20
0.0
 30
0.0
  9
$PUCSORGBACK
 10
0.0
 20
0.0
 30
0.0
  9
$USERI1
 70
     0
  9
$USERI2
 70
     0
  9
$USERI3
 70
     0
  9
$USERI4
 70
     0
  9
$USERI5
 70
     0
  9
$USERR1
 40
0.0
  9
$USERR2
 40
0.0
  9
$USERR3
 40
0.0
  9
$USERR4
 40
0.0
  9
$USERR5
 40
0.0
  9
$WORLDVIEW
 70
     1
  9
$SHADEDGE
 70
     3
  9
$SHADEDIF
 70
    70
  9
$TILEMODE
 70
     1
  9
$MAXACTVP
 70
    64
  9
$PINSBASE
 10
0.0
 20
0.0
 30
0.0
  9
$PLIMCHECK
 70
     0
  9
$PEXTMIN
 10
28.69141678810127
 20
19.6363175392151
 30
0.0
  9
$PEXTMAX
 10
258.2227510929107
 20
176.7268578529358
 30
0.0
  9
$PLIMMIN
 10
-5.027069091796875
 20
-6.805083274841307
  9
$PLIMMAX
 10
291.9412536621094
 20
203.1682443618775
  9
$UNITMODE
 70
     0
  9
$VISRETAIN
 70
     1
  9
$PLINEGEN
 70
     0
  9
$PSLTSCALE
 70
     1
  9
$TREEDEPTH
 70
  3020
  9
$CMLSTYLE
  2
STANDARD
  9
$CMLJUST
 70
     0
  9
$CMLSCALE
 40
1.0
  9
$PROXYGRAPHICS
 70
     1
  9
$MEASUREMENT
 70
     1
  9
$CELWEIGHT
370
    -1
  9
$ENDCAPS
280
     0
  9
$JOINSTYLE
280
     0
  9
$LWDISPLAY
290
     0
  9
$INSUNITS
 70
     0
  9
$HYPERLINKBASE
  1

  9
$STYLESHEET
  1
A1-A2.CTB
  9
$XEDIT
290
     1
  9
$CEPSNTYPE
380
     0
  9
$PSTYLEMODE
290
     1
  9
$FINGERPRINTGUID
  2
{11A84BEE-B9EC-4066-8D3B-1FE44B8DCCE0}
  9
$VERSIONGUID
  2
{2F4FEF99-8020-4ADC-A985-235908314779}
  9
$EXTNAMES
290
     1
  9
$PSVPSCALE
 40
0.0
  9
$OLESTARTUP
290
     0
  0
ENDSEC
  0
SECTION
  2
CLASSES
  0
CLASS
  1
ACDBDICTIONARYWDFLT
  2
AcDbDictionaryWithDefault
  3
ObjectDBX Classes
 90
        0
280
     0
281
     0
  0
CLASS
  1
MATERIAL
  2
AcDbMaterial
  3
ObjectDBX Classes
 90
     1153
280
     0
281
     0
  0
CLASS
  1
VISUALSTYLE
  2
AcDbVisualStyle
  3
ObjectDBX Classes
 90
     4095
280
     0
281
     0
  0
CLASS
  1
TABLESTYLE
  2
AcDbTableStyle
  3
ObjectDBX Classes
 90
     4095
280
     0
281
     0
  0
CLASS
  1
SORTENTSTABLE
  2
AcDbSortentsTable
  3
ObjectDBX Classes
 90
        0
280
     0
281
     0
  0
CLASS
  1
DICTIONARYVAR
  2
AcDbDictionaryVar
  3
ObjectDBX Classes
 90
        0
280
     0
281
     0
  0
CLASS
  1
EXACXREFPANELOBJECT
  2
ExAcXREFPanelObject
  3
EXAC_ESW
 90
    33793
280
     1
281
     0
  0
CLASS
  1
NPOCOLLECTION
  2
AcDbImpNonPersistentObjectsCollection
  3
ObjectDBX Classes
 90
    33921
280
     1
281
     0
  0
CLASS
  1
ACDBPLACEHOLDER
  2
AcDbPlaceHolder
  3
ObjectDBX Classes
 90
        0
280
     0
281
     0
  0
CLASS
  1
LAYOUT
  2
AcDbLayout
  3
ObjectDBX Classes
 90
        0
280
     0
281
     0
  0
CLASS
  1
SCALE
  2
AcDbScale
  3
ObjectDBX Classes
 90
     1153
280
     0
281
     0
  0
CLASS
  1
MLEADERSTYLE
  2
AcDbMLeaderStyle
  3
ACDB_MLEADERSTYLE_CLASS
 90
     4095
280
     0
281
     0
  0
CLASS
  1
ACDBSECTIONVIEWSTYLE
  2
AcDbSectionViewStyle
  3
ObjectDBX Classes
 90
     1025
280
     0
281
     0
  0
CLASS
  1
ACDBDETAILVIEWSTYLE
  2
AcDbDetailViewStyle
  3
ObjectDBX Classes
 90
     1025
280
     0
281
     0
  0
CLASS
  1
CELLSTYLEMAP
  2
AcDbCellStyleMap
  3
ObjectDBX Classes
 90
     1152
280
     0
281
     0
  0
CLASS
  1
ACAD_EVALUATION_GRAPH
  2
AcDbEvalGraph
  3
ObjectDBX Classes
 90
    33921
280
     0
281
     0
  0
CLASS
  1
ACAECUSTOBJ
  2
AcAeEditorObj
  3
AcAeEditorObj
 90
    33792
280
     0
281
     0
  0
CLASS
  1
ACDB_DYNAMICBLOCKPURGEPREVENTER_VERSION
  2
AcDbDynamicBlockPurgePreventer
  3
ObjectDBX Classes
 90
    33921
280
     0
281
     0
  0
CLASS
  1
FIELD
  2
AcDbField
  3
ObjectDBX Classes
 90
     1152
280
     0
281
     0
  0
CLASS
  1
FIELDLIST
  2
AcDbFieldList
  3
ObjectDBX Classes
 90
     1152
280
     0
281
     0
  0
CLASS
  1
DIMASSOC
  2
AcDbDimAssoc
  3
"AcDbDimAssoc|Product Desc:     AcDim ARX App For Dimension|Company:          Autodesk, Inc.|WEB Address:      www.autodesk.com"
 90
        0
280
     0
281
     0
  0
CLASS
  1
MULTILEADER
  2
AcDbMLeader
  3
ACDB_MLEADER_CLASS
 90
     1025
280
     0
281
     1
  0
ENDSEC
  0
SECTION
  2
TABLES
  0
TABLE
  2
VPORT
  5
8
330
0
100
AcDbSymbolTable
 70
     1
  0
VPORT
  5
1F4
330
8
100
AcDbSymbolTableRecord
100
AcDbViewportTableRecord
  2
*ACTIVE
 70
     0
 10
0.0
 20
0.0
 11
1.0
 21
1.0
 12
7.365138094524027
 22
-5.335086602154106
 13
0.0
 23
0.0
 14
1.0
 24
1.0
 15
0.0
 25
0.0
 16
0.0
 26
0.0
 36
1.0
 17
0.0
 27
0.0
 37
0.0
 40
87.24483023522273
 41
2.06892067620286
 42
50.0
 43
0.0
 44
0.0
 50
0.0
 51
0.0
 71
     0
 72
   100
 73
     1
 74
     1
 75
     0
 76
     0
 77
     0
 78
     0
281
     0
 65
     1
110
0.0
120
0.0
130
0.0
111
1.0
121
0.0
131
0.0
112
0.0
122
1.0
132
0.0
 79
     0
146
0.0
1001
ACAD_NAV_VCDISPLAY
1070
     3
  0
ENDTAB
  0
TABLE
  2
LTYPE
  5
5
330
0
100
AcDbSymbolTable
 70
     8
  0
LTYPE
  5
14
330
5
100
AcDbSymbolTableRecord
100
AcDbLinetypeTableRecord
  2
BYBLOCK
 70
     0
  3

 72
    65
 73
     0
 40
0.0
  0
LTYPE
  5
15
330
5
100
AcDbSymbolTableRecord
100
AcDbLinetypeTableRecord
  2
BYLAYER
 70
     0
  3

 72
    65
 73
     0
 40
0.0
  0
LTYPE
  5
16
330
5
100
AcDbSymbolTableRecord
100
AcDbLinetypeTableRecord
  2
CONTINUOUS
 70
     0
  3
Solid line
 72
    65
 73
     0
 40
0.0
  0
LTYPE
  5
9C48
330
5
100
AcDbSymbolTableRecord
100
AcDbLinetypeTableRecord
  2
CENTER
 70
     0
  3
____ _ ____ _ ____ _ ____ _ ____ _ ____ _ ____
 72
    65
 73
     4
 40
0.6
 49
0.375
 74
     0
 49
-0.075
 74
     0
 49
0.075
 74
     0
 49
-0.075
 74
     0
  0
ENDTAB
  0
TABLE
  2
LAYER
  5
2
102
{ACAD_XDICTIONARY
360
422A
102
}
330
0
100
AcDbSymbolTable
 70
    24
  0
LAYER
  5
10
102
{ACAD_XDICTIONARY
360
1B2F5
102
}
330
2
100
AcDbSymbolTableRecord
100
AcDbLayerTableRecord
  2
0
 70
     0
 62
     7
  6
CONTINUOUS
370
    -3
390
318A
  0
LAYER
  5
3F8C
102
{ACAD_XDICTIONARY
360
1B2F7
102
}
330
2
100
AcDbSymbolTableRecord
100
AcDbLayerTableRecord
  2
1
 70
     0
 62
     4
  6
BYBLOCK
370
    50
390
318A
  0
LAYER
  5
3FA7
330
2
100
AcDbSymbolTableRecord
100
AcDbLayerTableRecord
  2
Defpoints
 70
     0
 62
     7
  6
CONTINUOUS
290
     0
370
    -3
390
318A
  0
LAYER
  5
9C4A
102
{ACAD_XDICTIONARY
360
1B2F9
102
}
330
2
100
AcDbSymbolTableRecord
100
AcDbLayerTableRecord
  2
2
 70
     0
 62
     7
  6
BYBLOCK
370
    25
390
318A
  0
LAYER
  5
9C4B
102
{ACAD_XDICTIONARY
360
1B2FB
102
}
330
2
100
AcDbSymbolTableRecord
100
AcDbLayerTableRecord
  2
4
 70
     0
 62
     2
  6
CENTER
370
    25
390
318A
  0
LAYER
  5
9C4D
102
{ACAD_XDICTIONARY
360
1B2FD
102
}
330
2
100
AcDbSymbolTableRecord
100
AcDbLayerTableRecord
  2
CUT
 70
     0
 62
     1
  6
BYBLOCK
370
    25
390
318A
  0
LAYER
  5
9C4E
102
{ACAD_XDICTIONARY
360
1B2FF
102
}
330
2
100
AcDbSymbolTableRecord
100
AcDbLayerTableRecord
  2
NOCUT
 70
     0
 62
     7
  6
BYBLOCK
370
    25
390
318A
  0
LAYER
  5
9C4F
102
{ACAD_XDICTIONARY
360
1B301
102
}
330
2
100
AcDbSymbolTableRecord
100
AcDbLayerTableRecord
  2
SK2
 70
     0
 62
     7
  6
BYBLOCK
370
    25
390
318A
  0
LAYER
  5
9C50
102
{ACAD_XDICTIONARY
360
1B303
102
}
330
2
100
AcDbSymbolTableRecord
100
AcDbLayerTableRecord
  2
SK1
 70
     0
 62
     4
  6
BYBLOCK
370
    50
390
318A
  0
LAYER
  5
9C51
102
{ACAD_XDICTIONARY
360
1B305
102
}
330
2
100
AcDbSymbolTableRecord
100
AcDbLayerTableRecord
  2
SK4
 70
     0
 62
     2
  6
CENTER
370
    25
390
318A
  0
LAYER
  5
13335
102
{ACAD_XDICTIONARY
360
1B307
102
}
330
2
100
AcDbSymbolTableRecord
100
AcDbLayerTableRecord
  2
INFTOTAL
 70
     0
 62
     9
  6
BYBLOCK
370
    18
390
318A
1001
AcAecLayerStandard
1000

1000

  0
LAYER
  5
20AE0
102
{ACAD_XDICTIONARY
360
20AE1
102
}
330
2
100
AcDbSymbolTableRecord
100
AcDbLayerTableRecord
  2
SKVIEW63
 70
     0
 62
     5
  6
CONTINUOUS
370
    35
390
318A
  0
ENDTAB
  0
TABLE
  2
STYLE
  5
3
330
0
100
AcDbSymbolTable
 70
     4
  0
STYLE
  5
11
330
3
100
AcDbSymbolTableRecord
100
AcDbTextStyleTableRecord
  2
STANDARD
 70
     0
 40
3.5
 41
0.8
 50
0.0
 71
     0
 42
3.5
  3
monos.ttf
  4

1001
ACAD
1000
Monospac821 BT
1071
       49
  0
STYLE
  5
1686F
330
3
100
AcDbSymbolTableRecord
100
AcDbTextStyleTableRecord
  2
BMG_Text
 70
     0
 40
3.5
 41
1.0
 50
0.0
 71
     0
 42
0.2
  3
monos.ttf
  4

1001
ACAD
1000
Monospac821 BT
1071
       49
  0
STYLE
  5
20D49
330
3
100
AcDbSymbolTableRecord
100
AcDbTextStyleTableRecord
  2
MM_STANDARD
 70
     0
 40
3.5
 41
1.0
 50
0.0
 71
     0
 42
3.5
  3
monos.ttf
  4

1001
ACAD
1000
Monospac821 BT
1071
       49
  0
ENDTAB
  0
TABLE
  2
VIEW
  5
6
330
0
100
AcDbSymbolTable
 70
     2
  0
ENDTAB
  0
TABLE
  2
UCS
  5
7
330
0
100
AcDbSymbolTable
 70
     0
  0
ENDTAB
  0
TABLE
  2
APPID
  5
9
330
0
100
AcDbSymbolTable
 70
    20
  0
APPID
  5
23B
330
9
100
AcDbSymbolTableRecord
100
AcDbRegAppTableRecord
  2
ACAD
 70
     0
  0
APPID
  5
3395
330
9
100
AcDbSymbolTableRecord
100
AcDbRegAppTableRecord
  2
ACAD_EXEMPT_FROM_CAD_STANDARDS
 70
     0
  0
APPID
  5
4229
330
9
100
AcDbSymbolTableRecord
100
AcDbRegAppTableRecord
  2
AcAecLayerStandard
 70
     0
  0
APPID
  5
9A1B
330
9
100
AcDbSymbolTableRecord
100
AcDbRegAppTableRecord
  2
ACAD_PSEXT
 70
     0
  0
APPID
  5
1B313
330
9
100
AcDbSymbolTableRecord
100
AcDbRegAppTableRecord
  2
ACAD_NAV_VCDISPLAY
 70
     0
  0
APPID
  5
1B355
330
9
100
AcDbSymbolTableRecord
100
AcDbRegAppTableRecord
  2
ACAD_MLEADERVER
 70
     0
  0
APPID
  5
1EC7F
330
9
100
AcDbSymbolTableRecord
100
AcDbRegAppTableRecord
  2
ACAUTHENVIRON
 70
     0
  0
APPID
  5
1EC82
330
9
100
AcDbSymbolTableRecord
100
AcDbRegAppTableRecord
  2
AcDbDynamicBlockTrueName
 70
     0
  0
APPID
  5
1EC83
330
9
100
AcDbSymbolTableRecord
100
AcDbRegAppTableRecord
  2
AcDbDynamicBlockGUID
 70
     0
  0
APPID
  5
20A85
330
9
100
AcDbSymbolTableRecord
100
AcDbRegAppTableRecord
  2
AcCmTransparency
 70
     0
  0
APPID
  5
20AE2
330
9
100
AcDbSymbolTableRecord
100
AcDbRegAppTableRecord
  2
ACAD_DSTYLE_DIMRADIAL_EXTENSION
 70
     0
  0
APPID
  5
20CB0
330
9
100
AcDbSymbolTableRecord
100
AcDbRegAppTableRecord
  2
AcadAnnotative
 70
     0
  0
APPID
  5
20D4D
330
9
100
AcDbSymbolTableRecord
100
AcDbRegAppTableRecord
  2
ACAD_DSTYLE_DIMJAG
 70
     0
  0
APPID
  5
20D4E
330
9
100
AcDbSymbolTableRecord
100
AcDbRegAppTableRecord
  2
ACAD_DSTYLE_DIMBREAK
 70
     0
  0
APPID
  5
20D4F
330
9
100
AcDbSymbolTableRecord
100
AcDbRegAppTableRecord
  2
ACAD_DSTYLE_DIMTALN
 70
     0
  0
APPID
  5
20D50
330
9
100
AcDbSymbolTableRecord
100
AcDbRegAppTableRecord
  2
AcDbBlockRepETag
 70
     0
  0
APPID
  5
215BB
330
9
100
AcDbSymbolTableRecord
100
AcDbRegAppTableRecord
  2
AcadAnnoMonitorAlertIconDisabled
 70
     0
  0
APPID
  5
2169A
330
9
100
AcDbSymbolTableRecord
100
AcDbRegAppTableRecord
  2
ACAD_DSTYLE_DIM_LINETYPE
 70
     0
  0
APPID
  5
2169B
330
9
100
AcDbSymbolTableRecord
100
AcDbRegAppTableRecord
  2
ACAD_DSTYLE_DIM_EXT1_LINETYPE
 70
     0
  0
APPID
  5
2169C
330
9
100
AcDbSymbolTableRecord
100
AcDbRegAppTableRecord
  2
ACAD_DSTYLE_DIM_EXT2_LINETYPE
 70
     0
  0
ENDTAB
  0
TABLE
  2
DIMSTYLE
  5
A
330
0
100
AcDbSymbolTable
 70
     6
100
AcDbDimStyleTable
 71
     2
340
20D4A
340
243
  0
DIMSTYLE
105
243
330
A
100
AcDbSymbolTableRecord
100
AcDbDimStyleTableRecord
  2
STANDARD
 70
     0
 41
4.57
 47
0.01
 48
0.01
 73
     0
 74
     0
 77
     1
 78
     8
140
3.5
271
     3
272
     3
284
     8
289
     0
340
11
  0
DIMSTYLE
105
20D4A
102
{ACAD_REACTORS
330
20E8A
330
20E8D
330
20E92
330
20E95
330
215AE
330
2150B
330
21508
102
}
330
A
100
AcDbSymbolTableRecord
100
AcDbDimStyleTableRecord
  2
MM_STANDARD
 70
     0
 41
2.5
 42
0.0
 43
3.75
 44
1.25
 73
     0
 74
     0
 77
     1
 78
     1
140
3.5
141
0.0
143
0.039370078
147
0.625
171
     3
176
   256
177
   256
178
   256
179
     2
271
     2
272
     2
274
     3
284
     8
340
20D49
371
    -1
372
    -1
1001
ACAD_DSTYLE_DIMJAG
1070
   388
1040
1.5
1001
ACAD_DSTYLE_DIMTALN
1070
   392
1070
     0
1001
ACAD_DSTYLE_DIM_LINETYPE
1070
   380
1005
15
1001
ACAD_DSTYLE_DIM_EXT1_LINETYPE
1070
   381
1005
15
1001
ACAD_DSTYLE_DIM_EXT2_LINETYPE
1070
   382
1005
15
  0
ENDTAB
  0
TABLE
  2
BLOCK_RECORD
  5
1
330
0
100
AcDbSymbolTable
 70
    40
  0
BLOCK_RECORD
  5
1F
102
{ACAD_XDICTIONARY
360
339C
102
}
330
1
100
AcDbSymbolTableRecord
100
AcDbBlockTableRecord
  2
*MODEL_SPACE
340
31A6
  0
BLOCK_RECORD
  5
1B
330
1
100
AcDbSymbolTableRecord
100
AcDbBlockTableRecord
  2
*PAPER_SPACE
340
31A7
  0
BLOCK_RECORD
  5
1B3D7
102
{ACAD_XDICTIONARY
360
1DE81
102
}
330
1
100
AcDbSymbolTableRecord
100
AcDbBlockTableRecord
  2
cero_point
340
0
310
28000000200000002000000001002000000000000010000001000000010000000000000000000000302821FF302821FF302821FF302821FF302821FF302821FF302821FF302821FF302821FF302821FF302821FF302821FF302821FF302821FF302821FF302821FF302821FF302821FF302821FF302821FF302821FF302821
310
FF302821FF302821FF302821FF302821FF302821FF302821FF302821FF302821FF302821FF302821FF302821FF302821FF302821FF302821FF302821FF302821FF302821FF302821FF302821FF302821FF302821FF302821FF302821FF302821FF302821FFFFFF00FFFFFF00FFFFFF00FF302821FF302821FF302821FF3028
310
21FF302821FF302821FF302821FF302821FF302821FF302821FF302821FF302821FF302821FF302821FF302821FF302821FF302821FF302821FF302821FF302821FF302821FF302821FF302821FF302821FFFFFF00FFFFFF00FFFFFF00FFFFFF00FFFFFF00FFFFFF00FFFFFF00FF302821FFFFFF00FFFFFF00FFFFFF00FF30
310
2821FF302821FF302821FF302821FF302821FF302821FF302821FF302821FF302821FF302821FF302821FF302821FF302821FF302821FF302821FF302821FF302821FF302821FF302821FFFFFF00FFFFFF00FFFFFF00FFFFFF00FFFFFF00FFFFFF00FFFFFF00FFFFFF00FFFFFF00FF302821FF302821FF302821FF302821FF
310
FFFF00FFFFFF00FF302821FF302821FF302821FF302821FF302821FF302821FF302821FF302821FF302821FF302821FF302821FF302821FF302821FF302821FF302821FF302821FFFFFF00FFFFFF00FFFFFF00FFFFFF00FFFFFF00FFFFFF00FFFFFF00FFFFFF00FFFFFF00FFFFFF00FF302821FF302821FF302821FF302821
310
FF302821FF302821FFFFFF00FFFFFF00FF302821FF302821FF302821FF302821FF302821FF302821FF302821FF302821FF302821FF302821FF302821FF302821FF302821FFFFFF00FFFFFF00FFFFFF00FFFFFF00FFFFFF00FFFFFF00FFFFFF00FFFFFF00FFFFFF00FFFFFF00FFFFFF00FF302821FF302821FF302821FF3028
310
21FF302821FF302821FF302821FF302821FFFFFF00FF302821FF302821FF302821FF302821FF302821FF302821FF302821FF302821FF302821FF302821FF302821FFFFFF00FFFFFF00FFFFFF00FFFFFF00FFFFFF00FFFFFF00FFFFFF00FFFFFF00FFFFFF00FFFFFF00FFFFFF00FFFFFF00FF302821FF302821FF302821FF30
310
2821FF302821FF302821FF302821FF302821FF302821FFFFFF00FF302821FF302821FF302821FF302821FF302821FF302821FF302821FF302821FF302821FFFFFF00FFFFFF00FFFFFF00FFFFFF00FFFFFF00FFFFFF00FFFFFF00FFFFFF00FFFFFF00FFFFFF00FFFFFF00FFFFFF00FFFFFF00FF302821FF302821FF302821FF
310
302821FF302821FF302821FF302821FF302821FF302821FF302821FFFFFF00FF302821FF302821FF302821FF302821FF302821FF302821FF302821FFFFFF00FFFFFF00FFFFFF00FFFFFF00FFFFFF00FFFFFF00FFFFFF00FFFFFF00FFFFFF00FFFFFF00FFFFFF00FFFFFF00FFFFFF00FFFFFF00FF302821FF302821FF302821
310
FF302821FF302821FF302821FF302821FF302821FF302821FF302821FFFFFF00FF302821FF302821FF302821FF302821FF302821FF302821FF302821FFFFFF00FFFFFF00FFFFFF00FFFFFF00FFFFFF00FFFFFF00FFFFFF00FFFFFF00FFFFFF00FFFFFF00FFFFFF00FFFFFF00FFFFFF00FFFFFF00FF302821FF302821FF3028
310
21FF302821FF302821FF302821FF302821FF302821FF302821FF302821FF302821FFFFFF00FF302821FF302821FF302821FF302821FF302821FFFFFF00FFFFFF00FFFFFF00FFFFFF00FFFFFF00FFFFFF00FFFFFF00FFFFFF00FFFFFF00FFFFFF00FFFFFF00FFFFFF00FFFFFF00FFFFFF00FFFFFF00FF302821FF302821FF30
310
2821FF302821FF302821FF302821FF302821FF302821FF302821FF302821FF302821FF302821FFFFFF00FF302821FF302821FF302821FF302821FFFFFF00FFFFFF00FFFFFF00FFFFFF00FFFFFF00FFFFFF00FFFFFF00FFFFFF00FFFFFF00FFFFFF00FFFFFF00FFFFFF00FFFFFF00FFFFFF00FFFFFF00FF302821FF302821FF
310
302821FF302821FF302821FF302821FF302821FF302821FF302821FF302821FF302821FF302821FFFFFF00FF302821FF302821FF302821FF302821FFFFFF00FFFFFF00FFFFFF00FFFFFF00FFFFFF00FFFFFF00FFFFFF00FFFFFF00FFFFFF00FFFFFF00FFFFFF00FFFFFF00FFFFFF00FFFFFF00FFFFFF00FF302821FF302821
310
FF302821FF302821FF302821FF302821FF302821FF302821FF302821FF302821FF302821FF302821FFFFFF00FF302821FF302821FF302821FF302821FFFFFF00FFFFFF00FFFFFF00FFFFFF00FFFFFF00FFFFFF00FFFFFF00FFFFFF00FFFFFF00FFFFFF00FFFFFF00FFFFFF00FFFFFF00FFFFFF00FFFFFF00FF302821FF3028
310
21FF302821FF302821FF302821FF302821FF302821FF302821FF302821FF302821FF302821FF302821FFFFFF00FF302821FF302821FF302821FFFFFF00FFFFFF00FFFFFF00FFFFFF00FFFFFF00FFFFFF00FFFFFF00FFFFFF00FFFFFF00FFFFFF00FFFFFF00FFFFFF00FFFFFF00FFFFFF00FFFFFF00FFFFFF00FF302821FF30
310
2821FF302821FF302821FF302821FF302821FF302821FF302821FF302821FF302821FF302821FF302821FF302821FFFFFF00FF302821FF302821FFFFFF00FFFFFF00FFFFFF00FFFFFF00FFFFFF00FFFFFF00FFFFFF00FFFFFF00FFFFFF00FFFFFF00FFFFFF00FFFFFF00FFFFFF00FFFFFF00FFFFFF00FFFFFF00FFFFFF00FF
310
FFFF00FFFFFF00FFFFFF00FFFFFF00FFFFFF00FFFFFF00FFFFFF00FFFFFF00FFFFFF00FFFFFF00FFFFFF00FFFFFF00FFFFFF00FF302821FF302821FFFFFF00FF302821FF302821FF302821FF302821FF302821FF302821FF302821FF302821FF302821FF302821FF302821FF302821FF302821FF302821FFFFFF00FFFFFF00
310
FFFFFF00FFFFFF00FFFFFF00FFFFFF00FFFFFF00FFFFFF00FFFFFF00FFFFFF00FFFFFF00FFFFFF00FFFFFF00FFFFFF00FFFFFF00FF302821FF302821FFFFFF00FF302821FF302821FF302821FF302821FF302821FF302821FF302821FF302821FF302821FF302821FF302821FF302821FF302821FF302821FFFFFF00FFFFFF
310
00FFFFFF00FFFFFF00FFFFFF00FFFFFF00FFFFFF00FFFFFF00FFFFFF00FFFFFF00FFFFFF00FFFFFF00FFFFFF00FFFFFF00FF302821FF302821FF302821FF302821FFFFFF00FF302821FF302821FF302821FF302821FF302821FF302821FF302821FF302821FF302821FF302821FF302821FF302821FF302821FFFFFF00FFFF
310
FF00FFFFFF00FFFFFF00FFFFFF00FFFFFF00FFFFFF00FFFFFF00FFFFFF00FFFFFF00FFFFFF00FFFFFF00FFFFFF00FFFFFF00FF302821FF302821FF302821FF302821FFFFFF00FF302821FF302821FF302821FF302821FF302821FF302821FF302821FF302821FF302821FF302821FF302821FF302821FF302821FFFFFF00FF
310
FFFF00FFFFFF00FFFFFF00FFFFFF00FFFFFF00FFFFFF00FFFFFF00FFFFFF00FFFFFF00FFFFFF00FFFFFF00FFFFFF00FFFFFF00FF302821FF302821FF302821FF302821FFFFFF00FF302821FF302821FF302821FF302821FF302821FF302821FF302821FF302821FF302821FF302821FF302821FF302821FF302821FFFFFF00
310
FFFFFF00FFFFFF00FFFFFF00FFFFFF00FFFFFF00FFFFFF00FFFFFF00FFFFFF00FFFFFF00FFFFFF00FFFFFF00FFFFFF00FFFFFF00FF302821FF302821FF302821FF302821FF302821FFFFFF00FF302821FF302821FF302821FF302821FF302821FF302821FF302821FF302821FF302821FF302821FF302821FF302821FFFFFF
310
00FFFFFF00FFFFFF00FFFFFF00FFFFFF00FFFFFF00FFFFFF00FFFFFF00FFFFFF00FFFFFF00FFFFFF00FFFFFF00FFFFFF00FFFFFF00FF302821FF302821FF302821FF302821FF302821FFFFFF00FF302821FF302821FF302821FF302821FF302821FF302821FF302821FF302821FF302821FF302821FF302821FF302821FFFF
310
FF00FFFFFF00FFFFFF00FFFFFF00FFFFFF00FFFFFF00FFFFFF00FFFFFF00FFFFFF00FFFFFF00FFFFFF00FFFFFF00FFFFFF00FF302821FF302821FF302821FF302821FF302821FF302821FF302821FFFFFF00FF302821FF302821FF302821FF302821FF302821FF302821FF302821FF302821FF302821FF302821FF302821FF
310
FFFF00FFFFFF00FFFFFF00FFFFFF00FFFFFF00FFFFFF00FFFFFF00FFFFFF00FFFFFF00FFFFFF00FFFFFF00FFFFFF00FFFFFF00FF302821FF302821FF302821FF302821FF302821FF302821FF302821FFFFFF00FF302821FF302821FF302821FF302821FF302821FF302821FF302821FF302821FF302821FF302821FF302821
310
FFFFFF00FFFFFF00FFFFFF00FFFFFF00FFFFFF00FFFFFF00FFFFFF00FFFFFF00FFFFFF00FFFFFF00FFFFFF00FFFFFF00FF302821FF302821FF302821FF302821FF302821FF302821FF302821FF302821FF302821FFFFFF00FF302821FF302821FF302821FF302821FF302821FF302821FF302821FF302821FF302821FF3028
310
21FFFFFF00FFFFFF00FFFFFF00FFFFFF00FFFFFF00FFFFFF00FFFFFF00FFFFFF00FFFFFF00FFFFFF00FFFFFF00FF302821FF302821FF302821FF302821FF302821FF302821FF302821FF302821FF302821FF302821FF302821FFFFFF00FF302821FF302821FF302821FF302821FF302821FF302821FF302821FF302821FF30
310
2821FFFFFF00FFFFFF00FFFFFF00FFFFFF00FFFFFF00FFFFFF00FFFFFF00FFFFFF00FFFFFF00FFFFFF00FF302821FF302821FF302821FF302821FF302821FF302821FF302821FF302821FF302821FF302821FF302821FF302821FF302821FFFFFF00FF302821FF302821FF302821FF302821FF302821FF302821FF302821FF
310
302821FFFFFF00FFFFFF00FFFFFF00FFFFFF00FFFFFF00FFFFFF00FFFFFF00FFFFFF00FFFFFF00FF302821FF302821FF302821FF302821FF302821FF302821FF302821FF302821FF302821FF302821FF302821FF302821FF302821FF302821FF302821FFFFFF00FFFFFF00FF302821FF302821FF302821FF302821FF302821
310
FF302821FFFFFF00FFFFFF00FFFFFF00FFFFFF00FFFFFF00FFFFFF00FFFFFF00FFFFFF00FF302821FF302821FF302821FF302821FF302821FF302821FF302821FF302821FF302821FF302821FF302821FF302821FF302821FF302821FF302821FF302821FF302821FF302821FFFFFF00FFFFFF00FFFFFF00FFFFFF00FFFFFF
310
00FF302821FFFFFF00FFFFFF00FFFFFF00FFFFFF00FFFFFF00FFFFFF00FF302821FF302821FF302821FF302821FF302821FF302821FF302821FF302821FF302821FF302821FF302821FF302821FF302821FF302821FF302821FF302821FF302821FF302821FF302821FF302821FF302821FF302821FF302821FF302821FF30
310
2821FFFFFF00FFFFFF00FFFFFF00FF302821FF302821FF302821FF302821FF302821FF302821FF302821FF302821FF302821FF302821FF302821FF302821FF302821FF302821FF302821FF302821FF302821FF302821FF302821FF302821FF302821FF302821FF302821FF302821FF302821FF302821FF302821FF302821FF
310
302821FF302821FF302821FF302821FF302821FF302821FF302821FF302821FF302821FF302821FF302821FF302821FF302821FF302821FF302821FF302821FF302821FF302821FF
102
{BLKREFS
331
20FDB
102
}
  0
BLOCK_RECORD
  5
20CA5
102
{ACAD_XDICTIONARY
360
20CA6
102
}
330
1
100
AcDbSymbolTableRecord
100
AcDbBlockTableRecord
  2
Name
340
0
310
28000000200000002000000001002000000000000010000001000000010000000000000000000000302821FF302821FF302821FF302821FF302821FF302821FF302821FF302821FF302821FF302821FF302821FF302821FF302821FF302821FF302821FF302821FF302821FF302821FF302821FF302821FF302821FF302821
310
FF302821FF302821FF302821FF302821FF302821FF302821FF302821FF302821FF302821FF302821FF302821FF302821FF302821FF302821FF302821FF302821FF302821FF302821FF302821FF302821FF302821FF302821FF302821FF302821FF302821FF302821FF302821FF302821FF302821FF302821FF302821FF3028
310
21FF302821FF302821FF302821FF302821FF302821FF302821FF302821FF302821FF302821FF302821FF302821FF302821FF302821FF302821FF302821FF302821FF302821FF302821FF302821FF302821FF302821FF302821FF302821FF302821FF302821FF302821FF302821FF302821FF302821FF302821FF302821FF30
310
2821FF302821FF302821FF302821FF302821FF302821FF302821FF302821FF302821FF302821FF302821FF302821FF302821FF302821FF302821FF302821FF302821FF302821FF302821FF302821FF302821FF302821FF302821FF302821FF302821FF302821FF302821FF302821FF302821FF302821FF302821FF302821FF
310
302821FF302821FF302821FF302821FF302821FF302821FF302821FF302821FF302821FF302821FF302821FF302821FF302821FF302821FF302821FF302821FF302821FF302821FF302821FF302821FF302821FF302821FF302821FF302821FF302821FF302821FF302821FF302821FF302821FF302821FF302821FF302821
310
FF302821FF302821FF302821FF302821FF302821FF302821FF302821FF302821FF302821FF302821FF302821FF302821FF302821FF302821FF302821FF302821FF302821FF302821FF302821FF302821FF302821FF302821FF302821FF302821FF302821FF302821FF302821FF302821FF302821FF302821FF302821FF3028
310
21FF302821FF302821FF302821FF302821FF302821FF302821FF302821FF302821FF302821FF302821FF302821FF302821FF302821FF302821FF302821FF302821FF302821FF302821FF302821FF302821FF302821FF302821FF302821FF302821FF302821FF302821FF302821FF302821FF302821FF302821FF302821FF30
310
2821FF302821FF302821FF302821FF302821FF302821FF302821FF302821FF302821FF302821FF302821FF302821FF302821FF302821FF302821FF302821FF302821FF302821FF302821FF302821FF302821FF302821FF302821FF302821FF302821FF302821FF302821FF302821FF302821FF302821FF302821FF302821FF
310
302821FF302821FF302821FF302821FF302821FF302821FF302821FF302821FF302821FF302821FF302821FF302821FF302821FF302821FF302821FF302821FF302821FF302821FF302821FF302821FF302821FF302821FF302821FF302821FF302821FF302821FF302821FF302821FF302821FF302821FF302821FF302821
310
FF302821FF302821FF302821FF302821FF302821FF302821FF302821FF302821FF302821FF302821FF302821FF302821FF302821FF302821FF302821FF302821FF302821FF302821FF302821FF302821FF302821FF302821FF302821FF302821FF302821FF302821FF302821FF302821FF302821FF302821FF302821FF3028
310
21FF302821FF302821FF302821FF302821FF302821FF302821FF302821FF302821FF302821FF302821FF302821FF302821FF302821FF302821FFFF0000FFFF0000FF302821FF302821FFFF0000FFFF0000FFFF0000FFFF0000FFFF0000FF302821FF302821FF302821FF302821FFFF0000FFFF0000FFFF0000FFFF0000FFFF
310
0000FFFF0000FFFF0000FFFF0000FF302821FFFF0000FFFF0000FFFF0000FFFF0000FFFF0000FFFF0000FF302821FF302821FF302821FF302821FFFF0000FFFF0000FF302821FF302821FFFF0000FFFF0000FFFF0000FFFF0000FFFF0000FF302821FF302821FF302821FF302821FFFF0000FFFF0000FFFF0000FFFF0000FF
310
FF0000FFFF0000FFFF0000FFFF0000FF302821FFFF0000FFFF0000FFFF0000FFFF0000FFFF0000FFFF0000FF302821FF302821FF302821FF302821FFFF0000FFFF0000FF302821FFFF0000FFFF0000FFFF0000FFFF0000FFFF0000FFFF0000FF302821FF302821FF302821FFFF0000FFFF0000FFFF0000FFFF0000FFFF0000
310
FFFF0000FFFF0000FFFF0000FFFF0000FF302821FFFF0000FFFF0000FFFF0000FFFF0000FFFF0000FFFF0000FF302821FF302821FF302821FF302821FFFF0000FFFF0000FF302821FFFF0000FFFF0000FFFF0000FFFF0000FFFF0000FFFF0000FFFF0000FFFF0000FFFF0000FFFF0000FFFF0000FFFF0000FFFF0000FFFF00
310
00FFFF0000FFFF0000FFFF0000FFFF0000FF302821FFFF0000FFFF0000FF302821FF302821FF302821FF302821FF302821FF302821FF302821FF302821FFFF0000FFFF0000FF302821FFFF0000FFFF0000FFFF0000FFFF0000FFFF0000FFFF0000FFFF0000FFFF0000FFFF0000FFFF0000FFFF0000FFFF0000FFFF0000FFFF
310
0000FFFF0000FFFF0000FFFF0000FFFF0000FF302821FFFF0000FFFF0000FF302821FF302821FF302821FF302821FF302821FF302821FF302821FF302821FFFF0000FFFF0000FFFF0000FFFF0000FFFF0000FFFF0000FFFF0000FFFF0000FFFF0000FFFF0000FFFF0000FFFF0000FFFF0000FF302821FFFF0000FFFF0000FF
310
FF0000FF302821FFFF0000FFFF0000FFFF0000FF302821FFFF0000FFFF0000FFFF0000FFFF0000FFFF0000FF302821FF302821FF302821FF302821FF302821FFFF0000FFFF0000FFFF0000FFFF0000FFFF0000FFFF0000FFFF0000FF302821FFFF0000FFFF0000FF302821FFFF0000FFFF0000FF302821FFFF0000FFFF0000
310
FFFF0000FF302821FFFF0000FFFF0000FFFF0000FF302821FFFF0000FFFF0000FFFF0000FFFF0000FFFF0000FF302821FF302821FF302821FF302821FF302821FFFF0000FFFF0000FFFF0000FFFF0000FF302821FFFF0000FFFF0000FF302821FFFF0000FFFF0000FFFF0000FFFF0000FFFF0000FF302821FFFF0000FFFF00
310
00FFFF0000FF302821FFFF0000FFFF0000FFFF0000FF302821FFFF0000FFFF0000FFFF0000FFFF0000FFFF0000FF302821FF302821FF302821FF302821FF302821FFFF0000FFFF0000FFFF0000FFFF0000FF302821FFFF0000FFFF0000FF302821FFFF0000FFFF0000FFFF0000FFFF0000FFFF0000FF302821FFFF0000FFFF
310
0000FFFF0000FF302821FF302821FFFF0000FFFF0000FF302821FFFF0000FFFF0000FF302821FF302821FF302821FF302821FF302821FF302821FF302821FF302821FFFF0000FFFF0000FFFF0000FF302821FF302821FFFF0000FFFF0000FF302821FF302821FFFF0000FFFF0000FFFF0000FF302821FF302821FFFF0000FF
310
FF0000FF302821FF302821FF302821FFFF0000FFFF0000FF302821FFFF0000FFFF0000FFFF0000FFFF0000FFFF0000FF302821FF302821FF302821FF302821FF302821FFFF0000FFFF0000FFFF0000FF302821FF302821FFFF0000FFFF0000FF302821FF302821FFFF0000FFFF0000FFFF0000FF302821FF302821FFFF0000
310
FFFF0000FF302821FF302821FF302821FFFF0000FFFF0000FF302821FFFF0000FFFF0000FFFF0000FFFF0000FFFF0000FF302821FF302821FF302821FF302821FF302821FF302821FF302821FF302821FF302821FF302821FF302821FF302821FF302821FF302821FF302821FF302821FF302821FF302821FF302821FF3028
310
21FF302821FF302821FF302821FF302821FF302821FF302821FF302821FF302821FF302821FF302821FF302821FF302821FF302821FF302821FF302821FF302821FF302821FF302821FF302821FF302821FF302821FF302821FF302821FF302821FF302821FF302821FF302821FF302821FF302821FF302821FF302821FF30
310
2821FF302821FF302821FF302821FF302821FF302821FF302821FF302821FF302821FF302821FF302821FF302821FF302821FF302821FF302821FF302821FF302821FF302821FF302821FF302821FF302821FF302821FF302821FF302821FF302821FF302821FF302821FF302821FF302821FF302821FF302821FF302821FF
310
302821FF302821FF302821FF302821FF302821FF302821FF302821FF302821FF302821FF302821FF302821FF302821FF302821FF302821FF302821FF302821FF302821FF302821FF302821FF302821FF302821FF302821FF302821FF302821FF302821FF302821FF302821FF302821FF302821FF302821FF302821FF302821
310
FF302821FF302821FF302821FF302821FF302821FF302821FF302821FF302821FF302821FF302821FF302821FF302821FF302821FF302821FF302821FF302821FF302821FF302821FF302821FF302821FF302821FF302821FF302821FF302821FF302821FF302821FF302821FF302821FF302821FF302821FF302821FF3028
310
21FF302821FF302821FF302821FF302821FF302821FF302821FF302821FF302821FF302821FF302821FF302821FF302821FF302821FF302821FF302821FF302821FF302821FF302821FF302821FF302821FF302821FF302821FF302821FF302821FF302821FF302821FF302821FF302821FF302821FF302821FF302821FF30
310
2821FF302821FF302821FF302821FF302821FF302821FF302821FF302821FF302821FF302821FF302821FF302821FF302821FF302821FF302821FF302821FF302821FF302821FF302821FF302821FF302821FF302821FF302821FF302821FF302821FF302821FF302821FF302821FF302821FF302821FF302821FF302821FF
310
302821FF302821FF302821FF302821FF302821FF302821FF302821FF302821FF302821FF302821FF302821FF302821FF302821FF302821FF302821FF302821FF302821FF302821FF302821FF302821FF302821FF302821FF302821FF302821FF302821FF302821FF302821FF302821FF302821FF302821FF302821FF302821
310
FF302821FF302821FF302821FF302821FF302821FF302821FF302821FF302821FF302821FF302821FF302821FF302821FF302821FF302821FF302821FF302821FF302821FF302821FF302821FF302821FF302821FF302821FF302821FF302821FF302821FF302821FF302821FF302821FF302821FF302821FF302821FF3028
310
21FF302821FF302821FF302821FF302821FF302821FF302821FF302821FF302821FF302821FF302821FF302821FF302821FF302821FF302821FF302821FF302821FF302821FF302821FF302821FF302821FF302821FF302821FF302821FF302821FF302821FF302821FF302821FF302821FF302821FF302821FF302821FF30
310
2821FF302821FF302821FF302821FF302821FF302821FF302821FF302821FF302821FF302821FF302821FF302821FF302821FF302821FF302821FF302821FF302821FF302821FF302821FF302821FF302821FF302821FF302821FF302821FF302821FF302821FF302821FF302821FF302821FF302821FF302821FF302821FF
310
302821FF302821FF302821FF302821FF302821FF302821FF302821FF302821FF302821FF302821FF302821FF302821FF302821FF302821FF302821FF302821FF302821FF302821FF
102
{BLKREFS
331
20CC2
102
}
1001
AcDbDynamicBlockGUID
1000
{15A9DAFA-FD13-4556-B9B1-5A71F15CF06E}
  0
BLOCK_RECORD
  5
2151C
330
1
100
AcDbSymbolTableRecord
100
AcDbBlockTableRecord
  2
*D35
340
0
  0
BLOCK_RECORD
  5
21529
330
1
100
AcDbSymbolTableRecord
100
AcDbBlockTableRecord
  2
*D36
340
0
  0
BLOCK_RECORD
  5
215AF
330
1
100
AcDbSymbolTableRecord
100
AcDbBlockTableRecord
  2
*D39
340
0
  0
ENDTAB
  0
ENDSEC
  0
SECTION
  2
BLOCKS
  0
BLOCK
  5
20
330
1F
100
AcDbEntity
  8
0
100
AcDbBlockBegin
  2
*MODEL_SPACE
 70
     0
 10
0.0
 20
0.0
 30
0.0
  3
*MODEL_SPACE
  1

  0
ENDBLK
  5
21
330
1F
100
AcDbEntity
  8
0
100
AcDbBlockEnd
  0
BLOCK
  5
1C
330
1B
100
AcDbEntity
 67
     1
  8
0
100
AcDbBlockBegin
  2
*PAPER_SPACE
 70
     0
 10
0.0
 20
0.0
 30
0.0
  3
*PAPER_SPACE
  1

  0
ENDBLK
  5
1D
330
1B
100
AcDbEntity
 67
     1
  8
0
100
AcDbBlockEnd
  0
BLOCK
  5
1B3D8
330
1B3D7
100
AcDbEntity
  8
0
100
AcDbBlockBegin
  2
cero_point
 70
     0
 10
0.0
 20
0.0
 30
0.0
  3
cero_point
  1

  0
HATCH
  5
1B3DA
330
1B3D7
100
AcDbEntity
  8
1
  6
ByBlock
370
    50
100
AcDbHatch
 10
0.0
 20
0.0
 30
0.0
210
0.0
220
0.0
230
1.0
  2
SOLID
 70
     1
 71
     0
 91
        2
 92
        7
 72
     1
 73
     1
 93
        3
 10
-0.0000000000001137
 20
0.0
 42
0.0
 10
-2.950972054112752
 20
0.0
 42
0.4142135623730968
 10
-0.0000000000001137
 20
-2.950972054112583
 42
0.0
 97
        0
 92
        7
 72
     1
 73
     1
 93
        3
 10
-0.0000000000001137
 20
2.950972054112638
 42
0.0
 10
-0.0000000000001137
 20
0.0
 42
0.0
 10
2.950972054112526
 20
0.0
 42
0.4142135623730966
 97
        0
 75
     0
 76
     1
 47
0.1190009775223266
 98
        2
 10
-0.7445530588121301
 20
-0.9212244733764125
 10
1.279464601852737
 20
1.696796923046345
  0
LWPOLYLINE
  5
1B3DB
330
1B3D7
100
AcDbEntity
  8
1
  6
ByBlock
370
    50
100
AcDbPolyline
 90
        3
 70
     1
 43
0.0
 10
-0.0000000000001137
 20
0.0
 10
2.950972054112526
 20
0.0
 42
0.4142135623730966
 10
-0.0000000000001137
 20
2.950972054112638
  0
LINE
  5
1B3DC
330
1B3D7
100
AcDbEntity
  8
1
  6
ByBlock
370
    50
100
AcDbLine
 10
-0.0000000000001137
 20
-2.950972054112583
 30
0.0
 11
-0.0000000000001137
 21
2.950972054112638
 31
0.0
  0
LWPOLYLINE
  5
1B3DD
330
1B3D7
100
AcDbEntity
  8
1
  6
ByBlock
370
    50
100
AcDbPolyline
 90
        3
 70
     1
 43
0.0
 10
-0.0000000000001137
 20
-2.950972054112583
 10
-0.0000000000001137
 20
0.0
 10
-2.950972054112752
 20
0.0
 42
0.4142135623730966
  0
LINE
  5
1B3DE
330
1B3D7
100
AcDbEntity
  8
1
  6
ByBlock
370
    50
100
AcDbLine
 10
2.950972054112638
 20
0.0
 30
0.0
 11
-2.950972054112638
 21
0.0
 31
0.0
  0
CIRCLE
  5
1B3DF
330
1B3D7
100
AcDbEntity
  8
1
  6
ByBlock
370
    50
100
AcDbCircle
 10
-0.0000000000001137
 20
0.0
 30
0.0
 40
2.950972054112601
  0
ENDBLK
  5
1B3D9
330
1B3D7
100
AcDbEntity
  8
0
100
AcDbBlockEnd
  0
BLOCK
  5
20CA7
330
20CA5
100
AcDbEntity
  8
0
100
AcDbBlockBegin
  2
Name
 70
     2
 10
0.0
 20
0.0
 30
0.0
  3
Name
  1

  0
ATTDEF
  5
20CA8
102
{ACAD_XDICTIONARY
360
20CA9
102
}
330
20CA5
100
AcDbEntity
  8
SKVIEW63
100
AcDbText
 10
0.0905073844082551
 20
0.0474757964751689
 30
0.0
 40
3.5
  1
16T17722T6RP11
 41
0.8
  7
BMG_Text
100
AcDbAttributeDefinition
  3
identisch mit Dateiname
  2
NAME
 70
     4
  0
ENDBLK
  5
20CAD
330
20CA5
100
AcDbEntity
  8
0
100
AcDbBlockEnd
  0
BLOCK
  5
2151D
330
2151C
100
AcDbEntity
  8
0
100
AcDbBlockBegin
  2
*D35
 70
     1
 10
0.0
 20
0.0
 30
0.0
  3
*D35
  1

  0
LINE
  5
2162A
330
2151C
100
AcDbEntity
  8
2
100
AcDbLine
 10
0.1498888707836272
 20
7.806846000000007
 30
0.0
 11
0.1498888707836277
 21
15.9903431579629
 31
0.0
  0
LINE
  5
2162B
330
2151C
100
AcDbEntity
  8
2
100
AcDbLine
 10
2.34935058959337
 20
7.806846000000007
 30
0.0
 11
2.349350589593371
 21
15.9903431579629
 31
0.0
  0
LINE
  5
2162C
330
2151C
100
AcDbEntity
  8
2
100
AcDbLine
 10
4.84935058959337
 20
14.7403431579629
 30
0.0
 11
7.34935058959337
 21
14.7403431579629
 31
0.0
  0
LINE
  5
2162D
330
2151C
100
AcDbEntity
  8
2
100
AcDbLine
 10
-2.350111129216372
 20
14.7403431579629
 30
0.0
 11
-16.10204366611025
 21
14.7403431579629
 31
0.0
  0
LINE
  5
2162E
330
2151C
100
AcDbEntity
  8
2
100
AcDbLine
 10
2.349350589593371
 20
14.7403431579629
 30
0.0
 11
0.1498888707836276
 21
14.7403431579629
 31
0.0
  0
SOLID
  5
2162F
330
2151C
100
AcDbEntity
  8
2
100
AcDbTrace
 10
4.84935058959337
 20
15.15700982462957
 30
0.0
 11
4.84935058959337
 21
14.32367649129624
 31
0.0
 12
2.349350589593371
 22
14.7403431579629
 32
0.0
 13
2.349350589593371
 23
14.7403431579629
 33
0.0
  0
SOLID
  5
21630
330
2151C
100
AcDbEntity
  8
2
100
AcDbTrace
 10
-2.350111129216372
 20
15.15700982462957
 30
0.0
 11
-2.350111129216372
 21
14.32367649129624
 31
0.0
 12
0.1498888707836276
 22
14.7403431579629
 32
0.0
 13
0.1498888707836276
 23
14.7403431579629
 33
0.0
  0
MTEXT
  5
21631
330
2151C
100
AcDbEntity
  8
2
100
AcDbMText
 10
-11.24285533160568
 20
17.1264113238097
 30
0.0
 40
3.5
 41
0.0
 71
     5
 72
     1
  1
\A1;2.2
  7
MM_STANDARD
 73
     1
 44
1.0
1001
ACAD
1000
MTEXTBEGIN
1070
    73
1070
     1
1070
    44
1040
1.0
1070
    74
1070
     0
1000
MTEXTEND
  0
POINT
  5
21632
330
2151C
100
AcDbEntity
  8
Defpoints
 62
     0
100
AcDbPoint
 10
0.1498888707836272
 20
7.806846000000007
 30
0.0
  0
POINT
  5
21633
330
2151C
100
AcDbEntity
  8
Defpoints
 62
     0
100
AcDbPoint
 10
2.34935058959337
 20
7.806846000000007
 30
0.0
  0
POINT
  5
21634
330
2151C
100
AcDbEntity
  8
Defpoints
 62
     0
100
AcDbPoint
 10
2.349350589593371
 20
14.7403431579629
 30
0.0
  0
ENDBLK
  5
2151E
330
2151C
100
AcDbEntity
  8
0
100
AcDbBlockEnd
  0
BLOCK
  5
2152A
330
21529
100
AcDbEntity
  8
0
100
AcDbBlockBegin
  2
*D36
 70
     1
 10
0.0
 20
0.0
 30
0.0
  3
*D36
  1

  0
LINE
  5
21635
330
21529
100
AcDbEntity
  8
2
100
AcDbLine
 10
1.281479319196762
 20
8.850827557293087
 30
0.0
 11
11.46792326523353
 21
8.850827557293085
 31
0.0
  0
LINE
  5
21636
330
21529
100
AcDbEntity
  8
2
100
AcDbLine
 10
1.281479319196762
 20
5.050827557293089
 30
0.0
 11
11.46792326523353
 21
5.050827557293086
 31
0.0
  0
LINE
  5
21637
330
21529
100
AcDbEntity
  8
2
100
AcDbLine
 10
10.21792326523353
 20
2.550827557293086
 30
0.0
 11
10.21792326523353
 21
0.0508275572930867
 31
0.0
  0
LINE
  5
21638
330
21529
100
AcDbEntity
  8
2
100
AcDbLine
 10
10.21792326523353
 20
11.35082755729308
 30
0.0
 11
10.21792326523354
 21
29.79167317538961
 31
0.0
  0
LINE
  5
21639
330
21529
100
AcDbEntity
  8
2
100
AcDbLine
 10
10.21792326523353
 20
5.050827557293086
 30
0.0
 11
10.21792326523353
 21
8.850827557293085
 31
0.0
  0
SOLID
  5
2163A
330
21529
100
AcDbEntity
  8
2
100
AcDbTrace
 10
9.801256598566869
 20
2.550827557293086
 30
0.0
 11
10.6345899319002
 21
2.550827557293086
 31
0.0
 12
10.21792326523353
 22
5.050827557293086
 32
0.0
 13
10.21792326523353
 23
5.050827557293086
 33
0.0
  0
SOLID
  5
2163B
330
21529
100
AcDbEntity
  8
2
100
AcDbTrace
 10
9.801256598566871
 20
11.35082755729308
 30
0.0
 11
10.6345899319002
 21
11.35082755729308
 31
0.0
 12
10.21792326523353
 22
8.850827557293085
 32
0.0
 13
10.21792326523353
 23
8.850827557293085
 33
0.0
  0
MTEXT
  5
2163C
330
21529
100
AcDbEntity
  8
2
100
AcDbMText
 10
7.781433454973523
 20
24.89682075093424
 30
0.0
 40
3.5
 41
0.0
 71
     5
 72
     1
  1
\A1;3.8
  7
MM_STANDARD
 11
0.0000000000000001
 21
1.0
 31
0.0
 73
     1
 44
1.0
1001
ACAD
1000
MTEXTBEGIN
1070
    73
1070
     1
1070
    44
1040
1.0
1070
    74
1070
     0
1000
MTEXTEND
  0
POINT
  5
2163D
330
21529
100
AcDbEntity
  8
Defpoints
 62
     0
100
AcDbPoint
 10
1.281479319196762
 20
8.850827557293087
 30
0.0
  0
POINT
  5
2163E
330
21529
100
AcDbEntity
  8
Defpoints
 62
     0
100
AcDbPoint
 10
1.281479319196762
 20
5.050827557293089
 30
0.0
  0
POINT
  5
2163F
330
21529
100
AcDbEntity
  8
Defpoints
 62
     0
100
AcDbPoint
 10
10.21792326523353
 20
5.050827557293086
 30
0.0
  0
ENDBLK
  5
2152B
330
21529
100
AcDbEntity
  8
0
100
AcDbBlockEnd
  0
BLOCK
  5
215B0
330
215AF
100
AcDbEntity
  8
0
100
AcDbBlockBegin
  2
*D39
 70
     1
 10
0.0
 20
0.0
 30
0.0
  3
*D39
  1

  0
LINE
  5
21640
330
215AF
100
AcDbEntity
  8
2
100
AcDbLine
 10
1.466020722016651
 20
8.833108360486209
 30
0.0
 11
17.64455628579043
 21
8.833108360486203
 31
0.0
  0
LINE
  5
21641
330
215AF
100
AcDbEntity
  8
2
100
AcDbLine
 10
1.466020722016651
 20
-8.86689163951379
 30
0.0
 11
17.64455628579043
 21
-8.866891639513795
 31
0.0
  0
LINE
  5
21642
330
215AF
100
AcDbEntity
  8
2
100
AcDbLine
 10
16.39455628579043
 20
6.333108360486203
 30
0.0
 11
16.39455628579043
 21
-6.366891639513795
 31
0.0
  0
SOLID
  5
21643
330
215AF
100
AcDbEntity
  8
2
100
AcDbTrace
 10
15.97788961912377
 20
6.333108360486203
 30
0.0
 11
16.8112229524571
 21
6.333108360486203
 31
0.0
 12
16.39455628579043
 22
8.833108360486203
 32
0.0
 13
16.39455628579043
 23
8.833108360486203
 33
0.0
  0
SOLID
  5
21644
330
215AF
100
AcDbEntity
  8
2
100
AcDbTrace
 10
15.97788961912376
 20
-6.366891639513795
 30
0.0
 11
16.8112229524571
 21
-6.366891639513795
 31
0.0
 12
16.39455628579043
 22
-8.866891639513795
 32
0.0
 13
16.39455628579043
 23
-8.866891639513795
 33
0.0
  0
MTEXT
  5
21645
330
215AF
100
AcDbEntity
  8
2
100
AcDbMText
 10
13.906415034912
 20
-0.0168916395137931
 30
0.0
 40
3.5
 41
0.0
 71
     5
 72
     1
  1
\A1;%%C17.7
  7
MM_STANDARD
 11
0.0000000000000001
 21
1.0
 31
0.0
 73
     1
 44
1.0
1001
ACAD
1000
MTEXTBEGIN
1070
    73
1070
     1
1070
    44
1040
1.0
1070
    74
1070
     0
1000
MTEXTEND
  0
POINT
  5
21646
330
215AF
100
AcDbEntity
  8
Defpoints
 62
     0
100
AcDbPoint
 10
1.466020722016651
 20
8.833108360486209
 30
0.0
  0
POINT
  5
21647
330
215AF
100
AcDbEntity
  8
Defpoints
 62
     0
100
AcDbPoint
 10
1.466020722016651
 20
-8.86689163951379
 30
0.0
  0
POINT
  5
21648
330
215AF
100
AcDbEntity
  8
Defpoints
 62
     0
100
AcDbPoint
 10
16.39455628579043
 20
-8.866891639513795
 30
0.0
  0
ENDBLK
  5
215B1
330
215AF
100
AcDbEntity
  8
0
100
AcDbBlockEnd
  0
ENDSEC
  0
SECTION
  2
ENTITIES
  0
INSERT
  5
20CC2
330
1F
100
AcDbEntity
  8
0
100
AcDbBlockReference
 66
     1
  2
Name
 10
-18.93839591375894
 20
-22.54604334041488
 30
0.0
  0
ATTRIB
  5
20CC3
102
{ACAD_XDICTIONARY
360
20CC4
102
}
330
20CC2
100
AcDbEntity
  8
SKVIEW63
100
AcDbText
 10
-18.84788852935068
 20
-22.49856754393972
 30
0.0
 40
3.5
  1
16T17722T6RP11
 41
0.8
  7
BMG_Text
100
AcDbAttribute
  2
NAME
 70
     0
  0
SEQEND
  5
20CC8
330
20CC2
100
AcDbEntity
  8
0
  0
INSERT
  5
20FDB
330
1F
100
AcDbEntity
  8
SK2
100
AcDbBlockReference
  2
cero_point
 10
-0.0000000000001137
 20
0.0
 30
0.0
 41
0.5
 42
0.5
 43
0.5
  0
LINE
  5
20FF4
330
1F
100
AcDbEntity
  8
INFTOTAL
100
AcDbLine
 10
7.389977844773852
 20
43.96476411281628
 30
0.0
 11
-37.88984942014952
 21
43.96476411281628
 31
0.0
  0
LINE
  5
20FF5
330
1F
100
AcDbEntity
  8
INFTOTAL
100
AcDbLine
 10
-37.88984942014952
 20
43.96476411281628
 30
0.0
 11
-37.88984942014952
 21
-14.64309468662122
 31
0.0
  0
LINE
  5
20FF6
330
1F
100
AcDbEntity
  8
INFTOTAL
100
AcDbLine
 10
-10.764407280628
 20
-33.3293537627851
 30
0.0
 11
36.36898364487377
 21
-33.3293537627851
 31
0.0
  0
LINE
  5
20FF7
330
1F
100
AcDbEntity
  8
INFTOTAL
100
AcDbLine
 10
36.36898364487377
 20
-33.3293537627851
 30
0.0
 11
36.36898364487377
 21
24.08782854325773
 31
0.0
  0
LINE
  5
213D1
330
1F
100
AcDbEntity
  8
SK4
 48
0.188532
100
AcDbLine
 10
-0.0000000000001705
 20
0.0
 30
0.0
 11
-7.65227583054974
 21
0.0
 31
0.0
  0
SPLINE
  5
213D2
330
1F
100
AcDbEntity
  8
SK1
100
AcDbSpline
210
0.0
220
0.0
230
1.0
 70
     8
 71
     5
 72
    12
 73
     6
 74
     0
 42
0.000000001
 43
0.0000000001
 40
0.0
 40
0.0
 40
0.0
 40
0.0
 40
0.0
 40
0.0
 40
0.6403771924769477
 40
0.6403771924769477
 40
0.6403771924769477
 40
0.6403771924769477
 40
0.6403771924769477
 40
0.6403771924769477
 10
-6.193267047063443
 20
2.715103587794146
 30
0.0
 10
-6.202557074793901
 20
2.736699907558431
 30
0.0
 10
-6.211921471789707
 20
2.753202292230184
 30
0.0
 10
-6.221397882309872
 20
2.764375726187211
 30
0.0
 10
-6.230847194159366
 20
2.769907679223933
 30
0.0
 10
-6.240300521480264
 20
2.769869603916845
 30
0.0
  0
SPLINE
  5
213D3
330
1F
100
AcDbEntity
  8
SK1
100
AcDbSpline
210
0.0
220
0.0
230
1.0
 70
     8
 71
     5
 72
    12
 73
     6
 74
     0
 42
0.000000001
 43
0.0000000001
 40
0.0
 40
0.0
 40
0.0
 40
0.0
 40
0.0
 40
0.0
 40
0.6566024389826484
 40
0.6566024389826484
 40
0.6566024389826484
 40
0.6566024389826484
 40
0.6566024389826484
 40
0.6566024389826484
 10
-6.50534786239649
 20
2.710467987583228
 30
0.0
 10
-6.515022010182462
 20
2.734011282076664
 30
0.0
 10
-6.524784097500912
 20
2.75205113290707
 30
0.0
 10
-6.53467920501879
 20
2.764308057649827
 30
0.0
 10
-6.544543656502526
 20
2.770397886178557
 30
0.0
 10
-6.55441381253803
 20
2.770409510580634
 30
0.0
  0
LINE
  5
213D4
330
1F
100
AcDbEntity
  8
SK1
 48
0.000131
100
AcDbLine
 10
-6.554413999999894
 20
2.770410000000026
 30
0.0
 11
-6.559629999999913
 21
2.76973700000002
 31
0.0
  0
SPLINE
  5
213D5
330
1F
100
AcDbEntity
  8
SK1
100
AcDbSpline
210
0.0
220
0.0
230
1.0
 70
     8
 71
     5
 72
    15
 73
     9
 74
     0
 42
0.000000001
 43
0.0000000001
 40
0.0
 40
0.0
 40
0.0
 40
0.0
 40
0.0
 40
0.0
 40
6.321775404775571
 40
6.321775404775571
 40
6.321775404775571
 40
8.706563786847411
 40
8.706563786847411
 40
8.706563786847411
 40
8.706563786847411
 40
8.706563786847411
 40
8.706563786847411
 10
-5.970296130392569
 20
-2.185800280728528
 30
0.0
 10
-6.053635673784526
 20
-1.584107312935316
 30
0.0
 10
-6.126701955633222
 20
-0.7119502490635341
 30
0.0
 10
-6.195101401194449
 20
0.1291657171562974
 30
0.0
 10
-6.291139215348891
 20
1.340239977082603
 30
0.0
 10
-6.403168326520415
 20
2.246755398745619
 30
0.0
 10
-6.4359196621578
 20
2.466009389816122
 30
0.0
 10
-6.470199908231904
 20
2.624958760104902
 30
0.0
 10
-6.50534786239649
 20
2.710467987583228
 30
0.0
  0
SPLINE
  5
213D6
330
1F
100
AcDbEntity
  8
SK1
100
AcDbSpline
210
0.0
220
0.0
230
1.0
 70
     8
 71
     5
 72
    15
 73
     9
 74
     0
 42
0.000000001
 43
0.0000000001
 40
0.0
 40
0.0
 40
0.0
 40
0.0
 40
0.0
 40
0.0
 40
5.355533071508653
 40
5.355533071508653
 40
5.355533071508653
 40
8.631102846401727
 40
8.631102846401727
 40
8.631102846401727
 40
8.631102846401727
 40
8.631102846401727
 40
8.631102846401727
 10
-5.658182161598858
 20
-2.170236207881316
 30
0.0
 10
-5.727789112235484
 20
-1.661346297910768
 30
0.0
 10
-5.79018018889127
 20
-0.968682257111368
 30
0.0
 10
-5.848970207958871
 20
-0.2586297950807648
 30
0.0
 10
-5.943049486707593
 20
0.909016620347586
 30
0.0
 10
-6.046395817639393
 20
1.9218263518149
 30
0.0
 10
-6.089360249731441
 20
2.283701628974768
 30
0.0
 10
-6.134753825135874
 20
2.549835021222463
 30
0.0
 10
-6.181863383318784
 20
2.685430915906295
 30
0.0
  0
LINE
  5
213D7
330
1F
100
AcDbEntity
  8
SK1
 48
0.000795
100
AcDbLine
 10
-6.181862999999964
 20
2.685430999999994
 30
0.0
 11
-6.193266999999821
 21
2.715103999999996
 31
0.0
  0
LINE
  5
213D8
330
1F
100
AcDbEntity
  8
SK1
 48
0.000134
100
AcDbLine
 10
-5.814450000000022
 20
-2.770573000000013
 30
0.0
 11
-5.819758000000263
 21
-2.769875000000013
 31
0.0
  0
SPLINE
  5
213D9
330
1F
100
AcDbEntity
  8
SK1
100
AcDbSpline
210
0.0
220
0.0
230
1.0
 70
     8
 71
     5
 72
    15
 73
     9
 74
     0
 42
0.000000001
 43
0.0000000001
 40
0.0
 40
0.0
 40
0.0
 40
0.0
 40
0.0
 40
0.0
 40
1.248114367673149
 40
1.248114367673149
 40
1.248114367673149
 40
2.108020955925301
 40
2.108020955925301
 40
2.108020955925301
 40
2.108020955925301
 40
2.108020955925301
 40
2.108020955925301
 10
-5.819757935707627
 20
-2.769875121478946
 30
0.0
 10
-5.838500562089109
 20
-2.764926961947082
 30
0.0
 10
-5.857217350850248
 20
-2.738049507937603
 30
0.0
 10
-5.875695927057847
 20
-2.689476304004699
 30
0.0
 10
-5.906273102685361
 20
-2.575606593382758
 30
0.0
 10
-5.935622819448951
 20
-2.416521286407771
 30
0.0
 10
-5.947434087996214
 20
-2.344702898921468
 30
0.0
 10
-5.958968316589732
 20
-2.267644913512697
 30
0.0
 10
-5.970296130392569
 20
-2.185800280728528
 30
0.0
  0
LINE
  5
213DA
330
1F
100
AcDbEntity
  8
SK1
 48
0.132431
100
AcDbLine
 10
-6.640000000000043
 20
2.748094999999977
 30
0.0
 11
-6.640000000000043
 21
-2.549148000000002
 31
0.0
  0
SPLINE
  5
213DB
330
1F
100
AcDbEntity
  8
SK1
100
AcDbSpline
210
0.0
220
0.0
230
1.0
 70
     8
 71
     5
 72
    15
 73
     9
 74
     0
 42
0.000000001
 43
0.0000000001
 40
0.0
 40
0.0
 40
0.0
 40
0.0
 40
0.0
 40
0.0
 40
1.304815637661662
 40
1.304815637661662
 40
1.304815637661662
 40
1.678484073087561
 40
1.678484073087561
 40
1.678484073087561
 40
1.678484073087561
 40
1.678484073087561
 40
1.678484073087561
 10
-5.991209357883406
 20
2.826427243636146
 30
0.0
 10
-6.009253748480375
 20
2.879897241666128
 30
0.0
 10
-6.027624538117095
 20
2.913629151475163
 30
0.0
 10
-6.046159157075351
 20
2.924964204329057
 30
0.0
 10
-6.070007109494497
 20
2.909717171437421
 30
0.0
 10
-6.093529932183344
 20
2.858950077189547
 30
0.0
 10
-6.098755906041503
 20
2.845902164060305
 30
0.0
 10
-6.103949406124399
 20
2.831205760937223
 30
0.0
 10
-6.109116976612483
 20
2.814897692367992
 30
0.0
  0
LINE
  5
213DC
330
1F
100
AcDbEntity
  8
SK1
 48
0.002095
100
AcDbLine
 10
-5.968417000000215
 20
2.745794999999986
 30
0.0
 11
-5.991208999999969
 21
2.826427000000023
 31
0.0
  0
SPLINE
  5
213DD
330
1F
100
AcDbEntity
  8
SK1
100
AcDbSpline
210
0.0
220
0.0
230
1.0
 70
     8
 71
     5
 72
    18
 73
    12
 74
     0
 42
0.000000001
 43
0.0000000001
 40
0.0
 40
0.0
 40
0.0
 40
0.0
 40
0.0
 40
0.0
 40
1.765169951909749
 40
1.765169951909749
 40
1.765169951909749
 40
3.295558654135756
 40
3.295558654135756
 40
3.295558654135756
 40
3.382113376339138
 40
3.382113376339138
 40
3.382113376339138
 40
3.382113376339138
 40
3.382113376339138
 40
3.382113376339138
 10
-5.833171719785411
 20
2.413725233172897
 30
0.0
 10
-5.853773678889581
 20
2.583069835093454
 30
0.0
 10
-5.875026552283259
 20
2.734783830282651
 30
0.0
 10
-5.897057509096327
 20
2.864140636220213
 30
0.0
 10
-5.939403511189254
 20
3.048191853741855
 30
0.0
 10
-5.983226302067748
 20
3.109271535880338
 30
0.0
 10
-6.00366193862527
 20
3.107921141898827
 30
0.0
 10
-6.025138216669063
 20
3.075284889539034
 30
0.0
 10
-6.0462443151834
 20
3.013371796184003
 30
0.0
 10
-6.047373120196141
 20
3.009973999268311
 30
0.0
 10
-6.048500714521367
 20
3.006493740321161
 30
0.0
 10
-6.049627160363968
 20
3.002931356020894
 30
0.0
  0
SPLINE
  5
213DE
330
1F
100
AcDbEntity
  8
SK1
100
AcDbSpline
210
0.0
220
0.0
230
1.0
 70
     8
 71
     5
 72
    18
 73
    12
 74
     0
 42
0.000000001
 43
0.0000000001
 40
0.0
 40
0.0
 40
0.0
 40
0.0
 40
0.0
 40
0.0
 40
3.692063142024609
 40
3.692063142024609
 40
3.692063142024609
 40
8.723742470528296
 40
8.723742470528296
 40
8.723742470528296
 40
9.575525855285773
 40
9.575525855285773
 40
9.575525855285773
 40
9.575525855285773
 40
9.575525855285773
 40
9.575525855285773
 10
-5.410573438346261
 20
-2.641331308532926
 30
0.0
 10
-5.459435279529031
 20
-2.3876659800747
 30
0.0
 10
-5.505253395512852
 20
-2.006541380658575
 30
0.0
 10
-5.548525532990595
 20
-1.555958788678196
 30
0.0
 10
-5.644042248544508
 20
-0.4525343250146534
 30
0.0
 10
-5.735275201078536
 20
0.7199834828642225
 30
0.0
 10
-5.790043560667697
 20
1.3884470990821
 30
0.0
 10
-5.857942936155438
 20
2.111369230506738
 30
0.0
 10
-5.93421283406468
 20
2.58110050440149
 30
0.0
 10
-5.945494737360775
 20
2.643394765551761
 30
0.0
 10
-5.956884106597669
 20
2.698434322543619
 30
0.0
 10
-5.968417369784845
 20
2.745795299634721
 30
0.0
  0
ARC
  5
213DF
330
1F
100
AcDbEntity
  8
SK1
100
AcDbCircle
 10
-1.479698000000269
 20
-1.668288000000018
 30
0.0
 40
4.208002999999998
100
AcDbArc
 50
186.8499420000004
 51
193.0542809999995
  0
LINE
  5
213E0
330
1F
100
AcDbEntity
  8
SK1
 48
0.002707
100
AcDbLine
 10
-5.387784000000181
 20
-2.747205000000008
 30
0.0
 11
-5.410572999999828
 21
-2.641330999999979
 31
0.0
  0
SPLINE
  5
213E1
330
1F
100
AcDbEntity
  8
SK1
100
AcDbSpline
210
0.0
220
0.0
230
1.0
 70
     8
 71
     5
 72
    12
 73
     6
 74
     0
 42
0.000000001
 43
0.0000000001
 40
0.0
 40
0.0
 40
0.0
 40
0.0
 40
0.0
 40
0.0
 40
1.074037148912565
 40
1.074037148912565
 40
1.074037148912565
 40
1.074037148912565
 40
1.074037148912565
 40
1.074037148912565
 10
-5.500350624916961
 20
-2.769849723027277
 30
0.0
 10
-5.516214455720898
 20
-2.76975137515177
 30
0.0
 10
-5.532071510265893
 20
-2.753962480044947
 30
0.0
 10
-5.54779052961129
 20
-2.722517340365357
 30
0.0
 10
-5.563279740718542
 20
-2.676811770386223
 30
0.0
 10
-5.57847895967069
 20
-2.618656928574523
 30
0.0
  0
SPLINE
  5
213E2
330
1F
100
AcDbEntity
  8
SK1
100
AcDbSpline
210
0.0
220
0.0
230
1.0
 70
     8
 71
     5
 72
    15
 73
     9
 74
     0
 42
0.000000001
 43
0.0000000001
 40
0.0
 40
0.0
 40
0.0
 40
0.0
 40
0.0
 40
0.0
 40
2.744451235983823
 40
2.744451235983823
 40
2.744451235983823
 40
3.73073372216485
 40
3.73073372216485
 40
3.73073372216485
 40
3.73073372216485
 40
3.73073372216485
 40
3.73073372216485
 10
-4.831342279601074
 20
1.309063306704445
 30
0.0
 10
-4.863886149268807
 20
1.645660819818658
 30
0.0
 10
-4.897643205080555
 20
1.964861742416587
 30
0.0
 10
-4.933921497159815
 20
2.260710828725336
 30
0.0
 10
-4.985891346526102
 20
2.577097637641259
 30
0.0
 10
-5.04114645403041
 20
2.729423423569869
 30
0.0
 10
-5.055928940916317
 20
2.756848088039703
 30
0.0
 10
-5.070810390293615
 20
2.770435066538766
 30
0.0
 10
-5.085685818504032
 20
2.770215661588508
 30
0.0
  0
LINE
  5
213E3
330
1F
100
AcDbEntity
  8
SK1
 48
0.008095
100
AcDbLine
 10
-4.508320999999966
 20
1.331229000000007
 30
0.0
 11
-4.83134200000012
 21
1.30906299999998
 31
0.0
  0
SPLINE
  5
213E4
330
1F
100
AcDbEntity
  8
SK1
100
AcDbSpline
210
0.0
220
0.0
230
1.0
 70
     8
 71
     5
 72
    15
 73
     9
 74
     0
 42
0.000000001
 43
0.0000000001
 40
0.0
 40
0.0
 40
0.0
 40
0.0
 40
0.0
 40
0.0
 40
2.76424950914364
 40
2.76424950914364
 40
2.76424950914364
 40
3.764330652173783
 40
3.764330652173783
 40
3.764330652173783
 40
3.764330652173783
 40
3.764330652173783
 40
3.764330652173783
 10
-4.508303917210184
 20
1.331249078913629
 30
0.0
 10
-4.540786613724037
 20
1.666273880945027
 30
0.0
 10
-4.574392505318144
 20
1.981099780597332
 30
0.0
 10
-4.610261770306976
 20
2.270161890085375
 30
0.0
 10
-4.661622829368468
 20
2.579620842608676
 30
0.0
 10
-4.716103967209789
 20
2.72925282374382
 30
0.0
 10
-4.730750477424123
 20
2.756415707765142
 30
0.0
 10
-4.745499665729028
 20
2.770010611338136
 30
0.0
 10
-4.760253632292631
 20
2.770016876752151
 30
0.0
  0
SPLINE
  5
213E5
330
1F
100
AcDbEntity
  8
SK1
100
AcDbSpline
210
0.0
220
0.0
230
1.0
 70
     8
 71
     5
 72
    15
 73
     9
 74
     0
 42
0.000000001
 43
0.0000000001
 40
0.0
 40
0.0
 40
0.0
 40
0.0
 40
0.0
 40
0.0
 40
3.524360931906417
 40
3.524360931906417
 40
3.524360931906417
 40
4.229824835709116
 40
4.229824835709116
 40
4.229824835709116
 40
4.229824835709116
 40
4.229824835709116
 40
4.229824835709116
 10
-4.953717045601649
 20
0.5721743349923259
 30
0.0
 10
-4.992481197371205
 20
1.042354417789056
 30
0.0
 10
-5.031987279650991
 20
1.502166737254754
 30
0.0
 10
-5.074007465949478
 20
1.94475867179517
 30
0.0
 10
-5.127465759933045
 20
2.405454543273322
 30
0.0
 10
-5.185946159812544
 20
2.699990821336882
 30
0.0
 10
-5.195890730038797
 20
2.744205053076598
 30
0.0
 10
-5.205909045750274
 20
2.782475475803494
 30
0.0
 10
-5.216034336006657
 20
2.814587428178413
 30
0.0
  0
LINE
  5
213E6
330
1F
100
AcDbEntity
  8
SK1
 48
0.021077
100
AcDbLine
 10
-4.885402999999939
 20
-0.2681519999999864
 30
0.0
 11
-4.95371700000004
 21
0.5721740000000182
 31
0.0
  0
ARC
  5
213E7
330
1F
100
AcDbEntity
  8
SK1
100
AcDbCircle
 10
-142.0085260000001
 20
-11.48830399999997
 30
0.0
 40
137.773076
100
AcDbArc
 50
4.681808000000243
 51
5.329741999999499
  0
LINE
  5
213E8
330
1F
100
AcDbEntity
  8
SK1
 48
0.007674
100
AcDbLine
 10
-5.799001000000032
 20
2.108668000000022
 30
0.0
 11
-5.833171999999819
 21
2.413724999999999
 31
0.0
  0
SPLINE
  5
213E9
330
1F
100
AcDbEntity
  8
SK1
100
AcDbSpline
210
0.0
220
0.0
230
1.0
 70
     8
 71
     5
 72
    15
 73
     9
 74
     0
 42
0.000000001
 43
0.0000000001
 40
0.0
 40
0.0
 40
0.0
 40
0.0
 40
0.0
 40
0.0
 40
1.811835303578464
 40
1.811835303578464
 40
1.811835303578464
 40
2.852968908818826
 40
2.852968908818826
 40
2.852968908818826
 40
2.852968908818826
 40
2.852968908818826
 40
2.852968908818826
 10
-5.730978089341704
 20
2.171180721497194
 30
0.0
 10
-5.752618217715451
 20
2.384195135679817
 30
0.0
 10
-5.775070909637804
 20
2.582279280845511
 30
0.0
 10
-5.798643959245225
 20
2.761427120958842
 30
0.0
 10
-5.837397551170113
 20
2.99523897086226
 30
0.0
 10
-5.878308469374758
 20
3.129412562594097
 30
0.0
 10
-5.893456847991444
 20
3.163138064172528
 30
0.0
 10
-5.908708458067565
 20
3.180000000000006
 30
0.0
 10
-5.923900435047642
 20
3.180000000000006
 30
0.0
  0
LINE
  5
213EA
330
1F
100
AcDbEntity
  8
SK1
 48
0.000257
100
AcDbLine
 10
-5.923899999999946
 20
3.180000000000006
 30
0.0
 11
-5.933783000000119
 21
3.177137000000016
 31
0.0
  0
SPLINE
  5
213EB
330
1F
100
AcDbEntity
  8
SK1
100
AcDbSpline
210
0.0
220
0.0
230
1.0
 70
     8
 71
     5
 72
    18
 73
    12
 74
     0
 42
0.000000001
 43
0.0000000001
 40
0.0
 40
0.0
 40
0.0
 40
0.0
 40
0.0
 40
0.0
 40
2.382112407518633
 40
2.382112407518633
 40
2.382112407518633
 40
8.063239480575973
 40
8.063239480575973
 40
8.063239480575973
 40
9.037231641014953
 40
9.037231641014953
 40
9.037231641014953
 40
9.037231641014953
 40
9.037231641014953
 40
9.037231641014953
 10
-5.309462362298461
 20
-3.003506420248129
 30
0.0
 10
-5.340446292654803
 20
-2.905949244999646
 30
0.0
 10
-5.370598119398607
 20
-2.746151538072979
 30
0.0
 10
-5.399544764699101
 20
-2.535364293437339
 30
0.0
 10
-5.492440507149865
 20
-1.724218275112434
 30
0.0
 10
-5.574066568972
 20
-0.656721931085599
 30
0.0
 10
-5.629452451967324
 20
0.0985449984821685
 30
0.0
 10
-5.695318936536011
 20
0.9963263859115727
 30
0.0
 10
-5.76674264987713
 20
1.782667179493046
 30
0.0
 10
-5.777345741809938
 20
1.895053713438699
 30
0.0
 10
-5.788088755348951
 20
2.003903031755555
 30
0.0
 10
-5.799000884183612
 20
2.108668297636427
 30
0.0
  0
LINE
  5
213EC
330
1F
100
AcDbEntity
  8
SK1
 48
0.001762
100
AcDbLine
 10
-5.369045999999968
 20
-2.815140999999982
 30
0.0
 11
-5.387784000000181
 21
-2.747205000000008
 31
0.0
  0
ARC
  5
213ED
330
1F
100
AcDbEntity
  8
SK1
100
AcDbCircle
 10
-137.850962
 20
-11.15033499999998
 30
0.0
 40
133.925803
100
AcDbArc
 50
4.682376999999122
 51
5.347607999998785
  0
ARC
  5
213EE
330
1F
100
AcDbEntity
  8
SK1
100
AcDbCircle
 10
-4.237262000000271
 20
-1.479624999999998
 30
0.0
 40
1.268515
100
AcDbArc
 50
87.45818100000027
 51
96.0812230000107
  0
ARC
  5
213EF
330
1F
100
AcDbEntity
  8
SK1
100
AcDbCircle
 10
-116.0370309999999
 20
-8.764162999999996
 30
0.0
 40
112.181698
100
AcDbArc
 50
4.371638000000431
 51
5.327776000000794
  0
SPLINE
  5
213F0
330
1F
100
AcDbEntity
  8
SK1
100
AcDbSpline
210
0.0
220
0.0
230
1.0
 70
     8
 71
     5
 72
    18
 73
    12
 74
     0
 42
0.000000001
 43
0.0000000001
 40
0.0
 40
0.0
 40
0.0
 40
0.0
 40
0.0
 40
0.0
 40
2.293515806045875
 40
2.293515806045875
 40
2.293515806045875
 40
3.68890743668508
 40
3.68890743668508
 40
3.68890743668508
 40
4.268482279140433
 40
4.268482279140433
 40
4.268482279140433
 40
4.268482279140433
 40
4.268482279140433
 40
4.268482279140433
 10
-4.340419796857247
 20
1.652235871574021
 30
0.0
 10
-4.366691920922846
 20
1.919275406910458
 30
0.0
 10
-4.393829412459751
 20
2.170054354138471
 30
0.0
 10
-4.42234446207766
 20
2.398836874369465
 30
0.0
 10
-4.470225629746607
 20
2.702874000353347
 30
0.0
 10
-4.521109061742379
 20
2.867990863264083
 30
0.0
 10
-4.540684067689824
 20
2.907057389988779
 30
0.0
 10
-4.56862519244413
 20
2.925526810343569
 30
0.0
 10
-4.596407040356268
 20
2.893401279999466
 30
0.0
 10
-4.604567270199083
 20
2.879599047073668
 30
0.0
 10
-4.612648202534899
 20
2.861685518698493
 30
0.0
 10
-4.620675465050396
 20
2.839799402299661
 30
0.0
  0
SPLINE
  5
213F1
330
1F
100
AcDbEntity
  8
SK1
100
AcDbSpline
210
0.0
220
0.0
230
1.0
 70
     8
 71
     5
 72
    18
 73
    12
 74
     0
 42
0.000000001
 43
0.0000000001
 40
0.0
 40
0.0
 40
0.0
 40
0.0
 40
0.0
 40
0.0
 40
1.4258262839736
 40
1.4258262839736
 40
1.4258262839736
 40
4.180469155262049
 40
4.180469155262049
 40
4.180469155262049
 40
5.525063207864139
 40
5.525063207864139
 40
5.525063207864139
 40
5.525063207864139
 40
5.525063207864139
 40
5.525063207864139
 10
-4.020179309561342
 20
-2.770143350215619
 30
0.0
 10
-4.041173071686614
 20
-2.770152999782851
 30
0.0
 10
-4.062160116233997
 20
-2.742652339094945
 30
0.0
 10
-4.082855150756756
 20
-2.687675197728253
 30
0.0
 10
-4.142171488094106
 20
-2.457859364769092
 30
0.0
 10
-4.19703037695416
 20
-2.061270583471184
 30
0.0
 10
-4.23145554338015
 20
-1.753249756922286
 30
0.0
 10
-4.279995650444277
 20
-1.263934725309354
 30
0.0
 10
-4.32656955316105
 20
-0.7416575606756055
 30
0.0
 10
-4.341697707111677
 20
-0.567974571893501
 30
0.0
 10
-4.356723707787466
 20
-0.3929925268901115
 30
0.0
 10
-4.371707231428615
 20
-0.2176736430847086
 30
0.0
  0
SPLINE
  5
213F2
330
1F
100
AcDbEntity
  8
SK1
100
AcDbSpline
210
0.0
220
0.0
230
1.0
 70
     8
 71
     5
 72
    15
 73
     9
 74
     0
 42
0.000000001
 43
0.0000000001
 40
0.0
 40
0.0
 40
0.0
 40
0.0
 40
0.0
 40
0.0
 40
2.255633239306849
 40
2.255633239306849
 40
2.255633239306849
 40
4.934815753355584
 40
4.934815753355584
 40
4.934815753355584
 40
4.934815753355584
 40
4.934815753355584
 40
4.934815753355584
 10
-3.889011981817191
 20
-2.815296835769743
 30
0.0
 10
-3.920082419973084
 20
-2.717480105729464
 30
0.0
 10
-3.950243431692513
 20
-2.561334149665356
 30
0.0
 10
-3.979175145365559
 20
-2.358279357227218
 30
0.0
 10
-4.039206861861828
 20
-1.856159995149369
 30
0.0
 10
-4.09460507633338
 20
-1.255783285628126
 30
0.0
 10
-4.123856100982891
 20
-0.9138801208123368
 30
0.0
 10
-4.152506536952103
 20
-0.5645852027906813
 30
0.0
 10
-4.181024821006019
 20
-0.2130088999245459
 30
0.0
  0
SPLINE
  5
213F3
330
1F
100
AcDbEntity
  8
SK1
100
AcDbSpline
210
0.0
220
0.0
230
1.0
 70
     8
 71
     5
 72
    18
 73
    12
 74
     0
 42
0.000000001
 43
0.0000000001
 40
0.0
 40
0.0
 40
0.0
 40
0.0
 40
0.0
 40
0.0
 40
1.386434338688322
 40
1.386434338688322
 40
1.386434338688322
 40
4.074623362236305
 40
4.074623362236305
 40
4.074623362236305
 40
5.394501345713676
 40
5.394501345713676
 40
5.394501345713676
 40
5.394501345713676
 40
5.394501345713676
 40
5.394501345713676
 10
-4.345433940339887
 20
-2.770281471021746
 30
0.0
 10
-4.366336633498747
 20
-2.770306745304708
 30
0.0
 10
-4.387239741786004
 20
-2.74305863606412
 30
0.0
 10
-4.407835902251633
 20
-2.688500245478508
 30
0.0
 10
-4.466926021830374
 20
-2.460357426999166
 30
0.0
 10
-4.521344626133384
 20
-2.067893191153643
 30
0.0
 10
-4.555458306925345
 20
-1.763761159420312
 30
0.0
 10
-4.603616694165509
 20
-1.280494525488336
 30
0.0
 10
-4.649800829065668
 20
-0.7641974219266672
 30
0.0
 10
-4.664861526304946
 20
-0.5916846700886254
 30
0.0
 10
-4.679818942654662
 20
-0.4176751613991315
 30
0.0
 10
-4.694731969853535
 20
-0.24294750641684
 30
0.0
  0
SPLINE
  5
213F4
330
1F
100
AcDbEntity
  8
SK1
100
AcDbSpline
210
0.0
220
0.0
230
1.0
 70
     8
 71
     5
 72
    18
 73
    12
 74
     0
 42
0.000000001
 43
0.0000000001
 40
0.0
 40
0.0
 40
0.0
 40
0.0
 40
0.0
 40
0.0
 40
1.473933212518451
 40
1.473933212518451
 40
1.473933212518451
 40
3.225246968974002
 40
3.225246968974002
 40
3.225246968974002
 40
6.262886773520167
 40
6.262886773520167
 40
6.262886773520167
 40
6.262886773520167
 40
6.262886773520167
 40
6.262886773520167
 10
-4.484485703221878
 20
-2.839867233235906
 30
0.0
 10
-4.505769783966741
 20
-2.898163541265716
 30
0.0
 10
-4.527461178997953
 20
-2.928560850048484
 30
0.0
 10
-4.549255035463545
 20
-2.92700849780158
 30
0.0
 10
-4.596630946789161
 20
-2.854261059480791
 30
0.0
 10
-4.641957231531876
 20
-2.649814584648652
 30
0.0
 10
-4.665722855681622
 20
-2.506250522832829
 30
0.0
 10
-4.727994994153675
 20
-2.053833628708105
 30
0.0
 10
-4.784539395515992
 20
-1.472755165744501
 30
0.0
 10
-4.818888863036761
 20
-1.08011302519003
 30
0.0
 10
-4.85227046056724
 20
-0.6752306207597485
 30
0.0
 10
-4.885402750324089
 20
-0.2681523700600223
 30
0.0
  0
SPLINE
  5
213F5
330
1F
100
AcDbEntity
  8
SK1
100
AcDbSpline
210
0.0
220
0.0
230
1.0
 70
     8
 71
     5
 72
    18
 73
    12
 74
     0
 42
0.000000001
 43
0.0000000001
 40
0.0
 40
0.0
 40
0.0
 40
0.0
 40
0.0
 40
0.0
 40
1.84994950910528
 40
1.84994950910528
 40
1.84994950910528
 40
4.096773204722273
 40
4.096773204722273
 40
4.096773204722273
 40
8.017491890933667
 40
8.017491890933667
 40
8.017491890933667
 40
8.017491890933667
 40
8.017491890933667
 40
8.017491890933667
 10
-4.535265368032185
 20
-3.002820153005188
 30
0.0
 10
-4.560462430191535
 20
-3.08292157800929
 30
0.0
 10
-4.586301392306438
 20
-3.122103885989133
 30
0.0
 10
-4.612232326751552
 20
-3.112163155459597
 30
0.0
 10
-4.669008396065862
 20
-2.985156252329716
 30
0.0
 10
-4.722206835383246
 20
-2.669039075870841
 30
0.0
 10
-4.750112454232464
 20
-2.45220375362129
 30
0.0
 10
-4.822761845790125
 20
-1.789943157102754
 30
0.0
 10
-4.88835194016309
 20
-0.983982502155527
 30
0.0
 10
-4.928745160234655
 20
-0.4531300449144738
 30
0.0
 10
-4.968630850333454
 20
0.0843976242585427
 30
0.0
 10
-5.009285748383433
 20
0.6072884864004209
 30
0.0
  0
SPLINE
  5
213F6
330
1F
100
AcDbEntity
  8
SK1
100
AcDbSpline
210
0.0
220
0.0
230
1.0
 70
     8
 71
     5
 72
    15
 73
     9
 74
     0
 42
0.000000001
 43
0.0000000001
 40
0.0
 40
0.0
 40
0.0
 40
0.0
 40
0.0
 40
0.0
 40
3.228632789720652
 40
3.228632789720652
 40
3.228632789720652
 40
3.884558938544915
 40
3.884558938544915
 40
3.884558938544915
 40
3.884558938544915
 40
3.884558938544915
 40
3.884558938544915
 10
-5.043462053692735
 20
1.039343885729408
 30
0.0
 10
-5.077542720985718
 20
1.461063694736708
 30
0.0
 10
-5.112575486435787
 20
1.867818136932044
 30
0.0
 10
-5.149872710186798
 20
2.253669027802345
 30
0.0
 10
-5.197343835315848
 20
2.648468115922412
 30
0.0
 10
-5.248555449031471
 20
2.90176424097973
 30
0.0
 10
-5.257344986703344
 20
2.940285299027607
 30
0.0
 10
-5.266189428037421
 20
2.973820447456432
 30
0.0
 10
-5.275113013674115
 20
3.002226339635853
 30
0.0
  0
LINE
  5
213F7
330
1F
100
AcDbEntity
  8
SK1
 48
0.010835
100
AcDbLine
 10
-5.009286000000145
 20
0.6072879999999828
 30
0.0
 11
-5.043462000000261
 21
1.039344000000028
 31
0.0
  0
LINE
  5
213F8
330
1F
100
AcDbEntity
  8
SK1
 48
0.000267
100
AcDbLine
 10
-5.40041200000013
 20
3.180000000000006
 30
0.0
 11
-5.390152999999997
 21
3.176994999999976
 31
0.0
  0
SPLINE
  5
213F9
330
1F
100
AcDbEntity
  8
SK1
100
AcDbSpline
210
0.0
220
0.0
230
1.0
 70
     8
 71
     5
 72
    18
 73
    12
 74
     0
 42
0.000000001
 43
0.0000000001
 40
0.0
 40
0.0
 40
0.0
 40
0.0
 40
0.0
 40
0.0
 40
1.34062987908492
 40
1.34062987908492
 40
1.34062987908492
 40
4.074905981196311
 40
4.074905981196311
 40
4.074905981196311
 40
4.425517551536502
 40
4.425517551536502
 40
4.425517551536502
 40
4.425517551536502
 40
4.425517551536502
 40
4.425517551536502
 10
-5.390152776665843
 20
3.176995309064579
 30
0.0
 10
-5.370384746878414
 20
3.165416758403694
 30
0.0
 10
-5.350717368647735
 20
3.126017210924487
 30
0.0
 10
-5.331443442579882
 20
3.059618131762533
 30
0.0
 10
-5.274573587680777
 20
2.791096875681034
 30
0.0
 10
-5.223005073395313
 20
2.357228965377146
 30
0.0
 10
-5.190388550961586
 20
2.023039021203203
 30
0.0
 10
-5.155670215424549
 20
1.624621575432911
 30
0.0
 10
-5.122165883644527
 20
1.207968717711992
 30
0.0
 10
-5.118372332356727
 20
1.160395424860951
 30
0.0
 10
-5.114592482251907
 20
1.112626456832401
 30
0.0
 10
-5.110825081135942
 20
1.064676048163221
 30
0.0
  0
LINE
  5
213FA
330
1F
100
AcDbEntity
  8
SK1
 48
0.013087
100
AcDbLine
 10
-5.40041200000013
 20
3.180000000000006
 30
0.0
 11
-5.923899999999946
 21
3.180000000000006
 31
0.0
  0
LINE
  5
213FB
330
1F
100
AcDbEntity
  8
SK1
 48
0.000259
100
AcDbLine
 10
-5.184070999999846
 20
-3.180000000000006
 30
0.0
 11
-5.194011000000216
 21
-3.177134000000023
 31
0.0
  0
SPLINE
  5
213FC
330
1F
100
AcDbEntity
  8
SK1
100
AcDbSpline
210
0.0
220
0.0
230
1.0
 70
     8
 71
     5
 72
    12
 73
     6
 74
     0
 42
0.000000001
 43
0.0000000001
 40
0.0
 40
0.0
 40
0.0
 40
0.0
 40
0.0
 40
0.0
 40
0.6509953382498451
 40
0.6509953382498451
 40
0.6509953382498451
 40
0.6509953382498451
 40
0.6509953382498451
 40
0.6509953382498451
 10
-5.1940107975567
 20
-3.177134308339645
 30
0.0
 10
-5.203543167268151
 20
-3.17164276185025
 30
0.0
 10
-5.213071786292573
 20
-3.159588814154517
 30
0.0
 10
-5.222635222714131
 20
-3.140899023332508
 30
0.0
 10
-5.232052025280779
 20
-3.116192195722646
 30
0.0
 10
-5.24137529540593
 20
-3.085769062414499
 30
0.0
  0
SPLINE
  5
213FD
330
1F
100
AcDbEntity
  8
SK1
100
AcDbSpline
210
0.0
220
0.0
230
1.0
 70
     8
 71
     5
 72
    18
 73
    12
 74
     0
 42
0.000000001
 43
0.0000000001
 40
0.0
 40
0.0
 40
0.0
 40
0.0
 40
0.0
 40
0.0
 40
2.192757962522204
 40
2.192757962522204
 40
2.192757962522204
 40
6.713058542598183
 40
6.713058542598183
 40
6.713058542598183
 40
8.565735695790973
 40
8.565735695790973
 40
8.565735695790973
 40
8.565735695790973
 40
8.565735695790973
 40
8.565735695790973
 10
-5.24137529540593
 20
-3.085769062414499
 30
0.0
 10
-5.27277901460701
 20
-2.983294338116593
 30
0.0
 10
-5.303121435511627
 20
-2.815966758306899
 30
0.0
 10
-5.331957831536954
 20
-2.598617610651672
 30
0.0
 10
-5.414693090636035
 20
-1.855807917314734
 30
0.0
 10
-5.486781641629647
 20
-0.9235665489406414
 30
0.0
 10
-5.532243379199996
 20
-0.2995946201247648
 30
0.0
 10
-5.597629040900471
 20
0.6148827795323655
 30
0.0
 10
-5.666886167347172
 20
1.47576541107378
 30
0.0
 10
-5.687571809077496
 20
1.719938320980077
 30
0.0
 10
-5.708850155665174
 20
1.953364600088491
 30
0.0
 10
-5.730978089341704
 20
2.171180721497194
 30
0.0
  0
SPLINE
  5
213FE
330
1F
100
AcDbEntity
  8
SK1
100
AcDbSpline
210
0.0
220
0.0
230
1.0
 70
     8
 71
     5
 72
    18
 73
    12
 74
     0
 42
0.000000001
 43
0.0000000001
 40
0.0
 40
0.0
 40
0.0
 40
0.0
 40
0.0
 40
0.0
 40
5.762109962266805
 40
5.762109962266805
 40
5.762109962266805
 40
7.110686590859987
 40
7.110686590859987
 40
7.110686590859987
 40
7.617853761954053
 40
7.617853761954053
 40
7.617853761954053
 40
7.617853761954053
 40
7.617853761954053
 40
7.617853761954053
 10
-5.110825081135942
 20
1.064676048163221
 30
0.0
 10
-5.048909898244971
 20
0.2766372301072124
 30
0.0
 10
-4.990356849607167
 20
-0.5604034216037235
 30
0.0
 10
-4.931158932241658
 20
-1.362236461211352
 30
0.0
 10
-4.851135104417778
 20
-2.355739257268908
 30
0.0
 10
-4.75520090563549
 20
-2.938042100027303
 30
0.0
 10
-4.736370392107517
 20
-3.030249113091315
 30
0.0
 10
-4.709746669772073
 20
-3.124293712387327
 30
0.0
 10
-4.6825484291532
 20
-3.167949805793057
 30
0.0
 10
-4.675047224697834
 20
-3.175999641499913
 30
0.0
 10
-4.66756888687513
 20
-3.18000000000012
 30
0.0
 10
-4.660091434601952
 20
-3.180000000000006
 30
0.0
  0
LINE
  5
213FF
330
1F
100
AcDbEntity
  8
SK1
 48
0.013099
100
AcDbLine
 10
-4.660090999999908
 20
-3.180000000000006
 30
0.0
 11
-5.184070999999846
 21
-3.180000000000006
 31
0.0
  0
ARC
  5
21400
330
1F
100
AcDbEntity
  8
SK1
100
AcDbCircle
 10
-3.00565400000022
 20
2.807606000000021
 30
0.0
 40
0.137955
100
AcDbArc
 50
133.0743980000109
 51
166.1893910000002
  0
LINE
  5
21401
330
1F
100
AcDbEntity
  8
SK1
 48
0.000266
100
AcDbLine
 10
-4.660090999999908
 20
-3.180000000000006
 30
0.0
 11
-4.649892999999963
 21
-3.177001000000018
 31
0.0
  0
LINE
  5
21402
330
1F
100
AcDbEntity
  8
SK1
 48
0.00026
100
AcDbLine
 10
-4.443386999999972
 20
3.180000000000006
 30
0.0
 11
-4.453392999999948
 21
3.177142000000003
 31
0.0
  0
LINE
  5
21403
330
1F
100
AcDbEntity
  8
SK1
 48
0.013082
100
AcDbLine
 10
-3.920112999999844
 20
3.180000000000006
 30
0.0
 11
-4.443386999999972
 21
3.180000000000006
 31
0.0
  0
SPLINE
  5
21404
330
1F
100
AcDbEntity
  8
SK1
100
AcDbSpline
210
0.0
220
0.0
230
1.0
 70
     8
 71
     5
 72
    18
 73
    12
 74
     0
 42
0.000000001
 43
0.0000000001
 40
0.0
 40
0.0
 40
0.0
 40
0.0
 40
0.0
 40
0.0
 40
3.634147418100403
 40
3.634147418100403
 40
3.634147418100403
 40
5.198998945443289
 40
5.198998945443289
 40
5.198998945443289
 40
5.642518411041065
 40
5.642518411041065
 40
5.642518411041065
 40
5.642518411041065
 40
5.642518411041065
 40
5.642518411041065
 10
-4.22792263745913
 20
1.099200951509828
 30
0.0
 10
-4.265391448084017
 20
1.558348978815786
 30
0.0
 10
-4.304057674829607
 20
1.99929209552539
 30
0.0
 10
-4.346060167587609
 20
2.417423799101356
 30
0.0
 10
-4.409528827201654
 20
2.88610155541005
 30
0.0
 10
-4.477962925497365
 20
3.078630769862286
 30
0.0
 10
-4.498844388561053
 20
3.107222683974725
 30
0.0
 10
-4.525753632633211
 20
3.103287428621968
 30
0.0
 10
-4.552326850468205
 20
3.05078199592873
 30
0.0
 10
-4.558186688907596
 20
3.036831569117339
 30
0.0
 10
-4.564006907575446
 20
3.020658041887998
 30
0.0
 10
-4.569796958204904
 20
3.002314216644265
 30
0.0
  0
SPLINE
  5
21405
330
1F
100
AcDbEntity
  8
SK1
100
AcDbSpline
210
0.0
220
0.0
230
1.0
 70
     8
 71
     5
 72
    18
 73
    12
 74
     0
 42
0.000000001
 43
0.0000000001
 40
0.0
 40
0.0
 40
0.0
 40
0.0
 40
0.0
 40
0.0
 40
2.912752564836818
 40
2.912752564836818
 40
2.912752564836818
 40
4.142048776375995
 40
4.142048776375995
 40
4.142048776375995
 40
4.460722570653148
 40
4.460722570653148
 40
4.460722570653148
 40
4.460722570653148
 40
4.460722570653148
 40
4.460722570653148
 10
-4.159325148866344
 20
1.134775658886326
 30
0.0
 10
-4.1907844313302
 20
1.531287624273261
 30
0.0
 10
-4.223178178856585
 20
1.914234947135014
 30
0.0
 10
-4.257499705151701
 20
2.27858603643375
 30
0.0
 10
-4.309372829458141
 20
2.733889369987139
 30
0.0
 10
-4.36665555690223
 20
3.024310772208878
 30
0.0
 10
-4.384136487913281
 20
3.0929530524877
 30
0.0
 10
-4.406603487356903
 20
3.15228835420271
 30
0.0
 10
-4.429320797938714
 20
3.175253838990386
 30
0.0
 10
-4.434014055718023
 20
3.178420520334611
 30
0.0
 10
-4.43870100932844
 20
3.180000000000006
 30
0.0
 10
-4.443387282165701
 20
3.180000000000006
 30
0.0
  0
LINE
  5
21406
330
1F
100
AcDbEntity
  8
SK1
 48
0.01077
100
AcDbLine
 10
-4.193739999999877
 20
0.6697740000000181
 30
0.0
 11
-4.227923000000089
 21
1.099200999999993
 31
0.0
  0
SPLINE
  5
21407
330
1F
100
AcDbEntity
  8
SK1
100
AcDbSpline
210
0.0
220
0.0
230
1.0
 70
     8
 71
     5
 72
    15
 73
     9
 74
     0
 42
0.000000001
 43
0.0000000001
 40
0.0
 40
0.0
 40
0.0
 40
0.0
 40
0.0
 40
0.0
 40
2.36497506687838
 40
2.36497506687838
 40
2.36497506687838
 40
6.642284648515611
 40
6.642284648515611
 40
6.642284648515611
 40
6.642284648515611
 40
6.642284648515611
 40
6.642284648515611
 10
-3.829600109444697
 20
-3.003062157757085
 30
0.0
 10
-3.860477636468829
 20
-2.905467566444883
 30
0.0
 10
-3.890466827611987
 20
-2.746136157107287
 30
0.0
 10
-3.919236142187571
 20
-2.536957770646779
 30
0.0
 10
-3.995910359713604
 20
-1.868912917566547
 30
0.0
 10
-4.064938918538416
 20
-1.025428518528599
 30
0.0
 10
-4.10793003191992
 20
-0.4597823433358599
 30
0.0
 10
-4.150390657502327
 20
0.1138855749002801
 30
0.0
 10
-4.193740444579077
 20
0.6697738656551451
 30
0.0
  0
SPLINE
  5
21408
330
1F
100
AcDbEntity
  8
SK1
100
AcDbSpline
210
0.0
220
0.0
230
1.0
 70
     8
 71
     5
 72
    18
 73
    12
 74
     0
 42
0.000000001
 43
0.0000000001
 40
0.0
 40
0.0
 40
0.0
 40
0.0
 40
0.0
 40
0.0
 40
4.392753751430319
 40
4.392753751430319
 40
4.392753751430319
 40
6.760665193581627
 40
6.760665193581627
 40
6.760665193581627
 40
8.054127818904348
 40
8.054127818904348
 40
8.054127818904348
 40
8.054127818904348
 40
8.054127818904348
 40
8.054127818904348
 10
-2.621341187984114
 20
-1.164713993698399
 30
0.0
 10
-2.669755130828605
 20
-0.6172029296839128
 30
0.0
 10
-2.716139346349052
 20
-0.028228328347609
 30
0.0
 10
-2.763385835381257
 20
0.5717098506761431
 30
0.0
 10
-2.836150865643219
 20
1.456863028753616
 30
0.0
 10
-2.916387861914415
 20
2.192958988824955
 30
0.0
 10
-2.945985671085679
 20
2.427072074729494
 30
0.0
 10
-2.993836021488448
 20
2.72130418316857
 30
0.0
 10
-3.044618121391238
 20
2.874137346549389
 30
0.0
 10
-3.062835404599525
 20
2.907693255083358
 30
0.0
 10
-3.081193517026974
 20
2.918772435721791
 30
0.0
 10
-3.099487011301505
 20
2.907967811725995
 30
0.0
  0
SPLINE
  5
21409
330
1F
100
AcDbEntity
  8
SK1
100
AcDbSpline
210
0.0
220
0.0
230
1.0
 70
     8
 71
     5
 72
    18
 73
    12
 74
     0
 42
0.000000001
 43
0.0000000001
 40
0.0
 40
0.0
 40
0.0
 40
0.0
 40
0.0
 40
0.0
 40
3.473617620437188
 40
3.473617620437188
 40
3.473617620437188
 40
6.701011559272522
 40
6.701011559272522
 40
6.701011559272522
 40
8.000173240938059
 40
8.000173240938059
 40
8.000173240938059
 40
8.000173240938059
 40
8.000173240938059
 40
8.000173240938059
 10
-2.7892600187958
 20
-1.361155435453838
 30
0.0
 10
-2.830054080555044
 20
-0.9436530939169642
 30
0.0
 10
-2.869063070201889
 20
-0.4925782704764288
 30
0.0
 10
-2.906775773319338
 20
-0.040257997795834
 30
0.0
 10
-2.980801332562521
 20
0.84544005374579
 30
0.0
 10
-3.058846244597759
 20
1.6640057453086
 30
0.0
 10
-3.099039838664964
 20
2.03856413105592
 30
0.0
 10
-3.158535923158694
 20
2.473442164934567
 30
0.0
 10
-3.223130979471704
 20
2.701939745824233
 30
0.0
 10
-3.242023766852696
 20
2.747446466449048
 30
0.0
 10
-3.261127383590235
 20
2.770115828932205
 30
0.0
 10
-3.280215588587623
 20
2.770124737323385
 30
0.0
  0
LINE
  5
2140A
330
1F
100
AcDbEntity
  8
SK1
 48
0.002888
100
AcDbLine
 10
-2.777862999999967
 20
-1.476128000000016
 30
0.0
 11
-2.789260000000183
 21
-1.361154999999996
 31
0.0
  0
LINE
  5
2140B
330
1F
100
AcDbEntity
  8
SK1
 48
0.009372
100
AcDbLine
 10
-2.587161999999977
 20
-1.538026000000002
 30
0.0
 11
-2.621341000000199
 21
-1.164714000000003
 31
0.0
  0
SPLINE
  5
2140C
330
1F
100
AcDbEntity
  8
SK1
100
AcDbSpline
210
0.0
220
0.0
230
1.0
 70
     8
 71
     5
 72
    18
 73
    12
 74
     0
 42
0.000000001
 43
0.0000000001
 40
0.0
 40
0.0
 40
0.0
 40
0.0
 40
0.0
 40
0.0
 40
3.446177326421781
 40
3.446177326421781
 40
3.446177326421781
 40
6.642217995743227
 40
6.642217995743227
 40
6.642217995743227
 40
7.919057203614088
 40
7.919057203614088
 40
7.919057203614088
 40
7.919057203614088
 40
7.919057203614088
 40
7.919057203614088
 10
-3.112268513332026
 20
-1.383308188983392
 30
0.0
 10
-3.153360958522341
 20
-0.9652162023199934
 30
0.0
 10
-3.192589509391098
 20
-0.5119637186797945
 30
0.0
 10
-3.230179041076269
 20
-0.0613915893969761
 30
0.0
 10
-3.304447113205412
 20
0.8280173665749543
 30
0.0
 10
-3.382771091830989
 20
1.652059245026691
 30
0.0
 10
-3.423103917068772
 20
2.029604257626374
 30
0.0
 10
-3.482815841388571
 20
2.469342249606313
 30
0.0
 10
-3.547962290207749
 20
2.701217081934089
 30
0.0
 10
-3.566939344246009
 20
2.747302464027029
 30
0.0
 10
-3.586147294291265
 20
2.770308716823876
 30
0.0
 10
-3.605346050677496
 20
2.770331527531368
 30
0.0
  0
SPLINE
  5
2140D
330
1F
100
AcDbEntity
  8
SK1
100
AcDbSpline
210
0.0
220
0.0
230
1.0
 70
     8
 71
     5
 72
    15
 73
     9
 74
     0
 42
0.000000001
 43
0.0000000001
 40
0.0
 40
0.0
 40
0.0
 40
0.0
 40
0.0
 40
0.0
 40
5.279966308676774
 40
5.279966308676774
 40
5.279966308676774
 40
7.153006760612709
 40
7.153006760612709
 40
7.153006760612709
 40
7.153006760612709
 40
7.153006760612709
 40
7.153006760612709
 10
-3.314346273722719
 20
-1.341892638798071
 30
0.0
 10
-3.374761870065583
 20
-0.6792517319455556
 30
0.0
 10
-3.431242162984005
 20
0.0518895571418625
 30
0.0
 10
-3.487205385270669
 20
0.7653814449473657
 30
0.0
 10
-3.566594048252852
 20
1.728955185475285
 30
0.0
 10
-3.658093879550676
 20
2.438581101768534
 30
0.0
 10
-3.683203508259964
 20
2.602175567810718
 30
0.0
 10
-3.709297642896842
 20
2.730391273219652
 30
0.0
 10
-3.736127341139933
 20
2.815244427858829
 30
0.0
  0
LINE
  5
2140E
330
1F
100
AcDbEntity
  8
SK1
 48
0.006106
100
AcDbLine
 10
-3.291558999999949
 20
-1.585067999999978
 30
0.0
 11
-3.314345999999829
 21
-1.341893000000027
 31
0.0
  0
LINE
  5
2140F
330
1F
100
AcDbEntity
  8
SK1
 48
0.002873
100
AcDbLine
 10
-3.100871000000267
 20
-1.497658000000001
 30
0.0
 11
-3.112268999999912
 21
-1.383307999999999
 31
0.0
  0
SPLINE
  5
21410
330
1F
100
AcDbEntity
  8
SK1
100
AcDbSpline
210
0.0
220
0.0
230
1.0
 70
     8
 71
     5
 72
    18
 73
    12
 74
     0
 42
0.000000001
 43
0.0000000001
 40
0.0
 40
0.0
 40
0.0
 40
0.0
 40
0.0
 40
0.0
 40
3.257339823986908
 40
3.257339823986908
 40
3.257339823986908
 40
7.025969597771488
 40
7.025969597771488
 40
7.025969597771488
 40
7.598081022528063
 40
7.598081022528063
 40
7.598081022528063
 40
7.598081022528063
 40
7.598081022528063
 40
7.598081022528063
 10
-3.369900410269281
 20
-1.42658628304116
 30
0.0
 10
-3.405120951251944
 20
-1.016604143273639
 30
0.0
 10
-3.4390079234592
 20
-0.5810193991168262
 30
0.0
 10
-3.4718206941331
 20
-0.1446165910531363
 30
0.0
 10
-3.543614046367281
 20
0.8127310399804628
 30
0.0
 10
-3.618429642937542
 20
1.720153785876107
 30
0.0
 10
-3.661596941322102
 20
2.189832494008442
 30
0.0
 10
-3.714447809319324
 20
2.644936638976503
 30
0.0
 10
-3.771978358123021
 20
2.916803352518968
 30
0.0
 10
-3.779665859992462
 20
2.949304810035073
 30
0.0
 10
-3.78739785770557
 20
2.977987125287086
 30
0.0
 10
-3.795190920103948
 20
3.00275116213362
 30
0.0
  0
LINE
  5
21411
330
1F
100
AcDbEntity
  8
SK1
 48
0.00027
100
AcDbLine
 10
-3.920112999999844
 20
3.180000000000006
 30
0.0
 11
-3.909752000000196
 21
3.176946999999984
 31
0.0
  0
SPLINE
  5
21412
330
1F
100
AcDbEntity
  8
SK1
100
AcDbSpline
210
0.0
220
0.0
230
1.0
 70
     8
 71
     5
 72
    18
 73
    12
 74
     0
 42
0.000000001
 43
0.0000000001
 40
0.0
 40
0.0
 40
0.0
 40
0.0
 40
0.0
 40
0.0
 40
1.758563157698673
 40
1.758563157698673
 40
1.758563157698673
 40
6.764968375391847
 40
6.764968375391847
 40
6.764968375391847
 40
8.075236557977619
 40
8.075236557977619
 40
8.075236557977619
 40
8.075236557977619
 40
8.075236557977619
 40
8.075236557977619
 10
-3.909751585656692
 20
3.176946855822336
 30
0.0
 10
-3.883778136178705
 20
3.161637359984354
 30
0.0
 10
-3.858014654924033
 20
3.09846217606389
 30
0.0
 10
-3.833063865463998
 20
2.989215628868976
 30
0.0
 10
-3.74148038670836
 20
2.446153559711262
 30
0.0
 10
-3.66426714765538
 20
1.539716912645019
 30
0.0
 10
-3.61153951875957
 20
0.8455538261292758
 30
0.0
 10
-3.54661086824916
 20
-0.061035452475835
 30
0.0
 10
-3.479559031157975
 20
-0.9384172286056582
 30
0.0
 10
-3.465502130159336
 20
-1.118539830592396
 30
0.0
 10
-3.451260146120318
 20
-1.295788049881309
 30
0.0
 10
-3.436766200150202
 20
-1.469134585286212
 30
0.0
  0
LINE
  5
21413
330
1F
100
AcDbEntity
  8
SK1
 48
0.000262
100
AcDbLine
 10
-3.703680000000247
 20
-3.180000000000006
 30
0.0
 11
-3.713742000000081
 21
-3.177100999999993
 31
0.0
  0
SPLINE
  5
21414
330
1F
100
AcDbEntity
  8
SK1
100
AcDbSpline
210
0.0
220
0.0
230
1.0
 70
     8
 71
     5
 72
    15
 73
     9
 74
     0
 42
0.000000001
 43
0.0000000001
 40
0.0
 40
0.0
 40
0.0
 40
0.0
 40
0.0
 40
0.0
 40
1.653137831996248
 40
1.653137831996248
 40
1.653137831996248
 40
7.575514728591683
 40
7.575514728591683
 40
7.575514728591683
 40
7.575514728591683
 40
7.575514728591683
 40
7.575514728591683
 10
-3.713741714102241
 20
-3.17710056002187
 30
0.0
 10
-3.738079564515089
 20
-3.163074461634664
 30
0.0
 10
-3.762266185617306
 20
-3.106736775314516
 30
0.0
 10
-3.785777106904049
 20
-3.009558945075298
 30
0.0
 10
-3.889086653018864
 20
-2.428443474109656
 30
0.0
 10
-3.974240228135556
 20
-1.363106844236426
 30
0.0
 10
-4.035258450507342
 20
-0.5337204901171618
 30
0.0
 10
-4.095360317147139
 20
0.3285646091114813
 30
0.0
 10
-4.159325148866344
 20
1.134775658886326
 30
0.0
  0
SPLINE
  5
21415
330
1F
100
AcDbEntity
  8
SK1
100
AcDbSpline
210
0.0
220
0.0
230
1.0
 70
     8
 71
     5
 72
    18
 73
    12
 74
     0
 42
0.000000001
 43
0.0000000001
 40
0.0
 40
0.0
 40
0.0
 40
0.0
 40
0.0
 40
0.0
 40
2.571093864197724
 40
2.571093864197724
 40
2.571093864197724
 40
3.828027290359695
 40
3.828027290359695
 40
3.828027290359695
 40
3.964749362507004
 40
3.964749362507004
 40
3.964749362507004
 40
3.964749362507004
 40
3.964749362507004
 40
3.964749362507004
 10
-3.436766200150202
 20
-1.469134585286212
 30
0.0
 10
-3.408325232074901
 20
-1.80928648661677
 30
0.0
 10
-3.378914041441191
 20
-2.134414093974442
 30
0.0
 10
-3.347746221108252
 20
-2.44011534971139
 30
0.0
 10
-3.298654335044545
 20
-2.832436877804923
 30
0.0
 10
-3.245064594855364
 20
-3.072348893963066
 30
0.0
 10
-3.227011653292436
 20
-3.131278583810967
 30
0.0
 10
-3.206652864526574
 20
-3.17023991870343
 30
0.0
 10
-3.186214416138398
 20
-3.179127482508704
 30
0.0
 10
-3.184208113508873
 20
-3.179709248399035
 30
0.0
 10
-3.182202397514345
 20
-3.180000000000006
 30
0.0
 10
-3.180196813600275
 20
-3.180000000000006
 30
0.0
  0
LINE
  5
21416
330
1F
100
AcDbEntity
  8
SK1
 48
0.013087
100
AcDbLine
 10
-3.18019699999985
 20
-3.180000000000006
 30
0.0
 11
-3.703680000000247
 21
-3.180000000000006
 31
0.0
  0
SPLINE
  5
21417
330
1F
100
AcDbEntity
  8
SK1
100
AcDbSpline
210
0.0
220
0.0
230
1.0
 70
     8
 71
     5
 72
    21
 73
    15
 74
     0
 42
0.000000001
 43
0.0000000001
 40
0.0
 40
0.0
 40
0.0
 40
0.0
 40
0.0
 40
0.0
 40
3.143625263174518
 40
3.143625263174518
 40
3.143625263174518
 40
7.090380646846289
 40
7.090380646846289
 40
7.090380646846289
 40
8.779101007649035
 40
8.779101007649035
 40
8.779101007649035
 40
9.463096072666683
 40
9.463096072666683
 40
9.463096072666683
 40
9.463096072666683
 40
9.463096072666683
 40
9.463096072666683
 10
-2.554385318105403
 20
-1.369192723189428
 30
0.0
 10
-2.587306451950723
 20
-0.981983673302011
 30
0.0
 10
-2.619170217426642
 20
-0.572762466481322
 30
0.0
 10
-2.650558603809429
 20
-0.1561605155314965
 30
0.0
 10
-2.721257938786663
 20
0.7849793351272183
 30
0.0
 10
-2.79448073258635
 20
1.68055647719558
 30
0.0
 10
-2.838168519204998
 20
2.160794036755362
 30
0.0
 10
-2.904175213270434
 20
2.736159441672157
 30
0.0
 10
-2.976941445504223
 20
3.028451938886178
 30
0.0
 10
-2.999255252637965
 20
3.084900201099628
 30
0.0
 10
-3.030992839873931
 20
3.11301805765089
 30
0.0
 10
-3.062495447180197
 20
3.071992182018846
 30
0.0
 10
-3.071584395295474
 20
3.054399318225932
 30
0.0
 10
-3.080561483621465
 20
3.031477464127704
 30
0.0
 10
-3.089461758678396
 20
3.003470768878059
 30
0.0
  0
SPLINE
  5
21418
330
1F
100
AcDbEntity
  8
SK1
100
AcDbSpline
210
0.0
220
0.0
230
1.0
 70
     8
 71
     5
 72
    15
 73
     9
 74
     0
 42
0.000000001
 43
0.0000000001
 40
0.0
 40
0.0
 40
0.0
 40
0.0
 40
0.0
 40
0.0
 40
1.911339483202759
 40
1.911339483202759
 40
1.911339483202759
 40
2.845555020268177
 40
2.845555020268177
 40
2.845555020268177
 40
2.845555020268177
 40
2.845555020268177
 40
2.845555020268177
 10
-2.409094698338947
 20
-2.815024672063998
 30
0.0
 10
-2.435423543591411
 20
-2.731962736938612
 30
0.0
 10
-2.461101274195868
 20
-2.607002578225376
 30
0.0
 10
-2.48589648665137
 20
-2.447308480154049
 30
0.0
 10
-2.521278371363848
 20
-2.175370321009893
 30
0.0
 10
-2.554938313221271
 20
-1.863918090439483
 30
0.0
 10
-2.56583561238466
 20
-1.757968289228074
 30
0.0
 10
-2.576565110510443
 20
-1.649225066719395
 30
0.0
 10
-2.587161805769198
 20
-1.538025907716814
 30
0.0
  0
SPLINE
  5
21419
330
1F
100
AcDbEntity
  8
SK1
100
AcDbSpline
210
0.0
220
0.0
230
1.0
 70
     8
 71
     5
 72
    15
 73
     9
 74
     0
 42
0.000000001
 43
0.0000000001
 40
0.0
 40
0.0
 40
0.0
 40
0.0
 40
0.0
 40
0.0
 40
1.450859508816759
 40
1.450859508816759
 40
1.450859508816759
 40
3.540472231068463
 40
3.540472231068463
 40
3.540472231068463
 40
3.540472231068463
 40
3.540472231068463
 40
3.540472231068463
 10
-2.540247378002447
 20
-2.770110469819542
 30
0.0
 10
-2.561569775609939
 20
-2.770120850101307
 30
0.0
 10
-2.582892816139235
 20
-2.74179127352329
 30
0.0
 10
-2.603916752909924
 20
-2.685090282775092
 30
0.0
 10
-2.654049181681955
 20
-2.48784334365672
 30
0.0
 10
-2.700970758327173
 20
-2.172107488371352
 30
0.0
 10
-2.727572092116758
 20
-1.956054778909333
 30
0.0
 10
-2.753072597452671
 20
-1.722490899214449
 30
0.0
 10
-2.777863268325006
 20
-1.476127701747486
 30
0.0
  0
SPLINE
  5
2141A
330
1F
100
AcDbEntity
  8
SK1
100
AcDbSpline
210
0.0
220
0.0
230
1.0
 70
     8
 71
     5
 72
    15
 73
     9
 74
     0
 42
0.000000001
 43
0.0000000001
 40
0.0
 40
0.0
 40
0.0
 40
0.0
 40
0.0
 40
0.0
 40
1.408091187570774
 40
1.408091187570774
 40
1.408091187570774
 40
3.442620012864348
 40
3.442620012864348
 40
3.442620012864348
 40
3.442620012864348
 40
3.442620012864348
 40
3.442620012864348
 10
-2.865398648167854
 20
-2.770351248237261
 30
0.0
 10
-2.886534125446985
 20
-2.77037661820583
 30
0.0
 10
-2.907670280986337
 20
-2.742550220834687
 30
0.0
 10
-2.928503361081482
 20
-2.686842692283732
 30
0.0
 10
-2.978248583526408
 20
-2.492831175516926
 30
0.0
 10
-3.024737637818986
 20
-2.182407141758403
 30
0.0
 10
-3.051102062568759
 20
-1.969815597173862
 30
0.0
 10
-3.076350755171631
 20
-1.740063302155476
 30
0.0
 10
-3.100870521902095
 20
-1.497657843565605
 30
0.0
  0
SPLINE
  5
2141B
330
1F
100
AcDbEntity
  8
SK1
100
AcDbSpline
210
0.0
220
0.0
230
1.0
 70
     8
 71
     5
 72
    18
 73
    12
 74
     0
 42
0.000000001
 43
0.0000000001
 40
0.0
 40
0.0
 40
0.0
 40
0.0
 40
0.0
 40
0.0
 40
1.490026996799334
 40
1.490026996799334
 40
1.490026996799334
 40
3.166160483984435
 40
3.166160483984435
 40
3.166160483984435
 40
4.238818103539531
 40
4.238818103539531
 40
4.238818103539531
 40
4.238818103539531
 40
4.238818103539531
 40
4.238818103539531
 10
-3.004537851937755
 20
-2.839905111176108
 30
0.0
 10
-3.026004251368874
 20
-2.898622286961142
 30
0.0
 10
-3.04788706912376
 20
-2.929022707208901
 30
0.0
 10
-3.069880065094992
 20
-2.926967957311603
 30
0.0
 10
-3.116312243263735
 20
-2.854006861847608
 30
0.0
 10
-3.16077183135593
 20
-2.654724603905037
 30
0.0
 10
-3.183532278541576
 20
-2.519318204728108
 30
0.0
 10
-3.219373543766948
 20
-2.263392584210293
 30
0.0
 10
-3.25328622572141
 20
-1.963858014939717
 30
0.0
 10
-3.266285679785767
 20
-1.841369280719902
 30
0.0
 10
-3.279020687929175
 20
-1.71492729120132
 30
0.0
 10
-3.291558768299353
 20
-1.585067922279222
 30
0.0
  0
SPLINE
  5
2141C
330
1F
100
AcDbEntity
  8
SK1
100
AcDbSpline
210
0.0
220
0.0
230
1.0
 70
     8
 71
     5
 72
    18
 73
    12
 74
     0
 42
0.000000001
 43
0.0000000001
 40
0.0
 40
0.0
 40
0.0
 40
0.0
 40
0.0
 40
0.0
 40
1.370958413454602
 40
1.370958413454602
 40
1.370958413454602
 40
3.284873572855738
 40
3.284873572855738
 40
3.284873572855738
 40
4.963907625686382
 40
4.963907625686382
 40
4.963907625686382
 40
4.963907625686382
 40
4.963907625686382
 40
4.963907625686382
 10
-3.055101242135322
 20
-3.002326637814917
 30
0.0
 10
-3.073747260530751
 20
-3.061638901055005
 30
0.0
 10
-3.092736250153109
 20
-3.09853657425657
 30
0.0
 10
-3.111889810439322
 20
-3.109956207046195
 30
0.0
 10
-3.157753193481937
 20
-3.074242796296971
 30
0.0
 10
-3.202245913905414
 20
-2.900205456897367
 30
0.0
 10
-3.227301297807741
 20
-2.757380767349388
 30
0.0
 10
-3.27226021461837
 20
-2.437127013292524
 30
0.0
 10
-3.314150243739902
 20
-2.040983533771111
 30
0.0
 10
-3.333229327053402
 20
-1.843216133223222
 30
0.0
 10
-3.351745568936792
 20
-1.637916390097473
 30
0.0
 10
-3.369900410269281
 20
-1.42658628304116
 30
0.0
  0
LINE
  5
2141D
330
1F
100
AcDbEntity
  8
SK1
 48
0.000269
100
AcDbLine
 10
-3.18019699999985
 20
-3.180000000000006
 30
0.0
 11
-3.169861000000025
 21
-3.176972999999975
 31
0.0
  0
LINE
  5
2141E
330
1F
100
AcDbEntity
  8
SK1
 48
0.00026
100
AcDbLine
 10
-2.963663000000167
 20
3.180000000000006
 30
0.0
 11
-2.973662000000047
 21
3.177139000000011
 31
0.0
  0
LINE
  5
2141F
102
{ACAD_REACTORS
330
21517
102
}
330
1F
100
AcDbEntity
  8
SK1
 48
0.013087
100
AcDbLine
 10
-2.440185999999982
 20
3.180000000000006
 30
0.0
 11
-2.963663000000167
 21
3.180000000000006
 31
0.0
  0
SPLINE
  5
21420
330
1F
100
AcDbEntity
  8
SK1
100
AcDbSpline
210
0.0
220
0.0
230
1.0
 70
     8
 71
     5
 72
    21
 73
    15
 74
     0
 42
0.000000001
 43
0.0000000001
 40
0.0
 40
0.0
 40
0.0
 40
0.0
 40
0.0
 40
0.0
 40
4.506140092389492
 40
4.506140092389492
 40
4.506140092389492
 40
6.896353739512063
 40
6.896353739512063
 40
6.896353739512063
 40
8.103326902484987
 40
8.103326902484987
 40
8.103326902484987
 40
8.142425114462604
 40
8.142425114462604
 40
8.142425114462604
 40
8.142425114462604
 40
8.142425114462604
 40
8.142425114462604
 10
-2.486340148226361
 20
-1.402545568764594
 30
0.0
 10
-2.535826601703035
 20
-0.8024074191300769
 30
0.0
 10
-2.582449467454978
 20
-0.1591227730081073
 30
0.0
 10
-2.627289856335835
 20
0.4649630824333145
 30
0.0
 10
-2.699485787027867
 20
1.441701272581667
 30
0.0
 10
-2.780079304536855
 20
2.284709800941698
 30
0.0
 10
-2.809727382729022
 20
2.556536463310692
 30
0.0
 10
-2.856870434931522
 20
2.902137859181721
 30
0.0
 10
-2.9078777076449
 20
3.103170255338795
 30
0.0
 10
-2.92536949060576
 20
3.151240474261669
 30
0.0
 10
-2.94366144799477
 20
3.177655399091179
 30
0.0
 10
-2.96194225994003
 20
3.179928666987052
 30
0.0
 10
-2.962515859790244
 20
3.17997622290153
 30
0.0
 10
-2.963089416164791
 20
3.180000000000006
 30
0.0
 10
-2.963662939462381
 20
3.180000000000006
 30
0.0
  0
SPLINE
  5
21421
330
1F
100
AcDbEntity
  8
SK1
100
AcDbSpline
210
0.0
220
0.0
230
1.0
 70
     8
 71
     5
 72
    15
 73
     9
 74
     0
 42
0.000000001
 43
0.0000000001
 40
0.0
 40
0.0
 40
0.0
 40
0.0
 40
0.0
 40
0.0
 40
1.986464280238891
 40
1.986464280238891
 40
1.986464280238891
 40
3.509880926578968
 40
3.509880926578968
 40
3.509880926578968
 40
3.509880926578968
 40
3.509880926578968
 40
3.509880926578968
 10
-2.349675207273037
 20
-3.002817120363488
 30
0.0
 10
-2.375549060272248
 20
-2.921004754301634
 30
0.0
 10
-2.400821277537659
 20
-2.795819533080077
 30
0.0
 10
-2.425246674054676
 20
-2.634218557165979
 30
0.0
 10
-2.466640867996545
 20
-2.305451504306006
 30
0.0
 10
-2.505640613325056
 20
-1.917237772400767
 30
0.0
 10
-2.522222689570469
 20
-1.739899408790734
 30
0.0
 10
-2.538431570721684
 20
-1.556836180290417
 30
0.0
 10
-2.554385318105403
 20
-1.369192723189428
 30
0.0
  0
LINE
  5
21422
330
1F
100
AcDbEntity
  8
SK1
 48
0.000262
100
AcDbLine
 10
-2.223603999999966
 20
-3.180000000000006
 30
0.0
 11
-2.233664999999916
 21
-3.177118000000007
 31
0.0
  0
SPLINE
  5
21423
330
1F
100
AcDbEntity
  8
SK1
100
AcDbSpline
210
0.0
220
0.0
230
1.0
 70
     8
 71
     5
 72
    18
 73
    12
 74
     0
 42
0.000000001
 43
0.0000000001
 40
0.0
 40
0.0
 40
0.0
 40
0.0
 40
0.0
 40
0.0
 40
1.206493793227106
 40
1.206493793227106
 40
1.206493793227106
 40
3.624905715506852
 40
3.624905715506852
 40
3.624905715506852
 40
3.930000653681569
 40
3.930000653681569
 40
3.930000653681569
 40
3.930000653681569
 40
3.930000653681569
 40
3.930000653681569
 10
-2.233665272313544
 20
-3.177118089892587
 30
0.0
 10
-2.251482092615958
 20
-3.166912820744926
 30
0.0
 10
-2.269226029982007
 20
-3.13417173987267
 30
0.0
 10
-2.286676096494545
 20
-3.079486424286926
 30
0.0
 10
-2.337817280264232
 20
-2.859373947979179
 30
0.0
 10
-2.384804577643706
 20
-2.49911117545804
 30
0.0
 10
-2.414453175457481
 20
-2.218677359320793
 30
0.0
 10
-2.445966496926473
 20
-1.880893265524207
 30
0.0
 10
-2.476248088882755
 20
-1.523841340041371
 30
0.0
 10
-2.479625912043672
 20
-1.483614263191611
 30
0.0
 10
-2.482989594059006
 20
-1.443178817599516
 30
0.0
 10
-2.486340148226361
 20
-1.402545568764594
 30
0.0
  0
SPLINE
  5
21424
330
1F
100
AcDbEntity
  8
SK1
100
AcDbSpline
210
0.0
220
0.0
230
1.0
 70
     8
 71
     5
 72
    12
 73
     6
 74
     0
 42
0.000000001
 43
0.0000000001
 40
0.0
 40
0.0
 40
0.0
 40
0.0
 40
0.0
 40
0.0
 40
0.8651108283400949
 40
0.8651108283400949
 40
0.8651108283400949
 40
0.8651108283400949
 40
0.8651108283400949
 40
0.8651108283400949
 10
-1.552542186871221
 20
3.093911087826427
 30
0.0
 10
-1.564035728344322
 20
3.093696157802355
 30
0.0
 10
-1.575532130473845
 20
3.08434571010116
 30
0.0
 10
-1.587089053848274
 20
3.065610542010801
 30
0.0
 10
-1.598458553597254
 20
3.038199887988071
 30
0.0
 10
-1.60971415740795
 20
3.002583518825758
 30
0.0
  0
ELLIPSE
  5
21425
330
1F
100
AcDbEntity
  8
SK1
100
AcDbEllipse
 10
-1.409538999999938
 20
3.049983999999994
 30
0.0
 11
-0.00000000000315
 21
-0.1500000059604645
 31
0.0
210
0.0
220
0.0
230
1.0
 40
0.9969319999999996
 41
3.66381900817104
 42
4.415685319450336
  0
LINE
  5
21426
330
1F
100
AcDbEntity
  8
SK1
 48
0.000244
100
AcDbLine
 10
-1.484254000000134
 20
3.179990999999972
 30
0.0
 11
-1.493579000000124
 21
3.177168999999992
 31
0.0
  0
LINE
  5
21427
330
1F
100
AcDbEntity
  8
SK1
 48
0.002453
100
AcDbLine
 10
-1.552539999999851
 20
3.093856000000016
 30
0.0
 11
-1.58114600000016
 21
3.0
 31
0.0
  0
SPLINE
  5
21428
330
1F
100
AcDbEntity
  8
SK1
100
AcDbSpline
210
0.0
220
0.0
230
1.0
 70
     8
 71
     5
 72
    12
 73
     6
 74
     0
 42
0.000000001
 43
0.0000000001
 40
0.0
 40
0.0
 40
0.0
 40
0.0
 40
0.0
 40
0.0
 40
0.7526180981813494
 40
0.7526180981813494
 40
0.7526180981813494
 40
0.7526180981813494
 40
0.7526180981813494
 40
0.7526180981813494
 10
-1.608114729620581
 20
2.911577786455438
 30
0.0
 10
-1.618713351002668
 20
2.911581488540264
 30
0.0
 10
-1.629315011582718
 20
2.904275088138092
 30
0.0
 10
-1.639965518027736
 20
2.889484305478219
 30
0.0
 10
-1.650469737454557
 20
2.867680131492591
 30
0.0
 10
-1.660883980988899
 20
2.839189844688974
 30
0.0
  0
LINE
  5
21429
330
1F
100
AcDbEntity
  8
SK1
 48
0.002312
100
AcDbLine
 10
-1.58114600000016
 20
3.0
 30
0.0
 11
-1.608112000000062
 21
2.91152599999998
 31
0.0
  0
ELLIPSE
  5
2142A
330
1F
100
AcDbEntity
  8
SK1
100
AcDbEllipse
 10
-1.79878699999989
 20
2.970000000000027
 30
0.0
 11
0.0000000000041631
 21
0.2000000029802322
 31
0.0
210
0.0
220
0.0
230
1.0
 40
0.9969319999999999
 41
3.813136604551529
 42
4.415685319602768
  0
LINE
  5
2142B
330
1F
100
AcDbEntity
  8
SK1
 48
0.000127
100
AcDbLine
 10
-2.440185999999982
 20
3.180000000000006
 30
0.0
 11
-2.435157999999944
 21
3.179295000000024
 31
0.0
  0
ARC
  5
2142C
330
1F
100
AcDbEntity
  8
SK1
100
AcDbCircle
 10
-2.481003999999927
 20
2.981720999999993
 30
0.0
 40
0.202833
100
AcDbArc
 50
36.4821640000116
 51
76.92773999999713
  0
ARC
  5
2142D
330
1F
100
AcDbEntity
  8
SK1
100
AcDbCircle
 10
-3.754662999999879
 20
2.147778000000016
 30
0.0
 40
1.724913999999999
100
AcDbArc
 50
27.28831599999824
 51
33.59890100000732
  0
LINE
  5
2142E
330
1F
100
AcDbEntity
  8
SK1
 48
0.001019
100
AcDbLine
 10
-2.199200000000189
 20
2.904622000000017
 30
0.0
 11
-2.22157900000019
 21
2.938666000000011
 31
0.0
  0
ARC
  5
2142F
330
1F
100
AcDbEntity
  8
SK1
100
AcDbCircle
 10
-2.006990999999914
 20
3.057373999999981
 30
0.0
 40
0.245548
100
AcDbArc
 50
218.4749269999938
 51
269.6394679999988
  0
LINE
  5
21430
330
1F
100
AcDbEntity
  8
SK1
 48
0.00812
100
AcDbLine
 10
-1.683721999999931
 20
2.813253999999972
 30
0.0
 11
-2.008535999999992
 21
2.811914999999999
 31
0.0
  0
ELLIPSE
  5
21431
330
1F
100
AcDbEntity
  8
SK1
100
AcDbEllipse
 10
-1.608112000000062
 20
27.76999899999998
 30
0.0
 11
-0.0000000000000046
 21
-24.85847282409668
 31
0.0
210
0.0
220
0.0
230
1.0
 40
0.078276
 41
0.0000000000000012
 42
0.0487354565031687
  0
ARC
  5
21432
330
1F
100
AcDbEntity
  8
SK1
100
AcDbCircle
 10
-1.681861000000196
 20
3.008057000000007
 30
0.0
 40
0.194739
100
AcDbArc
 50
269.4525189999883
 51
304.3615079999988
  0
ARC
  5
21433
330
1F
100
AcDbEntity
  8
SK1
100
AcDbCircle
 10
-1.654506000000026
 20
2.96461099999999
 30
0.0
 40
0.143333
100
AcDbArc
 50
305.1372470000073
 51
345.3859660000021
  0
LINE
  5
21434
330
1F
100
AcDbEntity
  8
SK1
 48
0.000321
100
AcDbLine
 10
-1.515782999999998
 20
2.928440000000023
 30
0.0
 11
-1.513320000000192
 21
2.941040999999984
 31
0.0
  0
LINE
  5
21435
330
1F
100
AcDbEntity
  8
SK1
 48
0.001994
100
AcDbLine
 10
-1.502976999999816
 20
3.020138999999971
 30
0.0
 11
-1.513320000000192
 21
2.941040999999984
 31
0.0
  0
ELLIPSE
  5
21436
330
1F
100
AcDbEntity
  8
SK1
100
AcDbEllipse
 10
-1.552545000000179
 20
27.76999899999998
 30
0.0
 11
-0.0000000000000045
 21
-24.6761589050293
 31
0.0
210
0.0
220
0.0
230
1.0
 40
0.078276
 41
6.283185307179584
 42
6.31143057195188
  0
ARC
  5
21437
330
1F
100
AcDbEntity
  8
SK1
100
AcDbCircle
 10
-2.269813000000056
 20
3.108739000000014
 30
0.0
 40
0.7718850000000002
100
AcDbArc
 50
353.4092859999994
 51
359.6255780000005
  0
SPLINE
  5
21438
330
1F
100
AcDbEntity
  8
SK1
100
AcDbSpline
210
0.0
220
0.0
230
1.0
 70
     8
 71
     5
 72
    12
 73
     6
 74
     0
 42
0.000000001
 43
0.0000000001
 40
0.0
 40
0.0
 40
0.0
 40
0.0
 40
0.0
 40
0.0
 40
0.7013679407271743
 40
0.7013679407271743
 40
0.7013679407271743
 40
0.7013679407271743
 40
0.7013679407271743
 40
0.7013679407271743
 10
-1.483518631928916
 20
3.180000000000006
 30
0.0
 10
-1.47234450166951
 20
3.180000000000006
 30
0.0
 10
-1.478483454030254
 20
3.172364164921248
 30
0.0
 10
-1.490901293044032
 20
3.156499663587851
 30
0.0
 10
-1.498033469345671
 20
3.133518711490296
 30
0.0
 10
-1.497995250197789
 20
3.103680467991125
 30
0.0
  0
LINE
  5
21439
330
1F
100
AcDbEntity
  8
SK1
 48
0.000588
100
AcDbLine
 10
-1.460000000000206
 20
3.180000000000006
 30
0.0
 11
-1.483519000000057
 21
3.180000000000006
 31
0.0
  0
LINE
  5
2143A
330
1F
100
AcDbEntity
  8
SK1
 48
0.01909
100
AcDbLine
 10
-1.460000000000206
 20
-3.180000000000006
 30
0.0
 11
-2.223603999999966
 21
-3.180000000000006
 31
0.0
  0
LINE
  5
2143B
330
1F
100
AcDbEntity
  8
SK1
 48
0.159
100
AcDbLine
 10
-1.460000000000206
 20
-3.180000000000006
 30
0.0
 11
-1.460000000000206
 21
3.180000000000006
 31
0.0
  0
ARC
  5
2143C
330
1F
100
AcDbEntity
  8
SK1
100
AcDbCircle
 10
-1.460000000000206
 20
-3.279999999999972
 30
0.0
 40
0.1
100
AcDbArc
 50
0.0
 51
90.0
  0
ARC
  5
2143D
330
1F
100
AcDbEntity
  8
SK1
100
AcDbCircle
 10
-1.460000000000206
 20
3.279999999999972
 30
0.0
 40
0.1
100
AcDbArc
 50
270.0
 51
0.0
  0
LINE
  5
2143E
330
1F
100
AcDbEntity
  8
SK1
 48
0.165996
100
AcDbLine
 10
-1.359999999999843
 20
3.319929000000001
 30
0.0
 11
-1.359999999999843
 21
-3.319929000000001
 31
0.0
  0
LINE
  5
2143F
330
1F
100
AcDbEntity
  8
SK1
 48
0.029302
100
AcDbLine
 10
-0.1895329999999262
 20
3.381271000000026
 30
0.0
 11
-1.359999999999843
 21
3.319929000000001
 31
0.0
  0
LINE
  5
21440
330
1F
100
AcDbEntity
  8
SK1
 48
0.029302
100
AcDbLine
 10
-0.1895329999999262
 20
-3.381271000000026
 30
0.0
 11
-1.359999999999843
 21
-3.319929000000001
 31
0.0
  0
LINE
  5
21441
330
1F
100
AcDbEntity
  8
SK1
 48
0.169064
100
AcDbLine
 10
-0.1895329999999262
 20
-3.381271000000026
 30
0.0
 11
-0.1895329999999262
 21
3.381271000000026
 31
0.0
  0
ARC
  5
21442
330
1F
100
AcDbEntity
  8
SK1
100
AcDbCircle
 10
-0.1999999999999886
 20
3.580997000000024
 30
0.0
 40
0.2
100
AcDbArc
 50
273.0000000000056
 51
0.0
  0
ARC
  5
21443
330
1F
100
AcDbEntity
  8
SK1
100
AcDbCircle
 10
-0.1999999999999886
 20
-3.580997000000024
 30
0.0
 40
0.2
100
AcDbArc
 50
0.0
 51
86.99999999999439
  0
LINE
  5
21444
330
1F
100
AcDbEntity
  8
1
 48
0.013494
100
AcDbLine
 10
-0.0000000000001705
 20
4.409027999999977
 30
0.0
 11
-0.0000000000001705
 21
3.869286999999985
 31
0.0
  0
LINE
  5
21445
330
1F
100
AcDbEntity
  8
1
 48
0.206958
100
AcDbLine
 10
-0.0000000000001705
 20
3.869286999999985
 30
0.0
 11
-0.0000000000001705
 21
-4.409027999999977
 31
0.0
  0
LINE
  5
21446
330
1F
100
AcDbEntity
  8
1
 48
0.013529
100
AcDbLine
 10
0.0750000000001023
 20
3.879392999999993
 30
0.0
 11
0.0750000000001023
 21
4.420544000000006
 31
0.0
  0
LINE
  5
21447
330
1F
100
AcDbEntity
  8
1
 48
0.207498
100
AcDbLine
 10
0.0750000000001023
 20
-4.420544000000006
 30
0.0
 11
0.0750000000001023
 21
3.879392999999993
 31
0.0
  0
LINE
  5
21448
330
1F
100
AcDbEntity
  8
1
 48
0.001191
100
AcDbLine
 10
0.3599999999999568
 20
-4.132615999999984
 30
0.0
 11
0.4076269999998772
 21
-4.132615999999984
 31
0.0
  0
LINE
  5
21449
330
1F
100
AcDbEntity
  8
1
 48
0.001017
100
AcDbLine
 10
0.3599999999999568
 20
-4.132615999999984
 30
0.0
 11
0.3599999999999568
 21
-4.091936999999973
 31
0.0
  0
LINE
  5
2144A
330
1F
100
AcDbEntity
  8
1
 48
0.055131
100
AcDbLine
 10
0.3599999999999568
 20
-4.132615999999984
 30
0.0
 11
0.3599999999999568
 21
-6.337853999999992
 31
0.0
  0
LINE
  5
2144B
330
1F
100
AcDbEntity
  8
1
 48
0.04017
100
AcDbLine
 10
0.3599999999999568
 20
-6.337853999999992
 30
0.0
 11
1.966785999999785
 21
-6.337853999999992
 31
0.0
  0
LINE
  5
2144C
330
1F
100
AcDbEntity
  8
1
 48
0.021972
100
AcDbLine
 10
1.674405999999919
 20
-5.50902400000001
 30
0.0
 11
1.966785999999785
 21
-6.337853999999992
 31
0.0
  0
LINE
  5
2144D
330
1F
100
AcDbEntity
  8
1
 48
0.031865
100
AcDbLine
 10
1.674405999999919
 20
-5.50902400000001
 30
0.0
 11
1.895871999999883
 21
-4.253799000000014
 31
0.0
  0
LINE
  5
2144E
330
1F
100
AcDbEntity
  8
1
 48
0.055165
100
AcDbLine
 10
0.3599999999999568
 20
4.131767000000024
 30
0.0
 11
0.3599999999999568
 21
1.925170999999977
 31
0.0
  0
LINE
  5
2144F
330
1F
100
AcDbEntity
  8
1
 48
0.04017
100
AcDbLine
 10
0.3599999999999568
 20
1.925170999999977
 30
0.0
 11
1.966785999999785
 21
1.925170999999977
 31
0.0
  0
LINE
  5
21450
330
1F
100
AcDbEntity
  8
1
 48
0.021984
100
AcDbLine
 10
1.674405999999919
 20
2.754511999999976
 30
0.0
 11
1.966785999999785
 21
1.925170999999977
 31
0.0
  0
LINE
  5
21451
330
1F
100
AcDbEntity
  8
1
 48
0.034963
100
AcDbLine
 10
1.674405999999919
 20
2.754511999999976
 30
0.0
 11
1.917252999999902
 21
4.131767000000024
 31
0.0
  0
LINE
  5
21452
330
1F
100
AcDbEntity
  8
1
 48
0.038931
100
AcDbLine
 10
0.3599999999999568
 20
4.131767000000024
 30
0.0
 11
1.917252999999902
 21
4.131767000000024
 31
0.0
  0
LINE
  5
21453
330
1F
100
AcDbEntity
  8
1
 48
0.041458
100
AcDbLine
 10
0.3599999999999568
 20
4.705025999999975
 30
0.0
 11
2.018334000000152
 21
4.705025999999975
 31
0.0
  0
LINE
  5
21454
330
1F
100
AcDbEntity
  8
1
 48
0.014553
100
AcDbLine
 10
2.018334000000152
 20
4.705025999999975
 30
0.0
 11
1.917252999999902
 21
4.131767000000024
 31
0.0
  0
LINE
  5
21455
330
1F
100
AcDbEntity
  8
1
 48
0.014331
100
AcDbLine
 10
0.3599999999999568
 20
4.131767000000024
 30
0.0
 11
0.3599999999999568
 21
4.705025999999975
 31
0.0
  0
LINE
  5
21456
330
1F
100
AcDbEntity
  8
1
 48
0.053318
100
AcDbLine
 10
0.183260999999959
 20
8.006346000000007
 30
0.0
 11
2.315981000000022
 21
8.006346000000007
 31
0.0
  0
SPLINE
  5
21457
330
1F
100
AcDbEntity
  8
1
100
AcDbSpline
210
0.0
220
0.0
230
1.0
 70
     8
 71
     5
 72
    18
 73
    12
 74
     0
 42
0.000000001
 43
0.0000000001
 40
0.0
 40
0.0
 40
0.0
 40
0.0
 40
0.0
 40
0.0
 40
0.6235146016619521
 40
0.6235146016619521
 40
0.6235146016619521
 40
1.222369889215188
 40
1.222369889215188
 40
1.222369889215188
 40
1.760252407043477
 40
1.760252407043477
 40
1.760252407043477
 40
1.760252407043477
 40
1.760252407043477
 40
1.760252407043477
 10
1.26681665754387
 20
8.849901612355552
 30
0.0
 10
1.372029798212963
 20
8.849901612355552
 30
0.0
 10
1.477493793215501
 20
8.836892887531405
 30
0.0
 10
1.580701360191881
 20
8.810630578027712
 30
0.0
 10
1.773671697575821
 20
8.734749416917452
 30
0.0
 10
1.941175345080694
 20
8.61678725275874
 30
0.0
 10
2.015525142995841
 20
8.550180639811799
 30
0.0
 10
2.140179273352543
 20
8.410289546667343
 30
0.0
 10
2.231986518652149
 20
8.250214500072956
 30
0.0
 10
2.267746290328261
 20
8.171032289132256
 30
0.0
 10
2.295737744845894
 20
8.089452542111189
 30
0.0
 10
2.315980701452019
 20
8.006345876075442
 30
0.0
  0
LINE
  5
21458
330
1F
100
AcDbEntity
  8
1
 48
0.000859
100
AcDbLine
 10
1.266817000000003
 20
8.849901999999985
 30
0.0
 11
1.232444999999927
 21
8.849901999999985
 31
0.0
  0
ELLIPSE
  5
21459
330
1F
100
AcDbEntity
  8
1
100
AcDbEllipse
 10
1.251852000000155
 20
7.709074999999984
 30
0.0
 11
0.265004426240921
 21
-1.111995220184324
 31
0.0
210
0.0
220
0.0
230
1.0
 40
0.9617099999999997
 41
2.916298070272501
 42
4.223472913339113
  0
LINE
  5
2145A
330
1F
100
AcDbEntity
  8
1
 48
0.000123
100
AcDbLine
 10
0.1766279999999938
 20
6.439999999999997
 30
0.0
 11
0.172035999999764
 21
6.441800999999998
 31
0.0
  0
ARC
  5
2145B
330
1F
100
AcDbEntity
  8
1
100
AcDbCircle
 10
102.3332619999999
 20
5.286880999999993
 30
0.0
 40
100.01317
100
AcDbArc
 50
178.6179770000001
 51
179.3306739999993
  0
ARC
  5
2145C
330
1F
100
AcDbEntity
  8
1
100
AcDbCircle
 10
1.169474000000093
 20
7.727082999999993
 30
0.0
 40
1.180026999999999
100
AcDbArc
 50
358.6388109999982
 51
13.68936999999526
  0
ARC
  5
2145D
330
1F
100
AcDbEntity
  8
1
100
AcDbCircle
 10
1.32976200000013
 20
7.727051000000017
 30
0.0
 40
1.180029
100
AcDbArc
 50
166.3090379999935
 51
181.3219799999988
  0
ARC
  5
2145E
330
1F
100
AcDbEntity
  8
1
100
AcDbCircle
 10
-105.8222959999999
 20
5.214925999999991
 30
0.0
 40
106.001454
100
AcDbArc
 50
0.6631620000014874
 51
1.343257999999585
  0
ARC
  5
2145F
330
1F
100
AcDbEntity
  8
1
100
AcDbCircle
 10
0.0747500000000514
 20
6.173563999999998
 30
0.0
 40
0.28525
100
AcDbArc
 50
0.0
 51
69.07456399998889
  0
LINE
  5
21460
330
1F
100
AcDbEntity
  8
1
 48
0.036713
100
AcDbLine
 10
0.3599999999999568
 20
6.173563999999998
 30
0.0
 11
0.3599999999999568
 21
4.705025999999975
 31
0.0
  0
LINE
  5
21461
330
1F
100
AcDbEntity
  8
1
 48
0.044429
100
AcDbLine
 10
2.018334000000152
 20
4.705025999999975
 30
0.0
 11
2.3269370000001
 21
6.455200999999988
 31
0.0
  0
SPLINE
  5
21462
330
1F
100
AcDbEntity
  8
1
100
AcDbSpline
210
0.0
220
0.0
230
1.0
 70
     8
 71
     5
 72
    18
 73
    12
 74
     0
 42
0.000000001
 43
0.0000000001
 40
0.0
 40
0.0
 40
0.0
 40
0.0
 40
0.0
 40
0.0
 40
0.6235146016072988
 40
0.6235146016072988
 40
0.6235146016072988
 40
1.222894773567117
 40
1.222894773567117
 40
1.222894773567117
 40
1.762191882177444
 40
1.762191882177444
 40
1.762191882177444
 40
1.762191882177444
 40
1.762191882177444
 40
1.762191882177444
 10
1.266816523331101
 20
-4.38880862481119
 30
0.0
 10
1.372029663987007
 20
-4.38880862481119
 30
0.0
 10
1.477493658975902
 20
-4.380317782708289
 30
0.0
 10
1.580701225932727
 20
-4.36317627758359
 30
0.0
 10
1.773754424574519
 20
-4.313627099941243
 30
0.0
 10
1.941319057906468
 20
-4.236587905066357
 30
0.0
 10
2.015720501402313
 20
-4.19306531733514
 30
0.0
 10
2.140544041965142
 20
-4.101578874280221
 30
0.0
 10
2.232404095784488
 20
-3.996882701557183
 30
0.0
 10
2.268187204118305
 20
-3.94504496005527
 30
0.0
 10
2.296160487400186
 20
-3.891639449003605
 30
0.0
 10
2.31634460420247
 20
-3.837238399691329
 30
0.0
  0
LINE
  5
21463
330
1F
100
AcDbEntity
  8
1
 48
0.000859
100
AcDbLine
 10
1.266817000000003
 20
-4.38880899999998
 30
0.0
 11
1.232444999999927
 21
-4.38880899999998
 31
0.0
  0
ELLIPSE
  5
21464
330
1F
100
AcDbEntity
  8
1
100
AcDbEllipse
 10
1.251852000000155
 20
-3.644186999999988
 30
0.0
 11
1.101641297340393
 21
0.0241247210651636
 31
0.0
210
0.0
220
0.0
230
1.0
 40
0.6755650000000001
 41
3.371445427007413
 42
4.679981011725008
  0
ARC
  5
21465
330
1F
100
AcDbEntity
  8
1
100
AcDbCircle
 10
4.712284999999894
 20
-5.388595000000009
 30
0.0
 40
2.904872
100
AcDbArc
 50
199.0728770000004
 51
204.6873800000048
  0
LINE
  5
21466
330
1F
100
AcDbEntity
  8
1
 48
0.067877
100
AcDbLine
 10
2.290899999999794
 20
-3.895514999999988
 30
0.0
 11
2.073005999999907
 21
-6.601823000000024
 31
0.0
  0
ARC
  5
21467
330
1F
100
AcDbEntity
  8
1
100
AcDbCircle
 10
-3.350044999999852
 20
0.0725239999999872
 30
0.0
 40
5.630422
100
AcDbArc
 50
15.600686000004
 51
19.21086500000001
  0
LINE
  5
21468
330
1F
100
AcDbEntity
  8
1
 48
0.114991
100
AcDbLine
 10
2.32691700000015
 20
-3.005881999999985
 30
0.0
 11
2.073005999999907
 21
1.586737000000027
 31
0.0
  0
ARC
  5
21469
330
1F
100
AcDbEntity
  8
1
100
AcDbCircle
 10
-1226.578852
 20
70.53347300000002
 30
0.0
 40
1228.952485
100
AcDbArc
 50
356.5732890000004
 51
356.7200239999989
  0
SPLINE
  5
2146A
330
1F
100
AcDbEntity
  8
1
100
AcDbSpline
210
0.0
220
0.0
230
1.0
 70
     8
 71
     5
 72
    39
 73
    33
 74
     0
 42
0.000000001
 43
0.0000000001
 40
0.0
 40
0.0
 40
0.0
 40
0.0
 40
0.0
 40
0.0
 40
0.0152767369122085
 40
0.0152767369122085
 40
0.0152767369122085
 40
0.0344977809886378
 40
0.0344977809886378
 40
0.0344977809886378
 40
0.0731584029073892
 40
0.0731584029073892
 40
0.0731584029073892
 40
0.1890429229181326
 40
0.1890429229181326
 40
0.1890429229181326
 40
0.4124208353608755
 40
0.4124208353608755
 40
0.4124208353608755
 40
0.5833741559183549
 40
0.5833741559183549
 40
0.5833741559183549
 40
0.7488234941825075
 40
0.7488234941825075
 40
0.7488234941825075
 40
1.651108413247413
 40
1.651108413247413
 40
1.651108413247413
 40
3.236658787157228
 40
3.236658787157228
 40
3.236658787157228
 40
4.058610714392736
 40
4.058610714392736
 40
4.058610714392736
 40
4.058610714392736
 40
4.058610714392736
 40
4.058610714392736
 10
0.3599999999999568
 20
-6.392394568804832
 30
0.0
 10
0.3599999999999568
 20
-6.393816325196041
 30
0.0
 10
0.3599855086379762
 20
-6.395235921267783
 30
0.0
 10
0.3599634201971753
 20
-6.39644943194213
 30
0.0
 10
0.3597995104271945
 20
-6.397426832798089
 30
0.0
 10
0.3596356006576684
 20
-6.398404233654048
 30
0.0
 10
0.3594794894164011
 20
-6.397422412999844
 30
0.0
 10
0.3590944457740193
 20
-6.395279834916777
 30
0.0
 10
0.3587054170373563
 20
-6.391647533219838
 30
0.0
 10
0.3584133620709622
 20
-6.389329969394964
 30
0.0
 10
0.3573251140672369
 20
-6.378451002461815
 30
0.0
 10
0.3562485545915592
 20
-6.365351771691393
 30
0.0
 10
0.3554354540804638
 20
-6.355578679369443
 30
0.0
 10
0.3530974635617099
 20
-6.325631596984749
 30
0.0
 10
0.3508702010229285
 20
-6.295002824152106
 30
0.0
 10
0.3494943542339683
 20
-6.275748066299513
 30
0.0
 10
0.3470795621490765
 20
-6.241580406733817
 30
0.0
 10
0.3445870539397333
 20
-6.205568300284653
 30
0.0
 10
0.3436503593146085
 20
-6.191921934859578
 30
0.0
 10
0.3414311798335916
 20
-6.159357556347856
 30
0.0
 10
0.3392234557803135
 20
-6.126586514183429
 30
0.0
 10
0.3381418153306299
 20
-6.11045202226245
 30
0.0
 10
0.3311902913426934
 20
-6.006313790258332
 30
0.0
 10
0.3244148690826591
 20
-5.902269820707658
 30
0.0
 10
0.3223810952297867
 20
-5.870952279821722
 30
0.0
 10
0.3063291512756336
 20
-5.621307226032399
 30
0.0
 10
0.2905265762495332
 20
-5.370501409821827
 30
0.0
 10
0.2806460252798501
 20
-5.212680812587223
 30
0.0
 10
0.265479022224838
 20
-4.969107847329553
 30
0.0
 10
0.2502402583798471
 20
-4.722434729285623
 30
0.0
 10
0.2450483379678303
 20
-4.638202274091838
 30
0.0
 10
0.2398619785984124
 20
-4.553880235638928
 30
0.0
 10
0.2346805725035779
 20
-4.469475869745394
 30
0.0
  0
LINE
  5
2146B
330
1F
100
AcDbEntity
  8
1
 48
0.015974
100
AcDbLine
 10
2.349161999999807
 20
-3.644447000000013
 30
0.0
 11
2.32691700000015
 21
-3.005881999999985
 31
0.0
  0
ARC
  5
2146C
330
1F
100
AcDbEntity
  8
1
100
AcDbCircle
 10
1.851429000000109
 20
-3.658240999999975
 30
0.0
 40
0.498049
100
AcDbArc
 50
338.9427470000065
 51
1.587523000001689
  0
ARC
  5
2146D
330
1F
100
AcDbEntity
  8
1
100
AcDbCircle
 10
0.647999000000084
 20
-3.65817800000002
 30
0.0
 40
0.498248
100
AcDbArc
 50
178.4746689999989
 51
201.0563380000009
  0
LINE
  5
2146E
330
1F
100
AcDbEntity
  8
1
 48
0.016121
100
AcDbLine
 10
0.1720549999998298
 20
-3.000468000000012
 30
0.0
 11
0.1500519999997891
 21
-3.644918000000018
 31
0.0
  0
SPLINE
  5
2146F
330
1F
100
AcDbEntity
  8
1
100
AcDbSpline
210
0.0
220
0.0
230
1.0
 70
     8
 71
     5
 72
    21
 73
    15
 74
     0
 42
0.000000001
 43
0.0000000001
 40
0.0
 40
0.0
 40
0.0
 40
0.0
 40
0.0
 40
0.0
 40
0.0372868516950735
 40
0.0372868516950735
 40
0.0372868516950735
 40
0.1506612242371528
 40
0.1506612242371528
 40
0.1506612242371528
 40
0.3763100481180062
 40
0.3763100481180062
 40
0.3763100481180062
 40
0.7478426503473648
 40
0.7478426503473648
 40
0.7478426503473648
 40
0.7478426503473648
 40
0.7478426503473648
 40
0.7478426503473648
 10
0.8854725559638723
 20
-3.002525440207534
 30
0.0
 10
0.8860916841070434
 20
-3.006658934139181
 30
0.0
 10
0.8867125389295438
 20
-3.01081272869618
 30
0.0
 10
0.8880511194423093
 20
-3.014904421410619
 30
0.0
 10
0.8933152761613314
 20
-3.031212696713112
 30
0.0
 10
0.9018365004811244
 20
-3.046574992541081
 30
0.0
 10
0.9097605257623513
 20
-3.057480211535335
 30
0.0
 10
0.935797471798935
 20
-3.086895846138986
 30
0.0
 10
0.9687247575437254
 20
-3.109762077463528
 30
0.0
 10
0.9916929672320407
 20
-3.122338616745764
 30
0.0
 10
1.054733400880024
 20
-3.150448986904507
 30
0.0
 10
1.121706884175466
 20
-3.16703612924698
 30
0.0
 10
1.164164664310021
 20
-3.174357241406596
 30
0.0
 10
1.206765249012107
 20
-3.179037641492755
 30
0.0
 10
1.249562318160599
 20
-3.181325053966759
 30
0.0
  0
SPLINE
  5
21470
330
1F
100
AcDbEntity
  8
1
100
AcDbSpline
210
0.0
220
0.0
230
1.0
 70
     8
 71
     5
 72
    18
 73
    12
 74
     0
 42
0.000000001
 43
0.0000000001
 40
0.0
 40
0.0
 40
0.0
 40
0.0
 40
0.0
 40
0.0
 40
0.1979383188618948
 40
0.1979383188618948
 40
0.1979383188618948
 40
0.4123079473160109
 40
0.4123079473160109
 40
0.4123079473160109
 40
0.7066168074618489
 40
0.7066168074618489
 40
0.7066168074618489
 40
0.7066168074618489
 40
0.7066168074618489
 40
0.7066168074618489
 10
1.6136471780963
 20
-3.002525440207534
 30
0.0
 10
1.610787028564857
 20
-3.02163422555418
 30
0.0
 10
1.602724167992448
 20
-3.040968303597253
 30
0.0
 10
1.589077742429083
 20
-3.060118826939799
 30
0.0
 10
1.555427226434233
 20
-3.094118835247229
 30
0.0
 10
1.511258966132402
 20
-3.120602686731103
 30
0.0
 10
1.487510029683846
 20
-3.131830786224384
 30
0.0
 10
1.427199112824212
 20
-3.15509045595769
 30
0.0
 10
1.363465378596004
 20
-3.169328807520173
 30
0.0
 10
1.325321343764073
 20
-3.175387869373992
 30
0.0
 10
1.287497236736101
 20
-3.179297508834679
 30
0.0
 10
1.249571182912688
 20
-3.181324829104312
 30
0.0
  0
LINE
  5
21471
330
1F
100
AcDbEntity
  8
1
 48
0.018204
100
AcDbLine
 10
0.885473000000104
 20
-3.002524999999991
 30
0.0
 11
1.613646999999957
 21
-3.002524999999991
 31
0.0
  0
LINE
  5
21472
330
1F
100
AcDbEntity
  8
1
 48
0.00194
100
AcDbLine
 10
0.1720450000000824
 20
-3.00063799999998
 30
0.0
 11
0.1766279999999938
 21
-2.923177000000009
 31
0.0
  0
LINE
  5
21473
330
1F
100
AcDbEntity
  8
1
 48
0.006546
100
AcDbLine
 10
2.351199999999892
 20
-4.024666000000024
 30
0.0
 11
2.338329999999871
 21
-3.763150999999993
 31
0.0
  0
LINE
  5
21474
330
1F
100
AcDbEntity
  8
1
 48
0.000567
100
AcDbLine
 10
2.351143000000149
 20
-4.047349999999994
 30
0.0
 11
2.351199999999892
 21
-4.024666000000024
 31
0.0
  0
LINE
  5
21475
330
1F
100
AcDbEntity
  8
1
 48
0.004513
100
AcDbLine
 10
0.3599999999999568
 20
0.3993669999999838
 30
0.0
 11
0.3599999999999568
 21
0.2188310000000229
 31
0.0
  0
LINE
  5
21476
330
1F
100
AcDbEntity
  8
1
 48
0.030195
100
AcDbLine
 10
0.3599999999999568
 20
0.3993669999999838
 30
0.0
 11
0.3599999999999568
 21
1.607181000000025
 31
0.0
  0
LINE
  5
21477
330
1F
100
AcDbEntity
  8
1
 48
0.00795
100
AcDbLine
 10
0.3599999999999568
 20
1.607181000000025
 30
0.0
 11
0.3599999999999568
 21
1.925170999999977
 31
0.0
  0
LINE
  5
21478
330
1F
100
AcDbEntity
  8
1
 48
0.006287
100
AcDbLine
 10
0.3599999999999568
 20
-6.589328000000023
 30
0.0
 11
0.3599999999999568
 21
-6.337853999999992
 31
0.0
  0
LINE
  5
21479
330
1F
100
AcDbEntity
  8
1
 48
0.007484
100
AcDbLine
 10
1.266817000000003
 20
-4.38880899999998
 30
0.0
 11
1.249615000000005
 21
-4.089952999999979
 31
0.0
  0
LINE
  5
2147A
330
1F
100
AcDbEntity
  8
1
 48
0.007484
100
AcDbLine
 10
1.249615000000005
 20
-4.089952999999979
 30
0.0
 11
1.232444999999927
 21
-4.38880899999998
 31
0.0
  0
LINE
  5
2147B
330
1F
100
AcDbEntity
  8
1
 48
0.027113
100
AcDbLine
 10
0.422206000000017
 20
1.48209300000002
 30
0.0
 11
0.3599999999999568
 21
0.3993669999999838
 31
0.0
  0
ARC
  5
2147C
330
1F
100
AcDbEntity
  8
1
100
AcDbCircle
 10
0.2700370000000589
 20
1.483405000000004
 30
0.0
 40
0.152528
100
AcDbArc
 50
359.5057419999991
 51
53.98930200000751
  0
LINE
  5
2147D
330
1F
100
AcDbEntity
  8
1
 48
0.00025
100
AcDbLine
 10
0.422206000000017
 20
-6.660348999999996
 30
0.0
 11
0.4215269999997986
 21
-6.650364000000024
 31
0.0
  0
SPLINE
  5
2147E
330
1F
100
AcDbEntity
  8
1
100
AcDbSpline
210
0.0
220
0.0
230
1.0
 70
     8
 71
     5
 72
    15
 73
     9
 74
     0
 42
0.000000001
 43
0.0000000001
 40
0.0
 40
0.0
 40
0.0
 40
0.0
 40
0.0
 40
0.0
 40
0.2669834257246911
 40
0.2669834257246911
 40
0.2669834257246911
 40
0.2942437024090178
 40
0.2942437024090178
 40
0.2942437024090178
 40
0.2942437024090178
 40
0.2942437024090178
 40
0.2942437024090178
 10
0.3599999999999568
 20
-6.589326945381344
 30
0.0
 10
0.3805115172238516
 20
-6.599675657594559
 30
0.0
 10
0.3975510060438978
 20
-6.611135395711187
 30
0.0
 10
0.4102573298835637
 20
-6.623131141463545
 30
0.0
 10
0.4191355490182218
 20
-6.637209309249158
 30
0.0
 10
0.4218056527168415
 20
-6.651053487849083
 30
0.0
 10
0.4219996437930718
 20
-6.652333822834748
 30
0.0
 10
0.4221400765980548
 20
-6.653610456164983
 30
0.0
 10
0.4222271091314838
 20
-6.654883391129089
 30
0.0
  0
LINE
  5
2147F
330
1F
100
AcDbEntity
  8
1
 48
0.000137
100
AcDbLine
 10
0.4222269999998503
 20
-6.654882999999983
 30
0.0
 11
0.422206000000017
 21
-6.660348999999996
 31
0.0
  0
LINE
  5
21480
330
1F
100
AcDbEntity
  8
1
 48
0.043631
100
AcDbLine
 10
2.351199999999892
 20
-4.024666000000024
 30
0.0
 11
2.23261900000017
 21
-5.765869000000009
 31
0.0
  0
ELLIPSE
  5
21481
330
1F
100
AcDbEntity
  8
1
100
AcDbEllipse
 10
2.278530999999759
 20
-2.90025700000001
 30
0.0
 11
-0.1537549495697022
 21
-4.006946086883544
 31
0.0
210
0.0
220
0.0
230
1.0
 40
0.041478
 41
5.891834104910753
 42
6.253194035092771
  0
LINE
  5
21482
330
1F
100
AcDbEntity
  8
1
 48
0.028626
100
AcDbLine
 10
2.119856999999967
 20
-6.905336999999974
 30
0.0
 11
2.23261900000017
 21
-5.765869000000009
 31
0.0
  0
LINE
  5
21483
330
1F
100
AcDbEntity
  8
1
 48
0.002294
100
AcDbLine
 10
2.240325000000041
 20
-5.674419999999997
 30
0.0
 11
2.23261900000017
 21
-5.765869000000009
 31
0.0
  0
ELLIPSE
  5
21484
330
1F
100
AcDbEntity
  8
1
100
AcDbEllipse
 10
0.2196959999999422
 20
-2.655580999999983
 30
0.0
 11
0.1542135179042816
 21
-4.251620292663573
 31
0.0
210
0.0
220
0.0
230
1.0
 40
0.040213
 41
0.0293720416930233
 42
0.3409808215636229
  0
LINE
  5
21485
330
1F
100
AcDbEntity
  8
1
 48
0.033215
100
AcDbLine
 10
0.2662789999997699
 20
-5.764635999999995
 30
0.0
 11
0.1761700000000133
 21
-4.439102999999988
 31
0.0
  0
LINE
  5
21486
330
1F
100
AcDbEntity
  8
1
 48
0.028655
100
AcDbLine
 10
0.2662789999997699
 20
-5.764635999999995
 30
0.0
 11
0.3788689999999519
 21
-6.90531199999998
 31
0.0
  0
LINE
  5
21487
330
1F
100
AcDbEntity
  8
1
 48
0.002266
100
AcDbLine
 10
0.2586939999999345
 20
-5.674306000000001
 30
0.0
 11
0.2662789999997699
 21
-5.764635999999995
 31
0.0
  0
LINE
  5
21488
330
1F
100
AcDbEntity
  8
1
 48
0.050698
100
AcDbLine
 10
2.349161999999807
 20
-3.644447000000013
 30
0.0
 11
2.23261900000017
 21
-1.619869999999991
 31
0.0
  0
ARC
  5
21489
330
1F
100
AcDbEntity
  8
1
100
AcDbCircle
 10
133.0933689999999
 20
6.594187999999974
 30
0.0
 40
131.11606
100
AcDbArc
 50
182.1887149999983
 51
182.6724079999994
  0
LINE
  5
2148A
330
1F
100
AcDbEntity
  8
1
 48
0.052595
100
AcDbLine
 10
2.119856999999967
 20
0.4809119999999894
 30
0.0
 11
2.23261900000017
 21
-1.619869999999991
 31
0.0
  0
SPLINE
  5
2148B
330
1F
100
AcDbEntity
  8
1
100
AcDbSpline
210
0.0
220
0.0
230
1.0
 70
     8
 71
     5
 72
    42
 73
    36
 74
     0
 42
0.000000001
 43
0.0000000001
 40
0.0
 40
0.0
 40
0.0
 40
0.0
 40
0.0
 40
0.0
 40
0.4548208023441084
 40
0.4548208023441084
 40
0.4548208023441084
 40
0.7583745280726629
 40
0.7583745280726629
 40
0.7583745280726629
 40
0.9629171442075442
 40
0.9629171442075442
 40
0.9629171442075442
 40
1.054407958680474
 40
1.054407958680474
 40
1.054407958680474
 40
1.259565090547356
 40
1.259565090547356
 40
1.259565090547356
 40
1.440160840412088
 40
1.440160840412088
 40
1.440160840412088
 40
1.682186681557783
 40
1.682186681557783
 40
1.682186681557783
 40
1.924212522703478
 40
1.924212522703478
 40
1.924212522703478
 40
2.868179269926345
 40
2.868179269926345
 40
2.868179269926345
 40
4.264162175891375
 40
4.264162175891375
 40
4.264162175891375
 40
4.652760032266106
 40
4.652760032266106
 40
4.652760032266106
 40
4.652760032266106
 40
4.652760032266106
 40
4.652760032266106
 10
1.64215487188386
 20
-2.849974716918723
 30
0.0
 10
1.663136048688386
 20
-2.878428552424566
 30
0.0
 10
1.684847447383901
 20
-2.906293471309993
 30
0.0
 10
1.707486221037754
 20
-2.933497663874788
 30
0.0
 10
1.747017527888431
 20
-2.977397135804437
 30
0.0
 10
1.790538547542666
 20
-3.017277726439829
 30
0.0
 10
1.808768463914304
 20
-3.032469076403458
 30
0.0
 10
1.840862575454423
 20
-3.056250852303662
 30
0.0
 10
1.876589321099174
 20
-3.075439143780158
 30
0.0
 10
1.891323570375163
 20
-3.082065616483987
 30
0.0
 10
1.914610865906354
 20
-3.090152972461169
 30
0.0
 10
1.939543316135598
 20
-3.09410203852974
 30
0.0
 10
1.947421501424571
 20
-3.094865266807801
 30
0.0
 10
1.973389021287687
 20
-3.095594620365034
 30
0.0
 10
2.001050996921378
 20
-3.089906425291246
 30
0.0
 10
2.020182237804704
 20
-3.081819296591731
 30
0.0
 10
2.052727497774696
 20
-3.060251713959416
 30
0.0
 10
2.078688576903289
 20
-3.031823330198619
 30
0.0
 10
2.089722898385673
 20
-3.01726514194371
 30
0.0
 10
2.112477270801093
 20
-2.982755795270463
 30
0.0
 10
2.130355784820324
 20
-2.946363451834315
 30
0.0
 10
2.139278589457546
 20
-2.925573712894504
 30
0.0
 10
2.155303197944078
 20
-2.883684883220041
 30
0.0
 10
2.168289525475586
 20
-2.841485892114235
 30
0.0
 10
2.174167307938944
 20
-2.820400162511532
 30
0.0
 10
2.200477656647592
 20
-2.716994026751365
 30
0.0
 10
2.216249406997405
 20
-2.613353210662978
 30
0.0
 10
2.225454344382171
 20
-2.534615957176697
 30
0.0
 10
2.242401537105081
 20
-2.333293852177121
 30
0.0
 10
2.246851162135783
 20
-2.133742280503213
 30
0.0
 10
2.246769100302856
 20
-2.018571404298768
 30
0.0
 10
2.243698763148415
 20
-1.867803071933622
 30
0.0
 10
2.237488815973676
 20
-1.717701838205414
 30
0.0
 10
2.235996350453945
 20
-1.685054925365193
 30
0.0
 10
2.234370908513312
 20
-1.652445071154261
 30
0.0
 10
2.232618631397428
 20
-1.619869652983766
 30
0.0
  0
ARC
  5
2148C
330
1F
100
AcDbEntity
  8
1
100
AcDbCircle
 10
4.128040999999768
 20
-3.384502999999995
 30
0.0
 40
2.543258999999999
100
AcDbArc
 50
167.8612449999994
 51
171.3618829999975
  0
LINE
  5
2148D
330
1F
100
AcDbEntity
  8
1
 48
0.022716
100
AcDbLine
 10
1.249615000000005
 20
-4.089952999999979
 30
0.0
 11
1.249563000000136
 21
-3.181325000000015
 31
0.0
  0
LINE
  5
2148E
330
1F
100
AcDbEntity
  8
1
 48
0.025038
100
AcDbLine
 10
0.422206000000017
 20
1.48209300000002
 30
0.0
 11
0.3788640000000782
 21
0.4815219999999841
 31
0.0
  0
LINE
  5
2148F
330
1F
100
AcDbEntity
  8
1
 48
0.050658
100
AcDbLine
 10
0.2662789999997699
 20
-1.621931000000017
 30
0.0
 11
0.1500519999997891
 21
-3.644918000000018
 31
0.0
  0
LINE
  5
21490
330
1F
100
AcDbEntity
  8
1
 48
0.052663
100
AcDbLine
 10
0.2662789999997699
 20
-1.621931000000017
 30
0.0
 11
0.3788689999999519
 21
0.4815889999999854
 31
0.0
  0
ARC
  5
21491
330
1F
100
AcDbEntity
  8
1
100
AcDbCircle
 10
-1.6316920000001
 20
-3.38524799999999
 30
0.0
 40
2.546111
100
AcDbArc
 50
8.645324000001769
 51
12.16082099999569
  0
ELLIPSE
  5
21492
330
1F
100
AcDbEntity
  8
1
100
AcDbEllipse
 10
1.54925200000008
 20
1.532639000000017
 30
0.0
 11
-1.037154316902159
 21
-4.624223232269287
 31
0.0
210
0.0
220
0.0
230
1.0
 40
0.16795
 41
5.500124423791911
 42
6.647564651523852
  0
ARC
  5
21493
330
1F
100
AcDbEntity
  8
1
100
AcDbCircle
 10
5.737681999999779
 20
-1.737771000000009
 30
0.0
 40
4.244123
100
AcDbArc
 50
148.4814700000056
 51
195.1751219999951
  0
ARC
  5
21494
330
1F
100
AcDbEntity
  8
1
100
AcDbCircle
 10
-3.238536999999894
 20
-1.737771000000009
 30
0.0
 40
4.244119
100
AcDbArc
 50
344.8237770000067
 51
31.5292800000064
  0
LINE
  5
21495
330
1F
100
AcDbEntity
  8
1
 48
0.001659
100
AcDbLine
 10
2.053545000000042
 20
-6.907205999999973
 30
0.0
 11
2.119856999999967
 21
-6.905209000000013
 31
0.0
  0
LINE
  5
21496
330
1F
100
AcDbEntity
  8
0
 62
     7
 48
0.001669
370
    35
100
AcDbLine
 10
0.4455959999998527
 20
-6.907205999999973
 30
0.0
 11
0.3788689999999519
 21
-6.905185000000017
 31
0.0
  0
LINE
  5
21497
330
1F
100
AcDbEntity
  8
SK1
 48
0.007853
100
AcDbLine
 10
-6.240278999999816
 20
2.770147000000008
 30
0.0
 11
-6.554413999999894
 21
2.770410000000026
 31
0.0
  0
LINE
  5
21498
330
1F
100
AcDbEntity
  8
SK1
 48
0.002077
100
AcDbLine
 10
-6.559729000000231
 20
2.769452999999998
 30
0.0
 11
-6.640007000000139
 21
2.748032000000023
 31
0.0
  0
LINE
  5
21499
330
1F
100
AcDbEntity
  8
SK1
 48
0.021235
100
AcDbLine
 10
-5.819811000000015
 20
-2.769437999999979
 30
0.0
 11
-6.64013500000027
 21
-2.549089999999978
 31
0.0
  0
ARC
  5
2149A
330
1F
100
AcDbEntity
  8
SK1
100
AcDbCircle
 10
-6.236343000000204
 20
2.937469000000021
 30
0.0
 40
0.167365
100
AcDbArc
 50
268.6782450000104
 51
325.4521510000113
  0
LINE
  5
2149B
330
1F
100
AcDbEntity
  8
SK1
 48
0.001791
100
AcDbLine
 10
-6.08023299999985
 20
2.906033999999976
 30
0.0
 11
-6.101873000000239
 21
2.837734000000011
 31
0.0
  0
LINE
  5
2149C
330
1F
100
AcDbEntity
  8
SK1
 48
0.002542
100
AcDbLine
 10
-6.049622000000169
 20
3.003002999999978
 30
0.0
 11
-6.08023299999985
 21
2.906033999999976
 31
0.0
  0
LINE
  5
2149D
330
1F
100
AcDbEntity
  8
SK1
 48
0.007855
100
AcDbLine
 10
-5.50027000000017
 20
-2.770307999999999
 30
0.0
 11
-5.814450000000022
 21
-2.770573000000013
 31
0.0
  0
LINE
  5
2149E
330
1F
100
AcDbEntity
  8
SK1
 48
0.008129
100
AcDbLine
 10
-4.760202999999989
 20
2.769947999999999
 30
0.0
 11
-5.085365999999964
 21
2.770217999999999
 31
0.0
  0
ARC
  5
2149F
330
1F
100
AcDbEntity
  8
SK1
100
AcDbCircle
 10
-5.088093999999898
 20
2.940423000000009
 30
0.0
 40
0.169953
100
AcDbArc
 50
217.119544000006
 51
270.9017220000073
  0
SPLINE
  5
214A0
330
1F
100
AcDbEntity
  8
SK1
100
AcDbSpline
210
0.0
220
0.0
230
1.0
 70
     8
 71
     3
 72
    20
 73
    16
 74
     0
 42
0.000000001
 43
0.0000000001
 40
0.0
 40
0.0
 40
0.0
 40
0.0
 40
0.0140348580301583
 40
0.0271000477817218
 40
0.0423620973177769
 40
0.0564623981146444
 40
0.0740100699724741
 40
0.0901397805164202
 40
0.1053135057002503
 40
0.1203086177696917
 40
0.134765365471456
 40
0.1543609730594811
 40
0.173897644829098
 40
0.1937690312543886
 40
0.2141868726463759
 40
0.2141868726463759
 40
0.2141868726463759
 40
0.2141868726463759
 10
-5.933821502773923
 20
3.17714248399659
 30
0.0
 10
-5.937876925882108
 20
3.174805230767503
 30
0.0
 10
-5.945525888069539
 20
3.169985211763787
 30
0.0
 10
-5.956890324883431
 20
3.161584060804955
 30
0.0
 10
-5.96760866100675
 20
3.152333796501807
 30
0.0
 10
-5.978659275736561
 20
3.141253862816711
 30
0.0
 10
-5.98902540340731
 20
3.12913903305457
 30
0.0
 10
-5.998670166373528
 20
3.116003915249621
 30
0.0
 10
-6.007015931849025
 20
3.103012409310281
 30
0.0
 10
-6.014378759239377
 20
3.090080124992823
 30
0.0
 10
-6.021812784807195
 20
3.075513743219573
 30
0.0
 10
-6.029197518773969
 20
3.059240731980537
 30
0.0
 10
-6.036552558153005
 20
3.040994673661657
 30
0.0
 10
-6.043341677093565
 20
3.022240442832469
 30
0.0
 10
-6.047569993477452
 20
3.009492355153838
 30
0.0
 10
-6.04962162549117
 20
3.003002582693113
 30
0.0
  0
LINE
  5
214A1
330
1F
100
AcDbEntity
  8
SK1
 48
0.002527
100
AcDbLine
 10
-5.309746999999958
 20
-3.002638999999987
 30
0.0
 11
-5.340218999999876
 21
-2.906272999999998
 31
0.0
  0
LINE
  5
214A2
330
1F
100
AcDbEntity
  8
SK1
 48
0.002383
100
AcDbLine
 10
-5.340143999999952
 20
-2.906340999999997
 30
0.0
 11
-5.368943999999999
 21
-2.815462000000025
 31
0.0
  0
ARC
  5
214A3
330
1F
100
AcDbEntity
  8
SK1
100
AcDbCircle
 10
-5.497043999999903
 20
-2.939386000000013
 30
0.0
 40
0.169355
100
AcDbArc
 50
36.44290700000285
 51
91.0718740000072
  0
ARC
  5
214A4
330
1F
100
AcDbEntity
  8
SK1
100
AcDbCircle
 10
-4.756460000000231
 20
2.937814000000003
 30
0.0
 40
0.16757
100
AcDbArc
 50
268.7049809999894
 51
325.3954809999884
  0
ARC
  5
214A5
330
1F
100
AcDbEntity
  8
SK1
100
AcDbCircle
 10
-4.01743499999992
 20
-2.940556000000015
 30
0.0
 40
0.170267
100
AcDbArc
 50
37.03282099998957
 51
90.9224519999895
  0
LINE
  5
214A6
330
1F
100
AcDbEntity
  8
SK1
 48
0.008131
100
AcDbLine
 10
-4.020179000000268
 20
-2.770143000000018
 30
0.0
 11
-4.345434000000011
 21
-2.770281000000011
 31
0.0
  0
ARC
  5
214A7
330
1F
100
AcDbEntity
  8
SK1
100
AcDbCircle
 10
-4.348923000000183
 20
-2.937879000000009
 30
0.0
 40
0.167284
100
AcDbArc
 50
88.80746900000643
 51
145.5476999999891
  0
LINE
  5
214A8
330
1F
100
AcDbEntity
  8
SK1
 48
0.004315
100
AcDbLine
 10
-4.483410999999875
 20
-2.838203000000021
 30
0.0
 11
-4.535265000000151
 21
-3.002819999999985
 31
0.0
  0
LINE
  5
214A9
330
1F
100
AcDbEntity
  8
SK1
 48
0.004918
100
AcDbLine
 10
-5.216034000000206
 20
2.814587000000017
 30
0.0
 11
-5.275112999999862
 21
3.002226000000007
 31
0.0
  0
SPLINE
  5
214AA
330
1F
100
AcDbEntity
  8
SK1
100
AcDbSpline
210
0.0
220
0.0
230
1.0
 70
     8
 71
     3
 72
    19
 73
    15
 74
     0
 42
0.000000001
 43
0.0000000001
 40
0.0
 40
0.0
 40
0.0
 40
0.0
 40
0.0207845562666509
 40
0.0407277945549506
 40
0.0603238923262932
 40
0.0799166169382286
 40
0.1014088567009623
 40
0.1243280668054501
 40
0.140450498794239
 40
0.1579851166665225
 40
0.1805201268012243
 40
0.187254770099571
 40
0.200272124104488
 40
0.2142506547063906
 40
0.2142506547063906
 40
0.2142506547063906
 40
0.2142506547063906
 10
-5.275113013674115
 20
3.002226339635853
 30
0.0
 10
-5.277192581943552
 20
3.008835545907516
 30
0.0
 10
-5.281424473763479
 20
3.02173632187646
 30
0.0
 10
-5.288248246940554
 20
3.04065477020822
 30
0.0
 10
-5.295584105444675
 20
3.058954650175621
 30
0.0
 10
-5.303907516029255
 20
3.077397889441044
 30
0.0
 10
-5.313742250096481
 20
3.09634602242238
 30
0.0
 10
-5.324331174726637
 20
3.113551635600003
 30
0.0
 10
-5.335433790390368
 20
3.128813154392332
 30
0.0
 10
-5.347551941342487
 20
3.143119126285341
 30
0.0
 10
-5.358762581487724
 20
3.154026198017106
 30
0.0
 10
-5.369586661237633
 20
3.163057531892434
 30
0.0
 10
-5.378593551813708
 20
3.169805326024231
 30
0.0
 10
-5.386179920280653
 20
3.174658532478872
 30
0.0
 10
-5.390202365552511
 20
3.177014844314726
 30
0.0
  0
SPLINE
  5
214AB
330
1F
100
AcDbEntity
  8
SK1
100
AcDbSpline
210
0.0
220
0.0
230
1.0
 70
     8
 71
     3
 72
    19
 73
    15
 74
     0
 42
0.000000001
 43
0.0000000001
 40
0.0
 40
0.0
 40
0.0
 40
0.0
 40
0.0138608525422652
 40
0.0267620977751737
 40
0.0420335395312212
 40
0.0561422051217124
 40
0.0737270537577037
 40
0.089888400297125
 40
0.1128519199223969
 40
0.1344470366072617
 40
0.1538733146444352
 40
0.1732864861254162
 40
0.1930194206979233
 40
0.2135302722641433
 40
0.2135302722641433
 40
0.2135302722641433
 40
0.2135302722641433
 10
-5.193988649378468
 20
-3.177133818979939
 30
0.0
 10
-5.19799046421275
 20
-3.174819892955611
 30
0.0
 10
-5.205539520843274
 20
-3.170053165583453
 30
0.0
 10
-5.216815738870252
 20
-3.161717618106649
 30
0.0
 10
-5.227501052343711
 20
-3.152503645740353
 30
0.0
 10
-5.238568576846489
 20
-3.141414741539961
 30
0.0
 10
-5.24895445469582
 20
-3.129282576445064
 30
0.0
 10
-5.260151969892547
 20
-3.114036142112865
 30
0.0
 10
-5.270840317761383
 20
-3.096818042827635
 30
0.0
 10
-5.280729453372885
 20
-3.07790515774792
 30
0.0
 10
-5.28906850649372
 20
-3.059559249410881
 30
0.0
 10
-5.29638314182074
 20
-3.041451972013021
 30
0.0
 10
-5.303181545011
 20
-3.022760802749246
 30
0.0
 10
-5.307394885690598
 20
-3.01002376897668
 30
0.0
 10
-5.309462362298461
 20
-3.003506420248129
 30
0.0
  0
LINE
  5
214AC
330
1F
100
AcDbEntity
  8
SK1
 48
0.002376
100
AcDbLine
 10
-3.860275000000171
 20
-2.905965999999978
 30
0.0
 11
-3.888981000000228
 21
-2.815343999999981
 31
0.0
  0
ARC
  5
214AD
330
1F
100
AcDbEntity
  8
SK1
100
AcDbCircle
 10
-3.26234600000015
 20
2.921903999999983
 30
0.0
 40
0.146669
100
AcDbArc
 50
296.7061629999919
 51
327.494947000003
  0
SPLINE
  5
214AE
330
1F
100
AcDbEntity
  8
SK1
100
AcDbSpline
210
0.0
220
0.0
230
1.0
 70
     8
 71
     3
 72
    19
 73
    15
 74
     0
 42
0.000000001
 43
0.0000000001
 40
0.0
 40
0.0
 40
0.0
 40
0.0
 40
0.0202846918371183
 40
0.0402174294709947
 40
0.0598056439802615
 40
0.0794419942338056
 40
0.101011271501872
 40
0.1239780022489113
 40
0.1400772392425217
 40
0.1575835324832029
 40
0.171855618898693
 40
0.1872917514726151
 40
0.1998897968234801
 40
0.2134211661819986
 40
0.2134211661819986
 40
0.2134211661819986
 40
0.2134211661819986
 10
-4.535265368032185
 20
-3.002820153005188
 30
0.0
 10
-4.537293989595752
 20
-3.009270587415585
 30
0.0
 10
-4.541529624156908
 20
-3.021991106078928
 30
0.0
 10
-4.548268474743224
 20
-3.040755755787529
 30
0.0
 10
-4.555607450133891
 20
-3.059063848748962
 30
0.0
 10
-4.563938882119771
 20
-3.077544572772922
 30
0.0
 10
-4.573796225147077
 20
-3.096544278341298
 30
0.0
 10
-4.584403741680205
 20
-3.11377867823495
 30
0.0
 10
-4.595507006646755
 20
-3.129036924279489
 30
0.0
 10
-4.605835604415176
 20
-3.14122734009851
 30
0.0
 10
-4.616903761120909
 20
-3.152433225057222
 30
0.0
 10
-4.627553187957516
 20
-3.161701855382546
 30
0.0
 10
-4.638661235221832
 20
-3.170000880476663
 30
0.0
 10
-4.645998882892115
 20
-3.174706018836275
 30
0.0
 10
-4.649887317035961
 20
-3.176996000396457
 30
0.0
  0
SPLINE
  5
214AF
330
1F
100
AcDbEntity
  8
SK1
100
AcDbSpline
210
0.0
220
0.0
230
1.0
 70
     8
 71
     3
 72
    19
 73
    15
 74
     0
 42
0.000000001
 43
0.0000000001
 40
0.0
 40
0.0
 40
0.0
 40
0.0
 40
0.0141285168190181
 40
0.0272837796711366
 40
0.0425671835329082
 40
0.0566967027459818
 40
0.0742745510485969
 40
0.090440089561938
 40
0.1133016245242632
 40
0.1349538686067782
 40
0.150164985727471
 40
0.165391557292155
 40
0.1899208564484343
 40
0.2152248579562286
 40
0.2152248579562286
 40
0.2152248579562286
 40
0.2152248579562286
 10
-4.453336155401018
 20
3.177163877399436
 30
0.0
 10
-4.457427065364925
 20
3.174825629791598
 30
0.0
 10
-4.465143857610371
 20
3.169998151468973
 30
0.0
 10
-4.476586193184346
 20
3.161587025278834
 30
0.0
 10
-4.487361586559188
 20
3.15233098359846
 30
0.0
 10
-4.49845433889385
 20
3.141254995197868
 30
0.0
 10
-4.508863166840171
 20
3.129134525177335
 30
0.0
 10
-4.5200614376742
 20
3.113931906947243
 30
0.0
 10
-4.53076624894328
 20
3.096740207933009
 30
0.0
 10
-4.540016608628945
 20
3.079096204320478
 30
0.0
 10
-4.547304563566001
 20
3.063332265483211
 30
0.0
 10
-4.554403721213645
 20
3.046437750285008
 30
0.0
 10
-4.562019259291162
 20
3.026124309891486
 30
0.0
 10
-4.567257485487232
 20
3.010358380811453
 30
0.0
 10
-4.569796958204904
 20
3.002314216644265
 30
0.0
  0
LINE
  5
214B0
330
1F
100
AcDbEntity
  8
SK1
 48
0.002521
100
AcDbLine
 10
-4.569796999999823
 20
3.002314000000012
 30
0.0
 11
-4.600211000000115
 21
2.906175000000018
 31
0.0
  0
LINE
  5
214B1
330
1F
100
AcDbEntity
  8
SK1
 48
0.002532
100
AcDbLine
 10
-3.829616000000157
 20
-3.003123000000016
 30
0.0
 11
-3.860150000000146
 21
-2.906547999999986
 31
0.0
  0
LINE
  5
214B2
330
1F
100
AcDbEntity
  8
SK1
 48
0.00176
100
AcDbLine
 10
-3.120234000000152
 20
2.905732
 30
0.0
 11
-3.141502000000116
 21
2.838614000000006
 31
0.0
  0
ARC
  5
214B3
330
1F
100
AcDbEntity
  8
SK1
100
AcDbCircle
 10
-3.280081000000052
 20
2.949865999999985
 30
0.0
 40
0.179744
100
AcDbArc
 50
269.9569569999987
 51
297.7504500000094
  0
LINE
  5
214B4
330
1F
100
AcDbEntity
  8
SK1
 48
0.008128
100
AcDbLine
 10
-3.280215999999825
 20
2.770125000000007
 30
0.0
 11
-3.605345999999997
 21
2.770331999999996
 31
0.0
  0
ARC
  5
214B5
330
1F
100
AcDbEntity
  8
SK1
100
AcDbCircle
 10
-3.607890999999824
 20
2.940622000000018
 30
0.0
 40
0.170113
100
AcDbArc
 50
217.0669030000067
 51
270.8562180000009
  0
LINE
  5
214B6
330
1F
100
AcDbEntity
  8
SK1
 48
0.004922
100
AcDbLine
 10
-3.736053000000254
 20
2.814976999999998
 30
0.0
 11
-3.795190999999874
 21
3.002750999999989
 31
0.0
  0
SPLINE
  5
214B7
330
1F
100
AcDbEntity
  8
SK1
100
AcDbSpline
210
0.0
220
0.0
230
1.0
 70
     8
 71
     3
 72
    19
 73
    15
 74
     0
 42
0.000000001
 43
0.0000000001
 40
0.0
 40
0.0
 40
0.0
 40
0.0
 40
0.0205600795064462
 40
0.040422065330832
 40
0.0599421787882868
 40
0.0794223832601599
 40
0.1008702293789667
 40
0.1236863140141412
 40
0.13978618023727
 40
0.1573020827493663
 40
0.1713003795081234
 40
0.1864519448063774
 40
0.1994155483202114
 40
0.2133414835190863
 40
0.2133414835190863
 40
0.2133414835190863
 40
0.2133414835190863
 10
-3.795190920103948
 20
3.00275116213362
 30
0.0
 10
-3.797248833271794
 20
3.009288702616458
 30
0.0
 10
-3.801465755693868
 20
3.022087143615976
 30
0.0
 10
-3.808242124213563
 20
3.040887193389835
 30
0.0
 10
-3.815545096389257
 20
3.05910343245489
 30
0.0
 10
-3.823831751936893
 20
3.07747791508649
 30
0.0
 10
-3.833617173941263
 20
3.09635377635675
 30
0.0
 10
-3.84416231901531
 20
3.11351966504219
 30
0.0
 10
-3.855217550119675
 20
3.128754838996883
 30
0.0
 10
-3.86547158499178
 20
3.14089313901286
 30
0.0
 10
-3.876386260046444
 20
3.151992542447487
 30
0.0
 10
-3.886951539820699
 20
3.161258536684954
 30
0.0
 10
-3.898155643141933
 20
3.169695057091018
 30
0.0
 10
-3.905698564475358
 20
3.174550539959852
 30
0.0
 10
-3.909698929688772
 20
3.176910000010536
 30
0.0
  0
SPLINE
  5
214B8
330
1F
100
AcDbEntity
  8
SK1
100
AcDbSpline
210
0.0
220
0.0
230
1.0
 70
     8
 71
     3
 72
    19
 73
    15
 74
     0
 42
0.000000001
 43
0.0000000001
 40
0.0
 40
0.0
 40
0.0
 40
0.0
 40
0.0138715765291515
 40
0.0267897142472417
 40
0.0420874558408722
 40
0.0562285646842578
 40
0.0737903932857838
 40
0.0899443371028208
 40
0.1128768142175393
 40
0.1345072309606293
 40
0.1583025947572365
 40
0.1822041551339347
 40
0.197936758164287
 40
0.2140551827165678
 40
0.2140551827165678
 40
0.2140551827165678
 40
0.2140551827165678
 10
-3.713787104103801
 20
-3.177091291396322
 30
0.0
 10
-3.717797023001992
 20
-3.174784242319105
 30
0.0
 10
-3.725363916893172
 20
-3.170028501967294
 30
0.0
 10
-3.736670973256138
 20
-3.161704366764467
 30
0.0
 10
-3.747391654693444
 20
-3.152492650979581
 30
0.0
 10
-3.758484230157307
 20
-3.141411790537063
 30
0.0
 10
-3.768886745682891
 20
-3.129292977112527
 30
0.0
 10
-3.780090701145297
 20
-3.114076641931376
 30
0.0
 10
-3.79079644666416
 20
-3.096870434333254
 30
0.0
 10
-3.801376311295541
 20
-3.076672511585968
 30
0.0
 10
-3.810826487824385
 20
-3.055570163260426
 30
0.0
 10
-3.818500157580444
 20
-3.035860795046176
 30
0.0
 10
-3.824649521193066
 20
-3.018322333227672
 30
0.0
 10
-3.8279954308652
 20
-3.008245562062256
 30
0.0
 10
-3.829615673513387
 20
-3.003122688265762
 30
0.0
  0
LINE
  5
214B9
330
1F
100
AcDbEntity
  8
SK1
 48
0.002537
100
AcDbLine
 10
-3.089752000000032
 20
3.002519000000006
 30
0.0
 11
-3.120234000000152
 21
2.905732
 31
0.0
  0
LINE
  5
214BA
330
1F
100
AcDbEntity
  8
SK1
 48
0.002396
100
AcDbLine
 10
-2.380143999999916
 20
-2.906372999999973
 30
0.0
 11
-2.409095000000149
 21
-2.815024999999991
 31
0.0
  0
ARC
  5
214BB
330
1F
100
AcDbEntity
  8
SK1
100
AcDbCircle
 10
-2.537281999999947
 20
-2.940176000000008
 30
0.0
 40
0.169894
100
AcDbArc
 50
36.88125000000581
 51
90.99900100000512
  0
LINE
  5
214BC
330
1F
100
AcDbEntity
  8
SK1
 48
0.008129
100
AcDbLine
 10
-2.540247000000078
 20
-2.770109999999988
 30
0.0
 11
-2.865398999999968
 21
-2.770351000000005
 31
0.0
  0
ARC
  5
214BD
330
1F
100
AcDbEntity
  8
SK1
100
AcDbCircle
 10
-2.868963000000064
 20
-2.938126000000011
 30
0.0
 40
0.16752
100
AcDbArc
 50
88.78292300000302
 51
145.4430639999916
  0
LINE
  5
214BE
330
1F
100
AcDbEntity
  8
SK1
 48
0.004305
100
AcDbLine
 10
-3.003384000000266
 20
-2.838092000000017
 30
0.0
 11
-3.055101000000092
 21
-3.002326999999979
 31
0.0
  0
SPLINE
  5
214BF
330
1F
100
AcDbEntity
  8
SK1
100
AcDbSpline
210
0.0
220
0.0
230
1.0
 70
     8
 71
     3
 72
    20
 73
    16
 74
     0
 42
0.000000001
 43
0.0000000001
 40
0.0
 40
0.0
 40
0.0
 40
0.0
 40
0.0205478488134052
 40
0.04051143627233
 40
0.0601249581899348
 40
0.0797379360341759
 40
0.0875917467519864
 40
0.1053878975410965
 40
0.1241797378400076
 40
0.1402562891939221
 40
0.15774861637878
 40
0.1717531961365975
 40
0.1869142371263775
 40
0.1999533363135738
 40
0.2139614018794604
 40
0.2139614018794604
 40
0.2139614018794604
 40
0.2139614018794604
 10
-3.055101242135322
 20
-3.002326637814917
 30
0.0
 10
-3.057155483213762
 20
-3.008861057133685
 30
0.0
 10
-3.061361911513074
 20
-3.02169427954675
 30
0.0
 10
-3.068156700313636
 20
-3.040552770526062
 30
0.0
 10
-3.075491710397443
 20
-3.058873393790861
 30
0.0
 10
-3.081943015318472
 20
-3.073187057347411
 30
0.0
 10
-3.088642059330766
 20
-3.086706702818389
 30
0.0
 10
-3.095709286663975
 20
-3.099735248238914
 30
0.0
 10
-3.105030496063761
 20
-3.114628115219773
 30
0.0
 10
-3.115293579542765
 20
-3.128760632016337
 30
0.0
 10
-3.125542103600025
 20
-3.140885659751063
 30
0.0
 10
-3.136457424383195
 20
-3.151980817690798
 30
0.0
 10
-3.147047957248275
 20
-3.161264194451348
 30
0.0
 10
-3.158300732603663
 20
-3.169728995640127
 30
0.0
 10
-3.165892400229665
 20
-3.174606061995177
 30
0.0
 10
-3.169919110157195
 20
-3.176974820312921
 30
0.0
  0
SPLINE
  5
214C0
330
1F
100
AcDbEntity
  8
SK1
100
AcDbSpline
210
0.0
220
0.0
230
1.0
 70
     8
 71
     3
 72
    19
 73
    15
 74
     0
 42
0.000000001
 43
0.0000000001
 40
0.0
 40
0.0
 40
0.0
 40
0.0
 40
0.0141229000433538
 40
0.0272721768685192
 40
0.0425417532664674
 40
0.056650112238054
 40
0.0742322781561641
 40
0.0903932009279305
 40
0.1133341165480201
 40
0.1349206118465027
 40
0.1542882871941867
 40
0.173651444594783
 40
0.1933293892492343
 40
0.2138011636841709
 40
0.2138011636841709
 40
0.2138011636841709
 40
0.2138011636841709
 10
-2.973633115306427
 20
3.177135494292372
 30
0.0
 10
-2.977717066521734
 20
3.17478888368231
 30
0.0
 10
-2.985419761397395
 20
3.169946245008929
 30
0.0
 10
-2.99683725170388
 20
3.161515755919424
 30
0.0
 10
-3.007583688289003
 20
3.15224713322641
 30
0.0
 10
-3.018649156765775
 20
3.141158450680336
 30
0.0
 10
-3.029033537275324
 20
3.129026527043095
 30
0.0
 10
-3.040225322155663
 20
3.113786525645082
 30
0.0
 10
-3.050908260702897
 20
3.096577567446217
 30
0.0
 10
-3.060784384209625
 20
3.077691679209237
 30
0.0
 10
-3.069109177855978
 20
3.059382273498215
 30
0.0
 10
-3.076406353442678
 20
3.041326779241103
 30
0.0
 10
-3.083191730396436
 20
3.022681989206091
 30
0.0
 10
-3.087397312764721
 20
3.009975414018015
 30
0.0
 10
-3.089461758678396
 20
3.003470768878059
 30
0.0
  0
SPLINE
  5
214C1
330
1F
100
AcDbEntity
  8
SK1
100
AcDbSpline
210
0.0
220
0.0
230
1.0
 70
     8
 71
     3
 72
    20
 73
    16
 74
     0
 42
0.000000001
 43
0.0000000001
 40
0.0
 40
0.0
 40
0.0
 40
0.0
 40
0.0141343277141627
 40
0.0272938002528303
 40
0.0425648797899119
 40
0.0566744901378212
 40
0.0742316636298097
 40
0.090371526207399
 40
0.1010529680535033
 40
0.1184031149000701
 40
0.1350122762898261
 40
0.1546058387363796
 40
0.1741381473932299
 40
0.1940056177521706
 40
0.2144942704223248
 40
0.2144942704223248
 40
0.2144942704223248
 40
0.2144942704223248
 10
-2.233629425971855
 20
-3.177120037320776
 30
0.0
 10
-2.237717522646732
 20
-3.17477298286326
 30
0.0
 10
-2.245427887146604
 20
-3.169928965325823
 30
0.0
 10
-2.256853714897431
 20
-3.161496731661088
 30
0.0
 10
-2.267605325036299
 20
-3.152227507383202
 30
0.0
 10
-2.278667573658538
 20
-3.141145973765503
 30
0.0
 10
-2.289044596432802
 20
-3.129027908437876
 30
0.0
 10
-2.297810289702908
 20
-3.117097660103979
 30
0.0
 10
-2.305884059839797
 20
-3.104780782506281
 30
0.0
 10
-2.313394839819181
 20
-3.091923838595221
 30
0.0
 10
-2.321560712215784
 20
-3.076042829458401
 30
0.0
 10
-2.329243933974055
 20
-3.059119454715698
 30
0.0
 10
-2.336597179640364
 20
-3.040876520311599
 30
0.0
 10
-2.343403947236026
 20
-3.022106200759083
 30
0.0
 10
-2.347616176533108
 20
-3.00932936332731
 30
0.0
 10
-2.349675207273037
 20
-3.002817120363488
 30
0.0
  0
SPLINE
  5
214C2
330
1F
100
AcDbEntity
  8
SK1
100
AcDbSpline
210
0.0
220
0.0
230
1.0
 70
     8
 71
     3
 72
    19
 73
    15
 74
     0
 42
0.000000001
 43
0.0000000001
 40
0.0
 40
0.0
 40
0.0
 40
0.0
 40
0.0140901652012802
 40
0.0271984247961135
 40
0.0424853965612512
 40
0.0566071662370766
 40
0.0741863788043629
 40
0.0903424811495865
 40
0.1132822837162237
 40
0.1349280585993084
 40
0.1545565640252079
 40
0.174195863421407
 40
0.1941757987997083
 40
0.2147527984722835
 40
0.2147527984722835
 40
0.2147527984722835
 40
0.2147527984722835
 10
-1.493570136217556
 20
3.177133814389378
 30
0.0
 10
-1.497644742234285
 20
3.174792881321366
 30
0.0
 10
-1.505327451158507
 20
3.169964768612715
 30
0.0
 10
-1.516733411608754
 20
3.1615504918596
 30
0.0
 10
-1.527482370950281
 20
3.152289968745435
 30
0.0
 10
-1.538560019672047
 20
3.141200302631546
 30
0.0
 10
-1.548951807340188
 20
3.129072267924641
 30
0.0
 10
-1.560149916731177
 20
3.113840597231899
 30
0.0
 10
-1.570851046036921
 20
3.096621937347379
 30
0.0
 10
-1.580782616927706
 20
3.077644833873648
 30
0.0
 10
-1.589186274162045
 20
3.059152625249851
 30
0.0
 10
-1.596574517588294
 20
3.040832117943523
 30
0.0
 10
-1.603415932104041
 20
3.021965203329386
 30
0.0
 10
-1.607647337514379
 20
3.009124204130444
 30
0.0
 10
-1.60971415740795
 20
3.002583518825758
 30
0.0
  0
LINE
  5
214C3
330
1F
100
AcDbEntity
  8
SK1
 48
0.002529
100
AcDbLine
 10
-1.609713999999883
 20
3.002584000000013
 30
0.0
 11
-1.640212999999846
 21
2.906138999999996
 31
0.0
  0
LINE
  5
214C4
330
1F
100
AcDbEntity
  8
SK1
 48
0.001792
100
AcDbLine
 10
-1.640212999999846
 20
2.906138999999996
 30
0.0
 11
-1.661859999999876
 21
2.837815999999975
 31
0.0
  0
LINE
  5
214C5
330
1F
100
AcDbEntity
  8
SK1
 48
0.000965
100
AcDbLine
 10
-1.658884000000114
 20
2.842730000000017
 30
0.0
 11
-1.683798000000194
 21
2.813263000000006
 31
0.0
  0
ARC
  5
214C6
330
1F
100
AcDbEntity
  8
1
100
AcDbCircle
 10
0.0750009999999861
 20
4.170537000000024
 30
0.0
 40
0.250008
100
AcDbArc
 50
90.00026800001135
 51
107.4573349999869
  0
ARC
  5
214C7
330
1F
100
AcDbEntity
  8
1
100
AcDbCircle
 10
0.0750009999999861
 20
-4.170537000000024
 30
0.0
 40
0.250008
100
AcDbArc
 50
252.542665000013
 51
269.9997319999887
  0
ARC
  5
214C8
330
1F
100
AcDbEntity
  8
1
100
AcDbCircle
 10
0.0750000000001023
 20
-4.705543999999974
 30
0.0
 40
0.285
100
AcDbArc
 50
0.0
 51
90.0
  0
ARC
  5
214C9
330
1F
100
AcDbEntity
  8
1
100
AcDbCircle
 10
0.0750000000001023
 20
4.705543999999974
 30
0.0
 40
0.285
100
AcDbArc
 50
270.0
 51
0.0
  0
LINE
  5
214CA
330
1F
100
AcDbEntity
  8
SK1
 48
0.002529
100
AcDbLine
 10
-2.349675000000104
 20
-3.002816999999993
 30
0.0
 11
-2.380143999999916
 21
-2.906372999999973
 31
0.0
  0
LINE
  5
214CB
330
1F
100
AcDbEntity
  8
1
 48
0.040771
100
AcDbLine
 10
2.351143000000149
 20
-4.047349999999994
 30
0.0
 11
2.240325000000041
 21
-5.674419999999997
 31
0.0
  0
LINE
  5
214CC
330
1F
100
AcDbEntity
  8
1
 48
0.030965
100
AcDbLine
 10
0.2586939999999345
 20
-5.674306000000001
 30
0.0
 11
0.1746889999997734
 21
-4.438544999999976
 31
0.0
  0
LINE
  5
214CD
330
1F
100
AcDbEntity
  8
1
 48
0.040199
100
AcDbLine
 10
2.053545000000042
 20
-6.907205999999973
 30
0.0
 11
0.4455959999998527
 21
-6.907205999999973
 31
0.0
  0
LINE
  5
21504
330
1F
100
AcDbEntity
  8
4
100
AcDbLine
 10
-0.0000000000001705
 20
0.0
 30
0.0
 11
3.668445333170268
 21
0.0
 31
0.0
  0
LWPOLYLINE
  5
21505
330
1F
100
AcDbEntity
  8
NOCUT
100
AcDbPolyline
 90
       18
 70
     1
 43
0.0
 10
2.328619438379348
 20
6.46473919131472
 10
2.01833428393985
 20
4.70502421715031
 10
1.917253283939601
 20
4.131765217150359
 10
1.673609221696381
 20
2.749989848523966
 10
1.91613102317234
 20
0.0
 10
-0.0000000000001705
 20
0.0
 10
-0.0000000000001705
 20
4.409029872142923
 42
-0.0342879036314063
 10
0.0332982916118567
 20
4.41704234310049
 10
0.1225400472351907
 20
4.424536982456118
 42
0.3659369825159572
 10
0.3599999999999568
 20
4.705543999999974
 10
0.3599999999999568
 20
6.176015941373634
 10
0.3560449666104546
 20
6.224064124265112
 42
0.257729842120729
 10
0.1842096105741007
 20
6.440853654624902
 10
0.1704662991149348
 20
6.44631055770435
 42
0.0029389360658383
 10
0.1479946010543358
 20
7.707865290940048
 10
0.1498890090391001
 20
7.806846472269057
 10
2.349350555044395
 20
7.806846472269057
 10
2.351220894712071
 20
7.707088687900807
 42
0.0031070191452618
  0
LWPOLYLINE
  5
21506
102
{ACAD_REACTORS
330
2150D
330
2150A
102
}
330
1F
100
AcDbEntity
  8
CUT
100
AcDbPolyline
 90
      120
 70
     1
 43
0.0
 10
2.34935058959337
 20
7.806846000000007
 10
0.1498888707836272
 20
7.806846000000007
 10
0.1519274631817211
 20
7.834632872136069
 10
0.1546355219318798
 20
7.862367670214098
 10
0.1580127982741146
 20
7.89003501428823
 10
0.1620587090413323
 20
7.917618984931038
 10
0.1667723618964487
 20
7.945103595667774
 10
0.1721525459263944
 20
7.972472793141946
 10
0.1781977222270257
 20
7.999710457280912
 10
0.1849060144989494
 20
8.026800401461116
 10
0.1922751996319789
 20
8.053726372673736
 10
0.2003026983000495
 20
8.080472051690094
 10
0.2089855655493125
 20
8.107021053226958
 10
0.2183204820851756
 20
8.133356927305896
 10
0.2283037820109826
 20
8.159463227168146
 10
0.2389314536433744
 20
8.185323552547345
 10
0.2501990717926787
 20
8.210921470319306
 10
0.2621017879926626
 20
8.236240522979016
 10
0.2746343261094921
 20
8.261264245844586
 10
0.287790977943871
 20
8.285976184260846
 10
0.3015655988399999
 20
8.310359910803413
 10
0.3159516032868055
 20
8.334399042482232
 10
0.3309419605282642
 20
8.358077257945694
 10
0.3465291901650858
 20
8.381378314684241
 10
0.3627053577613992
 20
8.404286066234192
 10
0.3794620704518934
 20
8.426784479381865
 10
0.39679047254441
 20
8.448857651366836
 10
0.4146812411279939
 20
8.470489827086453
 10
0.4331245816763954
 20
8.491665416298985
 10
0.4521102236556658
 20
8.51236901082791
 10
0.4716274161276602
 20
8.532585401765629
 10
0.4916649233567228
 20
8.55229959667713
 10
0.512211020415009
 20
8.57149683680393
 10
0.5332534887868974
 20
8.590162614268024
 10
0.5547796119770397
 20
8.60828268927537
 10
0.5767761711129538
 20
8.625843107320065
 10
0.5992294405526195
 20
8.642830216388006
 10
0.6221251777590738
 20
8.659230677947505
 10
0.6454485732968465
 20
8.675031443459374
 10
0.6691843247425027
 20
8.690219874755428
 10
0.6933167081895704
 20
8.704783825190759
 10
0.7178295964375252
 20
8.718711650987359
 10
0.7427064763731437
 20
8.731992221612074
 10
0.7679304663495828
 20
8.744614930154227
 10
0.7934843335659139
 20
8.756569703703689
 10
0.8193505114493859
 20
8.767847013728555
 10
0.8455111170326858
 20
8.778437886452934
 10
0.8719479683357462
 20
8.788333913234964
 10
0.8986426017439157
 20
8.797527260944377
 10
0.9255762893906762
 20
8.80601068234057
 10
0.9527300565349037
 20
8.81377752645028
 10
0.9800846989426759
 20
8.820821748945377
 10
1.007620800265442
 20
8.827137922520932
 10
1.035318749423197
 20
8.832721247272615
 10
1.063158757980374
 20
8.83756756107499
 10
1.091120877529021
 20
8.841673349959023
 10
1.119185017066968
 20
8.845035758489984
 10
1.147330960379179
 20
8.847652600145408
 10
1.175538383415926
 20
8.8495223676926
 10
1.203786871675504
 20
8.850644243566875
 10
1.232047601357237
 20
8.85101800000001
 10
1.267214905702815
 20
8.85101800000001
 10
1.295743732690709
 20
8.850637114586163
 10
1.324266084281873
 20
8.849493483765797
 10
1.352751340136649
 20
8.847586915079602
 10
1.38117723742954
 20
8.844917976059491
 10
1.409521636246893
 20
8.841488087213406
 10
1.437762542781285
 20
8.837299504760039
 10
1.465878132529098
 20
8.832355303364408
 10
1.493846773486268
 20
8.826659358872859
 10
1.521647049344039
 20
8.820216331048584
 10
1.549257782685629
 20
8.813031646306626
 10
1.576658058180157
 20
8.805111480449227
 10
1.603827245781587
 20
8.796462741401114
 10
1.630745023922656
 20
8.787093051944566
 10
1.657391402711084
 20
8.777010732454868
 10
1.68374674712669
 20
8.766224783635436
 10
1.709791800216237
 20
8.754744869253045
 10
1.735507706289638
 20
8.742581298873233
 10
1.760876034117075
 20
8.729745010595308
 10
1.785878800123384
 20
8.716247553787752
 10
1.810498491584723
 20
8.702101071823392
 10
1.834718089824775
 20
8.687318284814693
 10
1.858521093410956
 20
8.671912472348992
 10
1.881891541349261
 20
8.655897456223613
 10
1.904814036371874
 20
8.639287583056272
 10
1.927273806546338
 20
8.622097645582584
 10
1.949256805598736
 20
8.604342684309017
 10
1.97074966027759
 20
8.58603798442715
 10
1.991739646142661
 20
8.567199066036835
 10
2.012214674845665
 20
8.547841661003133
 10
2.032163281412806
 20
8.527981689813429
 10
2.051574611524131
 20
8.507635238434602
 10
2.070438408797883
 20
8.486818535170073
 10
2.088745002069856
 20
8.465547927516695
 10
2.106485292675927
 20
8.443839859022091
 10
2.123650741733229
 20
8.421710846141706
 10
2.140233357421323
 20
8.399177455095639
 10
2.156225682264278
 20
8.376256278726032
 10
2.171620780412297
 20
8.352963913353846
 10
2.18641222492198
 20
8.329316935636256
 10
2.200594085039313
 20
8.30533187942342
 10
2.214160913480384
 20
8.281025212615816
 10
2.227107733197783
 20
8.256413315147938
 10
2.239429997699801
 20
8.231512513276072
 10
2.251123545962229
 20
8.206339123180043
 10
2.262184607160008
 20
8.18090939907978
 10
2.272609790961098
 20
8.155239520019904
 10
2.282396075943609
 20
8.129345580954861
 10
2.291540798010657
 20
8.103243583834171
 10
2.300041638809318
 20
8.076949428687726
 10
2.307896614145022
 20
8.050478904710644
 10
2.315104062398233
 20
8.02384768134874
 10
2.321662632942945
 20
7.997071299383719
 10
2.327571274560625
 20
7.97016516201819
 10
2.332829223858254
 20
7.943144525960917
 10
2.33743599368546
 20
7.916024492511894
 10
2.34139136154846
 20
7.888819998647932
 10
2.344695358029014
 20
7.86154580810728
 10
2.347348255200643
 20
7.834216502475214
  0
DIMENSION
  5
21508
102
{ACAD_XDICTIONARY
360
21509
102
}
102
{ACAD_REACTORS
330
2150A
102
}
330
1F
100
AcDbEntity
  8
2
100
AcDbDimension
  2
*D35
 10
2.349350589593371
 20
14.7403431579629
 30
0.0
 11
-11.24285533160568
 21
14.7403431579629
 31
0.0
 70
   160
 71
     5
 42
2.199461718809743
  3
MM_STANDARD
100
AcDbAlignedDimension
 13
0.1498888707836272
 23
7.806846000000007
 33
0.0
 14
2.34935058959337
 24
7.806846000000007
 34
0.0
100
AcDbRotatedDimension
1001
ACAD
1000
DSTYLE
1002
{
1070
   172
1070
     1
1070
   271
1070
     1
1002
}
  0
DIMENSION
  5
2150B
102
{ACAD_XDICTIONARY
360
2150C
102
}
102
{ACAD_REACTORS
330
2150D
102
}
330
1F
100
AcDbEntity
  8
2
100
AcDbDimension
  2
*D36
 10
10.21792326523353
 20
5.050827557293086
 30
0.0
 11
10.21792326523353
 21
24.89682075093424
 31
0.0
 70
   160
 71
     5
 42
3.799999999999997
  3
MM_STANDARD
100
AcDbAlignedDimension
 13
1.281479319196762
 23
8.850827557293087
 33
0.0
 14
1.281479319196762
 24
5.050827557293089
 34
0.0
 50
90.0
100
AcDbRotatedDimension
1001
ACAD
1000
DSTYLE
1002
{
1070
   172
1070
     1
1070
   271
1070
     1
1002
}
  0
MULTILEADER
  5
21515
102
{ACAD_XDICTIONARY
360
21516
102
}
102
{ACAD_REACTORS
330
21517
102
}
330
1F
100
AcDbEntity
  8
2
 92
      664
310
98020000180000000C00000016000000000000C00C00000033000000000000000C00000013000000993A0000A40000000B0000001D3970685E622DC08CDF016BA3D62240000000000000000000000000000000000000000000000000000000000000F03F000000000000F03F00000000000000000000000000000000543036
310
0003000000010000000000000000000C409A9999999999E93F0000000000000000000000000000F03F00000000000000000000000000000000000000004D6F6E6F73706163383231204254003F0077B9B50C00000033000000000000000C00000010000000030000000C00000016000000000000C00C00000012000000FF7F
310
00000C00000013000000010000000C00000014000000010000005400000007000000030000004E29CC62C6FD0AC03A85442CBF7E1640000000000000000080179E978A9D05C0803D0AD7A37009400000000000000000309D11334A8510C081EBCAB44E18154000000000000000000C00000013000000891300003C00000006
310
00000002000000D8B177642D040EC05EB887F086CB15400000000000000000C0AC8447AC1A15C000D4A478927B214000000000000000000C00000013000000112700003C0000000600000002000000C0AC8447AC1A15C000D4A478927B2140000000000000000031EA8E1E508B16C000D4A478927B21400000000000000000
310
0C00000016000000000000C00C00000012000000FF7F00000C00000017000000000000000C000000130000009A3A00003C0000000600000002000000506225C8B2072DC000D4A478927B2140000000000000000030EA8E1E508B16C000D4A478927B214000000000000000000C00000016000000000000C00C000000120000
310
00FF7F00000C00000017000000FFFFFFFF0C0000003300000000000000
100
AcDbMLeader
300
CONTEXT_DATA{
 40
1.0
 10
-16.51503587204311
 20
11.14093021765556
 30
0.0
 41
3.5
140
2.5
145
2.0
174
     1
175
     6
176
     2
177
     0
290
     1
304
T06
 11
0.0
 21
0.0
 31
1.0
340
11
 12
-7.636047818634822
 22
12.94135186206877
 32
0.0
 13
1.0
 23
0.0
 33
0.0
 42
0.0
 43
0.0
 44
0.0
 45
1.0
170
     1
 90
-1073741824
171
     3
172
     5
 91
-1073741824
141
0.0
 92
        0
291
     0
292
     0
173
     0
293
     0
142
0.0
143
0.0
294
     0
295
     0
296
     0
110
-2.701924500000075
120
3.180000000000006
130
0.0
111
1.0
121
0.0
131
0.0
112
0.0
122
1.0
132
0.0
297
     0
302
LEADER{
290
     1
291
     1
 10
-5.276047818634822
 20
8.741351862068768
 30
0.0
 11
-1.0
 21
0.0
 31
0.0
 90
        0
 40
0.36
304
LEADER_LINE{
 10
-2.701924500000075
 20
3.180000000000006
 30
0.0
 91
        0
305
}
303
}
301
}
340
20D51
 90
   279552
170
     1
 91
-1073741824
341
15
171
    -1
290
     1
291
     1
 41
0.36
 42
2.5
172
     2
343
11
173
     1
 95
        6
174
     1
175
     2
 92
-1073741824
292
     0
 93
-1056964608
 10
1.0
 20
1.0
 30
1.0
 43
0.0
176
     0
293
     0
294
     0
178
     0
179
     3
 45
1.0
1001
ACAD_MLEADERVER
1070
     2
  0
DIMENSION
  5
215AE
330
1F
100
AcDbEntity
  8
2
100
AcDbDimension
  2
*D39
 10
16.39455628579043
 20
-8.866891639513795
 30
0.0
 11
13.906415034912
 21
-0.0168916395137931
 31
0.0
 70
    32
  1
%%C<>
 71
     5
 42
17.7
  3
MM_STANDARD
100
AcDbAlignedDimension
 13
1.466020722016651
 23
8.833108360486209
 33
0.0
 14
1.466020722016651
 24
-8.86689163951379
 34
0.0
 50
90.0
100
AcDbRotatedDimension
1001
ACAD
1000
DSTYLE
1002
{
1070
   172
1070
     1
1070
   271
1070
     1
1002
}
  0
VIEWPORT
  5
9C00
102
{ACAD_XDICTIONARY
360
21678
102
}
330
1B
100
AcDbEntity
 67
     1
  8
0
100
AcDbViewport
 10
191.1260953930446
 20
71.69854161746989
 30
0.0
 40
417.6911020274311
 41
201.8884082081047
 68
     1
 69
     1
 12
191.1260953930446
 22
71.69854161746989
 13
0.0
 23
0.0
 14
10.0
 24
10.0
 15
10.0
 25
10.0
 16
0.0
 26
0.0
 36
1.0
 17
0.0
 27
0.0
 37
0.0
 42
50.0
 43
0.0
 44
0.0
 45
201.8884082081047
 50
0.0
 51
0.0
 72
   100
 90
   557088
  1

281
     0
 71
     1
 74
     0
110
0.0
120
0.0
130
0.0
111
1.0
121
0.0
131
0.0
112
0.0
122
1.0
132
0.0
 79
     0
146
0.0
  0
VIEWPORT
  5
9C02
102
{ACAD_XDICTIONARY
360
2167A
102
}
330
1B
100
AcDbEntity
 67
     1
  8
1
100
AcDbViewport
 10
143.457083940506
 20
98.18158769607544
 30
0.0
 40
229.5313343048095
 41
157.0905403137207
 68
     2
 69
     2
 12
-44.37697124786255
 22
-35.12342998133886
 13
0.0
 23
0.0
 14
10.0
 24
10.0
 15
10.0
 25
10.0
 16
0.0
 26
0.0
 36
1.0
 17
0.0
 27
0.0
 37
0.0
 42
50.0
 43
0.0
 44
0.0
 45
300.3886240724386
 50
0.0
 51
0.0
 72
   100
 90
   557088
  1

281
     0
 71
     1
 74
     0
110
0.0
120
0.0
130
0.0
111
1.0
121
0.0
131
0.0
112
0.0
122
1.0
132
0.0
 79
     0
146
0.0
  0
ENDSEC
  0
SECTION
  2
OBJECTS
  0
DICTIONARY
  5
3182
330
0
100
AcDbDictionary
281
     1
  3
ACAD_CIP_PREVIOUS_PRODUCT_INFO
350
1B2F4
  3
ACAD_COLOR
350
31A0
  3
ACAD_DETAILVIEWSTYLE
350
1B2F0
  3
ACAD_FIELDLIST
350
20CBF
  3
ACAD_GROUP
350
3183
  3
ACAD_LAYOUT
350
31A5
  3
ACAD_MATERIAL
350
318B
  3
ACAD_MLEADERSTYLE
350
1B221
  3
ACAD_MLINESTYLE
350
3184
  3
ACAD_PLOTSETTINGS
350
31A4
  3
ACAD_PLOTSTYLENAME
350
3189
  3
ACAD_SCALELIST
350
1B1FC
  3
ACAD_SECTIONVIEWSTYLE
350
1B2EE
  3
ACAD_TABLESTYLE
350
31A1
  3
ACAD_VISUALSTYLE
350
318F
  3
ACDB_RECOMPOSE_DATA
350
2164A
  3
AcDbVariableDictionary
350
33A3
  3
AcDsDecomposeData
350
21651
  3
DWGPROPS
350
2164B
  0
DICTIONARY
  5
422A
330
2
100
AcDbDictionary
280
     1
281
     1
  3
ACAD_LAYERFILTERS
360
1B063
  3
ACAD_LAYERSTATES
360
9A1C
  3
ACLYDICTIONARY
360
1B062
  0
DICTIONARY
  5
1B2F5
330
10
100
AcDbDictionary
280
     1
281
     1
  3
ADSK_XREC_LAYER_RECONCILED
360
2110E
  0
DICTIONARY
  5
1B2F7
330
3F8C
100
AcDbDictionary
280
     1
281
     1
  3
ADSK_XREC_LAYER_RECONCILED
360
2110F
  0
DICTIONARY
  5
1B2F9
330
9C4A
100
AcDbDictionary
280
     1
281
     1
  3
ADSK_XREC_LAYER_RECONCILED
360
21110
  0
DICTIONARY
  5
1B2FB
330
9C4B
100
AcDbDictionary
280
     1
281
     1
  3
ADSK_XREC_LAYER_RECONCILED
360
21111
  0
DICTIONARY
  5
1B2FD
330
9C4D
100
AcDbDictionary
280
     1
281
     1
  3
ADSK_XREC_LAYER_RECONCILED
360
21112
  0
DICTIONARY
  5
1B2FF
330
9C4E
100
AcDbDictionary
280
     1
281
     1
  3
ADSK_XREC_LAYER_RECONCILED
360
21113
  0
DICTIONARY
  5
1B301
330
9C4F
100
AcDbDictionary
280
     1
281
     1
  3
ADSK_XREC_LAYER_RECONCILED
360
21114
  0
DICTIONARY
  5
1B303
330
9C50
100
AcDbDictionary
280
     1
281
     1
  3
ADSK_XREC_LAYER_RECONCILED
360
21115
  0
DICTIONARY
  5
1B305
330
9C51
100
AcDbDictionary
280
     1
281
     1
  3
ADSK_XREC_LAYER_RECONCILED
360
21116
  0
DICTIONARY
  5
1B307
330
13335
100
AcDbDictionary
280
     1
281
     1
  3
ADSK_XREC_LAYER_RECONCILED
360
21117
  0
DICTIONARY
  5
20AE1
330
20AE0
100
AcDbDictionary
280
     1
281
     1
  3
ADSK_XREC_LAYER_RECONCILED
360
21122
  0
DICTIONARY
  5
339C
330
1F
100
AcDbDictionary
280
     1
281
     1
  3
ACAD_SORTENTS
360
339D
  0
DICTIONARY
  5
1DE81
330
1B3D7
100
AcDbDictionary
280
     1
281
     1
  3
AcDbBlockTableRecordData
360
21692
  0
DICTIONARY
  5
20CA6
330
20CA5
100
AcDbDictionary
280
     1
281
     1
  3
AcDbBlockTableRecordData
360
21696
  0
DICTIONARY
  5
20CA9
330
20CA8
100
AcDbDictionary
280
     1
281
     1
  3
ACAD_FIELD
360
20CAA
  0
DICTIONARY
  5
20CC4
330
20CC3
100
AcDbDictionary
280
     1
281
     1
  3
ACAD_FIELD
360
20CC5
  0
DICTIONARY
  5
21509
330
21508
100
AcDbDictionary
280
     1
281
     1
  3
ACAD_DIMASSOC
360
2150A
  0
DICTIONARY
  5
2150C
330
2150B
100
AcDbDictionary
280
     1
281
     1
  3
ACAD_DIMASSOC
360
2150D
  0
DICTIONARY
  5
21516
330
21515
100
AcDbDictionary
280
     1
281
     1
  3
ACAD_DIMASSOC
360
21517
  3
ACAD_XREC_ROUNDTRIP
360
216A1
  0
DICTIONARY
  5
21678
330
9C00
100
AcDbDictionary
280
     1
281
     1
  3
ACAD_XREC_ROUNDTRIP
360
21679
  0
DICTIONARY
  5
2167A
330
9C02
100
AcDbDictionary
280
     1
281
     1
  3
ACAD_XREC_ROUNDTRIP
360
2167B
  0
XRECORD
  5
1B2F4
102
{ACAD_REACTORS
330
3182
102
}
330
3182
100
AcDbXrecord
280
     1
300
ACDLT
300
2015
300
ACDLT_F_S
  0
DICTIONARY
  5
31A0
102
{ACAD_REACTORS
330
3182
102
}
330
3182
100
AcDbDictionary
281
     1
  0
DICTIONARY
  5
1B2F0
102
{ACAD_REACTORS
330
3182
102
}
330
3182
100
AcDbDictionary
281
     1
  3
Imperial24
350
20CB3
  3
Metric50
350
1B2F1
  0
FIELDLIST
  5
20CBF
102
{ACAD_REACTORS
330
3182
102
}
330
3182
100
AcDbIdSet
 90
        6
330
20CAB
330
20CAC
330
20CBA
330
20CBB
330
20CC6
330
20CC7
100
AcDbFieldList
  0
DICTIONARY
  5
3183
102
{ACAD_REACTORS
330
3182
102
}
330
3182
100
AcDbDictionary
281
     1
  0
DICTIONARY
  5
31A5
102
{ACAD_REACTORS
330
3182
102
}
330
3182
100
AcDbDictionary
281
     1
  3
Layout1
350
31A7
  3
Model
350
31A6
  0
DICTIONARY
  5
318B
102
{ACAD_REACTORS
330
3182
102
}
330
3182
100
AcDbDictionary
281
     1
  3
ByBlock
350
318D
  3
ByLayer
350
318C
  3
Global
350
318E
  0
DICTIONARY
  5
1B221
102
{ACAD_REACTORS
330
3182
102
}
330
3182
100
AcDbDictionary
281
     1
  3
MM_STANDARD
350
20D51
  3
Standard
350
1B2ED
  0
DICTIONARY
  5
3184
102
{ACAD_REACTORS
330
3182
102
}
330
3182
100
AcDbDictionary
281
     1
  3
STANDARD
350
3185
  0
DICTIONARY
  5
31A4
102
{ACAD_REACTORS
330
3182
102
}
330
3182
100
AcDbDictionary
281
     1
  0
ACDBDICTIONARYWDFLT
  5
3189
102
{ACAD_REACTORS
330
3182
102
}
330
3182
100
AcDbDictionary
281
     1
  3
Normal
350
318A
100
AcDbDictionaryWithDefault
340
318A
  0
DICTIONARY
  5
1B1FC
102
{ACAD_REACTORS
330
3182
102
}
330
3182
100
AcDbDictionary
281
     1
  3
A0
350
1B1FD
  3
A1
350
1B1FE
  3
A2
350
1B1FF
  3
A3
350
1B200
  3
A4
350
1B201
  3
A5
350
1B202
  3
A6
350
1B203
  3
A7
350
1B204
  3
A8
350
1B205
  3
A9
350
1B206
  3
B0
350
1B207
  3
B1
350
1B208
  3
B2
350
1B209
  3
B3
350
1B20A
  3
B4
350
1B20B
  3
B5
350
1B20C
  3
B6
350
1B20D
  3
B7
350
1B20E
  3
B8
350
1B20F
  3
B9
350
1B210
  3
C0
350
1B211
  3
C1
350
1B212
  3
C2
350
1B213
  3
C3
350
1B214
  3
C4
350
1B215
  3
C5
350
1B216
  3
C6
350
1B217
  3
C7
350
1B218
  3
C8
350
1B219
  3
C9
350
1B21A
  3
D0
350
1B21B
  3
D1
350
1B21C
  3
D2
350
1B21D
  0
DICTIONARY
  5
1B2EE
102
{ACAD_REACTORS
330
3182
102
}
330
3182
100
AcDbDictionary
281
     1
  3
Imperial24
350
20CB1
  3
Metric50
350
1B2EF
  0
DICTIONARY
  5
31A1
102
{ACAD_REACTORS
330
3182
102
}
330
3182
100
AcDbDictionary
281
     1
  3
Standard
350
31A2
  0
DICTIONARY
  5
318F
102
{ACAD_REACTORS
330
3182
102
}
330
3182
100
AcDbDictionary
281
     1
  3
2dWireframe
350
3195
  3
3D Hidden
350
3197
  3
3dWireframe
350
3196
  3
Basic
350
3194
  3
Brighten
350
319B
  3
ColorChange
350
319F
  3
Conceptual
350
3198
  3
Dim
350
319A
  3
EdgeColorOff
350
1B2EC
  3
Facepattern
350
319E
  3
Flat
350
3190
  3
FlatWithEdges
350
3191
  3
Gouraud
350
3192
  3
GouraudWithEdges
350
3193
  3
Hidden
350
1B2E4
  3
JitterOff
350
1B2EA
  3
Linepattern
350
319D
  3
OverhangOff
350
1B2EB
  3
Realistic
350
3199
  3
Shaded
350
1B2E9
  3
Shaded with edges
350
1B2E8
  3
Shades of Gray
350
1B2E5
  3
Sketchy
350
1B2E6
  3
Thicken
350
319C
  3
Wireframe
350
1B2E3
  3
X-Ray
350
1B2E7
  0
XRECORD
  5
2164A
102
{ACAD_REACTORS
330
3182
102
}
330
3182
100
AcDbXrecord
280
     1
 90
        1
330
31A2
  0
DICTIONARY
  5
33A3
102
{ACAD_REACTORS
330
3182
102
}
330
3182
100
AcDbDictionary
281
     1
  3
CANNOSCALE
350
1B222
  3
CMLEADERSTYLE
350
1B30F
  3
CTABLESTYLE
350
33A4
  3
CVIEWDETAILSTYLE
350
1B310
  3
CVIEWSECTIONSTYLE
350
1B311
  3
DIMASSOC
350
9BE8
  3
INDEXCTL
350
9BE7
  3
LAYEREVAL
350
20993
  3
LAYERNOTIFY
350
20994
  3
LIGHTINGUNITS
350
20992
  3
MSLTSCALE
350
20991
  3
SORTENTS
350
9BE6
  3
XCLIPFRAME
350
1FAAB
  0
DICTIONARY
  5
21651
102
{ACAD_REACTORS
330
3182
102
}
330
3182
100
AcDbDictionary
281
     1
  3
AcDsRecords
350
21653
  3
AcDsSchemas
350
21652
1001
ACAD
1070
     2
  0
XRECORD
  5
2164B
102
{ACAD_REACTORS
330
3182
102
}
330
3182
100
AcDbXrecord
280
     1
  1
DWGPROPS COOKIE
  2

  3

  4

  6

  7

  8
bendera
  9

300
=
301
=
302
=
303
=
304
=
305
=
306
=
307
=
308
=
309
=
 40
0.0110769444444445
 41
2457402.355344479
 42
2457402.36636647
  1

 90
        0
  0
DICTIONARY
  5
1B063
102
{ACAD_REACTORS
330
422A
102
}
330
422A
100
AcDbDictionary
281
     1
  0
DICTIONARY
  5
9A1C
102
{ACAD_REACTORS
330
422A
102
}
330
422A
100
AcDbDictionary
281
     1
  0
DICTIONARY
  5
1B062
102
{ACAD_REACTORS
330
422A
102
}
330
422A
100
AcDbDictionary
281
     1
1001
ACAD
1000
<All
  0
XRECORD
  5
2110E
102
{ACAD_REACTORS
330
1B2F5
102
}
330
1B2F5
100
AcDbXrecord
280
     1
290
     1
  0
XRECORD
  5
2110F
102
{ACAD_REACTORS
330
1B2F7
102
}
330
1B2F7
100
AcDbXrecord
280
     1
290
     1
  0
XRECORD
  5
21110
102
{ACAD_REACTORS
330
1B2F9
102
}
330
1B2F9
100
AcDbXrecord
280
     1
290
     1
  0
XRECORD
  5
21111
102
{ACAD_REACTORS
330
1B2FB
102
}
330
1B2FB
100
AcDbXrecord
280
     1
290
     1
  0
XRECORD
  5
21112
102
{ACAD_REACTORS
330
1B2FD
102
}
330
1B2FD
100
AcDbXrecord
280
     1
290
     1
  0
XRECORD
  5
21113
102
{ACAD_REACTORS
330
1B2FF
102
}
330
1B2FF
100
AcDbXrecord
280
     1
290
     1
  0
XRECORD
  5
21114
102
{ACAD_REACTORS
330
1B301
102
}
330
1B301
100
AcDbXrecord
280
     1
290
     1
  0
XRECORD
  5
21115
102
{ACAD_REACTORS
330
1B303
102
}
330
1B303
100
AcDbXrecord
280
     1
290
     1
  0
XRECORD
  5
21116
102
{ACAD_REACTORS
330
1B305
102
}
330
1B305
100
AcDbXrecord
280
     1
290
     1
  0
XRECORD
  5
21117
102
{ACAD_REACTORS
330
1B307
102
}
330
1B307
100
AcDbXrecord
280
     1
290
     1
  0
XRECORD
  5
21122
102
{ACAD_REACTORS
330
20AE1
102
}
330
20AE1
100
AcDbXrecord
280
     1
290
     1
  0
SORTENTSTABLE
  5
339D
102
{ACAD_REACTORS
330
339C
102
}
330
339C
100
AcDbSortentsTable
330
1F
  0
DICTIONARY
  5
21692
102
{ACAD_REACTORS
330
1DE81
102
}
330
1DE81
100
AcDbDictionary
280
     1
281
     1
  3
Edit
360
21693
  0
DICTIONARY
  5
21696
102
{ACAD_REACTORS
330
20CA6
102
}
330
20CA6
100
AcDbDictionary
280
     1
281
     1
  3
Edit
360
21697
  0
DICTIONARY
  5
20CAA
102
{ACAD_REACTORS
330
20CA9
102
}
330
20CA9
100
AcDbDictionary
280
     1
281
     1
  3
TEXT
360
20CAB
  0
DICTIONARY
  5
20CC5
102
{ACAD_REACTORS
330
20CC4
102
}
330
20CC4
100
AcDbDictionary
280
     1
281
     1
  3
TEXT
360
20CC6
  0
DIMASSOC
  5
2150A
102
{ACAD_REACTORS
330
21509
102
}
330
21509
100
AcDbDimAssoc
330
21508
 90
        3
 70
     0
 71
     0
  1
AcDbOsnapPointRef
 72
     1
331
21506
 73
     2
 91
        1
 40
1.0
 10
0.0
 20
0.0
 30
2.000000000000000E+50
 75
     0
  1
AcDbOsnapPointRef
 72
    13
331
21506
 73
     2
 91
        1
 40
0.0
 10
0.0
 20
0.0
 30
2.000000000000000E+50
 75
     0
  0
DIMASSOC
  5
2150D
102
{ACAD_REACTORS
330
2150C
102
}
330
2150C
100
AcDbDimAssoc
330
2150B
 90
        1
 70
     0
 71
     0
  1
AcDbOsnapPointRef
 72
     2
331
21506
 73
     2
 91
       62
 40
0.5
 10
0.0
 20
0.0
 30
0.0
 75
     0
  0
DIMASSOC
  5
21517
102
{ACAD_REACTORS
330
21516
102
}
330
21516
100
AcDbDimAssoc
330
21515
 90
        1
 70
     0
 71
     0
  1
AcDbOsnapPointRef
 72
     2
331
2141F
 73
     2
 91
        0
 40
0.5
 10
0.0
 20
0.0
 30
0.0
 75
     0
  0
XRECORD
  5
216A1
102
{ACAD_REACTORS
330
21516
102
}
330
21516
100
AcDbXrecord
280
     1
102
ACAD_ROUNDTRIP_2012_MLEADER
295
     1
  0
XRECORD
  5
21679
102
{ACAD_REACTORS
330
21678
102
}
330
21678
100
AcDbXrecord
280
     1
102
SHADEPLOT
 70
     0
  0
XRECORD
  5
2167B
102
{ACAD_REACTORS
330
2167A
102
}
330
2167A
100
AcDbXrecord
280
     1
102
SHADEPLOT
 70
     0
  0
ACDBDETAILVIEWSTYLE
  5
20CB3
102
{ACAD_XDICTIONARY
360
20CB4
102
}
102
{ACAD_REACTORS
330
1B2F0
102
}
330
1B2F0
100
AcDbModelDocViewStyle
 70
     0
  3
Imperial24
290
     0
100
AcDbDetailViewStyle
 70
     0
 71
     0
 90
        3
 71
     1
340
11
 40
0.24
340
0
 40
0.24
300

 40
0.36
280
     3
 71
     2
340
16
 90
       25
 71
     3
340
11
 40
0.24
 90
        1
 40
0.75
 90
        1
300
%<\AcVar ViewType \f "%tc1">% %<\AcVar ViewDetailId>%\PVARIA %<\AcVar ViewScale \f "%sn">%
 71
     4
340
16
 90
       25
340
16
 90
       25
280
     0
  0
ACDBDETAILVIEWSTYLE
  5
1B2F1
102
{ACAD_XDICTIONARY
360
2098E
102
}
102
{ACAD_REACTORS
330
1B2F0
102
}
330
1B2F0
100
AcDbModelDocViewStyle
 70
     0
  3
Metric50
290
     0
100
AcDbDetailViewStyle
 70
     0
 71
     0
 90
        3
 71
     1
340
11
 40
5.0
340
0
 40
5.0
300

 40
0.0
280
     1
 71
     2
340
16
 90
       25
 71
     3
340
11
 40
5.0
 90
        0
 40
15.0
 90
        1
300
%<\AcVar ViewDetailId>% (%<\AcVar ViewScale \f "%sn">%)
 71
     4
340
16
 90
       25
340
16
 90
       25
280
     0
  0
LAYOUT
  5
31A7
102
{ACAD_XDICTIONARY
360
9C07
102
}
102
{ACAD_REACTORS
330
31A5
102
}
330
31A5
100
AcDbPlotSettings
  1

  2
\\ingdc01\ITB3
  4
A4
  6

 40
6.805083274841307
 41
5.027085781097412
 42
6.805068969726562
 43
5.027069091796875
 44
209.9733276367186
 45
296.9683227539062
 46
0.0
 47
0.0
 48
0.0
 49
0.0
140
0.0
141
0.0
142
1.0
143
1.0
 70
   688
 72
     1
 73
     1
 74
     5
  7

 75
    16
147
1.0
148
0.0
149
0.0
100
AcDbLayout
  1
Layout1
 70
     1
 71
     1
 10
-5.027069091796875
 20
-6.805083274841307
 11
291.9412536621094
 21
203.1682443618775
 12
0.0
 22
0.0
 32
0.0
 14
28.69141678810127
 24
19.6363175392151
 34
0.0
 15
258.2227510929107
 25
176.7268578529358
 35
0.0
146
0.0
 13
0.0
 23
0.0
 33
0.0
 16
1.0
 26
0.0
 36
0.0
 17
0.0
 27
1.0
 37
0.0
 76
     0
330
1B
331
9C00
1001
ACAD_PSEXT
1000
\\ingdc01\ITB3
1000
HP LaserJet 5000 Series PCL
1000
TB
1000

1070
     0
  0
LAYOUT
  5
31A6
102
{ACAD_XDICTIONARY
360
21675
102
}
102
{ACAD_REACTORS
330
31A5
102
}
330
31A5
100
AcDbPlotSettings
  1

  2
\\ingdc01\ITB3
  4
A4
  6

 40
6.805083274841307
 41
5.027085781097412
 42
6.805068969726562
 43
5.027069091796875
 44
209.9733276367186
 45
296.9683227539062
 46
0.0
 47
0.0
 48
0.0
 49
0.0
140
0.0
141
0.0
142
1.0
143
1.500313223655698
 70
 11952
 72
     1
 73
     1
 74
     0
  7

 75
     0
147
0.6665274852163048
148
239.0155119930048
149
102.2558208723354
100
AcDbLayout
  1
Model
 70
     1
 71
     0
 10
0.0
 20
0.0
 11
12.0
 21
9.0
 12
0.0
 22
0.0
 32
0.0
 14
0.0
 24
0.0
 34
0.0
 15
0.0
 25
0.0
 35
0.0
146
0.0
 13
0.0
 23
0.0
 33
0.0
 16
1.0
 26
0.0
 36
0.0
 17
0.0
 27
1.0
 37
0.0
 76
     0
330
1F
331
1F4
1001
ACAD_PSEXT
1000
\\ingdc01\ITB3
1000
HP LaserJet 5000 Series PCL
1000
TB
1000

1070
     0
  0
MATERIAL
  5
318D
102
{ACAD_XDICTIONARY
360
1B22B
102
}
102
{ACAD_REACTORS
330
318B
102
}
330
318B
100
AcDbMaterial
  1
ByBlock
  0
MATERIAL
  5
318C
102
{ACAD_XDICTIONARY
360
1B22D
102
}
102
{ACAD_REACTORS
330
318B
102
}
330
318B
100
AcDbMaterial
  1
ByLayer
  0
MATERIAL
  5
318E
102
{ACAD_XDICTIONARY
360
1B22F
102
}
102
{ACAD_REACTORS
330
318B
102
}
330
318B
100
AcDbMaterial
  1
Global
  0
MLEADERSTYLE
  5
20D51
102
{ACAD_XDICTIONARY
360
2169D
102
}
102
{ACAD_REACTORS
330
20E9C
330
1B221
330
213C5
330
21515
102
}
330
1B221
100
AcDbMLeaderStyle
170
     2
171
     1
172
     0
 90
        2
 40
0.0
 41
0.0
173
     1
 91
-1073741824
340
15
 92
       -1
290
     1
 42
2.0
291
     1
 43
0.36
  3
Standard
 44
2.5
300

342
11
174
     1
178
     6
175
     1
176
     0
 93
-1073741824
 45
3.5
292
     0
297
     0
 46
4.0
 94
-1056964608
 47
1.0
 49
1.0
140
1.0
293
     1
141
0.0
294
     1
177
     0
142
1.0
295
     0
296
     0
143
0.125
1001
ACAD_MLEADERVER
1070
     2
  0
MLEADERSTYLE
  5
1B2ED
102
{ACAD_REACTORS
330
1B221
102
}
330
1B221
100
AcDbMLeaderStyle
170
     2
171
     1
172
     0
 90
        2
 40
0.0
 41
0.0
173
     1
 91
-1056964608
340
14
 92
       -2
290
     1
 42
2.0
291
     1
 43
0.36
  3
Standard
 44
4.0
300

342
11
174
     1
178
     6
175
     1
176
     0
 93
-1056964608
 45
4.0
292
     0
297
     0
 46
4.0
 94
-1056964608
 47
1.0
 49
1.0
140
1.0
293
     1
141
0.0
294
     1
177
     0
142
1.0
295
     0
296
     0
143
0.125
1001
ACAD_MLEADERVER
1070
     2
  0
MLINESTYLE
  5
3185
102
{ACAD_REACTORS
330
3184
102
}
330
3184
100
AcDbMlineStyle
  2
STANDARD
 70
     0
  3

 62
   256
 51
90.0
 52
90.0
 71
     2
 49
0.5
 62
   256
  6
BYLAYER
 49
-0.5
 62
   256
  6
BYLAYER
  0
ACDBPLACEHOLDER
  5
318A
102
{ACAD_REACTORS
330
3189
102
}
330
3189
  0
SCALE
  5
1B1FD
102
{ACAD_REACTORS
330
1B1FC
102
}
330
1B1FC
100
AcDbScale
 70
     0
300
1:1
140
1.0
141
1.0
290
     1
1001
ACAD
1000
AcRTDxfName
1000
SCALE
  0
SCALE
  5
1B1FE
102
{ACAD_REACTORS
330
1B1FC
102
}
330
1B1FC
100
AcDbScale
 70
     0
300
1:2
140
1.0
141
2.0
290
     0
1001
ACAD
1000
AcRTDxfName
1000
SCALE
  0
SCALE
  5
1B1FF
102
{ACAD_REACTORS
330
1B1FC
102
}
330
1B1FC
100
AcDbScale
 70
     0
300
1:4
140
1.0
141
4.0
290
     0
1001
ACAD
1000
AcRTDxfName
1000
SCALE
  0
SCALE
  5
1B200
102
{ACAD_REACTORS
330
1B1FC
102
}
330
1B1FC
100
AcDbScale
 70
     0
300
1:5
140
1.0
141
5.0
290
     0
1001
ACAD
1000
AcRTDxfName
1000
SCALE
  0
SCALE
  5
1B201
102
{ACAD_REACTORS
330
1B1FC
102
}
330
1B1FC
100
AcDbScale
 70
     0
300
1:8
140
1.0
141
8.0
290
     0
1001
ACAD
1000
AcRTDxfName
1000
SCALE
  0
SCALE
  5
1B202
102
{ACAD_REACTORS
330
1B1FC
102
}
330
1B1FC
100
AcDbScale
 70
     0
300
1:10
140
1.0
141
10.0
290
     0
1001
ACAD
1000
AcRTDxfName
1000
SCALE
  0
SCALE
  5
1B203
102
{ACAD_REACTORS
330
1B1FC
102
}
330
1B1FC
100
AcDbScale
 70
     0
300
1:16
140
1.0
141
16.0
290
     0
1001
ACAD
1000
AcRTDxfName
1000
SCALE
  0
SCALE
  5
1B204
102
{ACAD_REACTORS
330
1B1FC
102
}
330
1B1FC
100
AcDbScale
 70
     0
300
1:20
140
1.0
141
20.0
290
     0
1001
ACAD
1000
AcRTDxfName
1000
SCALE
  0
SCALE
  5
1B205
102
{ACAD_REACTORS
330
1B1FC
102
}
330
1B1FC
100
AcDbScale
 70
     0
300
1:30
140
1.0
141
30.0
290
     0
1001
ACAD
1000
AcRTDxfName
1000
SCALE
  0
SCALE
  5
1B206
102
{ACAD_REACTORS
330
1B1FC
102
}
330
1B1FC
100
AcDbScale
 70
     0
300
1:40
140
1.0
141
40.0
290
     0
1001
ACAD
1000
AcRTDxfName
1000
SCALE
  0
SCALE
  5
1B207
102
{ACAD_REACTORS
330
1B1FC
102
}
330
1B1FC
100
AcDbScale
 70
     0
300
1:50
140
1.0
141
50.0
290
     0
1001
ACAD
1000
AcRTDxfName
1000
SCALE
  0
SCALE
  5
1B208
102
{ACAD_REACTORS
330
1B1FC
102
}
330
1B1FC
100
AcDbScale
 70
     0
300
1:100
140
1.0
141
100.0
290
     0
1001
ACAD
1000
AcRTDxfName
1000
SCALE
  0
SCALE
  5
1B209
102
{ACAD_REACTORS
330
1B1FC
102
}
330
1B1FC
100
AcDbScale
 70
     0
300
2:1
140
2.0
141
1.0
290
     0
1001
ACAD
1000
AcRTDxfName
1000
SCALE
  0
SCALE
  5
1B20A
102
{ACAD_REACTORS
330
1B1FC
102
}
330
1B1FC
100
AcDbScale
 70
     0
300
4:1
140
4.0
141
1.0
290
     0
1001
ACAD
1000
AcRTDxfName
1000
SCALE
  0
SCALE
  5
1B20B
102
{ACAD_REACTORS
330
1B1FC
102
}
330
1B1FC
100
AcDbScale
 70
     0
300
8:1
140
8.0
141
1.0
290
     0
1001
ACAD
1000
AcRTDxfName
1000
SCALE
  0
SCALE
  5
1B20C
102
{ACAD_REACTORS
330
1B1FC
102
}
330
1B1FC
100
AcDbScale
 70
     0
300
10:1
140
10.0
141
1.0
290
     0
1001
ACAD
1000
AcRTDxfName
1000
SCALE
  0
SCALE
  5
1B20D
102
{ACAD_REACTORS
330
1B1FC
102
}
330
1B1FC
100
AcDbScale
 70
     0
300
100:1
140
100.0
141
1.0
290
     0
1001
ACAD
1000
AcRTDxfName
1000
SCALE
  0
SCALE
  5
1B20E
102
{ACAD_REACTORS
330
1B1FC
102
}
330
1B1FC
100
AcDbScale
 70
     0
300
1/128" = 1'-0"
140
0.0078125
141
12.0
290
     0
1001
ACAD
1000
AcRTDxfName
1000
SCALE
  0
SCALE
  5
1B20F
102
{ACAD_REACTORS
330
1B1FC
102
}
330
1B1FC
100
AcDbScale
 70
     0
300
1/64" = 1'-0"
140
0.015625
141
12.0
290
     0
1001
ACAD
1000
AcRTDxfName
1000
SCALE
  0
SCALE
  5
1B210
102
{ACAD_REACTORS
330
1B1FC
102
}
330
1B1FC
100
AcDbScale
 70
     0
300
1/32" = 1'-0"
140
0.03125
141
12.0
290
     0
1001
ACAD
1000
AcRTDxfName
1000
SCALE
  0
SCALE
  5
1B211
102
{ACAD_REACTORS
330
1B1FC
102
}
330
1B1FC
100
AcDbScale
 70
     0
300
1/16" = 1'-0"
140
0.0625
141
12.0
290
     0
1001
ACAD
1000
AcRTDxfName
1000
SCALE
  0
SCALE
  5
1B212
102
{ACAD_REACTORS
330
1B1FC
102
}
330
1B1FC
100
AcDbScale
 70
     0
300
3/32" = 1'-0"
140
0.09375
141
12.0
290
     0
1001
ACAD
1000
AcRTDxfName
1000
SCALE
  0
SCALE
  5
1B213
102
{ACAD_REACTORS
330
1B1FC
102
}
330
1B1FC
100
AcDbScale
 70
     0
300
1/8" = 1'-0"
140
0.125
141
12.0
290
     0
1001
ACAD
1000
AcRTDxfName
1000
SCALE
  0
SCALE
  5
1B214
102
{ACAD_REACTORS
330
1B1FC
102
}
330
1B1FC
100
AcDbScale
 70
     0
300
3/16" = 1'-0"
140
0.1875
141
12.0
290
     0
1001
ACAD
1000
AcRTDxfName
1000
SCALE
  0
SCALE
  5
1B215
102
{ACAD_REACTORS
330
1B1FC
102
}
330
1B1FC
100
AcDbScale
 70
     0
300
1/4" = 1'-0"
140
0.25
141
12.0
290
     0
1001
ACAD
1000
AcRTDxfName
1000
SCALE
  0
SCALE
  5
1B216
102
{ACAD_REACTORS
330
1B1FC
102
}
330
1B1FC
100
AcDbScale
 70
     0
300
3/8" = 1'-0"
140
0.375
141
12.0
290
     0
1001
ACAD
1000
AcRTDxfName
1000
SCALE
  0
SCALE
  5
1B217
102
{ACAD_REACTORS
330
1B1FC
102
}
330
1B1FC
100
AcDbScale
 70
     0
300
1/2" = 1'-0"
140
0.5
141
12.0
290
     0
1001
ACAD
1000
AcRTDxfName
1000
SCALE
  0
SCALE
  5
1B218
102
{ACAD_REACTORS
330
1B1FC
102
}
330
1B1FC
100
AcDbScale
 70
     0
300
3/4" = 1'-0"
140
0.75
141
12.0
290
     0
1001
ACAD
1000
AcRTDxfName
1000
SCALE
  0
SCALE
  5
1B219
102
{ACAD_REACTORS
330
1B1FC
102
}
330
1B1FC
100
AcDbScale
 70
     0
300
1" = 1'-0"
140
1.0
141
12.0
290
     0
1001
ACAD
1000
AcRTDxfName
1000
SCALE
  0
SCALE
  5
1B21A
102
{ACAD_REACTORS
330
1B1FC
102
}
330
1B1FC
100
AcDbScale
 70
     0
300
1-1/2" = 1'-0"
140
1.5
141
12.0
290
     0
1001
ACAD
1000
AcRTDxfName
1000
SCALE
  0
SCALE
  5
1B21B
102
{ACAD_REACTORS
330
1B1FC
102
}
330
1B1FC
100
AcDbScale
 70
     0
300
3" = 1'-0"
140
3.0
141
12.0
290
     0
1001
ACAD
1000
AcRTDxfName
1000
SCALE
  0
SCALE
  5
1B21C
102
{ACAD_REACTORS
330
1B1FC
102
}
330
1B1FC
100
AcDbScale
 70
     0
300
6" = 1'-0"
140
6.0
141
12.0
290
     0
1001
ACAD
1000
AcRTDxfName
1000
SCALE
  0
SCALE
  5
1B21D
102
{ACAD_REACTORS
330
1B1FC
102
}
330
1B1FC
100
AcDbScale
 70
     0
300
1'-0" = 1'-0"
140
12.0
141
12.0
290
     0
1001
ACAD
1000
AcRTDxfName
1000
SCALE
  0
ACDBSECTIONVIEWSTYLE
  5
20CB1
102
{ACAD_XDICTIONARY
360
20CB2
102
}
102
{ACAD_REACTORS
330
1B2EE
102
}
330
1B2EE
100
AcDbModelDocViewStyle
 70
     0
  3
Imperial24
290
     0
100
AcDbSectionViewStyle
 70
     0
 71
     0
 90
       78
 71
     1
340
11
 40
0.24
340
0
340
0
 40
0.24
300
I, O, Q, S, X, Z
 40
0.48
 90
        3
 40
0.18
 90
        1
 71
     2
340
16
 90
       25
340
16
 90
       50
 40
0.24
 40
0.0
 40
0.24
 71
     3
340
11
 40
0.24
 90
        1
 40
0.75
 90
        1
300
%<\AcVar ViewType \f "%tc1">% %<\AcVar ViewSectionStartId>%-%<\AcVar ViewSectionEndId>%\PVARIA %<\AcVar ViewScale \f "%sn">%
 71
     4
300
ANSI31
 40
1.0
 90
        0
290
     0
290
     0
 90
        6
 40
0.0
 40
1.570796326794896
 40
0.2617993877991494
 40
1.308996938995747
 40
-0.2617993877991494
 40
1.832595714594046
  0
ACDBSECTIONVIEWSTYLE
  5
1B2EF
102
{ACAD_XDICTIONARY
360
2098C
102
}
102
{ACAD_REACTORS
330
1B2EE
102
}
330
1B2EE
100
AcDbModelDocViewStyle
 70
     0
  3
Metric50
290
     0
100
AcDbSectionViewStyle
 70
     0
 71
     0
 90
      102
 71
     1
340
11
 40
5.0
340
0
340
0
 40
5.0
300
I, O, Q, S, X, Z
 40
10.0
 90
        0
 40
2.5
 90
        0
 71
     2
340
16
 90
       25
340
16
 90
       50
 40
5.0
 40
2.5
 40
5.0
 71
     3
340
11
 40
5.0
 90
        0
 40
15.0
 90
        1
300
%<\AcVar ViewSectionStartId>%-%<\AcVar ViewSectionEndId>% (%<\AcVar ViewScale \f "%sn">%)
 71
     4
300
ANSI31
 40
1.0
 90
        0
290
     0
290
     0
 90
        6
 40
0.0
 40
1.570796326794896
 40
0.2617993877991494
 40
1.308996938995747
 40
-0.2617993877991494
 40
1.832595714594044
  0
TABLESTYLE
  5
31A2
102
{ACAD_XDICTIONARY
360
1B314
102
}
102
{ACAD_REACTORS
330
31A1
102
}
330
31A1
100
AcDbTableStyle
  3
Standard
 70
     0
 71
     0
 40
1.5
 41
1.5
280
     0
281
     0
  7
STANDARD
140
4.5
170
     2
 62
     0
 63
     7
283
     0
274
    -2
284
     1
 64
     0
275
    -2
285
     1
 65
     0
276
    -2
286
     1
 66
     0
277
    -2
287
     1
 67
     0
278
    -2
288
     1
 68
     0
279
    -2
289
     1
 69
     0
  7
STANDARD
140
6.0
170
     5
 62
     0
 63
     7
283
     0
274
    -2
284
     1
 64
     0
275
    -2
285
     1
 65
     0
276
    -2
286
     1
 66
     0
277
    -2
287
     1
 67
     0
278
    -2
288
     1
 68
     0
279
    -2
289
     1
 69
     0
  7
STANDARD
140
4.5
170
     5
 62
     0
 63
     7
283
     0
274
    -2
284
     1
 64
     0
275
    -2
285
     1
 65
     0
276
    -2
286
     1
 66
     0
277
    -2
287
     1
 67
     0
278
    -2
288
     1
 68
     0
279
    -2
289
     1
 69
     0
  0
VISUALSTYLE
  5
3195
102
{ACAD_XDICTIONARY
360
2165E
102
}
102
{ACAD_REACTORS
330
318F
102
}
330
318F
100
AcDbVisualStyle
  2

 70
     4
 71
     0
 72
     2
 73
     0
 90
        0
 40
-0.6
 41
-30.0
 62
     5
 63
     7
 74
     1
 91
        4
 64
     7
 65
   257
 75
     1
175
     1
 42
1.0
 92
        0
 66
   257
 43
1.0
 76
     1
 77
     6
 78
     2
 67
     7
 79
     5
170
     0
171
     0
290
     0
174
     0
 93
        1
 44
0.0
173
     0
291
     0
 45
0.0
1001
ACAD
1000
AcDbSavedByObjectVersion
1070
     0
  0
VISUALSTYLE
  5
3197
102
{ACAD_XDICTIONARY
360
21662
102
}
102
{ACAD_REACTORS
330
318F
102
}
330
318F
100
AcDbVisualStyle
  2

 70
     6
 71
     1
 72
     2
 73
     2
 90
        0
 40
-0.6
 41
-30.0
 62
     5
 63
     7
 74
     2
 91
        2
 64
     7
 65
   257
 75
     2
175
     1
 42
40.0
 92
        0
 66
   257
 43
1.0
 76
     1
 77
     6
 78
     2
 67
     7
 79
     3
170
     0
171
     0
290
     0
174
     0
 93
        1
 44
0.0
173
     0
291
     0
 45
0.0
1001
ACAD
1000
AcDbSavedByObjectVersion
1070
     0
  0
VISUALSTYLE
  5
3196
102
{ACAD_XDICTIONARY
360
21660
102
}
102
{ACAD_REACTORS
330
318F
102
}
330
318F
100
AcDbVisualStyle
  2

 70
     5
 71
     0
 72
     2
 73
     0
 90
        0
 40
-0.6
 41
-30.0
 62
     5
 63
     7
 74
     1
 91
        4
 64
     7
 65
   257
 75
     1
175
     1
 42
1.0
 92
        0
 66
   257
 43
1.0
 76
     1
 77
     6
 78
     2
 67
     7
 79
     5
170
     0
171
     0
290
     0
174
     0
 93
        1
 44
0.0
173
     0
291
     0
 45
0.0
1001
ACAD
1000
AcDbSavedByObjectVersion
1070
     0
  0
VISUALSTYLE
  5
3194
102
{ACAD_XDICTIONARY
360
2165C
102
}
102
{ACAD_REACTORS
330
318F
102
}
330
318F
100
AcDbVisualStyle
  2

 70
     7
 71
     1
 72
     0
 73
     1
 90
        0
 40
-0.6
 41
-30.0
 62
     5
 63
     7
 74
     0
 91
        4
 64
     7
 65
   257
 75
     1
175
     1
 42
1.0
 92
        8
 66
     7
 43
1.0
 76
     1
 77
     6
 78
     2
 67
     7
 79
     5
170
     0
171
     0
290
     0
174
     0
 93
        1
 44
0.0
173
     0
291
     1
 45
0.0
1001
ACAD
1000
AcDbSavedByObjectVersion
1070
     0
  0
VISUALSTYLE
  5
319B
102
{ACAD_XDICTIONARY
360
2166A
102
}
102
{ACAD_REACTORS
330
318F
102
}
330
318F
100
AcDbVisualStyle
  2

 70
    12
 71
     2
 72
     2
 73
     0
 90
        0
 40
-0.6
 41
-30.0
 62
     5
 63
     7
 74
     1
 91
        4
 64
     7
 65
   257
 75
     1
175
     1
 42
1.0
 92
        8
 66
     7
 43
1.0
 76
     1
 77
     6
 78
     2
 67
     7
 79
     5
170
     0
171
     0
290
     0
174
     0
 93
        1
 44
50.0
173
     0
291
     1
 45
0.0
1001
ACAD
1000
AcDbSavedByObjectVersion
1070
     0
  0
VISUALSTYLE
  5
319F
102
{ACAD_XDICTIONARY
360
21672
102
}
102
{ACAD_REACTORS
330
318F
102
}
330
318F
100
AcDbVisualStyle
  2

 70
    16
 71
     2
 72
     2
 73
     3
 90
        0
 40
-0.6
 41
-30.0
 62
     5
 63
     8
 74
     1
 91
        4
 64
     7
 65
   257
 75
     1
175
     1
 42
1.0
 92
        8
 66
     8
 43
1.0
 76
     1
 77
     6
 78
     2
 67
     7
 79
     5
170
     0
171
     0
290
     0
174
     0
 93
        1
 44
0.0
173
     0
291
     1
 45
0.0
1001
ACAD
1000
AcDbSavedByObjectVersion
1070
     0
  0
VISUALSTYLE
  5
3198
102
{ACAD_XDICTIONARY
360
21664
102
}
102
{ACAD_REACTORS
330
318F
102
}
330
318F
100
AcDbVisualStyle
  2

 70
     9
 71
     3
 72
     2
 73
     0
 90
        0
 40
-0.6
 41
-30.0
 62
     5
 63
     7
 74
     2
 91
        2
 64
     7
 65
   257
 75
     1
175
     1
 42
40.0
 92
        8
 66
     7
 43
1.0
 76
     1
 77
     6
 78
     2
 67
     7
 79
     3
170
     0
171
     0
290
     0
174
     0
 93
        1
 44
0.0
173
     0
291
     0
 45
0.0
1001
ACAD
1000
AcDbSavedByObjectVersion
1070
     0
  0
VISUALSTYLE
  5
319A
102
{ACAD_XDICTIONARY
360
21668
102
}
102
{ACAD_REACTORS
330
318F
102
}
330
318F
100
AcDbVisualStyle
  2

 70
    11
 71
     2
 72
     2
 73
     0
 90
        0
 40
-0.6
 41
-30.0
 62
     5
 63
     7
 74
     1
 91
        4
 64
     7
 65
   257
 75
     1
175
     1
 42
1.0
 92
        8
 66
     7
 43
1.0
 76
     1
 77
     6
 78
     2
 67
     7
 79
     5
170
     0
171
     0
290
     0
174
     0
 93
        1
 44
-50.0
173
     0
291
     1
 45
0.0
1001
ACAD
1000
AcDbSavedByObjectVersion
1070
     0
  0
VISUALSTYLE
  5
1B2EC
102
{ACAD_XDICTIONARY
360
2168E
102
}
102
{ACAD_REACTORS
330
318F
102
}
330
318F
100
AcDbVisualStyle
  2

 70
    22
 71
     2
 72
     2
 73
     0
 90
        0
 40
-0.6
 41
-30.0
 62
     5
 63
     7
 74
     1
 91
        4
 64
     7
 65
   257
 75
     1
175
     1
 42
1.0
 92
        8
 66
     7
 43
1.0
 76
     1
 77
     6
 78
     2
 67
     7
 79
     5
170
     0
171
     0
290
     0
174
     0
 93
        1
 44
0.0
173
     0
291
     1
 45
0.0
1001
ACAD
1000
AcDbSavedByObjectVersion
1070
     0
  0
VISUALSTYLE
  5
319E
102
{ACAD_XDICTIONARY
360
21670
102
}
102
{ACAD_REACTORS
330
318F
102
}
330
318F
100
AcDbVisualStyle
  2

 70
    15
 71
     2
 72
     2
 73
     0
 90
        0
 40
-0.6
 41
-30.0
 62
     5
 63
     7
 74
     1
 91
        4
 64
     7
 65
   257
 75
     1
175
     1
 42
1.0
 92
        8
 66
     7
 43
1.0
 76
     1
 77
     6
 78
     2
 67
     7
 79
     5
170
     0
171
     0
290
     0
174
     0
 93
        1
 44
0.0
173
     0
291
     1
 45
0.0
1001
ACAD
1000
AcDbSavedByObjectVersion
1070
     0
  0
VISUALSTYLE
  5
3190
102
{ACAD_XDICTIONARY
360
21654
102
}
102
{ACAD_REACTORS
330
318F
102
}
330
318F
100
AcDbVisualStyle
  2

 70
     0
 71
     2
 72
     1
 73
     1
 90
        2
 40
-0.6
 41
30.0
 62
     5
 63
     7
 74
     0
 91
        4
 64
     7
 65
   257
 75
     1
175
     1
 42
1.0
 92
        8
 66
     7
 43
1.0
 76
     1
 77
     6
 78
     2
 67
     7
 79
     5
170
     0
171
     0
290
     0
174
     0
 93
       13
 44
0.0
173
     0
291
     1
 45
0.0
1001
ACAD
1000
AcDbSavedByObjectVersion
1070
     0
  0
VISUALSTYLE
  5
3191
102
{ACAD_XDICTIONARY
360
21656
102
}
102
{ACAD_REACTORS
330
318F
102
}
330
318F
100
AcDbVisualStyle
  2

 70
     1
 71
     2
 72
     1
 73
     1
 90
        2
 40
-0.6
 41
30.0
 62
     5
 63
     7
 74
     1
 91
        4
 64
     7
 65
   257
 75
     1
175
     1
 42
1.0
 92
        0
 66
   257
 43
1.0
 76
     1
 77
     6
 78
     2
 67
     7
 79
     5
170
     0
171
     0
290
     0
174
     0
 93
       13
 44
0.0
173
     0
291
     1
 45
0.0
1001
ACAD
1000
AcDbSavedByObjectVersion
1070
     0
  0
VISUALSTYLE
  5
3192
102
{ACAD_XDICTIONARY
360
21658
102
}
102
{ACAD_REACTORS
330
318F
102
}
330
318F
100
AcDbVisualStyle
  2

 70
     2
 71
     2
 72
     2
 73
     1
 90
        2
 40
-0.6
 41
30.0
 62
     5
 63
     7
 74
     0
 91
        4
 64
     7
 65
   257
 75
     1
175
     1
 42
1.0
 92
        0
 66
     7
 43
1.0
 76
     1
 77
     6
 78
     2
 67
     7
 79
     5
170
     0
171
     0
290
     0
174
     0
 93
       13
 44
0.0
173
     0
291
     1
 45
0.0
1001
ACAD
1000
AcDbSavedByObjectVersion
1070
     0
  0
VISUALSTYLE
  5
3193
102
{ACAD_XDICTIONARY
360
2165A
102
}
102
{ACAD_REACTORS
330
318F
102
}
330
318F
100
AcDbVisualStyle
  2

 70
     3
 71
     2
 72
     2
 73
     1
 90
        2
 40
-0.6
 41
30.0
 62
     5
 63
     7
 74
     1
 91
        4
 64
     7
 65
   257
 75
     1
175
     1
 42
1.0
 92
        0
 66
   257
 43
1.0
 76
     1
 77
     6
 78
     2
 67
     7
 79
     5
170
     0
171
     0
290
     0
174
     0
 93
       13
 44
0.0
173
     0
291
     1
 45
0.0
1001
ACAD
1000
AcDbSavedByObjectVersion
1070
     0
  0
VISUALSTYLE
  5
1B2E4
102
{ACAD_XDICTIONARY
360
2167E
102
}
102
{ACAD_REACTORS
330
318F
102
}
330
318F
100
AcDbVisualStyle
  2

 70
     6
 71
     1
 72
     2
 73
     2
 90
        0
 40
-0.6
 41
-30.0
 62
     5
 63
     7
 74
     2
 91
        2
 64
     7
 65
   257
 75
     2
175
     1
 42
40.0
 92
        0
 66
   257
 43
1.0
 76
     1
 77
     6
 78
     2
 67
     7
 79
     3
170
     0
171
     0
290
     0
174
     0
 93
        1
 44
0.0
173
     0
291
     0
 45
0.0
1001
ACAD
1000
AcDbSavedByObjectVersion
1070
     0
  0
VISUALSTYLE
  5
1B2EA
102
{ACAD_XDICTIONARY
360
2168A
102
}
102
{ACAD_REACTORS
330
318F
102
}
330
318F
100
AcDbVisualStyle
  2

 70
    20
 71
     2
 72
     2
 73
     0
 90
        0
 40
-0.6
 41
-30.0
 62
     5
 63
     7
 74
     1
 91
        4
 64
     7
 65
   257
 75
     1
175
     1
 42
1.0
 92
       10
 66
     7
 43
1.0
 76
     1
 77
     6
 78
     2
 67
     7
 79
     5
170
     0
171
     0
290
     0
174
     0
 93
        1
 44
0.0
173
     0
291
     1
 45
0.0
1001
ACAD
1000
AcDbSavedByObjectVersion
1070
     0
  0
VISUALSTYLE
  5
319D
102
{ACAD_XDICTIONARY
360
2166E
102
}
102
{ACAD_REACTORS
330
318F
102
}
330
318F
100
AcDbVisualStyle
  2

 70
    14
 71
     2
 72
     2
 73
     0
 90
        0
 40
-0.6
 41
-30.0
 62
     5
 63
     7
 74
     1
 91
        4
 64
     7
 65
   257
 75
     7
175
     7
 42
1.0
 92
        8
 66
     7
 43
1.0
 76
     1
 77
     6
 78
     2
 67
     7
 79
     5
170
     0
171
     0
290
     0
174
     0
 93
        1
 44
0.0
173
     0
291
     1
 45
0.0
1001
ACAD
1000
AcDbSavedByObjectVersion
1070
     0
  0
VISUALSTYLE
  5
1B2EB
102
{ACAD_XDICTIONARY
360
2168C
102
}
102
{ACAD_REACTORS
330
318F
102
}
330
318F
100
AcDbVisualStyle
  2

 70
    21
 71
     2
 72
     2
 73
     0
 90
        0
 40
-0.6
 41
-30.0
 62
     5
 63
     7
 74
     1
 91
        4
 64
     7
 65
   257
 75
     1
175
     1
 42
1.0
 92
        9
 66
     7
 43
1.0
 76
     1
 77
     6
 78
     2
 67
     7
 79
     5
170
     0
171
     0
290
     0
174
     0
 93
        1
 44
0.0
173
     0
291
     1
 45
0.0
1001
ACAD
1000
AcDbSavedByObjectVersion
1070
     0
  0
VISUALSTYLE
  5
3199
102
{ACAD_XDICTIONARY
360
21666
102
}
102
{ACAD_REACTORS
330
318F
102
}
330
318F
100
AcDbVisualStyle
  2

 70
     8
 71
     2
 72
     2
 73
     0
 90
        0
 40
-0.6
 41
-30.0
 62
     5
 63
     7
 74
     1
 91
        0
 64
     7
 65
   257
 75
     1
175
     1
 42
1.0
 92
        8
 66
     8
 43
1.0
 76
     1
 77
     6
 78
     2
 67
     7
 79
     5
170
     0
171
     0
290
     0
174
     0
 93
       13
 44
0.0
173
     0
291
     0
 45
0.0
1001
ACAD
1000
AcDbSavedByObjectVersion
1070
     0
  0
VISUALSTYLE
  5
1B2E9
102
{ACAD_XDICTIONARY
360
21688
102
}
102
{ACAD_REACTORS
330
318F
102
}
330
318F
100
AcDbVisualStyle
  2

 70
    27
 71
     2
 72
     2
 73
     1
 90
        2
 40
-0.6
 41
30.0
 62
     5
 63
     7
 74
     0
 91
        4
 64
     7
 65
   257
 75
     1
175
     1
 42
1.0
 92
        8
 66
   257
 43
1.0
 76
     1
 77
     6
 78
     2
 67
     8
 79
     3
170
     0
171
     0
290
     0
174
     0
 93
        5
 44
0.0
173
     0
291
     0
 45
0.0
1001
ACAD
1000
AcDbSavedByObjectVersion
1070
     0
  0
VISUALSTYLE
  5
1B2E8
102
{ACAD_XDICTIONARY
360
21686
102
}
102
{ACAD_REACTORS
330
318F
102
}
330
318F
100
AcDbVisualStyle
  2

 70
    26
 71
     2
 72
     2
 73
     1
 90
        2
 40
-0.6
 41
30.0
 62
     5
 63
     7
 74
     1
 91
       10
 64
     7
 65
   257
 75
     2
175
     1
 42
1.0
 92
        8
 66
   257
 43
1.0
 76
     1
 77
     6
 78
     2
 67
     7
 79
     3
170
     0
171
     0
290
     0
174
     0
 93
        5
 44
0.0
173
     0
291
     0
 45
0.0
1001
ACAD
1000
AcDbSavedByObjectVersion
1070
     0
  0
VISUALSTYLE
  5
1B2E5
102
{ACAD_XDICTIONARY
360
21680
102
}
102
{ACAD_REACTORS
330
318F
102
}
330
318F
100
AcDbVisualStyle
  2

 70
    23
 71
     2
 72
     2
 73
     3
 90
        0
 40
-0.6
 41
-30.0
 62
     5
 63
     7
 74
     2
 91
        2
 64
     7
 65
     7
 75
     1
175
     1
 42
40.0
 92
        8
 66
     7
 43
1.0
 76
     1
 77
     6
 78
     2
 67
     7
 79
     3
170
     0
171
     0
290
     0
174
     0
 93
        1
 44
0.0
173
     0
291
     0
 45
0.0
1001
ACAD
1000
AcDbSavedByObjectVersion
1070
     0
  0
VISUALSTYLE
  5
1B2E6
102
{ACAD_XDICTIONARY
360
21682
102
}
102
{ACAD_REACTORS
330
318F
102
}
330
318F
100
AcDbVisualStyle
  2

 70
    24
 71
     1
 72
     2
 73
     2
 90
        0
 40
-0.6
 41
-30.0
 62
     5
 63
     7
 74
     2
 91
        2
 64
     7
 65
     7
 75
     1
175
     1
 42
40.0
 92
       11
 66
     7
 43
1.0
 76
     1
 77
     6
 78
     2
 67
     7
 79
     6
170
     0
171
     0
290
     0
174
     0
 93
        1
 44
0.0
173
     0
291
     0
 45
0.0
1001
ACAD
1000
AcDbSavedByObjectVersion
1070
     0
  0
VISUALSTYLE
  5
319C
102
{ACAD_XDICTIONARY
360
2166C
102
}
102
{ACAD_REACTORS
330
318F
102
}
330
318F
100
AcDbVisualStyle
  2

 70
    13
 71
     2
 72
     2
 73
     0
 90
        0
 40
-0.6
 41
-30.0
 62
     5
 63
     7
 74
     1
 91
        4
 64
     7
 65
   257
 75
     1
175
     1
 42
1.0
 92
       12
 66
     7
 43
1.0
 76
     1
 77
     6
 78
     2
 67
     7
 79
     5
170
     0
171
     0
290
     0
174
     0
 93
        1
 44
0.0
173
     0
291
     1
 45
0.0
1001
ACAD
1000
AcDbSavedByObjectVersion
1070
     0
  0
VISUALSTYLE
  5
1B2E3
102
{ACAD_XDICTIONARY
360
2167C
102
}
102
{ACAD_REACTORS
330
318F
102
}
330
318F
100
AcDbVisualStyle
  2

 70
     5
 71
     0
 72
     2
 73
     0
 90
        0
 40
-0.6
 41
-30.0
 62
     5
 63
     7
 74
     1
 91
        4
 64
     7
 65
   257
 75
     1
175
     1
 42
1.0
 92
        0
 66
   257
 43
1.0
 76
     1
 77
     6
 78
     2
 67
     7
 79
     3
170
     0
171
     0
290
     0
174
     0
 93
        1
 44
0.0
173
     0
291
     0
 45
0.0
1001
ACAD
1000
AcDbSavedByObjectVersion
1070
     0
  0
VISUALSTYLE
  5
1B2E7
102
{ACAD_XDICTIONARY
360
21684
102
}
102
{ACAD_REACTORS
330
318F
102
}
330
318F
100
AcDbVisualStyle
  2

 70
    25
 71
     2
 72
     2
 73
     1
 90
        1
 40
0.5
 41
-30.0
 62
     5
 63
     7
 74
     1
 91
        0
 64
     7
 65
   257
 75
     1
175
     1
 42
1.0
 92
        8
 66
     7
 43
1.0
 76
     1
 77
     6
 78
     2
 67
     7
 79
     3
170
     0
171
     0
290
     0
174
     0
 93
       13
 44
0.0
173
     0
291
     0
 45
0.0
1001
ACAD
1000
AcDbSavedByObjectVersion
1070
     0
  0
DICTIONARYVAR
  5
1B222
102
{ACAD_REACTORS
330
33A3
102
}
330
33A3
100
DictionaryVariables
280
     0
  1
1:1
  0
DICTIONARYVAR
  5
1B30F
102
{ACAD_REACTORS
330
33A3
102
}
330
33A3
100
DictionaryVariables
280
     0
  1
STANDARD
  0
DICTIONARYVAR
  5
33A4
102
{ACAD_REACTORS
330
33A3
102
}
330
33A3
100
DictionaryVariables
280
     0
  1
STANDARD
  0
DICTIONARYVAR
  5
1B310
102
{ACAD_REACTORS
330
33A3
102
}
330
33A3
100
DictionaryVariables
280
     0
  1
Metric50
  0
DICTIONARYVAR
  5
1B311
102
{ACAD_REACTORS
330
33A3
102
}
330
33A3
100
DictionaryVariables
280
     0
  1
Metric50
  0
DICTIONARYVAR
  5
9BE8
102
{ACAD_REACTORS
330
33A3
102
}
330
33A3
100
DictionaryVariables
280
     0
  1
1
  0
DICTIONARYVAR
  5
9BE7
102
{ACAD_REACTORS
330
33A3
102
}
330
33A3
100
DictionaryVariables
280
     0
  1
0
  0
DICTIONARYVAR
  5
20993
102
{ACAD_REACTORS
330
33A3
102
}
330
33A3
100
DictionaryVariables
280
     0
  1
1
  0
DICTIONARYVAR
  5
20994
102
{ACAD_REACTORS
330
33A3
102
}
330
33A3
100
DictionaryVariables
280
     0
  1
15
  0
DICTIONARYVAR
  5
20992
102
{ACAD_REACTORS
330
33A3
102
}
330
33A3
100
DictionaryVariables
280
     0
  1
0
  0
DICTIONARYVAR
  5
20991
102
{ACAD_REACTORS
330
33A3
102
}
330
33A3
100
DictionaryVariables
280
     0
  1
0
  0
DICTIONARYVAR
  5
9BE6
102
{ACAD_REACTORS
330
33A3
102
}
330
33A3
100
DictionaryVariables
280
     0
  1
127
  0
DICTIONARYVAR
  5
1FAAB
102
{ACAD_REACTORS
330
33A3
102
}
330
33A3
100
DictionaryVariables
280
     0
  1
2
  0
DICTIONARY
  5
21653
102
{ACAD_REACTORS
330
21651
102
}
330
21651
100
AcDbDictionary
281
     1
  0
DICTIONARY
  5
21652
102
{ACAD_REACTORS
330
21651
102
}
330
21651
100
AcDbDictionary
281
     1
  3
8796086952128
350
2164C
  3
8796086952144
350
2164D
  3
8796086952160
350
2164E
  3
8796086952176
350
2164F
  3
8796086952192
350
21650
  0
XRECORD
  5
21693
102
{ACAD_REACTORS
330
21692
102
}
330
21692
100
AcDbXrecord
280
     1
1070
     0
1070
     1
1070
     1
  0
XRECORD
  5
21697
102
{ACAD_REACTORS
330
21696
102
}
330
21696
100
AcDbXrecord
280
     1
1070
     0
1070
     1
1070
     1
  0
FIELD
  5
20CAB
102
{ACAD_REACTORS
330
20CAA
102
}
330
20CAA
100
AcDbField
  1
_text
  2
%<\_FldIdx 0>%
 90
        1
360
20CAC
 97
        0
  4

 91
       63
 92
        0
 94
        9
 95
        2
 96
        0
300

 93
        2
  6
ACFD_FIELDTEXT_ATTDEF
 90
        1
 91
        1
  6
ACFD_FIELDTEXT_CHECKSUM
 90
        2
140
6441.0
  7
ACFD_FIELD_VALUE
 90
        0
 91
        0
301

 98
        0
  0
FIELD
  5
20CC6
102
{ACAD_REACTORS
330
20CC5
102
}
330
20CC5
100
AcDbField
  1
_text
  2
%<\_FldIdx 0>%
 90
        1
360
20CC7
 97
        0
  4

 91
       63
 92
        0
 94
        9
 95
        2
 96
        0
300

 93
        1
  6
ACFD_FIELDTEXT_CHECKSUM
 90
        2
140
6441.0
  7
ACFD_FIELD_VALUE
 90
        0
 91
        0
301

 98
        0
  0
DICTIONARY
  5
20CB4
330
20CB3
100
AcDbDictionary
280
     1
281
     1
  3
ACAD_XREC_ROUNDTRIP
360
21699
  0
DICTIONARY
  5
2098E
330
1B2F1
100
AcDbDictionary
280
     1
281
     1
  3
ACAD_XREC_ROUNDTRIP
360
21691
  0
DICTIONARY
  5
9C07
330
31A7
100
AcDbDictionary
280
     1
281
     1
  3
ACAD_XREC_ROUNDTRIP
360
21677
  0
DICTIONARY
  5
21675
330
31A6
100
AcDbDictionary
280
     1
281
     1
  3
ACAD_XREC_ROUNDTRIP
360
21676
  0
DICTIONARY
  5
1B22B
330
318D
100
AcDbDictionary
280
     1
281
     1
  3
ACAD_XREC_ROUNDTRIP
360
1B22C
  0
DICTIONARY
  5
1B22D
330
318C
100
AcDbDictionary
280
     1
281
     1
  3
ACAD_XREC_ROUNDTRIP
360
1B22E
  0
DICTIONARY
  5
1B22F
330
318E
100
AcDbDictionary
280
     1
281
     1
  3
ACAD_XREC_ROUNDTRIP
360
1B230
  0
DICTIONARY
  5
2169D
330
20D51
100
AcDbDictionary
280
     1
281
     1
  3
ACAD_XREC_ROUNDTRIP
360
2169E
  0
DICTIONARY
  5
20CB2
330
20CB1
100
AcDbDictionary
280
     1
281
     1
  3
ACAD_XREC_ROUNDTRIP
360
21698
  0
DICTIONARY
  5
2098C
330
1B2EF
100
AcDbDictionary
280
     1
281
     1
  3
ACAD_XREC_ROUNDTRIP
360
21690
  0
DICTIONARY
  5
1B314
330
31A2
100
AcDbDictionary
280
     1
281
     1
  3
ACAD_ROUNDTRIP_2008_TABLESTYLE_CELLSTYLEMAP
360
21649
  3
ACAD_XREC_ROUNDTRIP
360
21674
  0
DICTIONARY
  5
2165E
330
3195
100
AcDbDictionary
280
     1
281
     1
  3
ACAD_XREC_ROUNDTRIP
360
2165F
  0
DICTIONARY
  5
21662
330
3197
100
AcDbDictionary
280
     1
281
     1
  3
ACAD_XREC_ROUNDTRIP
360
21663
  0
DICTIONARY
  5
21660
330
3196
100
AcDbDictionary
280
     1
281
     1
  3
ACAD_XREC_ROUNDTRIP
360
21661
  0
DICTIONARY
  5
2165C
330
3194
100
AcDbDictionary
280
     1
281
     1
  3
ACAD_XREC_ROUNDTRIP
360
2165D
  0
DICTIONARY
  5
2166A
330
319B
100
AcDbDictionary
280
     1
281
     1
  3
ACAD_XREC_ROUNDTRIP
360
2166B
  0
DICTIONARY
  5
21672
330
319F
100
AcDbDictionary
280
     1
281
     1
  3
ACAD_XREC_ROUNDTRIP
360
21673
  0
DICTIONARY
  5
21664
330
3198
100
AcDbDictionary
280
     1
281
     1
  3
ACAD_XREC_ROUNDTRIP
360
21665
  0
DICTIONARY
  5
21668
330
319A
100
AcDbDictionary
280
     1
281
     1
  3
ACAD_XREC_ROUNDTRIP
360
21669
  0
DICTIONARY
  5
2168E
330
1B2EC
100
AcDbDictionary
280
     1
281
     1
  3
ACAD_XREC_ROUNDTRIP
360
2168F
  0
DICTIONARY
  5
21670
330
319E
100
AcDbDictionary
280
     1
281
     1
  3
ACAD_XREC_ROUNDTRIP
360
21671
  0
DICTIONARY
  5
21654
330
3190
100
AcDbDictionary
280
     1
281
     1
  3
ACAD_XREC_ROUNDTRIP
360
21655
  0
DICTIONARY
  5
21656
330
3191
100
AcDbDictionary
280
     1
281
     1
  3
ACAD_XREC_ROUNDTRIP
360
21657
  0
DICTIONARY
  5
21658
330
3192
100
AcDbDictionary
280
     1
281
     1
  3
ACAD_XREC_ROUNDTRIP
360
21659
  0
DICTIONARY
  5
2165A
330
3193
100
AcDbDictionary
280
     1
281
     1
  3
ACAD_XREC_ROUNDTRIP
360
2165B
  0
DICTIONARY
  5
2167E
330
1B2E4
100
AcDbDictionary
280
     1
281
     1
  3
ACAD_XREC_ROUNDTRIP
360
2167F
  0
DICTIONARY
  5
2168A
330
1B2EA
100
AcDbDictionary
280
     1
281
     1
  3
ACAD_XREC_ROUNDTRIP
360
2168B
  0
DICTIONARY
  5
2166E
330
319D
100
AcDbDictionary
280
     1
281
     1
  3
ACAD_XREC_ROUNDTRIP
360
2166F
  0
DICTIONARY
  5
2168C
330
1B2EB
100
AcDbDictionary
280
     1
281
     1
  3
ACAD_XREC_ROUNDTRIP
360
2168D
  0
DICTIONARY
  5
21666
330
3199
100
AcDbDictionary
280
     1
281
     1
  3
ACAD_XREC_ROUNDTRIP
360
21667
  0
DICTIONARY
  5
21688
330
1B2E9
100
AcDbDictionary
280
     1
281
     1
  3
ACAD_XREC_ROUNDTRIP
360
21689
  0
DICTIONARY
  5
21686
330
1B2E8
100
AcDbDictionary
280
     1
281
     1
  3
ACAD_XREC_ROUNDTRIP
360
21687
  0
DICTIONARY
  5
21680
330
1B2E5
100
AcDbDictionary
280
     1
281
     1
  3
ACAD_XREC_ROUNDTRIP
360
21681
  0
DICTIONARY
  5
21682
330
1B2E6
100
AcDbDictionary
280
     1
281
     1
  3
ACAD_XREC_ROUNDTRIP
360
21683
  0
DICTIONARY
  5
2166C
330
319C
100
AcDbDictionary
280
     1
281
     1
  3
ACAD_XREC_ROUNDTRIP
360
2166D
  0
DICTIONARY
  5
2167C
330
1B2E3
100
AcDbDictionary
280
     1
281
     1
  3
ACAD_XREC_ROUNDTRIP
360
2167D
  0
DICTIONARY
  5
21684
330
1B2E7
100
AcDbDictionary
280
     1
281
     1
  3
ACAD_XREC_ROUNDTRIP
360
21685
  0
XRECORD
  5
2164C
102
{ACAD_REACTORS
330
21652
102
}
330
21652
100
AcDbXrecord
280
     1
  1
AcDb_Thumbnail_Schema
102
{ATTRRECORD
341
2164D
  2
AcDbDs::TreatedAsObjectData
280
     1
291
     1
102
ATTRRECORD}
102
{ATTRRECORD
341
2164E
  2
AcDbDs::Legacy
280
     1
291
     1
102
ATTRRECORD}
  2
AcDbDs::ID
280
    10
 91
        8
102
{ATTRRECORD
341
2164F
  2
AcDs:Indexable
280
     1
291
     1
102
ATTRRECORD}
102
{ATTRRECORD
341
21650
  2
AcDbDs::HandleAttribute
280
     7
282
     1
102
ATTRRECORD}
  2
Thumbnail_Data
280
    15
 91
        0
  0
XRECORD
  5
2164D
102
{ACAD_REACTORS
330
21652
102
}
330
21652
100
AcDbXrecord
280
     1
  1
AcDbDs::TreatedAsObjectDataSchema
  2
AcDbDs::TreatedAsObjectData
280
     1
 91
        0
  0
XRECORD
  5
2164E
102
{ACAD_REACTORS
330
21652
102
}
330
21652
100
AcDbXrecord
280
     1
  1
AcDbDs::LegacySchema
  2
AcDbDs::Legacy
280
     1
 91
        0
  0
XRECORD
  5
2164F
102
{ACAD_REACTORS
330
21652
102
}
330
21652
100
AcDbXrecord
280
     1
  1
AcDbDs::IndexedPropertySchema
  2
AcDs:Indexable
280
     1
 91
        0
  0
XRECORD
  5
21650
102
{ACAD_REACTORS
330
21652
102
}
330
21652
100
AcDbXrecord
280
     1
  1
AcDbDs::HandleAttributeSchema
  2
AcDbDs::HandleAttribute
280
     7
 91
        1
284
     1
  0
FIELD
  5
20CAC
330
20CAB
100
AcDbField
  1
AcVar
  2
\AcVar Filename \f "%tc1%fn2"
 90
        0
 97
        0
  4
%tc1%fn2
 91
       63
 92
        0
 94
       59
 95
        2
 96
        0
300

 93
        1
  6
Variable
 90
        4
  1
Filename
  7
ACFD_FIELD_VALUE
 90
        4
  1
S:\BenderA\DXF_CIM\TT\16T17722T6RP11.dxf
301
16T17722T6RP11
 98
       14
  0
FIELD
  5
20CC7
330
20CC6
100
AcDbField
  1
AcVar
  2
\AcVar Filename \f "%tc1%fn2"
 90
        0
 97
        0
  4
%tc1%fn2
 91
       63
 92
        0
 94
       59
 95
        2
 96
        0
300

 93
        1
  6
Variable
 90
        4
  1
Filename
  7
ACFD_FIELD_VALUE
 90
        4
  1
S:\BenderA\DXF_CIM\TT\16T17722T6RP11.dxf
301
16T17722T6RP11
 98
       14
  0
XRECORD
  5
21699
102
{ACAD_REACTORS
330
20CB4
102
}
330
20CB4
100
AcDbXrecord
280
     1
102
DISPLAYNAME
  1
Imperial24
102
FLAGS
 90
        0
  0
XRECORD
  5
21691
102
{ACAD_REACTORS
330
2098E
102
}
330
2098E
100
AcDbXrecord
280
     1
102
DISPLAYNAME
  1
Metric50
102
FLAGS
 90
        0
  0
XRECORD
  5
21677
102
{ACAD_REACTORS
330
9C07
102
}
330
9C07
100
AcDbXrecord
280
     1
102
SHADEPLOT
 70
     0
102
SHADEPLOTRESLEVEL
 70
     2
102
SHADEPLOTCUSTOMDPI
 70
   300
  0
XRECORD
  5
21676
102
{ACAD_REACTORS
330
21675
102
}
330
21675
100
AcDbXrecord
280
     1
102
SHADEPLOT
 70
     0
102
SHADEPLOTRESLEVEL
 70
     2
102
SHADEPLOTCUSTOMDPI
 70
   300
  0
XRECORD
  5
1B22C
102
{ACAD_REACTORS
330
1B22B
102
}
330
1B22B
100
AcDbXrecord
280
     1
102
MATERIAL
148
0.0
149
0.0
149
0.0
 93
        0
 94
      127
282
     0
 72
     1
 77
     1
171
     1
175
     1
179
     1
273
     0
  0
XRECORD
  5
1B22E
102
{ACAD_REACTORS
330
1B22D
102
}
330
1B22D
100
AcDbXrecord
280
     1
102
MATERIAL
148
0.0
149
0.0
149
0.0
 93
        0
 94
      127
282
     0
 72
     1
 77
     1
171
     1
175
     1
179
     1
273
     0
  0
XRECORD
  5
1B230
102
{ACAD_REACTORS
330
1B22F
102
}
330
1B22F
100
AcDbXrecord
280
     1
102
MATERIAL
148
0.0
149
0.0
149
0.0
 93
        0
 94
      127
282
     0
 72
     1
 77
     1
171
     1
175
     1
179
     1
273
     0
  0
XRECORD
  5
2169E
102
{ACAD_REACTORS
330
2169D
102
}
330
2169D
100
AcDbXrecord
280
     1
102
ACAD_ROUNDTRIP_2012_MLEADER_STYLE
298
     1
  0
XRECORD
  5
21698
102
{ACAD_REACTORS
330
20CB2
102
}
330
20CB2
100
AcDbXrecord
280
     1
102
DISPLAYNAME
  1
Imperial24
102
FLAGS
 90
        0
  0
XRECORD
  5
21690
102
{ACAD_REACTORS
330
2098C
102
}
330
2098C
100
AcDbXrecord
280
     1
102
DISPLAYNAME
  1
Metric50
102
FLAGS
 90
        0
  0
CELLSTYLEMAP
  5
21649
102
{ACAD_REACTORS
330
1B314
102
}
330
1B314
100
AcDbCellStyleMap
 90
        3
300
CELLSTYLE
  1
TABLEFORMAT_BEGIN
 90
        5
170
     1
 91
        0
 92
    32768
 62
   257
 93
        1
300
CONTENTFORMAT
  1
CONTENTFORMAT_BEGIN
 90
        0
 91
        0
 92
        4
 93
        0
300

 40
0.0
140
1.0
 94
        5
 62
     0
340
11
144
6.0
309
CONTENTFORMAT_END
171
     1
301
MARGIN
  1
CELLMARGIN_BEGIN
 40
1.5
 40
1.5
 40
1.5
 40
1.5
 40
0.18
 40
0.18
309
CELLMARGIN_END
 94
        6
 95
        1
302
GRIDFORMAT
  1
GRIDFORMAT_BEGIN
 90
        0
 91
        1
 62
     0
 92
       -2
340
0
 93
        0
 40
0.045
309
GRIDFORMAT_END
 95
        2
302
GRIDFORMAT
  1
GRIDFORMAT_BEGIN
 90
        0
 91
        1
 62
     0
 92
       -2
340
0
 93
        0
 40
0.045
309
GRIDFORMAT_END
 95
        4
302
GRIDFORMAT
  1
GRIDFORMAT_BEGIN
 90
        0
 91
        1
 62
     0
 92
       -2
340
0
 93
        0
 40
0.045
309
GRIDFORMAT_END
 95
        8
302
GRIDFORMAT
  1
GRIDFORMAT_BEGIN
 90
        0
 91
        1
 62
     0
 92
       -2
340
0
 93
        0
 40
0.045
309
GRIDFORMAT_END
 95
       16
302
GRIDFORMAT
  1
GRIDFORMAT_BEGIN
 90
        0
 91
        1
 62
     0
 92
       -2
340
0
 93
        0
 40
0.045
309
GRIDFORMAT_END
 95
       32
302
GRIDFORMAT
  1
GRIDFORMAT_BEGIN
 90
        0
 91
        1
 62
     0
 92
       -2
340
0
 93
        0
 40
0.045
309
GRIDFORMAT_END
309
TABLEFORMAT_END
  1
CELLSTYLE_BEGIN
 90
        1
 91
        1
300
_TITLE
309
CELLSTYLE_END
300
CELLSTYLE
  1
TABLEFORMAT_BEGIN
 90
        5
170
     1
 91
        0
 92
        0
 62
   257
 93
        1
300
CONTENTFORMAT
  1
CONTENTFORMAT_BEGIN
 90
        0
 91
        0
 92
        4
 93
        0
300

 40
0.0
140
1.0
 94
        5
 62
     0
340
11
144
4.5
309
CONTENTFORMAT_END
171
     1
301
MARGIN
  1
CELLMARGIN_BEGIN
 40
1.5
 40
1.5
 40
1.5
 40
1.5
 40
0.18
 40
0.18
309
CELLMARGIN_END
 94
        6
 95
        1
302
GRIDFORMAT
  1
GRIDFORMAT_BEGIN
 90
        0
 91
        1
 62
     0
 92
       -2
340
0
 93
        0
 40
0.045
309
GRIDFORMAT_END
 95
        2
302
GRIDFORMAT
  1
GRIDFORMAT_BEGIN
 90
        0
 91
        1
 62
     0
 92
       -2
340
0
 93
        0
 40
0.045
309
GRIDFORMAT_END
 95
        4
302
GRIDFORMAT
  1
GRIDFORMAT_BEGIN
 90
        0
 91
        1
 62
     0
 92
       -2
340
0
 93
        0
 40
0.045
309
GRIDFORMAT_END
 95
        8
302
GRIDFORMAT
  1
GRIDFORMAT_BEGIN
 90
        0
 91
        1
 62
     0
 92
       -2
340
0
 93
        0
 40
0.045
309
GRIDFORMAT_END
 95
       16
302
GRIDFORMAT
  1
GRIDFORMAT_BEGIN
 90
        0
 91
        1
 62
     0
 92
       -2
340
0
 93
        0
 40
0.045
309
GRIDFORMAT_END
 95
       32
302
GRIDFORMAT
  1
GRIDFORMAT_BEGIN
 90
        0
 91
        1
 62
     0
 92
       -2
340
0
 93
        0
 40
0.045
309
GRIDFORMAT_END
309
TABLEFORMAT_END
  1
CELLSTYLE_BEGIN
 90
        2
 91
        1
300
_HEADER
309
CELLSTYLE_END
300
CELLSTYLE
  1
TABLEFORMAT_BEGIN
 90
        5
170
     1
 91
        0
 92
        0
 62
   257
 93
        1
300
CONTENTFORMAT
  1
CONTENTFORMAT_BEGIN
 90
        0
 91
        0
 92
        4
 93
        0
300

 40
0.0
140
1.0
 94
        2
 62
     0
340
11
144
4.5
309
CONTENTFORMAT_END
171
     1
301
MARGIN
  1
CELLMARGIN_BEGIN
 40
1.5
 40
1.5
 40
1.5
 40
1.5
 40
0.18
 40
0.18
309
CELLMARGIN_END
 94
        6
 95
        1
302
GRIDFORMAT
  1
GRIDFORMAT_BEGIN
 90
        0
 91
        1
 62
     0
 92
       -2
340
0
 93
        0
 40
0.045
309
GRIDFORMAT_END
 95
        2
302
GRIDFORMAT
  1
GRIDFORMAT_BEGIN
 90
        0
 91
        1
 62
     0
 92
       -2
340
0
 93
        0
 40
0.045
309
GRIDFORMAT_END
 95
        4
302
GRIDFORMAT
  1
GRIDFORMAT_BEGIN
 90
        0
 91
        1
 62
     0
 92
       -2
340
0
 93
        0
 40
0.045
309
GRIDFORMAT_END
 95
        8
302
GRIDFORMAT
  1
GRIDFORMAT_BEGIN
 90
        0
 91
        1
 62
     0
 92
       -2
340
0
 93
        0
 40
0.045
309
GRIDFORMAT_END
 95
       16
302
GRIDFORMAT
  1
GRIDFORMAT_BEGIN
 90
        0
 91
        1
 62
     0
 92
       -2
340
0
 93
        0
 40
0.045
309
GRIDFORMAT_END
 95
       32
302
GRIDFORMAT
  1
GRIDFORMAT_BEGIN
 90
        0
 91
        1
 62
     0
 92
       -2
340
0
 93
        0
 40
0.045
309
GRIDFORMAT_END
309
TABLEFORMAT_END
  1
CELLSTYLE_BEGIN
 90
        3
 91
        2
300
_DATA
309
CELLSTYLE_END
  0
XRECORD
  5
21674
102
{ACAD_REACTORS
330
1B314
102
}
330
1B314
100
AcDbXrecord
280
     1
102
ACAD_ROUNDTRIP_PRE2007_TABLESTYLE
 90
        4
 91
        0
  1

 92
        4
 93
        0
  2

 94
        4
 95
        0
  3

  0
XRECORD
  5
2165F
102
{ACAD_REACTORS
330
2165E
102
}
330
2165E
100
AcDbXrecord
280
     1
102
RTVSPost2010Prop28
280
     1
102
RTVSPost2010PropOp28
 70
     1
102
RTVSPost2010Prop29
280
     1
102
RTVSPost2010PropOp29
 70
     1
102
RTVSPost2010Prop30
280
     0
102
RTVSPost2010PropOp30
 70
     1
102
RTVSPost2010Prop31
280
     0
102
RTVSPost2010PropOp31
 70
     1
102
RTVSPost2010Prop32
280
     0
102
RTVSPost2010PropOp32
 70
     1
102
RTVSPost2010Prop33
280
     0
102
RTVSPost2010PropOp33
 70
     1
102
RTVSPost2010Prop34
280
     0
102
RTVSPost2010PropOp34
 70
     1
102
RTVSPost2010Prop35
280
     0
102
RTVSPost2010PropOp35
 70
     1
102
RTVSPost2010Prop36
280
     0
102
RTVSPost2010PropOp36
 70
     1
102
RTVSPost2010Prop37
 90
       50
102
RTVSPost2010PropOp37
 70
     1
102
RTVSPost2010Prop38
140
0.0
102
RTVSPost2010PropOp38
 70
     1
102
RTVSPost2010Prop39
140
1.0
102
RTVSPost2010PropOp39
 70
     1
102
RTVSPost2010Prop40
 90
        0
102
RTVSPost2010PropOp40
 70
     1
102
RTVSPost2010Prop41ColorIndex
 90
       18
102
RTVSPost2010Prop41ColorRGB
 90
        0
102
RTVSPost2010PropOp41
 70
     1
102
RTVSPost2010Prop42
 90
       50
102
RTVSPost2010PropOp42
 70
     1
102
RTVSPost2010Prop43
 90
        3
102
RTVSPost2010PropOp43
 70
     1
102
RTVSPost2010Prop44ColorIndex
 90
        5
102
RTVSPost2010Prop44ColorRGB
 90
      255
102
RTVSPost2010PropOp44
 70
     1
102
RTVSPost2010Prop45
280
     0
102
RTVSPost2010PropOp45
 70
     1
102
RTVSPost2010Prop46
 90
       50
102
RTVSPost2010PropOp46
 70
     1
102
RTVSPost2010Prop47
 90
       50
102
RTVSPost2010PropOp47
 70
     1
102
RTVSPost2010Prop48
 90
       50
102
RTVSPost2010PropOp48
 70
     1
102
RTVSPost2010Prop49
280
     0
102
RTVSPost2010PropOp49
 70
     1
102
RTVSPost2010Prop50
 90
       50
102
RTVSPost2010PropOp50
 70
     1
102
RTVSPost2010Prop51ColorIndex
 90
      256
102
RTVSPost2010Prop51ColorRGB
 90
-16777216
102
RTVSPost2010PropOp51
 70
     0
102
RTVSPost2010Prop52
140
1.0
102
RTVSPost2010PropOp52
 70
     0
102
RTVSPost2010Prop53
 90
        2
102
RTVSPost2010PropOp53
 70
     1
102
RTVSPost2010Prop54
  1
strokes_ogs.tif
102
RTVSPost2010PropOp54
 70
     1
102
RTVSPost2010Prop55
280
     0
102
RTVSPost2010PropOp55
 70
     1
102
RTVSPost2010Prop56
140
1.0
102
RTVSPost2010PropOp56
 70
     1
102
RTVSPost2010Prop57
140
1.0
102
RTVSPost2010PropOp57
 70
     1
102
RTVSPropertyOp0
 70
     1
102
RTVSPropertyOp1
 70
     1
102
RTVSPropertyOp2
 70
     1
102
RTVSPropertyOp3
 70
     1
102
RTVSPropertyOp4
 70
     1
102
RTVSPropertyOp5
 70
     1
102
RTVSPropertyOp6
 70
     1
102
RTVSPropertyOp7
 70
     1
102
RTVSPropertyOp8
 70
     1
102
RTVSPropertyOp9
 70
     1
102
RTVSPropertyOp10
 70
     1
102
RTVSPropertyOp11
 70
     1
102
RTVSPropertyOp12
 70
     1
102
RTVSPropertyOp13
 70
     1
102
RTVSPropertyOp14
 70
     1
102
RTVSPropertyOp15
 70
     1
102
RTVSPropertyOp16
 70
     1
102
RTVSPropertyOp17
 70
     1
102
RTVSPropertyOp18
 70
     1
102
RTVSPropertyOp19
 70
     1
102
RTVSPropertyOp20
 70
     1
102
RTVSPropertyOp21
 70
     1
102
RTVSPropertyOp22
 70
     1
102
RTVSPropertyOp23
 70
     1
102
RTVSPropertyOp24
 70
     1
102
RTVSPropertyOp25
 70
     1
102
RTVSPropertyOp26
 70
     1
102
RTVSPropertyOp27
 70
     1
102
RTVSPropertyOp28
 70
     1
102
RTVSPropertyOp29
 70
     1
102
RTVSPropertyOp30
 70
     1
102
RTVSPropertyOp31
 70
     1
102
RTVSPropertyOp32
 70
     1
102
RTVSPropertyOp33
 70
     1
102
RTVSPropertyOp34
 70
     1
102
RTVSPropertyOp35
 70
     1
102
RTVSPropertyOp36
 70
     1
102
RTVSPropertyOp37
 70
     1
102
RTVSPropertyOp38
 70
     1
102
RTVSPropertyOp39
 70
     1
102
RTVSPropertyOp40
 70
     1
102
RTVSPropertyOp41
 70
     1
102
RTVSPropertyOp42
 70
     1
102
RTVSPropertyOp43
 70
     1
102
RTVSPropertyOp44
 70
     1
102
RTVSPropertyOp45
 70
     1
102
RTVSPropertyOp46
 70
     1
102
RTVSPropertyOp47
 70
     1
102
RTVSPropertyOp48
 70
     1
102
RTVSPropertyOp49
 70
     1
102
RTVSPropertyOp50
 70
     1
102
RTVSPropertyOp51
 70
     0
102
RTVSPropertyOp52
 70
     0
102
RTVSPropertyOp53
 70
     1
102
RTVSPropertyOp54
 70
     1
102
RTVSPropertyOp55
 70
     1
102
RTVSPropertyOp56
 70
     1
102
RTVSPropertyOp57
 70
     1
102
RTVSPropertyOp58
 70
     1
102
RTVSPropertyOp59
 70
     1
102
RTVSPropertyOp60
 70
     1
102
RTVSPropertyOp61
 70
     1
102
RTVSPropertyOp62
 70
     1
  0
XRECORD
  5
21663
102
{ACAD_REACTORS
330
21662
102
}
330
21662
100
AcDbXrecord
280
     1
102
RTVSPost2010Prop28
280
     0
102
RTVSPost2010PropOp28
 70
     1
102
RTVSPost2010Prop29
280
     1
102
RTVSPost2010PropOp29
 70
     1
102
RTVSPost2010Prop30
280
     1
102
RTVSPost2010PropOp30
 70
     1
102
RTVSPost2010Prop31
280
     0
102
RTVSPost2010PropOp31
 70
     1
102
RTVSPost2010Prop32
280
     0
102
RTVSPost2010PropOp32
 70
     1
102
RTVSPost2010Prop33
280
     0
102
RTVSPost2010PropOp33
 70
     1
102
RTVSPost2010Prop34
280
     0
102
RTVSPost2010PropOp34
 70
     1
102
RTVSPost2010Prop35
280
     0
102
RTVSPost2010PropOp35
 70
     1
102
RTVSPost2010Prop36
280
     0
102
RTVSPost2010PropOp36
 70
     1
102
RTVSPost2010Prop37
 90
       50
102
RTVSPost2010PropOp37
 70
     1
102
RTVSPost2010Prop38
140
0.0
102
RTVSPost2010PropOp38
 70
     1
102
RTVSPost2010Prop39
140
1.0
102
RTVSPost2010PropOp39
 70
     1
102
RTVSPost2010Prop40
 90
        0
102
RTVSPost2010PropOp40
 70
     1
102
RTVSPost2010Prop41ColorIndex
 90
       18
102
RTVSPost2010Prop41ColorRGB
 90
        0
102
RTVSPost2010PropOp41
 70
     1
102
RTVSPost2010Prop42
 90
       50
102
RTVSPost2010PropOp42
 70
     1
102
RTVSPost2010Prop43
 90
        3
102
RTVSPost2010PropOp43
 70
     1
102
RTVSPost2010Prop44ColorIndex
 90
        5
102
RTVSPost2010Prop44ColorRGB
 90
      255
102
RTVSPost2010PropOp44
 70
     1
102
RTVSPost2010Prop45
280
     0
102
RTVSPost2010PropOp45
 70
     1
102
RTVSPost2010Prop46
 90
       50
102
RTVSPost2010PropOp46
 70
     1
102
RTVSPost2010Prop47
 90
       50
102
RTVSPost2010PropOp47
 70
     1
102
RTVSPost2010Prop48
 90
       50
102
RTVSPost2010PropOp48
 70
     1
102
RTVSPost2010Prop49
280
     0
102
RTVSPost2010PropOp49
 70
     1
102
RTVSPost2010Prop50
 90
       50
102
RTVSPost2010PropOp50
 70
     1
102
RTVSPost2010Prop51ColorIndex
 90
      256
102
RTVSPost2010Prop51ColorRGB
 90
-16777216
102
RTVSPost2010PropOp51
 70
     0
102
RTVSPost2010Prop52
140
1.0
102
RTVSPost2010PropOp52
 70
     0
102
RTVSPost2010Prop53
 90
        2
102
RTVSPost2010PropOp53
 70
     1
102
RTVSPost2010Prop54
  1
strokes_ogs.tif
102
RTVSPost2010PropOp54
 70
     1
102
RTVSPost2010Prop55
280
     0
102
RTVSPost2010PropOp55
 70
     1
102
RTVSPost2010Prop56
140
1.0
102
RTVSPost2010PropOp56
 70
     1
102
RTVSPost2010Prop57
140
1.0
102
RTVSPost2010PropOp57
 70
     1
102
RTVSPropertyOp0
 70
     1
102
RTVSPropertyOp1
 70
     1
102
RTVSPropertyOp2
 70
     1
102
RTVSPropertyOp3
 70
     1
102
RTVSPropertyOp4
 70
     1
102
RTVSPropertyOp5
 70
     1
102
RTVSPropertyOp6
 70
     1
102
RTVSPropertyOp7
 70
     1
102
RTVSPropertyOp8
 70
     1
102
RTVSPropertyOp9
 70
     1
102
RTVSPropertyOp10
 70
     1
102
RTVSPropertyOp11
 70
     1
102
RTVSPropertyOp12
 70
     1
102
RTVSPropertyOp13
 70
     1
102
RTVSPropertyOp14
 70
     1
102
RTVSPropertyOp15
 70
     1
102
RTVSPropertyOp16
 70
     1
102
RTVSPropertyOp17
 70
     1
102
RTVSPropertyOp18
 70
     1
102
RTVSPropertyOp19
 70
     1
102
RTVSPropertyOp20
 70
     1
102
RTVSPropertyOp21
 70
     1
102
RTVSPropertyOp22
 70
     1
102
RTVSPropertyOp23
 70
     1
102
RTVSPropertyOp24
 70
     1
102
RTVSPropertyOp25
 70
     1
102
RTVSPropertyOp26
 70
     1
102
RTVSPropertyOp27
 70
     1
102
RTVSPropertyOp28
 70
     1
102
RTVSPropertyOp29
 70
     1
102
RTVSPropertyOp30
 70
     1
102
RTVSPropertyOp31
 70
     1
102
RTVSPropertyOp32
 70
     1
102
RTVSPropertyOp33
 70
     1
102
RTVSPropertyOp34
 70
     1
102
RTVSPropertyOp35
 70
     1
102
RTVSPropertyOp36
 70
     1
102
RTVSPropertyOp37
 70
     1
102
RTVSPropertyOp38
 70
     1
102
RTVSPropertyOp39
 70
     1
102
RTVSPropertyOp40
 70
     1
102
RTVSPropertyOp41
 70
     1
102
RTVSPropertyOp42
 70
     1
102
RTVSPropertyOp43
 70
     1
102
RTVSPropertyOp44
 70
     1
102
RTVSPropertyOp45
 70
     1
102
RTVSPropertyOp46
 70
     1
102
RTVSPropertyOp47
 70
     1
102
RTVSPropertyOp48
 70
     1
102
RTVSPropertyOp49
 70
     1
102
RTVSPropertyOp50
 70
     1
102
RTVSPropertyOp51
 70
     0
102
RTVSPropertyOp52
 70
     0
102
RTVSPropertyOp53
 70
     1
102
RTVSPropertyOp54
 70
     1
102
RTVSPropertyOp55
 70
     1
102
RTVSPropertyOp56
 70
     1
102
RTVSPropertyOp57
 70
     1
102
RTVSPropertyOp58
 70
     1
102
RTVSPropertyOp59
 70
     1
102
RTVSPropertyOp60
 70
     1
102
RTVSPropertyOp61
 70
     1
102
RTVSPropertyOp62
 70
     1
  0
XRECORD
  5
21661
102
{ACAD_REACTORS
330
21660
102
}
330
21660
100
AcDbXrecord
280
     1
102
RTVSPost2010Prop28
280
     0
102
RTVSPost2010PropOp28
 70
     1
102
RTVSPost2010Prop29
280
     1
102
RTVSPost2010PropOp29
 70
     1
102
RTVSPost2010Prop30
280
     1
102
RTVSPost2010PropOp30
 70
     1
102
RTVSPost2010Prop31
280
     0
102
RTVSPost2010PropOp31
 70
     1
102
RTVSPost2010Prop32
280
     0
102
RTVSPost2010PropOp32
 70
     1
102
RTVSPost2010Prop33
280
     0
102
RTVSPost2010PropOp33
 70
     1
102
RTVSPost2010Prop34
280
     0
102
RTVSPost2010PropOp34
 70
     1
102
RTVSPost2010Prop35
280
     0
102
RTVSPost2010PropOp35
 70
     1
102
RTVSPost2010Prop36
280
     0
102
RTVSPost2010PropOp36
 70
     1
102
RTVSPost2010Prop37
 90
       50
102
RTVSPost2010PropOp37
 70
     1
102
RTVSPost2010Prop38
140
0.0
102
RTVSPost2010PropOp38
 70
     1
102
RTVSPost2010Prop39
140
1.0
102
RTVSPost2010PropOp39
 70
     1
102
RTVSPost2010Prop40
 90
        0
102
RTVSPost2010PropOp40
 70
     1
102
RTVSPost2010Prop41ColorIndex
 90
       18
102
RTVSPost2010Prop41ColorRGB
 90
        0
102
RTVSPost2010PropOp41
 70
     1
102
RTVSPost2010Prop42
 90
       50
102
RTVSPost2010PropOp42
 70
     1
102
RTVSPost2010Prop43
 90
        3
102
RTVSPost2010PropOp43
 70
     1
102
RTVSPost2010Prop44ColorIndex
 90
        5
102
RTVSPost2010Prop44ColorRGB
 90
      255
102
RTVSPost2010PropOp44
 70
     1
102
RTVSPost2010Prop45
280
     0
102
RTVSPost2010PropOp45
 70
     1
102
RTVSPost2010Prop46
 90
       50
102
RTVSPost2010PropOp46
 70
     1
102
RTVSPost2010Prop47
 90
       50
102
RTVSPost2010PropOp47
 70
     1
102
RTVSPost2010Prop48
 90
       50
102
RTVSPost2010PropOp48
 70
     1
102
RTVSPost2010Prop49
280
     0
102
RTVSPost2010PropOp49
 70
     1
102
RTVSPost2010Prop50
 90
       50
102
RTVSPost2010PropOp50
 70
     1
102
RTVSPost2010Prop51ColorIndex
 90
      256
102
RTVSPost2010Prop51ColorRGB
 90
-16777216
102
RTVSPost2010PropOp51
 70
     0
102
RTVSPost2010Prop52
140
1.0
102
RTVSPost2010PropOp52
 70
     0
102
RTVSPost2010Prop53
 90
        2
102
RTVSPost2010PropOp53
 70
     1
102
RTVSPost2010Prop54
  1
strokes_ogs.tif
102
RTVSPost2010PropOp54
 70
     1
102
RTVSPost2010Prop55
280
     0
102
RTVSPost2010PropOp55
 70
     1
102
RTVSPost2010Prop56
140
1.0
102
RTVSPost2010PropOp56
 70
     1
102
RTVSPost2010Prop57
140
1.0
102
RTVSPost2010PropOp57
 70
     1
102
RTVSPropertyOp0
 70
     1
102
RTVSPropertyOp1
 70
     1
102
RTVSPropertyOp2
 70
     1
102
RTVSPropertyOp3
 70
     1
102
RTVSPropertyOp4
 70
     1
102
RTVSPropertyOp5
 70
     1
102
RTVSPropertyOp6
 70
     1
102
RTVSPropertyOp7
 70
     1
102
RTVSPropertyOp8
 70
     1
102
RTVSPropertyOp9
 70
     1
102
RTVSPropertyOp10
 70
     1
102
RTVSPropertyOp11
 70
     1
102
RTVSPropertyOp12
 70
     1
102
RTVSPropertyOp13
 70
     1
102
RTVSPropertyOp14
 70
     1
102
RTVSPropertyOp15
 70
     1
102
RTVSPropertyOp16
 70
     1
102
RTVSPropertyOp17
 70
     1
102
RTVSPropertyOp18
 70
     1
102
RTVSPropertyOp19
 70
     1
102
RTVSPropertyOp20
 70
     1
102
RTVSPropertyOp21
 70
     1
102
RTVSPropertyOp22
 70
     1
102
RTVSPropertyOp23
 70
     1
102
RTVSPropertyOp24
 70
     1
102
RTVSPropertyOp25
 70
     1
102
RTVSPropertyOp26
 70
     1
102
RTVSPropertyOp27
 70
     1
102
RTVSPropertyOp28
 70
     1
102
RTVSPropertyOp29
 70
     1
102
RTVSPropertyOp30
 70
     1
102
RTVSPropertyOp31
 70
     1
102
RTVSPropertyOp32
 70
     1
102
RTVSPropertyOp33
 70
     1
102
RTVSPropertyOp34
 70
     1
102
RTVSPropertyOp35
 70
     1
102
RTVSPropertyOp36
 70
     1
102
RTVSPropertyOp37
 70
     1
102
RTVSPropertyOp38
 70
     1
102
RTVSPropertyOp39
 70
     1
102
RTVSPropertyOp40
 70
     1
102
RTVSPropertyOp41
 70
     1
102
RTVSPropertyOp42
 70
     1
102
RTVSPropertyOp43
 70
     1
102
RTVSPropertyOp44
 70
     1
102
RTVSPropertyOp45
 70
     1
102
RTVSPropertyOp46
 70
     1
102
RTVSPropertyOp47
 70
     1
102
RTVSPropertyOp48
 70
     1
102
RTVSPropertyOp49
 70
     1
102
RTVSPropertyOp50
 70
     1
102
RTVSPropertyOp51
 70
     0
102
RTVSPropertyOp52
 70
     0
102
RTVSPropertyOp53
 70
     1
102
RTVSPropertyOp54
 70
     1
102
RTVSPropertyOp55
 70
     1
102
RTVSPropertyOp56
 70
     1
102
RTVSPropertyOp57
 70
     1
102
RTVSPropertyOp58
 70
     1
102
RTVSPropertyOp59
 70
     1
102
RTVSPropertyOp60
 70
     1
102
RTVSPropertyOp61
 70
     1
102
RTVSPropertyOp62
 70
     1
  0
XRECORD
  5
2165D
102
{ACAD_REACTORS
330
2165C
102
}
330
2165C
100
AcDbXrecord
280
     1
102
RTVSPost2010Prop28
280
     0
102
RTVSPost2010PropOp28
 70
     1
102
RTVSPost2010Prop29
280
     1
102
RTVSPost2010PropOp29
 70
     1
102
RTVSPost2010Prop30
280
     1
102
RTVSPost2010PropOp30
 70
     1
102
RTVSPost2010Prop31
280
     0
102
RTVSPost2010PropOp31
 70
     1
102
RTVSPost2010Prop32
280
     0
102
RTVSPost2010PropOp32
 70
     1
102
RTVSPost2010Prop33
280
     0
102
RTVSPost2010PropOp33
 70
     1
102
RTVSPost2010Prop34
280
     0
102
RTVSPost2010PropOp34
 70
     1
102
RTVSPost2010Prop35
280
     0
102
RTVSPost2010PropOp35
 70
     1
102
RTVSPost2010Prop36
280
     0
102
RTVSPost2010PropOp36
 70
     1
102
RTVSPost2010Prop37
 90
       50
102
RTVSPost2010PropOp37
 70
     1
102
RTVSPost2010Prop38
140
0.0
102
RTVSPost2010PropOp38
 70
     1
102
RTVSPost2010Prop39
140
1.0
102
RTVSPost2010PropOp39
 70
     1
102
RTVSPost2010Prop40
 90
        0
102
RTVSPost2010PropOp40
 70
     1
102
RTVSPost2010Prop41ColorIndex
 90
       18
102
RTVSPost2010Prop41ColorRGB
 90
        0
102
RTVSPost2010PropOp41
 70
     1
102
RTVSPost2010Prop42
 90
       50
102
RTVSPost2010PropOp42
 70
     1
102
RTVSPost2010Prop43
 90
        3
102
RTVSPost2010PropOp43
 70
     1
102
RTVSPost2010Prop44ColorIndex
 90
        5
102
RTVSPost2010Prop44ColorRGB
 90
      255
102
RTVSPost2010PropOp44
 70
     1
102
RTVSPost2010Prop45
280
     0
102
RTVSPost2010PropOp45
 70
     1
102
RTVSPost2010Prop46
 90
       50
102
RTVSPost2010PropOp46
 70
     1
102
RTVSPost2010Prop47
 90
       50
102
RTVSPost2010PropOp47
 70
     1
102
RTVSPost2010Prop48
 90
       50
102
RTVSPost2010PropOp48
 70
     1
102
RTVSPost2010Prop49
280
     0
102
RTVSPost2010PropOp49
 70
     1
102
RTVSPost2010Prop50
 90
       50
102
RTVSPost2010PropOp50
 70
     1
102
RTVSPost2010Prop51ColorIndex
 90
      256
102
RTVSPost2010Prop51ColorRGB
 90
-16777216
102
RTVSPost2010PropOp51
 70
     0
102
RTVSPost2010Prop52
140
1.0
102
RTVSPost2010PropOp52
 70
     0
102
RTVSPost2010Prop53
 90
        2
102
RTVSPost2010PropOp53
 70
     1
102
RTVSPost2010Prop54
  1
strokes_ogs.tif
102
RTVSPost2010PropOp54
 70
     1
102
RTVSPost2010Prop55
280
     0
102
RTVSPost2010PropOp55
 70
     1
102
RTVSPost2010Prop56
140
1.0
102
RTVSPost2010PropOp56
 70
     1
102
RTVSPost2010Prop57
140
1.0
102
RTVSPost2010PropOp57
 70
     1
102
RTVSPropertyOp0
 70
     1
102
RTVSPropertyOp1
 70
     1
102
RTVSPropertyOp2
 70
     1
102
RTVSPropertyOp3
 70
     1
102
RTVSPropertyOp4
 70
     1
102
RTVSPropertyOp5
 70
     1
102
RTVSPropertyOp6
 70
     1
102
RTVSPropertyOp7
 70
     1
102
RTVSPropertyOp8
 70
     1
102
RTVSPropertyOp9
 70
     1
102
RTVSPropertyOp10
 70
     1
102
RTVSPropertyOp11
 70
     1
102
RTVSPropertyOp12
 70
     1
102
RTVSPropertyOp13
 70
     1
102
RTVSPropertyOp14
 70
     1
102
RTVSPropertyOp15
 70
     1
102
RTVSPropertyOp16
 70
     1
102
RTVSPropertyOp17
 70
     1
102
RTVSPropertyOp18
 70
     1
102
RTVSPropertyOp19
 70
     1
102
RTVSPropertyOp20
 70
     1
102
RTVSPropertyOp21
 70
     1
102
RTVSPropertyOp22
 70
     1
102
RTVSPropertyOp23
 70
     1
102
RTVSPropertyOp24
 70
     1
102
RTVSPropertyOp25
 70
     1
102
RTVSPropertyOp26
 70
     1
102
RTVSPropertyOp27
 70
     1
102
RTVSPropertyOp28
 70
     1
102
RTVSPropertyOp29
 70
     1
102
RTVSPropertyOp30
 70
     1
102
RTVSPropertyOp31
 70
     1
102
RTVSPropertyOp32
 70
     1
102
RTVSPropertyOp33
 70
     1
102
RTVSPropertyOp34
 70
     1
102
RTVSPropertyOp35
 70
     1
102
RTVSPropertyOp36
 70
     1
102
RTVSPropertyOp37
 70
     1
102
RTVSPropertyOp38
 70
     1
102
RTVSPropertyOp39
 70
     1
102
RTVSPropertyOp40
 70
     1
102
RTVSPropertyOp41
 70
     1
102
RTVSPropertyOp42
 70
     1
102
RTVSPropertyOp43
 70
     1
102
RTVSPropertyOp44
 70
     1
102
RTVSPropertyOp45
 70
     1
102
RTVSPropertyOp46
 70
     1
102
RTVSPropertyOp47
 70
     1
102
RTVSPropertyOp48
 70
     1
102
RTVSPropertyOp49
 70
     1
102
RTVSPropertyOp50
 70
     1
102
RTVSPropertyOp51
 70
     0
102
RTVSPropertyOp52
 70
     0
102
RTVSPropertyOp53
 70
     1
102
RTVSPropertyOp54
 70
     1
102
RTVSPropertyOp55
 70
     1
102
RTVSPropertyOp56
 70
     1
102
RTVSPropertyOp57
 70
     1
102
RTVSPropertyOp58
 70
     1
102
RTVSPropertyOp59
 70
     1
102
RTVSPropertyOp60
 70
     1
102
RTVSPropertyOp61
 70
     1
102
RTVSPropertyOp62
 70
     1
  0
XRECORD
  5
2166B
102
{ACAD_REACTORS
330
2166A
102
}
330
2166A
100
AcDbXrecord
280
     1
102
RTVSPost2010Prop28
280
     0
102
RTVSPost2010PropOp28
 70
     1
102
RTVSPost2010Prop29
280
     1
102
RTVSPost2010PropOp29
 70
     1
102
RTVSPost2010Prop30
280
     1
102
RTVSPost2010PropOp30
 70
     1
102
RTVSPost2010Prop31
280
     0
102
RTVSPost2010PropOp31
 70
     1
102
RTVSPost2010Prop32
280
     0
102
RTVSPost2010PropOp32
 70
     1
102
RTVSPost2010Prop33
280
     0
102
RTVSPost2010PropOp33
 70
     1
102
RTVSPost2010Prop34
280
     0
102
RTVSPost2010PropOp34
 70
     1
102
RTVSPost2010Prop35
280
     0
102
RTVSPost2010PropOp35
 70
     1
102
RTVSPost2010Prop36
280
     0
102
RTVSPost2010PropOp36
 70
     1
102
RTVSPost2010Prop37
 90
       50
102
RTVSPost2010PropOp37
 70
     1
102
RTVSPost2010Prop38
140
0.0
102
RTVSPost2010PropOp38
 70
     1
102
RTVSPost2010Prop39
140
1.0
102
RTVSPost2010PropOp39
 70
     1
102
RTVSPost2010Prop40
 90
        0
102
RTVSPost2010PropOp40
 70
     1
102
RTVSPost2010Prop41ColorIndex
 90
       18
102
RTVSPost2010Prop41ColorRGB
 90
        0
102
RTVSPost2010PropOp41
 70
     1
102
RTVSPost2010Prop42
 90
       50
102
RTVSPost2010PropOp42
 70
     1
102
RTVSPost2010Prop43
 90
        3
102
RTVSPost2010PropOp43
 70
     1
102
RTVSPost2010Prop44ColorIndex
 90
        5
102
RTVSPost2010Prop44ColorRGB
 90
      255
102
RTVSPost2010PropOp44
 70
     1
102
RTVSPost2010Prop45
280
     0
102
RTVSPost2010PropOp45
 70
     1
102
RTVSPost2010Prop46
 90
       50
102
RTVSPost2010PropOp46
 70
     1
102
RTVSPost2010Prop47
 90
       50
102
RTVSPost2010PropOp47
 70
     1
102
RTVSPost2010Prop48
 90
       50
102
RTVSPost2010PropOp48
 70
     1
102
RTVSPost2010Prop49
280
     0
102
RTVSPost2010PropOp49
 70
     1
102
RTVSPost2010Prop50
 90
       50
102
RTVSPost2010PropOp50
 70
     1
102
RTVSPost2010Prop51ColorIndex
 90
      256
102
RTVSPost2010Prop51ColorRGB
 90
-16777216
102
RTVSPost2010PropOp51
 70
     0
102
RTVSPost2010Prop52
140
1.0
102
RTVSPost2010PropOp52
 70
     0
102
RTVSPost2010Prop53
 90
        2
102
RTVSPost2010PropOp53
 70
     1
102
RTVSPost2010Prop54
  1
strokes_ogs.tif
102
RTVSPost2010PropOp54
 70
     1
102
RTVSPost2010Prop55
280
     0
102
RTVSPost2010PropOp55
 70
     1
102
RTVSPost2010Prop56
140
1.0
102
RTVSPost2010PropOp56
 70
     1
102
RTVSPost2010Prop57
140
1.0
102
RTVSPost2010PropOp57
 70
     1
102
RTVSPropertyOp0
 70
     1
102
RTVSPropertyOp1
 70
     1
102
RTVSPropertyOp2
 70
     1
102
RTVSPropertyOp3
 70
     1
102
RTVSPropertyOp4
 70
     1
102
RTVSPropertyOp5
 70
     1
102
RTVSPropertyOp6
 70
     1
102
RTVSPropertyOp7
 70
     1
102
RTVSPropertyOp8
 70
     1
102
RTVSPropertyOp9
 70
     1
102
RTVSPropertyOp10
 70
     1
102
RTVSPropertyOp11
 70
     1
102
RTVSPropertyOp12
 70
     1
102
RTVSPropertyOp13
 70
     1
102
RTVSPropertyOp14
 70
     1
102
RTVSPropertyOp15
 70
     1
102
RTVSPropertyOp16
 70
     1
102
RTVSPropertyOp17
 70
     1
102
RTVSPropertyOp18
 70
     1
102
RTVSPropertyOp19
 70
     1
102
RTVSPropertyOp20
 70
     1
102
RTVSPropertyOp21
 70
     1
102
RTVSPropertyOp22
 70
     1
102
RTVSPropertyOp23
 70
     1
102
RTVSPropertyOp24
 70
     1
102
RTVSPropertyOp25
 70
     1
102
RTVSPropertyOp26
 70
     1
102
RTVSPropertyOp27
 70
     1
102
RTVSPropertyOp28
 70
     1
102
RTVSPropertyOp29
 70
     1
102
RTVSPropertyOp30
 70
     1
102
RTVSPropertyOp31
 70
     1
102
RTVSPropertyOp32
 70
     1
102
RTVSPropertyOp33
 70
     1
102
RTVSPropertyOp34
 70
     1
102
RTVSPropertyOp35
 70
     1
102
RTVSPropertyOp36
 70
     1
102
RTVSPropertyOp37
 70
     1
102
RTVSPropertyOp38
 70
     1
102
RTVSPropertyOp39
 70
     1
102
RTVSPropertyOp40
 70
     1
102
RTVSPropertyOp41
 70
     1
102
RTVSPropertyOp42
 70
     1
102
RTVSPropertyOp43
 70
     1
102
RTVSPropertyOp44
 70
     1
102
RTVSPropertyOp45
 70
     1
102
RTVSPropertyOp46
 70
     1
102
RTVSPropertyOp47
 70
     1
102
RTVSPropertyOp48
 70
     1
102
RTVSPropertyOp49
 70
     1
102
RTVSPropertyOp50
 70
     1
102
RTVSPropertyOp51
 70
     0
102
RTVSPropertyOp52
 70
     0
102
RTVSPropertyOp53
 70
     1
102
RTVSPropertyOp54
 70
     1
102
RTVSPropertyOp55
 70
     1
102
RTVSPropertyOp56
 70
     1
102
RTVSPropertyOp57
 70
     1
102
RTVSPropertyOp58
 70
     1
102
RTVSPropertyOp59
 70
     1
102
RTVSPropertyOp60
 70
     1
102
RTVSPropertyOp61
 70
     1
102
RTVSPropertyOp62
 70
     1
  0
XRECORD
  5
21673
102
{ACAD_REACTORS
330
21672
102
}
330
21672
100
AcDbXrecord
280
     1
102
RTVSPost2010Prop28
280
     0
102
RTVSPost2010PropOp28
 70
     1
102
RTVSPost2010Prop29
280
     1
102
RTVSPost2010PropOp29
 70
     1
102
RTVSPost2010Prop30
280
     1
102
RTVSPost2010PropOp30
 70
     1
102
RTVSPost2010Prop31
280
     0
102
RTVSPost2010PropOp31
 70
     1
102
RTVSPost2010Prop32
280
     0
102
RTVSPost2010PropOp32
 70
     1
102
RTVSPost2010Prop33
280
     0
102
RTVSPost2010PropOp33
 70
     1
102
RTVSPost2010Prop34
280
     0
102
RTVSPost2010PropOp34
 70
     1
102
RTVSPost2010Prop35
280
     0
102
RTVSPost2010PropOp35
 70
     1
102
RTVSPost2010Prop36
280
     0
102
RTVSPost2010PropOp36
 70
     1
102
RTVSPost2010Prop37
 90
       50
102
RTVSPost2010PropOp37
 70
     1
102
RTVSPost2010Prop38
140
0.0
102
RTVSPost2010PropOp38
 70
     1
102
RTVSPost2010Prop39
140
1.0
102
RTVSPost2010PropOp39
 70
     1
102
RTVSPost2010Prop40
 90
        0
102
RTVSPost2010PropOp40
 70
     1
102
RTVSPost2010Prop41ColorIndex
 90
       18
102
RTVSPost2010Prop41ColorRGB
 90
        0
102
RTVSPost2010PropOp41
 70
     1
102
RTVSPost2010Prop42
 90
       50
102
RTVSPost2010PropOp42
 70
     1
102
RTVSPost2010Prop43
 90
        3
102
RTVSPost2010PropOp43
 70
     1
102
RTVSPost2010Prop44ColorIndex
 90
        5
102
RTVSPost2010Prop44ColorRGB
 90
      255
102
RTVSPost2010PropOp44
 70
     1
102
RTVSPost2010Prop45
280
     0
102
RTVSPost2010PropOp45
 70
     1
102
RTVSPost2010Prop46
 90
       50
102
RTVSPost2010PropOp46
 70
     1
102
RTVSPost2010Prop47
 90
       50
102
RTVSPost2010PropOp47
 70
     1
102
RTVSPost2010Prop48
 90
       50
102
RTVSPost2010PropOp48
 70
     1
102
RTVSPost2010Prop49
280
     0
102
RTVSPost2010PropOp49
 70
     1
102
RTVSPost2010Prop50
 90
       50
102
RTVSPost2010PropOp50
 70
     1
102
RTVSPost2010Prop51ColorIndex
 90
      256
102
RTVSPost2010Prop51ColorRGB
 90
-16777216
102
RTVSPost2010PropOp51
 70
     0
102
RTVSPost2010Prop52
140
1.0
102
RTVSPost2010PropOp52
 70
     0
102
RTVSPost2010Prop53
 90
        2
102
RTVSPost2010PropOp53
 70
     1
102
RTVSPost2010Prop54
  1
strokes_ogs.tif
102
RTVSPost2010PropOp54
 70
     1
102
RTVSPost2010Prop55
280
     0
102
RTVSPost2010PropOp55
 70
     1
102
RTVSPost2010Prop56
140
1.0
102
RTVSPost2010PropOp56
 70
     1
102
RTVSPost2010Prop57
140
1.0
102
RTVSPost2010PropOp57
 70
     1
102
RTVSPropertyOp0
 70
     1
102
RTVSPropertyOp1
 70
     1
102
RTVSPropertyOp2
 70
     1
102
RTVSPropertyOp3
 70
     1
102
RTVSPropertyOp4
 70
     1
102
RTVSPropertyOp5
 70
     1
102
RTVSPropertyOp6
 70
     1
102
RTVSPropertyOp7
 70
     1
102
RTVSPropertyOp8
 70
     1
102
RTVSPropertyOp9
 70
     1
102
RTVSPropertyOp10
 70
     1
102
RTVSPropertyOp11
 70
     1
102
RTVSPropertyOp12
 70
     1
102
RTVSPropertyOp13
 70
     1
102
RTVSPropertyOp14
 70
     1
102
RTVSPropertyOp15
 70
     1
102
RTVSPropertyOp16
 70
     1
102
RTVSPropertyOp17
 70
     1
102
RTVSPropertyOp18
 70
     1
102
RTVSPropertyOp19
 70
     1
102
RTVSPropertyOp20
 70
     1
102
RTVSPropertyOp21
 70
     1
102
RTVSPropertyOp22
 70
     1
102
RTVSPropertyOp23
 70
     1
102
RTVSPropertyOp24
 70
     1
102
RTVSPropertyOp25
 70
     1
102
RTVSPropertyOp26
 70
     1
102
RTVSPropertyOp27
 70
     1
102
RTVSPropertyOp28
 70
     1
102
RTVSPropertyOp29
 70
     1
102
RTVSPropertyOp30
 70
     1
102
RTVSPropertyOp31
 70
     1
102
RTVSPropertyOp32
 70
     1
102
RTVSPropertyOp33
 70
     1
102
RTVSPropertyOp34
 70
     1
102
RTVSPropertyOp35
 70
     1
102
RTVSPropertyOp36
 70
     1
102
RTVSPropertyOp37
 70
     1
102
RTVSPropertyOp38
 70
     1
102
RTVSPropertyOp39
 70
     1
102
RTVSPropertyOp40
 70
     1
102
RTVSPropertyOp41
 70
     1
102
RTVSPropertyOp42
 70
     1
102
RTVSPropertyOp43
 70
     1
102
RTVSPropertyOp44
 70
     1
102
RTVSPropertyOp45
 70
     1
102
RTVSPropertyOp46
 70
     1
102
RTVSPropertyOp47
 70
     1
102
RTVSPropertyOp48
 70
     1
102
RTVSPropertyOp49
 70
     1
102
RTVSPropertyOp50
 70
     1
102
RTVSPropertyOp51
 70
     0
102
RTVSPropertyOp52
 70
     0
102
RTVSPropertyOp53
 70
     1
102
RTVSPropertyOp54
 70
     1
102
RTVSPropertyOp55
 70
     1
102
RTVSPropertyOp56
 70
     1
102
RTVSPropertyOp57
 70
     1
102
RTVSPropertyOp58
 70
     1
102
RTVSPropertyOp59
 70
     1
102
RTVSPropertyOp60
 70
     1
102
RTVSPropertyOp61
 70
     1
102
RTVSPropertyOp62
 70
     1
  0
XRECORD
  5
21665
102
{ACAD_REACTORS
330
21664
102
}
330
21664
100
AcDbXrecord
280
     1
102
RTVSPost2010Prop28
280
     0
102
RTVSPost2010PropOp28
 70
     1
102
RTVSPost2010Prop29
280
     1
102
RTVSPost2010PropOp29
 70
     1
102
RTVSPost2010Prop30
280
     1
102
RTVSPost2010PropOp30
 70
     1
102
RTVSPost2010Prop31
280
     0
102
RTVSPost2010PropOp31
 70
     1
102
RTVSPost2010Prop32
280
     0
102
RTVSPost2010PropOp32
 70
     1
102
RTVSPost2010Prop33
280
     0
102
RTVSPost2010PropOp33
 70
     1
102
RTVSPost2010Prop34
280
     0
102
RTVSPost2010PropOp34
 70
     1
102
RTVSPost2010Prop35
280
     0
102
RTVSPost2010PropOp35
 70
     1
102
RTVSPost2010Prop36
280
     0
102
RTVSPost2010PropOp36
 70
     1
102
RTVSPost2010Prop37
 90
       50
102
RTVSPost2010PropOp37
 70
     1
102
RTVSPost2010Prop38
140
0.0
102
RTVSPost2010PropOp38
 70
     1
102
RTVSPost2010Prop39
140
1.0
102
RTVSPost2010PropOp39
 70
     1
102
RTVSPost2010Prop40
 90
        0
102
RTVSPost2010PropOp40
 70
     1
102
RTVSPost2010Prop41ColorIndex
 90
       18
102
RTVSPost2010Prop41ColorRGB
 90
        0
102
RTVSPost2010PropOp41
 70
     1
102
RTVSPost2010Prop42
 90
       50
102
RTVSPost2010PropOp42
 70
     1
102
RTVSPost2010Prop43
 90
        3
102
RTVSPost2010PropOp43
 70
     1
102
RTVSPost2010Prop44ColorIndex
 90
        5
102
RTVSPost2010Prop44ColorRGB
 90
      255
102
RTVSPost2010PropOp44
 70
     1
102
RTVSPost2010Prop45
280
     0
102
RTVSPost2010PropOp45
 70
     1
102
RTVSPost2010Prop46
 90
       50
102
RTVSPost2010PropOp46
 70
     1
102
RTVSPost2010Prop47
 90
       50
102
RTVSPost2010PropOp47
 70
     1
102
RTVSPost2010Prop48
 90
       50
102
RTVSPost2010PropOp48
 70
     1
102
RTVSPost2010Prop49
280
     0
102
RTVSPost2010PropOp49
 70
     1
102
RTVSPost2010Prop50
 90
       50
102
RTVSPost2010PropOp50
 70
     1
102
RTVSPost2010Prop51ColorIndex
 90
      256
102
RTVSPost2010Prop51ColorRGB
 90
-16777216
102
RTVSPost2010PropOp51
 70
     0
102
RTVSPost2010Prop52
140
1.0
102
RTVSPost2010PropOp52
 70
     0
102
RTVSPost2010Prop53
 90
        2
102
RTVSPost2010PropOp53
 70
     1
102
RTVSPost2010Prop54
  1
strokes_ogs.tif
102
RTVSPost2010PropOp54
 70
     1
102
RTVSPost2010Prop55
280
     0
102
RTVSPost2010PropOp55
 70
     1
102
RTVSPost2010Prop56
140
1.0
102
RTVSPost2010PropOp56
 70
     1
102
RTVSPost2010Prop57
140
1.0
102
RTVSPost2010PropOp57
 70
     1
102
RTVSPropertyOp0
 70
     1
102
RTVSPropertyOp1
 70
     1
102
RTVSPropertyOp2
 70
     1
102
RTVSPropertyOp3
 70
     1
102
RTVSPropertyOp4
 70
     1
102
RTVSPropertyOp5
 70
     1
102
RTVSPropertyOp6
 70
     1
102
RTVSPropertyOp7
 70
     1
102
RTVSPropertyOp8
 70
     1
102
RTVSPropertyOp9
 70
     1
102
RTVSPropertyOp10
 70
     1
102
RTVSPropertyOp11
 70
     1
102
RTVSPropertyOp12
 70
     1
102
RTVSPropertyOp13
 70
     1
102
RTVSPropertyOp14
 70
     1
102
RTVSPropertyOp15
 70
     1
102
RTVSPropertyOp16
 70
     1
102
RTVSPropertyOp17
 70
     1
102
RTVSPropertyOp18
 70
     1
102
RTVSPropertyOp19
 70
     1
102
RTVSPropertyOp20
 70
     1
102
RTVSPropertyOp21
 70
     1
102
RTVSPropertyOp22
 70
     1
102
RTVSPropertyOp23
 70
     1
102
RTVSPropertyOp24
 70
     1
102
RTVSPropertyOp25
 70
     1
102
RTVSPropertyOp26
 70
     1
102
RTVSPropertyOp27
 70
     1
102
RTVSPropertyOp28
 70
     1
102
RTVSPropertyOp29
 70
     1
102
RTVSPropertyOp30
 70
     1
102
RTVSPropertyOp31
 70
     1
102
RTVSPropertyOp32
 70
     1
102
RTVSPropertyOp33
 70
     1
102
RTVSPropertyOp34
 70
     1
102
RTVSPropertyOp35
 70
     1
102
RTVSPropertyOp36
 70
     1
102
RTVSPropertyOp37
 70
     1
102
RTVSPropertyOp38
 70
     1
102
RTVSPropertyOp39
 70
     1
102
RTVSPropertyOp40
 70
     1
102
RTVSPropertyOp41
 70
     1
102
RTVSPropertyOp42
 70
     1
102
RTVSPropertyOp43
 70
     1
102
RTVSPropertyOp44
 70
     1
102
RTVSPropertyOp45
 70
     1
102
RTVSPropertyOp46
 70
     1
102
RTVSPropertyOp47
 70
     1
102
RTVSPropertyOp48
 70
     1
102
RTVSPropertyOp49
 70
     1
102
RTVSPropertyOp50
 70
     1
102
RTVSPropertyOp51
 70
     0
102
RTVSPropertyOp52
 70
     0
102
RTVSPropertyOp53
 70
     1
102
RTVSPropertyOp54
 70
     1
102
RTVSPropertyOp55
 70
     1
102
RTVSPropertyOp56
 70
     1
102
RTVSPropertyOp57
 70
     1
102
RTVSPropertyOp58
 70
     1
102
RTVSPropertyOp59
 70
     1
102
RTVSPropertyOp60
 70
     1
102
RTVSPropertyOp61
 70
     1
102
RTVSPropertyOp62
 70
     1
  0
XRECORD
  5
21669
102
{ACAD_REACTORS
330
21668
102
}
330
21668
100
AcDbXrecord
280
     1
102
RTVSPost2010Prop28
280
     0
102
RTVSPost2010PropOp28
 70
     1
102
RTVSPost2010Prop29
280
     1
102
RTVSPost2010PropOp29
 70
     1
102
RTVSPost2010Prop30
280
     1
102
RTVSPost2010PropOp30
 70
     1
102
RTVSPost2010Prop31
280
     0
102
RTVSPost2010PropOp31
 70
     1
102
RTVSPost2010Prop32
280
     0
102
RTVSPost2010PropOp32
 70
     1
102
RTVSPost2010Prop33
280
     0
102
RTVSPost2010PropOp33
 70
     1
102
RTVSPost2010Prop34
280
     0
102
RTVSPost2010PropOp34
 70
     1
102
RTVSPost2010Prop35
280
     0
102
RTVSPost2010PropOp35
 70
     1
102
RTVSPost2010Prop36
280
     0
102
RTVSPost2010PropOp36
 70
     1
102
RTVSPost2010Prop37
 90
       50
102
RTVSPost2010PropOp37
 70
     1
102
RTVSPost2010Prop38
140
0.0
102
RTVSPost2010PropOp38
 70
     1
102
RTVSPost2010Prop39
140
1.0
102
RTVSPost2010PropOp39
 70
     1
102
RTVSPost2010Prop40
 90
        0
102
RTVSPost2010PropOp40
 70
     1
102
RTVSPost2010Prop41ColorIndex
 90
       18
102
RTVSPost2010Prop41ColorRGB
 90
        0
102
RTVSPost2010PropOp41
 70
     1
102
RTVSPost2010Prop42
 90
       50
102
RTVSPost2010PropOp42
 70
     1
102
RTVSPost2010Prop43
 90
        3
102
RTVSPost2010PropOp43
 70
     1
102
RTVSPost2010Prop44ColorIndex
 90
        5
102
RTVSPost2010Prop44ColorRGB
 90
      255
102
RTVSPost2010PropOp44
 70
     1
102
RTVSPost2010Prop45
280
     0
102
RTVSPost2010PropOp45
 70
     1
102
RTVSPost2010Prop46
 90
       50
102
RTVSPost2010PropOp46
 70
     1
102
RTVSPost2010Prop47
 90
       50
102
RTVSPost2010PropOp47
 70
     1
102
RTVSPost2010Prop48
 90
       50
102
RTVSPost2010PropOp48
 70
     1
102
RTVSPost2010Prop49
280
     0
102
RTVSPost2010PropOp49
 70
     1
102
RTVSPost2010Prop50
 90
       50
102
RTVSPost2010PropOp50
 70
     1
102
RTVSPost2010Prop51ColorIndex
 90
      256
102
RTVSPost2010Prop51ColorRGB
 90
-16777216
102
RTVSPost2010PropOp51
 70
     0
102
RTVSPost2010Prop52
140
1.0
102
RTVSPost2010PropOp52
 70
     0
102
RTVSPost2010Prop53
 90
        2
102
RTVSPost2010PropOp53
 70
     1
102
RTVSPost2010Prop54
  1
strokes_ogs.tif
102
RTVSPost2010PropOp54
 70
     1
102
RTVSPost2010Prop55
280
     0
102
RTVSPost2010PropOp55
 70
     1
102
RTVSPost2010Prop56
140
1.0
102
RTVSPost2010PropOp56
 70
     1
102
RTVSPost2010Prop57
140
1.0
102
RTVSPost2010PropOp57
 70
     1
102
RTVSPropertyOp0
 70
     1
102
RTVSPropertyOp1
 70
     1
102
RTVSPropertyOp2
 70
     1
102
RTVSPropertyOp3
 70
     1
102
RTVSPropertyOp4
 70
     1
102
RTVSPropertyOp5
 70
     1
102
RTVSPropertyOp6
 70
     1
102
RTVSPropertyOp7
 70
     1
102
RTVSPropertyOp8
 70
     1
102
RTVSPropertyOp9
 70
     1
102
RTVSPropertyOp10
 70
     1
102
RTVSPropertyOp11
 70
     1
102
RTVSPropertyOp12
 70
     1
102
RTVSPropertyOp13
 70
     1
102
RTVSPropertyOp14
 70
     1
102
RTVSPropertyOp15
 70
     1
102
RTVSPropertyOp16
 70
     1
102
RTVSPropertyOp17
 70
     1
102
RTVSPropertyOp18
 70
     1
102
RTVSPropertyOp19
 70
     1
102
RTVSPropertyOp20
 70
     1
102
RTVSPropertyOp21
 70
     1
102
RTVSPropertyOp22
 70
     1
102
RTVSPropertyOp23
 70
     1
102
RTVSPropertyOp24
 70
     1
102
RTVSPropertyOp25
 70
     1
102
RTVSPropertyOp26
 70
     1
102
RTVSPropertyOp27
 70
     1
102
RTVSPropertyOp28
 70
     1
102
RTVSPropertyOp29
 70
     1
102
RTVSPropertyOp30
 70
     1
102
RTVSPropertyOp31
 70
     1
102
RTVSPropertyOp32
 70
     1
102
RTVSPropertyOp33
 70
     1
102
RTVSPropertyOp34
 70
     1
102
RTVSPropertyOp35
 70
     1
102
RTVSPropertyOp36
 70
     1
102
RTVSPropertyOp37
 70
     1
102
RTVSPropertyOp38
 70
     1
102
RTVSPropertyOp39
 70
     1
102
RTVSPropertyOp40
 70
     1
102
RTVSPropertyOp41
 70
     1
102
RTVSPropertyOp42
 70
     1
102
RTVSPropertyOp43
 70
     1
102
RTVSPropertyOp44
 70
     1
102
RTVSPropertyOp45
 70
     1
102
RTVSPropertyOp46
 70
     1
102
RTVSPropertyOp47
 70
     1
102
RTVSPropertyOp48
 70
     1
102
RTVSPropertyOp49
 70
     1
102
RTVSPropertyOp50
 70
     1
102
RTVSPropertyOp51
 70
     0
102
RTVSPropertyOp52
 70
     0
102
RTVSPropertyOp53
 70
     1
102
RTVSPropertyOp54
 70
     1
102
RTVSPropertyOp55
 70
     1
102
RTVSPropertyOp56
 70
     1
102
RTVSPropertyOp57
 70
     1
102
RTVSPropertyOp58
 70
     1
102
RTVSPropertyOp59
 70
     1
102
RTVSPropertyOp60
 70
     1
102
RTVSPropertyOp61
 70
     1
102
RTVSPropertyOp62
 70
     1
  0
XRECORD
  5
2168F
102
{ACAD_REACTORS
330
2168E
102
}
330
2168E
100
AcDbXrecord
280
     1
102
RTVSPost2010Prop28
280
     0
102
RTVSPost2010PropOp28
 70
     1
102
RTVSPost2010Prop29
280
     1
102
RTVSPost2010PropOp29
 70
     1
102
RTVSPost2010Prop30
280
     1
102
RTVSPost2010PropOp30
 70
     1
102
RTVSPost2010Prop31
280
     0
102
RTVSPost2010PropOp31
 70
     1
102
RTVSPost2010Prop32
280
     0
102
RTVSPost2010PropOp32
 70
     1
102
RTVSPost2010Prop33
280
     0
102
RTVSPost2010PropOp33
 70
     1
102
RTVSPost2010Prop34
280
     0
102
RTVSPost2010PropOp34
 70
     1
102
RTVSPost2010Prop35
280
     0
102
RTVSPost2010PropOp35
 70
     1
102
RTVSPost2010Prop36
280
     0
102
RTVSPost2010PropOp36
 70
     1
102
RTVSPost2010Prop37
 90
       50
102
RTVSPost2010PropOp37
 70
     0
102
RTVSPost2010Prop38
140
0.0
102
RTVSPost2010PropOp38
 70
     0
102
RTVSPost2010Prop39
140
1.0
102
RTVSPost2010PropOp39
 70
     0
102
RTVSPost2010Prop40
 90
        0
102
RTVSPost2010PropOp40
 70
     0
102
RTVSPost2010Prop41ColorIndex
 90
       18
102
RTVSPost2010Prop41ColorRGB
 90
        0
102
RTVSPost2010PropOp41
 70
     0
102
RTVSPost2010Prop42
 90
       50
102
RTVSPost2010PropOp42
 70
     0
102
RTVSPost2010Prop43
 90
        3
102
RTVSPost2010PropOp43
 70
     0
102
RTVSPost2010Prop44ColorIndex
 90
        5
102
RTVSPost2010Prop44ColorRGB
 90
      255
102
RTVSPost2010PropOp44
 70
     0
102
RTVSPost2010Prop45
280
     0
102
RTVSPost2010PropOp45
 70
     1
102
RTVSPost2010Prop46
 90
       50
102
RTVSPost2010PropOp46
 70
     0
102
RTVSPost2010Prop47
 90
       50
102
RTVSPost2010PropOp47
 70
     0
102
RTVSPost2010Prop48
 90
       50
102
RTVSPost2010PropOp48
 70
     0
102
RTVSPost2010Prop49
280
     0
102
RTVSPost2010PropOp49
 70
     1
102
RTVSPost2010Prop50
 90
       50
102
RTVSPost2010PropOp50
 70
     0
102
RTVSPost2010Prop51ColorIndex
 90
      256
102
RTVSPost2010Prop51ColorRGB
 90
-16777216
102
RTVSPost2010PropOp51
 70
     0
102
RTVSPost2010Prop52
140
1.0
102
RTVSPost2010PropOp52
 70
     0
102
RTVSPost2010Prop53
 90
        2
102
RTVSPost2010PropOp53
 70
     0
102
RTVSPost2010Prop54
  1
strokes_ogs.tif
102
RTVSPost2010PropOp54
 70
     0
102
RTVSPost2010Prop55
280
     0
102
RTVSPost2010PropOp55
 70
     1
102
RTVSPost2010Prop56
140
1.0
102
RTVSPost2010PropOp56
 70
     0
102
RTVSPost2010Prop57
140
1.0
102
RTVSPost2010PropOp57
 70
     0
102
RTVSPropertyOp0
 70
     0
102
RTVSPropertyOp1
 70
     0
102
RTVSPropertyOp2
 70
     0
102
RTVSPropertyOp3
 70
     0
102
RTVSPropertyOp4
 70
     0
102
RTVSPropertyOp5
 70
     0
102
RTVSPropertyOp6
 70
     0
102
RTVSPropertyOp7
 70
     0
102
RTVSPropertyOp8
 70
     0
102
RTVSPropertyOp9
 70
     0
102
RTVSPropertyOp10
 70
     0
102
RTVSPropertyOp11
 70
     0
102
RTVSPropertyOp12
 70
     0
102
RTVSPropertyOp13
 70
     0
102
RTVSPropertyOp14
 70
     2
102
RTVSPropertyOp15
 70
     0
102
RTVSPropertyOp16
 70
     0
102
RTVSPropertyOp17
 70
     0
102
RTVSPropertyOp18
 70
     0
102
RTVSPropertyOp19
 70
     0
102
RTVSPropertyOp20
 70
     0
102
RTVSPropertyOp21
 70
     0
102
RTVSPropertyOp22
 70
     0
102
RTVSPropertyOp23
 70
     0
102
RTVSPropertyOp24
 70
     0
102
RTVSPropertyOp25
 70
     0
102
RTVSPropertyOp26
 70
     0
102
RTVSPropertyOp27
 70
     0
102
RTVSPropertyOp28
 70
     1
102
RTVSPropertyOp29
 70
     1
102
RTVSPropertyOp30
 70
     1
102
RTVSPropertyOp31
 70
     1
102
RTVSPropertyOp32
 70
     1
102
RTVSPropertyOp33
 70
     1
102
RTVSPropertyOp34
 70
     1
102
RTVSPropertyOp35
 70
     1
102
RTVSPropertyOp36
 70
     1
102
RTVSPropertyOp37
 70
     0
102
RTVSPropertyOp38
 70
     0
102
RTVSPropertyOp39
 70
     0
102
RTVSPropertyOp40
 70
     0
102
RTVSPropertyOp41
 70
     0
102
RTVSPropertyOp42
 70
     0
102
RTVSPropertyOp43
 70
     0
102
RTVSPropertyOp44
 70
     0
102
RTVSPropertyOp45
 70
     1
102
RTVSPropertyOp46
 70
     0
102
RTVSPropertyOp47
 70
     0
102
RTVSPropertyOp48
 70
     0
102
RTVSPropertyOp49
 70
     1
102
RTVSPropertyOp50
 70
     0
102
RTVSPropertyOp51
 70
     0
102
RTVSPropertyOp52
 70
     0
102
RTVSPropertyOp53
 70
     0
102
RTVSPropertyOp54
 70
     0
102
RTVSPropertyOp55
 70
     1
102
RTVSPropertyOp56
 70
     0
102
RTVSPropertyOp57
 70
     0
102
RTVSPropertyOp58
 70
     1
102
RTVSPropertyOp59
 70
     1
102
RTVSPropertyOp60
 70
     1
102
RTVSPropertyOp61
 70
     1
102
RTVSPropertyOp62
 70
     1
  0
XRECORD
  5
21671
102
{ACAD_REACTORS
330
21670
102
}
330
21670
100
AcDbXrecord
280
     1
102
RTVSPost2010Prop28
280
     0
102
RTVSPost2010PropOp28
 70
     1
102
RTVSPost2010Prop29
280
     1
102
RTVSPost2010PropOp29
 70
     1
102
RTVSPost2010Prop30
280
     1
102
RTVSPost2010PropOp30
 70
     1
102
RTVSPost2010Prop31
280
     0
102
RTVSPost2010PropOp31
 70
     1
102
RTVSPost2010Prop32
280
     0
102
RTVSPost2010PropOp32
 70
     1
102
RTVSPost2010Prop33
280
     0
102
RTVSPost2010PropOp33
 70
     1
102
RTVSPost2010Prop34
280
     0
102
RTVSPost2010PropOp34
 70
     1
102
RTVSPost2010Prop35
280
     0
102
RTVSPost2010PropOp35
 70
     1
102
RTVSPost2010Prop36
280
     0
102
RTVSPost2010PropOp36
 70
     1
102
RTVSPost2010Prop37
 90
       50
102
RTVSPost2010PropOp37
 70
     1
102
RTVSPost2010Prop38
140
0.0
102
RTVSPost2010PropOp38
 70
     1
102
RTVSPost2010Prop39
140
1.0
102
RTVSPost2010PropOp39
 70
     1
102
RTVSPost2010Prop40
 90
        0
102
RTVSPost2010PropOp40
 70
     1
102
RTVSPost2010Prop41ColorIndex
 90
       18
102
RTVSPost2010Prop41ColorRGB
 90
        0
102
RTVSPost2010PropOp41
 70
     1
102
RTVSPost2010Prop42
 90
       50
102
RTVSPost2010PropOp42
 70
     1
102
RTVSPost2010Prop43
 90
        3
102
RTVSPost2010PropOp43
 70
     1
102
RTVSPost2010Prop44ColorIndex
 90
        5
102
RTVSPost2010Prop44ColorRGB
 90
      255
102
RTVSPost2010PropOp44
 70
     1
102
RTVSPost2010Prop45
280
     0
102
RTVSPost2010PropOp45
 70
     1
102
RTVSPost2010Prop46
 90
       50
102
RTVSPost2010PropOp46
 70
     1
102
RTVSPost2010Prop47
 90
       50
102
RTVSPost2010PropOp47
 70
     1
102
RTVSPost2010Prop48
 90
       50
102
RTVSPost2010PropOp48
 70
     1
102
RTVSPost2010Prop49
280
     0
102
RTVSPost2010PropOp49
 70
     1
102
RTVSPost2010Prop50
 90
       50
102
RTVSPost2010PropOp50
 70
     1
102
RTVSPost2010Prop51ColorIndex
 90
      256
102
RTVSPost2010Prop51ColorRGB
 90
-16777216
102
RTVSPost2010PropOp51
 70
     0
102
RTVSPost2010Prop52
140
1.0
102
RTVSPost2010PropOp52
 70
     0
102
RTVSPost2010Prop53
 90
        2
102
RTVSPost2010PropOp53
 70
     1
102
RTVSPost2010Prop54
  1
strokes_ogs.tif
102
RTVSPost2010PropOp54
 70
     1
102
RTVSPost2010Prop55
280
     0
102
RTVSPost2010PropOp55
 70
     1
102
RTVSPost2010Prop56
140
1.0
102
RTVSPost2010PropOp56
 70
     1
102
RTVSPost2010Prop57
140
1.0
102
RTVSPost2010PropOp57
 70
     1
102
RTVSPropertyOp0
 70
     1
102
RTVSPropertyOp1
 70
     1
102
RTVSPropertyOp2
 70
     1
102
RTVSPropertyOp3
 70
     1
102
RTVSPropertyOp4
 70
     1
102
RTVSPropertyOp5
 70
     1
102
RTVSPropertyOp6
 70
     1
102
RTVSPropertyOp7
 70
     1
102
RTVSPropertyOp8
 70
     1
102
RTVSPropertyOp9
 70
     1
102
RTVSPropertyOp10
 70
     1
102
RTVSPropertyOp11
 70
     1
102
RTVSPropertyOp12
 70
     1
102
RTVSPropertyOp13
 70
     1
102
RTVSPropertyOp14
 70
     1
102
RTVSPropertyOp15
 70
     1
102
RTVSPropertyOp16
 70
     1
102
RTVSPropertyOp17
 70
     1
102
RTVSPropertyOp18
 70
     1
102
RTVSPropertyOp19
 70
     1
102
RTVSPropertyOp20
 70
     1
102
RTVSPropertyOp21
 70
     1
102
RTVSPropertyOp22
 70
     1
102
RTVSPropertyOp23
 70
     1
102
RTVSPropertyOp24
 70
     1
102
RTVSPropertyOp25
 70
     1
102
RTVSPropertyOp26
 70
     1
102
RTVSPropertyOp27
 70
     1
102
RTVSPropertyOp28
 70
     1
102
RTVSPropertyOp29
 70
     1
102
RTVSPropertyOp30
 70
     1
102
RTVSPropertyOp31
 70
     1
102
RTVSPropertyOp32
 70
     1
102
RTVSPropertyOp33
 70
     1
102
RTVSPropertyOp34
 70
     1
102
RTVSPropertyOp35
 70
     1
102
RTVSPropertyOp36
 70
     1
102
RTVSPropertyOp37
 70
     1
102
RTVSPropertyOp38
 70
     1
102
RTVSPropertyOp39
 70
     1
102
RTVSPropertyOp40
 70
     1
102
RTVSPropertyOp41
 70
     1
102
RTVSPropertyOp42
 70
     1
102
RTVSPropertyOp43
 70
     1
102
RTVSPropertyOp44
 70
     1
102
RTVSPropertyOp45
 70
     1
102
RTVSPropertyOp46
 70
     1
102
RTVSPropertyOp47
 70
     1
102
RTVSPropertyOp48
 70
     1
102
RTVSPropertyOp49
 70
     1
102
RTVSPropertyOp50
 70
     1
102
RTVSPropertyOp51
 70
     0
102
RTVSPropertyOp52
 70
     0
102
RTVSPropertyOp53
 70
     1
102
RTVSPropertyOp54
 70
     1
102
RTVSPropertyOp55
 70
     1
102
RTVSPropertyOp56
 70
     1
102
RTVSPropertyOp57
 70
     1
102
RTVSPropertyOp58
 70
     1
102
RTVSPropertyOp59
 70
     1
102
RTVSPropertyOp60
 70
     1
102
RTVSPropertyOp61
 70
     1
102
RTVSPropertyOp62
 70
     1
  0
XRECORD
  5
21655
102
{ACAD_REACTORS
330
21654
102
}
330
21654
100
AcDbXrecord
280
     1
102
RTVSPost2010Prop28
280
     0
102
RTVSPost2010PropOp28
 70
     1
102
RTVSPost2010Prop29
280
     1
102
RTVSPost2010PropOp29
 70
     1
102
RTVSPost2010Prop30
280
     1
102
RTVSPost2010PropOp30
 70
     1
102
RTVSPost2010Prop31
280
     0
102
RTVSPost2010PropOp31
 70
     1
102
RTVSPost2010Prop32
280
     0
102
RTVSPost2010PropOp32
 70
     1
102
RTVSPost2010Prop33
280
     0
102
RTVSPost2010PropOp33
 70
     1
102
RTVSPost2010Prop34
280
     0
102
RTVSPost2010PropOp34
 70
     1
102
RTVSPost2010Prop35
280
     0
102
RTVSPost2010PropOp35
 70
     1
102
RTVSPost2010Prop36
280
     0
102
RTVSPost2010PropOp36
 70
     1
102
RTVSPost2010Prop37
 90
       50
102
RTVSPost2010PropOp37
 70
     1
102
RTVSPost2010Prop38
140
0.0
102
RTVSPost2010PropOp38
 70
     1
102
RTVSPost2010Prop39
140
1.0
102
RTVSPost2010PropOp39
 70
     1
102
RTVSPost2010Prop40
 90
        0
102
RTVSPost2010PropOp40
 70
     1
102
RTVSPost2010Prop41ColorIndex
 90
       18
102
RTVSPost2010Prop41ColorRGB
 90
        0
102
RTVSPost2010PropOp41
 70
     1
102
RTVSPost2010Prop42
 90
       50
102
RTVSPost2010PropOp42
 70
     1
102
RTVSPost2010Prop43
 90
        3
102
RTVSPost2010PropOp43
 70
     1
102
RTVSPost2010Prop44ColorIndex
 90
        5
102
RTVSPost2010Prop44ColorRGB
 90
      255
102
RTVSPost2010PropOp44
 70
     1
102
RTVSPost2010Prop45
280
     0
102
RTVSPost2010PropOp45
 70
     1
102
RTVSPost2010Prop46
 90
       50
102
RTVSPost2010PropOp46
 70
     1
102
RTVSPost2010Prop47
 90
       50
102
RTVSPost2010PropOp47
 70
     1
102
RTVSPost2010Prop48
 90
       50
102
RTVSPost2010PropOp48
 70
     1
102
RTVSPost2010Prop49
280
     0
102
RTVSPost2010PropOp49
 70
     1
102
RTVSPost2010Prop50
 90
       50
102
RTVSPost2010PropOp50
 70
     1
102
RTVSPost2010Prop51ColorIndex
 90
      256
102
RTVSPost2010Prop51ColorRGB
 90
-16777216
102
RTVSPost2010PropOp51
 70
     0
102
RTVSPost2010Prop52
140
1.0
102
RTVSPost2010PropOp52
 70
     0
102
RTVSPost2010Prop53
 90
        2
102
RTVSPost2010PropOp53
 70
     1
102
RTVSPost2010Prop54
  1
strokes_ogs.tif
102
RTVSPost2010PropOp54
 70
     1
102
RTVSPost2010Prop55
280
     0
102
RTVSPost2010PropOp55
 70
     1
102
RTVSPost2010Prop56
140
1.0
102
RTVSPost2010PropOp56
 70
     1
102
RTVSPost2010Prop57
140
1.0
102
RTVSPost2010PropOp57
 70
     1
102
RTVSPropertyOp0
 70
     1
102
RTVSPropertyOp1
 70
     1
102
RTVSPropertyOp2
 70
     1
102
RTVSPropertyOp3
 70
     1
102
RTVSPropertyOp4
 70
     1
102
RTVSPropertyOp5
 70
     1
102
RTVSPropertyOp6
 70
     1
102
RTVSPropertyOp7
 70
     1
102
RTVSPropertyOp8
 70
     1
102
RTVSPropertyOp9
 70
     1
102
RTVSPropertyOp10
 70
     1
102
RTVSPropertyOp11
 70
     1
102
RTVSPropertyOp12
 70
     1
102
RTVSPropertyOp13
 70
     1
102
RTVSPropertyOp14
 70
     1
102
RTVSPropertyOp15
 70
     1
102
RTVSPropertyOp16
 70
     1
102
RTVSPropertyOp17
 70
     1
102
RTVSPropertyOp18
 70
     1
102
RTVSPropertyOp19
 70
     1
102
RTVSPropertyOp20
 70
     1
102
RTVSPropertyOp21
 70
     1
102
RTVSPropertyOp22
 70
     1
102
RTVSPropertyOp23
 70
     1
102
RTVSPropertyOp24
 70
     1
102
RTVSPropertyOp25
 70
     1
102
RTVSPropertyOp26
 70
     1
102
RTVSPropertyOp27
 70
     1
102
RTVSPropertyOp28
 70
     1
102
RTVSPropertyOp29
 70
     1
102
RTVSPropertyOp30
 70
     1
102
RTVSPropertyOp31
 70
     1
102
RTVSPropertyOp32
 70
     1
102
RTVSPropertyOp33
 70
     1
102
RTVSPropertyOp34
 70
     1
102
RTVSPropertyOp35
 70
     1
102
RTVSPropertyOp36
 70
     1
102
RTVSPropertyOp37
 70
     1
102
RTVSPropertyOp38
 70
     1
102
RTVSPropertyOp39
 70
     1
102
RTVSPropertyOp40
 70
     1
102
RTVSPropertyOp41
 70
     1
102
RTVSPropertyOp42
 70
     1
102
RTVSPropertyOp43
 70
     1
102
RTVSPropertyOp44
 70
     1
102
RTVSPropertyOp45
 70
     1
102
RTVSPropertyOp46
 70
     1
102
RTVSPropertyOp47
 70
     1
102
RTVSPropertyOp48
 70
     1
102
RTVSPropertyOp49
 70
     1
102
RTVSPropertyOp50
 70
     1
102
RTVSPropertyOp51
 70
     0
102
RTVSPropertyOp52
 70
     0
102
RTVSPropertyOp53
 70
     1
102
RTVSPropertyOp54
 70
     1
102
RTVSPropertyOp55
 70
     1
102
RTVSPropertyOp56
 70
     1
102
RTVSPropertyOp57
 70
     1
102
RTVSPropertyOp58
 70
     1
102
RTVSPropertyOp59
 70
     1
102
RTVSPropertyOp60
 70
     1
102
RTVSPropertyOp61
 70
     1
102
RTVSPropertyOp62
 70
     1
  0
XRECORD
  5
21657
102
{ACAD_REACTORS
330
21656
102
}
330
21656
100
AcDbXrecord
280
     1
102
RTVSPost2010Prop28
280
     0
102
RTVSPost2010PropOp28
 70
     1
102
RTVSPost2010Prop29
280
     1
102
RTVSPost2010PropOp29
 70
     1
102
RTVSPost2010Prop30
280
     1
102
RTVSPost2010PropOp30
 70
     1
102
RTVSPost2010Prop31
280
     0
102
RTVSPost2010PropOp31
 70
     1
102
RTVSPost2010Prop32
280
     0
102
RTVSPost2010PropOp32
 70
     1
102
RTVSPost2010Prop33
280
     0
102
RTVSPost2010PropOp33
 70
     1
102
RTVSPost2010Prop34
280
     0
102
RTVSPost2010PropOp34
 70
     1
102
RTVSPost2010Prop35
280
     0
102
RTVSPost2010PropOp35
 70
     1
102
RTVSPost2010Prop36
280
     0
102
RTVSPost2010PropOp36
 70
     1
102
RTVSPost2010Prop37
 90
       50
102
RTVSPost2010PropOp37
 70
     1
102
RTVSPost2010Prop38
140
0.0
102
RTVSPost2010PropOp38
 70
     1
102
RTVSPost2010Prop39
140
1.0
102
RTVSPost2010PropOp39
 70
     1
102
RTVSPost2010Prop40
 90
        0
102
RTVSPost2010PropOp40
 70
     1
102
RTVSPost2010Prop41ColorIndex
 90
       18
102
RTVSPost2010Prop41ColorRGB
 90
        0
102
RTVSPost2010PropOp41
 70
     1
102
RTVSPost2010Prop42
 90
       50
102
RTVSPost2010PropOp42
 70
     1
102
RTVSPost2010Prop43
 90
        3
102
RTVSPost2010PropOp43
 70
     1
102
RTVSPost2010Prop44ColorIndex
 90
        5
102
RTVSPost2010Prop44ColorRGB
 90
      255
102
RTVSPost2010PropOp44
 70
     1
102
RTVSPost2010Prop45
280
     0
102
RTVSPost2010PropOp45
 70
     1
102
RTVSPost2010Prop46
 90
       50
102
RTVSPost2010PropOp46
 70
     1
102
RTVSPost2010Prop47
 90
       50
102
RTVSPost2010PropOp47
 70
     1
102
RTVSPost2010Prop48
 90
       50
102
RTVSPost2010PropOp48
 70
     1
102
RTVSPost2010Prop49
280
     0
102
RTVSPost2010PropOp49
 70
     1
102
RTVSPost2010Prop50
 90
       50
102
RTVSPost2010PropOp50
 70
     1
102
RTVSPost2010Prop51ColorIndex
 90
      256
102
RTVSPost2010Prop51ColorRGB
 90
-16777216
102
RTVSPost2010PropOp51
 70
     0
102
RTVSPost2010Prop52
140
1.0
102
RTVSPost2010PropOp52
 70
     0
102
RTVSPost2010Prop53
 90
        2
102
RTVSPost2010PropOp53
 70
     1
102
RTVSPost2010Prop54
  1
strokes_ogs.tif
102
RTVSPost2010PropOp54
 70
     1
102
RTVSPost2010Prop55
280
     0
102
RTVSPost2010PropOp55
 70
     1
102
RTVSPost2010Prop56
140
1.0
102
RTVSPost2010PropOp56
 70
     1
102
RTVSPost2010Prop57
140
1.0
102
RTVSPost2010PropOp57
 70
     1
102
RTVSPropertyOp0
 70
     1
102
RTVSPropertyOp1
 70
     1
102
RTVSPropertyOp2
 70
     1
102
RTVSPropertyOp3
 70
     1
102
RTVSPropertyOp4
 70
     1
102
RTVSPropertyOp5
 70
     1
102
RTVSPropertyOp6
 70
     1
102
RTVSPropertyOp7
 70
     1
102
RTVSPropertyOp8
 70
     1
102
RTVSPropertyOp9
 70
     1
102
RTVSPropertyOp10
 70
     1
102
RTVSPropertyOp11
 70
     1
102
RTVSPropertyOp12
 70
     1
102
RTVSPropertyOp13
 70
     1
102
RTVSPropertyOp14
 70
     1
102
RTVSPropertyOp15
 70
     1
102
RTVSPropertyOp16
 70
     1
102
RTVSPropertyOp17
 70
     1
102
RTVSPropertyOp18
 70
     1
102
RTVSPropertyOp19
 70
     1
102
RTVSPropertyOp20
 70
     1
102
RTVSPropertyOp21
 70
     1
102
RTVSPropertyOp22
 70
     1
102
RTVSPropertyOp23
 70
     1
102
RTVSPropertyOp24
 70
     1
102
RTVSPropertyOp25
 70
     1
102
RTVSPropertyOp26
 70
     1
102
RTVSPropertyOp27
 70
     1
102
RTVSPropertyOp28
 70
     1
102
RTVSPropertyOp29
 70
     1
102
RTVSPropertyOp30
 70
     1
102
RTVSPropertyOp31
 70
     1
102
RTVSPropertyOp32
 70
     1
102
RTVSPropertyOp33
 70
     1
102
RTVSPropertyOp34
 70
     1
102
RTVSPropertyOp35
 70
     1
102
RTVSPropertyOp36
 70
     1
102
RTVSPropertyOp37
 70
     1
102
RTVSPropertyOp38
 70
     1
102
RTVSPropertyOp39
 70
     1
102
RTVSPropertyOp40
 70
     1
102
RTVSPropertyOp41
 70
     1
102
RTVSPropertyOp42
 70
     1
102
RTVSPropertyOp43
 70
     1
102
RTVSPropertyOp44
 70
     1
102
RTVSPropertyOp45
 70
     1
102
RTVSPropertyOp46
 70
     1
102
RTVSPropertyOp47
 70
     1
102
RTVSPropertyOp48
 70
     1
102
RTVSPropertyOp49
 70
     1
102
RTVSPropertyOp50
 70
     1
102
RTVSPropertyOp51
 70
     0
102
RTVSPropertyOp52
 70
     0
102
RTVSPropertyOp53
 70
     1
102
RTVSPropertyOp54
 70
     1
102
RTVSPropertyOp55
 70
     1
102
RTVSPropertyOp56
 70
     1
102
RTVSPropertyOp57
 70
     1
102
RTVSPropertyOp58
 70
     1
102
RTVSPropertyOp59
 70
     1
102
RTVSPropertyOp60
 70
     1
102
RTVSPropertyOp61
 70
     1
102
RTVSPropertyOp62
 70
     1
  0
XRECORD
  5
21659
102
{ACAD_REACTORS
330
21658
102
}
330
21658
100
AcDbXrecord
280
     1
102
RTVSPost2010Prop28
280
     0
102
RTVSPost2010PropOp28
 70
     1
102
RTVSPost2010Prop29
280
     1
102
RTVSPost2010PropOp29
 70
     1
102
RTVSPost2010Prop30
280
     1
102
RTVSPost2010PropOp30
 70
     1
102
RTVSPost2010Prop31
280
     0
102
RTVSPost2010PropOp31
 70
     1
102
RTVSPost2010Prop32
280
     0
102
RTVSPost2010PropOp32
 70
     1
102
RTVSPost2010Prop33
280
     0
102
RTVSPost2010PropOp33
 70
     1
102
RTVSPost2010Prop34
280
     0
102
RTVSPost2010PropOp34
 70
     1
102
RTVSPost2010Prop35
280
     0
102
RTVSPost2010PropOp35
 70
     1
102
RTVSPost2010Prop36
280
     0
102
RTVSPost2010PropOp36
 70
     1
102
RTVSPost2010Prop37
 90
       50
102
RTVSPost2010PropOp37
 70
     1
102
RTVSPost2010Prop38
140
0.0
102
RTVSPost2010PropOp38
 70
     1
102
RTVSPost2010Prop39
140
1.0
102
RTVSPost2010PropOp39
 70
     1
102
RTVSPost2010Prop40
 90
        0
102
RTVSPost2010PropOp40
 70
     1
102
RTVSPost2010Prop41ColorIndex
 90
       18
102
RTVSPost2010Prop41ColorRGB
 90
        0
102
RTVSPost2010PropOp41
 70
     1
102
RTVSPost2010Prop42
 90
       50
102
RTVSPost2010PropOp42
 70
     1
102
RTVSPost2010Prop43
 90
        3
102
RTVSPost2010PropOp43
 70
     1
102
RTVSPost2010Prop44ColorIndex
 90
        5
102
RTVSPost2010Prop44ColorRGB
 90
      255
102
RTVSPost2010PropOp44
 70
     1
102
RTVSPost2010Prop45
280
     0
102
RTVSPost2010PropOp45
 70
     1
102
RTVSPost2010Prop46
 90
       50
102
RTVSPost2010PropOp46
 70
     1
102
RTVSPost2010Prop47
 90
       50
102
RTVSPost2010PropOp47
 70
     1
102
RTVSPost2010Prop48
 90
       50
102
RTVSPost2010PropOp48
 70
     1
102
RTVSPost2010Prop49
280
     0
102
RTVSPost2010PropOp49
 70
     1
102
RTVSPost2010Prop50
 90
       50
102
RTVSPost2010PropOp50
 70
     1
102
RTVSPost2010Prop51ColorIndex
 90
      256
102
RTVSPost2010Prop51ColorRGB
 90
-16777216
102
RTVSPost2010PropOp51
 70
     0
102
RTVSPost2010Prop52
140
1.0
102
RTVSPost2010PropOp52
 70
     0
102
RTVSPost2010Prop53
 90
        2
102
RTVSPost2010PropOp53
 70
     1
102
RTVSPost2010Prop54
  1
strokes_ogs.tif
102
RTVSPost2010PropOp54
 70
     1
102
RTVSPost2010Prop55
280
     0
102
RTVSPost2010PropOp55
 70
     1
102
RTVSPost2010Prop56
140
1.0
102
RTVSPost2010PropOp56
 70
     1
102
RTVSPost2010Prop57
140
1.0
102
RTVSPost2010PropOp57
 70
     1
102
RTVSPropertyOp0
 70
     1
102
RTVSPropertyOp1
 70
     1
102
RTVSPropertyOp2
 70
     1
102
RTVSPropertyOp3
 70
     1
102
RTVSPropertyOp4
 70
     1
102
RTVSPropertyOp5
 70
     1
102
RTVSPropertyOp6
 70
     1
102
RTVSPropertyOp7
 70
     1
102
RTVSPropertyOp8
 70
     1
102
RTVSPropertyOp9
 70
     1
102
RTVSPropertyOp10
 70
     1
102
RTVSPropertyOp11
 70
     1
102
RTVSPropertyOp12
 70
     1
102
RTVSPropertyOp13
 70
     1
102
RTVSPropertyOp14
 70
     1
102
RTVSPropertyOp15
 70
     1
102
RTVSPropertyOp16
 70
     1
102
RTVSPropertyOp17
 70
     1
102
RTVSPropertyOp18
 70
     1
102
RTVSPropertyOp19
 70
     1
102
RTVSPropertyOp20
 70
     1
102
RTVSPropertyOp21
 70
     1
102
RTVSPropertyOp22
 70
     1
102
RTVSPropertyOp23
 70
     1
102
RTVSPropertyOp24
 70
     1
102
RTVSPropertyOp25
 70
     1
102
RTVSPropertyOp26
 70
     1
102
RTVSPropertyOp27
 70
     1
102
RTVSPropertyOp28
 70
     1
102
RTVSPropertyOp29
 70
     1
102
RTVSPropertyOp30
 70
     1
102
RTVSPropertyOp31
 70
     1
102
RTVSPropertyOp32
 70
     1
102
RTVSPropertyOp33
 70
     1
102
RTVSPropertyOp34
 70
     1
102
RTVSPropertyOp35
 70
     1
102
RTVSPropertyOp36
 70
     1
102
RTVSPropertyOp37
 70
     1
102
RTVSPropertyOp38
 70
     1
102
RTVSPropertyOp39
 70
     1
102
RTVSPropertyOp40
 70
     1
102
RTVSPropertyOp41
 70
     1
102
RTVSPropertyOp42
 70
     1
102
RTVSPropertyOp43
 70
     1
102
RTVSPropertyOp44
 70
     1
102
RTVSPropertyOp45
 70
     1
102
RTVSPropertyOp46
 70
     1
102
RTVSPropertyOp47
 70
     1
102
RTVSPropertyOp48
 70
     1
102
RTVSPropertyOp49
 70
     1
102
RTVSPropertyOp50
 70
     1
102
RTVSPropertyOp51
 70
     0
102
RTVSPropertyOp52
 70
     0
102
RTVSPropertyOp53
 70
     1
102
RTVSPropertyOp54
 70
     1
102
RTVSPropertyOp55
 70
     1
102
RTVSPropertyOp56
 70
     1
102
RTVSPropertyOp57
 70
     1
102
RTVSPropertyOp58
 70
     1
102
RTVSPropertyOp59
 70
     1
102
RTVSPropertyOp60
 70
     1
102
RTVSPropertyOp61
 70
     1
102
RTVSPropertyOp62
 70
     1
  0
XRECORD
  5
2165B
102
{ACAD_REACTORS
330
2165A
102
}
330
2165A
100
AcDbXrecord
280
     1
102
RTVSPost2010Prop28
280
     0
102
RTVSPost2010PropOp28
 70
     1
102
RTVSPost2010Prop29
280
     1
102
RTVSPost2010PropOp29
 70
     1
102
RTVSPost2010Prop30
280
     1
102
RTVSPost2010PropOp30
 70
     1
102
RTVSPost2010Prop31
280
     0
102
RTVSPost2010PropOp31
 70
     1
102
RTVSPost2010Prop32
280
     0
102
RTVSPost2010PropOp32
 70
     1
102
RTVSPost2010Prop33
280
     0
102
RTVSPost2010PropOp33
 70
     1
102
RTVSPost2010Prop34
280
     0
102
RTVSPost2010PropOp34
 70
     1
102
RTVSPost2010Prop35
280
     0
102
RTVSPost2010PropOp35
 70
     1
102
RTVSPost2010Prop36
280
     0
102
RTVSPost2010PropOp36
 70
     1
102
RTVSPost2010Prop37
 90
       50
102
RTVSPost2010PropOp37
 70
     1
102
RTVSPost2010Prop38
140
0.0
102
RTVSPost2010PropOp38
 70
     1
102
RTVSPost2010Prop39
140
1.0
102
RTVSPost2010PropOp39
 70
     1
102
RTVSPost2010Prop40
 90
        0
102
RTVSPost2010PropOp40
 70
     1
102
RTVSPost2010Prop41ColorIndex
 90
       18
102
RTVSPost2010Prop41ColorRGB
 90
        0
102
RTVSPost2010PropOp41
 70
     1
102
RTVSPost2010Prop42
 90
       50
102
RTVSPost2010PropOp42
 70
     1
102
RTVSPost2010Prop43
 90
        3
102
RTVSPost2010PropOp43
 70
     1
102
RTVSPost2010Prop44ColorIndex
 90
        5
102
RTVSPost2010Prop44ColorRGB
 90
      255
102
RTVSPost2010PropOp44
 70
     1
102
RTVSPost2010Prop45
280
     0
102
RTVSPost2010PropOp45
 70
     1
102
RTVSPost2010Prop46
 90
       50
102
RTVSPost2010PropOp46
 70
     1
102
RTVSPost2010Prop47
 90
       50
102
RTVSPost2010PropOp47
 70
     1
102
RTVSPost2010Prop48
 90
       50
102
RTVSPost2010PropOp48
 70
     1
102
RTVSPost2010Prop49
280
     0
102
RTVSPost2010PropOp49
 70
     1
102
RTVSPost2010Prop50
 90
       50
102
RTVSPost2010PropOp50
 70
     1
102
RTVSPost2010Prop51ColorIndex
 90
      256
102
RTVSPost2010Prop51ColorRGB
 90
-16777216
102
RTVSPost2010PropOp51
 70
     0
102
RTVSPost2010Prop52
140
1.0
102
RTVSPost2010PropOp52
 70
     0
102
RTVSPost2010Prop53
 90
        2
102
RTVSPost2010PropOp53
 70
     1
102
RTVSPost2010Prop54
  1
strokes_ogs.tif
102
RTVSPost2010PropOp54
 70
     1
102
RTVSPost2010Prop55
280
     0
102
RTVSPost2010PropOp55
 70
     1
102
RTVSPost2010Prop56
140
1.0
102
RTVSPost2010PropOp56
 70
     1
102
RTVSPost2010Prop57
140
1.0
102
RTVSPost2010PropOp57
 70
     1
102
RTVSPropertyOp0
 70
     1
102
RTVSPropertyOp1
 70
     1
102
RTVSPropertyOp2
 70
     1
102
RTVSPropertyOp3
 70
     1
102
RTVSPropertyOp4
 70
     1
102
RTVSPropertyOp5
 70
     1
102
RTVSPropertyOp6
 70
     1
102
RTVSPropertyOp7
 70
     1
102
RTVSPropertyOp8
 70
     1
102
RTVSPropertyOp9
 70
     1
102
RTVSPropertyOp10
 70
     1
102
RTVSPropertyOp11
 70
     1
102
RTVSPropertyOp12
 70
     1
102
RTVSPropertyOp13
 70
     1
102
RTVSPropertyOp14
 70
     1
102
RTVSPropertyOp15
 70
     1
102
RTVSPropertyOp16
 70
     1
102
RTVSPropertyOp17
 70
     1
102
RTVSPropertyOp18
 70
     1
102
RTVSPropertyOp19
 70
     1
102
RTVSPropertyOp20
 70
     1
102
RTVSPropertyOp21
 70
     1
102
RTVSPropertyOp22
 70
     1
102
RTVSPropertyOp23
 70
     1
102
RTVSPropertyOp24
 70
     1
102
RTVSPropertyOp25
 70
     1
102
RTVSPropertyOp26
 70
     1
102
RTVSPropertyOp27
 70
     1
102
RTVSPropertyOp28
 70
     1
102
RTVSPropertyOp29
 70
     1
102
RTVSPropertyOp30
 70
     1
102
RTVSPropertyOp31
 70
     1
102
RTVSPropertyOp32
 70
     1
102
RTVSPropertyOp33
 70
     1
102
RTVSPropertyOp34
 70
     1
102
RTVSPropertyOp35
 70
     1
102
RTVSPropertyOp36
 70
     1
102
RTVSPropertyOp37
 70
     1
102
RTVSPropertyOp38
 70
     1
102
RTVSPropertyOp39
 70
     1
102
RTVSPropertyOp40
 70
     1
102
RTVSPropertyOp41
 70
     1
102
RTVSPropertyOp42
 70
     1
102
RTVSPropertyOp43
 70
     1
102
RTVSPropertyOp44
 70
     1
102
RTVSPropertyOp45
 70
     1
102
RTVSPropertyOp46
 70
     1
102
RTVSPropertyOp47
 70
     1
102
RTVSPropertyOp48
 70
     1
102
RTVSPropertyOp49
 70
     1
102
RTVSPropertyOp50
 70
     1
102
RTVSPropertyOp51
 70
     0
102
RTVSPropertyOp52
 70
     0
102
RTVSPropertyOp53
 70
     1
102
RTVSPropertyOp54
 70
     1
102
RTVSPropertyOp55
 70
     1
102
RTVSPropertyOp56
 70
     1
102
RTVSPropertyOp57
 70
     1
102
RTVSPropertyOp58
 70
     1
102
RTVSPropertyOp59
 70
     1
102
RTVSPropertyOp60
 70
     1
102
RTVSPropertyOp61
 70
     1
102
RTVSPropertyOp62
 70
     1
  0
XRECORD
  5
2167F
102
{ACAD_REACTORS
330
2167E
102
}
330
2167E
100
AcDbXrecord
280
     1
102
RTVSPost2010Prop28
280
     0
102
RTVSPost2010PropOp28
 70
     1
102
RTVSPost2010Prop29
280
     1
102
RTVSPost2010PropOp29
 70
     1
102
RTVSPost2010Prop30
280
     1
102
RTVSPost2010PropOp30
 70
     1
102
RTVSPost2010Prop31
280
     0
102
RTVSPost2010PropOp31
 70
     1
102
RTVSPost2010Prop32
280
     0
102
RTVSPost2010PropOp32
 70
     1
102
RTVSPost2010Prop33
280
     0
102
RTVSPost2010PropOp33
 70
     1
102
RTVSPost2010Prop34
280
     0
102
RTVSPost2010PropOp34
 70
     1
102
RTVSPost2010Prop35
280
     0
102
RTVSPost2010PropOp35
 70
     1
102
RTVSPost2010Prop36
280
     0
102
RTVSPost2010PropOp36
 70
     1
102
RTVSPost2010Prop37
 90
       50
102
RTVSPost2010PropOp37
 70
     1
102
RTVSPost2010Prop38
140
0.0
102
RTVSPost2010PropOp38
 70
     1
102
RTVSPost2010Prop39
140
1.0
102
RTVSPost2010PropOp39
 70
     1
102
RTVSPost2010Prop40
 90
        0
102
RTVSPost2010PropOp40
 70
     1
102
RTVSPost2010Prop41ColorIndex
 90
       18
102
RTVSPost2010Prop41ColorRGB
 90
        0
102
RTVSPost2010PropOp41
 70
     1
102
RTVSPost2010Prop42
 90
       50
102
RTVSPost2010PropOp42
 70
     1
102
RTVSPost2010Prop43
 90
        3
102
RTVSPost2010PropOp43
 70
     1
102
RTVSPost2010Prop44ColorIndex
 90
        5
102
RTVSPost2010Prop44ColorRGB
 90
      255
102
RTVSPost2010PropOp44
 70
     1
102
RTVSPost2010Prop45
280
     0
102
RTVSPost2010PropOp45
 70
     1
102
RTVSPost2010Prop46
 90
       50
102
RTVSPost2010PropOp46
 70
     1
102
RTVSPost2010Prop47
 90
       50
102
RTVSPost2010PropOp47
 70
     1
102
RTVSPost2010Prop48
 90
       50
102
RTVSPost2010PropOp48
 70
     1
102
RTVSPost2010Prop49
280
     0
102
RTVSPost2010PropOp49
 70
     1
102
RTVSPost2010Prop50
 90
       50
102
RTVSPost2010PropOp50
 70
     1
102
RTVSPost2010Prop51ColorIndex
 90
      256
102
RTVSPost2010Prop51ColorRGB
 90
-16777216
102
RTVSPost2010PropOp51
 70
     0
102
RTVSPost2010Prop52
140
1.0
102
RTVSPost2010PropOp52
 70
     0
102
RTVSPost2010Prop53
 90
        2
102
RTVSPost2010PropOp53
 70
     1
102
RTVSPost2010Prop54
  1
strokes_ogs.tif
102
RTVSPost2010PropOp54
 70
     1
102
RTVSPost2010Prop55
280
     0
102
RTVSPost2010PropOp55
 70
     1
102
RTVSPost2010Prop56
140
1.0
102
RTVSPost2010PropOp56
 70
     1
102
RTVSPost2010Prop57
140
1.0
102
RTVSPost2010PropOp57
 70
     1
102
RTVSPropertyOp0
 70
     1
102
RTVSPropertyOp1
 70
     1
102
RTVSPropertyOp2
 70
     1
102
RTVSPropertyOp3
 70
     1
102
RTVSPropertyOp4
 70
     1
102
RTVSPropertyOp5
 70
     1
102
RTVSPropertyOp6
 70
     1
102
RTVSPropertyOp7
 70
     1
102
RTVSPropertyOp8
 70
     1
102
RTVSPropertyOp9
 70
     1
102
RTVSPropertyOp10
 70
     1
102
RTVSPropertyOp11
 70
     1
102
RTVSPropertyOp12
 70
     1
102
RTVSPropertyOp13
 70
     1
102
RTVSPropertyOp14
 70
     1
102
RTVSPropertyOp15
 70
     1
102
RTVSPropertyOp16
 70
     1
102
RTVSPropertyOp17
 70
     1
102
RTVSPropertyOp18
 70
     1
102
RTVSPropertyOp19
 70
     1
102
RTVSPropertyOp20
 70
     1
102
RTVSPropertyOp21
 70
     1
102
RTVSPropertyOp22
 70
     1
102
RTVSPropertyOp23
 70
     1
102
RTVSPropertyOp24
 70
     1
102
RTVSPropertyOp25
 70
     1
102
RTVSPropertyOp26
 70
     1
102
RTVSPropertyOp27
 70
     1
102
RTVSPropertyOp28
 70
     1
102
RTVSPropertyOp29
 70
     1
102
RTVSPropertyOp30
 70
     1
102
RTVSPropertyOp31
 70
     1
102
RTVSPropertyOp32
 70
     1
102
RTVSPropertyOp33
 70
     1
102
RTVSPropertyOp34
 70
     1
102
RTVSPropertyOp35
 70
     1
102
RTVSPropertyOp36
 70
     1
102
RTVSPropertyOp37
 70
     1
102
RTVSPropertyOp38
 70
     1
102
RTVSPropertyOp39
 70
     1
102
RTVSPropertyOp40
 70
     1
102
RTVSPropertyOp41
 70
     1
102
RTVSPropertyOp42
 70
     1
102
RTVSPropertyOp43
 70
     1
102
RTVSPropertyOp44
 70
     1
102
RTVSPropertyOp45
 70
     1
102
RTVSPropertyOp46
 70
     1
102
RTVSPropertyOp47
 70
     1
102
RTVSPropertyOp48
 70
     1
102
RTVSPropertyOp49
 70
     1
102
RTVSPropertyOp50
 70
     1
102
RTVSPropertyOp51
 70
     0
102
RTVSPropertyOp52
 70
     0
102
RTVSPropertyOp53
 70
     1
102
RTVSPropertyOp54
 70
     1
102
RTVSPropertyOp55
 70
     1
102
RTVSPropertyOp56
 70
     1
102
RTVSPropertyOp57
 70
     1
102
RTVSPropertyOp58
 70
     1
102
RTVSPropertyOp59
 70
     1
102
RTVSPropertyOp60
 70
     1
102
RTVSPropertyOp61
 70
     1
102
RTVSPropertyOp62
 70
     1
  0
XRECORD
  5
2168B
102
{ACAD_REACTORS
330
2168A
102
}
330
2168A
100
AcDbXrecord
280
     1
102
RTVSPost2010Prop28
280
     0
102
RTVSPost2010PropOp28
 70
     1
102
RTVSPost2010Prop29
280
     1
102
RTVSPost2010PropOp29
 70
     1
102
RTVSPost2010Prop30
280
     1
102
RTVSPost2010PropOp30
 70
     1
102
RTVSPost2010Prop31
280
     0
102
RTVSPost2010PropOp31
 70
     1
102
RTVSPost2010Prop32
280
     0
102
RTVSPost2010PropOp32
 70
     1
102
RTVSPost2010Prop33
280
     0
102
RTVSPost2010PropOp33
 70
     1
102
RTVSPost2010Prop34
280
     0
102
RTVSPost2010PropOp34
 70
     1
102
RTVSPost2010Prop35
280
     0
102
RTVSPost2010PropOp35
 70
     1
102
RTVSPost2010Prop36
280
     0
102
RTVSPost2010PropOp36
 70
     1
102
RTVSPost2010Prop37
 90
       50
102
RTVSPost2010PropOp37
 70
     0
102
RTVSPost2010Prop38
140
0.0
102
RTVSPost2010PropOp38
 70
     0
102
RTVSPost2010Prop39
140
1.0
102
RTVSPost2010PropOp39
 70
     0
102
RTVSPost2010Prop40
 90
        0
102
RTVSPost2010PropOp40
 70
     0
102
RTVSPost2010Prop41ColorIndex
 90
       18
102
RTVSPost2010Prop41ColorRGB
 90
        0
102
RTVSPost2010PropOp41
 70
     0
102
RTVSPost2010Prop42
 90
       50
102
RTVSPost2010PropOp42
 70
     0
102
RTVSPost2010Prop43
 90
        3
102
RTVSPost2010PropOp43
 70
     0
102
RTVSPost2010Prop44ColorIndex
 90
        5
102
RTVSPost2010Prop44ColorRGB
 90
      255
102
RTVSPost2010PropOp44
 70
     0
102
RTVSPost2010Prop45
280
     0
102
RTVSPost2010PropOp45
 70
     1
102
RTVSPost2010Prop46
 90
       50
102
RTVSPost2010PropOp46
 70
     0
102
RTVSPost2010Prop47
 90
       50
102
RTVSPost2010PropOp47
 70
     0
102
RTVSPost2010Prop48
 90
       50
102
RTVSPost2010PropOp48
 70
     0
102
RTVSPost2010Prop49
280
     0
102
RTVSPost2010PropOp49
 70
     1
102
RTVSPost2010Prop50
 90
       50
102
RTVSPost2010PropOp50
 70
     0
102
RTVSPost2010Prop51ColorIndex
 90
      256
102
RTVSPost2010Prop51ColorRGB
 90
-16777216
102
RTVSPost2010PropOp51
 70
     0
102
RTVSPost2010Prop52
140
1.0
102
RTVSPost2010PropOp52
 70
     0
102
RTVSPost2010Prop53
 90
        2
102
RTVSPost2010PropOp53
 70
     0
102
RTVSPost2010Prop54
  1
strokes_ogs.tif
102
RTVSPost2010PropOp54
 70
     0
102
RTVSPost2010Prop55
280
     0
102
RTVSPost2010PropOp55
 70
     1
102
RTVSPost2010Prop56
140
1.0
102
RTVSPost2010PropOp56
 70
     0
102
RTVSPost2010Prop57
140
1.0
102
RTVSPost2010PropOp57
 70
     0
102
RTVSPropertyOp0
 70
     0
102
RTVSPropertyOp1
 70
     0
102
RTVSPropertyOp2
 70
     0
102
RTVSPropertyOp3
 70
     0
102
RTVSPropertyOp4
 70
     0
102
RTVSPropertyOp5
 70
     0
102
RTVSPropertyOp6
 70
     0
102
RTVSPropertyOp7
 70
     0
102
RTVSPropertyOp8
 70
     0
102
RTVSPropertyOp9
 70
     0
102
RTVSPropertyOp10
 70
     0
102
RTVSPropertyOp11
 70
     0
102
RTVSPropertyOp12
 70
     0
102
RTVSPropertyOp13
 70
     0
102
RTVSPropertyOp14
 70
     2
102
RTVSPropertyOp15
 70
     0
102
RTVSPropertyOp16
 70
     0
102
RTVSPropertyOp17
 70
     0
102
RTVSPropertyOp18
 70
     0
102
RTVSPropertyOp19
 70
     0
102
RTVSPropertyOp20
 70
     0
102
RTVSPropertyOp21
 70
     0
102
RTVSPropertyOp22
 70
     0
102
RTVSPropertyOp23
 70
     0
102
RTVSPropertyOp24
 70
     0
102
RTVSPropertyOp25
 70
     0
102
RTVSPropertyOp26
 70
     0
102
RTVSPropertyOp27
 70
     0
102
RTVSPropertyOp28
 70
     1
102
RTVSPropertyOp29
 70
     1
102
RTVSPropertyOp30
 70
     1
102
RTVSPropertyOp31
 70
     1
102
RTVSPropertyOp32
 70
     1
102
RTVSPropertyOp33
 70
     1
102
RTVSPropertyOp34
 70
     1
102
RTVSPropertyOp35
 70
     1
102
RTVSPropertyOp36
 70
     1
102
RTVSPropertyOp37
 70
     0
102
RTVSPropertyOp38
 70
     0
102
RTVSPropertyOp39
 70
     0
102
RTVSPropertyOp40
 70
     0
102
RTVSPropertyOp41
 70
     0
102
RTVSPropertyOp42
 70
     0
102
RTVSPropertyOp43
 70
     0
102
RTVSPropertyOp44
 70
     0
102
RTVSPropertyOp45
 70
     1
102
RTVSPropertyOp46
 70
     0
102
RTVSPropertyOp47
 70
     0
102
RTVSPropertyOp48
 70
     0
102
RTVSPropertyOp49
 70
     1
102
RTVSPropertyOp50
 70
     0
102
RTVSPropertyOp51
 70
     0
102
RTVSPropertyOp52
 70
     0
102
RTVSPropertyOp53
 70
     0
102
RTVSPropertyOp54
 70
     0
102
RTVSPropertyOp55
 70
     1
102
RTVSPropertyOp56
 70
     0
102
RTVSPropertyOp57
 70
     0
102
RTVSPropertyOp58
 70
     1
102
RTVSPropertyOp59
 70
     1
102
RTVSPropertyOp60
 70
     1
102
RTVSPropertyOp61
 70
     1
102
RTVSPropertyOp62
 70
     1
  0
XRECORD
  5
2166F
102
{ACAD_REACTORS
330
2166E
102
}
330
2166E
100
AcDbXrecord
280
     1
102
RTVSPost2010Prop28
280
     0
102
RTVSPost2010PropOp28
 70
     1
102
RTVSPost2010Prop29
280
     1
102
RTVSPost2010PropOp29
 70
     1
102
RTVSPost2010Prop30
280
     1
102
RTVSPost2010PropOp30
 70
     1
102
RTVSPost2010Prop31
280
     0
102
RTVSPost2010PropOp31
 70
     1
102
RTVSPost2010Prop32
280
     0
102
RTVSPost2010PropOp32
 70
     1
102
RTVSPost2010Prop33
280
     0
102
RTVSPost2010PropOp33
 70
     1
102
RTVSPost2010Prop34
280
     0
102
RTVSPost2010PropOp34
 70
     1
102
RTVSPost2010Prop35
280
     0
102
RTVSPost2010PropOp35
 70
     1
102
RTVSPost2010Prop36
280
     0
102
RTVSPost2010PropOp36
 70
     1
102
RTVSPost2010Prop37
 90
       50
102
RTVSPost2010PropOp37
 70
     1
102
RTVSPost2010Prop38
140
0.0
102
RTVSPost2010PropOp38
 70
     1
102
RTVSPost2010Prop39
140
1.0
102
RTVSPost2010PropOp39
 70
     1
102
RTVSPost2010Prop40
 90
        0
102
RTVSPost2010PropOp40
 70
     1
102
RTVSPost2010Prop41ColorIndex
 90
       18
102
RTVSPost2010Prop41ColorRGB
 90
        0
102
RTVSPost2010PropOp41
 70
     1
102
RTVSPost2010Prop42
 90
       50
102
RTVSPost2010PropOp42
 70
     1
102
RTVSPost2010Prop43
 90
        3
102
RTVSPost2010PropOp43
 70
     1
102
RTVSPost2010Prop44ColorIndex
 90
        5
102
RTVSPost2010Prop44ColorRGB
 90
      255
102
RTVSPost2010PropOp44
 70
     1
102
RTVSPost2010Prop45
280
     0
102
RTVSPost2010PropOp45
 70
     1
102
RTVSPost2010Prop46
 90
       50
102
RTVSPost2010PropOp46
 70
     1
102
RTVSPost2010Prop47
 90
       50
102
RTVSPost2010PropOp47
 70
     1
102
RTVSPost2010Prop48
 90
       50
102
RTVSPost2010PropOp48
 70
     1
102
RTVSPost2010Prop49
280
     0
102
RTVSPost2010PropOp49
 70
     1
102
RTVSPost2010Prop50
 90
       50
102
RTVSPost2010PropOp50
 70
     1
102
RTVSPost2010Prop51ColorIndex
 90
      256
102
RTVSPost2010Prop51ColorRGB
 90
-16777216
102
RTVSPost2010PropOp51
 70
     0
102
RTVSPost2010Prop52
140
1.0
102
RTVSPost2010PropOp52
 70
     0
102
RTVSPost2010Prop53
 90
        2
102
RTVSPost2010PropOp53
 70
     1
102
RTVSPost2010Prop54
  1
strokes_ogs.tif
102
RTVSPost2010PropOp54
 70
     1
102
RTVSPost2010Prop55
280
     0
102
RTVSPost2010PropOp55
 70
     1
102
RTVSPost2010Prop56
140
1.0
102
RTVSPost2010PropOp56
 70
     1
102
RTVSPost2010Prop57
140
1.0
102
RTVSPost2010PropOp57
 70
     1
102
RTVSPropertyOp0
 70
     1
102
RTVSPropertyOp1
 70
     1
102
RTVSPropertyOp2
 70
     1
102
RTVSPropertyOp3
 70
     1
102
RTVSPropertyOp4
 70
     1
102
RTVSPropertyOp5
 70
     1
102
RTVSPropertyOp6
 70
     1
102
RTVSPropertyOp7
 70
     1
102
RTVSPropertyOp8
 70
     1
102
RTVSPropertyOp9
 70
     1
102
RTVSPropertyOp10
 70
     1
102
RTVSPropertyOp11
 70
     1
102
RTVSPropertyOp12
 70
     1
102
RTVSPropertyOp13
 70
     1
102
RTVSPropertyOp14
 70
     1
102
RTVSPropertyOp15
 70
     1
102
RTVSPropertyOp16
 70
     1
102
RTVSPropertyOp17
 70
     1
102
RTVSPropertyOp18
 70
     1
102
RTVSPropertyOp19
 70
     1
102
RTVSPropertyOp20
 70
     1
102
RTVSPropertyOp21
 70
     1
102
RTVSPropertyOp22
 70
     1
102
RTVSPropertyOp23
 70
     1
102
RTVSPropertyOp24
 70
     1
102
RTVSPropertyOp25
 70
     1
102
RTVSPropertyOp26
 70
     1
102
RTVSPropertyOp27
 70
     1
102
RTVSPropertyOp28
 70
     1
102
RTVSPropertyOp29
 70
     1
102
RTVSPropertyOp30
 70
     1
102
RTVSPropertyOp31
 70
     1
102
RTVSPropertyOp32
 70
     1
102
RTVSPropertyOp33
 70
     1
102
RTVSPropertyOp34
 70
     1
102
RTVSPropertyOp35
 70
     1
102
RTVSPropertyOp36
 70
     1
102
RTVSPropertyOp37
 70
     1
102
RTVSPropertyOp38
 70
     1
102
RTVSPropertyOp39
 70
     1
102
RTVSPropertyOp40
 70
     1
102
RTVSPropertyOp41
 70
     1
102
RTVSPropertyOp42
 70
     1
102
RTVSPropertyOp43
 70
     1
102
RTVSPropertyOp44
 70
     1
102
RTVSPropertyOp45
 70
     1
102
RTVSPropertyOp46
 70
     1
102
RTVSPropertyOp47
 70
     1
102
RTVSPropertyOp48
 70
     1
102
RTVSPropertyOp49
 70
     1
102
RTVSPropertyOp50
 70
     1
102
RTVSPropertyOp51
 70
     0
102
RTVSPropertyOp52
 70
     0
102
RTVSPropertyOp53
 70
     1
102
RTVSPropertyOp54
 70
     1
102
RTVSPropertyOp55
 70
     1
102
RTVSPropertyOp56
 70
     1
102
RTVSPropertyOp57
 70
     1
102
RTVSPropertyOp58
 70
     1
102
RTVSPropertyOp59
 70
     1
102
RTVSPropertyOp60
 70
     1
102
RTVSPropertyOp61
 70
     1
102
RTVSPropertyOp62
 70
     1
  0
XRECORD
  5
2168D
102
{ACAD_REACTORS
330
2168C
102
}
330
2168C
100
AcDbXrecord
280
     1
102
RTVSPost2010Prop28
280
     0
102
RTVSPost2010PropOp28
 70
     1
102
RTVSPost2010Prop29
280
     1
102
RTVSPost2010PropOp29
 70
     1
102
RTVSPost2010Prop30
280
     1
102
RTVSPost2010PropOp30
 70
     1
102
RTVSPost2010Prop31
280
     0
102
RTVSPost2010PropOp31
 70
     1
102
RTVSPost2010Prop32
280
     0
102
RTVSPost2010PropOp32
 70
     1
102
RTVSPost2010Prop33
280
     0
102
RTVSPost2010PropOp33
 70
     1
102
RTVSPost2010Prop34
280
     0
102
RTVSPost2010PropOp34
 70
     1
102
RTVSPost2010Prop35
280
     0
102
RTVSPost2010PropOp35
 70
     1
102
RTVSPost2010Prop36
280
     0
102
RTVSPost2010PropOp36
 70
     1
102
RTVSPost2010Prop37
 90
       50
102
RTVSPost2010PropOp37
 70
     0
102
RTVSPost2010Prop38
140
0.0
102
RTVSPost2010PropOp38
 70
     0
102
RTVSPost2010Prop39
140
1.0
102
RTVSPost2010PropOp39
 70
     0
102
RTVSPost2010Prop40
 90
        0
102
RTVSPost2010PropOp40
 70
     0
102
RTVSPost2010Prop41ColorIndex
 90
       18
102
RTVSPost2010Prop41ColorRGB
 90
        0
102
RTVSPost2010PropOp41
 70
     0
102
RTVSPost2010Prop42
 90
       50
102
RTVSPost2010PropOp42
 70
     0
102
RTVSPost2010Prop43
 90
        3
102
RTVSPost2010PropOp43
 70
     0
102
RTVSPost2010Prop44ColorIndex
 90
        5
102
RTVSPost2010Prop44ColorRGB
 90
      255
102
RTVSPost2010PropOp44
 70
     0
102
RTVSPost2010Prop45
280
     0
102
RTVSPost2010PropOp45
 70
     1
102
RTVSPost2010Prop46
 90
       50
102
RTVSPost2010PropOp46
 70
     0
102
RTVSPost2010Prop47
 90
       50
102
RTVSPost2010PropOp47
 70
     0
102
RTVSPost2010Prop48
 90
       50
102
RTVSPost2010PropOp48
 70
     0
102
RTVSPost2010Prop49
280
     0
102
RTVSPost2010PropOp49
 70
     1
102
RTVSPost2010Prop50
 90
       50
102
RTVSPost2010PropOp50
 70
     0
102
RTVSPost2010Prop51ColorIndex
 90
      256
102
RTVSPost2010Prop51ColorRGB
 90
-16777216
102
RTVSPost2010PropOp51
 70
     0
102
RTVSPost2010Prop52
140
1.0
102
RTVSPost2010PropOp52
 70
     0
102
RTVSPost2010Prop53
 90
        2
102
RTVSPost2010PropOp53
 70
     0
102
RTVSPost2010Prop54
  1
strokes_ogs.tif
102
RTVSPost2010PropOp54
 70
     0
102
RTVSPost2010Prop55
280
     0
102
RTVSPost2010PropOp55
 70
     1
102
RTVSPost2010Prop56
140
1.0
102
RTVSPost2010PropOp56
 70
     0
102
RTVSPost2010Prop57
140
1.0
102
RTVSPost2010PropOp57
 70
     0
102
RTVSPropertyOp0
 70
     0
102
RTVSPropertyOp1
 70
     0
102
RTVSPropertyOp2
 70
     0
102
RTVSPropertyOp3
 70
     0
102
RTVSPropertyOp4
 70
     0
102
RTVSPropertyOp5
 70
     0
102
RTVSPropertyOp6
 70
     0
102
RTVSPropertyOp7
 70
     0
102
RTVSPropertyOp8
 70
     0
102
RTVSPropertyOp9
 70
     0
102
RTVSPropertyOp10
 70
     0
102
RTVSPropertyOp11
 70
     0
102
RTVSPropertyOp12
 70
     0
102
RTVSPropertyOp13
 70
     0
102
RTVSPropertyOp14
 70
     2
102
RTVSPropertyOp15
 70
     0
102
RTVSPropertyOp16
 70
     0
102
RTVSPropertyOp17
 70
     0
102
RTVSPropertyOp18
 70
     0
102
RTVSPropertyOp19
 70
     0
102
RTVSPropertyOp20
 70
     0
102
RTVSPropertyOp21
 70
     0
102
RTVSPropertyOp22
 70
     0
102
RTVSPropertyOp23
 70
     0
102
RTVSPropertyOp24
 70
     0
102
RTVSPropertyOp25
 70
     0
102
RTVSPropertyOp26
 70
     0
102
RTVSPropertyOp27
 70
     0
102
RTVSPropertyOp28
 70
     1
102
RTVSPropertyOp29
 70
     1
102
RTVSPropertyOp30
 70
     1
102
RTVSPropertyOp31
 70
     1
102
RTVSPropertyOp32
 70
     1
102
RTVSPropertyOp33
 70
     1
102
RTVSPropertyOp34
 70
     1
102
RTVSPropertyOp35
 70
     1
102
RTVSPropertyOp36
 70
     1
102
RTVSPropertyOp37
 70
     0
102
RTVSPropertyOp38
 70
     0
102
RTVSPropertyOp39
 70
     0
102
RTVSPropertyOp40
 70
     0
102
RTVSPropertyOp41
 70
     0
102
RTVSPropertyOp42
 70
     0
102
RTVSPropertyOp43
 70
     0
102
RTVSPropertyOp44
 70
     0
102
RTVSPropertyOp45
 70
     1
102
RTVSPropertyOp46
 70
     0
102
RTVSPropertyOp47
 70
     0
102
RTVSPropertyOp48
 70
     0
102
RTVSPropertyOp49
 70
     1
102
RTVSPropertyOp50
 70
     0
102
RTVSPropertyOp51
 70
     0
102
RTVSPropertyOp52
 70
     0
102
RTVSPropertyOp53
 70
     0
102
RTVSPropertyOp54
 70
     0
102
RTVSPropertyOp55
 70
     1
102
RTVSPropertyOp56
 70
     0
102
RTVSPropertyOp57
 70
     0
102
RTVSPropertyOp58
 70
     1
102
RTVSPropertyOp59
 70
     1
102
RTVSPropertyOp60
 70
     1
102
RTVSPropertyOp61
 70
     1
102
RTVSPropertyOp62
 70
     1
  0
XRECORD
  5
21667
102
{ACAD_REACTORS
330
21666
102
}
330
21666
100
AcDbXrecord
280
     1
102
RTVSPost2010Prop28
280
     0
102
RTVSPost2010PropOp28
 70
     1
102
RTVSPost2010Prop29
280
     1
102
RTVSPost2010PropOp29
 70
     1
102
RTVSPost2010Prop30
280
     1
102
RTVSPost2010PropOp30
 70
     1
102
RTVSPost2010Prop31
280
     0
102
RTVSPost2010PropOp31
 70
     1
102
RTVSPost2010Prop32
280
     0
102
RTVSPost2010PropOp32
 70
     1
102
RTVSPost2010Prop33
280
     0
102
RTVSPost2010PropOp33
 70
     1
102
RTVSPost2010Prop34
280
     0
102
RTVSPost2010PropOp34
 70
     1
102
RTVSPost2010Prop35
280
     0
102
RTVSPost2010PropOp35
 70
     1
102
RTVSPost2010Prop36
280
     0
102
RTVSPost2010PropOp36
 70
     1
102
RTVSPost2010Prop37
 90
       50
102
RTVSPost2010PropOp37
 70
     1
102
RTVSPost2010Prop38
140
0.0
102
RTVSPost2010PropOp38
 70
     1
102
RTVSPost2010Prop39
140
1.0
102
RTVSPost2010PropOp39
 70
     1
102
RTVSPost2010Prop40
 90
        0
102
RTVSPost2010PropOp40
 70
     1
102
RTVSPost2010Prop41ColorIndex
 90
       18
102
RTVSPost2010Prop41ColorRGB
 90
        0
102
RTVSPost2010PropOp41
 70
     1
102
RTVSPost2010Prop42
 90
       50
102
RTVSPost2010PropOp42
 70
     1
102
RTVSPost2010Prop43
 90
        3
102
RTVSPost2010PropOp43
 70
     1
102
RTVSPost2010Prop44ColorIndex
 90
        5
102
RTVSPost2010Prop44ColorRGB
 90
      255
102
RTVSPost2010PropOp44
 70
     1
102
RTVSPost2010Prop45
280
     0
102
RTVSPost2010PropOp45
 70
     1
102
RTVSPost2010Prop46
 90
       50
102
RTVSPost2010PropOp46
 70
     1
102
RTVSPost2010Prop47
 90
       50
102
RTVSPost2010PropOp47
 70
     1
102
RTVSPost2010Prop48
 90
       50
102
RTVSPost2010PropOp48
 70
     1
102
RTVSPost2010Prop49
280
     0
102
RTVSPost2010PropOp49
 70
     1
102
RTVSPost2010Prop50
 90
       50
102
RTVSPost2010PropOp50
 70
     1
102
RTVSPost2010Prop51ColorIndex
 90
      256
102
RTVSPost2010Prop51ColorRGB
 90
-16777216
102
RTVSPost2010PropOp51
 70
     0
102
RTVSPost2010Prop52
140
1.0
102
RTVSPost2010PropOp52
 70
     0
102
RTVSPost2010Prop53
 90
        2
102
RTVSPost2010PropOp53
 70
     1
102
RTVSPost2010Prop54
  1
strokes_ogs.tif
102
RTVSPost2010PropOp54
 70
     1
102
RTVSPost2010Prop55
280
     0
102
RTVSPost2010PropOp55
 70
     1
102
RTVSPost2010Prop56
140
1.0
102
RTVSPost2010PropOp56
 70
     1
102
RTVSPost2010Prop57
140
1.0
102
RTVSPost2010PropOp57
 70
     1
102
RTVSPropertyOp0
 70
     1
102
RTVSPropertyOp1
 70
     1
102
RTVSPropertyOp2
 70
     1
102
RTVSPropertyOp3
 70
     1
102
RTVSPropertyOp4
 70
     1
102
RTVSPropertyOp5
 70
     1
102
RTVSPropertyOp6
 70
     1
102
RTVSPropertyOp7
 70
     1
102
RTVSPropertyOp8
 70
     1
102
RTVSPropertyOp9
 70
     1
102
RTVSPropertyOp10
 70
     1
102
RTVSPropertyOp11
 70
     1
102
RTVSPropertyOp12
 70
     1
102
RTVSPropertyOp13
 70
     1
102
RTVSPropertyOp14
 70
     1
102
RTVSPropertyOp15
 70
     1
102
RTVSPropertyOp16
 70
     1
102
RTVSPropertyOp17
 70
     1
102
RTVSPropertyOp18
 70
     1
102
RTVSPropertyOp19
 70
     1
102
RTVSPropertyOp20
 70
     1
102
RTVSPropertyOp21
 70
     1
102
RTVSPropertyOp22
 70
     1
102
RTVSPropertyOp23
 70
     1
102
RTVSPropertyOp24
 70
     1
102
RTVSPropertyOp25
 70
     1
102
RTVSPropertyOp26
 70
     1
102
RTVSPropertyOp27
 70
     1
102
RTVSPropertyOp28
 70
     1
102
RTVSPropertyOp29
 70
     1
102
RTVSPropertyOp30
 70
     1
102
RTVSPropertyOp31
 70
     1
102
RTVSPropertyOp32
 70
     1
102
RTVSPropertyOp33
 70
     1
102
RTVSPropertyOp34
 70
     1
102
RTVSPropertyOp35
 70
     1
102
RTVSPropertyOp36
 70
     1
102
RTVSPropertyOp37
 70
     1
102
RTVSPropertyOp38
 70
     1
102
RTVSPropertyOp39
 70
     1
102
RTVSPropertyOp40
 70
     1
102
RTVSPropertyOp41
 70
     1
102
RTVSPropertyOp42
 70
     1
102
RTVSPropertyOp43
 70
     1
102
RTVSPropertyOp44
 70
     1
102
RTVSPropertyOp45
 70
     1
102
RTVSPropertyOp46
 70
     1
102
RTVSPropertyOp47
 70
     1
102
RTVSPropertyOp48
 70
     1
102
RTVSPropertyOp49
 70
     1
102
RTVSPropertyOp50
 70
     1
102
RTVSPropertyOp51
 70
     0
102
RTVSPropertyOp52
 70
     0
102
RTVSPropertyOp53
 70
     1
102
RTVSPropertyOp54
 70
     1
102
RTVSPropertyOp55
 70
     1
102
RTVSPropertyOp56
 70
     1
102
RTVSPropertyOp57
 70
     1
102
RTVSPropertyOp58
 70
     1
102
RTVSPropertyOp59
 70
     1
102
RTVSPropertyOp60
 70
     1
102
RTVSPropertyOp61
 70
     1
102
RTVSPropertyOp62
 70
     1
  0
XRECORD
  5
21689
102
{ACAD_REACTORS
330
21688
102
}
330
21688
100
AcDbXrecord
280
     1
102
RTVSPost2010Prop28
280
     0
102
RTVSPost2010PropOp28
 70
     1
102
RTVSPost2010Prop29
280
     1
102
RTVSPost2010PropOp29
 70
     1
102
RTVSPost2010Prop30
280
     1
102
RTVSPost2010PropOp30
 70
     1
102
RTVSPost2010Prop31
280
     0
102
RTVSPost2010PropOp31
 70
     1
102
RTVSPost2010Prop32
280
     0
102
RTVSPost2010PropOp32
 70
     1
102
RTVSPost2010Prop33
280
     0
102
RTVSPost2010PropOp33
 70
     1
102
RTVSPost2010Prop34
280
     0
102
RTVSPost2010PropOp34
 70
     1
102
RTVSPost2010Prop35
280
     0
102
RTVSPost2010PropOp35
 70
     1
102
RTVSPost2010Prop36
280
     0
102
RTVSPost2010PropOp36
 70
     1
102
RTVSPost2010Prop37
 90
       50
102
RTVSPost2010PropOp37
 70
     1
102
RTVSPost2010Prop38
140
0.0
102
RTVSPost2010PropOp38
 70
     1
102
RTVSPost2010Prop39
140
1.0
102
RTVSPost2010PropOp39
 70
     1
102
RTVSPost2010Prop40
 90
        0
102
RTVSPost2010PropOp40
 70
     1
102
RTVSPost2010Prop41ColorIndex
 90
       18
102
RTVSPost2010Prop41ColorRGB
 90
        0
102
RTVSPost2010PropOp41
 70
     1
102
RTVSPost2010Prop42
 90
       50
102
RTVSPost2010PropOp42
 70
     1
102
RTVSPost2010Prop43
 90
        3
102
RTVSPost2010PropOp43
 70
     1
102
RTVSPost2010Prop44ColorIndex
 90
        5
102
RTVSPost2010Prop44ColorRGB
 90
      255
102
RTVSPost2010PropOp44
 70
     1
102
RTVSPost2010Prop45
280
     0
102
RTVSPost2010PropOp45
 70
     1
102
RTVSPost2010Prop46
 90
       50
102
RTVSPost2010PropOp46
 70
     1
102
RTVSPost2010Prop47
 90
       50
102
RTVSPost2010PropOp47
 70
     1
102
RTVSPost2010Prop48
 90
       50
102
RTVSPost2010PropOp48
 70
     1
102
RTVSPost2010Prop49
280
     0
102
RTVSPost2010PropOp49
 70
     1
102
RTVSPost2010Prop50
 90
       50
102
RTVSPost2010PropOp50
 70
     1
102
RTVSPost2010Prop51ColorIndex
 90
      256
102
RTVSPost2010Prop51ColorRGB
 90
-16777216
102
RTVSPost2010PropOp51
 70
     0
102
RTVSPost2010Prop52
140
1.0
102
RTVSPost2010PropOp52
 70
     0
102
RTVSPost2010Prop53
 90
        2
102
RTVSPost2010PropOp53
 70
     1
102
RTVSPost2010Prop54
  1
strokes_ogs.tif
102
RTVSPost2010PropOp54
 70
     1
102
RTVSPost2010Prop55
280
     0
102
RTVSPost2010PropOp55
 70
     1
102
RTVSPost2010Prop56
140
1.0
102
RTVSPost2010PropOp56
 70
     1
102
RTVSPost2010Prop57
140
1.0
102
RTVSPost2010PropOp57
 70
     1
102
RTVSPropertyOp0
 70
     1
102
RTVSPropertyOp1
 70
     1
102
RTVSPropertyOp2
 70
     1
102
RTVSPropertyOp3
 70
     1
102
RTVSPropertyOp4
 70
     1
102
RTVSPropertyOp5
 70
     1
102
RTVSPropertyOp6
 70
     1
102
RTVSPropertyOp7
 70
     1
102
RTVSPropertyOp8
 70
     1
102
RTVSPropertyOp9
 70
     1
102
RTVSPropertyOp10
 70
     1
102
RTVSPropertyOp11
 70
     1
102
RTVSPropertyOp12
 70
     1
102
RTVSPropertyOp13
 70
     1
102
RTVSPropertyOp14
 70
     1
102
RTVSPropertyOp15
 70
     1
102
RTVSPropertyOp16
 70
     1
102
RTVSPropertyOp17
 70
     1
102
RTVSPropertyOp18
 70
     1
102
RTVSPropertyOp19
 70
     1
102
RTVSPropertyOp20
 70
     1
102
RTVSPropertyOp21
 70
     1
102
RTVSPropertyOp22
 70
     1
102
RTVSPropertyOp23
 70
     1
102
RTVSPropertyOp24
 70
     1
102
RTVSPropertyOp25
 70
     1
102
RTVSPropertyOp26
 70
     1
102
RTVSPropertyOp27
 70
     1
102
RTVSPropertyOp28
 70
     1
102
RTVSPropertyOp29
 70
     1
102
RTVSPropertyOp30
 70
     1
102
RTVSPropertyOp31
 70
     1
102
RTVSPropertyOp32
 70
     1
102
RTVSPropertyOp33
 70
     1
102
RTVSPropertyOp34
 70
     1
102
RTVSPropertyOp35
 70
     1
102
RTVSPropertyOp36
 70
     1
102
RTVSPropertyOp37
 70
     1
102
RTVSPropertyOp38
 70
     1
102
RTVSPropertyOp39
 70
     1
102
RTVSPropertyOp40
 70
     1
102
RTVSPropertyOp41
 70
     1
102
RTVSPropertyOp42
 70
     1
102
RTVSPropertyOp43
 70
     1
102
RTVSPropertyOp44
 70
     1
102
RTVSPropertyOp45
 70
     1
102
RTVSPropertyOp46
 70
     1
102
RTVSPropertyOp47
 70
     1
102
RTVSPropertyOp48
 70
     1
102
RTVSPropertyOp49
 70
     1
102
RTVSPropertyOp50
 70
     1
102
RTVSPropertyOp51
 70
     0
102
RTVSPropertyOp52
 70
     0
102
RTVSPropertyOp53
 70
     1
102
RTVSPropertyOp54
 70
     1
102
RTVSPropertyOp55
 70
     1
102
RTVSPropertyOp56
 70
     1
102
RTVSPropertyOp57
 70
     1
102
RTVSPropertyOp58
 70
     1
102
RTVSPropertyOp59
 70
     1
102
RTVSPropertyOp60
 70
     1
102
RTVSPropertyOp61
 70
     1
102
RTVSPropertyOp62
 70
     1
  0
XRECORD
  5
21687
102
{ACAD_REACTORS
330
21686
102
}
330
21686
100
AcDbXrecord
280
     1
102
RTVSPost2010Prop28
280
     0
102
RTVSPost2010PropOp28
 70
     1
102
RTVSPost2010Prop29
280
     1
102
RTVSPost2010PropOp29
 70
     1
102
RTVSPost2010Prop30
280
     1
102
RTVSPost2010PropOp30
 70
     1
102
RTVSPost2010Prop31
280
     0
102
RTVSPost2010PropOp31
 70
     1
102
RTVSPost2010Prop32
280
     0
102
RTVSPost2010PropOp32
 70
     1
102
RTVSPost2010Prop33
280
     0
102
RTVSPost2010PropOp33
 70
     1
102
RTVSPost2010Prop34
280
     0
102
RTVSPost2010PropOp34
 70
     1
102
RTVSPost2010Prop35
280
     0
102
RTVSPost2010PropOp35
 70
     1
102
RTVSPost2010Prop36
280
     0
102
RTVSPost2010PropOp36
 70
     1
102
RTVSPost2010Prop37
 90
       50
102
RTVSPost2010PropOp37
 70
     1
102
RTVSPost2010Prop38
140
0.0
102
RTVSPost2010PropOp38
 70
     1
102
RTVSPost2010Prop39
140
1.0
102
RTVSPost2010PropOp39
 70
     1
102
RTVSPost2010Prop40
 90
        0
102
RTVSPost2010PropOp40
 70
     1
102
RTVSPost2010Prop41ColorIndex
 90
       18
102
RTVSPost2010Prop41ColorRGB
 90
        0
102
RTVSPost2010PropOp41
 70
     1
102
RTVSPost2010Prop42
 90
       50
102
RTVSPost2010PropOp42
 70
     1
102
RTVSPost2010Prop43
 90
        3
102
RTVSPost2010PropOp43
 70
     1
102
RTVSPost2010Prop44ColorIndex
 90
        5
102
RTVSPost2010Prop44ColorRGB
 90
      255
102
RTVSPost2010PropOp44
 70
     1
102
RTVSPost2010Prop45
280
     0
102
RTVSPost2010PropOp45
 70
     1
102
RTVSPost2010Prop46
 90
       50
102
RTVSPost2010PropOp46
 70
     1
102
RTVSPost2010Prop47
 90
       50
102
RTVSPost2010PropOp47
 70
     1
102
RTVSPost2010Prop48
 90
       50
102
RTVSPost2010PropOp48
 70
     1
102
RTVSPost2010Prop49
280
     0
102
RTVSPost2010PropOp49
 70
     1
102
RTVSPost2010Prop50
 90
       50
102
RTVSPost2010PropOp50
 70
     1
102
RTVSPost2010Prop51ColorIndex
 90
      256
102
RTVSPost2010Prop51ColorRGB
 90
-16777216
102
RTVSPost2010PropOp51
 70
     0
102
RTVSPost2010Prop52
140
1.0
102
RTVSPost2010PropOp52
 70
     0
102
RTVSPost2010Prop53
 90
        2
102
RTVSPost2010PropOp53
 70
     1
102
RTVSPost2010Prop54
  1
strokes_ogs.tif
102
RTVSPost2010PropOp54
 70
     1
102
RTVSPost2010Prop55
280
     0
102
RTVSPost2010PropOp55
 70
     1
102
RTVSPost2010Prop56
140
1.0
102
RTVSPost2010PropOp56
 70
     1
102
RTVSPost2010Prop57
140
1.0
102
RTVSPost2010PropOp57
 70
     1
102
RTVSPropertyOp0
 70
     1
102
RTVSPropertyOp1
 70
     1
102
RTVSPropertyOp2
 70
     1
102
RTVSPropertyOp3
 70
     1
102
RTVSPropertyOp4
 70
     1
102
RTVSPropertyOp5
 70
     1
102
RTVSPropertyOp6
 70
     1
102
RTVSPropertyOp7
 70
     1
102
RTVSPropertyOp8
 70
     1
102
RTVSPropertyOp9
 70
     1
102
RTVSPropertyOp10
 70
     1
102
RTVSPropertyOp11
 70
     1
102
RTVSPropertyOp12
 70
     1
102
RTVSPropertyOp13
 70
     1
102
RTVSPropertyOp14
 70
     1
102
RTVSPropertyOp15
 70
     1
102
RTVSPropertyOp16
 70
     1
102
RTVSPropertyOp17
 70
     1
102
RTVSPropertyOp18
 70
     1
102
RTVSPropertyOp19
 70
     1
102
RTVSPropertyOp20
 70
     1
102
RTVSPropertyOp21
 70
     1
102
RTVSPropertyOp22
 70
     1
102
RTVSPropertyOp23
 70
     1
102
RTVSPropertyOp24
 70
     1
102
RTVSPropertyOp25
 70
     1
102
RTVSPropertyOp26
 70
     1
102
RTVSPropertyOp27
 70
     1
102
RTVSPropertyOp28
 70
     1
102
RTVSPropertyOp29
 70
     1
102
RTVSPropertyOp30
 70
     1
102
RTVSPropertyOp31
 70
     1
102
RTVSPropertyOp32
 70
     1
102
RTVSPropertyOp33
 70
     1
102
RTVSPropertyOp34
 70
     1
102
RTVSPropertyOp35
 70
     1
102
RTVSPropertyOp36
 70
     1
102
RTVSPropertyOp37
 70
     1
102
RTVSPropertyOp38
 70
     1
102
RTVSPropertyOp39
 70
     1
102
RTVSPropertyOp40
 70
     1
102
RTVSPropertyOp41
 70
     1
102
RTVSPropertyOp42
 70
     1
102
RTVSPropertyOp43
 70
     1
102
RTVSPropertyOp44
 70
     1
102
RTVSPropertyOp45
 70
     1
102
RTVSPropertyOp46
 70
     1
102
RTVSPropertyOp47
 70
     1
102
RTVSPropertyOp48
 70
     1
102
RTVSPropertyOp49
 70
     1
102
RTVSPropertyOp50
 70
     1
102
RTVSPropertyOp51
 70
     0
102
RTVSPropertyOp52
 70
     0
102
RTVSPropertyOp53
 70
     1
102
RTVSPropertyOp54
 70
     1
102
RTVSPropertyOp55
 70
     1
102
RTVSPropertyOp56
 70
     1
102
RTVSPropertyOp57
 70
     1
102
RTVSPropertyOp58
 70
     1
102
RTVSPropertyOp59
 70
     1
102
RTVSPropertyOp60
 70
     1
102
RTVSPropertyOp61
 70
     1
102
RTVSPropertyOp62
 70
     1
  0
XRECORD
  5
21681
102
{ACAD_REACTORS
330
21680
102
}
330
21680
100
AcDbXrecord
280
     1
102
RTVSPost2010Prop28
280
     0
102
RTVSPost2010PropOp28
 70
     1
102
RTVSPost2010Prop29
280
     1
102
RTVSPost2010PropOp29
 70
     1
102
RTVSPost2010Prop30
280
     1
102
RTVSPost2010PropOp30
 70
     1
102
RTVSPost2010Prop31
280
     0
102
RTVSPost2010PropOp31
 70
     1
102
RTVSPost2010Prop32
280
     0
102
RTVSPost2010PropOp32
 70
     1
102
RTVSPost2010Prop33
280
     0
102
RTVSPost2010PropOp33
 70
     1
102
RTVSPost2010Prop34
280
     0
102
RTVSPost2010PropOp34
 70
     1
102
RTVSPost2010Prop35
280
     0
102
RTVSPost2010PropOp35
 70
     1
102
RTVSPost2010Prop36
280
     0
102
RTVSPost2010PropOp36
 70
     1
102
RTVSPost2010Prop37
 90
       50
102
RTVSPost2010PropOp37
 70
     1
102
RTVSPost2010Prop38
140
0.0
102
RTVSPost2010PropOp38
 70
     1
102
RTVSPost2010Prop39
140
1.0
102
RTVSPost2010PropOp39
 70
     1
102
RTVSPost2010Prop40
 90
        0
102
RTVSPost2010PropOp40
 70
     1
102
RTVSPost2010Prop41ColorIndex
 90
       18
102
RTVSPost2010Prop41ColorRGB
 90
        0
102
RTVSPost2010PropOp41
 70
     1
102
RTVSPost2010Prop42
 90
       50
102
RTVSPost2010PropOp42
 70
     1
102
RTVSPost2010Prop43
 90
        3
102
RTVSPost2010PropOp43
 70
     1
102
RTVSPost2010Prop44ColorIndex
 90
        5
102
RTVSPost2010Prop44ColorRGB
 90
      255
102
RTVSPost2010PropOp44
 70
     1
102
RTVSPost2010Prop45
280
     0
102
RTVSPost2010PropOp45
 70
     1
102
RTVSPost2010Prop46
 90
       50
102
RTVSPost2010PropOp46
 70
     1
102
RTVSPost2010Prop47
 90
       50
102
RTVSPost2010PropOp47
 70
     1
102
RTVSPost2010Prop48
 90
       50
102
RTVSPost2010PropOp48
 70
     1
102
RTVSPost2010Prop49
280
     0
102
RTVSPost2010PropOp49
 70
     1
102
RTVSPost2010Prop50
 90
       50
102
RTVSPost2010PropOp50
 70
     1
102
RTVSPost2010Prop51ColorIndex
 90
      256
102
RTVSPost2010Prop51ColorRGB
 90
-16777216
102
RTVSPost2010PropOp51
 70
     0
102
RTVSPost2010Prop52
140
1.0
102
RTVSPost2010PropOp52
 70
     0
102
RTVSPost2010Prop53
 90
        2
102
RTVSPost2010PropOp53
 70
     1
102
RTVSPost2010Prop54
  1
strokes_ogs.tif
102
RTVSPost2010PropOp54
 70
     1
102
RTVSPost2010Prop55
280
     0
102
RTVSPost2010PropOp55
 70
     1
102
RTVSPost2010Prop56
140
1.0
102
RTVSPost2010PropOp56
 70
     1
102
RTVSPost2010Prop57
140
1.0
102
RTVSPost2010PropOp57
 70
     1
102
RTVSPropertyOp0
 70
     1
102
RTVSPropertyOp1
 70
     1
102
RTVSPropertyOp2
 70
     1
102
RTVSPropertyOp3
 70
     1
102
RTVSPropertyOp4
 70
     1
102
RTVSPropertyOp5
 70
     1
102
RTVSPropertyOp6
 70
     1
102
RTVSPropertyOp7
 70
     1
102
RTVSPropertyOp8
 70
     1
102
RTVSPropertyOp9
 70
     1
102
RTVSPropertyOp10
 70
     1
102
RTVSPropertyOp11
 70
     1
102
RTVSPropertyOp12
 70
     1
102
RTVSPropertyOp13
 70
     1
102
RTVSPropertyOp14
 70
     1
102
RTVSPropertyOp15
 70
     1
102
RTVSPropertyOp16
 70
     1
102
RTVSPropertyOp17
 70
     1
102
RTVSPropertyOp18
 70
     1
102
RTVSPropertyOp19
 70
     1
102
RTVSPropertyOp20
 70
     1
102
RTVSPropertyOp21
 70
     1
102
RTVSPropertyOp22
 70
     1
102
RTVSPropertyOp23
 70
     1
102
RTVSPropertyOp24
 70
     1
102
RTVSPropertyOp25
 70
     1
102
RTVSPropertyOp26
 70
     1
102
RTVSPropertyOp27
 70
     1
102
RTVSPropertyOp28
 70
     1
102
RTVSPropertyOp29
 70
     1
102
RTVSPropertyOp30
 70
     1
102
RTVSPropertyOp31
 70
     1
102
RTVSPropertyOp32
 70
     1
102
RTVSPropertyOp33
 70
     1
102
RTVSPropertyOp34
 70
     1
102
RTVSPropertyOp35
 70
     1
102
RTVSPropertyOp36
 70
     1
102
RTVSPropertyOp37
 70
     1
102
RTVSPropertyOp38
 70
     1
102
RTVSPropertyOp39
 70
     1
102
RTVSPropertyOp40
 70
     1
102
RTVSPropertyOp41
 70
     1
102
RTVSPropertyOp42
 70
     1
102
RTVSPropertyOp43
 70
     1
102
RTVSPropertyOp44
 70
     1
102
RTVSPropertyOp45
 70
     1
102
RTVSPropertyOp46
 70
     1
102
RTVSPropertyOp47
 70
     1
102
RTVSPropertyOp48
 70
     1
102
RTVSPropertyOp49
 70
     1
102
RTVSPropertyOp50
 70
     1
102
RTVSPropertyOp51
 70
     0
102
RTVSPropertyOp52
 70
     0
102
RTVSPropertyOp53
 70
     1
102
RTVSPropertyOp54
 70
     1
102
RTVSPropertyOp55
 70
     1
102
RTVSPropertyOp56
 70
     1
102
RTVSPropertyOp57
 70
     1
102
RTVSPropertyOp58
 70
     1
102
RTVSPropertyOp59
 70
     1
102
RTVSPropertyOp60
 70
     1
102
RTVSPropertyOp61
 70
     1
102
RTVSPropertyOp62
 70
     1
  0
XRECORD
  5
21683
102
{ACAD_REACTORS
330
21682
102
}
330
21682
100
AcDbXrecord
280
     1
102
RTVSPost2010Prop28
280
     0
102
RTVSPost2010PropOp28
 70
     1
102
RTVSPost2010Prop29
280
     1
102
RTVSPost2010PropOp29
 70
     1
102
RTVSPost2010Prop30
280
     1
102
RTVSPost2010PropOp30
 70
     1
102
RTVSPost2010Prop31
280
     0
102
RTVSPost2010PropOp31
 70
     1
102
RTVSPost2010Prop32
280
     0
102
RTVSPost2010PropOp32
 70
     1
102
RTVSPost2010Prop33
280
     0
102
RTVSPost2010PropOp33
 70
     1
102
RTVSPost2010Prop34
280
     0
102
RTVSPost2010PropOp34
 70
     1
102
RTVSPost2010Prop35
280
     0
102
RTVSPost2010PropOp35
 70
     1
102
RTVSPost2010Prop36
280
     0
102
RTVSPost2010PropOp36
 70
     1
102
RTVSPost2010Prop37
 90
       50
102
RTVSPost2010PropOp37
 70
     1
102
RTVSPost2010Prop38
140
0.0
102
RTVSPost2010PropOp38
 70
     1
102
RTVSPost2010Prop39
140
1.0
102
RTVSPost2010PropOp39
 70
     1
102
RTVSPost2010Prop40
 90
        0
102
RTVSPost2010PropOp40
 70
     1
102
RTVSPost2010Prop41ColorIndex
 90
       18
102
RTVSPost2010Prop41ColorRGB
 90
        0
102
RTVSPost2010PropOp41
 70
     1
102
RTVSPost2010Prop42
 90
       50
102
RTVSPost2010PropOp42
 70
     1
102
RTVSPost2010Prop43
 90
        3
102
RTVSPost2010PropOp43
 70
     1
102
RTVSPost2010Prop44ColorIndex
 90
        5
102
RTVSPost2010Prop44ColorRGB
 90
      255
102
RTVSPost2010PropOp44
 70
     1
102
RTVSPost2010Prop45
280
     0
102
RTVSPost2010PropOp45
 70
     1
102
RTVSPost2010Prop46
 90
       50
102
RTVSPost2010PropOp46
 70
     1
102
RTVSPost2010Prop47
 90
       50
102
RTVSPost2010PropOp47
 70
     1
102
RTVSPost2010Prop48
 90
       50
102
RTVSPost2010PropOp48
 70
     1
102
RTVSPost2010Prop49
280
     0
102
RTVSPost2010PropOp49
 70
     1
102
RTVSPost2010Prop50
 90
       50
102
RTVSPost2010PropOp50
 70
     1
102
RTVSPost2010Prop51ColorIndex
 90
      256
102
RTVSPost2010Prop51ColorRGB
 90
-16777216
102
RTVSPost2010PropOp51
 70
     0
102
RTVSPost2010Prop52
140
1.0
102
RTVSPost2010PropOp52
 70
     0
102
RTVSPost2010Prop53
 90
        2
102
RTVSPost2010PropOp53
 70
     1
102
RTVSPost2010Prop54
  1
strokes_ogs.tif
102
RTVSPost2010PropOp54
 70
     1
102
RTVSPost2010Prop55
280
     0
102
RTVSPost2010PropOp55
 70
     1
102
RTVSPost2010Prop56
140
1.0
102
RTVSPost2010PropOp56
 70
     1
102
RTVSPost2010Prop57
140
1.0
102
RTVSPost2010PropOp57
 70
     1
102
RTVSPropertyOp0
 70
     1
102
RTVSPropertyOp1
 70
     1
102
RTVSPropertyOp2
 70
     1
102
RTVSPropertyOp3
 70
     1
102
RTVSPropertyOp4
 70
     1
102
RTVSPropertyOp5
 70
     1
102
RTVSPropertyOp6
 70
     1
102
RTVSPropertyOp7
 70
     1
102
RTVSPropertyOp8
 70
     1
102
RTVSPropertyOp9
 70
     1
102
RTVSPropertyOp10
 70
     1
102
RTVSPropertyOp11
 70
     1
102
RTVSPropertyOp12
 70
     1
102
RTVSPropertyOp13
 70
     1
102
RTVSPropertyOp14
 70
     1
102
RTVSPropertyOp15
 70
     1
102
RTVSPropertyOp16
 70
     1
102
RTVSPropertyOp17
 70
     1
102
RTVSPropertyOp18
 70
     1
102
RTVSPropertyOp19
 70
     1
102
RTVSPropertyOp20
 70
     1
102
RTVSPropertyOp21
 70
     1
102
RTVSPropertyOp22
 70
     1
102
RTVSPropertyOp23
 70
     1
102
RTVSPropertyOp24
 70
     1
102
RTVSPropertyOp25
 70
     1
102
RTVSPropertyOp26
 70
     1
102
RTVSPropertyOp27
 70
     1
102
RTVSPropertyOp28
 70
     1
102
RTVSPropertyOp29
 70
     1
102
RTVSPropertyOp30
 70
     1
102
RTVSPropertyOp31
 70
     1
102
RTVSPropertyOp32
 70
     1
102
RTVSPropertyOp33
 70
     1
102
RTVSPropertyOp34
 70
     1
102
RTVSPropertyOp35
 70
     1
102
RTVSPropertyOp36
 70
     1
102
RTVSPropertyOp37
 70
     1
102
RTVSPropertyOp38
 70
     1
102
RTVSPropertyOp39
 70
     1
102
RTVSPropertyOp40
 70
     1
102
RTVSPropertyOp41
 70
     1
102
RTVSPropertyOp42
 70
     1
102
RTVSPropertyOp43
 70
     1
102
RTVSPropertyOp44
 70
     1
102
RTVSPropertyOp45
 70
     1
102
RTVSPropertyOp46
 70
     1
102
RTVSPropertyOp47
 70
     1
102
RTVSPropertyOp48
 70
     1
102
RTVSPropertyOp49
 70
     1
102
RTVSPropertyOp50
 70
     1
102
RTVSPropertyOp51
 70
     0
102
RTVSPropertyOp52
 70
     0
102
RTVSPropertyOp53
 70
     1
102
RTVSPropertyOp54
 70
     1
102
RTVSPropertyOp55
 70
     1
102
RTVSPropertyOp56
 70
     1
102
RTVSPropertyOp57
 70
     1
102
RTVSPropertyOp58
 70
     1
102
RTVSPropertyOp59
 70
     1
102
RTVSPropertyOp60
 70
     1
102
RTVSPropertyOp61
 70
     1
102
RTVSPropertyOp62
 70
     1
  0
XRECORD
  5
2166D
102
{ACAD_REACTORS
330
2166C
102
}
330
2166C
100
AcDbXrecord
280
     1
102
RTVSPost2010Prop28
280
     0
102
RTVSPost2010PropOp28
 70
     1
102
RTVSPost2010Prop29
280
     1
102
RTVSPost2010PropOp29
 70
     1
102
RTVSPost2010Prop30
280
     1
102
RTVSPost2010PropOp30
 70
     1
102
RTVSPost2010Prop31
280
     0
102
RTVSPost2010PropOp31
 70
     1
102
RTVSPost2010Prop32
280
     0
102
RTVSPost2010PropOp32
 70
     1
102
RTVSPost2010Prop33
280
     0
102
RTVSPost2010PropOp33
 70
     1
102
RTVSPost2010Prop34
280
     0
102
RTVSPost2010PropOp34
 70
     1
102
RTVSPost2010Prop35
280
     0
102
RTVSPost2010PropOp35
 70
     1
102
RTVSPost2010Prop36
280
     0
102
RTVSPost2010PropOp36
 70
     1
102
RTVSPost2010Prop37
 90
       50
102
RTVSPost2010PropOp37
 70
     1
102
RTVSPost2010Prop38
140
0.0
102
RTVSPost2010PropOp38
 70
     1
102
RTVSPost2010Prop39
140
1.0
102
RTVSPost2010PropOp39
 70
     1
102
RTVSPost2010Prop40
 90
        0
102
RTVSPost2010PropOp40
 70
     1
102
RTVSPost2010Prop41ColorIndex
 90
       18
102
RTVSPost2010Prop41ColorRGB
 90
        0
102
RTVSPost2010PropOp41
 70
     1
102
RTVSPost2010Prop42
 90
       50
102
RTVSPost2010PropOp42
 70
     1
102
RTVSPost2010Prop43
 90
        3
102
RTVSPost2010PropOp43
 70
     1
102
RTVSPost2010Prop44ColorIndex
 90
        5
102
RTVSPost2010Prop44ColorRGB
 90
      255
102
RTVSPost2010PropOp44
 70
     1
102
RTVSPost2010Prop45
280
     0
102
RTVSPost2010PropOp45
 70
     1
102
RTVSPost2010Prop46
 90
       50
102
RTVSPost2010PropOp46
 70
     1
102
RTVSPost2010Prop47
 90
       50
102
RTVSPost2010PropOp47
 70
     1
102
RTVSPost2010Prop48
 90
       50
102
RTVSPost2010PropOp48
 70
     1
102
RTVSPost2010Prop49
280
     0
102
RTVSPost2010PropOp49
 70
     1
102
RTVSPost2010Prop50
 90
       50
102
RTVSPost2010PropOp50
 70
     1
102
RTVSPost2010Prop51ColorIndex
 90
      256
102
RTVSPost2010Prop51ColorRGB
 90
-16777216
102
RTVSPost2010PropOp51
 70
     0
102
RTVSPost2010Prop52
140
1.0
102
RTVSPost2010PropOp52
 70
     0
102
RTVSPost2010Prop53
 90
        2
102
RTVSPost2010PropOp53
 70
     1
102
RTVSPost2010Prop54
  1
strokes_ogs.tif
102
RTVSPost2010PropOp54
 70
     1
102
RTVSPost2010Prop55
280
     0
102
RTVSPost2010PropOp55
 70
     1
102
RTVSPost2010Prop56
140
1.0
102
RTVSPost2010PropOp56
 70
     1
102
RTVSPost2010Prop57
140
1.0
102
RTVSPost2010PropOp57
 70
     1
102
RTVSPropertyOp0
 70
     1
102
RTVSPropertyOp1
 70
     1
102
RTVSPropertyOp2
 70
     1
102
RTVSPropertyOp3
 70
     1
102
RTVSPropertyOp4
 70
     1
102
RTVSPropertyOp5
 70
     1
102
RTVSPropertyOp6
 70
     1
102
RTVSPropertyOp7
 70
     1
102
RTVSPropertyOp8
 70
     1
102
RTVSPropertyOp9
 70
     1
102
RTVSPropertyOp10
 70
     1
102
RTVSPropertyOp11
 70
     1
102
RTVSPropertyOp12
 70
     1
102
RTVSPropertyOp13
 70
     1
102
RTVSPropertyOp14
 70
     1
102
RTVSPropertyOp15
 70
     1
102
RTVSPropertyOp16
 70
     1
102
RTVSPropertyOp17
 70
     1
102
RTVSPropertyOp18
 70
     1
102
RTVSPropertyOp19
 70
     1
102
RTVSPropertyOp20
 70
     1
102
RTVSPropertyOp21
 70
     1
102
RTVSPropertyOp22
 70
     1
102
RTVSPropertyOp23
 70
     1
102
RTVSPropertyOp24
 70
     1
102
RTVSPropertyOp25
 70
     1
102
RTVSPropertyOp26
 70
     1
102
RTVSPropertyOp27
 70
     1
102
RTVSPropertyOp28
 70
     1
102
RTVSPropertyOp29
 70
     1
102
RTVSPropertyOp30
 70
     1
102
RTVSPropertyOp31
 70
     1
102
RTVSPropertyOp32
 70
     1
102
RTVSPropertyOp33
 70
     1
102
RTVSPropertyOp34
 70
     1
102
RTVSPropertyOp35
 70
     1
102
RTVSPropertyOp36
 70
     1
102
RTVSPropertyOp37
 70
     1
102
RTVSPropertyOp38
 70
     1
102
RTVSPropertyOp39
 70
     1
102
RTVSPropertyOp40
 70
     1
102
RTVSPropertyOp41
 70
     1
102
RTVSPropertyOp42
 70
     1
102
RTVSPropertyOp43
 70
     1
102
RTVSPropertyOp44
 70
     1
102
RTVSPropertyOp45
 70
     1
102
RTVSPropertyOp46
 70
     1
102
RTVSPropertyOp47
 70
     1
102
RTVSPropertyOp48
 70
     1
102
RTVSPropertyOp49
 70
     1
102
RTVSPropertyOp50
 70
     1
102
RTVSPropertyOp51
 70
     0
102
RTVSPropertyOp52
 70
     0
102
RTVSPropertyOp53
 70
     1
102
RTVSPropertyOp54
 70
     1
102
RTVSPropertyOp55
 70
     1
102
RTVSPropertyOp56
 70
     1
102
RTVSPropertyOp57
 70
     1
102
RTVSPropertyOp58
 70
     1
102
RTVSPropertyOp59
 70
     1
102
RTVSPropertyOp60
 70
     1
102
RTVSPropertyOp61
 70
     1
102
RTVSPropertyOp62
 70
     1
  0
XRECORD
  5
2167D
102
{ACAD_REACTORS
330
2167C
102
}
330
2167C
100
AcDbXrecord
280
     1
102
RTVSPost2010Prop28
280
     0
102
RTVSPost2010PropOp28
 70
     1
102
RTVSPost2010Prop29
280
     1
102
RTVSPost2010PropOp29
 70
     1
102
RTVSPost2010Prop30
280
     1
102
RTVSPost2010PropOp30
 70
     1
102
RTVSPost2010Prop31
280
     0
102
RTVSPost2010PropOp31
 70
     1
102
RTVSPost2010Prop32
280
     0
102
RTVSPost2010PropOp32
 70
     1
102
RTVSPost2010Prop33
280
     0
102
RTVSPost2010PropOp33
 70
     1
102
RTVSPost2010Prop34
280
     0
102
RTVSPost2010PropOp34
 70
     1
102
RTVSPost2010Prop35
280
     0
102
RTVSPost2010PropOp35
 70
     1
102
RTVSPost2010Prop36
280
     0
102
RTVSPost2010PropOp36
 70
     1
102
RTVSPost2010Prop37
 90
       50
102
RTVSPost2010PropOp37
 70
     1
102
RTVSPost2010Prop38
140
0.0
102
RTVSPost2010PropOp38
 70
     1
102
RTVSPost2010Prop39
140
1.0
102
RTVSPost2010PropOp39
 70
     1
102
RTVSPost2010Prop40
 90
        0
102
RTVSPost2010PropOp40
 70
     1
102
RTVSPost2010Prop41ColorIndex
 90
       18
102
RTVSPost2010Prop41ColorRGB
 90
        0
102
RTVSPost2010PropOp41
 70
     1
102
RTVSPost2010Prop42
 90
       50
102
RTVSPost2010PropOp42
 70
     1
102
RTVSPost2010Prop43
 90
        3
102
RTVSPost2010PropOp43
 70
     1
102
RTVSPost2010Prop44ColorIndex
 90
        5
102
RTVSPost2010Prop44ColorRGB
 90
      255
102
RTVSPost2010PropOp44
 70
     1
102
RTVSPost2010Prop45
280
     0
102
RTVSPost2010PropOp45
 70
     1
102
RTVSPost2010Prop46
 90
       50
102
RTVSPost2010PropOp46
 70
     1
102
RTVSPost2010Prop47
 90
       50
102
RTVSPost2010PropOp47
 70
     1
102
RTVSPost2010Prop48
 90
       50
102
RTVSPost2010PropOp48
 70
     1
102
RTVSPost2010Prop49
280
     0
102
RTVSPost2010PropOp49
 70
     1
102
RTVSPost2010Prop50
 90
       50
102
RTVSPost2010PropOp50
 70
     1
102
RTVSPost2010Prop51ColorIndex
 90
      256
102
RTVSPost2010Prop51ColorRGB
 90
-16777216
102
RTVSPost2010PropOp51
 70
     0
102
RTVSPost2010Prop52
140
1.0
102
RTVSPost2010PropOp52
 70
     0
102
RTVSPost2010Prop53
 90
        2
102
RTVSPost2010PropOp53
 70
     1
102
RTVSPost2010Prop54
  1
strokes_ogs.tif
102
RTVSPost2010PropOp54
 70
     1
102
RTVSPost2010Prop55
280
     0
102
RTVSPost2010PropOp55
 70
     1
102
RTVSPost2010Prop56
140
1.0
102
RTVSPost2010PropOp56
 70
     1
102
RTVSPost2010Prop57
140
1.0
102
RTVSPost2010PropOp57
 70
     1
102
RTVSPropertyOp0
 70
     1
102
RTVSPropertyOp1
 70
     1
102
RTVSPropertyOp2
 70
     1
102
RTVSPropertyOp3
 70
     1
102
RTVSPropertyOp4
 70
     1
102
RTVSPropertyOp5
 70
     1
102
RTVSPropertyOp6
 70
     1
102
RTVSPropertyOp7
 70
     1
102
RTVSPropertyOp8
 70
     1
102
RTVSPropertyOp9
 70
     1
102
RTVSPropertyOp10
 70
     1
102
RTVSPropertyOp11
 70
     1
102
RTVSPropertyOp12
 70
     1
102
RTVSPropertyOp13
 70
     1
102
RTVSPropertyOp14
 70
     1
102
RTVSPropertyOp15
 70
     1
102
RTVSPropertyOp16
 70
     1
102
RTVSPropertyOp17
 70
     1
102
RTVSPropertyOp18
 70
     1
102
RTVSPropertyOp19
 70
     1
102
RTVSPropertyOp20
 70
     1
102
RTVSPropertyOp21
 70
     1
102
RTVSPropertyOp22
 70
     1
102
RTVSPropertyOp23
 70
     1
102
RTVSPropertyOp24
 70
     1
102
RTVSPropertyOp25
 70
     1
102
RTVSPropertyOp26
 70
     1
102
RTVSPropertyOp27
 70
     1
102
RTVSPropertyOp28
 70
     1
102
RTVSPropertyOp29
 70
     1
102
RTVSPropertyOp30
 70
     1
102
RTVSPropertyOp31
 70
     1
102
RTVSPropertyOp32
 70
     1
102
RTVSPropertyOp33
 70
     1
102
RTVSPropertyOp34
 70
     1
102
RTVSPropertyOp35
 70
     1
102
RTVSPropertyOp36
 70
     1
102
RTVSPropertyOp37
 70
     1
102
RTVSPropertyOp38
 70
     1
102
RTVSPropertyOp39
 70
     1
102
RTVSPropertyOp40
 70
     1
102
RTVSPropertyOp41
 70
     1
102
RTVSPropertyOp42
 70
     1
102
RTVSPropertyOp43
 70
     1
102
RTVSPropertyOp44
 70
     1
102
RTVSPropertyOp45
 70
     1
102
RTVSPropertyOp46
 70
     1
102
RTVSPropertyOp47
 70
     1
102
RTVSPropertyOp48
 70
     1
102
RTVSPropertyOp49
 70
     1
102
RTVSPropertyOp50
 70
     1
102
RTVSPropertyOp51
 70
     0
102
RTVSPropertyOp52
 70
     0
102
RTVSPropertyOp53
 70
     1
102
RTVSPropertyOp54
 70
     1
102
RTVSPropertyOp55
 70
     1
102
RTVSPropertyOp56
 70
     1
102
RTVSPropertyOp57
 70
     1
102
RTVSPropertyOp58
 70
     1
102
RTVSPropertyOp59
 70
     1
102
RTVSPropertyOp60
 70
     1
102
RTVSPropertyOp61
 70
     1
102
RTVSPropertyOp62
 70
     1
  0
XRECORD
  5
21685
102
{ACAD_REACTORS
330
21684
102
}
330
21684
100
AcDbXrecord
280
     1
102
RTVSPost2010Prop28
280
     0
102
RTVSPost2010PropOp28
 70
     1
102
RTVSPost2010Prop29
280
     1
102
RTVSPost2010PropOp29
 70
     1
102
RTVSPost2010Prop30
280
     1
102
RTVSPost2010PropOp30
 70
     1
102
RTVSPost2010Prop31
280
     0
102
RTVSPost2010PropOp31
 70
     1
102
RTVSPost2010Prop32
280
     0
102
RTVSPost2010PropOp32
 70
     1
102
RTVSPost2010Prop33
280
     0
102
RTVSPost2010PropOp33
 70
     1
102
RTVSPost2010Prop34
280
     0
102
RTVSPost2010PropOp34
 70
     1
102
RTVSPost2010Prop35
280
     0
102
RTVSPost2010PropOp35
 70
     1
102
RTVSPost2010Prop36
280
     0
102
RTVSPost2010PropOp36
 70
     1
102
RTVSPost2010Prop37
 90
       50
102
RTVSPost2010PropOp37
 70
     1
102
RTVSPost2010Prop38
140
0.0
102
RTVSPost2010PropOp38
 70
     1
102
RTVSPost2010Prop39
140
1.0
102
RTVSPost2010PropOp39
 70
     1
102
RTVSPost2010Prop40
 90
        0
102
RTVSPost2010PropOp40
 70
     1
102
RTVSPost2010Prop41ColorIndex
 90
       18
102
RTVSPost2010Prop41ColorRGB
 90
        0
102
RTVSPost2010PropOp41
 70
     1
102
RTVSPost2010Prop42
 90
       50
102
RTVSPost2010PropOp42
 70
     1
102
RTVSPost2010Prop43
 90
        3
102
RTVSPost2010PropOp43
 70
     1
102
RTVSPost2010Prop44ColorIndex
 90
        5
102
RTVSPost2010Prop44ColorRGB
 90
      255
102
RTVSPost2010PropOp44
 70
     1
102
RTVSPost2010Prop45
280
     0
102
RTVSPost2010PropOp45
 70
     1
102
RTVSPost2010Prop46
 90
       50
102
RTVSPost2010PropOp46
 70
     1
102
RTVSPost2010Prop47
 90
       50
102
RTVSPost2010PropOp47
 70
     1
102
RTVSPost2010Prop48
 90
       50
102
RTVSPost2010PropOp48
 70
     1
102
RTVSPost2010Prop49
280
     0
102
RTVSPost2010PropOp49
 70
     1
102
RTVSPost2010Prop50
 90
       50
102
RTVSPost2010PropOp50
 70
     1
102
RTVSPost2010Prop51ColorIndex
 90
      256
102
RTVSPost2010Prop51ColorRGB
 90
-16777216
102
RTVSPost2010PropOp51
 70
     0
102
RTVSPost2010Prop52
140
1.0
102
RTVSPost2010PropOp52
 70
     0
102
RTVSPost2010Prop53
 90
        2
102
RTVSPost2010PropOp53
 70
     1
102
RTVSPost2010Prop54
  1
strokes_ogs.tif
102
RTVSPost2010PropOp54
 70
     1
102
RTVSPost2010Prop55
280
     0
102
RTVSPost2010PropOp55
 70
     1
102
RTVSPost2010Prop56
140
1.0
102
RTVSPost2010PropOp56
 70
     1
102
RTVSPost2010Prop57
140
1.0
102
RTVSPost2010PropOp57
 70
     1
102
RTVSPropertyOp0
 70
     1
102
RTVSPropertyOp1
 70
     1
102
RTVSPropertyOp2
 70
     1
102
RTVSPropertyOp3
 70
     1
102
RTVSPropertyOp4
 70
     1
102
RTVSPropertyOp5
 70
     1
102
RTVSPropertyOp6
 70
     1
102
RTVSPropertyOp7
 70
     1
102
RTVSPropertyOp8
 70
     1
102
RTVSPropertyOp9
 70
     1
102
RTVSPropertyOp10
 70
     1
102
RTVSPropertyOp11
 70
     1
102
RTVSPropertyOp12
 70
     1
102
RTVSPropertyOp13
 70
     1
102
RTVSPropertyOp14
 70
     1
102
RTVSPropertyOp15
 70
     1
102
RTVSPropertyOp16
 70
     1
102
RTVSPropertyOp17
 70
     1
102
RTVSPropertyOp18
 70
     1
102
RTVSPropertyOp19
 70
     1
102
RTVSPropertyOp20
 70
     1
102
RTVSPropertyOp21
 70
     1
102
RTVSPropertyOp22
 70
     1
102
RTVSPropertyOp23
 70
     1
102
RTVSPropertyOp24
 70
     1
102
RTVSPropertyOp25
 70
     1
102
RTVSPropertyOp26
 70
     1
102
RTVSPropertyOp27
 70
     1
102
RTVSPropertyOp28
 70
     1
102
RTVSPropertyOp29
 70
     1
102
RTVSPropertyOp30
 70
     1
102
RTVSPropertyOp31
 70
     1
102
RTVSPropertyOp32
 70
     1
102
RTVSPropertyOp33
 70
     1
102
RTVSPropertyOp34
 70
     1
102
RTVSPropertyOp35
 70
     1
102
RTVSPropertyOp36
 70
     1
102
RTVSPropertyOp37
 70
     1
102
RTVSPropertyOp38
 70
     1
102
RTVSPropertyOp39
 70
     1
102
RTVSPropertyOp40
 70
     1
102
RTVSPropertyOp41
 70
     1
102
RTVSPropertyOp42
 70
     1
102
RTVSPropertyOp43
 70
     1
102
RTVSPropertyOp44
 70
     1
102
RTVSPropertyOp45
 70
     1
102
RTVSPropertyOp46
 70
     1
102
RTVSPropertyOp47
 70
     1
102
RTVSPropertyOp48
 70
     1
102
RTVSPropertyOp49
 70
     1
102
RTVSPropertyOp50
 70
     1
102
RTVSPropertyOp51
 70
     0
102
RTVSPropertyOp52
 70
     0
102
RTVSPropertyOp53
 70
     1
102
RTVSPropertyOp54
 70
     1
102
RTVSPropertyOp55
 70
     1
102
RTVSPropertyOp56
 70
     1
102
RTVSPropertyOp57
 70
     1
102
RTVSPropertyOp58
 70
     1
102
RTVSPropertyOp59
 70
     1
102
RTVSPropertyOp60
 70
     1
102
RTVSPropertyOp61
 70
     1
102
RTVSPropertyOp62
 70
     1
  0
ENDSEC
  0
EOF
