  0
SECTION
  2
HEADER
  9
$ACADVER
  1
AC1015
  9
$ACADMAINTVER
 70
    20
  9
$DWGCODEPAGE
  3
ANSI_1252
  9
$INSBASE
 10
0.0
 20
0.0
 30
0.0
  9
$EXTMIN
 10
-27.30245265179315
 20
-23.31266251398188
 30
-0.0000000349181948
  9
$EXTMAX
 10
34.95502480828964
 20
32.1701379547726
 30
0.0000000814935747
  9
$LIMMIN
 10
0.0
 20
0.0
  9
$LIMMAX
 10
420.0
 20
297.0
  9
$ORTHOMODE
 70
     0
  9
$REGENMODE
 70
     1
  9
$FILLMODE
 70
     1
  9
$QTEXTMODE
 70
     0
  9
$MIRRTEXT
 70
     0
  9
$LTSCALE
 40
23.1
  9
$ATTMODE
 70
     1
  9
$TEXTSIZE
 40
3.5
  9
$TRACEWID
 40
0.05
  9
$TEXTSTYLE
  7
STANDARD
  9
$CLAYER
  8
0
  9
$CELTYPE
  6
BYLAYER
  9
$CECOLOR
 62
   256
  9
$CELTSCALE
 40
1.0
  9
$DISPSILH
 70
     0
  9
$DIMSCALE
 40
1.0
  9
$DIMASZ
 40
4.57
  9
$DIMEXO
 40
0.0625
  9
$DIMDLI
 40
0.38
  9
$DIMRND
 40
0.0
  9
$DIMDLE
 40
0.0
  9
$DIMEXE
 40
0.18
  9
$DIMTP
 40
0.01
  9
$DIMTM
 40
0.01
  9
$DIMTXT
 40
3.5
  9
$DIMCEN
 40
0.09
  9
$DIMTSZ
 40
0.0
  9
$DIMTOL
 70
     0
  9
$DIMLIM
 70
     0
  9
$DIMTIH
 70
     0
  9
$DIMTOH
 70
     0
  9
$DIMSE1
 70
     0
  9
$DIMSE2
 70
     0
  9
$DIMTAD
 70
     1
  9
$DIMZIN
 70
     8
  9
$DIMBLK
  1

  9
$DIMASO
 70
     1
  9
$DIMSHO
 70
     1
  9
$DIMPOST
  1

  9
$DIMAPOST
  1

  9
$DIMALT
 70
     0
  9
$DIMALTD
 70
     2
  9
$DIMALTF
 40
25.4
  9
$DIMLFAC
 40
1.0
  9
$DIMTOFL
 70
     0
  9
$DIMTVP
 40
0.0
  9
$DIMTIX
 70
     0
  9
$DIMSOXD
 70
     0
  9
$DIMSAH
 70
     0
  9
$DIMBLK1
  1

  9
$DIMBLK2
  1

  9
$DIMSTYLE
  2
STANDARD
  9
$DIMCLRD
 70
     0
  9
$DIMCLRE
 70
     0
  9
$DIMCLRT
 70
     0
  9
$DIMTFAC
 40
1.0
  9
$DIMGAP
 40
0.09
  9
$DIMJUST
 70
     0
  9
$DIMSD1
 70
     0
  9
$DIMSD2
 70
     0
  9
$DIMTOLJ
 70
     1
  9
$DIMTZIN
 70
     8
  9
$DIMALTZ
 70
     0
  9
$DIMALTTZ
 70
     0
  9
$DIMUPT
 70
     0
  9
$DIMDEC
 70
     3
  9
$DIMTDEC
 70
     3
  9
$DIMALTU
 70
     2
  9
$DIMALTTD
 70
     2
  9
$DIMTXSTY
  7
STANDARD
  9
$DIMAUNIT
 70
     0
  9
$DIMADEC
 70
     0
  9
$DIMALTRND
 40
0.0
  9
$DIMAZIN
 70
     0
  9
$DIMDSEP
 70
    46
  9
$DIMATFIT
 70
     0
  9
$DIMFRAC
 70
     0
  9
$DIMLDRBLK
  1

  9
$DIMLUNIT
 70
     2
  9
$DIMLWD
 70
    -2
  9
$DIMLWE
 70
    -2
  9
$DIMTMOVE
 70
     0
  9
$LUNITS
 70
     2
  9
$LUPREC
 70
     4
  9
$SKETCHINC
 40
0.1
  9
$FILLETRAD
 40
0.0
  9
$AUNITS
 70
     0
  9
$AUPREC
 70
     0
  9
$MENU
  1
.
  9
$ELEVATION
 40
0.0
  9
$PELEVATION
 40
0.0
  9
$THICKNESS
 40
0.0
  9
$LIMCHECK
 70
     0
  9
$CHAMFERA
 40
0.0
  9
$CHAMFERB
 40
0.0
  9
$CHAMFERC
 40
0.0
  9
$CHAMFERD
 40
0.0
  9
$SKPOLY
 70
     0
  9
$TDCREATE
 40
2457350.539762905
  9
$TDUCREATE
 40
2457350.498096239
  9
$TDUPDATE
 40
2457350.637653449
  9
$TDUUPDATE
 40
2457350.595986783
  9
$TDINDWG
 40
0.0037234375
  9
$TDUSRTIMER
 40
0.0037233449
  9
$USRTIMER
 70
     1
  9
$ANGBASE
 50
0.0
  9
$ANGDIR
 70
     0
  9
$PDMODE
 70
     3
  9
$PDSIZE
 40
0.3125
  9
$PLINEWID
 40
0.0
  9
$SPLFRAME
 70
     0
  9
$SPLINETYPE
 70
     6
  9
$SPLINESEGS
 70
     8
  9
$HANDSEED
  5
20E5D
  9
$SURFTAB1
 70
     6
  9
$SURFTAB2
 70
     6
  9
$SURFTYPE
 70
     6
  9
$SURFU
 70
     6
  9
$SURFV
 70
     6
  9
$UCSBASE
  2

  9
$UCSNAME
  2

  9
$UCSORG
 10
0.0
 20
0.0
 30
0.0
  9
$UCSXDIR
 10
1.0
 20
0.0
 30
0.0
  9
$UCSYDIR
 10
0.0
 20
1.0
 30
0.0
  9
$UCSORTHOREF
  2

  9
$UCSORTHOVIEW
 70
     0
  9
$UCSORGTOP
 10
0.0
 20
0.0
 30
0.0
  9
$UCSORGBOTTOM
 10
0.0
 20
0.0
 30
0.0
  9
$UCSORGLEFT
 10
0.0
 20
0.0
 30
0.0
  9
$UCSORGRIGHT
 10
0.0
 20
0.0
 30
0.0
  9
$UCSORGFRONT
 10
0.0
 20
0.0
 30
0.0
  9
$UCSORGBACK
 10
0.0
 20
0.0
 30
0.0
  9
$PUCSBASE
  2

  9
$PUCSNAME
  2

  9
$PUCSORG
 10
0.0
 20
0.0
 30
0.0
  9
$PUCSXDIR
 10
1.0
 20
0.0
 30
0.0
  9
$PUCSYDIR
 10
0.0
 20
1.0
 30
0.0
  9
$PUCSORTHOREF
  2

  9
$PUCSORTHOVIEW
 70
     0
  9
$PUCSORGTOP
 10
0.0
 20
0.0
 30
0.0
  9
$PUCSORGBOTTOM
 10
0.0
 20
0.0
 30
0.0
  9
$PUCSORGLEFT
 10
0.0
 20
0.0
 30
0.0
  9
$PUCSORGRIGHT
 10
0.0
 20
0.0
 30
0.0
  9
$PUCSORGFRONT
 10
0.0
 20
0.0
 30
0.0
  9
$PUCSORGBACK
 10
0.0
 20
0.0
 30
0.0
  9
$USERI1
 70
     0
  9
$USERI2
 70
     0
  9
$USERI3
 70
     0
  9
$USERI4
 70
     0
  9
$USERI5
 70
     0
  9
$USERR1
 40
0.0
  9
$USERR2
 40
0.0
  9
$USERR3
 40
0.0
  9
$USERR4
 40
0.0
  9
$USERR5
 40
0.0
  9
$WORLDVIEW
 70
     1
  9
$SHADEDGE
 70
     3
  9
$SHADEDIF
 70
    70
  9
$TILEMODE
 70
     1
  9
$MAXACTVP
 70
    64
  9
$PINSBASE
 10
0.0
 20
0.0
 30
0.0
  9
$PLIMCHECK
 70
     0
  9
$PEXTMIN
 10
28.69141678810127
 20
19.6363175392151
 30
0.0
  9
$PEXTMAX
 10
258.2227510929107
 20
176.7268578529358
 30
0.0
  9
$PLIMMIN
 10
-5.027069091796875
 20
-6.805083274841307
  9
$PLIMMAX
 10
291.9412536621094
 20
203.1682443618775
  9
$UNITMODE
 70
     0
  9
$VISRETAIN
 70
     1
  9
$PLINEGEN
 70
     0
  9
$PSLTSCALE
 70
     1
  9
$TREEDEPTH
 70
  3020
  9
$CMLSTYLE
  2
STANDARD
  9
$CMLJUST
 70
     0
  9
$CMLSCALE
 40
1.0
  9
$PROXYGRAPHICS
 70
     1
  9
$MEASUREMENT
 70
     1
  9
$CELWEIGHT
370
    -1
  9
$ENDCAPS
280
     0
  9
$JOINSTYLE
280
     0
  9
$LWDISPLAY
290
     0
  9
$INSUNITS
 70
     0
  9
$HYPERLINKBASE
  1

  9
$STYLESHEET
  1
A1-A2.CTB
  9
$XEDIT
290
     1
  9
$CEPSNTYPE
380
     0
  9
$PSTYLEMODE
290
     1
  9
$FINGERPRINTGUID
  2
{42FF0183-16DB-4849-B4D6-3E64E74B7305}
  9
$VERSIONGUID
  2
{830CC3CF-F5CD-4A05-859B-AA4368D071C3}
  9
$EXTNAMES
290
     1
  9
$PSVPSCALE
 40
0.0
  9
$OLESTARTUP
290
     0
  0
ENDSEC
  0
SECTION
  2
CLASSES
  0
CLASS
  1
ACDBDICTIONARYWDFLT
  2
AcDbDictionaryWithDefault
  3
ObjectDBX Classes
 90
        0
280
     0
281
     0
  0
CLASS
  1
MATERIAL
  2
AcDbMaterial
  3
ObjectDBX Classes
 90
     1153
280
     0
281
     0
  0
CLASS
  1
VISUALSTYLE
  2
AcDbVisualStyle
  3
ObjectDBX Classes
 90
     4095
280
     0
281
     0
  0
CLASS
  1
TABLESTYLE
  2
AcDbTableStyle
  3
ObjectDBX Classes
 90
     4095
280
     0
281
     0
  0
CLASS
  1
SORTENTSTABLE
  2
AcDbSortentsTable
  3
ObjectDBX Classes
 90
        0
280
     0
281
     0
  0
CLASS
  1
DICTIONARYVAR
  2
AcDbDictionaryVar
  3
ObjectDBX Classes
 90
        0
280
     0
281
     0
  0
CLASS
  1
EXACXREFPANELOBJECT
  2
ExAcXREFPanelObject
  3
EXAC_ESW
 90
    33793
280
     1
281
     0
  0
CLASS
  1
NPOCOLLECTION
  2
AcDbImpNonPersistentObjectsCollection
  3
ObjectDBX Classes
 90
    33921
280
     1
281
     0
  0
CLASS
  1
ACDBPLACEHOLDER
  2
AcDbPlaceHolder
  3
ObjectDBX Classes
 90
        0
280
     0
281
     0
  0
CLASS
  1
LAYOUT
  2
AcDbLayout
  3
ObjectDBX Classes
 90
        0
280
     0
281
     0
  0
CLASS
  1
SCALE
  2
AcDbScale
  3
ObjectDBX Classes
 90
     1153
280
     0
281
     0
  0
CLASS
  1
MLEADERSTYLE
  2
AcDbMLeaderStyle
  3
ACDB_MLEADERSTYLE_CLASS
 90
     4095
280
     0
281
     0
  0
CLASS
  1
ACDBSECTIONVIEWSTYLE
  2
AcDbSectionViewStyle
  3
ObjectDBX Classes
 90
     1025
280
     0
281
     0
  0
CLASS
  1
ACDBDETAILVIEWSTYLE
  2
AcDbDetailViewStyle
  3
ObjectDBX Classes
 90
     1025
280
     0
281
     0
  0
CLASS
  1
CELLSTYLEMAP
  2
AcDbCellStyleMap
  3
ObjectDBX Classes
 90
     1152
280
     0
281
     0
  0
CLASS
  1
ACAD_EVALUATION_GRAPH
  2
AcDbEvalGraph
  3
ObjectDBX Classes
 90
    33921
280
     0
281
     0
  0
CLASS
  1
ACAECUSTOBJ
  2
AcAeEditorObj
  3
AcAeEditorObj
 90
    33792
280
     0
281
     0
  0
CLASS
  1
ACDB_DYNAMICBLOCKPURGEPREVENTER_VERSION
  2
AcDbDynamicBlockPurgePreventer
  3
ObjectDBX Classes
 90
    33921
280
     0
281
     0
  0
ENDSEC
  0
SECTION
  2
TABLES
  0
TABLE
  2
VPORT
  5
8
330
0
100
AcDbSymbolTable
 70
     1
  0
VPORT
  5
1F4
330
8
100
AcDbSymbolTableRecord
100
AcDbViewportTableRecord
  2
*ACTIVE
 70
     0
 10
0.0
 20
0.0
 11
1.0
 21
1.0
 12
3.826286078248244
 22
4.428737720395364
 13
0.0
 23
0.0
 14
1.0
 24
1.0
 15
0.0
 25
0.0
 16
0.0
 26
0.0
 36
1.0
 17
0.0
 27
0.0
 37
0.0
 40
55.95836732991523
 41
2.336194563662374
 42
50.0
 43
0.0
 44
0.0
 50
0.0
 51
0.0
 71
     0
 72
  2000
 73
     1
 74
     1
 75
     0
 76
     0
 77
     0
 78
     0
281
     0
 65
     1
110
0.0
120
0.0
130
0.0
111
1.0
121
0.0
131
0.0
112
0.0
122
1.0
132
0.0
 79
     0
146
0.0
1001
ACAD_NAV_VCDISPLAY
1070
     3
  0
ENDTAB
  0
TABLE
  2
LTYPE
  5
5
330
0
100
AcDbSymbolTable
 70
     5
  0
LTYPE
  5
14
330
5
100
AcDbSymbolTableRecord
100
AcDbLinetypeTableRecord
  2
BYBLOCK
 70
     0
  3

 72
    65
 73
     0
 40
0.0
  0
LTYPE
  5
15
330
5
100
AcDbSymbolTableRecord
100
AcDbLinetypeTableRecord
  2
BYLAYER
 70
     0
  3

 72
    65
 73
     0
 40
0.0
  0
LTYPE
  5
16
330
5
100
AcDbSymbolTableRecord
100
AcDbLinetypeTableRecord
  2
CONTINUOUS
 70
     0
  3
Solid line
 72
    65
 73
     0
 40
0.0
  0
LTYPE
  5
9C48
330
5
100
AcDbSymbolTableRecord
100
AcDbLinetypeTableRecord
  2
CENTER
 70
     0
  3
____ _ ____ _ ____ _ ____ _ ____ _ ____ _ ____
 72
    65
 73
     4
 40
0.6
 49
0.375
 74
     0
 49
-0.075
 74
     0
 49
0.075
 74
     0
 49
-0.075
 74
     0
  0
ENDTAB
  0
TABLE
  2
LAYER
  5
2
102
{ACAD_XDICTIONARY
360
422A
102
}
330
0
100
AcDbSymbolTable
 70
    15
  0
LAYER
  5
10
102
{ACAD_XDICTIONARY
360
1B2F5
102
}
330
2
100
AcDbSymbolTableRecord
100
AcDbLayerTableRecord
  2
0
 70
     0
 62
     7
  6
CONTINUOUS
370
    -3
390
318A
  0
LAYER
  5
3F8C
102
{ACAD_XDICTIONARY
360
1B2F7
102
}
330
2
100
AcDbSymbolTableRecord
100
AcDbLayerTableRecord
  2
1
 70
     0
 62
     4
  6
BYBLOCK
370
    50
390
318A
  0
LAYER
  5
3FA7
330
2
100
AcDbSymbolTableRecord
100
AcDbLayerTableRecord
  2
Defpoints
 70
     0
 62
     7
  6
CONTINUOUS
290
     0
370
    -3
390
318A
  0
LAYER
  5
9C4A
102
{ACAD_XDICTIONARY
360
1B2F9
102
}
330
2
100
AcDbSymbolTableRecord
100
AcDbLayerTableRecord
  2
2
 70
     0
 62
     7
  6
BYBLOCK
370
    25
390
318A
  0
LAYER
  5
9C4B
102
{ACAD_XDICTIONARY
360
1B2FB
102
}
330
2
100
AcDbSymbolTableRecord
100
AcDbLayerTableRecord
  2
4
 70
     0
 62
     2
  6
CENTER
370
    25
390
318A
  0
LAYER
  5
9C4D
102
{ACAD_XDICTIONARY
360
1B2FD
102
}
330
2
100
AcDbSymbolTableRecord
100
AcDbLayerTableRecord
  2
CUT
 70
     0
 62
     1
  6
BYBLOCK
370
    25
390
318A
  0
LAYER
  5
9C4E
102
{ACAD_XDICTIONARY
360
1B2FF
102
}
330
2
100
AcDbSymbolTableRecord
100
AcDbLayerTableRecord
  2
NOCUT
 70
     0
 62
     7
  6
BYBLOCK
370
    25
390
318A
  0
LAYER
  5
9C50
102
{ACAD_XDICTIONARY
360
1B303
102
}
330
2
100
AcDbSymbolTableRecord
100
AcDbLayerTableRecord
  2
SK1
 70
     0
 62
     4
  6
BYBLOCK
370
    50
390
318A
  0
LAYER
  5
9C51
102
{ACAD_XDICTIONARY
360
1B305
102
}
330
2
100
AcDbSymbolTableRecord
100
AcDbLayerTableRecord
  2
SK4
 70
     0
 62
     2
  6
CENTER
370
    25
390
318A
  0
LAYER
  5
13335
102
{ACAD_XDICTIONARY
360
1B307
102
}
330
2
100
AcDbSymbolTableRecord
100
AcDbLayerTableRecord
  2
INFTOTAL
 70
     0
 62
     9
  6
BYBLOCK
370
    18
390
318A
1001
AcAecLayerStandard
1000

1000

  0
LAYER
  5
1686E
102
{ACAD_XDICTIONARY
360
1B309
102
}
330
2
100
AcDbSymbolTableRecord
100
AcDbLayerTableRecord
  2
SK6
 70
     0
 62
     5
  6
BYBLOCK
370
    -3
390
318A
  0
ENDTAB
  0
TABLE
  2
STYLE
  5
3
330
0
100
AcDbSymbolTable
 70
     2
  0
STYLE
  5
11
330
3
100
AcDbSymbolTableRecord
100
AcDbTextStyleTableRecord
  2
STANDARD
 70
     0
 40
3.5
 41
0.8
 50
0.0
 71
     0
 42
3.5
  3
monos.ttf
  4

1001
ACAD
1000
Monospac821 BT
1071
       49
  0
ENDTAB
  0
TABLE
  2
VIEW
  5
6
330
0
100
AcDbSymbolTable
 70
     0
  0
ENDTAB
  0
TABLE
  2
UCS
  5
7
330
0
100
AcDbSymbolTable
 70
     0
  0
ENDTAB
  0
TABLE
  2
APPID
  5
9
330
0
100
AcDbSymbolTable
 70
    15
  0
APPID
  5
23B
330
9
100
AcDbSymbolTableRecord
100
AcDbRegAppTableRecord
  2
ACAD
 70
     0
  0
APPID
  5
3395
330
9
100
AcDbSymbolTableRecord
100
AcDbRegAppTableRecord
  2
ACAD_EXEMPT_FROM_CAD_STANDARDS
 70
     0
  0
APPID
  5
4229
330
9
100
AcDbSymbolTableRecord
100
AcDbRegAppTableRecord
  2
AcAecLayerStandard
 70
     0
  0
APPID
  5
9A1B
330
9
100
AcDbSymbolTableRecord
100
AcDbRegAppTableRecord
  2
ACAD_PSEXT
 70
     0
  0
APPID
  5
1B313
330
9
100
AcDbSymbolTableRecord
100
AcDbRegAppTableRecord
  2
ACAD_NAV_VCDISPLAY
 70
     0
  0
APPID
  5
1B355
330
9
100
AcDbSymbolTableRecord
100
AcDbRegAppTableRecord
  2
ACAD_MLEADERVER
 70
     0
  0
APPID
  5
1EC7F
330
9
100
AcDbSymbolTableRecord
100
AcDbRegAppTableRecord
  2
ACAUTHENVIRON
 70
     0
  0
APPID
  5
1EC82
330
9
100
AcDbSymbolTableRecord
100
AcDbRegAppTableRecord
  2
AcDbDynamicBlockTrueName
 70
     0
  0
APPID
  5
1EC83
330
9
100
AcDbSymbolTableRecord
100
AcDbRegAppTableRecord
  2
AcDbDynamicBlockGUID
 70
     0
  0
APPID
  5
20A85
330
9
100
AcDbSymbolTableRecord
100
AcDbRegAppTableRecord
  2
AcCmTransparency
 70
     0
  0
APPID
  5
20B6A
330
9
100
AcDbSymbolTableRecord
100
AcDbRegAppTableRecord
  2
ACAD_DSTYLE_DIMJAG
 70
     0
  0
APPID
  5
20B6B
330
9
100
AcDbSymbolTableRecord
100
AcDbRegAppTableRecord
  2
ACAD_DSTYLE_DIMBREAK
 70
     0
  0
APPID
  5
20B6C
330
9
100
AcDbSymbolTableRecord
100
AcDbRegAppTableRecord
  2
ACAD_DSTYLE_DIMTALN
 70
     0
  0
APPID
  5
20B6D
330
9
100
AcDbSymbolTableRecord
100
AcDbRegAppTableRecord
  2
ACAD_DSTYLE_DIMRADIAL_EXTENSION
 70
     0
  0
APPID
  5
20E02
330
9
100
AcDbSymbolTableRecord
100
AcDbRegAppTableRecord
  2
AcadAnnoMonitorAlertIconDisabled
 70
     0
  0
ENDTAB
  0
TABLE
  2
DIMSTYLE
  5
A
330
0
100
AcDbSymbolTable
 70
     2
100
AcDbDimStyleTable
 71
     1
340
243
  0
DIMSTYLE
105
243
102
{ACAD_REACTORS
330
20DAC
330
20DAD
330
20DF5
102
}
330
A
100
AcDbSymbolTableRecord
100
AcDbDimStyleTableRecord
  2
STANDARD
 70
     0
 41
4.57
 47
0.01
 48
0.01
 73
     0
 74
     0
 77
     1
 78
     8
140
3.5
271
     3
272
     3
284
     8
289
     0
340
11
  0
ENDTAB
  0
TABLE
  2
BLOCK_RECORD
  5
1
330
0
100
AcDbSymbolTable
 70
    17
  0
BLOCK_RECORD
  5
1F
102
{ACAD_XDICTIONARY
360
339C
102
}
330
1
100
AcDbSymbolTableRecord
100
AcDbBlockTableRecord
  2
*MODEL_SPACE
340
31A6
  0
BLOCK_RECORD
  5
1B
330
1
100
AcDbSymbolTableRecord
100
AcDbBlockTableRecord
  2
*PAPER_SPACE
340
31A7
  0
BLOCK_RECORD
  5
1B3D7
102
{ACAD_XDICTIONARY
360
1DE81
102
}
330
1
100
AcDbSymbolTableRecord
100
AcDbBlockTableRecord
  2
cero_point
340
0
310
28000000200000002000000001002000000000000010000001000000010000000000000000000000302821FF302821FF302821FF302821FF302821FF302821FF302821FF302821FF302821FF302821FF302821FF302821FF302821FF302821FF302821FF302821FF302821FF302821FF302821FF302821FF302821FF302821
310
FF302821FF302821FF302821FF302821FF302821FF302821FF302821FF302821FF302821FF302821FF302821FF302821FF302821FF302821FF302821FF302821FF302821FF302821FF302821FF302821FF302821FF302821FF302821FF302821FF302821FFFFFF00FFFFFF00FFFFFF00FF302821FF302821FF302821FF3028
310
21FF302821FF302821FF302821FF302821FF302821FF302821FF302821FF302821FF302821FF302821FF302821FF302821FF302821FF302821FF302821FF302821FF302821FF302821FF302821FF302821FFFFFF00FFFFFF00FFFFFF00FFFFFF00FFFFFF00FFFFFF00FFFFFF00FF302821FFFFFF00FFFFFF00FFFFFF00FF30
310
2821FF302821FF302821FF302821FF302821FF302821FF302821FF302821FF302821FF302821FF302821FF302821FF302821FF302821FF302821FF302821FF302821FF302821FF302821FFFFFF00FFFFFF00FFFFFF00FFFFFF00FFFFFF00FFFFFF00FFFFFF00FFFFFF00FFFFFF00FF302821FF302821FF302821FF302821FF
310
FFFF00FFFFFF00FF302821FF302821FF302821FF302821FF302821FF302821FF302821FF302821FF302821FF302821FF302821FF302821FF302821FF302821FF302821FF302821FFFFFF00FFFFFF00FFFFFF00FFFFFF00FFFFFF00FFFFFF00FFFFFF00FFFFFF00FFFFFF00FFFFFF00FF302821FF302821FF302821FF302821
310
FF302821FF302821FFFFFF00FFFFFF00FF302821FF302821FF302821FF302821FF302821FF302821FF302821FF302821FF302821FF302821FF302821FF302821FF302821FFFFFF00FFFFFF00FFFFFF00FFFFFF00FFFFFF00FFFFFF00FFFFFF00FFFFFF00FFFFFF00FFFFFF00FFFFFF00FF302821FF302821FF302821FF3028
310
21FF302821FF302821FF302821FF302821FFFFFF00FF302821FF302821FF302821FF302821FF302821FF302821FF302821FF302821FF302821FF302821FF302821FFFFFF00FFFFFF00FFFFFF00FFFFFF00FFFFFF00FFFFFF00FFFFFF00FFFFFF00FFFFFF00FFFFFF00FFFFFF00FFFFFF00FF302821FF302821FF302821FF30
310
2821FF302821FF302821FF302821FF302821FF302821FFFFFF00FF302821FF302821FF302821FF302821FF302821FF302821FF302821FF302821FF302821FFFFFF00FFFFFF00FFFFFF00FFFFFF00FFFFFF00FFFFFF00FFFFFF00FFFFFF00FFFFFF00FFFFFF00FFFFFF00FFFFFF00FFFFFF00FF302821FF302821FF302821FF
310
302821FF302821FF302821FF302821FF302821FF302821FF302821FFFFFF00FF302821FF302821FF302821FF302821FF302821FF302821FF302821FFFFFF00FFFFFF00FFFFFF00FFFFFF00FFFFFF00FFFFFF00FFFFFF00FFFFFF00FFFFFF00FFFFFF00FFFFFF00FFFFFF00FFFFFF00FFFFFF00FF302821FF302821FF302821
310
FF302821FF302821FF302821FF302821FF302821FF302821FF302821FFFFFF00FF302821FF302821FF302821FF302821FF302821FF302821FF302821FFFFFF00FFFFFF00FFFFFF00FFFFFF00FFFFFF00FFFFFF00FFFFFF00FFFFFF00FFFFFF00FFFFFF00FFFFFF00FFFFFF00FFFFFF00FFFFFF00FF302821FF302821FF3028
310
21FF302821FF302821FF302821FF302821FF302821FF302821FF302821FF302821FFFFFF00FF302821FF302821FF302821FF302821FF302821FFFFFF00FFFFFF00FFFFFF00FFFFFF00FFFFFF00FFFFFF00FFFFFF00FFFFFF00FFFFFF00FFFFFF00FFFFFF00FFFFFF00FFFFFF00FFFFFF00FFFFFF00FF302821FF302821FF30
310
2821FF302821FF302821FF302821FF302821FF302821FF302821FF302821FF302821FF302821FFFFFF00FF302821FF302821FF302821FF302821FFFFFF00FFFFFF00FFFFFF00FFFFFF00FFFFFF00FFFFFF00FFFFFF00FFFFFF00FFFFFF00FFFFFF00FFFFFF00FFFFFF00FFFFFF00FFFFFF00FFFFFF00FF302821FF302821FF
310
302821FF302821FF302821FF302821FF302821FF302821FF302821FF302821FF302821FF302821FFFFFF00FF302821FF302821FF302821FF302821FFFFFF00FFFFFF00FFFFFF00FFFFFF00FFFFFF00FFFFFF00FFFFFF00FFFFFF00FFFFFF00FFFFFF00FFFFFF00FFFFFF00FFFFFF00FFFFFF00FFFFFF00FF302821FF302821
310
FF302821FF302821FF302821FF302821FF302821FF302821FF302821FF302821FF302821FF302821FFFFFF00FF302821FF302821FF302821FF302821FFFFFF00FFFFFF00FFFFFF00FFFFFF00FFFFFF00FFFFFF00FFFFFF00FFFFFF00FFFFFF00FFFFFF00FFFFFF00FFFFFF00FFFFFF00FFFFFF00FFFFFF00FF302821FF3028
310
21FF302821FF302821FF302821FF302821FF302821FF302821FF302821FF302821FF302821FF302821FFFFFF00FF302821FF302821FF302821FFFFFF00FFFFFF00FFFFFF00FFFFFF00FFFFFF00FFFFFF00FFFFFF00FFFFFF00FFFFFF00FFFFFF00FFFFFF00FFFFFF00FFFFFF00FFFFFF00FFFFFF00FFFFFF00FF302821FF30
310
2821FF302821FF302821FF302821FF302821FF302821FF302821FF302821FF302821FF302821FF302821FF302821FFFFFF00FF302821FF302821FFFFFF00FFFFFF00FFFFFF00FFFFFF00FFFFFF00FFFFFF00FFFFFF00FFFFFF00FFFFFF00FFFFFF00FFFFFF00FFFFFF00FFFFFF00FFFFFF00FFFFFF00FFFFFF00FFFFFF00FF
310
FFFF00FFFFFF00FFFFFF00FFFFFF00FFFFFF00FFFFFF00FFFFFF00FFFFFF00FFFFFF00FFFFFF00FFFFFF00FFFFFF00FFFFFF00FF302821FF302821FFFFFF00FF302821FF302821FF302821FF302821FF302821FF302821FF302821FF302821FF302821FF302821FF302821FF302821FF302821FF302821FFFFFF00FFFFFF00
310
FFFFFF00FFFFFF00FFFFFF00FFFFFF00FFFFFF00FFFFFF00FFFFFF00FFFFFF00FFFFFF00FFFFFF00FFFFFF00FFFFFF00FFFFFF00FF302821FF302821FFFFFF00FF302821FF302821FF302821FF302821FF302821FF302821FF302821FF302821FF302821FF302821FF302821FF302821FF302821FF302821FFFFFF00FFFFFF
310
00FFFFFF00FFFFFF00FFFFFF00FFFFFF00FFFFFF00FFFFFF00FFFFFF00FFFFFF00FFFFFF00FFFFFF00FFFFFF00FFFFFF00FF302821FF302821FF302821FF302821FFFFFF00FF302821FF302821FF302821FF302821FF302821FF302821FF302821FF302821FF302821FF302821FF302821FF302821FF302821FFFFFF00FFFF
310
FF00FFFFFF00FFFFFF00FFFFFF00FFFFFF00FFFFFF00FFFFFF00FFFFFF00FFFFFF00FFFFFF00FFFFFF00FFFFFF00FFFFFF00FF302821FF302821FF302821FF302821FFFFFF00FF302821FF302821FF302821FF302821FF302821FF302821FF302821FF302821FF302821FF302821FF302821FF302821FF302821FFFFFF00FF
310
FFFF00FFFFFF00FFFFFF00FFFFFF00FFFFFF00FFFFFF00FFFFFF00FFFFFF00FFFFFF00FFFFFF00FFFFFF00FFFFFF00FFFFFF00FF302821FF302821FF302821FF302821FFFFFF00FF302821FF302821FF302821FF302821FF302821FF302821FF302821FF302821FF302821FF302821FF302821FF302821FF302821FFFFFF00
310
FFFFFF00FFFFFF00FFFFFF00FFFFFF00FFFFFF00FFFFFF00FFFFFF00FFFFFF00FFFFFF00FFFFFF00FFFFFF00FFFFFF00FFFFFF00FF302821FF302821FF302821FF302821FF302821FFFFFF00FF302821FF302821FF302821FF302821FF302821FF302821FF302821FF302821FF302821FF302821FF302821FF302821FFFFFF
310
00FFFFFF00FFFFFF00FFFFFF00FFFFFF00FFFFFF00FFFFFF00FFFFFF00FFFFFF00FFFFFF00FFFFFF00FFFFFF00FFFFFF00FFFFFF00FF302821FF302821FF302821FF302821FF302821FFFFFF00FF302821FF302821FF302821FF302821FF302821FF302821FF302821FF302821FF302821FF302821FF302821FF302821FFFF
310
FF00FFFFFF00FFFFFF00FFFFFF00FFFFFF00FFFFFF00FFFFFF00FFFFFF00FFFFFF00FFFFFF00FFFFFF00FFFFFF00FFFFFF00FF302821FF302821FF302821FF302821FF302821FF302821FF302821FFFFFF00FF302821FF302821FF302821FF302821FF302821FF302821FF302821FF302821FF302821FF302821FF302821FF
310
FFFF00FFFFFF00FFFFFF00FFFFFF00FFFFFF00FFFFFF00FFFFFF00FFFFFF00FFFFFF00FFFFFF00FFFFFF00FFFFFF00FFFFFF00FF302821FF302821FF302821FF302821FF302821FF302821FF302821FFFFFF00FF302821FF302821FF302821FF302821FF302821FF302821FF302821FF302821FF302821FF302821FF302821
310
FFFFFF00FFFFFF00FFFFFF00FFFFFF00FFFFFF00FFFFFF00FFFFFF00FFFFFF00FFFFFF00FFFFFF00FFFFFF00FFFFFF00FF302821FF302821FF302821FF302821FF302821FF302821FF302821FF302821FF302821FFFFFF00FF302821FF302821FF302821FF302821FF302821FF302821FF302821FF302821FF302821FF3028
310
21FFFFFF00FFFFFF00FFFFFF00FFFFFF00FFFFFF00FFFFFF00FFFFFF00FFFFFF00FFFFFF00FFFFFF00FFFFFF00FF302821FF302821FF302821FF302821FF302821FF302821FF302821FF302821FF302821FF302821FF302821FFFFFF00FF302821FF302821FF302821FF302821FF302821FF302821FF302821FF302821FF30
310
2821FFFFFF00FFFFFF00FFFFFF00FFFFFF00FFFFFF00FFFFFF00FFFFFF00FFFFFF00FFFFFF00FFFFFF00FF302821FF302821FF302821FF302821FF302821FF302821FF302821FF302821FF302821FF302821FF302821FF302821FF302821FFFFFF00FF302821FF302821FF302821FF302821FF302821FF302821FF302821FF
310
302821FFFFFF00FFFFFF00FFFFFF00FFFFFF00FFFFFF00FFFFFF00FFFFFF00FFFFFF00FFFFFF00FF302821FF302821FF302821FF302821FF302821FF302821FF302821FF302821FF302821FF302821FF302821FF302821FF302821FF302821FF302821FFFFFF00FFFFFF00FF302821FF302821FF302821FF302821FF302821
310
FF302821FFFFFF00FFFFFF00FFFFFF00FFFFFF00FFFFFF00FFFFFF00FFFFFF00FFFFFF00FF302821FF302821FF302821FF302821FF302821FF302821FF302821FF302821FF302821FF302821FF302821FF302821FF302821FF302821FF302821FF302821FF302821FF302821FFFFFF00FFFFFF00FFFFFF00FFFFFF00FFFFFF
310
00FF302821FFFFFF00FFFFFF00FFFFFF00FFFFFF00FFFFFF00FFFFFF00FF302821FF302821FF302821FF302821FF302821FF302821FF302821FF302821FF302821FF302821FF302821FF302821FF302821FF302821FF302821FF302821FF302821FF302821FF302821FF302821FF302821FF302821FF302821FF302821FF30
310
2821FFFFFF00FFFFFF00FFFFFF00FF302821FF302821FF302821FF302821FF302821FF302821FF302821FF302821FF302821FF302821FF302821FF302821FF302821FF302821FF302821FF302821FF302821FF302821FF302821FF302821FF302821FF302821FF302821FF302821FF302821FF302821FF302821FF302821FF
310
302821FF302821FF302821FF302821FF302821FF302821FF302821FF302821FF302821FF302821FF302821FF302821FF302821FF302821FF302821FF302821FF302821FF302821FF
102
{BLKREFS
331
20A18
102
}
  0
BLOCK_RECORD
  5
20DB6
330
1
100
AcDbSymbolTableRecord
100
AcDbBlockTableRecord
  2
*D14
340
0
  0
BLOCK_RECORD
  5
20DC3
330
1
100
AcDbSymbolTableRecord
100
AcDbBlockTableRecord
  2
*D15
340
0
  0
BLOCK_RECORD
  5
20DF6
330
1
100
AcDbSymbolTableRecord
100
AcDbBlockTableRecord
  2
*D16
340
0
  0
ENDTAB
  0
ENDSEC
  0
SECTION
  2
BLOCKS
  0
BLOCK
  5
20
330
1F
100
AcDbEntity
  8
0
100
AcDbBlockBegin
  2
*MODEL_SPACE
 70
     0
 10
0.0
 20
0.0
 30
0.0
  3
*MODEL_SPACE
  1

  0
ENDBLK
  5
21
330
1F
100
AcDbEntity
  8
0
100
AcDbBlockEnd
  0
BLOCK
  5
1C
330
1B
100
AcDbEntity
 67
     1
  8
0
100
AcDbBlockBegin
  2
*PAPER_SPACE
 70
     0
 10
0.0
 20
0.0
 30
0.0
  3
*PAPER_SPACE
  1

  0
ENDBLK
  5
1D
330
1B
100
AcDbEntity
 67
     1
  8
0
100
AcDbBlockEnd
  0
BLOCK
  5
1B3D8
330
1B3D7
100
AcDbEntity
  8
0
100
AcDbBlockBegin
  2
cero_point
 70
     0
 10
0.0
 20
0.0
 30
0.0
  3
cero_point
  1

  0
HATCH
  5
1B3DA
330
1B3D7
100
AcDbEntity
  8
1
  6
ByBlock
370
    50
100
AcDbHatch
 10
0.0
 20
0.0
 30
0.0
210
0.0
220
0.0
230
1.0
  2
SOLID
 70
     1
 71
     0
 91
        2
 92
        7
 72
     1
 73
     1
 93
        3
 10
-0.0000000000001137
 20
0.0
 42
0.0
 10
-2.950972054112752
 20
0.0
 42
0.4142135623730968
 10
-0.0000000000001137
 20
-2.950972054112583
 42
0.0
 97
        0
 92
        7
 72
     1
 73
     1
 93
        3
 10
-0.0000000000001137
 20
2.950972054112638
 42
0.0
 10
-0.0000000000001137
 20
0.0
 42
0.0
 10
2.950972054112526
 20
0.0
 42
0.4142135623730966
 97
        0
 75
     0
 76
     1
 47
0.1190009775223266
 98
        2
 10
-0.7445530588121301
 20
-0.9212244733764125
 10
1.279464601852737
 20
1.696796923046345
  0
LWPOLYLINE
  5
1B3DB
330
1B3D7
100
AcDbEntity
  8
1
  6
ByBlock
370
    50
100
AcDbPolyline
 90
        3
 70
     1
 43
0.0
 10
-0.0000000000001137
 20
0.0
 10
2.950972054112526
 20
0.0
 42
0.4142135623730966
 10
-0.0000000000001137
 20
2.950972054112638
  0
LINE
  5
1B3DC
330
1B3D7
100
AcDbEntity
  8
1
  6
ByBlock
370
    50
100
AcDbLine
 10
-0.0000000000001137
 20
-2.950972054112583
 30
0.0
 11
-0.0000000000001137
 21
2.950972054112638
 31
0.0
  0
LWPOLYLINE
  5
1B3DD
330
1B3D7
100
AcDbEntity
  8
1
  6
ByBlock
370
    50
100
AcDbPolyline
 90
        3
 70
     1
 43
0.0
 10
-0.0000000000001137
 20
-2.950972054112583
 10
-0.0000000000001137
 20
0.0
 10
-2.950972054112752
 20
0.0
 42
0.4142135623730966
  0
LINE
  5
1B3DE
330
1B3D7
100
AcDbEntity
  8
1
  6
ByBlock
370
    50
100
AcDbLine
 10
2.950972054112638
 20
0.0
 30
0.0
 11
-2.950972054112638
 21
0.0
 31
0.0
  0
CIRCLE
  5
1B3DF
330
1B3D7
100
AcDbEntity
  8
1
  6
ByBlock
370
    50
100
AcDbCircle
 10
-0.0000000000001137
 20
0.0
 30
0.0
 40
2.950972054112601
  0
ENDBLK
  5
1B3D9
330
1B3D7
100
AcDbEntity
  8
0
100
AcDbBlockEnd
  0
BLOCK
  5
20DB7
330
20DB6
100
AcDbEntity
  8
0
100
AcDbBlockBegin
  2
*D14
 70
     1
 10
0.0
 20
0.0
 30
0.0
  3
*D14
  1

  0
LINE
  5
20DE9
330
20DB6
100
AcDbEntity
  8
2
 62
     0
370
    -2
100
AcDbLine
 10
0.7901430284052396
 20
9.234574820598027
 30
0.0
 11
0.7901430284052405
 21
24.92697029342565
 31
0.0
  0
LINE
  5
20DEA
330
20DB6
100
AcDbEntity
  8
2
 62
     0
370
    -2
100
AcDbLine
 10
2.789902999996357
 20
9.234573000000068
 30
0.0
 11
2.789902999996358
 21
24.92697029342565
 31
0.0
  0
LINE
  5
20DEB
330
20DB6
100
AcDbEntity
  8
2
 62
     0
370
    -2
100
AcDbLine
 10
-3.779856971594759
 20
24.74697029342565
 30
0.0
 11
-8.349856971594759
 21
24.74697029342565
 31
0.0
  0
LINE
  5
20DEC
330
20DB6
100
AcDbEntity
  8
2
 62
     0
370
    -2
100
AcDbLine
 10
7.359902999996358
 20
24.74697029342565
 30
0.0
 11
14.03232042796544
 21
24.74697029342565
 31
0.0
  0
LINE
  5
20DED
330
20DB6
100
AcDbEntity
  8
2
 62
     0
370
    -2
100
AcDbLine
 10
0.7901430284052405
 20
24.74697029342565
 30
0.0
 11
2.789902999996358
 21
24.74697029342565
 31
0.0
  0
SOLID
  5
20DEE
330
20DB6
100
AcDbEntity
  8
2
 62
     0
100
AcDbTrace
 10
-3.779856971594759
 20
25.50863696009232
 30
0.0
 11
-3.779856971594759
 21
23.98530362675898
 31
0.0
 12
0.7901430284052405
 22
24.74697029342565
 32
0.0
 13
0.7901430284052405
 23
24.74697029342565
 33
0.0
  0
SOLID
  5
20DEF
330
20DB6
100
AcDbEntity
  8
2
 62
     0
100
AcDbTrace
 10
7.359902999996358
 20
25.50863696009232
 30
0.0
 11
7.359902999996358
 21
23.98530362675898
 31
0.0
 12
2.789902999996358
 22
24.74697029342565
 32
0.0
 13
2.789902999996358
 23
24.74697029342565
 33
0.0
  0
MTEXT
  5
20DF0
330
20DB6
100
AcDbEntity
  8
2
 62
     0
100
AcDbMText
 10
12.9811117139809
 20
26.59803845927245
 30
0.0
 40
3.5
 41
0.0
 71
     5
 72
     1
  1
\A1;2
 73
     1
 44
1.0
1001
ACAD
1000
MTEXTBEGIN
1070
    73
1070
     1
1070
    44
1040
1.0
1070
    74
1070
     0
1000
MTEXTEND
  0
POINT
  5
20DF1
330
20DB6
100
AcDbEntity
  8
Defpoints
 62
     0
100
AcDbPoint
 10
0.7901430284052396
 20
9.172074820598027
 30
0.0
  0
POINT
  5
20DF2
330
20DB6
100
AcDbEntity
  8
Defpoints
 62
     0
100
AcDbPoint
 10
2.789902999996357
 20
9.172073000000068
 30
0.0
  0
POINT
  5
20DF3
330
20DB6
100
AcDbEntity
  8
Defpoints
 62
     0
100
AcDbPoint
 10
2.789902999996358
 20
24.74697029342565
 30
0.0
  0
ENDBLK
  5
20DB8
330
20DB6
100
AcDbEntity
  8
0
100
AcDbBlockEnd
  0
BLOCK
  5
20DC4
330
20DC3
100
AcDbEntity
  8
0
100
AcDbBlockBegin
  2
*D15
 70
     1
 10
0.0
 20
0.0
 30
0.0
  3
*D15
  1

  0
LINE
  5
20DD7
330
20DC3
100
AcDbEntity
  8
2
 62
     0
370
    -2
100
AcDbLine
 10
6.960572420514095
 20
11.09069425611797
 30
0.0
 11
24.136063146706
 21
18.59202274999817
 31
0.0
  0
SOLID
  5
20DD8
330
20DC3
100
AcDbEntity
  8
2
 62
     0
100
AcDbTrace
 10
6.65572382104367
 20
11.78869385677117
 30
0.0
 11
7.26542101998452
 21
10.39269465546476
 31
0.0
 12
2.772574816594875
 22
9.261602659295419
 32
0.0
 13
2.772574816594875
 23
9.261602659295419
 33
0.0
  0
MTEXT
  5
20DD9
330
20DC3
100
AcDbEntity
  8
2
 62
     0
100
AcDbMText
 10
16.88126646885406
 20
17.49845020283602
 30
0.0
 40
3.5
 41
0.0
 71
     5
 72
     1
  1
\A1;R0.208
 11
0.9164108542492826
 21
0.4002388614491358
 31
0.0
 73
     1
 44
1.0
1001
ACAD
1000
MTEXTBEGIN
1070
    73
1070
     1
1070
    44
1040
1.0
1070
    74
1070
     0
1000
MTEXTEND
  0
LINE
  5
20DDA
330
20DC3
100
AcDbEntity
  8
2
 62
     0
370
    -2
100
AcDbLine
 10
2.492052999996313
 20
9.178393000000081
 30
0.0
 11
2.672052999996312
 21
9.178393000000081
 31
0.0
  0
LINE
  5
20DDB
330
20DC3
100
AcDbEntity
  8
2
 62
     0
370
    -2
100
AcDbLine
 10
2.582052999996312
 20
9.088393000000083
 30
0.0
 11
2.582052999996313
 21
9.268393000000081
 31
0.0
  0
POINT
  5
20DDC
330
20DC3
100
AcDbEntity
  8
Defpoints
 62
     0
100
AcDbPoint
 10
2.772574816594875
 20
9.261602659295419
 30
0.0
  0
POINT
  5
20DDD
330
20DC3
100
AcDbEntity
  8
Defpoints
 62
     0
100
AcDbPoint
 10
2.582052999996312
 20
9.178393000000083
 30
0.0
  0
ENDBLK
  5
20DC5
330
20DC3
100
AcDbEntity
  8
0
100
AcDbBlockEnd
  0
BLOCK
  5
20DF7
330
20DF6
100
AcDbEntity
  8
0
100
AcDbBlockBegin
  2
*D16
 70
     1
 10
0.0
 20
0.0
 30
0.0
  3
*D16
  1

  0
LINE
  5
20E0D
330
20DF6
100
AcDbEntity
  8
0
 62
     0
370
    -2
100
AcDbLine
 10
2.653776914037734
 20
9.541968058187563
 30
0.0
 11
16.56143823791006
 21
9.54196805818756
 31
0.0
  0
LINE
  5
20E0E
330
20DF6
100
AcDbEntity
  8
0
 62
     0
370
    -2
100
AcDbLine
 10
2.653776914037734
 20
-9.541968058187563
 30
0.0
 11
16.56143823791006
 21
-9.541968058187567
 31
0.0
  0
LINE
  5
20E0F
330
20DF6
100
AcDbEntity
  8
0
 62
     0
370
    -2
100
AcDbLine
 10
16.38143823791006
 20
4.97196805818756
 30
0.0
 11
16.38143823791006
 21
-4.971968058187567
 31
0.0
  0
SOLID
  5
20E10
330
20DF6
100
AcDbEntity
  8
0
 62
     0
100
AcDbTrace
 10
15.61977157124339
 20
4.97196805818756
 30
0.0
 11
17.14310490457673
 21
4.97196805818756
 31
0.0
 12
16.38143823791006
 22
9.54196805818756
 32
0.0
 13
16.38143823791006
 23
9.54196805818756
 33
0.0
  0
SOLID
  5
20E11
330
20DF6
100
AcDbEntity
  8
0
 62
     0
100
AcDbTrace
 10
15.61977157124339
 20
-4.971968058187567
 30
0.0
 11
17.14310490457673
 21
-4.971968058187567
 31
0.0
 12
16.38143823791005
 22
-9.541968058187567
 32
0.0
 13
16.38143823791005
 23
-9.541968058187567
 33
0.0
  0
MTEXT
  5
20E12
330
20DF6
100
AcDbEntity
  8
0
 62
     0
100
AcDbMText
 10
14.42829698703163
 20
-0.0000000000000008
 30
0.0
 40
3.5
 41
0.0
 71
     5
 72
     1
  1
\A1;%%C19.084
 11
0.0000000000000001
 21
1.0
 31
0.0
 73
     1
 44
1.0
1001
ACAD
1000
MTEXTBEGIN
1070
    73
1070
     1
1070
    44
1040
1.0
1070
    74
1070
     0
1000
MTEXTEND
  0
POINT
  5
20E13
330
20DF6
100
AcDbEntity
  8
Defpoints
 62
     0
100
AcDbPoint
 10
2.591276914037734
 20
9.541968058187563
 30
0.0
  0
POINT
  5
20E14
330
20DF6
100
AcDbEntity
  8
Defpoints
 62
     0
100
AcDbPoint
 10
2.591276914037734
 20
-9.541968058187563
 30
0.0
  0
POINT
  5
20E15
330
20DF6
100
AcDbEntity
  8
Defpoints
 62
     0
100
AcDbPoint
 10
16.38143823791005
 20
-9.541968058187567
 30
0.0
  0
ENDBLK
  5
20DF8
330
20DF6
100
AcDbEntity
  8
0
100
AcDbBlockEnd
  0
ENDSEC
  0
SECTION
  2
ENTITIES
  0
INSERT
  5
20A18
330
1F
100
AcDbEntity
  8
2
100
AcDbBlockReference
  2
cero_point
 10
0.0535514226114933
 20
0.0
 30
0.0
 41
0.2859810318120131
 42
0.2859810318120131
 43
0.2859810318120131
  0
LINE
  5
20C96
330
1F
100
AcDbEntity
  8
1
 48
0.207498
100
AcDbLine
 10
0.0749999999963507
 20
-4.420544999999947
 30
0.0
 11
0.0749999999963507
 21
3.879392000000052
 31
0.0
  0
LINE
  5
20C97
330
1F
100
AcDbEntity
  8
1
 48
0.013529
100
AcDbLine
 10
0.0749999999963507
 20
3.879392000000052
 30
0.0
 11
0.0749999999963507
 21
4.420544000000063
 31
0.0
  0
LINE
  5
20C98
330
1F
100
AcDbEntity
  8
1
 48
0.207498
100
AcDbLine
 10
-0.000000000003638
 20
-4.420544999999947
 30
0.0
 11
-0.000000000003638
 21
3.879392000000052
 31
0.0
  0
LINE
  5
20C99
330
1F
100
AcDbEntity
  8
1
 48
0.013529
100
AcDbLine
 10
-0.000000000003638
 20
3.879392000000052
 30
0.0
 11
-0.000000000003638
 21
4.420544000000063
 31
0.0
  0
LINE
  5
20C9A
330
1F
100
AcDbEntity
  8
SK1
 48
0.044057
100
AcDbLine
 10
-0.1895330000036495
 20
-3.385267999999996
 30
0.0
 11
-0.1895330000036495
 21
-1.622983999999974
 31
0.0
  0
LINE
  5
20C9B
330
1F
100
AcDbEntity
  8
SK1
 48
0.125206
100
AcDbLine
 10
-0.1895330000036495
 20
-1.622983999999974
 30
0.0
 11
-0.1895330000036495
 21
3.385266000000001
 31
0.0
  0
LINE
  5
20C9C
330
1F
100
AcDbEntity
  8
SK1
 48
0.043259
100
AcDbLine
 10
-1.360000000003623
 20
-3.323925999999971
 30
0.0
 11
-1.360000000003623
 21
-1.593574999999987
 31
0.0
  0
LINE
  5
20C9D
330
1F
100
AcDbEntity
  8
SK1
 48
0.122938
100
AcDbLine
 10
-1.360000000003623
 20
-1.593574999999987
 30
0.0
 11
-1.360000000003623
 21
3.323925000000031
 31
0.0
  0
LINE
  5
20C9E
330
1F
100
AcDbEntity
  8
SK1
 48
0.041386
100
AcDbLine
 10
-1.551978000003629
 20
-3.180000999999947
 30
0.0
 11
-1.551978000003629
 21
-1.524573999999972
 31
0.0
  0
ARC
  5
20C9F
330
1F
100
AcDbEntity
  8
SK1
100
AcDbCircle
 10
7.706886999996356
 20
1.199736000000029
 30
0.0
 40
9.276099999999999
100
AcDbArc
 50
183.5648379999995
 51
187.4316580000003
  0
SPLINE
  5
20CA0
330
1F
100
AcDbEntity
  8
SK1
100
AcDbSpline
210
0.0
220
0.0
230
1.0
 70
     8
 71
     5
 72
    18
 73
    12
 74
     0
 42
0.000000001
 43
0.0000000001
 40
0.0
 40
0.0
 40
0.0
 40
0.0
 40
0.0
 40
0.0
 40
0.2520344321007807
 40
0.2520344321007807
 40
0.2520344321007807
 40
0.5037530533608514
 40
0.5037530533608514
 40
0.5037530533608514
 40
1.244971096272852
 40
1.244971096272852
 40
1.244971096272852
 40
1.244971096272852
 40
1.244971096272852
 40
1.244971096272852
 10
-1.490781177182242
 20
-0.0000005313986549
 30
0.0
 10
-1.486072642440603
 20
-0.0281596513395925
 30
0.0
 10
-1.481650775380956
 20
-0.056372493519234
 30
0.0
 10
-1.477199098744648
 20
-0.0850799914127834
 30
0.0
 10
-1.476788039156957
 20
-0.1420196275878993
 30
0.0
 10
-1.481498304949582
 20
-0.1985579672973472
 30
0.0
 10
-1.483606240741949
 20
-0.2267586164284694
 30
0.0
 10
-1.492438884963917
 20
-0.3379253097466517
 30
0.0
 10
-1.500638854316008
 20
-0.4488062597202998
 30
0.0
 10
-1.505380885819363
 20
-0.5368973401057247
 30
0.0
 10
-1.508092751558336
 20
-0.6194264408667323
 30
0.0
 10
-1.507965958741436
 20
-0.701628790296013
 30
0.0
  0
ARC
  5
20CA1
330
1F
100
AcDbEntity
  8
SK1
100
AcDbCircle
 10
-9.606515000003639
 20
-0.7201440000000048
 30
0.0
 40
8.098546
100
AcDbArc
 50
355.7589529999986
 51
0.1309899999994465
  0
ARC
  5
20CA2
330
1F
100
AcDbEntity
  8
SK1
100
AcDbCircle
 10
-1.938217000003646
 20
-1.293754999999976
 30
0.0
 40
0.408756
100
AcDbArc
 50
340.9212950000013
 51
356.4525839999995
  0
LINE
  5
20CA3
330
1F
100
AcDbEntity
  8
SK1
 48
0.002431
100
AcDbLine
 10
-1.551978000003629
 20
-1.524573999999972
 30
0.0
 11
-1.551978000003629
 21
-1.427340999999955
 31
0.0
  0
LINE
  5
20CA4
330
1F
100
AcDbEntity
  8
SK1
 48
0.063927
100
AcDbLine
 10
-1.551978000003629
 20
0.6229220000000169
 30
0.0
 11
-1.551978000003629
 21
3.179999000000066
 31
0.0
  0
ARC
  5
20CA5
330
1F
100
AcDbEntity
  8
SK1
100
AcDbCircle
 10
-2.614738000003626
 20
-3.158454000000006
 30
0.0
 40
0.021587
100
AcDbArc
 50
230.9284989999986
 51
267.9662070000002
  0
SPLINE
  5
20CA6
330
1F
100
AcDbEntity
  8
SK1
100
AcDbSpline
210
0.0
220
0.0
230
1.0
 70
     8
 71
     5
 72
    18
 73
    12
 74
     0
 42
0.000000001
 43
0.0000000001
 40
0.0
 40
0.0
 40
0.0
 40
0.0
 40
0.0
 40
0.0
 40
1.199971652846707
 40
1.199971652846707
 40
1.199971652846707
 40
2.586927024812398
 40
2.586927024812398
 40
2.586927024812398
 40
4.808152377815101
 40
4.808152377815101
 40
4.808152377815101
 40
4.808152377815101
 40
4.808152377815101
 40
4.808152377815101
 10
-2.628363669994314
 20
-3.175238194780035
 30
0.0
 10
-2.641202683712492
 20
-3.165729428791792
 30
0.0
 10
-2.654046075860605
 20
-3.144378818949348
 30
0.0
 10
-2.667017875640965
 20
-3.110340036890534
 30
0.0
 10
-2.693463649089608
 20
-3.01910105770213
 30
0.0
 10
-2.720063505203142
 20
-2.880215011864038
 30
0.0
 10
-2.735481454001302
 20
-2.785076702518722
 30
0.0
 10
-2.771961806360366
 20
-2.527262957119944
 30
0.0
 10
-2.806918607057355
 20
-2.206520594047958
 30
0.0
 10
-2.827902260623119
 20
-1.989982155863685
 30
0.0
 10
-2.848183525014462
 20
-1.762180418679349
 30
0.0
 10
-2.868104303024381
 20
-1.524573744159965
 30
0.0
  0
ARC
  5
20CA7
330
1F
100
AcDbEntity
  8
SK1
100
AcDbCircle
 10
-1.667865000003644
 20
-1.442059999999969
 30
0.0
 40
0.091722
100
AcDbArc
 50
270.1609969999994
 51
295.9206359999981
  0
LINE
  5
20CA8
330
1F
100
AcDbEntity
  8
SK1
 48
0.00958
100
AcDbLine
 10
-1.667608000003639
 20
-1.533739999999966
 30
0.0
 11
-2.050820000003625
 21
-1.533739999999966
 31
0.0
  0
ARC
  5
20CA9
330
1F
100
AcDbEntity
  8
SK1
100
AcDbCircle
 10
-2.049813000003638
 20
-1.433252999999979
 30
0.0
 40
0.100551
100
AcDbArc
 50
245.2085460000005
 51
269.4255400000005
  0
SPLINE
  5
20CAA
330
1F
100
AcDbEntity
  8
SK1
100
AcDbSpline
210
0.0
220
0.0
230
1.0
 70
     8
 71
     5
 72
    30
 73
    24
 74
     0
 42
0.000000001
 43
0.0000000001
 40
0.0
 40
0.0
 40
0.0
 40
0.0
 40
0.0
 40
0.0
 40
1.086071621295969
 40
1.086071621295969
 40
1.086071621295969
 40
1.637580975514939
 40
1.637580975514939
 40
1.637580975514939
 40
2.235169417665788
 40
2.235169417665788
 40
2.235169417665788
 40
4.494454574632746
 40
4.494454574632746
 40
4.494454574632746
 40
6.702602124581102
 40
6.702602124581102
 40
6.702602124581102
 40
8.721757472974839
 40
8.721757472974839
 40
8.721757472974839
 40
10.51577464386159
 40
10.51577464386159
 40
10.51577464386159
 40
10.51577464386159
 40
10.51577464386159
 40
10.51577464386159
 10
-5.827675755310906
 20
-1.524573744159965
 30
0.0
 10
-5.837500576647698
 20
-1.40798066058943
 30
0.0
 10
-5.847260031469602
 20
-1.289003555721649
 30
0.0
 10
-5.856633191892143
 20
-1.171923705748952
 30
0.0
 10
-5.870685661248444
 20
-0.9934629308168041
 30
0.0
 10
-5.884880321165383
 20
-0.809401068406828
 30
0.0
 10
-5.889693329142318
 20
-0.7466200934442213
 30
0.0
 10
-5.899788681147242
 20
-0.6142518911487969
 30
0.0
 10
-5.909902831313416
 20
-0.480429726600903
 30
0.0
 10
-5.91311892651106
 20
-0.4377309429402772
 30
0.0
 10
-5.938182698996996
 20
-0.1041018661101134
 30
0.0
 10
-5.963169270778621
 20
0.2324052736851172
 30
0.0
 10
-5.982931469903775
 20
0.4979465474877998
 30
0.0
 10
-6.022017248004544
 20
1.015694439674575
 30
0.0
 10
-6.0615977256343
 20
1.507832874262135
 30
0.0
 10
-6.080617892766923
 20
1.732915944127626
 30
0.0
 10
-6.118853891571916
 20
2.154143168755979
 30
0.0
 10
-6.158863829330755
 20
2.515671039968765
 30
0.0
 10
-6.179328214963732
 20
2.67845893389483
 30
0.0
 10
-6.21794342617758
 20
2.935650134570948
 30
0.0
 10
-6.258193067404278
 20
3.100002034371641
 30
0.0
 10
-6.277387046126563
 20
3.153392145222937
 30
0.0
 10
-6.296666750729428
 20
3.179982682001309
 30
0.0
 10
-6.315856152075213
 20
3.179999461979036
 30
0.0
  0
ARC
  5
20CAB
330
1F
100
AcDbEntity
  8
SK1
100
AcDbCircle
 10
-6.31509200000363
 20
3.158468000000027
 30
0.0
 40
0.021573
100
AcDbArc
 50
92.03192199999945
 51
129.2800569999977
  0
SPLINE
  5
20CAC
330
1F
100
AcDbEntity
  8
SK1
100
AcDbSpline
210
0.0
220
0.0
230
1.0
 70
     8
 71
     5
 72
    15
 73
     9
 74
     0
 42
0.000000001
 43
0.0000000001
 40
0.0
 40
0.0
 40
0.0
 40
0.0
 40
0.0
 40
0.0
 40
3.485670052272631
 40
3.485670052272631
 40
3.485670052272631
 40
4.806180746055425
 40
4.806180746055425
 40
4.806180746055425
 40
4.806180746055425
 40
4.806180746055425
 40
4.806180746055425
 10
-5.827675755310906
 20
-1.524573744159965
 30
0.0
 10
-5.796143686125901
 20
-1.898770999419411
 30
0.0
 10
-5.763938799243192
 20
-2.24840525204064
 30
0.0
 10
-5.730295691805451
 20
-2.563993022874228
 30
0.0
 10
-5.682094721569683
 20
-2.909932322837335
 30
0.0
 10
-5.63111911645015
 20
-3.100314071057027
 30
0.0
 10
-5.616934534592445
 20
-3.139620197341287
 30
0.0
 10
-5.602658655846994
 20
-3.164631606281261
 30
0.0
 10
-5.588412108040074
 20
-3.175187153316073
 30
0.0
  0
ARC
  5
20CAD
330
1F
100
AcDbEntity
  8
SK1
100
AcDbCircle
 10
-5.574642000003649
 20
-3.158231999999998
 30
0.0
 40
0.021811
100
AcDbArc
 50
230.9189920000011
 51
267.9193879999991
  0
SPLINE
  5
20CAE
330
1F
100
AcDbEntity
  8
SK1
100
AcDbSpline
210
0.0
220
0.0
230
1.0
 70
     8
 71
     5
 72
    33
 73
    27
 74
     0
 42
0.000000001
 43
0.0000000001
 40
0.0
 40
0.0
 40
0.0
 40
0.0
 40
0.0
 40
0.0
 40
1.042673036376178
 40
1.042673036376178
 40
1.042673036376178
 40
1.595566630268388
 40
1.595566630268388
 40
1.595566630268388
 40
2.109711839356806
 40
2.109711839356806
 40
2.109711839356806
 40
4.291137345977366
 40
4.291137345977366
 40
4.291137345977366
 40
5.437322115283336
 40
5.437322115283336
 40
5.437322115283336
 40
7.524977371171797
 40
7.524977371171797
 40
7.524977371171797
 40
8.47533056176273
 40
8.47533056176273
 40
8.47533056176273
 40
10.19687052185172
 40
10.19687052185172
 40
10.19687052185172
 40
10.19687052185172
 40
10.19687052185172
 40
10.19687052185172
 10
-4.347742937505756
 20
-1.524573744159965
 30
0.0
 10
-4.35714700430725
 20
-1.412679206794621
 30
0.0
 10
-4.366490648749248
 20
-1.298576406093957
 30
0.0
 10
-4.376810885013355
 20
-1.169992345981086
 30
0.0
 10
-4.3919386716139
 20
-0.9773787984199771
 30
0.0
 10
-4.406515563854298
 20
-0.7874527013619855
 30
0.0
 10
-4.411472341991384
 20
-0.7224107731229879
 30
0.0
 10
-4.42083567182783
 20
-0.598843211796293
 30
0.0
 10
-4.430146895364288
 20
-0.4748024252918981
 30
0.0
 10
-4.436326787254273
 20
-0.3921321210508495
 30
0.0
 10
-4.459813684353179
 20
-0.0768861084317223
 30
0.0
 10
-4.483210860766888
 20
0.2405441284336121
 30
0.0
 10
-4.502175549237421
 20
0.4965923984284473
 30
0.0
 10
-4.531283050858974
 20
0.8825303567920173
 30
0.0
 10
-4.560880262170854
 20
1.255264332923445
 30
0.0
 10
-4.567878877297289
 20
1.341704861565744
 30
0.0
 10
-4.59692028890268
 20
1.692632513995647
 30
0.0
 10
-4.628678525720289
 20
2.042986627855555
 30
0.0
 10
-4.651308136628841
 20
2.272422103324061
 30
0.0
 10
-4.683458149123822
 20
2.556247563863735
 30
0.0
 10
-4.714213844408533
 20
2.771495749045641
 30
0.0
 10
-4.724710919069394
 20
2.838595294163724
 30
0.0
 10
-4.752243361621964
 20
2.99639027614836
 30
0.0
 10
-4.780572194356381
 20
3.106886654945697
 30
0.0
 10
-4.799065713022912
 20
3.15566816715301
 30
0.0
 10
-4.817623180153589
 20
3.180000412311528
 30
0.0
 10
-4.836088667754665
 20
3.179999468578444
 30
0.0
  0
ARC
  5
20CAF
330
1F
100
AcDbEntity
  8
SK1
100
AcDbCircle
 10
-4.835300000003627
 20
3.158243000000027
 30
0.0
 40
0.021799
100
AcDbArc
 50
92.07608600000019
 51
129.2945200000009
  0
SPLINE
  5
20CB0
330
1F
100
AcDbEntity
  8
SK1
100
AcDbSpline
210
0.0
220
0.0
230
1.0
 70
     8
 71
     5
 72
    15
 73
     9
 74
     0
 42
0.000000001
 43
0.0000000001
 40
0.0
 40
0.0
 40
0.0
 40
0.0
 40
0.0
 40
0.0
 40
3.511267818872526
 40
3.511267818872526
 40
3.511267818872526
 40
4.836792011886858
 40
4.836792011886858
 40
4.836792011886858
 40
4.836792011886858
 40
4.836792011886858
 40
4.836792011886858
 10
-4.347742937505756
 20
-1.524573744159965
 30
0.0
 10
-4.316074143958218
 20
-1.901385721119027
 30
0.0
 10
-4.283718893820832
 20
-2.253168073678921
 30
0.0
 10
-4.250294926062764
 20
-2.566595482443744
 30
0.0
 10
-4.200996457383496
 20
-2.915397637472324
 30
0.0
 10
-4.150281280656088
 20
-3.10240766304787
 30
0.0
 10
-4.136330956353049
 20
-3.140474889023096
 30
0.0
 10
-4.122353519986432
 20
-3.164853228966819
 30
0.0
 10
-4.108349401952324
 20
-3.175222411178992
 30
0.0
  0
ARC
  5
20CB1
330
1F
100
AcDbEntity
  8
SK1
100
AcDbCircle
 10
-4.094668000003622
 20
-3.158359999999959
 30
0.0
 40
0.021683
100
AcDbArc
 50
230.945700000002
 51
267.8577610000003
  0
SPLINE
  5
20CB2
330
1F
100
AcDbEntity
  8
SK1
100
AcDbSpline
210
0.0
220
0.0
230
1.0
 70
     8
 71
     5
 72
    24
 73
    18
 74
     0
 42
0.000000001
 43
0.0000000001
 40
0.0
 40
0.0
 40
0.0
 40
0.0
 40
0.0
 40
0.0
 40
3.302924497788462
 40
3.302924497788462
 40
3.302924497788462
 40
4.402191404431961
 40
4.402191404431961
 40
4.402191404431961
 40
7.64561219068957
 40
7.64561219068957
 40
7.64561219068957
 40
10.01111486909148
 40
10.01111486909148
 40
10.01111486909148
 40
10.43205029411768
 40
10.43205029411768
 40
10.43205029411768
 40
10.43205029411768
 40
10.43205029411768
 40
10.43205029411768
 10
-2.868104303024381
 20
-1.524573744159965
 30
0.0
 10
-2.897726162695249
 20
-1.171256641486365
 30
0.0
 10
-2.926550958427725
 20
-0.7962613551868572
 30
0.0
 10
-2.953716826953723
 20
-0.4293612639888807
 30
0.0
 10
-2.991674314301377
 20
0.0868048483489474
 30
0.0
 10
-3.030236084557799
 20
0.5985240566055836
 30
0.0
 10
-3.041035546394283
 20
0.7404683382220583
 30
0.0
 10
-3.079368692875704
 20
1.23798587140061
 30
0.0
 10
-3.11850333114728
 20
1.714910966823595
 30
0.0
 10
-3.147559128265129
 20
2.042905492208376
 30
0.0
 10
-3.200690201588571
 20
2.5647963158641
 30
0.0
 10
-3.25779912712764
 20
2.933651332092608
 30
0.0
 10
-3.282486744929855
 20
3.054827757527618
 30
0.0
 10
-3.312368197643678
 20
3.146727627032305
 30
0.0
 10
-3.342394889137182
 20
3.175622594492949
 30
0.0
 10
-3.346936158616728
 20
3.178539725273481
 30
0.0
 10
-3.35147111427733
 20
3.179997217323489
 30
0.0
 10
-3.35600191785403
 20
3.179999466428853
 30
0.0
  0
ARC
  5
20CB3
330
1F
100
AcDbEntity
  8
SK1
100
AcDbCircle
 10
-3.355219000003643
 20
3.158095000000002
 30
0.0
 40
0.021946
100
AcDbArc
 50
92.04662699999921
 51
129.2854809999993
  0
ARC
  5
20CB4
330
1F
100
AcDbEntity
  8
SK1
100
AcDbCircle
 10
-1.874896000003644
 20
3.158033000000045
 30
0.0
 40
0.022008
100
AcDbArc
 50
92.06652099999958
 51
129.237214999999
  0
SPLINE
  5
20CB5
330
1F
100
AcDbEntity
  8
SK1
100
AcDbSpline
210
0.0
220
0.0
230
1.0
 70
     8
 71
     5
 72
    18
 73
    12
 74
     0
 42
0.000000001
 43
0.0000000001
 40
0.0
 40
0.0
 40
0.0
 40
0.0
 40
0.0
 40
0.0
 40
2.420454722445013
 40
2.420454722445013
 40
2.420454722445013
 40
5.110396377690988
 40
5.110396377690988
 40
5.110396377690988
 40
6.662679188252448
 40
6.662679188252448
 40
6.662679188252448
 40
6.662679188252448
 40
6.662679188252448
 40
6.662679188252448
 10
-1.875688336204916
 20
3.179999467630523
 30
0.0
 10
-1.849608956287511
 20
3.179990816422105
 30
0.0
 10
-1.823426261300795
 20
3.131800590893362
 30
0.0
 10
-1.797783645470445
 20
3.034430333759303
 30
0.0
 10
-1.745600257298718
 20
2.748382361044718
 30
0.0
 10
-1.696127938894392
 20
2.31837788521318
 30
0.0
 10
-1.670554514459951
 20
2.060225896566521
 30
0.0
 10
-1.631364383074213
 20
1.625293651370213
 30
0.0
 10
-1.593240225065727
 20
1.156298102249479
 30
0.0
 10
-1.579374138980796
 20
0.980759629587169
 30
0.0
 10
-1.565630848642513
 20
0.8027303235121507
 30
0.0
 10
-1.551978231941319
 20
0.62292214687551
 30
0.0
  0
LINE
  5
20CB6
330
1F
100
AcDbEntity
  8
SK1
 48
0.024985
100
AcDbLine
 10
-1.559545000003623
 20
-0.0000009999999975
 30
0.0
 11
-1.63656000000364
 21
0.9964310000000295
 31
0.0
  0
ARC
  5
20CB7
330
1F
100
AcDbEntity
  8
SK1
100
AcDbCircle
 10
-60.93238200000364
 20
-3.672534999999982
 30
0.0
 40
59.47928199999999
100
AcDbArc
 50
4.50219299999816
 51
5.359849000001034
  0
ARC
  5
20CB8
330
1F
100
AcDbEntity
  8
SK1
100
AcDbCircle
 10
-19.91045100000363
 20
0.2191860000000361
 30
0.0
 40
18.273004
100
AcDbArc
 50
5.225583999999318
 51
7.392987999999733
  0
ARC
  5
20CB9
330
1F
100
AcDbEntity
  8
SK1
100
AcDbCircle
 10
-5.183678000003624
 20
2.179953000000068
 30
0.0
 40
3.416002999999999
100
AcDbArc
 50
6.562670000001324
 51
13.71459299999982
  0
SPLINE
  5
20CBA
330
1F
100
AcDbEntity
  8
SK1
100
AcDbSpline
210
0.0
220
0.0
230
1.0
 70
     8
 71
     5
 72
    12
 73
     6
 74
     0
 42
0.000000001
 43
0.0000000001
 40
0.0
 40
0.0
 40
0.0
 40
0.0
 40
0.0
 40
0.0
 40
0.9960793484165918
 40
0.9960793484165918
 40
0.9960793484165918
 40
0.9960793484165918
 40
0.9960793484165918
 40
0.9960793484165918
 10
-1.865572495355507
 20
2.989715100920363
 30
0.0
 10
-1.880402913872842
 20
3.042210708019467
 30
0.0
 10
-1.895527328573109
 20
3.080909184744427
 30
0.0
 10
-1.91086668067868
 20
3.103913315446561
 30
0.0
 10
-1.926310878937783
 20
3.109954756084107
 30
0.0
 10
-1.941704087581484
 20
3.099467391344205
 30
0.0
  0
ARC
  5
20CBB
330
1F
100
AcDbEntity
  8
SK1
100
AcDbCircle
 10
-1.805253000003631
 20
2.976788000000055
 30
0.0
 40
0.184205
100
AcDbArc
 50
138.042165
 51
168.9605869999979
  0
SPLINE
  5
20CBC
330
1F
100
AcDbEntity
  8
SK1
100
AcDbSpline
210
0.0
220
0.0
230
1.0
 70
     8
 71
     5
 72
    24
 73
    18
 74
     0
 42
0.000000001
 43
0.0000000001
 40
0.0
 40
0.0
 40
0.0
 40
0.0
 40
0.0
 40
0.0
 40
1.89108885901472
 40
1.89108885901472
 40
1.89108885901472
 40
5.737159070958707
 40
5.737159070958707
 40
5.737159070958707
 40
9.825382248971363
 40
9.825382248971363
 40
9.825382248971363
 40
11.10590918838343
 40
11.10590918838343
 40
11.10590918838343
 40
11.60265734449625
 40
11.60265734449625
 40
11.60265734449625
 40
11.60265734449625
 40
11.60265734449625
 40
11.60265734449625
 10
-2.726874544600178
 20
-3.011901500470401
 30
0.0
 10
-2.755585634268385
 20
-2.92075945587004
 30
0.0
 10
-2.783260718815029
 20
-2.777061494810823
 30
0.0
 10
-2.809568000593856
 20
-2.592943817698937
 30
0.0
 10
-2.884592984896698
 20
-1.967759984119709
 30
0.0
 10
-2.949972970778134
 20
-1.181177212705335
 30
0.0
 10
-2.990992905637114
 20
-0.6477090746085424
 30
0.0
 10
-3.075796782131845
 20
0.4964647762675441
 30
0.0
 10
-3.163829655871126
 20
1.604483542176922
 30
0.0
 10
-3.215134089201541
 20
2.188694872526468
 30
0.0
 10
-3.287302358383556
 20
2.818716447149881
 30
0.0
 10
-3.369080735953673
 20
3.073789779300057
 30
0.0
 10
-3.388970481840061
 20
3.108760371806795
 30
0.0
 10
-3.416777663863598
 20
3.117006293343933
 30
0.0
 10
-3.44417825897878
 20
3.07289631285937
 30
0.0
 10
-3.451827651868285
 20
3.056486183095557
 30
0.0
 10
-3.459374541625606
 20
3.036356051167558
 30
0.0
 10
-3.466849049071186
 20
3.012655321886768
 30
0.0
  0
SPLINE
  5
20CBD
330
1F
100
AcDbEntity
  8
SK1
100
AcDbSpline
210
0.0
220
0.0
230
1.0
 70
     8
 71
     5
 72
    24
 73
    18
 74
     0
 42
0.000000001
 43
0.0000000001
 40
0.0
 40
0.0
 40
0.0
 40
0.0
 40
0.0
 40
0.0
 40
1.90293189042474
 40
1.90293189042474
 40
1.90293189042474
 40
5.73838770928604
 40
5.73838770928604
 40
5.73838770928604
 40
9.819475465941991
 40
9.819475465941991
 40
9.819475465941991
 40
11.09444965928969
 40
11.09444965928969
 40
11.09444965928969
 40
11.57036682593276
 40
11.57036682593276
 40
11.57036682593276
 40
11.57036682593276
 40
11.57036682593276
 40
11.57036682593276
 10
-4.206805343740597
 20
-3.012012951704946
 30
0.0
 10
-4.23535031852279
 20
-2.921394540749076
 30
0.0
 10
-4.262937459170359
 20
-2.778495274835904
 30
0.0
 10
-4.289269497671909
 20
-2.594447017623224
 30
0.0
 10
-4.364232851918814
 20
-1.969685929326544
 30
0.0
 10
-4.430141314607027
 20
-1.178604766727971
 30
0.0
 10
-4.472259859653348
 20
-0.630835249496613
 30
0.0
 10
-4.557488916886512
 20
0.5177328417481136
 30
0.0
 10
-4.64580815875658
 20
1.626522336418133
 30
0.0
 10
-4.697143245475729
 20
2.209795653791616
 30
0.0
 10
-4.769499174832162
 20
2.8331092042377
 30
0.0
 10
-4.851132002002657
 20
3.078273170236968
 30
0.0
 10
-4.870921462777943
 20
3.110787876696804
 30
0.0
 10
-4.898267517283358
 20
3.115986116636577
 30
0.0
 10
-4.925196932878066
 20
3.070671283086142
 30
0.0
 10
-4.932505921554934
 20
3.054635065092782
 30
0.0
 10
-4.939723090803084
 20
3.035199347095613
 30
0.0
 10
-4.946874614249026
 20
3.012492705004888
 30
0.0
  0
SPLINE
  5
20CBE
330
1F
100
AcDbEntity
  8
SK1
100
AcDbSpline
210
0.0
220
0.0
230
1.0
 70
     8
 71
     5
 72
    24
 73
    18
 74
     0
 42
0.000000001
 43
0.0000000001
 40
0.0
 40
0.0
 40
0.0
 40
0.0
 40
0.0
 40
0.0
 40
1.90071031958887
 40
1.90071031958887
 40
1.90071031958887
 40
5.748361101237094
 40
5.748361101237094
 40
5.748361101237094
 40
9.842179455807157
 40
9.842179455807157
 40
9.842179455807157
 40
11.12486578451195
 40
11.12486578451195
 40
11.12486578451195
 40
11.6078601750756
 40
11.6078601750756
 40
11.6078601750756
 40
11.6078601750756
 40
11.6078601750756
 40
11.6078601750756
 10
-5.686817258996825
 20
-3.012006264681758
 30
0.0
 10
-5.715351935038995
 20
-2.921421046784985
 30
0.0
 10
-5.742940486686251
 20
-2.778568355736297
 30
0.0
 10
-5.769277328996054
 20
-2.594508115197072
 30
0.0
 10
-5.844461357107718
 20
-1.967908260317415
 30
0.0
 10
-5.910492632571674
 20
-1.174325350747267
 30
0.0
 10
-5.952824038339912
 20
-0.6233042493649919
 30
0.0
 10
-6.038273836122726
 20
0.5271544008541583
 30
0.0
 10
-6.126513903768483
 20
1.633401679528446
 30
0.0
 10
-6.176974682974076
 20
2.204529446695005
 30
0.0
 10
-6.248372415559913
 20
2.825603609207519
 30
0.0
 10
-6.329744047387151
 20
3.07566449103399
 30
0.0
 10
-6.349597980779407
 20
3.109758121151912
 30
0.0
 10
-6.37722038334499
 20
3.11666994964878
 30
0.0
 10
-6.404552139668197
 20
3.071617356078832
 30
0.0
 10
-6.412028077511479
 20
3.055398569533338
 30
0.0
 10
-6.419414018881326
 20
3.03561420362098
 30
0.0
 10
-6.426737046511561
 20
3.012395677411007
 30
0.0
  0
LINE
  5
20CBF
330
1F
100
AcDbEntity
  8
SK1
 48
0.017588
100
AcDbLine
 10
-1.559545000003623
 20
-0.0000009999999975
 30
0.0
 11
-1.507966000003648
 21
-0.7016289999999686
 31
0.0
  0
LINE
  5
20CC0
330
1F
100
AcDbEntity
  8
SK1
 48
0.033065
100
AcDbLine
 10
-1.62684900000363
 20
-0.0000009999999975
 30
0.0
 11
-1.530166000003646
 21
-1.319050999999944
 31
0.0
  0
LINE
  5
20CC1
330
1F
100
AcDbEntity
  8
SK1
 48
0.038446
100
AcDbLine
 10
-1.779858000003628
 20
-0.0000009999999975
 30
0.0
 11
-1.667608000003639
 21
-1.533739999999966
 31
0.0
  0
ARC
  5
20CC2
330
1F
100
AcDbEntity
  8
SK1
100
AcDbCircle
 10
-1.711885000003633
 20
-1.383434999999963
 30
0.0
 40
0.165062
100
AcDbArc
 50
300.7962190000002
 51
344.6464220000005
  0
SPLINE
  5
20CC3
330
1F
100
AcDbEntity
  8
SK1
100
AcDbSpline
210
0.0
220
0.0
230
1.0
 70
     8
 71
     5
 72
    18
 73
    12
 74
     0
 42
0.000000001
 43
0.0000000001
 40
0.0
 40
0.0
 40
0.0
 40
0.0
 40
0.0
 40
0.0
 40
0.0465192981926053
 40
0.0465192981926053
 40
0.0465192981926053
 40
0.2303909217738616
 40
0.2303909217738616
 40
0.2303909217738616
 40
0.456118274606814
 40
0.456118274606814
 40
0.456118274606814
 40
0.456118274606814
 40
0.456118274606814
 40
0.456118274606814
 10
-2.091992021412437
 20
-1.524573744159965
 30
0.0
 10
-2.096856089104164
 20
-1.522399441252673
 30
0.0
 10
-2.101718596294773
 20
-1.52022095973632
 30
0.0
 10
-2.106211376957389
 20
-1.517243893436102
 30
0.0
 10
-2.128189135578878
 20
-1.502902808896237
 30
0.0
 10
-2.146572920209393
 20
-1.483998667161415
 30
0.0
 10
-2.159269992745095
 20
-1.467288418899613
 30
0.0
 10
-2.183214559376665
 20
-1.428903513664636
 30
0.0
 10
-2.200264044547537
 20
-1.387285423743492
 30
0.0
 10
-2.208039654690509
 20
-1.363858262218172
 30
0.0
 10
-2.214409889935353
 20
-1.340183810861958
 30
0.0
 10
-2.219598759379778
 20
-1.316278605713591
 30
0.0
  0
ARC
  5
20CC4
330
1F
100
AcDbEntity
  8
SK1
100
AcDbCircle
 10
6.713776999996355
 20
0.6092419999999948
 30
0.0
 40
9.138588999999999
100
AcDbArc
 50
187.5579759999992
 51
192.1635739999977
  0
SPLINE
  5
20CC5
330
1F
100
AcDbEntity
  8
SK1
100
AcDbSpline
210
0.0
220
0.0
230
1.0
 70
     8
 71
     5
 72
    15
 73
     9
 74
     0
 42
0.000000001
 43
0.0000000001
 40
0.0
 40
0.0
 40
0.0
 40
0.0
 40
0.0
 40
0.0
 40
0.831254613376929
 40
0.831254613376929
 40
0.831254613376929
 40
1.038141393825583
 40
1.038141393825583
 40
1.038141393825583
 40
1.038141393825583
 40
1.038141393825583
 40
1.038141393825583
 10
-2.422465811894852
 20
-0.0000005313986549
 30
0.0
 10
-2.415427412812903
 20
-0.095644686474202
 30
0.0
 10
-2.404928072195332
 20
-0.1911196554049184
 30
0.0
 10
-2.391013179467591
 20
-0.2865524035175895
 30
0.0
 10
-2.372542520150176
 20
-0.4047047558701707
 30
0.0
 10
-2.355244130504928
 20
-0.5224537188395289
 30
0.0
 10
-2.35187129228268
 20
-0.5459054858965829
 30
0.0
 10
-2.348602456845156
 20
-0.5693394843860347
 30
0.0
 10
-2.345467967489611
 20
-0.5927577301496854
 30
0.0
  0
SPLINE
  5
20CC6
330
1F
100
AcDbEntity
  8
SK1
100
AcDbSpline
210
0.0
220
0.0
230
1.0
 70
     8
 71
     5
 72
    21
 73
    15
 74
     0
 42
0.000000001
 43
0.0000000001
 40
0.0
 40
0.0
 40
0.0
 40
0.0
 40
0.0
 40
0.0
 40
3.241460650292284
 40
3.241460650292284
 40
3.241460650292284
 40
4.756466052527501
 40
4.756466052527501
 40
4.756466052527501
 40
6.188072265133486
 40
6.188072265133486
 40
6.188072265133486
 40
7.458028454851707
 40
7.458028454851707
 40
7.458028454851707
 40
7.458028454851707
 40
7.458028454851707
 40
7.458028454851707
 10
-2.422465811894852
 20
-0.0000005313986549
 30
0.0
 10
-2.450653850872868
 20
0.3805482961035977
 30
0.0
 10
-2.478842519997556
 20
0.761096708709033
 30
0.0
 10
-2.505957669940755
 20
1.119795902890018
 30
0.0
 10
-2.548491538478316
 20
1.64680618551182
 30
0.0
 10
-2.593071686226579
 20
2.115567873161808
 30
0.0
 10
-2.607538701299375
 20
2.25798456114478
 30
0.0
 10
-2.63599905800774
 20
2.51658549040826
 30
0.0
 10
-2.665327579381596
 20
2.735495470479008
 30
0.0
 10
-2.679331490262256
 20
2.827967267038729
 30
0.0
 10
-2.706374269908479
 20
2.982308978866683
 30
0.0
 10
-2.733734388222842
 20
3.088770622995639
 30
0.0
 10
-2.746817766759932
 20
3.128193188547697
 30
0.0
 10
-2.760067054118366
 20
3.155455436193051
 30
0.0
 10
-2.773470364022756
 20
3.169922918230099
 30
0.0
  0
ARC
  5
20CC7
330
1F
100
AcDbEntity
  8
SK1
100
AcDbCircle
 10
-2.794522000003638
 20
3.153815000000008
 30
0.0
 40
0.026393
100
AcDbArc
 50
37.42189299999956
 51
84.7875479999999
  0
LINE
  5
20CC8
330
1F
100
AcDbEntity
  8
SK1
 48
0.038446
100
AcDbLine
 10
-2.163070000003642
 20
-0.0000009999999975
 30
0.0
 11
-2.050820000003625
 21
-1.533739999999966
 31
0.0
  0
LINE
  5
20CC9
330
1F
100
AcDbEntity
  8
SK1
 48
0.032995
100
AcDbLine
 10
-2.316079000003639
 20
-0.0000009999999975
 30
0.0
 11
-2.219599000003626
 21
-1.316279000000008
 31
0.0
  0
SPLINE
  5
20CCA
330
1F
100
AcDbEntity
  8
SK1
100
AcDbSpline
210
0.0
220
0.0
230
1.0
 70
     8
 71
     5
 72
    33
 73
    27
 74
     0
 42
0.000000001
 43
0.0000000001
 40
0.0
 40
0.0
 40
0.0
 40
0.0
 40
0.0
 40
0.0
 40
1.002138448942342
 40
1.002138448942342
 40
1.002138448942342
 40
1.533375035422596
 40
1.533375035422596
 40
1.533375035422596
 40
2.010545444375364
 40
2.010545444375364
 40
2.010545444375364
 40
4.105348991735288
 40
4.105348991735288
 40
4.105348991735288
 40
5.119185998628973
 40
5.119185998628973
 40
5.119185998628973
 40
7.141834274375844
 40
7.141834274375844
 40
7.141834274375844
 40
8.098125958291616
 40
8.098125958291616
 40
8.098125958291616
 40
9.771502861258063
 40
9.771502861258063
 40
9.771502861258063
 40
9.771502861258063
 40
9.771502861258063
 40
9.771502861258063
 10
-5.264623849708129
 20
-1.524573744160022
 30
0.0
 10
-5.273733674072076
 20
-1.417032658590301
 30
0.0
 10
-5.282767058952885
 20
-1.307450768443004
 30
0.0
 10
-5.292612669151111
 20
-1.185240320678758
 30
0.0
 10
-5.307164730000579
 20
-1.000527747246792
 30
0.0
 10
-5.32124922755915
 20
-0.8174493174615236
 30
0.0
 10
-5.32604632034301
 20
-0.7546455279581324
 30
0.0
 10
-5.334964229775948
 20
-0.6372240951018853
 30
0.0
 10
-5.343745405479324
 20
-0.5205041340590242
 30
0.0
 10
-5.350279972193419
 20
-0.4332559504345568
 30
0.0
 10
-5.372699935971041
 20
-0.1327940157304965
 30
0.0
 10
-5.395025749102984
 20
0.1700319541064346
 30
0.0
 10
-5.413227393931606
 20
0.4162162228180364
 30
0.0
 10
-5.440374367942439
 20
0.777996791582325
 30
0.0
 10
-5.467901905860543
 20
1.129513465340949
 30
0.0
 10
-5.477893359353117
 20
1.254756659742383
 30
0.0
 10
-5.504920141982694
 20
1.586431054340209
 30
0.0
 10
-5.533633279437708
 20
1.912985679763949
 30
0.0
 10
-5.554416049045755
 20
2.134777651067793
 30
0.0
 10
-5.586222989791025
 20
2.434939335433739
 30
0.0
 10
-5.616969299849358
 20
2.671677889342277
 30
0.0
 10
-5.626131241045698
 20
2.736924972443546
 30
0.0
 10
-5.652757314911809
 20
2.911575813353806
 30
0.0
 10
-5.680032000954156
 20
3.043816939970952
 30
0.0
 10
-5.697624221367533
 20
3.108215252853995
 30
0.0
 10
-5.715409523799905
 20
3.150409388927528
 30
0.0
 10
-5.733278437416061
 20
3.169774330616235
 30
0.0
  0
ARC
  5
20CCB
330
1F
100
AcDbEntity
  8
SK1
100
AcDbCircle
 10
-5.754568000003644
 20
3.153572000000053
 30
0.0
 40
0.026637
100
AcDbArc
 50
37.27258000000182
 51
84.82402700000056
  0
SPLINE
  5
20CCC
330
1F
100
AcDbEntity
  8
SK1
100
AcDbSpline
210
0.0
220
0.0
230
1.0
 70
     8
 71
     5
 72
    15
 73
     9
 74
     0
 42
0.000000001
 43
0.0000000001
 40
0.0
 40
0.0
 40
0.0
 40
0.0
 40
0.0
 40
0.0
 40
3.684233553628946
 40
3.684233553628946
 40
3.684233553628946
 40
5.074231437312818
 40
5.074231437312818
 40
5.074231437312818
 40
5.074231437312818
 40
5.074231437312818
 40
5.074231437312818
 10
-5.264623849708129
 20
-1.524573744159965
 30
0.0
 10
-5.23113274812951
 20
-1.919934760661988
 30
0.0
 10
-5.196607164590602
 20
-2.287727336430521
 30
0.0
 10
-5.160709745746885
 20
-2.615947825736498
 30
0.0
 10
-5.109253657182989
 20
-2.966691299378908
 30
0.0
 10
-5.056425292254317
 20
-3.133503795517128
 30
0.0
 10
-5.041860881918552
 20
-3.164429250349598
 30
0.0
 10
-5.027205548481219
 20
-3.180000507437512
 30
0.0
 10
-5.012473502685708
 20
-3.180000531398604
 30
0.0
  0
ARC
  5
20CCD
330
1F
100
AcDbEntity
  8
SK1
100
AcDbCircle
 10
-5.01488500000363
 20
-3.153558999999972
 30
0.0
 40
0.026652
100
AcDbArc
 50
275.2108780000006
 51
322.4743390000007
  0
ARC
  5
20CCE
330
1F
100
AcDbEntity
  8
SK1
100
AcDbCircle
 10
-4.274591000003624
 20
3.153651000000024
 30
0.0
 40
0.02656
100
AcDbArc
 50
37.35714200000091
 51
84.72616699999994
  0
SPLINE
  5
20CCF
330
1F
100
AcDbEntity
  8
SK1
100
AcDbSpline
210
0.0
220
0.0
230
1.0
 70
     8
 71
     5
 72
    21
 73
    15
 74
     0
 42
0.000000001
 43
0.0000000001
 40
0.0
 40
0.0
 40
0.0
 40
0.0
 40
0.0
 40
0.0
 40
3.14482681095765
 40
3.14482681095765
 40
3.14482681095765
 40
6.226876105622548
 40
6.226876105622548
 40
6.226876105622548
 40
7.378440918481134
 40
7.378440918481134
 40
7.378440918481134
 40
10.17132648055896
 40
10.17132648055896
 40
10.17132648055896
 40
10.17132648055896
 40
10.17132648055896
 40
10.17132648055896
 10
-4.253387195967945
 20
3.169837623597231
 30
0.0
 10
-4.219800817851108
 20
3.133504442531432
 30
0.0
 10
-4.186630455447954
 20
3.016471877631772
 30
0.0
 10
-4.15416485504673
 20
2.823575055903518
 30
0.0
 10
-4.092188075243086
 20
2.340164902558171
 30
0.0
 10
-4.03406821184231
 20
1.710127917974375
 30
0.0
 10
-4.00672246975543
 20
1.381778829548466
 30
0.0
 10
-3.969343044031745
 20
0.9026585283304484
 30
0.0
 10
-3.932701129896599
 20
0.4111510801598684
 30
0.0
 10
-3.92597902266047
 20
0.3203045690929684
 30
0.0
 10
-3.892019940539114
 20
-0.140056875090977
 30
0.0
 10
-3.858581155921427
 20
-0.5937781812756385
 30
0.0
 10
-3.834626797709546
 20
-0.9115863039353371
 30
0.0
 10
-3.80985444269379
 20
-1.22582875508931
 30
0.0
 10
-3.784543462161764
 20
-1.524573744159965
 30
0.0
  0
ARC
  5
20CD0
330
1F
100
AcDbEntity
  8
SK1
100
AcDbCircle
 10
-3.534853000003636
 20
-3.153287999999974
 30
0.0
 40
0.026927
100
AcDbArc
 50
275.2759880000003
 51
322.5587030000018
  0
SPLINE
  5
20CD1
330
1F
100
AcDbEntity
  8
SK1
100
AcDbSpline
210
0.0
220
0.0
230
1.0
 70
     8
 71
     5
 72
    18
 73
    12
 74
     0
 42
0.000000001
 43
0.0000000001
 40
0.0
 40
0.0
 40
0.0
 40
0.0
 40
0.0
 40
0.0
 40
1.40209928461355
 40
1.40209928461355
 40
1.40209928461355
 40
2.862929503374862
 40
2.862929503374862
 40
2.862929503374862
 40
5.058923315079479
 40
5.058923315079479
 40
5.058923315079479
 40
5.058923315079479
 40
5.058923315079479
 40
5.058923315079479
 10
-3.532385934716984
 20
-3.18000052603628
 30
0.0
 10
-3.547489500647145
 20
-3.180012325104883
 30
0.0
 10
-3.562574395501712
 20
-3.163797800400573
 30
0.0
 10
-3.577376966587394
 20
-3.131097450362688
 30
0.0
 10
-3.606694308920708
 20
-3.037998321350642
 30
0.0
 10
-3.635818585562759
 20
-2.887007739241425
 30
0.0
 10
-3.65186444126644
 20
-2.787184962398328
 30
0.0
 10
-3.688401534690655
 20
-2.52518289583827
 30
0.0
 10
-3.723616877545794
 20
-2.199101137765524
 30
0.0
 10
-3.744407390198063
 20
-1.984787097388448
 30
0.0
 10
-3.76464191038633
 20
-1.759471355499613
 30
0.0
 10
-3.784543462161764
 20
-1.524573744159965
 30
0.0
  0
LINE
  5
20CD2
330
1F
100
AcDbEntity
  8
SK1
 48
0.023282
100
AcDbLine
 10
-1.62684900000363
 20
-0.0000009999999975
 30
0.0
 11
-1.704064000003626
 21
0.9280630000000655
 31
0.0
  0
ARC
  5
20CD3
330
1F
100
AcDbEntity
  8
SK1
100
AcDbCircle
 10
-52.72447000000363
 20
-3.39669299999997
 30
0.0
 40
51.203299
100
AcDbArc
 50
4.845106999997798
 51
5.773003999997975
  0
ARC
  5
20CD4
330
1F
100
AcDbEntity
  8
SK1
100
AcDbCircle
 10
-17.38725900000364
 20
0.2161370000000033
 30
0.0
 40
15.681722
100
AcDbArc
 50
5.626775000000798
 51
7.976284999998404
  0
ARC
  5
20CD5
330
1F
100
AcDbEntity
  8
SK1
100
AcDbCircle
 10
-4.748515000003635
 20
2.033684999999991
 30
0.0
 40
2.912687
100
AcDbArc
 50
7.068164000000734
 51
14.85365200000133
  0
SPLINE
  5
20CD6
330
1F
100
AcDbEntity
  8
SK1
100
AcDbSpline
210
0.0
220
0.0
230
1.0
 70
     8
 71
     5
 72
    12
 73
     6
 74
     0
 42
0.000000001
 43
0.0000000001
 40
0.0
 40
0.0
 40
0.0
 40
0.0
 40
0.0
 40
0.0
 40
0.996898743910698
 40
0.996898743910698
 40
0.996898743910698
 40
0.996898743910698
 40
0.996898743910698
 40
0.996898743910698
 10
-1.933667095579437
 20
2.78022089274242
 30
0.0
 10
-1.948591700121568
 20
2.828710335365599
 30
0.0
 10
-1.963773835048954
 20
2.86406243613294
 30
0.0
 10
-1.979139567410726
 20
2.884660591485385
 30
0.0
 10
-1.994592531340288
 20
2.889495023504537
 30
0.0
 10
-2.009999051211963
 20
2.878949883973405
 30
0.0
  0
ARC
  5
20CD7
330
1F
100
AcDbEntity
  8
SK1
100
AcDbCircle
 10
-1.914260000003622
 20
2.78090400000002
 30
0.0
 40
0.137457
100
AcDbArc
 50
134.3179889999987
 51
164.3697429999991
  0
SPLINE
  5
20CD8
330
1F
100
AcDbEntity
  8
SK1
100
AcDbSpline
210
0.0
220
0.0
230
1.0
 70
     8
 71
     5
 72
    24
 73
    18
 74
     0
 42
0.000000001
 43
0.0000000001
 40
0.0
 40
0.0
 40
0.0
 40
0.0
 40
0.0
 40
0.0
 40
1.963884412913489
 40
1.963884412913489
 40
1.963884412913489
 40
5.649373611769467
 40
5.649373611769467
 40
5.649373611769467
 40
9.541206451524523
 40
9.541206451524523
 40
9.541206451524523
 40
10.81935793407218
 40
10.81935793407218
 40
10.81935793407218
 40
11.17755102023719
 40
11.17755102023719
 40
11.17755102023719
 40
11.17755102023719
 40
11.17755102023719
 40
11.17755102023719
 10
-2.798372226529806
 20
-2.785437561648507
 30
0.0
 10
-2.828194413609594
 20
-2.691201798119323
 30
0.0
 10
-2.856981604181072
 20
-2.544539466054175
 30
0.0
 10
-2.884422769069487
 20
-2.357482221351858
 30
0.0
 10
-2.958901831989834
 20
-1.755256953228467
 30
0.0
 10
-3.024941669651639
 20
-1.007463613301865
 30
0.0
 10
-3.065803445088647
 20
-0.5092123882668034
 30
0.0
 10
-3.149778419888747
 20
0.5451564467743993
 30
0.0
 10
-3.237297646224703
 20
1.556451151622582
 30
0.0
 10
-3.288015605963806
 20
2.083483658774355
 30
0.0
 10
-3.359429069044153
 20
2.640011599832007
 30
0.0
 10
-3.43859699212814
 20
2.860359684734248
 30
0.0
 10
-3.458479462799544
 20
2.890400573039073
 30
0.0
 10
-3.484061749812127
 20
2.894572885607999
 30
0.0
 10
-3.509312307299978
 20
2.85759371582543
 30
0.0
 10
-3.514831552424254
 20
2.84753619559342
 30
0.0
 10
-3.520311453981491
 20
2.835618621266178
 30
0.0
 10
-3.525761400905992
 20
2.821884755100882
 30
0.0
  0
SPLINE
  5
20CD9
330
1F
100
AcDbEntity
  8
SK1
100
AcDbSpline
210
0.0
220
0.0
230
1.0
 70
     8
 71
     5
 72
    24
 73
    18
 74
     0
 42
0.000000001
 43
0.0000000001
 40
0.0
 40
0.0
 40
0.0
 40
0.0
 40
0.0
 40
0.0
 40
1.974355009656909
 40
1.974355009656909
 40
1.974355009656909
 40
5.653977611895878
 40
5.653977611895878
 40
5.653977611895878
 40
9.544243045850167
 40
9.544243045850167
 40
9.544243045850167
 40
10.85277776232557
 40
10.85277776232557
 40
10.85277776232557
 40
11.16208685856907
 40
11.16208685856907
 40
11.16208685856907
 40
11.16208685856907
 40
11.16208685856907
 40
11.16208685856907
 10
-4.278230830220508
 20
-2.785767629153838
 30
0.0
 10
-4.307860277180537
 20
-2.692230072349389
 30
0.0
 10
-4.336544994233975
 20
-2.546552727164907
 30
0.0
 10
-4.364010278136504
 20
-2.359713326143605
 30
0.0
 10
-4.438553278820506
 20
-1.757276522250663
 30
0.0
 10
-4.505203587261348
 20
-1.004091763672931
 30
0.0
 10
-4.547362249742121
 20
-0.4900367455552442
 30
0.0
 10
-4.631891331118424
 20
0.570095153036391
 30
0.0
 10
-4.719840389452542
 20
1.582848147262438
 30
0.0
 10
-4.770658037871669
 20
2.108677865177071
 30
0.0
 10
-4.842871972448534
 20
2.661441553550275
 30
0.0
 10
-4.922600132433245
 20
2.868768306524259
 30
0.0
 10
-4.942954429851397
 20
2.89497505627645
 30
0.0
 10
-4.968200229502969
 20
2.892629034229003
 30
0.0
 10
-4.993065423464258
 20
2.85060568069008
 30
0.0
 10
-4.997810425217096
 20
2.841130354604388
 30
0.0
 10
-5.002527016765213
 20
2.830284078450972
 30
0.0
 10
-5.007221122051589
 20
2.818094147018996
 30
0.0
  0
SPLINE
  5
20CDA
330
1F
100
AcDbEntity
  8
SK1
100
AcDbSpline
210
0.0
220
0.0
230
1.0
 70
     8
 71
     5
 72
    24
 73
    18
 74
     0
 42
0.000000001
 43
0.0000000001
 40
0.0
 40
0.0
 40
0.0
 40
0.0
 40
0.0
 40
0.0
 40
1.97218395108049
 40
1.97218395108049
 40
1.97218395108049
 40
5.663745096447286
 40
5.663745096447286
 40
5.663745096447286
 40
9.56667617498347
 40
9.56667617498347
 40
9.56667617498347
 40
10.88250407435179
 40
10.88250407435179
 40
10.88250407435179
 40
11.19982518708198
 40
11.19982518708198
 40
11.19982518708198
 40
11.19982518708198
 40
11.19982518708198
 40
11.19982518708198
 10
-5.758306608092453
 20
-2.785559858902388
 30
0.0
 10
-5.787927276492695
 20
-2.691956693867496
 30
0.0
 10
-5.816614600389272
 20
-2.546228249279693
 30
0.0
 10
-5.844085509394716
 20
-2.359289196784288
 30
0.0
 10
-5.918841635414452
 20
-1.754912467441272
 30
0.0
 10
-5.985611159788476
 20
-0.9993676317016024
 30
0.0
 10
-6.027998140296858
 20
-0.482182737797757
 30
0.0
 10
-6.1127307291232
 20
0.5793594070569271
 30
0.0
 10
-6.200547324824782
 20
1.589156074663321
 30
0.0
 10
-6.250495442738866
 20
2.104173727980651
 30
0.0
 10
-6.321782767712079
 20
2.655224586473877
 30
0.0
 10
-6.401314896145379
 20
2.866798881550721
 30
0.0
 10
-6.421742866451722
 20
2.894398744686952
 30
0.0
 10
-6.447291811759839
 20
2.893291746648401
 30
0.0
 10
-6.472558849142274
 20
2.851214240381693
 30
0.0
 10
-6.477463044365748
 20
2.841497199948548
 30
0.0
 10
-6.482339793320988
 20
2.830313039406291
 30
0.0
 10
-6.487195393793228
 20
2.817689584959111
 30
0.0
  0
LINE
  5
20CDB
330
1F
100
AcDbEntity
  8
SK1
 48
0.007897
100
AcDbLine
 10
-6.650000000003643
 20
2.264416000000039
 30
0.0
 11
-6.650000000003643
 21
2.580287999999995
 31
0.0
  0
ARC
  5
20CDC
330
1F
100
AcDbEntity
  8
SK1
100
AcDbCircle
 10
1.273233999996364
 20
2.359496000000035
 30
0.0
 40
7.864975
100
AcDbArc
 50
177.0453530000003
 51
179.6754170000007
  0
LINE
  5
20CDD
330
1F
100
AcDbEntity
  8
SK1
 48
0.000083
100
AcDbLine
 10
-6.580825000003642
 20
2.76833700000003
 30
0.0
 11
-6.580821000003624
 21
2.765017000000057
 31
0.0
  0
LINE
  5
20CDE
330
1F
100
AcDbEntity
  8
SK1
 48
0.000056
100
AcDbLine
 10
-6.580740000003629
 20
2.770577000000002
 30
0.0
 11
-6.580825000003642
 21
2.76833700000003
 31
0.0
  0
LINE
  5
20CDF
330
1F
100
AcDbEntity
  8
SK1
 48
0.021885
100
AcDbLine
 10
-1.779858000003628
 20
-0.0000009999999975
 30
0.0
 11
-1.855325000003631
 21
0.8721420000000534
 31
0.0
  0
ARC
  5
20CE0
330
1F
100
AcDbEntity
  8
SK1
100
AcDbCircle
 10
-50.85094000000364
 20
-3.445370999999965
 30
0.0
 40
49.18541
100
AcDbArc
 50
5.035917999998314
 51
5.948839000000047
  0
ARC
  5
20CE1
330
1F
100
AcDbEntity
  8
SK1
100
AcDbCircle
 10
-17.48544500000363
 20
0.0676090000000613
 30
0.0
 40
15.635342
100
AcDbArc
 50
5.816737999999459
 51
8.07380400000104
  0
ARC
  5
20CE2
330
1F
100
AcDbEntity
  8
SK1
100
AcDbCircle
 10
-5.185283000003636
 20
1.854539000000045
 30
0.0
 40
3.205795999999998
100
AcDbArc
 50
7.32899600000107
 51
14.33766900000071
  0
SPLINE
  5
20CE3
330
1F
100
AcDbEntity
  8
SK1
100
AcDbSpline
210
0.0
220
0.0
230
1.0
 70
     8
 71
     5
 72
    12
 73
     6
 74
     0
 42
0.000000001
 43
0.0000000001
 40
0.0
 40
0.0
 40
0.0
 40
0.0
 40
0.0
 40
0.0
 40
0.9183971938757119
 40
0.9183971938757119
 40
0.9183971938757119
 40
0.9183971938757119
 40
0.9183971938757119
 40
0.9183971938757119
 10
-2.079758366949988
 20
2.648302509756035
 30
0.0
 10
-2.093454353042744
 20
2.695601687467899
 30
0.0
 10
-2.107367170397708
 20
2.732441313443928
 30
0.0
 10
-2.12145202098361
 20
2.757618644199965
 30
0.0
 10
-2.13564282632646
 20
2.770225794017164
 30
0.0
 10
-2.149846165697709
 20
2.770225798885007
 30
0.0
  0
SPLINE
  5
20CE4
330
1F
100
AcDbEntity
  8
SK1
100
AcDbSpline
210
0.0
220
0.0
230
1.0
 70
     8
 71
     5
 72
    24
 73
    18
 74
     0
 42
0.000000001
 43
0.0000000001
 40
0.0
 40
0.0
 40
0.0
 40
0.0
 40
0.0
 40
0.0
 40
1.918598393298639
 40
1.918598393298639
 40
1.918598393298639
 40
6.712177435830744
 40
6.712177435830744
 40
6.712177435830744
 40
9.895105434198283
 40
9.895105434198283
 40
9.895105434198283
 40
11.16977557107368
 40
11.16977557107368
 40
11.16977557107368
 40
11.24432988738325
 40
11.24432988738325
 40
11.24432988738325
 40
11.24432988738325
 40
11.24432988738325
 40
11.24432988738325
 10
-2.889790890033737
 20
-2.770056592832474
 30
0.0
 10
-2.919773647806408
 20
-2.770056513997474
 30
0.0
 10
-2.949807044409908
 20
-2.714084468890519
 30
0.0
 10
-2.9789618059296
 20
-2.601261101514353
 30
0.0
 10
-3.075816006609954
 20
-2.077036118036517
 30
0.0
 10
-3.158028757053898
 20
-1.211556658123072
 30
0.0
 10
-3.212573918985185
 20
-0.5705858658178613
 30
0.0
 10
-3.30181984406164
 20
0.5285183024277558
 30
0.0
 10
-3.396883330761454
 20
1.5511980993478
 30
0.0
 10
-3.437620143276234
 20
1.944840095104211
 30
0.0
 10
-3.498184597400808
 20
2.415915828697507
 30
0.0
 10
-3.564970319885958
 20
2.678904256419798
 30
0.0
 10
-3.584516682877364
 20
2.733485006724663
 30
0.0
 10
-3.605501006032
 20
2.765524649707799
 30
0.0
 10
-3.626493793136944
 20
2.770082489172636
 30
0.0
 10
-3.627653894525053
 20
2.770250400265922
 30
0.0
 10
-3.628813800355828
 20
2.770334325709598
 30
0.0
 10
-3.629973584473049
 20
2.770334315542015
 30
0.0
  0
SPLINE
  5
20CE5
330
1F
100
AcDbEntity
  8
SK1
100
AcDbSpline
210
0.0
220
0.0
230
1.0
 70
     8
 71
     5
 72
    24
 73
    18
 74
     0
 42
0.000000001
 43
0.0000000001
 40
0.0
 40
0.0
 40
0.0
 40
0.0
 40
0.0
 40
0.0
 40
1.939777407742909
 40
1.939777407742909
 40
1.939777407742909
 40
5.452479487044358
 40
5.452479487044358
 40
5.452479487044358
 40
9.881956646536123
 40
9.881956646536123
 40
9.881956646536123
 40
11.11174647418219
 40
11.11174647418219
 40
11.11174647418219
 40
11.19509082775424
 40
11.19509082775424
 40
11.19509082775424
 40
11.19509082775424
 40
11.19509082775424
 40
11.19509082775424
 10
-4.369841299542457
 20
-2.770004366827436
 30
0.0
 10
-4.399778201733425
 20
-2.770025802195902
 30
0.0
 10
-4.429708730917042
 20
-2.714049090193384
 30
0.0
 10
-4.458797761536601
 20
-2.601963400047793
 30
0.0
 10
-4.536917609535066
 20
-2.17879407906355
 30
0.0
 10
-4.606274124740821
 20
-1.527106856707177
 30
0.0
 10
-4.648417430963093
 20
-1.069859270767835
 30
0.0
 10
-4.740306092303114
 20
-0.0004893515958884
 30
0.0
 10
-4.831235248590587
 20
1.080565498995611
 30
0.0
 10
-4.886468071639541
 20
1.688903816625725
 30
0.0
 10
-4.961581855039952
 20
2.356747949023485
 30
0.0
 10
-5.046442486699561
 20
2.682723944166923
 30
0.0
 10
-5.065284107560245
 20
2.734205160000158
 30
0.0
 10
-5.085669178304783
 20
2.765111315233241
 30
0.0
 10
-5.106067298053147
 20
2.770057977498993
 30
0.0
 10
-5.107362118012872
 20
2.770267314161401
 30
0.0
 10
-5.108656684903593
 20
2.770371952028426
 30
0.0
 10
-5.109951101894694
 20
2.770371964013065
 30
0.0
  0
SPLINE
  5
20CE6
330
1F
100
AcDbEntity
  8
SK1
100
AcDbSpline
210
0.0
220
0.0
230
1.0
 70
     8
 71
     5
 72
    24
 73
    18
 74
     0
 42
0.000000001
 43
0.0000000001
 40
0.0
 40
0.0
 40
0.0
 40
0.0
 40
0.0
 40
0.0
 40
1.938655290254509
 40
1.938655290254509
 40
1.938655290254509
 40
5.430204509720816
 40
5.430204509720816
 40
5.430204509720816
 40
9.834672586735687
 40
9.834672586735687
 40
9.834672586735687
 40
11.06715162487781
 40
11.06715162487781
 40
11.06715162487781
 40
11.12678589816655
 40
11.12678589816655
 40
11.12678589816655
 40
11.12678589816655
 40
11.12678589816655
 40
11.12678589816655
 10
-5.849861417889457
 20
-2.770009299755031
 30
0.0
 10
-5.879782122028927
 20
-2.770009467193972
 30
0.0
 10
-5.909713016992725
 20
-2.714071698169561
 30
0.0
 10
-5.938814753896963
 20
-2.601975094857209
 30
0.0
 10
-6.016715078294708
 20
-2.17995542363576
 30
0.0
 10
-6.085893567849666
 20
-1.530755816333623
 30
0.0
 10
-6.127767947819705
 20
-1.076591637262708
 30
0.0
 10
-6.21918952427336
 20
-0.0145138445698194
 30
0.0
 10
-6.30928524871598
 20
1.056636546859238
 30
0.0
 10
-6.363102363336622
 20
1.649061388248128
 30
0.0
 10
-6.436193839544387
 20
2.313181269889525
 30
0.0
 10
-6.51938814329722
 20
2.659629443899575
 30
0.0
 10
-6.538050401825273
 20
2.717141492464634
 30
0.0
 10
-6.557978539789701
 20
2.754533296907311
 30
0.0
 10
-6.578045209331548
 20
2.76693946146662
 30
0.0
 10
-6.578971669585314
 20
2.767458749349259
 30
0.0
 10
-6.579898314221566
 20
2.767924592174665
 30
0.0
 10
-6.58082518072905
 20
2.768336954665755
 30
0.0
  0
LINE
  5
20CE7
330
1F
100
AcDbEntity
  8
SK1
 48
0.014859
100
AcDbLine
 10
-2.389055000003651
 20
-0.0000009999999975
 30
0.0
 11
-2.345468000003648
 21
-0.5927580000000035
 31
0.0
  0
LINE
  5
20CE8
330
1F
100
AcDbEntity
  8
SK1
 48
0.019309
100
AcDbLine
 10
-2.389055000003651
 20
-0.0000009999999975
 30
0.0
 11
-2.447779000003635
 21
0.7701340000000414
 31
0.0
  0
LINE
  5
20CE9
330
1F
100
AcDbEntity
  8
SK1
 48
0.018064
100
AcDbLine
 10
-2.447779000003635
 20
0.7701340000000414
 30
0.0
 11
-2.506326000003639
 21
1.490329000000031
 31
0.0
  0
ARC
  5
20CEA
330
1F
100
AcDbEntity
  8
SK1
100
AcDbCircle
 10
-40.79958200000365
 20
-1.752703999999994
 30
0.0
 40
38.430293
100
AcDbArc
 50
4.84079400000222
 51
5.778828000001777
  0
ARC
  5
20CEB
330
1F
100
AcDbEntity
  8
SK1
100
AcDbCircle
 10
-17.29824700000364
 20
0.6485760000000483
 30
0.0
 40
14.806502
100
AcDbArc
 50
5.690759000001666
 51
7.624402999999812
  0
ARC
  5
20CEC
330
1F
100
AcDbEntity
  8
SK1
100
AcDbCircle
 10
-6.648360000003634
 20
2.100997000000006
 30
0.0
 40
4.057851
100
AcDbArc
 50
7.249284999998649
 51
12.08949499999979
  0
LINE
  5
20CED
330
1F
100
AcDbEntity
  8
SK1
 48
0.002085
100
AcDbLine
 10
-2.68070700000365
 20
2.950827000000003
 30
0.0
 11
-2.702161000003627
 21
3.031430999999997
 31
0.0
  0
SPLINE
  5
20CEE
330
1F
100
AcDbEntity
  8
SK1
100
AcDbSpline
210
0.0
220
0.0
230
1.0
 70
     8
 71
     5
 72
    24
 73
    18
 74
     0
 42
0.000000001
 43
0.0000000001
 40
0.0
 40
0.0
 40
0.0
 40
0.0
 40
0.0
 40
0.0
 40
0.9866131672590315
 40
0.9866131672590315
 40
0.9866131672590315
 40
2.756285355426728
 40
2.756285355426728
 40
2.756285355426728
 40
6.39111985753887
 40
6.39111985753887
 40
6.39111985753887
 40
11.05752197470836
 40
11.05752197470836
 40
11.05752197470836
 40
11.63517817170946
 40
11.63517817170946
 40
11.63517817170946
 40
11.63517817170946
 40
11.63517817170946
 40
11.63517817170946
 10
-3.441922258139044
 20
-3.03099517829014
 30
0.0
 10
-3.456838480516637
 20
-3.078339008743682
 30
0.0
 10
-3.472048587252999
 20
-3.111432613567217
 30
0.0
 10
-3.48745369858878
 20
-3.128389037928684
 30
0.0
 10
-3.530684926054703
 20
-3.127761536092975
 30
0.0
 10
-3.573132943583829
 20
-2.998900066816588
 30
0.0
 10
-3.599376971538617
 20
-2.866876457538978
 30
0.0
 10
-3.674734846695315
 20
-2.375033694477565
 30
0.0
 10
-3.739606453624645
 20
-1.671217263329651
 30
0.0
 10
-3.780071833502546
 20
-1.17467743870128
 30
0.0
 10
-3.869993932150578
 20
0.0071864458503796
 30
0.0
 10
-3.959080322440712
 20
1.201803304635177
 30
0.0
 10
-4.013051269421737
 20
1.869553507017315
 30
0.0
 10
-4.079471651212372
 20
2.556017935340605
 30
0.0
 10
-4.156056239150927
 20
2.932952648969376
 30
0.0
 10
-4.164657126341637
 20
2.970506662233333
 30
0.0
 10
-4.173321477939197
 20
3.003269484650729
 30
0.0
 10
-4.182076220614703
 20
3.031093845520388
 30
0.0
  0
SPLINE
  5
20CEF
330
1F
100
AcDbEntity
  8
SK1
100
AcDbSpline
210
0.0
220
0.0
230
1.0
 70
     8
 71
     5
 72
    24
 73
    18
 74
     0
 42
0.000000001
 43
0.0000000001
 40
0.0
 40
0.0
 40
0.0
 40
0.0
 40
0.0
 40
0.0
 40
0.9910213108190776
 40
0.9910213108190776
 40
0.9910213108190776
 40
2.778337876827405
 40
2.778337876827405
 40
2.778337876827405
 40
6.41543427879
 40
6.41543427879
 40
6.41543427879
 40
11.07558151065592
 40
11.07558151065592
 40
11.07558151065592
 40
11.6205442544532
 40
11.6205442544532
 40
11.6205442544532
 40
11.6205442544532
 40
11.6205442544532
 40
11.6205442544532
 10
-4.922155644747959
 20
-3.031187808643835
 30
0.0
 10
-4.937030593452732
 20
-3.078390458165984
 30
0.0
 10
-4.952164899836645
 20
-3.111299714875599
 30
0.0
 10
-4.96746096593651
 20
-3.128147992557501
 30
0.0
 10
-5.010478354780815
 20
-3.127882709281834
 30
0.0
 10
-5.052700699791415
 20
-3.000292605607626
 30
0.0
 10
-5.078869423303387
 20
-2.869508156807057
 30
0.0
 10
-5.154104817664574
 20
-2.37921098164395
 30
0.0
 10
-5.21955479154883
 20
-1.671065041943222
 30
0.0
 10
-5.260428577946868
 20
-1.169348453889085
 30
0.0
 10
-5.350979356477466
 20
0.0197707729658987
 30
0.0
 10
-5.440579326166073
 20
1.219191039175598
 30
0.0
 10
-5.495142320830439
 20
1.89476102619335
 30
0.0
 10
-5.561490321190291
 20
2.57280410535543
 30
0.0
 10
-5.637634880389924
 20
2.939842649993579
 30
0.0
 10
-5.645749153169276
 20
2.97468512528701
 30
0.0
 10
-5.653919223284191
 20
3.005257861113136
 30
0.0
 10
-5.662168431881866
 20
3.031439838440121
 30
0.0
  0
LINE
  5
20CF0
330
1F
100
AcDbEntity
  8
SK1
 48
0.017455
100
AcDbLine
 10
-2.163070000003642
 20
-0.0000009999999975
 30
0.0
 11
-2.222877000003649
 21
0.6956390000000284
 31
0.0
  0
LINE
  5
20CF1
330
1F
100
AcDbEntity
  8
SK1
 48
0.016291
100
AcDbLine
 10
-2.222877000003649
 20
0.6956390000000284
 30
0.0
 11
-2.282497000003644
 21
1.344536000000061
 31
0.0
  0
ARC
  5
20CF2
330
1F
100
AcDbEntity
  8
SK1
100
AcDbCircle
 10
-31.30414500000365
 20
-1.436780999999996
 30
0.0
 40
29.154572
100
AcDbArc
 50
5.474277999998057
 51
6.583519000000377
  0
ARC
  5
20CF3
330
1F
100
AcDbEntity
  8
SK1
100
AcDbCircle
 10
-13.19903100000363
 20
0.674188000000072
 30
0.0
 40
10.926703
100
AcDbArc
 50
6.471971999998256
 51
8.799410000000367
  0
ARC
  5
20CF4
330
1F
100
AcDbEntity
  8
SK1
100
AcDbCircle
 10
-5.197188000003649
 20
1.937906999999995
 30
0.0
 40
2.825491999999998
100
AcDbArc
 50
8.29740600000102
 51
14.34892399999876
  0
SPLINE
  5
20CF5
330
1F
100
AcDbEntity
  8
SK1
100
AcDbSpline
210
0.0
220
0.0
230
1.0
 70
     8
 71
     5
 72
    12
 73
     6
 74
     0
 42
0.000000001
 43
0.0000000001
 40
0.0
 40
0.0
 40
0.0
 40
0.0
 40
0.0
 40
0.0
 40
0.7770648973604523
 40
0.7770648973604523
 40
0.7770648973604523
 40
0.7770648973604523
 40
0.7770648973604523
 40
0.7770648973604523
 10
-2.46006893801325
 20
2.638079824801707
 30
0.0
 10
-2.471625749727166
 20
2.679591327150262
 30
0.0
 10
-2.483341300382107
 20
2.713723718121173
 30
0.0
 10
-2.495191738311234
 20
2.739743318857676
 30
0.0
 10
-2.507139502697327
 20
2.757032484600642
 30
0.0
 10
-2.519132053125048
 20
2.765378556820223
 30
0.0
  0
ARC
  5
20CF6
330
1F
100
AcDbEntity
  8
SK1
100
AcDbCircle
 10
-2.533800000003651
 20
2.745936000000028
 30
0.0
 40
0.024326
100
AcDbArc
 50
52.96842799999971
 51
88.25164199999981
  0
SPLINE
  5
20CF7
330
1F
100
AcDbEntity
  8
SK1
100
AcDbSpline
210
0.0
220
0.0
230
1.0
 70
     8
 71
     5
 72
    24
 73
    18
 74
     0
 42
0.000000001
 43
0.0000000001
 40
0.0
 40
0.0
 40
0.0
 40
0.0
 40
0.0
 40
0.0
 40
1.918598378070861
 40
1.918598378070861
 40
1.918598378070861
 40
6.712176499695112
 40
6.712176499695112
 40
6.712176499695112
 40
9.895104056129477
 40
9.895104056129477
 40
9.895104056129477
 40
11.16977411583259
 40
11.16977411583259
 40
11.16977411583259
 40
11.24432779091663
 40
11.24432779091663
 40
11.24432779091663
 40
11.24432779091663
 40
11.24432779091663
 40
11.24432779091663
 10
-3.273003336861762
 20
-2.770056592832474
 30
0.0
 10
-3.302986094384436
 20
-2.77005652768139
 30
0.0
 10
-3.33301949090017
 20
-2.714084497220937
 30
0.0
 10
-3.362174252412842
 20
-2.601261143493502
 30
0.0
 10
-3.459028440807543
 20
-2.077036267124697
 30
0.0
 10
-3.541241182749104
 20
-1.211556983242189
 30
0.0
 10
-3.595786336494001
 20
-0.5705863194505128
 30
0.0
 10
-3.685032247344537
 20
0.5285176421256211
 30
0.0
 10
-3.780095712177683
 20
1.551197341819147
 30
0.0
 10
-3.820832511279235
 20
1.944839290931611
 30
0.0
 10
-3.881396948565537
 20
2.415915125570165
 30
0.0
 10
-3.948182655146666
 20
2.678903863103755
 30
0.0
 10
-3.96772901521254
 20
2.73348472298727
 30
0.0
 10
-3.98871332615073
 20
2.765524479521502
 30
0.0
 10
-4.009706102091485
 20
2.770082462766708
 30
0.0
 10
-4.010866193504284
 20
2.770250381219284
 30
0.0
 10
-4.012026089368305
 20
2.770334315466072
 30
0.0
 10
-4.013185863525336
 20
2.770334315542811
 30
0.0
  0
SPLINE
  5
20CF8
330
1F
100
AcDbEntity
  8
SK1
100
AcDbSpline
210
0.0
220
0.0
230
1.0
 70
     8
 71
     5
 72
    24
 73
    18
 74
     0
 42
0.000000001
 43
0.0000000001
 40
0.0
 40
0.0
 40
0.0
 40
0.0
 40
0.0
 40
0.0
 40
1.939763735069918
 40
1.939763735069918
 40
1.939763735069918
 40
5.452471293377494
 40
5.452471293377494
 40
5.452471293377494
 40
9.882042057590931
 40
9.882042057590931
 40
9.882042057590931
 40
11.1118517177456
 40
11.1118517177456
 40
11.1118517177456
 40
11.19527063793013
 40
11.19527063793013
 40
11.19527063793013
 40
11.19527063793013
 40
11.19527063793013
 40
11.19527063793013
 10
-4.753045689502613
 20
-2.770004359425911
 30
0.0
 10
-4.782982382027597
 20
-2.770037864820324
 30
0.0
 10
-4.812912830059303
 20
-2.714074005693021
 30
0.0
 10
-4.842001867446782
 20
-2.602000228852773
 30
0.0
 10
-4.920122388527261
 20
-2.178856205535794
 30
0.0
 10
-4.989479468884212
 20
-1.527180088112686
 30
0.0
 10
-5.031623143145253
 20
-1.069934534172602
 30
0.0
 10
-5.123513252208368
 20
-0.0005553823574473
 30
0.0
 10
-5.214443275059977
 20
1.080516769647601
 30
0.0
 10
-5.26967704248446
 20
1.688871313773802
 30
0.0
 10
-5.344792021786219
 20
2.356736352541133
 30
0.0
 10
-5.429654284669283
 20
2.682722256799934
 30
0.0
 10
-5.44849620471254
 20
2.734204802036742
 30
0.0
 10
-5.468882742729249
 20
2.765113309557932
 30
0.0
 10
-5.489282329611825
 20
2.770058589415668
 30
0.0
 10
-5.490578308292811
 20
2.770267909191375
 30
0.0
 10
-5.491874033169779
 20
2.770372342706764
 30
0.0
 10
-5.493169607689452
 20
2.770371963154843
 30
0.0
  0
LINE
  5
20CF9
330
1F
100
AcDbEntity
  8
SK1
 48
0.000131
100
AcDbLine
 10
-5.855508000003652
 20
-2.770194999999944
 30
0.0
 11
-5.86069100000364
 21
-2.769538000000011
 31
0.0
  0
SPLINE
  5
20CFA
330
1F
100
AcDbEntity
  8
SK1
100
AcDbSpline
210
0.0
220
0.0
230
1.0
 70
     8
 71
     5
 72
    21
 73
    15
 74
     0
 42
0.000000001
 43
0.0000000001
 40
0.0
 40
0.0
 40
0.0
 40
0.0
 40
0.0
 40
0.0
 40
1.784543229763235
 40
1.784543229763235
 40
1.784543229763235
 40
5.114192785598321
 40
5.114192785598321
 40
5.114192785598321
 40
9.380140356013487
 40
9.380140356013487
 40
9.380140356013487
 40
10.67074570812427
 40
10.67074570812427
 40
10.67074570812427
 40
10.67074570812427
 40
10.67074570812427
 40
10.67074570812427
 10
-5.860690898422404
 20
-2.76953789850188
 30
0.0
 10
-5.889484743613508
 20
-2.762159948497185
 30
0.0
 10
-5.918146367060927
 20
-2.703017657670955
 30
0.0
 10
-5.945903272133222
 20
-2.593320601418895
 30
0.0
 10
-6.02164987599724
 20
-2.181948359536363
 30
0.0
 10
-6.088477967921221
 20
-1.55939860346109
 30
0.0
 10
-6.129595942026355
 20
-1.118693308259025
 30
0.0
 10
-6.219781675321485
 20
-0.0771826371433235
 30
0.0
 10
-6.308521821641562
 20
0.9843492865257985
 30
0.0
 10
-6.361471238769496
 20
1.571447693234745
 30
0.0
 10
-6.434884309174464
 20
2.259994810076364
 30
0.0
 10
-6.519239874338325
 20
2.639817796016586
 30
0.0
 10
-6.539439705237043
 20
2.707558133760244
 30
0.0
 10
-6.560083236290893
 20
2.749652375319612
 30
0.0
 10
-6.580880166490004
 20
2.764878484831342
 30
0.0
  0
LINE
  5
20CFB
330
1F
100
AcDbEntity
  8
SK1
 48
0.018005
100
AcDbLine
 10
-2.316079000003639
 20
-0.0000009999999975
 30
0.0
 11
-2.37535200000363
 21
0.7177490000000262
 31
0.0
  0
LINE
  5
20CFC
330
1F
100
AcDbEntity
  8
SK1
 48
0.016824
100
AcDbLine
 10
-2.37535200000363
 20
0.7177490000000262
 30
0.0
 11
-2.434443000003625
 21
1.388104999999995
 31
0.0
  0
ARC
  5
20CFD
330
1F
100
AcDbEntity
  8
SK1
100
AcDbCircle
 10
-34.48392700000364
 20
-1.556875999999988
 30
0.0
 40
32.18446
100
AcDbArc
 50
5.250082999999309
 51
6.290526999999532
  0
ARC
  5
20CFE
330
1F
100
AcDbEntity
  8
SK1
100
AcDbCircle
 10
-14.65456000000364
 20
0.6506950000000416
 30
0.0
 40
12.232488
100
AcDbArc
 50
6.18946700000125
 51
8.353000000001204
  0
ARC
  5
20CFF
330
1F
100
AcDbEntity
  8
SK1
100
AcDbCircle
 10
-5.780299000003623
 20
1.979106999999999
 30
0.0
 40
3.259163999999998
100
AcDbArc
 50
7.91102800000098
 51
13.42737800000026
  0
LINE
  5
20D00
330
1F
100
AcDbEntity
  8
SK1
 48
0.001303
100
AcDbLine
 10
-2.610440000003649
 20
2.735875000000021
 30
0.0
 11
-2.624702000003622
 21
2.786005000000045
 31
0.0
  0
SPLINE
  5
20D01
330
1F
100
AcDbEntity
  8
SK1
100
AcDbSpline
210
0.0
220
0.0
230
1.0
 70
     8
 71
     5
 72
    24
 73
    18
 74
     0
 42
0.000000001
 43
0.0000000001
 40
0.0
 40
0.0
 40
0.0
 40
0.0
 40
0.0
 40
0.0
 40
1.777720020184138
 40
1.777720020184138
 40
1.777720020184138
 40
3.808361465076153
 40
3.808361465076153
 40
3.808361465076153
 40
7.560517303667883
 40
7.560517303667883
 40
7.560517303667883
 40
10.7291477151082
 40
10.7291477151082
 40
10.7291477151082
 40
11.24280246406701
 40
11.24280246406701
 40
11.24280246406701
 40
11.24280246406701
 40
11.24280246406701
 40
11.24280246406701
 10
-3.375655315034123
 20
-2.817782281777226
 30
0.0
 10
-3.402805678951665
 20
-2.888155980118824
 30
0.0
 10
-3.430723896921449
 20
-2.913772587376683
 30
0.0
 10
-3.458585439106002
 20
-2.88532707109482
 30
0.0
 10
-3.517124334396527
 20
-2.718934190476943
 30
0.0
 10
-3.570926426919697
 20
-2.381416953113443
 30
0.0
 10
-3.598214683710153
 20
-2.167243349558816
 30
0.0
 10
-3.671846872680646
 20
-1.503856754338073
 30
0.0
 10
-3.738010021376794
 20
-0.7216960437717149
 30
0.0
 10
-3.779072869633125
 20
-0.2105577575267716
 30
0.0
 10
-3.855774890858413
 20
0.7537620218033681
 30
0.0
 10
-3.937264880733721
 20
1.656728382568871
 30
0.0
 10
-3.977491305575284
 20
2.056191880084838
 30
0.0
 10
-4.0272571317754
 20
2.452615522565224
 30
0.0
 10
-4.08148613554556
 20
2.701386181154703
 30
0.0
 10
-4.089162127648336
 20
2.733077067897738
 30
0.0
 10
-4.096886296260009
 20
2.761268970058836
 30
0.0
 10
-4.104675731176087
 20
2.78586476776195
 30
0.0
  0
LINE
  5
20D02
330
1F
100
AcDbEntity
  8
SK1
 48
0.000324
100
AcDbLine
 10
-4.844600000003623
 20
-2.785479000000009
 30
0.0
 11
-4.848630000003623
 21
-2.797810999999967
 31
0.0
  0
SPLINE
  5
20D03
330
1F
100
AcDbEntity
  8
SK1
100
AcDbSpline
210
0.0
220
0.0
230
1.0
 70
     8
 71
     5
 72
    24
 73
    18
 74
     0
 42
0.000000001
 43
0.0000000001
 40
0.0
 40
0.0
 40
0.0
 40
0.0
 40
0.0
 40
0.0
 40
1.790263105591766
 40
1.790263105591766
 40
1.790263105591766
 40
3.827161991866446
 40
3.827161991866446
 40
3.827161991866446
 40
7.56549729326144
 40
7.56549729326144
 40
7.56549729326144
 40
10.73098857039925
 40
10.73098857039925
 40
10.73098857039925
 40
11.21144711168311
 40
11.21144711168311
 40
11.21144711168311
 40
11.21144711168311
 40
11.21144711168311
 40
11.21144711168311
 10
-4.85565230289788
 20
-2.817340537591974
 30
0.0
 10
-4.882769816538456
 20
-2.887924715574854
 30
0.0
 10
-4.910551209431758
 20
-2.913535492581559
 30
0.0
 10
-4.938253222126576
 20
-2.885542391635851
 30
0.0
 10
-4.996346785904052
 20
-2.721943987826534
 30
0.0
 10
-5.050145331837001
 20
-2.386122520922071
 30
0.0
 10
-5.077509140482334
 20
-2.172024366622792
 30
0.0
 10
-5.151264361515558
 20
-1.508793026039143
 30
0.0
 10
-5.217968708381476
 20
-0.7221575051130458
 30
0.0
 10
-5.260612087854838
 20
-0.1918912056300996
 30
0.0
 10
-5.33768522204167
 20
0.7755880919100946
 30
0.0
 10
-5.419396542940262
 20
1.678007248901337
 30
0.0
 10
-5.45972369626989
 20
2.07669345423244
 30
0.0
 10
-5.509224362924953
 20
2.465781979566827
 30
0.0
 10
-5.562987515619255
 20
2.70756538530253
 30
0.0
 10
-5.570166434128253
 20
2.736757901004068
 30
0.0
 10
-5.577387078077975
 20
2.762886529057311
 30
0.0
 10
-5.584663862915135
 20
2.785873249377573
 30
0.0
  0
LINE
  5
20D04
330
1F
100
AcDbEntity
  8
SK1
 48
0.003739
100
AcDbLine
 10
-6.650000000003643
 20
-2.408519999999953
 30
0.0
 11
-6.650000000003643
 21
-2.558087999999997
 31
0.0
  0
LINE
  5
20D05
330
1F
100
AcDbEntity
  8
SK1
 48
0.116823
100
AcDbLine
 10
-6.650000000003643
 20
-2.408519999999953
 30
0.0
 11
-6.650000000003643
 21
2.264416000000039
 31
0.0
  0
SPLINE
  5
20D06
330
1F
100
AcDbEntity
  8
SK1
100
AcDbSpline
210
0.0
220
0.0
230
1.0
 70
     8
 71
     5
 72
    27
 73
    21
 74
     0
 42
0.000000001
 43
0.0000000001
 40
0.0
 40
0.0
 40
0.0
 40
0.0
 40
0.0
 40
0.0
 40
45.64851813157907
 40
45.64851813157907
 40
45.64851813157907
 40
91.5494380690599
 40
91.5494380690599
 40
91.5494380690599
 40
102.9432516026262
 40
102.9432516026262
 40
102.9432516026262
 40
125.7309955414021
 40
125.7309955414021
 40
125.7309955414021
 40
137.1249278476545
 40
137.1249278476545
 40
137.1249278476545
 40
228.3987100580042
 40
228.3987100580042
 40
228.3987100580042
 40
228.3987100580042
 40
228.3987100580042
 40
228.3987100580042
 10
-6.650000000109059
 20
-2.408520482312383
 30
0.0
 10
-6.647675221777319
 20
-2.330008141915982
 30
0.0
 10
-6.645333094889366
 20
-2.225948625657906
 30
0.0
 10
-6.642957603600905
 20
-2.096970676036789
 30
0.0
 10
-6.638176077309452
 20
-1.789653050721312
 30
0.0
 10
-6.633509417571076
 20
-1.406722669283681
 30
0.0
 10
-6.631288118044352
 20
-1.206516661644968
 30
0.0
 10
-6.628418682064761
 20
-0.9301969378794865
 30
0.0
 10
-6.625537430092521
 20
-0.6393600991739277
 30
0.0
 10
-6.62496270665602
 20
-0.5809015408957521
 30
0.0
 10
-6.623261554155078
 20
-0.4068650275113442
 30
0.0
 10
-6.621601906609811
 20
-0.2346744795195264
 30
0.0
 10
-6.62050408697209
 20
-0.1202593095003408
 30
0.0
 10
-6.61877423088714
 20
0.0610835886199652
 30
0.0
 10
-6.617024669732728
 20
0.2437261406479365
 30
0.0
 10
-6.616442278136872
 20
0.3043395044120416
 30
0.0
 10
-6.611176111575844
 20
0.8504167495070191
 30
0.0
 10
-6.605828303093119
 20
1.382117134071791
 30
0.0
 10
-6.601236547855592
 20
1.805496289351879
 30
0.0
 10
-6.596692299057508
 20
2.153325727575577
 30
0.0
 10
-6.592086346816756
 20
2.404053444274609
 30
0.0
  0
LINE
  5
20D07
330
1F
100
AcDbEntity
  8
1
 48
0.037004
100
AcDbLine
 10
2.530078999996362
 20
-3.182599999999979
 30
0.0
 11
1.049920999996373
 21
-3.182599999999979
 31
0.0
  0
SPLINE
  5
20D08
330
1F
100
AcDbEntity
  8
1
100
AcDbSpline
210
0.0
220
0.0
230
1.0
 70
     8
 71
     5
 72
    21
 73
    15
 74
     0
 42
0.000000001
 43
0.0000000001
 40
0.0
 40
0.0
 40
0.0
 40
0.0
 40
0.0
 40
0.0
 40
0.0938801015929351
 40
0.0938801015929351
 40
0.0938801015929351
 40
0.2335862355043271
 40
0.2335862355043271
 40
0.2335862355043271
 40
0.3739225271691679
 40
0.3739225271691679
 40
0.3739225271691679
 40
0.4656000943151705
 40
0.4656000943151705
 40
0.4656000943151705
 40
0.4656000943151705
 40
0.4656000943151705
 40
0.4656000943151705
 10
1.049920787707748
 20
-3.182600041559112
 30
0.0
 10
1.039080447322504
 20
-3.182600041559282
 30
0.0
 10
1.028240187963405
 20
-3.181773833665943
 30
0.0
 10
1.017283751794735
 20
-3.180061112841599
 30
0.0
 10
0.9909395930514506
 20
-3.173710537279532
 30
0.0
 10
0.966998414315185
 20
-3.16187781803535
 30
0.0
 10
0.9533360418831478
 20
-3.152382585980262
 30
0.0
 10
0.9304083927476369
 20
-3.130193531367751
 30
0.0
 10
0.9145366876612683
 20
-3.10175182110396
 30
0.0
 10
0.9084634729648826
 20
-3.086401729721842
 30
0.0
 10
0.9011202444200989
 20
-3.06024665005259
 30
0.0
 10
0.8975084113632192
 20
-3.033667106797906
 30
0.0
 10
0.8966150241095078
 20
-3.023193579365624
 30
0.0
 10
0.8961919403087392
 20
-3.012795695834256
 30
0.0
 10
0.8962323040807689
 20
-3.002525971605564
 30
0.0
  0
LINE
  5
20D09
330
1F
100
AcDbEntity
  8
1
 48
0.044688
100
AcDbLine
 10
2.683767999996376
 20
-3.002525999999988
 30
0.0
 11
0.8962319999963597
 21
-3.002525999999988
 31
0.0
  0
SPLINE
  5
20D0A
330
1F
100
AcDbEntity
  8
1
100
AcDbSpline
210
0.0
220
0.0
230
1.0
 70
     8
 71
     5
 72
    24
 73
    18
 74
     0
 42
0.000000001
 43
0.0000000001
 40
0.0
 40
0.0
 40
0.0
 40
0.0
 40
0.0
 40
0.0
 40
0.0937940016564452
 40
0.0937940016564452
 40
0.0937940016564452
 40
0.1872584084632632
 40
0.1872584084632632
 40
0.1872584084632632
 40
0.2805770498786733
 40
0.2805770498786733
 40
0.2805770498786733
 40
0.3743987884359891
 40
0.3743987884359891
 40
0.3743987884359891
 40
0.4659829246793419
 40
0.4659829246793419
 40
0.4659829246793419
 40
0.4659829246793419
 40
0.4659829246793419
 40
0.4659829246793419
 10
2.530079212081091
 20
-3.182600041559282
 30
0.0
 10
2.540909610502041
 20
-3.182600041562807
 30
0.0
 10
2.55173992591213
 20
-3.181775354811634
 30
0.0
 10
2.562685810791919
 20
-3.180071215707926
 30
0.0
 10
2.58374702228977
 20
-3.174997191650561
 30
0.0
 10
2.603333281079471
 20
-3.166393137332022
 30
0.0
 10
2.61288610118143
 20
-3.161058677318465
 30
0.0
 10
2.630434339578471
 20
-3.148751854422698
 30
0.0
 10
2.644946438849956
 20
-3.133260923021566
 30
0.0
 10
2.651559066378325
 20
-3.124577541166104
 30
0.0
 10
2.662853390696142
 20
-3.106347042541415
 30
0.0
 10
2.67099128822943
 20
-3.0863000706521
 30
0.0
 10
2.674368280875427
 20
-3.07575328467675
 30
0.0
 10
2.679626574276795
 20
-3.054852236522606
 30
0.0
 10
2.682473706462388
 20
-3.033732576970919
 30
0.0
 10
2.68338582803895
 20
-3.023172393512822
 30
0.0
 10
2.683808018395495
 20
-3.012785229700398
 30
0.0
 10
2.683767695758859
 20
-3.002525971604597
 30
0.0
  0
LINE
  5
20D0B
330
1F
100
AcDbEntity
  8
1
 48
0.01188
100
AcDbLine
 10
0.8352019999963715
 20
-3.03907399999997
 30
0.0
 11
0.3599999999963757
 21
-3.03907399999997
 31
0.0
  0
LINE
  5
20D0C
330
1F
100
AcDbEntity
  8
1
 48
0.027339
100
AcDbLine
 10
0.3599999999963757
 20
-4.132616999999981
 30
0.0
 11
0.3599999999963757
 21
-3.03907399999997
 31
0.0
  0
LINE
  5
20D0D
330
1F
100
AcDbEntity
  8
1
 48
0.010771
100
AcDbLine
 10
0.7908289999963643
 20
-4.132616999999981
 30
0.0
 11
0.3599999999963757
 21
-4.132616999999981
 31
0.0
  0
LINE
  5
20D0E
330
1F
100
AcDbEntity
  8
1
 48
0.050692
100
AcDbLine
 10
2.387692999996374
 20
4.705025000000034
 30
0.0
 11
0.3599999999963757
 21
4.705025000000034
 31
0.0
  0
LINE
  5
20D0F
330
1F
100
AcDbEntity
  8
1
 48
0.014331
100
AcDbLine
 10
0.3599999999963757
 20
4.131767000000024
 30
0.0
 11
0.3599999999963757
 21
4.705025000000034
 31
0.0
  0
LINE
  5
20D10
330
1F
100
AcDbEntity
  8
1
 48
0.051047
100
AcDbLine
 10
2.401859999996361
 20
4.131767000000024
 30
0.0
 11
0.3599999999963757
 21
4.131767000000024
 31
0.0
  0
ARC
  5
20D11
330
1F
100
AcDbEntity
  8
1
100
AcDbCircle
 10
19.74637999999635
 20
4.864743000000032
 30
0.0
 40
17.359701
100
AcDbArc
 50
180.5271659999996
 51
182.419869
  0
LINE
  5
20D12
330
1F
100
AcDbEntity
  8
1
 48
0.001384
100
AcDbLine
 10
0.3599999999963757
 20
4.760377000000062
 30
0.0
 11
0.3599999999963757
 21
4.705025000000034
 31
0.0
  0
LINE
  5
20D13
330
1F
100
AcDbEntity
  8
1
 48
0.050666
100
AcDbLine
 10
2.386639999996361
 20
4.760377000000062
 30
0.0
 11
0.3599999999963757
 21
4.760377000000062
 31
0.0
  0
LINE
  5
20D14
330
1F
100
AcDbEntity
  8
1
 48
0.001384
100
AcDbLine
 10
2.387692999996374
 20
4.705025000000034
 30
0.0
 11
2.386639999996361
 21
4.760377000000062
 31
0.0
  0
LINE
  5
20D15
330
1F
100
AcDbEntity
  8
1
 48
0.018418
100
AcDbLine
 10
2.536890999996359
 20
2.144767000000001
 30
0.0
 11
2.664822999996374
 21
2.870306000000027
 31
0.0
  0
LINE
  5
20D16
330
1F
100
AcDbEntity
  8
1
 48
0.00439
100
AcDbLine
 10
2.664825722227462
 20
2.870337421149315
 30
0.0
 11
2.396050040533694
 21
1.346000000000003
 31
0.0
  0
LINE
  5
20D17
330
1F
100
AcDbEntity
  8
1
 48
0.003299
100
AcDbLine
 10
0.3599999999963757
 20
-2.90712899999994
 30
0.0
 11
0.3599999999963757
 21
-3.039078999999958
 31
0.0
  0
LINE
  5
20D18
330
1F
100
AcDbEntity
  8
1
 48
0.012014
100
AcDbLine
 10
0.8405559999963543
 20
-2.90712899999994
 30
0.0
 11
0.3599999999963757
 21
-2.90712899999994
 31
0.0
  0
LINE
  5
20D19
330
1F
100
AcDbEntity
  8
1
 48
0.071473
100
AcDbLine
 10
2.506399999996375
 20
1.971840000000042
 30
0.0
 11
2.664824999996369
 21
-0.8826899999999682
 31
0.0
  0
LINE
  5
20D1A
330
1F
100
AcDbEntity
  8
1
 48
0.000247
100
AcDbLine
 10
2.395079999996369
 20
4.746678000000031
 30
0.0
 11
2.404848999996374
 21
4.745335000000068
 31
0.0
  0
LINE
  5
20D1B
330
1F
100
AcDbEntity
  8
1
 48
0.000402
100
AcDbLine
 10
2.386639999996361
 20
4.760377000000062
 30
0.0
 11
2.395079999996369
 21
4.746678000000031
 31
0.0
  0
LINE
  5
20D1C
330
1F
100
AcDbEntity
  8
1
 48
0.017997
100
AcDbLine
 10
0.3599999999963757
 20
-2.187261999999975
 30
0.0
 11
0.3599999999963757
 21
-2.90712899999994
 31
0.0
  0
LINE
  5
20D1D
330
1F
100
AcDbEntity
  8
1
 48
0.012744
100
AcDbLine
 10
0.3599999999963757
 20
-2.187261999999975
 30
0.0
 11
0.8697659999963605
 21
-2.187261999999975
 31
0.0
  0
LINE
  5
20D1E
330
1F
100
AcDbEntity
  8
1
 48
0.053004
100
AcDbLine
 10
2.480172999996369
 20
1.925170000000036
 30
0.0
 11
0.3599999999963757
 21
1.925170000000036
 31
0.0
  0
LINE
  5
20D1F
330
1F
100
AcDbEntity
  8
1
 48
0.055165
100
AcDbLine
 10
0.3599999999963757
 20
4.131767000000024
 30
0.0
 11
0.3599999999963757
 21
1.925170000000036
 31
0.0
  0
LINE
  5
20D20
330
1F
100
AcDbEntity
  8
1
 48
0.0552
100
AcDbLine
 10
2.401859999996361
 20
4.131767000000024
 30
0.0
 11
2.480172999996369
 21
1.925170000000036
 31
0.0
  0
LINE
  5
20D21
330
1F
100
AcDbEntity
  8
1
 48
0.053004
100
AcDbLine
 10
2.480172999996369
 20
-6.337853999999992
 30
0.0
 11
0.3599999999963757
 21
-6.337853999999992
 31
0.0
  0
LINE
  5
20D22
330
1F
100
AcDbEntity
  8
1
 48
0.055131
100
AcDbLine
 10
0.3599999999963757
 20
-4.132616999999981
 30
0.0
 11
0.3599999999963757
 21
-6.337853999999992
 31
0.0
  0
LINE
  5
20D23
330
1F
100
AcDbEntity
  8
1
 48
0.05207
100
AcDbLine
 10
2.406254999996349
 20
-4.256371999999942
 30
0.0
 11
2.480172999996369
 21
-6.337853999999992
 31
0.0
  0
LINE
  5
20D24
330
1F
100
AcDbEntity
  8
1
 48
0.025859
100
AcDbLine
 10
2.664824999996369
 20
-0.8826899999999682
 30
0.0
 11
2.70519299999637
 21
-1.916280999999969
 31
0.0
  0
LINE
  5
20D25
330
1F
100
AcDbEntity
  8
1
 48
0.002563
100
AcDbLine
 10
2.70519299999637
 20
-1.916280999999969
 30
0.0
 11
2.709285999996353
 21
-2.018712999999934
 31
0.0
  0
LINE
  5
20D26
330
1F
100
AcDbEntity
  8
1
 48
0.00033
100
AcDbLine
 10
2.696098999996365
 20
-2.018688999999994
 30
0.0
 11
2.709285999996353
 21
-2.018712999999934
 31
0.0
  0
LINE
  5
20D27
330
1F
100
AcDbEntity
  8
1
 48
0.004159
100
AcDbLine
 10
2.70519299999637
 20
4.626543000000026
 30
0.0
 11
2.709285999996353
 21
4.792853000000036
 31
0.0
  0
ELLIPSE
  5
20D28
330
1F
100
AcDbEntity
  8
1
100
AcDbEllipse
 10
2.46600799999635
 20
-5.234255999999959
 30
0.0
 11
3.991781711578369
 21
-74.89369964599609
 31
0.0
210
0.0
220
0.0
230
1.0
 40
0.010271
 41
1.702296222540823
 42
1.704536914875856
  0
LINE
  5
20D29
330
1F
100
AcDbEntity
  8
1
 48
0.00033
100
AcDbLine
 10
2.696098999996365
 20
4.79287099999999
 30
0.0
 11
2.709285999996353
 21
4.792853000000036
 31
0.0
  0
SPLINE
  5
20D2A
330
1F
100
AcDbEntity
  8
1
100
AcDbSpline
210
0.0
220
0.0
230
1.0
 70
     8
 71
     5
 72
    15
 73
     9
 74
     0
 42
0.000000001
 43
0.0000000001
 40
0.0
 40
0.0
 40
0.0
 40
0.0
 40
0.0
 40
0.0
 40
0.3392050289599594
 40
0.3392050289599594
 40
0.3392050289599594
 40
0.6389516743103105
 40
0.6389516743103105
 40
0.6389516743103105
 40
0.6389516743103105
 40
0.6389516743103105
 40
0.6389516743103105
 10
2.696099489140607
 20
4.792871437100302
 30
0.0
 10
2.656931455435909
 20
4.792925108569818
 30
0.0
 10
2.617748528496292
 20
4.790132207184569
 30
0.0
 10
2.579122335945328
 20
4.78433880432766
 30
0.0
 10
2.51159827841198
 20
4.770047804656428
 30
0.0
 10
2.455684423438071
 20
4.754586884385958
 30
0.0
 10
2.43233630325696
 20
4.747985686595086
 30
0.0
 10
2.415296273266704
 20
4.744596675479783
 30
0.0
 10
2.404849351562972
 20
4.745335141924897
 30
0.0
  0
LINE
  5
20D2B
330
1F
100
AcDbEntity
  8
1
 48
0.043918
100
AcDbLine
 10
2.664824999996369
 20
2.870306000000027
 30
0.0
 11
2.70519299999637
 21
4.626543000000026
 31
0.0
  0
ELLIPSE
  5
20D2C
330
1F
100
AcDbEntity
  8
1
100
AcDbEllipse
 10
2.166448999996362
 20
-5.250223000000005
 30
0.0
 11
3.975814580917358
 21
-74.59412384033202
 31
0.0
210
0.0
220
0.0
230
1.0
 40
0.010271
 41
1.669548343906248
 42
1.704670584476639
  0
ARC
  5
20D2D
330
1F
100
AcDbEntity
  8
1
100
AcDbCircle
 10
7.576389999996365
 20
5.071346000000062
 30
0.0
 40
4.875594999999998
100
AcDbArc
 50
178.5967240000003
 51
183.2748479999989
  0
LINE
  5
20D2E
330
1F
100
AcDbEntity
  8
1
 48
0.082922
100
AcDbLine
 10
2.704276999996352
 20
5.323063000000047
 30
0.0
 11
2.789902999996371
 21
8.638830000000041
 31
0.0
  0
LINE
  5
20D2F
330
1F
100
AcDbEntity
  8
1
 48
0.003308
100
AcDbLine
 10
2.701769999996372
 20
5.190757000000019
 30
0.0
 11
2.704276999996352
 21
5.323063000000047
 31
0.0
  0
LINE
  5
20D30
330
1F
100
AcDbEntity
  8
1
 48
0.001058
100
AcDbLine
 10
2.701769999996372
 20
-1.971628000000009
 30
0.0
 11
2.701585999996353
 21
-1.929307999999991
 31
0.0
  0
LINE
  5
20D31
330
1F
100
AcDbEntity
  8
1
 48
0.002243
100
AcDbLine
 10
2.701585999996353
 20
-1.929307999999991
 30
0.0
 11
2.709285999996353
 21
-2.018712999999934
 31
0.0
  0
LINE
  5
20D32
330
1F
100
AcDbEntity
  8
1
 48
0.022345
100
AcDbLine
 10
2.480172999996369
 20
1.925170000000036
 30
0.0
 11
2.516633999996372
 21
1.032102000000008
 31
0.0
  0
ARC
  5
20D33
330
1F
100
AcDbEntity
  8
1
100
AcDbCircle
 10
349.3907079999963
 20
16.80912699999999
 30
0.0
 40
347.232886
100
AcDbArc
 50
182.6042140000002
 51
183.1482609999989
  0
LINE
  5
20D34
330
1F
100
AcDbEntity
  8
1
 48
0.047325
100
AcDbLine
 10
2.681729999996349
 20
-2.260860999999977
 30
0.0
 11
2.789902999996371
 21
-4.150747999999964
 31
0.0
  0
LINE
  5
20D35
330
1F
100
AcDbEntity
  8
1
 48
0.0528
100
AcDbLine
 10
2.704276999996352
 20
-2.040476000000012
 30
0.0
 11
2.789902999996371
 21
-4.150747999999964
 31
0.0
  0
LINE
  5
20D36
330
1F
100
AcDbEntity
  8
1
 48
0.001722
100
AcDbLine
 10
2.701769999996372
 20
-1.971627000000012
 30
0.0
 11
2.704276999996352
 21
-2.040476000000012
 31
0.0
  0
ARC
  5
20D37
330
1F
100
AcDbEntity
  8
1
100
AcDbCircle
 10
6.829163999996353
 20
-6.274308999999959
 30
0.0
 40
4.348751
100
AcDbArc
 50
180.8371099999992
 51
187.3320939999977
  0
ELLIPSE
  5
20D38
330
1F
100
AcDbEntity
  8
1
100
AcDbEllipse
 10
2.698304999996366
 20
-2.65524199999993
 30
0.0
 11
-0.1514479517936707
 21
-4.251959800720213
 31
0.0
210
0.0
220
0.0
230
1.0
 40
0.040967
 41
6.092819431785679
 42
6.284552207671215
  0
ELLIPSE
  5
20D39
330
1F
100
AcDbEntity
  8
1
100
AcDbEllipse
 10
2.698313999996372
 20
-2.655079
 30
0.0
 11
-0.1514562517404556
 21
-4.252122402191161
 31
0.0
210
0.0
220
0.0
230
1.0
 40
0.040965
 41
0.0013660743053847
 42
0.6437966053019239
  0
LINE
  5
20D3A
330
1F
100
AcDbEntity
  8
1
 48
0.039385
100
AcDbLine
 10
2.681729999996349
 20
-6.059751000000005
 30
0.0
 11
2.789902999996371
 21
-4.48808299999996
 31
0.0
  0
LINE
  5
20D3B
330
1F
100
AcDbEntity
  8
1
 48
0.006941
100
AcDbLine
 10
2.770231999996354
 20
-4.211141999999995
 30
0.0
 11
2.789902999996371
 21
-4.48808299999996
 31
0.0
  0
ARC
  5
20D3C
330
1F
100
AcDbEntity
  8
1
100
AcDbCircle
 10
-389.0503750000037
 20
19.04100100000005
 30
0.0
 40
390.530024
100
AcDbArc
 50
356.8731910000017
 51
357.2177679999994
  0
SPLINE
  5
20D3D
330
1F
100
AcDbEntity
  8
1
100
AcDbSpline
210
0.0
220
0.0
230
1.0
 70
     8
 71
     5
 72
    12
 73
     6
 74
     0
 42
0.000000001
 43
0.0000000001
 40
0.0
 40
0.0
 40
0.0
 40
0.0
 40
0.0
 40
0.0
 40
1.319145980823259
 40
1.319145980823259
 40
1.319145980823259
 40
1.319145980823259
 40
1.319145980823259
 40
1.319145980823259
 10
0.8962323040808257
 20
-3.002525971605564
 30
0.0
 10
0.8968130972817789
 20
-2.854755193407754
 30
0.0
 10
0.8936110185972552
 20
-2.705559577870531
 30
0.0
 10
0.8903907021724535
 20
-2.563549136512051
 30
0.0
 10
0.8900161688993364
 20
-2.412243132576236
 30
0.0
 10
0.8982704360468289
 20
-2.260861175278591
 30
0.0
  0
SPLINE
  5
20D3E
330
1F
100
AcDbEntity
  8
1
100
AcDbSpline
210
0.0
220
0.0
230
1.0
 70
     8
 71
     5
 72
    12
 73
     6
 74
     0
 42
0.000000001
 43
0.0000000001
 40
0.0
 40
0.0
 40
0.0
 40
0.0
 40
0.0
 40
0.0
 40
1.319145980307245
 40
1.319145980307245
 40
1.319145980307245
 40
1.319145980307245
 40
1.319145980307245
 40
1.319145980307245
 10
2.683767695758831
 20
-3.002525971610793
 30
0.0
 10
2.683186902554155
 20
-2.854755193470793
 30
0.0
 10
2.686388981232028
 20
-2.705559577992517
 30
0.0
 10
2.689609297653788
 20
-2.563549136573215
 30
0.0
 10
2.689983830923523
 20
-2.412243132697881
 30
0.0
 10
2.681729563783761
 20
-2.260861175459695
 30
0.0
  0
LINE
  5
20D3F
330
1F
100
AcDbEntity
  8
1
 48
0.000405
100
AcDbLine
 10
0.3599999999963757
 20
1.908989000000019
 30
0.0
 11
0.3599999999963757
 21
1.925170000000036
 31
0.0
  0
LINE
  5
20D40
330
1F
100
AcDbEntity
  8
1
 48
0.010968
100
AcDbLine
 10
0.7987259999963499
 20
1.906698000000005
 30
0.0
 11
0.3599999999963757
 21
1.908989000000019
 31
0.0
  0
SPLINE
  5
20D41
330
1F
100
AcDbEntity
  8
1
100
AcDbSpline
210
0.0
220
0.0
230
1.0
 70
     8
 71
     5
 72
    18
 73
    12
 74
     0
 42
0.000000001
 43
0.0000000001
 40
0.0
 40
0.0
 40
0.0
 40
0.0
 40
0.0
 40
0.0
 40
0.3244758007244608
 40
0.3244758007244608
 40
0.3244758007244608
 40
0.6294166412529357
 40
0.6294166412529357
 40
0.6294166412529357
 40
0.7683840216965999
 40
0.7683840216965999
 40
0.7683840216965999
 40
0.7683840216965999
 40
0.7683840216965999
 40
0.7683840216965999
 10
0.7987260467398869
 20
1.906697977874102
 30
0.0
 10
0.8361919213469946
 20
1.906502022502763
 30
0.0
 10
0.8736114900507345
 20
1.903309778470656
 30
0.0
 10
0.9107042616909666
 20
1.896971082244249
 30
0.0
 10
0.9774921335228725
 20
1.878815946582676
 30
0.0
 10
1.031839197702851
 20
1.848961159770396
 30
0.0
 10
1.054152944472178
 20
1.831747360442932
 30
0.0
 10
1.078612776334637
 20
1.803323480733979
 30
0.0
 10
1.090149590517626
 20
1.771565165056813
 30
0.0
 10
1.092461758433898
 20
1.761229976864115
 30
0.0
 10
1.09338430947244
 20
1.750910988420059
 30
0.0
 10
1.092985977474313
 20
1.740544026973054
 30
0.0
  0
ARC
  5
20D42
330
1F
100
AcDbEntity
  8
1
100
AcDbCircle
 10
-177.0312350000036
 20
8.865546999999992
 30
0.0
 40
178.266785
100
AcDbArc
 50
357.1766429999992
 51
357.7093789999996
  0
ELLIPSE
  5
20D43
330
1F
100
AcDbEntity
  8
1
100
AcDbEllipse
 10
0.8816719999963709
 20
-2.654226999999991
 30
0.0
 11
0.1514710634946822
 21
-4.252974510192871
 31
0.0
210
0.0
220
0.0
230
1.0
 40
0.040962
 41
5.774315384375488
 42
6.206096900682936
  0
LINE
  5
20D44
330
1F
100
AcDbEntity
  8
1
 48
0.000666
100
AcDbLine
 10
2.683834999996349
 20
-6.033198999999967
 30
0.0
 11
2.681729999996349
 21
-6.059751000000005
 31
0.0
  0
LINE
  5
20D45
330
1F
100
AcDbEntity
  8
1
 48
0.000399
100
AcDbLine
 10
0.3599999999963757
 20
-6.35381499999994
 30
0.0
 11
0.3599999999963757
 21
-6.337853999999992
 31
0.0
  0
LINE
  5
20D46
330
1F
100
AcDbEntity
  8
1
 48
0.010968
100
AcDbLine
 10
0.7987259999963499
 20
-6.356041000000004
 30
0.0
 11
0.3599999999963757
 21
-6.35381499999994
 31
0.0
  0
SPLINE
  5
20D47
330
1F
100
AcDbEntity
  8
1
100
AcDbSpline
210
0.0
220
0.0
230
1.0
 70
     8
 71
     5
 72
    18
 73
    12
 74
     0
 42
0.000000001
 43
0.0000000001
 40
0.0
 40
0.0
 40
0.0
 40
0.0
 40
0.0
 40
0.0
 40
0.3153291950912913
 40
0.3153291950912913
 40
0.3153291950912913
 40
0.6788196967646851
 40
0.6788196967646851
 40
0.6788196967646851
 40
0.7404787691932434
 40
0.7404787691932434
 40
0.7404787691932434
 40
0.7404787691932434
 40
0.7404787691932434
 40
0.7404787691932434
 10
0.7987260467398869
 20
-6.356041391905023
 30
0.0
 10
0.8351358105568635
 20
-6.356226106281212
 30
0.0
 10
0.8715021369098678
 20
-6.359155539837956
 30
0.0
 10
0.9065364208329071
 20
-6.364748623920377
 30
0.0
 10
0.9792852603416122
 20
-6.382822589255738
 30
0.0
 10
1.037909551498501
 20
-6.412380266383308
 30
0.0
 10
1.063601377878853
 20
-6.431049395538707
 30
0.0
 10
1.083911615841657
 20
-6.455410414748712
 30
0.0
 10
1.091353143236347
 20
-6.480387835502483
 30
0.0
 10
1.092157979113352
 20
-6.484019145761294
 30
0.0
 10
1.092681894832821
 20
-6.487634681660324
 30
0.0
 10
1.092926657086763
 20
-6.491234165996274
 30
0.0
  0
LINE
  5
20D48
330
1F
100
AcDbEntity
  8
1
 48
0.000172
100
AcDbLine
 10
1.092926999996365
 20
-6.491233999999963
 30
0.0
 11
1.092985999996358
 21
-6.498110999999994
 31
0.0
  0
ELLIPSE
  5
20D49
330
1F
100
AcDbEntity
  8
1
100
AcDbEllipse
 10
0.882157999996366
 20
-2.665082999999981
 30
0.0
 11
0.1509854793548583
 21
-4.242118358612056
 31
0.0
210
0.0
220
0.0
230
1.0
 40
0.04101
 41
6.281722632099417
 42
6.724507072381991
  0
ARC
  5
20D4A
330
1F
100
AcDbEntity
  8
1
100
AcDbCircle
 10
1.038038999996359
 20
-6.88844199999994
 30
0.0
 40
0.019661
100
AcDbArc
 50
199.3987619999982
 51
254.6515949999993
  0
LINE
  5
20D4B
330
1F
100
AcDbEntity
  8
1
 48
0.005773
100
AcDbLine
 10
0.3599999999963757
 20
-2.187261999999975
 30
0.0
 11
0.3599999999963757
 21
-1.956322999999997
 31
0.0
  0
LINE
  5
20D4C
330
1F
100
AcDbEntity
  8
1
 48
0.005455
100
AcDbLine
 10
0.5781879999963735
 20
-1.956837999999947
 30
0.0
 11
0.3599999999963757
 21
-1.956323999999995
 31
0.0
  0
SPLINE
  5
20D4D
330
1F
100
AcDbEntity
  8
1
100
AcDbSpline
210
0.0
220
0.0
230
1.0
 70
     8
 71
     5
 72
    15
 73
     9
 74
     0
 42
0.000000001
 43
0.0000000001
 40
0.0
 40
0.0
 40
0.0
 40
0.0
 40
0.0
 40
0.0
 40
0.3429748747952158
 40
0.3429748747952158
 40
0.3429748747952158
 40
0.5559935785655226
 40
0.5559935785655226
 40
0.5559935785655226
 40
0.5559935785655226
 40
0.5559935785655226
 40
0.5559935785655226
 10
0.5781884222665213
 20
-1.956838041593414
 30
0.0
 10
0.6177911716506231
 20
-1.956931907775128
 30
0.0
 10
0.6573603297334501
 20
-1.959158576318031
 30
0.0
 10
0.6964856712321251
 20
-1.963595405247531
 30
0.0
 10
0.7554517410199253
 20
-1.975702328644047
 30
0.0
 10
0.8039952061901374
 20
-1.999941016901857
 30
0.0
 10
0.8204759314982652
 20
-2.011328080391876
 30
0.0
 10
0.8341083572342711
 20
-2.024913321216672
 30
0.0
 10
0.8448704860659574
 20
-2.040476378017729
 30
0.0
  0
LINE
  5
20D4E
330
1F
100
AcDbEntity
  8
1
 48
0.046485
100
AcDbLine
 10
0.8448699999963764
 20
5.323063000000047
 30
0.0
 11
2.704276999996352
 21
5.323063000000047
 31
0.0
  0
LINE
  5
20D4F
330
1F
100
AcDbEntity
  8
1
 48
0.009721
100
AcDbLine
 10
0.3599999999963757
 20
4.760324000000025
 30
0.0
 11
0.3599999999963757
 21
5.149168000000031
 31
0.0
  0
LINE
  5
20D50
330
1F
100
AcDbEntity
  8
1
 48
0.005455
100
AcDbLine
 10
0.5781879999963735
 20
5.15071800000004
 30
0.0
 11
0.3599999999963757
 21
5.149168000000031
 31
0.0
  0
ARC
  5
20D51
330
1F
100
AcDbEntity
  8
1
100
AcDbCircle
 10
0.5800739999963583
 20
5.441245000000037
 30
0.0
 40
0.290195
100
AcDbArc
 50
269.6281340000004
 51
335.9481499999973
  0
LINE
  5
20D52
330
1F
100
AcDbEntity
  8
1
 48
0.096633
100
AcDbLine
 10
0.3599999999963757
 20
1.908989000000019
 30
0.0
 11
0.3599999999963757
 21
-1.956323999999995
 31
0.0
  0
ARC
  5
20D53
330
1F
100
AcDbEntity
  8
1
100
AcDbCircle
 10
0.5458159999963641
 20
5.453802999999993
 30
0.0
 40
0.326404
100
AcDbArc
 50
336.3861230000023
 51
1.584158999998962
  0
ELLIPSE
  5
20D54
330
1F
100
AcDbEntity
  8
1
100
AcDbEllipse
 10
0.0350089999963643
 20
-25.86645199999998
 30
0.0
 11
3.991781711578369
 21
74.89369964599609
 31
0.0
210
0.0
220
0.0
230
1.0
 40
0.010271
 41
1.191436625830105
 42
1.246408639659029
  0
ELLIPSE
  5
20D55
330
1F
100
AcDbEntity
  8
1
100
AcDbEllipse
 10
0.3345679999963522
 20
-25.88241799999997
 30
0.0
 11
3.975814580917358
 21
74.59412384033202
 31
0.0
210
0.0
220
0.0
230
1.0
 40
0.010271
 41
1.192000911494004
 42
1.247271206903797
  0
ARC
  5
20D56
330
1F
100
AcDbEntity
  8
1
100
AcDbCircle
 10
0.7271019999963642
 20
-2.125488999999959
 30
0.0
 40
0.145147
100
AcDbArc
 50
358.4444039999987
 51
35.82420400000053
  0
ELLIPSE
  5
20D57
330
1F
100
AcDbEntity
  8
1
100
AcDbEllipse
 10
0.3345679999963522
 20
-52.78958199999999
 30
0.0
 11
-2.654482364654541
 21
74.65282440185545
 31
0.0
210
0.0
220
0.0
230
1.0
 40
0.040955
 41
5.379789365529345
 42
5.380028996593186
  0
LINE
  5
20D58
330
1F
100
AcDbEntity
  8
1
 48
0.019958
100
AcDbLine
 10
0.872112999996375
 20
5.462827000000061
 30
0.0
 11
0.8515039999963676
 21
6.260896999999999
 31
0.0
  0
LINE
  5
20D59
330
1F
100
AcDbEntity
  8
1
 48
0.059468
100
AcDbLine
 10
0.8515039999963676
 20
6.260896999999999
 30
0.0
 11
0.790096999996365
 21
8.638830000000041
 31
0.0
  0
LINE
  5
20D5A
330
1F
100
AcDbEntity
  8
1
 48
0.012708
100
AcDbLine
 10
0.872112999996375
 20
-2.129426999999964
 30
0.0
 11
0.8515039999963676
 21
-2.637346999999977
 31
0.0
  0
LINE
  5
20D5B
330
1F
100
AcDbEntity
  8
1
 48
0.037866
100
AcDbLine
 10
0.8515039999963676
 20
-2.637346999999977
 30
0.0
 11
0.790096999996365
 21
-4.150747999999964
 31
0.0
  0
LINE
  5
20D5C
330
1F
100
AcDbEntity
  8
1
 48
0.047325
100
AcDbLine
 10
0.8982699999963585
 20
-2.260860999999977
 30
0.0
 11
0.790096999996365
 21
-4.150747999999964
 31
0.0
  0
ARC
  5
20D5D
330
1F
100
AcDbEntity
  8
1
100
AcDbCircle
 10
2.580891999996367
 20
8.645240000000057
 30
0.0
 40
0.209058
100
AcDbArc
 50
358.2435739999996
 51
39.92495700000077
  0
ARC
  5
20D5E
330
1F
100
AcDbEntity
  8
1
100
AcDbCircle
 10
0.9991079999963687
 20
8.645240000000057
 30
0.0
 40
0.209058
100
AcDbArc
 50
140.0750429999991
 51
181.7564260000004
  0
LINE
  5
20D5F
330
1F
100
AcDbEntity
  8
1
 48
0.047559
100
AcDbLine
 10
0.8388269999963711
 20
8.779375000000072
 30
0.0
 11
2.741172999996365
 21
8.779375000000072
 31
0.0
  0
LINE
  5
20D60
330
1F
100
AcDbEntity
  8
1
 48
0.000099
100
AcDbLine
 10
2.789906999996361
 20
-4.492062999999973
 30
0.0
 11
2.789902999996371
 21
-4.48808299999996
 31
0.0
  0
ARC
  5
20D61
330
1F
100
AcDbEntity
  8
1
100
AcDbCircle
 10
2.68217199999637
 20
-4.148954000000003
 30
0.0
 40
0.108159
100
AcDbArc
 50
302.8888249999979
 51
359.0458719999988
  0
ARC
  5
20D62
330
1F
100
AcDbEntity
  8
1
100
AcDbCircle
 10
0.897827999996366
 20
-4.148954000000003
 30
0.0
 40
0.108159
100
AcDbArc
 50
180.9541280000011
 51
237.1111750000018
  0
ARC
  5
20D63
330
1F
100
AcDbEntity
  8
1
100
AcDbCircle
 10
2.592109999996353
 20
8.63894700000003
 30
0.0
 40
0.204848
100
AcDbArc
 50
43.29128699999872
 51
90.15948500000064
  0
LINE
  5
20D64
330
1F
100
AcDbEntity
  8
1
 48
0.026888
100
AcDbLine
 10
2.530078999996362
 20
-3.182599999999979
 30
0.0
 11
2.591539999996371
 21
-4.256368999999949
 31
0.0
  0
ARC
  5
20D65
330
1F
100
AcDbEntity
  8
1
100
AcDbCircle
 10
2.602552999996362
 20
-3.637299999999981
 30
0.0
 40
0.6189230000000002
100
AcDbArc
 50
268.9808100000002
 51
282.9488250000004
  0
LINE
  5
20D66
330
1F
100
AcDbEntity
  8
1
 48
0.026888
100
AcDbLine
 10
1.049920999996373
 20
-3.182599999999979
 30
0.0
 11
0.9884599999963654
 21
-4.256368999999949
 31
0.0
  0
LINE
  5
20D67
330
1F
100
AcDbEntity
  8
1
 48
0.040077
100
AcDbLine
 10
2.591539999996371
 20
-4.256368999999949
 30
0.0
 11
0.9884599999963654
 21
-4.256368999999949
 31
0.0
  0
LINE
  5
20D68
330
1F
100
AcDbEntity
  8
1
 48
0.040077
100
AcDbLine
 10
2.591539999996371
 20
8.843835000000012
 30
0.0
 11
0.9884599999963654
 21
8.843835000000012
 31
0.0
  0
ARC
  5
20D69
330
1F
100
AcDbEntity
  8
1
100
AcDbCircle
 10
0.987889999996355
 20
8.63894700000003
 30
0.0
 40
0.204848
100
AcDbArc
 50
89.84051499999935
 51
136.7087130000013
  0
ARC
  5
20D6A
330
1F
100
AcDbEntity
  8
1
100
AcDbCircle
 10
0.9774469999963741
 20
-3.637299999999981
 30
0.0
 40
0.6189230000000002
100
AcDbArc
 50
257.0511749999994
 51
271.0191899999998
  0
ARC
  5
20D6B
330
1F
100
AcDbEntity
  8
1
100
AcDbCircle
 10
0.0749999999963507
 20
-4.705544999999972
 30
0.0
 40
0.285
100
AcDbArc
 50
0.0
 51
90.0
  0
ARC
  5
20D6C
330
1F
100
AcDbEntity
  8
1
100
AcDbCircle
 10
0.0749999999963507
 20
4.705544000000031
 30
0.0
 40
0.285
100
AcDbArc
 50
270.0
 51
0.0
  0
LINE
  5
20D6D
330
1F
100
AcDbEntity
  8
1
 48
0.001875
100
AcDbLine
 10
-0.000000000003638
 20
-4.420544999999947
 30
0.0
 11
0.0749999999963507
 21
-4.420544999999947
 31
0.0
  0
LINE
  5
20D6E
330
1F
100
AcDbEntity
  8
1
 48
0.001875
100
AcDbLine
 10
-0.000000000003638
 20
4.420544000000063
 30
0.0
 11
0.0749999999963507
 21
4.420544000000063
 31
0.0
  0
ARC
  5
20D6F
330
1F
100
AcDbEntity
  8
SK1
100
AcDbCircle
 10
-0.2000000000036266
 20
-3.58499299999994
 30
0.0
 40
0.2
100
AcDbArc
 50
0.0
 51
86.9999999999993
  0
ARC
  5
20D70
330
1F
100
AcDbEntity
  8
SK1
100
AcDbCircle
 10
-0.2000000000036266
 20
3.584992000000056
 30
0.0
 40
0.2
100
AcDbArc
 50
273.0000000000007
 51
0.0
  0
LINE
  5
20D71
330
1F
100
AcDbEntity
  8
SK1
 48
0.029302
100
AcDbLine
 10
-1.360000000003623
 20
-3.323925999999971
 30
0.0
 11
-0.1895330000036495
 21
-3.385267999999996
 31
0.0
  0
LINE
  5
20D72
330
1F
100
AcDbEntity
  8
SK1
 48
0.029302
100
AcDbLine
 10
-1.360000000003623
 20
3.323925000000031
 30
0.0
 11
-0.1895330000036495
 21
3.385266000000001
 31
0.0
  0
ARC
  5
20D73
330
1F
100
AcDbEntity
  8
SK1
100
AcDbCircle
 10
-1.551978000003629
 20
-3.380000999999992
 30
0.0
 40
0.2
100
AcDbArc
 50
16.28246099999992
 51
90.00000099999978
  0
ARC
  5
20D74
330
1F
100
AcDbEntity
  8
SK1
100
AcDbCircle
 10
-1.551978000003629
 20
3.379998999999997
 30
0.0
 40
0.2
100
AcDbArc
 50
269.9999990000002
 51
343.7175389999999
  0
LINE
  5
20D75
330
1F
100
AcDbEntity
  8
SK1
 48
0.026588
100
AcDbLine
 10
-2.615503000003627
 20
-3.180000999999947
 30
0.0
 11
-1.551978000003629
 21
-3.180000999999947
 31
0.0
  0
SPLINE
  5
20D76
330
1F
100
AcDbEntity
  8
SK1
100
AcDbSpline
210
0.0
220
0.0
230
1.0
 70
     8
 71
     3
 72
    18
 73
    14
 74
     0
 42
0.000000001
 43
0.0000000001
 40
0.0
 40
0.0
 40
0.0
 40
0.0
 40
0.0202659980461129
 40
0.0399152998614968
 40
0.059228783919609
 40
0.0785241105138499
 40
0.1002748961213795
 40
0.123437237234552
 40
0.1397926111217496
 40
0.1577498823481007
 40
0.1723998614962255
 40
0.1875640742831774
 40
0.1931751949199229
 40
0.1931751949199229
 40
0.1931751949199229
 40
0.1931751949199229
 10
-6.426737046511561
 20
3.01239567741436
 30
0.0
 10
-6.424705469502555
 20
3.018838752593012
 30
0.0
 10
-6.420551646301191
 20
3.031480051835842
 30
0.0
 10
-6.413847988022155
 20
3.050053619510208
 30
0.0
 10
-6.406626790986393
 20
3.068085383444781
 30
0.0
 10
-6.398367189295782
 20
3.086439447509917
 30
0.0
 10
-6.388528065157771
 20
3.105462222342111
 30
0.0
 10
-6.377823531084601
 20
3.122885528690858
 30
0.0
 10
-6.366542104169354
 20
3.138387015254807
 30
0.0
 10
-6.355957046045375
 20
3.150836278204963
 30
0.0
 10
-6.344712302070263
 20
3.162129401366087
 30
0.0
 10
-6.335757786079085
 20
3.169848932329955
 30
0.0
 10
-6.330269596078807
 20
3.174073333921967
 30
0.0
 10
-6.328770236873509
 20
3.175191624087347
 30
0.0
  0
SPLINE
  5
20D77
330
1F
100
AcDbEntity
  8
SK1
100
AcDbSpline
210
0.0
220
0.0
230
1.0
 70
     8
 71
     3
 72
    18
 73
    14
 74
     0
 42
0.000000001
 43
0.0000000001
 40
0.0
 40
0.0
 40
0.0
 40
0.0
 40
0.0202804507852816
 40
0.039995876695679
 40
0.0593761395507064
 40
0.078708344085822
 40
0.1004006432693969
 40
0.1235324611656469
 40
0.1398481790800531
 40
0.1577807971585161
 40
0.1719925321109689
 40
0.1875524104710477
 40
0.1937754671862485
 40
0.1937754671862485
 40
0.1937754671862485
 40
0.1937754671862485
 10
-5.686817258996825
 20
-3.012006264684316
 30
0.0
 10
-5.684786039995572
 20
-3.018454503971497
 30
0.0
 10
-5.680627485047978
 20
-3.031122520651251
 30
0.0
 10
-5.673911533044361
 20
-3.049743905220225
 30
0.0
 10
-5.666671070780552
 20
-3.067828974064809
 30
0.0
 10
-5.658403830756469
 20
-3.086196190533769
 30
0.0
 10
-5.64856963599783
 20
-3.105201891441311
 30
0.0
 10
-5.637885347776347
 20
-3.122587265207926
 30
0.0
 10
-5.626621352990014
 20
-3.1380622054794
 30
0.0
 10
-5.616144844925315
 20
-3.150383767378571
 30
0.0
 10
-5.604928803850242
 20
-3.161672354105121
 30
0.0
 10
-5.595839631063967
 20
-3.169527966281748
 30
0.0
 10
-5.590078692418131
 20
-3.173948999042465
 30
0.0
 10
-5.588411911881451
 20
-3.175184046247863
 30
0.0
  0
SPLINE
  5
20D78
330
1F
100
AcDbEntity
  8
SK1
100
AcDbSpline
210
0.0
220
0.0
230
1.0
 70
     8
 71
     3
 72
    19
 73
    15
 74
     0
 42
0.000000001
 43
0.0000000001
 40
0.0
 40
0.0
 40
0.0
 40
0.0
 40
0.0100107310852071
 40
0.0275462364200163
 40
0.0446934792896192
 40
0.0616415920878787
 40
0.0786059258488341
 40
0.1002968944048313
 40
0.1234218151223864
 40
0.1397905819657048
 40
0.1577361050848525
 40
0.1721124128256679
 40
0.187491186069206
 40
0.1929233629886487
 40
0.1929233629886487
 40
0.1929233629886487
 40
0.1929233629886487
 10
-4.946874614249026
 20
3.012492705002728
 30
0.0
 10
-4.945872176061726
 20
3.015675524558332
 30
0.0
 10
-4.94306155758278
 20
3.024417009197577
 30
0.0
 10
-4.938245611661784
 20
3.038516717553193
 30
0.0
 10
-4.932242785412483
 20
3.054648740406491
 30
0.0
 10
-4.925801050828965
 20
3.070406235840209
 30
0.0
 10
-4.918140836962976
 20
3.087289087171029
 30
0.0
 10
-4.908673138407039
 20
3.105592248812627
 30
0.0
 10
-4.897983572481393
 20
3.122991834657113
 30
0.0
 10
-4.886708906781677
 20
3.138483532551731
 30
0.0
 10
-4.876181468263951
 20
3.150862747844087
 30
0.0
 10
-4.864959994660381
 20
3.16214475795698
 30
0.0
 10
-4.856070840135885
 20
3.169819212366974
 30
0.0
 10
-4.850575859247925
 20
3.174054157601176
 30
0.0
 10
-4.849125504396255
 20
3.175138358529522
 30
0.0
  0
SPLINE
  5
20D79
330
1F
100
AcDbEntity
  8
SK1
100
AcDbSpline
210
0.0
220
0.0
230
1.0
 70
     8
 71
     3
 72
    18
 73
    14
 74
     0
 42
0.000000001
 43
0.0000000001
 40
0.0
 40
0.0
 40
0.0
 40
0.0
 40
0.0225127256878838
 40
0.0443580890160752
 40
0.0615667454866209
 40
0.0787395617863798
 40
0.1005350541400303
 40
0.1235882022702887
 40
0.1400456666408663
 40
0.1577985010168021
 40
0.172018121919381
 40
0.1875313883096246
 40
0.1938321841035084
 40
0.1938321841035084
 40
0.1938321841035084
 40
0.1938321841035084
 10
-4.206805343740597
 20
-3.01201295169892
 30
0.0
 10
-4.204550528252838
 20
-3.019171047713484
 30
0.0
 10
-4.199919899308071
 20
-3.033214940215316
 30
0.0
 10
-4.192855991829731
 20
-3.052488364548253
 30
0.0
 10
-4.185771086918578
 20
-3.069844004696221
 30
0.0
 10
-4.178032557575136
 20
-3.086901485287171
 30
0.0
 10
-4.16852067552378
 20
-3.105272603686103
 30
0.0
 10
-4.157800540377706
 20
-3.122700766467232
 30
0.0
 10
-4.146550453846714
 20
-3.13813815766872
 30
0.0
 10
-4.136073699897792
 20
-3.15044569516408
 30
0.0
 10
-4.124907046203929
 20
-3.161680695580685
 30
0.0
 10
-4.115807442645262
 20
-3.169543972284259
 30
0.0
 10
-4.110037516398307
 20
-3.173970386172868
 30
0.0
 10
-4.108349435426703
 20
-3.175220224413351
 30
0.0
  0
SPLINE
  5
20D7A
330
1F
100
AcDbEntity
  8
SK1
100
AcDbSpline
210
0.0
220
0.0
230
1.0
 70
     8
 71
     3
 72
    19
 73
    15
 74
     0
 42
0.000000001
 43
0.0000000001
 40
0.0
 40
0.0
 40
0.0
 40
0.0
 40
0.0166726455110456
 40
0.0328976443823501
 40
0.048845042337282
 40
0.0646062105215419
 40
0.0783972833373192
 40
0.1001289544321715
 40
0.1232912983999809
 40
0.1397591236624848
 40
0.1575127846918223
 40
0.1717430934988423
 40
0.1872485004796047
 40
0.1927350724175103
 40
0.1927350724175103
 40
0.1927350724175103
 40
0.1927350724175103
 10
-3.466849049071186
 20
3.012655321890122
 30
0.0
 10
-3.465177851746688
 20
3.017955891716269
 30
0.0
 10
-3.461776439615078
 20
3.02838158411987
 30
0.0
 10
-3.456370048572409
 20
3.043741298893053
 30
0.0
 10
-3.450664864412374
 20
3.058668111306701
 30
0.0
 10
-3.444812135410131
 20
3.072663190142691
 30
0.0
 10
-3.437680990398945
 20
3.088202467278279
 30
0.0
 10
-3.428685100677114
 20
3.105587693690608
 30
0.0
 10
-3.417959659283013
 20
3.123034634471991
 30
0.0
 10
-3.406686479246644
 20
3.138504908114612
 30
0.0
 10
-3.396205327973973
 20
3.150818286050252
 30
0.0
 10
-3.385038003986579
 20
3.162054324086795
 30
0.0
 10
-3.376143406134929
 20
3.169740766853863
 30
0.0
 10
-3.370600641293094
 20
3.174012588122081
 30
0.0
 10
-3.369135598305632
 20
3.175107426907743
 30
0.0
  0
SPLINE
  5
20D7B
330
1F
100
AcDbEntity
  8
SK1
100
AcDbSpline
210
0.0
220
0.0
230
1.0
 70
     8
 71
     3
 72
    19
 73
    15
 74
     0
 42
0.000000001
 43
0.0000000001
 40
0.0
 40
0.0
 40
0.0
 40
0.0
 40
0.0202524892860535
 40
0.0399472822356239
 40
0.0593110996738206
 40
0.0786833614792893
 40
0.0908578074672918
 40
0.1068612907482153
 40
0.1236840447310856
 40
0.1401887380437169
 40
0.1579694125432648
 40
0.1723595887612283
 40
0.1877437317604454
 40
0.1939760880556709
 40
0.1939760880556709
 40
0.1939760880556709
 40
0.1939760880556709
 10
-2.726874544600178
 20
-3.011901500470457
 30
0.0
 10
-2.724846068324268
 20
-3.018340806540209
 30
0.0
 10
-2.720692882657175
 20
-3.030993541787438
 30
0.0
 10
-2.713986325496392
 20
-3.049595310590689
 30
0.0
 10
-2.706749130539577
 20
-3.067682450735105
 30
0.0
 10
-2.69978488803764
 20
-3.083165302449117
 30
0.0
 10
-2.69268185282192
 20
-3.097337721186022
 30
0.0
 10
-2.685397337391179
 20
-3.110458127350398
 30
0.0
 10
-2.676605084201042
 20
-3.124366645516374
 30
0.0
 10
-2.666565175142608
 20
-3.138145987420216
 30
0.0
 10
-2.656035256905539
 20
-3.150515709013461
 30
0.0
 10
-2.644847205796168
 20
-3.161762595522247
 30
0.0
 10
-2.635750601346501
 20
-3.169615069298401
 30
0.0
 10
-2.630033118221859
 20
-3.174001611788185
 30
0.0
 10
-2.628363670530177
 20
-3.175238270154864
 30
0.0
  0
SPLINE
  5
20D7C
330
1F
100
AcDbEntity
  8
SK1
100
AcDbSpline
210
0.0
220
0.0
230
1.0
 70
     8
 71
     3
 72
    19
 73
    15
 74
     0
 42
0.000000001
 43
0.0000000001
 40
0.0
 40
0.0
 40
0.0
 40
0.0
 40
0.0202540862977212
 40
0.0399415273617422
 40
0.0592905973202307
 40
0.0786458403894492
 40
0.0976455545369788
 40
0.117589755098095
 40
0.1236304763366739
 40
0.1401045789661222
 40
0.1578686184980384
 40
0.1722439785654912
 40
0.187623899810146
 40
0.193276860530138
 40
0.193276860530138
 40
0.193276860530138
 40
0.193276860530138
 10
-1.986816861341253
 20
3.012209806765667
 30
0.0
 10
-1.984788416664684
 20
3.018649695690498
 30
0.0
 10
-1.980636043066908
 20
3.031300672021416
 30
0.0
 10
-1.973931716754378
 20
3.049895942354908
 30
0.0
 10
-1.96669935838733
 20
3.067971132731031
 30
0.0
 10
-1.958806404173998
 20
3.085519642242957
 30
0.0
 10
-1.949938625977921
 20
3.102821539562114
 30
0.0
 10
-1.942274538402045
 20
3.115726551155603
 30
0.0
 10
-1.934457717739746
 20
3.127525745745401
 30
0.0
 10
-1.926544474482483
 20
3.138386168823615
 30
0.0
 10
-1.91602847422655
 20
3.150740075898511
 30
0.0
 10
-1.904849322105832
 20
3.161979096298068
 30
0.0
 10
-1.895904209858542
 20
3.169701503164674
 30
0.0
 10
-1.890347941134024
 20
3.173978239144503
 30
0.0
 10
-1.888837256826008
 20
3.17510466915246
 30
0.0
  0
LINE
  5
20D7D
330
1F
100
AcDbEntity
  8
SK1
 48
0.008093
100
AcDbLine
 10
-1.875688000003634
 20
3.179999000000066
 30
0.0
 11
-1.551978000003629
 21
3.179999000000066
 31
0.0
  0
LINE
  5
20D7E
330
1F
100
AcDbEntity
  8
SK1
 48
0.014097
100
AcDbLine
 10
-3.356002000003627
 20
3.179999000000066
 30
0.0
 11
-2.792133000003644
 21
3.179999000000066
 31
0.0
  0
LINE
  5
20D7F
330
1F
100
AcDbEntity
  8
SK1
 48
0.014092
100
AcDbLine
 10
-6.315856000003634
 20
3.179999000000066
 30
0.0
 11
-5.752174000003634
 21
3.179999000000066
 31
0.0
  0
LINE
  5
20D80
330
1F
100
AcDbEntity
  8
SK1
 48
0.014074
100
AcDbLine
 10
-5.575433000003641
 20
-3.180000999999947
 30
0.0
 11
-5.012474000003635
 21
-3.180000999999947
 31
0.0
  0
LINE
  5
20D81
330
1F
100
AcDbEntity
  8
SK1
 48
0.014098
100
AcDbLine
 10
-4.836089000003624
 20
3.179999000000066
 30
0.0
 11
-4.272159000003625
 21
3.179999000000066
 31
0.0
  0
LINE
  5
20D82
330
1F
100
AcDbEntity
  8
SK1
 48
0.014077
100
AcDbLine
 10
-4.095478000003623
 20
-3.180000999999947
 30
0.0
 11
-3.53238600000364
 21
-3.180000999999947
 31
0.0
  0
LINE
  5
20D83
330
1F
100
AcDbEntity
  8
SK1
 48
0.005156
100
AcDbLine
 10
-6.42673700000364
 20
3.012396000000023
 30
0.0
 11
-6.488806000003648
 21
2.81571800000006
 31
0.0
  0
LINE
  5
20D84
330
1F
100
AcDbEntity
  8
SK1
 48
0.005937
100
AcDbLine
 10
-5.686817000003628
 20
-3.012005999999928
 30
0.0
 11
-5.75830700000364
 21
-2.785559999999975
 31
0.0
  0
LINE
  5
20D85
330
1F
100
AcDbEntity
  8
SK1
 48
0.005937
100
AcDbLine
 10
-4.946875000003643
 20
3.012493000000063
 30
0.0
 11
-5.018356000003649
 21
2.786035000000026
 31
0.0
  0
LINE
  5
20D86
330
1F
100
AcDbEntity
  8
SK1
 48
0.005931
100
AcDbLine
 10
-4.20680500000364
 20
-3.012012999999967
 30
0.0
 11
-4.278231000003643
 21
-2.785767999999961
 31
0.0
  0
LINE
  5
20D87
330
1F
100
AcDbEntity
  8
SK1
 48
0.005943
100
AcDbLine
 10
-3.466849000003634
 20
3.012654999999995
 30
0.0
 11
-3.538407000003644
 21
2.785961000000042
 31
0.0
  0
LINE
  5
20D88
330
1F
100
AcDbEntity
  8
SK1
 48
0.005937
100
AcDbLine
 10
-2.726875000003644
 20
-3.011901999999963
 30
0.0
 11
-2.798372000003638
 21
-2.785437999999999
 31
0.0
  0
LINE
  5
20D89
330
1F
100
AcDbEntity
  8
SK1
 48
0.005152
100
AcDbLine
 10
-1.98681700000364
 20
3.012210000000038
 30
0.0
 11
-2.048832000003642
 21
2.81570099999999
 31
0.0
  0
LINE
  5
20D8A
330
1F
100
AcDbEntity
  8
SK1
 48
0.005063
100
AcDbLine
 10
-6.650000000003643
 20
2.580287999999995
 30
0.0
 11
-6.580741000003627
 21
2.770577000000002
 31
0.0
  0
ARC
  5
20D8B
330
1F
100
AcDbEntity
  8
SK1
100
AcDbCircle
 10
-6.585789000003643
 20
2.897461000000021
 30
0.0
 40
0.126731
100
AcDbArc
 50
272.2915919999995
 51
323.1503099999985
  0
ARC
  5
20D8C
330
1F
100
AcDbEntity
  8
SK1
100
AcDbCircle
 10
-5.847778000003643
 20
-2.901351999999974
 30
0.0
 40
0.131221
100
AcDbArc
 50
40.95826599999854
 51
90.90861499999927
  0
ARC
  5
20D8D
330
1F
100
AcDbEntity
  8
SK1
100
AcDbCircle
 10
-5.106723000003626
 20
2.89863200000002
 30
0.0
 40
0.128026
100
AcDbArc
 50
268.5580440000002
 51
322.9915650000013
  0
ARC
  5
20D8E
330
1F
100
AcDbEntity
  8
SK1
100
AcDbCircle
 10
-4.367751000003636
 20
-2.901296999999999
 30
0.0
 40
0.131169
100
AcDbArc
 50
40.91903899999887
 51
90.91209700000034
  0
ARC
  5
20D8F
330
1F
100
AcDbEntity
  8
SK1
100
AcDbCircle
 10
-3.626828000003627
 20
2.898774000000003
 30
0.0
 40
0.128223
100
AcDbArc
 50
268.5970549999999
 51
322.9467079999994
  0
ARC
  5
20D90
330
1F
100
AcDbEntity
  8
SK1
100
AcDbCircle
 10
-2.887748000003625
 20
-2.901342999999997
 30
0.0
 40
0.131171
100
AcDbArc
 50
40.98666899999918
 51
90.89134799999932
  0
ARC
  5
20D91
330
1F
100
AcDbEntity
  8
SK1
100
AcDbCircle
 10
-2.14662800000363
 20
2.898586000000022
 30
0.0
 40
0.128107
100
AcDbArc
 50
268.5636920000006
 51
322.9507700000001
  0
ARC
  5
20D92
330
1F
100
AcDbEntity
  8
SK1
100
AcDbCircle
 10
-6.01203300000364
 20
2.941814000000022
 30
0.0
 40
0.360601
100
AcDbArc
 50
14.36864200000167
 51
39.27651200000101
  0
ARC
  5
20D93
330
1F
100
AcDbEntity
  8
SK1
100
AcDbCircle
 10
-5.269196000003631
 20
-2.942841999999927
 30
0.0
 40
0.357512
100
AcDbArc
 50
320.5144460000017
 51
345.7176439999985
  0
ARC
  5
20D94
330
1F
100
AcDbEntity
  8
SK1
100
AcDbCircle
 10
-4.530557000003625
 20
2.942498
 30
0.0
 40
0.358971
100
AcDbArc
 50
14.26434600000143
 51
39.35934499999872
  0
ARC
  5
20D95
330
1F
100
AcDbEntity
  8
SK1
100
AcDbCircle
 10
-3.789835000003648
 20
-2.942385999999942
 30
0.0
 40
0.358425
100
AcDbArc
 50
320.5676619999984
 51
345.7112099999981
  0
ARC
  5
20D96
330
1F
100
AcDbEntity
  8
SK1
100
AcDbCircle
 10
-3.048399000003627
 20
2.943534999999997
 30
0.0
 40
0.356624
100
AcDbArc
 50
14.24408099999947
 51
39.46945300000034
  0
LINE
  5
20D97
330
1F
100
AcDbEntity
  8
SK1
 48
0.000144
100
AcDbLine
 10
-5.849861000003642
 20
-2.770008999999959
 30
0.0
 11
-5.855633000003649
 21
-2.770008999999959
 31
0.0
  0
LINE
  5
20D98
330
1F
100
AcDbEntity
  8
SK1
 48
0.00958
100
AcDbLine
 10
-5.109951000003633
 20
2.770372000000065
 30
0.0
 11
-5.49317000000363
 21
2.770372000000065
 31
0.0
  0
LINE
  5
20D99
330
1F
100
AcDbEntity
  8
SK1
 48
0.00958
100
AcDbLine
 10
-4.369841000003646
 20
-2.770003999999971
 30
0.0
 11
-4.753046000003649
 21
-2.770003999999971
 31
0.0
  0
LINE
  5
20D9A
330
1F
100
AcDbEntity
  8
SK1
 48
0.00958
100
AcDbLine
 10
-3.629974000003642
 20
2.770334000000048
 30
0.0
 11
-4.013186000003628
 21
2.770334000000048
 31
0.0
  0
LINE
  5
20D9B
330
1F
100
AcDbEntity
  8
SK1
 48
0.00958
100
AcDbLine
 10
-2.88979100000364
 20
-2.770056999999951
 30
0.0
 11
-3.273003000003626
 21
-2.770056999999951
 31
0.0
  0
LINE
  5
20D9C
330
1F
100
AcDbEntity
  8
SK1
 48
0.00958
100
AcDbLine
 10
-2.149846000003634
 20
2.770226000000036
 30
0.0
 11
-2.533059000003646
 21
2.770226000000036
 31
0.0
  0
ARC
  5
20D9D
330
1F
100
AcDbEntity
  8
SK1
100
AcDbCircle
 10
-5.495264000003629
 20
2.901685000000043
 30
0.0
 40
0.131189
100
AcDbArc
 50
220.9821770000013
 51
270.9139459999994
  0
ARC
  5
20D9E
330
1F
100
AcDbEntity
  8
SK1
100
AcDbCircle
 10
-4.756320000003626
 20
-2.898221999999975
 30
0.0
 40
0.12799
100
AcDbArc
 50
88.53715399999934
 51
142.9349240000018
  0
ARC
  5
20D9F
330
1F
100
AcDbEntity
  8
SK1
100
AcDbCircle
 10
-4.015259000003624
 20
2.90169800000001
 30
0.0
 40
0.131242
100
AcDbArc
 50
221.0204169999988
 51
270.9042260000001
  0
ARC
  5
20DA0
330
1F
100
AcDbEntity
  8
SK1
100
AcDbCircle
 10
-3.276026000003639
 20
-2.898810999999966
 30
0.0
 40
0.12855
100
AcDbArc
 50
88.65527800000029
 51
142.7349839999999
  0
ARC
  5
20DA1
330
1F
100
AcDbEntity
  8
SK1
100
AcDbCircle
 10
-2.535155000003641
 20
2.901581000000021
 30
0.0
 40
0.131232
100
AcDbArc
 50
220.9589150000014
 51
270.9145299999991
  0
LINE
  5
20DA2
330
1F
100
AcDbEntity
  8
SK1
 48
0.020422
100
AcDbLine
 10
-5.860924000003649
 20
-2.769476999999938
 30
0.0
 11
-6.650000000003643
 21
-2.558088999999995
 31
0.0
  0
LINE
  5
20DA3
330
1F
100
AcDbEntity
  8
SK1
 48
0.006438
100
AcDbLine
 10
-5.584664000003641
 20
2.785873000000037
 30
0.0
 11
-5.662168000003646
 21
3.031440000000031
 31
0.0
  0
LINE
  5
20DA4
330
1F
100
AcDbEntity
  8
SK1
 48
0.006441
100
AcDbLine
 10
-4.844600000003623
 20
-2.785479000000009
 30
0.0
 11
-4.922156000003639
 21
-3.031187999999929
 31
0.0
  0
LINE
  5
20DA5
330
1F
100
AcDbEntity
  8
SK1
 48
0.006429
100
AcDbLine
 10
-4.104676000003649
 20
2.785865000000057
 30
0.0
 11
-4.182076000003632
 21
3.031094000000052
 31
0.0
  0
LINE
  5
20DA6
330
1F
100
AcDbEntity
  8
SK1
 48
0.006435
100
AcDbLine
 10
-3.364441000003637
 20
-2.785535999999979
 30
0.0
 11
-3.441922000003643
 21
-3.030994999999961
 31
0.0
  0
LINE
  5
20DA7
330
1F
100
AcDbEntity
  8
SK1
 48
0.006434
100
AcDbLine
 10
-2.624702000003622
 20
2.786005000000045
 30
0.0
 11
-2.702161000003627
 21
3.031430999999997
 31
0.0
  0
LINE
  5
20DA8
330
1F
100
AcDbEntity
  8
1
 48
0.037855
100
AcDbLine
 10
2.547094999996375
 20
-6.907205999999973
 30
0.0
 11
1.032888999996373
 21
-6.907205999999973
 31
0.0
  0
LINE
  5
20DA9
330
1F
100
AcDbEntity
  8
1
 48
0.03862
100
AcDbLine
 10
2.683834999996349
 20
-6.033198999999967
 30
0.0
 11
2.789907999996358
 21
-4.492062999999973
 31
0.0
  0
LINE
  5
20DAA
330
1F
100
AcDbEntity
  8
SK4
100
AcDbLine
 10
-0.000000000003638
 20
0.0
 30
0.0
 11
-7.664388172182725
 21
0.0
 31
0.0
  0
LINE
  5
20DAB
330
1F
100
AcDbEntity
  8
4
100
AcDbLine
 10
-0.000000000003638
 20
0.0
 30
0.0
 11
4.527611241325075
 21
0.0
 31
0.0
  0
DIMENSION
  5
20DAC
330
1F
100
AcDbEntity
  8
2
100
AcDbDimension
  2
*D14
 10
2.789902999996358
 20
24.74697029342565
 30
0.0
 11
12.9811117139809
 21
26.59803845927245
 31
0.0
 70
    32
 71
     5
 42
1.999759971591117
  3
STANDARD
100
AcDbAlignedDimension
 13
0.7901430284052396
 23
9.172074820598027
 33
0.0
 14
2.789902999996357
 24
9.172073000000068
 34
0.0
100
AcDbRotatedDimension
1001
ACAD
1000
DSTYLE
1002
{
1070
   172
1070
     1
1002
}
  0
DIMENSION
  5
20DAD
330
1F
100
AcDbEntity
  8
2
100
AcDbDimension
  2
*D15
 10
2.582052999996312
 20
9.178393000000083
 30
0.0
 11
17.64231658556966
 21
15.75590430146934
 31
0.0
 70
   164
 71
     5
 42
0.2079000000001487
  3
STANDARD
100
AcDbRadialDimension
 15
2.772574816594875
 25
9.261602659295419
 35
0.0
 40
0.0
1001
ACAD
1000
DSTYLE
1002
{
1070
   288
1070
     1
1002
}
1001
ACAD_DSTYLE_DIMRADIAL_EXTENSION
1070
   387
1070
     1
1070
   388
1040
6.252790153910027
1070
   390
1040
0.6989008499457953
  0
LWPOLYLINE
  5
20DAF
330
1F
100
AcDbEntity
  8
NOCUT
100
AcDbPolyline
 90
       16
 70
     1
 43
0.0
 10
0.0
 20
4.420544000000063
 10
0.0
 20
3.879392000000052
 10
0.0
 20
0.0
 10
2.396050040537332
 20
0.0
 10
2.396050040537332
 20
1.346000000000003
 10
2.664825361115546
 20
2.870321710574671
 10
2.705193000000008
 20
4.626543000000026
 10
2.709072846774589
 20
4.784191990247677
 10
2.70142031224492
 20
4.993261766674152
 42
-0.0101272686044538
 10
2.702257221297713
 20
5.190745579584245
 10
2.70427699999999
 20
5.323063000000047
 10
2.708736232858228
 20
5.495741592585577
 10
0.3599552354438202
 20
5.495606055651176
 10
0.3599999999999994
 20
4.705544000000031
 42
-0.3659369825159713
 10
0.1225400472350628
 20
4.424536982456174
 10
0.0749999999999886
 20
4.420544000000006
  0
LWPOLYLINE
  5
20DB0
330
1F
100
AcDbEntity
  8
CUT
100
AcDbPolyline
 90
       26
 70
     1
 43
0.0
 10
0.8740614598317648
 20
9.507192162714858
 10
0.8387759568234969
 20
9.477151742908262
 10
0.8157632434296857
 20
9.443570378655209
 42
0.049099902094792
 10
0.7997308716672081
 20
9.406124910896579
 10
0.7901042371586016
 20
9.336815591679027
 10
0.8515039999963818
 20
6.982802058187559
 10
0.8721118764033093
 20
6.202984575791074
 10
0.8616080469032993
 20
6.113976834129886
 10
0.8447118663936095
 20
6.066731559547889
 10
0.7940937329722289
 20
5.990885004503383
 42
-0.1665081762228762
 10
0.6264796242367084
 20
5.900242716072991
 10
0.5762586937921413
 20
5.896052113718123
 10
0.3599999999963757
 20
5.894489058187527
 10
0.3599999999963757
 20
5.495606058187515
 10
2.708736232858228
 20
5.495741592585577
 42
-0.0168957743854203
 10
2.702085511584073
 20
5.93654952036897
 10
2.70427699999638
 20
6.067220058187526
 10
2.789890214059553
 20
9.336604790726852
 10
2.787100384041423
 20
9.377734775747768
 42
0.0490999020948918
 10
2.776472541292164
 20
9.417057147986696
 10
2.741230561342916
 20
9.477137380774962
 10
2.710844044260809
 20
9.503789614445537
 42
0.099305495956889
 10
2.637567336857159
 20
9.536783993123407
 10
2.591276914037734
 20
9.541968058187563
 10
0.988763022330275
 20
9.541968058187563
 10
0.9482709100439592
 20
9.538031461855638
 42
0.0993054959571493
  0
LINE
  5
20DB1
330
1F
100
AcDbEntity
  8
INFTOTAL
100
AcDbLine
 10
-12.8943282651789
 20
-23.30257998955616
 30
0.0
 11
34.93089014026265
 21
-23.30257998955616
 31
0.0
  0
LINE
  5
20DB2
330
1F
100
AcDbEntity
  8
INFTOTAL
100
AcDbLine
 10
34.93089014026265
 20
-23.30257998955616
 30
0.0
 11
34.93089014026265
 21
8.421970856490034
 31
0.0
  0
LINE
  5
20DB3
330
1F
100
AcDbEntity
  8
INFTOTAL
100
AcDbLine
 10
20.66740080543639
 20
32.1566677898565
 30
0.0
 11
-27.26725747305818
 21
32.1566677898565
 31
0.0
  0
LINE
  5
20DB4
330
1F
100
AcDbEntity
  8
INFTOTAL
100
AcDbLine
 10
-27.26725747305818
 20
32.1566677898565
 30
0.0
 11
-27.26725747305818
 21
3.057596973428587
 31
0.0
  0
ATTDEF
  5
20DB5
330
1F
100
AcDbEntity
  8
SK6
100
AcDbText
 10
-20.74540188278161
 20
-16.37905813707894
 30
0.0
 40
3.5
  1

 72
     1
 11
0.483340211385638
 21
-16.37905813707894
 31
0.0
100
AcDbAttributeDefinition
  3

  2
16T17720T6RK02
 70
     0
  0
LWPOLYLINE
  5
20DF4
330
1F
100
AcDbEntity
  8
CUT
100
AcDbPolyline
 90
       26
 70
     1
 43
0.0
 10
0.8740614598317648
 20
-9.507192162714858
 10
0.8387759568234969
 20
-9.477151742908262
 10
0.8157632434296857
 20
-9.443570378655209
 42
-0.049099902094792
 10
0.7997308716672081
 20
-9.406124910896579
 10
0.7901042371586016
 20
-9.336815591679027
 10
0.8515039999963818
 20
-6.982802058187559
 10
0.8721118764033093
 20
-6.202984575791074
 10
0.8616080469032993
 20
-6.113976834129886
 10
0.8447118663936095
 20
-6.066731559547889
 10
0.7940937329722289
 20
-5.990885004503383
 42
0.1665081762228762
 10
0.6264796242367084
 20
-5.900242716072991
 10
0.5762586937921413
 20
-5.896052113718123
 10
0.3599999999963757
 20
-5.894489058187527
 10
0.3599999999963757
 20
-5.495606058187515
 10
2.708736232858228
 20
-5.495741592585577
 42
0.0168957743854203
 10
2.702085511584073
 20
-5.93654952036897
 10
2.70427699999638
 20
-6.067220058187526
 10
2.789890214059553
 20
-9.336604790726852
 10
2.787100384041423
 20
-9.377734775747768
 42
-0.0490999020948918
 10
2.776472541292164
 20
-9.417057147986696
 10
2.741230561342916
 20
-9.477137380774962
 10
2.710844044260809
 20
-9.503789614445537
 42
-0.099305495956889
 10
2.637567336857159
 20
-9.536783993123407
 10
2.591276914037734
 20
-9.541968058187563
 10
0.988763022330275
 20
-9.541968058187563
 10
0.9482709100439592
 20
-9.538031461855638
 42
-0.0993054959571493
  0
DIMENSION
  5
20DF5
330
1F
100
AcDbEntity
  8
0
100
AcDbDimension
  2
*D16
 10
16.38143823791005
 20
-9.541968058187567
 30
0.0
 11
14.42829698703163
 21
-0.0000000000000008
 31
0.0
 70
    32
  1
%%C<>
 71
     5
 42
19.08393611637513
  3
STANDARD
100
AcDbAlignedDimension
 13
2.591276914037734
 23
9.541968058187563
 33
0.0
 14
2.591276914037734
 24
-9.541968058187563
 34
0.0
 50
90.0
100
AcDbRotatedDimension
  0
VIEWPORT
  5
9C00
102
{ACAD_XDICTIONARY
360
20E3F
102
}
330
1B
100
AcDbEntity
 67
     1
  8
0
100
AcDbViewport
 10
108.2280559557949
 20
71.69854161746989
 30
0.0
 40
251.8950231529317
 41
201.8884082081047
 68
     1
 69
     1
 12
108.2280559557949
 22
71.69854161746989
 13
0.0
 23
0.0
 14
10.0
 24
10.0
 15
10.0
 25
10.0
 16
0.0
 26
0.0
 36
1.0
 17
0.0
 27
0.0
 37
0.0
 42
50.0
 43
0.0
 44
0.0
 45
201.8884082081047
 50
0.0
 51
0.0
 72
   100
 90
   557088
  1

281
     0
 71
     1
 74
     0
110
0.0
120
0.0
130
0.0
111
1.0
121
0.0
131
0.0
112
0.0
122
1.0
132
0.0
 79
     0
146
0.0
  0
VIEWPORT
  5
9C02
102
{ACAD_XDICTIONARY
360
20E41
102
}
330
1B
100
AcDbEntity
 67
     1
  8
1
100
AcDbViewport
 10
143.457083940506
 20
98.18158769607544
 30
0.0
 40
229.5313343048095
 41
157.0905403137207
 68
     2
 69
     2
 12
-44.37697124786255
 22
-35.12342998133886
 13
0.0
 23
0.0
 14
10.0
 24
10.0
 15
10.0
 25
10.0
 16
0.0
 26
0.0
 36
1.0
 17
0.0
 27
0.0
 37
0.0
 42
50.0
 43
0.0
 44
0.0
 45
300.3886240724386
 50
0.0
 51
0.0
 72
   100
 90
   557088
  1

281
     0
 71
     1
 74
     0
110
0.0
120
0.0
130
0.0
111
1.0
121
0.0
131
0.0
112
0.0
122
1.0
132
0.0
 79
     0
146
0.0
  0
ENDSEC
  0
SECTION
  2
OBJECTS
  0
DICTIONARY
  5
3182
330
0
100
AcDbDictionary
281
     1
  3
ACAD_CIP_PREVIOUS_PRODUCT_INFO
350
1B2F4
  3
ACAD_COLOR
350
31A0
  3
ACAD_DETAILVIEWSTYLE
350
1B2F0
  3
ACAD_GROUP
350
3183
  3
ACAD_LAYOUT
350
31A5
  3
ACAD_MATERIAL
350
318B
  3
ACAD_MLEADERSTYLE
350
1B221
  3
ACAD_MLINESTYLE
350
3184
  3
ACAD_PLOTSETTINGS
350
31A4
  3
ACAD_PLOTSTYLENAME
350
3189
  3
ACAD_SCALELIST
350
1B1FC
  3
ACAD_SECTIONVIEWSTYLE
350
1B2EE
  3
ACAD_TABLESTYLE
350
31A1
  3
ACAD_VISUALSTYLE
350
318F
  3
ACDB_RECOMPOSE_DATA
350
20E18
  3
AcDbVariableDictionary
350
33A3
  3
DWGPROPS
350
20E19
  0
DICTIONARY
  5
422A
330
2
100
AcDbDictionary
280
     1
281
     1
  3
ACAD_LAYERFILTERS
360
1B063
  3
ACAD_LAYERSTATES
360
9A1C
  3
ACLYDICTIONARY
360
1B062
  0
DICTIONARY
  5
1B2F5
330
10
100
AcDbDictionary
280
     1
281
     1
  3
ADSK_XREC_LAYER_RECONCILED
360
20A9D
  0
DICTIONARY
  5
1B2F7
330
3F8C
100
AcDbDictionary
280
     1
281
     1
  3
ADSK_XREC_LAYER_RECONCILED
360
20A9E
  0
DICTIONARY
  5
1B2F9
330
9C4A
100
AcDbDictionary
280
     1
281
     1
  3
ADSK_XREC_LAYER_RECONCILED
360
20A9F
  0
DICTIONARY
  5
1B2FB
330
9C4B
100
AcDbDictionary
280
     1
281
     1
  3
ADSK_XREC_LAYER_RECONCILED
360
20AA0
  0
DICTIONARY
  5
1B2FD
330
9C4D
100
AcDbDictionary
280
     1
281
     1
  3
ADSK_XREC_LAYER_RECONCILED
360
20AA1
  0
DICTIONARY
  5
1B2FF
330
9C4E
100
AcDbDictionary
280
     1
281
     1
  3
ADSK_XREC_LAYER_RECONCILED
360
20AA2
  0
DICTIONARY
  5
1B303
330
9C50
100
AcDbDictionary
280
     1
281
     1
  3
ADSK_XREC_LAYER_RECONCILED
360
20AA4
  0
DICTIONARY
  5
1B305
330
9C51
100
AcDbDictionary
280
     1
281
     1
  3
ADSK_XREC_LAYER_RECONCILED
360
20AA5
  0
DICTIONARY
  5
1B307
330
13335
100
AcDbDictionary
280
     1
281
     1
  3
ADSK_XREC_LAYER_RECONCILED
360
20AA6
  0
DICTIONARY
  5
1B309
330
1686E
100
AcDbDictionary
280
     1
281
     1
  3
ADSK_XREC_LAYER_RECONCILED
360
20AA7
  0
DICTIONARY
  5
339C
330
1F
100
AcDbDictionary
280
     1
281
     1
  3
ACAD_SORTENTS
360
339D
  0
DICTIONARY
  5
1DE81
330
1B3D7
100
AcDbDictionary
280
     1
281
     1
  3
AcDbBlockTableRecordData
360
20E5B
  0
DICTIONARY
  5
20E3F
330
9C00
100
AcDbDictionary
280
     1
281
     1
  3
ACAD_XREC_ROUNDTRIP
360
20E40
  0
DICTIONARY
  5
20E41
330
9C02
100
AcDbDictionary
280
     1
281
     1
  3
ACAD_XREC_ROUNDTRIP
360
20E42
  0
XRECORD
  5
1B2F4
102
{ACAD_REACTORS
330
3182
102
}
330
3182
100
AcDbXrecord
280
     1
300
ACDLT
300
2015
300
ACDLT_F_S
  0
DICTIONARY
  5
31A0
102
{ACAD_REACTORS
330
3182
102
}
330
3182
100
AcDbDictionary
281
     1
  0
DICTIONARY
  5
1B2F0
102
{ACAD_REACTORS
330
3182
102
}
330
3182
100
AcDbDictionary
281
     1
  3
Metric50
350
1B2F1
  0
DICTIONARY
  5
3183
102
{ACAD_REACTORS
330
3182
102
}
330
3182
100
AcDbDictionary
281
     1
  0
DICTIONARY
  5
31A5
102
{ACAD_REACTORS
330
3182
102
}
330
3182
100
AcDbDictionary
281
     1
  3
Layout1
350
31A7
  3
Model
350
31A6
  0
DICTIONARY
  5
318B
102
{ACAD_REACTORS
330
3182
102
}
330
3182
100
AcDbDictionary
281
     1
  3
ByBlock
350
318D
  3
ByLayer
350
318C
  3
Global
350
318E
  0
DICTIONARY
  5
1B221
102
{ACAD_REACTORS
330
3182
102
}
330
3182
100
AcDbDictionary
281
     1
  3
Standard
350
1B2ED
  0
DICTIONARY
  5
3184
102
{ACAD_REACTORS
330
3182
102
}
330
3182
100
AcDbDictionary
281
     1
  3
STANDARD
350
3185
  0
DICTIONARY
  5
31A4
102
{ACAD_REACTORS
330
3182
102
}
330
3182
100
AcDbDictionary
281
     1
  0
ACDBDICTIONARYWDFLT
  5
3189
102
{ACAD_REACTORS
330
3182
102
}
330
3182
100
AcDbDictionary
281
     1
  3
Normal
350
318A
100
AcDbDictionaryWithDefault
340
318A
  0
DICTIONARY
  5
1B1FC
102
{ACAD_REACTORS
330
3182
102
}
330
3182
100
AcDbDictionary
281
     1
  3
A0
350
1B1FD
  3
A1
350
1B1FE
  3
A2
350
1B1FF
  3
A3
350
1B200
  3
A4
350
1B201
  3
A5
350
1B202
  3
A6
350
1B203
  3
A7
350
1B204
  3
A8
350
1B205
  3
A9
350
1B206
  3
B0
350
1B207
  3
B1
350
1B208
  3
B2
350
1B209
  3
B3
350
1B20A
  3
B4
350
1B20B
  3
B5
350
1B20C
  3
B6
350
1B20D
  3
B7
350
1B20E
  3
B8
350
1B20F
  3
B9
350
1B210
  3
C0
350
1B211
  3
C1
350
1B212
  3
C2
350
1B213
  3
C3
350
1B214
  3
C4
350
1B215
  3
C5
350
1B216
  3
C6
350
1B217
  3
C7
350
1B218
  3
C8
350
1B219
  3
C9
350
1B21A
  3
D0
350
1B21B
  3
D1
350
1B21C
  3
D2
350
1B21D
  0
DICTIONARY
  5
1B2EE
102
{ACAD_REACTORS
330
3182
102
}
330
3182
100
AcDbDictionary
281
     1
  3
Metric50
350
1B2EF
  0
DICTIONARY
  5
31A1
102
{ACAD_REACTORS
330
3182
102
}
330
3182
100
AcDbDictionary
281
     1
  3
Standard
350
31A2
  0
DICTIONARY
  5
318F
102
{ACAD_REACTORS
330
3182
102
}
330
3182
100
AcDbDictionary
281
     1
  3
2dWireframe
350
3195
  3
3D Hidden
350
3197
  3
3dWireframe
350
3196
  3
Basic
350
3194
  3
Brighten
350
319B
  3
ColorChange
350
319F
  3
Conceptual
350
3198
  3
Dim
350
319A
  3
EdgeColorOff
350
1B2EC
  3
Facepattern
350
319E
  3
Flat
350
3190
  3
FlatWithEdges
350
3191
  3
Gouraud
350
3192
  3
GouraudWithEdges
350
3193
  3
Hidden
350
1B2E4
  3
JitterOff
350
1B2EA
  3
Linepattern
350
319D
  3
OverhangOff
350
1B2EB
  3
Realistic
350
3199
  3
Shaded
350
1B2E9
  3
Shaded with edges
350
1B2E8
  3
Shades of Gray
350
1B2E5
  3
Sketchy
350
1B2E6
  3
Thicken
350
319C
  3
Wireframe
350
1B2E3
  3
X-Ray
350
1B2E7
  0
XRECORD
  5
20E18
102
{ACAD_REACTORS
330
3182
102
}
330
3182
100
AcDbXrecord
280
     1
 90
        1
330
31A2
  0
DICTIONARY
  5
33A3
102
{ACAD_REACTORS
330
3182
102
}
330
3182
100
AcDbDictionary
281
     1
  3
CANNOSCALE
350
1B222
  3
CMLEADERSTYLE
350
1B30F
  3
CTABLESTYLE
350
33A4
  3
CVIEWDETAILSTYLE
350
1B310
  3
CVIEWSECTIONSTYLE
350
1B311
  3
DIMASSOC
350
9BE8
  3
INDEXCTL
350
9BE7
  3
LAYEREVAL
350
20993
  3
LAYERNOTIFY
350
20994
  3
LIGHTINGUNITS
350
20992
  3
MSLTSCALE
350
20991
  3
SORTENTS
350
9BE6
  3
XCLIPFRAME
350
20E16
  0
XRECORD
  5
20E19
102
{ACAD_REACTORS
330
3182
102
}
330
3182
100
AcDbXrecord
280
     1
  1
DWGPROPS COOKIE
  2

  3

  4

  6

  7

  8
kamerka
  9

300
=
301
=
302
=
303
=
304
=
305
=
306
=
307
=
308
=
309
=
 40
0.0037221064814815
 41
2457350.539762905
 42
2457350.637653449
  1

 90
        0
  0
DICTIONARY
  5
1B063
102
{ACAD_REACTORS
330
422A
102
}
330
422A
100
AcDbDictionary
281
     1
  0
DICTIONARY
  5
9A1C
102
{ACAD_REACTORS
330
422A
102
}
330
422A
100
AcDbDictionary
281
     1
  0
DICTIONARY
  5
1B062
102
{ACAD_REACTORS
330
422A
102
}
330
422A
100
AcDbDictionary
281
     1
1001
ACAD
1000
<All
  0
XRECORD
  5
20A9D
102
{ACAD_REACTORS
330
1B2F5
102
}
330
1B2F5
100
AcDbXrecord
280
     1
290
     1
  0
XRECORD
  5
20A9E
102
{ACAD_REACTORS
330
1B2F7
102
}
330
1B2F7
100
AcDbXrecord
280
     1
290
     1
  0
XRECORD
  5
20A9F
102
{ACAD_REACTORS
330
1B2F9
102
}
330
1B2F9
100
AcDbXrecord
280
     1
290
     1
  0
XRECORD
  5
20AA0
102
{ACAD_REACTORS
330
1B2FB
102
}
330
1B2FB
100
AcDbXrecord
280
     1
290
     1
  0
XRECORD
  5
20AA1
102
{ACAD_REACTORS
330
1B2FD
102
}
330
1B2FD
100
AcDbXrecord
280
     1
290
     1
  0
XRECORD
  5
20AA2
102
{ACAD_REACTORS
330
1B2FF
102
}
330
1B2FF
100
AcDbXrecord
280
     1
290
     1
  0
XRECORD
  5
20AA4
102
{ACAD_REACTORS
330
1B303
102
}
330
1B303
100
AcDbXrecord
280
     1
290
     1
  0
XRECORD
  5
20AA5
102
{ACAD_REACTORS
330
1B305
102
}
330
1B305
100
AcDbXrecord
280
     1
290
     1
  0
XRECORD
  5
20AA6
102
{ACAD_REACTORS
330
1B307
102
}
330
1B307
100
AcDbXrecord
280
     1
290
     1
  0
XRECORD
  5
20AA7
102
{ACAD_REACTORS
330
1B309
102
}
330
1B309
100
AcDbXrecord
280
     1
290
     1
  0
SORTENTSTABLE
  5
339D
102
{ACAD_REACTORS
330
339C
102
}
330
339C
100
AcDbSortentsTable
330
1F
  0
DICTIONARY
  5
20E5B
102
{ACAD_REACTORS
330
1DE81
102
}
330
1DE81
100
AcDbDictionary
280
     1
281
     1
  3
Edit
360
20E5C
  0
XRECORD
  5
20E40
102
{ACAD_REACTORS
330
20E3F
102
}
330
20E3F
100
AcDbXrecord
280
     1
102
SHADEPLOT
 70
     0
  0
XRECORD
  5
20E42
102
{ACAD_REACTORS
330
20E41
102
}
330
20E41
100
AcDbXrecord
280
     1
102
SHADEPLOT
 70
     0
  0
ACDBDETAILVIEWSTYLE
  5
1B2F1
102
{ACAD_XDICTIONARY
360
20E59
102
}
102
{ACAD_REACTORS
330
1B2F0
102
}
330
1B2F0
100
AcDbModelDocViewStyle
 70
     0
  3
Metric50
290
     0
100
AcDbDetailViewStyle
 70
     0
 71
     0
 90
        3
 71
     1
340
11
 40
5.0
340
0
 40
5.0
300

 40
0.0
280
     1
 71
     2
340
16
 90
       25
 71
     3
340
11
 40
5.0
 90
        0
 40
15.0
 90
        1
300
%<\AcVar ViewDetailId>% (%<\AcVar ViewScale \f "%sn">%)
 71
     4
340
16
 90
       25
340
16
 90
       25
280
     0
  0
LAYOUT
  5
31A7
102
{ACAD_XDICTIONARY
360
20E3D
102
}
102
{ACAD_REACTORS
330
31A5
102
}
330
31A5
100
AcDbPlotSettings
  1

  2
\\ingdc01\ITB3
  4
A4
  6

 40
6.805083274841307
 41
5.027085781097412
 42
6.805068969726562
 43
5.027069091796875
 44
209.9733276367186
 45
296.9683227539062
 46
0.0
 47
0.0
 48
0.0
 49
0.0
140
0.0
141
0.0
142
1.0
143
1.0
 70
   688
 72
     1
 73
     1
 74
     5
  7

 75
    16
147
1.0
148
0.0
149
0.0
100
AcDbLayout
  1
Layout1
 70
     1
 71
     1
 10
-5.027069091796875
 20
-6.805083274841307
 11
291.9412536621094
 21
203.1682443618775
 12
0.0
 22
0.0
 32
0.0
 14
28.69141678810127
 24
19.6363175392151
 34
0.0
 15
258.2227510929107
 25
176.7268578529358
 35
0.0
146
0.0
 13
0.0
 23
0.0
 33
0.0
 16
1.0
 26
0.0
 36
0.0
 17
0.0
 27
1.0
 37
0.0
 76
     0
330
1B
331
9C00
1001
ACAD_PSEXT
1000
\\ingdc01\ITB3
1000
HP LaserJet 5000 Series PCL
1000
TB
1000

1070
     0
  0
LAYOUT
  5
31A6
102
{ACAD_XDICTIONARY
360
20E3B
102
}
102
{ACAD_REACTORS
330
31A5
102
}
330
31A5
100
AcDbPlotSettings
  1

  2
\\ingdc01\ITB3
  4
A4
  6

 40
6.805083274841307
 41
5.027085781097412
 42
6.805068969726562
 43
5.027069091796875
 44
209.9733276367186
 45
296.9683227539062
 46
0.0
 47
0.0
 48
0.0
 49
0.0
140
0.0
141
0.0
142
1.0
143
1.500313223655698
 70
 11952
 72
     1
 73
     1
 74
     0
  7

 75
     0
147
0.6665274852163048
148
239.0155119930048
149
102.2558208723354
100
AcDbLayout
  1
Model
 70
     1
 71
     0
 10
0.0
 20
0.0
 11
12.0
 21
9.0
 12
0.0
 22
0.0
 32
0.0
 14
0.0
 24
0.0
 34
0.0
 15
0.0
 25
0.0
 35
0.0
146
0.0
 13
0.0
 23
0.0
 33
0.0
 16
1.0
 26
0.0
 36
0.0
 17
0.0
 27
1.0
 37
0.0
 76
     0
330
1F
331
1F4
1001
ACAD_PSEXT
1000
\\ingdc01\ITB3
1000
HP LaserJet 5000 Series PCL
1000
TB
1000

1070
     0
  0
MATERIAL
  5
318D
102
{ACAD_XDICTIONARY
360
1B22B
102
}
102
{ACAD_REACTORS
330
318B
102
}
330
318B
100
AcDbMaterial
  1
ByBlock
  0
MATERIAL
  5
318C
102
{ACAD_XDICTIONARY
360
1B22D
102
}
102
{ACAD_REACTORS
330
318B
102
}
330
318B
100
AcDbMaterial
  1
ByLayer
  0
MATERIAL
  5
318E
102
{ACAD_XDICTIONARY
360
1B22F
102
}
102
{ACAD_REACTORS
330
318B
102
}
330
318B
100
AcDbMaterial
  1
Global
  0
MLEADERSTYLE
  5
1B2ED
102
{ACAD_REACTORS
330
1B221
102
}
330
1B221
100
AcDbMLeaderStyle
170
     2
171
     1
172
     0
 90
        2
 40
0.0
 41
0.0
173
     1
 91
-1056964608
340
14
 92
       -2
290
     1
 42
2.0
291
     1
 43
0.36
  3
Standard
 44
4.0
300

342
11
174
     1
178
     6
175
     1
176
     0
 93
-1056964608
 45
4.0
292
     0
297
     0
 46
4.0
 94
-1056964608
 47
1.0
 49
1.0
140
1.0
293
     1
141
0.0
294
     1
177
     0
142
1.0
295
     0
296
     0
143
0.125
1001
ACAD_MLEADERVER
1070
     2
  0
MLINESTYLE
  5
3185
102
{ACAD_REACTORS
330
3184
102
}
330
3184
100
AcDbMlineStyle
  2
STANDARD
 70
     0
  3

 62
   256
 51
90.0
 52
90.0
 71
     2
 49
0.5
 62
   256
  6
BYLAYER
 49
-0.5
 62
   256
  6
BYLAYER
  0
ACDBPLACEHOLDER
  5
318A
102
{ACAD_REACTORS
330
3189
102
}
330
3189
  0
SCALE
  5
1B1FD
102
{ACAD_REACTORS
330
1B1FC
102
}
330
1B1FC
100
AcDbScale
 70
     0
300
1:1
140
1.0
141
1.0
290
     1
1001
ACAD
1000
AcRTDxfName
1000
SCALE
  0
SCALE
  5
1B1FE
102
{ACAD_REACTORS
330
1B1FC
102
}
330
1B1FC
100
AcDbScale
 70
     0
300
1:2
140
1.0
141
2.0
290
     0
1001
ACAD
1000
AcRTDxfName
1000
SCALE
  0
SCALE
  5
1B1FF
102
{ACAD_REACTORS
330
1B1FC
102
}
330
1B1FC
100
AcDbScale
 70
     0
300
1:4
140
1.0
141
4.0
290
     0
1001
ACAD
1000
AcRTDxfName
1000
SCALE
  0
SCALE
  5
1B200
102
{ACAD_REACTORS
330
1B1FC
102
}
330
1B1FC
100
AcDbScale
 70
     0
300
1:5
140
1.0
141
5.0
290
     0
1001
ACAD
1000
AcRTDxfName
1000
SCALE
  0
SCALE
  5
1B201
102
{ACAD_REACTORS
330
1B1FC
102
}
330
1B1FC
100
AcDbScale
 70
     0
300
1:8
140
1.0
141
8.0
290
     0
1001
ACAD
1000
AcRTDxfName
1000
SCALE
  0
SCALE
  5
1B202
102
{ACAD_REACTORS
330
1B1FC
102
}
330
1B1FC
100
AcDbScale
 70
     0
300
1:10
140
1.0
141
10.0
290
     0
1001
ACAD
1000
AcRTDxfName
1000
SCALE
  0
SCALE
  5
1B203
102
{ACAD_REACTORS
330
1B1FC
102
}
330
1B1FC
100
AcDbScale
 70
     0
300
1:16
140
1.0
141
16.0
290
     0
1001
ACAD
1000
AcRTDxfName
1000
SCALE
  0
SCALE
  5
1B204
102
{ACAD_REACTORS
330
1B1FC
102
}
330
1B1FC
100
AcDbScale
 70
     0
300
1:20
140
1.0
141
20.0
290
     0
1001
ACAD
1000
AcRTDxfName
1000
SCALE
  0
SCALE
  5
1B205
102
{ACAD_REACTORS
330
1B1FC
102
}
330
1B1FC
100
AcDbScale
 70
     0
300
1:30
140
1.0
141
30.0
290
     0
1001
ACAD
1000
AcRTDxfName
1000
SCALE
  0
SCALE
  5
1B206
102
{ACAD_REACTORS
330
1B1FC
102
}
330
1B1FC
100
AcDbScale
 70
     0
300
1:40
140
1.0
141
40.0
290
     0
1001
ACAD
1000
AcRTDxfName
1000
SCALE
  0
SCALE
  5
1B207
102
{ACAD_REACTORS
330
1B1FC
102
}
330
1B1FC
100
AcDbScale
 70
     0
300
1:50
140
1.0
141
50.0
290
     0
1001
ACAD
1000
AcRTDxfName
1000
SCALE
  0
SCALE
  5
1B208
102
{ACAD_REACTORS
330
1B1FC
102
}
330
1B1FC
100
AcDbScale
 70
     0
300
1:100
140
1.0
141
100.0
290
     0
1001
ACAD
1000
AcRTDxfName
1000
SCALE
  0
SCALE
  5
1B209
102
{ACAD_REACTORS
330
1B1FC
102
}
330
1B1FC
100
AcDbScale
 70
     0
300
2:1
140
2.0
141
1.0
290
     0
1001
ACAD
1000
AcRTDxfName
1000
SCALE
  0
SCALE
  5
1B20A
102
{ACAD_REACTORS
330
1B1FC
102
}
330
1B1FC
100
AcDbScale
 70
     0
300
4:1
140
4.0
141
1.0
290
     0
1001
ACAD
1000
AcRTDxfName
1000
SCALE
  0
SCALE
  5
1B20B
102
{ACAD_REACTORS
330
1B1FC
102
}
330
1B1FC
100
AcDbScale
 70
     0
300
8:1
140
8.0
141
1.0
290
     0
1001
ACAD
1000
AcRTDxfName
1000
SCALE
  0
SCALE
  5
1B20C
102
{ACAD_REACTORS
330
1B1FC
102
}
330
1B1FC
100
AcDbScale
 70
     0
300
10:1
140
10.0
141
1.0
290
     0
1001
ACAD
1000
AcRTDxfName
1000
SCALE
  0
SCALE
  5
1B20D
102
{ACAD_REACTORS
330
1B1FC
102
}
330
1B1FC
100
AcDbScale
 70
     0
300
100:1
140
100.0
141
1.0
290
     0
1001
ACAD
1000
AcRTDxfName
1000
SCALE
  0
SCALE
  5
1B20E
102
{ACAD_REACTORS
330
1B1FC
102
}
330
1B1FC
100
AcDbScale
 70
     0
300
1/128" = 1'-0"
140
0.0078125
141
12.0
290
     0
1001
ACAD
1000
AcRTDxfName
1000
SCALE
  0
SCALE
  5
1B20F
102
{ACAD_REACTORS
330
1B1FC
102
}
330
1B1FC
100
AcDbScale
 70
     0
300
1/64" = 1'-0"
140
0.015625
141
12.0
290
     0
1001
ACAD
1000
AcRTDxfName
1000
SCALE
  0
SCALE
  5
1B210
102
{ACAD_REACTORS
330
1B1FC
102
}
330
1B1FC
100
AcDbScale
 70
     0
300
1/32" = 1'-0"
140
0.03125
141
12.0
290
     0
1001
ACAD
1000
AcRTDxfName
1000
SCALE
  0
SCALE
  5
1B211
102
{ACAD_REACTORS
330
1B1FC
102
}
330
1B1FC
100
AcDbScale
 70
     0
300
1/16" = 1'-0"
140
0.0625
141
12.0
290
     0
1001
ACAD
1000
AcRTDxfName
1000
SCALE
  0
SCALE
  5
1B212
102
{ACAD_REACTORS
330
1B1FC
102
}
330
1B1FC
100
AcDbScale
 70
     0
300
3/32" = 1'-0"
140
0.09375
141
12.0
290
     0
1001
ACAD
1000
AcRTDxfName
1000
SCALE
  0
SCALE
  5
1B213
102
{ACAD_REACTORS
330
1B1FC
102
}
330
1B1FC
100
AcDbScale
 70
     0
300
1/8" = 1'-0"
140
0.125
141
12.0
290
     0
1001
ACAD
1000
AcRTDxfName
1000
SCALE
  0
SCALE
  5
1B214
102
{ACAD_REACTORS
330
1B1FC
102
}
330
1B1FC
100
AcDbScale
 70
     0
300
3/16" = 1'-0"
140
0.1875
141
12.0
290
     0
1001
ACAD
1000
AcRTDxfName
1000
SCALE
  0
SCALE
  5
1B215
102
{ACAD_REACTORS
330
1B1FC
102
}
330
1B1FC
100
AcDbScale
 70
     0
300
1/4" = 1'-0"
140
0.25
141
12.0
290
     0
1001
ACAD
1000
AcRTDxfName
1000
SCALE
  0
SCALE
  5
1B216
102
{ACAD_REACTORS
330
1B1FC
102
}
330
1B1FC
100
AcDbScale
 70
     0
300
3/8" = 1'-0"
140
0.375
141
12.0
290
     0
1001
ACAD
1000
AcRTDxfName
1000
SCALE
  0
SCALE
  5
1B217
102
{ACAD_REACTORS
330
1B1FC
102
}
330
1B1FC
100
AcDbScale
 70
     0
300
1/2" = 1'-0"
140
0.5
141
12.0
290
     0
1001
ACAD
1000
AcRTDxfName
1000
SCALE
  0
SCALE
  5
1B218
102
{ACAD_REACTORS
330
1B1FC
102
}
330
1B1FC
100
AcDbScale
 70
     0
300
3/4" = 1'-0"
140
0.75
141
12.0
290
     0
1001
ACAD
1000
AcRTDxfName
1000
SCALE
  0
SCALE
  5
1B219
102
{ACAD_REACTORS
330
1B1FC
102
}
330
1B1FC
100
AcDbScale
 70
     0
300
1" = 1'-0"
140
1.0
141
12.0
290
     0
1001
ACAD
1000
AcRTDxfName
1000
SCALE
  0
SCALE
  5
1B21A
102
{ACAD_REACTORS
330
1B1FC
102
}
330
1B1FC
100
AcDbScale
 70
     0
300
1-1/2" = 1'-0"
140
1.5
141
12.0
290
     0
1001
ACAD
1000
AcRTDxfName
1000
SCALE
  0
SCALE
  5
1B21B
102
{ACAD_REACTORS
330
1B1FC
102
}
330
1B1FC
100
AcDbScale
 70
     0
300
3" = 1'-0"
140
3.0
141
12.0
290
     0
1001
ACAD
1000
AcRTDxfName
1000
SCALE
  0
SCALE
  5
1B21C
102
{ACAD_REACTORS
330
1B1FC
102
}
330
1B1FC
100
AcDbScale
 70
     0
300
6" = 1'-0"
140
6.0
141
12.0
290
     0
1001
ACAD
1000
AcRTDxfName
1000
SCALE
  0
SCALE
  5
1B21D
102
{ACAD_REACTORS
330
1B1FC
102
}
330
1B1FC
100
AcDbScale
 70
     0
300
1'-0" = 1'-0"
140
12.0
141
12.0
290
     0
1001
ACAD
1000
AcRTDxfName
1000
SCALE
  0
ACDBSECTIONVIEWSTYLE
  5
1B2EF
102
{ACAD_XDICTIONARY
360
20E57
102
}
102
{ACAD_REACTORS
330
1B2EE
102
}
330
1B2EE
100
AcDbModelDocViewStyle
 70
     0
  3
Metric50
290
     0
100
AcDbSectionViewStyle
 70
     0
 71
     0
 90
      102
 71
     1
340
11
 40
5.0
340
0
340
0
 40
5.0
300
I, O, Q, S, X, Z
 40
10.0
 90
        0
 40
2.5
 90
        0
 71
     2
340
16
 90
       25
340
16
 90
       50
 40
5.0
 40
2.5
 40
5.0
 71
     3
340
11
 40
5.0
 90
        0
 40
15.0
 90
        1
300
%<\AcVar ViewSectionStartId>%-%<\AcVar ViewSectionEndId>% (%<\AcVar ViewScale \f "%sn">%)
 71
     4
300
ANSI31
 40
1.0
 90
        0
290
     0
290
     0
 90
        6
 40
0.0
 40
1.570796326794896
 40
0.2617993877991494
 40
1.308996938995747
 40
-0.2617993877991494
 40
1.832595714594044
  0
TABLESTYLE
  5
31A2
102
{ACAD_XDICTIONARY
360
1B314
102
}
102
{ACAD_REACTORS
330
31A1
102
}
330
31A1
100
AcDbTableStyle
  3
Standard
 70
     0
 71
     0
 40
1.5
 41
1.5
280
     0
281
     0
  7
STANDARD
140
4.5
170
     2
 62
     0
 63
     7
283
     0
274
    -2
284
     1
 64
     0
275
    -2
285
     1
 65
     0
276
    -2
286
     1
 66
     0
277
    -2
287
     1
 67
     0
278
    -2
288
     1
 68
     0
279
    -2
289
     1
 69
     0
  7
STANDARD
140
6.0
170
     5
 62
     0
 63
     7
283
     0
274
    -2
284
     1
 64
     0
275
    -2
285
     1
 65
     0
276
    -2
286
     1
 66
     0
277
    -2
287
     1
 67
     0
278
    -2
288
     1
 68
     0
279
    -2
289
     1
 69
     0
  7
STANDARD
140
4.5
170
     5
 62
     0
 63
     7
283
     0
274
    -2
284
     1
 64
     0
275
    -2
285
     1
 65
     0
276
    -2
286
     1
 66
     0
277
    -2
287
     1
 67
     0
278
    -2
288
     1
 68
     0
279
    -2
289
     1
 69
     0
  0
VISUALSTYLE
  5
3195
102
{ACAD_XDICTIONARY
360
20E24
102
}
102
{ACAD_REACTORS
330
318F
102
}
330
318F
100
AcDbVisualStyle
  2

 70
     4
 71
     0
 72
     2
 73
     0
 90
        0
 40
-0.6
 41
-30.0
 62
     5
 63
     7
 74
     1
 91
        4
 64
     7
 65
   257
 75
     1
175
     1
 42
1.0
 92
        0
 66
   257
 43
1.0
 76
     1
 77
     6
 78
     2
 67
     7
 79
     5
170
     0
171
     0
290
     0
174
     0
 93
        1
 44
0.0
173
     0
291
     0
 45
0.0
1001
ACAD
1000
AcDbSavedByObjectVersion
1070
     0
  0
VISUALSTYLE
  5
3197
102
{ACAD_XDICTIONARY
360
20E28
102
}
102
{ACAD_REACTORS
330
318F
102
}
330
318F
100
AcDbVisualStyle
  2

 70
     6
 71
     1
 72
     2
 73
     2
 90
        0
 40
-0.6
 41
-30.0
 62
     5
 63
     7
 74
     2
 91
        2
 64
     7
 65
   257
 75
     2
175
     1
 42
40.0
 92
        0
 66
   257
 43
1.0
 76
     1
 77
     6
 78
     2
 67
     7
 79
     3
170
     0
171
     0
290
     0
174
     0
 93
        1
 44
0.0
173
     0
291
     0
 45
0.0
1001
ACAD
1000
AcDbSavedByObjectVersion
1070
     0
  0
VISUALSTYLE
  5
3196
102
{ACAD_XDICTIONARY
360
20E26
102
}
102
{ACAD_REACTORS
330
318F
102
}
330
318F
100
AcDbVisualStyle
  2

 70
     5
 71
     0
 72
     2
 73
     0
 90
        0
 40
-0.6
 41
-30.0
 62
     5
 63
     7
 74
     1
 91
        4
 64
     7
 65
   257
 75
     1
175
     1
 42
1.0
 92
        0
 66
   257
 43
1.0
 76
     1
 77
     6
 78
     2
 67
     7
 79
     5
170
     0
171
     0
290
     0
174
     0
 93
        1
 44
0.0
173
     0
291
     0
 45
0.0
1001
ACAD
1000
AcDbSavedByObjectVersion
1070
     0
  0
VISUALSTYLE
  5
3194
102
{ACAD_XDICTIONARY
360
20E22
102
}
102
{ACAD_REACTORS
330
318F
102
}
330
318F
100
AcDbVisualStyle
  2

 70
     7
 71
     1
 72
     0
 73
     1
 90
        0
 40
-0.6
 41
-30.0
 62
     5
 63
     7
 74
     0
 91
        4
 64
     7
 65
   257
 75
     1
175
     1
 42
1.0
 92
        8
 66
     7
 43
1.0
 76
     1
 77
     6
 78
     2
 67
     7
 79
     5
170
     0
171
     0
290
     0
174
     0
 93
        1
 44
0.0
173
     0
291
     1
 45
0.0
1001
ACAD
1000
AcDbSavedByObjectVersion
1070
     0
  0
VISUALSTYLE
  5
319B
102
{ACAD_XDICTIONARY
360
20E30
102
}
102
{ACAD_REACTORS
330
318F
102
}
330
318F
100
AcDbVisualStyle
  2

 70
    12
 71
     2
 72
     2
 73
     0
 90
        0
 40
-0.6
 41
-30.0
 62
     5
 63
     7
 74
     1
 91
        4
 64
     7
 65
   257
 75
     1
175
     1
 42
1.0
 92
        8
 66
     7
 43
1.0
 76
     1
 77
     6
 78
     2
 67
     7
 79
     5
170
     0
171
     0
290
     0
174
     0
 93
        1
 44
50.0
173
     0
291
     1
 45
0.0
1001
ACAD
1000
AcDbSavedByObjectVersion
1070
     0
  0
VISUALSTYLE
  5
319F
102
{ACAD_XDICTIONARY
360
20E38
102
}
102
{ACAD_REACTORS
330
318F
102
}
330
318F
100
AcDbVisualStyle
  2

 70
    16
 71
     2
 72
     2
 73
     3
 90
        0
 40
-0.6
 41
-30.0
 62
     5
 63
     8
 74
     1
 91
        4
 64
     7
 65
   257
 75
     1
175
     1
 42
1.0
 92
        8
 66
     8
 43
1.0
 76
     1
 77
     6
 78
     2
 67
     7
 79
     5
170
     0
171
     0
290
     0
174
     0
 93
        1
 44
0.0
173
     0
291
     1
 45
0.0
1001
ACAD
1000
AcDbSavedByObjectVersion
1070
     0
  0
VISUALSTYLE
  5
3198
102
{ACAD_XDICTIONARY
360
20E2A
102
}
102
{ACAD_REACTORS
330
318F
102
}
330
318F
100
AcDbVisualStyle
  2

 70
     9
 71
     3
 72
     2
 73
     0
 90
        0
 40
-0.6
 41
-30.0
 62
     5
 63
     7
 74
     2
 91
        2
 64
     7
 65
   257
 75
     1
175
     1
 42
40.0
 92
        8
 66
     7
 43
1.0
 76
     1
 77
     6
 78
     2
 67
     7
 79
     3
170
     0
171
     0
290
     0
174
     0
 93
        1
 44
0.0
173
     0
291
     0
 45
0.0
1001
ACAD
1000
AcDbSavedByObjectVersion
1070
     0
  0
VISUALSTYLE
  5
319A
102
{ACAD_XDICTIONARY
360
20E2E
102
}
102
{ACAD_REACTORS
330
318F
102
}
330
318F
100
AcDbVisualStyle
  2

 70
    11
 71
     2
 72
     2
 73
     0
 90
        0
 40
-0.6
 41
-30.0
 62
     5
 63
     7
 74
     1
 91
        4
 64
     7
 65
   257
 75
     1
175
     1
 42
1.0
 92
        8
 66
     7
 43
1.0
 76
     1
 77
     6
 78
     2
 67
     7
 79
     5
170
     0
171
     0
290
     0
174
     0
 93
        1
 44
-50.0
173
     0
291
     1
 45
0.0
1001
ACAD
1000
AcDbSavedByObjectVersion
1070
     0
  0
VISUALSTYLE
  5
1B2EC
102
{ACAD_XDICTIONARY
360
20E55
102
}
102
{ACAD_REACTORS
330
318F
102
}
330
318F
100
AcDbVisualStyle
  2

 70
    22
 71
     2
 72
     2
 73
     0
 90
        0
 40
-0.6
 41
-30.0
 62
     5
 63
     7
 74
     1
 91
        4
 64
     7
 65
   257
 75
     1
175
     1
 42
1.0
 92
        8
 66
     7
 43
1.0
 76
     1
 77
     6
 78
     2
 67
     7
 79
     5
170
     0
171
     0
290
     0
174
     0
 93
        1
 44
0.0
173
     0
291
     1
 45
0.0
1001
ACAD
1000
AcDbSavedByObjectVersion
1070
     0
  0
VISUALSTYLE
  5
319E
102
{ACAD_XDICTIONARY
360
20E36
102
}
102
{ACAD_REACTORS
330
318F
102
}
330
318F
100
AcDbVisualStyle
  2

 70
    15
 71
     2
 72
     2
 73
     0
 90
        0
 40
-0.6
 41
-30.0
 62
     5
 63
     7
 74
     1
 91
        4
 64
     7
 65
   257
 75
     1
175
     1
 42
1.0
 92
        8
 66
     7
 43
1.0
 76
     1
 77
     6
 78
     2
 67
     7
 79
     5
170
     0
171
     0
290
     0
174
     0
 93
        1
 44
0.0
173
     0
291
     1
 45
0.0
1001
ACAD
1000
AcDbSavedByObjectVersion
1070
     0
  0
VISUALSTYLE
  5
3190
102
{ACAD_XDICTIONARY
360
20E1A
102
}
102
{ACAD_REACTORS
330
318F
102
}
330
318F
100
AcDbVisualStyle
  2

 70
     0
 71
     2
 72
     1
 73
     1
 90
        2
 40
-0.6
 41
30.0
 62
     5
 63
     7
 74
     0
 91
        4
 64
     7
 65
   257
 75
     1
175
     1
 42
1.0
 92
        8
 66
     7
 43
1.0
 76
     1
 77
     6
 78
     2
 67
     7
 79
     5
170
     0
171
     0
290
     0
174
     0
 93
       13
 44
0.0
173
     0
291
     1
 45
0.0
1001
ACAD
1000
AcDbSavedByObjectVersion
1070
     0
  0
VISUALSTYLE
  5
3191
102
{ACAD_XDICTIONARY
360
20E1C
102
}
102
{ACAD_REACTORS
330
318F
102
}
330
318F
100
AcDbVisualStyle
  2

 70
     1
 71
     2
 72
     1
 73
     1
 90
        2
 40
-0.6
 41
30.0
 62
     5
 63
     7
 74
     1
 91
        4
 64
     7
 65
   257
 75
     1
175
     1
 42
1.0
 92
        0
 66
   257
 43
1.0
 76
     1
 77
     6
 78
     2
 67
     7
 79
     5
170
     0
171
     0
290
     0
174
     0
 93
       13
 44
0.0
173
     0
291
     1
 45
0.0
1001
ACAD
1000
AcDbSavedByObjectVersion
1070
     0
  0
VISUALSTYLE
  5
3192
102
{ACAD_XDICTIONARY
360
20E1E
102
}
102
{ACAD_REACTORS
330
318F
102
}
330
318F
100
AcDbVisualStyle
  2

 70
     2
 71
     2
 72
     2
 73
     1
 90
        2
 40
-0.6
 41
30.0
 62
     5
 63
     7
 74
     0
 91
        4
 64
     7
 65
   257
 75
     1
175
     1
 42
1.0
 92
        0
 66
     7
 43
1.0
 76
     1
 77
     6
 78
     2
 67
     7
 79
     5
170
     0
171
     0
290
     0
174
     0
 93
       13
 44
0.0
173
     0
291
     1
 45
0.0
1001
ACAD
1000
AcDbSavedByObjectVersion
1070
     0
  0
VISUALSTYLE
  5
3193
102
{ACAD_XDICTIONARY
360
20E20
102
}
102
{ACAD_REACTORS
330
318F
102
}
330
318F
100
AcDbVisualStyle
  2

 70
     3
 71
     2
 72
     2
 73
     1
 90
        2
 40
-0.6
 41
30.0
 62
     5
 63
     7
 74
     1
 91
        4
 64
     7
 65
   257
 75
     1
175
     1
 42
1.0
 92
        0
 66
   257
 43
1.0
 76
     1
 77
     6
 78
     2
 67
     7
 79
     5
170
     0
171
     0
290
     0
174
     0
 93
       13
 44
0.0
173
     0
291
     1
 45
0.0
1001
ACAD
1000
AcDbSavedByObjectVersion
1070
     0
  0
VISUALSTYLE
  5
1B2E4
102
{ACAD_XDICTIONARY
360
20E45
102
}
102
{ACAD_REACTORS
330
318F
102
}
330
318F
100
AcDbVisualStyle
  2

 70
     6
 71
     1
 72
     2
 73
     2
 90
        0
 40
-0.6
 41
-30.0
 62
     5
 63
     7
 74
     2
 91
        2
 64
     7
 65
   257
 75
     2
175
     1
 42
40.0
 92
        0
 66
   257
 43
1.0
 76
     1
 77
     6
 78
     2
 67
     7
 79
     3
170
     0
171
     0
290
     0
174
     0
 93
        1
 44
0.0
173
     0
291
     0
 45
0.0
1001
ACAD
1000
AcDbSavedByObjectVersion
1070
     0
  0
VISUALSTYLE
  5
1B2EA
102
{ACAD_XDICTIONARY
360
20E51
102
}
102
{ACAD_REACTORS
330
318F
102
}
330
318F
100
AcDbVisualStyle
  2

 70
    20
 71
     2
 72
     2
 73
     0
 90
        0
 40
-0.6
 41
-30.0
 62
     5
 63
     7
 74
     1
 91
        4
 64
     7
 65
   257
 75
     1
175
     1
 42
1.0
 92
       10
 66
     7
 43
1.0
 76
     1
 77
     6
 78
     2
 67
     7
 79
     5
170
     0
171
     0
290
     0
174
     0
 93
        1
 44
0.0
173
     0
291
     1
 45
0.0
1001
ACAD
1000
AcDbSavedByObjectVersion
1070
     0
  0
VISUALSTYLE
  5
319D
102
{ACAD_XDICTIONARY
360
20E34
102
}
102
{ACAD_REACTORS
330
318F
102
}
330
318F
100
AcDbVisualStyle
  2

 70
    14
 71
     2
 72
     2
 73
     0
 90
        0
 40
-0.6
 41
-30.0
 62
     5
 63
     7
 74
     1
 91
        4
 64
     7
 65
   257
 75
     7
175
     7
 42
1.0
 92
        8
 66
     7
 43
1.0
 76
     1
 77
     6
 78
     2
 67
     7
 79
     5
170
     0
171
     0
290
     0
174
     0
 93
        1
 44
0.0
173
     0
291
     1
 45
0.0
1001
ACAD
1000
AcDbSavedByObjectVersion
1070
     0
  0
VISUALSTYLE
  5
1B2EB
102
{ACAD_XDICTIONARY
360
20E53
102
}
102
{ACAD_REACTORS
330
318F
102
}
330
318F
100
AcDbVisualStyle
  2

 70
    21
 71
     2
 72
     2
 73
     0
 90
        0
 40
-0.6
 41
-30.0
 62
     5
 63
     7
 74
     1
 91
        4
 64
     7
 65
   257
 75
     1
175
     1
 42
1.0
 92
        9
 66
     7
 43
1.0
 76
     1
 77
     6
 78
     2
 67
     7
 79
     5
170
     0
171
     0
290
     0
174
     0
 93
        1
 44
0.0
173
     0
291
     1
 45
0.0
1001
ACAD
1000
AcDbSavedByObjectVersion
1070
     0
  0
VISUALSTYLE
  5
3199
102
{ACAD_XDICTIONARY
360
20E2C
102
}
102
{ACAD_REACTORS
330
318F
102
}
330
318F
100
AcDbVisualStyle
  2

 70
     8
 71
     2
 72
     2
 73
     0
 90
        0
 40
-0.6
 41
-30.0
 62
     5
 63
     7
 74
     1
 91
        0
 64
     7
 65
   257
 75
     1
175
     1
 42
1.0
 92
        8
 66
     8
 43
1.0
 76
     1
 77
     6
 78
     2
 67
     7
 79
     5
170
     0
171
     0
290
     0
174
     0
 93
       13
 44
0.0
173
     0
291
     0
 45
0.0
1001
ACAD
1000
AcDbSavedByObjectVersion
1070
     0
  0
VISUALSTYLE
  5
1B2E9
102
{ACAD_XDICTIONARY
360
20E4F
102
}
102
{ACAD_REACTORS
330
318F
102
}
330
318F
100
AcDbVisualStyle
  2

 70
    27
 71
     2
 72
     2
 73
     1
 90
        2
 40
-0.6
 41
30.0
 62
     5
 63
     7
 74
     0
 91
        4
 64
     7
 65
   257
 75
     1
175
     1
 42
1.0
 92
        8
 66
   257
 43
1.0
 76
     1
 77
     6
 78
     2
 67
     8
 79
     3
170
     0
171
     0
290
     0
174
     0
 93
        5
 44
0.0
173
     0
291
     0
 45
0.0
1001
ACAD
1000
AcDbSavedByObjectVersion
1070
     0
  0
VISUALSTYLE
  5
1B2E8
102
{ACAD_XDICTIONARY
360
20E4D
102
}
102
{ACAD_REACTORS
330
318F
102
}
330
318F
100
AcDbVisualStyle
  2

 70
    26
 71
     2
 72
     2
 73
     1
 90
        2
 40
-0.6
 41
30.0
 62
     5
 63
     7
 74
     1
 91
       10
 64
     7
 65
   257
 75
     2
175
     1
 42
1.0
 92
        8
 66
   257
 43
1.0
 76
     1
 77
     6
 78
     2
 67
     7
 79
     3
170
     0
171
     0
290
     0
174
     0
 93
        5
 44
0.0
173
     0
291
     0
 45
0.0
1001
ACAD
1000
AcDbSavedByObjectVersion
1070
     0
  0
VISUALSTYLE
  5
1B2E5
102
{ACAD_XDICTIONARY
360
20E47
102
}
102
{ACAD_REACTORS
330
318F
102
}
330
318F
100
AcDbVisualStyle
  2

 70
    23
 71
     2
 72
     2
 73
     3
 90
        0
 40
-0.6
 41
-30.0
 62
     5
 63
     7
 74
     2
 91
        2
 64
     7
 65
     7
 75
     1
175
     1
 42
40.0
 92
        8
 66
     7
 43
1.0
 76
     1
 77
     6
 78
     2
 67
     7
 79
     3
170
     0
171
     0
290
     0
174
     0
 93
        1
 44
0.0
173
     0
291
     0
 45
0.0
1001
ACAD
1000
AcDbSavedByObjectVersion
1070
     0
  0
VISUALSTYLE
  5
1B2E6
102
{ACAD_XDICTIONARY
360
20E49
102
}
102
{ACAD_REACTORS
330
318F
102
}
330
318F
100
AcDbVisualStyle
  2

 70
    24
 71
     1
 72
     2
 73
     2
 90
        0
 40
-0.6
 41
-30.0
 62
     5
 63
     7
 74
     2
 91
        2
 64
     7
 65
     7
 75
     1
175
     1
 42
40.0
 92
       11
 66
     7
 43
1.0
 76
     1
 77
     6
 78
     2
 67
     7
 79
     6
170
     0
171
     0
290
     0
174
     0
 93
        1
 44
0.0
173
     0
291
     0
 45
0.0
1001
ACAD
1000
AcDbSavedByObjectVersion
1070
     0
  0
VISUALSTYLE
  5
319C
102
{ACAD_XDICTIONARY
360
20E32
102
}
102
{ACAD_REACTORS
330
318F
102
}
330
318F
100
AcDbVisualStyle
  2

 70
    13
 71
     2
 72
     2
 73
     0
 90
        0
 40
-0.6
 41
-30.0
 62
     5
 63
     7
 74
     1
 91
        4
 64
     7
 65
   257
 75
     1
175
     1
 42
1.0
 92
       12
 66
     7
 43
1.0
 76
     1
 77
     6
 78
     2
 67
     7
 79
     5
170
     0
171
     0
290
     0
174
     0
 93
        1
 44
0.0
173
     0
291
     1
 45
0.0
1001
ACAD
1000
AcDbSavedByObjectVersion
1070
     0
  0
VISUALSTYLE
  5
1B2E3
102
{ACAD_XDICTIONARY
360
20E43
102
}
102
{ACAD_REACTORS
330
318F
102
}
330
318F
100
AcDbVisualStyle
  2

 70
     5
 71
     0
 72
     2
 73
     0
 90
        0
 40
-0.6
 41
-30.0
 62
     5
 63
     7
 74
     1
 91
        4
 64
     7
 65
   257
 75
     1
175
     1
 42
1.0
 92
        0
 66
   257
 43
1.0
 76
     1
 77
     6
 78
     2
 67
     7
 79
     3
170
     0
171
     0
290
     0
174
     0
 93
        1
 44
0.0
173
     0
291
     0
 45
0.0
1001
ACAD
1000
AcDbSavedByObjectVersion
1070
     0
  0
VISUALSTYLE
  5
1B2E7
102
{ACAD_XDICTIONARY
360
20E4B
102
}
102
{ACAD_REACTORS
330
318F
102
}
330
318F
100
AcDbVisualStyle
  2

 70
    25
 71
     2
 72
     2
 73
     1
 90
        1
 40
0.5
 41
-30.0
 62
     5
 63
     7
 74
     1
 91
        0
 64
     7
 65
   257
 75
     1
175
     1
 42
1.0
 92
        8
 66
     7
 43
1.0
 76
     1
 77
     6
 78
     2
 67
     7
 79
     3
170
     0
171
     0
290
     0
174
     0
 93
       13
 44
0.0
173
     0
291
     0
 45
0.0
1001
ACAD
1000
AcDbSavedByObjectVersion
1070
     0
  0
DICTIONARYVAR
  5
1B222
102
{ACAD_REACTORS
330
33A3
102
}
330
33A3
100
DictionaryVariables
280
     0
  1
1:1
  0
DICTIONARYVAR
  5
1B30F
102
{ACAD_REACTORS
330
33A3
102
}
330
33A3
100
DictionaryVariables
280
     0
  1
STANDARD
  0
DICTIONARYVAR
  5
33A4
102
{ACAD_REACTORS
330
33A3
102
}
330
33A3
100
DictionaryVariables
280
     0
  1
STANDARD
  0
DICTIONARYVAR
  5
1B310
102
{ACAD_REACTORS
330
33A3
102
}
330
33A3
100
DictionaryVariables
280
     0
  1
Metric50
  0
DICTIONARYVAR
  5
1B311
102
{ACAD_REACTORS
330
33A3
102
}
330
33A3
100
DictionaryVariables
280
     0
  1
Metric50
  0
DICTIONARYVAR
  5
9BE8
102
{ACAD_REACTORS
330
33A3
102
}
330
33A3
100
DictionaryVariables
280
     0
  1
1
  0
DICTIONARYVAR
  5
9BE7
102
{ACAD_REACTORS
330
33A3
102
}
330
33A3
100
DictionaryVariables
280
     0
  1
0
  0
DICTIONARYVAR
  5
20993
102
{ACAD_REACTORS
330
33A3
102
}
330
33A3
100
DictionaryVariables
280
     0
  1
1
  0
DICTIONARYVAR
  5
20994
102
{ACAD_REACTORS
330
33A3
102
}
330
33A3
100
DictionaryVariables
280
     0
  1
15
  0
DICTIONARYVAR
  5
20992
102
{ACAD_REACTORS
330
33A3
102
}
330
33A3
100
DictionaryVariables
280
     0
  1
0
  0
DICTIONARYVAR
  5
20991
102
{ACAD_REACTORS
330
33A3
102
}
330
33A3
100
DictionaryVariables
280
     0
  1
0
  0
DICTIONARYVAR
  5
9BE6
102
{ACAD_REACTORS
330
33A3
102
}
330
33A3
100
DictionaryVariables
280
     0
  1
127
  0
DICTIONARYVAR
  5
20E16
102
{ACAD_REACTORS
330
33A3
102
}
330
33A3
100
DictionaryVariables
280
     0
  1
2
  0
XRECORD
  5
20E5C
102
{ACAD_REACTORS
330
20E5B
102
}
330
20E5B
100
AcDbXrecord
280
     1
1070
     0
1070
     1
1070
     1
  0
DICTIONARY
  5
20E59
330
1B2F1
100
AcDbDictionary
280
     1
281
     1
  3
ACAD_XREC_ROUNDTRIP
360
20E5A
  0
DICTIONARY
  5
20E3D
330
31A7
100
AcDbDictionary
280
     1
281
     1
  3
ACAD_XREC_ROUNDTRIP
360
20E3E
  0
DICTIONARY
  5
20E3B
330
31A6
100
AcDbDictionary
280
     1
281
     1
  3
ACAD_XREC_ROUNDTRIP
360
20E3C
  0
DICTIONARY
  5
1B22B
330
318D
100
AcDbDictionary
280
     1
281
     1
  3
ACAD_XREC_ROUNDTRIP
360
1B22C
  0
DICTIONARY
  5
1B22D
330
318C
100
AcDbDictionary
280
     1
281
     1
  3
ACAD_XREC_ROUNDTRIP
360
1B22E
  0
DICTIONARY
  5
1B22F
330
318E
100
AcDbDictionary
280
     1
281
     1
  3
ACAD_XREC_ROUNDTRIP
360
1B230
  0
DICTIONARY
  5
20E57
330
1B2EF
100
AcDbDictionary
280
     1
281
     1
  3
ACAD_XREC_ROUNDTRIP
360
20E58
  0
DICTIONARY
  5
1B314
330
31A2
100
AcDbDictionary
280
     1
281
     1
  3
ACAD_ROUNDTRIP_2008_TABLESTYLE_CELLSTYLEMAP
360
20E17
  3
ACAD_XREC_ROUNDTRIP
360
20E3A
  0
DICTIONARY
  5
20E24
330
3195
100
AcDbDictionary
280
     1
281
     1
  3
ACAD_XREC_ROUNDTRIP
360
20E25
  0
DICTIONARY
  5
20E28
330
3197
100
AcDbDictionary
280
     1
281
     1
  3
ACAD_XREC_ROUNDTRIP
360
20E29
  0
DICTIONARY
  5
20E26
330
3196
100
AcDbDictionary
280
     1
281
     1
  3
ACAD_XREC_ROUNDTRIP
360
20E27
  0
DICTIONARY
  5
20E22
330
3194
100
AcDbDictionary
280
     1
281
     1
  3
ACAD_XREC_ROUNDTRIP
360
20E23
  0
DICTIONARY
  5
20E30
330
319B
100
AcDbDictionary
280
     1
281
     1
  3
ACAD_XREC_ROUNDTRIP
360
20E31
  0
DICTIONARY
  5
20E38
330
319F
100
AcDbDictionary
280
     1
281
     1
  3
ACAD_XREC_ROUNDTRIP
360
20E39
  0
DICTIONARY
  5
20E2A
330
3198
100
AcDbDictionary
280
     1
281
     1
  3
ACAD_XREC_ROUNDTRIP
360
20E2B
  0
DICTIONARY
  5
20E2E
330
319A
100
AcDbDictionary
280
     1
281
     1
  3
ACAD_XREC_ROUNDTRIP
360
20E2F
  0
DICTIONARY
  5
20E55
330
1B2EC
100
AcDbDictionary
280
     1
281
     1
  3
ACAD_XREC_ROUNDTRIP
360
20E56
  0
DICTIONARY
  5
20E36
330
319E
100
AcDbDictionary
280
     1
281
     1
  3
ACAD_XREC_ROUNDTRIP
360
20E37
  0
DICTIONARY
  5
20E1A
330
3190
100
AcDbDictionary
280
     1
281
     1
  3
ACAD_XREC_ROUNDTRIP
360
20E1B
  0
DICTIONARY
  5
20E1C
330
3191
100
AcDbDictionary
280
     1
281
     1
  3
ACAD_XREC_ROUNDTRIP
360
20E1D
  0
DICTIONARY
  5
20E1E
330
3192
100
AcDbDictionary
280
     1
281
     1
  3
ACAD_XREC_ROUNDTRIP
360
20E1F
  0
DICTIONARY
  5
20E20
330
3193
100
AcDbDictionary
280
     1
281
     1
  3
ACAD_XREC_ROUNDTRIP
360
20E21
  0
DICTIONARY
  5
20E45
330
1B2E4
100
AcDbDictionary
280
     1
281
     1
  3
ACAD_XREC_ROUNDTRIP
360
20E46
  0
DICTIONARY
  5
20E51
330
1B2EA
100
AcDbDictionary
280
     1
281
     1
  3
ACAD_XREC_ROUNDTRIP
360
20E52
  0
DICTIONARY
  5
20E34
330
319D
100
AcDbDictionary
280
     1
281
     1
  3
ACAD_XREC_ROUNDTRIP
360
20E35
  0
DICTIONARY
  5
20E53
330
1B2EB
100
AcDbDictionary
280
     1
281
     1
  3
ACAD_XREC_ROUNDTRIP
360
20E54
  0
DICTIONARY
  5
20E2C
330
3199
100
AcDbDictionary
280
     1
281
     1
  3
ACAD_XREC_ROUNDTRIP
360
20E2D
  0
DICTIONARY
  5
20E4F
330
1B2E9
100
AcDbDictionary
280
     1
281
     1
  3
ACAD_XREC_ROUNDTRIP
360
20E50
  0
DICTIONARY
  5
20E4D
330
1B2E8
100
AcDbDictionary
280
     1
281
     1
  3
ACAD_XREC_ROUNDTRIP
360
20E4E
  0
DICTIONARY
  5
20E47
330
1B2E5
100
AcDbDictionary
280
     1
281
     1
  3
ACAD_XREC_ROUNDTRIP
360
20E48
  0
DICTIONARY
  5
20E49
330
1B2E6
100
AcDbDictionary
280
     1
281
     1
  3
ACAD_XREC_ROUNDTRIP
360
20E4A
  0
DICTIONARY
  5
20E32
330
319C
100
AcDbDictionary
280
     1
281
     1
  3
ACAD_XREC_ROUNDTRIP
360
20E33
  0
DICTIONARY
  5
20E43
330
1B2E3
100
AcDbDictionary
280
     1
281
     1
  3
ACAD_XREC_ROUNDTRIP
360
20E44
  0
DICTIONARY
  5
20E4B
330
1B2E7
100
AcDbDictionary
280
     1
281
     1
  3
ACAD_XREC_ROUNDTRIP
360
20E4C
  0
XRECORD
  5
20E5A
102
{ACAD_REACTORS
330
20E59
102
}
330
20E59
100
AcDbXrecord
280
     1
102
DISPLAYNAME
  1
Metric50
102
FLAGS
 90
        0
  0
XRECORD
  5
20E3E
102
{ACAD_REACTORS
330
20E3D
102
}
330
20E3D
100
AcDbXrecord
280
     1
102
SHADEPLOT
 70
     0
102
SHADEPLOTRESLEVEL
 70
     2
102
SHADEPLOTCUSTOMDPI
 70
   300
  0
XRECORD
  5
20E3C
102
{ACAD_REACTORS
330
20E3B
102
}
330
20E3B
100
AcDbXrecord
280
     1
102
SHADEPLOT
 70
     0
102
SHADEPLOTRESLEVEL
 70
     2
102
SHADEPLOTCUSTOMDPI
 70
   300
  0
XRECORD
  5
1B22C
102
{ACAD_REACTORS
330
1B22B
102
}
330
1B22B
100
AcDbXrecord
280
     1
102
MATERIAL
148
0.0
149
0.0
149
0.0
 93
        0
 94
      127
282
     0
 72
     1
 77
     1
171
     1
175
     1
179
     1
273
     0
  0
XRECORD
  5
1B22E
102
{ACAD_REACTORS
330
1B22D
102
}
330
1B22D
100
AcDbXrecord
280
     1
102
MATERIAL
148
0.0
149
0.0
149
0.0
 93
        0
 94
      127
282
     0
 72
     1
 77
     1
171
     1
175
     1
179
     1
273
     0
  0
XRECORD
  5
1B230
102
{ACAD_REACTORS
330
1B22F
102
}
330
1B22F
100
AcDbXrecord
280
     1
102
MATERIAL
148
0.0
149
0.0
149
0.0
 93
        0
 94
      127
282
     0
 72
     1
 77
     1
171
     1
175
     1
179
     1
273
     0
  0
XRECORD
  5
20E58
102
{ACAD_REACTORS
330
20E57
102
}
330
20E57
100
AcDbXrecord
280
     1
102
DISPLAYNAME
  1
Metric50
102
FLAGS
 90
        0
  0
CELLSTYLEMAP
  5
20E17
102
{ACAD_REACTORS
330
1B314
102
}
330
1B314
100
AcDbCellStyleMap
 90
        3
300
CELLSTYLE
  1
TABLEFORMAT_BEGIN
 90
        5
170
     1
 91
        0
 92
    32768
 62
   257
 93
        1
300
CONTENTFORMAT
  1
CONTENTFORMAT_BEGIN
 90
        0
 91
        0
 92
        4
 93
        0
300

 40
0.0
140
1.0
 94
        5
 62
     0
340
11
144
6.0
309
CONTENTFORMAT_END
171
     1
301
MARGIN
  1
CELLMARGIN_BEGIN
 40
1.5
 40
1.5
 40
1.5
 40
1.5
 40
0.18
 40
0.18
309
CELLMARGIN_END
 94
        6
 95
        1
302
GRIDFORMAT
  1
GRIDFORMAT_BEGIN
 90
        0
 91
        1
 62
     0
 92
       -2
340
0
 93
        0
 40
0.045
309
GRIDFORMAT_END
 95
        2
302
GRIDFORMAT
  1
GRIDFORMAT_BEGIN
 90
        0
 91
        1
 62
     0
 92
       -2
340
0
 93
        0
 40
0.045
309
GRIDFORMAT_END
 95
        4
302
GRIDFORMAT
  1
GRIDFORMAT_BEGIN
 90
        0
 91
        1
 62
     0
 92
       -2
340
0
 93
        0
 40
0.045
309
GRIDFORMAT_END
 95
        8
302
GRIDFORMAT
  1
GRIDFORMAT_BEGIN
 90
        0
 91
        1
 62
     0
 92
       -2
340
0
 93
        0
 40
0.045
309
GRIDFORMAT_END
 95
       16
302
GRIDFORMAT
  1
GRIDFORMAT_BEGIN
 90
        0
 91
        1
 62
     0
 92
       -2
340
0
 93
        0
 40
0.045
309
GRIDFORMAT_END
 95
       32
302
GRIDFORMAT
  1
GRIDFORMAT_BEGIN
 90
        0
 91
        1
 62
     0
 92
       -2
340
0
 93
        0
 40
0.045
309
GRIDFORMAT_END
309
TABLEFORMAT_END
  1
CELLSTYLE_BEGIN
 90
        1
 91
        1
300
_TITLE
309
CELLSTYLE_END
300
CELLSTYLE
  1
TABLEFORMAT_BEGIN
 90
        5
170
     1
 91
        0
 92
        0
 62
   257
 93
        1
300
CONTENTFORMAT
  1
CONTENTFORMAT_BEGIN
 90
        0
 91
        0
 92
        4
 93
        0
300

 40
0.0
140
1.0
 94
        5
 62
     0
340
11
144
4.5
309
CONTENTFORMAT_END
171
     1
301
MARGIN
  1
CELLMARGIN_BEGIN
 40
1.5
 40
1.5
 40
1.5
 40
1.5
 40
0.18
 40
0.18
309
CELLMARGIN_END
 94
        6
 95
        1
302
GRIDFORMAT
  1
GRIDFORMAT_BEGIN
 90
        0
 91
        1
 62
     0
 92
       -2
340
0
 93
        0
 40
0.045
309
GRIDFORMAT_END
 95
        2
302
GRIDFORMAT
  1
GRIDFORMAT_BEGIN
 90
        0
 91
        1
 62
     0
 92
       -2
340
0
 93
        0
 40
0.045
309
GRIDFORMAT_END
 95
        4
302
GRIDFORMAT
  1
GRIDFORMAT_BEGIN
 90
        0
 91
        1
 62
     0
 92
       -2
340
0
 93
        0
 40
0.045
309
GRIDFORMAT_END
 95
        8
302
GRIDFORMAT
  1
GRIDFORMAT_BEGIN
 90
        0
 91
        1
 62
     0
 92
       -2
340
0
 93
        0
 40
0.045
309
GRIDFORMAT_END
 95
       16
302
GRIDFORMAT
  1
GRIDFORMAT_BEGIN
 90
        0
 91
        1
 62
     0
 92
       -2
340
0
 93
        0
 40
0.045
309
GRIDFORMAT_END
 95
       32
302
GRIDFORMAT
  1
GRIDFORMAT_BEGIN
 90
        0
 91
        1
 62
     0
 92
       -2
340
0
 93
        0
 40
0.045
309
GRIDFORMAT_END
309
TABLEFORMAT_END
  1
CELLSTYLE_BEGIN
 90
        2
 91
        1
300
_HEADER
309
CELLSTYLE_END
300
CELLSTYLE
  1
TABLEFORMAT_BEGIN
 90
        5
170
     1
 91
        0
 92
        0
 62
   257
 93
        1
300
CONTENTFORMAT
  1
CONTENTFORMAT_BEGIN
 90
        0
 91
        0
 92
        4
 93
        0
300

 40
0.0
140
1.0
 94
        2
 62
     0
340
11
144
4.5
309
CONTENTFORMAT_END
171
     1
301
MARGIN
  1
CELLMARGIN_BEGIN
 40
1.5
 40
1.5
 40
1.5
 40
1.5
 40
0.18
 40
0.18
309
CELLMARGIN_END
 94
        6
 95
        1
302
GRIDFORMAT
  1
GRIDFORMAT_BEGIN
 90
        0
 91
        1
 62
     0
 92
       -2
340
0
 93
        0
 40
0.045
309
GRIDFORMAT_END
 95
        2
302
GRIDFORMAT
  1
GRIDFORMAT_BEGIN
 90
        0
 91
        1
 62
     0
 92
       -2
340
0
 93
        0
 40
0.045
309
GRIDFORMAT_END
 95
        4
302
GRIDFORMAT
  1
GRIDFORMAT_BEGIN
 90
        0
 91
        1
 62
     0
 92
       -2
340
0
 93
        0
 40
0.045
309
GRIDFORMAT_END
 95
        8
302
GRIDFORMAT
  1
GRIDFORMAT_BEGIN
 90
        0
 91
        1
 62
     0
 92
       -2
340
0
 93
        0
 40
0.045
309
GRIDFORMAT_END
 95
       16
302
GRIDFORMAT
  1
GRIDFORMAT_BEGIN
 90
        0
 91
        1
 62
     0
 92
       -2
340
0
 93
        0
 40
0.045
309
GRIDFORMAT_END
 95
       32
302
GRIDFORMAT
  1
GRIDFORMAT_BEGIN
 90
        0
 91
        1
 62
     0
 92
       -2
340
0
 93
        0
 40
0.045
309
GRIDFORMAT_END
309
TABLEFORMAT_END
  1
CELLSTYLE_BEGIN
 90
        3
 91
        2
300
_DATA
309
CELLSTYLE_END
  0
XRECORD
  5
20E3A
102
{ACAD_REACTORS
330
1B314
102
}
330
1B314
100
AcDbXrecord
280
     1
102
ACAD_ROUNDTRIP_PRE2007_TABLESTYLE
 90
        4
 91
        0
  1

 92
        4
 93
        0
  2

 94
        4
 95
        0
  3

  0
XRECORD
  5
20E25
102
{ACAD_REACTORS
330
20E24
102
}
330
20E24
100
AcDbXrecord
280
     1
102
RTVSPost2010Prop28
280
     1
102
RTVSPost2010PropOp28
 70
     1
102
RTVSPost2010Prop29
280
     1
102
RTVSPost2010PropOp29
 70
     1
102
RTVSPost2010Prop30
280
     0
102
RTVSPost2010PropOp30
 70
     1
102
RTVSPost2010Prop31
280
     0
102
RTVSPost2010PropOp31
 70
     1
102
RTVSPost2010Prop32
280
     0
102
RTVSPost2010PropOp32
 70
     1
102
RTVSPost2010Prop33
280
     0
102
RTVSPost2010PropOp33
 70
     1
102
RTVSPost2010Prop34
280
     0
102
RTVSPost2010PropOp34
 70
     1
102
RTVSPost2010Prop35
280
     0
102
RTVSPost2010PropOp35
 70
     1
102
RTVSPost2010Prop36
280
     0
102
RTVSPost2010PropOp36
 70
     1
102
RTVSPost2010Prop37
 90
       50
102
RTVSPost2010PropOp37
 70
     1
102
RTVSPost2010Prop38
140
0.0
102
RTVSPost2010PropOp38
 70
     1
102
RTVSPost2010Prop39
140
1.0
102
RTVSPost2010PropOp39
 70
     1
102
RTVSPost2010Prop40
 90
        0
102
RTVSPost2010PropOp40
 70
     1
102
RTVSPost2010Prop41ColorIndex
 90
       18
102
RTVSPost2010Prop41ColorRGB
 90
        0
102
RTVSPost2010PropOp41
 70
     1
102
RTVSPost2010Prop42
 90
       50
102
RTVSPost2010PropOp42
 70
     1
102
RTVSPost2010Prop43
 90
        3
102
RTVSPost2010PropOp43
 70
     1
102
RTVSPost2010Prop44ColorIndex
 90
        5
102
RTVSPost2010Prop44ColorRGB
 90
      255
102
RTVSPost2010PropOp44
 70
     1
102
RTVSPost2010Prop45
280
     0
102
RTVSPost2010PropOp45
 70
     1
102
RTVSPost2010Prop46
 90
       50
102
RTVSPost2010PropOp46
 70
     1
102
RTVSPost2010Prop47
 90
       50
102
RTVSPost2010PropOp47
 70
     1
102
RTVSPost2010Prop48
 90
       50
102
RTVSPost2010PropOp48
 70
     1
102
RTVSPost2010Prop49
280
     0
102
RTVSPost2010PropOp49
 70
     1
102
RTVSPost2010Prop50
 90
       50
102
RTVSPost2010PropOp50
 70
     1
102
RTVSPost2010Prop51ColorIndex
 90
      256
102
RTVSPost2010Prop51ColorRGB
 90
-16777216
102
RTVSPost2010PropOp51
 70
     0
102
RTVSPost2010Prop52
140
1.0
102
RTVSPost2010PropOp52
 70
     0
102
RTVSPost2010Prop53
 90
        2
102
RTVSPost2010PropOp53
 70
     1
102
RTVSPost2010Prop54
  1
strokes_ogs.tif
102
RTVSPost2010PropOp54
 70
     1
102
RTVSPost2010Prop55
280
     0
102
RTVSPost2010PropOp55
 70
     1
102
RTVSPost2010Prop56
140
1.0
102
RTVSPost2010PropOp56
 70
     1
102
RTVSPost2010Prop57
140
1.0
102
RTVSPost2010PropOp57
 70
     1
102
RTVSPropertyOp0
 70
     1
102
RTVSPropertyOp1
 70
     1
102
RTVSPropertyOp2
 70
     1
102
RTVSPropertyOp3
 70
     1
102
RTVSPropertyOp4
 70
     1
102
RTVSPropertyOp5
 70
     1
102
RTVSPropertyOp6
 70
     1
102
RTVSPropertyOp7
 70
     1
102
RTVSPropertyOp8
 70
     1
102
RTVSPropertyOp9
 70
     1
102
RTVSPropertyOp10
 70
     1
102
RTVSPropertyOp11
 70
     1
102
RTVSPropertyOp12
 70
     1
102
RTVSPropertyOp13
 70
     1
102
RTVSPropertyOp14
 70
     1
102
RTVSPropertyOp15
 70
     1
102
RTVSPropertyOp16
 70
     1
102
RTVSPropertyOp17
 70
     1
102
RTVSPropertyOp18
 70
     1
102
RTVSPropertyOp19
 70
     1
102
RTVSPropertyOp20
 70
     1
102
RTVSPropertyOp21
 70
     1
102
RTVSPropertyOp22
 70
     1
102
RTVSPropertyOp23
 70
     1
102
RTVSPropertyOp24
 70
     1
102
RTVSPropertyOp25
 70
     1
102
RTVSPropertyOp26
 70
     1
102
RTVSPropertyOp27
 70
     1
102
RTVSPropertyOp28
 70
     1
102
RTVSPropertyOp29
 70
     1
102
RTVSPropertyOp30
 70
     1
102
RTVSPropertyOp31
 70
     1
102
RTVSPropertyOp32
 70
     1
102
RTVSPropertyOp33
 70
     1
102
RTVSPropertyOp34
 70
     1
102
RTVSPropertyOp35
 70
     1
102
RTVSPropertyOp36
 70
     1
102
RTVSPropertyOp37
 70
     1
102
RTVSPropertyOp38
 70
     1
102
RTVSPropertyOp39
 70
     1
102
RTVSPropertyOp40
 70
     1
102
RTVSPropertyOp41
 70
     1
102
RTVSPropertyOp42
 70
     1
102
RTVSPropertyOp43
 70
     1
102
RTVSPropertyOp44
 70
     1
102
RTVSPropertyOp45
 70
     1
102
RTVSPropertyOp46
 70
     1
102
RTVSPropertyOp47
 70
     1
102
RTVSPropertyOp48
 70
     1
102
RTVSPropertyOp49
 70
     1
102
RTVSPropertyOp50
 70
     1
102
RTVSPropertyOp51
 70
     0
102
RTVSPropertyOp52
 70
     0
102
RTVSPropertyOp53
 70
     1
102
RTVSPropertyOp54
 70
     1
102
RTVSPropertyOp55
 70
     1
102
RTVSPropertyOp56
 70
     1
102
RTVSPropertyOp57
 70
     1
102
RTVSPropertyOp58
 70
     1
102
RTVSPropertyOp59
 70
     1
102
RTVSPropertyOp60
 70
     1
102
RTVSPropertyOp61
 70
     1
102
RTVSPropertyOp62
 70
     1
  0
XRECORD
  5
20E29
102
{ACAD_REACTORS
330
20E28
102
}
330
20E28
100
AcDbXrecord
280
     1
102
RTVSPost2010Prop28
280
     0
102
RTVSPost2010PropOp28
 70
     1
102
RTVSPost2010Prop29
280
     1
102
RTVSPost2010PropOp29
 70
     1
102
RTVSPost2010Prop30
280
     1
102
RTVSPost2010PropOp30
 70
     1
102
RTVSPost2010Prop31
280
     0
102
RTVSPost2010PropOp31
 70
     1
102
RTVSPost2010Prop32
280
     0
102
RTVSPost2010PropOp32
 70
     1
102
RTVSPost2010Prop33
280
     0
102
RTVSPost2010PropOp33
 70
     1
102
RTVSPost2010Prop34
280
     0
102
RTVSPost2010PropOp34
 70
     1
102
RTVSPost2010Prop35
280
     0
102
RTVSPost2010PropOp35
 70
     1
102
RTVSPost2010Prop36
280
     0
102
RTVSPost2010PropOp36
 70
     1
102
RTVSPost2010Prop37
 90
       50
102
RTVSPost2010PropOp37
 70
     1
102
RTVSPost2010Prop38
140
0.0
102
RTVSPost2010PropOp38
 70
     1
102
RTVSPost2010Prop39
140
1.0
102
RTVSPost2010PropOp39
 70
     1
102
RTVSPost2010Prop40
 90
        0
102
RTVSPost2010PropOp40
 70
     1
102
RTVSPost2010Prop41ColorIndex
 90
       18
102
RTVSPost2010Prop41ColorRGB
 90
        0
102
RTVSPost2010PropOp41
 70
     1
102
RTVSPost2010Prop42
 90
       50
102
RTVSPost2010PropOp42
 70
     1
102
RTVSPost2010Prop43
 90
        3
102
RTVSPost2010PropOp43
 70
     1
102
RTVSPost2010Prop44ColorIndex
 90
        5
102
RTVSPost2010Prop44ColorRGB
 90
      255
102
RTVSPost2010PropOp44
 70
     1
102
RTVSPost2010Prop45
280
     0
102
RTVSPost2010PropOp45
 70
     1
102
RTVSPost2010Prop46
 90
       50
102
RTVSPost2010PropOp46
 70
     1
102
RTVSPost2010Prop47
 90
       50
102
RTVSPost2010PropOp47
 70
     1
102
RTVSPost2010Prop48
 90
       50
102
RTVSPost2010PropOp48
 70
     1
102
RTVSPost2010Prop49
280
     0
102
RTVSPost2010PropOp49
 70
     1
102
RTVSPost2010Prop50
 90
       50
102
RTVSPost2010PropOp50
 70
     1
102
RTVSPost2010Prop51ColorIndex
 90
      256
102
RTVSPost2010Prop51ColorRGB
 90
-16777216
102
RTVSPost2010PropOp51
 70
     0
102
RTVSPost2010Prop52
140
1.0
102
RTVSPost2010PropOp52
 70
     0
102
RTVSPost2010Prop53
 90
        2
102
RTVSPost2010PropOp53
 70
     1
102
RTVSPost2010Prop54
  1
strokes_ogs.tif
102
RTVSPost2010PropOp54
 70
     1
102
RTVSPost2010Prop55
280
     0
102
RTVSPost2010PropOp55
 70
     1
102
RTVSPost2010Prop56
140
1.0
102
RTVSPost2010PropOp56
 70
     1
102
RTVSPost2010Prop57
140
1.0
102
RTVSPost2010PropOp57
 70
     1
102
RTVSPropertyOp0
 70
     1
102
RTVSPropertyOp1
 70
     1
102
RTVSPropertyOp2
 70
     1
102
RTVSPropertyOp3
 70
     1
102
RTVSPropertyOp4
 70
     1
102
RTVSPropertyOp5
 70
     1
102
RTVSPropertyOp6
 70
     1
102
RTVSPropertyOp7
 70
     1
102
RTVSPropertyOp8
 70
     1
102
RTVSPropertyOp9
 70
     1
102
RTVSPropertyOp10
 70
     1
102
RTVSPropertyOp11
 70
     1
102
RTVSPropertyOp12
 70
     1
102
RTVSPropertyOp13
 70
     1
102
RTVSPropertyOp14
 70
     1
102
RTVSPropertyOp15
 70
     1
102
RTVSPropertyOp16
 70
     1
102
RTVSPropertyOp17
 70
     1
102
RTVSPropertyOp18
 70
     1
102
RTVSPropertyOp19
 70
     1
102
RTVSPropertyOp20
 70
     1
102
RTVSPropertyOp21
 70
     1
102
RTVSPropertyOp22
 70
     1
102
RTVSPropertyOp23
 70
     1
102
RTVSPropertyOp24
 70
     1
102
RTVSPropertyOp25
 70
     1
102
RTVSPropertyOp26
 70
     1
102
RTVSPropertyOp27
 70
     1
102
RTVSPropertyOp28
 70
     1
102
RTVSPropertyOp29
 70
     1
102
RTVSPropertyOp30
 70
     1
102
RTVSPropertyOp31
 70
     1
102
RTVSPropertyOp32
 70
     1
102
RTVSPropertyOp33
 70
     1
102
RTVSPropertyOp34
 70
     1
102
RTVSPropertyOp35
 70
     1
102
RTVSPropertyOp36
 70
     1
102
RTVSPropertyOp37
 70
     1
102
RTVSPropertyOp38
 70
     1
102
RTVSPropertyOp39
 70
     1
102
RTVSPropertyOp40
 70
     1
102
RTVSPropertyOp41
 70
     1
102
RTVSPropertyOp42
 70
     1
102
RTVSPropertyOp43
 70
     1
102
RTVSPropertyOp44
 70
     1
102
RTVSPropertyOp45
 70
     1
102
RTVSPropertyOp46
 70
     1
102
RTVSPropertyOp47
 70
     1
102
RTVSPropertyOp48
 70
     1
102
RTVSPropertyOp49
 70
     1
102
RTVSPropertyOp50
 70
     1
102
RTVSPropertyOp51
 70
     0
102
RTVSPropertyOp52
 70
     0
102
RTVSPropertyOp53
 70
     1
102
RTVSPropertyOp54
 70
     1
102
RTVSPropertyOp55
 70
     1
102
RTVSPropertyOp56
 70
     1
102
RTVSPropertyOp57
 70
     1
102
RTVSPropertyOp58
 70
     1
102
RTVSPropertyOp59
 70
     1
102
RTVSPropertyOp60
 70
     1
102
RTVSPropertyOp61
 70
     1
102
RTVSPropertyOp62
 70
     1
  0
XRECORD
  5
20E27
102
{ACAD_REACTORS
330
20E26
102
}
330
20E26
100
AcDbXrecord
280
     1
102
RTVSPost2010Prop28
280
     0
102
RTVSPost2010PropOp28
 70
     1
102
RTVSPost2010Prop29
280
     1
102
RTVSPost2010PropOp29
 70
     1
102
RTVSPost2010Prop30
280
     1
102
RTVSPost2010PropOp30
 70
     1
102
RTVSPost2010Prop31
280
     0
102
RTVSPost2010PropOp31
 70
     1
102
RTVSPost2010Prop32
280
     0
102
RTVSPost2010PropOp32
 70
     1
102
RTVSPost2010Prop33
280
     0
102
RTVSPost2010PropOp33
 70
     1
102
RTVSPost2010Prop34
280
     0
102
RTVSPost2010PropOp34
 70
     1
102
RTVSPost2010Prop35
280
     0
102
RTVSPost2010PropOp35
 70
     1
102
RTVSPost2010Prop36
280
     0
102
RTVSPost2010PropOp36
 70
     1
102
RTVSPost2010Prop37
 90
       50
102
RTVSPost2010PropOp37
 70
     1
102
RTVSPost2010Prop38
140
0.0
102
RTVSPost2010PropOp38
 70
     1
102
RTVSPost2010Prop39
140
1.0
102
RTVSPost2010PropOp39
 70
     1
102
RTVSPost2010Prop40
 90
        0
102
RTVSPost2010PropOp40
 70
     1
102
RTVSPost2010Prop41ColorIndex
 90
       18
102
RTVSPost2010Prop41ColorRGB
 90
        0
102
RTVSPost2010PropOp41
 70
     1
102
RTVSPost2010Prop42
 90
       50
102
RTVSPost2010PropOp42
 70
     1
102
RTVSPost2010Prop43
 90
        3
102
RTVSPost2010PropOp43
 70
     1
102
RTVSPost2010Prop44ColorIndex
 90
        5
102
RTVSPost2010Prop44ColorRGB
 90
      255
102
RTVSPost2010PropOp44
 70
     1
102
RTVSPost2010Prop45
280
     0
102
RTVSPost2010PropOp45
 70
     1
102
RTVSPost2010Prop46
 90
       50
102
RTVSPost2010PropOp46
 70
     1
102
RTVSPost2010Prop47
 90
       50
102
RTVSPost2010PropOp47
 70
     1
102
RTVSPost2010Prop48
 90
       50
102
RTVSPost2010PropOp48
 70
     1
102
RTVSPost2010Prop49
280
     0
102
RTVSPost2010PropOp49
 70
     1
102
RTVSPost2010Prop50
 90
       50
102
RTVSPost2010PropOp50
 70
     1
102
RTVSPost2010Prop51ColorIndex
 90
      256
102
RTVSPost2010Prop51ColorRGB
 90
-16777216
102
RTVSPost2010PropOp51
 70
     0
102
RTVSPost2010Prop52
140
1.0
102
RTVSPost2010PropOp52
 70
     0
102
RTVSPost2010Prop53
 90
        2
102
RTVSPost2010PropOp53
 70
     1
102
RTVSPost2010Prop54
  1
strokes_ogs.tif
102
RTVSPost2010PropOp54
 70
     1
102
RTVSPost2010Prop55
280
     0
102
RTVSPost2010PropOp55
 70
     1
102
RTVSPost2010Prop56
140
1.0
102
RTVSPost2010PropOp56
 70
     1
102
RTVSPost2010Prop57
140
1.0
102
RTVSPost2010PropOp57
 70
     1
102
RTVSPropertyOp0
 70
     1
102
RTVSPropertyOp1
 70
     1
102
RTVSPropertyOp2
 70
     1
102
RTVSPropertyOp3
 70
     1
102
RTVSPropertyOp4
 70
     1
102
RTVSPropertyOp5
 70
     1
102
RTVSPropertyOp6
 70
     1
102
RTVSPropertyOp7
 70
     1
102
RTVSPropertyOp8
 70
     1
102
RTVSPropertyOp9
 70
     1
102
RTVSPropertyOp10
 70
     1
102
RTVSPropertyOp11
 70
     1
102
RTVSPropertyOp12
 70
     1
102
RTVSPropertyOp13
 70
     1
102
RTVSPropertyOp14
 70
     1
102
RTVSPropertyOp15
 70
     1
102
RTVSPropertyOp16
 70
     1
102
RTVSPropertyOp17
 70
     1
102
RTVSPropertyOp18
 70
     1
102
RTVSPropertyOp19
 70
     1
102
RTVSPropertyOp20
 70
     1
102
RTVSPropertyOp21
 70
     1
102
RTVSPropertyOp22
 70
     1
102
RTVSPropertyOp23
 70
     1
102
RTVSPropertyOp24
 70
     1
102
RTVSPropertyOp25
 70
     1
102
RTVSPropertyOp26
 70
     1
102
RTVSPropertyOp27
 70
     1
102
RTVSPropertyOp28
 70
     1
102
RTVSPropertyOp29
 70
     1
102
RTVSPropertyOp30
 70
     1
102
RTVSPropertyOp31
 70
     1
102
RTVSPropertyOp32
 70
     1
102
RTVSPropertyOp33
 70
     1
102
RTVSPropertyOp34
 70
     1
102
RTVSPropertyOp35
 70
     1
102
RTVSPropertyOp36
 70
     1
102
RTVSPropertyOp37
 70
     1
102
RTVSPropertyOp38
 70
     1
102
RTVSPropertyOp39
 70
     1
102
RTVSPropertyOp40
 70
     1
102
RTVSPropertyOp41
 70
     1
102
RTVSPropertyOp42
 70
     1
102
RTVSPropertyOp43
 70
     1
102
RTVSPropertyOp44
 70
     1
102
RTVSPropertyOp45
 70
     1
102
RTVSPropertyOp46
 70
     1
102
RTVSPropertyOp47
 70
     1
102
RTVSPropertyOp48
 70
     1
102
RTVSPropertyOp49
 70
     1
102
RTVSPropertyOp50
 70
     1
102
RTVSPropertyOp51
 70
     0
102
RTVSPropertyOp52
 70
     0
102
RTVSPropertyOp53
 70
     1
102
RTVSPropertyOp54
 70
     1
102
RTVSPropertyOp55
 70
     1
102
RTVSPropertyOp56
 70
     1
102
RTVSPropertyOp57
 70
     1
102
RTVSPropertyOp58
 70
     1
102
RTVSPropertyOp59
 70
     1
102
RTVSPropertyOp60
 70
     1
102
RTVSPropertyOp61
 70
     1
102
RTVSPropertyOp62
 70
     1
  0
XRECORD
  5
20E23
102
{ACAD_REACTORS
330
20E22
102
}
330
20E22
100
AcDbXrecord
280
     1
102
RTVSPost2010Prop28
280
     0
102
RTVSPost2010PropOp28
 70
     1
102
RTVSPost2010Prop29
280
     1
102
RTVSPost2010PropOp29
 70
     1
102
RTVSPost2010Prop30
280
     1
102
RTVSPost2010PropOp30
 70
     1
102
RTVSPost2010Prop31
280
     0
102
RTVSPost2010PropOp31
 70
     1
102
RTVSPost2010Prop32
280
     0
102
RTVSPost2010PropOp32
 70
     1
102
RTVSPost2010Prop33
280
     0
102
RTVSPost2010PropOp33
 70
     1
102
RTVSPost2010Prop34
280
     0
102
RTVSPost2010PropOp34
 70
     1
102
RTVSPost2010Prop35
280
     0
102
RTVSPost2010PropOp35
 70
     1
102
RTVSPost2010Prop36
280
     0
102
RTVSPost2010PropOp36
 70
     1
102
RTVSPost2010Prop37
 90
       50
102
RTVSPost2010PropOp37
 70
     1
102
RTVSPost2010Prop38
140
0.0
102
RTVSPost2010PropOp38
 70
     1
102
RTVSPost2010Prop39
140
1.0
102
RTVSPost2010PropOp39
 70
     1
102
RTVSPost2010Prop40
 90
        0
102
RTVSPost2010PropOp40
 70
     1
102
RTVSPost2010Prop41ColorIndex
 90
       18
102
RTVSPost2010Prop41ColorRGB
 90
        0
102
RTVSPost2010PropOp41
 70
     1
102
RTVSPost2010Prop42
 90
       50
102
RTVSPost2010PropOp42
 70
     1
102
RTVSPost2010Prop43
 90
        3
102
RTVSPost2010PropOp43
 70
     1
102
RTVSPost2010Prop44ColorIndex
 90
        5
102
RTVSPost2010Prop44ColorRGB
 90
      255
102
RTVSPost2010PropOp44
 70
     1
102
RTVSPost2010Prop45
280
     0
102
RTVSPost2010PropOp45
 70
     1
102
RTVSPost2010Prop46
 90
       50
102
RTVSPost2010PropOp46
 70
     1
102
RTVSPost2010Prop47
 90
       50
102
RTVSPost2010PropOp47
 70
     1
102
RTVSPost2010Prop48
 90
       50
102
RTVSPost2010PropOp48
 70
     1
102
RTVSPost2010Prop49
280
     0
102
RTVSPost2010PropOp49
 70
     1
102
RTVSPost2010Prop50
 90
       50
102
RTVSPost2010PropOp50
 70
     1
102
RTVSPost2010Prop51ColorIndex
 90
      256
102
RTVSPost2010Prop51ColorRGB
 90
-16777216
102
RTVSPost2010PropOp51
 70
     0
102
RTVSPost2010Prop52
140
1.0
102
RTVSPost2010PropOp52
 70
     0
102
RTVSPost2010Prop53
 90
        2
102
RTVSPost2010PropOp53
 70
     1
102
RTVSPost2010Prop54
  1
strokes_ogs.tif
102
RTVSPost2010PropOp54
 70
     1
102
RTVSPost2010Prop55
280
     0
102
RTVSPost2010PropOp55
 70
     1
102
RTVSPost2010Prop56
140
1.0
102
RTVSPost2010PropOp56
 70
     1
102
RTVSPost2010Prop57
140
1.0
102
RTVSPost2010PropOp57
 70
     1
102
RTVSPropertyOp0
 70
     1
102
RTVSPropertyOp1
 70
     1
102
RTVSPropertyOp2
 70
     1
102
RTVSPropertyOp3
 70
     1
102
RTVSPropertyOp4
 70
     1
102
RTVSPropertyOp5
 70
     1
102
RTVSPropertyOp6
 70
     1
102
RTVSPropertyOp7
 70
     1
102
RTVSPropertyOp8
 70
     1
102
RTVSPropertyOp9
 70
     1
102
RTVSPropertyOp10
 70
     1
102
RTVSPropertyOp11
 70
     1
102
RTVSPropertyOp12
 70
     1
102
RTVSPropertyOp13
 70
     1
102
RTVSPropertyOp14
 70
     1
102
RTVSPropertyOp15
 70
     1
102
RTVSPropertyOp16
 70
     1
102
RTVSPropertyOp17
 70
     1
102
RTVSPropertyOp18
 70
     1
102
RTVSPropertyOp19
 70
     1
102
RTVSPropertyOp20
 70
     1
102
RTVSPropertyOp21
 70
     1
102
RTVSPropertyOp22
 70
     1
102
RTVSPropertyOp23
 70
     1
102
RTVSPropertyOp24
 70
     1
102
RTVSPropertyOp25
 70
     1
102
RTVSPropertyOp26
 70
     1
102
RTVSPropertyOp27
 70
     1
102
RTVSPropertyOp28
 70
     1
102
RTVSPropertyOp29
 70
     1
102
RTVSPropertyOp30
 70
     1
102
RTVSPropertyOp31
 70
     1
102
RTVSPropertyOp32
 70
     1
102
RTVSPropertyOp33
 70
     1
102
RTVSPropertyOp34
 70
     1
102
RTVSPropertyOp35
 70
     1
102
RTVSPropertyOp36
 70
     1
102
RTVSPropertyOp37
 70
     1
102
RTVSPropertyOp38
 70
     1
102
RTVSPropertyOp39
 70
     1
102
RTVSPropertyOp40
 70
     1
102
RTVSPropertyOp41
 70
     1
102
RTVSPropertyOp42
 70
     1
102
RTVSPropertyOp43
 70
     1
102
RTVSPropertyOp44
 70
     1
102
RTVSPropertyOp45
 70
     1
102
RTVSPropertyOp46
 70
     1
102
RTVSPropertyOp47
 70
     1
102
RTVSPropertyOp48
 70
     1
102
RTVSPropertyOp49
 70
     1
102
RTVSPropertyOp50
 70
     1
102
RTVSPropertyOp51
 70
     0
102
RTVSPropertyOp52
 70
     0
102
RTVSPropertyOp53
 70
     1
102
RTVSPropertyOp54
 70
     1
102
RTVSPropertyOp55
 70
     1
102
RTVSPropertyOp56
 70
     1
102
RTVSPropertyOp57
 70
     1
102
RTVSPropertyOp58
 70
     1
102
RTVSPropertyOp59
 70
     1
102
RTVSPropertyOp60
 70
     1
102
RTVSPropertyOp61
 70
     1
102
RTVSPropertyOp62
 70
     1
  0
XRECORD
  5
20E31
102
{ACAD_REACTORS
330
20E30
102
}
330
20E30
100
AcDbXrecord
280
     1
102
RTVSPost2010Prop28
280
     0
102
RTVSPost2010PropOp28
 70
     1
102
RTVSPost2010Prop29
280
     1
102
RTVSPost2010PropOp29
 70
     1
102
RTVSPost2010Prop30
280
     1
102
RTVSPost2010PropOp30
 70
     1
102
RTVSPost2010Prop31
280
     0
102
RTVSPost2010PropOp31
 70
     1
102
RTVSPost2010Prop32
280
     0
102
RTVSPost2010PropOp32
 70
     1
102
RTVSPost2010Prop33
280
     0
102
RTVSPost2010PropOp33
 70
     1
102
RTVSPost2010Prop34
280
     0
102
RTVSPost2010PropOp34
 70
     1
102
RTVSPost2010Prop35
280
     0
102
RTVSPost2010PropOp35
 70
     1
102
RTVSPost2010Prop36
280
     0
102
RTVSPost2010PropOp36
 70
     1
102
RTVSPost2010Prop37
 90
       50
102
RTVSPost2010PropOp37
 70
     1
102
RTVSPost2010Prop38
140
0.0
102
RTVSPost2010PropOp38
 70
     1
102
RTVSPost2010Prop39
140
1.0
102
RTVSPost2010PropOp39
 70
     1
102
RTVSPost2010Prop40
 90
        0
102
RTVSPost2010PropOp40
 70
     1
102
RTVSPost2010Prop41ColorIndex
 90
       18
102
RTVSPost2010Prop41ColorRGB
 90
        0
102
RTVSPost2010PropOp41
 70
     1
102
RTVSPost2010Prop42
 90
       50
102
RTVSPost2010PropOp42
 70
     1
102
RTVSPost2010Prop43
 90
        3
102
RTVSPost2010PropOp43
 70
     1
102
RTVSPost2010Prop44ColorIndex
 90
        5
102
RTVSPost2010Prop44ColorRGB
 90
      255
102
RTVSPost2010PropOp44
 70
     1
102
RTVSPost2010Prop45
280
     0
102
RTVSPost2010PropOp45
 70
     1
102
RTVSPost2010Prop46
 90
       50
102
RTVSPost2010PropOp46
 70
     1
102
RTVSPost2010Prop47
 90
       50
102
RTVSPost2010PropOp47
 70
     1
102
RTVSPost2010Prop48
 90
       50
102
RTVSPost2010PropOp48
 70
     1
102
RTVSPost2010Prop49
280
     0
102
RTVSPost2010PropOp49
 70
     1
102
RTVSPost2010Prop50
 90
       50
102
RTVSPost2010PropOp50
 70
     1
102
RTVSPost2010Prop51ColorIndex
 90
      256
102
RTVSPost2010Prop51ColorRGB
 90
-16777216
102
RTVSPost2010PropOp51
 70
     0
102
RTVSPost2010Prop52
140
1.0
102
RTVSPost2010PropOp52
 70
     0
102
RTVSPost2010Prop53
 90
        2
102
RTVSPost2010PropOp53
 70
     1
102
RTVSPost2010Prop54
  1
strokes_ogs.tif
102
RTVSPost2010PropOp54
 70
     1
102
RTVSPost2010Prop55
280
     0
102
RTVSPost2010PropOp55
 70
     1
102
RTVSPost2010Prop56
140
1.0
102
RTVSPost2010PropOp56
 70
     1
102
RTVSPost2010Prop57
140
1.0
102
RTVSPost2010PropOp57
 70
     1
102
RTVSPropertyOp0
 70
     1
102
RTVSPropertyOp1
 70
     1
102
RTVSPropertyOp2
 70
     1
102
RTVSPropertyOp3
 70
     1
102
RTVSPropertyOp4
 70
     1
102
RTVSPropertyOp5
 70
     1
102
RTVSPropertyOp6
 70
     1
102
RTVSPropertyOp7
 70
     1
102
RTVSPropertyOp8
 70
     1
102
RTVSPropertyOp9
 70
     1
102
RTVSPropertyOp10
 70
     1
102
RTVSPropertyOp11
 70
     1
102
RTVSPropertyOp12
 70
     1
102
RTVSPropertyOp13
 70
     1
102
RTVSPropertyOp14
 70
     1
102
RTVSPropertyOp15
 70
     1
102
RTVSPropertyOp16
 70
     1
102
RTVSPropertyOp17
 70
     1
102
RTVSPropertyOp18
 70
     1
102
RTVSPropertyOp19
 70
     1
102
RTVSPropertyOp20
 70
     1
102
RTVSPropertyOp21
 70
     1
102
RTVSPropertyOp22
 70
     1
102
RTVSPropertyOp23
 70
     1
102
RTVSPropertyOp24
 70
     1
102
RTVSPropertyOp25
 70
     1
102
RTVSPropertyOp26
 70
     1
102
RTVSPropertyOp27
 70
     1
102
RTVSPropertyOp28
 70
     1
102
RTVSPropertyOp29
 70
     1
102
RTVSPropertyOp30
 70
     1
102
RTVSPropertyOp31
 70
     1
102
RTVSPropertyOp32
 70
     1
102
RTVSPropertyOp33
 70
     1
102
RTVSPropertyOp34
 70
     1
102
RTVSPropertyOp35
 70
     1
102
RTVSPropertyOp36
 70
     1
102
RTVSPropertyOp37
 70
     1
102
RTVSPropertyOp38
 70
     1
102
RTVSPropertyOp39
 70
     1
102
RTVSPropertyOp40
 70
     1
102
RTVSPropertyOp41
 70
     1
102
RTVSPropertyOp42
 70
     1
102
RTVSPropertyOp43
 70
     1
102
RTVSPropertyOp44
 70
     1
102
RTVSPropertyOp45
 70
     1
102
RTVSPropertyOp46
 70
     1
102
RTVSPropertyOp47
 70
     1
102
RTVSPropertyOp48
 70
     1
102
RTVSPropertyOp49
 70
     1
102
RTVSPropertyOp50
 70
     1
102
RTVSPropertyOp51
 70
     0
102
RTVSPropertyOp52
 70
     0
102
RTVSPropertyOp53
 70
     1
102
RTVSPropertyOp54
 70
     1
102
RTVSPropertyOp55
 70
     1
102
RTVSPropertyOp56
 70
     1
102
RTVSPropertyOp57
 70
     1
102
RTVSPropertyOp58
 70
     1
102
RTVSPropertyOp59
 70
     1
102
RTVSPropertyOp60
 70
     1
102
RTVSPropertyOp61
 70
     1
102
RTVSPropertyOp62
 70
     1
  0
XRECORD
  5
20E39
102
{ACAD_REACTORS
330
20E38
102
}
330
20E38
100
AcDbXrecord
280
     1
102
RTVSPost2010Prop28
280
     0
102
RTVSPost2010PropOp28
 70
     1
102
RTVSPost2010Prop29
280
     1
102
RTVSPost2010PropOp29
 70
     1
102
RTVSPost2010Prop30
280
     1
102
RTVSPost2010PropOp30
 70
     1
102
RTVSPost2010Prop31
280
     0
102
RTVSPost2010PropOp31
 70
     1
102
RTVSPost2010Prop32
280
     0
102
RTVSPost2010PropOp32
 70
     1
102
RTVSPost2010Prop33
280
     0
102
RTVSPost2010PropOp33
 70
     1
102
RTVSPost2010Prop34
280
     0
102
RTVSPost2010PropOp34
 70
     1
102
RTVSPost2010Prop35
280
     0
102
RTVSPost2010PropOp35
 70
     1
102
RTVSPost2010Prop36
280
     0
102
RTVSPost2010PropOp36
 70
     1
102
RTVSPost2010Prop37
 90
       50
102
RTVSPost2010PropOp37
 70
     1
102
RTVSPost2010Prop38
140
0.0
102
RTVSPost2010PropOp38
 70
     1
102
RTVSPost2010Prop39
140
1.0
102
RTVSPost2010PropOp39
 70
     1
102
RTVSPost2010Prop40
 90
        0
102
RTVSPost2010PropOp40
 70
     1
102
RTVSPost2010Prop41ColorIndex
 90
       18
102
RTVSPost2010Prop41ColorRGB
 90
        0
102
RTVSPost2010PropOp41
 70
     1
102
RTVSPost2010Prop42
 90
       50
102
RTVSPost2010PropOp42
 70
     1
102
RTVSPost2010Prop43
 90
        3
102
RTVSPost2010PropOp43
 70
     1
102
RTVSPost2010Prop44ColorIndex
 90
        5
102
RTVSPost2010Prop44ColorRGB
 90
      255
102
RTVSPost2010PropOp44
 70
     1
102
RTVSPost2010Prop45
280
     0
102
RTVSPost2010PropOp45
 70
     1
102
RTVSPost2010Prop46
 90
       50
102
RTVSPost2010PropOp46
 70
     1
102
RTVSPost2010Prop47
 90
       50
102
RTVSPost2010PropOp47
 70
     1
102
RTVSPost2010Prop48
 90
       50
102
RTVSPost2010PropOp48
 70
     1
102
RTVSPost2010Prop49
280
     0
102
RTVSPost2010PropOp49
 70
     1
102
RTVSPost2010Prop50
 90
       50
102
RTVSPost2010PropOp50
 70
     1
102
RTVSPost2010Prop51ColorIndex
 90
      256
102
RTVSPost2010Prop51ColorRGB
 90
-16777216
102
RTVSPost2010PropOp51
 70
     0
102
RTVSPost2010Prop52
140
1.0
102
RTVSPost2010PropOp52
 70
     0
102
RTVSPost2010Prop53
 90
        2
102
RTVSPost2010PropOp53
 70
     1
102
RTVSPost2010Prop54
  1
strokes_ogs.tif
102
RTVSPost2010PropOp54
 70
     1
102
RTVSPost2010Prop55
280
     0
102
RTVSPost2010PropOp55
 70
     1
102
RTVSPost2010Prop56
140
1.0
102
RTVSPost2010PropOp56
 70
     1
102
RTVSPost2010Prop57
140
1.0
102
RTVSPost2010PropOp57
 70
     1
102
RTVSPropertyOp0
 70
     1
102
RTVSPropertyOp1
 70
     1
102
RTVSPropertyOp2
 70
     1
102
RTVSPropertyOp3
 70
     1
102
RTVSPropertyOp4
 70
     1
102
RTVSPropertyOp5
 70
     1
102
RTVSPropertyOp6
 70
     1
102
RTVSPropertyOp7
 70
     1
102
RTVSPropertyOp8
 70
     1
102
RTVSPropertyOp9
 70
     1
102
RTVSPropertyOp10
 70
     1
102
RTVSPropertyOp11
 70
     1
102
RTVSPropertyOp12
 70
     1
102
RTVSPropertyOp13
 70
     1
102
RTVSPropertyOp14
 70
     1
102
RTVSPropertyOp15
 70
     1
102
RTVSPropertyOp16
 70
     1
102
RTVSPropertyOp17
 70
     1
102
RTVSPropertyOp18
 70
     1
102
RTVSPropertyOp19
 70
     1
102
RTVSPropertyOp20
 70
     1
102
RTVSPropertyOp21
 70
     1
102
RTVSPropertyOp22
 70
     1
102
RTVSPropertyOp23
 70
     1
102
RTVSPropertyOp24
 70
     1
102
RTVSPropertyOp25
 70
     1
102
RTVSPropertyOp26
 70
     1
102
RTVSPropertyOp27
 70
     1
102
RTVSPropertyOp28
 70
     1
102
RTVSPropertyOp29
 70
     1
102
RTVSPropertyOp30
 70
     1
102
RTVSPropertyOp31
 70
     1
102
RTVSPropertyOp32
 70
     1
102
RTVSPropertyOp33
 70
     1
102
RTVSPropertyOp34
 70
     1
102
RTVSPropertyOp35
 70
     1
102
RTVSPropertyOp36
 70
     1
102
RTVSPropertyOp37
 70
     1
102
RTVSPropertyOp38
 70
     1
102
RTVSPropertyOp39
 70
     1
102
RTVSPropertyOp40
 70
     1
102
RTVSPropertyOp41
 70
     1
102
RTVSPropertyOp42
 70
     1
102
RTVSPropertyOp43
 70
     1
102
RTVSPropertyOp44
 70
     1
102
RTVSPropertyOp45
 70
     1
102
RTVSPropertyOp46
 70
     1
102
RTVSPropertyOp47
 70
     1
102
RTVSPropertyOp48
 70
     1
102
RTVSPropertyOp49
 70
     1
102
RTVSPropertyOp50
 70
     1
102
RTVSPropertyOp51
 70
     0
102
RTVSPropertyOp52
 70
     0
102
RTVSPropertyOp53
 70
     1
102
RTVSPropertyOp54
 70
     1
102
RTVSPropertyOp55
 70
     1
102
RTVSPropertyOp56
 70
     1
102
RTVSPropertyOp57
 70
     1
102
RTVSPropertyOp58
 70
     1
102
RTVSPropertyOp59
 70
     1
102
RTVSPropertyOp60
 70
     1
102
RTVSPropertyOp61
 70
     1
102
RTVSPropertyOp62
 70
     1
  0
XRECORD
  5
20E2B
102
{ACAD_REACTORS
330
20E2A
102
}
330
20E2A
100
AcDbXrecord
280
     1
102
RTVSPost2010Prop28
280
     0
102
RTVSPost2010PropOp28
 70
     1
102
RTVSPost2010Prop29
280
     1
102
RTVSPost2010PropOp29
 70
     1
102
RTVSPost2010Prop30
280
     1
102
RTVSPost2010PropOp30
 70
     1
102
RTVSPost2010Prop31
280
     0
102
RTVSPost2010PropOp31
 70
     1
102
RTVSPost2010Prop32
280
     0
102
RTVSPost2010PropOp32
 70
     1
102
RTVSPost2010Prop33
280
     0
102
RTVSPost2010PropOp33
 70
     1
102
RTVSPost2010Prop34
280
     0
102
RTVSPost2010PropOp34
 70
     1
102
RTVSPost2010Prop35
280
     0
102
RTVSPost2010PropOp35
 70
     1
102
RTVSPost2010Prop36
280
     0
102
RTVSPost2010PropOp36
 70
     1
102
RTVSPost2010Prop37
 90
       50
102
RTVSPost2010PropOp37
 70
     1
102
RTVSPost2010Prop38
140
0.0
102
RTVSPost2010PropOp38
 70
     1
102
RTVSPost2010Prop39
140
1.0
102
RTVSPost2010PropOp39
 70
     1
102
RTVSPost2010Prop40
 90
        0
102
RTVSPost2010PropOp40
 70
     1
102
RTVSPost2010Prop41ColorIndex
 90
       18
102
RTVSPost2010Prop41ColorRGB
 90
        0
102
RTVSPost2010PropOp41
 70
     1
102
RTVSPost2010Prop42
 90
       50
102
RTVSPost2010PropOp42
 70
     1
102
RTVSPost2010Prop43
 90
        3
102
RTVSPost2010PropOp43
 70
     1
102
RTVSPost2010Prop44ColorIndex
 90
        5
102
RTVSPost2010Prop44ColorRGB
 90
      255
102
RTVSPost2010PropOp44
 70
     1
102
RTVSPost2010Prop45
280
     0
102
RTVSPost2010PropOp45
 70
     1
102
RTVSPost2010Prop46
 90
       50
102
RTVSPost2010PropOp46
 70
     1
102
RTVSPost2010Prop47
 90
       50
102
RTVSPost2010PropOp47
 70
     1
102
RTVSPost2010Prop48
 90
       50
102
RTVSPost2010PropOp48
 70
     1
102
RTVSPost2010Prop49
280
     0
102
RTVSPost2010PropOp49
 70
     1
102
RTVSPost2010Prop50
 90
       50
102
RTVSPost2010PropOp50
 70
     1
102
RTVSPost2010Prop51ColorIndex
 90
      256
102
RTVSPost2010Prop51ColorRGB
 90
-16777216
102
RTVSPost2010PropOp51
 70
     0
102
RTVSPost2010Prop52
140
1.0
102
RTVSPost2010PropOp52
 70
     0
102
RTVSPost2010Prop53
 90
        2
102
RTVSPost2010PropOp53
 70
     1
102
RTVSPost2010Prop54
  1
strokes_ogs.tif
102
RTVSPost2010PropOp54
 70
     1
102
RTVSPost2010Prop55
280
     0
102
RTVSPost2010PropOp55
 70
     1
102
RTVSPost2010Prop56
140
1.0
102
RTVSPost2010PropOp56
 70
     1
102
RTVSPost2010Prop57
140
1.0
102
RTVSPost2010PropOp57
 70
     1
102
RTVSPropertyOp0
 70
     1
102
RTVSPropertyOp1
 70
     1
102
RTVSPropertyOp2
 70
     1
102
RTVSPropertyOp3
 70
     1
102
RTVSPropertyOp4
 70
     1
102
RTVSPropertyOp5
 70
     1
102
RTVSPropertyOp6
 70
     1
102
RTVSPropertyOp7
 70
     1
102
RTVSPropertyOp8
 70
     1
102
RTVSPropertyOp9
 70
     1
102
RTVSPropertyOp10
 70
     1
102
RTVSPropertyOp11
 70
     1
102
RTVSPropertyOp12
 70
     1
102
RTVSPropertyOp13
 70
     1
102
RTVSPropertyOp14
 70
     1
102
RTVSPropertyOp15
 70
     1
102
RTVSPropertyOp16
 70
     1
102
RTVSPropertyOp17
 70
     1
102
RTVSPropertyOp18
 70
     1
102
RTVSPropertyOp19
 70
     1
102
RTVSPropertyOp20
 70
     1
102
RTVSPropertyOp21
 70
     1
102
RTVSPropertyOp22
 70
     1
102
RTVSPropertyOp23
 70
     1
102
RTVSPropertyOp24
 70
     1
102
RTVSPropertyOp25
 70
     1
102
RTVSPropertyOp26
 70
     1
102
RTVSPropertyOp27
 70
     1
102
RTVSPropertyOp28
 70
     1
102
RTVSPropertyOp29
 70
     1
102
RTVSPropertyOp30
 70
     1
102
RTVSPropertyOp31
 70
     1
102
RTVSPropertyOp32
 70
     1
102
RTVSPropertyOp33
 70
     1
102
RTVSPropertyOp34
 70
     1
102
RTVSPropertyOp35
 70
     1
102
RTVSPropertyOp36
 70
     1
102
RTVSPropertyOp37
 70
     1
102
RTVSPropertyOp38
 70
     1
102
RTVSPropertyOp39
 70
     1
102
RTVSPropertyOp40
 70
     1
102
RTVSPropertyOp41
 70
     1
102
RTVSPropertyOp42
 70
     1
102
RTVSPropertyOp43
 70
     1
102
RTVSPropertyOp44
 70
     1
102
RTVSPropertyOp45
 70
     1
102
RTVSPropertyOp46
 70
     1
102
RTVSPropertyOp47
 70
     1
102
RTVSPropertyOp48
 70
     1
102
RTVSPropertyOp49
 70
     1
102
RTVSPropertyOp50
 70
     1
102
RTVSPropertyOp51
 70
     0
102
RTVSPropertyOp52
 70
     0
102
RTVSPropertyOp53
 70
     1
102
RTVSPropertyOp54
 70
     1
102
RTVSPropertyOp55
 70
     1
102
RTVSPropertyOp56
 70
     1
102
RTVSPropertyOp57
 70
     1
102
RTVSPropertyOp58
 70
     1
102
RTVSPropertyOp59
 70
     1
102
RTVSPropertyOp60
 70
     1
102
RTVSPropertyOp61
 70
     1
102
RTVSPropertyOp62
 70
     1
  0
XRECORD
  5
20E2F
102
{ACAD_REACTORS
330
20E2E
102
}
330
20E2E
100
AcDbXrecord
280
     1
102
RTVSPost2010Prop28
280
     0
102
RTVSPost2010PropOp28
 70
     1
102
RTVSPost2010Prop29
280
     1
102
RTVSPost2010PropOp29
 70
     1
102
RTVSPost2010Prop30
280
     1
102
RTVSPost2010PropOp30
 70
     1
102
RTVSPost2010Prop31
280
     0
102
RTVSPost2010PropOp31
 70
     1
102
RTVSPost2010Prop32
280
     0
102
RTVSPost2010PropOp32
 70
     1
102
RTVSPost2010Prop33
280
     0
102
RTVSPost2010PropOp33
 70
     1
102
RTVSPost2010Prop34
280
     0
102
RTVSPost2010PropOp34
 70
     1
102
RTVSPost2010Prop35
280
     0
102
RTVSPost2010PropOp35
 70
     1
102
RTVSPost2010Prop36
280
     0
102
RTVSPost2010PropOp36
 70
     1
102
RTVSPost2010Prop37
 90
       50
102
RTVSPost2010PropOp37
 70
     1
102
RTVSPost2010Prop38
140
0.0
102
RTVSPost2010PropOp38
 70
     1
102
RTVSPost2010Prop39
140
1.0
102
RTVSPost2010PropOp39
 70
     1
102
RTVSPost2010Prop40
 90
        0
102
RTVSPost2010PropOp40
 70
     1
102
RTVSPost2010Prop41ColorIndex
 90
       18
102
RTVSPost2010Prop41ColorRGB
 90
        0
102
RTVSPost2010PropOp41
 70
     1
102
RTVSPost2010Prop42
 90
       50
102
RTVSPost2010PropOp42
 70
     1
102
RTVSPost2010Prop43
 90
        3
102
RTVSPost2010PropOp43
 70
     1
102
RTVSPost2010Prop44ColorIndex
 90
        5
102
RTVSPost2010Prop44ColorRGB
 90
      255
102
RTVSPost2010PropOp44
 70
     1
102
RTVSPost2010Prop45
280
     0
102
RTVSPost2010PropOp45
 70
     1
102
RTVSPost2010Prop46
 90
       50
102
RTVSPost2010PropOp46
 70
     1
102
RTVSPost2010Prop47
 90
       50
102
RTVSPost2010PropOp47
 70
     1
102
RTVSPost2010Prop48
 90
       50
102
RTVSPost2010PropOp48
 70
     1
102
RTVSPost2010Prop49
280
     0
102
RTVSPost2010PropOp49
 70
     1
102
RTVSPost2010Prop50
 90
       50
102
RTVSPost2010PropOp50
 70
     1
102
RTVSPost2010Prop51ColorIndex
 90
      256
102
RTVSPost2010Prop51ColorRGB
 90
-16777216
102
RTVSPost2010PropOp51
 70
     0
102
RTVSPost2010Prop52
140
1.0
102
RTVSPost2010PropOp52
 70
     0
102
RTVSPost2010Prop53
 90
        2
102
RTVSPost2010PropOp53
 70
     1
102
RTVSPost2010Prop54
  1
strokes_ogs.tif
102
RTVSPost2010PropOp54
 70
     1
102
RTVSPost2010Prop55
280
     0
102
RTVSPost2010PropOp55
 70
     1
102
RTVSPost2010Prop56
140
1.0
102
RTVSPost2010PropOp56
 70
     1
102
RTVSPost2010Prop57
140
1.0
102
RTVSPost2010PropOp57
 70
     1
102
RTVSPropertyOp0
 70
     1
102
RTVSPropertyOp1
 70
     1
102
RTVSPropertyOp2
 70
     1
102
RTVSPropertyOp3
 70
     1
102
RTVSPropertyOp4
 70
     1
102
RTVSPropertyOp5
 70
     1
102
RTVSPropertyOp6
 70
     1
102
RTVSPropertyOp7
 70
     1
102
RTVSPropertyOp8
 70
     1
102
RTVSPropertyOp9
 70
     1
102
RTVSPropertyOp10
 70
     1
102
RTVSPropertyOp11
 70
     1
102
RTVSPropertyOp12
 70
     1
102
RTVSPropertyOp13
 70
     1
102
RTVSPropertyOp14
 70
     1
102
RTVSPropertyOp15
 70
     1
102
RTVSPropertyOp16
 70
     1
102
RTVSPropertyOp17
 70
     1
102
RTVSPropertyOp18
 70
     1
102
RTVSPropertyOp19
 70
     1
102
RTVSPropertyOp20
 70
     1
102
RTVSPropertyOp21
 70
     1
102
RTVSPropertyOp22
 70
     1
102
RTVSPropertyOp23
 70
     1
102
RTVSPropertyOp24
 70
     1
102
RTVSPropertyOp25
 70
     1
102
RTVSPropertyOp26
 70
     1
102
RTVSPropertyOp27
 70
     1
102
RTVSPropertyOp28
 70
     1
102
RTVSPropertyOp29
 70
     1
102
RTVSPropertyOp30
 70
     1
102
RTVSPropertyOp31
 70
     1
102
RTVSPropertyOp32
 70
     1
102
RTVSPropertyOp33
 70
     1
102
RTVSPropertyOp34
 70
     1
102
RTVSPropertyOp35
 70
     1
102
RTVSPropertyOp36
 70
     1
102
RTVSPropertyOp37
 70
     1
102
RTVSPropertyOp38
 70
     1
102
RTVSPropertyOp39
 70
     1
102
RTVSPropertyOp40
 70
     1
102
RTVSPropertyOp41
 70
     1
102
RTVSPropertyOp42
 70
     1
102
RTVSPropertyOp43
 70
     1
102
RTVSPropertyOp44
 70
     1
102
RTVSPropertyOp45
 70
     1
102
RTVSPropertyOp46
 70
     1
102
RTVSPropertyOp47
 70
     1
102
RTVSPropertyOp48
 70
     1
102
RTVSPropertyOp49
 70
     1
102
RTVSPropertyOp50
 70
     1
102
RTVSPropertyOp51
 70
     0
102
RTVSPropertyOp52
 70
     0
102
RTVSPropertyOp53
 70
     1
102
RTVSPropertyOp54
 70
     1
102
RTVSPropertyOp55
 70
     1
102
RTVSPropertyOp56
 70
     1
102
RTVSPropertyOp57
 70
     1
102
RTVSPropertyOp58
 70
     1
102
RTVSPropertyOp59
 70
     1
102
RTVSPropertyOp60
 70
     1
102
RTVSPropertyOp61
 70
     1
102
RTVSPropertyOp62
 70
     1
  0
XRECORD
  5
20E56
102
{ACAD_REACTORS
330
20E55
102
}
330
20E55
100
AcDbXrecord
280
     1
102
RTVSPost2010Prop28
280
     0
102
RTVSPost2010PropOp28
 70
     1
102
RTVSPost2010Prop29
280
     1
102
RTVSPost2010PropOp29
 70
     1
102
RTVSPost2010Prop30
280
     1
102
RTVSPost2010PropOp30
 70
     1
102
RTVSPost2010Prop31
280
     0
102
RTVSPost2010PropOp31
 70
     1
102
RTVSPost2010Prop32
280
     0
102
RTVSPost2010PropOp32
 70
     1
102
RTVSPost2010Prop33
280
     0
102
RTVSPost2010PropOp33
 70
     1
102
RTVSPost2010Prop34
280
     0
102
RTVSPost2010PropOp34
 70
     1
102
RTVSPost2010Prop35
280
     0
102
RTVSPost2010PropOp35
 70
     1
102
RTVSPost2010Prop36
280
     0
102
RTVSPost2010PropOp36
 70
     1
102
RTVSPost2010Prop37
 90
       50
102
RTVSPost2010PropOp37
 70
     0
102
RTVSPost2010Prop38
140
0.0
102
RTVSPost2010PropOp38
 70
     0
102
RTVSPost2010Prop39
140
1.0
102
RTVSPost2010PropOp39
 70
     0
102
RTVSPost2010Prop40
 90
        0
102
RTVSPost2010PropOp40
 70
     0
102
RTVSPost2010Prop41ColorIndex
 90
       18
102
RTVSPost2010Prop41ColorRGB
 90
        0
102
RTVSPost2010PropOp41
 70
     0
102
RTVSPost2010Prop42
 90
       50
102
RTVSPost2010PropOp42
 70
     0
102
RTVSPost2010Prop43
 90
        3
102
RTVSPost2010PropOp43
 70
     0
102
RTVSPost2010Prop44ColorIndex
 90
        5
102
RTVSPost2010Prop44ColorRGB
 90
      255
102
RTVSPost2010PropOp44
 70
     0
102
RTVSPost2010Prop45
280
     0
102
RTVSPost2010PropOp45
 70
     1
102
RTVSPost2010Prop46
 90
       50
102
RTVSPost2010PropOp46
 70
     0
102
RTVSPost2010Prop47
 90
       50
102
RTVSPost2010PropOp47
 70
     0
102
RTVSPost2010Prop48
 90
       50
102
RTVSPost2010PropOp48
 70
     0
102
RTVSPost2010Prop49
280
     0
102
RTVSPost2010PropOp49
 70
     1
102
RTVSPost2010Prop50
 90
       50
102
RTVSPost2010PropOp50
 70
     0
102
RTVSPost2010Prop51ColorIndex
 90
      256
102
RTVSPost2010Prop51ColorRGB
 90
-16777216
102
RTVSPost2010PropOp51
 70
     0
102
RTVSPost2010Prop52
140
1.0
102
RTVSPost2010PropOp52
 70
     0
102
RTVSPost2010Prop53
 90
        2
102
RTVSPost2010PropOp53
 70
     0
102
RTVSPost2010Prop54
  1
strokes_ogs.tif
102
RTVSPost2010PropOp54
 70
     0
102
RTVSPost2010Prop55
280
     0
102
RTVSPost2010PropOp55
 70
     1
102
RTVSPost2010Prop56
140
1.0
102
RTVSPost2010PropOp56
 70
     0
102
RTVSPost2010Prop57
140
1.0
102
RTVSPost2010PropOp57
 70
     0
102
RTVSPropertyOp0
 70
     0
102
RTVSPropertyOp1
 70
     0
102
RTVSPropertyOp2
 70
     0
102
RTVSPropertyOp3
 70
     0
102
RTVSPropertyOp4
 70
     0
102
RTVSPropertyOp5
 70
     0
102
RTVSPropertyOp6
 70
     0
102
RTVSPropertyOp7
 70
     0
102
RTVSPropertyOp8
 70
     0
102
RTVSPropertyOp9
 70
     0
102
RTVSPropertyOp10
 70
     0
102
RTVSPropertyOp11
 70
     0
102
RTVSPropertyOp12
 70
     0
102
RTVSPropertyOp13
 70
     0
102
RTVSPropertyOp14
 70
     2
102
RTVSPropertyOp15
 70
     0
102
RTVSPropertyOp16
 70
     0
102
RTVSPropertyOp17
 70
     0
102
RTVSPropertyOp18
 70
     0
102
RTVSPropertyOp19
 70
     0
102
RTVSPropertyOp20
 70
     0
102
RTVSPropertyOp21
 70
     0
102
RTVSPropertyOp22
 70
     0
102
RTVSPropertyOp23
 70
     0
102
RTVSPropertyOp24
 70
     0
102
RTVSPropertyOp25
 70
     0
102
RTVSPropertyOp26
 70
     0
102
RTVSPropertyOp27
 70
     0
102
RTVSPropertyOp28
 70
     1
102
RTVSPropertyOp29
 70
     1
102
RTVSPropertyOp30
 70
     1
102
RTVSPropertyOp31
 70
     1
102
RTVSPropertyOp32
 70
     1
102
RTVSPropertyOp33
 70
     1
102
RTVSPropertyOp34
 70
     1
102
RTVSPropertyOp35
 70
     1
102
RTVSPropertyOp36
 70
     1
102
RTVSPropertyOp37
 70
     0
102
RTVSPropertyOp38
 70
     0
102
RTVSPropertyOp39
 70
     0
102
RTVSPropertyOp40
 70
     0
102
RTVSPropertyOp41
 70
     0
102
RTVSPropertyOp42
 70
     0
102
RTVSPropertyOp43
 70
     0
102
RTVSPropertyOp44
 70
     0
102
RTVSPropertyOp45
 70
     1
102
RTVSPropertyOp46
 70
     0
102
RTVSPropertyOp47
 70
     0
102
RTVSPropertyOp48
 70
     0
102
RTVSPropertyOp49
 70
     1
102
RTVSPropertyOp50
 70
     0
102
RTVSPropertyOp51
 70
     0
102
RTVSPropertyOp52
 70
     0
102
RTVSPropertyOp53
 70
     0
102
RTVSPropertyOp54
 70
     0
102
RTVSPropertyOp55
 70
     1
102
RTVSPropertyOp56
 70
     0
102
RTVSPropertyOp57
 70
     0
102
RTVSPropertyOp58
 70
     1
102
RTVSPropertyOp59
 70
     1
102
RTVSPropertyOp60
 70
     1
102
RTVSPropertyOp61
 70
     1
102
RTVSPropertyOp62
 70
     1
  0
XRECORD
  5
20E37
102
{ACAD_REACTORS
330
20E36
102
}
330
20E36
100
AcDbXrecord
280
     1
102
RTVSPost2010Prop28
280
     0
102
RTVSPost2010PropOp28
 70
     1
102
RTVSPost2010Prop29
280
     1
102
RTVSPost2010PropOp29
 70
     1
102
RTVSPost2010Prop30
280
     1
102
RTVSPost2010PropOp30
 70
     1
102
RTVSPost2010Prop31
280
     0
102
RTVSPost2010PropOp31
 70
     1
102
RTVSPost2010Prop32
280
     0
102
RTVSPost2010PropOp32
 70
     1
102
RTVSPost2010Prop33
280
     0
102
RTVSPost2010PropOp33
 70
     1
102
RTVSPost2010Prop34
280
     0
102
RTVSPost2010PropOp34
 70
     1
102
RTVSPost2010Prop35
280
     0
102
RTVSPost2010PropOp35
 70
     1
102
RTVSPost2010Prop36
280
     0
102
RTVSPost2010PropOp36
 70
     1
102
RTVSPost2010Prop37
 90
       50
102
RTVSPost2010PropOp37
 70
     1
102
RTVSPost2010Prop38
140
0.0
102
RTVSPost2010PropOp38
 70
     1
102
RTVSPost2010Prop39
140
1.0
102
RTVSPost2010PropOp39
 70
     1
102
RTVSPost2010Prop40
 90
        0
102
RTVSPost2010PropOp40
 70
     1
102
RTVSPost2010Prop41ColorIndex
 90
       18
102
RTVSPost2010Prop41ColorRGB
 90
        0
102
RTVSPost2010PropOp41
 70
     1
102
RTVSPost2010Prop42
 90
       50
102
RTVSPost2010PropOp42
 70
     1
102
RTVSPost2010Prop43
 90
        3
102
RTVSPost2010PropOp43
 70
     1
102
RTVSPost2010Prop44ColorIndex
 90
        5
102
RTVSPost2010Prop44ColorRGB
 90
      255
102
RTVSPost2010PropOp44
 70
     1
102
RTVSPost2010Prop45
280
     0
102
RTVSPost2010PropOp45
 70
     1
102
RTVSPost2010Prop46
 90
       50
102
RTVSPost2010PropOp46
 70
     1
102
RTVSPost2010Prop47
 90
       50
102
RTVSPost2010PropOp47
 70
     1
102
RTVSPost2010Prop48
 90
       50
102
RTVSPost2010PropOp48
 70
     1
102
RTVSPost2010Prop49
280
     0
102
RTVSPost2010PropOp49
 70
     1
102
RTVSPost2010Prop50
 90
       50
102
RTVSPost2010PropOp50
 70
     1
102
RTVSPost2010Prop51ColorIndex
 90
      256
102
RTVSPost2010Prop51ColorRGB
 90
-16777216
102
RTVSPost2010PropOp51
 70
     0
102
RTVSPost2010Prop52
140
1.0
102
RTVSPost2010PropOp52
 70
     0
102
RTVSPost2010Prop53
 90
        2
102
RTVSPost2010PropOp53
 70
     1
102
RTVSPost2010Prop54
  1
strokes_ogs.tif
102
RTVSPost2010PropOp54
 70
     1
102
RTVSPost2010Prop55
280
     0
102
RTVSPost2010PropOp55
 70
     1
102
RTVSPost2010Prop56
140
1.0
102
RTVSPost2010PropOp56
 70
     1
102
RTVSPost2010Prop57
140
1.0
102
RTVSPost2010PropOp57
 70
     1
102
RTVSPropertyOp0
 70
     1
102
RTVSPropertyOp1
 70
     1
102
RTVSPropertyOp2
 70
     1
102
RTVSPropertyOp3
 70
     1
102
RTVSPropertyOp4
 70
     1
102
RTVSPropertyOp5
 70
     1
102
RTVSPropertyOp6
 70
     1
102
RTVSPropertyOp7
 70
     1
102
RTVSPropertyOp8
 70
     1
102
RTVSPropertyOp9
 70
     1
102
RTVSPropertyOp10
 70
     1
102
RTVSPropertyOp11
 70
     1
102
RTVSPropertyOp12
 70
     1
102
RTVSPropertyOp13
 70
     1
102
RTVSPropertyOp14
 70
     1
102
RTVSPropertyOp15
 70
     1
102
RTVSPropertyOp16
 70
     1
102
RTVSPropertyOp17
 70
     1
102
RTVSPropertyOp18
 70
     1
102
RTVSPropertyOp19
 70
     1
102
RTVSPropertyOp20
 70
     1
102
RTVSPropertyOp21
 70
     1
102
RTVSPropertyOp22
 70
     1
102
RTVSPropertyOp23
 70
     1
102
RTVSPropertyOp24
 70
     1
102
RTVSPropertyOp25
 70
     1
102
RTVSPropertyOp26
 70
     1
102
RTVSPropertyOp27
 70
     1
102
RTVSPropertyOp28
 70
     1
102
RTVSPropertyOp29
 70
     1
102
RTVSPropertyOp30
 70
     1
102
RTVSPropertyOp31
 70
     1
102
RTVSPropertyOp32
 70
     1
102
RTVSPropertyOp33
 70
     1
102
RTVSPropertyOp34
 70
     1
102
RTVSPropertyOp35
 70
     1
102
RTVSPropertyOp36
 70
     1
102
RTVSPropertyOp37
 70
     1
102
RTVSPropertyOp38
 70
     1
102
RTVSPropertyOp39
 70
     1
102
RTVSPropertyOp40
 70
     1
102
RTVSPropertyOp41
 70
     1
102
RTVSPropertyOp42
 70
     1
102
RTVSPropertyOp43
 70
     1
102
RTVSPropertyOp44
 70
     1
102
RTVSPropertyOp45
 70
     1
102
RTVSPropertyOp46
 70
     1
102
RTVSPropertyOp47
 70
     1
102
RTVSPropertyOp48
 70
     1
102
RTVSPropertyOp49
 70
     1
102
RTVSPropertyOp50
 70
     1
102
RTVSPropertyOp51
 70
     0
102
RTVSPropertyOp52
 70
     0
102
RTVSPropertyOp53
 70
     1
102
RTVSPropertyOp54
 70
     1
102
RTVSPropertyOp55
 70
     1
102
RTVSPropertyOp56
 70
     1
102
RTVSPropertyOp57
 70
     1
102
RTVSPropertyOp58
 70
     1
102
RTVSPropertyOp59
 70
     1
102
RTVSPropertyOp60
 70
     1
102
RTVSPropertyOp61
 70
     1
102
RTVSPropertyOp62
 70
     1
  0
XRECORD
  5
20E1B
102
{ACAD_REACTORS
330
20E1A
102
}
330
20E1A
100
AcDbXrecord
280
     1
102
RTVSPost2010Prop28
280
     0
102
RTVSPost2010PropOp28
 70
     1
102
RTVSPost2010Prop29
280
     1
102
RTVSPost2010PropOp29
 70
     1
102
RTVSPost2010Prop30
280
     1
102
RTVSPost2010PropOp30
 70
     1
102
RTVSPost2010Prop31
280
     0
102
RTVSPost2010PropOp31
 70
     1
102
RTVSPost2010Prop32
280
     0
102
RTVSPost2010PropOp32
 70
     1
102
RTVSPost2010Prop33
280
     0
102
RTVSPost2010PropOp33
 70
     1
102
RTVSPost2010Prop34
280
     0
102
RTVSPost2010PropOp34
 70
     1
102
RTVSPost2010Prop35
280
     0
102
RTVSPost2010PropOp35
 70
     1
102
RTVSPost2010Prop36
280
     0
102
RTVSPost2010PropOp36
 70
     1
102
RTVSPost2010Prop37
 90
       50
102
RTVSPost2010PropOp37
 70
     1
102
RTVSPost2010Prop38
140
0.0
102
RTVSPost2010PropOp38
 70
     1
102
RTVSPost2010Prop39
140
1.0
102
RTVSPost2010PropOp39
 70
     1
102
RTVSPost2010Prop40
 90
        0
102
RTVSPost2010PropOp40
 70
     1
102
RTVSPost2010Prop41ColorIndex
 90
       18
102
RTVSPost2010Prop41ColorRGB
 90
        0
102
RTVSPost2010PropOp41
 70
     1
102
RTVSPost2010Prop42
 90
       50
102
RTVSPost2010PropOp42
 70
     1
102
RTVSPost2010Prop43
 90
        3
102
RTVSPost2010PropOp43
 70
     1
102
RTVSPost2010Prop44ColorIndex
 90
        5
102
RTVSPost2010Prop44ColorRGB
 90
      255
102
RTVSPost2010PropOp44
 70
     1
102
RTVSPost2010Prop45
280
     0
102
RTVSPost2010PropOp45
 70
     1
102
RTVSPost2010Prop46
 90
       50
102
RTVSPost2010PropOp46
 70
     1
102
RTVSPost2010Prop47
 90
       50
102
RTVSPost2010PropOp47
 70
     1
102
RTVSPost2010Prop48
 90
       50
102
RTVSPost2010PropOp48
 70
     1
102
RTVSPost2010Prop49
280
     0
102
RTVSPost2010PropOp49
 70
     1
102
RTVSPost2010Prop50
 90
       50
102
RTVSPost2010PropOp50
 70
     1
102
RTVSPost2010Prop51ColorIndex
 90
      256
102
RTVSPost2010Prop51ColorRGB
 90
-16777216
102
RTVSPost2010PropOp51
 70
     0
102
RTVSPost2010Prop52
140
1.0
102
RTVSPost2010PropOp52
 70
     0
102
RTVSPost2010Prop53
 90
        2
102
RTVSPost2010PropOp53
 70
     1
102
RTVSPost2010Prop54
  1
strokes_ogs.tif
102
RTVSPost2010PropOp54
 70
     1
102
RTVSPost2010Prop55
280
     0
102
RTVSPost2010PropOp55
 70
     1
102
RTVSPost2010Prop56
140
1.0
102
RTVSPost2010PropOp56
 70
     1
102
RTVSPost2010Prop57
140
1.0
102
RTVSPost2010PropOp57
 70
     1
102
RTVSPropertyOp0
 70
     1
102
RTVSPropertyOp1
 70
     1
102
RTVSPropertyOp2
 70
     1
102
RTVSPropertyOp3
 70
     1
102
RTVSPropertyOp4
 70
     1
102
RTVSPropertyOp5
 70
     1
102
RTVSPropertyOp6
 70
     1
102
RTVSPropertyOp7
 70
     1
102
RTVSPropertyOp8
 70
     1
102
RTVSPropertyOp9
 70
     1
102
RTVSPropertyOp10
 70
     1
102
RTVSPropertyOp11
 70
     1
102
RTVSPropertyOp12
 70
     1
102
RTVSPropertyOp13
 70
     1
102
RTVSPropertyOp14
 70
     1
102
RTVSPropertyOp15
 70
     1
102
RTVSPropertyOp16
 70
     1
102
RTVSPropertyOp17
 70
     1
102
RTVSPropertyOp18
 70
     1
102
RTVSPropertyOp19
 70
     1
102
RTVSPropertyOp20
 70
     1
102
RTVSPropertyOp21
 70
     1
102
RTVSPropertyOp22
 70
     1
102
RTVSPropertyOp23
 70
     1
102
RTVSPropertyOp24
 70
     1
102
RTVSPropertyOp25
 70
     1
102
RTVSPropertyOp26
 70
     1
102
RTVSPropertyOp27
 70
     1
102
RTVSPropertyOp28
 70
     1
102
RTVSPropertyOp29
 70
     1
102
RTVSPropertyOp30
 70
     1
102
RTVSPropertyOp31
 70
     1
102
RTVSPropertyOp32
 70
     1
102
RTVSPropertyOp33
 70
     1
102
RTVSPropertyOp34
 70
     1
102
RTVSPropertyOp35
 70
     1
102
RTVSPropertyOp36
 70
     1
102
RTVSPropertyOp37
 70
     1
102
RTVSPropertyOp38
 70
     1
102
RTVSPropertyOp39
 70
     1
102
RTVSPropertyOp40
 70
     1
102
RTVSPropertyOp41
 70
     1
102
RTVSPropertyOp42
 70
     1
102
RTVSPropertyOp43
 70
     1
102
RTVSPropertyOp44
 70
     1
102
RTVSPropertyOp45
 70
     1
102
RTVSPropertyOp46
 70
     1
102
RTVSPropertyOp47
 70
     1
102
RTVSPropertyOp48
 70
     1
102
RTVSPropertyOp49
 70
     1
102
RTVSPropertyOp50
 70
     1
102
RTVSPropertyOp51
 70
     0
102
RTVSPropertyOp52
 70
     0
102
RTVSPropertyOp53
 70
     1
102
RTVSPropertyOp54
 70
     1
102
RTVSPropertyOp55
 70
     1
102
RTVSPropertyOp56
 70
     1
102
RTVSPropertyOp57
 70
     1
102
RTVSPropertyOp58
 70
     1
102
RTVSPropertyOp59
 70
     1
102
RTVSPropertyOp60
 70
     1
102
RTVSPropertyOp61
 70
     1
102
RTVSPropertyOp62
 70
     1
  0
XRECORD
  5
20E1D
102
{ACAD_REACTORS
330
20E1C
102
}
330
20E1C
100
AcDbXrecord
280
     1
102
RTVSPost2010Prop28
280
     0
102
RTVSPost2010PropOp28
 70
     1
102
RTVSPost2010Prop29
280
     1
102
RTVSPost2010PropOp29
 70
     1
102
RTVSPost2010Prop30
280
     1
102
RTVSPost2010PropOp30
 70
     1
102
RTVSPost2010Prop31
280
     0
102
RTVSPost2010PropOp31
 70
     1
102
RTVSPost2010Prop32
280
     0
102
RTVSPost2010PropOp32
 70
     1
102
RTVSPost2010Prop33
280
     0
102
RTVSPost2010PropOp33
 70
     1
102
RTVSPost2010Prop34
280
     0
102
RTVSPost2010PropOp34
 70
     1
102
RTVSPost2010Prop35
280
     0
102
RTVSPost2010PropOp35
 70
     1
102
RTVSPost2010Prop36
280
     0
102
RTVSPost2010PropOp36
 70
     1
102
RTVSPost2010Prop37
 90
       50
102
RTVSPost2010PropOp37
 70
     1
102
RTVSPost2010Prop38
140
0.0
102
RTVSPost2010PropOp38
 70
     1
102
RTVSPost2010Prop39
140
1.0
102
RTVSPost2010PropOp39
 70
     1
102
RTVSPost2010Prop40
 90
        0
102
RTVSPost2010PropOp40
 70
     1
102
RTVSPost2010Prop41ColorIndex
 90
       18
102
RTVSPost2010Prop41ColorRGB
 90
        0
102
RTVSPost2010PropOp41
 70
     1
102
RTVSPost2010Prop42
 90
       50
102
RTVSPost2010PropOp42
 70
     1
102
RTVSPost2010Prop43
 90
        3
102
RTVSPost2010PropOp43
 70
     1
102
RTVSPost2010Prop44ColorIndex
 90
        5
102
RTVSPost2010Prop44ColorRGB
 90
      255
102
RTVSPost2010PropOp44
 70
     1
102
RTVSPost2010Prop45
280
     0
102
RTVSPost2010PropOp45
 70
     1
102
RTVSPost2010Prop46
 90
       50
102
RTVSPost2010PropOp46
 70
     1
102
RTVSPost2010Prop47
 90
       50
102
RTVSPost2010PropOp47
 70
     1
102
RTVSPost2010Prop48
 90
       50
102
RTVSPost2010PropOp48
 70
     1
102
RTVSPost2010Prop49
280
     0
102
RTVSPost2010PropOp49
 70
     1
102
RTVSPost2010Prop50
 90
       50
102
RTVSPost2010PropOp50
 70
     1
102
RTVSPost2010Prop51ColorIndex
 90
      256
102
RTVSPost2010Prop51ColorRGB
 90
-16777216
102
RTVSPost2010PropOp51
 70
     0
102
RTVSPost2010Prop52
140
1.0
102
RTVSPost2010PropOp52
 70
     0
102
RTVSPost2010Prop53
 90
        2
102
RTVSPost2010PropOp53
 70
     1
102
RTVSPost2010Prop54
  1
strokes_ogs.tif
102
RTVSPost2010PropOp54
 70
     1
102
RTVSPost2010Prop55
280
     0
102
RTVSPost2010PropOp55
 70
     1
102
RTVSPost2010Prop56
140
1.0
102
RTVSPost2010PropOp56
 70
     1
102
RTVSPost2010Prop57
140
1.0
102
RTVSPost2010PropOp57
 70
     1
102
RTVSPropertyOp0
 70
     1
102
RTVSPropertyOp1
 70
     1
102
RTVSPropertyOp2
 70
     1
102
RTVSPropertyOp3
 70
     1
102
RTVSPropertyOp4
 70
     1
102
RTVSPropertyOp5
 70
     1
102
RTVSPropertyOp6
 70
     1
102
RTVSPropertyOp7
 70
     1
102
RTVSPropertyOp8
 70
     1
102
RTVSPropertyOp9
 70
     1
102
RTVSPropertyOp10
 70
     1
102
RTVSPropertyOp11
 70
     1
102
RTVSPropertyOp12
 70
     1
102
RTVSPropertyOp13
 70
     1
102
RTVSPropertyOp14
 70
     1
102
RTVSPropertyOp15
 70
     1
102
RTVSPropertyOp16
 70
     1
102
RTVSPropertyOp17
 70
     1
102
RTVSPropertyOp18
 70
     1
102
RTVSPropertyOp19
 70
     1
102
RTVSPropertyOp20
 70
     1
102
RTVSPropertyOp21
 70
     1
102
RTVSPropertyOp22
 70
     1
102
RTVSPropertyOp23
 70
     1
102
RTVSPropertyOp24
 70
     1
102
RTVSPropertyOp25
 70
     1
102
RTVSPropertyOp26
 70
     1
102
RTVSPropertyOp27
 70
     1
102
RTVSPropertyOp28
 70
     1
102
RTVSPropertyOp29
 70
     1
102
RTVSPropertyOp30
 70
     1
102
RTVSPropertyOp31
 70
     1
102
RTVSPropertyOp32
 70
     1
102
RTVSPropertyOp33
 70
     1
102
RTVSPropertyOp34
 70
     1
102
RTVSPropertyOp35
 70
     1
102
RTVSPropertyOp36
 70
     1
102
RTVSPropertyOp37
 70
     1
102
RTVSPropertyOp38
 70
     1
102
RTVSPropertyOp39
 70
     1
102
RTVSPropertyOp40
 70
     1
102
RTVSPropertyOp41
 70
     1
102
RTVSPropertyOp42
 70
     1
102
RTVSPropertyOp43
 70
     1
102
RTVSPropertyOp44
 70
     1
102
RTVSPropertyOp45
 70
     1
102
RTVSPropertyOp46
 70
     1
102
RTVSPropertyOp47
 70
     1
102
RTVSPropertyOp48
 70
     1
102
RTVSPropertyOp49
 70
     1
102
RTVSPropertyOp50
 70
     1
102
RTVSPropertyOp51
 70
     0
102
RTVSPropertyOp52
 70
     0
102
RTVSPropertyOp53
 70
     1
102
RTVSPropertyOp54
 70
     1
102
RTVSPropertyOp55
 70
     1
102
RTVSPropertyOp56
 70
     1
102
RTVSPropertyOp57
 70
     1
102
RTVSPropertyOp58
 70
     1
102
RTVSPropertyOp59
 70
     1
102
RTVSPropertyOp60
 70
     1
102
RTVSPropertyOp61
 70
     1
102
RTVSPropertyOp62
 70
     1
  0
XRECORD
  5
20E1F
102
{ACAD_REACTORS
330
20E1E
102
}
330
20E1E
100
AcDbXrecord
280
     1
102
RTVSPost2010Prop28
280
     0
102
RTVSPost2010PropOp28
 70
     1
102
RTVSPost2010Prop29
280
     1
102
RTVSPost2010PropOp29
 70
     1
102
RTVSPost2010Prop30
280
     1
102
RTVSPost2010PropOp30
 70
     1
102
RTVSPost2010Prop31
280
     0
102
RTVSPost2010PropOp31
 70
     1
102
RTVSPost2010Prop32
280
     0
102
RTVSPost2010PropOp32
 70
     1
102
RTVSPost2010Prop33
280
     0
102
RTVSPost2010PropOp33
 70
     1
102
RTVSPost2010Prop34
280
     0
102
RTVSPost2010PropOp34
 70
     1
102
RTVSPost2010Prop35
280
     0
102
RTVSPost2010PropOp35
 70
     1
102
RTVSPost2010Prop36
280
     0
102
RTVSPost2010PropOp36
 70
     1
102
RTVSPost2010Prop37
 90
       50
102
RTVSPost2010PropOp37
 70
     1
102
RTVSPost2010Prop38
140
0.0
102
RTVSPost2010PropOp38
 70
     1
102
RTVSPost2010Prop39
140
1.0
102
RTVSPost2010PropOp39
 70
     1
102
RTVSPost2010Prop40
 90
        0
102
RTVSPost2010PropOp40
 70
     1
102
RTVSPost2010Prop41ColorIndex
 90
       18
102
RTVSPost2010Prop41ColorRGB
 90
        0
102
RTVSPost2010PropOp41
 70
     1
102
RTVSPost2010Prop42
 90
       50
102
RTVSPost2010PropOp42
 70
     1
102
RTVSPost2010Prop43
 90
        3
102
RTVSPost2010PropOp43
 70
     1
102
RTVSPost2010Prop44ColorIndex
 90
        5
102
RTVSPost2010Prop44ColorRGB
 90
      255
102
RTVSPost2010PropOp44
 70
     1
102
RTVSPost2010Prop45
280
     0
102
RTVSPost2010PropOp45
 70
     1
102
RTVSPost2010Prop46
 90
       50
102
RTVSPost2010PropOp46
 70
     1
102
RTVSPost2010Prop47
 90
       50
102
RTVSPost2010PropOp47
 70
     1
102
RTVSPost2010Prop48
 90
       50
102
RTVSPost2010PropOp48
 70
     1
102
RTVSPost2010Prop49
280
     0
102
RTVSPost2010PropOp49
 70
     1
102
RTVSPost2010Prop50
 90
       50
102
RTVSPost2010PropOp50
 70
     1
102
RTVSPost2010Prop51ColorIndex
 90
      256
102
RTVSPost2010Prop51ColorRGB
 90
-16777216
102
RTVSPost2010PropOp51
 70
     0
102
RTVSPost2010Prop52
140
1.0
102
RTVSPost2010PropOp52
 70
     0
102
RTVSPost2010Prop53
 90
        2
102
RTVSPost2010PropOp53
 70
     1
102
RTVSPost2010Prop54
  1
strokes_ogs.tif
102
RTVSPost2010PropOp54
 70
     1
102
RTVSPost2010Prop55
280
     0
102
RTVSPost2010PropOp55
 70
     1
102
RTVSPost2010Prop56
140
1.0
102
RTVSPost2010PropOp56
 70
     1
102
RTVSPost2010Prop57
140
1.0
102
RTVSPost2010PropOp57
 70
     1
102
RTVSPropertyOp0
 70
     1
102
RTVSPropertyOp1
 70
     1
102
RTVSPropertyOp2
 70
     1
102
RTVSPropertyOp3
 70
     1
102
RTVSPropertyOp4
 70
     1
102
RTVSPropertyOp5
 70
     1
102
RTVSPropertyOp6
 70
     1
102
RTVSPropertyOp7
 70
     1
102
RTVSPropertyOp8
 70
     1
102
RTVSPropertyOp9
 70
     1
102
RTVSPropertyOp10
 70
     1
102
RTVSPropertyOp11
 70
     1
102
RTVSPropertyOp12
 70
     1
102
RTVSPropertyOp13
 70
     1
102
RTVSPropertyOp14
 70
     1
102
RTVSPropertyOp15
 70
     1
102
RTVSPropertyOp16
 70
     1
102
RTVSPropertyOp17
 70
     1
102
RTVSPropertyOp18
 70
     1
102
RTVSPropertyOp19
 70
     1
102
RTVSPropertyOp20
 70
     1
102
RTVSPropertyOp21
 70
     1
102
RTVSPropertyOp22
 70
     1
102
RTVSPropertyOp23
 70
     1
102
RTVSPropertyOp24
 70
     1
102
RTVSPropertyOp25
 70
     1
102
RTVSPropertyOp26
 70
     1
102
RTVSPropertyOp27
 70
     1
102
RTVSPropertyOp28
 70
     1
102
RTVSPropertyOp29
 70
     1
102
RTVSPropertyOp30
 70
     1
102
RTVSPropertyOp31
 70
     1
102
RTVSPropertyOp32
 70
     1
102
RTVSPropertyOp33
 70
     1
102
RTVSPropertyOp34
 70
     1
102
RTVSPropertyOp35
 70
     1
102
RTVSPropertyOp36
 70
     1
102
RTVSPropertyOp37
 70
     1
102
RTVSPropertyOp38
 70
     1
102
RTVSPropertyOp39
 70
     1
102
RTVSPropertyOp40
 70
     1
102
RTVSPropertyOp41
 70
     1
102
RTVSPropertyOp42
 70
     1
102
RTVSPropertyOp43
 70
     1
102
RTVSPropertyOp44
 70
     1
102
RTVSPropertyOp45
 70
     1
102
RTVSPropertyOp46
 70
     1
102
RTVSPropertyOp47
 70
     1
102
RTVSPropertyOp48
 70
     1
102
RTVSPropertyOp49
 70
     1
102
RTVSPropertyOp50
 70
     1
102
RTVSPropertyOp51
 70
     0
102
RTVSPropertyOp52
 70
     0
102
RTVSPropertyOp53
 70
     1
102
RTVSPropertyOp54
 70
     1
102
RTVSPropertyOp55
 70
     1
102
RTVSPropertyOp56
 70
     1
102
RTVSPropertyOp57
 70
     1
102
RTVSPropertyOp58
 70
     1
102
RTVSPropertyOp59
 70
     1
102
RTVSPropertyOp60
 70
     1
102
RTVSPropertyOp61
 70
     1
102
RTVSPropertyOp62
 70
     1
  0
XRECORD
  5
20E21
102
{ACAD_REACTORS
330
20E20
102
}
330
20E20
100
AcDbXrecord
280
     1
102
RTVSPost2010Prop28
280
     0
102
RTVSPost2010PropOp28
 70
     1
102
RTVSPost2010Prop29
280
     1
102
RTVSPost2010PropOp29
 70
     1
102
RTVSPost2010Prop30
280
     1
102
RTVSPost2010PropOp30
 70
     1
102
RTVSPost2010Prop31
280
     0
102
RTVSPost2010PropOp31
 70
     1
102
RTVSPost2010Prop32
280
     0
102
RTVSPost2010PropOp32
 70
     1
102
RTVSPost2010Prop33
280
     0
102
RTVSPost2010PropOp33
 70
     1
102
RTVSPost2010Prop34
280
     0
102
RTVSPost2010PropOp34
 70
     1
102
RTVSPost2010Prop35
280
     0
102
RTVSPost2010PropOp35
 70
     1
102
RTVSPost2010Prop36
280
     0
102
RTVSPost2010PropOp36
 70
     1
102
RTVSPost2010Prop37
 90
       50
102
RTVSPost2010PropOp37
 70
     1
102
RTVSPost2010Prop38
140
0.0
102
RTVSPost2010PropOp38
 70
     1
102
RTVSPost2010Prop39
140
1.0
102
RTVSPost2010PropOp39
 70
     1
102
RTVSPost2010Prop40
 90
        0
102
RTVSPost2010PropOp40
 70
     1
102
RTVSPost2010Prop41ColorIndex
 90
       18
102
RTVSPost2010Prop41ColorRGB
 90
        0
102
RTVSPost2010PropOp41
 70
     1
102
RTVSPost2010Prop42
 90
       50
102
RTVSPost2010PropOp42
 70
     1
102
RTVSPost2010Prop43
 90
        3
102
RTVSPost2010PropOp43
 70
     1
102
RTVSPost2010Prop44ColorIndex
 90
        5
102
RTVSPost2010Prop44ColorRGB
 90
      255
102
RTVSPost2010PropOp44
 70
     1
102
RTVSPost2010Prop45
280
     0
102
RTVSPost2010PropOp45
 70
     1
102
RTVSPost2010Prop46
 90
       50
102
RTVSPost2010PropOp46
 70
     1
102
RTVSPost2010Prop47
 90
       50
102
RTVSPost2010PropOp47
 70
     1
102
RTVSPost2010Prop48
 90
       50
102
RTVSPost2010PropOp48
 70
     1
102
RTVSPost2010Prop49
280
     0
102
RTVSPost2010PropOp49
 70
     1
102
RTVSPost2010Prop50
 90
       50
102
RTVSPost2010PropOp50
 70
     1
102
RTVSPost2010Prop51ColorIndex
 90
      256
102
RTVSPost2010Prop51ColorRGB
 90
-16777216
102
RTVSPost2010PropOp51
 70
     0
102
RTVSPost2010Prop52
140
1.0
102
RTVSPost2010PropOp52
 70
     0
102
RTVSPost2010Prop53
 90
        2
102
RTVSPost2010PropOp53
 70
     1
102
RTVSPost2010Prop54
  1
strokes_ogs.tif
102
RTVSPost2010PropOp54
 70
     1
102
RTVSPost2010Prop55
280
     0
102
RTVSPost2010PropOp55
 70
     1
102
RTVSPost2010Prop56
140
1.0
102
RTVSPost2010PropOp56
 70
     1
102
RTVSPost2010Prop57
140
1.0
102
RTVSPost2010PropOp57
 70
     1
102
RTVSPropertyOp0
 70
     1
102
RTVSPropertyOp1
 70
     1
102
RTVSPropertyOp2
 70
     1
102
RTVSPropertyOp3
 70
     1
102
RTVSPropertyOp4
 70
     1
102
RTVSPropertyOp5
 70
     1
102
RTVSPropertyOp6
 70
     1
102
RTVSPropertyOp7
 70
     1
102
RTVSPropertyOp8
 70
     1
102
RTVSPropertyOp9
 70
     1
102
RTVSPropertyOp10
 70
     1
102
RTVSPropertyOp11
 70
     1
102
RTVSPropertyOp12
 70
     1
102
RTVSPropertyOp13
 70
     1
102
RTVSPropertyOp14
 70
     1
102
RTVSPropertyOp15
 70
     1
102
RTVSPropertyOp16
 70
     1
102
RTVSPropertyOp17
 70
     1
102
RTVSPropertyOp18
 70
     1
102
RTVSPropertyOp19
 70
     1
102
RTVSPropertyOp20
 70
     1
102
RTVSPropertyOp21
 70
     1
102
RTVSPropertyOp22
 70
     1
102
RTVSPropertyOp23
 70
     1
102
RTVSPropertyOp24
 70
     1
102
RTVSPropertyOp25
 70
     1
102
RTVSPropertyOp26
 70
     1
102
RTVSPropertyOp27
 70
     1
102
RTVSPropertyOp28
 70
     1
102
RTVSPropertyOp29
 70
     1
102
RTVSPropertyOp30
 70
     1
102
RTVSPropertyOp31
 70
     1
102
RTVSPropertyOp32
 70
     1
102
RTVSPropertyOp33
 70
     1
102
RTVSPropertyOp34
 70
     1
102
RTVSPropertyOp35
 70
     1
102
RTVSPropertyOp36
 70
     1
102
RTVSPropertyOp37
 70
     1
102
RTVSPropertyOp38
 70
     1
102
RTVSPropertyOp39
 70
     1
102
RTVSPropertyOp40
 70
     1
102
RTVSPropertyOp41
 70
     1
102
RTVSPropertyOp42
 70
     1
102
RTVSPropertyOp43
 70
     1
102
RTVSPropertyOp44
 70
     1
102
RTVSPropertyOp45
 70
     1
102
RTVSPropertyOp46
 70
     1
102
RTVSPropertyOp47
 70
     1
102
RTVSPropertyOp48
 70
     1
102
RTVSPropertyOp49
 70
     1
102
RTVSPropertyOp50
 70
     1
102
RTVSPropertyOp51
 70
     0
102
RTVSPropertyOp52
 70
     0
102
RTVSPropertyOp53
 70
     1
102
RTVSPropertyOp54
 70
     1
102
RTVSPropertyOp55
 70
     1
102
RTVSPropertyOp56
 70
     1
102
RTVSPropertyOp57
 70
     1
102
RTVSPropertyOp58
 70
     1
102
RTVSPropertyOp59
 70
     1
102
RTVSPropertyOp60
 70
     1
102
RTVSPropertyOp61
 70
     1
102
RTVSPropertyOp62
 70
     1
  0
XRECORD
  5
20E46
102
{ACAD_REACTORS
330
20E45
102
}
330
20E45
100
AcDbXrecord
280
     1
102
RTVSPost2010Prop28
280
     0
102
RTVSPost2010PropOp28
 70
     1
102
RTVSPost2010Prop29
280
     1
102
RTVSPost2010PropOp29
 70
     1
102
RTVSPost2010Prop30
280
     1
102
RTVSPost2010PropOp30
 70
     1
102
RTVSPost2010Prop31
280
     0
102
RTVSPost2010PropOp31
 70
     1
102
RTVSPost2010Prop32
280
     0
102
RTVSPost2010PropOp32
 70
     1
102
RTVSPost2010Prop33
280
     0
102
RTVSPost2010PropOp33
 70
     1
102
RTVSPost2010Prop34
280
     0
102
RTVSPost2010PropOp34
 70
     1
102
RTVSPost2010Prop35
280
     0
102
RTVSPost2010PropOp35
 70
     1
102
RTVSPost2010Prop36
280
     0
102
RTVSPost2010PropOp36
 70
     1
102
RTVSPost2010Prop37
 90
       50
102
RTVSPost2010PropOp37
 70
     1
102
RTVSPost2010Prop38
140
0.0
102
RTVSPost2010PropOp38
 70
     1
102
RTVSPost2010Prop39
140
1.0
102
RTVSPost2010PropOp39
 70
     1
102
RTVSPost2010Prop40
 90
        0
102
RTVSPost2010PropOp40
 70
     1
102
RTVSPost2010Prop41ColorIndex
 90
       18
102
RTVSPost2010Prop41ColorRGB
 90
        0
102
RTVSPost2010PropOp41
 70
     1
102
RTVSPost2010Prop42
 90
       50
102
RTVSPost2010PropOp42
 70
     1
102
RTVSPost2010Prop43
 90
        3
102
RTVSPost2010PropOp43
 70
     1
102
RTVSPost2010Prop44ColorIndex
 90
        5
102
RTVSPost2010Prop44ColorRGB
 90
      255
102
RTVSPost2010PropOp44
 70
     1
102
RTVSPost2010Prop45
280
     0
102
RTVSPost2010PropOp45
 70
     1
102
RTVSPost2010Prop46
 90
       50
102
RTVSPost2010PropOp46
 70
     1
102
RTVSPost2010Prop47
 90
       50
102
RTVSPost2010PropOp47
 70
     1
102
RTVSPost2010Prop48
 90
       50
102
RTVSPost2010PropOp48
 70
     1
102
RTVSPost2010Prop49
280
     0
102
RTVSPost2010PropOp49
 70
     1
102
RTVSPost2010Prop50
 90
       50
102
RTVSPost2010PropOp50
 70
     1
102
RTVSPost2010Prop51ColorIndex
 90
      256
102
RTVSPost2010Prop51ColorRGB
 90
-16777216
102
RTVSPost2010PropOp51
 70
     0
102
RTVSPost2010Prop52
140
1.0
102
RTVSPost2010PropOp52
 70
     0
102
RTVSPost2010Prop53
 90
        2
102
RTVSPost2010PropOp53
 70
     1
102
RTVSPost2010Prop54
  1
strokes_ogs.tif
102
RTVSPost2010PropOp54
 70
     1
102
RTVSPost2010Prop55
280
     0
102
RTVSPost2010PropOp55
 70
     1
102
RTVSPost2010Prop56
140
1.0
102
RTVSPost2010PropOp56
 70
     1
102
RTVSPost2010Prop57
140
1.0
102
RTVSPost2010PropOp57
 70
     1
102
RTVSPropertyOp0
 70
     1
102
RTVSPropertyOp1
 70
     1
102
RTVSPropertyOp2
 70
     1
102
RTVSPropertyOp3
 70
     1
102
RTVSPropertyOp4
 70
     1
102
RTVSPropertyOp5
 70
     1
102
RTVSPropertyOp6
 70
     1
102
RTVSPropertyOp7
 70
     1
102
RTVSPropertyOp8
 70
     1
102
RTVSPropertyOp9
 70
     1
102
RTVSPropertyOp10
 70
     1
102
RTVSPropertyOp11
 70
     1
102
RTVSPropertyOp12
 70
     1
102
RTVSPropertyOp13
 70
     1
102
RTVSPropertyOp14
 70
     1
102
RTVSPropertyOp15
 70
     1
102
RTVSPropertyOp16
 70
     1
102
RTVSPropertyOp17
 70
     1
102
RTVSPropertyOp18
 70
     1
102
RTVSPropertyOp19
 70
     1
102
RTVSPropertyOp20
 70
     1
102
RTVSPropertyOp21
 70
     1
102
RTVSPropertyOp22
 70
     1
102
RTVSPropertyOp23
 70
     1
102
RTVSPropertyOp24
 70
     1
102
RTVSPropertyOp25
 70
     1
102
RTVSPropertyOp26
 70
     1
102
RTVSPropertyOp27
 70
     1
102
RTVSPropertyOp28
 70
     1
102
RTVSPropertyOp29
 70
     1
102
RTVSPropertyOp30
 70
     1
102
RTVSPropertyOp31
 70
     1
102
RTVSPropertyOp32
 70
     1
102
RTVSPropertyOp33
 70
     1
102
RTVSPropertyOp34
 70
     1
102
RTVSPropertyOp35
 70
     1
102
RTVSPropertyOp36
 70
     1
102
RTVSPropertyOp37
 70
     1
102
RTVSPropertyOp38
 70
     1
102
RTVSPropertyOp39
 70
     1
102
RTVSPropertyOp40
 70
     1
102
RTVSPropertyOp41
 70
     1
102
RTVSPropertyOp42
 70
     1
102
RTVSPropertyOp43
 70
     1
102
RTVSPropertyOp44
 70
     1
102
RTVSPropertyOp45
 70
     1
102
RTVSPropertyOp46
 70
     1
102
RTVSPropertyOp47
 70
     1
102
RTVSPropertyOp48
 70
     1
102
RTVSPropertyOp49
 70
     1
102
RTVSPropertyOp50
 70
     1
102
RTVSPropertyOp51
 70
     0
102
RTVSPropertyOp52
 70
     0
102
RTVSPropertyOp53
 70
     1
102
RTVSPropertyOp54
 70
     1
102
RTVSPropertyOp55
 70
     1
102
RTVSPropertyOp56
 70
     1
102
RTVSPropertyOp57
 70
     1
102
RTVSPropertyOp58
 70
     1
102
RTVSPropertyOp59
 70
     1
102
RTVSPropertyOp60
 70
     1
102
RTVSPropertyOp61
 70
     1
102
RTVSPropertyOp62
 70
     1
  0
XRECORD
  5
20E52
102
{ACAD_REACTORS
330
20E51
102
}
330
20E51
100
AcDbXrecord
280
     1
102
RTVSPost2010Prop28
280
     0
102
RTVSPost2010PropOp28
 70
     1
102
RTVSPost2010Prop29
280
     1
102
RTVSPost2010PropOp29
 70
     1
102
RTVSPost2010Prop30
280
     1
102
RTVSPost2010PropOp30
 70
     1
102
RTVSPost2010Prop31
280
     0
102
RTVSPost2010PropOp31
 70
     1
102
RTVSPost2010Prop32
280
     0
102
RTVSPost2010PropOp32
 70
     1
102
RTVSPost2010Prop33
280
     0
102
RTVSPost2010PropOp33
 70
     1
102
RTVSPost2010Prop34
280
     0
102
RTVSPost2010PropOp34
 70
     1
102
RTVSPost2010Prop35
280
     0
102
RTVSPost2010PropOp35
 70
     1
102
RTVSPost2010Prop36
280
     0
102
RTVSPost2010PropOp36
 70
     1
102
RTVSPost2010Prop37
 90
       50
102
RTVSPost2010PropOp37
 70
     0
102
RTVSPost2010Prop38
140
0.0
102
RTVSPost2010PropOp38
 70
     0
102
RTVSPost2010Prop39
140
1.0
102
RTVSPost2010PropOp39
 70
     0
102
RTVSPost2010Prop40
 90
        0
102
RTVSPost2010PropOp40
 70
     0
102
RTVSPost2010Prop41ColorIndex
 90
       18
102
RTVSPost2010Prop41ColorRGB
 90
        0
102
RTVSPost2010PropOp41
 70
     0
102
RTVSPost2010Prop42
 90
       50
102
RTVSPost2010PropOp42
 70
     0
102
RTVSPost2010Prop43
 90
        3
102
RTVSPost2010PropOp43
 70
     0
102
RTVSPost2010Prop44ColorIndex
 90
        5
102
RTVSPost2010Prop44ColorRGB
 90
      255
102
RTVSPost2010PropOp44
 70
     0
102
RTVSPost2010Prop45
280
     0
102
RTVSPost2010PropOp45
 70
     1
102
RTVSPost2010Prop46
 90
       50
102
RTVSPost2010PropOp46
 70
     0
102
RTVSPost2010Prop47
 90
       50
102
RTVSPost2010PropOp47
 70
     0
102
RTVSPost2010Prop48
 90
       50
102
RTVSPost2010PropOp48
 70
     0
102
RTVSPost2010Prop49
280
     0
102
RTVSPost2010PropOp49
 70
     1
102
RTVSPost2010Prop50
 90
       50
102
RTVSPost2010PropOp50
 70
     0
102
RTVSPost2010Prop51ColorIndex
 90
      256
102
RTVSPost2010Prop51ColorRGB
 90
-16777216
102
RTVSPost2010PropOp51
 70
     0
102
RTVSPost2010Prop52
140
1.0
102
RTVSPost2010PropOp52
 70
     0
102
RTVSPost2010Prop53
 90
        2
102
RTVSPost2010PropOp53
 70
     0
102
RTVSPost2010Prop54
  1
strokes_ogs.tif
102
RTVSPost2010PropOp54
 70
     0
102
RTVSPost2010Prop55
280
     0
102
RTVSPost2010PropOp55
 70
     1
102
RTVSPost2010Prop56
140
1.0
102
RTVSPost2010PropOp56
 70
     0
102
RTVSPost2010Prop57
140
1.0
102
RTVSPost2010PropOp57
 70
     0
102
RTVSPropertyOp0
 70
     0
102
RTVSPropertyOp1
 70
     0
102
RTVSPropertyOp2
 70
     0
102
RTVSPropertyOp3
 70
     0
102
RTVSPropertyOp4
 70
     0
102
RTVSPropertyOp5
 70
     0
102
RTVSPropertyOp6
 70
     0
102
RTVSPropertyOp7
 70
     0
102
RTVSPropertyOp8
 70
     0
102
RTVSPropertyOp9
 70
     0
102
RTVSPropertyOp10
 70
     0
102
RTVSPropertyOp11
 70
     0
102
RTVSPropertyOp12
 70
     0
102
RTVSPropertyOp13
 70
     0
102
RTVSPropertyOp14
 70
     2
102
RTVSPropertyOp15
 70
     0
102
RTVSPropertyOp16
 70
     0
102
RTVSPropertyOp17
 70
     0
102
RTVSPropertyOp18
 70
     0
102
RTVSPropertyOp19
 70
     0
102
RTVSPropertyOp20
 70
     0
102
RTVSPropertyOp21
 70
     0
102
RTVSPropertyOp22
 70
     0
102
RTVSPropertyOp23
 70
     0
102
RTVSPropertyOp24
 70
     0
102
RTVSPropertyOp25
 70
     0
102
RTVSPropertyOp26
 70
     0
102
RTVSPropertyOp27
 70
     0
102
RTVSPropertyOp28
 70
     1
102
RTVSPropertyOp29
 70
     1
102
RTVSPropertyOp30
 70
     1
102
RTVSPropertyOp31
 70
     1
102
RTVSPropertyOp32
 70
     1
102
RTVSPropertyOp33
 70
     1
102
RTVSPropertyOp34
 70
     1
102
RTVSPropertyOp35
 70
     1
102
RTVSPropertyOp36
 70
     1
102
RTVSPropertyOp37
 70
     0
102
RTVSPropertyOp38
 70
     0
102
RTVSPropertyOp39
 70
     0
102
RTVSPropertyOp40
 70
     0
102
RTVSPropertyOp41
 70
     0
102
RTVSPropertyOp42
 70
     0
102
RTVSPropertyOp43
 70
     0
102
RTVSPropertyOp44
 70
     0
102
RTVSPropertyOp45
 70
     1
102
RTVSPropertyOp46
 70
     0
102
RTVSPropertyOp47
 70
     0
102
RTVSPropertyOp48
 70
     0
102
RTVSPropertyOp49
 70
     1
102
RTVSPropertyOp50
 70
     0
102
RTVSPropertyOp51
 70
     0
102
RTVSPropertyOp52
 70
     0
102
RTVSPropertyOp53
 70
     0
102
RTVSPropertyOp54
 70
     0
102
RTVSPropertyOp55
 70
     1
102
RTVSPropertyOp56
 70
     0
102
RTVSPropertyOp57
 70
     0
102
RTVSPropertyOp58
 70
     1
102
RTVSPropertyOp59
 70
     1
102
RTVSPropertyOp60
 70
     1
102
RTVSPropertyOp61
 70
     1
102
RTVSPropertyOp62
 70
     1
  0
XRECORD
  5
20E35
102
{ACAD_REACTORS
330
20E34
102
}
330
20E34
100
AcDbXrecord
280
     1
102
RTVSPost2010Prop28
280
     0
102
RTVSPost2010PropOp28
 70
     1
102
RTVSPost2010Prop29
280
     1
102
RTVSPost2010PropOp29
 70
     1
102
RTVSPost2010Prop30
280
     1
102
RTVSPost2010PropOp30
 70
     1
102
RTVSPost2010Prop31
280
     0
102
RTVSPost2010PropOp31
 70
     1
102
RTVSPost2010Prop32
280
     0
102
RTVSPost2010PropOp32
 70
     1
102
RTVSPost2010Prop33
280
     0
102
RTVSPost2010PropOp33
 70
     1
102
RTVSPost2010Prop34
280
     0
102
RTVSPost2010PropOp34
 70
     1
102
RTVSPost2010Prop35
280
     0
102
RTVSPost2010PropOp35
 70
     1
102
RTVSPost2010Prop36
280
     0
102
RTVSPost2010PropOp36
 70
     1
102
RTVSPost2010Prop37
 90
       50
102
RTVSPost2010PropOp37
 70
     1
102
RTVSPost2010Prop38
140
0.0
102
RTVSPost2010PropOp38
 70
     1
102
RTVSPost2010Prop39
140
1.0
102
RTVSPost2010PropOp39
 70
     1
102
RTVSPost2010Prop40
 90
        0
102
RTVSPost2010PropOp40
 70
     1
102
RTVSPost2010Prop41ColorIndex
 90
       18
102
RTVSPost2010Prop41ColorRGB
 90
        0
102
RTVSPost2010PropOp41
 70
     1
102
RTVSPost2010Prop42
 90
       50
102
RTVSPost2010PropOp42
 70
     1
102
RTVSPost2010Prop43
 90
        3
102
RTVSPost2010PropOp43
 70
     1
102
RTVSPost2010Prop44ColorIndex
 90
        5
102
RTVSPost2010Prop44ColorRGB
 90
      255
102
RTVSPost2010PropOp44
 70
     1
102
RTVSPost2010Prop45
280
     0
102
RTVSPost2010PropOp45
 70
     1
102
RTVSPost2010Prop46
 90
       50
102
RTVSPost2010PropOp46
 70
     1
102
RTVSPost2010Prop47
 90
       50
102
RTVSPost2010PropOp47
 70
     1
102
RTVSPost2010Prop48
 90
       50
102
RTVSPost2010PropOp48
 70
     1
102
RTVSPost2010Prop49
280
     0
102
RTVSPost2010PropOp49
 70
     1
102
RTVSPost2010Prop50
 90
       50
102
RTVSPost2010PropOp50
 70
     1
102
RTVSPost2010Prop51ColorIndex
 90
      256
102
RTVSPost2010Prop51ColorRGB
 90
-16777216
102
RTVSPost2010PropOp51
 70
     0
102
RTVSPost2010Prop52
140
1.0
102
RTVSPost2010PropOp52
 70
     0
102
RTVSPost2010Prop53
 90
        2
102
RTVSPost2010PropOp53
 70
     1
102
RTVSPost2010Prop54
  1
strokes_ogs.tif
102
RTVSPost2010PropOp54
 70
     1
102
RTVSPost2010Prop55
280
     0
102
RTVSPost2010PropOp55
 70
     1
102
RTVSPost2010Prop56
140
1.0
102
RTVSPost2010PropOp56
 70
     1
102
RTVSPost2010Prop57
140
1.0
102
RTVSPost2010PropOp57
 70
     1
102
RTVSPropertyOp0
 70
     1
102
RTVSPropertyOp1
 70
     1
102
RTVSPropertyOp2
 70
     1
102
RTVSPropertyOp3
 70
     1
102
RTVSPropertyOp4
 70
     1
102
RTVSPropertyOp5
 70
     1
102
RTVSPropertyOp6
 70
     1
102
RTVSPropertyOp7
 70
     1
102
RTVSPropertyOp8
 70
     1
102
RTVSPropertyOp9
 70
     1
102
RTVSPropertyOp10
 70
     1
102
RTVSPropertyOp11
 70
     1
102
RTVSPropertyOp12
 70
     1
102
RTVSPropertyOp13
 70
     1
102
RTVSPropertyOp14
 70
     1
102
RTVSPropertyOp15
 70
     1
102
RTVSPropertyOp16
 70
     1
102
RTVSPropertyOp17
 70
     1
102
RTVSPropertyOp18
 70
     1
102
RTVSPropertyOp19
 70
     1
102
RTVSPropertyOp20
 70
     1
102
RTVSPropertyOp21
 70
     1
102
RTVSPropertyOp22
 70
     1
102
RTVSPropertyOp23
 70
     1
102
RTVSPropertyOp24
 70
     1
102
RTVSPropertyOp25
 70
     1
102
RTVSPropertyOp26
 70
     1
102
RTVSPropertyOp27
 70
     1
102
RTVSPropertyOp28
 70
     1
102
RTVSPropertyOp29
 70
     1
102
RTVSPropertyOp30
 70
     1
102
RTVSPropertyOp31
 70
     1
102
RTVSPropertyOp32
 70
     1
102
RTVSPropertyOp33
 70
     1
102
RTVSPropertyOp34
 70
     1
102
RTVSPropertyOp35
 70
     1
102
RTVSPropertyOp36
 70
     1
102
RTVSPropertyOp37
 70
     1
102
RTVSPropertyOp38
 70
     1
102
RTVSPropertyOp39
 70
     1
102
RTVSPropertyOp40
 70
     1
102
RTVSPropertyOp41
 70
     1
102
RTVSPropertyOp42
 70
     1
102
RTVSPropertyOp43
 70
     1
102
RTVSPropertyOp44
 70
     1
102
RTVSPropertyOp45
 70
     1
102
RTVSPropertyOp46
 70
     1
102
RTVSPropertyOp47
 70
     1
102
RTVSPropertyOp48
 70
     1
102
RTVSPropertyOp49
 70
     1
102
RTVSPropertyOp50
 70
     1
102
RTVSPropertyOp51
 70
     0
102
RTVSPropertyOp52
 70
     0
102
RTVSPropertyOp53
 70
     1
102
RTVSPropertyOp54
 70
     1
102
RTVSPropertyOp55
 70
     1
102
RTVSPropertyOp56
 70
     1
102
RTVSPropertyOp57
 70
     1
102
RTVSPropertyOp58
 70
     1
102
RTVSPropertyOp59
 70
     1
102
RTVSPropertyOp60
 70
     1
102
RTVSPropertyOp61
 70
     1
102
RTVSPropertyOp62
 70
     1
  0
XRECORD
  5
20E54
102
{ACAD_REACTORS
330
20E53
102
}
330
20E53
100
AcDbXrecord
280
     1
102
RTVSPost2010Prop28
280
     0
102
RTVSPost2010PropOp28
 70
     1
102
RTVSPost2010Prop29
280
     1
102
RTVSPost2010PropOp29
 70
     1
102
RTVSPost2010Prop30
280
     1
102
RTVSPost2010PropOp30
 70
     1
102
RTVSPost2010Prop31
280
     0
102
RTVSPost2010PropOp31
 70
     1
102
RTVSPost2010Prop32
280
     0
102
RTVSPost2010PropOp32
 70
     1
102
RTVSPost2010Prop33
280
     0
102
RTVSPost2010PropOp33
 70
     1
102
RTVSPost2010Prop34
280
     0
102
RTVSPost2010PropOp34
 70
     1
102
RTVSPost2010Prop35
280
     0
102
RTVSPost2010PropOp35
 70
     1
102
RTVSPost2010Prop36
280
     0
102
RTVSPost2010PropOp36
 70
     1
102
RTVSPost2010Prop37
 90
       50
102
RTVSPost2010PropOp37
 70
     0
102
RTVSPost2010Prop38
140
0.0
102
RTVSPost2010PropOp38
 70
     0
102
RTVSPost2010Prop39
140
1.0
102
RTVSPost2010PropOp39
 70
     0
102
RTVSPost2010Prop40
 90
        0
102
RTVSPost2010PropOp40
 70
     0
102
RTVSPost2010Prop41ColorIndex
 90
       18
102
RTVSPost2010Prop41ColorRGB
 90
        0
102
RTVSPost2010PropOp41
 70
     0
102
RTVSPost2010Prop42
 90
       50
102
RTVSPost2010PropOp42
 70
     0
102
RTVSPost2010Prop43
 90
        3
102
RTVSPost2010PropOp43
 70
     0
102
RTVSPost2010Prop44ColorIndex
 90
        5
102
RTVSPost2010Prop44ColorRGB
 90
      255
102
RTVSPost2010PropOp44
 70
     0
102
RTVSPost2010Prop45
280
     0
102
RTVSPost2010PropOp45
 70
     1
102
RTVSPost2010Prop46
 90
       50
102
RTVSPost2010PropOp46
 70
     0
102
RTVSPost2010Prop47
 90
       50
102
RTVSPost2010PropOp47
 70
     0
102
RTVSPost2010Prop48
 90
       50
102
RTVSPost2010PropOp48
 70
     0
102
RTVSPost2010Prop49
280
     0
102
RTVSPost2010PropOp49
 70
     1
102
RTVSPost2010Prop50
 90
       50
102
RTVSPost2010PropOp50
 70
     0
102
RTVSPost2010Prop51ColorIndex
 90
      256
102
RTVSPost2010Prop51ColorRGB
 90
-16777216
102
RTVSPost2010PropOp51
 70
     0
102
RTVSPost2010Prop52
140
1.0
102
RTVSPost2010PropOp52
 70
     0
102
RTVSPost2010Prop53
 90
        2
102
RTVSPost2010PropOp53
 70
     0
102
RTVSPost2010Prop54
  1
strokes_ogs.tif
102
RTVSPost2010PropOp54
 70
     0
102
RTVSPost2010Prop55
280
     0
102
RTVSPost2010PropOp55
 70
     1
102
RTVSPost2010Prop56
140
1.0
102
RTVSPost2010PropOp56
 70
     0
102
RTVSPost2010Prop57
140
1.0
102
RTVSPost2010PropOp57
 70
     0
102
RTVSPropertyOp0
 70
     0
102
RTVSPropertyOp1
 70
     0
102
RTVSPropertyOp2
 70
     0
102
RTVSPropertyOp3
 70
     0
102
RTVSPropertyOp4
 70
     0
102
RTVSPropertyOp5
 70
     0
102
RTVSPropertyOp6
 70
     0
102
RTVSPropertyOp7
 70
     0
102
RTVSPropertyOp8
 70
     0
102
RTVSPropertyOp9
 70
     0
102
RTVSPropertyOp10
 70
     0
102
RTVSPropertyOp11
 70
     0
102
RTVSPropertyOp12
 70
     0
102
RTVSPropertyOp13
 70
     0
102
RTVSPropertyOp14
 70
     2
102
RTVSPropertyOp15
 70
     0
102
RTVSPropertyOp16
 70
     0
102
RTVSPropertyOp17
 70
     0
102
RTVSPropertyOp18
 70
     0
102
RTVSPropertyOp19
 70
     0
102
RTVSPropertyOp20
 70
     0
102
RTVSPropertyOp21
 70
     0
102
RTVSPropertyOp22
 70
     0
102
RTVSPropertyOp23
 70
     0
102
RTVSPropertyOp24
 70
     0
102
RTVSPropertyOp25
 70
     0
102
RTVSPropertyOp26
 70
     0
102
RTVSPropertyOp27
 70
     0
102
RTVSPropertyOp28
 70
     1
102
RTVSPropertyOp29
 70
     1
102
RTVSPropertyOp30
 70
     1
102
RTVSPropertyOp31
 70
     1
102
RTVSPropertyOp32
 70
     1
102
RTVSPropertyOp33
 70
     1
102
RTVSPropertyOp34
 70
     1
102
RTVSPropertyOp35
 70
     1
102
RTVSPropertyOp36
 70
     1
102
RTVSPropertyOp37
 70
     0
102
RTVSPropertyOp38
 70
     0
102
RTVSPropertyOp39
 70
     0
102
RTVSPropertyOp40
 70
     0
102
RTVSPropertyOp41
 70
     0
102
RTVSPropertyOp42
 70
     0
102
RTVSPropertyOp43
 70
     0
102
RTVSPropertyOp44
 70
     0
102
RTVSPropertyOp45
 70
     1
102
RTVSPropertyOp46
 70
     0
102
RTVSPropertyOp47
 70
     0
102
RTVSPropertyOp48
 70
     0
102
RTVSPropertyOp49
 70
     1
102
RTVSPropertyOp50
 70
     0
102
RTVSPropertyOp51
 70
     0
102
RTVSPropertyOp52
 70
     0
102
RTVSPropertyOp53
 70
     0
102
RTVSPropertyOp54
 70
     0
102
RTVSPropertyOp55
 70
     1
102
RTVSPropertyOp56
 70
     0
102
RTVSPropertyOp57
 70
     0
102
RTVSPropertyOp58
 70
     1
102
RTVSPropertyOp59
 70
     1
102
RTVSPropertyOp60
 70
     1
102
RTVSPropertyOp61
 70
     1
102
RTVSPropertyOp62
 70
     1
  0
XRECORD
  5
20E2D
102
{ACAD_REACTORS
330
20E2C
102
}
330
20E2C
100
AcDbXrecord
280
     1
102
RTVSPost2010Prop28
280
     0
102
RTVSPost2010PropOp28
 70
     1
102
RTVSPost2010Prop29
280
     1
102
RTVSPost2010PropOp29
 70
     1
102
RTVSPost2010Prop30
280
     1
102
RTVSPost2010PropOp30
 70
     1
102
RTVSPost2010Prop31
280
     0
102
RTVSPost2010PropOp31
 70
     1
102
RTVSPost2010Prop32
280
     0
102
RTVSPost2010PropOp32
 70
     1
102
RTVSPost2010Prop33
280
     0
102
RTVSPost2010PropOp33
 70
     1
102
RTVSPost2010Prop34
280
     0
102
RTVSPost2010PropOp34
 70
     1
102
RTVSPost2010Prop35
280
     0
102
RTVSPost2010PropOp35
 70
     1
102
RTVSPost2010Prop36
280
     0
102
RTVSPost2010PropOp36
 70
     1
102
RTVSPost2010Prop37
 90
       50
102
RTVSPost2010PropOp37
 70
     1
102
RTVSPost2010Prop38
140
0.0
102
RTVSPost2010PropOp38
 70
     1
102
RTVSPost2010Prop39
140
1.0
102
RTVSPost2010PropOp39
 70
     1
102
RTVSPost2010Prop40
 90
        0
102
RTVSPost2010PropOp40
 70
     1
102
RTVSPost2010Prop41ColorIndex
 90
       18
102
RTVSPost2010Prop41ColorRGB
 90
        0
102
RTVSPost2010PropOp41
 70
     1
102
RTVSPost2010Prop42
 90
       50
102
RTVSPost2010PropOp42
 70
     1
102
RTVSPost2010Prop43
 90
        3
102
RTVSPost2010PropOp43
 70
     1
102
RTVSPost2010Prop44ColorIndex
 90
        5
102
RTVSPost2010Prop44ColorRGB
 90
      255
102
RTVSPost2010PropOp44
 70
     1
102
RTVSPost2010Prop45
280
     0
102
RTVSPost2010PropOp45
 70
     1
102
RTVSPost2010Prop46
 90
       50
102
RTVSPost2010PropOp46
 70
     1
102
RTVSPost2010Prop47
 90
       50
102
RTVSPost2010PropOp47
 70
     1
102
RTVSPost2010Prop48
 90
       50
102
RTVSPost2010PropOp48
 70
     1
102
RTVSPost2010Prop49
280
     0
102
RTVSPost2010PropOp49
 70
     1
102
RTVSPost2010Prop50
 90
       50
102
RTVSPost2010PropOp50
 70
     1
102
RTVSPost2010Prop51ColorIndex
 90
      256
102
RTVSPost2010Prop51ColorRGB
 90
-16777216
102
RTVSPost2010PropOp51
 70
     0
102
RTVSPost2010Prop52
140
1.0
102
RTVSPost2010PropOp52
 70
     0
102
RTVSPost2010Prop53
 90
        2
102
RTVSPost2010PropOp53
 70
     1
102
RTVSPost2010Prop54
  1
strokes_ogs.tif
102
RTVSPost2010PropOp54
 70
     1
102
RTVSPost2010Prop55
280
     0
102
RTVSPost2010PropOp55
 70
     1
102
RTVSPost2010Prop56
140
1.0
102
RTVSPost2010PropOp56
 70
     1
102
RTVSPost2010Prop57
140
1.0
102
RTVSPost2010PropOp57
 70
     1
102
RTVSPropertyOp0
 70
     1
102
RTVSPropertyOp1
 70
     1
102
RTVSPropertyOp2
 70
     1
102
RTVSPropertyOp3
 70
     1
102
RTVSPropertyOp4
 70
     1
102
RTVSPropertyOp5
 70
     1
102
RTVSPropertyOp6
 70
     1
102
RTVSPropertyOp7
 70
     1
102
RTVSPropertyOp8
 70
     1
102
RTVSPropertyOp9
 70
     1
102
RTVSPropertyOp10
 70
     1
102
RTVSPropertyOp11
 70
     1
102
RTVSPropertyOp12
 70
     1
102
RTVSPropertyOp13
 70
     1
102
RTVSPropertyOp14
 70
     1
102
RTVSPropertyOp15
 70
     1
102
RTVSPropertyOp16
 70
     1
102
RTVSPropertyOp17
 70
     1
102
RTVSPropertyOp18
 70
     1
102
RTVSPropertyOp19
 70
     1
102
RTVSPropertyOp20
 70
     1
102
RTVSPropertyOp21
 70
     1
102
RTVSPropertyOp22
 70
     1
102
RTVSPropertyOp23
 70
     1
102
RTVSPropertyOp24
 70
     1
102
RTVSPropertyOp25
 70
     1
102
RTVSPropertyOp26
 70
     1
102
RTVSPropertyOp27
 70
     1
102
RTVSPropertyOp28
 70
     1
102
RTVSPropertyOp29
 70
     1
102
RTVSPropertyOp30
 70
     1
102
RTVSPropertyOp31
 70
     1
102
RTVSPropertyOp32
 70
     1
102
RTVSPropertyOp33
 70
     1
102
RTVSPropertyOp34
 70
     1
102
RTVSPropertyOp35
 70
     1
102
RTVSPropertyOp36
 70
     1
102
RTVSPropertyOp37
 70
     1
102
RTVSPropertyOp38
 70
     1
102
RTVSPropertyOp39
 70
     1
102
RTVSPropertyOp40
 70
     1
102
RTVSPropertyOp41
 70
     1
102
RTVSPropertyOp42
 70
     1
102
RTVSPropertyOp43
 70
     1
102
RTVSPropertyOp44
 70
     1
102
RTVSPropertyOp45
 70
     1
102
RTVSPropertyOp46
 70
     1
102
RTVSPropertyOp47
 70
     1
102
RTVSPropertyOp48
 70
     1
102
RTVSPropertyOp49
 70
     1
102
RTVSPropertyOp50
 70
     1
102
RTVSPropertyOp51
 70
     0
102
RTVSPropertyOp52
 70
     0
102
RTVSPropertyOp53
 70
     1
102
RTVSPropertyOp54
 70
     1
102
RTVSPropertyOp55
 70
     1
102
RTVSPropertyOp56
 70
     1
102
RTVSPropertyOp57
 70
     1
102
RTVSPropertyOp58
 70
     1
102
RTVSPropertyOp59
 70
     1
102
RTVSPropertyOp60
 70
     1
102
RTVSPropertyOp61
 70
     1
102
RTVSPropertyOp62
 70
     1
  0
XRECORD
  5
20E50
102
{ACAD_REACTORS
330
20E4F
102
}
330
20E4F
100
AcDbXrecord
280
     1
102
RTVSPost2010Prop28
280
     0
102
RTVSPost2010PropOp28
 70
     1
102
RTVSPost2010Prop29
280
     1
102
RTVSPost2010PropOp29
 70
     1
102
RTVSPost2010Prop30
280
     1
102
RTVSPost2010PropOp30
 70
     1
102
RTVSPost2010Prop31
280
     0
102
RTVSPost2010PropOp31
 70
     1
102
RTVSPost2010Prop32
280
     0
102
RTVSPost2010PropOp32
 70
     1
102
RTVSPost2010Prop33
280
     0
102
RTVSPost2010PropOp33
 70
     1
102
RTVSPost2010Prop34
280
     0
102
RTVSPost2010PropOp34
 70
     1
102
RTVSPost2010Prop35
280
     0
102
RTVSPost2010PropOp35
 70
     1
102
RTVSPost2010Prop36
280
     0
102
RTVSPost2010PropOp36
 70
     1
102
RTVSPost2010Prop37
 90
       50
102
RTVSPost2010PropOp37
 70
     1
102
RTVSPost2010Prop38
140
0.0
102
RTVSPost2010PropOp38
 70
     1
102
RTVSPost2010Prop39
140
1.0
102
RTVSPost2010PropOp39
 70
     1
102
RTVSPost2010Prop40
 90
        0
102
RTVSPost2010PropOp40
 70
     1
102
RTVSPost2010Prop41ColorIndex
 90
       18
102
RTVSPost2010Prop41ColorRGB
 90
        0
102
RTVSPost2010PropOp41
 70
     1
102
RTVSPost2010Prop42
 90
       50
102
RTVSPost2010PropOp42
 70
     1
102
RTVSPost2010Prop43
 90
        3
102
RTVSPost2010PropOp43
 70
     1
102
RTVSPost2010Prop44ColorIndex
 90
        5
102
RTVSPost2010Prop44ColorRGB
 90
      255
102
RTVSPost2010PropOp44
 70
     1
102
RTVSPost2010Prop45
280
     0
102
RTVSPost2010PropOp45
 70
     1
102
RTVSPost2010Prop46
 90
       50
102
RTVSPost2010PropOp46
 70
     1
102
RTVSPost2010Prop47
 90
       50
102
RTVSPost2010PropOp47
 70
     1
102
RTVSPost2010Prop48
 90
       50
102
RTVSPost2010PropOp48
 70
     1
102
RTVSPost2010Prop49
280
     0
102
RTVSPost2010PropOp49
 70
     1
102
RTVSPost2010Prop50
 90
       50
102
RTVSPost2010PropOp50
 70
     1
102
RTVSPost2010Prop51ColorIndex
 90
      256
102
RTVSPost2010Prop51ColorRGB
 90
-16777216
102
RTVSPost2010PropOp51
 70
     0
102
RTVSPost2010Prop52
140
1.0
102
RTVSPost2010PropOp52
 70
     0
102
RTVSPost2010Prop53
 90
        2
102
RTVSPost2010PropOp53
 70
     1
102
RTVSPost2010Prop54
  1
strokes_ogs.tif
102
RTVSPost2010PropOp54
 70
     1
102
RTVSPost2010Prop55
280
     0
102
RTVSPost2010PropOp55
 70
     1
102
RTVSPost2010Prop56
140
1.0
102
RTVSPost2010PropOp56
 70
     1
102
RTVSPost2010Prop57
140
1.0
102
RTVSPost2010PropOp57
 70
     1
102
RTVSPropertyOp0
 70
     1
102
RTVSPropertyOp1
 70
     1
102
RTVSPropertyOp2
 70
     1
102
RTVSPropertyOp3
 70
     1
102
RTVSPropertyOp4
 70
     1
102
RTVSPropertyOp5
 70
     1
102
RTVSPropertyOp6
 70
     1
102
RTVSPropertyOp7
 70
     1
102
RTVSPropertyOp8
 70
     1
102
RTVSPropertyOp9
 70
     1
102
RTVSPropertyOp10
 70
     1
102
RTVSPropertyOp11
 70
     1
102
RTVSPropertyOp12
 70
     1
102
RTVSPropertyOp13
 70
     1
102
RTVSPropertyOp14
 70
     1
102
RTVSPropertyOp15
 70
     1
102
RTVSPropertyOp16
 70
     1
102
RTVSPropertyOp17
 70
     1
102
RTVSPropertyOp18
 70
     1
102
RTVSPropertyOp19
 70
     1
102
RTVSPropertyOp20
 70
     1
102
RTVSPropertyOp21
 70
     1
102
RTVSPropertyOp22
 70
     1
102
RTVSPropertyOp23
 70
     1
102
RTVSPropertyOp24
 70
     1
102
RTVSPropertyOp25
 70
     1
102
RTVSPropertyOp26
 70
     1
102
RTVSPropertyOp27
 70
     1
102
RTVSPropertyOp28
 70
     1
102
RTVSPropertyOp29
 70
     1
102
RTVSPropertyOp30
 70
     1
102
RTVSPropertyOp31
 70
     1
102
RTVSPropertyOp32
 70
     1
102
RTVSPropertyOp33
 70
     1
102
RTVSPropertyOp34
 70
     1
102
RTVSPropertyOp35
 70
     1
102
RTVSPropertyOp36
 70
     1
102
RTVSPropertyOp37
 70
     1
102
RTVSPropertyOp38
 70
     1
102
RTVSPropertyOp39
 70
     1
102
RTVSPropertyOp40
 70
     1
102
RTVSPropertyOp41
 70
     1
102
RTVSPropertyOp42
 70
     1
102
RTVSPropertyOp43
 70
     1
102
RTVSPropertyOp44
 70
     1
102
RTVSPropertyOp45
 70
     1
102
RTVSPropertyOp46
 70
     1
102
RTVSPropertyOp47
 70
     1
102
RTVSPropertyOp48
 70
     1
102
RTVSPropertyOp49
 70
     1
102
RTVSPropertyOp50
 70
     1
102
RTVSPropertyOp51
 70
     0
102
RTVSPropertyOp52
 70
     0
102
RTVSPropertyOp53
 70
     1
102
RTVSPropertyOp54
 70
     1
102
RTVSPropertyOp55
 70
     1
102
RTVSPropertyOp56
 70
     1
102
RTVSPropertyOp57
 70
     1
102
RTVSPropertyOp58
 70
     1
102
RTVSPropertyOp59
 70
     1
102
RTVSPropertyOp60
 70
     1
102
RTVSPropertyOp61
 70
     1
102
RTVSPropertyOp62
 70
     1
  0
XRECORD
  5
20E4E
102
{ACAD_REACTORS
330
20E4D
102
}
330
20E4D
100
AcDbXrecord
280
     1
102
RTVSPost2010Prop28
280
     0
102
RTVSPost2010PropOp28
 70
     1
102
RTVSPost2010Prop29
280
     1
102
RTVSPost2010PropOp29
 70
     1
102
RTVSPost2010Prop30
280
     1
102
RTVSPost2010PropOp30
 70
     1
102
RTVSPost2010Prop31
280
     0
102
RTVSPost2010PropOp31
 70
     1
102
RTVSPost2010Prop32
280
     0
102
RTVSPost2010PropOp32
 70
     1
102
RTVSPost2010Prop33
280
     0
102
RTVSPost2010PropOp33
 70
     1
102
RTVSPost2010Prop34
280
     0
102
RTVSPost2010PropOp34
 70
     1
102
RTVSPost2010Prop35
280
     0
102
RTVSPost2010PropOp35
 70
     1
102
RTVSPost2010Prop36
280
     0
102
RTVSPost2010PropOp36
 70
     1
102
RTVSPost2010Prop37
 90
       50
102
RTVSPost2010PropOp37
 70
     1
102
RTVSPost2010Prop38
140
0.0
102
RTVSPost2010PropOp38
 70
     1
102
RTVSPost2010Prop39
140
1.0
102
RTVSPost2010PropOp39
 70
     1
102
RTVSPost2010Prop40
 90
        0
102
RTVSPost2010PropOp40
 70
     1
102
RTVSPost2010Prop41ColorIndex
 90
       18
102
RTVSPost2010Prop41ColorRGB
 90
        0
102
RTVSPost2010PropOp41
 70
     1
102
RTVSPost2010Prop42
 90
       50
102
RTVSPost2010PropOp42
 70
     1
102
RTVSPost2010Prop43
 90
        3
102
RTVSPost2010PropOp43
 70
     1
102
RTVSPost2010Prop44ColorIndex
 90
        5
102
RTVSPost2010Prop44ColorRGB
 90
      255
102
RTVSPost2010PropOp44
 70
     1
102
RTVSPost2010Prop45
280
     0
102
RTVSPost2010PropOp45
 70
     1
102
RTVSPost2010Prop46
 90
       50
102
RTVSPost2010PropOp46
 70
     1
102
RTVSPost2010Prop47
 90
       50
102
RTVSPost2010PropOp47
 70
     1
102
RTVSPost2010Prop48
 90
       50
102
RTVSPost2010PropOp48
 70
     1
102
RTVSPost2010Prop49
280
     0
102
RTVSPost2010PropOp49
 70
     1
102
RTVSPost2010Prop50
 90
       50
102
RTVSPost2010PropOp50
 70
     1
102
RTVSPost2010Prop51ColorIndex
 90
      256
102
RTVSPost2010Prop51ColorRGB
 90
-16777216
102
RTVSPost2010PropOp51
 70
     0
102
RTVSPost2010Prop52
140
1.0
102
RTVSPost2010PropOp52
 70
     0
102
RTVSPost2010Prop53
 90
        2
102
RTVSPost2010PropOp53
 70
     1
102
RTVSPost2010Prop54
  1
strokes_ogs.tif
102
RTVSPost2010PropOp54
 70
     1
102
RTVSPost2010Prop55
280
     0
102
RTVSPost2010PropOp55
 70
     1
102
RTVSPost2010Prop56
140
1.0
102
RTVSPost2010PropOp56
 70
     1
102
RTVSPost2010Prop57
140
1.0
102
RTVSPost2010PropOp57
 70
     1
102
RTVSPropertyOp0
 70
     1
102
RTVSPropertyOp1
 70
     1
102
RTVSPropertyOp2
 70
     1
102
RTVSPropertyOp3
 70
     1
102
RTVSPropertyOp4
 70
     1
102
RTVSPropertyOp5
 70
     1
102
RTVSPropertyOp6
 70
     1
102
RTVSPropertyOp7
 70
     1
102
RTVSPropertyOp8
 70
     1
102
RTVSPropertyOp9
 70
     1
102
RTVSPropertyOp10
 70
     1
102
RTVSPropertyOp11
 70
     1
102
RTVSPropertyOp12
 70
     1
102
RTVSPropertyOp13
 70
     1
102
RTVSPropertyOp14
 70
     1
102
RTVSPropertyOp15
 70
     1
102
RTVSPropertyOp16
 70
     1
102
RTVSPropertyOp17
 70
     1
102
RTVSPropertyOp18
 70
     1
102
RTVSPropertyOp19
 70
     1
102
RTVSPropertyOp20
 70
     1
102
RTVSPropertyOp21
 70
     1
102
RTVSPropertyOp22
 70
     1
102
RTVSPropertyOp23
 70
     1
102
RTVSPropertyOp24
 70
     1
102
RTVSPropertyOp25
 70
     1
102
RTVSPropertyOp26
 70
     1
102
RTVSPropertyOp27
 70
     1
102
RTVSPropertyOp28
 70
     1
102
RTVSPropertyOp29
 70
     1
102
RTVSPropertyOp30
 70
     1
102
RTVSPropertyOp31
 70
     1
102
RTVSPropertyOp32
 70
     1
102
RTVSPropertyOp33
 70
     1
102
RTVSPropertyOp34
 70
     1
102
RTVSPropertyOp35
 70
     1
102
RTVSPropertyOp36
 70
     1
102
RTVSPropertyOp37
 70
     1
102
RTVSPropertyOp38
 70
     1
102
RTVSPropertyOp39
 70
     1
102
RTVSPropertyOp40
 70
     1
102
RTVSPropertyOp41
 70
     1
102
RTVSPropertyOp42
 70
     1
102
RTVSPropertyOp43
 70
     1
102
RTVSPropertyOp44
 70
     1
102
RTVSPropertyOp45
 70
     1
102
RTVSPropertyOp46
 70
     1
102
RTVSPropertyOp47
 70
     1
102
RTVSPropertyOp48
 70
     1
102
RTVSPropertyOp49
 70
     1
102
RTVSPropertyOp50
 70
     1
102
RTVSPropertyOp51
 70
     0
102
RTVSPropertyOp52
 70
     0
102
RTVSPropertyOp53
 70
     1
102
RTVSPropertyOp54
 70
     1
102
RTVSPropertyOp55
 70
     1
102
RTVSPropertyOp56
 70
     1
102
RTVSPropertyOp57
 70
     1
102
RTVSPropertyOp58
 70
     1
102
RTVSPropertyOp59
 70
     1
102
RTVSPropertyOp60
 70
     1
102
RTVSPropertyOp61
 70
     1
102
RTVSPropertyOp62
 70
     1
  0
XRECORD
  5
20E48
102
{ACAD_REACTORS
330
20E47
102
}
330
20E47
100
AcDbXrecord
280
     1
102
RTVSPost2010Prop28
280
     0
102
RTVSPost2010PropOp28
 70
     1
102
RTVSPost2010Prop29
280
     1
102
RTVSPost2010PropOp29
 70
     1
102
RTVSPost2010Prop30
280
     1
102
RTVSPost2010PropOp30
 70
     1
102
RTVSPost2010Prop31
280
     0
102
RTVSPost2010PropOp31
 70
     1
102
RTVSPost2010Prop32
280
     0
102
RTVSPost2010PropOp32
 70
     1
102
RTVSPost2010Prop33
280
     0
102
RTVSPost2010PropOp33
 70
     1
102
RTVSPost2010Prop34
280
     0
102
RTVSPost2010PropOp34
 70
     1
102
RTVSPost2010Prop35
280
     0
102
RTVSPost2010PropOp35
 70
     1
102
RTVSPost2010Prop36
280
     0
102
RTVSPost2010PropOp36
 70
     1
102
RTVSPost2010Prop37
 90
       50
102
RTVSPost2010PropOp37
 70
     1
102
RTVSPost2010Prop38
140
0.0
102
RTVSPost2010PropOp38
 70
     1
102
RTVSPost2010Prop39
140
1.0
102
RTVSPost2010PropOp39
 70
     1
102
RTVSPost2010Prop40
 90
        0
102
RTVSPost2010PropOp40
 70
     1
102
RTVSPost2010Prop41ColorIndex
 90
       18
102
RTVSPost2010Prop41ColorRGB
 90
        0
102
RTVSPost2010PropOp41
 70
     1
102
RTVSPost2010Prop42
 90
       50
102
RTVSPost2010PropOp42
 70
     1
102
RTVSPost2010Prop43
 90
        3
102
RTVSPost2010PropOp43
 70
     1
102
RTVSPost2010Prop44ColorIndex
 90
        5
102
RTVSPost2010Prop44ColorRGB
 90
      255
102
RTVSPost2010PropOp44
 70
     1
102
RTVSPost2010Prop45
280
     0
102
RTVSPost2010PropOp45
 70
     1
102
RTVSPost2010Prop46
 90
       50
102
RTVSPost2010PropOp46
 70
     1
102
RTVSPost2010Prop47
 90
       50
102
RTVSPost2010PropOp47
 70
     1
102
RTVSPost2010Prop48
 90
       50
102
RTVSPost2010PropOp48
 70
     1
102
RTVSPost2010Prop49
280
     0
102
RTVSPost2010PropOp49
 70
     1
102
RTVSPost2010Prop50
 90
       50
102
RTVSPost2010PropOp50
 70
     1
102
RTVSPost2010Prop51ColorIndex
 90
      256
102
RTVSPost2010Prop51ColorRGB
 90
-16777216
102
RTVSPost2010PropOp51
 70
     0
102
RTVSPost2010Prop52
140
1.0
102
RTVSPost2010PropOp52
 70
     0
102
RTVSPost2010Prop53
 90
        2
102
RTVSPost2010PropOp53
 70
     1
102
RTVSPost2010Prop54
  1
strokes_ogs.tif
102
RTVSPost2010PropOp54
 70
     1
102
RTVSPost2010Prop55
280
     0
102
RTVSPost2010PropOp55
 70
     1
102
RTVSPost2010Prop56
140
1.0
102
RTVSPost2010PropOp56
 70
     1
102
RTVSPost2010Prop57
140
1.0
102
RTVSPost2010PropOp57
 70
     1
102
RTVSPropertyOp0
 70
     1
102
RTVSPropertyOp1
 70
     1
102
RTVSPropertyOp2
 70
     1
102
RTVSPropertyOp3
 70
     1
102
RTVSPropertyOp4
 70
     1
102
RTVSPropertyOp5
 70
     1
102
RTVSPropertyOp6
 70
     1
102
RTVSPropertyOp7
 70
     1
102
RTVSPropertyOp8
 70
     1
102
RTVSPropertyOp9
 70
     1
102
RTVSPropertyOp10
 70
     1
102
RTVSPropertyOp11
 70
     1
102
RTVSPropertyOp12
 70
     1
102
RTVSPropertyOp13
 70
     1
102
RTVSPropertyOp14
 70
     1
102
RTVSPropertyOp15
 70
     1
102
RTVSPropertyOp16
 70
     1
102
RTVSPropertyOp17
 70
     1
102
RTVSPropertyOp18
 70
     1
102
RTVSPropertyOp19
 70
     1
102
RTVSPropertyOp20
 70
     1
102
RTVSPropertyOp21
 70
     1
102
RTVSPropertyOp22
 70
     1
102
RTVSPropertyOp23
 70
     1
102
RTVSPropertyOp24
 70
     1
102
RTVSPropertyOp25
 70
     1
102
RTVSPropertyOp26
 70
     1
102
RTVSPropertyOp27
 70
     1
102
RTVSPropertyOp28
 70
     1
102
RTVSPropertyOp29
 70
     1
102
RTVSPropertyOp30
 70
     1
102
RTVSPropertyOp31
 70
     1
102
RTVSPropertyOp32
 70
     1
102
RTVSPropertyOp33
 70
     1
102
RTVSPropertyOp34
 70
     1
102
RTVSPropertyOp35
 70
     1
102
RTVSPropertyOp36
 70
     1
102
RTVSPropertyOp37
 70
     1
102
RTVSPropertyOp38
 70
     1
102
RTVSPropertyOp39
 70
     1
102
RTVSPropertyOp40
 70
     1
102
RTVSPropertyOp41
 70
     1
102
RTVSPropertyOp42
 70
     1
102
RTVSPropertyOp43
 70
     1
102
RTVSPropertyOp44
 70
     1
102
RTVSPropertyOp45
 70
     1
102
RTVSPropertyOp46
 70
     1
102
RTVSPropertyOp47
 70
     1
102
RTVSPropertyOp48
 70
     1
102
RTVSPropertyOp49
 70
     1
102
RTVSPropertyOp50
 70
     1
102
RTVSPropertyOp51
 70
     0
102
RTVSPropertyOp52
 70
     0
102
RTVSPropertyOp53
 70
     1
102
RTVSPropertyOp54
 70
     1
102
RTVSPropertyOp55
 70
     1
102
RTVSPropertyOp56
 70
     1
102
RTVSPropertyOp57
 70
     1
102
RTVSPropertyOp58
 70
     1
102
RTVSPropertyOp59
 70
     1
102
RTVSPropertyOp60
 70
     1
102
RTVSPropertyOp61
 70
     1
102
RTVSPropertyOp62
 70
     1
  0
XRECORD
  5
20E4A
102
{ACAD_REACTORS
330
20E49
102
}
330
20E49
100
AcDbXrecord
280
     1
102
RTVSPost2010Prop28
280
     0
102
RTVSPost2010PropOp28
 70
     1
102
RTVSPost2010Prop29
280
     1
102
RTVSPost2010PropOp29
 70
     1
102
RTVSPost2010Prop30
280
     1
102
RTVSPost2010PropOp30
 70
     1
102
RTVSPost2010Prop31
280
     0
102
RTVSPost2010PropOp31
 70
     1
102
RTVSPost2010Prop32
280
     0
102
RTVSPost2010PropOp32
 70
     1
102
RTVSPost2010Prop33
280
     0
102
RTVSPost2010PropOp33
 70
     1
102
RTVSPost2010Prop34
280
     0
102
RTVSPost2010PropOp34
 70
     1
102
RTVSPost2010Prop35
280
     0
102
RTVSPost2010PropOp35
 70
     1
102
RTVSPost2010Prop36
280
     0
102
RTVSPost2010PropOp36
 70
     1
102
RTVSPost2010Prop37
 90
       50
102
RTVSPost2010PropOp37
 70
     1
102
RTVSPost2010Prop38
140
0.0
102
RTVSPost2010PropOp38
 70
     1
102
RTVSPost2010Prop39
140
1.0
102
RTVSPost2010PropOp39
 70
     1
102
RTVSPost2010Prop40
 90
        0
102
RTVSPost2010PropOp40
 70
     1
102
RTVSPost2010Prop41ColorIndex
 90
       18
102
RTVSPost2010Prop41ColorRGB
 90
        0
102
RTVSPost2010PropOp41
 70
     1
102
RTVSPost2010Prop42
 90
       50
102
RTVSPost2010PropOp42
 70
     1
102
RTVSPost2010Prop43
 90
        3
102
RTVSPost2010PropOp43
 70
     1
102
RTVSPost2010Prop44ColorIndex
 90
        5
102
RTVSPost2010Prop44ColorRGB
 90
      255
102
RTVSPost2010PropOp44
 70
     1
102
RTVSPost2010Prop45
280
     0
102
RTVSPost2010PropOp45
 70
     1
102
RTVSPost2010Prop46
 90
       50
102
RTVSPost2010PropOp46
 70
     1
102
RTVSPost2010Prop47
 90
       50
102
RTVSPost2010PropOp47
 70
     1
102
RTVSPost2010Prop48
 90
       50
102
RTVSPost2010PropOp48
 70
     1
102
RTVSPost2010Prop49
280
     0
102
RTVSPost2010PropOp49
 70
     1
102
RTVSPost2010Prop50
 90
       50
102
RTVSPost2010PropOp50
 70
     1
102
RTVSPost2010Prop51ColorIndex
 90
      256
102
RTVSPost2010Prop51ColorRGB
 90
-16777216
102
RTVSPost2010PropOp51
 70
     0
102
RTVSPost2010Prop52
140
1.0
102
RTVSPost2010PropOp52
 70
     0
102
RTVSPost2010Prop53
 90
        2
102
RTVSPost2010PropOp53
 70
     1
102
RTVSPost2010Prop54
  1
strokes_ogs.tif
102
RTVSPost2010PropOp54
 70
     1
102
RTVSPost2010Prop55
280
     0
102
RTVSPost2010PropOp55
 70
     1
102
RTVSPost2010Prop56
140
1.0
102
RTVSPost2010PropOp56
 70
     1
102
RTVSPost2010Prop57
140
1.0
102
RTVSPost2010PropOp57
 70
     1
102
RTVSPropertyOp0
 70
     1
102
RTVSPropertyOp1
 70
     1
102
RTVSPropertyOp2
 70
     1
102
RTVSPropertyOp3
 70
     1
102
RTVSPropertyOp4
 70
     1
102
RTVSPropertyOp5
 70
     1
102
RTVSPropertyOp6
 70
     1
102
RTVSPropertyOp7
 70
     1
102
RTVSPropertyOp8
 70
     1
102
RTVSPropertyOp9
 70
     1
102
RTVSPropertyOp10
 70
     1
102
RTVSPropertyOp11
 70
     1
102
RTVSPropertyOp12
 70
     1
102
RTVSPropertyOp13
 70
     1
102
RTVSPropertyOp14
 70
     1
102
RTVSPropertyOp15
 70
     1
102
RTVSPropertyOp16
 70
     1
102
RTVSPropertyOp17
 70
     1
102
RTVSPropertyOp18
 70
     1
102
RTVSPropertyOp19
 70
     1
102
RTVSPropertyOp20
 70
     1
102
RTVSPropertyOp21
 70
     1
102
RTVSPropertyOp22
 70
     1
102
RTVSPropertyOp23
 70
     1
102
RTVSPropertyOp24
 70
     1
102
RTVSPropertyOp25
 70
     1
102
RTVSPropertyOp26
 70
     1
102
RTVSPropertyOp27
 70
     1
102
RTVSPropertyOp28
 70
     1
102
RTVSPropertyOp29
 70
     1
102
RTVSPropertyOp30
 70
     1
102
RTVSPropertyOp31
 70
     1
102
RTVSPropertyOp32
 70
     1
102
RTVSPropertyOp33
 70
     1
102
RTVSPropertyOp34
 70
     1
102
RTVSPropertyOp35
 70
     1
102
RTVSPropertyOp36
 70
     1
102
RTVSPropertyOp37
 70
     1
102
RTVSPropertyOp38
 70
     1
102
RTVSPropertyOp39
 70
     1
102
RTVSPropertyOp40
 70
     1
102
RTVSPropertyOp41
 70
     1
102
RTVSPropertyOp42
 70
     1
102
RTVSPropertyOp43
 70
     1
102
RTVSPropertyOp44
 70
     1
102
RTVSPropertyOp45
 70
     1
102
RTVSPropertyOp46
 70
     1
102
RTVSPropertyOp47
 70
     1
102
RTVSPropertyOp48
 70
     1
102
RTVSPropertyOp49
 70
     1
102
RTVSPropertyOp50
 70
     1
102
RTVSPropertyOp51
 70
     0
102
RTVSPropertyOp52
 70
     0
102
RTVSPropertyOp53
 70
     1
102
RTVSPropertyOp54
 70
     1
102
RTVSPropertyOp55
 70
     1
102
RTVSPropertyOp56
 70
     1
102
RTVSPropertyOp57
 70
     1
102
RTVSPropertyOp58
 70
     1
102
RTVSPropertyOp59
 70
     1
102
RTVSPropertyOp60
 70
     1
102
RTVSPropertyOp61
 70
     1
102
RTVSPropertyOp62
 70
     1
  0
XRECORD
  5
20E33
102
{ACAD_REACTORS
330
20E32
102
}
330
20E32
100
AcDbXrecord
280
     1
102
RTVSPost2010Prop28
280
     0
102
RTVSPost2010PropOp28
 70
     1
102
RTVSPost2010Prop29
280
     1
102
RTVSPost2010PropOp29
 70
     1
102
RTVSPost2010Prop30
280
     1
102
RTVSPost2010PropOp30
 70
     1
102
RTVSPost2010Prop31
280
     0
102
RTVSPost2010PropOp31
 70
     1
102
RTVSPost2010Prop32
280
     0
102
RTVSPost2010PropOp32
 70
     1
102
RTVSPost2010Prop33
280
     0
102
RTVSPost2010PropOp33
 70
     1
102
RTVSPost2010Prop34
280
     0
102
RTVSPost2010PropOp34
 70
     1
102
RTVSPost2010Prop35
280
     0
102
RTVSPost2010PropOp35
 70
     1
102
RTVSPost2010Prop36
280
     0
102
RTVSPost2010PropOp36
 70
     1
102
RTVSPost2010Prop37
 90
       50
102
RTVSPost2010PropOp37
 70
     1
102
RTVSPost2010Prop38
140
0.0
102
RTVSPost2010PropOp38
 70
     1
102
RTVSPost2010Prop39
140
1.0
102
RTVSPost2010PropOp39
 70
     1
102
RTVSPost2010Prop40
 90
        0
102
RTVSPost2010PropOp40
 70
     1
102
RTVSPost2010Prop41ColorIndex
 90
       18
102
RTVSPost2010Prop41ColorRGB
 90
        0
102
RTVSPost2010PropOp41
 70
     1
102
RTVSPost2010Prop42
 90
       50
102
RTVSPost2010PropOp42
 70
     1
102
RTVSPost2010Prop43
 90
        3
102
RTVSPost2010PropOp43
 70
     1
102
RTVSPost2010Prop44ColorIndex
 90
        5
102
RTVSPost2010Prop44ColorRGB
 90
      255
102
RTVSPost2010PropOp44
 70
     1
102
RTVSPost2010Prop45
280
     0
102
RTVSPost2010PropOp45
 70
     1
102
RTVSPost2010Prop46
 90
       50
102
RTVSPost2010PropOp46
 70
     1
102
RTVSPost2010Prop47
 90
       50
102
RTVSPost2010PropOp47
 70
     1
102
RTVSPost2010Prop48
 90
       50
102
RTVSPost2010PropOp48
 70
     1
102
RTVSPost2010Prop49
280
     0
102
RTVSPost2010PropOp49
 70
     1
102
RTVSPost2010Prop50
 90
       50
102
RTVSPost2010PropOp50
 70
     1
102
RTVSPost2010Prop51ColorIndex
 90
      256
102
RTVSPost2010Prop51ColorRGB
 90
-16777216
102
RTVSPost2010PropOp51
 70
     0
102
RTVSPost2010Prop52
140
1.0
102
RTVSPost2010PropOp52
 70
     0
102
RTVSPost2010Prop53
 90
        2
102
RTVSPost2010PropOp53
 70
     1
102
RTVSPost2010Prop54
  1
strokes_ogs.tif
102
RTVSPost2010PropOp54
 70
     1
102
RTVSPost2010Prop55
280
     0
102
RTVSPost2010PropOp55
 70
     1
102
RTVSPost2010Prop56
140
1.0
102
RTVSPost2010PropOp56
 70
     1
102
RTVSPost2010Prop57
140
1.0
102
RTVSPost2010PropOp57
 70
     1
102
RTVSPropertyOp0
 70
     1
102
RTVSPropertyOp1
 70
     1
102
RTVSPropertyOp2
 70
     1
102
RTVSPropertyOp3
 70
     1
102
RTVSPropertyOp4
 70
     1
102
RTVSPropertyOp5
 70
     1
102
RTVSPropertyOp6
 70
     1
102
RTVSPropertyOp7
 70
     1
102
RTVSPropertyOp8
 70
     1
102
RTVSPropertyOp9
 70
     1
102
RTVSPropertyOp10
 70
     1
102
RTVSPropertyOp11
 70
     1
102
RTVSPropertyOp12
 70
     1
102
RTVSPropertyOp13
 70
     1
102
RTVSPropertyOp14
 70
     1
102
RTVSPropertyOp15
 70
     1
102
RTVSPropertyOp16
 70
     1
102
RTVSPropertyOp17
 70
     1
102
RTVSPropertyOp18
 70
     1
102
RTVSPropertyOp19
 70
     1
102
RTVSPropertyOp20
 70
     1
102
RTVSPropertyOp21
 70
     1
102
RTVSPropertyOp22
 70
     1
102
RTVSPropertyOp23
 70
     1
102
RTVSPropertyOp24
 70
     1
102
RTVSPropertyOp25
 70
     1
102
RTVSPropertyOp26
 70
     1
102
RTVSPropertyOp27
 70
     1
102
RTVSPropertyOp28
 70
     1
102
RTVSPropertyOp29
 70
     1
102
RTVSPropertyOp30
 70
     1
102
RTVSPropertyOp31
 70
     1
102
RTVSPropertyOp32
 70
     1
102
RTVSPropertyOp33
 70
     1
102
RTVSPropertyOp34
 70
     1
102
RTVSPropertyOp35
 70
     1
102
RTVSPropertyOp36
 70
     1
102
RTVSPropertyOp37
 70
     1
102
RTVSPropertyOp38
 70
     1
102
RTVSPropertyOp39
 70
     1
102
RTVSPropertyOp40
 70
     1
102
RTVSPropertyOp41
 70
     1
102
RTVSPropertyOp42
 70
     1
102
RTVSPropertyOp43
 70
     1
102
RTVSPropertyOp44
 70
     1
102
RTVSPropertyOp45
 70
     1
102
RTVSPropertyOp46
 70
     1
102
RTVSPropertyOp47
 70
     1
102
RTVSPropertyOp48
 70
     1
102
RTVSPropertyOp49
 70
     1
102
RTVSPropertyOp50
 70
     1
102
RTVSPropertyOp51
 70
     0
102
RTVSPropertyOp52
 70
     0
102
RTVSPropertyOp53
 70
     1
102
RTVSPropertyOp54
 70
     1
102
RTVSPropertyOp55
 70
     1
102
RTVSPropertyOp56
 70
     1
102
RTVSPropertyOp57
 70
     1
102
RTVSPropertyOp58
 70
     1
102
RTVSPropertyOp59
 70
     1
102
RTVSPropertyOp60
 70
     1
102
RTVSPropertyOp61
 70
     1
102
RTVSPropertyOp62
 70
     1
  0
XRECORD
  5
20E44
102
{ACAD_REACTORS
330
20E43
102
}
330
20E43
100
AcDbXrecord
280
     1
102
RTVSPost2010Prop28
280
     0
102
RTVSPost2010PropOp28
 70
     1
102
RTVSPost2010Prop29
280
     1
102
RTVSPost2010PropOp29
 70
     1
102
RTVSPost2010Prop30
280
     1
102
RTVSPost2010PropOp30
 70
     1
102
RTVSPost2010Prop31
280
     0
102
RTVSPost2010PropOp31
 70
     1
102
RTVSPost2010Prop32
280
     0
102
RTVSPost2010PropOp32
 70
     1
102
RTVSPost2010Prop33
280
     0
102
RTVSPost2010PropOp33
 70
     1
102
RTVSPost2010Prop34
280
     0
102
RTVSPost2010PropOp34
 70
     1
102
RTVSPost2010Prop35
280
     0
102
RTVSPost2010PropOp35
 70
     1
102
RTVSPost2010Prop36
280
     0
102
RTVSPost2010PropOp36
 70
     1
102
RTVSPost2010Prop37
 90
       50
102
RTVSPost2010PropOp37
 70
     1
102
RTVSPost2010Prop38
140
0.0
102
RTVSPost2010PropOp38
 70
     1
102
RTVSPost2010Prop39
140
1.0
102
RTVSPost2010PropOp39
 70
     1
102
RTVSPost2010Prop40
 90
        0
102
RTVSPost2010PropOp40
 70
     1
102
RTVSPost2010Prop41ColorIndex
 90
       18
102
RTVSPost2010Prop41ColorRGB
 90
        0
102
RTVSPost2010PropOp41
 70
     1
102
RTVSPost2010Prop42
 90
       50
102
RTVSPost2010PropOp42
 70
     1
102
RTVSPost2010Prop43
 90
        3
102
RTVSPost2010PropOp43
 70
     1
102
RTVSPost2010Prop44ColorIndex
 90
        5
102
RTVSPost2010Prop44ColorRGB
 90
      255
102
RTVSPost2010PropOp44
 70
     1
102
RTVSPost2010Prop45
280
     0
102
RTVSPost2010PropOp45
 70
     1
102
RTVSPost2010Prop46
 90
       50
102
RTVSPost2010PropOp46
 70
     1
102
RTVSPost2010Prop47
 90
       50
102
RTVSPost2010PropOp47
 70
     1
102
RTVSPost2010Prop48
 90
       50
102
RTVSPost2010PropOp48
 70
     1
102
RTVSPost2010Prop49
280
     0
102
RTVSPost2010PropOp49
 70
     1
102
RTVSPost2010Prop50
 90
       50
102
RTVSPost2010PropOp50
 70
     1
102
RTVSPost2010Prop51ColorIndex
 90
      256
102
RTVSPost2010Prop51ColorRGB
 90
-16777216
102
RTVSPost2010PropOp51
 70
     0
102
RTVSPost2010Prop52
140
1.0
102
RTVSPost2010PropOp52
 70
     0
102
RTVSPost2010Prop53
 90
        2
102
RTVSPost2010PropOp53
 70
     1
102
RTVSPost2010Prop54
  1
strokes_ogs.tif
102
RTVSPost2010PropOp54
 70
     1
102
RTVSPost2010Prop55
280
     0
102
RTVSPost2010PropOp55
 70
     1
102
RTVSPost2010Prop56
140
1.0
102
RTVSPost2010PropOp56
 70
     1
102
RTVSPost2010Prop57
140
1.0
102
RTVSPost2010PropOp57
 70
     1
102
RTVSPropertyOp0
 70
     1
102
RTVSPropertyOp1
 70
     1
102
RTVSPropertyOp2
 70
     1
102
RTVSPropertyOp3
 70
     1
102
RTVSPropertyOp4
 70
     1
102
RTVSPropertyOp5
 70
     1
102
RTVSPropertyOp6
 70
     1
102
RTVSPropertyOp7
 70
     1
102
RTVSPropertyOp8
 70
     1
102
RTVSPropertyOp9
 70
     1
102
RTVSPropertyOp10
 70
     1
102
RTVSPropertyOp11
 70
     1
102
RTVSPropertyOp12
 70
     1
102
RTVSPropertyOp13
 70
     1
102
RTVSPropertyOp14
 70
     1
102
RTVSPropertyOp15
 70
     1
102
RTVSPropertyOp16
 70
     1
102
RTVSPropertyOp17
 70
     1
102
RTVSPropertyOp18
 70
     1
102
RTVSPropertyOp19
 70
     1
102
RTVSPropertyOp20
 70
     1
102
RTVSPropertyOp21
 70
     1
102
RTVSPropertyOp22
 70
     1
102
RTVSPropertyOp23
 70
     1
102
RTVSPropertyOp24
 70
     1
102
RTVSPropertyOp25
 70
     1
102
RTVSPropertyOp26
 70
     1
102
RTVSPropertyOp27
 70
     1
102
RTVSPropertyOp28
 70
     1
102
RTVSPropertyOp29
 70
     1
102
RTVSPropertyOp30
 70
     1
102
RTVSPropertyOp31
 70
     1
102
RTVSPropertyOp32
 70
     1
102
RTVSPropertyOp33
 70
     1
102
RTVSPropertyOp34
 70
     1
102
RTVSPropertyOp35
 70
     1
102
RTVSPropertyOp36
 70
     1
102
RTVSPropertyOp37
 70
     1
102
RTVSPropertyOp38
 70
     1
102
RTVSPropertyOp39
 70
     1
102
RTVSPropertyOp40
 70
     1
102
RTVSPropertyOp41
 70
     1
102
RTVSPropertyOp42
 70
     1
102
RTVSPropertyOp43
 70
     1
102
RTVSPropertyOp44
 70
     1
102
RTVSPropertyOp45
 70
     1
102
RTVSPropertyOp46
 70
     1
102
RTVSPropertyOp47
 70
     1
102
RTVSPropertyOp48
 70
     1
102
RTVSPropertyOp49
 70
     1
102
RTVSPropertyOp50
 70
     1
102
RTVSPropertyOp51
 70
     0
102
RTVSPropertyOp52
 70
     0
102
RTVSPropertyOp53
 70
     1
102
RTVSPropertyOp54
 70
     1
102
RTVSPropertyOp55
 70
     1
102
RTVSPropertyOp56
 70
     1
102
RTVSPropertyOp57
 70
     1
102
RTVSPropertyOp58
 70
     1
102
RTVSPropertyOp59
 70
     1
102
RTVSPropertyOp60
 70
     1
102
RTVSPropertyOp61
 70
     1
102
RTVSPropertyOp62
 70
     1
  0
XRECORD
  5
20E4C
102
{ACAD_REACTORS
330
20E4B
102
}
330
20E4B
100
AcDbXrecord
280
     1
102
RTVSPost2010Prop28
280
     0
102
RTVSPost2010PropOp28
 70
     1
102
RTVSPost2010Prop29
280
     1
102
RTVSPost2010PropOp29
 70
     1
102
RTVSPost2010Prop30
280
     1
102
RTVSPost2010PropOp30
 70
     1
102
RTVSPost2010Prop31
280
     0
102
RTVSPost2010PropOp31
 70
     1
102
RTVSPost2010Prop32
280
     0
102
RTVSPost2010PropOp32
 70
     1
102
RTVSPost2010Prop33
280
     0
102
RTVSPost2010PropOp33
 70
     1
102
RTVSPost2010Prop34
280
     0
102
RTVSPost2010PropOp34
 70
     1
102
RTVSPost2010Prop35
280
     0
102
RTVSPost2010PropOp35
 70
     1
102
RTVSPost2010Prop36
280
     0
102
RTVSPost2010PropOp36
 70
     1
102
RTVSPost2010Prop37
 90
       50
102
RTVSPost2010PropOp37
 70
     1
102
RTVSPost2010Prop38
140
0.0
102
RTVSPost2010PropOp38
 70
     1
102
RTVSPost2010Prop39
140
1.0
102
RTVSPost2010PropOp39
 70
     1
102
RTVSPost2010Prop40
 90
        0
102
RTVSPost2010PropOp40
 70
     1
102
RTVSPost2010Prop41ColorIndex
 90
       18
102
RTVSPost2010Prop41ColorRGB
 90
        0
102
RTVSPost2010PropOp41
 70
     1
102
RTVSPost2010Prop42
 90
       50
102
RTVSPost2010PropOp42
 70
     1
102
RTVSPost2010Prop43
 90
        3
102
RTVSPost2010PropOp43
 70
     1
102
RTVSPost2010Prop44ColorIndex
 90
        5
102
RTVSPost2010Prop44ColorRGB
 90
      255
102
RTVSPost2010PropOp44
 70
     1
102
RTVSPost2010Prop45
280
     0
102
RTVSPost2010PropOp45
 70
     1
102
RTVSPost2010Prop46
 90
       50
102
RTVSPost2010PropOp46
 70
     1
102
RTVSPost2010Prop47
 90
       50
102
RTVSPost2010PropOp47
 70
     1
102
RTVSPost2010Prop48
 90
       50
102
RTVSPost2010PropOp48
 70
     1
102
RTVSPost2010Prop49
280
     0
102
RTVSPost2010PropOp49
 70
     1
102
RTVSPost2010Prop50
 90
       50
102
RTVSPost2010PropOp50
 70
     1
102
RTVSPost2010Prop51ColorIndex
 90
      256
102
RTVSPost2010Prop51ColorRGB
 90
-16777216
102
RTVSPost2010PropOp51
 70
     0
102
RTVSPost2010Prop52
140
1.0
102
RTVSPost2010PropOp52
 70
     0
102
RTVSPost2010Prop53
 90
        2
102
RTVSPost2010PropOp53
 70
     1
102
RTVSPost2010Prop54
  1
strokes_ogs.tif
102
RTVSPost2010PropOp54
 70
     1
102
RTVSPost2010Prop55
280
     0
102
RTVSPost2010PropOp55
 70
     1
102
RTVSPost2010Prop56
140
1.0
102
RTVSPost2010PropOp56
 70
     1
102
RTVSPost2010Prop57
140
1.0
102
RTVSPost2010PropOp57
 70
     1
102
RTVSPropertyOp0
 70
     1
102
RTVSPropertyOp1
 70
     1
102
RTVSPropertyOp2
 70
     1
102
RTVSPropertyOp3
 70
     1
102
RTVSPropertyOp4
 70
     1
102
RTVSPropertyOp5
 70
     1
102
RTVSPropertyOp6
 70
     1
102
RTVSPropertyOp7
 70
     1
102
RTVSPropertyOp8
 70
     1
102
RTVSPropertyOp9
 70
     1
102
RTVSPropertyOp10
 70
     1
102
RTVSPropertyOp11
 70
     1
102
RTVSPropertyOp12
 70
     1
102
RTVSPropertyOp13
 70
     1
102
RTVSPropertyOp14
 70
     1
102
RTVSPropertyOp15
 70
     1
102
RTVSPropertyOp16
 70
     1
102
RTVSPropertyOp17
 70
     1
102
RTVSPropertyOp18
 70
     1
102
RTVSPropertyOp19
 70
     1
102
RTVSPropertyOp20
 70
     1
102
RTVSPropertyOp21
 70
     1
102
RTVSPropertyOp22
 70
     1
102
RTVSPropertyOp23
 70
     1
102
RTVSPropertyOp24
 70
     1
102
RTVSPropertyOp25
 70
     1
102
RTVSPropertyOp26
 70
     1
102
RTVSPropertyOp27
 70
     1
102
RTVSPropertyOp28
 70
     1
102
RTVSPropertyOp29
 70
     1
102
RTVSPropertyOp30
 70
     1
102
RTVSPropertyOp31
 70
     1
102
RTVSPropertyOp32
 70
     1
102
RTVSPropertyOp33
 70
     1
102
RTVSPropertyOp34
 70
     1
102
RTVSPropertyOp35
 70
     1
102
RTVSPropertyOp36
 70
     1
102
RTVSPropertyOp37
 70
     1
102
RTVSPropertyOp38
 70
     1
102
RTVSPropertyOp39
 70
     1
102
RTVSPropertyOp40
 70
     1
102
RTVSPropertyOp41
 70
     1
102
RTVSPropertyOp42
 70
     1
102
RTVSPropertyOp43
 70
     1
102
RTVSPropertyOp44
 70
     1
102
RTVSPropertyOp45
 70
     1
102
RTVSPropertyOp46
 70
     1
102
RTVSPropertyOp47
 70
     1
102
RTVSPropertyOp48
 70
     1
102
RTVSPropertyOp49
 70
     1
102
RTVSPropertyOp50
 70
     1
102
RTVSPropertyOp51
 70
     0
102
RTVSPropertyOp52
 70
     0
102
RTVSPropertyOp53
 70
     1
102
RTVSPropertyOp54
 70
     1
102
RTVSPropertyOp55
 70
     1
102
RTVSPropertyOp56
 70
     1
102
RTVSPropertyOp57
 70
     1
102
RTVSPropertyOp58
 70
     1
102
RTVSPropertyOp59
 70
     1
102
RTVSPropertyOp60
 70
     1
102
RTVSPropertyOp61
 70
     1
102
RTVSPropertyOp62
 70
     1
  0
ENDSEC
  0
EOF
