  0
SECTION
  2
HEADER
  9
$ACADVER
  1
AC1015
  9
$ACADMAINTVER
 70
    20
  9
$DWGCODEPAGE
  3
ANSI_1252
  9
$INSBASE
 10
0.0
 20
0.0
 30
0.0
  9
$EXTMIN
 10
-35.62296106122631
 20
-30.97160530217986
 30
0.0
  9
$EXTMAX
 10
29.66547855166118
 20
34.63948195443544
 30
0.0
  9
$LIMMIN
 10
0.0
 20
0.0
  9
$LIMMAX
 10
420.0
 20
297.0
  9
$ORTHOMODE
 70
     0
  9
$REGENMODE
 70
     1
  9
$FILLMODE
 70
     1
  9
$QTEXTMODE
 70
     0
  9
$MIRRTEXT
 70
     0
  9
$LTSCALE
 40
23.1
  9
$ATTMODE
 70
     1
  9
$TEXTSIZE
 40
3.5
  9
$TRACEWID
 40
0.05
  9
$TEXTSTYLE
  7
STANDARD
  9
$CLAYER
  8
0
  9
$CELTYPE
  6
BYLAYER
  9
$CECOLOR
 62
   256
  9
$CELTSCALE
 40
1.0
  9
$DISPSILH
 70
     0
  9
$DIMSCALE
 40
1.0
  9
$DIMASZ
 40
4.57
  9
$DIMEXO
 40
0.0625
  9
$DIMDLI
 40
0.38
  9
$DIMRND
 40
0.0
  9
$DIMDLE
 40
0.0
  9
$DIMEXE
 40
0.18
  9
$DIMTP
 40
0.01
  9
$DIMTM
 40
0.01
  9
$DIMTXT
 40
3.5
  9
$DIMCEN
 40
0.09
  9
$DIMTSZ
 40
0.0
  9
$DIMTOL
 70
     0
  9
$DIMLIM
 70
     0
  9
$DIMTIH
 70
     0
  9
$DIMTOH
 70
     0
  9
$DIMSE1
 70
     0
  9
$DIMSE2
 70
     0
  9
$DIMTAD
 70
     1
  9
$DIMZIN
 70
     8
  9
$DIMBLK
  1

  9
$DIMASO
 70
     1
  9
$DIMSHO
 70
     1
  9
$DIMPOST
  1

  9
$DIMAPOST
  1

  9
$DIMALT
 70
     0
  9
$DIMALTD
 70
     2
  9
$DIMALTF
 40
25.4
  9
$DIMLFAC
 40
1.0
  9
$DIMTOFL
 70
     0
  9
$DIMTVP
 40
0.0
  9
$DIMTIX
 70
     0
  9
$DIMSOXD
 70
     0
  9
$DIMSAH
 70
     0
  9
$DIMBLK1
  1

  9
$DIMBLK2
  1

  9
$DIMSTYLE
  2
STANDARD
  9
$DIMCLRD
 70
     0
  9
$DIMCLRE
 70
     0
  9
$DIMCLRT
 70
     0
  9
$DIMTFAC
 40
1.0
  9
$DIMGAP
 40
0.09
  9
$DIMJUST
 70
     0
  9
$DIMSD1
 70
     0
  9
$DIMSD2
 70
     0
  9
$DIMTOLJ
 70
     1
  9
$DIMTZIN
 70
     8
  9
$DIMALTZ
 70
     0
  9
$DIMALTTZ
 70
     0
  9
$DIMUPT
 70
     0
  9
$DIMDEC
 70
     3
  9
$DIMTDEC
 70
     3
  9
$DIMALTU
 70
     2
  9
$DIMALTTD
 70
     2
  9
$DIMTXSTY
  7
STANDARD
  9
$DIMAUNIT
 70
     0
  9
$DIMADEC
 70
     0
  9
$DIMALTRND
 40
0.0
  9
$DIMAZIN
 70
     0
  9
$DIMDSEP
 70
    46
  9
$DIMATFIT
 70
     0
  9
$DIMFRAC
 70
     0
  9
$DIMLDRBLK
  1

  9
$DIMLUNIT
 70
     2
  9
$DIMLWD
 70
    -2
  9
$DIMLWE
 70
    -2
  9
$DIMTMOVE
 70
     0
  9
$LUNITS
 70
     2
  9
$LUPREC
 70
     4
  9
$SKETCHINC
 40
0.1
  9
$FILLETRAD
 40
0.0
  9
$AUNITS
 70
     0
  9
$AUPREC
 70
     0
  9
$MENU
  1
.
  9
$ELEVATION
 40
0.0
  9
$PELEVATION
 40
0.0
  9
$THICKNESS
 40
0.0
  9
$LIMCHECK
 70
     0
  9
$CHAMFERA
 40
0.0
  9
$CHAMFERB
 40
0.0
  9
$CHAMFERC
 40
0.0
  9
$CHAMFERD
 40
0.0
  9
$SKPOLY
 70
     0
  9
$TDCREATE
 40
2457351.313439815
  9
$TDUCREATE
 40
2457351.271773148
  9
$TDUPDATE
 40
2457351.338621100
  9
$TDUUPDATE
 40
2457351.296954433
  9
$TDINDWG
 40
0.0016070370
  9
$TDUSRTIMER
 40
0.0016069329
  9
$USRTIMER
 70
     1
  9
$ANGBASE
 50
0.0
  9
$ANGDIR
 70
     0
  9
$PDMODE
 70
     3
  9
$PDSIZE
 40
0.3125
  9
$PLINEWID
 40
0.0
  9
$SPLFRAME
 70
     0
  9
$SPLINETYPE
 70
     6
  9
$SPLINESEGS
 70
     8
  9
$HANDSEED
  5
20E5B
  9
$SURFTAB1
 70
     6
  9
$SURFTAB2
 70
     6
  9
$SURFTYPE
 70
     6
  9
$SURFU
 70
     6
  9
$SURFV
 70
     6
  9
$UCSBASE
  2

  9
$UCSNAME
  2

  9
$UCSORG
 10
0.0
 20
0.0
 30
0.0
  9
$UCSXDIR
 10
1.0
 20
0.0
 30
0.0
  9
$UCSYDIR
 10
0.0
 20
1.0
 30
0.0
  9
$UCSORTHOREF
  2

  9
$UCSORTHOVIEW
 70
     0
  9
$UCSORGTOP
 10
0.0
 20
0.0
 30
0.0
  9
$UCSORGBOTTOM
 10
0.0
 20
0.0
 30
0.0
  9
$UCSORGLEFT
 10
0.0
 20
0.0
 30
0.0
  9
$UCSORGRIGHT
 10
0.0
 20
0.0
 30
0.0
  9
$UCSORGFRONT
 10
0.0
 20
0.0
 30
0.0
  9
$UCSORGBACK
 10
0.0
 20
0.0
 30
0.0
  9
$PUCSBASE
  2

  9
$PUCSNAME
  2

  9
$PUCSORG
 10
0.0
 20
0.0
 30
0.0
  9
$PUCSXDIR
 10
1.0
 20
0.0
 30
0.0
  9
$PUCSYDIR
 10
0.0
 20
1.0
 30
0.0
  9
$PUCSORTHOREF
  2

  9
$PUCSORTHOVIEW
 70
     0
  9
$PUCSORGTOP
 10
0.0
 20
0.0
 30
0.0
  9
$PUCSORGBOTTOM
 10
0.0
 20
0.0
 30
0.0
  9
$PUCSORGLEFT
 10
0.0
 20
0.0
 30
0.0
  9
$PUCSORGRIGHT
 10
0.0
 20
0.0
 30
0.0
  9
$PUCSORGFRONT
 10
0.0
 20
0.0
 30
0.0
  9
$PUCSORGBACK
 10
0.0
 20
0.0
 30
0.0
  9
$USERI1
 70
     0
  9
$USERI2
 70
     0
  9
$USERI3
 70
     0
  9
$USERI4
 70
     0
  9
$USERI5
 70
     0
  9
$USERR1
 40
0.0
  9
$USERR2
 40
0.0
  9
$USERR3
 40
0.0
  9
$USERR4
 40
0.0
  9
$USERR5
 40
0.0
  9
$WORLDVIEW
 70
     1
  9
$SHADEDGE
 70
     3
  9
$SHADEDIF
 70
    70
  9
$TILEMODE
 70
     1
  9
$MAXACTVP
 70
    64
  9
$PINSBASE
 10
0.0
 20
0.0
 30
0.0
  9
$PLIMCHECK
 70
     0
  9
$PEXTMIN
 10
28.69141678810127
 20
19.6363175392151
 30
0.0
  9
$PEXTMAX
 10
258.2227510929107
 20
176.7268578529358
 30
0.0
  9
$PLIMMIN
 10
-5.027069091796875
 20
-6.805083274841307
  9
$PLIMMAX
 10
291.9412536621094
 20
203.1682443618775
  9
$UNITMODE
 70
     0
  9
$VISRETAIN
 70
     1
  9
$PLINEGEN
 70
     0
  9
$PSLTSCALE
 70
     1
  9
$TREEDEPTH
 70
  3020
  9
$CMLSTYLE
  2
STANDARD
  9
$CMLJUST
 70
     0
  9
$CMLSCALE
 40
1.0
  9
$PROXYGRAPHICS
 70
     1
  9
$MEASUREMENT
 70
     1
  9
$CELWEIGHT
370
    -1
  9
$ENDCAPS
280
     0
  9
$JOINSTYLE
280
     0
  9
$LWDISPLAY
290
     0
  9
$INSUNITS
 70
     0
  9
$HYPERLINKBASE
  1

  9
$STYLESHEET
  1
A1-A2.CTB
  9
$XEDIT
290
     1
  9
$CEPSNTYPE
380
     0
  9
$PSTYLEMODE
290
     1
  9
$FINGERPRINTGUID
  2
{840DA257-58B1-436F-8C66-AB7A2A938268}
  9
$VERSIONGUID
  2
{262EF003-8430-46F0-8620-9B9E5289B89E}
  9
$EXTNAMES
290
     1
  9
$PSVPSCALE
 40
0.0
  9
$OLESTARTUP
290
     0
  0
ENDSEC
  0
SECTION
  2
CLASSES
  0
CLASS
  1
ACDBDICTIONARYWDFLT
  2
AcDbDictionaryWithDefault
  3
ObjectDBX Classes
 90
        0
280
     0
281
     0
  0
CLASS
  1
MATERIAL
  2
AcDbMaterial
  3
ObjectDBX Classes
 90
     1153
280
     0
281
     0
  0
CLASS
  1
VISUALSTYLE
  2
AcDbVisualStyle
  3
ObjectDBX Classes
 90
     4095
280
     0
281
     0
  0
CLASS
  1
TABLESTYLE
  2
AcDbTableStyle
  3
ObjectDBX Classes
 90
     4095
280
     0
281
     0
  0
CLASS
  1
SORTENTSTABLE
  2
AcDbSortentsTable
  3
ObjectDBX Classes
 90
        0
280
     0
281
     0
  0
CLASS
  1
DICTIONARYVAR
  2
AcDbDictionaryVar
  3
ObjectDBX Classes
 90
        0
280
     0
281
     0
  0
CLASS
  1
EXACXREFPANELOBJECT
  2
ExAcXREFPanelObject
  3
EXAC_ESW
 90
    33793
280
     1
281
     0
  0
CLASS
  1
NPOCOLLECTION
  2
AcDbImpNonPersistentObjectsCollection
  3
ObjectDBX Classes
 90
    33921
280
     1
281
     0
  0
CLASS
  1
ACDBPLACEHOLDER
  2
AcDbPlaceHolder
  3
ObjectDBX Classes
 90
        0
280
     0
281
     0
  0
CLASS
  1
LAYOUT
  2
AcDbLayout
  3
ObjectDBX Classes
 90
        0
280
     0
281
     0
  0
CLASS
  1
SCALE
  2
AcDbScale
  3
ObjectDBX Classes
 90
     1153
280
     0
281
     0
  0
CLASS
  1
MLEADERSTYLE
  2
AcDbMLeaderStyle
  3
ACDB_MLEADERSTYLE_CLASS
 90
     4095
280
     0
281
     0
  0
CLASS
  1
ACDBSECTIONVIEWSTYLE
  2
AcDbSectionViewStyle
  3
ObjectDBX Classes
 90
     1025
280
     0
281
     0
  0
CLASS
  1
ACDBDETAILVIEWSTYLE
  2
AcDbDetailViewStyle
  3
ObjectDBX Classes
 90
     1025
280
     0
281
     0
  0
CLASS
  1
CELLSTYLEMAP
  2
AcDbCellStyleMap
  3
ObjectDBX Classes
 90
     1152
280
     0
281
     0
  0
CLASS
  1
ACAD_EVALUATION_GRAPH
  2
AcDbEvalGraph
  3
ObjectDBX Classes
 90
    33921
280
     0
281
     0
  0
CLASS
  1
ACAECUSTOBJ
  2
AcAeEditorObj
  3
AcAeEditorObj
 90
    33792
280
     0
281
     0
  0
CLASS
  1
ACDB_DYNAMICBLOCKPURGEPREVENTER_VERSION
  2
AcDbDynamicBlockPurgePreventer
  3
ObjectDBX Classes
 90
    33921
280
     0
281
     0
  0
CLASS
  1
DIMASSOC
  2
AcDbDimAssoc
  3
"AcDbDimAssoc|Product Desc:     AcDim ARX App For Dimension|Company:          Autodesk, Inc.|WEB Address:      www.autodesk.com"
 90
        0
280
     0
281
     0
  0
ENDSEC
  0
SECTION
  2
TABLES
  0
TABLE
  2
VPORT
  5
8
330
0
100
AcDbSymbolTable
 70
     1
  0
VPORT
  5
1F4
330
8
100
AcDbSymbolTableRecord
100
AcDbViewportTableRecord
  2
*ACTIVE
 70
     0
 10
0.0
 20
0.0
 11
1.0
 21
1.0
 12
-2.983258002610455
 22
4.338305890995417
 13
0.0
 23
0.0
 14
1.0
 24
1.0
 15
0.0
 25
0.0
 16
0.0
 26
0.0
 36
1.0
 17
0.0
 27
0.0
 37
0.0
 40
65.60001099047008
 41
2.336194563662374
 42
50.0
 43
0.0
 44
0.0
 50
0.0
 51
0.0
 71
     0
 72
  2000
 73
     1
 74
     1
 75
     0
 76
     0
 77
     0
 78
     0
281
     0
 65
     1
110
0.0
120
0.0
130
0.0
111
1.0
121
0.0
131
0.0
112
0.0
122
1.0
132
0.0
 79
     0
146
0.0
1001
ACAD_NAV_VCDISPLAY
1070
     3
  0
ENDTAB
  0
TABLE
  2
LTYPE
  5
5
330
0
100
AcDbSymbolTable
 70
     3
  0
LTYPE
  5
14
330
5
100
AcDbSymbolTableRecord
100
AcDbLinetypeTableRecord
  2
BYBLOCK
 70
     0
  3

 72
    65
 73
     0
 40
0.0
  0
LTYPE
  5
15
330
5
100
AcDbSymbolTableRecord
100
AcDbLinetypeTableRecord
  2
BYLAYER
 70
     0
  3

 72
    65
 73
     0
 40
0.0
  0
LTYPE
  5
16
330
5
100
AcDbSymbolTableRecord
100
AcDbLinetypeTableRecord
  2
CONTINUOUS
 70
     0
  3
Solid line
 72
    65
 73
     0
 40
0.0
  0
LTYPE
  5
9C48
330
5
100
AcDbSymbolTableRecord
100
AcDbLinetypeTableRecord
  2
CENTER
 70
     0
  3
____ _ ____ _ ____ _ ____ _ ____ _ ____ _ ____
 72
    65
 73
     4
 40
0.6
 49
0.375
 74
     0
 49
-0.075
 74
     0
 49
0.075
 74
     0
 49
-0.075
 74
     0
  0
LTYPE
  5
20A82
330
5
100
AcDbSymbolTableRecord
100
AcDbLinetypeTableRecord
  2
HIDDEN
 70
     0
  3
- - - - - - - - - - - - - - - - - - - -
 72
    65
 73
     2
 40
0.2
 49
0.1
 74
     0
 49
-0.1
 74
     0
  0
ENDTAB
  0
TABLE
  2
LAYER
  5
2
102
{ACAD_XDICTIONARY
360
422A
102
}
330
0
100
AcDbSymbolTable
 70
    13
  0
LAYER
  5
10
102
{ACAD_XDICTIONARY
360
1B2F5
102
}
330
2
100
AcDbSymbolTableRecord
100
AcDbLayerTableRecord
  2
0
 70
     0
 62
     7
  6
CONTINUOUS
370
    -3
390
318A
  0
LAYER
  5
3F8C
102
{ACAD_XDICTIONARY
360
1B2F7
102
}
330
2
100
AcDbSymbolTableRecord
100
AcDbLayerTableRecord
  2
1
 70
     0
 62
     4
  6
BYBLOCK
370
    50
390
318A
  0
LAYER
  5
3FA7
330
2
100
AcDbSymbolTableRecord
100
AcDbLayerTableRecord
  2
Defpoints
 70
     0
 62
     7
  6
CONTINUOUS
290
     0
370
    -3
390
318A
  0
LAYER
  5
9C4A
102
{ACAD_XDICTIONARY
360
1B2F9
102
}
330
2
100
AcDbSymbolTableRecord
100
AcDbLayerTableRecord
  2
2
 70
     0
 62
     7
  6
BYBLOCK
370
    25
390
318A
  0
LAYER
  5
9C4B
102
{ACAD_XDICTIONARY
360
1B2FB
102
}
330
2
100
AcDbSymbolTableRecord
100
AcDbLayerTableRecord
  2
4
 70
     0
 62
     2
  6
CENTER
370
    25
390
318A
  0
LAYER
  5
9C4D
102
{ACAD_XDICTIONARY
360
1B2FD
102
}
330
2
100
AcDbSymbolTableRecord
100
AcDbLayerTableRecord
  2
CUT
 70
     0
 62
     1
  6
BYBLOCK
370
    25
390
318A
  0
LAYER
  5
9C4E
102
{ACAD_XDICTIONARY
360
1B2FF
102
}
330
2
100
AcDbSymbolTableRecord
100
AcDbLayerTableRecord
  2
NOCUT
 70
     0
 62
     7
  6
BYBLOCK
370
    25
390
318A
  0
LAYER
  5
9C50
102
{ACAD_XDICTIONARY
360
1B303
102
}
330
2
100
AcDbSymbolTableRecord
100
AcDbLayerTableRecord
  2
SK1
 70
     0
 62
     4
  6
BYBLOCK
370
    50
390
318A
  0
LAYER
  5
9C51
102
{ACAD_XDICTIONARY
360
1B305
102
}
330
2
100
AcDbSymbolTableRecord
100
AcDbLayerTableRecord
  2
SK4
 70
     0
 62
     2
  6
CENTER
370
    25
390
318A
  0
LAYER
  5
13335
102
{ACAD_XDICTIONARY
360
1B307
102
}
330
2
100
AcDbSymbolTableRecord
100
AcDbLayerTableRecord
  2
INFTOTAL
 70
     0
 62
     9
  6
BYBLOCK
370
    18
390
318A
1001
AcAecLayerStandard
1000

1000

  0
LAYER
  5
1686E
102
{ACAD_XDICTIONARY
360
1B309
102
}
330
2
100
AcDbSymbolTableRecord
100
AcDbLayerTableRecord
  2
SK6
 70
     0
 62
     5
  6
BYBLOCK
370
    -3
390
318A
  0
LAYER
  5
20A83
102
{ACAD_XDICTIONARY
360
20A84
102
}
330
2
100
AcDbSymbolTableRecord
100
AcDbLayerTableRecord
  2
3
 70
     0
 62
     1
  6
HIDDEN
370
    -3
390
318A
1001
AcAecLayerStandard
1000

1000

1001
AcCmTransparency
1071
        0
  0
LAYER
  5
20A91
102
{ACAD_XDICTIONARY
360
20AA9
102
}
330
2
100
AcDbSymbolTableRecord
100
AcDbLayerTableRecord
  2
SK3
 70
     0
 62
     1
  6
HIDDEN
370
    -3
390
318A
1001
AcAecLayerStandard
1000

1000

1001
AcCmTransparency
1071
        0
  0
ENDTAB
  0
TABLE
  2
STYLE
  5
3
330
0
100
AcDbSymbolTable
 70
     1
  0
STYLE
  5
11
330
3
100
AcDbSymbolTableRecord
100
AcDbTextStyleTableRecord
  2
STANDARD
 70
     0
 40
3.5
 41
0.8
 50
0.0
 71
     0
 42
3.5
  3
monos.ttf
  4

1001
ACAD
1000
Monospac821 BT
1071
       49
  0
ENDTAB
  0
TABLE
  2
VIEW
  5
6
330
0
100
AcDbSymbolTable
 70
     0
  0
ENDTAB
  0
TABLE
  2
UCS
  5
7
330
0
100
AcDbSymbolTable
 70
     0
  0
ENDTAB
  0
TABLE
  2
APPID
  5
9
330
0
100
AcDbSymbolTable
 70
    12
  0
APPID
  5
23B
330
9
100
AcDbSymbolTableRecord
100
AcDbRegAppTableRecord
  2
ACAD
 70
     0
  0
APPID
  5
3395
330
9
100
AcDbSymbolTableRecord
100
AcDbRegAppTableRecord
  2
ACAD_EXEMPT_FROM_CAD_STANDARDS
 70
     0
  0
APPID
  5
4229
330
9
100
AcDbSymbolTableRecord
100
AcDbRegAppTableRecord
  2
AcAecLayerStandard
 70
     0
  0
APPID
  5
9A1B
330
9
100
AcDbSymbolTableRecord
100
AcDbRegAppTableRecord
  2
ACAD_PSEXT
 70
     0
  0
APPID
  5
1B313
330
9
100
AcDbSymbolTableRecord
100
AcDbRegAppTableRecord
  2
ACAD_NAV_VCDISPLAY
 70
     0
  0
APPID
  5
1B355
330
9
100
AcDbSymbolTableRecord
100
AcDbRegAppTableRecord
  2
ACAD_MLEADERVER
 70
     0
  0
APPID
  5
1EC7F
330
9
100
AcDbSymbolTableRecord
100
AcDbRegAppTableRecord
  2
ACAUTHENVIRON
 70
     0
  0
APPID
  5
1EC82
330
9
100
AcDbSymbolTableRecord
100
AcDbRegAppTableRecord
  2
AcDbDynamicBlockTrueName
 70
     0
  0
APPID
  5
1EC83
330
9
100
AcDbSymbolTableRecord
100
AcDbRegAppTableRecord
  2
AcDbDynamicBlockGUID
 70
     0
  0
APPID
  5
20A85
330
9
100
AcDbSymbolTableRecord
100
AcDbRegAppTableRecord
  2
AcCmTransparency
 70
     0
  0
APPID
  5
20B39
330
9
100
AcDbSymbolTableRecord
100
AcDbRegAppTableRecord
  2
ACAD_DSTYLE_DIMRADIAL_EXTENSION
 70
     0
  0
APPID
  5
20D18
330
9
100
AcDbSymbolTableRecord
100
AcDbRegAppTableRecord
  2
AcadAnnoMonitorAlertIconDisabled
 70
     0
  0
ENDTAB
  0
TABLE
  2
DIMSTYLE
  5
A
330
0
100
AcDbSymbolTable
 70
     1
100
AcDbDimStyleTable
 71
     1
340
243
  0
DIMSTYLE
105
243
102
{ACAD_REACTORS
330
20CD1
330
20CD6
330
20D0B
102
}
330
A
100
AcDbSymbolTableRecord
100
AcDbDimStyleTableRecord
  2
STANDARD
 70
     0
 41
4.57
 47
0.01
 48
0.01
 73
     0
 74
     0
 77
     1
 78
     8
140
3.5
271
     3
272
     3
284
     8
289
     0
340
11
  0
ENDTAB
  0
TABLE
  2
BLOCK_RECORD
  5
1
330
0
100
AcDbSymbolTable
 70
     6
  0
BLOCK_RECORD
  5
1F
102
{ACAD_XDICTIONARY
360
339C
102
}
330
1
100
AcDbSymbolTableRecord
100
AcDbBlockTableRecord
  2
*MODEL_SPACE
340
31A6
  0
BLOCK_RECORD
  5
1B
330
1
100
AcDbSymbolTableRecord
100
AcDbBlockTableRecord
  2
*PAPER_SPACE
340
31A7
  0
BLOCK_RECORD
  5
1B3D7
102
{ACAD_XDICTIONARY
360
1DE81
102
}
330
1
100
AcDbSymbolTableRecord
100
AcDbBlockTableRecord
  2
cero_point
340
0
310
28000000200000002000000001002000000000000010000001000000010000000000000000000000302821FF302821FF302821FF302821FF302821FF302821FF302821FF302821FF302821FF302821FF302821FF302821FF302821FF302821FF302821FF302821FF302821FF302821FF302821FF302821FF302821FF302821
310
FF302821FF302821FF302821FF302821FF302821FF302821FF302821FF302821FF302821FF302821FF302821FF302821FF302821FF302821FF302821FF302821FF302821FF302821FF302821FF302821FF302821FF302821FF302821FF302821FF302821FFFFFF00FFFFFF00FFFFFF00FF302821FF302821FF302821FF3028
310
21FF302821FF302821FF302821FF302821FF302821FF302821FF302821FF302821FF302821FF302821FF302821FF302821FF302821FF302821FF302821FF302821FF302821FF302821FF302821FF302821FFFFFF00FFFFFF00FFFFFF00FFFFFF00FFFFFF00FFFFFF00FFFFFF00FF302821FFFFFF00FFFFFF00FFFFFF00FF30
310
2821FF302821FF302821FF302821FF302821FF302821FF302821FF302821FF302821FF302821FF302821FF302821FF302821FF302821FF302821FF302821FF302821FF302821FF302821FFFFFF00FFFFFF00FFFFFF00FFFFFF00FFFFFF00FFFFFF00FFFFFF00FFFFFF00FFFFFF00FF302821FF302821FF302821FF302821FF
310
FFFF00FFFFFF00FF302821FF302821FF302821FF302821FF302821FF302821FF302821FF302821FF302821FF302821FF302821FF302821FF302821FF302821FF302821FF302821FFFFFF00FFFFFF00FFFFFF00FFFFFF00FFFFFF00FFFFFF00FFFFFF00FFFFFF00FFFFFF00FFFFFF00FF302821FF302821FF302821FF302821
310
FF302821FF302821FFFFFF00FFFFFF00FF302821FF302821FF302821FF302821FF302821FF302821FF302821FF302821FF302821FF302821FF302821FF302821FF302821FFFFFF00FFFFFF00FFFFFF00FFFFFF00FFFFFF00FFFFFF00FFFFFF00FFFFFF00FFFFFF00FFFFFF00FFFFFF00FF302821FF302821FF302821FF3028
310
21FF302821FF302821FF302821FF302821FFFFFF00FF302821FF302821FF302821FF302821FF302821FF302821FF302821FF302821FF302821FF302821FF302821FFFFFF00FFFFFF00FFFFFF00FFFFFF00FFFFFF00FFFFFF00FFFFFF00FFFFFF00FFFFFF00FFFFFF00FFFFFF00FFFFFF00FF302821FF302821FF302821FF30
310
2821FF302821FF302821FF302821FF302821FF302821FFFFFF00FF302821FF302821FF302821FF302821FF302821FF302821FF302821FF302821FF302821FFFFFF00FFFFFF00FFFFFF00FFFFFF00FFFFFF00FFFFFF00FFFFFF00FFFFFF00FFFFFF00FFFFFF00FFFFFF00FFFFFF00FFFFFF00FF302821FF302821FF302821FF
310
302821FF302821FF302821FF302821FF302821FF302821FF302821FFFFFF00FF302821FF302821FF302821FF302821FF302821FF302821FF302821FFFFFF00FFFFFF00FFFFFF00FFFFFF00FFFFFF00FFFFFF00FFFFFF00FFFFFF00FFFFFF00FFFFFF00FFFFFF00FFFFFF00FFFFFF00FFFFFF00FF302821FF302821FF302821
310
FF302821FF302821FF302821FF302821FF302821FF302821FF302821FFFFFF00FF302821FF302821FF302821FF302821FF302821FF302821FF302821FFFFFF00FFFFFF00FFFFFF00FFFFFF00FFFFFF00FFFFFF00FFFFFF00FFFFFF00FFFFFF00FFFFFF00FFFFFF00FFFFFF00FFFFFF00FFFFFF00FF302821FF302821FF3028
310
21FF302821FF302821FF302821FF302821FF302821FF302821FF302821FF302821FFFFFF00FF302821FF302821FF302821FF302821FF302821FFFFFF00FFFFFF00FFFFFF00FFFFFF00FFFFFF00FFFFFF00FFFFFF00FFFFFF00FFFFFF00FFFFFF00FFFFFF00FFFFFF00FFFFFF00FFFFFF00FFFFFF00FF302821FF302821FF30
310
2821FF302821FF302821FF302821FF302821FF302821FF302821FF302821FF302821FF302821FFFFFF00FF302821FF302821FF302821FF302821FFFFFF00FFFFFF00FFFFFF00FFFFFF00FFFFFF00FFFFFF00FFFFFF00FFFFFF00FFFFFF00FFFFFF00FFFFFF00FFFFFF00FFFFFF00FFFFFF00FFFFFF00FF302821FF302821FF
310
302821FF302821FF302821FF302821FF302821FF302821FF302821FF302821FF302821FF302821FFFFFF00FF302821FF302821FF302821FF302821FFFFFF00FFFFFF00FFFFFF00FFFFFF00FFFFFF00FFFFFF00FFFFFF00FFFFFF00FFFFFF00FFFFFF00FFFFFF00FFFFFF00FFFFFF00FFFFFF00FFFFFF00FF302821FF302821
310
FF302821FF302821FF302821FF302821FF302821FF302821FF302821FF302821FF302821FF302821FFFFFF00FF302821FF302821FF302821FF302821FFFFFF00FFFFFF00FFFFFF00FFFFFF00FFFFFF00FFFFFF00FFFFFF00FFFFFF00FFFFFF00FFFFFF00FFFFFF00FFFFFF00FFFFFF00FFFFFF00FFFFFF00FF302821FF3028
310
21FF302821FF302821FF302821FF302821FF302821FF302821FF302821FF302821FF302821FF302821FFFFFF00FF302821FF302821FF302821FFFFFF00FFFFFF00FFFFFF00FFFFFF00FFFFFF00FFFFFF00FFFFFF00FFFFFF00FFFFFF00FFFFFF00FFFFFF00FFFFFF00FFFFFF00FFFFFF00FFFFFF00FFFFFF00FF302821FF30
310
2821FF302821FF302821FF302821FF302821FF302821FF302821FF302821FF302821FF302821FF302821FF302821FFFFFF00FF302821FF302821FFFFFF00FFFFFF00FFFFFF00FFFFFF00FFFFFF00FFFFFF00FFFFFF00FFFFFF00FFFFFF00FFFFFF00FFFFFF00FFFFFF00FFFFFF00FFFFFF00FFFFFF00FFFFFF00FFFFFF00FF
310
FFFF00FFFFFF00FFFFFF00FFFFFF00FFFFFF00FFFFFF00FFFFFF00FFFFFF00FFFFFF00FFFFFF00FFFFFF00FFFFFF00FFFFFF00FF302821FF302821FFFFFF00FF302821FF302821FF302821FF302821FF302821FF302821FF302821FF302821FF302821FF302821FF302821FF302821FF302821FF302821FFFFFF00FFFFFF00
310
FFFFFF00FFFFFF00FFFFFF00FFFFFF00FFFFFF00FFFFFF00FFFFFF00FFFFFF00FFFFFF00FFFFFF00FFFFFF00FFFFFF00FFFFFF00FF302821FF302821FFFFFF00FF302821FF302821FF302821FF302821FF302821FF302821FF302821FF302821FF302821FF302821FF302821FF302821FF302821FF302821FFFFFF00FFFFFF
310
00FFFFFF00FFFFFF00FFFFFF00FFFFFF00FFFFFF00FFFFFF00FFFFFF00FFFFFF00FFFFFF00FFFFFF00FFFFFF00FFFFFF00FF302821FF302821FF302821FF302821FFFFFF00FF302821FF302821FF302821FF302821FF302821FF302821FF302821FF302821FF302821FF302821FF302821FF302821FF302821FFFFFF00FFFF
310
FF00FFFFFF00FFFFFF00FFFFFF00FFFFFF00FFFFFF00FFFFFF00FFFFFF00FFFFFF00FFFFFF00FFFFFF00FFFFFF00FFFFFF00FF302821FF302821FF302821FF302821FFFFFF00FF302821FF302821FF302821FF302821FF302821FF302821FF302821FF302821FF302821FF302821FF302821FF302821FF302821FFFFFF00FF
310
FFFF00FFFFFF00FFFFFF00FFFFFF00FFFFFF00FFFFFF00FFFFFF00FFFFFF00FFFFFF00FFFFFF00FFFFFF00FFFFFF00FFFFFF00FF302821FF302821FF302821FF302821FFFFFF00FF302821FF302821FF302821FF302821FF302821FF302821FF302821FF302821FF302821FF302821FF302821FF302821FF302821FFFFFF00
310
FFFFFF00FFFFFF00FFFFFF00FFFFFF00FFFFFF00FFFFFF00FFFFFF00FFFFFF00FFFFFF00FFFFFF00FFFFFF00FFFFFF00FFFFFF00FF302821FF302821FF302821FF302821FF302821FFFFFF00FF302821FF302821FF302821FF302821FF302821FF302821FF302821FF302821FF302821FF302821FF302821FF302821FFFFFF
310
00FFFFFF00FFFFFF00FFFFFF00FFFFFF00FFFFFF00FFFFFF00FFFFFF00FFFFFF00FFFFFF00FFFFFF00FFFFFF00FFFFFF00FFFFFF00FF302821FF302821FF302821FF302821FF302821FFFFFF00FF302821FF302821FF302821FF302821FF302821FF302821FF302821FF302821FF302821FF302821FF302821FF302821FFFF
310
FF00FFFFFF00FFFFFF00FFFFFF00FFFFFF00FFFFFF00FFFFFF00FFFFFF00FFFFFF00FFFFFF00FFFFFF00FFFFFF00FFFFFF00FF302821FF302821FF302821FF302821FF302821FF302821FF302821FFFFFF00FF302821FF302821FF302821FF302821FF302821FF302821FF302821FF302821FF302821FF302821FF302821FF
310
FFFF00FFFFFF00FFFFFF00FFFFFF00FFFFFF00FFFFFF00FFFFFF00FFFFFF00FFFFFF00FFFFFF00FFFFFF00FFFFFF00FFFFFF00FF302821FF302821FF302821FF302821FF302821FF302821FF302821FFFFFF00FF302821FF302821FF302821FF302821FF302821FF302821FF302821FF302821FF302821FF302821FF302821
310
FFFFFF00FFFFFF00FFFFFF00FFFFFF00FFFFFF00FFFFFF00FFFFFF00FFFFFF00FFFFFF00FFFFFF00FFFFFF00FFFFFF00FF302821FF302821FF302821FF302821FF302821FF302821FF302821FF302821FF302821FFFFFF00FF302821FF302821FF302821FF302821FF302821FF302821FF302821FF302821FF302821FF3028
310
21FFFFFF00FFFFFF00FFFFFF00FFFFFF00FFFFFF00FFFFFF00FFFFFF00FFFFFF00FFFFFF00FFFFFF00FFFFFF00FF302821FF302821FF302821FF302821FF302821FF302821FF302821FF302821FF302821FF302821FF302821FFFFFF00FF302821FF302821FF302821FF302821FF302821FF302821FF302821FF302821FF30
310
2821FFFFFF00FFFFFF00FFFFFF00FFFFFF00FFFFFF00FFFFFF00FFFFFF00FFFFFF00FFFFFF00FFFFFF00FF302821FF302821FF302821FF302821FF302821FF302821FF302821FF302821FF302821FF302821FF302821FF302821FF302821FFFFFF00FF302821FF302821FF302821FF302821FF302821FF302821FF302821FF
310
302821FFFFFF00FFFFFF00FFFFFF00FFFFFF00FFFFFF00FFFFFF00FFFFFF00FFFFFF00FFFFFF00FF302821FF302821FF302821FF302821FF302821FF302821FF302821FF302821FF302821FF302821FF302821FF302821FF302821FF302821FF302821FFFFFF00FFFFFF00FF302821FF302821FF302821FF302821FF302821
310
FF302821FFFFFF00FFFFFF00FFFFFF00FFFFFF00FFFFFF00FFFFFF00FFFFFF00FFFFFF00FF302821FF302821FF302821FF302821FF302821FF302821FF302821FF302821FF302821FF302821FF302821FF302821FF302821FF302821FF302821FF302821FF302821FF302821FFFFFF00FFFFFF00FFFFFF00FFFFFF00FFFFFF
310
00FF302821FFFFFF00FFFFFF00FFFFFF00FFFFFF00FFFFFF00FFFFFF00FF302821FF302821FF302821FF302821FF302821FF302821FF302821FF302821FF302821FF302821FF302821FF302821FF302821FF302821FF302821FF302821FF302821FF302821FF302821FF302821FF302821FF302821FF302821FF302821FF30
310
2821FFFFFF00FFFFFF00FFFFFF00FF302821FF302821FF302821FF302821FF302821FF302821FF302821FF302821FF302821FF302821FF302821FF302821FF302821FF302821FF302821FF302821FF302821FF302821FF302821FF302821FF302821FF302821FF302821FF302821FF302821FF302821FF302821FF302821FF
310
302821FF302821FF302821FF302821FF302821FF302821FF302821FF302821FF302821FF302821FF302821FF302821FF302821FF302821FF302821FF302821FF302821FF302821FF
102
{BLKREFS
331
20CD9
102
}
  0
BLOCK_RECORD
  5
20B00
330
1
100
AcDbSymbolTableRecord
100
AcDbBlockTableRecord
  2
CUT
340
0
310
2800000020000000200000000100080000000000000400000000000000000000000000000000000000000000000080000080000000808000800000008000800080800000C0C0C000C0DCC000F0CAA6000020400000206000002080000020A0000020C0000020E00000400000004020000040400000406000004080000040A0
310
000040C0000040E00000600000006020000060400000606000006080000060A0000060C0000060E00000800000008020000080400000806000008080000080A0000080C0000080E00000A0000000A0200000A0400000A0600000A0800000A0A00000A0C00000A0E00000C0000000C0200000C0400000C0600000C0800000C0
310
A00000C0C00000C0E00000E0000000E0200000E0400000E0600000E0800000E0A00000E0C00000E0E00040000000400020004000400040006000400080004000A0004000C0004000E00040200000402020004020400040206000402080004020A0004020C0004020E000404000004040200040404000404060004040800040
310
40A0004040C0004040E00040600000406020004060400040606000406080004060A0004060C0004060E00040800000408020004080400040806000408080004080A0004080C0004080E00040A0000040A0200040A0400040A0600040A0800040A0A00040A0C00040A0E00040C0000040C0200040C0400040C0600040C08000
310
40C0A00040C0C00040C0E00040E0000040E0200040E0400040E0600040E0800040E0A00040E0C00040E0E00080000000800020008000400080006000800080008000A0008000C0008000E00080200000802020008020400080206000802080008020A0008020C0008020E00080400000804020008040400080406000804080
310
008040A0008040C0008040E00080600000806020008060400080606000806080008060A0008060C0008060E00080800000808020008080400080806000808080008080A0008080C0008080E00080A0000080A0200080A0400080A0600080A0800080A0A00080A0C00080A0E00080C0000080C0200080C0400080C0600080C0
310
800080C0A00080C0C00080C0E00080E0000080E0200080E0400080E0600080E0800080E0A00080E0C00080E0E000C0000000C0002000C0004000C0006000C0008000C000A000C000C000C000E000C0200000C0202000C0204000C0206000C0208000C020A000C020C000C020E000C0400000C0402000C0404000C0406000C0
310
408000C040A000C040C000C040E000C0600000C0602000C0604000C0606000C0608000C060A000C060C000C060E000C0800000C0802000C0804000C0806000C0808000C080A000C080C000C080E000C0A00000C0A02000C0A04000C0A06000C0A08000C0A0A000C0A0C000C0A0E000C0C00000C0C02000C0C04000C0C06000
310
C0C08000C0C0A000F0FBFF00A4A0A000808080000000FF0000FF000000FFFF00FF000000FF00FF00FFFF0000FFFFFF00000000000000000000000000000000000000000000000000000000000000000000000000000000000000F9F9F9F9F9F9F9F9F9F9F9F90000000000000000000000000000000000000000F900000000
310
000000000000F90000000000000000000000000000000000000000F900000000000000000000F90000000000000000000000000000000000000000F900000000000000000000F90000000000000000000000000000000000000000F900000000000000000000F90000000000000000000000000000000000000000F9000000
310
00000000000000F90000000000000000000000000000000000000000F900000000000000000000F90000000000000000000000000000000000000000F900000000000000000000F90000000000000000000000000000000000000000F900000000000000000000F90000000000000000000000000000000000000000F90000
310
0000000000000000F90000000000000000000000000000000000000000F900000000000000000000F90000000000000000000000000000000000000000F900000000000000000000F90000000000000000000000000000000000000000F900000000000000000000F90000000000000000000000000000000000000000F900
310
000000000000000000F90000000000000000000000000000000000000000F900000000000000000000F90000000000000000000000000000000000000000F900000000000000000000F90000000000000000000000000000000000000000F900000000000000000000F90000000000000000000000000000000000000000F9
310
00000000000000000000F90000000000000000000000000000000000000000F900000000000000000000F90000000000000000000000000000000000000000F900000000000000000000F90000000000000000000000000000000000000000F900000000000000000000F90000000000000000000000000000000000000000
310
F900000000000000000000F90000000000000000000000000000000000000000F900000000000000000000F90000000000000000000000000000000000000000F900000000000000000000F90000000000000000000000000000000000000000F900000000000000000000F900000000000000000000000000000000000000
310
00F900000000000000000000F90000000000000000000000000000000000000000F900000000000000000000F90000000000000000000000000000000000000000F900000000000000000000F9000000000000000000000000000000000000000000F9000000000000000000F9000000000000000000000000000000000000
310
000000F9F9F9F9F9F9F9F9F9F900000000000000000000000000000000000000000000000000000000000000000000000000000000000000
102
{BLKREFS
331
20CD4
331
20D03
102
}
1001
ACAD
1000
DesignCenter Data
1002
{
1070
     1
1070
     4
1002
}
  0
BLOCK_RECORD
  5
20B0B
330
1
100
AcDbSymbolTableRecord
100
AcDbBlockTableRecord
  2
NOCUT
340
0
310
2800000020000000200000000100080000000000000400000000000000000000000000000000000000000000000080000080000000808000800000008000800080800000C0C0C000C0DCC000F0CAA6000020400000206000002080000020A0000020C0000020E00000400000004020000040400000406000004080000040A0
310
000040C0000040E00000600000006020000060400000606000006080000060A0000060C0000060E00000800000008020000080400000806000008080000080A0000080C0000080E00000A0000000A0200000A0400000A0600000A0800000A0A00000A0C00000A0E00000C0000000C0200000C0400000C0600000C0800000C0
310
A00000C0C00000C0E00000E0000000E0200000E0400000E0600000E0800000E0A00000E0C00000E0E00040000000400020004000400040006000400080004000A0004000C0004000E00040200000402020004020400040206000402080004020A0004020C0004020E000404000004040200040404000404060004040800040
310
40A0004040C0004040E00040600000406020004060400040606000406080004060A0004060C0004060E00040800000408020004080400040806000408080004080A0004080C0004080E00040A0000040A0200040A0400040A0600040A0800040A0A00040A0C00040A0E00040C0000040C0200040C0400040C0600040C08000
310
40C0A00040C0C00040C0E00040E0000040E0200040E0400040E0600040E0800040E0A00040E0C00040E0E00080000000800020008000400080006000800080008000A0008000C0008000E00080200000802020008020400080206000802080008020A0008020C0008020E00080400000804020008040400080406000804080
310
008040A0008040C0008040E00080600000806020008060400080606000806080008060A0008060C0008060E00080800000808020008080400080806000808080008080A0008080C0008080E00080A0000080A0200080A0400080A0600080A0800080A0A00080A0C00080A0E00080C0000080C0200080C0400080C0600080C0
310
800080C0A00080C0C00080C0E00080E0000080E0200080E0400080E0600080E0800080E0A00080E0C00080E0E000C0000000C0002000C0004000C0006000C0008000C000A000C000C000C000E000C0200000C0202000C0204000C0206000C0208000C020A000C020C000C020E000C0400000C0402000C0404000C0406000C0
310
408000C040A000C040C000C040E000C0600000C0602000C0604000C0606000C0608000C060A000C060C000C060E000C0800000C0802000C0804000C0806000C0808000C080A000C080C000C080E000C0A00000C0A02000C0A04000C0A06000C0A08000C0A0A000C0A0C000C0A0E000C0C00000C0C02000C0C04000C0C06000
310
C0C08000C0C0A000F0FBFF00A4A0A000808080000000FF0000FF000000FFFF00FF000000FF00FF00FFFF0000FFFFFF00000000000000000000000000000000000000000000000000000000000000000000000000000000FFFFFFFFFFFFFFFFFFFFFFFFFFFFFF0000000000000000000000000000000000FF00000000000000
310
000000000000FF0000000000000000000000000000000000FF00000000000000000000000000FF0000000000000000000000000000000000FF00000000000000000000000000FF0000000000000000000000000000000000FF00000000000000000000000000FF0000000000000000000000000000000000FF000000000000
310
00000000000000FF0000000000000000000000000000000000FF00000000000000000000000000FF0000000000000000000000000000000000FF00000000000000000000000000FF0000000000000000000000000000000000FF0000000000000000000000000000FF00000000000000000000000000000000FF0000000000
310
000000000000000000FF00000000000000000000000000000000FF0000000000000000000000000000FF00000000000000000000000000000000FF0000000000000000000000000000FF00000000000000000000000000000000FF000000000000000000000000000000FF000000000000000000000000000000FF00000000
310
0000000000000000000000FF000000000000000000000000000000FF000000000000000000000000000000FF000000000000000000000000000000FF000000000000000000000000000000FF000000000000000000000000000000FF000000000000000000000000000000FF000000000000000000000000000000FF000000
310
000000000000000000000000FF000000000000000000000000000000FF000000000000000000000000000000FF000000000000000000000000000000FF000000000000000000000000000000FF000000000000000000000000000000FF000000000000000000000000000000FF000000000000000000000000000000FF0000
310
0000000000000000000000000000FF000000000000000000000000000000FF000000000000000000000000000000FF00000000000000000000000000000000FF0000000000000000000000000000FF0000000000000000000000000000000000FF00000000000000000000000000FF00000000000000000000000000000000
310
00FF00000000000000000000000000FF0000000000000000000000000000000000FF000000000000000000000000FF00000000000000000000000000000000000000FF00000000000000000000FF000000000000000000000000000000000000000000FF0000000000000000FF000000000000000000000000000000000000
310
0000000000FFFFFFFFFFFFFFFFFF000000000000000000000000000000000000000000000000000000000000000000000000000000000000
102
{BLKREFS
331
20CD5
102
}
1001
ACAD
1000
DesignCenter Data
1002
{
1070
     1
1070
     4
1002
}
  0
BLOCK_RECORD
  5
20CDB
330
1
100
AcDbSymbolTableRecord
100
AcDbBlockTableRecord
  2
*D3
340
0
  0
BLOCK_RECORD
  5
20CE8
330
1
100
AcDbSymbolTableRecord
100
AcDbBlockTableRecord
  2
*D4
340
0
  0
BLOCK_RECORD
  5
20D0C
330
1
100
AcDbSymbolTableRecord
100
AcDbBlockTableRecord
  2
*D5
340
0
  0
ENDTAB
  0
ENDSEC
  0
SECTION
  2
BLOCKS
  0
BLOCK
  5
20
330
1F
100
AcDbEntity
  8
0
100
AcDbBlockBegin
  2
*MODEL_SPACE
 70
     0
 10
0.0
 20
0.0
 30
0.0
  3
*MODEL_SPACE
  1

  0
ENDBLK
  5
21
330
1F
100
AcDbEntity
  8
0
100
AcDbBlockEnd
  0
BLOCK
  5
1C
330
1B
100
AcDbEntity
 67
     1
  8
0
100
AcDbBlockBegin
  2
*PAPER_SPACE
 70
     0
 10
0.0
 20
0.0
 30
0.0
  3
*PAPER_SPACE
  1

  0
ENDBLK
  5
1D
330
1B
100
AcDbEntity
 67
     1
  8
0
100
AcDbBlockEnd
  0
BLOCK
  5
1B3D8
330
1B3D7
100
AcDbEntity
  8
0
100
AcDbBlockBegin
  2
cero_point
 70
     0
 10
0.0
 20
0.0
 30
0.0
  3
cero_point
  1

  0
HATCH
  5
1B3DA
330
1B3D7
100
AcDbEntity
  8
1
  6
ByBlock
370
    50
100
AcDbHatch
 10
0.0
 20
0.0
 30
0.0
210
0.0
220
0.0
230
1.0
  2
SOLID
 70
     1
 71
     0
 91
        2
 92
        7
 72
     1
 73
     1
 93
        3
 10
-0.0000000000001137
 20
0.0
 42
0.0
 10
-2.950972054112752
 20
0.0
 42
0.4142135623730968
 10
-0.0000000000001137
 20
-2.950972054112583
 42
0.0
 97
        0
 92
        7
 72
     1
 73
     1
 93
        3
 10
-0.0000000000001137
 20
2.950972054112638
 42
0.0
 10
-0.0000000000001137
 20
0.0
 42
0.0
 10
2.950972054112526
 20
0.0
 42
0.4142135623730966
 97
        0
 75
     0
 76
     1
 47
0.1190009775223266
 98
        2
 10
-0.7445530588121301
 20
-0.9212244733764125
 10
1.279464601852737
 20
1.696796923046345
  0
LWPOLYLINE
  5
1B3DB
330
1B3D7
100
AcDbEntity
  8
1
  6
ByBlock
370
    50
100
AcDbPolyline
 90
        3
 70
     1
 43
0.0
 10
-0.0000000000001137
 20
0.0
 10
2.950972054112526
 20
0.0
 42
0.4142135623730966
 10
-0.0000000000001137
 20
2.950972054112638
  0
LINE
  5
1B3DC
330
1B3D7
100
AcDbEntity
  8
1
  6
ByBlock
370
    50
100
AcDbLine
 10
-0.0000000000001137
 20
-2.950972054112583
 30
0.0
 11
-0.0000000000001137
 21
2.950972054112638
 31
0.0
  0
LWPOLYLINE
  5
1B3DD
330
1B3D7
100
AcDbEntity
  8
1
  6
ByBlock
370
    50
100
AcDbPolyline
 90
        3
 70
     1
 43
0.0
 10
-0.0000000000001137
 20
-2.950972054112583
 10
-0.0000000000001137
 20
0.0
 10
-2.950972054112752
 20
0.0
 42
0.4142135623730966
  0
LINE
  5
1B3DE
330
1B3D7
100
AcDbEntity
  8
1
  6
ByBlock
370
    50
100
AcDbLine
 10
2.950972054112638
 20
0.0
 30
0.0
 11
-2.950972054112638
 21
0.0
 31
0.0
  0
CIRCLE
  5
1B3DF
330
1B3D7
100
AcDbEntity
  8
1
  6
ByBlock
370
    50
100
AcDbCircle
 10
-0.0000000000001137
 20
0.0
 30
0.0
 40
2.950972054112601
  0
ENDBLK
  5
1B3D9
330
1B3D7
100
AcDbEntity
  8
0
100
AcDbBlockEnd
  0
BLOCK
  5
20B01
330
20B00
100
AcDbEntity
  8
0
100
AcDbBlockBegin
  2
CUT
 70
     0
 10
0.0
 20
0.0
 30
0.0
  3
CUT
  1

  0
LINE
  5
20B02
330
20B00
100
AcDbEntity
  8
CUT
100
AcDbLine
 10
114.7605125092427
 20
101.7320894126748
 30
0.0
 11
115.9296388411481
 21
101.7320894126748
 31
0.0
  0
ARC
  5
20B03
330
20B00
100
AcDbEntity
  8
CUT
100
AcDbCircle
 10
114.7605125092427
 20
101.5320894126748
 30
0.0
 40
0.2
100
AcDbArc
 50
90.00000000000083
 51
181.7724180123214
  0
LINE
  5
20B04
330
20B00
100
AcDbEntity
  8
CUT
100
AcDbLine
 10
114.6248051751954
 20
99.45131241267482
 30
0.0
 11
114.5606081961266
 21
101.5259034933752
 31
0.0
  0
ARC
  5
20B05
330
20B00
100
AcDbEntity
  8
CUT
100
AcDbCircle
 10
66.41898368450107
 20
98.32205867128998
 30
0.0
 40
48.21904005132686
100
AcDbArc
 50
359.5260435204152
 51
1.341945501126339
  0
LINE
  5
20B06
330
20B00
100
AcDbEntity
  8
CUT
100
AcDbLine
 10
116.0653461751954
 20
99.45131241267482
 30
0.0
 11
116.1295431542642
 21
101.5259034933752
 31
0.0
  0
ARC
  5
20B07
330
20B00
100
AcDbEntity
  8
CUT
100
AcDbCircle
 10
115.9296388411481
 20
101.5320894126748
 30
0.0
 40
0.2
100
AcDbArc
 50
358.2275819876786
 51
90.0
  0
ARC
  5
20B08
330
20B00
100
AcDbEntity
  8
CUT
100
AcDbCircle
 10
164.1444686927286
 20
98.32460441118172
 30
0.0
 40
48.09231621019463
100
AcDbArc
 50
178.6575515614424
 51
180.4756886448492
  0
LINE
  5
20B09
330
20B00
100
AcDbEntity
  8
CUT
100
AcDbLine
 10
114.636373987286
 20
97.92319044698151
 30
0.0
 11
116.0538099442576
 21
97.9253305709863
 31
0.0
  0
ENDBLK
  5
20B0A
330
20B00
100
AcDbEntity
  8
0
100
AcDbBlockEnd
  0
BLOCK
  5
20B0C
330
20B0B
100
AcDbEntity
  8
0
100
AcDbBlockBegin
  2
NOCUT
 70
     0
 10
0.0
 20
0.0
 30
0.0
  3
NOCUT
  1

  0
LINE
  5
20B0D
330
20B0B
100
AcDbEntity
  8
NOCUT
100
AcDbLine
 10
120.7222782508783
 20
96.20392094801388
 30
0.0
 11
120.7222782508783
 21
95.42636194801387
 31
0.0
  0
LINE
  5
20B0E
330
20B0B
100
AcDbEntity
  8
NOCUT
100
AcDbLine
 10
118.1138552508784
 20
95.42636194801387
 30
0.0
 11
120.7222782508783
 21
95.42636194801387
 31
0.0
  0
LINE
  5
20B0F
330
20B0B
100
AcDbEntity
  8
NOCUT
100
AcDbLine
 10
121.0077016615567
 20
97.82263584397767
 30
0.0
 11
120.7222782508783
 21
96.20392094801388
 31
0.0
  0
LINE
  5
20B10
330
20B0B
100
AcDbEntity
  8
NOCUT
100
AcDbLine
 10
120.9945072508783
 20
98.52565594801388
 30
0.0
 11
120.9359472508783
 21
98.19354194801388
 31
0.0
  0
LINE
  5
20B11
330
20B0B
100
AcDbEntity
  8
NOCUT
100
AcDbLine
 10
120.9359472508783
 20
98.19354194801388
 30
0.0
 11
120.9315802508784
 21
98.16877494801389
 31
0.0
  0
LINE
  5
20B12
330
20B0B
100
AcDbEntity
  8
NOCUT
100
AcDbLine
 10
121.1733612508783
 20
99.53998194801386
 30
0.0
 11
120.9945072508783
 21
98.52565594801388
 31
0.0
  0
LINE
  5
20B13
330
20B0B
100
AcDbEntity
  8
NOCUT
100
AcDbLine
 10
120.9403142508783
 20
98.14400894801384
 30
0.0
 11
120.9921472508783
 21
97.99702794801383
 31
0.0
  0
LINE
  5
20B14
330
20B0B
100
AcDbEntity
  8
NOCUT
100
AcDbLine
 10
120.9315802508784
 20
98.16877494801389
 30
0.0
 11
120.9403142508783
 21
98.14400894801384
 31
0.0
  0
LINE
  5
20B15
330
20B0B
100
AcDbEntity
  8
NOCUT
100
AcDbLine
 10
118.1138557444884
 20
99.04035384619392
 30
0.0
 11
118.1138554895298
 21
95.42636194801387
 31
0.0
  0
LINE
  5
20B16
330
20B0B
100
AcDbEntity
  8
NOCUT
100
AcDbLine
 10
121.230099596068
 20
99.86176353798228
 30
0.0
 11
121.1733612508783
 21
99.53998194801386
 31
0.0
  0
LINE
  5
20B17
330
20B0B
100
AcDbEntity
  8
NOCUT
100
AcDbLine
 10
118.6490552508784
 20
99.9684355250833
 30
0.0
 11
118.6490552508784
 21
99.5697765250833
 31
0.0
  0
ARC
  5
20B18
330
20B0B
100
AcDbEntity
  8
NOCUT
100
AcDbCircle
 10
118.3638642508784
 20
99.57563152508331
 30
0.0
 40
0.285193
100
AcDbArc
 50
269.9983320000006
 51
359.9895600000006
  0
ARC
  5
20B19
330
20B0B
100
AcDbEntity
  8
NOCUT
100
AcDbCircle
 10
118.3638557301474
 20
99.04043852520429
 30
0.0
 40
0.25
100
AcDbArc
 50
89.99994999999984
 51
180.0194069999998
  0
ARC
  5
20B1A
330
20B0B
100
AcDbEntity
  8
NOCUT
100
AcDbCircle
 10
118.9841252508783
 20
100.4593985250833
 30
0.0
 40
0.19449
100
AcDbArc
 50
313.469916999999
 51
0.5569279999999579
  0
ARC
  5
20B1B
330
20B0B
100
AcDbEntity
  8
NOCUT
100
AcDbCircle
 10
82.66967045261788
 20
148.6838936008581
 30
0.0
 40
60.56164666215019
100
AcDbArc
 50
306.4481671370501
 51
307.001612742815
  0
ARC
  5
20B1C
330
20B0B
100
AcDbEntity
  8
NOCUT
100
AcDbCircle
 10
120.7904902508784
 20
100.4593985250833
 30
0.0
 40
0.19449
100
AcDbArc
 50
179.4432120000001
 51
226.5293019999992
  0
ARC
  5
20B1D
330
20B0B
100
AcDbEntity
  8
NOCUT
100
AcDbCircle
 10
149.6157675961089
 20
136.1022832627545
 30
0.0
 40
46.033915950418
100
AcDbArc
 50
231.0176614581988
 51
231.9299019619729
  0
LINE
  5
20B1E
330
20B0B
100
AcDbEntity
  8
NOCUT
100
AcDbLine
 10
120.9921472508783
 20
97.99702794801383
 30
0.0
 11
121.0077016615567
 21
97.82263584397767
 31
0.0
  0
LINE
  5
20B1F
330
20B0B
100
AcDbEntity
  8
NOCUT
100
AcDbLine
 10
119.178606062969
 20
100.4612889823206
 30
0.0
 11
120.5960094341691
 21
100.4612885071143
 31
0.0
  0
ENDBLK
  5
20B20
330
20B0B
100
AcDbEntity
  8
0
100
AcDbBlockEnd
  0
BLOCK
  5
20CDC
330
20CDB
100
AcDbEntity
  8
0
100
AcDbBlockBegin
  2
*D3
 70
     1
 10
0.0
 20
0.0
 30
0.0
  3
*D3
  1

  0
LINE
  5
20E09
330
20CDB
100
AcDbEntity
  8
2
 62
     0
370
    -2
100
AcDbLine
 10
2.576593035309543
 20
8.763194854758875
 30
0.0
 11
2.576593035309543
 21
18.85231915951778
 31
0.0
  0
LINE
  5
20E0A
330
20CDB
100
AcDbEntity
  8
2
 62
     0
370
    -2
100
AcDbLine
 10
0.9962048519774956
 20
8.763194854758861
 30
0.0
 11
0.9962048519774963
 21
18.85231915951778
 31
0.0
  0
LINE
  5
20E0B
330
20CDB
100
AcDbEntity
  8
2
 62
     0
370
    -2
100
AcDbLine
 10
7.146593035309543
 20
18.67231915951778
 30
0.0
 11
11.71659303530954
 21
18.67231915951778
 31
0.0
  0
LINE
  5
20E0C
330
20CDB
100
AcDbEntity
  8
2
 62
     0
370
    -2
100
AcDbLine
 10
-3.573795148022504
 20
18.67231915951778
 30
0.0
 11
-17.30229128294874
 21
18.67231915951778
 31
0.0
  0
LINE
  5
20E0D
330
20CDB
100
AcDbEntity
  8
2
 62
     0
370
    -2
100
AcDbLine
 10
2.576593035309543
 20
18.67231915951778
 30
0.0
 11
0.9962048519774961
 21
18.67231915951778
 31
0.0
  0
SOLID
  5
20E0E
330
20CDB
100
AcDbEntity
  8
2
 62
     0
100
AcDbTrace
 10
7.146593035309543
 20
19.43398582618445
 30
0.0
 11
7.146593035309543
 21
17.91065249285111
 31
0.0
 12
2.576593035309543
 22
18.67231915951778
 32
0.0
 13
2.576593035309543
 23
18.67231915951778
 33
0.0
  0
SOLID
  5
20E0F
330
20CDB
100
AcDbEntity
  8
2
 62
     0
100
AcDbTrace
 10
-3.573795148022504
 20
19.43398582618445
 30
0.0
 11
-3.573795148022504
 21
17.91065249285111
 31
0.0
 12
0.9962048519774961
 22
18.67231915951778
 32
0.0
 13
0.9962048519774961
 23
18.67231915951778
 33
0.0
  0
MTEXT
  5
20E10
330
20CDB
100
AcDbEntity
  8
2
 62
     0
100
AcDbMText
 10
-12.72304321548563
 20
20.57380896977779
 30
0.0
 40
3.5
 41
0.0
 71
     5
 72
     1
  1
\A1;1.57
 73
     1
 44
1.0
1001
ACAD
1000
MTEXTBEGIN
1070
    73
1070
     1
1070
    44
1040
1.0
1070
    74
1070
     0
1000
MTEXTEND
  0
POINT
  5
20E11
330
20CDB
100
AcDbEntity
  8
Defpoints
 62
     0
100
AcDbPoint
 10
2.576593035309543
 20
8.700694854758875
 30
0.0
  0
POINT
  5
20E12
330
20CDB
100
AcDbEntity
  8
Defpoints
 62
     0
100
AcDbPoint
 10
0.9962048519774956
 20
8.700694854758861
 30
0.0
  0
POINT
  5
20E13
330
20CDB
100
AcDbEntity
  8
Defpoints
 62
     0
100
AcDbPoint
 10
0.9962048519774961
 20
18.67231915951778
 30
0.0
  0
ENDBLK
  5
20CDD
330
20CDB
100
AcDbEntity
  8
0
100
AcDbBlockEnd
  0
BLOCK
  5
20CE9
330
20CE8
100
AcDbEntity
  8
0
100
AcDbBlockBegin
  2
*D4
 70
     1
 10
0.0
 20
0.0
 30
0.0
  3
*D4
  1

  0
LINE
  5
20D62
330
20CE8
100
AcDbEntity
  8
2
 62
     0
370
    -2
100
AcDbLine
 10
6.25589008009633
 20
11.48312898188886
 30
0.0
 11
24.75871389012155
 21
24.71994621871522
 31
0.0
  0
SOLID
  5
20D63
330
20CE8
100
AcDbEntity
  8
2
 62
     0
100
AcDbTrace
 10
5.812725655883312
 20
12.10259762857169
 30
0.0
 11
6.699054504309349
 21
10.86366033520603
 31
0.0
 12
2.53907819999936
 22
8.824142436610753
 32
0.0
 13
2.53907819999936
 23
8.824142436610753
 33
0.0
  0
MTEXT
  5
20D64
330
20CE8
100
AcDbEntity
  8
2
 62
     0
100
AcDbMText
 10
19.87201563526913
 20
23.56200317063011
 30
0.0
 40
3.5
 41
0.0
 71
     5
 72
     1
  1
\A1;R0.2
 11
0.813306757132816
 21
0.5818351302577928
 31
0.0
 73
     1
 44
1.0
1001
ACAD
1000
MTEXTBEGIN
1070
    73
1070
     1
1070
    44
1040
1.0
1070
    74
1070
     0
1000
MTEXTEND
  0
LINE
  5
20D65
330
20CE8
100
AcDbEntity
  8
2
 62
     0
370
    -2
100
AcDbLine
 10
2.285229420707751
 20
8.706925931269282
 30
0.0
 11
2.46522942070775
 21
8.706925931269282
 31
0.0
  0
LINE
  5
20D66
330
20CE8
100
AcDbEntity
  8
2
 62
     0
370
    -2
100
AcDbLine
 10
2.375229420707751
 20
8.616925931269282
 30
0.0
 11
2.37522942070775
 21
8.796925931269283
 31
0.0
  0
POINT
  5
20D67
330
20CE8
100
AcDbEntity
  8
Defpoints
 62
     0
100
AcDbPoint
 10
2.53907819999936
 20
8.824142436610753
 30
0.0
  0
POINT
  5
20D68
330
20CE8
100
AcDbEntity
  8
Defpoints
 62
     0
100
AcDbPoint
 10
2.375229420707751
 20
8.706925931269282
 30
0.0
  0
ENDBLK
  5
20CEA
330
20CE8
100
AcDbEntity
  8
0
100
AcDbBlockEnd
  0
BLOCK
  5
20D0D
330
20D0C
100
AcDbEntity
  8
0
100
AcDbBlockBegin
  2
*D5
 70
     1
 10
0.0
 20
0.0
 30
0.0
  3
*D5
  1

  0
LINE
  5
20D4F
330
20D0C
100
AcDbEntity
  8
2
 62
     0
370
    -2
100
AcDbLine
 10
2.437729420707795
 20
8.90838593126929
 30
0.0
 11
13.99615333182299
 21
8.908385931269286
 31
0.0
  0
LINE
  5
20D50
330
20D0C
100
AcDbEntity
  8
2
 62
     0
370
    -2
100
AcDbLine
 10
2.437729420707681
 20
-8.90838592833059
 30
0.0
 11
13.99615333182299
 21
-8.908385928330591
 31
0.0
  0
LINE
  5
20D51
330
20D0C
100
AcDbEntity
  8
2
 62
     0
370
    -2
100
AcDbLine
 10
13.81615333182299
 20
4.338385931269287
 30
0.0
 11
13.81615333182299
 21
-4.338385928330591
 31
0.0
  0
SOLID
  5
20D52
330
20D0C
100
AcDbEntity
  8
2
 62
     0
100
AcDbTrace
 10
13.05448666515632
 20
4.338385931269287
 30
0.0
 11
14.57781999848966
 21
4.338385931269286
 31
0.0
 12
13.81615333182299
 22
8.908385931269286
 32
0.0
 13
13.81615333182299
 23
8.908385931269286
 33
0.0
  0
SOLID
  5
20D53
330
20D0C
100
AcDbEntity
  8
2
 62
     0
100
AcDbTrace
 10
13.05448666515632
 20
-4.338385928330591
 30
0.0
 11
14.57781999848965
 21
-4.338385928330593
 31
0.0
 12
13.81615333182299
 22
-8.908385928330591
 32
0.0
 13
13.81615333182299
 23
-8.908385928330591
 33
0.0
  0
MTEXT
  5
20D54
330
20D0C
100
AcDbEntity
  8
2
 62
     0
100
AcDbMText
 10
11.86301208094456
 20
0.0000000014693494
 30
0.0
 40
3.5
 41
0.0
 71
     5
 72
     1
  1
\A1;%%C17.817
 11
0.0000000000000001
 21
1.0
 31
0.0
 73
     1
 44
1.0
1001
ACAD
1000
MTEXTBEGIN
1070
    73
1070
     1
1070
    44
1040
1.0
1070
    74
1070
     0
1000
MTEXTEND
  0
POINT
  5
20D55
330
20D0C
100
AcDbEntity
  8
Defpoints
 62
     0
100
AcDbPoint
 10
2.375229420707795
 20
8.90838593126929
 30
0.0
  0
POINT
  5
20D56
330
20D0C
100
AcDbEntity
  8
Defpoints
 62
     0
100
AcDbPoint
 10
2.375229420707681
 20
-8.90838592833059
 30
0.0
  0
POINT
  5
20D57
330
20D0C
100
AcDbEntity
  8
Defpoints
 62
     0
100
AcDbPoint
 10
13.81615333182299
 20
-8.908385928330591
 30
0.0
  0
ENDBLK
  5
20D0E
330
20D0C
100
AcDbEntity
  8
0
100
AcDbBlockEnd
  0
ENDSEC
  0
SECTION
  2
ENTITIES
  0
LINE
  5
1FB3A
330
1F
100
AcDbEntity
  8
INFTOTAL
  6
ByBlock
370
    18
100
AcDbLine
 10
-35.62296106122631
 20
34.63948195443544
 30
0.0
 11
-35.62296106122631
 21
-14.29306489676555
 31
0.0
  0
LINE
  5
208E9
330
1F
100
AcDbEntity
  8
INFTOTAL
  6
ByBlock
370
    18
100
AcDbLine
 10
-35.62296106122631
 20
34.63948195443544
 30
0.0
 11
13.30958578997467
 21
34.63948195443544
 31
0.0
  0
LINE
  5
208EA
330
1F
100
AcDbEntity
  8
INFTOTAL
  6
ByBlock
370
    18
100
AcDbLine
 10
29.66547855166118
 20
-30.97160530217986
 30
0.0
 11
29.66547855166118
 21
17.96094154902113
 31
0.0
  0
LINE
  5
208EB
330
1F
100
AcDbEntity
  8
INFTOTAL
  6
ByBlock
370
    18
100
AcDbLine
 10
29.66547855166118
 20
-30.97160530217986
 30
0.0
 11
-19.26706829953991
 21
-30.97160530217986
 31
0.0
  0
LINE
  5
20C0F
330
1F
100
AcDbEntity
  8
3
100
AcDbLine
 10
1.601024013693518
 20
0.2709113218693631
 30
0.0
 11
1.84473521219354
 21
0.2709113218693631
 31
0.0
  0
ARC
  5
20C10
330
1F
100
AcDbEntity
  8
3
100
AcDbCircle
 10
1.601024013693518
 20
0.0000000014693597
 30
0.0
 40
0.2709123277
100
AcDbArc
 50
90.0
 51
270.0
  0
LINE
  5
20C11
330
1F
100
AcDbEntity
  8
3
100
AcDbLine
 10
1.601024013693518
 20
-0.2709123262306576
 30
0.0
 11
1.84473521219354
 21
-0.2709123262306576
 31
0.0
  0
LINE
  5
20C12
330
1F
100
AcDbEntity
  8
3
100
AcDbLine
 10
2.631425431893602
 20
0.7251079283693401
 30
0.0
 11
1.84473521219354
 21
0.2709113218693631
 31
0.0
  0
LINE
  5
20C13
330
1F
100
AcDbEntity
  8
3
100
AcDbLine
 10
1.84473521219354
 20
-0.2709123262306576
 30
0.0
 11
2.631425431893602
 21
-0.7251089327306346
 31
0.0
  0
LINE
  5
20C14
330
1F
100
AcDbEntity
  8
1
100
AcDbLine
 10
0.1664051930936239
 20
3.877354174400352
 30
0.0
 11
0.1664051930936239
 21
-3.877354171461631
 31
0.0
  0
LINE
  5
20C15
330
1F
100
AcDbEntity
  8
1
100
AcDbLine
 10
2.627464728293603
 20
0.7832351821693635
 30
0.0
 11
2.627464728293603
 21
-1.566471367230689
 31
0.0
  0
LINE
  5
20C16
330
1F
100
AcDbEntity
  8
1
100
AcDbLine
 10
2.791820832793519
 20
-3.430695579430633
 30
0.0
 11
2.930398389442529
 21
-5.002518322912847
 31
0.0
  0
LINE
  5
20C17
330
1F
100
AcDbEntity
  8
SK4
100
AcDbLine
 10
-7.606204658206478
 20
0.0000000014693597
 30
0.0
 11
0.0000002403935468
 21
0.0000000014693597
 31
0.0
  0
LINE
  5
20C18
330
1F
100
AcDbEntity
  8
4
100
AcDbLine
 10
0.0000002403935468
 20
0.0000000014693597
 30
0.0
 11
3.405784284993615
 21
0.0000000014693597
 31
0.0
  0
LINE
  5
20C19
330
1F
100
AcDbEntity
  8
1
100
AcDbLine
 10
2.906178594493553
 20
2.363898400569368
 30
0.0
 11
2.627464728293603
 21
0.7832351821693635
 31
0.0
  0
LINE
  5
20C1A
330
1F
100
AcDbEntity
  8
1
100
AcDbLine
 10
2.627464728293603
 20
-1.566471367230689
 30
0.0
 11
2.791820832793519
 21
-3.430695579430633
 31
0.0
  0
LINE
  5
20C1B
330
1F
100
AcDbEntity
  8
SK3
  6
ByBlock
100
AcDbLine
 10
-6.461628806906445
 20
0.7731077879693375
 30
0.0
 11
-6.461628806906445
 21
-0.7731087923306319
 31
0.0
  0
LINE
  5
20C1C
330
1F
100
AcDbEntity
  8
SK3
  6
ByBlock
100
AcDbLine
 10
-5.59179906710642
 20
0.2709113218693631
 30
0.0
 11
-5.59179906710642
 21
-0.2709123262306576
 31
0.0
  0
LINE
  5
20C1D
330
1F
100
AcDbEntity
  8
SK3
  6
ByBlock
100
AcDbLine
 10
-5.336315553506436
 20
0.2709113218693631
 30
0.0
 11
-5.336315553506436
 21
-0.2709123262306576
 31
0.0
  0
LINE
  5
20C1E
330
1F
100
AcDbEntity
  8
3
100
AcDbLine
 10
1.601024013693518
 20
0.2709113218693631
 30
0.0
 11
1.601024013693518
 21
-0.2709123262306576
 31
0.0
  0
LINE
  5
20C1F
330
1F
100
AcDbEntity
  8
3
100
AcDbLine
 10
1.84473521219354
 20
0.2709113218693631
 30
0.0
 11
1.84473521219354
 21
-0.2709123262306576
 31
0.0
  0
LINE
  5
20C20
330
1F
100
AcDbEntity
  8
1
100
AcDbLine
 10
2.901680999993573
 20
3.121918847669348
 30
0.0
 11
2.842693511993616
 21
2.787380415469356
 31
0.0
  0
LINE
  5
20C21
330
1F
100
AcDbEntity
  8
1
100
AcDbLine
 10
2.842693511993616
 20
2.787380415469356
 30
0.0
 11
2.838294632893621
 21
2.762432616369365
 31
0.0
  0
LINE
  5
20C22
330
1F
100
AcDbEntity
  8
1
100
AcDbLine
 10
3.081840634193553
 20
4.143649427469326
 30
0.0
 11
2.901680999993573
 21
3.121918847669348
 31
0.0
  0
LINE
  5
20C23
330
1F
100
AcDbEntity
  8
1
100
AcDbLine
 10
2.847092391093609
 20
2.737485824569333
 30
0.0
 11
2.899303771993571
 21
2.589431863269325
 31
0.0
  0
LINE
  5
20C24
330
1F
100
AcDbEntity
  8
1
100
AcDbLine
 10
2.838294632893621
 20
2.762432616369365
 30
0.0
 11
2.847092391093609
 21
2.737485824569333
 31
0.0
  0
LWPOLYLINE
  5
20C25
330
1F
100
AcDbEntity
  8
1
100
AcDbPolyline
 90
        5
 70
     0
 43
0.0
 10
3.274284291893535
 20
-2.728099800230622
 10
3.257661827293532
 20
-2.735873134330645
 10
3.227122505893588
 20
-2.777758682930651
 10
3.198614908593526
 20
-2.883038657030667
 10
3.182752955493583
 20
-3.057729659530649
  0
LWPOLYLINE
  5
20C26
330
1F
100
AcDbEntity
  8
1
100
AcDbPolyline
 90
        3
 70
     0
 43
0.0
 10
3.081840634193553
 20
-4.143650431830636
 10
3.144642767293589
 20
-3.658289977930663
 10
3.182752955493583
 20
-3.057729659530649
  0
LINE
  5
20C27
330
1F
100
AcDbEntity
  8
1
100
AcDbLine
 10
0.5391072003935733
 20
3.30227691996933
 30
0.0
 11
0.5391072003935733
 21
2.651588317069339
 31
0.0
  0
LINE
  5
20C28
330
1F
100
AcDbEntity
  8
1
100
AcDbLine
 10
0.5391072003935733
 20
-2.737304507630667
 30
0.0
 11
0.5391072003935733
 21
-2.748626559630649
 31
0.0
  0
LWPOLYLINE
  5
20C29
330
1F
100
AcDbEntity
  8
1
100
AcDbPolyline
 90
        5
 70
     0
 43
0.0
 10
0.5391072003935733
 20
3.30227691996933
 10
0.5255630445935822
 20
3.444580205569351
 10
0.4912201583936168
 20
3.586023256969339
 10
0.4235467224935975
 20
3.773150385269318
 10
0.3587617560821172
 20
3.912925801957952
  0
LWPOLYLINE
  5
20C2A
330
1F
100
AcDbEntity
  8
1
100
AcDbPolyline
 90
        5
 70
     0
 43
0.0
 10
0.5391072003935733
 20
-2.748648720230646
 10
0.5381170244935447
 20
-2.754633089530655
 10
0.5305068729935556
 20
-2.768922647330654
 10
0.4730575320935487
 20
-2.830263188130642
 10
0.1664051930936239
 20
-3.145516296647626
  0
LINE
  5
20C2B
330
1F
100
AcDbEntity
  8
1
100
AcDbLine
 10
0.0000002403935468
 20
3.666549749292371
 30
0.0
 11
0.0000002403935468
 21
3.407536564915445
 31
0.0
  0
LINE
  5
20C2C
330
1F
100
AcDbEntity
  8
SK1
100
AcDbLine
 10
0.0000002403935468
 20
3.407536564915445
 30
0.0
 11
0.0000002403935468
 21
-3.407536564915403
 31
0.0
  0
LINE
  5
20C2D
330
1F
100
AcDbEntity
  8
1
100
AcDbLine
 10
0.0000002403935468
 20
-3.407536564915403
 30
0.0
 11
0.0000007376070243
 21
-3.640374037567396
 31
0.0
  0
LINE
  5
20C2E
330
1F
100
AcDbEntity
  8
1
100
AcDbLine
 10
1.354587061393544
 20
-6.927015748030655
 30
0.0
 11
1.167799393193604
 21
-6.92724843433065
 31
0.0
  0
LINE
  5
20C2F
330
1F
100
AcDbEntity
  8
1
100
AcDbLine
 10
1.169093773693589
 20
-6.927015748030655
 30
0.0
 11
1.354528637993553
 21
-6.927015748030655
 31
0.0
  0
LINE
  5
20C30
330
1F
100
AcDbEntity
  8
1
100
AcDbLine
 10
1.354528637993553
 20
-6.927015748030655
 30
0.0
 11
2.294775675584673
 21
-6.946353176010787
 31
0.0
  0
LINE
  5
20C31
330
1F
100
AcDbEntity
  8
1
100
AcDbLine
 10
2.901680999993573
 20
-5.165382018930641
 30
0.0
 11
2.842693511993616
 21
-5.499920451130662
 31
0.0
  0
LINE
  5
20C32
330
1F
100
AcDbEntity
  8
1
100
AcDbLine
 10
2.842693511993616
 20
-5.499920451130662
 30
0.0
 11
2.838294632893621
 21
-5.524867242930652
 31
0.0
  0
LINE
  5
20C33
330
1F
100
AcDbEntity
  8
1
100
AcDbLine
 10
3.081840634193553
 20
-4.143650431830636
 30
0.0
 11
2.901680999993573
 21
-5.165382018930641
 31
0.0
  0
LINE
  5
20C34
330
1F
100
AcDbEntity
  8
1
100
AcDbLine
 10
2.847092391093609
 20
-5.549814034730686
 30
0.0
 11
2.899303771993571
 21
-5.697869003330666
 31
0.0
  0
LINE
  5
20C35
330
1F
100
AcDbEntity
  8
1
100
AcDbLine
 10
2.838294632893621
 20
-5.524867242930652
 30
0.0
 11
2.847092391093609
 21
-5.549814034730686
 31
0.0
  0
LINE
  5
20C36
330
1F
100
AcDbEntity
  8
1
100
AcDbLine
 10
3.274288321093536
 20
-2.506968238530631
 30
0.0
 11
3.267985644993586
 21
-2.469192473930647
 31
0.0
  0
LINE
  5
20C37
330
1F
100
AcDbEntity
  8
1
100
AcDbLine
 10
0.5391072003935733
 20
-4.985022939330632
 30
0.0
 11
0.5391072003935733
 21
-5.635712549530651
 31
0.0
  0
LWPOLYLINE
  5
20C38
330
1F
100
AcDbEntity
  8
1
100
AcDbPolyline
 90
        5
 70
     0
 43
0.0
 10
0.5391072003935733
 20
-4.985022939330632
 10
0.5255630445935822
 20
-4.842719653730667
 10
0.4912201583936168
 20
-4.70127760963065
 10
0.4235467224935975
 20
-4.514149474030644
 10
0.1664051930936239
 20
-3.877354171461631
  0
LINE
  5
20C39
330
1F
100
AcDbEntity
  8
1
100
AcDbLine
 10
3.138993169303147
 20
4.467780023044539
 30
0.0
 11
3.081840634193553
 21
4.143649427469326
 31
0.0
  0
LINE
  5
20C3A
330
1F
100
AcDbEntity
  8
1
100
AcDbLine
 10
0.5391072003935733
 20
4.5752307156514
 30
0.0
 11
0.5391072003935733
 21
4.173661504951397
 31
0.0
  0
ARC
  5
20C3B
330
1F
100
AcDbEntity
  8
1
100
AcDbCircle
 10
0.2518343060935422
 20
4.179559246451417
 30
0.0
 40
0.2872749089
100
AcDbArc
 50
269.9983319999973
 51
359.9895600000006
  0
ARC
  5
20C3C
330
1F
100
AcDbEntity
  8
1
100
AcDbCircle
 10
0.2518257231612324
 20
3.640459337673263
 30
0.0
 40
0.251825
100
AcDbArc
 50
89.99995000000145
 51
180.0194069999998
  0
LINE
  5
20C3D
330
1F
100
AcDbEntity
  8
1
100
AcDbLine
 10
1.113507937793541
 20
-3.231262267030658
 30
0.0
 11
2.449215942193518
 21
-3.231262267030658
 31
0.0
  0
LINE
  5
20C3E
330
1F
100
AcDbEntity
  8
1
100
AcDbLine
 10
1.042545667393595
 20
-4.415869227630678
 30
0.0
 11
2.520179219893634
 21
-4.415869227630678
 31
0.0
  0
LINE
  5
20C3F
330
1F
100
AcDbEntity
  8
1
100
AcDbLine
 10
1.197568466579467
 20
8.908385931269336
 30
0.0
 11
2.375229420707795
 21
8.90838593126935
 31
0.0
  0
ARC
  5
20C40
102
{ACAD_REACTORS
330
20CD3
102
}
330
1F
100
AcDbEntity
  8
1
100
AcDbCircle
 10
1.197568466579467
 20
8.706925931269339
 30
0.0
 40
0.20146
100
AcDbArc
 50
90.0
 51
181.7724180123214
  0
LINE
  5
20C41
102
{ACAD_REACTORS
330
20CD3
102
}
330
1F
100
AcDbEntity
  8
1
100
AcDbLine
 10
1.060870468993584
 20
6.610959259169347
 30
0.0
 11
0.9962048519776088
 21
8.700694854758848
 31
0.0
  0
ARC
  5
20C42
330
1F
100
AcDbEntity
  8
1
100
AcDbCircle
 10
-47.49685351858284
 20
5.473461965472393
 30
0.0
 40
48.57103904370155
100
AcDbArc
 50
359.5260435204152
 51
1.341945501126398
  0
ARC
  5
20C43
330
1F
100
AcDbEntity
  8
1
100
AcDbCircle
 10
0.8766232113935075
 20
5.069777745551419
 30
0.0
 40
0.195909777
100
AcDbArc
 50
313.4699169999981
 51
0.5569279999999343
  0
ARC
  5
20C44
330
1F
100
AcDbEntity
  8
1
100
AcDbCircle
 10
-35.70292710689422
 20
53.64631163537932
 30
0.0
 40
61.00374668278389
100
AcDbArc
 50
306.4481671370526
 51
307.0016127428153
  0
LINE
  5
20C45
102
{ACAD_REACTORS
330
20CD3
102
}
330
1F
100
AcDbEntity
  8
1
100
AcDbLine
 10
2.511927418293566
 20
6.610959259169347
 30
0.0
 11
2.576593035309542
 21
8.700694854758863
 31
0.0
  0
ARC
  5
20C46
102
{ACAD_REACTORS
330
20CD3
102
}
330
1F
100
AcDbEntity
  8
1
100
AcDbCircle
 10
2.375229420707795
 20
8.706925931269353
 30
0.0
 40
0.20146
100
AcDbArc
 50
358.2275819876786
 51
90.0
  0
ARC
  5
20C47
330
1F
100
AcDbEntity
  8
1
100
AcDbCircle
 10
50.94202753020478
 20
5.476026289265333
 30
0.0
 40
48.44339011852905
100
AcDbArc
 50
178.6575515614425
 51
180.4756886448492
  0
ARC
  5
20C48
330
1F
100
AcDbEntity
  8
1
100
AcDbCircle
 10
2.696174675893644
 20
5.069777745551419
 30
0.0
 40
0.195909777
100
AcDbArc
 50
179.4432120000001
 51
226.5293020000018
  0
ARC
  5
20C49
330
1F
100
AcDbEntity
  8
1
100
AcDbCircle
 10
31.73187654574429
 20
40.97285554180763
 30
0.0
 40
46.36996353685606
100
AcDbArc
 50
231.0176614581976
 51
231.9299019619748
  0
LINE
  5
20C4A
330
1F
100
AcDbEntity
  8
1
100
AcDbLine
 10
3.274291342993592
 20
-2.506968238530631
 30
0.0
 11
3.271446727793545
 21
-2.609480152230688
 31
0.0
  0
LINE
  5
20C4B
330
1F
100
AcDbEntity
  8
1
100
AcDbLine
 10
3.268082345793573
 20
-2.730704678030662
 30
0.0
 11
3.237781754493538
 21
-3.822540315930665
 31
0.0
  0
ARC
  5
20C4C
330
1F
100
AcDbEntity
  8
1
100
AcDbCircle
 10
-52.99661130160643
 20
-0.2931585467306519
 30
0.0
 40
54.02842821670001
100
AcDbArc
 50
357.0482009999994
 51
357.2981890000002
  0
LWPOLYLINE
  5
20C4D
330
1F
100
AcDbEntity
  8
1
100
AcDbPolyline
 90
        5
 70
     0
 43
0.0
 10
0.9106971484935684
 20
-2.801409079630658
 10
0.9526320547936391
 20
-2.816120696130638
 10
0.9650732170936178
 20
-2.825080629630676
 10
0.971203644893535
 20
-2.834835322830656
 10
0.97175363069357
 20
-2.839946363030676
  0
LINE
  5
20C4E
330
1F
100
AcDbEntity
  8
1
100
AcDbLine
 10
0.5391142514936293
 20
-2.737237018530634
 30
0.0
 11
0.9106840535936273
 21
-2.801465488430649
 31
0.0
  0
LINE
  5
20C4F
330
1F
100
AcDbEntity
  8
1
100
AcDbLine
 10
0.5391072003935733
 20
-1.312580394930662
 30
0.0
 11
0.5391072003935733
 21
-2.737304507630667
 31
0.0
  0
ARC
  5
20C50
330
1F
100
AcDbEntity
  8
1
100
AcDbCircle
 10
56.55933518159351
 20
-0.2931585467306803
 30
0.0
 40
54.02842821670001
100
AcDbArc
 50
182.7018159999994
 51
182.9517990000005
  0
LWPOLYLINE
  5
20C51
330
1F
100
AcDbEntity
  8
1
100
AcDbPolyline
 90
        5
 70
     0
 43
0.0
 10
2.652030760693604
 20
-2.801408072330629
 10
2.610093839793535
 20
-2.816119688830681
 10
2.597650662893555
 20
-2.825080629630676
 10
2.591521242393582
 20
-2.834835322830656
 10
2.590971256593546
 20
-2.839946363030676
  0
LINE
  5
20C52
330
1F
100
AcDbEntity
  8
1
100
AcDbLine
 10
3.237781754493538
 20
-1.205497353830679
 30
0.0
 11
3.274291342993592
 21
-2.728126997330647
 31
0.0
  0
LWPOLYLINE
  5
20C53
330
1F
100
AcDbEntity
  8
1
100
AcDbPolyline
 90
        3
 70
     0
 43
0.0
 10
3.274291342993592
 20
-2.728128004630675
 10
2.966169353293593
 20
-2.743750220330653
 10
2.652030760693604
 20
-2.801408072330629
  0
LWPOLYLINE
  5
20C54
330
1F
100
AcDbEntity
  8
1
100
AcDbPolyline
 90
        4
 70
     0
 43
0.0
 10
1.21152930809353
 20
-5.971923099730687
 10
1.252580812293557
 20
-6.001580026330671
 10
1.26450623699361
 20
-6.018703119030647
 10
1.270466431093609
 20
-6.045786394130656
  0
LINE
  5
20C55
330
1F
100
AcDbEntity
  8
1
100
AcDbLine
 10
0.5391072003935733
 20
-5.635712549530651
 30
0.0
 11
1.21152930809353
 21
-5.971923099730687
 31
0.0
  0
LWPOLYLINE
  5
20C56
330
1F
100
AcDbEntity
  8
1
100
AcDbPolyline
 90
        3
 70
     0
 43
0.0
 10
0.9964042762935603
 20
-5.864371664130644
 10
1.087626371593614
 20
-6.662810023730656
 10
1.131136695093573
 20
-6.865601674330632
  0
LWPOLYLINE
  5
20C57
330
1F
100
AcDbEntity
  8
1
100
AcDbPolyline
 90
        8
 70
     0
 43
0.0
 10
1.131142738893572
 20
-6.865622827630659
 10
1.152416914893592
 20
-6.915304878230656
 10
1.162652090193545
 20
-6.925678053630662
 10
1.17013431459361
 20
-6.927141660530678
 10
1.177440261493529
 20
-6.923198081030618
 10
1.182207812393585
 20
-6.917568281330659
 10
1.191485045393618
 20
-6.899117567230661
 10
1.217053341293649
 20
-6.786363427130652
  0
LINE
  5
20C58
330
1F
100
AcDbEntity
  8
1
100
AcDbLine
 10
1.217059385093534
 20
-6.786327164330629
 30
0.0
 11
1.25422472589355
 21
-6.355928020330638
 31
0.0
  0
LINE
  5
20C59
330
1F
100
AcDbEntity
  8
1
100
AcDbLine
 10
1.25422472589355
 20
-6.355928020330638
 30
0.0
 11
1.270466431093609
 21
-6.045786394130656
 31
0.0
  0
LWPOLYLINE
  5
20C5A
330
1F
100
AcDbEntity
  8
1
100
AcDbPolyline
 90
        4
 70
     0
 43
0.0
 10
2.252339133884673
 20
-5.991260527710807
 10
2.211286622384704
 20
-6.020917454310803
 10
2.199361197684651
 20
-6.038040547010766
 10
2.193402010884709
 20
-6.065123822110776
  0
LINE
  5
20C5B
330
1F
100
AcDbEntity
  8
1
100
AcDbLine
 10
3.237781754493538
 20
-3.822540315930665
 30
0.0
 11
2.899303771993571
 21
-5.697869003330666
 31
0.0
  0
LINE
  5
20C5C
330
1F
100
AcDbEntity
  8
1
100
AcDbLine
 10
2.899303771993571
 20
-5.697869003330666
 30
0.0
 11
2.252339133884673
 21
-5.991260527710807
 31
0.0
  0
LWPOLYLINE
  5
20C5D
330
1F
100
AcDbEntity
  8
1
100
AcDbPolyline
 90
        3
 70
     0
 43
0.0
 10
2.467463158384703
 20
-5.883709092110777
 10
2.376241063084647
 20
-6.682147451710775
 10
2.332731746884633
 20
-6.884939102310752
  0
LWPOLYLINE
  5
20C5E
330
1F
100
AcDbEntity
  8
1
100
AcDbPolyline
 90
        8
 70
     0
 43
0.0
 10
2.33272469578469
 20
-6.884960255610792
 10
2.31145051978467
 20
-6.934642306210776
 10
2.301215344484716
 20
-6.945015481610781
 10
2.293733120084651
 20
-6.946479088510812
 10
2.28642717318462
 20
-6.942535509010737
 10
2.281659622284678
 20
-6.936905709310792
 10
2.272382389284643
 20
-6.918454995210794
 10
2.246814093384614
 20
-6.805700855110784
  0
LINE
  5
20C5F
330
1F
100
AcDbEntity
  8
1
100
AcDbLine
 10
2.246808049584615
 20
-6.805664592310762
 30
0.0
 11
2.209643716084655
 21
-6.375265448310755
 31
0.0
  0
LINE
  5
20C60
330
1F
100
AcDbEntity
  8
1
100
AcDbLine
 10
2.209643716084655
 20
-6.375265448310755
 30
0.0
 11
2.193402010884709
 21
-6.065123822110776
 31
0.0
  0
LWPOLYLINE
  5
20C61
330
1F
100
AcDbEntity
  8
1
100
AcDbPolyline
 90
        4
 70
     0
 43
0.0
 10
1.21152930809353
 20
2.315376759569331
 10
1.252580812293557
 20
2.285719832969347
 10
1.26450623699361
 20
2.268596740269315
 10
1.270466431093609
 20
2.241513465169362
  0
LWPOLYLINE
  5
20C62
330
1F
100
AcDbEntity
  8
1
100
AcDbPolyline
 90
        4
 70
     0
 43
0.0
 10
0.9867170721935279
 20
-1.536385330830668
 10
1.027834050893602
 20
-1.566099673530614
 10
1.039771563193652
 20
-1.58312606543066
 10
1.045654195193606
 20
-1.610248625230639
  0
LINE
  5
20C63
330
1F
100
AcDbEntity
  8
1
100
AcDbLine
 10
0.5391072003935733
 20
2.651588317069339
 30
0.0
 11
1.21152930809353
 21
2.315376759569331
 31
0.0
  0
LINE
  5
20C64
330
1F
100
AcDbEntity
  8
1
100
AcDbLine
 10
0.5391072003935733
 20
2.651588317069339
 30
0.0
 11
0.5391072003935733
 21
-1.312580394930662
 31
0.0
  0
LINE
  5
20C65
330
1F
100
AcDbEntity
  8
1
100
AcDbLine
 10
0.5391072003935733
 20
-1.312580394930662
 30
0.0
 11
0.9867170721935279
 21
-1.536385330830668
 31
0.0
  0
ARC
  5
20C66
330
1F
100
AcDbEntity
  8
1
100
AcDbCircle
 10
-1176.653470654606
 20
67.10714795826956
 30
0.0
 40
1179.7111673151
100
AcDbArc
 50
356.6041499999998
 51
356.7250870000003
  0
ARC
  5
20C67
330
1F
100
AcDbEntity
  8
1
100
AcDbCircle
 10
-715.5174717100067
 20
40.78915090186945
 30
0.0
 40
717.8247621041
100
AcDbArc
 50
356.7196389999992
 51
356.8417830000008
  0
ARC
  5
20C68
330
1F
100
AcDbEntity
  8
1
100
AcDbCircle
 10
-299.2618975210064
 20
17.7900491993694
 30
0.0
 40
300.9342887397
100
AcDbArc
 50
356.8477330000002
 51
357.0383489999999
  0
ARC
  5
20C69
330
1F
100
AcDbEntity
  8
1
100
AcDbCircle
 10
-397.9417287507067
 20
17.66825252716941
 30
0.0
 40
399.44088653
100
AcDbArc
 50
356.8454729999993
 51
357.023193000001
  0
LWPOLYLINE
  5
20C6A
330
1F
100
AcDbEntity
  8
1
100
AcDbPolyline
 90
        4
 70
     0
 43
0.0
 10
2.351195579193585
 20
2.315376759569331
 10
2.310143067693615
 20
2.285719832969347
 10
2.298217642993563
 20
2.268596740269315
 10
2.292258456193621
 20
2.241513465169362
  0
LWPOLYLINE
  5
20C6B
330
1F
100
AcDbEntity
  8
1
100
AcDbPolyline
 90
        4
 70
     0
 43
0.0
 10
2.576006807793531
 20
-1.536385330830668
 10
2.534890836393515
 20
-1.566099673530614
 10
2.52295231679352
 20
-1.58312606543066
 10
2.517069684793568
 20
-1.610248625230639
  0
LINE
  5
20C6C
330
1F
100
AcDbEntity
  8
1
100
AcDbLine
 10
2.899303771993571
 20
2.589431863269325
 30
0.0
 11
3.237781754493538
 21
-1.205497353830679
 31
0.0
  0
LINE
  5
20C6D
330
1F
100
AcDbEntity
  8
1
100
AcDbLine
 10
2.899303771993571
 20
2.589431863269325
 30
0.0
 11
2.351195579193585
 21
2.315376759569331
 31
0.0
  0
LINE
  5
20C6E
330
1F
100
AcDbEntity
  8
1
100
AcDbLine
 10
3.237781754493538
 20
-1.205497353830679
 30
0.0
 11
2.576006807793531
 21
-1.536385330830668
 31
0.0
  0
ARC
  5
20C6F
330
1F
100
AcDbEntity
  8
1
100
AcDbCircle
 10
1180.216194534594
 20
67.10714795826913
 30
0.0
 40
1179.7111663078
100
AcDbArc
 50
183.2749129999995
 51
183.39585
  0
ARC
  5
20C70
330
1F
100
AcDbEntity
  8
1
100
AcDbCircle
 10
302.8246214009935
 20
17.7900491993693
 30
0.0
 40
300.9342887397
100
AcDbArc
 50
182.9616509999998
 51
183.1522669999998
  0
ARC
  5
20C71
330
1F
100
AcDbEntity
  8
1
100
AcDbCircle
 10
719.0801965972937
 20
40.78915090186918
 30
0.0
 40
717.8247621041
100
AcDbArc
 50
183.1582169999992
 51
183.2803610000008
  0
ARC
  5
20C72
330
1F
100
AcDbEntity
  8
1
100
AcDbCircle
 10
401.5044536379933
 20
17.66825252716927
 30
0.0
 40
399.44088653
100
AcDbArc
 50
182.976806999999
 51
183.1545270000006
  0
LWPOLYLINE
  5
20C73
330
1F
100
AcDbEntity
  8
1
100
AcDbPolyline
 90
        6
 70
     0
 43
0.0
 10
1.113507937793541
 20
-3.231262267030658
 10
1.046517451293539
 20
-3.216026854530638
 10
0.9994392711935232
 20
-3.173470444130642
 10
0.975681093393632
 20
-3.092941845630633
 10
0.9742195010935573
 20
-3.034129627830651
 10
0.9785851392934999
 20
-2.922126933530634
  0
LWPOLYLINE
  5
20C74
330
1F
100
AcDbEntity
  8
1
100
AcDbPolyline
 90
        5
 70
     0
 43
0.0
 10
0.8939759684935777
 20
-4.312611911930645
 10
0.9018288792935893
 20
-4.348630945330667
 10
0.9288094097935299
 20
-4.38065099773064
 10
0.9794151544936083
 20
-4.406544651530651
 10
1.042545667393595
 20
-4.415869227630678
  0
ARC
  5
20C75
330
1F
100
AcDbEntity
  8
1
100
AcDbCircle
 10
15.27746046429354
 20
-3.578322445530673
 30
0.0
 40
14.313924387
100
AcDbArc
 50
176.7704960000004
 51
177.372457999999
  0
LWPOLYLINE
  5
20C76
330
1F
100
AcDbEntity
  8
1
100
AcDbPolyline
 90
        6
 70
     0
 43
0.0
 10
2.449215942193518
 20
-3.231262267030658
 10
2.516206428693521
 20
-3.216026854530638
 10
2.563285616093593
 20
-3.173470444130642
 10
2.587043793893599
 20
-3.092941845630633
 10
2.588504378893503
 20
-3.034129627830651
 10
2.58413874069356
 20
-2.922126933530634
  0
LWPOLYLINE
  5
20C77
330
1F
100
AcDbEntity
  8
1
100
AcDbPolyline
 90
        5
 70
     0
 43
0.0
 10
2.520179219893634
 20
-4.415869227630678
 10
2.583305703593623
 20
-4.406545658830679
 10
2.63391044099353
 20
-4.380655026930624
 10
2.660893993393642
 20
-4.348632959930653
 10
2.668748918793538
 20
-4.312611911930645
  0
ARC
  5
20C78
330
1F
100
AcDbEntity
  8
1
100
AcDbCircle
 10
-11.71481515370647
 20
-3.578326474730687
 30
0.0
 40
14.3140039637
100
AcDbArc
 50
2.627542999999453
 51
3.229505999999721
  0
LWPOLYLINE
  5
20C79
330
1F
100
AcDbEntity
  8
SK1
100
AcDbPolyline
 90
       17
 70
     0
 43
0.0
 10
-1.476882873606426
 20
-2.814274315230632
 10
-1.485448952806449
 20
-2.810592633730634
 10
-1.491328562906459
 20
-2.805042410730635
 10
-1.50349674690642
 20
-2.786546368130629
 10
-1.522743228006446
 20
-2.740476495330625
 10
-1.564452499106436
 20
-2.584042805330625
 10
-1.620485576206418
 20
-2.277664451930633
 10
-1.735119338106414
 20
-1.354610994730634
 10
-1.847617624006488
 20
0.0000251839693703
 10
-1.981493837806397
 20
1.553885156669366
 10
-2.05826218540642
 20
2.163924168069356
 10
-2.136850724106465
 20
2.607797964169364
 10
-2.17273578660638
 20
2.739389621569371
 10
-2.194885306306445
 20
2.791144695569356
 10
-2.205382379606476
 20
2.80598826836936
 10
-2.21548761320639
 20
2.813415091269361
 10
-2.220393164206369
 20
2.814340799969372
  0
LWPOLYLINE
  5
20C7A
330
1F
100
AcDbEntity
  8
SK1
100
AcDbPolyline
 90
       17
 70
     0
 43
0.0
 10
-2.100020814206458
 20
-2.814340797030624
 10
-2.108690645306409
 20
-2.811489130730635
 10
-2.114647817506464
 20
-2.806372046730642
 10
-2.126989257106401
 20
-2.788453187030625
 10
-2.146544979306439
 20
-2.742532394630628
 10
-2.189011740006435
 20
-2.583897754130645
 10
-2.245036758706418
 20
-2.277521415330639
 10
-2.359645338106473
 20
-1.354610994730634
 10
-2.472143624006434
 20
0.0000241766693563
 10
-2.606081283106503
 20
1.554449244669356
 10
-2.682882871606465
 20
2.164572869269362
 10
-2.761426081806461
 20
2.608009497169375
 10
-2.797288983706494
 20
2.739467183669375
 10
-2.819425408506389
 20
2.791168870769368
 10
-2.829916438006421
 20
2.805997334069359
 10
-2.840015627806451
 20
2.813416098569361
 10
-2.844918156906486
 20
2.814340799969372
  0
LINE
  5
20C7B
330
1F
100
AcDbEntity
  8
SK1
100
AcDbLine
 10
-1.630080108706465
 20
-2.796264798530628
 30
0.0
 11
-1.945435519706393
 21
-2.796264798530628
 31
0.0
  0
LINE
  5
20C7C
330
1F
100
AcDbEntity
  8
SK1
100
AcDbLine
 10
-1.20352381420639
 20
-3.34446264103063
 30
0.0
 11
-1.203522806906448
 21
3.344462643969363
 31
0.0
  0
LINE
  5
20C7D
330
1F
100
AcDbEntity
  8
SK1
100
AcDbLine
 10
-6.522067814206478
 20
-2.796264798530628
 30
0.0
 11
-6.522067814206478
 21
2.719710001469366
 31
0.0
  0
LINE
  5
20C7E
330
1F
100
AcDbEntity
  8
1
100
AcDbLine
 10
0.1664041857935672
 20
-3.877353808242745
 30
0.0
 11
0.1664041857935672
 21
3.877353811181477
 31
0.0
  0
LINE
  5
20C7F
330
1F
100
AcDbEntity
  8
SK1
100
AcDbLine
 10
-2.374978458706435
 20
2.796264801469361
 30
0.0
 11
-2.69033286240642
 21
2.796264801469361
 31
0.0
  0
LINE
  5
20C80
330
1F
100
AcDbEntity
  8
SK1
100
AcDbLine
 10
-5.354571858706433
 20
2.796264801469361
 30
0.0
 11
-6.511679529306433
 21
2.796264801469361
 31
0.0
  0
LWPOLYLINE
  5
20C81
330
1F
100
AcDbEntity
  8
SK1
100
AcDbPolyline
 90
       17
 70
     0
 43
0.0
 10
-2.966679573606484
 20
-2.814274315230632
 10
-2.975245652806506
 20
-2.810592633730634
 10
-2.981125262906401
 20
-2.805042410730635
 10
-2.993292439606419
 20
-2.786546368130629
 10
-3.01253992800639
 20
-2.740476495330625
 10
-3.054248191806436
 20
-2.584042805330625
 10
-3.110282276206476
 20
-2.277664451930633
 10
-3.224916038106471
 20
-1.354610994730634
 10
-3.33741432400643
 20
0.0000251839693703
 10
-3.471290537806452
 20
1.553885156669366
 10
-3.548057878106418
 20
2.163924168069356
 10
-3.626647424106408
 20
2.607797964169364
 10
-3.662532486606437
 20
2.739389621569371
 10
-3.684682006306388
 20
2.791144695569356
 10
-3.695179079606417
 20
2.80598826836936
 10
-3.705284313206448
 20
2.813415091269361
 10
-3.710189864206426
 20
2.814340799969372
  0
LWPOLYLINE
  5
20C82
330
1F
100
AcDbEntity
  8
SK1
100
AcDbPolyline
 90
       17
 70
     0
 43
0.0
 10
-4.45647526630637
 20
-2.814274315230632
 10
-4.465042352806449
 20
-2.810592633730634
 10
-4.470922970206402
 20
-2.805042410730635
 10
-4.483089139606476
 20
-2.786546368130629
 10
-4.502336628006446
 20
-2.740476495330625
 10
-4.544044891806379
 20
-2.584042805330625
 10
-4.600078976206417
 20
-2.277664451930633
 10
-4.714712738106412
 20
-1.354610994730634
 10
-4.827211024006486
 20
0.0000251839693703
 10
-4.961087237806395
 20
1.553885156669366
 10
-5.037855585406417
 20
2.163924168069356
 10
-5.116445131406408
 20
2.607797964169364
 10
-5.152329186606492
 20
2.739389621569371
 10
-5.174478706306445
 20
2.791144695569356
 10
-5.184975779606475
 20
2.80598826836936
 10
-5.195081013206389
 20
2.813415091269361
 10
-5.199986564206483
 20
2.814340799969372
  0
LWPOLYLINE
  5
20C83
330
1F
100
AcDbEntity
  8
SK1
100
AcDbPolyline
 90
       11
 70
     0
 43
0.0
 10
-5.946271966306425
 20
-2.814274315230632
 10
-5.955801024306423
 20
-2.809726355730632
 10
-5.962441145906494
 20
-2.80279210253063
 10
-5.976335842106436
 20
-2.77959599813063
 10
-5.998486369106442
 20
-2.721715532830628
 10
-6.046321031506407
 20
-2.525398806630632
 10
-6.124979073906388
 20
-2.034289691630633
 10
-6.204842854406478
 20
-1.354649272130629
 10
-6.3172152278064
 20
0.0000382788693685
 10
-6.41499786800648
 20
1.205030976869366
 10
-6.471528551306391
 20
1.733242980069363
  0
LWPOLYLINE
  5
20C84
330
1F
100
AcDbEntity
  8
SK1
100
AcDbPolyline
 90
       16
 70
     0
 43
0.0
 10
-3.589817514206401
 20
-2.814340797030624
 10
-3.598490367206408
 20
-2.811486108830635
 10
-3.604449554006464
 20
-2.806366002930644
 10
-3.616796030106456
 20
-2.788435055630627
 10
-3.636359810706494
 20
-2.742481022330635
 10
-3.678844702806486
 20
-2.583735578830641
 10
-3.734858641206415
 20
-2.277361254630633
 10
-3.849443045406474
 20
-1.354610994730634
 10
-3.961943345906433
 20
0.0000241766693563
 10
-4.096234567306396
 20
1.557696779869359
 10
-4.173232579306386
 20
2.168303908469368
 10
-4.250653657306428
 20
2.605532546469376
 10
-4.307963990806456
 20
2.788949788869358
 10
-4.318359326806444
 20
2.804470267269365
 10
-4.328377932606372
 20
2.812796609069365
 10
-4.333246213506413
 20
2.814254172169355
  0
LWPOLYLINE
  5
20C85
330
1F
100
AcDbEntity
  8
SK1
100
AcDbPolyline
 90
       12
 70
     0
 43
0.0
 10
-5.079614214206457
 20
-2.82592575433064
 10
-5.082760012106405
 20
-2.825526863530626
 10
-5.089241987606441
 20
-2.822292423230635
 10
-5.095960678606387
 20
-2.815812462330639
 10
-5.110034674206417
 20
-2.793154256130647
 10
-5.132508544506436
 20
-2.735156944030634
 10
-5.1811248717064
 20
-2.535403310230634
 10
-5.259748665906498
 20
-2.042356150030626
 10
-5.339575176306424
 20
-1.360227699530639
 10
-5.451948557006403
 20
0.0000402934693682
 10
-5.552699710306455
 20
1.24035900246936
 10
-5.610937767106406
 20
1.779907159869367
  0
LINE
  5
20C86
330
1F
100
AcDbEntity
  8
SK1
100
AcDbLine
 10
-1.265976414206419
 20
3.203214001469376
 30
0.0
 11
-2.010870735006391
 21
3.203214001469376
 31
0.0
  0
LINE
  5
20C87
330
1F
100
AcDbEntity
  8
SK1
100
AcDbLine
 10
-2.884928112906436
 20
2.945582924269372
 30
0.0
 11
-2.927953925106406
 21
3.106157624569361
 31
0.0
  0
LINE
  5
20C88
330
1F
100
AcDbEntity
  8
SK1
100
AcDbLine
 10
-2.18038320820642
 20
2.945582924269372
 30
0.0
 11
-2.13735739600645
 21
3.106157624569361
 31
0.0
  0
ARC
  5
20C89
330
1F
100
AcDbEntity
  8
SK1
100
AcDbCircle
 10
-2.010870735006391
 20
3.072265001469361
 30
0.0
 40
0.130949
100
AcDbArc
 50
90.00000500000046
 51
165.0000000000004
  0
ARC
  5
20C8A
330
1F
100
AcDbEntity
  8
SK1
100
AcDbCircle
 10
-3.054440586106466
 20
3.072265001469361
 30
0.0
 40
0.130949
100
AcDbArc
 50
14.99999999999956
 51
90.00000500000046
  0
ARC
  5
20C8B
330
1F
100
AcDbEntity
  8
SK1
100
AcDbCircle
 10
-2.374978458706435
 20
2.99772480146936
 30
0.0
 40
0.20146
100
AcDbArc
 50
270.0000050000005
 51
345.0000059999992
  0
ARC
  5
20C8C
330
1F
100
AcDbEntity
  8
SK1
100
AcDbCircle
 10
-2.69033286240642
 20
2.99772480146936
 30
0.0
 40
0.20146
100
AcDbArc
 50
195.0000009999988
 51
270.0000050000005
  0
ARC
  5
20C8D
330
1F
100
AcDbEntity
  8
SK1
100
AcDbCircle
 10
-2.309543243406436
 20
-3.072264998530626
 30
0.0
 40
0.130949
100
AcDbArc
 50
270.0000050000005
 51
345.0000059999992
  0
LINE
  5
20C8E
330
1F
100
AcDbEntity
  8
SK1
100
AcDbLine
 10
-2.183056582406379
 20
-3.106157621630628
 30
0.0
 11
-2.140029762906465
 21
-2.945582921330624
 31
0.0
  0
ARC
  5
20C8F
330
1F
100
AcDbEntity
  8
SK1
100
AcDbCircle
 10
-1.945435519706393
 20
-2.99772479853064
 30
0.0
 40
0.20146
100
AcDbArc
 50
90.00000500000046
 51
165.0000000000004
  0
ARC
  5
20C90
330
1F
100
AcDbEntity
  8
SK1
100
AcDbCircle
 10
-1.630080108706465
 20
-2.99772479853064
 30
0.0
 40
0.20146
100
AcDbArc
 50
14.99999999999956
 51
90.00000500000046
  0
LINE
  5
20C91
330
1F
100
AcDbEntity
  8
SK1
100
AcDbLine
 10
-1.392459046006478
 20
-3.106157621630628
 30
0.0
 11
-1.43548485820645
 21
-2.945582921330624
 31
0.0
  0
ARC
  5
20C92
330
1F
100
AcDbEntity
  8
SK1
100
AcDbCircle
 10
-1.26597238500642
 20
-3.072264998530626
 30
0.0
 40
0.130949
100
AcDbArc
 50
195.0000009999988
 51
269.9988170000007
  0
LINE
  5
20C93
330
1F
100
AcDbEntity
  8
SK1
100
AcDbLine
 10
-3.054440586106466
 20
3.203214001469376
 30
0.0
 11
-3.500667435006448
 21
3.203214001469376
 31
0.0
  0
ARC
  5
20C94
330
1F
100
AcDbEntity
  8
SK1
100
AcDbCircle
 10
-3.500667435006448
 20
3.072265001469361
 30
0.0
 40
0.130949
100
AcDbArc
 50
90.00000500000046
 51
165.0000000000004
  0
LINE
  5
20C95
330
1F
100
AcDbEntity
  8
SK1
100
AcDbLine
 10
-3.670179908206477
 20
2.945582924269372
 30
0.0
 11
-3.627154096006393
 21
3.106157624569361
 31
0.0
  0
ARC
  5
20C96
330
1F
100
AcDbEntity
  8
SK1
100
AcDbCircle
 10
-3.864775158706493
 20
2.99772480146936
 30
0.0
 40
0.20146
100
AcDbArc
 50
270.0000050000005
 51
345.0000059999992
  0
LINE
  5
20C97
330
1F
100
AcDbEntity
  8
SK1
100
AcDbLine
 10
-2.309543243406436
 20
-3.203213998530628
 30
0.0
 11
-2.755769085006477
 21
-3.203213998530628
 31
0.0
  0
ARC
  5
20C98
330
1F
100
AcDbEntity
  8
SK1
100
AcDbCircle
 10
-2.755769085006477
 20
-3.072264998530626
 30
0.0
 40
0.130949
100
AcDbArc
 50
195.0000009999988
 51
270.0000050000005
  0
LINE
  5
20C99
330
1F
100
AcDbEntity
  8
SK1
100
AcDbLine
 10
-2.882255746006421
 20
-3.106157621630628
 30
0.0
 11
-2.925281558206393
 21
-2.945582921330624
 31
0.0
  0
ARC
  5
20C9A
330
1F
100
AcDbEntity
  8
SK1
100
AcDbCircle
 10
-3.119876808706408
 20
-2.99772479853064
 30
0.0
 40
0.20146
100
AcDbArc
 50
14.99999999999956
 51
90.00000500000046
  0
ARC
  5
20C9B
330
1F
100
AcDbEntity
  8
SK1
100
AcDbCircle
 10
-3.435232219706449
 20
-2.99772479853064
 30
0.0
 40
0.20146
100
AcDbArc
 50
90.00000500000046
 51
165.0000000000004
  0
LINE
  5
20C9C
330
1F
100
AcDbEntity
  8
SK1
100
AcDbLine
 10
-3.119876808706408
 20
-2.796264798530628
 30
0.0
 11
-3.435232219706449
 21
-2.796264798530628
 31
0.0
  0
LINE
  5
20C9D
330
1F
100
AcDbEntity
  8
SK1
100
AcDbLine
 10
-3.672853282406435
 20
-3.106157621630628
 30
0.0
 11
-3.629827470206464
 21
-2.945582921330624
 31
0.0
  0
ARC
  5
20C9E
330
1F
100
AcDbEntity
  8
SK1
100
AcDbCircle
 10
-3.799339943406493
 20
-3.072264998530626
 30
0.0
 40
0.130949
100
AcDbArc
 50
270.0000050000005
 51
345.0000059999992
  0
LINE
  5
20C9F
330
1F
100
AcDbEntity
  8
SK1
100
AcDbLine
 10
-3.799339943406493
 20
-3.203213998530628
 30
0.0
 11
-4.245565785006419
 21
-3.203213998530628
 31
0.0
  0
ARC
  5
20CA0
330
1F
100
AcDbEntity
  8
SK1
100
AcDbCircle
 10
-4.245565785006419
 20
-3.072264998530626
 30
0.0
 40
0.130949
100
AcDbArc
 50
195.0000009999988
 51
270.0000050000005
  0
LINE
  5
20CA1
330
1F
100
AcDbEntity
  8
SK1
100
AcDbLine
 10
-4.372052446006478
 20
-3.106157621630628
 30
0.0
 11
-4.415078258206449
 21
-2.945582921330624
 31
0.0
  0
ARC
  5
20CA2
330
1F
100
AcDbEntity
  8
SK1
100
AcDbCircle
 10
-4.609673508706463
 20
-2.99772479853064
 30
0.0
 40
0.20146
100
AcDbArc
 50
14.99999999999956
 51
90.00000500000046
  0
LINE
  5
20CA3
330
1F
100
AcDbEntity
  8
SK1
100
AcDbLine
 10
-4.609673508706463
 20
-2.796264798530628
 30
0.0
 11
-4.925028919706392
 21
-2.796264798530628
 31
0.0
  0
ARC
  5
20CA4
330
1F
100
AcDbEntity
  8
SK1
100
AcDbCircle
 10
-4.925028919706392
 20
-2.99772479853064
 30
0.0
 40
0.20146
100
AcDbArc
 50
90.00000500000046
 51
165.0000000000004
  0
LINE
  5
20CA5
330
1F
100
AcDbEntity
  8
SK1
100
AcDbLine
 10
-5.162649982406492
 20
-3.106157621630628
 30
0.0
 11
-5.119624170206407
 21
-2.945582921330624
 31
0.0
  0
ARC
  5
20CA6
330
1F
100
AcDbEntity
  8
SK1
100
AcDbCircle
 10
-5.289136643406436
 20
-3.072264998530626
 30
0.0
 40
0.130949
100
AcDbArc
 50
270.0000050000005
 51
345.0000059999992
  0
LINE
  5
20CA7
330
1F
100
AcDbEntity
  8
SK1
100
AcDbLine
 10
-5.289136643406436
 20
-3.203213998530628
 30
0.0
 11
-5.735361477706419
 21
-3.203213998530628
 31
0.0
  0
ARC
  5
20CA8
330
1F
100
AcDbEntity
  8
SK1
100
AcDbCircle
 10
-5.735361477706419
 20
-3.072264998530626
 30
0.0
 40
0.130949
100
AcDbArc
 50
195.0000009999988
 51
270.0000050000005
  0
LINE
  5
20CA9
330
1F
100
AcDbEntity
  8
SK1
100
AcDbLine
 10
-5.861850153306477
 20
-3.106157621630628
 30
0.0
 11
-5.904874958206391
 21
-2.945582921330624
 31
0.0
  0
ARC
  5
20CAA
330
1F
100
AcDbEntity
  8
SK1
100
AcDbCircle
 10
-6.099470208706406
 20
-2.99772479853064
 30
0.0
 40
0.20146
100
AcDbArc
 50
14.99999999999956
 51
90.00000500000046
  0
LINE
  5
20CAB
330
1F
100
AcDbEntity
  8
SK1
100
AcDbLine
 10
-6.099470208706406
 20
-2.796264798530628
 30
0.0
 11
-6.522067814206478
 21
-2.796264798530628
 31
0.0
  0
LINE
  5
20CAC
330
1F
100
AcDbEntity
  8
SK1
100
AcDbLine
 10
-3.864775158706493
 20
2.796264801469361
 30
0.0
 11
-4.180130569706419
 21
2.796264801469361
 31
0.0
  0
ARC
  5
20CAD
330
1F
100
AcDbEntity
  8
SK1
100
AcDbCircle
 10
-4.180130569706419
 20
2.99772480146936
 30
0.0
 40
0.20146
100
AcDbArc
 50
195.0000009999988
 51
270.0000050000005
  0
LINE
  5
20CAE
330
1F
100
AcDbEntity
  8
SK1
100
AcDbLine
 10
-4.374725820206434
 20
2.945582924269372
 30
0.0
 11
-4.417751632406407
 21
3.106157624569361
 31
0.0
  0
ARC
  5
20CAF
330
1F
100
AcDbEntity
  8
SK1
100
AcDbCircle
 10
-4.544238293406465
 20
3.072265001469361
 30
0.0
 40
0.130949
100
AcDbArc
 50
14.99999999999956
 51
90.00000500000046
  0
LINE
  5
20CB0
330
1F
100
AcDbEntity
  8
SK1
100
AcDbLine
 10
-4.544238293406465
 20
3.203214001469376
 30
0.0
 11
-4.990464135006503
 21
3.203214001469376
 31
0.0
  0
ARC
  5
20CB1
330
1F
100
AcDbEntity
  8
SK1
100
AcDbCircle
 10
-4.990464135006503
 20
3.072265001469361
 30
0.0
 40
0.130949
100
AcDbArc
 50
90.00000500000046
 51
165.0000000000004
  0
LINE
  5
20CB2
330
1F
100
AcDbEntity
  8
SK1
100
AcDbLine
 10
-5.159976608206419
 20
2.945582924269372
 30
0.0
 11
-5.116950796006449
 21
3.106157624569361
 31
0.0
  0
ARC
  5
20CB3
330
1F
100
AcDbEntity
  8
SK1
100
AcDbCircle
 10
-5.354571858706433
 20
2.99772480146936
 30
0.0
 40
0.20146
100
AcDbArc
 50
270.0000050000005
 51
345.0000059999992
  0
ARC
  5
20CB4
330
1F
100
AcDbEntity
  8
SK1
100
AcDbCircle
 10
-6.234785854206393
 20
2.719710001469366
 30
0.0
 40
0.2872819600000001
100
AcDbArc
 50
164.5451300000009
 51
180.0000039999999
  0
LWPOLYLINE
  5
20CB5
330
1F
100
AcDbEntity
  8
SK1
100
AcDbPolyline
 90
       14
 70
     0
 43
0.0
 10
-4.403972775706391
 20
-2.989005609730639
 10
-4.465441243606391
 20
-2.649900079330634
 10
-4.52982181580637
 20
-2.149911614830641
 10
-4.594002942606493
 20
-1.519331741830625
 10
-4.706324951006422
 20
0.0000292131693556
 10
-4.803281605206393
 20
1.340554126169364
 10
-4.859039689406471
 20
1.929630217269362
 10
-4.945576832406459
 20
2.632559412769366
 10
-5.010086339006419
 20
2.991547030569363
 10
-5.039463236206414
 20
3.096838084969363
 10
-5.057748753106466
 20
3.138111195169357
 10
-5.066491109806406
 20
3.149932867969368
 10
-5.074968546606441
 20
3.155844711669373
 10
-5.079109556906472
 20
3.156580040669367
  0
LWPOLYLINE
  5
20CB6
330
1F
100
AcDbEntity
  8
SK1
100
AcDbPolyline
 90
       14
 70
     0
 43
0.0
 10
-3.710693514206468
 20
-3.156580037730633
 10
-3.713855428906413
 20
-3.156132796530627
 10
-3.720371652606444
 20
-3.152483348630638
 10
-3.727128621006386
 20
-3.145167328730636
 10
-3.741290251706459
 20
-3.119579894130623
 10
-3.763907158606456
 20
-3.054089277330631
 10
-3.812822653906437
 20
-2.828593084730627
 10
-3.891142243506465
 20
-2.278640525630634
 10
-3.97068066610643
 20
-1.519378077630634
 10
-4.082980513906477
 20
0.0000141036693719
 10
-4.20897964170649
 20
1.663620418669366
 10
-4.281928307706492
 20
2.334393576269363
 10
-4.353221979806447
 20
2.827000546369361
 10
-4.387008836406494
 20
2.994054200269373
  0
LWPOLYLINE
  5
20CB7
330
1F
100
AcDbEntity
  8
SK1
100
AcDbPolyline
 90
       14
 70
     0
 43
0.0
 10
-2.220896814206412
 20
-3.156580037730633
 10
-2.224057721606413
 20
-3.156132796530627
 10
-2.230574952606389
 20
-3.152483348630638
 10
-2.237331921006443
 20
-3.145167328730636
 10
-2.251493551706403
 20
-3.119579894130623
 10
-2.2741104586064
 20
-3.054089277330631
 10
-2.32302595390638
 20
-2.828593084730627
 10
-2.401345543506408
 20
-2.278640525630634
 10
-2.480884973406431
 20
-1.519378077630634
 10
-2.59318381390642
 20
0.0000141036693719
 10
-2.719182941706435
 20
1.663620418669366
 10
-2.792131607706437
 20
2.334393576269363
 10
-2.863424272506448
 20
2.827000546369361
 10
-2.897212136406437
 20
2.994054200269373
  0
LWPOLYLINE
  5
20CB8
330
1F
100
AcDbEntity
  8
SK1
100
AcDbPolyline
 90
       14
 70
     0
 43
0.0
 10
-2.914177083006506
 20
-2.989005609730639
 10
-2.975644543606448
 20
-2.649900079330634
 10
-3.040026123106372
 20
-2.149911614830641
 10
-3.104206242606437
 20
-1.519331741830625
 10
-3.216527243706423
 20
0.0000292131693556
 10
-3.313484905206451
 20
1.340554126169364
 10
-3.369242989406415
 20
1.929630217269362
 10
-3.45577912510646
 20
2.632559412769366
 10
-3.520288631706421
 20
2.991547030569363
 10
-3.549666536206473
 20
3.096838084969363
 10
-3.567952053106408
 20
3.138111195169357
 10
-3.576694409806463
 20
3.149932867969368
 10
-3.585170839306442
 20
3.155844711669373
 10
-3.589312856906416
 20
3.156580040669367
  0
LWPOLYLINE
  5
20CB9
330
1F
100
AcDbEntity
  8
SK1
100
AcDbPolyline
 90
       14
 70
     0
 43
0.0
 10
-1.424379375706394
 20
-2.989005609730639
 10
-1.485847843606393
 20
-2.649900079330634
 10
-1.550228415806485
 20
-2.149911614830641
 10
-1.614410549906438
 20
-1.519331741830625
 10
-1.726730543706479
 20
0.0000292131693556
 10
-1.823688205206393
 20
1.340554126169364
 10
-1.879446289406472
 20
1.929630217269362
 10
-1.965982425106402
 20
2.632559412769366
 10
-2.03049293900642
 20
2.991547030569363
 10
-2.059869836206416
 20
3.096838084969363
 10
-2.078155353106466
 20
3.138111195169357
 10
-2.086897709806406
 20
3.149932867969368
 10
-2.095375146606443
 20
3.155844711669373
 10
-2.099517164206416
 20
3.156580040669367
  0
LWPOLYLINE
  5
20CBA
330
1F
100
AcDbEntity
  8
SK1
100
AcDbPolyline
 90
        6
 70
     0
 43
0.0
 10
-5.89376947570645
 20
-2.989005609730639
 10
-5.927534171706382
 20
-2.820729093630631
 10
-5.998449099006393
 20
-2.327305203230635
 10
-6.071289983906468
 20
-1.657506104730629
 10
-6.196430892106491
 20
0.0000312277693695
 10
-6.294093663606417
 20
1.351208338269358
  0
LWPOLYLINE
  5
20CBB
330
1F
100
AcDbEntity
  8
SK1
100
AcDbPolyline
 90
       11
 70
     0
 43
0.0
 10
-5.200490214206411
 20
-3.156580037730633
 10
-5.20366723840641
 20
-3.156131789230626
 10
-5.210192527806383
 20
-3.152499465430636
 10
-5.216935394006441
 20
-3.145224744830628
 10
-5.231023491806466
 20
-3.119783368730636
 10
-5.253493332906487
 20
-3.054665452930634
 10
-5.302217441206494
 20
-2.830403202830622
 10
-5.380902680706411
 20
-2.280029592330635
 10
-5.460418942706382
 20
-1.519382106830633
 10
-5.573087462306488
 20
0.0000392861693683
 10
-5.670574963606441
 20
1.351208338269358
  0
LINE
  5
20CBC
330
1F
100
AcDbEntity
  8
SK1
100
AcDbLine
 10
-5.79144995630645
 20
1.351208338269358
 30
0.0
 11
-6.173216656306407
 21
1.351208338269358
 31
0.0
  0
LINE
  5
20CBD
330
1F
100
AcDbEntity
  8
SK1
100
AcDbLine
 10
-6.323332560706376
 20
1.451566644569354
 30
0.0
 11
-6.481987347206428
 21
1.996127126769365
 31
0.0
  0
LINE
  5
20CBE
330
1F
100
AcDbEntity
  8
SK1
100
AcDbLine
 10
-5.668460640906459
 20
1.47114352006936
 30
0.0
 11
-5.659376809506396
 21
1.986796506869367
 31
0.0
  0
LWPOLYLINE
  5
20CBF
330
1F
100
AcDbEntity
  8
SK1
100
AcDbPolyline
 90
        7
 70
     0
 43
0.0
 10
-5.79144995630645
 20
1.351208338269358
 10
-5.742274577606393
 20
1.360507731869375
 10
-5.720275145606477
 20
1.371767331269367
 10
-5.701260343506418
 20
1.386864743669362
 10
-5.686025938306442
 20
1.405165370069369
 10
-5.675214587406456
 20
1.425902655169366
 10
-5.668460640906459
 20
1.47114352006936
  0
LWPOLYLINE
  5
20CC0
330
1F
100
AcDbEntity
  8
SK1
100
AcDbPolyline
 90
        6
 70
     0
 43
0.0
 10
-6.323332560706376
 20
1.451566644569354
 10
-6.317944513006409
 20
1.431450863569367
 10
-6.307709337706454
 20
1.412401813269369
 10
-6.274219634606422
 20
1.379994957669366
 10
-6.227311688206441
 20
1.358652285269356
 10
-6.173216656306407
 20
1.351208338269358
  0
LINE
  5
20CC1
330
1F
100
AcDbEntity
  8
SK1
100
AcDbLine
 10
0.0709463939936086
 20
-3.411254689430633
 30
0.0
 11
0.0000002403935468
 21
-3.407536564915375
 31
0.0
  0
LINE
  5
20CC2
330
1F
100
AcDbEntity
  8
SK1
100
AcDbLine
 10
0.0000002403935468
 20
-3.407536564915375
 30
0.0
 11
-1.20352381420639
 21
-3.34446264103063
 31
0.0
  0
ARC
  5
20CC3
330
1F
100
AcDbEntity
  8
SK1
100
AcDbCircle
 10
-1.265976414206419
 20
-3.265666598530642
 30
0.0
 40
0.0624526
100
AcDbArc
 50
0.0000030000001391
 51
90.00000500000046
  0
ARC
  5
20CC4
330
1F
100
AcDbEntity
  8
1
100
AcDbCircle
 10
0.0656741857935686
 20
-3.511847696630638
 30
0.0
 40
0.10073
100
AcDbArc
 50
0.0000030000001391
 51
86.99999500000055
  0
ARC
  5
20CC5
330
1F
100
AcDbEntity
  8
1
100
AcDbCircle
 10
0.0656741857935686
 20
3.511847699569357
 30
0.0
 40
0.10073
100
AcDbArc
 50
273.0000020000005
 51
0.0000030000001391
  0
LINE
  5
20CC6
330
1F
100
AcDbEntity
  8
SK1
100
AcDbLine
 10
-1.203522806906448
 20
3.344462643969363
 30
0.0
 11
0.0000002403935468
 21
3.407536564915445
 31
0.0
  0
LINE
  5
20CC7
330
1F
100
AcDbEntity
  8
SK1
100
AcDbLine
 10
0.0000002403935468
 20
3.407536564915445
 30
0.0
 11
0.0709463939936086
 21
3.411254692369368
 31
0.0
  0
ARC
  5
20CC8
330
1F
100
AcDbEntity
  8
SK1
100
AcDbCircle
 10
-1.265976414206419
 20
3.265666601469361
 30
0.0
 40
0.0624526
100
AcDbArc
 50
270.0000050000005
 51
0.0000030000001391
  0
LINE
  5
20CC9
330
1F
100
AcDbEntity
  8
SK3
  6
ByBlock
100
AcDbLine
 10
-5.59179906710642
 20
0.2709123291693629
 30
0.0
 11
-6.461629814206388
 21
0.7731087952693656
 31
0.0
  0
LINE
  5
20CCA
330
1F
100
AcDbEntity
  8
SK3
  6
ByBlock
100
AcDbLine
 10
-6.461629814206388
 20
-0.7731087923306319
 30
0.0
 11
-5.59179906710642
 21
-0.2709123262306292
 31
0.0
  0
LINE
  5
20CCB
330
1F
100
AcDbEntity
  8
SK3
  6
ByBlock
100
AcDbLine
 10
-5.336315553506436
 20
-0.2709123262306292
 30
0.0
 11
-5.59179906710642
 21
-0.2709123262306292
 31
0.0
  0
LINE
  5
20CCC
330
1F
100
AcDbEntity
  8
SK3
  6
ByBlock
100
AcDbLine
 10
-5.336315553506436
 20
0.2709123291693629
 30
0.0
 11
-5.59179906710642
 21
0.2709123291693629
 31
0.0
  0
ARC
  5
20CCD
330
1F
100
AcDbEntity
  8
SK3
  6
ByBlock
100
AcDbCircle
 10
-5.336315553506436
 20
0.0000000014693597
 30
0.0
 40
0.2709123277
100
AcDbArc
 50
270.0000050000005
 51
90.00000500000046
  0
ARC
  5
20CCE
330
1F
100
AcDbEntity
  8
SK3
  6
ByBlock
100
AcDbCircle
 10
-6.40119080690647
 20
0.8777904331693662
 30
0.0
 40
0.120876
100
AcDbArc
 50
180.0000039999999
 51
239.999995999997
  0
ARC
  5
20CCF
330
1F
100
AcDbEntity
  8
SK3
  6
ByBlock
100
AcDbCircle
 10
-6.40119080690647
 20
-0.8777904302306325
 30
0.0
 40
0.120876
100
AcDbArc
 50
120.0000030000022
 51
180.0000039999999
  0
ARC
  5
20CD0
330
1F
100
AcDbEntity
  8
1
100
AcDbCircle
 10
0.2518257231612324
 20
-3.640459334734528
 30
0.0
 40
0.251825
100
AcDbArc
 50
179.9805930000001
 51
250.1714983592591
  0
DIMENSION
  5
20CD1
102
{ACAD_XDICTIONARY
360
20CD2
102
}
102
{ACAD_REACTORS
330
20CD3
102
}
330
1F
100
AcDbEntity
  8
2
100
AcDbDimension
  2
*D3
 10
0.9962048519774961
 20
18.67231915951778
 30
0.0
 11
-12.72304321548563
 21
18.67231915951778
 31
0.0
 70
   160
  1
1.57
 71
     5
 42
1.580388183332047
  3
STANDARD
100
AcDbAlignedDimension
 13
2.576593035309543
 23
8.700694854758875
 33
0.0
 14
0.9962048519774956
 24
8.700694854758861
 34
0.0
100
AcDbRotatedDimension
1001
ACAD
1000
DSTYLE
1002
{
1070
   172
1070
     1
1002
}
  0
INSERT
  5
20CD4
102
{ACAD_REACTORS
330
20CD8
102
}
330
1F
100
AcDbEntity
  8
CUT
100
AcDbBlockReference
  2
CUT
 10
-114.4006957839807
 20
-93.56634773411803
 30
0.0
 41
1.0073
 42
1.0073
 43
1.0073
  0
INSERT
  5
20CD5
330
1F
100
AcDbEntity
  8
NOCUT
100
AcDbBlockReference
  2
NOCUT
 10
-118.9760863942098
 20
-96.12297439023443
 30
0.0
 41
1.0073
 42
1.0073
 43
1.0073
  0
DIMENSION
  5
20CD6
102
{ACAD_XDICTIONARY
360
20CD7
102
}
102
{ACAD_REACTORS
330
20CD8
102
}
330
1F
100
AcDbEntity
  8
2
100
AcDbDimension
  2
*D4
 10
2.375229420707751
 20
8.706925931269282
 30
0.0
 11
20.97836920670563
 21
22.01550865932645
 31
0.0
 70
   164
 71
     5
 42
0.2014599999995461
  3
STANDARD
100
AcDbRadialDimension
 15
2.53907819999936
 25
8.824142436610753
 35
0.0
 40
0.0
1001
ACAD
1000
DSTYLE
1002
{
1070
   271
1070
     1
1070
   288
1070
     1
1002
}
1001
ACAD_DSTYLE_DIMRADIAL_EXTENSION
1070
   387
1070
     1
1070
   388
1040
6.252250777142929
1070
   390
1040
1.570796326794896
  0
INSERT
  5
20CD9
330
1F
100
AcDbEntity
  8
2
100
AcDbBlockReference
  2
cero_point
 10
0.0000001295978791
 20
0.0000000000000071
 30
0.0
 41
0.5391072003935733
 42
0.5391072003935733
 43
0.5391072003935733
  0
ATTDEF
  5
20CDA
330
1F
100
AcDbEntity
  8
SK6
100
AcDbText
 10
-17.74118109798381
 20
-15.88582819601521
 30
0.0
 40
2.5
  1

 72
     1
 11
-2.577793887864345
 21
-15.88582819601521
 31
0.0
100
AcDbAttributeDefinition
  3

  2
16T17716T5RK02
 70
     0
  0
INSERT
  5
20D03
330
1F
100
AcDbEntity
  8
CUT
100
AcDbBlockReference
  2
CUT
 10
-114.4006957839807
 20
93.56634773705676
 30
0.0
 41
-1.0073
 42
1.0073
 43
1.0073
 50
180.0
  0
DIMENSION
  5
20D0B
330
1F
100
AcDbEntity
  8
2
100
AcDbDimension
  2
*D5
 10
13.81615333182299
 20
-8.908385928330591
 30
0.0
 11
11.86301208094456
 21
0.0000000014693494
 31
0.0
 70
    32
  1
%%C<>
 71
     5
 42
17.81677185959988
  3
STANDARD
100
AcDbAlignedDimension
 13
2.375229420707795
 23
8.90838593126929
 33
0.0
 14
2.375229420707681
 24
-8.90838592833059
 34
0.0
 50
90.0
100
AcDbRotatedDimension
  0
VIEWPORT
  5
9C00
102
{ACAD_XDICTIONARY
360
20E3D
102
}
330
1B
100
AcDbEntity
 67
     1
  8
0
100
AcDbViewport
 10
108.2280559557949
 20
71.69854161746989
 30
0.0
 40
251.8950231529317
 41
201.8884082081047
 68
     1
 69
     1
 12
108.2280559557949
 22
71.69854161746989
 13
0.0
 23
0.0
 14
10.0
 24
10.0
 15
10.0
 25
10.0
 16
0.0
 26
0.0
 36
1.0
 17
0.0
 27
0.0
 37
0.0
 42
50.0
 43
0.0
 44
0.0
 45
201.8884082081047
 50
0.0
 51
0.0
 72
   100
 90
   557088
  1

281
     0
 71
     1
 74
     0
110
0.0
120
0.0
130
0.0
111
1.0
121
0.0
131
0.0
112
0.0
122
1.0
132
0.0
 79
     0
146
0.0
  0
VIEWPORT
  5
9C02
102
{ACAD_XDICTIONARY
360
20E3F
102
}
330
1B
100
AcDbEntity
 67
     1
  8
1
100
AcDbViewport
 10
143.457083940506
 20
98.18158769607544
 30
0.0
 40
229.5313343048095
 41
157.0905403137207
 68
     2
 69
     2
 12
-44.37697124786255
 22
-35.12342998133886
 13
0.0
 23
0.0
 14
10.0
 24
10.0
 15
10.0
 25
10.0
 16
0.0
 26
0.0
 36
1.0
 17
0.0
 27
0.0
 37
0.0
 42
50.0
 43
0.0
 44
0.0
 45
300.3886240724386
 50
0.0
 51
0.0
 72
   100
 90
   557088
  1

281
     0
 71
     1
 74
     0
110
0.0
120
0.0
130
0.0
111
1.0
121
0.0
131
0.0
112
0.0
122
1.0
132
0.0
 79
     0
146
0.0
  0
ENDSEC
  0
SECTION
  2
OBJECTS
  0
DICTIONARY
  5
3182
330
0
100
AcDbDictionary
281
     1
  3
ACAD_CIP_PREVIOUS_PRODUCT_INFO
350
1B2F4
  3
ACAD_COLOR
350
31A0
  3
ACAD_DETAILVIEWSTYLE
350
1B2F0
  3
ACAD_GROUP
350
3183
  3
ACAD_LAYOUT
350
31A5
  3
ACAD_MATERIAL
350
318B
  3
ACAD_MLEADERSTYLE
350
1B221
  3
ACAD_MLINESTYLE
350
3184
  3
ACAD_PLOTSETTINGS
350
31A4
  3
ACAD_PLOTSTYLENAME
350
3189
  3
ACAD_SCALELIST
350
1B1FC
  3
ACAD_SECTIONVIEWSTYLE
350
1B2EE
  3
ACAD_TABLESTYLE
350
31A1
  3
ACAD_VISUALSTYLE
350
318F
  3
ACDB_RECOMPOSE_DATA
350
20E16
  3
AcDbVariableDictionary
350
33A3
  3
AEC_PROPERTY_SET_DEFS
350
20C0B
  3
DWGPROPS
350
20E17
  0
DICTIONARY
  5
422A
330
2
100
AcDbDictionary
280
     1
281
     1
  3
ACAD_LAYERFILTERS
360
1B063
  3
ACAD_LAYERSTATES
360
9A1C
  3
ACLYDICTIONARY
360
1B062
  0
DICTIONARY
  5
1B2F5
330
10
100
AcDbDictionary
280
     1
281
     1
  3
ADSK_XREC_LAYER_RECONCILED
360
20A9D
  0
DICTIONARY
  5
1B2F7
330
3F8C
100
AcDbDictionary
280
     1
281
     1
  3
ADSK_XREC_LAYER_RECONCILED
360
20A9E
  0
DICTIONARY
  5
1B2F9
330
9C4A
100
AcDbDictionary
280
     1
281
     1
  3
ADSK_XREC_LAYER_RECONCILED
360
20A9F
  0
DICTIONARY
  5
1B2FB
330
9C4B
100
AcDbDictionary
280
     1
281
     1
  3
ADSK_XREC_LAYER_RECONCILED
360
20AA0
  0
DICTIONARY
  5
1B2FD
330
9C4D
100
AcDbDictionary
280
     1
281
     1
  3
ADSK_XREC_LAYER_RECONCILED
360
20AA1
  0
DICTIONARY
  5
1B2FF
330
9C4E
100
AcDbDictionary
280
     1
281
     1
  3
ADSK_XREC_LAYER_RECONCILED
360
20AA2
  0
DICTIONARY
  5
1B303
330
9C50
100
AcDbDictionary
280
     1
281
     1
  3
ADSK_XREC_LAYER_RECONCILED
360
20AA4
  0
DICTIONARY
  5
1B305
330
9C51
100
AcDbDictionary
280
     1
281
     1
  3
ADSK_XREC_LAYER_RECONCILED
360
20AA5
  0
DICTIONARY
  5
1B307
330
13335
100
AcDbDictionary
280
     1
281
     1
  3
ADSK_XREC_LAYER_RECONCILED
360
20AA6
  0
DICTIONARY
  5
1B309
330
1686E
100
AcDbDictionary
280
     1
281
     1
  3
ADSK_XREC_LAYER_RECONCILED
360
20AA7
  0
DICTIONARY
  5
20A84
330
20A83
100
AcDbDictionary
280
     1
281
     1
  3
ADSK_XREC_LAYER_RECONCILED
360
20AA8
  0
DICTIONARY
  5
20AA9
330
20A91
100
AcDbDictionary
280
     1
281
     1
  3
ADSK_XREC_LAYER_RECONCILED
360
20AAA
  0
DICTIONARY
  5
339C
330
1F
100
AcDbDictionary
280
     1
281
     1
  3
ACAD_SORTENTS
360
339D
  0
DICTIONARY
  5
1DE81
330
1B3D7
100
AcDbDictionary
280
     1
281
     1
  3
AcDbBlockTableRecordData
360
20E59
  0
DICTIONARY
  5
20CD2
330
20CD1
100
AcDbDictionary
280
     1
281
     1
  3
ACAD_DIMASSOC
360
20CD3
  0
DICTIONARY
  5
20CD7
330
20CD6
100
AcDbDictionary
280
     1
281
     1
  3
ACAD_DIMASSOC
360
20CD8
  0
DICTIONARY
  5
20E3D
330
9C00
100
AcDbDictionary
280
     1
281
     1
  3
ACAD_XREC_ROUNDTRIP
360
20E3E
  0
DICTIONARY
  5
20E3F
330
9C02
100
AcDbDictionary
280
     1
281
     1
  3
ACAD_XREC_ROUNDTRIP
360
20E40
  0
XRECORD
  5
1B2F4
102
{ACAD_REACTORS
330
3182
102
}
330
3182
100
AcDbXrecord
280
     1
300
ACDLT
300
2015
300
ACDLT_F_S
  0
DICTIONARY
  5
31A0
102
{ACAD_REACTORS
330
3182
102
}
330
3182
100
AcDbDictionary
281
     1
  0
DICTIONARY
  5
1B2F0
102
{ACAD_REACTORS
330
3182
102
}
330
3182
100
AcDbDictionary
281
     1
  3
Metric50
350
1B2F1
  0
DICTIONARY
  5
3183
102
{ACAD_REACTORS
330
3182
102
}
330
3182
100
AcDbDictionary
281
     1
  0
DICTIONARY
  5
31A5
102
{ACAD_REACTORS
330
3182
102
}
330
3182
100
AcDbDictionary
281
     1
  3
Layout1
350
31A7
  3
Model
350
31A6
  0
DICTIONARY
  5
318B
102
{ACAD_REACTORS
330
3182
102
}
330
3182
100
AcDbDictionary
281
     1
  3
ByBlock
350
318D
  3
ByLayer
350
318C
  3
Global
350
318E
  0
DICTIONARY
  5
1B221
102
{ACAD_REACTORS
330
3182
102
}
330
3182
100
AcDbDictionary
281
     1
  3
Standard
350
1B2ED
  0
DICTIONARY
  5
3184
102
{ACAD_REACTORS
330
3182
102
}
330
3182
100
AcDbDictionary
281
     1
  3
STANDARD
350
3185
  0
DICTIONARY
  5
31A4
102
{ACAD_REACTORS
330
3182
102
}
330
3182
100
AcDbDictionary
281
     1
  0
ACDBDICTIONARYWDFLT
  5
3189
102
{ACAD_REACTORS
330
3182
102
}
330
3182
100
AcDbDictionary
281
     1
  3
Normal
350
318A
100
AcDbDictionaryWithDefault
340
318A
  0
DICTIONARY
  5
1B1FC
102
{ACAD_REACTORS
330
3182
102
}
330
3182
100
AcDbDictionary
281
     1
  3
A0
350
1B1FD
  3
A1
350
1B1FE
  3
A2
350
1B1FF
  3
A3
350
1B200
  3
A4
350
1B201
  3
A5
350
1B202
  3
A6
350
1B203
  3
A7
350
1B204
  3
A8
350
1B205
  3
A9
350
1B206
  3
B0
350
1B207
  3
B1
350
1B208
  3
B2
350
1B209
  3
B3
350
1B20A
  3
B4
350
1B20B
  3
B5
350
1B20C
  3
B6
350
1B20D
  3
B7
350
1B20E
  3
B8
350
1B20F
  3
B9
350
1B210
  3
C0
350
1B211
  3
C1
350
1B212
  3
C2
350
1B213
  3
C3
350
1B214
  3
C4
350
1B215
  3
C5
350
1B216
  3
C6
350
1B217
  3
C7
350
1B218
  3
C8
350
1B219
  3
C9
350
1B21A
  3
D0
350
1B21B
  3
D1
350
1B21C
  3
D2
350
1B21D
  0
DICTIONARY
  5
1B2EE
102
{ACAD_REACTORS
330
3182
102
}
330
3182
100
AcDbDictionary
281
     1
  3
Metric50
350
1B2EF
  0
DICTIONARY
  5
31A1
102
{ACAD_REACTORS
330
3182
102
}
330
3182
100
AcDbDictionary
281
     1
  3
Standard
350
31A2
  0
DICTIONARY
  5
318F
102
{ACAD_REACTORS
330
3182
102
}
330
3182
100
AcDbDictionary
281
     1
  3
2dWireframe
350
3195
  3
3D Hidden
350
3197
  3
3dWireframe
350
3196
  3
Basic
350
3194
  3
Brighten
350
319B
  3
ColorChange
350
319F
  3
Conceptual
350
3198
  3
Dim
350
319A
  3
EdgeColorOff
350
1B2EC
  3
Facepattern
350
319E
  3
Flat
350
3190
  3
FlatWithEdges
350
3191
  3
Gouraud
350
3192
  3
GouraudWithEdges
350
3193
  3
Hidden
350
1B2E4
  3
JitterOff
350
1B2EA
  3
Linepattern
350
319D
  3
OverhangOff
350
1B2EB
  3
Realistic
350
3199
  3
Shaded
350
1B2E9
  3
Shaded with edges
350
1B2E8
  3
Shades of Gray
350
1B2E5
  3
Sketchy
350
1B2E6
  3
Thicken
350
319C
  3
Wireframe
350
1B2E3
  3
X-Ray
350
1B2E7
  0
XRECORD
  5
20E16
102
{ACAD_REACTORS
330
3182
102
}
330
3182
100
AcDbXrecord
280
     1
 90
        1
330
31A2
  0
DICTIONARY
  5
33A3
102
{ACAD_REACTORS
330
3182
102
}
330
3182
100
AcDbDictionary
281
     1
  3
CANNOSCALE
350
1B222
  3
CMLEADERSTYLE
350
1B30F
  3
CTABLESTYLE
350
33A4
  3
CVIEWDETAILSTYLE
350
1B310
  3
CVIEWSECTIONSTYLE
350
1B311
  3
DIMASSOC
350
9BE8
  3
INDEXCTL
350
9BE7
  3
LAYEREVAL
350
20993
  3
LAYERNOTIFY
350
20994
  3
LIGHTINGUNITS
350
20992
  3
MSLTSCALE
350
20991
  3
SORTENTS
350
9BE6
  3
XCLIPFRAME
350
20E14
  0
DICTIONARY
  5
20C0B
102
{ACAD_REACTORS
330
3182
102
}
330
3182
100
AcDbDictionary
281
     1
  0
XRECORD
  5
20E17
102
{ACAD_REACTORS
330
3182
102
}
330
3182
100
AcDbXrecord
280
     1
  1
DWGPROPS COOKIE
  2

  3

  4

  6

  7

  8
kamerka
  9

300
=
301
=
302
=
303
=
304
=
305
=
306
=
307
=
308
=
309
=
 40
0.0016055324074074
 41
2457351.313439815
 42
2457351.3386211
  1

 90
        0
  0
DICTIONARY
  5
1B063
102
{ACAD_REACTORS
330
422A
102
}
330
422A
100
AcDbDictionary
281
     1
  0
DICTIONARY
  5
9A1C
102
{ACAD_REACTORS
330
422A
102
}
330
422A
100
AcDbDictionary
281
     1
  0
DICTIONARY
  5
1B062
102
{ACAD_REACTORS
330
422A
102
}
330
422A
100
AcDbDictionary
281
     1
1001
ACAD
1000
<All
  0
XRECORD
  5
20A9D
102
{ACAD_REACTORS
330
1B2F5
102
}
330
1B2F5
100
AcDbXrecord
280
     1
290
     1
  0
XRECORD
  5
20A9E
102
{ACAD_REACTORS
330
1B2F7
102
}
330
1B2F7
100
AcDbXrecord
280
     1
290
     1
  0
XRECORD
  5
20A9F
102
{ACAD_REACTORS
330
1B2F9
102
}
330
1B2F9
100
AcDbXrecord
280
     1
290
     1
  0
XRECORD
  5
20AA0
102
{ACAD_REACTORS
330
1B2FB
102
}
330
1B2FB
100
AcDbXrecord
280
     1
290
     1
  0
XRECORD
  5
20AA1
102
{ACAD_REACTORS
330
1B2FD
102
}
330
1B2FD
100
AcDbXrecord
280
     1
290
     1
  0
XRECORD
  5
20AA2
102
{ACAD_REACTORS
330
1B2FF
102
}
330
1B2FF
100
AcDbXrecord
280
     1
290
     1
  0
XRECORD
  5
20AA4
102
{ACAD_REACTORS
330
1B303
102
}
330
1B303
100
AcDbXrecord
280
     1
290
     1
  0
XRECORD
  5
20AA5
102
{ACAD_REACTORS
330
1B305
102
}
330
1B305
100
AcDbXrecord
280
     1
290
     1
  0
XRECORD
  5
20AA6
102
{ACAD_REACTORS
330
1B307
102
}
330
1B307
100
AcDbXrecord
280
     1
290
     1
  0
XRECORD
  5
20AA7
102
{ACAD_REACTORS
330
1B309
102
}
330
1B309
100
AcDbXrecord
280
     1
290
     1
  0
XRECORD
  5
20AA8
102
{ACAD_REACTORS
330
20A84
102
}
330
20A84
100
AcDbXrecord
280
     1
290
     1
  0
XRECORD
  5
20AAA
102
{ACAD_REACTORS
330
20AA9
102
}
330
20AA9
100
AcDbXrecord
280
     1
290
     1
  0
SORTENTSTABLE
  5
339D
102
{ACAD_REACTORS
330
339C
102
}
330
339C
100
AcDbSortentsTable
330
1F
331
208E9
  5
208E9
331
208EA
  5
208EA
331
208EB
  5
208EB
331
1FB3A
  5
1FB3A
  0
DICTIONARY
  5
20E59
102
{ACAD_REACTORS
330
1DE81
102
}
330
1DE81
100
AcDbDictionary
280
     1
281
     1
  3
Edit
360
20E5A
  0
DIMASSOC
  5
20CD3
102
{ACAD_REACTORS
330
20CD2
102
}
330
20CD2
100
AcDbDimAssoc
330
20CD1
 90
        3
 70
     0
 71
     0
  1
AcDbOsnapPointRef
 72
     6
331
20C45
 73
     2
 91
        0
 40
1.0
 10
0.0
 20
0.0
 30
0.0
332
20C46
 74
     2
 92
        0
 75
     0
  1
AcDbOsnapPointRef
 72
     6
331
20C41
 73
     2
 91
        0
 40
1.0
 10
0.0
 20
0.0
 30
0.0
332
20C40
 74
     2
 92
        0
 75
     0
  0
DIMASSOC
  5
20CD8
102
{ACAD_REACTORS
330
20CD7
102
}
330
20CD7
100
AcDbDimAssoc
330
20CD6
 90
        2
 70
     0
 71
     0
  1
AcDbOsnapPointRef
 72
     3
331
20CD4
331
20B07
 73
     2
 91
        0
 40
0.0
 10
0.0
 20
0.0
 30
0.0
 75
     0
  0
XRECORD
  5
20E3E
102
{ACAD_REACTORS
330
20E3D
102
}
330
20E3D
100
AcDbXrecord
280
     1
102
SHADEPLOT
 70
     0
  0
XRECORD
  5
20E40
102
{ACAD_REACTORS
330
20E3F
102
}
330
20E3F
100
AcDbXrecord
280
     1
102
SHADEPLOT
 70
     0
  0
ACDBDETAILVIEWSTYLE
  5
1B2F1
102
{ACAD_XDICTIONARY
360
20E57
102
}
102
{ACAD_REACTORS
330
1B2F0
102
}
330
1B2F0
100
AcDbModelDocViewStyle
 70
     0
  3
Metric50
290
     0
100
AcDbDetailViewStyle
 70
     0
 71
     0
 90
        3
 71
     1
340
11
 40
5.0
340
0
 40
5.0
300

 40
0.0
280
     1
 71
     2
340
16
 90
       25
 71
     3
340
11
 40
5.0
 90
        0
 40
15.0
 90
        1
300
%<\AcVar ViewDetailId>% (%<\AcVar ViewScale \f "%sn">%)
 71
     4
340
16
 90
       25
340
16
 90
       25
280
     0
  0
LAYOUT
  5
31A7
102
{ACAD_XDICTIONARY
360
20E3B
102
}
102
{ACAD_REACTORS
330
31A5
102
}
330
31A5
100
AcDbPlotSettings
  1

  2
\\ingdc01\ITB3
  4
A4
  6

 40
6.805083274841307
 41
5.027085781097412
 42
6.805068969726562
 43
5.027069091796875
 44
209.9733276367186
 45
296.9683227539062
 46
0.0
 47
0.0
 48
0.0
 49
0.0
140
0.0
141
0.0
142
1.0
143
1.0
 70
   688
 72
     1
 73
     1
 74
     5
  7

 75
    16
147
1.0
148
0.0
149
0.0
100
AcDbLayout
  1
Layout1
 70
     1
 71
     1
 10
-5.027069091796875
 20
-6.805083274841307
 11
291.9412536621094
 21
203.1682443618775
 12
0.0
 22
0.0
 32
0.0
 14
28.69141678810127
 24
19.6363175392151
 34
0.0
 15
258.2227510929107
 25
176.7268578529358
 35
0.0
146
0.0
 13
0.0
 23
0.0
 33
0.0
 16
1.0
 26
0.0
 36
0.0
 17
0.0
 27
1.0
 37
0.0
 76
     0
330
1B
331
9C00
1001
ACAD_PSEXT
1000
\\ingdc01\ITB3
1000
HP LaserJet 5000 Series PCL
1000
TB
1000

1070
     0
  0
LAYOUT
  5
31A6
102
{ACAD_XDICTIONARY
360
20E39
102
}
102
{ACAD_REACTORS
330
31A5
102
}
330
31A5
100
AcDbPlotSettings
  1

  2
\\ingdc01\ITB3
  4
A4
  6

 40
6.805083274841307
 41
5.027085781097412
 42
6.805068969726562
 43
5.027069091796875
 44
209.9733276367186
 45
296.9683227539062
 46
0.0
 47
0.0
 48
0.0
 49
0.0
140
0.0
141
0.0
142
1.0
143
1.500313223655698
 70
 11952
 72
     1
 73
     1
 74
     0
  7

 75
     0
147
0.6665274852163048
148
239.0155119930048
149
102.2558208723354
100
AcDbLayout
  1
Model
 70
     1
 71
     0
 10
0.0
 20
0.0
 11
12.0
 21
9.0
 12
0.0
 22
0.0
 32
0.0
 14
0.0
 24
0.0
 34
0.0
 15
0.0
 25
0.0
 35
0.0
146
0.0
 13
0.0
 23
0.0
 33
0.0
 16
1.0
 26
0.0
 36
0.0
 17
0.0
 27
1.0
 37
0.0
 76
     0
330
1F
331
1F4
1001
ACAD_PSEXT
1000
\\ingdc01\ITB3
1000
HP LaserJet 5000 Series PCL
1000
TB
1000

1070
     0
  0
MATERIAL
  5
318D
102
{ACAD_XDICTIONARY
360
1B22B
102
}
102
{ACAD_REACTORS
330
318B
102
}
330
318B
100
AcDbMaterial
  1
ByBlock
  0
MATERIAL
  5
318C
102
{ACAD_XDICTIONARY
360
1B22D
102
}
102
{ACAD_REACTORS
330
318B
102
}
330
318B
100
AcDbMaterial
  1
ByLayer
  0
MATERIAL
  5
318E
102
{ACAD_XDICTIONARY
360
1B22F
102
}
102
{ACAD_REACTORS
330
318B
102
}
330
318B
100
AcDbMaterial
  1
Global
  0
MLEADERSTYLE
  5
1B2ED
102
{ACAD_REACTORS
330
1B221
102
}
330
1B221
100
AcDbMLeaderStyle
170
     2
171
     1
172
     0
 90
        2
 40
0.0
 41
0.0
173
     1
 91
-1056964608
340
14
 92
       -2
290
     1
 42
2.0
291
     1
 43
0.36
  3
Standard
 44
4.0
300

342
11
174
     1
178
     6
175
     1
176
     0
 93
-1056964608
 45
4.0
292
     0
297
     0
 46
4.0
 94
-1056964608
 47
1.0
 49
1.0
140
1.0
293
     1
141
0.0
294
     1
177
     0
142
1.0
295
     0
296
     0
143
0.125
1001
ACAD_MLEADERVER
1070
     2
  0
MLINESTYLE
  5
3185
102
{ACAD_REACTORS
330
3184
102
}
330
3184
100
AcDbMlineStyle
  2
STANDARD
 70
     0
  3

 62
   256
 51
90.0
 52
90.0
 71
     2
 49
0.5
 62
   256
  6
BYLAYER
 49
-0.5
 62
   256
  6
BYLAYER
  0
ACDBPLACEHOLDER
  5
318A
102
{ACAD_REACTORS
330
3189
102
}
330
3189
  0
SCALE
  5
1B1FD
102
{ACAD_REACTORS
330
1B1FC
102
}
330
1B1FC
100
AcDbScale
 70
     0
300
1:1
140
1.0
141
1.0
290
     1
1001
ACAD
1000
AcRTDxfName
1000
SCALE
  0
SCALE
  5
1B1FE
102
{ACAD_REACTORS
330
1B1FC
102
}
330
1B1FC
100
AcDbScale
 70
     0
300
1:2
140
1.0
141
2.0
290
     0
1001
ACAD
1000
AcRTDxfName
1000
SCALE
  0
SCALE
  5
1B1FF
102
{ACAD_REACTORS
330
1B1FC
102
}
330
1B1FC
100
AcDbScale
 70
     0
300
1:4
140
1.0
141
4.0
290
     0
1001
ACAD
1000
AcRTDxfName
1000
SCALE
  0
SCALE
  5
1B200
102
{ACAD_REACTORS
330
1B1FC
102
}
330
1B1FC
100
AcDbScale
 70
     0
300
1:5
140
1.0
141
5.0
290
     0
1001
ACAD
1000
AcRTDxfName
1000
SCALE
  0
SCALE
  5
1B201
102
{ACAD_REACTORS
330
1B1FC
102
}
330
1B1FC
100
AcDbScale
 70
     0
300
1:8
140
1.0
141
8.0
290
     0
1001
ACAD
1000
AcRTDxfName
1000
SCALE
  0
SCALE
  5
1B202
102
{ACAD_REACTORS
330
1B1FC
102
}
330
1B1FC
100
AcDbScale
 70
     0
300
1:10
140
1.0
141
10.0
290
     0
1001
ACAD
1000
AcRTDxfName
1000
SCALE
  0
SCALE
  5
1B203
102
{ACAD_REACTORS
330
1B1FC
102
}
330
1B1FC
100
AcDbScale
 70
     0
300
1:16
140
1.0
141
16.0
290
     0
1001
ACAD
1000
AcRTDxfName
1000
SCALE
  0
SCALE
  5
1B204
102
{ACAD_REACTORS
330
1B1FC
102
}
330
1B1FC
100
AcDbScale
 70
     0
300
1:20
140
1.0
141
20.0
290
     0
1001
ACAD
1000
AcRTDxfName
1000
SCALE
  0
SCALE
  5
1B205
102
{ACAD_REACTORS
330
1B1FC
102
}
330
1B1FC
100
AcDbScale
 70
     0
300
1:30
140
1.0
141
30.0
290
     0
1001
ACAD
1000
AcRTDxfName
1000
SCALE
  0
SCALE
  5
1B206
102
{ACAD_REACTORS
330
1B1FC
102
}
330
1B1FC
100
AcDbScale
 70
     0
300
1:40
140
1.0
141
40.0
290
     0
1001
ACAD
1000
AcRTDxfName
1000
SCALE
  0
SCALE
  5
1B207
102
{ACAD_REACTORS
330
1B1FC
102
}
330
1B1FC
100
AcDbScale
 70
     0
300
1:50
140
1.0
141
50.0
290
     0
1001
ACAD
1000
AcRTDxfName
1000
SCALE
  0
SCALE
  5
1B208
102
{ACAD_REACTORS
330
1B1FC
102
}
330
1B1FC
100
AcDbScale
 70
     0
300
1:100
140
1.0
141
100.0
290
     0
1001
ACAD
1000
AcRTDxfName
1000
SCALE
  0
SCALE
  5
1B209
102
{ACAD_REACTORS
330
1B1FC
102
}
330
1B1FC
100
AcDbScale
 70
     0
300
2:1
140
2.0
141
1.0
290
     0
1001
ACAD
1000
AcRTDxfName
1000
SCALE
  0
SCALE
  5
1B20A
102
{ACAD_REACTORS
330
1B1FC
102
}
330
1B1FC
100
AcDbScale
 70
     0
300
4:1
140
4.0
141
1.0
290
     0
1001
ACAD
1000
AcRTDxfName
1000
SCALE
  0
SCALE
  5
1B20B
102
{ACAD_REACTORS
330
1B1FC
102
}
330
1B1FC
100
AcDbScale
 70
     0
300
8:1
140
8.0
141
1.0
290
     0
1001
ACAD
1000
AcRTDxfName
1000
SCALE
  0
SCALE
  5
1B20C
102
{ACAD_REACTORS
330
1B1FC
102
}
330
1B1FC
100
AcDbScale
 70
     0
300
10:1
140
10.0
141
1.0
290
     0
1001
ACAD
1000
AcRTDxfName
1000
SCALE
  0
SCALE
  5
1B20D
102
{ACAD_REACTORS
330
1B1FC
102
}
330
1B1FC
100
AcDbScale
 70
     0
300
100:1
140
100.0
141
1.0
290
     0
1001
ACAD
1000
AcRTDxfName
1000
SCALE
  0
SCALE
  5
1B20E
102
{ACAD_REACTORS
330
1B1FC
102
}
330
1B1FC
100
AcDbScale
 70
     0
300
1/128" = 1'-0"
140
0.0078125
141
12.0
290
     0
1001
ACAD
1000
AcRTDxfName
1000
SCALE
  0
SCALE
  5
1B20F
102
{ACAD_REACTORS
330
1B1FC
102
}
330
1B1FC
100
AcDbScale
 70
     0
300
1/64" = 1'-0"
140
0.015625
141
12.0
290
     0
1001
ACAD
1000
AcRTDxfName
1000
SCALE
  0
SCALE
  5
1B210
102
{ACAD_REACTORS
330
1B1FC
102
}
330
1B1FC
100
AcDbScale
 70
     0
300
1/32" = 1'-0"
140
0.03125
141
12.0
290
     0
1001
ACAD
1000
AcRTDxfName
1000
SCALE
  0
SCALE
  5
1B211
102
{ACAD_REACTORS
330
1B1FC
102
}
330
1B1FC
100
AcDbScale
 70
     0
300
1/16" = 1'-0"
140
0.0625
141
12.0
290
     0
1001
ACAD
1000
AcRTDxfName
1000
SCALE
  0
SCALE
  5
1B212
102
{ACAD_REACTORS
330
1B1FC
102
}
330
1B1FC
100
AcDbScale
 70
     0
300
3/32" = 1'-0"
140
0.09375
141
12.0
290
     0
1001
ACAD
1000
AcRTDxfName
1000
SCALE
  0
SCALE
  5
1B213
102
{ACAD_REACTORS
330
1B1FC
102
}
330
1B1FC
100
AcDbScale
 70
     0
300
1/8" = 1'-0"
140
0.125
141
12.0
290
     0
1001
ACAD
1000
AcRTDxfName
1000
SCALE
  0
SCALE
  5
1B214
102
{ACAD_REACTORS
330
1B1FC
102
}
330
1B1FC
100
AcDbScale
 70
     0
300
3/16" = 1'-0"
140
0.1875
141
12.0
290
     0
1001
ACAD
1000
AcRTDxfName
1000
SCALE
  0
SCALE
  5
1B215
102
{ACAD_REACTORS
330
1B1FC
102
}
330
1B1FC
100
AcDbScale
 70
     0
300
1/4" = 1'-0"
140
0.25
141
12.0
290
     0
1001
ACAD
1000
AcRTDxfName
1000
SCALE
  0
SCALE
  5
1B216
102
{ACAD_REACTORS
330
1B1FC
102
}
330
1B1FC
100
AcDbScale
 70
     0
300
3/8" = 1'-0"
140
0.375
141
12.0
290
     0
1001
ACAD
1000
AcRTDxfName
1000
SCALE
  0
SCALE
  5
1B217
102
{ACAD_REACTORS
330
1B1FC
102
}
330
1B1FC
100
AcDbScale
 70
     0
300
1/2" = 1'-0"
140
0.5
141
12.0
290
     0
1001
ACAD
1000
AcRTDxfName
1000
SCALE
  0
SCALE
  5
1B218
102
{ACAD_REACTORS
330
1B1FC
102
}
330
1B1FC
100
AcDbScale
 70
     0
300
3/4" = 1'-0"
140
0.75
141
12.0
290
     0
1001
ACAD
1000
AcRTDxfName
1000
SCALE
  0
SCALE
  5
1B219
102
{ACAD_REACTORS
330
1B1FC
102
}
330
1B1FC
100
AcDbScale
 70
     0
300
1" = 1'-0"
140
1.0
141
12.0
290
     0
1001
ACAD
1000
AcRTDxfName
1000
SCALE
  0
SCALE
  5
1B21A
102
{ACAD_REACTORS
330
1B1FC
102
}
330
1B1FC
100
AcDbScale
 70
     0
300
1-1/2" = 1'-0"
140
1.5
141
12.0
290
     0
1001
ACAD
1000
AcRTDxfName
1000
SCALE
  0
SCALE
  5
1B21B
102
{ACAD_REACTORS
330
1B1FC
102
}
330
1B1FC
100
AcDbScale
 70
     0
300
3" = 1'-0"
140
3.0
141
12.0
290
     0
1001
ACAD
1000
AcRTDxfName
1000
SCALE
  0
SCALE
  5
1B21C
102
{ACAD_REACTORS
330
1B1FC
102
}
330
1B1FC
100
AcDbScale
 70
     0
300
6" = 1'-0"
140
6.0
141
12.0
290
     0
1001
ACAD
1000
AcRTDxfName
1000
SCALE
  0
SCALE
  5
1B21D
102
{ACAD_REACTORS
330
1B1FC
102
}
330
1B1FC
100
AcDbScale
 70
     0
300
1'-0" = 1'-0"
140
12.0
141
12.0
290
     0
1001
ACAD
1000
AcRTDxfName
1000
SCALE
  0
ACDBSECTIONVIEWSTYLE
  5
1B2EF
102
{ACAD_XDICTIONARY
360
20E55
102
}
102
{ACAD_REACTORS
330
1B2EE
102
}
330
1B2EE
100
AcDbModelDocViewStyle
 70
     0
  3
Metric50
290
     0
100
AcDbSectionViewStyle
 70
     0
 71
     0
 90
      102
 71
     1
340
11
 40
5.0
340
0
340
0
 40
5.0
300
I, O, Q, S, X, Z
 40
10.0
 90
        0
 40
2.5
 90
        0
 71
     2
340
16
 90
       25
340
16
 90
       50
 40
5.0
 40
2.5
 40
5.0
 71
     3
340
11
 40
5.0
 90
        0
 40
15.0
 90
        1
300
%<\AcVar ViewSectionStartId>%-%<\AcVar ViewSectionEndId>% (%<\AcVar ViewScale \f "%sn">%)
 71
     4
300
ANSI31
 40
1.0
 90
        0
290
     0
290
     0
 90
        6
 40
0.0
 40
1.570796326794896
 40
0.2617993877991494
 40
1.308996938995747
 40
-0.2617993877991494
 40
1.832595714594044
  0
TABLESTYLE
  5
31A2
102
{ACAD_XDICTIONARY
360
1B314
102
}
102
{ACAD_REACTORS
330
31A1
102
}
330
31A1
100
AcDbTableStyle
  3
Standard
 70
     0
 71
     0
 40
1.5
 41
1.5
280
     0
281
     0
  7
STANDARD
140
4.5
170
     2
 62
     0
 63
     7
283
     0
274
    -2
284
     1
 64
     0
275
    -2
285
     1
 65
     0
276
    -2
286
     1
 66
     0
277
    -2
287
     1
 67
     0
278
    -2
288
     1
 68
     0
279
    -2
289
     1
 69
     0
  7
STANDARD
140
6.0
170
     5
 62
     0
 63
     7
283
     0
274
    -2
284
     1
 64
     0
275
    -2
285
     1
 65
     0
276
    -2
286
     1
 66
     0
277
    -2
287
     1
 67
     0
278
    -2
288
     1
 68
     0
279
    -2
289
     1
 69
     0
  7
STANDARD
140
4.5
170
     5
 62
     0
 63
     7
283
     0
274
    -2
284
     1
 64
     0
275
    -2
285
     1
 65
     0
276
    -2
286
     1
 66
     0
277
    -2
287
     1
 67
     0
278
    -2
288
     1
 68
     0
279
    -2
289
     1
 69
     0
  0
VISUALSTYLE
  5
3195
102
{ACAD_XDICTIONARY
360
20E22
102
}
102
{ACAD_REACTORS
330
318F
102
}
330
318F
100
AcDbVisualStyle
  2

 70
     4
 71
     0
 72
     2
 73
     0
 90
        0
 40
-0.6
 41
-30.0
 62
     5
 63
     7
 74
     1
 91
        4
 64
     7
 65
   257
 75
     1
175
     1
 42
1.0
 92
        0
 66
   257
 43
1.0
 76
     1
 77
     6
 78
     2
 67
     7
 79
     5
170
     0
171
     0
290
     0
174
     0
 93
        1
 44
0.0
173
     0
291
     0
 45
0.0
1001
ACAD
1000
AcDbSavedByObjectVersion
1070
     0
  0
VISUALSTYLE
  5
3197
102
{ACAD_XDICTIONARY
360
20E26
102
}
102
{ACAD_REACTORS
330
318F
102
}
330
318F
100
AcDbVisualStyle
  2

 70
     6
 71
     1
 72
     2
 73
     2
 90
        0
 40
-0.6
 41
-30.0
 62
     5
 63
     7
 74
     2
 91
        2
 64
     7
 65
   257
 75
     2
175
     1
 42
40.0
 92
        0
 66
   257
 43
1.0
 76
     1
 77
     6
 78
     2
 67
     7
 79
     3
170
     0
171
     0
290
     0
174
     0
 93
        1
 44
0.0
173
     0
291
     0
 45
0.0
1001
ACAD
1000
AcDbSavedByObjectVersion
1070
     0
  0
VISUALSTYLE
  5
3196
102
{ACAD_XDICTIONARY
360
20E24
102
}
102
{ACAD_REACTORS
330
318F
102
}
330
318F
100
AcDbVisualStyle
  2

 70
     5
 71
     0
 72
     2
 73
     0
 90
        0
 40
-0.6
 41
-30.0
 62
     5
 63
     7
 74
     1
 91
        4
 64
     7
 65
   257
 75
     1
175
     1
 42
1.0
 92
        0
 66
   257
 43
1.0
 76
     1
 77
     6
 78
     2
 67
     7
 79
     5
170
     0
171
     0
290
     0
174
     0
 93
        1
 44
0.0
173
     0
291
     0
 45
0.0
1001
ACAD
1000
AcDbSavedByObjectVersion
1070
     0
  0
VISUALSTYLE
  5
3194
102
{ACAD_XDICTIONARY
360
20E20
102
}
102
{ACAD_REACTORS
330
318F
102
}
330
318F
100
AcDbVisualStyle
  2

 70
     7
 71
     1
 72
     0
 73
     1
 90
        0
 40
-0.6
 41
-30.0
 62
     5
 63
     7
 74
     0
 91
        4
 64
     7
 65
   257
 75
     1
175
     1
 42
1.0
 92
        8
 66
     7
 43
1.0
 76
     1
 77
     6
 78
     2
 67
     7
 79
     5
170
     0
171
     0
290
     0
174
     0
 93
        1
 44
0.0
173
     0
291
     1
 45
0.0
1001
ACAD
1000
AcDbSavedByObjectVersion
1070
     0
  0
VISUALSTYLE
  5
319B
102
{ACAD_XDICTIONARY
360
20E2E
102
}
102
{ACAD_REACTORS
330
318F
102
}
330
318F
100
AcDbVisualStyle
  2

 70
    12
 71
     2
 72
     2
 73
     0
 90
        0
 40
-0.6
 41
-30.0
 62
     5
 63
     7
 74
     1
 91
        4
 64
     7
 65
   257
 75
     1
175
     1
 42
1.0
 92
        8
 66
     7
 43
1.0
 76
     1
 77
     6
 78
     2
 67
     7
 79
     5
170
     0
171
     0
290
     0
174
     0
 93
        1
 44
50.0
173
     0
291
     1
 45
0.0
1001
ACAD
1000
AcDbSavedByObjectVersion
1070
     0
  0
VISUALSTYLE
  5
319F
102
{ACAD_XDICTIONARY
360
20E36
102
}
102
{ACAD_REACTORS
330
318F
102
}
330
318F
100
AcDbVisualStyle
  2

 70
    16
 71
     2
 72
     2
 73
     3
 90
        0
 40
-0.6
 41
-30.0
 62
     5
 63
     8
 74
     1
 91
        4
 64
     7
 65
   257
 75
     1
175
     1
 42
1.0
 92
        8
 66
     8
 43
1.0
 76
     1
 77
     6
 78
     2
 67
     7
 79
     5
170
     0
171
     0
290
     0
174
     0
 93
        1
 44
0.0
173
     0
291
     1
 45
0.0
1001
ACAD
1000
AcDbSavedByObjectVersion
1070
     0
  0
VISUALSTYLE
  5
3198
102
{ACAD_XDICTIONARY
360
20E28
102
}
102
{ACAD_REACTORS
330
318F
102
}
330
318F
100
AcDbVisualStyle
  2

 70
     9
 71
     3
 72
     2
 73
     0
 90
        0
 40
-0.6
 41
-30.0
 62
     5
 63
     7
 74
     2
 91
        2
 64
     7
 65
   257
 75
     1
175
     1
 42
40.0
 92
        8
 66
     7
 43
1.0
 76
     1
 77
     6
 78
     2
 67
     7
 79
     3
170
     0
171
     0
290
     0
174
     0
 93
        1
 44
0.0
173
     0
291
     0
 45
0.0
1001
ACAD
1000
AcDbSavedByObjectVersion
1070
     0
  0
VISUALSTYLE
  5
319A
102
{ACAD_XDICTIONARY
360
20E2C
102
}
102
{ACAD_REACTORS
330
318F
102
}
330
318F
100
AcDbVisualStyle
  2

 70
    11
 71
     2
 72
     2
 73
     0
 90
        0
 40
-0.6
 41
-30.0
 62
     5
 63
     7
 74
     1
 91
        4
 64
     7
 65
   257
 75
     1
175
     1
 42
1.0
 92
        8
 66
     7
 43
1.0
 76
     1
 77
     6
 78
     2
 67
     7
 79
     5
170
     0
171
     0
290
     0
174
     0
 93
        1
 44
-50.0
173
     0
291
     1
 45
0.0
1001
ACAD
1000
AcDbSavedByObjectVersion
1070
     0
  0
VISUALSTYLE
  5
1B2EC
102
{ACAD_XDICTIONARY
360
20E53
102
}
102
{ACAD_REACTORS
330
318F
102
}
330
318F
100
AcDbVisualStyle
  2

 70
    22
 71
     2
 72
     2
 73
     0
 90
        0
 40
-0.6
 41
-30.0
 62
     5
 63
     7
 74
     1
 91
        4
 64
     7
 65
   257
 75
     1
175
     1
 42
1.0
 92
        8
 66
     7
 43
1.0
 76
     1
 77
     6
 78
     2
 67
     7
 79
     5
170
     0
171
     0
290
     0
174
     0
 93
        1
 44
0.0
173
     0
291
     1
 45
0.0
1001
ACAD
1000
AcDbSavedByObjectVersion
1070
     0
  0
VISUALSTYLE
  5
319E
102
{ACAD_XDICTIONARY
360
20E34
102
}
102
{ACAD_REACTORS
330
318F
102
}
330
318F
100
AcDbVisualStyle
  2

 70
    15
 71
     2
 72
     2
 73
     0
 90
        0
 40
-0.6
 41
-30.0
 62
     5
 63
     7
 74
     1
 91
        4
 64
     7
 65
   257
 75
     1
175
     1
 42
1.0
 92
        8
 66
     7
 43
1.0
 76
     1
 77
     6
 78
     2
 67
     7
 79
     5
170
     0
171
     0
290
     0
174
     0
 93
        1
 44
0.0
173
     0
291
     1
 45
0.0
1001
ACAD
1000
AcDbSavedByObjectVersion
1070
     0
  0
VISUALSTYLE
  5
3190
102
{ACAD_XDICTIONARY
360
20E18
102
}
102
{ACAD_REACTORS
330
318F
102
}
330
318F
100
AcDbVisualStyle
  2

 70
     0
 71
     2
 72
     1
 73
     1
 90
        2
 40
-0.6
 41
30.0
 62
     5
 63
     7
 74
     0
 91
        4
 64
     7
 65
   257
 75
     1
175
     1
 42
1.0
 92
        8
 66
     7
 43
1.0
 76
     1
 77
     6
 78
     2
 67
     7
 79
     5
170
     0
171
     0
290
     0
174
     0
 93
       13
 44
0.0
173
     0
291
     1
 45
0.0
1001
ACAD
1000
AcDbSavedByObjectVersion
1070
     0
  0
VISUALSTYLE
  5
3191
102
{ACAD_XDICTIONARY
360
20E1A
102
}
102
{ACAD_REACTORS
330
318F
102
}
330
318F
100
AcDbVisualStyle
  2

 70
     1
 71
     2
 72
     1
 73
     1
 90
        2
 40
-0.6
 41
30.0
 62
     5
 63
     7
 74
     1
 91
        4
 64
     7
 65
   257
 75
     1
175
     1
 42
1.0
 92
        0
 66
   257
 43
1.0
 76
     1
 77
     6
 78
     2
 67
     7
 79
     5
170
     0
171
     0
290
     0
174
     0
 93
       13
 44
0.0
173
     0
291
     1
 45
0.0
1001
ACAD
1000
AcDbSavedByObjectVersion
1070
     0
  0
VISUALSTYLE
  5
3192
102
{ACAD_XDICTIONARY
360
20E1C
102
}
102
{ACAD_REACTORS
330
318F
102
}
330
318F
100
AcDbVisualStyle
  2

 70
     2
 71
     2
 72
     2
 73
     1
 90
        2
 40
-0.6
 41
30.0
 62
     5
 63
     7
 74
     0
 91
        4
 64
     7
 65
   257
 75
     1
175
     1
 42
1.0
 92
        0
 66
     7
 43
1.0
 76
     1
 77
     6
 78
     2
 67
     7
 79
     5
170
     0
171
     0
290
     0
174
     0
 93
       13
 44
0.0
173
     0
291
     1
 45
0.0
1001
ACAD
1000
AcDbSavedByObjectVersion
1070
     0
  0
VISUALSTYLE
  5
3193
102
{ACAD_XDICTIONARY
360
20E1E
102
}
102
{ACAD_REACTORS
330
318F
102
}
330
318F
100
AcDbVisualStyle
  2

 70
     3
 71
     2
 72
     2
 73
     1
 90
        2
 40
-0.6
 41
30.0
 62
     5
 63
     7
 74
     1
 91
        4
 64
     7
 65
   257
 75
     1
175
     1
 42
1.0
 92
        0
 66
   257
 43
1.0
 76
     1
 77
     6
 78
     2
 67
     7
 79
     5
170
     0
171
     0
290
     0
174
     0
 93
       13
 44
0.0
173
     0
291
     1
 45
0.0
1001
ACAD
1000
AcDbSavedByObjectVersion
1070
     0
  0
VISUALSTYLE
  5
1B2E4
102
{ACAD_XDICTIONARY
360
20E43
102
}
102
{ACAD_REACTORS
330
318F
102
}
330
318F
100
AcDbVisualStyle
  2

 70
     6
 71
     1
 72
     2
 73
     2
 90
        0
 40
-0.6
 41
-30.0
 62
     5
 63
     7
 74
     2
 91
        2
 64
     7
 65
   257
 75
     2
175
     1
 42
40.0
 92
        0
 66
   257
 43
1.0
 76
     1
 77
     6
 78
     2
 67
     7
 79
     3
170
     0
171
     0
290
     0
174
     0
 93
        1
 44
0.0
173
     0
291
     0
 45
0.0
1001
ACAD
1000
AcDbSavedByObjectVersion
1070
     0
  0
VISUALSTYLE
  5
1B2EA
102
{ACAD_XDICTIONARY
360
20E4F
102
}
102
{ACAD_REACTORS
330
318F
102
}
330
318F
100
AcDbVisualStyle
  2

 70
    20
 71
     2
 72
     2
 73
     0
 90
        0
 40
-0.6
 41
-30.0
 62
     5
 63
     7
 74
     1
 91
        4
 64
     7
 65
   257
 75
     1
175
     1
 42
1.0
 92
       10
 66
     7
 43
1.0
 76
     1
 77
     6
 78
     2
 67
     7
 79
     5
170
     0
171
     0
290
     0
174
     0
 93
        1
 44
0.0
173
     0
291
     1
 45
0.0
1001
ACAD
1000
AcDbSavedByObjectVersion
1070
     0
  0
VISUALSTYLE
  5
319D
102
{ACAD_XDICTIONARY
360
20E32
102
}
102
{ACAD_REACTORS
330
318F
102
}
330
318F
100
AcDbVisualStyle
  2

 70
    14
 71
     2
 72
     2
 73
     0
 90
        0
 40
-0.6
 41
-30.0
 62
     5
 63
     7
 74
     1
 91
        4
 64
     7
 65
   257
 75
     7
175
     7
 42
1.0
 92
        8
 66
     7
 43
1.0
 76
     1
 77
     6
 78
     2
 67
     7
 79
     5
170
     0
171
     0
290
     0
174
     0
 93
        1
 44
0.0
173
     0
291
     1
 45
0.0
1001
ACAD
1000
AcDbSavedByObjectVersion
1070
     0
  0
VISUALSTYLE
  5
1B2EB
102
{ACAD_XDICTIONARY
360
20E51
102
}
102
{ACAD_REACTORS
330
318F
102
}
330
318F
100
AcDbVisualStyle
  2

 70
    21
 71
     2
 72
     2
 73
     0
 90
        0
 40
-0.6
 41
-30.0
 62
     5
 63
     7
 74
     1
 91
        4
 64
     7
 65
   257
 75
     1
175
     1
 42
1.0
 92
        9
 66
     7
 43
1.0
 76
     1
 77
     6
 78
     2
 67
     7
 79
     5
170
     0
171
     0
290
     0
174
     0
 93
        1
 44
0.0
173
     0
291
     1
 45
0.0
1001
ACAD
1000
AcDbSavedByObjectVersion
1070
     0
  0
VISUALSTYLE
  5
3199
102
{ACAD_XDICTIONARY
360
20E2A
102
}
102
{ACAD_REACTORS
330
318F
102
}
330
318F
100
AcDbVisualStyle
  2

 70
     8
 71
     2
 72
     2
 73
     0
 90
        0
 40
-0.6
 41
-30.0
 62
     5
 63
     7
 74
     1
 91
        0
 64
     7
 65
   257
 75
     1
175
     1
 42
1.0
 92
        8
 66
     8
 43
1.0
 76
     1
 77
     6
 78
     2
 67
     7
 79
     5
170
     0
171
     0
290
     0
174
     0
 93
       13
 44
0.0
173
     0
291
     0
 45
0.0
1001
ACAD
1000
AcDbSavedByObjectVersion
1070
     0
  0
VISUALSTYLE
  5
1B2E9
102
{ACAD_XDICTIONARY
360
20E4D
102
}
102
{ACAD_REACTORS
330
318F
102
}
330
318F
100
AcDbVisualStyle
  2

 70
    27
 71
     2
 72
     2
 73
     1
 90
        2
 40
-0.6
 41
30.0
 62
     5
 63
     7
 74
     0
 91
        4
 64
     7
 65
   257
 75
     1
175
     1
 42
1.0
 92
        8
 66
   257
 43
1.0
 76
     1
 77
     6
 78
     2
 67
     8
 79
     3
170
     0
171
     0
290
     0
174
     0
 93
        5
 44
0.0
173
     0
291
     0
 45
0.0
1001
ACAD
1000
AcDbSavedByObjectVersion
1070
     0
  0
VISUALSTYLE
  5
1B2E8
102
{ACAD_XDICTIONARY
360
20E4B
102
}
102
{ACAD_REACTORS
330
318F
102
}
330
318F
100
AcDbVisualStyle
  2

 70
    26
 71
     2
 72
     2
 73
     1
 90
        2
 40
-0.6
 41
30.0
 62
     5
 63
     7
 74
     1
 91
       10
 64
     7
 65
   257
 75
     2
175
     1
 42
1.0
 92
        8
 66
   257
 43
1.0
 76
     1
 77
     6
 78
     2
 67
     7
 79
     3
170
     0
171
     0
290
     0
174
     0
 93
        5
 44
0.0
173
     0
291
     0
 45
0.0
1001
ACAD
1000
AcDbSavedByObjectVersion
1070
     0
  0
VISUALSTYLE
  5
1B2E5
102
{ACAD_XDICTIONARY
360
20E45
102
}
102
{ACAD_REACTORS
330
318F
102
}
330
318F
100
AcDbVisualStyle
  2

 70
    23
 71
     2
 72
     2
 73
     3
 90
        0
 40
-0.6
 41
-30.0
 62
     5
 63
     7
 74
     2
 91
        2
 64
     7
 65
     7
 75
     1
175
     1
 42
40.0
 92
        8
 66
     7
 43
1.0
 76
     1
 77
     6
 78
     2
 67
     7
 79
     3
170
     0
171
     0
290
     0
174
     0
 93
        1
 44
0.0
173
     0
291
     0
 45
0.0
1001
ACAD
1000
AcDbSavedByObjectVersion
1070
     0
  0
VISUALSTYLE
  5
1B2E6
102
{ACAD_XDICTIONARY
360
20E47
102
}
102
{ACAD_REACTORS
330
318F
102
}
330
318F
100
AcDbVisualStyle
  2

 70
    24
 71
     1
 72
     2
 73
     2
 90
        0
 40
-0.6
 41
-30.0
 62
     5
 63
     7
 74
     2
 91
        2
 64
     7
 65
     7
 75
     1
175
     1
 42
40.0
 92
       11
 66
     7
 43
1.0
 76
     1
 77
     6
 78
     2
 67
     7
 79
     6
170
     0
171
     0
290
     0
174
     0
 93
        1
 44
0.0
173
     0
291
     0
 45
0.0
1001
ACAD
1000
AcDbSavedByObjectVersion
1070
     0
  0
VISUALSTYLE
  5
319C
102
{ACAD_XDICTIONARY
360
20E30
102
}
102
{ACAD_REACTORS
330
318F
102
}
330
318F
100
AcDbVisualStyle
  2

 70
    13
 71
     2
 72
     2
 73
     0
 90
        0
 40
-0.6
 41
-30.0
 62
     5
 63
     7
 74
     1
 91
        4
 64
     7
 65
   257
 75
     1
175
     1
 42
1.0
 92
       12
 66
     7
 43
1.0
 76
     1
 77
     6
 78
     2
 67
     7
 79
     5
170
     0
171
     0
290
     0
174
     0
 93
        1
 44
0.0
173
     0
291
     1
 45
0.0
1001
ACAD
1000
AcDbSavedByObjectVersion
1070
     0
  0
VISUALSTYLE
  5
1B2E3
102
{ACAD_XDICTIONARY
360
20E41
102
}
102
{ACAD_REACTORS
330
318F
102
}
330
318F
100
AcDbVisualStyle
  2

 70
     5
 71
     0
 72
     2
 73
     0
 90
        0
 40
-0.6
 41
-30.0
 62
     5
 63
     7
 74
     1
 91
        4
 64
     7
 65
   257
 75
     1
175
     1
 42
1.0
 92
        0
 66
   257
 43
1.0
 76
     1
 77
     6
 78
     2
 67
     7
 79
     3
170
     0
171
     0
290
     0
174
     0
 93
        1
 44
0.0
173
     0
291
     0
 45
0.0
1001
ACAD
1000
AcDbSavedByObjectVersion
1070
     0
  0
VISUALSTYLE
  5
1B2E7
102
{ACAD_XDICTIONARY
360
20E49
102
}
102
{ACAD_REACTORS
330
318F
102
}
330
318F
100
AcDbVisualStyle
  2

 70
    25
 71
     2
 72
     2
 73
     1
 90
        1
 40
0.5
 41
-30.0
 62
     5
 63
     7
 74
     1
 91
        0
 64
     7
 65
   257
 75
     1
175
     1
 42
1.0
 92
        8
 66
     7
 43
1.0
 76
     1
 77
     6
 78
     2
 67
     7
 79
     3
170
     0
171
     0
290
     0
174
     0
 93
       13
 44
0.0
173
     0
291
     0
 45
0.0
1001
ACAD
1000
AcDbSavedByObjectVersion
1070
     0
  0
DICTIONARYVAR
  5
1B222
102
{ACAD_REACTORS
330
33A3
102
}
330
33A3
100
DictionaryVariables
280
     0
  1
1:1
  0
DICTIONARYVAR
  5
1B30F
102
{ACAD_REACTORS
330
33A3
102
}
330
33A3
100
DictionaryVariables
280
     0
  1
STANDARD
  0
DICTIONARYVAR
  5
33A4
102
{ACAD_REACTORS
330
33A3
102
}
330
33A3
100
DictionaryVariables
280
     0
  1
STANDARD
  0
DICTIONARYVAR
  5
1B310
102
{ACAD_REACTORS
330
33A3
102
}
330
33A3
100
DictionaryVariables
280
     0
  1
Metric50
  0
DICTIONARYVAR
  5
1B311
102
{ACAD_REACTORS
330
33A3
102
}
330
33A3
100
DictionaryVariables
280
     0
  1
Metric50
  0
DICTIONARYVAR
  5
9BE8
102
{ACAD_REACTORS
330
33A3
102
}
330
33A3
100
DictionaryVariables
280
     0
  1
1
  0
DICTIONARYVAR
  5
9BE7
102
{ACAD_REACTORS
330
33A3
102
}
330
33A3
100
DictionaryVariables
280
     0
  1
0
  0
DICTIONARYVAR
  5
20993
102
{ACAD_REACTORS
330
33A3
102
}
330
33A3
100
DictionaryVariables
280
     0
  1
1
  0
DICTIONARYVAR
  5
20994
102
{ACAD_REACTORS
330
33A3
102
}
330
33A3
100
DictionaryVariables
280
     0
  1
15
  0
DICTIONARYVAR
  5
20992
102
{ACAD_REACTORS
330
33A3
102
}
330
33A3
100
DictionaryVariables
280
     0
  1
0
  0
DICTIONARYVAR
  5
20991
102
{ACAD_REACTORS
330
33A3
102
}
330
33A3
100
DictionaryVariables
280
     0
  1
0
  0
DICTIONARYVAR
  5
9BE6
102
{ACAD_REACTORS
330
33A3
102
}
330
33A3
100
DictionaryVariables
280
     0
  1
127
  0
DICTIONARYVAR
  5
20E14
102
{ACAD_REACTORS
330
33A3
102
}
330
33A3
100
DictionaryVariables
280
     0
  1
2
  0
XRECORD
  5
20E5A
102
{ACAD_REACTORS
330
20E59
102
}
330
20E59
100
AcDbXrecord
280
     1
1070
     0
1070
     1
1070
     1
  0
DICTIONARY
  5
20E57
330
1B2F1
100
AcDbDictionary
280
     1
281
     1
  3
ACAD_XREC_ROUNDTRIP
360
20E58
  0
DICTIONARY
  5
20E3B
330
31A7
100
AcDbDictionary
280
     1
281
     1
  3
ACAD_XREC_ROUNDTRIP
360
20E3C
  0
DICTIONARY
  5
20E39
330
31A6
100
AcDbDictionary
280
     1
281
     1
  3
ACAD_XREC_ROUNDTRIP
360
20E3A
  0
DICTIONARY
  5
1B22B
330
318D
100
AcDbDictionary
280
     1
281
     1
  3
ACAD_XREC_ROUNDTRIP
360
1B22C
  0
DICTIONARY
  5
1B22D
330
318C
100
AcDbDictionary
280
     1
281
     1
  3
ACAD_XREC_ROUNDTRIP
360
1B22E
  0
DICTIONARY
  5
1B22F
330
318E
100
AcDbDictionary
280
     1
281
     1
  3
ACAD_XREC_ROUNDTRIP
360
1B230
  0
DICTIONARY
  5
20E55
330
1B2EF
100
AcDbDictionary
280
     1
281
     1
  3
ACAD_XREC_ROUNDTRIP
360
20E56
  0
DICTIONARY
  5
1B314
330
31A2
100
AcDbDictionary
280
     1
281
     1
  3
ACAD_ROUNDTRIP_2008_TABLESTYLE_CELLSTYLEMAP
360
20E15
  3
ACAD_XREC_ROUNDTRIP
360
20E38
  0
DICTIONARY
  5
20E22
330
3195
100
AcDbDictionary
280
     1
281
     1
  3
ACAD_XREC_ROUNDTRIP
360
20E23
  0
DICTIONARY
  5
20E26
330
3197
100
AcDbDictionary
280
     1
281
     1
  3
ACAD_XREC_ROUNDTRIP
360
20E27
  0
DICTIONARY
  5
20E24
330
3196
100
AcDbDictionary
280
     1
281
     1
  3
ACAD_XREC_ROUNDTRIP
360
20E25
  0
DICTIONARY
  5
20E20
330
3194
100
AcDbDictionary
280
     1
281
     1
  3
ACAD_XREC_ROUNDTRIP
360
20E21
  0
DICTIONARY
  5
20E2E
330
319B
100
AcDbDictionary
280
     1
281
     1
  3
ACAD_XREC_ROUNDTRIP
360
20E2F
  0
DICTIONARY
  5
20E36
330
319F
100
AcDbDictionary
280
     1
281
     1
  3
ACAD_XREC_ROUNDTRIP
360
20E37
  0
DICTIONARY
  5
20E28
330
3198
100
AcDbDictionary
280
     1
281
     1
  3
ACAD_XREC_ROUNDTRIP
360
20E29
  0
DICTIONARY
  5
20E2C
330
319A
100
AcDbDictionary
280
     1
281
     1
  3
ACAD_XREC_ROUNDTRIP
360
20E2D
  0
DICTIONARY
  5
20E53
330
1B2EC
100
AcDbDictionary
280
     1
281
     1
  3
ACAD_XREC_ROUNDTRIP
360
20E54
  0
DICTIONARY
  5
20E34
330
319E
100
AcDbDictionary
280
     1
281
     1
  3
ACAD_XREC_ROUNDTRIP
360
20E35
  0
DICTIONARY
  5
20E18
330
3190
100
AcDbDictionary
280
     1
281
     1
  3
ACAD_XREC_ROUNDTRIP
360
20E19
  0
DICTIONARY
  5
20E1A
330
3191
100
AcDbDictionary
280
     1
281
     1
  3
ACAD_XREC_ROUNDTRIP
360
20E1B
  0
DICTIONARY
  5
20E1C
330
3192
100
AcDbDictionary
280
     1
281
     1
  3
ACAD_XREC_ROUNDTRIP
360
20E1D
  0
DICTIONARY
  5
20E1E
330
3193
100
AcDbDictionary
280
     1
281
     1
  3
ACAD_XREC_ROUNDTRIP
360
20E1F
  0
DICTIONARY
  5
20E43
330
1B2E4
100
AcDbDictionary
280
     1
281
     1
  3
ACAD_XREC_ROUNDTRIP
360
20E44
  0
DICTIONARY
  5
20E4F
330
1B2EA
100
AcDbDictionary
280
     1
281
     1
  3
ACAD_XREC_ROUNDTRIP
360
20E50
  0
DICTIONARY
  5
20E32
330
319D
100
AcDbDictionary
280
     1
281
     1
  3
ACAD_XREC_ROUNDTRIP
360
20E33
  0
DICTIONARY
  5
20E51
330
1B2EB
100
AcDbDictionary
280
     1
281
     1
  3
ACAD_XREC_ROUNDTRIP
360
20E52
  0
DICTIONARY
  5
20E2A
330
3199
100
AcDbDictionary
280
     1
281
     1
  3
ACAD_XREC_ROUNDTRIP
360
20E2B
  0
DICTIONARY
  5
20E4D
330
1B2E9
100
AcDbDictionary
280
     1
281
     1
  3
ACAD_XREC_ROUNDTRIP
360
20E4E
  0
DICTIONARY
  5
20E4B
330
1B2E8
100
AcDbDictionary
280
     1
281
     1
  3
ACAD_XREC_ROUNDTRIP
360
20E4C
  0
DICTIONARY
  5
20E45
330
1B2E5
100
AcDbDictionary
280
     1
281
     1
  3
ACAD_XREC_ROUNDTRIP
360
20E46
  0
DICTIONARY
  5
20E47
330
1B2E6
100
AcDbDictionary
280
     1
281
     1
  3
ACAD_XREC_ROUNDTRIP
360
20E48
  0
DICTIONARY
  5
20E30
330
319C
100
AcDbDictionary
280
     1
281
     1
  3
ACAD_XREC_ROUNDTRIP
360
20E31
  0
DICTIONARY
  5
20E41
330
1B2E3
100
AcDbDictionary
280
     1
281
     1
  3
ACAD_XREC_ROUNDTRIP
360
20E42
  0
DICTIONARY
  5
20E49
330
1B2E7
100
AcDbDictionary
280
     1
281
     1
  3
ACAD_XREC_ROUNDTRIP
360
20E4A
  0
XRECORD
  5
20E58
102
{ACAD_REACTORS
330
20E57
102
}
330
20E57
100
AcDbXrecord
280
     1
102
DISPLAYNAME
  1
Metric50
102
FLAGS
 90
        0
  0
XRECORD
  5
20E3C
102
{ACAD_REACTORS
330
20E3B
102
}
330
20E3B
100
AcDbXrecord
280
     1
102
SHADEPLOT
 70
     0
102
SHADEPLOTRESLEVEL
 70
     2
102
SHADEPLOTCUSTOMDPI
 70
   300
  0
XRECORD
  5
20E3A
102
{ACAD_REACTORS
330
20E39
102
}
330
20E39
100
AcDbXrecord
280
     1
102
SHADEPLOT
 70
     0
102
SHADEPLOTRESLEVEL
 70
     2
102
SHADEPLOTCUSTOMDPI
 70
   300
  0
XRECORD
  5
1B22C
102
{ACAD_REACTORS
330
1B22B
102
}
330
1B22B
100
AcDbXrecord
280
     1
102
MATERIAL
148
0.0
149
0.0
149
0.0
 93
        0
 94
      127
282
     0
 72
     1
 77
     1
171
     1
175
     1
179
     1
273
     0
  0
XRECORD
  5
1B22E
102
{ACAD_REACTORS
330
1B22D
102
}
330
1B22D
100
AcDbXrecord
280
     1
102
MATERIAL
148
0.0
149
0.0
149
0.0
 93
        0
 94
      127
282
     0
 72
     1
 77
     1
171
     1
175
     1
179
     1
273
     0
  0
XRECORD
  5
1B230
102
{ACAD_REACTORS
330
1B22F
102
}
330
1B22F
100
AcDbXrecord
280
     1
102
MATERIAL
148
0.0
149
0.0
149
0.0
 93
        0
 94
      127
282
     0
 72
     1
 77
     1
171
     1
175
     1
179
     1
273
     0
  0
XRECORD
  5
20E56
102
{ACAD_REACTORS
330
20E55
102
}
330
20E55
100
AcDbXrecord
280
     1
102
DISPLAYNAME
  1
Metric50
102
FLAGS
 90
        0
  0
CELLSTYLEMAP
  5
20E15
102
{ACAD_REACTORS
330
1B314
102
}
330
1B314
100
AcDbCellStyleMap
 90
        3
300
CELLSTYLE
  1
TABLEFORMAT_BEGIN
 90
        5
170
     1
 91
        0
 92
    32768
 62
   257
 93
        1
300
CONTENTFORMAT
  1
CONTENTFORMAT_BEGIN
 90
        0
 91
        0
 92
        4
 93
        0
300

 40
0.0
140
1.0
 94
        5
 62
     0
340
11
144
6.0
309
CONTENTFORMAT_END
171
     1
301
MARGIN
  1
CELLMARGIN_BEGIN
 40
1.5
 40
1.5
 40
1.5
 40
1.5
 40
0.18
 40
0.18
309
CELLMARGIN_END
 94
        6
 95
        1
302
GRIDFORMAT
  1
GRIDFORMAT_BEGIN
 90
        0
 91
        1
 62
     0
 92
       -2
340
0
 93
        0
 40
0.045
309
GRIDFORMAT_END
 95
        2
302
GRIDFORMAT
  1
GRIDFORMAT_BEGIN
 90
        0
 91
        1
 62
     0
 92
       -2
340
0
 93
        0
 40
0.045
309
GRIDFORMAT_END
 95
        4
302
GRIDFORMAT
  1
GRIDFORMAT_BEGIN
 90
        0
 91
        1
 62
     0
 92
       -2
340
0
 93
        0
 40
0.045
309
GRIDFORMAT_END
 95
        8
302
GRIDFORMAT
  1
GRIDFORMAT_BEGIN
 90
        0
 91
        1
 62
     0
 92
       -2
340
0
 93
        0
 40
0.045
309
GRIDFORMAT_END
 95
       16
302
GRIDFORMAT
  1
GRIDFORMAT_BEGIN
 90
        0
 91
        1
 62
     0
 92
       -2
340
0
 93
        0
 40
0.045
309
GRIDFORMAT_END
 95
       32
302
GRIDFORMAT
  1
GRIDFORMAT_BEGIN
 90
        0
 91
        1
 62
     0
 92
       -2
340
0
 93
        0
 40
0.045
309
GRIDFORMAT_END
309
TABLEFORMAT_END
  1
CELLSTYLE_BEGIN
 90
        1
 91
        1
300
_TITLE
309
CELLSTYLE_END
300
CELLSTYLE
  1
TABLEFORMAT_BEGIN
 90
        5
170
     1
 91
        0
 92
        0
 62
   257
 93
        1
300
CONTENTFORMAT
  1
CONTENTFORMAT_BEGIN
 90
        0
 91
        0
 92
        4
 93
        0
300

 40
0.0
140
1.0
 94
        5
 62
     0
340
11
144
4.5
309
CONTENTFORMAT_END
171
     1
301
MARGIN
  1
CELLMARGIN_BEGIN
 40
1.5
 40
1.5
 40
1.5
 40
1.5
 40
0.18
 40
0.18
309
CELLMARGIN_END
 94
        6
 95
        1
302
GRIDFORMAT
  1
GRIDFORMAT_BEGIN
 90
        0
 91
        1
 62
     0
 92
       -2
340
0
 93
        0
 40
0.045
309
GRIDFORMAT_END
 95
        2
302
GRIDFORMAT
  1
GRIDFORMAT_BEGIN
 90
        0
 91
        1
 62
     0
 92
       -2
340
0
 93
        0
 40
0.045
309
GRIDFORMAT_END
 95
        4
302
GRIDFORMAT
  1
GRIDFORMAT_BEGIN
 90
        0
 91
        1
 62
     0
 92
       -2
340
0
 93
        0
 40
0.045
309
GRIDFORMAT_END
 95
        8
302
GRIDFORMAT
  1
GRIDFORMAT_BEGIN
 90
        0
 91
        1
 62
     0
 92
       -2
340
0
 93
        0
 40
0.045
309
GRIDFORMAT_END
 95
       16
302
GRIDFORMAT
  1
GRIDFORMAT_BEGIN
 90
        0
 91
        1
 62
     0
 92
       -2
340
0
 93
        0
 40
0.045
309
GRIDFORMAT_END
 95
       32
302
GRIDFORMAT
  1
GRIDFORMAT_BEGIN
 90
        0
 91
        1
 62
     0
 92
       -2
340
0
 93
        0
 40
0.045
309
GRIDFORMAT_END
309
TABLEFORMAT_END
  1
CELLSTYLE_BEGIN
 90
        2
 91
        1
300
_HEADER
309
CELLSTYLE_END
300
CELLSTYLE
  1
TABLEFORMAT_BEGIN
 90
        5
170
     1
 91
        0
 92
        0
 62
   257
 93
        1
300
CONTENTFORMAT
  1
CONTENTFORMAT_BEGIN
 90
        0
 91
        0
 92
        4
 93
        0
300

 40
0.0
140
1.0
 94
        2
 62
     0
340
11
144
4.5
309
CONTENTFORMAT_END
171
     1
301
MARGIN
  1
CELLMARGIN_BEGIN
 40
1.5
 40
1.5
 40
1.5
 40
1.5
 40
0.18
 40
0.18
309
CELLMARGIN_END
 94
        6
 95
        1
302
GRIDFORMAT
  1
GRIDFORMAT_BEGIN
 90
        0
 91
        1
 62
     0
 92
       -2
340
0
 93
        0
 40
0.045
309
GRIDFORMAT_END
 95
        2
302
GRIDFORMAT
  1
GRIDFORMAT_BEGIN
 90
        0
 91
        1
 62
     0
 92
       -2
340
0
 93
        0
 40
0.045
309
GRIDFORMAT_END
 95
        4
302
GRIDFORMAT
  1
GRIDFORMAT_BEGIN
 90
        0
 91
        1
 62
     0
 92
       -2
340
0
 93
        0
 40
0.045
309
GRIDFORMAT_END
 95
        8
302
GRIDFORMAT
  1
GRIDFORMAT_BEGIN
 90
        0
 91
        1
 62
     0
 92
       -2
340
0
 93
        0
 40
0.045
309
GRIDFORMAT_END
 95
       16
302
GRIDFORMAT
  1
GRIDFORMAT_BEGIN
 90
        0
 91
        1
 62
     0
 92
       -2
340
0
 93
        0
 40
0.045
309
GRIDFORMAT_END
 95
       32
302
GRIDFORMAT
  1
GRIDFORMAT_BEGIN
 90
        0
 91
        1
 62
     0
 92
       -2
340
0
 93
        0
 40
0.045
309
GRIDFORMAT_END
309
TABLEFORMAT_END
  1
CELLSTYLE_BEGIN
 90
        3
 91
        2
300
_DATA
309
CELLSTYLE_END
  0
XRECORD
  5
20E38
102
{ACAD_REACTORS
330
1B314
102
}
330
1B314
100
AcDbXrecord
280
     1
102
ACAD_ROUNDTRIP_PRE2007_TABLESTYLE
 90
        4
 91
        0
  1

 92
        4
 93
        0
  2

 94
        4
 95
        0
  3

  0
XRECORD
  5
20E23
102
{ACAD_REACTORS
330
20E22
102
}
330
20E22
100
AcDbXrecord
280
     1
102
RTVSPost2010Prop28
280
     1
102
RTVSPost2010PropOp28
 70
     1
102
RTVSPost2010Prop29
280
     1
102
RTVSPost2010PropOp29
 70
     1
102
RTVSPost2010Prop30
280
     0
102
RTVSPost2010PropOp30
 70
     1
102
RTVSPost2010Prop31
280
     0
102
RTVSPost2010PropOp31
 70
     1
102
RTVSPost2010Prop32
280
     0
102
RTVSPost2010PropOp32
 70
     1
102
RTVSPost2010Prop33
280
     0
102
RTVSPost2010PropOp33
 70
     1
102
RTVSPost2010Prop34
280
     0
102
RTVSPost2010PropOp34
 70
     1
102
RTVSPost2010Prop35
280
     0
102
RTVSPost2010PropOp35
 70
     1
102
RTVSPost2010Prop36
280
     0
102
RTVSPost2010PropOp36
 70
     1
102
RTVSPost2010Prop37
 90
       50
102
RTVSPost2010PropOp37
 70
     1
102
RTVSPost2010Prop38
140
0.0
102
RTVSPost2010PropOp38
 70
     1
102
RTVSPost2010Prop39
140
1.0
102
RTVSPost2010PropOp39
 70
     1
102
RTVSPost2010Prop40
 90
        0
102
RTVSPost2010PropOp40
 70
     1
102
RTVSPost2010Prop41ColorIndex
 90
       18
102
RTVSPost2010Prop41ColorRGB
 90
        0
102
RTVSPost2010PropOp41
 70
     1
102
RTVSPost2010Prop42
 90
       50
102
RTVSPost2010PropOp42
 70
     1
102
RTVSPost2010Prop43
 90
        3
102
RTVSPost2010PropOp43
 70
     1
102
RTVSPost2010Prop44ColorIndex
 90
        5
102
RTVSPost2010Prop44ColorRGB
 90
      255
102
RTVSPost2010PropOp44
 70
     1
102
RTVSPost2010Prop45
280
     0
102
RTVSPost2010PropOp45
 70
     1
102
RTVSPost2010Prop46
 90
       50
102
RTVSPost2010PropOp46
 70
     1
102
RTVSPost2010Prop47
 90
       50
102
RTVSPost2010PropOp47
 70
     1
102
RTVSPost2010Prop48
 90
       50
102
RTVSPost2010PropOp48
 70
     1
102
RTVSPost2010Prop49
280
     0
102
RTVSPost2010PropOp49
 70
     1
102
RTVSPost2010Prop50
 90
       50
102
RTVSPost2010PropOp50
 70
     1
102
RTVSPost2010Prop51ColorIndex
 90
      256
102
RTVSPost2010Prop51ColorRGB
 90
-16777216
102
RTVSPost2010PropOp51
 70
     0
102
RTVSPost2010Prop52
140
1.0
102
RTVSPost2010PropOp52
 70
     0
102
RTVSPost2010Prop53
 90
        2
102
RTVSPost2010PropOp53
 70
     1
102
RTVSPost2010Prop54
  1
strokes_ogs.tif
102
RTVSPost2010PropOp54
 70
     1
102
RTVSPost2010Prop55
280
     0
102
RTVSPost2010PropOp55
 70
     1
102
RTVSPost2010Prop56
140
1.0
102
RTVSPost2010PropOp56
 70
     1
102
RTVSPost2010Prop57
140
1.0
102
RTVSPost2010PropOp57
 70
     1
102
RTVSPropertyOp0
 70
     1
102
RTVSPropertyOp1
 70
     1
102
RTVSPropertyOp2
 70
     1
102
RTVSPropertyOp3
 70
     1
102
RTVSPropertyOp4
 70
     1
102
RTVSPropertyOp5
 70
     1
102
RTVSPropertyOp6
 70
     1
102
RTVSPropertyOp7
 70
     1
102
RTVSPropertyOp8
 70
     1
102
RTVSPropertyOp9
 70
     1
102
RTVSPropertyOp10
 70
     1
102
RTVSPropertyOp11
 70
     1
102
RTVSPropertyOp12
 70
     1
102
RTVSPropertyOp13
 70
     1
102
RTVSPropertyOp14
 70
     1
102
RTVSPropertyOp15
 70
     1
102
RTVSPropertyOp16
 70
     1
102
RTVSPropertyOp17
 70
     1
102
RTVSPropertyOp18
 70
     1
102
RTVSPropertyOp19
 70
     1
102
RTVSPropertyOp20
 70
     1
102
RTVSPropertyOp21
 70
     1
102
RTVSPropertyOp22
 70
     1
102
RTVSPropertyOp23
 70
     1
102
RTVSPropertyOp24
 70
     1
102
RTVSPropertyOp25
 70
     1
102
RTVSPropertyOp26
 70
     1
102
RTVSPropertyOp27
 70
     1
102
RTVSPropertyOp28
 70
     1
102
RTVSPropertyOp29
 70
     1
102
RTVSPropertyOp30
 70
     1
102
RTVSPropertyOp31
 70
     1
102
RTVSPropertyOp32
 70
     1
102
RTVSPropertyOp33
 70
     1
102
RTVSPropertyOp34
 70
     1
102
RTVSPropertyOp35
 70
     1
102
RTVSPropertyOp36
 70
     1
102
RTVSPropertyOp37
 70
     1
102
RTVSPropertyOp38
 70
     1
102
RTVSPropertyOp39
 70
     1
102
RTVSPropertyOp40
 70
     1
102
RTVSPropertyOp41
 70
     1
102
RTVSPropertyOp42
 70
     1
102
RTVSPropertyOp43
 70
     1
102
RTVSPropertyOp44
 70
     1
102
RTVSPropertyOp45
 70
     1
102
RTVSPropertyOp46
 70
     1
102
RTVSPropertyOp47
 70
     1
102
RTVSPropertyOp48
 70
     1
102
RTVSPropertyOp49
 70
     1
102
RTVSPropertyOp50
 70
     1
102
RTVSPropertyOp51
 70
     0
102
RTVSPropertyOp52
 70
     0
102
RTVSPropertyOp53
 70
     1
102
RTVSPropertyOp54
 70
     1
102
RTVSPropertyOp55
 70
     1
102
RTVSPropertyOp56
 70
     1
102
RTVSPropertyOp57
 70
     1
102
RTVSPropertyOp58
 70
     1
102
RTVSPropertyOp59
 70
     1
102
RTVSPropertyOp60
 70
     1
102
RTVSPropertyOp61
 70
     1
102
RTVSPropertyOp62
 70
     1
  0
XRECORD
  5
20E27
102
{ACAD_REACTORS
330
20E26
102
}
330
20E26
100
AcDbXrecord
280
     1
102
RTVSPost2010Prop28
280
     0
102
RTVSPost2010PropOp28
 70
     1
102
RTVSPost2010Prop29
280
     1
102
RTVSPost2010PropOp29
 70
     1
102
RTVSPost2010Prop30
280
     1
102
RTVSPost2010PropOp30
 70
     1
102
RTVSPost2010Prop31
280
     0
102
RTVSPost2010PropOp31
 70
     1
102
RTVSPost2010Prop32
280
     0
102
RTVSPost2010PropOp32
 70
     1
102
RTVSPost2010Prop33
280
     0
102
RTVSPost2010PropOp33
 70
     1
102
RTVSPost2010Prop34
280
     0
102
RTVSPost2010PropOp34
 70
     1
102
RTVSPost2010Prop35
280
     0
102
RTVSPost2010PropOp35
 70
     1
102
RTVSPost2010Prop36
280
     0
102
RTVSPost2010PropOp36
 70
     1
102
RTVSPost2010Prop37
 90
       50
102
RTVSPost2010PropOp37
 70
     1
102
RTVSPost2010Prop38
140
0.0
102
RTVSPost2010PropOp38
 70
     1
102
RTVSPost2010Prop39
140
1.0
102
RTVSPost2010PropOp39
 70
     1
102
RTVSPost2010Prop40
 90
        0
102
RTVSPost2010PropOp40
 70
     1
102
RTVSPost2010Prop41ColorIndex
 90
       18
102
RTVSPost2010Prop41ColorRGB
 90
        0
102
RTVSPost2010PropOp41
 70
     1
102
RTVSPost2010Prop42
 90
       50
102
RTVSPost2010PropOp42
 70
     1
102
RTVSPost2010Prop43
 90
        3
102
RTVSPost2010PropOp43
 70
     1
102
RTVSPost2010Prop44ColorIndex
 90
        5
102
RTVSPost2010Prop44ColorRGB
 90
      255
102
RTVSPost2010PropOp44
 70
     1
102
RTVSPost2010Prop45
280
     0
102
RTVSPost2010PropOp45
 70
     1
102
RTVSPost2010Prop46
 90
       50
102
RTVSPost2010PropOp46
 70
     1
102
RTVSPost2010Prop47
 90
       50
102
RTVSPost2010PropOp47
 70
     1
102
RTVSPost2010Prop48
 90
       50
102
RTVSPost2010PropOp48
 70
     1
102
RTVSPost2010Prop49
280
     0
102
RTVSPost2010PropOp49
 70
     1
102
RTVSPost2010Prop50
 90
       50
102
RTVSPost2010PropOp50
 70
     1
102
RTVSPost2010Prop51ColorIndex
 90
      256
102
RTVSPost2010Prop51ColorRGB
 90
-16777216
102
RTVSPost2010PropOp51
 70
     0
102
RTVSPost2010Prop52
140
1.0
102
RTVSPost2010PropOp52
 70
     0
102
RTVSPost2010Prop53
 90
        2
102
RTVSPost2010PropOp53
 70
     1
102
RTVSPost2010Prop54
  1
strokes_ogs.tif
102
RTVSPost2010PropOp54
 70
     1
102
RTVSPost2010Prop55
280
     0
102
RTVSPost2010PropOp55
 70
     1
102
RTVSPost2010Prop56
140
1.0
102
RTVSPost2010PropOp56
 70
     1
102
RTVSPost2010Prop57
140
1.0
102
RTVSPost2010PropOp57
 70
     1
102
RTVSPropertyOp0
 70
     1
102
RTVSPropertyOp1
 70
     1
102
RTVSPropertyOp2
 70
     1
102
RTVSPropertyOp3
 70
     1
102
RTVSPropertyOp4
 70
     1
102
RTVSPropertyOp5
 70
     1
102
RTVSPropertyOp6
 70
     1
102
RTVSPropertyOp7
 70
     1
102
RTVSPropertyOp8
 70
     1
102
RTVSPropertyOp9
 70
     1
102
RTVSPropertyOp10
 70
     1
102
RTVSPropertyOp11
 70
     1
102
RTVSPropertyOp12
 70
     1
102
RTVSPropertyOp13
 70
     1
102
RTVSPropertyOp14
 70
     1
102
RTVSPropertyOp15
 70
     1
102
RTVSPropertyOp16
 70
     1
102
RTVSPropertyOp17
 70
     1
102
RTVSPropertyOp18
 70
     1
102
RTVSPropertyOp19
 70
     1
102
RTVSPropertyOp20
 70
     1
102
RTVSPropertyOp21
 70
     1
102
RTVSPropertyOp22
 70
     1
102
RTVSPropertyOp23
 70
     1
102
RTVSPropertyOp24
 70
     1
102
RTVSPropertyOp25
 70
     1
102
RTVSPropertyOp26
 70
     1
102
RTVSPropertyOp27
 70
     1
102
RTVSPropertyOp28
 70
     1
102
RTVSPropertyOp29
 70
     1
102
RTVSPropertyOp30
 70
     1
102
RTVSPropertyOp31
 70
     1
102
RTVSPropertyOp32
 70
     1
102
RTVSPropertyOp33
 70
     1
102
RTVSPropertyOp34
 70
     1
102
RTVSPropertyOp35
 70
     1
102
RTVSPropertyOp36
 70
     1
102
RTVSPropertyOp37
 70
     1
102
RTVSPropertyOp38
 70
     1
102
RTVSPropertyOp39
 70
     1
102
RTVSPropertyOp40
 70
     1
102
RTVSPropertyOp41
 70
     1
102
RTVSPropertyOp42
 70
     1
102
RTVSPropertyOp43
 70
     1
102
RTVSPropertyOp44
 70
     1
102
RTVSPropertyOp45
 70
     1
102
RTVSPropertyOp46
 70
     1
102
RTVSPropertyOp47
 70
     1
102
RTVSPropertyOp48
 70
     1
102
RTVSPropertyOp49
 70
     1
102
RTVSPropertyOp50
 70
     1
102
RTVSPropertyOp51
 70
     0
102
RTVSPropertyOp52
 70
     0
102
RTVSPropertyOp53
 70
     1
102
RTVSPropertyOp54
 70
     1
102
RTVSPropertyOp55
 70
     1
102
RTVSPropertyOp56
 70
     1
102
RTVSPropertyOp57
 70
     1
102
RTVSPropertyOp58
 70
     1
102
RTVSPropertyOp59
 70
     1
102
RTVSPropertyOp60
 70
     1
102
RTVSPropertyOp61
 70
     1
102
RTVSPropertyOp62
 70
     1
  0
XRECORD
  5
20E25
102
{ACAD_REACTORS
330
20E24
102
}
330
20E24
100
AcDbXrecord
280
     1
102
RTVSPost2010Prop28
280
     0
102
RTVSPost2010PropOp28
 70
     1
102
RTVSPost2010Prop29
280
     1
102
RTVSPost2010PropOp29
 70
     1
102
RTVSPost2010Prop30
280
     1
102
RTVSPost2010PropOp30
 70
     1
102
RTVSPost2010Prop31
280
     0
102
RTVSPost2010PropOp31
 70
     1
102
RTVSPost2010Prop32
280
     0
102
RTVSPost2010PropOp32
 70
     1
102
RTVSPost2010Prop33
280
     0
102
RTVSPost2010PropOp33
 70
     1
102
RTVSPost2010Prop34
280
     0
102
RTVSPost2010PropOp34
 70
     1
102
RTVSPost2010Prop35
280
     0
102
RTVSPost2010PropOp35
 70
     1
102
RTVSPost2010Prop36
280
     0
102
RTVSPost2010PropOp36
 70
     1
102
RTVSPost2010Prop37
 90
       50
102
RTVSPost2010PropOp37
 70
     1
102
RTVSPost2010Prop38
140
0.0
102
RTVSPost2010PropOp38
 70
     1
102
RTVSPost2010Prop39
140
1.0
102
RTVSPost2010PropOp39
 70
     1
102
RTVSPost2010Prop40
 90
        0
102
RTVSPost2010PropOp40
 70
     1
102
RTVSPost2010Prop41ColorIndex
 90
       18
102
RTVSPost2010Prop41ColorRGB
 90
        0
102
RTVSPost2010PropOp41
 70
     1
102
RTVSPost2010Prop42
 90
       50
102
RTVSPost2010PropOp42
 70
     1
102
RTVSPost2010Prop43
 90
        3
102
RTVSPost2010PropOp43
 70
     1
102
RTVSPost2010Prop44ColorIndex
 90
        5
102
RTVSPost2010Prop44ColorRGB
 90
      255
102
RTVSPost2010PropOp44
 70
     1
102
RTVSPost2010Prop45
280
     0
102
RTVSPost2010PropOp45
 70
     1
102
RTVSPost2010Prop46
 90
       50
102
RTVSPost2010PropOp46
 70
     1
102
RTVSPost2010Prop47
 90
       50
102
RTVSPost2010PropOp47
 70
     1
102
RTVSPost2010Prop48
 90
       50
102
RTVSPost2010PropOp48
 70
     1
102
RTVSPost2010Prop49
280
     0
102
RTVSPost2010PropOp49
 70
     1
102
RTVSPost2010Prop50
 90
       50
102
RTVSPost2010PropOp50
 70
     1
102
RTVSPost2010Prop51ColorIndex
 90
      256
102
RTVSPost2010Prop51ColorRGB
 90
-16777216
102
RTVSPost2010PropOp51
 70
     0
102
RTVSPost2010Prop52
140
1.0
102
RTVSPost2010PropOp52
 70
     0
102
RTVSPost2010Prop53
 90
        2
102
RTVSPost2010PropOp53
 70
     1
102
RTVSPost2010Prop54
  1
strokes_ogs.tif
102
RTVSPost2010PropOp54
 70
     1
102
RTVSPost2010Prop55
280
     0
102
RTVSPost2010PropOp55
 70
     1
102
RTVSPost2010Prop56
140
1.0
102
RTVSPost2010PropOp56
 70
     1
102
RTVSPost2010Prop57
140
1.0
102
RTVSPost2010PropOp57
 70
     1
102
RTVSPropertyOp0
 70
     1
102
RTVSPropertyOp1
 70
     1
102
RTVSPropertyOp2
 70
     1
102
RTVSPropertyOp3
 70
     1
102
RTVSPropertyOp4
 70
     1
102
RTVSPropertyOp5
 70
     1
102
RTVSPropertyOp6
 70
     1
102
RTVSPropertyOp7
 70
     1
102
RTVSPropertyOp8
 70
     1
102
RTVSPropertyOp9
 70
     1
102
RTVSPropertyOp10
 70
     1
102
RTVSPropertyOp11
 70
     1
102
RTVSPropertyOp12
 70
     1
102
RTVSPropertyOp13
 70
     1
102
RTVSPropertyOp14
 70
     1
102
RTVSPropertyOp15
 70
     1
102
RTVSPropertyOp16
 70
     1
102
RTVSPropertyOp17
 70
     1
102
RTVSPropertyOp18
 70
     1
102
RTVSPropertyOp19
 70
     1
102
RTVSPropertyOp20
 70
     1
102
RTVSPropertyOp21
 70
     1
102
RTVSPropertyOp22
 70
     1
102
RTVSPropertyOp23
 70
     1
102
RTVSPropertyOp24
 70
     1
102
RTVSPropertyOp25
 70
     1
102
RTVSPropertyOp26
 70
     1
102
RTVSPropertyOp27
 70
     1
102
RTVSPropertyOp28
 70
     1
102
RTVSPropertyOp29
 70
     1
102
RTVSPropertyOp30
 70
     1
102
RTVSPropertyOp31
 70
     1
102
RTVSPropertyOp32
 70
     1
102
RTVSPropertyOp33
 70
     1
102
RTVSPropertyOp34
 70
     1
102
RTVSPropertyOp35
 70
     1
102
RTVSPropertyOp36
 70
     1
102
RTVSPropertyOp37
 70
     1
102
RTVSPropertyOp38
 70
     1
102
RTVSPropertyOp39
 70
     1
102
RTVSPropertyOp40
 70
     1
102
RTVSPropertyOp41
 70
     1
102
RTVSPropertyOp42
 70
     1
102
RTVSPropertyOp43
 70
     1
102
RTVSPropertyOp44
 70
     1
102
RTVSPropertyOp45
 70
     1
102
RTVSPropertyOp46
 70
     1
102
RTVSPropertyOp47
 70
     1
102
RTVSPropertyOp48
 70
     1
102
RTVSPropertyOp49
 70
     1
102
RTVSPropertyOp50
 70
     1
102
RTVSPropertyOp51
 70
     0
102
RTVSPropertyOp52
 70
     0
102
RTVSPropertyOp53
 70
     1
102
RTVSPropertyOp54
 70
     1
102
RTVSPropertyOp55
 70
     1
102
RTVSPropertyOp56
 70
     1
102
RTVSPropertyOp57
 70
     1
102
RTVSPropertyOp58
 70
     1
102
RTVSPropertyOp59
 70
     1
102
RTVSPropertyOp60
 70
     1
102
RTVSPropertyOp61
 70
     1
102
RTVSPropertyOp62
 70
     1
  0
XRECORD
  5
20E21
102
{ACAD_REACTORS
330
20E20
102
}
330
20E20
100
AcDbXrecord
280
     1
102
RTVSPost2010Prop28
280
     0
102
RTVSPost2010PropOp28
 70
     1
102
RTVSPost2010Prop29
280
     1
102
RTVSPost2010PropOp29
 70
     1
102
RTVSPost2010Prop30
280
     1
102
RTVSPost2010PropOp30
 70
     1
102
RTVSPost2010Prop31
280
     0
102
RTVSPost2010PropOp31
 70
     1
102
RTVSPost2010Prop32
280
     0
102
RTVSPost2010PropOp32
 70
     1
102
RTVSPost2010Prop33
280
     0
102
RTVSPost2010PropOp33
 70
     1
102
RTVSPost2010Prop34
280
     0
102
RTVSPost2010PropOp34
 70
     1
102
RTVSPost2010Prop35
280
     0
102
RTVSPost2010PropOp35
 70
     1
102
RTVSPost2010Prop36
280
     0
102
RTVSPost2010PropOp36
 70
     1
102
RTVSPost2010Prop37
 90
       50
102
RTVSPost2010PropOp37
 70
     1
102
RTVSPost2010Prop38
140
0.0
102
RTVSPost2010PropOp38
 70
     1
102
RTVSPost2010Prop39
140
1.0
102
RTVSPost2010PropOp39
 70
     1
102
RTVSPost2010Prop40
 90
        0
102
RTVSPost2010PropOp40
 70
     1
102
RTVSPost2010Prop41ColorIndex
 90
       18
102
RTVSPost2010Prop41ColorRGB
 90
        0
102
RTVSPost2010PropOp41
 70
     1
102
RTVSPost2010Prop42
 90
       50
102
RTVSPost2010PropOp42
 70
     1
102
RTVSPost2010Prop43
 90
        3
102
RTVSPost2010PropOp43
 70
     1
102
RTVSPost2010Prop44ColorIndex
 90
        5
102
RTVSPost2010Prop44ColorRGB
 90
      255
102
RTVSPost2010PropOp44
 70
     1
102
RTVSPost2010Prop45
280
     0
102
RTVSPost2010PropOp45
 70
     1
102
RTVSPost2010Prop46
 90
       50
102
RTVSPost2010PropOp46
 70
     1
102
RTVSPost2010Prop47
 90
       50
102
RTVSPost2010PropOp47
 70
     1
102
RTVSPost2010Prop48
 90
       50
102
RTVSPost2010PropOp48
 70
     1
102
RTVSPost2010Prop49
280
     0
102
RTVSPost2010PropOp49
 70
     1
102
RTVSPost2010Prop50
 90
       50
102
RTVSPost2010PropOp50
 70
     1
102
RTVSPost2010Prop51ColorIndex
 90
      256
102
RTVSPost2010Prop51ColorRGB
 90
-16777216
102
RTVSPost2010PropOp51
 70
     0
102
RTVSPost2010Prop52
140
1.0
102
RTVSPost2010PropOp52
 70
     0
102
RTVSPost2010Prop53
 90
        2
102
RTVSPost2010PropOp53
 70
     1
102
RTVSPost2010Prop54
  1
strokes_ogs.tif
102
RTVSPost2010PropOp54
 70
     1
102
RTVSPost2010Prop55
280
     0
102
RTVSPost2010PropOp55
 70
     1
102
RTVSPost2010Prop56
140
1.0
102
RTVSPost2010PropOp56
 70
     1
102
RTVSPost2010Prop57
140
1.0
102
RTVSPost2010PropOp57
 70
     1
102
RTVSPropertyOp0
 70
     1
102
RTVSPropertyOp1
 70
     1
102
RTVSPropertyOp2
 70
     1
102
RTVSPropertyOp3
 70
     1
102
RTVSPropertyOp4
 70
     1
102
RTVSPropertyOp5
 70
     1
102
RTVSPropertyOp6
 70
     1
102
RTVSPropertyOp7
 70
     1
102
RTVSPropertyOp8
 70
     1
102
RTVSPropertyOp9
 70
     1
102
RTVSPropertyOp10
 70
     1
102
RTVSPropertyOp11
 70
     1
102
RTVSPropertyOp12
 70
     1
102
RTVSPropertyOp13
 70
     1
102
RTVSPropertyOp14
 70
     1
102
RTVSPropertyOp15
 70
     1
102
RTVSPropertyOp16
 70
     1
102
RTVSPropertyOp17
 70
     1
102
RTVSPropertyOp18
 70
     1
102
RTVSPropertyOp19
 70
     1
102
RTVSPropertyOp20
 70
     1
102
RTVSPropertyOp21
 70
     1
102
RTVSPropertyOp22
 70
     1
102
RTVSPropertyOp23
 70
     1
102
RTVSPropertyOp24
 70
     1
102
RTVSPropertyOp25
 70
     1
102
RTVSPropertyOp26
 70
     1
102
RTVSPropertyOp27
 70
     1
102
RTVSPropertyOp28
 70
     1
102
RTVSPropertyOp29
 70
     1
102
RTVSPropertyOp30
 70
     1
102
RTVSPropertyOp31
 70
     1
102
RTVSPropertyOp32
 70
     1
102
RTVSPropertyOp33
 70
     1
102
RTVSPropertyOp34
 70
     1
102
RTVSPropertyOp35
 70
     1
102
RTVSPropertyOp36
 70
     1
102
RTVSPropertyOp37
 70
     1
102
RTVSPropertyOp38
 70
     1
102
RTVSPropertyOp39
 70
     1
102
RTVSPropertyOp40
 70
     1
102
RTVSPropertyOp41
 70
     1
102
RTVSPropertyOp42
 70
     1
102
RTVSPropertyOp43
 70
     1
102
RTVSPropertyOp44
 70
     1
102
RTVSPropertyOp45
 70
     1
102
RTVSPropertyOp46
 70
     1
102
RTVSPropertyOp47
 70
     1
102
RTVSPropertyOp48
 70
     1
102
RTVSPropertyOp49
 70
     1
102
RTVSPropertyOp50
 70
     1
102
RTVSPropertyOp51
 70
     0
102
RTVSPropertyOp52
 70
     0
102
RTVSPropertyOp53
 70
     1
102
RTVSPropertyOp54
 70
     1
102
RTVSPropertyOp55
 70
     1
102
RTVSPropertyOp56
 70
     1
102
RTVSPropertyOp57
 70
     1
102
RTVSPropertyOp58
 70
     1
102
RTVSPropertyOp59
 70
     1
102
RTVSPropertyOp60
 70
     1
102
RTVSPropertyOp61
 70
     1
102
RTVSPropertyOp62
 70
     1
  0
XRECORD
  5
20E2F
102
{ACAD_REACTORS
330
20E2E
102
}
330
20E2E
100
AcDbXrecord
280
     1
102
RTVSPost2010Prop28
280
     0
102
RTVSPost2010PropOp28
 70
     1
102
RTVSPost2010Prop29
280
     1
102
RTVSPost2010PropOp29
 70
     1
102
RTVSPost2010Prop30
280
     1
102
RTVSPost2010PropOp30
 70
     1
102
RTVSPost2010Prop31
280
     0
102
RTVSPost2010PropOp31
 70
     1
102
RTVSPost2010Prop32
280
     0
102
RTVSPost2010PropOp32
 70
     1
102
RTVSPost2010Prop33
280
     0
102
RTVSPost2010PropOp33
 70
     1
102
RTVSPost2010Prop34
280
     0
102
RTVSPost2010PropOp34
 70
     1
102
RTVSPost2010Prop35
280
     0
102
RTVSPost2010PropOp35
 70
     1
102
RTVSPost2010Prop36
280
     0
102
RTVSPost2010PropOp36
 70
     1
102
RTVSPost2010Prop37
 90
       50
102
RTVSPost2010PropOp37
 70
     1
102
RTVSPost2010Prop38
140
0.0
102
RTVSPost2010PropOp38
 70
     1
102
RTVSPost2010Prop39
140
1.0
102
RTVSPost2010PropOp39
 70
     1
102
RTVSPost2010Prop40
 90
        0
102
RTVSPost2010PropOp40
 70
     1
102
RTVSPost2010Prop41ColorIndex
 90
       18
102
RTVSPost2010Prop41ColorRGB
 90
        0
102
RTVSPost2010PropOp41
 70
     1
102
RTVSPost2010Prop42
 90
       50
102
RTVSPost2010PropOp42
 70
     1
102
RTVSPost2010Prop43
 90
        3
102
RTVSPost2010PropOp43
 70
     1
102
RTVSPost2010Prop44ColorIndex
 90
        5
102
RTVSPost2010Prop44ColorRGB
 90
      255
102
RTVSPost2010PropOp44
 70
     1
102
RTVSPost2010Prop45
280
     0
102
RTVSPost2010PropOp45
 70
     1
102
RTVSPost2010Prop46
 90
       50
102
RTVSPost2010PropOp46
 70
     1
102
RTVSPost2010Prop47
 90
       50
102
RTVSPost2010PropOp47
 70
     1
102
RTVSPost2010Prop48
 90
       50
102
RTVSPost2010PropOp48
 70
     1
102
RTVSPost2010Prop49
280
     0
102
RTVSPost2010PropOp49
 70
     1
102
RTVSPost2010Prop50
 90
       50
102
RTVSPost2010PropOp50
 70
     1
102
RTVSPost2010Prop51ColorIndex
 90
      256
102
RTVSPost2010Prop51ColorRGB
 90
-16777216
102
RTVSPost2010PropOp51
 70
     0
102
RTVSPost2010Prop52
140
1.0
102
RTVSPost2010PropOp52
 70
     0
102
RTVSPost2010Prop53
 90
        2
102
RTVSPost2010PropOp53
 70
     1
102
RTVSPost2010Prop54
  1
strokes_ogs.tif
102
RTVSPost2010PropOp54
 70
     1
102
RTVSPost2010Prop55
280
     0
102
RTVSPost2010PropOp55
 70
     1
102
RTVSPost2010Prop56
140
1.0
102
RTVSPost2010PropOp56
 70
     1
102
RTVSPost2010Prop57
140
1.0
102
RTVSPost2010PropOp57
 70
     1
102
RTVSPropertyOp0
 70
     1
102
RTVSPropertyOp1
 70
     1
102
RTVSPropertyOp2
 70
     1
102
RTVSPropertyOp3
 70
     1
102
RTVSPropertyOp4
 70
     1
102
RTVSPropertyOp5
 70
     1
102
RTVSPropertyOp6
 70
     1
102
RTVSPropertyOp7
 70
     1
102
RTVSPropertyOp8
 70
     1
102
RTVSPropertyOp9
 70
     1
102
RTVSPropertyOp10
 70
     1
102
RTVSPropertyOp11
 70
     1
102
RTVSPropertyOp12
 70
     1
102
RTVSPropertyOp13
 70
     1
102
RTVSPropertyOp14
 70
     1
102
RTVSPropertyOp15
 70
     1
102
RTVSPropertyOp16
 70
     1
102
RTVSPropertyOp17
 70
     1
102
RTVSPropertyOp18
 70
     1
102
RTVSPropertyOp19
 70
     1
102
RTVSPropertyOp20
 70
     1
102
RTVSPropertyOp21
 70
     1
102
RTVSPropertyOp22
 70
     1
102
RTVSPropertyOp23
 70
     1
102
RTVSPropertyOp24
 70
     1
102
RTVSPropertyOp25
 70
     1
102
RTVSPropertyOp26
 70
     1
102
RTVSPropertyOp27
 70
     1
102
RTVSPropertyOp28
 70
     1
102
RTVSPropertyOp29
 70
     1
102
RTVSPropertyOp30
 70
     1
102
RTVSPropertyOp31
 70
     1
102
RTVSPropertyOp32
 70
     1
102
RTVSPropertyOp33
 70
     1
102
RTVSPropertyOp34
 70
     1
102
RTVSPropertyOp35
 70
     1
102
RTVSPropertyOp36
 70
     1
102
RTVSPropertyOp37
 70
     1
102
RTVSPropertyOp38
 70
     1
102
RTVSPropertyOp39
 70
     1
102
RTVSPropertyOp40
 70
     1
102
RTVSPropertyOp41
 70
     1
102
RTVSPropertyOp42
 70
     1
102
RTVSPropertyOp43
 70
     1
102
RTVSPropertyOp44
 70
     1
102
RTVSPropertyOp45
 70
     1
102
RTVSPropertyOp46
 70
     1
102
RTVSPropertyOp47
 70
     1
102
RTVSPropertyOp48
 70
     1
102
RTVSPropertyOp49
 70
     1
102
RTVSPropertyOp50
 70
     1
102
RTVSPropertyOp51
 70
     0
102
RTVSPropertyOp52
 70
     0
102
RTVSPropertyOp53
 70
     1
102
RTVSPropertyOp54
 70
     1
102
RTVSPropertyOp55
 70
     1
102
RTVSPropertyOp56
 70
     1
102
RTVSPropertyOp57
 70
     1
102
RTVSPropertyOp58
 70
     1
102
RTVSPropertyOp59
 70
     1
102
RTVSPropertyOp60
 70
     1
102
RTVSPropertyOp61
 70
     1
102
RTVSPropertyOp62
 70
     1
  0
XRECORD
  5
20E37
102
{ACAD_REACTORS
330
20E36
102
}
330
20E36
100
AcDbXrecord
280
     1
102
RTVSPost2010Prop28
280
     0
102
RTVSPost2010PropOp28
 70
     1
102
RTVSPost2010Prop29
280
     1
102
RTVSPost2010PropOp29
 70
     1
102
RTVSPost2010Prop30
280
     1
102
RTVSPost2010PropOp30
 70
     1
102
RTVSPost2010Prop31
280
     0
102
RTVSPost2010PropOp31
 70
     1
102
RTVSPost2010Prop32
280
     0
102
RTVSPost2010PropOp32
 70
     1
102
RTVSPost2010Prop33
280
     0
102
RTVSPost2010PropOp33
 70
     1
102
RTVSPost2010Prop34
280
     0
102
RTVSPost2010PropOp34
 70
     1
102
RTVSPost2010Prop35
280
     0
102
RTVSPost2010PropOp35
 70
     1
102
RTVSPost2010Prop36
280
     0
102
RTVSPost2010PropOp36
 70
     1
102
RTVSPost2010Prop37
 90
       50
102
RTVSPost2010PropOp37
 70
     1
102
RTVSPost2010Prop38
140
0.0
102
RTVSPost2010PropOp38
 70
     1
102
RTVSPost2010Prop39
140
1.0
102
RTVSPost2010PropOp39
 70
     1
102
RTVSPost2010Prop40
 90
        0
102
RTVSPost2010PropOp40
 70
     1
102
RTVSPost2010Prop41ColorIndex
 90
       18
102
RTVSPost2010Prop41ColorRGB
 90
        0
102
RTVSPost2010PropOp41
 70
     1
102
RTVSPost2010Prop42
 90
       50
102
RTVSPost2010PropOp42
 70
     1
102
RTVSPost2010Prop43
 90
        3
102
RTVSPost2010PropOp43
 70
     1
102
RTVSPost2010Prop44ColorIndex
 90
        5
102
RTVSPost2010Prop44ColorRGB
 90
      255
102
RTVSPost2010PropOp44
 70
     1
102
RTVSPost2010Prop45
280
     0
102
RTVSPost2010PropOp45
 70
     1
102
RTVSPost2010Prop46
 90
       50
102
RTVSPost2010PropOp46
 70
     1
102
RTVSPost2010Prop47
 90
       50
102
RTVSPost2010PropOp47
 70
     1
102
RTVSPost2010Prop48
 90
       50
102
RTVSPost2010PropOp48
 70
     1
102
RTVSPost2010Prop49
280
     0
102
RTVSPost2010PropOp49
 70
     1
102
RTVSPost2010Prop50
 90
       50
102
RTVSPost2010PropOp50
 70
     1
102
RTVSPost2010Prop51ColorIndex
 90
      256
102
RTVSPost2010Prop51ColorRGB
 90
-16777216
102
RTVSPost2010PropOp51
 70
     0
102
RTVSPost2010Prop52
140
1.0
102
RTVSPost2010PropOp52
 70
     0
102
RTVSPost2010Prop53
 90
        2
102
RTVSPost2010PropOp53
 70
     1
102
RTVSPost2010Prop54
  1
strokes_ogs.tif
102
RTVSPost2010PropOp54
 70
     1
102
RTVSPost2010Prop55
280
     0
102
RTVSPost2010PropOp55
 70
     1
102
RTVSPost2010Prop56
140
1.0
102
RTVSPost2010PropOp56
 70
     1
102
RTVSPost2010Prop57
140
1.0
102
RTVSPost2010PropOp57
 70
     1
102
RTVSPropertyOp0
 70
     1
102
RTVSPropertyOp1
 70
     1
102
RTVSPropertyOp2
 70
     1
102
RTVSPropertyOp3
 70
     1
102
RTVSPropertyOp4
 70
     1
102
RTVSPropertyOp5
 70
     1
102
RTVSPropertyOp6
 70
     1
102
RTVSPropertyOp7
 70
     1
102
RTVSPropertyOp8
 70
     1
102
RTVSPropertyOp9
 70
     1
102
RTVSPropertyOp10
 70
     1
102
RTVSPropertyOp11
 70
     1
102
RTVSPropertyOp12
 70
     1
102
RTVSPropertyOp13
 70
     1
102
RTVSPropertyOp14
 70
     1
102
RTVSPropertyOp15
 70
     1
102
RTVSPropertyOp16
 70
     1
102
RTVSPropertyOp17
 70
     1
102
RTVSPropertyOp18
 70
     1
102
RTVSPropertyOp19
 70
     1
102
RTVSPropertyOp20
 70
     1
102
RTVSPropertyOp21
 70
     1
102
RTVSPropertyOp22
 70
     1
102
RTVSPropertyOp23
 70
     1
102
RTVSPropertyOp24
 70
     1
102
RTVSPropertyOp25
 70
     1
102
RTVSPropertyOp26
 70
     1
102
RTVSPropertyOp27
 70
     1
102
RTVSPropertyOp28
 70
     1
102
RTVSPropertyOp29
 70
     1
102
RTVSPropertyOp30
 70
     1
102
RTVSPropertyOp31
 70
     1
102
RTVSPropertyOp32
 70
     1
102
RTVSPropertyOp33
 70
     1
102
RTVSPropertyOp34
 70
     1
102
RTVSPropertyOp35
 70
     1
102
RTVSPropertyOp36
 70
     1
102
RTVSPropertyOp37
 70
     1
102
RTVSPropertyOp38
 70
     1
102
RTVSPropertyOp39
 70
     1
102
RTVSPropertyOp40
 70
     1
102
RTVSPropertyOp41
 70
     1
102
RTVSPropertyOp42
 70
     1
102
RTVSPropertyOp43
 70
     1
102
RTVSPropertyOp44
 70
     1
102
RTVSPropertyOp45
 70
     1
102
RTVSPropertyOp46
 70
     1
102
RTVSPropertyOp47
 70
     1
102
RTVSPropertyOp48
 70
     1
102
RTVSPropertyOp49
 70
     1
102
RTVSPropertyOp50
 70
     1
102
RTVSPropertyOp51
 70
     0
102
RTVSPropertyOp52
 70
     0
102
RTVSPropertyOp53
 70
     1
102
RTVSPropertyOp54
 70
     1
102
RTVSPropertyOp55
 70
     1
102
RTVSPropertyOp56
 70
     1
102
RTVSPropertyOp57
 70
     1
102
RTVSPropertyOp58
 70
     1
102
RTVSPropertyOp59
 70
     1
102
RTVSPropertyOp60
 70
     1
102
RTVSPropertyOp61
 70
     1
102
RTVSPropertyOp62
 70
     1
  0
XRECORD
  5
20E29
102
{ACAD_REACTORS
330
20E28
102
}
330
20E28
100
AcDbXrecord
280
     1
102
RTVSPost2010Prop28
280
     0
102
RTVSPost2010PropOp28
 70
     1
102
RTVSPost2010Prop29
280
     1
102
RTVSPost2010PropOp29
 70
     1
102
RTVSPost2010Prop30
280
     1
102
RTVSPost2010PropOp30
 70
     1
102
RTVSPost2010Prop31
280
     0
102
RTVSPost2010PropOp31
 70
     1
102
RTVSPost2010Prop32
280
     0
102
RTVSPost2010PropOp32
 70
     1
102
RTVSPost2010Prop33
280
     0
102
RTVSPost2010PropOp33
 70
     1
102
RTVSPost2010Prop34
280
     0
102
RTVSPost2010PropOp34
 70
     1
102
RTVSPost2010Prop35
280
     0
102
RTVSPost2010PropOp35
 70
     1
102
RTVSPost2010Prop36
280
     0
102
RTVSPost2010PropOp36
 70
     1
102
RTVSPost2010Prop37
 90
       50
102
RTVSPost2010PropOp37
 70
     1
102
RTVSPost2010Prop38
140
0.0
102
RTVSPost2010PropOp38
 70
     1
102
RTVSPost2010Prop39
140
1.0
102
RTVSPost2010PropOp39
 70
     1
102
RTVSPost2010Prop40
 90
        0
102
RTVSPost2010PropOp40
 70
     1
102
RTVSPost2010Prop41ColorIndex
 90
       18
102
RTVSPost2010Prop41ColorRGB
 90
        0
102
RTVSPost2010PropOp41
 70
     1
102
RTVSPost2010Prop42
 90
       50
102
RTVSPost2010PropOp42
 70
     1
102
RTVSPost2010Prop43
 90
        3
102
RTVSPost2010PropOp43
 70
     1
102
RTVSPost2010Prop44ColorIndex
 90
        5
102
RTVSPost2010Prop44ColorRGB
 90
      255
102
RTVSPost2010PropOp44
 70
     1
102
RTVSPost2010Prop45
280
     0
102
RTVSPost2010PropOp45
 70
     1
102
RTVSPost2010Prop46
 90
       50
102
RTVSPost2010PropOp46
 70
     1
102
RTVSPost2010Prop47
 90
       50
102
RTVSPost2010PropOp47
 70
     1
102
RTVSPost2010Prop48
 90
       50
102
RTVSPost2010PropOp48
 70
     1
102
RTVSPost2010Prop49
280
     0
102
RTVSPost2010PropOp49
 70
     1
102
RTVSPost2010Prop50
 90
       50
102
RTVSPost2010PropOp50
 70
     1
102
RTVSPost2010Prop51ColorIndex
 90
      256
102
RTVSPost2010Prop51ColorRGB
 90
-16777216
102
RTVSPost2010PropOp51
 70
     0
102
RTVSPost2010Prop52
140
1.0
102
RTVSPost2010PropOp52
 70
     0
102
RTVSPost2010Prop53
 90
        2
102
RTVSPost2010PropOp53
 70
     1
102
RTVSPost2010Prop54
  1
strokes_ogs.tif
102
RTVSPost2010PropOp54
 70
     1
102
RTVSPost2010Prop55
280
     0
102
RTVSPost2010PropOp55
 70
     1
102
RTVSPost2010Prop56
140
1.0
102
RTVSPost2010PropOp56
 70
     1
102
RTVSPost2010Prop57
140
1.0
102
RTVSPost2010PropOp57
 70
     1
102
RTVSPropertyOp0
 70
     1
102
RTVSPropertyOp1
 70
     1
102
RTVSPropertyOp2
 70
     1
102
RTVSPropertyOp3
 70
     1
102
RTVSPropertyOp4
 70
     1
102
RTVSPropertyOp5
 70
     1
102
RTVSPropertyOp6
 70
     1
102
RTVSPropertyOp7
 70
     1
102
RTVSPropertyOp8
 70
     1
102
RTVSPropertyOp9
 70
     1
102
RTVSPropertyOp10
 70
     1
102
RTVSPropertyOp11
 70
     1
102
RTVSPropertyOp12
 70
     1
102
RTVSPropertyOp13
 70
     1
102
RTVSPropertyOp14
 70
     1
102
RTVSPropertyOp15
 70
     1
102
RTVSPropertyOp16
 70
     1
102
RTVSPropertyOp17
 70
     1
102
RTVSPropertyOp18
 70
     1
102
RTVSPropertyOp19
 70
     1
102
RTVSPropertyOp20
 70
     1
102
RTVSPropertyOp21
 70
     1
102
RTVSPropertyOp22
 70
     1
102
RTVSPropertyOp23
 70
     1
102
RTVSPropertyOp24
 70
     1
102
RTVSPropertyOp25
 70
     1
102
RTVSPropertyOp26
 70
     1
102
RTVSPropertyOp27
 70
     1
102
RTVSPropertyOp28
 70
     1
102
RTVSPropertyOp29
 70
     1
102
RTVSPropertyOp30
 70
     1
102
RTVSPropertyOp31
 70
     1
102
RTVSPropertyOp32
 70
     1
102
RTVSPropertyOp33
 70
     1
102
RTVSPropertyOp34
 70
     1
102
RTVSPropertyOp35
 70
     1
102
RTVSPropertyOp36
 70
     1
102
RTVSPropertyOp37
 70
     1
102
RTVSPropertyOp38
 70
     1
102
RTVSPropertyOp39
 70
     1
102
RTVSPropertyOp40
 70
     1
102
RTVSPropertyOp41
 70
     1
102
RTVSPropertyOp42
 70
     1
102
RTVSPropertyOp43
 70
     1
102
RTVSPropertyOp44
 70
     1
102
RTVSPropertyOp45
 70
     1
102
RTVSPropertyOp46
 70
     1
102
RTVSPropertyOp47
 70
     1
102
RTVSPropertyOp48
 70
     1
102
RTVSPropertyOp49
 70
     1
102
RTVSPropertyOp50
 70
     1
102
RTVSPropertyOp51
 70
     0
102
RTVSPropertyOp52
 70
     0
102
RTVSPropertyOp53
 70
     1
102
RTVSPropertyOp54
 70
     1
102
RTVSPropertyOp55
 70
     1
102
RTVSPropertyOp56
 70
     1
102
RTVSPropertyOp57
 70
     1
102
RTVSPropertyOp58
 70
     1
102
RTVSPropertyOp59
 70
     1
102
RTVSPropertyOp60
 70
     1
102
RTVSPropertyOp61
 70
     1
102
RTVSPropertyOp62
 70
     1
  0
XRECORD
  5
20E2D
102
{ACAD_REACTORS
330
20E2C
102
}
330
20E2C
100
AcDbXrecord
280
     1
102
RTVSPost2010Prop28
280
     0
102
RTVSPost2010PropOp28
 70
     1
102
RTVSPost2010Prop29
280
     1
102
RTVSPost2010PropOp29
 70
     1
102
RTVSPost2010Prop30
280
     1
102
RTVSPost2010PropOp30
 70
     1
102
RTVSPost2010Prop31
280
     0
102
RTVSPost2010PropOp31
 70
     1
102
RTVSPost2010Prop32
280
     0
102
RTVSPost2010PropOp32
 70
     1
102
RTVSPost2010Prop33
280
     0
102
RTVSPost2010PropOp33
 70
     1
102
RTVSPost2010Prop34
280
     0
102
RTVSPost2010PropOp34
 70
     1
102
RTVSPost2010Prop35
280
     0
102
RTVSPost2010PropOp35
 70
     1
102
RTVSPost2010Prop36
280
     0
102
RTVSPost2010PropOp36
 70
     1
102
RTVSPost2010Prop37
 90
       50
102
RTVSPost2010PropOp37
 70
     1
102
RTVSPost2010Prop38
140
0.0
102
RTVSPost2010PropOp38
 70
     1
102
RTVSPost2010Prop39
140
1.0
102
RTVSPost2010PropOp39
 70
     1
102
RTVSPost2010Prop40
 90
        0
102
RTVSPost2010PropOp40
 70
     1
102
RTVSPost2010Prop41ColorIndex
 90
       18
102
RTVSPost2010Prop41ColorRGB
 90
        0
102
RTVSPost2010PropOp41
 70
     1
102
RTVSPost2010Prop42
 90
       50
102
RTVSPost2010PropOp42
 70
     1
102
RTVSPost2010Prop43
 90
        3
102
RTVSPost2010PropOp43
 70
     1
102
RTVSPost2010Prop44ColorIndex
 90
        5
102
RTVSPost2010Prop44ColorRGB
 90
      255
102
RTVSPost2010PropOp44
 70
     1
102
RTVSPost2010Prop45
280
     0
102
RTVSPost2010PropOp45
 70
     1
102
RTVSPost2010Prop46
 90
       50
102
RTVSPost2010PropOp46
 70
     1
102
RTVSPost2010Prop47
 90
       50
102
RTVSPost2010PropOp47
 70
     1
102
RTVSPost2010Prop48
 90
       50
102
RTVSPost2010PropOp48
 70
     1
102
RTVSPost2010Prop49
280
     0
102
RTVSPost2010PropOp49
 70
     1
102
RTVSPost2010Prop50
 90
       50
102
RTVSPost2010PropOp50
 70
     1
102
RTVSPost2010Prop51ColorIndex
 90
      256
102
RTVSPost2010Prop51ColorRGB
 90
-16777216
102
RTVSPost2010PropOp51
 70
     0
102
RTVSPost2010Prop52
140
1.0
102
RTVSPost2010PropOp52
 70
     0
102
RTVSPost2010Prop53
 90
        2
102
RTVSPost2010PropOp53
 70
     1
102
RTVSPost2010Prop54
  1
strokes_ogs.tif
102
RTVSPost2010PropOp54
 70
     1
102
RTVSPost2010Prop55
280
     0
102
RTVSPost2010PropOp55
 70
     1
102
RTVSPost2010Prop56
140
1.0
102
RTVSPost2010PropOp56
 70
     1
102
RTVSPost2010Prop57
140
1.0
102
RTVSPost2010PropOp57
 70
     1
102
RTVSPropertyOp0
 70
     1
102
RTVSPropertyOp1
 70
     1
102
RTVSPropertyOp2
 70
     1
102
RTVSPropertyOp3
 70
     1
102
RTVSPropertyOp4
 70
     1
102
RTVSPropertyOp5
 70
     1
102
RTVSPropertyOp6
 70
     1
102
RTVSPropertyOp7
 70
     1
102
RTVSPropertyOp8
 70
     1
102
RTVSPropertyOp9
 70
     1
102
RTVSPropertyOp10
 70
     1
102
RTVSPropertyOp11
 70
     1
102
RTVSPropertyOp12
 70
     1
102
RTVSPropertyOp13
 70
     1
102
RTVSPropertyOp14
 70
     1
102
RTVSPropertyOp15
 70
     1
102
RTVSPropertyOp16
 70
     1
102
RTVSPropertyOp17
 70
     1
102
RTVSPropertyOp18
 70
     1
102
RTVSPropertyOp19
 70
     1
102
RTVSPropertyOp20
 70
     1
102
RTVSPropertyOp21
 70
     1
102
RTVSPropertyOp22
 70
     1
102
RTVSPropertyOp23
 70
     1
102
RTVSPropertyOp24
 70
     1
102
RTVSPropertyOp25
 70
     1
102
RTVSPropertyOp26
 70
     1
102
RTVSPropertyOp27
 70
     1
102
RTVSPropertyOp28
 70
     1
102
RTVSPropertyOp29
 70
     1
102
RTVSPropertyOp30
 70
     1
102
RTVSPropertyOp31
 70
     1
102
RTVSPropertyOp32
 70
     1
102
RTVSPropertyOp33
 70
     1
102
RTVSPropertyOp34
 70
     1
102
RTVSPropertyOp35
 70
     1
102
RTVSPropertyOp36
 70
     1
102
RTVSPropertyOp37
 70
     1
102
RTVSPropertyOp38
 70
     1
102
RTVSPropertyOp39
 70
     1
102
RTVSPropertyOp40
 70
     1
102
RTVSPropertyOp41
 70
     1
102
RTVSPropertyOp42
 70
     1
102
RTVSPropertyOp43
 70
     1
102
RTVSPropertyOp44
 70
     1
102
RTVSPropertyOp45
 70
     1
102
RTVSPropertyOp46
 70
     1
102
RTVSPropertyOp47
 70
     1
102
RTVSPropertyOp48
 70
     1
102
RTVSPropertyOp49
 70
     1
102
RTVSPropertyOp50
 70
     1
102
RTVSPropertyOp51
 70
     0
102
RTVSPropertyOp52
 70
     0
102
RTVSPropertyOp53
 70
     1
102
RTVSPropertyOp54
 70
     1
102
RTVSPropertyOp55
 70
     1
102
RTVSPropertyOp56
 70
     1
102
RTVSPropertyOp57
 70
     1
102
RTVSPropertyOp58
 70
     1
102
RTVSPropertyOp59
 70
     1
102
RTVSPropertyOp60
 70
     1
102
RTVSPropertyOp61
 70
     1
102
RTVSPropertyOp62
 70
     1
  0
XRECORD
  5
20E54
102
{ACAD_REACTORS
330
20E53
102
}
330
20E53
100
AcDbXrecord
280
     1
102
RTVSPost2010Prop28
280
     0
102
RTVSPost2010PropOp28
 70
     1
102
RTVSPost2010Prop29
280
     1
102
RTVSPost2010PropOp29
 70
     1
102
RTVSPost2010Prop30
280
     1
102
RTVSPost2010PropOp30
 70
     1
102
RTVSPost2010Prop31
280
     0
102
RTVSPost2010PropOp31
 70
     1
102
RTVSPost2010Prop32
280
     0
102
RTVSPost2010PropOp32
 70
     1
102
RTVSPost2010Prop33
280
     0
102
RTVSPost2010PropOp33
 70
     1
102
RTVSPost2010Prop34
280
     0
102
RTVSPost2010PropOp34
 70
     1
102
RTVSPost2010Prop35
280
     0
102
RTVSPost2010PropOp35
 70
     1
102
RTVSPost2010Prop36
280
     0
102
RTVSPost2010PropOp36
 70
     1
102
RTVSPost2010Prop37
 90
       50
102
RTVSPost2010PropOp37
 70
     0
102
RTVSPost2010Prop38
140
0.0
102
RTVSPost2010PropOp38
 70
     0
102
RTVSPost2010Prop39
140
1.0
102
RTVSPost2010PropOp39
 70
     0
102
RTVSPost2010Prop40
 90
        0
102
RTVSPost2010PropOp40
 70
     0
102
RTVSPost2010Prop41ColorIndex
 90
       18
102
RTVSPost2010Prop41ColorRGB
 90
        0
102
RTVSPost2010PropOp41
 70
     0
102
RTVSPost2010Prop42
 90
       50
102
RTVSPost2010PropOp42
 70
     0
102
RTVSPost2010Prop43
 90
        3
102
RTVSPost2010PropOp43
 70
     0
102
RTVSPost2010Prop44ColorIndex
 90
        5
102
RTVSPost2010Prop44ColorRGB
 90
      255
102
RTVSPost2010PropOp44
 70
     0
102
RTVSPost2010Prop45
280
     0
102
RTVSPost2010PropOp45
 70
     1
102
RTVSPost2010Prop46
 90
       50
102
RTVSPost2010PropOp46
 70
     0
102
RTVSPost2010Prop47
 90
       50
102
RTVSPost2010PropOp47
 70
     0
102
RTVSPost2010Prop48
 90
       50
102
RTVSPost2010PropOp48
 70
     0
102
RTVSPost2010Prop49
280
     0
102
RTVSPost2010PropOp49
 70
     1
102
RTVSPost2010Prop50
 90
       50
102
RTVSPost2010PropOp50
 70
     0
102
RTVSPost2010Prop51ColorIndex
 90
      256
102
RTVSPost2010Prop51ColorRGB
 90
-16777216
102
RTVSPost2010PropOp51
 70
     0
102
RTVSPost2010Prop52
140
1.0
102
RTVSPost2010PropOp52
 70
     0
102
RTVSPost2010Prop53
 90
        2
102
RTVSPost2010PropOp53
 70
     0
102
RTVSPost2010Prop54
  1
strokes_ogs.tif
102
RTVSPost2010PropOp54
 70
     0
102
RTVSPost2010Prop55
280
     0
102
RTVSPost2010PropOp55
 70
     1
102
RTVSPost2010Prop56
140
1.0
102
RTVSPost2010PropOp56
 70
     0
102
RTVSPost2010Prop57
140
1.0
102
RTVSPost2010PropOp57
 70
     0
102
RTVSPropertyOp0
 70
     0
102
RTVSPropertyOp1
 70
     0
102
RTVSPropertyOp2
 70
     0
102
RTVSPropertyOp3
 70
     0
102
RTVSPropertyOp4
 70
     0
102
RTVSPropertyOp5
 70
     0
102
RTVSPropertyOp6
 70
     0
102
RTVSPropertyOp7
 70
     0
102
RTVSPropertyOp8
 70
     0
102
RTVSPropertyOp9
 70
     0
102
RTVSPropertyOp10
 70
     0
102
RTVSPropertyOp11
 70
     0
102
RTVSPropertyOp12
 70
     0
102
RTVSPropertyOp13
 70
     0
102
RTVSPropertyOp14
 70
     2
102
RTVSPropertyOp15
 70
     0
102
RTVSPropertyOp16
 70
     0
102
RTVSPropertyOp17
 70
     0
102
RTVSPropertyOp18
 70
     0
102
RTVSPropertyOp19
 70
     0
102
RTVSPropertyOp20
 70
     0
102
RTVSPropertyOp21
 70
     0
102
RTVSPropertyOp22
 70
     0
102
RTVSPropertyOp23
 70
     0
102
RTVSPropertyOp24
 70
     0
102
RTVSPropertyOp25
 70
     0
102
RTVSPropertyOp26
 70
     0
102
RTVSPropertyOp27
 70
     0
102
RTVSPropertyOp28
 70
     1
102
RTVSPropertyOp29
 70
     1
102
RTVSPropertyOp30
 70
     1
102
RTVSPropertyOp31
 70
     1
102
RTVSPropertyOp32
 70
     1
102
RTVSPropertyOp33
 70
     1
102
RTVSPropertyOp34
 70
     1
102
RTVSPropertyOp35
 70
     1
102
RTVSPropertyOp36
 70
     1
102
RTVSPropertyOp37
 70
     0
102
RTVSPropertyOp38
 70
     0
102
RTVSPropertyOp39
 70
     0
102
RTVSPropertyOp40
 70
     0
102
RTVSPropertyOp41
 70
     0
102
RTVSPropertyOp42
 70
     0
102
RTVSPropertyOp43
 70
     0
102
RTVSPropertyOp44
 70
     0
102
RTVSPropertyOp45
 70
     1
102
RTVSPropertyOp46
 70
     0
102
RTVSPropertyOp47
 70
     0
102
RTVSPropertyOp48
 70
     0
102
RTVSPropertyOp49
 70
     1
102
RTVSPropertyOp50
 70
     0
102
RTVSPropertyOp51
 70
     0
102
RTVSPropertyOp52
 70
     0
102
RTVSPropertyOp53
 70
     0
102
RTVSPropertyOp54
 70
     0
102
RTVSPropertyOp55
 70
     1
102
RTVSPropertyOp56
 70
     0
102
RTVSPropertyOp57
 70
     0
102
RTVSPropertyOp58
 70
     1
102
RTVSPropertyOp59
 70
     1
102
RTVSPropertyOp60
 70
     1
102
RTVSPropertyOp61
 70
     1
102
RTVSPropertyOp62
 70
     1
  0
XRECORD
  5
20E35
102
{ACAD_REACTORS
330
20E34
102
}
330
20E34
100
AcDbXrecord
280
     1
102
RTVSPost2010Prop28
280
     0
102
RTVSPost2010PropOp28
 70
     1
102
RTVSPost2010Prop29
280
     1
102
RTVSPost2010PropOp29
 70
     1
102
RTVSPost2010Prop30
280
     1
102
RTVSPost2010PropOp30
 70
     1
102
RTVSPost2010Prop31
280
     0
102
RTVSPost2010PropOp31
 70
     1
102
RTVSPost2010Prop32
280
     0
102
RTVSPost2010PropOp32
 70
     1
102
RTVSPost2010Prop33
280
     0
102
RTVSPost2010PropOp33
 70
     1
102
RTVSPost2010Prop34
280
     0
102
RTVSPost2010PropOp34
 70
     1
102
RTVSPost2010Prop35
280
     0
102
RTVSPost2010PropOp35
 70
     1
102
RTVSPost2010Prop36
280
     0
102
RTVSPost2010PropOp36
 70
     1
102
RTVSPost2010Prop37
 90
       50
102
RTVSPost2010PropOp37
 70
     1
102
RTVSPost2010Prop38
140
0.0
102
RTVSPost2010PropOp38
 70
     1
102
RTVSPost2010Prop39
140
1.0
102
RTVSPost2010PropOp39
 70
     1
102
RTVSPost2010Prop40
 90
        0
102
RTVSPost2010PropOp40
 70
     1
102
RTVSPost2010Prop41ColorIndex
 90
       18
102
RTVSPost2010Prop41ColorRGB
 90
        0
102
RTVSPost2010PropOp41
 70
     1
102
RTVSPost2010Prop42
 90
       50
102
RTVSPost2010PropOp42
 70
     1
102
RTVSPost2010Prop43
 90
        3
102
RTVSPost2010PropOp43
 70
     1
102
RTVSPost2010Prop44ColorIndex
 90
        5
102
RTVSPost2010Prop44ColorRGB
 90
      255
102
RTVSPost2010PropOp44
 70
     1
102
RTVSPost2010Prop45
280
     0
102
RTVSPost2010PropOp45
 70
     1
102
RTVSPost2010Prop46
 90
       50
102
RTVSPost2010PropOp46
 70
     1
102
RTVSPost2010Prop47
 90
       50
102
RTVSPost2010PropOp47
 70
     1
102
RTVSPost2010Prop48
 90
       50
102
RTVSPost2010PropOp48
 70
     1
102
RTVSPost2010Prop49
280
     0
102
RTVSPost2010PropOp49
 70
     1
102
RTVSPost2010Prop50
 90
       50
102
RTVSPost2010PropOp50
 70
     1
102
RTVSPost2010Prop51ColorIndex
 90
      256
102
RTVSPost2010Prop51ColorRGB
 90
-16777216
102
RTVSPost2010PropOp51
 70
     0
102
RTVSPost2010Prop52
140
1.0
102
RTVSPost2010PropOp52
 70
     0
102
RTVSPost2010Prop53
 90
        2
102
RTVSPost2010PropOp53
 70
     1
102
RTVSPost2010Prop54
  1
strokes_ogs.tif
102
RTVSPost2010PropOp54
 70
     1
102
RTVSPost2010Prop55
280
     0
102
RTVSPost2010PropOp55
 70
     1
102
RTVSPost2010Prop56
140
1.0
102
RTVSPost2010PropOp56
 70
     1
102
RTVSPost2010Prop57
140
1.0
102
RTVSPost2010PropOp57
 70
     1
102
RTVSPropertyOp0
 70
     1
102
RTVSPropertyOp1
 70
     1
102
RTVSPropertyOp2
 70
     1
102
RTVSPropertyOp3
 70
     1
102
RTVSPropertyOp4
 70
     1
102
RTVSPropertyOp5
 70
     1
102
RTVSPropertyOp6
 70
     1
102
RTVSPropertyOp7
 70
     1
102
RTVSPropertyOp8
 70
     1
102
RTVSPropertyOp9
 70
     1
102
RTVSPropertyOp10
 70
     1
102
RTVSPropertyOp11
 70
     1
102
RTVSPropertyOp12
 70
     1
102
RTVSPropertyOp13
 70
     1
102
RTVSPropertyOp14
 70
     1
102
RTVSPropertyOp15
 70
     1
102
RTVSPropertyOp16
 70
     1
102
RTVSPropertyOp17
 70
     1
102
RTVSPropertyOp18
 70
     1
102
RTVSPropertyOp19
 70
     1
102
RTVSPropertyOp20
 70
     1
102
RTVSPropertyOp21
 70
     1
102
RTVSPropertyOp22
 70
     1
102
RTVSPropertyOp23
 70
     1
102
RTVSPropertyOp24
 70
     1
102
RTVSPropertyOp25
 70
     1
102
RTVSPropertyOp26
 70
     1
102
RTVSPropertyOp27
 70
     1
102
RTVSPropertyOp28
 70
     1
102
RTVSPropertyOp29
 70
     1
102
RTVSPropertyOp30
 70
     1
102
RTVSPropertyOp31
 70
     1
102
RTVSPropertyOp32
 70
     1
102
RTVSPropertyOp33
 70
     1
102
RTVSPropertyOp34
 70
     1
102
RTVSPropertyOp35
 70
     1
102
RTVSPropertyOp36
 70
     1
102
RTVSPropertyOp37
 70
     1
102
RTVSPropertyOp38
 70
     1
102
RTVSPropertyOp39
 70
     1
102
RTVSPropertyOp40
 70
     1
102
RTVSPropertyOp41
 70
     1
102
RTVSPropertyOp42
 70
     1
102
RTVSPropertyOp43
 70
     1
102
RTVSPropertyOp44
 70
     1
102
RTVSPropertyOp45
 70
     1
102
RTVSPropertyOp46
 70
     1
102
RTVSPropertyOp47
 70
     1
102
RTVSPropertyOp48
 70
     1
102
RTVSPropertyOp49
 70
     1
102
RTVSPropertyOp50
 70
     1
102
RTVSPropertyOp51
 70
     0
102
RTVSPropertyOp52
 70
     0
102
RTVSPropertyOp53
 70
     1
102
RTVSPropertyOp54
 70
     1
102
RTVSPropertyOp55
 70
     1
102
RTVSPropertyOp56
 70
     1
102
RTVSPropertyOp57
 70
     1
102
RTVSPropertyOp58
 70
     1
102
RTVSPropertyOp59
 70
     1
102
RTVSPropertyOp60
 70
     1
102
RTVSPropertyOp61
 70
     1
102
RTVSPropertyOp62
 70
     1
  0
XRECORD
  5
20E19
102
{ACAD_REACTORS
330
20E18
102
}
330
20E18
100
AcDbXrecord
280
     1
102
RTVSPost2010Prop28
280
     0
102
RTVSPost2010PropOp28
 70
     1
102
RTVSPost2010Prop29
280
     1
102
RTVSPost2010PropOp29
 70
     1
102
RTVSPost2010Prop30
280
     1
102
RTVSPost2010PropOp30
 70
     1
102
RTVSPost2010Prop31
280
     0
102
RTVSPost2010PropOp31
 70
     1
102
RTVSPost2010Prop32
280
     0
102
RTVSPost2010PropOp32
 70
     1
102
RTVSPost2010Prop33
280
     0
102
RTVSPost2010PropOp33
 70
     1
102
RTVSPost2010Prop34
280
     0
102
RTVSPost2010PropOp34
 70
     1
102
RTVSPost2010Prop35
280
     0
102
RTVSPost2010PropOp35
 70
     1
102
RTVSPost2010Prop36
280
     0
102
RTVSPost2010PropOp36
 70
     1
102
RTVSPost2010Prop37
 90
       50
102
RTVSPost2010PropOp37
 70
     1
102
RTVSPost2010Prop38
140
0.0
102
RTVSPost2010PropOp38
 70
     1
102
RTVSPost2010Prop39
140
1.0
102
RTVSPost2010PropOp39
 70
     1
102
RTVSPost2010Prop40
 90
        0
102
RTVSPost2010PropOp40
 70
     1
102
RTVSPost2010Prop41ColorIndex
 90
       18
102
RTVSPost2010Prop41ColorRGB
 90
        0
102
RTVSPost2010PropOp41
 70
     1
102
RTVSPost2010Prop42
 90
       50
102
RTVSPost2010PropOp42
 70
     1
102
RTVSPost2010Prop43
 90
        3
102
RTVSPost2010PropOp43
 70
     1
102
RTVSPost2010Prop44ColorIndex
 90
        5
102
RTVSPost2010Prop44ColorRGB
 90
      255
102
RTVSPost2010PropOp44
 70
     1
102
RTVSPost2010Prop45
280
     0
102
RTVSPost2010PropOp45
 70
     1
102
RTVSPost2010Prop46
 90
       50
102
RTVSPost2010PropOp46
 70
     1
102
RTVSPost2010Prop47
 90
       50
102
RTVSPost2010PropOp47
 70
     1
102
RTVSPost2010Prop48
 90
       50
102
RTVSPost2010PropOp48
 70
     1
102
RTVSPost2010Prop49
280
     0
102
RTVSPost2010PropOp49
 70
     1
102
RTVSPost2010Prop50
 90
       50
102
RTVSPost2010PropOp50
 70
     1
102
RTVSPost2010Prop51ColorIndex
 90
      256
102
RTVSPost2010Prop51ColorRGB
 90
-16777216
102
RTVSPost2010PropOp51
 70
     0
102
RTVSPost2010Prop52
140
1.0
102
RTVSPost2010PropOp52
 70
     0
102
RTVSPost2010Prop53
 90
        2
102
RTVSPost2010PropOp53
 70
     1
102
RTVSPost2010Prop54
  1
strokes_ogs.tif
102
RTVSPost2010PropOp54
 70
     1
102
RTVSPost2010Prop55
280
     0
102
RTVSPost2010PropOp55
 70
     1
102
RTVSPost2010Prop56
140
1.0
102
RTVSPost2010PropOp56
 70
     1
102
RTVSPost2010Prop57
140
1.0
102
RTVSPost2010PropOp57
 70
     1
102
RTVSPropertyOp0
 70
     1
102
RTVSPropertyOp1
 70
     1
102
RTVSPropertyOp2
 70
     1
102
RTVSPropertyOp3
 70
     1
102
RTVSPropertyOp4
 70
     1
102
RTVSPropertyOp5
 70
     1
102
RTVSPropertyOp6
 70
     1
102
RTVSPropertyOp7
 70
     1
102
RTVSPropertyOp8
 70
     1
102
RTVSPropertyOp9
 70
     1
102
RTVSPropertyOp10
 70
     1
102
RTVSPropertyOp11
 70
     1
102
RTVSPropertyOp12
 70
     1
102
RTVSPropertyOp13
 70
     1
102
RTVSPropertyOp14
 70
     1
102
RTVSPropertyOp15
 70
     1
102
RTVSPropertyOp16
 70
     1
102
RTVSPropertyOp17
 70
     1
102
RTVSPropertyOp18
 70
     1
102
RTVSPropertyOp19
 70
     1
102
RTVSPropertyOp20
 70
     1
102
RTVSPropertyOp21
 70
     1
102
RTVSPropertyOp22
 70
     1
102
RTVSPropertyOp23
 70
     1
102
RTVSPropertyOp24
 70
     1
102
RTVSPropertyOp25
 70
     1
102
RTVSPropertyOp26
 70
     1
102
RTVSPropertyOp27
 70
     1
102
RTVSPropertyOp28
 70
     1
102
RTVSPropertyOp29
 70
     1
102
RTVSPropertyOp30
 70
     1
102
RTVSPropertyOp31
 70
     1
102
RTVSPropertyOp32
 70
     1
102
RTVSPropertyOp33
 70
     1
102
RTVSPropertyOp34
 70
     1
102
RTVSPropertyOp35
 70
     1
102
RTVSPropertyOp36
 70
     1
102
RTVSPropertyOp37
 70
     1
102
RTVSPropertyOp38
 70
     1
102
RTVSPropertyOp39
 70
     1
102
RTVSPropertyOp40
 70
     1
102
RTVSPropertyOp41
 70
     1
102
RTVSPropertyOp42
 70
     1
102
RTVSPropertyOp43
 70
     1
102
RTVSPropertyOp44
 70
     1
102
RTVSPropertyOp45
 70
     1
102
RTVSPropertyOp46
 70
     1
102
RTVSPropertyOp47
 70
     1
102
RTVSPropertyOp48
 70
     1
102
RTVSPropertyOp49
 70
     1
102
RTVSPropertyOp50
 70
     1
102
RTVSPropertyOp51
 70
     0
102
RTVSPropertyOp52
 70
     0
102
RTVSPropertyOp53
 70
     1
102
RTVSPropertyOp54
 70
     1
102
RTVSPropertyOp55
 70
     1
102
RTVSPropertyOp56
 70
     1
102
RTVSPropertyOp57
 70
     1
102
RTVSPropertyOp58
 70
     1
102
RTVSPropertyOp59
 70
     1
102
RTVSPropertyOp60
 70
     1
102
RTVSPropertyOp61
 70
     1
102
RTVSPropertyOp62
 70
     1
  0
XRECORD
  5
20E1B
102
{ACAD_REACTORS
330
20E1A
102
}
330
20E1A
100
AcDbXrecord
280
     1
102
RTVSPost2010Prop28
280
     0
102
RTVSPost2010PropOp28
 70
     1
102
RTVSPost2010Prop29
280
     1
102
RTVSPost2010PropOp29
 70
     1
102
RTVSPost2010Prop30
280
     1
102
RTVSPost2010PropOp30
 70
     1
102
RTVSPost2010Prop31
280
     0
102
RTVSPost2010PropOp31
 70
     1
102
RTVSPost2010Prop32
280
     0
102
RTVSPost2010PropOp32
 70
     1
102
RTVSPost2010Prop33
280
     0
102
RTVSPost2010PropOp33
 70
     1
102
RTVSPost2010Prop34
280
     0
102
RTVSPost2010PropOp34
 70
     1
102
RTVSPost2010Prop35
280
     0
102
RTVSPost2010PropOp35
 70
     1
102
RTVSPost2010Prop36
280
     0
102
RTVSPost2010PropOp36
 70
     1
102
RTVSPost2010Prop37
 90
       50
102
RTVSPost2010PropOp37
 70
     1
102
RTVSPost2010Prop38
140
0.0
102
RTVSPost2010PropOp38
 70
     1
102
RTVSPost2010Prop39
140
1.0
102
RTVSPost2010PropOp39
 70
     1
102
RTVSPost2010Prop40
 90
        0
102
RTVSPost2010PropOp40
 70
     1
102
RTVSPost2010Prop41ColorIndex
 90
       18
102
RTVSPost2010Prop41ColorRGB
 90
        0
102
RTVSPost2010PropOp41
 70
     1
102
RTVSPost2010Prop42
 90
       50
102
RTVSPost2010PropOp42
 70
     1
102
RTVSPost2010Prop43
 90
        3
102
RTVSPost2010PropOp43
 70
     1
102
RTVSPost2010Prop44ColorIndex
 90
        5
102
RTVSPost2010Prop44ColorRGB
 90
      255
102
RTVSPost2010PropOp44
 70
     1
102
RTVSPost2010Prop45
280
     0
102
RTVSPost2010PropOp45
 70
     1
102
RTVSPost2010Prop46
 90
       50
102
RTVSPost2010PropOp46
 70
     1
102
RTVSPost2010Prop47
 90
       50
102
RTVSPost2010PropOp47
 70
     1
102
RTVSPost2010Prop48
 90
       50
102
RTVSPost2010PropOp48
 70
     1
102
RTVSPost2010Prop49
280
     0
102
RTVSPost2010PropOp49
 70
     1
102
RTVSPost2010Prop50
 90
       50
102
RTVSPost2010PropOp50
 70
     1
102
RTVSPost2010Prop51ColorIndex
 90
      256
102
RTVSPost2010Prop51ColorRGB
 90
-16777216
102
RTVSPost2010PropOp51
 70
     0
102
RTVSPost2010Prop52
140
1.0
102
RTVSPost2010PropOp52
 70
     0
102
RTVSPost2010Prop53
 90
        2
102
RTVSPost2010PropOp53
 70
     1
102
RTVSPost2010Prop54
  1
strokes_ogs.tif
102
RTVSPost2010PropOp54
 70
     1
102
RTVSPost2010Prop55
280
     0
102
RTVSPost2010PropOp55
 70
     1
102
RTVSPost2010Prop56
140
1.0
102
RTVSPost2010PropOp56
 70
     1
102
RTVSPost2010Prop57
140
1.0
102
RTVSPost2010PropOp57
 70
     1
102
RTVSPropertyOp0
 70
     1
102
RTVSPropertyOp1
 70
     1
102
RTVSPropertyOp2
 70
     1
102
RTVSPropertyOp3
 70
     1
102
RTVSPropertyOp4
 70
     1
102
RTVSPropertyOp5
 70
     1
102
RTVSPropertyOp6
 70
     1
102
RTVSPropertyOp7
 70
     1
102
RTVSPropertyOp8
 70
     1
102
RTVSPropertyOp9
 70
     1
102
RTVSPropertyOp10
 70
     1
102
RTVSPropertyOp11
 70
     1
102
RTVSPropertyOp12
 70
     1
102
RTVSPropertyOp13
 70
     1
102
RTVSPropertyOp14
 70
     1
102
RTVSPropertyOp15
 70
     1
102
RTVSPropertyOp16
 70
     1
102
RTVSPropertyOp17
 70
     1
102
RTVSPropertyOp18
 70
     1
102
RTVSPropertyOp19
 70
     1
102
RTVSPropertyOp20
 70
     1
102
RTVSPropertyOp21
 70
     1
102
RTVSPropertyOp22
 70
     1
102
RTVSPropertyOp23
 70
     1
102
RTVSPropertyOp24
 70
     1
102
RTVSPropertyOp25
 70
     1
102
RTVSPropertyOp26
 70
     1
102
RTVSPropertyOp27
 70
     1
102
RTVSPropertyOp28
 70
     1
102
RTVSPropertyOp29
 70
     1
102
RTVSPropertyOp30
 70
     1
102
RTVSPropertyOp31
 70
     1
102
RTVSPropertyOp32
 70
     1
102
RTVSPropertyOp33
 70
     1
102
RTVSPropertyOp34
 70
     1
102
RTVSPropertyOp35
 70
     1
102
RTVSPropertyOp36
 70
     1
102
RTVSPropertyOp37
 70
     1
102
RTVSPropertyOp38
 70
     1
102
RTVSPropertyOp39
 70
     1
102
RTVSPropertyOp40
 70
     1
102
RTVSPropertyOp41
 70
     1
102
RTVSPropertyOp42
 70
     1
102
RTVSPropertyOp43
 70
     1
102
RTVSPropertyOp44
 70
     1
102
RTVSPropertyOp45
 70
     1
102
RTVSPropertyOp46
 70
     1
102
RTVSPropertyOp47
 70
     1
102
RTVSPropertyOp48
 70
     1
102
RTVSPropertyOp49
 70
     1
102
RTVSPropertyOp50
 70
     1
102
RTVSPropertyOp51
 70
     0
102
RTVSPropertyOp52
 70
     0
102
RTVSPropertyOp53
 70
     1
102
RTVSPropertyOp54
 70
     1
102
RTVSPropertyOp55
 70
     1
102
RTVSPropertyOp56
 70
     1
102
RTVSPropertyOp57
 70
     1
102
RTVSPropertyOp58
 70
     1
102
RTVSPropertyOp59
 70
     1
102
RTVSPropertyOp60
 70
     1
102
RTVSPropertyOp61
 70
     1
102
RTVSPropertyOp62
 70
     1
  0
XRECORD
  5
20E1D
102
{ACAD_REACTORS
330
20E1C
102
}
330
20E1C
100
AcDbXrecord
280
     1
102
RTVSPost2010Prop28
280
     0
102
RTVSPost2010PropOp28
 70
     1
102
RTVSPost2010Prop29
280
     1
102
RTVSPost2010PropOp29
 70
     1
102
RTVSPost2010Prop30
280
     1
102
RTVSPost2010PropOp30
 70
     1
102
RTVSPost2010Prop31
280
     0
102
RTVSPost2010PropOp31
 70
     1
102
RTVSPost2010Prop32
280
     0
102
RTVSPost2010PropOp32
 70
     1
102
RTVSPost2010Prop33
280
     0
102
RTVSPost2010PropOp33
 70
     1
102
RTVSPost2010Prop34
280
     0
102
RTVSPost2010PropOp34
 70
     1
102
RTVSPost2010Prop35
280
     0
102
RTVSPost2010PropOp35
 70
     1
102
RTVSPost2010Prop36
280
     0
102
RTVSPost2010PropOp36
 70
     1
102
RTVSPost2010Prop37
 90
       50
102
RTVSPost2010PropOp37
 70
     1
102
RTVSPost2010Prop38
140
0.0
102
RTVSPost2010PropOp38
 70
     1
102
RTVSPost2010Prop39
140
1.0
102
RTVSPost2010PropOp39
 70
     1
102
RTVSPost2010Prop40
 90
        0
102
RTVSPost2010PropOp40
 70
     1
102
RTVSPost2010Prop41ColorIndex
 90
       18
102
RTVSPost2010Prop41ColorRGB
 90
        0
102
RTVSPost2010PropOp41
 70
     1
102
RTVSPost2010Prop42
 90
       50
102
RTVSPost2010PropOp42
 70
     1
102
RTVSPost2010Prop43
 90
        3
102
RTVSPost2010PropOp43
 70
     1
102
RTVSPost2010Prop44ColorIndex
 90
        5
102
RTVSPost2010Prop44ColorRGB
 90
      255
102
RTVSPost2010PropOp44
 70
     1
102
RTVSPost2010Prop45
280
     0
102
RTVSPost2010PropOp45
 70
     1
102
RTVSPost2010Prop46
 90
       50
102
RTVSPost2010PropOp46
 70
     1
102
RTVSPost2010Prop47
 90
       50
102
RTVSPost2010PropOp47
 70
     1
102
RTVSPost2010Prop48
 90
       50
102
RTVSPost2010PropOp48
 70
     1
102
RTVSPost2010Prop49
280
     0
102
RTVSPost2010PropOp49
 70
     1
102
RTVSPost2010Prop50
 90
       50
102
RTVSPost2010PropOp50
 70
     1
102
RTVSPost2010Prop51ColorIndex
 90
      256
102
RTVSPost2010Prop51ColorRGB
 90
-16777216
102
RTVSPost2010PropOp51
 70
     0
102
RTVSPost2010Prop52
140
1.0
102
RTVSPost2010PropOp52
 70
     0
102
RTVSPost2010Prop53
 90
        2
102
RTVSPost2010PropOp53
 70
     1
102
RTVSPost2010Prop54
  1
strokes_ogs.tif
102
RTVSPost2010PropOp54
 70
     1
102
RTVSPost2010Prop55
280
     0
102
RTVSPost2010PropOp55
 70
     1
102
RTVSPost2010Prop56
140
1.0
102
RTVSPost2010PropOp56
 70
     1
102
RTVSPost2010Prop57
140
1.0
102
RTVSPost2010PropOp57
 70
     1
102
RTVSPropertyOp0
 70
     1
102
RTVSPropertyOp1
 70
     1
102
RTVSPropertyOp2
 70
     1
102
RTVSPropertyOp3
 70
     1
102
RTVSPropertyOp4
 70
     1
102
RTVSPropertyOp5
 70
     1
102
RTVSPropertyOp6
 70
     1
102
RTVSPropertyOp7
 70
     1
102
RTVSPropertyOp8
 70
     1
102
RTVSPropertyOp9
 70
     1
102
RTVSPropertyOp10
 70
     1
102
RTVSPropertyOp11
 70
     1
102
RTVSPropertyOp12
 70
     1
102
RTVSPropertyOp13
 70
     1
102
RTVSPropertyOp14
 70
     1
102
RTVSPropertyOp15
 70
     1
102
RTVSPropertyOp16
 70
     1
102
RTVSPropertyOp17
 70
     1
102
RTVSPropertyOp18
 70
     1
102
RTVSPropertyOp19
 70
     1
102
RTVSPropertyOp20
 70
     1
102
RTVSPropertyOp21
 70
     1
102
RTVSPropertyOp22
 70
     1
102
RTVSPropertyOp23
 70
     1
102
RTVSPropertyOp24
 70
     1
102
RTVSPropertyOp25
 70
     1
102
RTVSPropertyOp26
 70
     1
102
RTVSPropertyOp27
 70
     1
102
RTVSPropertyOp28
 70
     1
102
RTVSPropertyOp29
 70
     1
102
RTVSPropertyOp30
 70
     1
102
RTVSPropertyOp31
 70
     1
102
RTVSPropertyOp32
 70
     1
102
RTVSPropertyOp33
 70
     1
102
RTVSPropertyOp34
 70
     1
102
RTVSPropertyOp35
 70
     1
102
RTVSPropertyOp36
 70
     1
102
RTVSPropertyOp37
 70
     1
102
RTVSPropertyOp38
 70
     1
102
RTVSPropertyOp39
 70
     1
102
RTVSPropertyOp40
 70
     1
102
RTVSPropertyOp41
 70
     1
102
RTVSPropertyOp42
 70
     1
102
RTVSPropertyOp43
 70
     1
102
RTVSPropertyOp44
 70
     1
102
RTVSPropertyOp45
 70
     1
102
RTVSPropertyOp46
 70
     1
102
RTVSPropertyOp47
 70
     1
102
RTVSPropertyOp48
 70
     1
102
RTVSPropertyOp49
 70
     1
102
RTVSPropertyOp50
 70
     1
102
RTVSPropertyOp51
 70
     0
102
RTVSPropertyOp52
 70
     0
102
RTVSPropertyOp53
 70
     1
102
RTVSPropertyOp54
 70
     1
102
RTVSPropertyOp55
 70
     1
102
RTVSPropertyOp56
 70
     1
102
RTVSPropertyOp57
 70
     1
102
RTVSPropertyOp58
 70
     1
102
RTVSPropertyOp59
 70
     1
102
RTVSPropertyOp60
 70
     1
102
RTVSPropertyOp61
 70
     1
102
RTVSPropertyOp62
 70
     1
  0
XRECORD
  5
20E1F
102
{ACAD_REACTORS
330
20E1E
102
}
330
20E1E
100
AcDbXrecord
280
     1
102
RTVSPost2010Prop28
280
     0
102
RTVSPost2010PropOp28
 70
     1
102
RTVSPost2010Prop29
280
     1
102
RTVSPost2010PropOp29
 70
     1
102
RTVSPost2010Prop30
280
     1
102
RTVSPost2010PropOp30
 70
     1
102
RTVSPost2010Prop31
280
     0
102
RTVSPost2010PropOp31
 70
     1
102
RTVSPost2010Prop32
280
     0
102
RTVSPost2010PropOp32
 70
     1
102
RTVSPost2010Prop33
280
     0
102
RTVSPost2010PropOp33
 70
     1
102
RTVSPost2010Prop34
280
     0
102
RTVSPost2010PropOp34
 70
     1
102
RTVSPost2010Prop35
280
     0
102
RTVSPost2010PropOp35
 70
     1
102
RTVSPost2010Prop36
280
     0
102
RTVSPost2010PropOp36
 70
     1
102
RTVSPost2010Prop37
 90
       50
102
RTVSPost2010PropOp37
 70
     1
102
RTVSPost2010Prop38
140
0.0
102
RTVSPost2010PropOp38
 70
     1
102
RTVSPost2010Prop39
140
1.0
102
RTVSPost2010PropOp39
 70
     1
102
RTVSPost2010Prop40
 90
        0
102
RTVSPost2010PropOp40
 70
     1
102
RTVSPost2010Prop41ColorIndex
 90
       18
102
RTVSPost2010Prop41ColorRGB
 90
        0
102
RTVSPost2010PropOp41
 70
     1
102
RTVSPost2010Prop42
 90
       50
102
RTVSPost2010PropOp42
 70
     1
102
RTVSPost2010Prop43
 90
        3
102
RTVSPost2010PropOp43
 70
     1
102
RTVSPost2010Prop44ColorIndex
 90
        5
102
RTVSPost2010Prop44ColorRGB
 90
      255
102
RTVSPost2010PropOp44
 70
     1
102
RTVSPost2010Prop45
280
     0
102
RTVSPost2010PropOp45
 70
     1
102
RTVSPost2010Prop46
 90
       50
102
RTVSPost2010PropOp46
 70
     1
102
RTVSPost2010Prop47
 90
       50
102
RTVSPost2010PropOp47
 70
     1
102
RTVSPost2010Prop48
 90
       50
102
RTVSPost2010PropOp48
 70
     1
102
RTVSPost2010Prop49
280
     0
102
RTVSPost2010PropOp49
 70
     1
102
RTVSPost2010Prop50
 90
       50
102
RTVSPost2010PropOp50
 70
     1
102
RTVSPost2010Prop51ColorIndex
 90
      256
102
RTVSPost2010Prop51ColorRGB
 90
-16777216
102
RTVSPost2010PropOp51
 70
     0
102
RTVSPost2010Prop52
140
1.0
102
RTVSPost2010PropOp52
 70
     0
102
RTVSPost2010Prop53
 90
        2
102
RTVSPost2010PropOp53
 70
     1
102
RTVSPost2010Prop54
  1
strokes_ogs.tif
102
RTVSPost2010PropOp54
 70
     1
102
RTVSPost2010Prop55
280
     0
102
RTVSPost2010PropOp55
 70
     1
102
RTVSPost2010Prop56
140
1.0
102
RTVSPost2010PropOp56
 70
     1
102
RTVSPost2010Prop57
140
1.0
102
RTVSPost2010PropOp57
 70
     1
102
RTVSPropertyOp0
 70
     1
102
RTVSPropertyOp1
 70
     1
102
RTVSPropertyOp2
 70
     1
102
RTVSPropertyOp3
 70
     1
102
RTVSPropertyOp4
 70
     1
102
RTVSPropertyOp5
 70
     1
102
RTVSPropertyOp6
 70
     1
102
RTVSPropertyOp7
 70
     1
102
RTVSPropertyOp8
 70
     1
102
RTVSPropertyOp9
 70
     1
102
RTVSPropertyOp10
 70
     1
102
RTVSPropertyOp11
 70
     1
102
RTVSPropertyOp12
 70
     1
102
RTVSPropertyOp13
 70
     1
102
RTVSPropertyOp14
 70
     1
102
RTVSPropertyOp15
 70
     1
102
RTVSPropertyOp16
 70
     1
102
RTVSPropertyOp17
 70
     1
102
RTVSPropertyOp18
 70
     1
102
RTVSPropertyOp19
 70
     1
102
RTVSPropertyOp20
 70
     1
102
RTVSPropertyOp21
 70
     1
102
RTVSPropertyOp22
 70
     1
102
RTVSPropertyOp23
 70
     1
102
RTVSPropertyOp24
 70
     1
102
RTVSPropertyOp25
 70
     1
102
RTVSPropertyOp26
 70
     1
102
RTVSPropertyOp27
 70
     1
102
RTVSPropertyOp28
 70
     1
102
RTVSPropertyOp29
 70
     1
102
RTVSPropertyOp30
 70
     1
102
RTVSPropertyOp31
 70
     1
102
RTVSPropertyOp32
 70
     1
102
RTVSPropertyOp33
 70
     1
102
RTVSPropertyOp34
 70
     1
102
RTVSPropertyOp35
 70
     1
102
RTVSPropertyOp36
 70
     1
102
RTVSPropertyOp37
 70
     1
102
RTVSPropertyOp38
 70
     1
102
RTVSPropertyOp39
 70
     1
102
RTVSPropertyOp40
 70
     1
102
RTVSPropertyOp41
 70
     1
102
RTVSPropertyOp42
 70
     1
102
RTVSPropertyOp43
 70
     1
102
RTVSPropertyOp44
 70
     1
102
RTVSPropertyOp45
 70
     1
102
RTVSPropertyOp46
 70
     1
102
RTVSPropertyOp47
 70
     1
102
RTVSPropertyOp48
 70
     1
102
RTVSPropertyOp49
 70
     1
102
RTVSPropertyOp50
 70
     1
102
RTVSPropertyOp51
 70
     0
102
RTVSPropertyOp52
 70
     0
102
RTVSPropertyOp53
 70
     1
102
RTVSPropertyOp54
 70
     1
102
RTVSPropertyOp55
 70
     1
102
RTVSPropertyOp56
 70
     1
102
RTVSPropertyOp57
 70
     1
102
RTVSPropertyOp58
 70
     1
102
RTVSPropertyOp59
 70
     1
102
RTVSPropertyOp60
 70
     1
102
RTVSPropertyOp61
 70
     1
102
RTVSPropertyOp62
 70
     1
  0
XRECORD
  5
20E44
102
{ACAD_REACTORS
330
20E43
102
}
330
20E43
100
AcDbXrecord
280
     1
102
RTVSPost2010Prop28
280
     0
102
RTVSPost2010PropOp28
 70
     1
102
RTVSPost2010Prop29
280
     1
102
RTVSPost2010PropOp29
 70
     1
102
RTVSPost2010Prop30
280
     1
102
RTVSPost2010PropOp30
 70
     1
102
RTVSPost2010Prop31
280
     0
102
RTVSPost2010PropOp31
 70
     1
102
RTVSPost2010Prop32
280
     0
102
RTVSPost2010PropOp32
 70
     1
102
RTVSPost2010Prop33
280
     0
102
RTVSPost2010PropOp33
 70
     1
102
RTVSPost2010Prop34
280
     0
102
RTVSPost2010PropOp34
 70
     1
102
RTVSPost2010Prop35
280
     0
102
RTVSPost2010PropOp35
 70
     1
102
RTVSPost2010Prop36
280
     0
102
RTVSPost2010PropOp36
 70
     1
102
RTVSPost2010Prop37
 90
       50
102
RTVSPost2010PropOp37
 70
     1
102
RTVSPost2010Prop38
140
0.0
102
RTVSPost2010PropOp38
 70
     1
102
RTVSPost2010Prop39
140
1.0
102
RTVSPost2010PropOp39
 70
     1
102
RTVSPost2010Prop40
 90
        0
102
RTVSPost2010PropOp40
 70
     1
102
RTVSPost2010Prop41ColorIndex
 90
       18
102
RTVSPost2010Prop41ColorRGB
 90
        0
102
RTVSPost2010PropOp41
 70
     1
102
RTVSPost2010Prop42
 90
       50
102
RTVSPost2010PropOp42
 70
     1
102
RTVSPost2010Prop43
 90
        3
102
RTVSPost2010PropOp43
 70
     1
102
RTVSPost2010Prop44ColorIndex
 90
        5
102
RTVSPost2010Prop44ColorRGB
 90
      255
102
RTVSPost2010PropOp44
 70
     1
102
RTVSPost2010Prop45
280
     0
102
RTVSPost2010PropOp45
 70
     1
102
RTVSPost2010Prop46
 90
       50
102
RTVSPost2010PropOp46
 70
     1
102
RTVSPost2010Prop47
 90
       50
102
RTVSPost2010PropOp47
 70
     1
102
RTVSPost2010Prop48
 90
       50
102
RTVSPost2010PropOp48
 70
     1
102
RTVSPost2010Prop49
280
     0
102
RTVSPost2010PropOp49
 70
     1
102
RTVSPost2010Prop50
 90
       50
102
RTVSPost2010PropOp50
 70
     1
102
RTVSPost2010Prop51ColorIndex
 90
      256
102
RTVSPost2010Prop51ColorRGB
 90
-16777216
102
RTVSPost2010PropOp51
 70
     0
102
RTVSPost2010Prop52
140
1.0
102
RTVSPost2010PropOp52
 70
     0
102
RTVSPost2010Prop53
 90
        2
102
RTVSPost2010PropOp53
 70
     1
102
RTVSPost2010Prop54
  1
strokes_ogs.tif
102
RTVSPost2010PropOp54
 70
     1
102
RTVSPost2010Prop55
280
     0
102
RTVSPost2010PropOp55
 70
     1
102
RTVSPost2010Prop56
140
1.0
102
RTVSPost2010PropOp56
 70
     1
102
RTVSPost2010Prop57
140
1.0
102
RTVSPost2010PropOp57
 70
     1
102
RTVSPropertyOp0
 70
     1
102
RTVSPropertyOp1
 70
     1
102
RTVSPropertyOp2
 70
     1
102
RTVSPropertyOp3
 70
     1
102
RTVSPropertyOp4
 70
     1
102
RTVSPropertyOp5
 70
     1
102
RTVSPropertyOp6
 70
     1
102
RTVSPropertyOp7
 70
     1
102
RTVSPropertyOp8
 70
     1
102
RTVSPropertyOp9
 70
     1
102
RTVSPropertyOp10
 70
     1
102
RTVSPropertyOp11
 70
     1
102
RTVSPropertyOp12
 70
     1
102
RTVSPropertyOp13
 70
     1
102
RTVSPropertyOp14
 70
     1
102
RTVSPropertyOp15
 70
     1
102
RTVSPropertyOp16
 70
     1
102
RTVSPropertyOp17
 70
     1
102
RTVSPropertyOp18
 70
     1
102
RTVSPropertyOp19
 70
     1
102
RTVSPropertyOp20
 70
     1
102
RTVSPropertyOp21
 70
     1
102
RTVSPropertyOp22
 70
     1
102
RTVSPropertyOp23
 70
     1
102
RTVSPropertyOp24
 70
     1
102
RTVSPropertyOp25
 70
     1
102
RTVSPropertyOp26
 70
     1
102
RTVSPropertyOp27
 70
     1
102
RTVSPropertyOp28
 70
     1
102
RTVSPropertyOp29
 70
     1
102
RTVSPropertyOp30
 70
     1
102
RTVSPropertyOp31
 70
     1
102
RTVSPropertyOp32
 70
     1
102
RTVSPropertyOp33
 70
     1
102
RTVSPropertyOp34
 70
     1
102
RTVSPropertyOp35
 70
     1
102
RTVSPropertyOp36
 70
     1
102
RTVSPropertyOp37
 70
     1
102
RTVSPropertyOp38
 70
     1
102
RTVSPropertyOp39
 70
     1
102
RTVSPropertyOp40
 70
     1
102
RTVSPropertyOp41
 70
     1
102
RTVSPropertyOp42
 70
     1
102
RTVSPropertyOp43
 70
     1
102
RTVSPropertyOp44
 70
     1
102
RTVSPropertyOp45
 70
     1
102
RTVSPropertyOp46
 70
     1
102
RTVSPropertyOp47
 70
     1
102
RTVSPropertyOp48
 70
     1
102
RTVSPropertyOp49
 70
     1
102
RTVSPropertyOp50
 70
     1
102
RTVSPropertyOp51
 70
     0
102
RTVSPropertyOp52
 70
     0
102
RTVSPropertyOp53
 70
     1
102
RTVSPropertyOp54
 70
     1
102
RTVSPropertyOp55
 70
     1
102
RTVSPropertyOp56
 70
     1
102
RTVSPropertyOp57
 70
     1
102
RTVSPropertyOp58
 70
     1
102
RTVSPropertyOp59
 70
     1
102
RTVSPropertyOp60
 70
     1
102
RTVSPropertyOp61
 70
     1
102
RTVSPropertyOp62
 70
     1
  0
XRECORD
  5
20E50
102
{ACAD_REACTORS
330
20E4F
102
}
330
20E4F
100
AcDbXrecord
280
     1
102
RTVSPost2010Prop28
280
     0
102
RTVSPost2010PropOp28
 70
     1
102
RTVSPost2010Prop29
280
     1
102
RTVSPost2010PropOp29
 70
     1
102
RTVSPost2010Prop30
280
     1
102
RTVSPost2010PropOp30
 70
     1
102
RTVSPost2010Prop31
280
     0
102
RTVSPost2010PropOp31
 70
     1
102
RTVSPost2010Prop32
280
     0
102
RTVSPost2010PropOp32
 70
     1
102
RTVSPost2010Prop33
280
     0
102
RTVSPost2010PropOp33
 70
     1
102
RTVSPost2010Prop34
280
     0
102
RTVSPost2010PropOp34
 70
     1
102
RTVSPost2010Prop35
280
     0
102
RTVSPost2010PropOp35
 70
     1
102
RTVSPost2010Prop36
280
     0
102
RTVSPost2010PropOp36
 70
     1
102
RTVSPost2010Prop37
 90
       50
102
RTVSPost2010PropOp37
 70
     0
102
RTVSPost2010Prop38
140
0.0
102
RTVSPost2010PropOp38
 70
     0
102
RTVSPost2010Prop39
140
1.0
102
RTVSPost2010PropOp39
 70
     0
102
RTVSPost2010Prop40
 90
        0
102
RTVSPost2010PropOp40
 70
     0
102
RTVSPost2010Prop41ColorIndex
 90
       18
102
RTVSPost2010Prop41ColorRGB
 90
        0
102
RTVSPost2010PropOp41
 70
     0
102
RTVSPost2010Prop42
 90
       50
102
RTVSPost2010PropOp42
 70
     0
102
RTVSPost2010Prop43
 90
        3
102
RTVSPost2010PropOp43
 70
     0
102
RTVSPost2010Prop44ColorIndex
 90
        5
102
RTVSPost2010Prop44ColorRGB
 90
      255
102
RTVSPost2010PropOp44
 70
     0
102
RTVSPost2010Prop45
280
     0
102
RTVSPost2010PropOp45
 70
     1
102
RTVSPost2010Prop46
 90
       50
102
RTVSPost2010PropOp46
 70
     0
102
RTVSPost2010Prop47
 90
       50
102
RTVSPost2010PropOp47
 70
     0
102
RTVSPost2010Prop48
 90
       50
102
RTVSPost2010PropOp48
 70
     0
102
RTVSPost2010Prop49
280
     0
102
RTVSPost2010PropOp49
 70
     1
102
RTVSPost2010Prop50
 90
       50
102
RTVSPost2010PropOp50
 70
     0
102
RTVSPost2010Prop51ColorIndex
 90
      256
102
RTVSPost2010Prop51ColorRGB
 90
-16777216
102
RTVSPost2010PropOp51
 70
     0
102
RTVSPost2010Prop52
140
1.0
102
RTVSPost2010PropOp52
 70
     0
102
RTVSPost2010Prop53
 90
        2
102
RTVSPost2010PropOp53
 70
     0
102
RTVSPost2010Prop54
  1
strokes_ogs.tif
102
RTVSPost2010PropOp54
 70
     0
102
RTVSPost2010Prop55
280
     0
102
RTVSPost2010PropOp55
 70
     1
102
RTVSPost2010Prop56
140
1.0
102
RTVSPost2010PropOp56
 70
     0
102
RTVSPost2010Prop57
140
1.0
102
RTVSPost2010PropOp57
 70
     0
102
RTVSPropertyOp0
 70
     0
102
RTVSPropertyOp1
 70
     0
102
RTVSPropertyOp2
 70
     0
102
RTVSPropertyOp3
 70
     0
102
RTVSPropertyOp4
 70
     0
102
RTVSPropertyOp5
 70
     0
102
RTVSPropertyOp6
 70
     0
102
RTVSPropertyOp7
 70
     0
102
RTVSPropertyOp8
 70
     0
102
RTVSPropertyOp9
 70
     0
102
RTVSPropertyOp10
 70
     0
102
RTVSPropertyOp11
 70
     0
102
RTVSPropertyOp12
 70
     0
102
RTVSPropertyOp13
 70
     0
102
RTVSPropertyOp14
 70
     2
102
RTVSPropertyOp15
 70
     0
102
RTVSPropertyOp16
 70
     0
102
RTVSPropertyOp17
 70
     0
102
RTVSPropertyOp18
 70
     0
102
RTVSPropertyOp19
 70
     0
102
RTVSPropertyOp20
 70
     0
102
RTVSPropertyOp21
 70
     0
102
RTVSPropertyOp22
 70
     0
102
RTVSPropertyOp23
 70
     0
102
RTVSPropertyOp24
 70
     0
102
RTVSPropertyOp25
 70
     0
102
RTVSPropertyOp26
 70
     0
102
RTVSPropertyOp27
 70
     0
102
RTVSPropertyOp28
 70
     1
102
RTVSPropertyOp29
 70
     1
102
RTVSPropertyOp30
 70
     1
102
RTVSPropertyOp31
 70
     1
102
RTVSPropertyOp32
 70
     1
102
RTVSPropertyOp33
 70
     1
102
RTVSPropertyOp34
 70
     1
102
RTVSPropertyOp35
 70
     1
102
RTVSPropertyOp36
 70
     1
102
RTVSPropertyOp37
 70
     0
102
RTVSPropertyOp38
 70
     0
102
RTVSPropertyOp39
 70
     0
102
RTVSPropertyOp40
 70
     0
102
RTVSPropertyOp41
 70
     0
102
RTVSPropertyOp42
 70
     0
102
RTVSPropertyOp43
 70
     0
102
RTVSPropertyOp44
 70
     0
102
RTVSPropertyOp45
 70
     1
102
RTVSPropertyOp46
 70
     0
102
RTVSPropertyOp47
 70
     0
102
RTVSPropertyOp48
 70
     0
102
RTVSPropertyOp49
 70
     1
102
RTVSPropertyOp50
 70
     0
102
RTVSPropertyOp51
 70
     0
102
RTVSPropertyOp52
 70
     0
102
RTVSPropertyOp53
 70
     0
102
RTVSPropertyOp54
 70
     0
102
RTVSPropertyOp55
 70
     1
102
RTVSPropertyOp56
 70
     0
102
RTVSPropertyOp57
 70
     0
102
RTVSPropertyOp58
 70
     1
102
RTVSPropertyOp59
 70
     1
102
RTVSPropertyOp60
 70
     1
102
RTVSPropertyOp61
 70
     1
102
RTVSPropertyOp62
 70
     1
  0
XRECORD
  5
20E33
102
{ACAD_REACTORS
330
20E32
102
}
330
20E32
100
AcDbXrecord
280
     1
102
RTVSPost2010Prop28
280
     0
102
RTVSPost2010PropOp28
 70
     1
102
RTVSPost2010Prop29
280
     1
102
RTVSPost2010PropOp29
 70
     1
102
RTVSPost2010Prop30
280
     1
102
RTVSPost2010PropOp30
 70
     1
102
RTVSPost2010Prop31
280
     0
102
RTVSPost2010PropOp31
 70
     1
102
RTVSPost2010Prop32
280
     0
102
RTVSPost2010PropOp32
 70
     1
102
RTVSPost2010Prop33
280
     0
102
RTVSPost2010PropOp33
 70
     1
102
RTVSPost2010Prop34
280
     0
102
RTVSPost2010PropOp34
 70
     1
102
RTVSPost2010Prop35
280
     0
102
RTVSPost2010PropOp35
 70
     1
102
RTVSPost2010Prop36
280
     0
102
RTVSPost2010PropOp36
 70
     1
102
RTVSPost2010Prop37
 90
       50
102
RTVSPost2010PropOp37
 70
     1
102
RTVSPost2010Prop38
140
0.0
102
RTVSPost2010PropOp38
 70
     1
102
RTVSPost2010Prop39
140
1.0
102
RTVSPost2010PropOp39
 70
     1
102
RTVSPost2010Prop40
 90
        0
102
RTVSPost2010PropOp40
 70
     1
102
RTVSPost2010Prop41ColorIndex
 90
       18
102
RTVSPost2010Prop41ColorRGB
 90
        0
102
RTVSPost2010PropOp41
 70
     1
102
RTVSPost2010Prop42
 90
       50
102
RTVSPost2010PropOp42
 70
     1
102
RTVSPost2010Prop43
 90
        3
102
RTVSPost2010PropOp43
 70
     1
102
RTVSPost2010Prop44ColorIndex
 90
        5
102
RTVSPost2010Prop44ColorRGB
 90
      255
102
RTVSPost2010PropOp44
 70
     1
102
RTVSPost2010Prop45
280
     0
102
RTVSPost2010PropOp45
 70
     1
102
RTVSPost2010Prop46
 90
       50
102
RTVSPost2010PropOp46
 70
     1
102
RTVSPost2010Prop47
 90
       50
102
RTVSPost2010PropOp47
 70
     1
102
RTVSPost2010Prop48
 90
       50
102
RTVSPost2010PropOp48
 70
     1
102
RTVSPost2010Prop49
280
     0
102
RTVSPost2010PropOp49
 70
     1
102
RTVSPost2010Prop50
 90
       50
102
RTVSPost2010PropOp50
 70
     1
102
RTVSPost2010Prop51ColorIndex
 90
      256
102
RTVSPost2010Prop51ColorRGB
 90
-16777216
102
RTVSPost2010PropOp51
 70
     0
102
RTVSPost2010Prop52
140
1.0
102
RTVSPost2010PropOp52
 70
     0
102
RTVSPost2010Prop53
 90
        2
102
RTVSPost2010PropOp53
 70
     1
102
RTVSPost2010Prop54
  1
strokes_ogs.tif
102
RTVSPost2010PropOp54
 70
     1
102
RTVSPost2010Prop55
280
     0
102
RTVSPost2010PropOp55
 70
     1
102
RTVSPost2010Prop56
140
1.0
102
RTVSPost2010PropOp56
 70
     1
102
RTVSPost2010Prop57
140
1.0
102
RTVSPost2010PropOp57
 70
     1
102
RTVSPropertyOp0
 70
     1
102
RTVSPropertyOp1
 70
     1
102
RTVSPropertyOp2
 70
     1
102
RTVSPropertyOp3
 70
     1
102
RTVSPropertyOp4
 70
     1
102
RTVSPropertyOp5
 70
     1
102
RTVSPropertyOp6
 70
     1
102
RTVSPropertyOp7
 70
     1
102
RTVSPropertyOp8
 70
     1
102
RTVSPropertyOp9
 70
     1
102
RTVSPropertyOp10
 70
     1
102
RTVSPropertyOp11
 70
     1
102
RTVSPropertyOp12
 70
     1
102
RTVSPropertyOp13
 70
     1
102
RTVSPropertyOp14
 70
     1
102
RTVSPropertyOp15
 70
     1
102
RTVSPropertyOp16
 70
     1
102
RTVSPropertyOp17
 70
     1
102
RTVSPropertyOp18
 70
     1
102
RTVSPropertyOp19
 70
     1
102
RTVSPropertyOp20
 70
     1
102
RTVSPropertyOp21
 70
     1
102
RTVSPropertyOp22
 70
     1
102
RTVSPropertyOp23
 70
     1
102
RTVSPropertyOp24
 70
     1
102
RTVSPropertyOp25
 70
     1
102
RTVSPropertyOp26
 70
     1
102
RTVSPropertyOp27
 70
     1
102
RTVSPropertyOp28
 70
     1
102
RTVSPropertyOp29
 70
     1
102
RTVSPropertyOp30
 70
     1
102
RTVSPropertyOp31
 70
     1
102
RTVSPropertyOp32
 70
     1
102
RTVSPropertyOp33
 70
     1
102
RTVSPropertyOp34
 70
     1
102
RTVSPropertyOp35
 70
     1
102
RTVSPropertyOp36
 70
     1
102
RTVSPropertyOp37
 70
     1
102
RTVSPropertyOp38
 70
     1
102
RTVSPropertyOp39
 70
     1
102
RTVSPropertyOp40
 70
     1
102
RTVSPropertyOp41
 70
     1
102
RTVSPropertyOp42
 70
     1
102
RTVSPropertyOp43
 70
     1
102
RTVSPropertyOp44
 70
     1
102
RTVSPropertyOp45
 70
     1
102
RTVSPropertyOp46
 70
     1
102
RTVSPropertyOp47
 70
     1
102
RTVSPropertyOp48
 70
     1
102
RTVSPropertyOp49
 70
     1
102
RTVSPropertyOp50
 70
     1
102
RTVSPropertyOp51
 70
     0
102
RTVSPropertyOp52
 70
     0
102
RTVSPropertyOp53
 70
     1
102
RTVSPropertyOp54
 70
     1
102
RTVSPropertyOp55
 70
     1
102
RTVSPropertyOp56
 70
     1
102
RTVSPropertyOp57
 70
     1
102
RTVSPropertyOp58
 70
     1
102
RTVSPropertyOp59
 70
     1
102
RTVSPropertyOp60
 70
     1
102
RTVSPropertyOp61
 70
     1
102
RTVSPropertyOp62
 70
     1
  0
XRECORD
  5
20E52
102
{ACAD_REACTORS
330
20E51
102
}
330
20E51
100
AcDbXrecord
280
     1
102
RTVSPost2010Prop28
280
     0
102
RTVSPost2010PropOp28
 70
     1
102
RTVSPost2010Prop29
280
     1
102
RTVSPost2010PropOp29
 70
     1
102
RTVSPost2010Prop30
280
     1
102
RTVSPost2010PropOp30
 70
     1
102
RTVSPost2010Prop31
280
     0
102
RTVSPost2010PropOp31
 70
     1
102
RTVSPost2010Prop32
280
     0
102
RTVSPost2010PropOp32
 70
     1
102
RTVSPost2010Prop33
280
     0
102
RTVSPost2010PropOp33
 70
     1
102
RTVSPost2010Prop34
280
     0
102
RTVSPost2010PropOp34
 70
     1
102
RTVSPost2010Prop35
280
     0
102
RTVSPost2010PropOp35
 70
     1
102
RTVSPost2010Prop36
280
     0
102
RTVSPost2010PropOp36
 70
     1
102
RTVSPost2010Prop37
 90
       50
102
RTVSPost2010PropOp37
 70
     0
102
RTVSPost2010Prop38
140
0.0
102
RTVSPost2010PropOp38
 70
     0
102
RTVSPost2010Prop39
140
1.0
102
RTVSPost2010PropOp39
 70
     0
102
RTVSPost2010Prop40
 90
        0
102
RTVSPost2010PropOp40
 70
     0
102
RTVSPost2010Prop41ColorIndex
 90
       18
102
RTVSPost2010Prop41ColorRGB
 90
        0
102
RTVSPost2010PropOp41
 70
     0
102
RTVSPost2010Prop42
 90
       50
102
RTVSPost2010PropOp42
 70
     0
102
RTVSPost2010Prop43
 90
        3
102
RTVSPost2010PropOp43
 70
     0
102
RTVSPost2010Prop44ColorIndex
 90
        5
102
RTVSPost2010Prop44ColorRGB
 90
      255
102
RTVSPost2010PropOp44
 70
     0
102
RTVSPost2010Prop45
280
     0
102
RTVSPost2010PropOp45
 70
     1
102
RTVSPost2010Prop46
 90
       50
102
RTVSPost2010PropOp46
 70
     0
102
RTVSPost2010Prop47
 90
       50
102
RTVSPost2010PropOp47
 70
     0
102
RTVSPost2010Prop48
 90
       50
102
RTVSPost2010PropOp48
 70
     0
102
RTVSPost2010Prop49
280
     0
102
RTVSPost2010PropOp49
 70
     1
102
RTVSPost2010Prop50
 90
       50
102
RTVSPost2010PropOp50
 70
     0
102
RTVSPost2010Prop51ColorIndex
 90
      256
102
RTVSPost2010Prop51ColorRGB
 90
-16777216
102
RTVSPost2010PropOp51
 70
     0
102
RTVSPost2010Prop52
140
1.0
102
RTVSPost2010PropOp52
 70
     0
102
RTVSPost2010Prop53
 90
        2
102
RTVSPost2010PropOp53
 70
     0
102
RTVSPost2010Prop54
  1
strokes_ogs.tif
102
RTVSPost2010PropOp54
 70
     0
102
RTVSPost2010Prop55
280
     0
102
RTVSPost2010PropOp55
 70
     1
102
RTVSPost2010Prop56
140
1.0
102
RTVSPost2010PropOp56
 70
     0
102
RTVSPost2010Prop57
140
1.0
102
RTVSPost2010PropOp57
 70
     0
102
RTVSPropertyOp0
 70
     0
102
RTVSPropertyOp1
 70
     0
102
RTVSPropertyOp2
 70
     0
102
RTVSPropertyOp3
 70
     0
102
RTVSPropertyOp4
 70
     0
102
RTVSPropertyOp5
 70
     0
102
RTVSPropertyOp6
 70
     0
102
RTVSPropertyOp7
 70
     0
102
RTVSPropertyOp8
 70
     0
102
RTVSPropertyOp9
 70
     0
102
RTVSPropertyOp10
 70
     0
102
RTVSPropertyOp11
 70
     0
102
RTVSPropertyOp12
 70
     0
102
RTVSPropertyOp13
 70
     0
102
RTVSPropertyOp14
 70
     2
102
RTVSPropertyOp15
 70
     0
102
RTVSPropertyOp16
 70
     0
102
RTVSPropertyOp17
 70
     0
102
RTVSPropertyOp18
 70
     0
102
RTVSPropertyOp19
 70
     0
102
RTVSPropertyOp20
 70
     0
102
RTVSPropertyOp21
 70
     0
102
RTVSPropertyOp22
 70
     0
102
RTVSPropertyOp23
 70
     0
102
RTVSPropertyOp24
 70
     0
102
RTVSPropertyOp25
 70
     0
102
RTVSPropertyOp26
 70
     0
102
RTVSPropertyOp27
 70
     0
102
RTVSPropertyOp28
 70
     1
102
RTVSPropertyOp29
 70
     1
102
RTVSPropertyOp30
 70
     1
102
RTVSPropertyOp31
 70
     1
102
RTVSPropertyOp32
 70
     1
102
RTVSPropertyOp33
 70
     1
102
RTVSPropertyOp34
 70
     1
102
RTVSPropertyOp35
 70
     1
102
RTVSPropertyOp36
 70
     1
102
RTVSPropertyOp37
 70
     0
102
RTVSPropertyOp38
 70
     0
102
RTVSPropertyOp39
 70
     0
102
RTVSPropertyOp40
 70
     0
102
RTVSPropertyOp41
 70
     0
102
RTVSPropertyOp42
 70
     0
102
RTVSPropertyOp43
 70
     0
102
RTVSPropertyOp44
 70
     0
102
RTVSPropertyOp45
 70
     1
102
RTVSPropertyOp46
 70
     0
102
RTVSPropertyOp47
 70
     0
102
RTVSPropertyOp48
 70
     0
102
RTVSPropertyOp49
 70
     1
102
RTVSPropertyOp50
 70
     0
102
RTVSPropertyOp51
 70
     0
102
RTVSPropertyOp52
 70
     0
102
RTVSPropertyOp53
 70
     0
102
RTVSPropertyOp54
 70
     0
102
RTVSPropertyOp55
 70
     1
102
RTVSPropertyOp56
 70
     0
102
RTVSPropertyOp57
 70
     0
102
RTVSPropertyOp58
 70
     1
102
RTVSPropertyOp59
 70
     1
102
RTVSPropertyOp60
 70
     1
102
RTVSPropertyOp61
 70
     1
102
RTVSPropertyOp62
 70
     1
  0
XRECORD
  5
20E2B
102
{ACAD_REACTORS
330
20E2A
102
}
330
20E2A
100
AcDbXrecord
280
     1
102
RTVSPost2010Prop28
280
     0
102
RTVSPost2010PropOp28
 70
     1
102
RTVSPost2010Prop29
280
     1
102
RTVSPost2010PropOp29
 70
     1
102
RTVSPost2010Prop30
280
     1
102
RTVSPost2010PropOp30
 70
     1
102
RTVSPost2010Prop31
280
     0
102
RTVSPost2010PropOp31
 70
     1
102
RTVSPost2010Prop32
280
     0
102
RTVSPost2010PropOp32
 70
     1
102
RTVSPost2010Prop33
280
     0
102
RTVSPost2010PropOp33
 70
     1
102
RTVSPost2010Prop34
280
     0
102
RTVSPost2010PropOp34
 70
     1
102
RTVSPost2010Prop35
280
     0
102
RTVSPost2010PropOp35
 70
     1
102
RTVSPost2010Prop36
280
     0
102
RTVSPost2010PropOp36
 70
     1
102
RTVSPost2010Prop37
 90
       50
102
RTVSPost2010PropOp37
 70
     1
102
RTVSPost2010Prop38
140
0.0
102
RTVSPost2010PropOp38
 70
     1
102
RTVSPost2010Prop39
140
1.0
102
RTVSPost2010PropOp39
 70
     1
102
RTVSPost2010Prop40
 90
        0
102
RTVSPost2010PropOp40
 70
     1
102
RTVSPost2010Prop41ColorIndex
 90
       18
102
RTVSPost2010Prop41ColorRGB
 90
        0
102
RTVSPost2010PropOp41
 70
     1
102
RTVSPost2010Prop42
 90
       50
102
RTVSPost2010PropOp42
 70
     1
102
RTVSPost2010Prop43
 90
        3
102
RTVSPost2010PropOp43
 70
     1
102
RTVSPost2010Prop44ColorIndex
 90
        5
102
RTVSPost2010Prop44ColorRGB
 90
      255
102
RTVSPost2010PropOp44
 70
     1
102
RTVSPost2010Prop45
280
     0
102
RTVSPost2010PropOp45
 70
     1
102
RTVSPost2010Prop46
 90
       50
102
RTVSPost2010PropOp46
 70
     1
102
RTVSPost2010Prop47
 90
       50
102
RTVSPost2010PropOp47
 70
     1
102
RTVSPost2010Prop48
 90
       50
102
RTVSPost2010PropOp48
 70
     1
102
RTVSPost2010Prop49
280
     0
102
RTVSPost2010PropOp49
 70
     1
102
RTVSPost2010Prop50
 90
       50
102
RTVSPost2010PropOp50
 70
     1
102
RTVSPost2010Prop51ColorIndex
 90
      256
102
RTVSPost2010Prop51ColorRGB
 90
-16777216
102
RTVSPost2010PropOp51
 70
     0
102
RTVSPost2010Prop52
140
1.0
102
RTVSPost2010PropOp52
 70
     0
102
RTVSPost2010Prop53
 90
        2
102
RTVSPost2010PropOp53
 70
     1
102
RTVSPost2010Prop54
  1
strokes_ogs.tif
102
RTVSPost2010PropOp54
 70
     1
102
RTVSPost2010Prop55
280
     0
102
RTVSPost2010PropOp55
 70
     1
102
RTVSPost2010Prop56
140
1.0
102
RTVSPost2010PropOp56
 70
     1
102
RTVSPost2010Prop57
140
1.0
102
RTVSPost2010PropOp57
 70
     1
102
RTVSPropertyOp0
 70
     1
102
RTVSPropertyOp1
 70
     1
102
RTVSPropertyOp2
 70
     1
102
RTVSPropertyOp3
 70
     1
102
RTVSPropertyOp4
 70
     1
102
RTVSPropertyOp5
 70
     1
102
RTVSPropertyOp6
 70
     1
102
RTVSPropertyOp7
 70
     1
102
RTVSPropertyOp8
 70
     1
102
RTVSPropertyOp9
 70
     1
102
RTVSPropertyOp10
 70
     1
102
RTVSPropertyOp11
 70
     1
102
RTVSPropertyOp12
 70
     1
102
RTVSPropertyOp13
 70
     1
102
RTVSPropertyOp14
 70
     1
102
RTVSPropertyOp15
 70
     1
102
RTVSPropertyOp16
 70
     1
102
RTVSPropertyOp17
 70
     1
102
RTVSPropertyOp18
 70
     1
102
RTVSPropertyOp19
 70
     1
102
RTVSPropertyOp20
 70
     1
102
RTVSPropertyOp21
 70
     1
102
RTVSPropertyOp22
 70
     1
102
RTVSPropertyOp23
 70
     1
102
RTVSPropertyOp24
 70
     1
102
RTVSPropertyOp25
 70
     1
102
RTVSPropertyOp26
 70
     1
102
RTVSPropertyOp27
 70
     1
102
RTVSPropertyOp28
 70
     1
102
RTVSPropertyOp29
 70
     1
102
RTVSPropertyOp30
 70
     1
102
RTVSPropertyOp31
 70
     1
102
RTVSPropertyOp32
 70
     1
102
RTVSPropertyOp33
 70
     1
102
RTVSPropertyOp34
 70
     1
102
RTVSPropertyOp35
 70
     1
102
RTVSPropertyOp36
 70
     1
102
RTVSPropertyOp37
 70
     1
102
RTVSPropertyOp38
 70
     1
102
RTVSPropertyOp39
 70
     1
102
RTVSPropertyOp40
 70
     1
102
RTVSPropertyOp41
 70
     1
102
RTVSPropertyOp42
 70
     1
102
RTVSPropertyOp43
 70
     1
102
RTVSPropertyOp44
 70
     1
102
RTVSPropertyOp45
 70
     1
102
RTVSPropertyOp46
 70
     1
102
RTVSPropertyOp47
 70
     1
102
RTVSPropertyOp48
 70
     1
102
RTVSPropertyOp49
 70
     1
102
RTVSPropertyOp50
 70
     1
102
RTVSPropertyOp51
 70
     0
102
RTVSPropertyOp52
 70
     0
102
RTVSPropertyOp53
 70
     1
102
RTVSPropertyOp54
 70
     1
102
RTVSPropertyOp55
 70
     1
102
RTVSPropertyOp56
 70
     1
102
RTVSPropertyOp57
 70
     1
102
RTVSPropertyOp58
 70
     1
102
RTVSPropertyOp59
 70
     1
102
RTVSPropertyOp60
 70
     1
102
RTVSPropertyOp61
 70
     1
102
RTVSPropertyOp62
 70
     1
  0
XRECORD
  5
20E4E
102
{ACAD_REACTORS
330
20E4D
102
}
330
20E4D
100
AcDbXrecord
280
     1
102
RTVSPost2010Prop28
280
     0
102
RTVSPost2010PropOp28
 70
     1
102
RTVSPost2010Prop29
280
     1
102
RTVSPost2010PropOp29
 70
     1
102
RTVSPost2010Prop30
280
     1
102
RTVSPost2010PropOp30
 70
     1
102
RTVSPost2010Prop31
280
     0
102
RTVSPost2010PropOp31
 70
     1
102
RTVSPost2010Prop32
280
     0
102
RTVSPost2010PropOp32
 70
     1
102
RTVSPost2010Prop33
280
     0
102
RTVSPost2010PropOp33
 70
     1
102
RTVSPost2010Prop34
280
     0
102
RTVSPost2010PropOp34
 70
     1
102
RTVSPost2010Prop35
280
     0
102
RTVSPost2010PropOp35
 70
     1
102
RTVSPost2010Prop36
280
     0
102
RTVSPost2010PropOp36
 70
     1
102
RTVSPost2010Prop37
 90
       50
102
RTVSPost2010PropOp37
 70
     1
102
RTVSPost2010Prop38
140
0.0
102
RTVSPost2010PropOp38
 70
     1
102
RTVSPost2010Prop39
140
1.0
102
RTVSPost2010PropOp39
 70
     1
102
RTVSPost2010Prop40
 90
        0
102
RTVSPost2010PropOp40
 70
     1
102
RTVSPost2010Prop41ColorIndex
 90
       18
102
RTVSPost2010Prop41ColorRGB
 90
        0
102
RTVSPost2010PropOp41
 70
     1
102
RTVSPost2010Prop42
 90
       50
102
RTVSPost2010PropOp42
 70
     1
102
RTVSPost2010Prop43
 90
        3
102
RTVSPost2010PropOp43
 70
     1
102
RTVSPost2010Prop44ColorIndex
 90
        5
102
RTVSPost2010Prop44ColorRGB
 90
      255
102
RTVSPost2010PropOp44
 70
     1
102
RTVSPost2010Prop45
280
     0
102
RTVSPost2010PropOp45
 70
     1
102
RTVSPost2010Prop46
 90
       50
102
RTVSPost2010PropOp46
 70
     1
102
RTVSPost2010Prop47
 90
       50
102
RTVSPost2010PropOp47
 70
     1
102
RTVSPost2010Prop48
 90
       50
102
RTVSPost2010PropOp48
 70
     1
102
RTVSPost2010Prop49
280
     0
102
RTVSPost2010PropOp49
 70
     1
102
RTVSPost2010Prop50
 90
       50
102
RTVSPost2010PropOp50
 70
     1
102
RTVSPost2010Prop51ColorIndex
 90
      256
102
RTVSPost2010Prop51ColorRGB
 90
-16777216
102
RTVSPost2010PropOp51
 70
     0
102
RTVSPost2010Prop52
140
1.0
102
RTVSPost2010PropOp52
 70
     0
102
RTVSPost2010Prop53
 90
        2
102
RTVSPost2010PropOp53
 70
     1
102
RTVSPost2010Prop54
  1
strokes_ogs.tif
102
RTVSPost2010PropOp54
 70
     1
102
RTVSPost2010Prop55
280
     0
102
RTVSPost2010PropOp55
 70
     1
102
RTVSPost2010Prop56
140
1.0
102
RTVSPost2010PropOp56
 70
     1
102
RTVSPost2010Prop57
140
1.0
102
RTVSPost2010PropOp57
 70
     1
102
RTVSPropertyOp0
 70
     1
102
RTVSPropertyOp1
 70
     1
102
RTVSPropertyOp2
 70
     1
102
RTVSPropertyOp3
 70
     1
102
RTVSPropertyOp4
 70
     1
102
RTVSPropertyOp5
 70
     1
102
RTVSPropertyOp6
 70
     1
102
RTVSPropertyOp7
 70
     1
102
RTVSPropertyOp8
 70
     1
102
RTVSPropertyOp9
 70
     1
102
RTVSPropertyOp10
 70
     1
102
RTVSPropertyOp11
 70
     1
102
RTVSPropertyOp12
 70
     1
102
RTVSPropertyOp13
 70
     1
102
RTVSPropertyOp14
 70
     1
102
RTVSPropertyOp15
 70
     1
102
RTVSPropertyOp16
 70
     1
102
RTVSPropertyOp17
 70
     1
102
RTVSPropertyOp18
 70
     1
102
RTVSPropertyOp19
 70
     1
102
RTVSPropertyOp20
 70
     1
102
RTVSPropertyOp21
 70
     1
102
RTVSPropertyOp22
 70
     1
102
RTVSPropertyOp23
 70
     1
102
RTVSPropertyOp24
 70
     1
102
RTVSPropertyOp25
 70
     1
102
RTVSPropertyOp26
 70
     1
102
RTVSPropertyOp27
 70
     1
102
RTVSPropertyOp28
 70
     1
102
RTVSPropertyOp29
 70
     1
102
RTVSPropertyOp30
 70
     1
102
RTVSPropertyOp31
 70
     1
102
RTVSPropertyOp32
 70
     1
102
RTVSPropertyOp33
 70
     1
102
RTVSPropertyOp34
 70
     1
102
RTVSPropertyOp35
 70
     1
102
RTVSPropertyOp36
 70
     1
102
RTVSPropertyOp37
 70
     1
102
RTVSPropertyOp38
 70
     1
102
RTVSPropertyOp39
 70
     1
102
RTVSPropertyOp40
 70
     1
102
RTVSPropertyOp41
 70
     1
102
RTVSPropertyOp42
 70
     1
102
RTVSPropertyOp43
 70
     1
102
RTVSPropertyOp44
 70
     1
102
RTVSPropertyOp45
 70
     1
102
RTVSPropertyOp46
 70
     1
102
RTVSPropertyOp47
 70
     1
102
RTVSPropertyOp48
 70
     1
102
RTVSPropertyOp49
 70
     1
102
RTVSPropertyOp50
 70
     1
102
RTVSPropertyOp51
 70
     0
102
RTVSPropertyOp52
 70
     0
102
RTVSPropertyOp53
 70
     1
102
RTVSPropertyOp54
 70
     1
102
RTVSPropertyOp55
 70
     1
102
RTVSPropertyOp56
 70
     1
102
RTVSPropertyOp57
 70
     1
102
RTVSPropertyOp58
 70
     1
102
RTVSPropertyOp59
 70
     1
102
RTVSPropertyOp60
 70
     1
102
RTVSPropertyOp61
 70
     1
102
RTVSPropertyOp62
 70
     1
  0
XRECORD
  5
20E4C
102
{ACAD_REACTORS
330
20E4B
102
}
330
20E4B
100
AcDbXrecord
280
     1
102
RTVSPost2010Prop28
280
     0
102
RTVSPost2010PropOp28
 70
     1
102
RTVSPost2010Prop29
280
     1
102
RTVSPost2010PropOp29
 70
     1
102
RTVSPost2010Prop30
280
     1
102
RTVSPost2010PropOp30
 70
     1
102
RTVSPost2010Prop31
280
     0
102
RTVSPost2010PropOp31
 70
     1
102
RTVSPost2010Prop32
280
     0
102
RTVSPost2010PropOp32
 70
     1
102
RTVSPost2010Prop33
280
     0
102
RTVSPost2010PropOp33
 70
     1
102
RTVSPost2010Prop34
280
     0
102
RTVSPost2010PropOp34
 70
     1
102
RTVSPost2010Prop35
280
     0
102
RTVSPost2010PropOp35
 70
     1
102
RTVSPost2010Prop36
280
     0
102
RTVSPost2010PropOp36
 70
     1
102
RTVSPost2010Prop37
 90
       50
102
RTVSPost2010PropOp37
 70
     1
102
RTVSPost2010Prop38
140
0.0
102
RTVSPost2010PropOp38
 70
     1
102
RTVSPost2010Prop39
140
1.0
102
RTVSPost2010PropOp39
 70
     1
102
RTVSPost2010Prop40
 90
        0
102
RTVSPost2010PropOp40
 70
     1
102
RTVSPost2010Prop41ColorIndex
 90
       18
102
RTVSPost2010Prop41ColorRGB
 90
        0
102
RTVSPost2010PropOp41
 70
     1
102
RTVSPost2010Prop42
 90
       50
102
RTVSPost2010PropOp42
 70
     1
102
RTVSPost2010Prop43
 90
        3
102
RTVSPost2010PropOp43
 70
     1
102
RTVSPost2010Prop44ColorIndex
 90
        5
102
RTVSPost2010Prop44ColorRGB
 90
      255
102
RTVSPost2010PropOp44
 70
     1
102
RTVSPost2010Prop45
280
     0
102
RTVSPost2010PropOp45
 70
     1
102
RTVSPost2010Prop46
 90
       50
102
RTVSPost2010PropOp46
 70
     1
102
RTVSPost2010Prop47
 90
       50
102
RTVSPost2010PropOp47
 70
     1
102
RTVSPost2010Prop48
 90
       50
102
RTVSPost2010PropOp48
 70
     1
102
RTVSPost2010Prop49
280
     0
102
RTVSPost2010PropOp49
 70
     1
102
RTVSPost2010Prop50
 90
       50
102
RTVSPost2010PropOp50
 70
     1
102
RTVSPost2010Prop51ColorIndex
 90
      256
102
RTVSPost2010Prop51ColorRGB
 90
-16777216
102
RTVSPost2010PropOp51
 70
     0
102
RTVSPost2010Prop52
140
1.0
102
RTVSPost2010PropOp52
 70
     0
102
RTVSPost2010Prop53
 90
        2
102
RTVSPost2010PropOp53
 70
     1
102
RTVSPost2010Prop54
  1
strokes_ogs.tif
102
RTVSPost2010PropOp54
 70
     1
102
RTVSPost2010Prop55
280
     0
102
RTVSPost2010PropOp55
 70
     1
102
RTVSPost2010Prop56
140
1.0
102
RTVSPost2010PropOp56
 70
     1
102
RTVSPost2010Prop57
140
1.0
102
RTVSPost2010PropOp57
 70
     1
102
RTVSPropertyOp0
 70
     1
102
RTVSPropertyOp1
 70
     1
102
RTVSPropertyOp2
 70
     1
102
RTVSPropertyOp3
 70
     1
102
RTVSPropertyOp4
 70
     1
102
RTVSPropertyOp5
 70
     1
102
RTVSPropertyOp6
 70
     1
102
RTVSPropertyOp7
 70
     1
102
RTVSPropertyOp8
 70
     1
102
RTVSPropertyOp9
 70
     1
102
RTVSPropertyOp10
 70
     1
102
RTVSPropertyOp11
 70
     1
102
RTVSPropertyOp12
 70
     1
102
RTVSPropertyOp13
 70
     1
102
RTVSPropertyOp14
 70
     1
102
RTVSPropertyOp15
 70
     1
102
RTVSPropertyOp16
 70
     1
102
RTVSPropertyOp17
 70
     1
102
RTVSPropertyOp18
 70
     1
102
RTVSPropertyOp19
 70
     1
102
RTVSPropertyOp20
 70
     1
102
RTVSPropertyOp21
 70
     1
102
RTVSPropertyOp22
 70
     1
102
RTVSPropertyOp23
 70
     1
102
RTVSPropertyOp24
 70
     1
102
RTVSPropertyOp25
 70
     1
102
RTVSPropertyOp26
 70
     1
102
RTVSPropertyOp27
 70
     1
102
RTVSPropertyOp28
 70
     1
102
RTVSPropertyOp29
 70
     1
102
RTVSPropertyOp30
 70
     1
102
RTVSPropertyOp31
 70
     1
102
RTVSPropertyOp32
 70
     1
102
RTVSPropertyOp33
 70
     1
102
RTVSPropertyOp34
 70
     1
102
RTVSPropertyOp35
 70
     1
102
RTVSPropertyOp36
 70
     1
102
RTVSPropertyOp37
 70
     1
102
RTVSPropertyOp38
 70
     1
102
RTVSPropertyOp39
 70
     1
102
RTVSPropertyOp40
 70
     1
102
RTVSPropertyOp41
 70
     1
102
RTVSPropertyOp42
 70
     1
102
RTVSPropertyOp43
 70
     1
102
RTVSPropertyOp44
 70
     1
102
RTVSPropertyOp45
 70
     1
102
RTVSPropertyOp46
 70
     1
102
RTVSPropertyOp47
 70
     1
102
RTVSPropertyOp48
 70
     1
102
RTVSPropertyOp49
 70
     1
102
RTVSPropertyOp50
 70
     1
102
RTVSPropertyOp51
 70
     0
102
RTVSPropertyOp52
 70
     0
102
RTVSPropertyOp53
 70
     1
102
RTVSPropertyOp54
 70
     1
102
RTVSPropertyOp55
 70
     1
102
RTVSPropertyOp56
 70
     1
102
RTVSPropertyOp57
 70
     1
102
RTVSPropertyOp58
 70
     1
102
RTVSPropertyOp59
 70
     1
102
RTVSPropertyOp60
 70
     1
102
RTVSPropertyOp61
 70
     1
102
RTVSPropertyOp62
 70
     1
  0
XRECORD
  5
20E46
102
{ACAD_REACTORS
330
20E45
102
}
330
20E45
100
AcDbXrecord
280
     1
102
RTVSPost2010Prop28
280
     0
102
RTVSPost2010PropOp28
 70
     1
102
RTVSPost2010Prop29
280
     1
102
RTVSPost2010PropOp29
 70
     1
102
RTVSPost2010Prop30
280
     1
102
RTVSPost2010PropOp30
 70
     1
102
RTVSPost2010Prop31
280
     0
102
RTVSPost2010PropOp31
 70
     1
102
RTVSPost2010Prop32
280
     0
102
RTVSPost2010PropOp32
 70
     1
102
RTVSPost2010Prop33
280
     0
102
RTVSPost2010PropOp33
 70
     1
102
RTVSPost2010Prop34
280
     0
102
RTVSPost2010PropOp34
 70
     1
102
RTVSPost2010Prop35
280
     0
102
RTVSPost2010PropOp35
 70
     1
102
RTVSPost2010Prop36
280
     0
102
RTVSPost2010PropOp36
 70
     1
102
RTVSPost2010Prop37
 90
       50
102
RTVSPost2010PropOp37
 70
     1
102
RTVSPost2010Prop38
140
0.0
102
RTVSPost2010PropOp38
 70
     1
102
RTVSPost2010Prop39
140
1.0
102
RTVSPost2010PropOp39
 70
     1
102
RTVSPost2010Prop40
 90
        0
102
RTVSPost2010PropOp40
 70
     1
102
RTVSPost2010Prop41ColorIndex
 90
       18
102
RTVSPost2010Prop41ColorRGB
 90
        0
102
RTVSPost2010PropOp41
 70
     1
102
RTVSPost2010Prop42
 90
       50
102
RTVSPost2010PropOp42
 70
     1
102
RTVSPost2010Prop43
 90
        3
102
RTVSPost2010PropOp43
 70
     1
102
RTVSPost2010Prop44ColorIndex
 90
        5
102
RTVSPost2010Prop44ColorRGB
 90
      255
102
RTVSPost2010PropOp44
 70
     1
102
RTVSPost2010Prop45
280
     0
102
RTVSPost2010PropOp45
 70
     1
102
RTVSPost2010Prop46
 90
       50
102
RTVSPost2010PropOp46
 70
     1
102
RTVSPost2010Prop47
 90
       50
102
RTVSPost2010PropOp47
 70
     1
102
RTVSPost2010Prop48
 90
       50
102
RTVSPost2010PropOp48
 70
     1
102
RTVSPost2010Prop49
280
     0
102
RTVSPost2010PropOp49
 70
     1
102
RTVSPost2010Prop50
 90
       50
102
RTVSPost2010PropOp50
 70
     1
102
RTVSPost2010Prop51ColorIndex
 90
      256
102
RTVSPost2010Prop51ColorRGB
 90
-16777216
102
RTVSPost2010PropOp51
 70
     0
102
RTVSPost2010Prop52
140
1.0
102
RTVSPost2010PropOp52
 70
     0
102
RTVSPost2010Prop53
 90
        2
102
RTVSPost2010PropOp53
 70
     1
102
RTVSPost2010Prop54
  1
strokes_ogs.tif
102
RTVSPost2010PropOp54
 70
     1
102
RTVSPost2010Prop55
280
     0
102
RTVSPost2010PropOp55
 70
     1
102
RTVSPost2010Prop56
140
1.0
102
RTVSPost2010PropOp56
 70
     1
102
RTVSPost2010Prop57
140
1.0
102
RTVSPost2010PropOp57
 70
     1
102
RTVSPropertyOp0
 70
     1
102
RTVSPropertyOp1
 70
     1
102
RTVSPropertyOp2
 70
     1
102
RTVSPropertyOp3
 70
     1
102
RTVSPropertyOp4
 70
     1
102
RTVSPropertyOp5
 70
     1
102
RTVSPropertyOp6
 70
     1
102
RTVSPropertyOp7
 70
     1
102
RTVSPropertyOp8
 70
     1
102
RTVSPropertyOp9
 70
     1
102
RTVSPropertyOp10
 70
     1
102
RTVSPropertyOp11
 70
     1
102
RTVSPropertyOp12
 70
     1
102
RTVSPropertyOp13
 70
     1
102
RTVSPropertyOp14
 70
     1
102
RTVSPropertyOp15
 70
     1
102
RTVSPropertyOp16
 70
     1
102
RTVSPropertyOp17
 70
     1
102
RTVSPropertyOp18
 70
     1
102
RTVSPropertyOp19
 70
     1
102
RTVSPropertyOp20
 70
     1
102
RTVSPropertyOp21
 70
     1
102
RTVSPropertyOp22
 70
     1
102
RTVSPropertyOp23
 70
     1
102
RTVSPropertyOp24
 70
     1
102
RTVSPropertyOp25
 70
     1
102
RTVSPropertyOp26
 70
     1
102
RTVSPropertyOp27
 70
     1
102
RTVSPropertyOp28
 70
     1
102
RTVSPropertyOp29
 70
     1
102
RTVSPropertyOp30
 70
     1
102
RTVSPropertyOp31
 70
     1
102
RTVSPropertyOp32
 70
     1
102
RTVSPropertyOp33
 70
     1
102
RTVSPropertyOp34
 70
     1
102
RTVSPropertyOp35
 70
     1
102
RTVSPropertyOp36
 70
     1
102
RTVSPropertyOp37
 70
     1
102
RTVSPropertyOp38
 70
     1
102
RTVSPropertyOp39
 70
     1
102
RTVSPropertyOp40
 70
     1
102
RTVSPropertyOp41
 70
     1
102
RTVSPropertyOp42
 70
     1
102
RTVSPropertyOp43
 70
     1
102
RTVSPropertyOp44
 70
     1
102
RTVSPropertyOp45
 70
     1
102
RTVSPropertyOp46
 70
     1
102
RTVSPropertyOp47
 70
     1
102
RTVSPropertyOp48
 70
     1
102
RTVSPropertyOp49
 70
     1
102
RTVSPropertyOp50
 70
     1
102
RTVSPropertyOp51
 70
     0
102
RTVSPropertyOp52
 70
     0
102
RTVSPropertyOp53
 70
     1
102
RTVSPropertyOp54
 70
     1
102
RTVSPropertyOp55
 70
     1
102
RTVSPropertyOp56
 70
     1
102
RTVSPropertyOp57
 70
     1
102
RTVSPropertyOp58
 70
     1
102
RTVSPropertyOp59
 70
     1
102
RTVSPropertyOp60
 70
     1
102
RTVSPropertyOp61
 70
     1
102
RTVSPropertyOp62
 70
     1
  0
XRECORD
  5
20E48
102
{ACAD_REACTORS
330
20E47
102
}
330
20E47
100
AcDbXrecord
280
     1
102
RTVSPost2010Prop28
280
     0
102
RTVSPost2010PropOp28
 70
     1
102
RTVSPost2010Prop29
280
     1
102
RTVSPost2010PropOp29
 70
     1
102
RTVSPost2010Prop30
280
     1
102
RTVSPost2010PropOp30
 70
     1
102
RTVSPost2010Prop31
280
     0
102
RTVSPost2010PropOp31
 70
     1
102
RTVSPost2010Prop32
280
     0
102
RTVSPost2010PropOp32
 70
     1
102
RTVSPost2010Prop33
280
     0
102
RTVSPost2010PropOp33
 70
     1
102
RTVSPost2010Prop34
280
     0
102
RTVSPost2010PropOp34
 70
     1
102
RTVSPost2010Prop35
280
     0
102
RTVSPost2010PropOp35
 70
     1
102
RTVSPost2010Prop36
280
     0
102
RTVSPost2010PropOp36
 70
     1
102
RTVSPost2010Prop37
 90
       50
102
RTVSPost2010PropOp37
 70
     1
102
RTVSPost2010Prop38
140
0.0
102
RTVSPost2010PropOp38
 70
     1
102
RTVSPost2010Prop39
140
1.0
102
RTVSPost2010PropOp39
 70
     1
102
RTVSPost2010Prop40
 90
        0
102
RTVSPost2010PropOp40
 70
     1
102
RTVSPost2010Prop41ColorIndex
 90
       18
102
RTVSPost2010Prop41ColorRGB
 90
        0
102
RTVSPost2010PropOp41
 70
     1
102
RTVSPost2010Prop42
 90
       50
102
RTVSPost2010PropOp42
 70
     1
102
RTVSPost2010Prop43
 90
        3
102
RTVSPost2010PropOp43
 70
     1
102
RTVSPost2010Prop44ColorIndex
 90
        5
102
RTVSPost2010Prop44ColorRGB
 90
      255
102
RTVSPost2010PropOp44
 70
     1
102
RTVSPost2010Prop45
280
     0
102
RTVSPost2010PropOp45
 70
     1
102
RTVSPost2010Prop46
 90
       50
102
RTVSPost2010PropOp46
 70
     1
102
RTVSPost2010Prop47
 90
       50
102
RTVSPost2010PropOp47
 70
     1
102
RTVSPost2010Prop48
 90
       50
102
RTVSPost2010PropOp48
 70
     1
102
RTVSPost2010Prop49
280
     0
102
RTVSPost2010PropOp49
 70
     1
102
RTVSPost2010Prop50
 90
       50
102
RTVSPost2010PropOp50
 70
     1
102
RTVSPost2010Prop51ColorIndex
 90
      256
102
RTVSPost2010Prop51ColorRGB
 90
-16777216
102
RTVSPost2010PropOp51
 70
     0
102
RTVSPost2010Prop52
140
1.0
102
RTVSPost2010PropOp52
 70
     0
102
RTVSPost2010Prop53
 90
        2
102
RTVSPost2010PropOp53
 70
     1
102
RTVSPost2010Prop54
  1
strokes_ogs.tif
102
RTVSPost2010PropOp54
 70
     1
102
RTVSPost2010Prop55
280
     0
102
RTVSPost2010PropOp55
 70
     1
102
RTVSPost2010Prop56
140
1.0
102
RTVSPost2010PropOp56
 70
     1
102
RTVSPost2010Prop57
140
1.0
102
RTVSPost2010PropOp57
 70
     1
102
RTVSPropertyOp0
 70
     1
102
RTVSPropertyOp1
 70
     1
102
RTVSPropertyOp2
 70
     1
102
RTVSPropertyOp3
 70
     1
102
RTVSPropertyOp4
 70
     1
102
RTVSPropertyOp5
 70
     1
102
RTVSPropertyOp6
 70
     1
102
RTVSPropertyOp7
 70
     1
102
RTVSPropertyOp8
 70
     1
102
RTVSPropertyOp9
 70
     1
102
RTVSPropertyOp10
 70
     1
102
RTVSPropertyOp11
 70
     1
102
RTVSPropertyOp12
 70
     1
102
RTVSPropertyOp13
 70
     1
102
RTVSPropertyOp14
 70
     1
102
RTVSPropertyOp15
 70
     1
102
RTVSPropertyOp16
 70
     1
102
RTVSPropertyOp17
 70
     1
102
RTVSPropertyOp18
 70
     1
102
RTVSPropertyOp19
 70
     1
102
RTVSPropertyOp20
 70
     1
102
RTVSPropertyOp21
 70
     1
102
RTVSPropertyOp22
 70
     1
102
RTVSPropertyOp23
 70
     1
102
RTVSPropertyOp24
 70
     1
102
RTVSPropertyOp25
 70
     1
102
RTVSPropertyOp26
 70
     1
102
RTVSPropertyOp27
 70
     1
102
RTVSPropertyOp28
 70
     1
102
RTVSPropertyOp29
 70
     1
102
RTVSPropertyOp30
 70
     1
102
RTVSPropertyOp31
 70
     1
102
RTVSPropertyOp32
 70
     1
102
RTVSPropertyOp33
 70
     1
102
RTVSPropertyOp34
 70
     1
102
RTVSPropertyOp35
 70
     1
102
RTVSPropertyOp36
 70
     1
102
RTVSPropertyOp37
 70
     1
102
RTVSPropertyOp38
 70
     1
102
RTVSPropertyOp39
 70
     1
102
RTVSPropertyOp40
 70
     1
102
RTVSPropertyOp41
 70
     1
102
RTVSPropertyOp42
 70
     1
102
RTVSPropertyOp43
 70
     1
102
RTVSPropertyOp44
 70
     1
102
RTVSPropertyOp45
 70
     1
102
RTVSPropertyOp46
 70
     1
102
RTVSPropertyOp47
 70
     1
102
RTVSPropertyOp48
 70
     1
102
RTVSPropertyOp49
 70
     1
102
RTVSPropertyOp50
 70
     1
102
RTVSPropertyOp51
 70
     0
102
RTVSPropertyOp52
 70
     0
102
RTVSPropertyOp53
 70
     1
102
RTVSPropertyOp54
 70
     1
102
RTVSPropertyOp55
 70
     1
102
RTVSPropertyOp56
 70
     1
102
RTVSPropertyOp57
 70
     1
102
RTVSPropertyOp58
 70
     1
102
RTVSPropertyOp59
 70
     1
102
RTVSPropertyOp60
 70
     1
102
RTVSPropertyOp61
 70
     1
102
RTVSPropertyOp62
 70
     1
  0
XRECORD
  5
20E31
102
{ACAD_REACTORS
330
20E30
102
}
330
20E30
100
AcDbXrecord
280
     1
102
RTVSPost2010Prop28
280
     0
102
RTVSPost2010PropOp28
 70
     1
102
RTVSPost2010Prop29
280
     1
102
RTVSPost2010PropOp29
 70
     1
102
RTVSPost2010Prop30
280
     1
102
RTVSPost2010PropOp30
 70
     1
102
RTVSPost2010Prop31
280
     0
102
RTVSPost2010PropOp31
 70
     1
102
RTVSPost2010Prop32
280
     0
102
RTVSPost2010PropOp32
 70
     1
102
RTVSPost2010Prop33
280
     0
102
RTVSPost2010PropOp33
 70
     1
102
RTVSPost2010Prop34
280
     0
102
RTVSPost2010PropOp34
 70
     1
102
RTVSPost2010Prop35
280
     0
102
RTVSPost2010PropOp35
 70
     1
102
RTVSPost2010Prop36
280
     0
102
RTVSPost2010PropOp36
 70
     1
102
RTVSPost2010Prop37
 90
       50
102
RTVSPost2010PropOp37
 70
     1
102
RTVSPost2010Prop38
140
0.0
102
RTVSPost2010PropOp38
 70
     1
102
RTVSPost2010Prop39
140
1.0
102
RTVSPost2010PropOp39
 70
     1
102
RTVSPost2010Prop40
 90
        0
102
RTVSPost2010PropOp40
 70
     1
102
RTVSPost2010Prop41ColorIndex
 90
       18
102
RTVSPost2010Prop41ColorRGB
 90
        0
102
RTVSPost2010PropOp41
 70
     1
102
RTVSPost2010Prop42
 90
       50
102
RTVSPost2010PropOp42
 70
     1
102
RTVSPost2010Prop43
 90
        3
102
RTVSPost2010PropOp43
 70
     1
102
RTVSPost2010Prop44ColorIndex
 90
        5
102
RTVSPost2010Prop44ColorRGB
 90
      255
102
RTVSPost2010PropOp44
 70
     1
102
RTVSPost2010Prop45
280
     0
102
RTVSPost2010PropOp45
 70
     1
102
RTVSPost2010Prop46
 90
       50
102
RTVSPost2010PropOp46
 70
     1
102
RTVSPost2010Prop47
 90
       50
102
RTVSPost2010PropOp47
 70
     1
102
RTVSPost2010Prop48
 90
       50
102
RTVSPost2010PropOp48
 70
     1
102
RTVSPost2010Prop49
280
     0
102
RTVSPost2010PropOp49
 70
     1
102
RTVSPost2010Prop50
 90
       50
102
RTVSPost2010PropOp50
 70
     1
102
RTVSPost2010Prop51ColorIndex
 90
      256
102
RTVSPost2010Prop51ColorRGB
 90
-16777216
102
RTVSPost2010PropOp51
 70
     0
102
RTVSPost2010Prop52
140
1.0
102
RTVSPost2010PropOp52
 70
     0
102
RTVSPost2010Prop53
 90
        2
102
RTVSPost2010PropOp53
 70
     1
102
RTVSPost2010Prop54
  1
strokes_ogs.tif
102
RTVSPost2010PropOp54
 70
     1
102
RTVSPost2010Prop55
280
     0
102
RTVSPost2010PropOp55
 70
     1
102
RTVSPost2010Prop56
140
1.0
102
RTVSPost2010PropOp56
 70
     1
102
RTVSPost2010Prop57
140
1.0
102
RTVSPost2010PropOp57
 70
     1
102
RTVSPropertyOp0
 70
     1
102
RTVSPropertyOp1
 70
     1
102
RTVSPropertyOp2
 70
     1
102
RTVSPropertyOp3
 70
     1
102
RTVSPropertyOp4
 70
     1
102
RTVSPropertyOp5
 70
     1
102
RTVSPropertyOp6
 70
     1
102
RTVSPropertyOp7
 70
     1
102
RTVSPropertyOp8
 70
     1
102
RTVSPropertyOp9
 70
     1
102
RTVSPropertyOp10
 70
     1
102
RTVSPropertyOp11
 70
     1
102
RTVSPropertyOp12
 70
     1
102
RTVSPropertyOp13
 70
     1
102
RTVSPropertyOp14
 70
     1
102
RTVSPropertyOp15
 70
     1
102
RTVSPropertyOp16
 70
     1
102
RTVSPropertyOp17
 70
     1
102
RTVSPropertyOp18
 70
     1
102
RTVSPropertyOp19
 70
     1
102
RTVSPropertyOp20
 70
     1
102
RTVSPropertyOp21
 70
     1
102
RTVSPropertyOp22
 70
     1
102
RTVSPropertyOp23
 70
     1
102
RTVSPropertyOp24
 70
     1
102
RTVSPropertyOp25
 70
     1
102
RTVSPropertyOp26
 70
     1
102
RTVSPropertyOp27
 70
     1
102
RTVSPropertyOp28
 70
     1
102
RTVSPropertyOp29
 70
     1
102
RTVSPropertyOp30
 70
     1
102
RTVSPropertyOp31
 70
     1
102
RTVSPropertyOp32
 70
     1
102
RTVSPropertyOp33
 70
     1
102
RTVSPropertyOp34
 70
     1
102
RTVSPropertyOp35
 70
     1
102
RTVSPropertyOp36
 70
     1
102
RTVSPropertyOp37
 70
     1
102
RTVSPropertyOp38
 70
     1
102
RTVSPropertyOp39
 70
     1
102
RTVSPropertyOp40
 70
     1
102
RTVSPropertyOp41
 70
     1
102
RTVSPropertyOp42
 70
     1
102
RTVSPropertyOp43
 70
     1
102
RTVSPropertyOp44
 70
     1
102
RTVSPropertyOp45
 70
     1
102
RTVSPropertyOp46
 70
     1
102
RTVSPropertyOp47
 70
     1
102
RTVSPropertyOp48
 70
     1
102
RTVSPropertyOp49
 70
     1
102
RTVSPropertyOp50
 70
     1
102
RTVSPropertyOp51
 70
     0
102
RTVSPropertyOp52
 70
     0
102
RTVSPropertyOp53
 70
     1
102
RTVSPropertyOp54
 70
     1
102
RTVSPropertyOp55
 70
     1
102
RTVSPropertyOp56
 70
     1
102
RTVSPropertyOp57
 70
     1
102
RTVSPropertyOp58
 70
     1
102
RTVSPropertyOp59
 70
     1
102
RTVSPropertyOp60
 70
     1
102
RTVSPropertyOp61
 70
     1
102
RTVSPropertyOp62
 70
     1
  0
XRECORD
  5
20E42
102
{ACAD_REACTORS
330
20E41
102
}
330
20E41
100
AcDbXrecord
280
     1
102
RTVSPost2010Prop28
280
     0
102
RTVSPost2010PropOp28
 70
     1
102
RTVSPost2010Prop29
280
     1
102
RTVSPost2010PropOp29
 70
     1
102
RTVSPost2010Prop30
280
     1
102
RTVSPost2010PropOp30
 70
     1
102
RTVSPost2010Prop31
280
     0
102
RTVSPost2010PropOp31
 70
     1
102
RTVSPost2010Prop32
280
     0
102
RTVSPost2010PropOp32
 70
     1
102
RTVSPost2010Prop33
280
     0
102
RTVSPost2010PropOp33
 70
     1
102
RTVSPost2010Prop34
280
     0
102
RTVSPost2010PropOp34
 70
     1
102
RTVSPost2010Prop35
280
     0
102
RTVSPost2010PropOp35
 70
     1
102
RTVSPost2010Prop36
280
     0
102
RTVSPost2010PropOp36
 70
     1
102
RTVSPost2010Prop37
 90
       50
102
RTVSPost2010PropOp37
 70
     1
102
RTVSPost2010Prop38
140
0.0
102
RTVSPost2010PropOp38
 70
     1
102
RTVSPost2010Prop39
140
1.0
102
RTVSPost2010PropOp39
 70
     1
102
RTVSPost2010Prop40
 90
        0
102
RTVSPost2010PropOp40
 70
     1
102
RTVSPost2010Prop41ColorIndex
 90
       18
102
RTVSPost2010Prop41ColorRGB
 90
        0
102
RTVSPost2010PropOp41
 70
     1
102
RTVSPost2010Prop42
 90
       50
102
RTVSPost2010PropOp42
 70
     1
102
RTVSPost2010Prop43
 90
        3
102
RTVSPost2010PropOp43
 70
     1
102
RTVSPost2010Prop44ColorIndex
 90
        5
102
RTVSPost2010Prop44ColorRGB
 90
      255
102
RTVSPost2010PropOp44
 70
     1
102
RTVSPost2010Prop45
280
     0
102
RTVSPost2010PropOp45
 70
     1
102
RTVSPost2010Prop46
 90
       50
102
RTVSPost2010PropOp46
 70
     1
102
RTVSPost2010Prop47
 90
       50
102
RTVSPost2010PropOp47
 70
     1
102
RTVSPost2010Prop48
 90
       50
102
RTVSPost2010PropOp48
 70
     1
102
RTVSPost2010Prop49
280
     0
102
RTVSPost2010PropOp49
 70
     1
102
RTVSPost2010Prop50
 90
       50
102
RTVSPost2010PropOp50
 70
     1
102
RTVSPost2010Prop51ColorIndex
 90
      256
102
RTVSPost2010Prop51ColorRGB
 90
-16777216
102
RTVSPost2010PropOp51
 70
     0
102
RTVSPost2010Prop52
140
1.0
102
RTVSPost2010PropOp52
 70
     0
102
RTVSPost2010Prop53
 90
        2
102
RTVSPost2010PropOp53
 70
     1
102
RTVSPost2010Prop54
  1
strokes_ogs.tif
102
RTVSPost2010PropOp54
 70
     1
102
RTVSPost2010Prop55
280
     0
102
RTVSPost2010PropOp55
 70
     1
102
RTVSPost2010Prop56
140
1.0
102
RTVSPost2010PropOp56
 70
     1
102
RTVSPost2010Prop57
140
1.0
102
RTVSPost2010PropOp57
 70
     1
102
RTVSPropertyOp0
 70
     1
102
RTVSPropertyOp1
 70
     1
102
RTVSPropertyOp2
 70
     1
102
RTVSPropertyOp3
 70
     1
102
RTVSPropertyOp4
 70
     1
102
RTVSPropertyOp5
 70
     1
102
RTVSPropertyOp6
 70
     1
102
RTVSPropertyOp7
 70
     1
102
RTVSPropertyOp8
 70
     1
102
RTVSPropertyOp9
 70
     1
102
RTVSPropertyOp10
 70
     1
102
RTVSPropertyOp11
 70
     1
102
RTVSPropertyOp12
 70
     1
102
RTVSPropertyOp13
 70
     1
102
RTVSPropertyOp14
 70
     1
102
RTVSPropertyOp15
 70
     1
102
RTVSPropertyOp16
 70
     1
102
RTVSPropertyOp17
 70
     1
102
RTVSPropertyOp18
 70
     1
102
RTVSPropertyOp19
 70
     1
102
RTVSPropertyOp20
 70
     1
102
RTVSPropertyOp21
 70
     1
102
RTVSPropertyOp22
 70
     1
102
RTVSPropertyOp23
 70
     1
102
RTVSPropertyOp24
 70
     1
102
RTVSPropertyOp25
 70
     1
102
RTVSPropertyOp26
 70
     1
102
RTVSPropertyOp27
 70
     1
102
RTVSPropertyOp28
 70
     1
102
RTVSPropertyOp29
 70
     1
102
RTVSPropertyOp30
 70
     1
102
RTVSPropertyOp31
 70
     1
102
RTVSPropertyOp32
 70
     1
102
RTVSPropertyOp33
 70
     1
102
RTVSPropertyOp34
 70
     1
102
RTVSPropertyOp35
 70
     1
102
RTVSPropertyOp36
 70
     1
102
RTVSPropertyOp37
 70
     1
102
RTVSPropertyOp38
 70
     1
102
RTVSPropertyOp39
 70
     1
102
RTVSPropertyOp40
 70
     1
102
RTVSPropertyOp41
 70
     1
102
RTVSPropertyOp42
 70
     1
102
RTVSPropertyOp43
 70
     1
102
RTVSPropertyOp44
 70
     1
102
RTVSPropertyOp45
 70
     1
102
RTVSPropertyOp46
 70
     1
102
RTVSPropertyOp47
 70
     1
102
RTVSPropertyOp48
 70
     1
102
RTVSPropertyOp49
 70
     1
102
RTVSPropertyOp50
 70
     1
102
RTVSPropertyOp51
 70
     0
102
RTVSPropertyOp52
 70
     0
102
RTVSPropertyOp53
 70
     1
102
RTVSPropertyOp54
 70
     1
102
RTVSPropertyOp55
 70
     1
102
RTVSPropertyOp56
 70
     1
102
RTVSPropertyOp57
 70
     1
102
RTVSPropertyOp58
 70
     1
102
RTVSPropertyOp59
 70
     1
102
RTVSPropertyOp60
 70
     1
102
RTVSPropertyOp61
 70
     1
102
RTVSPropertyOp62
 70
     1
  0
XRECORD
  5
20E4A
102
{ACAD_REACTORS
330
20E49
102
}
330
20E49
100
AcDbXrecord
280
     1
102
RTVSPost2010Prop28
280
     0
102
RTVSPost2010PropOp28
 70
     1
102
RTVSPost2010Prop29
280
     1
102
RTVSPost2010PropOp29
 70
     1
102
RTVSPost2010Prop30
280
     1
102
RTVSPost2010PropOp30
 70
     1
102
RTVSPost2010Prop31
280
     0
102
RTVSPost2010PropOp31
 70
     1
102
RTVSPost2010Prop32
280
     0
102
RTVSPost2010PropOp32
 70
     1
102
RTVSPost2010Prop33
280
     0
102
RTVSPost2010PropOp33
 70
     1
102
RTVSPost2010Prop34
280
     0
102
RTVSPost2010PropOp34
 70
     1
102
RTVSPost2010Prop35
280
     0
102
RTVSPost2010PropOp35
 70
     1
102
RTVSPost2010Prop36
280
     0
102
RTVSPost2010PropOp36
 70
     1
102
RTVSPost2010Prop37
 90
       50
102
RTVSPost2010PropOp37
 70
     1
102
RTVSPost2010Prop38
140
0.0
102
RTVSPost2010PropOp38
 70
     1
102
RTVSPost2010Prop39
140
1.0
102
RTVSPost2010PropOp39
 70
     1
102
RTVSPost2010Prop40
 90
        0
102
RTVSPost2010PropOp40
 70
     1
102
RTVSPost2010Prop41ColorIndex
 90
       18
102
RTVSPost2010Prop41ColorRGB
 90
        0
102
RTVSPost2010PropOp41
 70
     1
102
RTVSPost2010Prop42
 90
       50
102
RTVSPost2010PropOp42
 70
     1
102
RTVSPost2010Prop43
 90
        3
102
RTVSPost2010PropOp43
 70
     1
102
RTVSPost2010Prop44ColorIndex
 90
        5
102
RTVSPost2010Prop44ColorRGB
 90
      255
102
RTVSPost2010PropOp44
 70
     1
102
RTVSPost2010Prop45
280
     0
102
RTVSPost2010PropOp45
 70
     1
102
RTVSPost2010Prop46
 90
       50
102
RTVSPost2010PropOp46
 70
     1
102
RTVSPost2010Prop47
 90
       50
102
RTVSPost2010PropOp47
 70
     1
102
RTVSPost2010Prop48
 90
       50
102
RTVSPost2010PropOp48
 70
     1
102
RTVSPost2010Prop49
280
     0
102
RTVSPost2010PropOp49
 70
     1
102
RTVSPost2010Prop50
 90
       50
102
RTVSPost2010PropOp50
 70
     1
102
RTVSPost2010Prop51ColorIndex
 90
      256
102
RTVSPost2010Prop51ColorRGB
 90
-16777216
102
RTVSPost2010PropOp51
 70
     0
102
RTVSPost2010Prop52
140
1.0
102
RTVSPost2010PropOp52
 70
     0
102
RTVSPost2010Prop53
 90
        2
102
RTVSPost2010PropOp53
 70
     1
102
RTVSPost2010Prop54
  1
strokes_ogs.tif
102
RTVSPost2010PropOp54
 70
     1
102
RTVSPost2010Prop55
280
     0
102
RTVSPost2010PropOp55
 70
     1
102
RTVSPost2010Prop56
140
1.0
102
RTVSPost2010PropOp56
 70
     1
102
RTVSPost2010Prop57
140
1.0
102
RTVSPost2010PropOp57
 70
     1
102
RTVSPropertyOp0
 70
     1
102
RTVSPropertyOp1
 70
     1
102
RTVSPropertyOp2
 70
     1
102
RTVSPropertyOp3
 70
     1
102
RTVSPropertyOp4
 70
     1
102
RTVSPropertyOp5
 70
     1
102
RTVSPropertyOp6
 70
     1
102
RTVSPropertyOp7
 70
     1
102
RTVSPropertyOp8
 70
     1
102
RTVSPropertyOp9
 70
     1
102
RTVSPropertyOp10
 70
     1
102
RTVSPropertyOp11
 70
     1
102
RTVSPropertyOp12
 70
     1
102
RTVSPropertyOp13
 70
     1
102
RTVSPropertyOp14
 70
     1
102
RTVSPropertyOp15
 70
     1
102
RTVSPropertyOp16
 70
     1
102
RTVSPropertyOp17
 70
     1
102
RTVSPropertyOp18
 70
     1
102
RTVSPropertyOp19
 70
     1
102
RTVSPropertyOp20
 70
     1
102
RTVSPropertyOp21
 70
     1
102
RTVSPropertyOp22
 70
     1
102
RTVSPropertyOp23
 70
     1
102
RTVSPropertyOp24
 70
     1
102
RTVSPropertyOp25
 70
     1
102
RTVSPropertyOp26
 70
     1
102
RTVSPropertyOp27
 70
     1
102
RTVSPropertyOp28
 70
     1
102
RTVSPropertyOp29
 70
     1
102
RTVSPropertyOp30
 70
     1
102
RTVSPropertyOp31
 70
     1
102
RTVSPropertyOp32
 70
     1
102
RTVSPropertyOp33
 70
     1
102
RTVSPropertyOp34
 70
     1
102
RTVSPropertyOp35
 70
     1
102
RTVSPropertyOp36
 70
     1
102
RTVSPropertyOp37
 70
     1
102
RTVSPropertyOp38
 70
     1
102
RTVSPropertyOp39
 70
     1
102
RTVSPropertyOp40
 70
     1
102
RTVSPropertyOp41
 70
     1
102
RTVSPropertyOp42
 70
     1
102
RTVSPropertyOp43
 70
     1
102
RTVSPropertyOp44
 70
     1
102
RTVSPropertyOp45
 70
     1
102
RTVSPropertyOp46
 70
     1
102
RTVSPropertyOp47
 70
     1
102
RTVSPropertyOp48
 70
     1
102
RTVSPropertyOp49
 70
     1
102
RTVSPropertyOp50
 70
     1
102
RTVSPropertyOp51
 70
     0
102
RTVSPropertyOp52
 70
     0
102
RTVSPropertyOp53
 70
     1
102
RTVSPropertyOp54
 70
     1
102
RTVSPropertyOp55
 70
     1
102
RTVSPropertyOp56
 70
     1
102
RTVSPropertyOp57
 70
     1
102
RTVSPropertyOp58
 70
     1
102
RTVSPropertyOp59
 70
     1
102
RTVSPropertyOp60
 70
     1
102
RTVSPropertyOp61
 70
     1
102
RTVSPropertyOp62
 70
     1
  0
ENDSEC
  0
EOF
