  0
SECTION
  2
HEADER
  9
$ACADVER
  1
AC1015
  9
$ACADMAINTVER
 70
    20
  9
$DWGCODEPAGE
  3
ANSI_1252
  9
$INSBASE
 10
0.0
 20
0.0
 30
0.0
  9
$EXTMIN
 10
-31.67602541893166
 20
-24.14706921280174
 30
-0.0015258207003583
  9
$EXTMAX
 10
32.58114114718364
 20
34.90397313672281
 30
0.0000000349246037
  9
$LIMMIN
 10
0.0
 20
0.0
  9
$LIMMAX
 10
420.0
 20
297.0
  9
$ORTHOMODE
 70
     1
  9
$REGENMODE
 70
     1
  9
$FILLMODE
 70
     1
  9
$QTEXTMODE
 70
     0
  9
$MIRRTEXT
 70
     0
  9
$LTSCALE
 40
23.1
  9
$ATTMODE
 70
     1
  9
$TEXTSIZE
 40
3.5
  9
$TRACEWID
 40
0.05
  9
$TEXTSTYLE
  7
STANDARD
  9
$CLAYER
  8
0
  9
$CELTYPE
  6
BYLAYER
  9
$CECOLOR
 62
   256
  9
$CELTSCALE
 40
1.0
  9
$DISPSILH
 70
     0
  9
$DIMSCALE
 40
1.0
  9
$DIMASZ
 40
4.57
  9
$DIMEXO
 40
0.0625
  9
$DIMDLI
 40
0.38
  9
$DIMRND
 40
0.0
  9
$DIMDLE
 40
0.0
  9
$DIMEXE
 40
0.18
  9
$DIMTP
 40
0.01
  9
$DIMTM
 40
0.01
  9
$DIMTXT
 40
3.5
  9
$DIMCEN
 40
0.09
  9
$DIMTSZ
 40
0.0
  9
$DIMTOL
 70
     0
  9
$DIMLIM
 70
     0
  9
$DIMTIH
 70
     0
  9
$DIMTOH
 70
     0
  9
$DIMSE1
 70
     0
  9
$DIMSE2
 70
     0
  9
$DIMTAD
 70
     1
  9
$DIMZIN
 70
     8
  9
$DIMBLK
  1

  9
$DIMASO
 70
     1
  9
$DIMSHO
 70
     1
  9
$DIMPOST
  1

  9
$DIMAPOST
  1

  9
$DIMALT
 70
     0
  9
$DIMALTD
 70
     2
  9
$DIMALTF
 40
25.4
  9
$DIMLFAC
 40
1.0
  9
$DIMTOFL
 70
     0
  9
$DIMTVP
 40
0.0
  9
$DIMTIX
 70
     0
  9
$DIMSOXD
 70
     0
  9
$DIMSAH
 70
     0
  9
$DIMBLK1
  1

  9
$DIMBLK2
  1

  9
$DIMSTYLE
  2
STANDARD
  9
$DIMCLRD
 70
     0
  9
$DIMCLRE
 70
     0
  9
$DIMCLRT
 70
     0
  9
$DIMTFAC
 40
1.0
  9
$DIMGAP
 40
0.09
  9
$DIMJUST
 70
     0
  9
$DIMSD1
 70
     0
  9
$DIMSD2
 70
     0
  9
$DIMTOLJ
 70
     1
  9
$DIMTZIN
 70
     8
  9
$DIMALTZ
 70
     0
  9
$DIMALTTZ
 70
     0
  9
$DIMUPT
 70
     0
  9
$DIMDEC
 70
     3
  9
$DIMTDEC
 70
     3
  9
$DIMALTU
 70
     2
  9
$DIMALTTD
 70
     2
  9
$DIMTXSTY
  7
STANDARD
  9
$DIMAUNIT
 70
     0
  9
$DIMADEC
 70
     0
  9
$DIMALTRND
 40
0.0
  9
$DIMAZIN
 70
     0
  9
$DIMDSEP
 70
    46
  9
$DIMATFIT
 70
     0
  9
$DIMFRAC
 70
     0
  9
$DIMLDRBLK
  1

  9
$DIMLUNIT
 70
     2
  9
$DIMLWD
 70
    -2
  9
$DIMLWE
 70
    -2
  9
$DIMTMOVE
 70
     0
  9
$LUNITS
 70
     2
  9
$LUPREC
 70
     4
  9
$SKETCHINC
 40
0.1
  9
$FILLETRAD
 40
0.0
  9
$AUNITS
 70
     0
  9
$AUPREC
 70
     0
  9
$MENU
  1
.
  9
$ELEVATION
 40
0.0
  9
$PELEVATION
 40
0.0
  9
$THICKNESS
 40
0.0
  9
$LIMCHECK
 70
     0
  9
$CHAMFERA
 40
0.0
  9
$CHAMFERB
 40
0.0
  9
$CHAMFERC
 40
0.0
  9
$CHAMFERD
 40
0.0
  9
$SKPOLY
 70
     0
  9
$TDCREATE
 40
2457354.630009468
  9
$TDUCREATE
 40
2457354.588342801
  9
$TDUPDATE
 40
2457354.636328680
  9
$TDUUPDATE
 40
2457354.594662014
  9
$TDINDWG
 40
0.0020617014
  9
$TDUSRTIMER
 40
0.0020615162
  9
$USRTIMER
 70
     1
  9
$ANGBASE
 50
0.0
  9
$ANGDIR
 70
     0
  9
$PDMODE
 70
     3
  9
$PDSIZE
 40
0.3125
  9
$PLINEWID
 40
0.0
  9
$SPLFRAME
 70
     0
  9
$SPLINETYPE
 70
     6
  9
$SPLINESEGS
 70
     8
  9
$HANDSEED
  5
210D1
  9
$SURFTAB1
 70
     6
  9
$SURFTAB2
 70
     6
  9
$SURFTYPE
 70
     6
  9
$SURFU
 70
     6
  9
$SURFV
 70
     6
  9
$UCSBASE
  2

  9
$UCSNAME
  2

  9
$UCSORG
 10
0.0
 20
0.0
 30
0.0
  9
$UCSXDIR
 10
1.0
 20
0.0
 30
0.0
  9
$UCSYDIR
 10
0.0
 20
1.0
 30
0.0
  9
$UCSORTHOREF
  2

  9
$UCSORTHOVIEW
 70
     0
  9
$UCSORGTOP
 10
0.0
 20
0.0
 30
0.0
  9
$UCSORGBOTTOM
 10
0.0
 20
0.0
 30
0.0
  9
$UCSORGLEFT
 10
0.0
 20
0.0
 30
0.0
  9
$UCSORGRIGHT
 10
0.0
 20
0.0
 30
0.0
  9
$UCSORGFRONT
 10
0.0
 20
0.0
 30
0.0
  9
$UCSORGBACK
 10
0.0
 20
0.0
 30
0.0
  9
$PUCSBASE
  2

  9
$PUCSNAME
  2

  9
$PUCSORG
 10
0.0
 20
0.0
 30
0.0
  9
$PUCSXDIR
 10
1.0
 20
0.0
 30
0.0
  9
$PUCSYDIR
 10
0.0
 20
1.0
 30
0.0
  9
$PUCSORTHOREF
  2

  9
$PUCSORTHOVIEW
 70
     0
  9
$PUCSORGTOP
 10
0.0
 20
0.0
 30
0.0
  9
$PUCSORGBOTTOM
 10
0.0
 20
0.0
 30
0.0
  9
$PUCSORGLEFT
 10
0.0
 20
0.0
 30
0.0
  9
$PUCSORGRIGHT
 10
0.0
 20
0.0
 30
0.0
  9
$PUCSORGFRONT
 10
0.0
 20
0.0
 30
0.0
  9
$PUCSORGBACK
 10
0.0
 20
0.0
 30
0.0
  9
$USERI1
 70
     0
  9
$USERI2
 70
     0
  9
$USERI3
 70
     0
  9
$USERI4
 70
     0
  9
$USERI5
 70
     0
  9
$USERR1
 40
0.0
  9
$USERR2
 40
0.0
  9
$USERR3
 40
0.0
  9
$USERR4
 40
0.0
  9
$USERR5
 40
0.0
  9
$WORLDVIEW
 70
     1
  9
$SHADEDGE
 70
     3
  9
$SHADEDIF
 70
    70
  9
$TILEMODE
 70
     1
  9
$MAXACTVP
 70
    64
  9
$PINSBASE
 10
0.0
 20
0.0
 30
0.0
  9
$PLIMCHECK
 70
     0
  9
$PEXTMIN
 10
28.69141678810127
 20
19.6363175392151
 30
0.0
  9
$PEXTMAX
 10
258.2227510929107
 20
176.7268578529358
 30
0.0
  9
$PLIMMIN
 10
-5.027069091796875
 20
-6.805083274841307
  9
$PLIMMAX
 10
291.9412536621094
 20
203.1682443618775
  9
$UNITMODE
 70
     0
  9
$VISRETAIN
 70
     1
  9
$PLINEGEN
 70
     0
  9
$PSLTSCALE
 70
     1
  9
$TREEDEPTH
 70
  3020
  9
$CMLSTYLE
  2
STANDARD
  9
$CMLJUST
 70
     0
  9
$CMLSCALE
 40
1.0
  9
$PROXYGRAPHICS
 70
     1
  9
$MEASUREMENT
 70
     1
  9
$CELWEIGHT
370
    -1
  9
$ENDCAPS
280
     0
  9
$JOINSTYLE
280
     0
  9
$LWDISPLAY
290
     0
  9
$INSUNITS
 70
     0
  9
$HYPERLINKBASE
  1

  9
$STYLESHEET
  1
A1-A2.CTB
  9
$XEDIT
290
     1
  9
$CEPSNTYPE
380
     0
  9
$PSTYLEMODE
290
     1
  9
$FINGERPRINTGUID
  2
{C2D6ABBA-32C4-4017-A318-AAABD3109EAB}
  9
$VERSIONGUID
  2
{B81C3123-1137-4096-B654-9DBD9BE08C80}
  9
$EXTNAMES
290
     1
  9
$PSVPSCALE
 40
0.0
  9
$OLESTARTUP
290
     0
  0
ENDSEC
  0
SECTION
  2
CLASSES
  0
CLASS
  1
ACDBDICTIONARYWDFLT
  2
AcDbDictionaryWithDefault
  3
ObjectDBX Classes
 90
        0
280
     0
281
     0
  0
CLASS
  1
MATERIAL
  2
AcDbMaterial
  3
ObjectDBX Classes
 90
     1153
280
     0
281
     0
  0
CLASS
  1
VISUALSTYLE
  2
AcDbVisualStyle
  3
ObjectDBX Classes
 90
     4095
280
     0
281
     0
  0
CLASS
  1
TABLESTYLE
  2
AcDbTableStyle
  3
ObjectDBX Classes
 90
     4095
280
     0
281
     0
  0
CLASS
  1
SORTENTSTABLE
  2
AcDbSortentsTable
  3
ObjectDBX Classes
 90
        0
280
     0
281
     0
  0
CLASS
  1
DICTIONARYVAR
  2
AcDbDictionaryVar
  3
ObjectDBX Classes
 90
        0
280
     0
281
     0
  0
CLASS
  1
EXACXREFPANELOBJECT
  2
ExAcXREFPanelObject
  3
EXAC_ESW
 90
    33793
280
     1
281
     0
  0
CLASS
  1
NPOCOLLECTION
  2
AcDbImpNonPersistentObjectsCollection
  3
ObjectDBX Classes
 90
    33921
280
     1
281
     0
  0
CLASS
  1
ACDBPLACEHOLDER
  2
AcDbPlaceHolder
  3
ObjectDBX Classes
 90
        0
280
     0
281
     0
  0
CLASS
  1
LAYOUT
  2
AcDbLayout
  3
ObjectDBX Classes
 90
        0
280
     0
281
     0
  0
CLASS
  1
SCALE
  2
AcDbScale
  3
ObjectDBX Classes
 90
     1153
280
     0
281
     0
  0
CLASS
  1
MLEADERSTYLE
  2
AcDbMLeaderStyle
  3
ACDB_MLEADERSTYLE_CLASS
 90
     4095
280
     0
281
     0
  0
CLASS
  1
ACDBSECTIONVIEWSTYLE
  2
AcDbSectionViewStyle
  3
ObjectDBX Classes
 90
     1025
280
     0
281
     0
  0
CLASS
  1
ACDBDETAILVIEWSTYLE
  2
AcDbDetailViewStyle
  3
ObjectDBX Classes
 90
     1025
280
     0
281
     0
  0
CLASS
  1
CELLSTYLEMAP
  2
AcDbCellStyleMap
  3
ObjectDBX Classes
 90
     1152
280
     0
281
     0
  0
CLASS
  1
ACAD_EVALUATION_GRAPH
  2
AcDbEvalGraph
  3
ObjectDBX Classes
 90
    33921
280
     0
281
     0
  0
CLASS
  1
ACAECUSTOBJ
  2
AcAeEditorObj
  3
AcAeEditorObj
 90
    33792
280
     0
281
     0
  0
CLASS
  1
ACDB_DYNAMICBLOCKPURGEPREVENTER_VERSION
  2
AcDbDynamicBlockPurgePreventer
  3
ObjectDBX Classes
 90
    33921
280
     0
281
     0
  0
CLASS
  1
DIMASSOC
  2
AcDbDimAssoc
  3
"AcDbDimAssoc|Product Desc:     AcDim ARX App For Dimension|Company:          Autodesk, Inc.|WEB Address:      www.autodesk.com"
 90
        0
280
     0
281
     0
  0
ENDSEC
  0
SECTION
  2
TABLES
  0
TABLE
  2
VPORT
  5
8
330
0
100
AcDbSymbolTable
 70
     1
  0
VPORT
  5
1F4
330
8
100
AcDbSymbolTableRecord
100
AcDbViewportTableRecord
  2
*ACTIVE
 70
     0
 10
0.0
 20
0.0
 11
1.0
 21
1.0
 12
0.4525578641259856
 22
5.378451961960532
 13
0.0
 23
0.0
 14
1.0
 24
1.0
 15
0.0
 25
0.0
 16
0.0
 26
0.0
 36
1.0
 17
0.0
 27
0.0
 37
0.0
 40
59.55719414109189
 41
2.336194563662374
 42
50.0
 43
0.0
 44
0.0
 50
0.0
 51
0.0
 71
     0
 72
  2000
 73
     1
 74
     1
 75
     0
 76
     0
 77
     0
 78
     0
281
     0
 65
     1
110
0.0
120
0.0
130
0.0
111
1.0
121
0.0
131
0.0
112
0.0
122
1.0
132
0.0
 79
     0
146
0.0
1001
ACAD_NAV_VCDISPLAY
1070
     3
  0
ENDTAB
  0
TABLE
  2
LTYPE
  5
5
330
0
100
AcDbSymbolTable
 70
     2
  0
LTYPE
  5
14
330
5
100
AcDbSymbolTableRecord
100
AcDbLinetypeTableRecord
  2
BYBLOCK
 70
     0
  3

 72
    65
 73
     0
 40
0.0
  0
LTYPE
  5
15
330
5
100
AcDbSymbolTableRecord
100
AcDbLinetypeTableRecord
  2
BYLAYER
 70
     0
  3

 72
    65
 73
     0
 40
0.0
  0
LTYPE
  5
16
330
5
100
AcDbSymbolTableRecord
100
AcDbLinetypeTableRecord
  2
CONTINUOUS
 70
     0
  3
Solid line
 72
    65
 73
     0
 40
0.0
  0
LTYPE
  5
9C48
330
5
100
AcDbSymbolTableRecord
100
AcDbLinetypeTableRecord
  2
CENTER
 70
     0
  3
____ _ ____ _ ____ _ ____ _ ____ _ ____ _ ____
 72
    65
 73
     4
 40
0.6
 49
0.375
 74
     0
 49
-0.075
 74
     0
 49
0.075
 74
     0
 49
-0.075
 74
     0
  0
ENDTAB
  0
TABLE
  2
LAYER
  5
2
102
{ACAD_XDICTIONARY
360
422A
102
}
330
0
100
AcDbSymbolTable
 70
    12
  0
LAYER
  5
10
102
{ACAD_XDICTIONARY
360
1B2F5
102
}
330
2
100
AcDbSymbolTableRecord
100
AcDbLayerTableRecord
  2
0
 70
     0
 62
     7
  6
CONTINUOUS
370
    -3
390
318A
  0
LAYER
  5
3F8C
102
{ACAD_XDICTIONARY
360
1B2F7
102
}
330
2
100
AcDbSymbolTableRecord
100
AcDbLayerTableRecord
  2
1
 70
     0
 62
     4
  6
BYBLOCK
370
    50
390
318A
  0
LAYER
  5
3FA7
330
2
100
AcDbSymbolTableRecord
100
AcDbLayerTableRecord
  2
Defpoints
 70
     0
 62
     7
  6
CONTINUOUS
290
     0
370
    -3
390
318A
  0
LAYER
  5
9C4A
102
{ACAD_XDICTIONARY
360
1B2F9
102
}
330
2
100
AcDbSymbolTableRecord
100
AcDbLayerTableRecord
  2
2
 70
     0
 62
     7
  6
BYBLOCK
370
    25
390
318A
  0
LAYER
  5
9C4B
102
{ACAD_XDICTIONARY
360
1B2FB
102
}
330
2
100
AcDbSymbolTableRecord
100
AcDbLayerTableRecord
  2
4
 70
     0
 62
     2
  6
CENTER
370
    25
390
318A
  0
LAYER
  5
9C4D
102
{ACAD_XDICTIONARY
360
1B2FD
102
}
330
2
100
AcDbSymbolTableRecord
100
AcDbLayerTableRecord
  2
CUT
 70
     0
 62
     1
  6
BYBLOCK
370
    25
390
318A
  0
LAYER
  5
9C4E
102
{ACAD_XDICTIONARY
360
1B2FF
102
}
330
2
100
AcDbSymbolTableRecord
100
AcDbLayerTableRecord
  2
NOCUT
 70
     0
 62
     7
  6
BYBLOCK
370
    25
390
318A
  0
LAYER
  5
9C4F
102
{ACAD_XDICTIONARY
360
1B301
102
}
330
2
100
AcDbSymbolTableRecord
100
AcDbLayerTableRecord
  2
SK2
 70
     0
 62
     7
  6
BYBLOCK
370
    25
390
318A
  0
LAYER
  5
9C50
102
{ACAD_XDICTIONARY
360
1B303
102
}
330
2
100
AcDbSymbolTableRecord
100
AcDbLayerTableRecord
  2
SK1
 70
     0
 62
     4
  6
BYBLOCK
370
    50
390
318A
  0
LAYER
  5
9C51
102
{ACAD_XDICTIONARY
360
1B305
102
}
330
2
100
AcDbSymbolTableRecord
100
AcDbLayerTableRecord
  2
SK4
 70
     0
 62
     2
  6
CENTER
370
    25
390
318A
  0
LAYER
  5
13335
102
{ACAD_XDICTIONARY
360
1B307
102
}
330
2
100
AcDbSymbolTableRecord
100
AcDbLayerTableRecord
  2
INFTOTAL
 70
     0
 62
     9
  6
BYBLOCK
370
    18
390
318A
1001
AcAecLayerStandard
1000

1000

  0
LAYER
  5
1686E
102
{ACAD_XDICTIONARY
360
1B309
102
}
330
2
100
AcDbSymbolTableRecord
100
AcDbLayerTableRecord
  2
SK6
 70
     0
 62
     5
  6
BYBLOCK
370
    -3
390
318A
  0
ENDTAB
  0
TABLE
  2
STYLE
  5
3
330
0
100
AcDbSymbolTable
 70
     1
  0
STYLE
  5
11
330
3
100
AcDbSymbolTableRecord
100
AcDbTextStyleTableRecord
  2
STANDARD
 70
     0
 40
3.5
 41
0.8
 50
0.0
 71
     0
 42
3.5
  3
monos.ttf
  4

1001
ACAD
1000
Monospac821 BT
1071
       49
  0
ENDTAB
  0
TABLE
  2
VIEW
  5
6
330
0
100
AcDbSymbolTable
 70
     0
  0
ENDTAB
  0
TABLE
  2
UCS
  5
7
330
0
100
AcDbSymbolTable
 70
     0
  0
ENDTAB
  0
TABLE
  2
APPID
  5
9
330
0
100
AcDbSymbolTable
 70
    14
  0
APPID
  5
23B
330
9
100
AcDbSymbolTableRecord
100
AcDbRegAppTableRecord
  2
ACAD
 70
     0
  0
APPID
  5
3395
330
9
100
AcDbSymbolTableRecord
100
AcDbRegAppTableRecord
  2
ACAD_EXEMPT_FROM_CAD_STANDARDS
 70
     0
  0
APPID
  5
4229
330
9
100
AcDbSymbolTableRecord
100
AcDbRegAppTableRecord
  2
AcAecLayerStandard
 70
     0
  0
APPID
  5
9A1B
330
9
100
AcDbSymbolTableRecord
100
AcDbRegAppTableRecord
  2
ACAD_PSEXT
 70
     0
  0
APPID
  5
1B313
330
9
100
AcDbSymbolTableRecord
100
AcDbRegAppTableRecord
  2
ACAD_NAV_VCDISPLAY
 70
     0
  0
APPID
  5
1B355
330
9
100
AcDbSymbolTableRecord
100
AcDbRegAppTableRecord
  2
ACAD_MLEADERVER
 70
     0
  0
APPID
  5
1EC7F
330
9
100
AcDbSymbolTableRecord
100
AcDbRegAppTableRecord
  2
ACAUTHENVIRON
 70
     0
  0
APPID
  5
1EC82
330
9
100
AcDbSymbolTableRecord
100
AcDbRegAppTableRecord
  2
AcDbDynamicBlockTrueName
 70
     0
  0
APPID
  5
1EC83
330
9
100
AcDbSymbolTableRecord
100
AcDbRegAppTableRecord
  2
AcDbDynamicBlockGUID
 70
     0
  0
APPID
  5
20A85
330
9
100
AcDbSymbolTableRecord
100
AcDbRegAppTableRecord
  2
AcCmTransparency
 70
     0
  0
APPID
  5
20AE2
330
9
100
AcDbSymbolTableRecord
100
AcDbRegAppTableRecord
  2
ACAD_DSTYLE_DIMRADIAL_EXTENSION
 70
     0
  0
APPID
  5
20D45
330
9
100
AcDbSymbolTableRecord
100
AcDbRegAppTableRecord
  2
ACAD_DSTYLE_DIMJAG
 70
     0
  0
APPID
  5
20D46
330
9
100
AcDbSymbolTableRecord
100
AcDbRegAppTableRecord
  2
ACAD_DSTYLE_DIMTALN
 70
     0
  0
APPID
  5
20FFA
330
9
100
AcDbSymbolTableRecord
100
AcDbRegAppTableRecord
  2
AcadAnnoMonitorAlertIconDisabled
 70
     0
  0
ENDTAB
  0
TABLE
  2
DIMSTYLE
  5
A
330
0
100
AcDbSymbolTable
 70
     1
100
AcDbDimStyleTable
 71
     1
340
243
  0
DIMSTYLE
105
243
102
{ACAD_REACTORS
330
20F95
330
20F98
330
20FE2
102
}
330
A
100
AcDbSymbolTableRecord
100
AcDbDimStyleTableRecord
  2
STANDARD
 70
     0
 41
4.57
 47
0.01
 48
0.01
 73
     0
 74
     0
 77
     1
 78
     8
140
3.5
271
     3
272
     3
284
     8
289
     0
340
11
  0
ENDTAB
  0
TABLE
  2
BLOCK_RECORD
  5
1
330
0
100
AcDbSymbolTable
 70
     6
  0
BLOCK_RECORD
  5
1F
102
{ACAD_XDICTIONARY
360
339C
102
}
330
1
100
AcDbSymbolTableRecord
100
AcDbBlockTableRecord
  2
*MODEL_SPACE
340
31A6
  0
BLOCK_RECORD
  5
1B
330
1
100
AcDbSymbolTableRecord
100
AcDbBlockTableRecord
  2
*PAPER_SPACE
340
31A7
  0
BLOCK_RECORD
  5
1B3D7
102
{ACAD_XDICTIONARY
360
1DE81
102
}
330
1
100
AcDbSymbolTableRecord
100
AcDbBlockTableRecord
  2
cero_point
340
0
310
28000000200000002000000001002000000000000010000001000000010000000000000000000000302821FF302821FF302821FF302821FF302821FF302821FF302821FF302821FF302821FF302821FF302821FF302821FF302821FF302821FF302821FF302821FF302821FF302821FF302821FF302821FF302821FF302821
310
FF302821FF302821FF302821FF302821FF302821FF302821FF302821FF302821FF302821FF302821FF302821FF302821FF302821FF302821FF302821FF302821FF302821FF302821FF302821FF302821FF302821FF302821FF302821FF302821FF302821FFFFFF00FFFFFF00FFFFFF00FF302821FF302821FF302821FF3028
310
21FF302821FF302821FF302821FF302821FF302821FF302821FF302821FF302821FF302821FF302821FF302821FF302821FF302821FF302821FF302821FF302821FF302821FF302821FF302821FF302821FFFFFF00FFFFFF00FFFFFF00FFFFFF00FFFFFF00FFFFFF00FFFFFF00FF302821FFFFFF00FFFFFF00FFFFFF00FF30
310
2821FF302821FF302821FF302821FF302821FF302821FF302821FF302821FF302821FF302821FF302821FF302821FF302821FF302821FF302821FF302821FF302821FF302821FF302821FFFFFF00FFFFFF00FFFFFF00FFFFFF00FFFFFF00FFFFFF00FFFFFF00FFFFFF00FFFFFF00FF302821FF302821FF302821FF302821FF
310
FFFF00FFFFFF00FF302821FF302821FF302821FF302821FF302821FF302821FF302821FF302821FF302821FF302821FF302821FF302821FF302821FF302821FF302821FF302821FFFFFF00FFFFFF00FFFFFF00FFFFFF00FFFFFF00FFFFFF00FFFFFF00FFFFFF00FFFFFF00FFFFFF00FF302821FF302821FF302821FF302821
310
FF302821FF302821FFFFFF00FFFFFF00FF302821FF302821FF302821FF302821FF302821FF302821FF302821FF302821FF302821FF302821FF302821FF302821FF302821FFFFFF00FFFFFF00FFFFFF00FFFFFF00FFFFFF00FFFFFF00FFFFFF00FFFFFF00FFFFFF00FFFFFF00FFFFFF00FF302821FF302821FF302821FF3028
310
21FF302821FF302821FF302821FF302821FFFFFF00FF302821FF302821FF302821FF302821FF302821FF302821FF302821FF302821FF302821FF302821FF302821FFFFFF00FFFFFF00FFFFFF00FFFFFF00FFFFFF00FFFFFF00FFFFFF00FFFFFF00FFFFFF00FFFFFF00FFFFFF00FFFFFF00FF302821FF302821FF302821FF30
310
2821FF302821FF302821FF302821FF302821FF302821FFFFFF00FF302821FF302821FF302821FF302821FF302821FF302821FF302821FF302821FF302821FFFFFF00FFFFFF00FFFFFF00FFFFFF00FFFFFF00FFFFFF00FFFFFF00FFFFFF00FFFFFF00FFFFFF00FFFFFF00FFFFFF00FFFFFF00FF302821FF302821FF302821FF
310
302821FF302821FF302821FF302821FF302821FF302821FF302821FFFFFF00FF302821FF302821FF302821FF302821FF302821FF302821FF302821FFFFFF00FFFFFF00FFFFFF00FFFFFF00FFFFFF00FFFFFF00FFFFFF00FFFFFF00FFFFFF00FFFFFF00FFFFFF00FFFFFF00FFFFFF00FFFFFF00FF302821FF302821FF302821
310
FF302821FF302821FF302821FF302821FF302821FF302821FF302821FFFFFF00FF302821FF302821FF302821FF302821FF302821FF302821FF302821FFFFFF00FFFFFF00FFFFFF00FFFFFF00FFFFFF00FFFFFF00FFFFFF00FFFFFF00FFFFFF00FFFFFF00FFFFFF00FFFFFF00FFFFFF00FFFFFF00FF302821FF302821FF3028
310
21FF302821FF302821FF302821FF302821FF302821FF302821FF302821FF302821FFFFFF00FF302821FF302821FF302821FF302821FF302821FFFFFF00FFFFFF00FFFFFF00FFFFFF00FFFFFF00FFFFFF00FFFFFF00FFFFFF00FFFFFF00FFFFFF00FFFFFF00FFFFFF00FFFFFF00FFFFFF00FFFFFF00FF302821FF302821FF30
310
2821FF302821FF302821FF302821FF302821FF302821FF302821FF302821FF302821FF302821FFFFFF00FF302821FF302821FF302821FF302821FFFFFF00FFFFFF00FFFFFF00FFFFFF00FFFFFF00FFFFFF00FFFFFF00FFFFFF00FFFFFF00FFFFFF00FFFFFF00FFFFFF00FFFFFF00FFFFFF00FFFFFF00FF302821FF302821FF
310
302821FF302821FF302821FF302821FF302821FF302821FF302821FF302821FF302821FF302821FFFFFF00FF302821FF302821FF302821FF302821FFFFFF00FFFFFF00FFFFFF00FFFFFF00FFFFFF00FFFFFF00FFFFFF00FFFFFF00FFFFFF00FFFFFF00FFFFFF00FFFFFF00FFFFFF00FFFFFF00FFFFFF00FF302821FF302821
310
FF302821FF302821FF302821FF302821FF302821FF302821FF302821FF302821FF302821FF302821FFFFFF00FF302821FF302821FF302821FF302821FFFFFF00FFFFFF00FFFFFF00FFFFFF00FFFFFF00FFFFFF00FFFFFF00FFFFFF00FFFFFF00FFFFFF00FFFFFF00FFFFFF00FFFFFF00FFFFFF00FFFFFF00FF302821FF3028
310
21FF302821FF302821FF302821FF302821FF302821FF302821FF302821FF302821FF302821FF302821FFFFFF00FF302821FF302821FF302821FFFFFF00FFFFFF00FFFFFF00FFFFFF00FFFFFF00FFFFFF00FFFFFF00FFFFFF00FFFFFF00FFFFFF00FFFFFF00FFFFFF00FFFFFF00FFFFFF00FFFFFF00FFFFFF00FF302821FF30
310
2821FF302821FF302821FF302821FF302821FF302821FF302821FF302821FF302821FF302821FF302821FF302821FFFFFF00FF302821FF302821FFFFFF00FFFFFF00FFFFFF00FFFFFF00FFFFFF00FFFFFF00FFFFFF00FFFFFF00FFFFFF00FFFFFF00FFFFFF00FFFFFF00FFFFFF00FFFFFF00FFFFFF00FFFFFF00FFFFFF00FF
310
FFFF00FFFFFF00FFFFFF00FFFFFF00FFFFFF00FFFFFF00FFFFFF00FFFFFF00FFFFFF00FFFFFF00FFFFFF00FFFFFF00FFFFFF00FF302821FF302821FFFFFF00FF302821FF302821FF302821FF302821FF302821FF302821FF302821FF302821FF302821FF302821FF302821FF302821FF302821FF302821FFFFFF00FFFFFF00
310
FFFFFF00FFFFFF00FFFFFF00FFFFFF00FFFFFF00FFFFFF00FFFFFF00FFFFFF00FFFFFF00FFFFFF00FFFFFF00FFFFFF00FFFFFF00FF302821FF302821FFFFFF00FF302821FF302821FF302821FF302821FF302821FF302821FF302821FF302821FF302821FF302821FF302821FF302821FF302821FF302821FFFFFF00FFFFFF
310
00FFFFFF00FFFFFF00FFFFFF00FFFFFF00FFFFFF00FFFFFF00FFFFFF00FFFFFF00FFFFFF00FFFFFF00FFFFFF00FFFFFF00FF302821FF302821FF302821FF302821FFFFFF00FF302821FF302821FF302821FF302821FF302821FF302821FF302821FF302821FF302821FF302821FF302821FF302821FF302821FFFFFF00FFFF
310
FF00FFFFFF00FFFFFF00FFFFFF00FFFFFF00FFFFFF00FFFFFF00FFFFFF00FFFFFF00FFFFFF00FFFFFF00FFFFFF00FFFFFF00FF302821FF302821FF302821FF302821FFFFFF00FF302821FF302821FF302821FF302821FF302821FF302821FF302821FF302821FF302821FF302821FF302821FF302821FF302821FFFFFF00FF
310
FFFF00FFFFFF00FFFFFF00FFFFFF00FFFFFF00FFFFFF00FFFFFF00FFFFFF00FFFFFF00FFFFFF00FFFFFF00FFFFFF00FFFFFF00FF302821FF302821FF302821FF302821FFFFFF00FF302821FF302821FF302821FF302821FF302821FF302821FF302821FF302821FF302821FF302821FF302821FF302821FF302821FFFFFF00
310
FFFFFF00FFFFFF00FFFFFF00FFFFFF00FFFFFF00FFFFFF00FFFFFF00FFFFFF00FFFFFF00FFFFFF00FFFFFF00FFFFFF00FFFFFF00FF302821FF302821FF302821FF302821FF302821FFFFFF00FF302821FF302821FF302821FF302821FF302821FF302821FF302821FF302821FF302821FF302821FF302821FF302821FFFFFF
310
00FFFFFF00FFFFFF00FFFFFF00FFFFFF00FFFFFF00FFFFFF00FFFFFF00FFFFFF00FFFFFF00FFFFFF00FFFFFF00FFFFFF00FFFFFF00FF302821FF302821FF302821FF302821FF302821FFFFFF00FF302821FF302821FF302821FF302821FF302821FF302821FF302821FF302821FF302821FF302821FF302821FF302821FFFF
310
FF00FFFFFF00FFFFFF00FFFFFF00FFFFFF00FFFFFF00FFFFFF00FFFFFF00FFFFFF00FFFFFF00FFFFFF00FFFFFF00FFFFFF00FF302821FF302821FF302821FF302821FF302821FF302821FF302821FFFFFF00FF302821FF302821FF302821FF302821FF302821FF302821FF302821FF302821FF302821FF302821FF302821FF
310
FFFF00FFFFFF00FFFFFF00FFFFFF00FFFFFF00FFFFFF00FFFFFF00FFFFFF00FFFFFF00FFFFFF00FFFFFF00FFFFFF00FFFFFF00FF302821FF302821FF302821FF302821FF302821FF302821FF302821FFFFFF00FF302821FF302821FF302821FF302821FF302821FF302821FF302821FF302821FF302821FF302821FF302821
310
FFFFFF00FFFFFF00FFFFFF00FFFFFF00FFFFFF00FFFFFF00FFFFFF00FFFFFF00FFFFFF00FFFFFF00FFFFFF00FFFFFF00FF302821FF302821FF302821FF302821FF302821FF302821FF302821FF302821FF302821FFFFFF00FF302821FF302821FF302821FF302821FF302821FF302821FF302821FF302821FF302821FF3028
310
21FFFFFF00FFFFFF00FFFFFF00FFFFFF00FFFFFF00FFFFFF00FFFFFF00FFFFFF00FFFFFF00FFFFFF00FFFFFF00FF302821FF302821FF302821FF302821FF302821FF302821FF302821FF302821FF302821FF302821FF302821FFFFFF00FF302821FF302821FF302821FF302821FF302821FF302821FF302821FF302821FF30
310
2821FFFFFF00FFFFFF00FFFFFF00FFFFFF00FFFFFF00FFFFFF00FFFFFF00FFFFFF00FFFFFF00FFFFFF00FF302821FF302821FF302821FF302821FF302821FF302821FF302821FF302821FF302821FF302821FF302821FF302821FF302821FFFFFF00FF302821FF302821FF302821FF302821FF302821FF302821FF302821FF
310
302821FFFFFF00FFFFFF00FFFFFF00FFFFFF00FFFFFF00FFFFFF00FFFFFF00FFFFFF00FFFFFF00FF302821FF302821FF302821FF302821FF302821FF302821FF302821FF302821FF302821FF302821FF302821FF302821FF302821FF302821FF302821FFFFFF00FFFFFF00FF302821FF302821FF302821FF302821FF302821
310
FF302821FFFFFF00FFFFFF00FFFFFF00FFFFFF00FFFFFF00FFFFFF00FFFFFF00FFFFFF00FF302821FF302821FF302821FF302821FF302821FF302821FF302821FF302821FF302821FF302821FF302821FF302821FF302821FF302821FF302821FF302821FF302821FF302821FFFFFF00FFFFFF00FFFFFF00FFFFFF00FFFFFF
310
00FF302821FFFFFF00FFFFFF00FFFFFF00FFFFFF00FFFFFF00FFFFFF00FF302821FF302821FF302821FF302821FF302821FF302821FF302821FF302821FF302821FF302821FF302821FF302821FF302821FF302821FF302821FF302821FF302821FF302821FF302821FF302821FF302821FF302821FF302821FF302821FF30
310
2821FFFFFF00FFFFFF00FFFFFF00FF302821FF302821FF302821FF302821FF302821FF302821FF302821FF302821FF302821FF302821FF302821FF302821FF302821FF302821FF302821FF302821FF302821FF302821FF302821FF302821FF302821FF302821FF302821FF302821FF302821FF302821FF302821FF302821FF
310
302821FF302821FF302821FF302821FF302821FF302821FF302821FF302821FF302821FF302821FF302821FF302821FF302821FF302821FF302821FF302821FF302821FF302821FF
102
{BLKREFS
331
20F9B
102
}
  0
BLOCK_RECORD
  5
20D11
330
1
100
AcDbSymbolTableRecord
100
AcDbBlockTableRecord
  2
CUT
340
0
310
2800000020000000200000000100080000000000000400000000000000000000000000000000000000000000000080000080000000808000800000008000800080800000C0C0C000C0DCC000F0CAA6000020400000206000002080000020A0000020C0000020E00000400000004020000040400000406000004080000040A0
310
000040C0000040E00000600000006020000060400000606000006080000060A0000060C0000060E00000800000008020000080400000806000008080000080A0000080C0000080E00000A0000000A0200000A0400000A0600000A0800000A0A00000A0C00000A0E00000C0000000C0200000C0400000C0600000C0800000C0
310
A00000C0C00000C0E00000E0000000E0200000E0400000E0600000E0800000E0A00000E0C00000E0E00040000000400020004000400040006000400080004000A0004000C0004000E00040200000402020004020400040206000402080004020A0004020C0004020E000404000004040200040404000404060004040800040
310
40A0004040C0004040E00040600000406020004060400040606000406080004060A0004060C0004060E00040800000408020004080400040806000408080004080A0004080C0004080E00040A0000040A0200040A0400040A0600040A0800040A0A00040A0C00040A0E00040C0000040C0200040C0400040C0600040C08000
310
40C0A00040C0C00040C0E00040E0000040E0200040E0400040E0600040E0800040E0A00040E0C00040E0E00080000000800020008000400080006000800080008000A0008000C0008000E00080200000802020008020400080206000802080008020A0008020C0008020E00080400000804020008040400080406000804080
310
008040A0008040C0008040E00080600000806020008060400080606000806080008060A0008060C0008060E00080800000808020008080400080806000808080008080A0008080C0008080E00080A0000080A0200080A0400080A0600080A0800080A0A00080A0C00080A0E00080C0000080C0200080C0400080C0600080C0
310
800080C0A00080C0C00080C0E00080E0000080E0200080E0400080E0600080E0800080E0A00080E0C00080E0E000C0000000C0002000C0004000C0006000C0008000C000A000C000C000C000E000C0200000C0202000C0204000C0206000C0208000C020A000C020C000C020E000C0400000C0402000C0404000C0406000C0
310
408000C040A000C040C000C040E000C0600000C0602000C0604000C0606000C0608000C060A000C060C000C060E000C0800000C0802000C0804000C0806000C0808000C080A000C080C000C080E000C0A00000C0A02000C0A04000C0A06000C0A08000C0A0A000C0A0C000C0A0E000C0C00000C0C02000C0C04000C0C06000
310
C0C08000C0C0A000F0FBFF00A4A0A000808080000000FF0000FF000000FFFF00FF000000FF00FF00FFFF0000FFFFFF00000000000000000000000000000000000000000000000000000000000000000000000000000000000000F9F9F9F9F9F9F9F9F9F900000000000000000000000000000000000000000000F900000000
310
00000000F900000000000000000000000000000000000000000000F9000000000000000000F9000000000000000000000000000000000000000000F9000000000000000000F9000000000000000000000000000000000000000000F9000000000000000000F9000000000000000000000000000000000000000000F9000000
310
000000000000F9000000000000000000000000000000000000000000F9000000000000000000F9000000000000000000000000000000000000000000F9000000000000000000F9000000000000000000000000000000000000000000F9000000000000000000F9000000000000000000000000000000000000000000F90000
310
00000000000000F9000000000000000000000000000000000000000000F900000000000000000000F90000000000000000000000000000000000000000F900000000000000000000F90000000000000000000000000000000000000000F900000000000000000000F90000000000000000000000000000000000000000F900
310
000000000000000000F90000000000000000000000000000000000000000F900000000000000000000F90000000000000000000000000000000000000000F900000000000000000000F90000000000000000000000000000000000000000F900000000000000000000F90000000000000000000000000000000000000000F9
310
00000000000000000000F90000000000000000000000000000000000000000F900000000000000000000F90000000000000000000000000000000000000000F900000000000000000000F90000000000000000000000000000000000000000F900000000000000000000F90000000000000000000000000000000000000000
310
F900000000000000000000F90000000000000000000000000000000000000000F900000000000000000000F90000000000000000000000000000000000000000F900000000000000000000F90000000000000000000000000000000000000000F900000000000000000000F900000000000000000000000000000000000000
310
00F900000000000000000000F90000000000000000000000000000000000000000F900000000000000000000F90000000000000000000000000000000000000000F900000000000000000000F90000000000000000000000000000000000000000F900000000000000000000F9000000000000000000000000000000000000
310
000000F9F9F9F9F9F9F9F9F9F900000000000000000000000000000000000000000000000000000000000000000000000000000000000000
102
{BLKREFS
331
20F92
102
}
1001
ACAD
1000
DesignCenter Data
1002
{
1070
     1
1070
     4
1002
}
  0
BLOCK_RECORD
  5
20D1E
330
1
100
AcDbSymbolTableRecord
100
AcDbBlockTableRecord
  2
NOCUT
340
0
310
2800000020000000200000000100080000000000000400000000000000000000000000000000000000000000000080000080000000808000800000008000800080800000C0C0C000C0DCC000F0CAA6000020400000206000002080000020A0000020C0000020E00000400000004020000040400000406000004080000040A0
310
000040C0000040E00000600000006020000060400000606000006080000060A0000060C0000060E00000800000008020000080400000806000008080000080A0000080C0000080E00000A0000000A0200000A0400000A0600000A0800000A0A00000A0C00000A0E00000C0000000C0200000C0400000C0600000C0800000C0
310
A00000C0C00000C0E00000E0000000E0200000E0400000E0600000E0800000E0A00000E0C00000E0E00040000000400020004000400040006000400080004000A0004000C0004000E00040200000402020004020400040206000402080004020A0004020C0004020E000404000004040200040404000404060004040800040
310
40A0004040C0004040E00040600000406020004060400040606000406080004060A0004060C0004060E00040800000408020004080400040806000408080004080A0004080C0004080E00040A0000040A0200040A0400040A0600040A0800040A0A00040A0C00040A0E00040C0000040C0200040C0400040C0600040C08000
310
40C0A00040C0C00040C0E00040E0000040E0200040E0400040E0600040E0800040E0A00040E0C00040E0E00080000000800020008000400080006000800080008000A0008000C0008000E00080200000802020008020400080206000802080008020A0008020C0008020E00080400000804020008040400080406000804080
310
008040A0008040C0008040E00080600000806020008060400080606000806080008060A0008060C0008060E00080800000808020008080400080806000808080008080A0008080C0008080E00080A0000080A0200080A0400080A0600080A0800080A0A00080A0C00080A0E00080C0000080C0200080C0400080C0600080C0
310
800080C0A00080C0C00080C0E00080E0000080E0200080E0400080E0600080E0800080E0A00080E0C00080E0E000C0000000C0002000C0004000C0006000C0008000C000A000C000C000C000E000C0200000C0202000C0204000C0206000C0208000C020A000C020C000C020E000C0400000C0402000C0404000C0406000C0
310
408000C040A000C040C000C040E000C0600000C0602000C0604000C0606000C0608000C060A000C060C000C060E000C0800000C0802000C0804000C0806000C0808000C080A000C080C000C080E000C0A00000C0A02000C0A04000C0A06000C0A08000C0A0A000C0A0C000C0A0E000C0C00000C0C02000C0C04000C0C06000
310
C0C08000C0C0A000F0FBFF00A4A0A000808080000000FF0000FF000000FFFF00FF000000FF00FF00FFFF0000FFFFFF00000000000000000000000000000000000000000000000000000000000000000000000000000000000000FFFFFFFFFFFFFFFFFF0000000000000000000000000000000000000000000000FF00000000
310
000000FF0000000000000000000000000000000000000000000000FF00000000000000FF0000000000000000000000000000000000000000000000FF00000000000000FF0000000000000000000000000000000000000000000000FF00000000000000FF0000000000000000000000000000000000000000000000FF000000
310
00000000FF0000000000000000000000000000000000000000000000FF00000000000000FF0000000000000000000000000000000000000000000000FF00000000000000FF0000000000000000000000000000000000000000000000FF0000000000000000FF00000000000000000000000000000000000000000000FF0000
310
000000000000FF00000000000000000000000000000000000000000000FF0000000000000000FF00000000000000000000000000000000000000000000FF0000000000000000FF00000000000000000000000000000000000000000000FF0000000000000000FF00000000000000000000000000000000000000000000FF00
310
00000000000000FF00000000000000000000000000000000000000000000FF0000000000000000FF00000000000000000000000000000000000000000000FF0000000000000000FF00000000000000000000000000000000000000000000FF0000000000000000FF00000000000000000000000000000000000000000000FF
310
0000000000000000FF00000000000000000000000000000000000000000000FF0000000000000000FF00000000000000000000000000000000000000000000FF0000000000000000FF00000000000000000000000000000000000000000000FF000000000000000000FF000000000000000000000000000000000000000000
310
FF000000000000000000FF000000000000000000000000000000000000000000FF000000000000000000FF000000000000000000000000000000000000000000FF000000000000000000FF000000000000000000000000000000000000000000FF000000000000000000FF0000000000000000000000000000000000000000
310
00FF00000000000000000000FF000000000000000000000000000000000000000000FF000000000000000000FF00000000000000000000000000000000000000000000FFFFFF000000000000FF000000000000000000000000000000000000000000000000FF000000000000FF000000000000000000000000000000000000
310
000000000000FFFFFFFFFFFFFFFF000000000000000000000000000000000000000000000000000000000000000000000000000000000000
102
{BLKREFS
331
20F94
102
}
1001
ACAD
1000
DesignCenter Data
1002
{
1070
     1
1070
     4
1002
}
  0
BLOCK_RECORD
  5
20FA1
330
1
100
AcDbSymbolTableRecord
100
AcDbBlockTableRecord
  2
*D3
340
0
  0
BLOCK_RECORD
  5
20FAE
330
1
100
AcDbSymbolTableRecord
100
AcDbBlockTableRecord
  2
*D4
340
0
  0
BLOCK_RECORD
  5
20FE3
330
1
100
AcDbSymbolTableRecord
100
AcDbBlockTableRecord
  2
*D5
340
0
  0
ENDTAB
  0
ENDSEC
  0
SECTION
  2
BLOCKS
  0
BLOCK
  5
20
330
1F
100
AcDbEntity
  8
0
100
AcDbBlockBegin
  2
*MODEL_SPACE
 70
     0
 10
0.0
 20
0.0
 30
0.0
  3
*MODEL_SPACE
  1

  0
ENDBLK
  5
21
330
1F
100
AcDbEntity
  8
0
100
AcDbBlockEnd
  0
BLOCK
  5
1C
330
1B
100
AcDbEntity
 67
     1
  8
0
100
AcDbBlockBegin
  2
*PAPER_SPACE
 70
     0
 10
0.0
 20
0.0
 30
0.0
  3
*PAPER_SPACE
  1

  0
ENDBLK
  5
1D
330
1B
100
AcDbEntity
 67
     1
  8
0
100
AcDbBlockEnd
  0
BLOCK
  5
1B3D8
330
1B3D7
100
AcDbEntity
  8
0
100
AcDbBlockBegin
  2
cero_point
 70
     0
 10
0.0
 20
0.0
 30
0.0
  3
cero_point
  1

  0
HATCH
  5
1B3DA
330
1B3D7
100
AcDbEntity
  8
1
  6
ByBlock
370
    50
100
AcDbHatch
 10
0.0
 20
0.0
 30
0.0
210
0.0
220
0.0
230
1.0
  2
SOLID
 70
     1
 71
     0
 91
        2
 92
        7
 72
     1
 73
     1
 93
        3
 10
-0.0000000000001137
 20
0.0
 42
0.0
 10
-2.950972054112752
 20
0.0
 42
0.4142135623730968
 10
-0.0000000000001137
 20
-2.950972054112583
 42
0.0
 97
        0
 92
        7
 72
     1
 73
     1
 93
        3
 10
-0.0000000000001137
 20
2.950972054112638
 42
0.0
 10
-0.0000000000001137
 20
0.0
 42
0.0
 10
2.950972054112526
 20
0.0
 42
0.4142135623730966
 97
        0
 75
     0
 76
     1
 47
0.1190009775223266
 98
        2
 10
-0.7445530588121301
 20
-0.9212244733764125
 10
1.279464601852737
 20
1.696796923046345
  0
LWPOLYLINE
  5
1B3DB
330
1B3D7
100
AcDbEntity
  8
1
  6
ByBlock
370
    50
100
AcDbPolyline
 90
        3
 70
     1
 43
0.0
 10
-0.0000000000001137
 20
0.0
 10
2.950972054112526
 20
0.0
 42
0.4142135623730966
 10
-0.0000000000001137
 20
2.950972054112638
  0
LINE
  5
1B3DC
330
1B3D7
100
AcDbEntity
  8
1
  6
ByBlock
370
    50
100
AcDbLine
 10
-0.0000000000001137
 20
-2.950972054112583
 30
0.0
 11
-0.0000000000001137
 21
2.950972054112638
 31
0.0
  0
LWPOLYLINE
  5
1B3DD
330
1B3D7
100
AcDbEntity
  8
1
  6
ByBlock
370
    50
100
AcDbPolyline
 90
        3
 70
     1
 43
0.0
 10
-0.0000000000001137
 20
-2.950972054112583
 10
-0.0000000000001137
 20
0.0
 10
-2.950972054112752
 20
0.0
 42
0.4142135623730966
  0
LINE
  5
1B3DE
330
1B3D7
100
AcDbEntity
  8
1
  6
ByBlock
370
    50
100
AcDbLine
 10
2.950972054112638
 20
0.0
 30
0.0
 11
-2.950972054112638
 21
0.0
 31
0.0
  0
CIRCLE
  5
1B3DF
330
1B3D7
100
AcDbEntity
  8
1
  6
ByBlock
370
    50
100
AcDbCircle
 10
-0.0000000000001137
 20
0.0
 30
0.0
 40
2.950972054112601
  0
ENDBLK
  5
1B3D9
330
1B3D7
100
AcDbEntity
  8
0
100
AcDbBlockEnd
  0
BLOCK
  5
20D12
330
20D11
100
AcDbEntity
  8
0
100
AcDbBlockBegin
  2
CUT
 70
     0
 10
0.0
 20
0.0
 30
0.0
  3
CUT
  1

  0
LINE
  5
20D13
330
20D11
100
AcDbEntity
  8
CUT
100
AcDbLine
 10
84.66620068135496
 20
426.1270898643748
 30
0.0
 11
84.767175681355
 21
426.6997488643748
 31
0.0
  0
LINE
  5
20D14
330
20D11
100
AcDbEntity
  8
CUT
100
AcDbLine
 10
84.66620068135496
 20
426.1270898643748
 30
0.0
 11
84.66128368135498
 21
426.0992048643748
 31
0.0
  0
LINE
  5
20D15
330
20D11
100
AcDbEntity
  8
CUT
100
AcDbLine
 10
84.58573314473959
 20
425.6707354218277
 30
0.0
 11
84.66128368135498
 21
426.0992048643748
 31
0.0
  0
LINE
  5
20D16
330
20D11
100
AcDbEntity
  8
CUT
100
AcDbLine
 10
84.767175681355
 20
426.6997488643748
 30
0.0
 11
84.866707681355
 21
427.2642188643748
 31
0.0
  0
LINE
  5
20D17
330
20D11
100
AcDbEntity
  8
CUT
100
AcDbLine
 10
84.866707681355
 20
427.2642188643748
 30
0.0
 11
84.866707681355
 21
429.3700878643748
 31
0.0
  0
ARC
  5
20D18
330
20D11
100
AcDbEntity
  8
CUT
100
AcDbCircle
 10
84.76649368135499
 20
429.3702088643748
 30
0.0
 40
0.100206
100
AcDbArc
 50
359.9309399999989
 51
89.87789799999969
  0
LINE
  5
20D19
330
20D11
100
AcDbEntity
  8
CUT
100
AcDbLine
 10
83.46670768135497
 20
429.4703748643748
 30
0.0
 11
84.76670768135498
 21
429.4703748643748
 31
0.0
  0
ARC
  5
20D1A
330
20D11
100
AcDbEntity
  8
CUT
100
AcDbCircle
 10
83.46692068135498
 20
429.3702088643748
 30
0.0
 40
0.100206
100
AcDbArc
 50
90.12210200000032
 51
180.0690600000011
  0
LINE
  5
20D1B
330
20D11
100
AcDbEntity
  8
CUT
100
AcDbLine
 10
83.36670768135498
 20
425.6707354218276
 30
0.0
 11
83.36670768135498
 21
429.3700878643748
 31
0.0
  0
LINE
  5
20D1C
330
20D11
100
AcDbEntity
  8
CUT
100
AcDbLine
 10
83.36670768135498
 20
425.6707354218276
 30
0.0
 11
84.58573314473957
 21
425.6707354218276
 31
0.0
  0
ENDBLK
  5
20D1D
330
20D11
100
AcDbEntity
  8
0
100
AcDbBlockEnd
  0
BLOCK
  5
20D1F
330
20D1E
100
AcDbEntity
  8
0
100
AcDbBlockBegin
  2
NOCUT
 70
     0
 10
0.0
 20
0.0
 30
0.0
  3
NOCUT
  1

  0
LINE
  5
20D20
330
20D1E
100
AcDbEntity
  8
NOCUT
100
AcDbLine
 10
83.95591954607587
 20
417.8295802840516
 30
0.0
 11
82.49754584390847
 21
417.8295802840516
 31
0.0
  0
LINE
  5
20D21
330
20D1E
100
AcDbEntity
  8
NOCUT
100
AcDbLine
 10
82.49754584390847
 20
422.2386092840515
 30
0.0
 11
82.49754584390847
 21
417.8295802840516
 31
0.0
  0
LINE
  5
20D22
330
20D1E
100
AcDbEntity
  8
NOCUT
100
AcDbLine
 10
82.85754584390849
 20
422.6311128415043
 30
0.0
 11
82.85754584390849
 21
422.5346292840517
 31
0.0
  0
LINE
  5
20D23
330
20D1E
100
AcDbEntity
  8
NOCUT
100
AcDbLine
 10
82.85754584390849
 20
422.6311128415043
 30
0.0
 11
83.05754584390848
 21
422.6311128415043
 31
0.0
  0
LINE
  5
20D24
330
20D1E
100
AcDbEntity
  8
NOCUT
100
AcDbLine
 10
84.51588384390849
 20
422.5346292840517
 30
0.0
 11
84.5765714414928
 21
422.8788066025908
 31
0.0
  0
LINE
  5
20D25
330
20D1E
100
AcDbEntity
  8
NOCUT
100
AcDbLine
 10
84.51588384390849
 20
422.5346292840517
 30
0.0
 11
84.41480084390848
 21
421.9613612840515
 31
0.0
  0
LINE
  5
20D26
330
20D1E
100
AcDbEntity
  8
NOCUT
100
AcDbLine
 10
84.17195284390848
 20
420.5841012840515
 30
0.0
 11
84.41480084390848
 21
421.9613612840515
 31
0.0
  0
ARC
  5
20D27
330
20D1E
100
AcDbEntity
  8
NOCUT
100
AcDbCircle
 10
82.57254684390849
 20
422.0001172840516
 30
0.0
 40
0.250008
100
AcDbArc
 50
90.00026700000018
 51
107.4573360000002
  0
ARC
  5
20D28
330
20D1E
100
AcDbEntity
  8
NOCUT
100
AcDbCircle
 10
82.57254584390848
 20
422.5351242840515
 30
0.0
 40
0.285
100
AcDbArc
 50
270.0
 51
0.0
  0
LWPOLYLINE
  5
20D29
330
20D1E
100
AcDbEntity
  8
NOCUT
100
AcDbPolyline
 90
        5
 70
     0
 43
0.0
 10
83.05754698312773
 20
422.6311136025906
 10
83.1500739831277
 20
422.6437176025907
 10
83.2317339831277
 20
422.6788336025907
 10
83.32198598312769
 20
422.7644886025906
 10
83.35754698312772
 20
422.8788066025908
  0
LINE
  5
20D2A
330
20D1E
100
AcDbEntity
  8
NOCUT
100
AcDbLine
 10
83.35754698312772
 20
422.8788066025908
 30
0.0
 11
84.57657144149278
 21
422.8788066025908
 31
0.0
  0
LINE
  5
20D2B
330
20D1E
100
AcDbEntity
  8
NOCUT
100
AcDbLine
 10
83.95591954607587
 20
417.8295802840516
 30
0.0
 11
84.17195284390848
 21
420.5841012840515
 31
0.0
  0
ENDBLK
  5
20D2C
330
20D1E
100
AcDbEntity
  8
0
100
AcDbBlockEnd
  0
BLOCK
  5
20FA2
330
20FA1
100
AcDbEntity
  8
0
100
AcDbBlockBegin
  2
*D3
 70
     1
 10
0.0
 20
0.0
 30
0.0
  3
*D3
  1

  0
LINE
  5
21078
330
20FA1
100
AcDbEntity
  8
2
 62
     0
370
    -2
100
AcDbLine
 10
2.35999200000009
 20
8.811198999999987
 30
0.0
 11
2.359992000000091
 21
21.39494109599176
 31
0.0
  0
LINE
  5
21079
330
20FA1
100
AcDbEntity
  8
2
 62
     0
370
    -2
100
AcDbLine
 10
0.860007072790097
 20
8.811078219294259
 30
0.0
 11
0.8600070727900977
 21
21.39494109599176
 31
0.0
  0
LINE
  5
2107A
330
20FA1
100
AcDbEntity
  8
2
 62
     0
370
    -2
100
AcDbLine
 10
6.929992000000091
 20
21.21494109599176
 30
0.0
 11
11.49999200000009
 21
21.21494109599176
 31
0.0
  0
LINE
  5
2107B
330
20FA1
100
AcDbEntity
  8
2
 62
     0
370
    -2
100
AcDbLine
 10
-3.709992927209902
 20
21.21494109599176
 30
0.0
 11
-14.98873502137727
 21
21.21494109599176
 31
0.0
  0
LINE
  5
2107C
330
20FA1
100
AcDbEntity
  8
2
 62
     0
370
    -2
100
AcDbLine
 10
2.359992000000091
 20
21.21494109599176
 30
0.0
 11
0.8600070727900977
 21
21.21494109599176
 31
0.0
  0
SOLID
  5
2107D
330
20FA1
100
AcDbEntity
  8
2
 62
     0
100
AcDbTrace
 10
6.929992000000091
 20
21.97660776265843
 30
0.0
 11
6.929992000000091
 21
20.4532744293251
 31
0.0
 12
2.359992000000091
 22
21.21494109599176
 32
0.0
 13
2.359992000000091
 23
21.21494109599176
 33
0.0
  0
SOLID
  5
2107E
330
20FA1
100
AcDbEntity
  8
2
 62
     0
100
AcDbTrace
 10
-3.709992927209902
 20
21.97660776265843
 30
0.0
 11
-3.709992927209902
 21
20.4532744293251
 31
0.0
 12
0.8600070727900977
 22
21.21494109599176
 32
0.0
 13
0.8600070727900977
 23
21.21494109599176
 33
0.0
  0
MTEXT
  5
2107F
330
20FA1
100
AcDbEntity
  8
2
 62
     0
100
AcDbMText
 10
-11.63436397429365
 20
23.11643090625178
 30
0.0
 40
3.5
 41
0.0
 71
     5
 72
     1
  1
\A1;1.5
 73
     1
 44
1.0
1001
ACAD
1000
MTEXTBEGIN
1070
    73
1070
     1
1070
    44
1040
1.0
1070
    74
1070
     0
1000
MTEXTEND
  0
POINT
  5
21080
330
20FA1
100
AcDbEntity
  8
Defpoints
 62
     0
100
AcDbPoint
 10
2.35999200000009
 20
8.748698999999987
 30
0.0
  0
POINT
  5
21081
330
20FA1
100
AcDbEntity
  8
Defpoints
 62
     0
100
AcDbPoint
 10
0.860007072790097
 20
8.748578219294259
 30
0.0
  0
POINT
  5
21082
330
20FA1
100
AcDbEntity
  8
Defpoints
 62
     0
100
AcDbPoint
 10
0.8600070727900977
 20
21.21494109599176
 30
0.0
  0
ENDBLK
  5
20FA3
330
20FA1
100
AcDbEntity
  8
0
100
AcDbBlockEnd
  0
BLOCK
  5
20FAF
330
20FAE
100
AcDbEntity
  8
0
100
AcDbBlockBegin
  2
*D4
 70
     1
 10
0.0
 20
0.0
 30
0.0
  3
*D4
  1

  0
LINE
  5
21083
330
20FAE
100
AcDbEntity
  8
2
 62
     0
370
    -2
100
AcDbLine
 10
6.331773610744658
 20
11.0355616938191
 30
0.0
 11
17.85911982634614
 21
17.50941685723788
 31
0.0
  0
SOLID
  5
21084
330
20FAE
100
AcDbEntity
  8
2
 62
     0
100
AcDbTrace
 10
5.958807817560066
 20
11.69966456854959
 30
0.0
 11
6.704739403929252
 21
10.37145881908861
 31
0.0
 12
2.34715636236173
 22
8.797766934711544
 32
0.0
 13
2.34715636236173
 23
8.797766934711544
 33
0.0
  0
MTEXT
  5
21085
330
20FAE
100
AcDbEntity
  8
2
 62
     0
100
AcDbMText
 10
13.15665163772673
 20
17.0493098707467
 30
0.0
 40
3.5
 41
0.0
 71
     5
 72
     1
  1
\A1;R0.1
 11
0.8719074941756954
 21
0.4896706256252866
 31
0.0
 73
     1
 44
1.0
1001
ACAD
1000
MTEXTBEGIN
1070
    73
1070
     1
1070
    44
1040
1.0
1070
    74
1070
     0
1000
MTEXTEND
  0
LINE
  5
21086
330
20FAE
100
AcDbEntity
  8
2
 62
     0
370
    -2
100
AcDbLine
 10
2.169786000000091
 20
8.748698999999986
 30
0.0
 11
2.34978600000009
 21
8.748698999999984
 31
0.0
  0
LINE
  5
21087
330
20FAE
100
AcDbEntity
  8
2
 62
     0
370
    -2
100
AcDbLine
 10
2.25978600000009
 20
8.658698999999984
 30
0.0
 11
2.259786000000091
 21
8.838698999999985
 31
0.0
  0
POINT
  5
21088
330
20FAE
100
AcDbEntity
  8
Defpoints
 62
     0
100
AcDbPoint
 10
2.34715636236173
 20
8.797766934711544
 30
0.0
  0
POINT
  5
21089
330
20FAE
100
AcDbEntity
  8
Defpoints
 62
     0
100
AcDbPoint
 10
2.259786000000091
 20
8.748698999999986
 30
0.0
  0
ENDBLK
  5
20FB0
330
20FAE
100
AcDbEntity
  8
0
100
AcDbBlockEnd
  0
BLOCK
  5
20FE4
330
20FE3
100
AcDbEntity
  8
0
100
AcDbBlockBegin
  2
*D5
 70
     1
 10
0.0
 20
0.0
 30
0.0
  3
*D5
  1

  0
LINE
  5
2106F
330
20FE3
100
AcDbEntity
  8
0
 62
     0
370
    -2
100
AcDbLine
 10
3.013472054112639
 20
8.849999999999994
 30
0.0
 11
12.87806908994849
 21
8.84999999999999
 31
0.0
  0
LINE
  5
21070
330
20FE3
100
AcDbEntity
  8
0
 62
     0
370
    -2
100
AcDbLine
 10
3.013472054112639
 20
-8.850000000000022
 30
0.0
 11
12.87806908994849
 21
-8.850000000000026
 31
0.0
  0
LINE
  5
21071
330
20FE3
100
AcDbEntity
  8
0
 62
     0
370
    -2
100
AcDbLine
 10
12.69806908994849
 20
4.279999999999991
 30
0.0
 11
12.69806908994849
 21
-4.280000000000025
 31
0.0
  0
SOLID
  5
21072
330
20FE3
100
AcDbEntity
  8
0
 62
     0
100
AcDbTrace
 10
11.93640242328182
 20
4.279999999999991
 30
0.0
 11
13.45973575661516
 21
4.279999999999991
 31
0.0
 12
12.69806908994849
 22
8.84999999999999
 32
0.0
 13
12.69806908994849
 23
8.84999999999999
 33
0.0
  0
SOLID
  5
21073
330
20FE3
100
AcDbEntity
  8
0
 62
     0
100
AcDbTrace
 10
11.93640242328182
 20
-4.280000000000025
 30
0.0
 11
13.45973575661515
 21
-4.280000000000025
 31
0.0
 12
12.69806908994849
 22
-8.850000000000026
 32
0.0
 13
12.69806908994849
 23
-8.850000000000026
 33
0.0
  0
MTEXT
  5
21074
330
20FE3
100
AcDbEntity
  8
0
 62
     0
100
AcDbMText
 10
10.74492783907006
 20
-0.0000000000000147
 30
0.0
 40
3.5
 41
0.0
 71
     5
 72
     1
  1
\A1;%%C17.7
 11
0.0000000000000001
 21
1.0
 31
0.0
 73
     1
 44
1.0
1001
ACAD
1000
MTEXTBEGIN
1070
    73
1070
     1
1070
    44
1040
1.0
1070
    74
1070
     0
1000
MTEXTEND
  0
POINT
  5
21075
330
20FE3
100
AcDbEntity
  8
Defpoints
 62
     0
100
AcDbPoint
 10
2.950972054112639
 20
8.849999999999994
 30
0.0
  0
POINT
  5
21076
330
20FE3
100
AcDbEntity
  8
Defpoints
 62
     0
100
AcDbPoint
 10
2.950972054112639
 20
-8.850000000000022
 30
0.0
  0
POINT
  5
21077
330
20FE3
100
AcDbEntity
  8
Defpoints
 62
     0
100
AcDbPoint
 10
12.69806908994849
 20
-8.850000000000026
 30
0.0
  0
ENDBLK
  5
20FE5
330
20FE3
100
AcDbEntity
  8
0
100
AcDbBlockEnd
  0
ENDSEC
  0
SECTION
  2
ENTITIES
  0
LINE
  5
20E78
330
1F
100
AcDbEntity
  8
4
100
AcDbLine
 10
2.584699705999696
 20
0.0
 30
0.0
 11
-0.7568214281506016
 21
0.0
 31
0.0
  0
LINE
  5
20E79
330
1F
100
AcDbEntity
  8
SK4
100
AcDbLine
 10
0.3600000000000136
 20
0.0
 30
0.0
 11
-7.152066192228744
 21
0.0
 31
0.0
  0
LINE
  5
20E7A
330
1F
100
AcDbEntity
  8
1
100
AcDbLine
 10
0.0750000000000455
 20
-4.42054400000002
 30
0.0
 11
0.0750000000000455
 21
-3.775083000000023
 31
0.0
  0
LINE
  5
20E7B
330
1F
100
AcDbEntity
  8
1
100
AcDbLine
 10
0.0
 20
-3.765248999999911
 30
0.0
 11
0.0
 21
-4.409028999999904
 31
0.0
  0
LINE
  5
20E7C
330
1F
100
AcDbEntity
  8
1
100
AcDbLine
 10
0.0750000000000455
 20
-3.775083000000023
 30
0.0
 11
0.0750000000000455
 21
4.420544000000035
 31
0.0
  0
LINE
  5
20E7D
330
1F
100
AcDbEntity
  8
1
100
AcDbLine
 10
0.0
 20
4.409028999999975
 30
0.0
 11
0.0
 21
-3.765248999999911
 31
0.0
  0
LINE
  5
20E7E
330
1F
100
AcDbEntity
  8
1
100
AcDbLine
 10
0.3600000000000136
 20
-4.132615999999899
 30
0.0
 11
0.3600000000000136
 21
-5.054416999999901
 31
0.0
  0
LINE
  5
20E7F
330
1F
100
AcDbEntity
  8
1
100
AcDbLine
 10
0.3600000000000136
 20
-4.132615999999899
 30
0.0
 11
0.3600000000000136
 21
-3.03957800000002
 31
0.0
  0
LINE
  5
20E80
330
1F
100
AcDbEntity
  8
1
100
AcDbLine
 10
0.3600000000000136
 20
-2.725497000000018
 30
0.0
 11
0.3600000000000136
 21
-3.03957800000002
 31
0.0
  0
LINE
  5
20E81
330
1F
100
AcDbEntity
  8
1
100
AcDbLine
 10
0.3600000000000136
 20
-2.725685999999996
 30
0.0
 11
0.3600000000000136
 21
-2.605710999999956
 31
0.0
  0
LINE
  5
20E82
330
1F
100
AcDbEntity
  8
1
100
AcDbLine
 10
0.3600000000000136
 20
-2.605710999999956
 30
0.0
 11
0.3600000000000136
 21
-2.427662999999995
 31
0.0
  0
LINE
  5
20E83
330
1F
100
AcDbEntity
  8
1
100
AcDbLine
 10
0.3600000000000136
 20
-2.427617999999966
 30
0.0
 11
0.3600000000000136
 21
2.438955000000035
 31
0.0
  0
LINE
  5
20E84
330
1F
100
AcDbEntity
  8
1
100
AcDbLine
 10
0.3600000000000136
 20
4.131781000000003
 30
0.0
 11
0.3600000000000136
 21
2.438955000000035
 31
0.0
  0
LINE
  5
20E85
330
1F
100
AcDbEntity
  8
1
100
AcDbLine
 10
0.3600000000000136
 20
4.131781000000003
 30
0.0
 11
0.3600000000000136
 21
4.705048999999974
 31
0.0
  0
LINE
  5
20E86
330
1F
100
AcDbEntity
  8
1
100
AcDbLine
 10
0.3600000000000136
 20
4.801532557452787
 30
0.0
 11
0.3600000000000136
 21
4.705048999999974
 31
0.0
  0
LINE
  5
20E87
330
1F
100
AcDbEntity
  8
SK1
100
AcDbLine
 10
-0.1895329999999831
 20
-1.690634999999957
 30
0.0
 11
-0.1895329999999831
 21
3.38127100000004
 31
0.0
  0
LINE
  5
20E88
330
1F
100
AcDbEntity
  8
SK1
100
AcDbLine
 10
-0.1895329999999831
 20
-3.381271000000026
 30
0.0
 11
-0.1895329999999831
 21
-1.690634999999957
 31
0.0
  0
LINE
  5
20E89
330
1F
100
AcDbEntity
  8
1
100
AcDbLine
 10
0.3600000000000136
 20
4.801532557452787
 30
0.0
 11
0.5600000000000592
 21
4.801532557452787
 31
0.0
  0
LINE
  5
20E8A
330
1F
100
AcDbEntity
  8
1
100
AcDbLine
 10
2.159493000000111
 20
5.505580000000037
 30
0.0
 11
0.8600000000000136
 21
5.505579999999966
 31
0.0
  0
LINE
  5
20E8B
330
1F
100
AcDbEntity
  8
1
100
AcDbLine
 10
2.159493000000111
 20
5.505580000000037
 30
0.0
 11
2.260468000000173
 21
6.078238999999996
 31
0.0
  0
LINE
  5
20E8C
330
1F
100
AcDbEntity
  8
1
100
AcDbLine
 10
2.260468000000173
 20
6.078238999999996
 30
0.0
 11
0.8600000000000136
 21
6.078239000000053
 31
0.0
  0
LINE
  5
20E8D
330
1F
100
AcDbEntity
  8
1
100
AcDbLine
 10
0.8600000000000136
 20
5.477694999999982
 30
0.0
 11
2.154573000000254
 21
5.477694999999982
 31
0.0
  0
LINE
  5
20E8E
330
1F
100
AcDbEntity
  8
1
100
AcDbLine
 10
2.159493000000111
 20
5.505580000000037
 30
0.0
 11
2.15457600000002
 21
5.477694999999982
 31
0.0
  0
LINE
  5
20E8F
330
1F
100
AcDbEntity
  8
1
100
AcDbLine
 10
0.3600000000000136
 20
4.705048999999974
 30
0.0
 11
2.018338000000085
 21
4.705048999999974
 31
0.0
  0
LINE
  5
20E90
330
1F
100
AcDbEntity
  8
1
100
AcDbLine
 10
2.018338000000085
 20
4.705048999999974
 30
0.0
 11
2.15457600000002
 21
5.477694999999982
 31
0.0
  0
LINE
  5
20E91
330
1F
100
AcDbEntity
  8
1
100
AcDbLine
 10
2.018338000000085
 20
4.705048999999974
 30
0.0
 11
1.917255000000068
 21
4.131781000000003
 31
0.0
  0
LINE
  5
20E92
330
1F
100
AcDbEntity
  8
1
100
AcDbLine
 10
0.3600000000000136
 20
4.131781000000003
 30
0.0
 11
1.917255000000068
 21
4.131781000000003
 31
0.0
  0
LINE
  5
20E93
330
1F
100
AcDbEntity
  8
1
100
AcDbLine
 10
0.8600000000000136
 20
1.925094999999998
 30
0.0
 11
1.966820000000097
 21
1.925094999999998
 31
0.0
  0
LINE
  5
20E94
330
1F
100
AcDbEntity
  8
1
100
AcDbLine
 10
1.674407000000087
 20
2.754521000000039
 30
0.0
 11
1.966820000000097
 21
1.925094999999998
 31
0.0
  0
LINE
  5
20E95
330
1F
100
AcDbEntity
  8
1
100
AcDbLine
 10
1.674407000000087
 20
2.754521000000039
 30
0.0
 11
1.917255000000068
 21
4.131781000000003
 31
0.0
  0
LINE
  5
20E96
330
1F
100
AcDbEntity
  8
1
100
AcDbLine
 10
0.3600000000000136
 20
2.438955000000035
 30
0.0
 11
0.5600000000000592
 21
2.438955000000035
 31
0.0
  0
LWPOLYLINE
  5
20E97
330
1F
100
AcDbEntity
  8
1
100
AcDbPolyline
 90
        5
 70
     0
 43
0.0
 10
0.5600000000000592
 20
2.438955000000035
 10
0.65252699999985
 20
2.426342999999974
 10
0.7341870000000199
 20
2.391207000000036
 10
0.8244390000000976
 20
2.305498999999997
 10
0.8600000000000136
 20
2.191111999999975
  0
LINE
  5
20E98
330
1F
100
AcDbEntity
  8
1
100
AcDbLine
 10
0.8600000000000136
 20
2.191111999999975
 30
0.0
 11
0.8600000000000136
 21
1.925094999999998
 31
0.0
  0
LWPOLYLINE
  5
20E99
330
1F
100
AcDbEntity
  8
1
100
AcDbPolyline
 90
        5
 70
     0
 43
0.0
 10
0.5600000000000592
 20
-2.427617999999966
 10
0.6966609999999492
 20
-2.434255000000021
 10
0.757543999999939
 20
-2.445529000000021
 10
0.8133910000000241
 20
-2.469754000000023
 10
0.8567990000000236
 20
-2.532809999999969
  0
LINE
  5
20E9A
330
1F
100
AcDbEntity
  8
1
100
AcDbLine
 10
0.3600000000000136
 20
-2.427617999999966
 30
0.0
 11
0.5600000000000592
 21
-2.427617999999966
 31
0.0
  0
LINE
  5
20E9B
330
1F
100
AcDbEntity
  8
1
100
AcDbLine
 10
0.859998000000246
 20
-2.605710999999956
 30
0.0
 11
0.3600000000000136
 21
-2.605710999999956
 31
0.0
  0
LINE
  5
20E9C
330
1F
100
AcDbEntity
  8
1
100
AcDbLine
 10
0.3600000000000136
 20
-2.725685999999996
 30
0.0
 11
0.859998000000246
 21
-2.725685999999996
 31
0.0
  0
LINE
  5
20E9D
330
1F
100
AcDbEntity
  8
1
100
AcDbLine
 10
0.3600000000000136
 20
-3.03957800000002
 30
0.0
 11
0.859998000000246
 21
-3.03957800000002
 31
0.0
  0
LINE
  5
20E9E
330
1F
100
AcDbEntity
  8
1
100
AcDbLine
 10
0.3600000000000136
 20
-4.132615999999899
 30
0.0
 11
0.859998000000246
 21
-4.132615999999899
 31
0.0
  0
LINE
  5
20E9F
330
1F
100
AcDbEntity
  8
1
100
AcDbLine
 10
0.8600000000000136
 20
-6.337853999999907
 30
0.0
 11
1.966785999999956
 21
-6.337853999999907
 31
0.0
  0
LINE
  5
20EA0
330
1F
100
AcDbEntity
  8
1
100
AcDbLine
 10
1.674405000000092
 20
-5.509024000000025
 30
0.0
 11
1.966785999999956
 21
-6.337853999999907
 31
0.0
  0
LINE
  5
20EA1
330
1F
100
AcDbEntity
  8
1
100
AcDbLine
 10
1.674405000000092
 20
-5.509024000000025
 30
0.0
 11
1.887422000000015
 21
-4.301690000000021
 31
0.0
  0
LINE
  5
20EA2
330
1F
100
AcDbEntity
  8
1
100
AcDbLine
 10
0.3600000000000136
 20
-5.054416999999901
 30
0.0
 11
0.5600000000000592
 21
-5.054416999999901
 31
0.0
  0
LWPOLYLINE
  5
20EA3
330
1F
100
AcDbEntity
  8
1
100
AcDbPolyline
 90
        5
 70
     0
 43
0.0
 10
0.5600000000000592
 20
-5.054416999999901
 10
0.65252699999985
 20
-5.067021000000025
 10
0.7341870000000199
 20
-5.102137000000013
 10
0.8244390000000976
 20
-5.187791999999902
 10
0.8600000000000136
 20
-5.302110000000013
  0
LINE
  5
20EA4
330
1F
100
AcDbEntity
  8
1
100
AcDbLine
 10
0.8600000000000136
 20
-5.302110000000013
 30
0.0
 11
0.8600000000000136
 21
-6.337853999999907
 31
0.0
  0
LINE
  5
20EA5
330
1F
100
AcDbEntity
  8
SK1
100
AcDbLine
 10
-1.359999999999899
 20
3.31992900000003
 30
0.0
 11
-1.359999999999899
 21
-1.659964999999999
 31
0.0
  0
LINE
  5
20EA6
330
1F
100
AcDbEntity
  8
SK1
100
AcDbLine
 10
-1.359999999999899
 20
-1.659964999999999
 30
0.0
 11
-1.359999999999899
 21
-3.319928999999902
 31
0.0
  0
LINE
  5
20EA7
330
1F
100
AcDbEntity
  8
1
100
AcDbLine
 10
2.260468000000173
 20
6.078238999999996
 30
0.0
 11
2.360000000000013
 21
6.642709000000039
 31
0.0
  0
LINE
  5
20EA8
330
1F
100
AcDbEntity
  8
1
100
AcDbLine
 10
2.360000000000013
 20
6.642709000000039
 30
0.0
 11
2.360000000000013
 21
8.748578000000023
 31
0.0
  0
ARC
  5
20EA9
330
1F
100
AcDbEntity
  8
1
100
AcDbCircle
 10
2.259785999999849
 20
8.748699000000002
 30
0.0
 40
0.100206
100
AcDbArc
 50
359.9309399999989
 51
89.87789800000294
  0
LINE
  5
20EAA
330
1F
100
AcDbEntity
  8
1
100
AcDbLine
 10
0.9600000000000363
 20
8.848865000000003
 30
0.0
 11
2.260000000000104
 21
8.848865000000003
 31
0.0
  0
ARC
  5
20EAB
330
1F
100
AcDbEntity
  8
1
100
AcDbCircle
 10
0.9602129999999533
 20
8.748699000000002
 30
0.0
 40
0.100206
100
AcDbArc
 50
90.12210200000358
 51
180.0690600000011
  0
LINE
  5
20EAC
330
1F
100
AcDbEntity
  8
1
100
AcDbLine
 10
0.8600000000000136
 20
5.049225557452828
 30
0.0
 11
0.8600000000000136
 21
8.748578000000023
 31
0.0
  0
LINE
  5
20EAD
330
1F
100
AcDbEntity
  8
1
100
AcDbLine
 10
0.8600000000000136
 20
-3.002591999999907
 30
0.0
 11
0.8600000000000136
 21
1.925094999999998
 31
0.0
  0
ARC
  5
20EAE
330
1F
100
AcDbEntity
  8
1
100
AcDbCircle
 10
-3.765557000000057
 20
-0.0603009999999671
 30
0.0
 40
6.066575
100
AcDbArc
 50
14.73736300000048
 51
19.10341499999692
  0
LINE
  5
20EAF
330
1F
100
AcDbEntity
  8
1
100
AcDbLine
 10
2.101551000000085
 20
1.482996000000042
 30
0.0
 11
2.098602000000255
 21
1.482996000000042
 31
0.0
  0
LWPOLYLINE
  5
20EB0
330
1F
100
AcDbEntity
  8
1
100
AcDbPolyline
 90
        6
 70
     0
 43
0.0
 10
2.098602000000255
 20
1.482996000000042
 10
2.006536999999866
 20
1.47305799999998
 10
1.923163000000045
 20
1.443111999999985
 10
1.860664000000156
 20
1.397011000000034
 10
1.822163000000045
 20
1.337463000000042
 10
1.81121900000005
 20
1.274981000000053
  0
LWPOLYLINE
  5
20EB1
330
1F
100
AcDbEntity
  8
1
100
AcDbPolyline
 90
       10
 70
     0
 43
0.0
 10
1.81121900000005
 20
1.274980000000041
 10
1.82194400000003
 20
0.904855999999981
 10
1.840712999999936
 20
0.4980829999999941
 10
1.867267000000083
 20
0.0602610000000397
 10
1.901242000000024
 20
-0.4025849999999594
 10
1.942168000000265
 20
-0.8840829999999613
 10
1.989483999999947
 20
-1.377605000000016
 10
2.042537000000038
 20
-1.876355999999958
 10
2.100597000000107
 20
-2.373472999999961
 10
2.16286500000001
 20
-2.862111000000027
  0
LINE
  5
20EB2
330
1F
100
AcDbEntity
  8
1
100
AcDbLine
 10
2.180928000000108
 20
-3.002591999999907
 30
0.0
 11
2.16286500000001
 21
-2.862104999999957
 31
0.0
  0
LINE
  5
20EB3
330
1F
100
AcDbEntity
  8
1
100
AcDbLine
 10
0.8600000000000136
 20
-3.002591999999907
 30
0.0
 11
2.180928000000108
 21
-3.002591999999907
 31
0.0
  0
LINE
  5
20EB4
330
1F
100
AcDbEntity
  8
1
100
AcDbLine
 10
2.101551000000085
 20
1.482996000000042
 30
0.0
 11
2.102308000000107
 21
1.457125000000033
 31
0.0
  0
LWPOLYLINE
  5
20EB5
330
1F
100
AcDbEntity
  8
1
100
AcDbPolyline
 90
        5
 70
     0
 43
0.0
 10
2.242908000000056
 20
-1.738534000000015
 10
2.233757000000082
 20
-1.633653999999964
 10
2.210822000000007
 20
-1.278323999999969
 10
2.183381000000053
 20
-0.7369990000000258
 10
2.102309000000104
 20
1.457125000000033
  0
LINE
  5
20EB6
330
1F
100
AcDbEntity
  8
1
100
AcDbLine
 10
2.360000000000013
 20
-2.893191999999999
 30
0.0
 11
2.242908000000056
 21
-1.738534000000015
 31
0.0
  0
LWPOLYLINE
  5
20EB7
330
1F
100
AcDbEntity
  8
1
100
AcDbPolyline
 90
        3
 70
     0
 43
0.0
 10
2.263359000000036
 20
-4.301675999999901
 10
2.330934999999954
 20
-4.282800000000023
 10
2.360000000000013
 20
-4.237666999999902
  0
LINE
  5
20EB8
330
1F
100
AcDbEntity
  8
1
100
AcDbLine
 10
2.260000000000104
 20
-4.301694999999909
 30
0.0
 11
2.263359000000036
 21
-4.301675999999901
 31
0.0
  0
LINE
  5
20EB9
330
1F
100
AcDbEntity
  8
1
100
AcDbLine
 10
0.9600000000000363
 20
-4.3019239999999
 30
0.0
 11
2.260000000000104
 21
-4.3019239999999
 31
0.0
  0
LWPOLYLINE
  5
20EBA
330
1F
100
AcDbEntity
  8
1
100
AcDbPolyline
 90
        3
 70
     0
 43
0.0
 10
0.9600000000000363
 20
-4.301694999999909
 10
0.8890640000000757
 20
-4.282800000000023
 10
0.8600000000000136
 20
-4.237666999999902
  0
LINE
  5
20EBB
330
1F
100
AcDbEntity
  8
1
100
AcDbLine
 10
0.8567990000000236
 20
-2.532809999999969
 30
0.0
 11
0.8600000000000136
 21
-2.56127600000002
 31
0.0
  0
LINE
  5
20EBC
330
1F
100
AcDbEntity
  8
1
100
AcDbLine
 10
2.360000000000013
 20
-2.893191999999999
 30
0.0
 11
2.360000000000013
 21
-4.238257999999902
 31
0.0
  0
LINE
  5
20EBD
330
1F
100
AcDbEntity
  8
1
100
AcDbLine
 10
0.8600000000000136
 20
-6.907204999999905
 30
0.0
 11
0.8600000000000136
 21
-6.337853999999907
 31
0.0
  0
LINE
  5
20EBE
330
1F
100
AcDbEntity
  8
1
100
AcDbLine
 10
2.360000000000013
 20
-6.905462999999912
 30
0.0
 11
2.341542000000004
 21
-6.907203999999907
 31
0.0
  0
LWPOLYLINE
  5
20EBF
330
1F
100
AcDbEntity
  8
1
100
AcDbPolyline
 90
       10
 70
     0
 43
0.0
 10
1.966785999999956
 20
-6.337853000000023
 10
2.010365999999862
 20
-6.455168000000014
 10
2.053798000000028
 20
-6.559633000000019
 10
2.096936000000255
 20
-6.650895000000019
 10
2.139632000000005
 20
-6.728648000000021
 10
2.181745000000091
 20
-6.79262699999991
 10
2.223130000000082
 20
-6.842617000000018
 10
2.2636490000001
 20
-6.878448999999903
 10
2.303164000000037
 20
-6.900003000000026
 10
2.341542000000004
 20
-6.907203999999907
  0
LINE
  5
20EC0
330
1F
100
AcDbEntity
  8
1
100
AcDbLine
 10
2.360000000000013
 20
-3.749517000000025
 30
0.0
 11
2.360000000000013
 21
-6.905462999999912
 31
0.0
  0
LINE
  5
20EC1
330
1F
100
AcDbEntity
  8
1
100
AcDbLine
 10
0.8600000000000136
 20
-3.16563600000002
 30
0.0
 11
0.8600000000000136
 21
-3.002591999999907
 31
0.0
  0
LINE
  5
20EC2
330
1F
100
AcDbEntity
  8
1
100
AcDbLine
 10
0.8610250000000405
 20
-3.182622999999907
 30
0.0
 11
0.8600000000000136
 21
-3.16563600000002
 31
0.0
  0
LINE
  5
20EC3
330
1F
100
AcDbEntity
  8
1
100
AcDbLine
 10
0.8610250000000405
 20
-3.182225000000016
 30
0.0
 11
2.102995000000078
 21
-3.182225000000016
 31
0.0
  0
LWPOLYLINE
  5
20EC4
330
1F
100
AcDbEntity
  8
1
100
AcDbPolyline
 90
        6
 70
     0
 43
0.0
 10
2.180928000000108
 20
-3.002591999999907
 10
2.185906000000159
 20
-3.077941999999907
 10
2.181567000000086
 20
-3.115649000000018
 10
2.162674000000038
 20
-3.155821000000017
 10
2.124981000000161
 20
-3.17941500000002
 10
2.102995000000078
 20
-3.182225000000016
  0
LINE
  5
20EC5
330
1F
100
AcDbEntity
  8
1
100
AcDbLine
 10
2.360000000000013
 20
-4.238257999999902
 30
0.0
 11
2.16286500000001
 21
-2.862104999999957
 31
0.0
  0
LINE
  5
20EC6
330
1F
100
AcDbEntity
  8
1
100
AcDbLine
 10
2.263360000000034
 20
-4.301694999999909
 30
0.0
 11
2.102995000000078
 21
-3.182225000000016
 31
0.0
  0
LWPOLYLINE
  5
20EC7
330
1F
100
AcDbEntity
  8
1
100
AcDbPolyline
 90
        5
 70
     0
 43
0.0
 10
2.359996000000023
 20
-4.238227999999907
 10
2.357668000000103
 20
-4.249784999999903
 10
2.341245000000071
 20
-4.270236999999909
 10
2.319082000000094
 20
-4.283640999999903
 10
2.263307000000054
 20
-4.301328000000026
  0
LINE
  5
20EC8
330
1F
100
AcDbEntity
  8
1
100
AcDbLine
 10
1.81121900000005
 20
1.274980000000041
 30
0.0
 11
2.242908000000056
 21
-1.738534000000015
 31
0.0
  0
LINE
  5
20EC9
330
1F
100
AcDbEntity
  8
1
100
AcDbLine
 10
2.098602000000255
 20
1.482996000000042
 30
0.0
 11
2.102308000000107
 21
1.457125000000033
 31
0.0
  0
LINE
  5
20ECA
330
1F
100
AcDbEntity
  8
SK1
100
AcDbLine
 10
-1.46000000000015
 20
-1.58999999999996
 30
0.0
 11
-1.46000000000015
 21
3.180000000000035
 31
0.0
  0
LINE
  5
20ECB
330
1F
100
AcDbEntity
  8
SK1
100
AcDbLine
 10
-1.46000000000015
 20
-3.180000000000021
 30
0.0
 11
-1.46000000000015
 21
-1.58999999999996
 31
0.0
  0
LWPOLYLINE
  5
20ECC
330
1F
100
AcDbEntity
  8
1
100
AcDbPolyline
 90
        5
 70
     0
 43
0.0
 10
0.9600000000000363
 20
-4.301694999999909
 10
0.9154660000000376
 20
-4.229302000000018
 10
0.8861260000001038
 20
-4.057606000000021
 10
0.8663390000001527
 20
-3.721140999999903
 10
0.8609749999999394
 20
-3.182225000000016
  0
LINE
  5
20ECD
330
1F
100
AcDbEntity
  8
SK1
100
AcDbLine
 10
-1.484129999999936
 20
-1.583398999999957
 30
0.0
 11
-1.483518999999887
 21
-1.58999999999996
 31
0.0
  0
LWPOLYLINE
  5
20ECE
330
1F
100
AcDbEntity
  8
SK1
100
AcDbPolyline
 90
        8
 70
     0
 43
0.0
 10
-1.484254999999961
 20
-1.583306999999962
 10
-1.603090999999949
 20
-0.0512019999999609
 10
-1.721788999999944
 20
1.487850999999977
 10
-1.803026999999929
 20
2.349326000000033
 10
-1.847626999999988
 20
2.710341000000042
 10
-1.894923999999946
 20
2.987463999999974
 10
-1.946696999999971
 20
3.153122999999993
 10
-1.960452999999915
 20
3.17182500000004
  0
ARC
  5
20ECF
330
1F
100
AcDbEntity
  8
SK1
100
AcDbCircle
 10
-1.979090999999925
 20
3.155306999999993
 30
0.0
 40
0.024823
100
AcDbArc
 50
41.55023300000413
 51
85.99772500000215
  0
LINE
  5
20ED0
330
1F
100
AcDbEntity
  8
SK1
100
AcDbLine
 10
-1.977362999999741
 20
3.180000000000035
 30
0.0
 11
-1.987453999999956
 21
3.177080999999972
 31
0.0
  0
LINE
  5
20ED1
330
1F
100
AcDbEntity
  8
SK1
100
AcDbLine
 10
-2.717080999999893
 20
-3.180000000000021
 30
0.0
 11
-2.727085999999985
 21
-3.17712799999991
 31
0.0
  0
LWPOLYLINE
  5
20ED2
330
1F
100
AcDbEntity
  8
SK1
100
AcDbPolyline
 90
        7
 70
     0
 43
0.0
 10
-2.727085999999985
 20
-3.177128999999908
 10
-2.739115999999967
 20
-3.166092999999904
 10
-2.762985999999841
 20
-3.119825999999903
 10
-2.786436999999978
 20
-3.043245000000027
 10
-2.831544999999891
 20
-2.812245000000018
 10
-2.878420999999889
 20
-2.46340600000002
 10
-2.963662999999996
 20
-1.58999999999996
  0
LINE
  5
20ED3
330
1F
100
AcDbEntity
  8
SK1
100
AcDbLine
 10
-2.440185999999926
 20
-1.58999999999996
 30
0.0
 11
-2.435157999999887
 21
-1.64761900000002
 31
0.0
  0
LWPOLYLINE
  5
20ED4
330
1F
100
AcDbEntity
  8
SK1
100
AcDbPolyline
 90
        3
 70
     0
 43
0.0
 10
-2.318049999999971
 20
-2.156474000000002
 10
-2.379477000000065
 20
-1.908439999999956
 10
-2.435127999999735
 20
-1.647715000000019
  0
ARC
  5
20ED5
330
1F
100
AcDbEntity
  8
SK1
100
AcDbCircle
 10
0.8407290000000102
 20
-1.519289000000014
 30
0.0
 40
3.222301999999998
100
AcDbArc
 50
191.4045810000001
 51
198.1252980000006
  0
ARC
  5
20ED6
330
1F
100
AcDbEntity
  8
SK1
100
AcDbCircle
 10
-1.933387999999922
 20
-2.427374999999969
 30
0.0
 40
0.303243
100
AcDbArc
 50
198.1237090000012
 51
208.7703480000001
  0
ARC
  5
20ED7
330
1F
100
AcDbEntity
  8
SK1
100
AcDbCircle
 10
-2.005440999999905
 20
-2.476163999999968
 30
0.0
 40
0.216276
100
AcDbArc
 50
206.6323049999966
 51
269.1789079999992
  0
LINE
  5
20ED8
330
1F
100
AcDbEntity
  8
SK1
100
AcDbLine
 10
-1.683721999999988
 20
-2.690566999999958
 30
0.0
 11
-2.008535999999935
 21
-2.692094999999966
 31
0.0
  0
LWPOLYLINE
  5
20ED9
330
1F
100
AcDbEntity
  8
SK1
100
AcDbPolyline
 90
        4
 70
     0
 43
0.0
 10
-1.683721999999988
 20
-2.690566999999958
 10
-1.593584999999961
 20
-2.665798999999964
 10
-1.532793999999967
 20
-2.59552600000002
 10
-1.515782999999942
 20
-2.537755999999959
  0
LINE
  5
20EDA
330
1F
100
AcDbEntity
  8
SK1
100
AcDbLine
 10
-1.515782999999942
 20
-2.537755999999959
 30
0.0
 11
-1.513319999999907
 21
-2.517901999999963
 31
0.0
  0
LINE
  5
20EDB
330
1F
100
AcDbEntity
  8
SK1
100
AcDbLine
 10
-1.502977999999984
 20
-2.372258999999957
 30
0.0
 11
-1.513319999999907
 21
-2.517901999999963
 31
0.0
  0
ARC
  5
20EDC
330
1F
100
AcDbEntity
  8
SK1
100
AcDbCircle
 10
-5.792883999999958
 20
-2.165655000000015
 30
0.0
 40
4.294895999999997
100
AcDbArc
 50
357.2427369999994
 51
0.1885599999990079
  0
LWPOLYLINE
  5
20EDD
330
1F
100
AcDbEntity
  8
SK1
100
AcDbPolyline
 90
        4
 70
     0
 43
0.0
 10
-1.483518999999887
 20
-1.58999999999996
 10
-1.478549999999927
 20
-1.687096999999965
 10
-1.484902000000147
 20
-1.877681999999964
 10
-1.497995999999943
 20
-2.151570000000006
  0
LWPOLYLINE
  5
20EDE
330
1F
100
AcDbEntity
  8
SK1
100
AcDbPolyline
 90
       10
 70
     0
 43
0.0
 10
-1.552544999999895
 20
-1.544975000000022
 10
-1.548397999999906
 20
-1.550600999999957
 10
-1.543282999999973
 20
-1.555968000000007
 10
-1.537233999999898
 20
-1.561036999999956
 10
-1.530295000000137
 20
-1.565772999999964
 10
-1.522513999999887
 20
-1.570142999999958
 10
-1.513944999999921
 20
-1.574116999999958
 10
-1.504646999999977
 20
-1.577667000000019
 10
-1.494685999999887
 20
-1.580767999999963
 10
-1.484131999999931
 20
-1.583398999999957
  0
LWPOLYLINE
  5
20EDF
330
1F
100
AcDbEntity
  8
SK1
100
AcDbPolyline
 90
       10
 70
     0
 43
0.0
 10
-1.497995000000059
 20
-2.151570000000006
 10
-1.504054999999993
 20
-2.083699000000024
 10
-1.510114999999927
 20
-2.015944999999959
 10
-1.516175999999973
 20
-1.948307999999997
 10
-1.522236999999904
 20
-1.880787999999995
 10
-1.528298000000063
 20
-1.813385999999965
 10
-1.534358999999994
 20
-1.746103000000005
 10
-1.540421000000151
 20
-1.678940000000025
 10
-1.546482999999966
 20
-1.611896999999999
 10
-1.552544999999895
 20
-1.544974000000024
  0
LWPOLYLINE
  5
20EE0
330
1F
100
AcDbEntity
  8
SK1
100
AcDbPolyline
 90
        9
 70
     0
 43
0.0
 10
-1.552541999999903
 20
-1.544913000000008
 10
-1.694184999999833
 20
0.2425779999999804
 10
-1.788900999999896
 20
1.430352000000041
 10
-1.838753999999994
 20
1.974919000000042
 10
-1.901194999999916
 20
2.530104000000036
 10
-1.934331000000042
 20
2.754847999999981
 10
-1.986255999999912
 20
2.996084999999993
 10
-2.014275999999995
 20
3.066463000000041
 10
-2.028414999999995
 20
3.085614000000035
  0
LWPOLYLINE
  5
20EE1
330
1F
100
AcDbEntity
  8
SK1
100
AcDbPolyline
 90
        6
 70
     0
 43
0.0
 10
-2.028414999999995
 20
3.085614000000035
 10
-2.039528000000132
 20
3.092889000000042
 10
-2.053436999999917
 20
3.092314999999985
 10
-2.058998999999744
 20
3.089070999999975
 10
-2.070105999999896
 20
3.077445000000039
 10
-2.103136999999833
 20
3.002615999999974
  0
LWPOLYLINE
  5
20EE2
330
1F
100
AcDbEntity
  8
SK1
100
AcDbPolyline
 90
        4
 70
     0
 43
0.0
 10
-2.84306400000014
 20
-3.002539000000027
 10
-2.885480999999913
 20
-2.820410999999964
 10
-2.964861999999925
 20
-2.241299000000026
 10
-3.089462000000139
 20
-0.8586189999999618
  0
LINE
  5
20EE3
330
1F
100
AcDbEntity
  8
SK1
100
AcDbLine
 10
-2.963662999999996
 20
-1.58999999999996
 30
0.0
 11
-3.021188999999935
 21
-0.8774179999999631
 31
0.0
  0
LWPOLYLINE
  5
20EE4
330
1F
100
AcDbEntity
  8
SK1
100
AcDbPolyline
 90
       10
 70
     0
 43
0.0
 10
-3.021188999999935
 20
-0.8774179999999631
 10
-3.151005999999938
 20
0.8523769999999757
 10
-3.218598999999926
 20
1.684828999999979
 10
-3.291526999999973
 20
2.426781000000033
 10
-3.33086199999991
 20
2.734807000000003
 10
-3.390011999999842
 20
3.052442999999982
 10
-3.42112899999995
 20
3.143344000000041
 10
-3.436977999999839
 20
3.168608000000034
 10
-3.444946999999842
 20
3.175894000000042
 10
-3.456908999999996
 20
3.180000000000035
  0
LINE
  5
20EE5
330
1F
100
AcDbEntity
  8
SK1
100
AcDbLine
 10
-3.456909999999993
 20
3.180000000000035
 30
0.0
 11
-3.466863999999986
 21
3.177152999999975
 31
0.0
  0
LINE
  5
20EE6
330
1F
100
AcDbEntity
  8
SK1
100
AcDbLine
 10
-2.933112000000051
 20
3.180000000000035
 30
0.0
 11
-2.922889000000054
 21
3.177008999999998
 31
0.0
  0
LINE
  5
20EE7
330
1F
100
AcDbEntity
  8
SK1
100
AcDbLine
 10
-2.922889000000054
 20
3.177008999999998
 30
0.0
 11
-2.910687999999936
 21
3.165605000000041
 31
0.0
  0
LWPOLYLINE
  5
20EE8
330
1F
100
AcDbEntity
  8
SK1
100
AcDbPolyline
 90
        9
 70
     0
 43
0.0
 10
-2.910687999999936
 20
3.165605000000041
 10
-2.896182999999837
 20
3.140994999999975
 10
-2.867593999999826
 20
3.057723000000038
 10
-2.839792999999986
 20
2.933540000000036
 10
-2.787165999999956
 20
2.588318000000043
 10
-2.68730000000005
 20
1.59759500000004
 10
-2.626581999999984
 20
0.8422479999999836
 10
-2.509164999999939
 20
-0.7285309999999612
 10
-2.440185999999926
 20
-1.58999999999996
  0
LWPOLYLINE
  5
20EE9
330
1F
100
AcDbEntity
  8
SK1
100
AcDbPolyline
 90
       10
 70
     0
 43
0.0
 10
-2.43512499999997
 20
-1.647715000000019
 10
-2.42478600000004
 20
-1.643658000000016
 10
-2.415031999999996
 20
-1.639227000000019
 10
-2.405927999999903
 20
-1.634449000000017
 10
-2.39753799999994
 20
-1.629359000000022
 10
-2.389917999999966
 20
-1.623989999999963
 10
-2.383118999999965
 20
-1.618380000000001
 10
-2.377188000000046
 20
-1.612565000000017
 10
-2.372163999999997
 20
-1.606584999999967
 10
-2.368082999999955
 20
-1.600480999999959
  0
LWPOLYLINE
  5
20EEA
330
1F
100
AcDbEntity
  8
SK1
100
AcDbPolyline
 90
        6
 70
     0
 43
0.0
 10
-2.368058000000132
 20
-1.600367000000019
 10
-2.535557999999923
 20
0.5160670000000352
 10
-2.628093999999919
 20
1.644967000000036
 10
-2.677423999999973
 20
2.15412900000004
 10
-2.762457999999924
 20
2.800170999999977
 10
-2.808443999999894
 20
3.002461999999979
  0
LWPOLYLINE
  5
20EEB
330
1F
100
AcDbEntity
  8
SK1
100
AcDbPolyline
 90
       10
 70
     0
 43
0.0
 10
-2.318049999999971
 20
-2.156474000000002
 10
-2.323607999999921
 20
-2.094298999999963
 10
-2.329166999999984
 20
-2.032223999999956
 10
-2.334725999999932
 20
-1.97024599999996
 10
-2.340284999999994
 20
-1.908366999999998
 10
-2.345844000000056
 20
-1.846588999999966
 10
-2.351403999999888
 20
-1.784910000000024
 10
-2.356963000000064
 20
-1.723332000000013
 10
-2.362522999999896
 20
-1.661856
 10
-2.368082999999955
 20
-1.600480999999959
  0
LWPOLYLINE
  5
20EEC
330
1F
100
AcDbEntity
  8
SK1
100
AcDbPolyline
 90
       10
 70
     0
 43
0.0
 10
-2.221579999999903
 20
-2.521703000000002
 10
-2.231673999999998
 20
-2.407517999999967
 10
-2.241769999999974
 20
-2.293645000000026
 10
-2.251867999999831
 20
-2.180085000000019
 10
-2.26196799999991
 20
-2.066843000000019
 10
-2.272068999999987
 20
-1.953919999999968
 10
-2.282171999999945
 20
-1.841320999999965
 10
-2.292274999999904
 20
-1.729046999999965
 10
-2.302377999999976
 20
-1.617102999999957
 10
-2.312481999999931
 20
-1.505489999999994
  0
LINE
  5
20EED
330
1F
100
AcDbEntity
  8
SK1
100
AcDbLine
 10
-2.312481999999931
 20
-1.50549100000002
 30
0.0
 11
-2.368082999999955
 21
-1.600480999999959
 31
0.0
  0
LWPOLYLINE
  5
20EEE
330
1F
100
AcDbEntity
  8
SK1
100
AcDbPolyline
 90
       10
 70
     0
 43
0.0
 10
-2.008535999999935
 20
-2.692094999999966
 10
-2.021109999999907
 20
-2.549008000000014
 10
-2.033687999999983
 20
-2.406392999999965
 10
-2.046269999999935
 20
-2.264253999999965
 10
-2.058854999999994
 20
-2.122597999999968
 10
-2.071442000000047
 20
-1.98142999999996
 10
-2.084031999999979
 20
-1.840756999999968
 10
-2.096622999999908
 20
-1.700583999999963
 10
-2.109214999999949
 20
-1.560918000000015
 10
-2.121807999999987
 20
-1.421762000000001
  0
LWPOLYLINE
  5
20EEF
330
1F
100
AcDbEntity
  8
SK1
100
AcDbPolyline
 90
       10
 70
     0
 43
0.0
 10
-2.121807999999987
 20
-1.421762999999955
 10
-2.149940000000128
 20
-1.424675999999962
 10
-2.177508999999986
 20
-1.429531999999966
 10
-2.203964000000041
 20
-1.436233000000015
 10
-2.228774999999927
 20
-1.444644999999965
 10
-2.251445999999987
 20
-1.454600000000013
 10
-2.271522999999888
 20
-1.465898999999964
 10
-2.288604999999847
 20
-1.478316000000006
 10
-2.302350000000046
 20
-1.491601000000002
 10
-2.312481999999931
 20
-1.50549100000002
  0
LWPOLYLINE
  5
20EF0
330
1F
100
AcDbEntity
  8
SK1
100
AcDbPolyline
 90
       10
 70
     0
 43
0.0
 10
-1.683721999999988
 20
-2.690565999999961
 10
-1.696494999999913
 20
-2.545149999999964
 10
-1.709271999999941
 20
-2.400217999999966
 10
-1.722051999999735
 20
-2.255777000000023
 10
-1.734835999999972
 20
-2.111834999999956
 10
-1.747622999999975
 20
-1.968394999999958
 10
-1.760411999999973
 20
-1.825466000000005
 10
-1.773202999999739
 20
-1.683052999999958
 10
-1.785993999999959
 20
-1.541161999999957
 10
-1.79878599999995
 20
-1.399797999999961
  0
LINE
  5
20EF1
330
1F
100
AcDbEntity
  8
SK1
100
AcDbLine
 10
-1.79878599999995
 20
-1.399798999999958
 30
0.0
 11
-2.121807999999987
 21
-1.421762999999955
 31
0.0
  0
LWPOLYLINE
  5
20EF2
330
1F
100
AcDbEntity
  8
SK1
100
AcDbPolyline
 90
       10
 70
     0
 43
0.0
 10
-1.513319999999907
 20
-2.517900999999966
 10
-1.523846000000048
 20
-2.398708999999996
 10
-1.534373999999957
 20
-2.279854999999969
 10
-1.544903999999974
 20
-2.161341000000007
 10
-1.555435999999986
 20
-2.04316999999996
 10
-1.565968999999995
 20
-1.925346999999959
 10
-1.576503999999999
 20
-1.807875000000024
 10
-1.587039999999888
 20
-1.690756000000021
 10
-1.597575999999889
 20
-1.573996000000022
 10
-1.608112999999889
 20
-1.457596000000023
  0
LWPOLYLINE
  5
20EF3
330
1F
100
AcDbEntity
  8
SK1
100
AcDbPolyline
 90
       10
 70
     0
 43
0.0
 10
-1.608112999999889
 20
-1.457597000000021
 10
-1.618244999999888
 20
-1.44508500000002
 10
-1.631989999999973
 20
-1.433668000000025
 10
-1.649070999999935
 20
-1.423575000000013
 10
-1.669148999999833
 20
-1.415006000000019
 10
-1.691818999999895
 20
-1.408134000000018
 10
-1.716629999999895
 20
-1.403096000000005
 10
-1.743084999999837
 20
-1.399992999999994
 10
-1.770654000000149
 20
-1.398886000000018
 10
-1.79878599999995
 20
-1.399798999999958
  0
LINE
  5
20EF4
330
1F
100
AcDbEntity
  8
SK1
100
AcDbLine
 10
-1.581145999999989
 20
-1.5
 30
0.0
 11
-1.608111999999891
 21
-1.457596000000023
 31
0.0
  0
LINE
  5
20EF5
330
1F
100
AcDbEntity
  8
SK1
100
AcDbLine
 10
-1.552539999999908
 20
-1.544983000000001
 30
0.0
 11
-1.581145999999989
 21
-1.5
 31
0.0
  0
LWPOLYLINE
  5
20EF6
330
1F
100
AcDbEntity
  8
SK1
100
AcDbPolyline
 90
       13
 70
     0
 43
0.0
 10
-3.1008589999999
 20
-0.7140160000000151
 10
-3.259467999999969
 20
1.31927600000003
 10
-3.344490999999834
 20
2.222536000000005
 10
-3.407900999999924
 20
2.714954999999974
 10
-3.441518999999971
 20
2.898417999999992
 10
-3.493864999999914
 20
3.065737000000041
 10
-3.507078999999976
 20
3.084279999999978
 10
-3.513704999999845
 20
3.089922999999998
 10
-3.523653999999964
 20
3.093800999999984
 10
-3.528629999999907
 20
3.093667999999979
 10
-3.538576999999918
 20
3.089262000000033
 10
-3.553461999999967
 20
3.072378000000043
 10
-3.582952999999974
 20
3.00280800000003
  0
LINE
  5
20EF7
330
1F
100
AcDbEntity
  8
SK1
100
AcDbLine
 10
-3.089462000000139
 20
-0.8586189999999618
 30
0.0
 11
-3.1008589999999
 21
-0.7140160000000151
 31
0.0
  0
LINE
  5
20EF8
330
1F
100
AcDbEntity
  8
SK1
100
AcDbLine
 10
-4.196740999999974
 20
-3.180000000000021
 30
0.0
 11
-4.206669999999917
 21
-3.177174999999905
 31
0.0
  0
LWPOLYLINE
  5
20EF9
330
1F
100
AcDbEntity
  8
SK1
100
AcDbPolyline
 90
        7
 70
     0
 43
0.0
 10
-4.206669999999917
 20
-3.177174999999905
 10
-4.218708999999989
 20
-3.166191000000026
 10
-4.242591999999831
 20
-3.120007999999899
 10
-4.266052000000058
 20
-3.043484999999904
 10
-4.311163999999735
 20
-2.81252699999996
 10
-4.358042999999838
 20
-2.463640999999967
 10
-4.443387000000143
 20
-1.58999999999996
  0
LWPOLYLINE
  5
20EFA
330
1F
100
AcDbEntity
  8
SK1
100
AcDbPolyline
 90
        7
 70
     0
 43
0.0
 10
-3.920112999999901
 20
-1.58999999999996
 10
-3.823118999999906
 20
-2.558149999999997
 10
-3.769303000000149
 20
-2.919690999999957
 10
-3.712569000000144
 20
-3.136093000000016
 10
-3.693039999999996
 20
-3.168945999999905
 10
-3.683215999999902
 20
-3.177237999999903
 10
-3.673410999999987
 20
-3.180000000000021
  0
LINE
  5
20EFB
330
1F
100
AcDbEntity
  8
SK1
100
AcDbLine
 10
-3.673410999999987
 20
-3.180000000000021
 30
0.0
 11
-3.66309799999999
 21
-3.17695500000002
 31
0.0
  0
LWPOLYLINE
  5
20EFC
330
1F
100
AcDbEntity
  8
SK1
100
AcDbPolyline
 90
        6
 70
     0
 43
0.0
 10
-2.312483999999926
 20
-1.505434999999962
 10
-2.480082999999922
 20
0.4875809999999774
 10
-2.570946000000049
 20
1.532118000000039
 10
-2.619286999999985
 20
2.004845999999986
 10
-2.703698999999915
 20
2.618521999999998
 10
-2.749317999999902
 20
2.814796999999998
  0
LWPOLYLINE
  5
20EFD
330
1F
100
AcDbEntity
  8
SK1
100
AcDbPolyline
 90
        8
 70
     0
 43
0.0
 10
-2.121808999999984
 20
-1.421709000000021
 10
-2.263634999999908
 20
0.1749960000000357
 10
-2.407850000000053
 20
1.732372999999995
 10
-2.470248999999967
 20
2.238200000000034
 10
-2.503392999999846
 20
2.445116999999981
 10
-2.555413000000044
 20
2.671020000000041
 10
-2.583493999999973
 20
2.739459000000039
 10
-2.597683999999844
 20
2.759341000000034
  0
LWPOLYLINE
  5
20EFE
330
1F
100
AcDbEntity
  8
SK1
100
AcDbPolyline
 90
        9
 70
     0
 43
0.0
 10
-1.798787999999944
 20
-1.399743999999998
 10
-1.940527999999972
 20
0.1992900000000333
 10
-2.035174999999981
 20
1.263991999999973
 10
-2.084919999999897
 20
1.752769
 10
-2.147371999999904
 20
2.253844000000043
 10
-2.180478999999991
 20
2.45730800000004
 10
-2.232333000000039
 20
2.677221999999986
 10
-2.260461999999961
 20
2.742848999999978
 10
-2.274662999999918
 20
2.761222999999986
  0
LWPOLYLINE
  5
20EFF
330
1F
100
AcDbEntity
  8
SK1
100
AcDbPolyline
 90
        9
 70
     0
 43
0.0
 10
-1.608114999999997
 20
-1.457531000000017
 10
-1.749778999999989
 20
0.2243030000000346
 10
-1.844523999999978
 20
1.342826000000002
 10
-1.894307999999909
 20
1.85507000000004
 10
-1.956751000000053
 20
2.378412000000054
 10
-1.989879999999971
 20
2.590403999999978
 10
-2.041788999999994
 20
2.818306000000035
 10
-2.0698339999999
 20
2.885143000000041
 10
-2.083987999999976
 20
2.903450000000034
  0
LWPOLYLINE
  5
20F00
330
1F
100
AcDbEntity
  8
SK1
100
AcDbPolyline
 90
        5
 70
     0
 43
0.0
 10
-2.083987999999976
 20
2.903450000000034
 10
-2.094304999999963
 20
2.910211000000032
 10
-2.107222999999976
 20
2.910813000000032
 10
-2.122711999999978
 20
2.900004000000052
 10
-2.153465999999752
 20
2.841489000000038
  0
ARC
  5
20F01
330
1F
100
AcDbEntity
  8
SK1
100
AcDbCircle
 10
121.353788
 20
9.745478000000005
 30
0.0
 40
124.945605
100
AcDbArc
 50
184.5283799999995
 51
185.0873600000016
  0
LWPOLYLINE
  5
20F02
330
1F
100
AcDbEntity
  8
SK1
100
AcDbPolyline
 90
        4
 70
     0
 43
0.0
 10
-2.902316999999925
 20
-2.815285000000017
 10
-2.943047999999976
 20
-2.645592000000021
 10
-3.01943899999992
 20
-2.120425000000025
 10
-3.099486999999953
 20
-1.334006999999957
  0
ARC
  5
20F03
330
1F
100
AcDbEntity
  8
SK1
100
AcDbCircle
 10
-4.709967999999889
 20
2.227643000000043
 30
0.0
 40
0.134079
100
AcDbArc
 50
113.2501759999994
 51
155.098177
  0
ARC
  5
20F04
330
1F
100
AcDbEntity
  8
SK1
100
AcDbCircle
 10
-39.58274400000005
 20
-1.493075999999959
 30
0.0
 40
34.956307
100
AcDbArc
 50
4.62954799999903
 51
6.202994000000801
  0
LWPOLYLINE
  5
20F05
330
1F
100
AcDbEntity
  8
SK1
100
AcDbPolyline
 90
        5
 70
     0
 43
0.0
 10
-4.322980000000143
 20
-3.0026399999999
 10
-4.365918999999962
 20
-2.817866999999964
 10
-4.446091999999907
 20
-2.230036999999967
 10
-4.548181999999997
 20
-1.123170000000015
 10
-4.740246999999953
 20
1.328370000000035
  0
LWPOLYLINE
  5
20F06
330
1F
100
AcDbEntity
  8
SK1
100
AcDbPolyline
 90
        4
 70
     0
 43
0.0
 10
-4.443387000000143
 20
-1.58999999999996
 10
-4.571194999999988
 20
0.0554010000000318
 10
-4.699331999999913
 20
1.691979000000003
 10
-4.763088000000152
 20
2.351102000000039
  0
LWPOLYLINE
  5
20F07
330
1F
100
AcDbEntity
  8
SK1
100
AcDbPolyline
 90
        7
 70
     0
 43
0.0
 10
-4.763088000000152
 20
2.351102000000039
 10
-4.842946999999981
 20
2.929996000000031
 10
-4.886334999999917
 20
3.106858999999985
 10
-4.908694999999738
 20
3.157106999999996
 10
-4.920003000000065
 20
3.17173500000004
 10
-4.931335999999987
 20
3.179084000000003
 10
-4.937000999999895
 20
3.180000000000035
  0
LINE
  5
20F08
330
1F
100
AcDbEntity
  8
SK1
100
AcDbLine
 10
-4.937001999999893
 20
3.180000000000035
 30
0.0
 11
-4.946994000000131
 21
3.177145000000038
 31
0.0
  0
LINE
  5
20F09
330
1F
100
AcDbEntity
  8
SK1
100
AcDbLine
 10
-4.413547999999991
 20
3.180000000000035
 30
0.0
 11
-4.403259999999932
 21
3.176976000000038
 31
0.0
  0
LWPOLYLINE
  5
20F0A
330
1F
100
AcDbEntity
  8
SK1
100
AcDbPolyline
 90
        8
 70
     0
 43
0.0
 10
-4.403259999999932
 20
3.176976000000038
 10
-4.39199399999984
 20
3.166724000000002
 10
-4.369629000000145
 20
3.124980999999976
 10
-4.347623999999996
 20
3.056471999999985
 10
-4.305151000000137
 20
2.849671999999998
 10
-4.244638999999892
 20
2.397821000000035
 10
-4.13662099999999
 20
1.22579600000003
 10
-3.97204499999998
 20
-0.9489360000000175
  0
LINE
  5
20F0B
330
1F
100
AcDbEntity
  8
SK1
100
AcDbLine
 10
-3.97204499999998
 20
-0.9489360000000175
 30
0.0
 11
-3.920113999999898
 21
-1.58999999999996
 31
0.0
  0
LWPOLYLINE
  5
20F0C
330
1F
100
AcDbEntity
  8
SK1
100
AcDbPolyline
 90
       12
 70
     0
 43
0.0
 10
-3.54843500000004
 20
-3.00240100000002
 10
-3.582350999999903
 20
-3.078845999999899
 10
-3.593762999999739
 20
-3.090280999999905
 10
-3.599478999999973
 20
-3.093284999999909
 10
-3.608056999999917
 20
-3.09437800000002
 10
-3.616633999999976
 20
-3.091369999999912
 10
-3.628051999999911
 20
-3.081012999999899
 10
-3.650753999999892
 20
-3.038976999999903
 10
-3.687265999999908
 20
-2.912523000000021
 10
-3.756254999999896
 20
-2.486781000000021
 10
-3.808551999999963
 20
-2.020126000000004
 10
-3.904965000000061
 20
-0.9201239999999586
  0
ARC
  5
20F0D
330
1F
100
AcDbEntity
  8
SK1
100
AcDbCircle
 10
-2.621407999999973
 20
2.740496000000035
 30
0.0
 40
0.030176
100
AcDbArc
 50
38.46100700000255
 51
84.97131100000357
  0
ARC
  5
20F0E
330
1F
100
AcDbEntity
  8
SK1
100
AcDbCircle
 10
-2.295510000000149
 20
2.742124999999973
 30
0.0
 40
0.028188
100
AcDbArc
 50
42.49320199999502
 51
86.13869199999774
  0
LWPOLYLINE
  5
20F0F
330
1F
100
AcDbEntity
  8
SK1
100
AcDbPolyline
 90
        8
 70
     0
 43
0.0
 10
-3.033560999999963
 20
-2.770078000000026
 10
-3.045934999999985
 20
-2.766265999999959
 10
-3.054171999999994
 20
-2.759500999999957
 10
-3.070579999999949
 20
-2.735990000000015
 10
-3.094936999999958
 20
-2.676686000000017
 10
-3.142266999999947
 20
-2.480516000000022
 10
-3.194369999999935
 20
-2.149426000000019
 10
-3.290170999999986
 20
-1.282713999999955
  0
LINE
  5
20F10
330
1F
100
AcDbEntity
  8
SK1
100
AcDbLine
 10
-3.623204999999984
 20
2.86636
 30
0.0
 11
-3.632938999999964
 21
2.84281
 31
0.0
  0
LWPOLYLINE
  5
20F11
330
1F
100
AcDbEntity
  8
SK1
100
AcDbPolyline
 90
       12
 70
     0
 43
0.0
 10
-3.201954999999998
 20
-0.1193519999999637
 10
-3.309783000000152
 20
1.178702999999998
 10
-3.366916999999943
 20
1.783616999999992
 10
-3.45900900000015
 20
2.525860000000037
 10
-3.504668000000151
 20
2.757424000000042
 10
-3.552253999999948
 20
2.888856999999973
 10
-3.564344999999889
 20
2.903648999999973
 10
-3.577446999999892
 20
2.911046999999996
 10
-3.584005000000047
 20
2.911369999999976
 10
-3.597112999999922
 20
2.905255000000039
 10
-3.60583599999984
 20
2.896199000000038
 10
-3.623203999999986
 20
2.86636
  0
LWPOLYLINE
  5
20F12
330
1F
100
AcDbEntity
  8
SK1
100
AcDbPolyline
 90
        9
 70
     0
 43
0.0
 10
-3.335728999999901
 20
-0.7871069999999634
 10
-3.508119999999962
 20
1.189393000000038
 10
-3.600831999999968
 20
2.058071999999981
 10
-3.658527000000049
 20
2.446398999999985
 10
-3.688906999999971
 20
2.593264999999973
 10
-3.736039999999889
 20
2.735115000000035
 10
-3.752659999999991
 20
2.759238999999979
 10
-3.761006999999835
 20
2.766185000000035
 10
-3.773533999999926
 20
2.770095000000054
  0
LINE
  5
20F13
330
1F
100
AcDbEntity
  8
SK1
100
AcDbLine
 10
-3.290170999999986
 20
-1.282713999999955
 30
0.0
 11
-3.335729999999898
 21
-0.7871069999999634
 31
0.0
  0
LWPOLYLINE
  5
20F14
330
1F
100
AcDbEntity
  8
SK1
100
AcDbPolyline
 90
       10
 70
     0
 43
0.0
 10
-4.831313999999906
 20
2.283974999999998
 10
-4.908016999999972
 20
2.831496000000043
 10
-4.948893999999995
 20
3.004387000000036
 10
-4.972818999999958
 20
3.063861999999986
 10
-4.98487799999998
 20
3.081877000000034
 10
-4.996974000000136
 20
3.09182600000004
 10
-5.009084999999913
 20
3.093616000000039
 10
-5.021191000000044
 20
3.087231999999985
 10
-5.033269999999902
 20
3.072738000000043
 10
-5.063085999999998
 20
3.002522000000041
  0
ARC
  5
20F15
330
1F
100
AcDbEntity
  8
SK1
100
AcDbCircle
 10
-44.97811699999999
 20
-2.318720999999968
 30
0.0
 40
40.340239
100
AcDbArc
 50
4.886735000000236
 51
6.06954799999907
  0
LWPOLYLINE
  5
20F16
330
1F
100
AcDbEntity
  8
SK1
100
AcDbPolyline
 90
        5
 70
     0
 43
0.0
 10
-4.382405999999946
 20
-2.815302999999957
 10
-4.423685999999975
 20
-2.642726999999965
 10
-4.501014999999938
 20
-2.107430000000022
 10
-4.599624000000062
 20
-1.108411999999958
 10
-4.784403999999994
 20
1.117722000000043
  0
LINE
  5
20F17
330
1F
100
AcDbEntity
  8
SK1
100
AcDbLine
 10
-5.677218999999922
 20
-3.180000000000021
 30
0.0
 11
-5.687164000000052
 21
-3.177166999999911
 31
0.0
  0
ARC
  5
20F18
330
1F
100
AcDbEntity
  8
SK1
100
AcDbCircle
 10
-5.577770999999984
 20
-3.068062000000026
 30
0.0
 40
0.155241
100
AcDbArc
 50
190.9661179999972
 51
224.924471000002
  0
LWPOLYLINE
  5
20F19
330
1F
100
AcDbEntity
  8
SK1
100
AcDbPolyline
 90
        4
 70
     0
 43
0.0
 10
-5.73097800000005
 20
-3.097749000000021
 10
-5.771207999999887
 20
-2.931042999999959
 10
-5.845722999999907
 20
-2.403160000000013
 10
-5.923900999999887
 20
-1.58999999999996
  0
LWPOLYLINE
  5
20F1A
330
1F
100
AcDbEntity
  8
SK1
100
AcDbPolyline
 90
        7
 70
     0
 43
0.0
 10
-5.400412999999957
 20
-1.58999999999996
 10
-5.303473999999937
 20
-2.558152000000021
 10
-5.249631999999905
 20
-2.919691999999969
 10
-5.192879999999945
 20
-3.136093000000016
 10
-5.173351999999908
 20
-3.168945000000022
 10
-5.163528999999925
 20
-3.177237999999903
 10
-5.153724999999894
 20
-3.180000000000021
  0
LINE
  5
20F1B
330
1F
100
AcDbEntity
  8
SK1
100
AcDbLine
 10
-5.153724999999894
 20
-3.180000000000021
 30
0.0
 11
-5.143530999999939
 21
-3.177023000000019
 31
0.0
  0
LINE
  5
20F1C
330
1F
100
AcDbEntity
  8
SK1
100
AcDbLine
 10
-5.028494999999907
 20
-3.002417999999906
 30
0.0
 11
-5.043461999999976
 21
-3.043935999999902
 31
0.0
  0
LINE
  5
20F1D
330
1F
100
AcDbEntity
  8
SK1
100
AcDbLine
 10
-3.904965000000061
 20
-0.9201239999999586
 30
0.0
 11
-3.916363000000046
 21
-0.7763100000000236
 31
0.0
  0
LWPOLYLINE
  5
20F1E
330
1F
100
AcDbEntity
  8
SK1
100
AcDbPolyline
 90
        5
 70
     0
 43
0.0
 10
-3.916363000000046
 20
-0.7763100000000236
 10
-4.08667099999991
 20
1.399871000000032
 10
-4.179311999999981
 20
2.350618999999994
 10
-4.250490999999897
 20
2.843201000000036
 10
-4.28844400000014
 20
3.002467000000038
  0
LWPOLYLINE
  5
20F1F
330
1F
100
AcDbEntity
  8
SK1
100
AcDbPolyline
 90
       11
 70
     0
 43
0.0
 10
-3.499086999999917
 20
-2.84319699999996
 10
-3.523621000000048
 20
-2.893252000000018
 10
-3.535978999999997
 20
-2.906618999999963
 10
-3.548364999999989
 20
-2.911998999999966
 10
-3.560753999999974
 20
-2.909338000000005
 10
-3.573121000000128
 20
-2.898665999999963
 10
-3.585443999999938
 20
-2.880093999999957
 10
-3.609859000000142
 20
-2.820104000000014
 10
-3.651864000000045
 20
-2.646584000000018
 10
-3.730129999999917
 20
-2.105267000000026
 10
-3.803866999999968
 20
-1.383338999999963
  0
LINE
  5
20F20
330
1F
100
AcDbEntity
  8
SK1
100
AcDbLine
 10
-3.803866999999968
 20
-1.383338999999963
 30
0.0
 11
-3.860806999999908
 21
-0.7298880000000168
 31
0.0
  0
LWPOLYLINE
  5
20F21
330
1F
100
AcDbEntity
  8
SK1
100
AcDbPolyline
 90
        8
 70
     0
 43
0.0
 10
-3.358690999999907
 20
-2.770324000000016
 10
-3.370963999999958
 20
-2.766580999999959
 10
-3.37913200000014
 20
-2.759928999999999
 10
-3.395402999999987
 20
-2.73681099999996
 10
-3.419547999999963
 20
-2.678514000000006
 10
-3.466434000000049
 20
-2.485845999999966
 10
-3.51818999999989
 20
-2.159567999999964
 10
-3.613162999999985
 20
-1.305229999999966
  0
LINE
  5
20F22
330
1F
100
AcDbEntity
  8
SK1
100
AcDbLine
 10
-3.613162999999985
 20
-1.305229999999966
 30
0.0
 11
-3.658729999999991
 21
-0.811441000000002
 31
0.0
  0
LWPOLYLINE
  5
20F23
330
1F
100
AcDbEntity
  8
SK1
100
AcDbPolyline
 90
        9
 70
     0
 43
0.0
 10
-3.658729999999991
 20
-0.811441000000002
 10
-3.831944999999905
 20
1.175219000000041
 10
-3.925164999999992
 20
2.051425000000037
 10
-3.98307699999998
 20
2.442896000000033
 10
-4.0136379999999
 20
2.591427000000038
 10
-4.061140999999906
 20
2.735138000000034
 10
-4.077779999999961
 20
2.759397999999976
 10
-4.086140999999997
 20
2.766397999999981
 10
-4.098693000000139
 20
2.770356999999975
  0
ARC
  5
20F24
330
1F
100
AcDbEntity
  8
SK1
100
AcDbCircle
 10
-4.574465999999915
 20
-2.630888000000027
 30
0.0
 40
1.283679999999999
100
AcDbArc
 50
191.3350730000006
 51
196.8390809999974
  0
LWPOLYLINE
  5
20F25
330
1F
100
AcDbEntity
  8
SK1
100
AcDbPolyline
 90
       10
 70
     0
 43
0.0
 10
-4.864111999999977
 20
1.946666999999976
 10
-4.946317999999905
 20
2.569736999999975
 10
-4.990544999999997
 20
2.780224999999973
 10
-5.032242999999994
 20
2.889120999999974
 10
-5.046330999999895
 20
2.905571000000037
 10
-5.053391999999917
 20
2.909906999999975
 10
-5.063993999999979
 20
2.911504999999976
 10
-5.071060999999986
 20
2.909293999999974
 10
-5.085173000000054
 20
2.897047999999983
 10
-5.113038999999957
 20
2.842423999999994
  0
LWPOLYLINE
  5
20F26
330
1F
100
AcDbEntity
  8
SK1
100
AcDbPolyline
 90
        6
 70
     0
 43
0.0
 10
-5.145855999999753
 20
2.485436999999976
 10
-5.188287999999943
 20
2.664302000000034
 10
-5.210077999999953
 20
2.722890000000035
 10
-5.232130999999981
 20
2.758477000000041
 10
-5.243217999999842
 20
2.767254999999977
 10
-5.253554999999892
 20
2.769921000000039
  0
LWPOLYLINE
  5
20F27
330
1F
100
AcDbEntity
  8
SK1
100
AcDbPolyline
 90
        3
 70
     0
 43
0.0
 10
-4.975093999999899
 20
1.049415000000038
 10
-5.08527099999992
 20
2.092446999999978
 10
-5.145855999999753
 20
2.485436999999976
  0
LWPOLYLINE
  5
20F28
330
1F
100
AcDbEntity
  8
SK1
100
AcDbPolyline
 90
        9
 70
     0
 43
0.0
 10
-4.513600999999994
 20
-2.770085999999963
 10
-4.527366999999912
 20
-2.765345000000024
 10
-4.536523999999985
 20
-2.756955000000004
 10
-4.554748000000131
 20
-2.727874999999968
 10
-4.581722999999897
 20
-2.654931999999945
 10
-4.633796999999958
 20
-2.416944999999998
 10
-4.731567999999924
 20
-1.665894999999963
 10
-4.79208200000005
 20
-1.049153999999958
 10
-4.975093999999899
 20
1.049415000000038
  0
LWPOLYLINE
  5
20F29
330
1F
100
AcDbEntity
  8
SK1
100
AcDbPolyline
 90
        6
 70
     0
 43
0.0
 10
-5.83317199999999
 20
-2.883203999999963
 10
-5.898364999999898
 20
-2.466856000000021
 10
-5.939359999999965
 20
-2.10617000000002
 10
-6.01595599999996
 20
-1.271438999999958
 10
-6.201361999999903
 20
1.10090300000003
 10
-6.299924000000146
 20
2.180515000000042
  0
LWPOLYLINE
  5
20F2A
330
1F
100
AcDbEntity
  8
SK1
100
AcDbPolyline
 90
        4
 70
     0
 43
0.0
 10
-5.923900999999887
 20
-1.58999999999996
 10
-6.032205999999973
 20
-0.2029859999999957
 10
-6.139007999999989
 20
1.206548999999995
 10
-6.231775999999968
 20
2.244917999999984
  0
LWPOLYLINE
  5
20F2B
330
1F
100
AcDbEntity
  8
SK1
100
AcDbPolyline
 90
        3
 70
     0
 43
0.0
 10
-6.231775999999968
 20
2.244917999999984
 10
-6.310523999999986
 20
2.858549999999979
 10
-6.353417999999919
 20
3.063032000000035
  0
ARC
  5
20F2C
330
1F
100
AcDbEntity
  8
SK1
100
AcDbCircle
 10
-3.501460000000065
 20
-20.78950400000002
 30
0.0
 40
24.02241
100
AcDbArc
 50
95.60268300000091
 51
96.8182709999985
  0
LWPOLYLINE
  5
20F2D
330
1F
100
AcDbEntity
  8
SK1
100
AcDbPolyline
 90
        4
 70
     0
 43
0.0
 10
-5.846753999999918
 20
3.118129000000038
 10
-5.810051000000044
 20
2.983088000000037
 10
-5.741399999999998
 20
2.53946300000004
 10
-5.714009000000146
 20
2.300181000000037
  0
LWPOLYLINE
  5
20F2E
330
1F
100
AcDbEntity
  8
SK1
100
AcDbPolyline
 90
        4
 70
     0
 43
0.0
 10
-5.714009000000146
 20
2.300181000000037
 10
-5.626102999999943
 20
1.34341999999998
 10
-5.46514500000012
 20
-0.7804009999999693
 10
-5.400412999999957
 20
-1.58999999999996
  0
ARC
  5
20F2F
330
1F
100
AcDbEntity
  8
SK1
100
AcDbCircle
 10
-5.749881999999843
 20
2.190815999999983
 30
0.0
 40
0.114808
100
AcDbArc
 50
25.85087299999793
 51
71.80675400000045
  0
LWPOLYLINE
  5
20F30
330
1F
100
AcDbEntity
  8
SK1
100
AcDbPolyline
 90
       12
 70
     0
 43
0.0
 10
-5.043461999999976
 20
-3.043935999999902
 10
-5.06649300000015
 20
-3.083828999999909
 10
-5.078074999999898
 20
-3.092779999999905
 10
-5.086771999999996
 20
-3.094586999999904
 10
-5.095467999999982
 20
-3.092176000000023
 10
-5.112819999999942
 20
-3.074772999999908
 10
-5.147129000000063
 20
-2.991406999999909
 10
-5.200484999999844
 20
-2.73685599999996
 10
-5.234341999999969
 20
-2.501642000000003
 10
-5.297771999999895
 20
-1.926736000000019
 10
-5.428629999999998
 20
-0.3598510000000061
 10
-5.555746999999996
 20
1.270519999999976
  0
ARC
  5
20F31
330
1F
100
AcDbEntity
  8
SK1
100
AcDbCircle
 10
-43.55842299999994
 20
-1.790645999999966
 30
0.0
 40
38.125542
100
AcDbArc
 50
4.605308000001374
 51
6.069960000000039
  0
LWPOLYLINE
  5
20F32
330
1F
100
AcDbEntity
  8
SK1
100
AcDbPolyline
 90
       12
 70
     0
 43
0.0
 10
-4.978610999999887
 20
-2.84178300000002
 10
-5.006574
 20
-2.897140999999962
 10
-5.020660999999904
 20
-2.909597000000019
 10
-5.031239999999911
 20
-2.912108999999958
 10
-5.041813000000047
 20
-2.90874799999996
 10
-5.048851999999897
 20
-2.90325999999996
 10
-5.062886000000048
 20
-2.884584000000018
 10
-5.104341999999974
 20
-2.770020999999957
 10
-5.157376999999996
 20
-2.499413000000004
 10
-5.254057999999986
 20
-1.69558699999996
 10
-5.372990999999842
 20
-0.3388499999999652
 10
-5.488789999999994
 20
1.066604999999981
  0
LINE
  5
20F33
330
1F
100
AcDbEntity
  8
SK1
100
AcDbLine
 10
-5.488789999999994
 20
1.066604999999981
 30
0.0
 11
-5.500193999999737
 21
1.196266999999977
 31
0.0
  0
LWPOLYLINE
  5
20F34
330
1F
100
AcDbEntity
  8
SK1
100
AcDbPolyline
 90
        7
 70
     0
 43
0.0
 10
-3.860806999999908
 20
-0.7298880000000168
 10
-3.98670699999991
 20
0.808203999999975
 10
-4.052284999999983
 20
1.545894999999973
 10
-4.122052999999937
 20
2.199112000000042
 10
-4.159130999999888
 20
2.471296000000037
 10
-4.205425999999761
 20
2.724634999999977
 10
-4.22948800000006
 20
2.815289000000035
  0
ARC
  5
20F35
330
1F
100
AcDbEntity
  8
SK1
100
AcDbCircle
 10
-16.11748499999999
 20
1.205466999999998
 30
0.0
 40
9.865530999999997
100
AcDbArc
 50
5.671832000000651
 51
9.21675199999823
  0
LWPOLYLINE
  5
20F36
330
1F
100
AcDbEntity
  8
SK1
100
AcDbPolyline
 90
        3
 70
     0
 43
0.0
 10
-5.862283000000047
 20
-2.815398999999999
 10
-5.899058999999965
 20
-2.665701999999996
 10
-5.968417000000044
 20
-2.211522999999999
  0
LWPOLYLINE
  5
20F37
330
1F
100
AcDbEntity
  8
SK1
100
AcDbPolyline
 90
        7
 70
     0
 43
0.0
 10
-5.993546999999921
 20
-2.770036000000018
 10
-6.005064000000061
 20
-2.766741000000024
 10
-6.012733999999909
 20
-2.760874000000001
 10
-6.028020999999966
 20
-2.740450000000024
 10
-6.05074599999989
 20
-2.688782000000003
 10
-6.095039999999926
 20
-2.516790000000014
 10
-6.181863999999904
 20
-1.931178999999957
  0
LINE
  5
20F38
330
1F
100
AcDbEntity
  8
SK1
100
AcDbLine
 10
-5.968417999999928
 20
-2.211522000000016
 30
0.0
 11
-5.991209999999909
 21
-2.018421999999958
 31
0.0
  0
LWPOLYLINE
  5
20F39
330
1F
100
AcDbEntity
  8
SK1
100
AcDbPolyline
 90
        6
 70
     0
 43
0.0
 10
-5.468891999999982
 20
2.474414000000038
 10
-5.512118999999984
 20
2.659906999999975
 10
-5.534373999999957
 20
2.721063000000043
 10
-5.556926999999745
 20
2.758306000000033
 10
-5.568271999999979
 20
2.767498999999986
 10
-5.57880399999999
 20
2.770283000000034
  0
LINE
  5
20F3A
330
1F
100
AcDbEntity
  8
SK1
100
AcDbLine
 10
-5.145870999999942
 20
2.485471000000032
 30
0.0
 11
-5.46889299999998
 21
2.474414000000038
 31
0.0
  0
LWPOLYLINE
  5
20F3B
330
1F
100
AcDbEntity
  8
SK1
100
AcDbPolyline
 90
        3
 70
     0
 43
0.0
 10
-5.298152999999842
 20
1.026006999999992
 10
-5.408337999999957
 20
2.076341000000041
 10
-5.468891999999982
 20
2.474414000000038
  0
LWPOLYLINE
  5
20F3C
330
1F
100
AcDbEntity
  8
SK1
100
AcDbPolyline
 90
        9
 70
     0
 43
0.0
 10
-4.838738999999918
 20
-2.770324000000016
 10
-4.852391999999895
 20
-2.765661000000022
 10
-4.861488999999892
 20
-2.757371999999961
 10
-4.879609999999956
 20
-2.728590999999994
 10
-4.906472999999891
 20
-2.656297999999964
 10
-4.958352999999988
 20
-2.420363000000023
 10
-5.056022999999981
 20
-1.672836000000017
 10
-5.116158999999925
 20
-1.061188999999998
 10
-5.298152999999842
 20
1.026006999999992
  0
ARC
  5
20F3D
330
1F
100
AcDbEntity
  8
SK1
100
AcDbCircle
 10
-6.289310999999997
 20
2.907991999999978
 30
0.0
 40
0.167434
100
AcDbArc
 50
112.4636480000011
 51
146.0191629999992
  0
ARC
  5
20F3E
330
1F
100
AcDbEntity
  8
SK1
100
AcDbCircle
 10
-8.17735499999992
 20
2.500865999999973
 30
0.0
 40
1.819897
100
AcDbArc
 50
8.99935200000114
 51
15.96563299999969
  0
ARC
  5
20F3F
330
1F
100
AcDbEntity
  8
SK1
100
AcDbCircle
 10
-6.718787999999904
 20
3.010023000000003
 30
0.0
 40
0.256418
100
AcDbArc
 50
287.8744190000026
 51
327.4579920000034
  0
LINE
  5
20F40
330
1F
100
AcDbEntity
  8
SK1
100
AcDbLine
 10
-6.465950999999904
 20
2.936591000000035
 30
0.0
 11
-6.502994999999827
 21
2.872522000000031
 31
0.0
  0
LINE
  5
20F41
330
1F
100
AcDbEntity
  8
SK1
100
AcDbLine
 10
-6.427915999999981
 20
3.001220999999986
 30
0.0
 11
-6.465960999999992
 21
2.936614000000034
 31
0.0
  0
ARC
  5
20F42
330
1F
100
AcDbEntity
  8
SK1
100
AcDbCircle
 10
-5.869706000000064
 20
3.039205999999978
 30
0.0
 40
0.082001
100
AcDbArc
 50
28.29194899999862
 51
73.7859959999986
  0
LWPOLYLINE
  5
20F43
330
1F
100
AcDbEntity
  8
SK1
100
AcDbPolyline
 90
        3
 70
     0
 43
0.0
 10
-5.646832999999901
 20
2.24083200000004
 10
-5.725995999999895
 20
2.81938300000003
 10
-5.768531000000052
 20
3.002577999999985
  0
LWPOLYLINE
  5
20F44
330
1F
100
AcDbEntity
  8
SK1
100
AcDbPolyline
 90
        4
 70
     0
 43
0.0
 10
-5.500193999999737
 20
1.196266999999977
 10
-5.609271000000148
 20
2.256392000000033
 10
-5.6697079999999
 20
2.649749999999997
 10
-5.709399999999845
 20
2.81474500000003
  0
LWPOLYLINE
  5
20F45
330
1F
100
AcDbEntity
  8
SK1
100
AcDbPolyline
 90
        7
 70
     0
 43
0.0
 10
-5.991208999999912
 20
-2.018421999999958
 10
-6.079309999999964
 20
-1.111925999999968
 10
-6.244507999999996
 20
0.8866320000000342
 10
-6.332248000000049
 20
1.835238000000032
 10
-6.379501999999888
 20
2.248810999999975
 10
-6.455286999999998
 20
2.718164000000001
 10
-6.502994999999827
 20
2.872522000000031
  0
LINE
  5
20F46
330
1F
100
AcDbEntity
  8
SK1
100
AcDbLine
 10
-6.639999999999986
 20
2.765671999999995
 30
0.0
 11
-6.639999999999986
 21
2.554231000000044
 31
0.0
  0
LWPOLYLINE
  5
20F47
330
1F
100
AcDbEntity
  8
SK1
100
AcDbPolyline
 90
        6
 70
     0
 43
0.0
 10
-6.193266999999991
 20
-1.832968999999962
 10
-6.26992400000006
 20
-1.072571999999965
 10
-6.414496999999983
 20
0.5941540000000316
 10
-6.508393999999952
 20
1.59778799999998
 10
-6.558858999999984
 20
2.042327999999997
 10
-6.640000999999983
 20
2.554231000000044
  0
LINE
  5
20F48
330
1F
100
AcDbEntity
  8
SK1
100
AcDbLine
 10
-6.181863999999904
 20
-1.931178999999957
 30
0.0
 11
-6.193266999999991
 21
-1.832968999999962
 31
0.0
  0
LINE
  5
20F49
330
1F
100
AcDbEntity
  8
SK1
100
AcDbLine
 10
-6.307809999999903
 20
-2.770430999999959
 30
0.0
 11
-6.313134999999988
 21
-2.769727999999958
 31
0.0
  0
LWPOLYLINE
  5
20F4A
330
1F
100
AcDbEntity
  8
SK1
100
AcDbPolyline
 90
        7
 70
     0
 43
0.0
 10
-6.31313399999999
 20
-2.769727999999958
 10
-6.324261999999976
 20
-2.763689999999968
 10
-6.346414999999979
 20
-2.733329000000026
 10
-6.368319000000042
 20
-2.679536999999967
 10
-6.410972999999899
 20
-2.508862000000021
 10
-6.443674999999984
 20
-2.321960999999959
 10
-6.505347999999912
 20
-1.851489000000015
  0
ARC
  5
20F4B
330
1F
100
AcDbEntity
  8
SK1
100
AcDbCircle
 10
46.82624300000009
 20
3.920201000000034
 30
0.0
 40
53.643416
100
AcDbArc
 50
184.664792000001
 51
186.1766660000003
  0
LINE
  5
20F4C
330
1F
100
AcDbEntity
  8
SK1
100
AcDbLine
 10
-6.639999999999986
 20
-0.4423120000000154
 30
0.0
 11
-6.639999999999986
 21
-2.681893999999957
 31
0.0
  0
LINE
  5
20F4D
330
1F
100
AcDbEntity
  8
SK1
100
AcDbLine
 10
-6.639999999999986
 20
2.554380999999978
 30
0.0
 11
-6.639999999999986
 21
-0.4424329999999941
 31
0.0
  0
LINE
  5
20F4E
330
1F
100
AcDbEntity
  8
1
100
AcDbLine
 10
0.8600000000000136
 20
-4.237666999999902
 30
0.0
 11
0.8600000000000136
 21
-3.16563600000002
 31
0.0
  0
LINE
  5
20F4F
330
1F
100
AcDbEntity
  8
1
100
AcDbLine
 10
0.5600000000000592
 20
-2.427617999999966
 30
0.0
 11
0.5600000000000592
 21
2.438955000000035
 31
0.0
  0
ARC
  5
20F50
330
1F
100
AcDbEntity
  8
1
100
AcDbCircle
 10
0.075001000000043
 20
-4.170537000000024
 30
0.0
 40
0.250008
100
AcDbArc
 50
252.5426639999975
 51
269.9997329999966
  0
ARC
  5
20F51
330
1F
100
AcDbEntity
  8
1
100
AcDbCircle
 10
0.075001000000043
 20
4.170537000000052
 30
0.0
 40
0.250008
100
AcDbArc
 50
90.00026699999692
 51
107.4573360000025
  0
ARC
  5
20F52
330
1F
100
AcDbEntity
  8
1
100
AcDbCircle
 10
0.0750000000000455
 20
-4.705543999999903
 30
0.0
 40
0.285
100
AcDbArc
 50
0.0
 51
90.0
  0
ARC
  5
20F53
330
1F
100
AcDbEntity
  8
1
100
AcDbCircle
 10
0.0750000000000455
 20
4.705543999999974
 30
0.0
 40
0.285
100
AcDbArc
 50
270.0
 51
0.0
  0
ARC
  5
20F54
330
1F
100
AcDbEntity
  8
SK1
100
AcDbCircle
 10
-0.2000000000000455
 20
3.580997000000053
 30
0.0
 40
0.2
100
AcDbArc
 50
272.9999999999991
 51
0.0000010000014034
  0
ARC
  5
20F55
330
1F
100
AcDbEntity
  8
SK1
100
AcDbCircle
 10
-0.2000000000000455
 20
-3.580997000000024
 30
0.0
 40
0.2
100
AcDbArc
 50
359.9999989999986
 51
87.00000000000091
  0
LINE
  5
20F56
330
1F
100
AcDbEntity
  8
SK1
100
AcDbLine
 10
-1.359999999999899
 20
3.31992900000003
 30
0.0
 11
-0.1895329999999831
 21
3.38127100000004
 31
0.0
  0
LINE
  5
20F57
330
1F
100
AcDbEntity
  8
SK1
100
AcDbLine
 10
-1.359999999999899
 20
-3.319928999999902
 30
0.0
 11
-0.1895329999999831
 21
-3.381271000000026
 31
0.0
  0
LINE
  5
20F58
330
1F
100
AcDbEntity
  8
1
100
AcDbLine
 10
2.341542000000004
 20
-6.907204999999905
 30
0.0
 11
0.8600000000000136
 21
-6.907204999999905
 31
0.0
  0
ARC
  5
20F59
330
1F
100
AcDbEntity
  8
SK1
100
AcDbCircle
 10
-1.459999000000152
 20
3.279994999999985
 30
0.0
 40
0.099995
100
AcDbArc
 50
269.9993529999974
 51
359.5399479999991
  0
ARC
  5
20F5A
330
1F
100
AcDbEntity
  8
SK1
100
AcDbCircle
 10
-1.460003999999912
 20
-3.280006000000014
 30
0.0
 40
0.100007
100
AcDbArc
 50
359.5965490000002
 51
89.9978739999992
  0
LINE
  5
20F5B
330
1F
100
AcDbEntity
  8
SK1
100
AcDbLine
 10
-1.46000000000015
 20
3.180000000000035
 30
0.0
 11
-1.977362999999741
 21
3.180000000000035
 31
0.0
  0
LINE
  5
20F5C
330
1F
100
AcDbEntity
  8
SK1
100
AcDbLine
 10
-1.46000000000015
 20
-3.180000000000021
 30
0.0
 11
-2.717080999999893
 21
-3.180000000000021
 31
0.0
  0
LWPOLYLINE
  5
20F5D
330
1F
100
AcDbEntity
  8
SK1
100
AcDbPolyline
 90
        3
 70
     0
 43
0.0
 10
-1.98723700000005
 20
3.177091000000032
 10
-2.064237000000048
 20
3.096244000000041
 10
-2.103136999999833
 20
3.002615999999974
  0
LWPOLYLINE
  5
20F5E
330
1F
100
AcDbEntity
  8
SK1
100
AcDbPolyline
 90
        3
 70
     0
 43
0.0
 10
-2.72705099999996
 20
-3.177069000000017
 10
-2.804174999999986
 20
-3.096128000000021
 10
-2.84306400000014
 20
-3.002539000000027
  0
LINE
  5
20F5F
330
1F
100
AcDbEntity
  8
SK1
100
AcDbLine
 10
-2.933112000000051
 20
3.180000000000035
 30
0.0
 11
-3.456909999999993
 21
3.180000000000035
 31
0.0
  0
ARC
  5
20F60
330
1F
100
AcDbEntity
  8
SK1
100
AcDbCircle
 10
-3.188258999999902
 20
2.900437000000039
 30
0.0
 40
0.392896
100
AcDbArc
 50
15.03576200000012
 51
35.70784199999482
  0
LINE
  5
20F61
330
1F
100
AcDbEntity
  8
SK1
100
AcDbLine
 10
-2.103136999999833
 20
3.002615999999974
 30
0.0
 11
-2.133567999999968
 21
2.906377000000034
 31
0.0
  0
LWPOLYLINE
  5
20F62
330
1F
100
AcDbEntity
  8
SK1
100
AcDbPolyline
 90
        3
 70
     0
 43
0.0
 10
-3.46685699999989
 20
3.177208000000035
 10
-3.544169999999894
 20
3.096132000000039
 10
-3.582952999999974
 20
3.00280800000003
  0
LINE
  5
20F63
330
1F
100
AcDbEntity
  8
SK1
100
AcDbLine
 10
-2.84306400000014
 20
-3.002539000000027
 30
0.0
 11
-2.873521999999979
 21
-2.906211999999968
 31
0.0
  0
LINE
  5
20F64
330
1F
100
AcDbEntity
  8
SK1
100
AcDbLine
 10
-3.673410999999987
 20
-3.180000000000021
 30
0.0
 11
-4.196740999999974
 21
-3.180000000000021
 31
0.0
  0
ARC
  5
20F65
330
1F
100
AcDbEntity
  8
SK1
100
AcDbCircle
 10
-3.025561999999922
 20
3.007315000000033
 30
0.0
 40
0.198237
100
AcDbArc
 50
38.07056699999592
 51
58.87933100000242
  0
LINE
  5
20F66
330
1F
100
AcDbEntity
  8
SK1
100
AcDbLine
 10
-2.7493189999999
 20
2.81474500000003
 30
0.0
 11
-2.808443999999894
 21
3.002461999999979
 31
0.0
  0
LINE
  5
20F67
330
1F
100
AcDbEntity
  8
SK1
100
AcDbLine
 10
-2.746751999999901
 20
2.825473999999985
 30
0.0
 11
-2.758326999999894
 21
2.840714000000005
 31
0.0
  0
LINE
  5
20F68
330
1F
100
AcDbEntity
  8
SK1
100
AcDbLine
 10
-3.582952999999974
 20
3.00280800000003
 30
0.0
 11
-3.613432999999986
 21
2.906562000000036
 31
0.0
  0
LINE
  5
20F69
330
1F
100
AcDbEntity
  8
SK1
100
AcDbLine
 10
-2.873521999999979
 20
-2.906211999999968
 30
0.0
 11
-2.902316999999925
 21
-2.815285000000017
 31
0.0
  0
LWPOLYLINE
  5
20F6A
330
1F
100
AcDbEntity
  8
SK1
100
AcDbPolyline
 90
        3
 70
     0
 43
0.0
 10
-4.206626999999912
 20
-3.177182000000016
 10
-4.284175999999888
 20
-3.095978000000016
 10
-4.322980000000143
 20
-3.0026399999999
  0
LINE
  5
20F6B
330
1F
100
AcDbEntity
  8
SK1
100
AcDbLine
 10
-4.322980000000143
 20
-3.0026399999999
 30
0.0
 11
-4.353533999999967
 21
-2.906447000000014
 31
0.0
  0
LINE
  5
20F6C
330
1F
100
AcDbEntity
  8
SK1
100
AcDbLine
 10
-4.413547999999991
 20
3.180000000000035
 30
0.0
 11
-4.937001999999893
 21
3.180000000000035
 31
0.0
  0
LWPOLYLINE
  5
20F6D
330
1F
100
AcDbEntity
  8
SK1
100
AcDbPolyline
 90
        3
 70
     0
 43
0.0
 10
-3.548444999999901
 20
-3.002412999999904
 10
-3.599002000000041
 20
-3.115260999999904
 10
-3.663063999999735
 20
-3.176890000000014
  0
ARC
  5
20F6E
330
1F
100
AcDbEntity
  8
SK1
100
AcDbCircle
 10
-2.62030100000004
 20
2.943935000000038
 30
0.0
 40
0.173397
100
AcDbArc
 50
223.1314459999965
 51
270.5027190000019
  0
LINE
  5
20F6F
330
1F
100
AcDbEntity
  8
SK1
100
AcDbLine
 10
-2.293610999999941
 20
2.770173000000042
 30
0.0
 11
-2.618777999999906
 21
2.770452999999974
 31
0.0
  0
ARC
  5
20F70
330
1F
100
AcDbEntity
  8
SK1
100
AcDbCircle
 10
-2.289856999999983
 20
2.937870999999972
 30
0.0
 40
0.167474
100
AcDbArc
 50
268.7176459999991
 51
325.4506520000008
  0
ARC
  5
20F71
330
1F
100
AcDbEntity
  8
SK1
100
AcDbCircle
 10
-3.030234999999947
 20
-2.939026000000026
 30
0.0
 40
0.168757
100
AcDbArc
 50
35.41547100000079
 51
91.12815900000152
  0
LINE
  5
20F72
330
1F
100
AcDbEntity
  8
SK1
100
AcDbLine
 10
-3.613497000000052
 20
2.906468000000032
 30
0.0
 11
-3.635201000000051
 21
2.837962000000032
 31
0.0
  0
ARC
  5
20F73
330
1F
100
AcDbEntity
  8
SK1
100
AcDbCircle
 10
-3.769754000000148
 20
2.937966000000031
 30
0.0
 40
0.167646
100
AcDbArc
 50
268.7101639999981
 51
325.2383309999985
  0
LWPOLYLINE
  5
20F74
330
1F
100
AcDbEntity
  8
SK1
100
AcDbPolyline
 90
        3
 70
     0
 43
0.0
 10
-4.947092999999995
 20
3.177112000000036
 10
-5.024197999999955
 20
3.096153000000043
 10
-5.062989000000129
 20
3.002828000000036
  0
LINE
  5
20F75
330
1F
100
AcDbEntity
  8
SK1
100
AcDbLine
 10
-5.063073000000144
 20
3.002553999999975
 30
0.0
 11
-5.093549999999936
 21
2.906174000000035
 31
0.0
  0
LINE
  5
20F76
330
1F
100
AcDbEntity
  8
SK1
100
AcDbLine
 10
-4.353574999999977
 20
-2.906275999999962
 30
0.0
 11
-4.382405999999946
 21
-2.815302999999957
 31
0.0
  0
LINE
  5
20F77
330
1F
100
AcDbEntity
  8
SK1
100
AcDbLine
 10
-5.153724999999894
 20
-3.180000000000021
 30
0.0
 11
-5.677218999999922
 21
-3.180000000000021
 31
0.0
  0
LINE
  5
20F78
330
1F
100
AcDbEntity
  8
SK1
100
AcDbLine
 10
-5.028485999999929
 20
-3.002428000000023
 30
0.0
 11
-5.048317999999994
 21
-3.057275000000018
 31
0.0
  0
LWPOLYLINE
  5
20F79
330
1F
100
AcDbEntity
  8
SK1
100
AcDbPolyline
 90
        3
 70
     0
 43
0.0
 10
-4.28844400000014
 20
3.002358000000043
 10
-4.339075999999977
 20
3.115390000000004
 10
-4.403275999999891
 20
3.177049000000039
  0
LINE
  5
20F7A
330
1F
100
AcDbEntity
  8
SK1
100
AcDbLine
 10
-3.496682999999961
 20
-2.838046000000019
 30
0.0
 11
-3.548444999999901
 21
-3.002412999999904
 31
0.0
  0
ARC
  5
20F7B
330
1F
100
AcDbEntity
  8
SK1
100
AcDbCircle
 10
-3.362363999999956
 20
-2.93797699999996
 30
0.0
 40
0.167382
100
AcDbArc
 50
88.75480899999898
 51
145.4970879999971
  0
LINE
  5
20F7C
330
1F
100
AcDbEntity
  8
SK1
100
AcDbLine
 10
-3.03356199999996
 20
-2.770078000000026
 30
0.0
 11
-3.358720999999832
 21
-2.770350000000007
 31
0.0
  0
LINE
  5
20F7D
330
1F
100
AcDbEntity
  8
SK1
100
AcDbLine
 10
-3.773533999999926
 20
2.770095000000054
 30
0.0
 11
-4.098693000000139
 21
2.770356999999975
 31
0.0
  0
LWPOLYLINE
  5
20F7E
330
1F
100
AcDbEntity
  8
SK1
100
AcDbPolyline
 90
        3
 70
     0
 43
0.0
 10
-5.687298999999939
 20
-3.177094000000025
 10
-5.764217999999914
 20
-3.0961589999999
 10
-5.798003999999991
 20
-3.018122000000019
  0
LINE
  5
20F7F
330
1F
100
AcDbEntity
  8
SK1
100
AcDbLine
 10
-5.803027000000042
 20
-3.00267100000002
 30
0.0
 11
-5.833509000000049
 21
-2.906272999999956
 31
0.0
  0
LINE
  5
20F80
330
1F
100
AcDbEntity
  8
SK1
100
AcDbLine
 10
-5.093487999999979
 20
2.906344000000004
 30
0.0
 11
-5.115221999999903
 21
2.837742000000005
 31
0.0
  0
ARC
  5
20F81
330
1F
100
AcDbEntity
  8
SK1
100
AcDbCircle
 10
-5.249704999999948
 20
2.937609000000037
 30
0.0
 40
0.167455
100
AcDbArc
 50
268.6848939999995
 51
325.4370080000019
  0
ARC
  5
20F82
330
1F
100
AcDbEntity
  8
SK1
100
AcDbCircle
 10
-4.510817999999972
 20
-2.940475999999961
 30
0.0
 40
0.170247
100
AcDbArc
 50
36.96784199999831
 51
90.93546400000073
  0
LINE
  5
20F83
330
1F
100
AcDbEntity
  8
SK1
100
AcDbLine
 10
-5.803027000000042
 20
-3.00267100000002
 30
0.0
 11
-5.798004999999989
 21
-3.018122000000019
 31
0.0
  0
ARC
  5
20F84
330
1F
100
AcDbEntity
  8
SK1
100
AcDbCircle
 10
-5.272511999999892
 20
-2.978564000000019
 30
0.0
 40
0.237078
100
AcDbArc
 50
303.0561790000014
 51
340.6546329999988
  0
LINE
  5
20F85
330
1F
100
AcDbEntity
  8
SK1
100
AcDbLine
 10
-4.977884999999901
 20
-2.841688999999959
 30
0.0
 11
-5.028485999999929
 21
-3.002428000000023
 31
0.0
  0
LINE
  5
20F86
330
1F
100
AcDbEntity
  8
SK1
100
AcDbLine
 10
-4.22943999999984
 20
2.815112999999996
 30
0.0
 11
-4.288442999999915
 21
3.002358000000043
 31
0.0
  0
ARC
  5
20F87
330
1F
100
AcDbEntity
  8
SK1
100
AcDbCircle
 10
-4.101505999999744
 20
2.940076999999973
 30
0.0
 40
0.169535
100
AcDbArc
 50
216.6648430000013
 51
270.9495939999982
  0
LINE
  5
20F88
330
1F
100
AcDbEntity
  8
SK1
100
AcDbLine
 10
-5.833509000000049
 20
-2.906272999999956
 30
0.0
 11
-5.862283000000047
 21
-2.815398999999999
 31
0.0
  0
ARC
  5
20F89
330
1F
100
AcDbEntity
  8
SK1
100
AcDbCircle
 10
-5.990290999999956
 20
-2.939180000000021
 30
0.0
 40
0.168957
100
AcDbArc
 50
35.70883200000274
 51
91.1028219999995
  0
LINE
  5
20F8A
330
1F
100
AcDbEntity
  8
SK1
100
AcDbLine
 10
-5.253554999999892
 20
2.769921000000039
 30
0.0
 11
-5.57880399999999
 21
2.770283000000034
 31
0.0
  0
LINE
  5
20F8B
330
1F
100
AcDbEntity
  8
SK1
100
AcDbLine
 10
-4.513599999999996
 20
-2.770085999999963
 30
0.0
 11
-4.838737999999921
 21
-2.770325000000013
 31
0.0
  0
ARC
  5
20F8C
330
1F
100
AcDbEntity
  8
SK1
100
AcDbCircle
 10
-6.294935999999893
 20
2.843268000000037
 30
0.0
 40
0.549944
100
AcDbArc
 50
16.84244900000011
 51
25.26772700000125
  0
LINE
  5
20F8D
330
1F
100
AcDbEntity
  8
SK1
100
AcDbLine
 10
-5.709368999999924
 20
2.814741000000054
 30
0.0
 11
-5.768444000000044
 21
3.002299999999976
 31
0.0
  0
ARC
  5
20F8E
330
1F
100
AcDbEntity
  8
SK1
100
AcDbCircle
 10
-4.842489
 20
-2.937808000000018
 30
0.0
 40
0.167207
100
AcDbArc
 50
88.71701699999865
 51
145.5563480000023
  0
ARC
  5
20F8F
330
1F
100
AcDbEntity
  8
SK1
100
AcDbCircle
 10
-5.581577000000152
 20
2.940102000000038
 30
0.0
 40
0.169685
100
AcDbArc
 50
217.3105410000034
 51
270.9356930000018
  0
LINE
  5
20F90
330
1F
100
AcDbEntity
  8
SK1
100
AcDbLine
 10
-5.993546999999921
 20
-2.770036000000018
 30
0.0
 11
-6.307809999999903
 21
-2.770430999999959
 31
0.0
  0
LINE
  5
20F91
330
1F
100
AcDbEntity
  8
SK1
100
AcDbLine
 10
-6.313160999999922
 20
-2.769229999999964
 30
0.0
 11
-6.640049999999746
 21
-2.682148999999967
 31
0.0
  0
INSERT
  5
20F92
102
{ACAD_REACTORS
330
20F97
330
20F9A
102
}
330
1F
100
AcDbEntity
  8
CUT
100
AcDbBlockReference
  2
CUT
 10
-82.5067076813549
 20
-420.6215098643748
 30
0.0
  0
LWPOLYLINE
  5
20F93
330
1F
100
AcDbEntity
  8
1
100
AcDbPolyline
 90
        5
 70
     0
 43
0.0
 10
0.5600000000000592
 20
4.801532557452787
 10
0.65252699999985
 20
4.814136557452812
 10
0.7341870000000199
 20
4.849252557452828
 10
0.8244390000000976
 20
4.934907557452788
 10
0.8600000000000136
 20
5.049225557452828
  0
INSERT
  5
20F94
330
1F
100
AcDbEntity
  8
NOCUT
100
AcDbBlockReference
  2
NOCUT
 10
-82.49754584390837
 20
-417.8295802840516
 30
0.0
  0
DIMENSION
  5
20F95
102
{ACAD_XDICTIONARY
360
20F96
102
}
102
{ACAD_REACTORS
330
20F97
102
}
330
1F
100
AcDbEntity
  8
2
100
AcDbDimension
  2
*D3
 10
0.8600070727900977
 20
21.21494109599176
 30
0.0
 11
-11.63436397429365
 21
21.21494109599176
 31
0.0
 70
   160
 71
     5
 42
1.499984927209993
  3
STANDARD
100
AcDbAlignedDimension
 13
2.35999200000009
 23
8.748698999999987
 33
0.0
 14
0.860007072790097
 24
8.748578219294259
 34
0.0
100
AcDbRotatedDimension
1001
ACAD
1000
DSTYLE
1002
{
1070
   172
1070
     1
1002
}
  0
DIMENSION
  5
20F98
102
{ACAD_XDICTIONARY
360
20F99
102
}
102
{ACAD_REACTORS
330
20F9A
102
}
330
1F
100
AcDbEntity
  8
2
100
AcDbDimension
  2
*D4
 10
2.259786000000091
 20
8.748698999999986
 30
0.0
 11
13.15665163772673
 21
17.0493098707467
 31
0.0
 70
    36
 71
     5
 42
0.1002060000003091
  3
STANDARD
100
AcDbRadialDimension
 15
2.34715636236173
 25
8.797766934711544
 35
0.0
 40
0.0
1001
ACAD
1000
DSTYLE
1002
{
1070
   288
1070
     1
1002
}
1001
ACAD_DSTYLE_DIMRADIAL_EXTENSION
1070
   387
1070
     1
1070
   388
1040
6.281979982798138
1070
   390
1040
1.56866524487162
  0
INSERT
  5
20F9B
330
1F
100
AcDbEntity
  8
SK2
100
AcDbBlockReference
  2
cero_point
 10
0.0000000000001546
 20
-0.0000000000000711
 30
0.0
 41
0.485033124530958
 42
0.485033124530958
 43
0.485033124530958
  0
LINE
  5
20F9C
330
1F
100
AcDbEntity
  8
INFTOTAL
100
AcDbLine
 10
-31.65102453757481
 20
-2.398785619447721
 30
0.0
 11
-31.65102453757481
 21
34.88906057081353
 31
0.0
  0
LINE
  5
20F9D
330
1F
100
AcDbEntity
  8
INFTOTAL
100
AcDbLine
 10
-31.65102453757481
 20
34.88906057081353
 30
0.0
 11
26.22475289074498
 21
34.88906057081353
 31
0.0
  0
LINE
  5
20F9E
330
1F
100
AcDbEntity
  8
INFTOTAL
100
AcDbLine
 10
32.5531294062298
 20
13.16198309920627
 30
0.0
 11
32.5531294062298
 21
-24.1258630910549
 31
0.0
  0
LINE
  5
20F9F
330
1F
100
AcDbEntity
  8
INFTOTAL
100
AcDbLine
 10
32.5531294062298
 20
-24.1258630910549
 30
0.0
 11
-25.32264802209011
 21
-24.1258630910549
 31
0.0
  0
ATTDEF
  5
20FA0
330
1F
100
AcDbEntity
  8
SK6
100
AcDbText
 10
-14.8918433962426
 20
-16.21291273469761
 30
0.0
 40
2.5
  1

 72
     1
 11
0.2715438138768604
 21
-16.21291273469761
 31
0.0
100
AcDbAttributeDefinition
  3

  2
16T17715T6RK01
 70
     0
  0
DIMENSION
  5
20FE2
330
1F
100
AcDbEntity
  8
0
100
AcDbDimension
  2
*D5
 10
12.69806908994849
 20
-8.850000000000026
 30
0.0
 11
10.74492783907006
 21
-0.0000000000000147
 31
0.0
 70
    32
  1
%%C<>
 71
     5
 42
17.70000000000002
  3
STANDARD
100
AcDbAlignedDimension
 13
2.950972054112639
 23
8.849999999999994
 33
0.0
 14
2.950972054112639
 24
-8.850000000000022
 34
0.0
 50
90.0
100
AcDbRotatedDimension
  0
VIEWPORT
  5
9C00
102
{ACAD_XDICTIONARY
360
210B3
102
}
330
1B
100
AcDbEntity
 67
     1
  8
0
100
AcDbViewport
 10
108.2280559557949
 20
71.69854161746989
 30
0.0
 40
251.8950231529317
 41
201.8884082081047
 68
     1
 69
     1
 12
108.2280559557949
 22
71.69854161746989
 13
0.0
 23
0.0
 14
10.0
 24
10.0
 15
10.0
 25
10.0
 16
0.0
 26
0.0
 36
1.0
 17
0.0
 27
0.0
 37
0.0
 42
50.0
 43
0.0
 44
0.0
 45
201.8884082081047
 50
0.0
 51
0.0
 72
   100
 90
   557088
  1

281
     0
 71
     1
 74
     0
110
0.0
120
0.0
130
0.0
111
1.0
121
0.0
131
0.0
112
0.0
122
1.0
132
0.0
 79
     0
146
0.0
  0
VIEWPORT
  5
9C02
102
{ACAD_XDICTIONARY
360
210B5
102
}
330
1B
100
AcDbEntity
 67
     1
  8
1
100
AcDbViewport
 10
143.457083940506
 20
98.18158769607544
 30
0.0
 40
229.5313343048095
 41
157.0905403137207
 68
     2
 69
     2
 12
-44.37697124786255
 22
-35.12342998133886
 13
0.0
 23
0.0
 14
10.0
 24
10.0
 15
10.0
 25
10.0
 16
0.0
 26
0.0
 36
1.0
 17
0.0
 27
0.0
 37
0.0
 42
50.0
 43
0.0
 44
0.0
 45
300.3886240724386
 50
0.0
 51
0.0
 72
   100
 90
   557088
  1

281
     0
 71
     1
 74
     0
110
0.0
120
0.0
130
0.0
111
1.0
121
0.0
131
0.0
112
0.0
122
1.0
132
0.0
 79
     0
146
0.0
  0
ENDSEC
  0
SECTION
  2
OBJECTS
  0
DICTIONARY
  5
3182
330
0
100
AcDbDictionary
281
     1
  3
ACAD_CIP_PREVIOUS_PRODUCT_INFO
350
1B2F4
  3
ACAD_COLOR
350
31A0
  3
ACAD_DETAILVIEWSTYLE
350
1B2F0
  3
ACAD_GROUP
350
3183
  3
ACAD_LAYOUT
350
31A5
  3
ACAD_MATERIAL
350
318B
  3
ACAD_MLEADERSTYLE
350
1B221
  3
ACAD_MLINESTYLE
350
3184
  3
ACAD_PLOTSETTINGS
350
31A4
  3
ACAD_PLOTSTYLENAME
350
3189
  3
ACAD_SCALELIST
350
1B1FC
  3
ACAD_SECTIONVIEWSTYLE
350
1B2EE
  3
ACAD_TABLESTYLE
350
31A1
  3
ACAD_VISUALSTYLE
350
318F
  3
ACDB_RECOMPOSE_DATA
350
2108C
  3
AcDbVariableDictionary
350
33A3
  3
DWGPROPS
350
2108D
  0
DICTIONARY
  5
422A
330
2
100
AcDbDictionary
280
     1
281
     1
  3
ACAD_LAYERFILTERS
360
1B063
  3
ACAD_LAYERSTATES
360
9A1C
  3
ACLYDICTIONARY
360
1B062
  0
DICTIONARY
  5
1B2F5
330
10
100
AcDbDictionary
280
     1
281
     1
  3
ADSK_XREC_LAYER_RECONCILED
360
20CA5
  0
DICTIONARY
  5
1B2F7
330
3F8C
100
AcDbDictionary
280
     1
281
     1
  3
ADSK_XREC_LAYER_RECONCILED
360
20CA6
  0
DICTIONARY
  5
1B2F9
330
9C4A
100
AcDbDictionary
280
     1
281
     1
  3
ADSK_XREC_LAYER_RECONCILED
360
20CA7
  0
DICTIONARY
  5
1B2FB
330
9C4B
100
AcDbDictionary
280
     1
281
     1
  3
ADSK_XREC_LAYER_RECONCILED
360
20CA8
  0
DICTIONARY
  5
1B2FD
330
9C4D
100
AcDbDictionary
280
     1
281
     1
  3
ADSK_XREC_LAYER_RECONCILED
360
20CA9
  0
DICTIONARY
  5
1B2FF
330
9C4E
100
AcDbDictionary
280
     1
281
     1
  3
ADSK_XREC_LAYER_RECONCILED
360
20CAA
  0
DICTIONARY
  5
1B301
330
9C4F
100
AcDbDictionary
280
     1
281
     1
  3
ADSK_XREC_LAYER_RECONCILED
360
20CAB
  0
DICTIONARY
  5
1B303
330
9C50
100
AcDbDictionary
280
     1
281
     1
  3
ADSK_XREC_LAYER_RECONCILED
360
20CAC
  0
DICTIONARY
  5
1B305
330
9C51
100
AcDbDictionary
280
     1
281
     1
  3
ADSK_XREC_LAYER_RECONCILED
360
20CAD
  0
DICTIONARY
  5
1B307
330
13335
100
AcDbDictionary
280
     1
281
     1
  3
ADSK_XREC_LAYER_RECONCILED
360
20CAE
  0
DICTIONARY
  5
1B309
330
1686E
100
AcDbDictionary
280
     1
281
     1
  3
ADSK_XREC_LAYER_RECONCILED
360
20CAF
  0
DICTIONARY
  5
339C
330
1F
100
AcDbDictionary
280
     1
281
     1
  3
ACAD_SORTENTS
360
339D
  0
DICTIONARY
  5
1DE81
330
1B3D7
100
AcDbDictionary
280
     1
281
     1
  3
AcDbBlockTableRecordData
360
210CF
  0
DICTIONARY
  5
20F96
330
20F95
100
AcDbDictionary
280
     1
281
     1
  3
ACAD_DIMASSOC
360
20F97
  0
DICTIONARY
  5
20F99
330
20F98
100
AcDbDictionary
280
     1
281
     1
  3
ACAD_DIMASSOC
360
20F9A
  0
DICTIONARY
  5
210B3
330
9C00
100
AcDbDictionary
280
     1
281
     1
  3
ACAD_XREC_ROUNDTRIP
360
210B4
  0
DICTIONARY
  5
210B5
330
9C02
100
AcDbDictionary
280
     1
281
     1
  3
ACAD_XREC_ROUNDTRIP
360
210B6
  0
XRECORD
  5
1B2F4
102
{ACAD_REACTORS
330
3182
102
}
330
3182
100
AcDbXrecord
280
     1
300
ACDLT
300
2015
300
ACDLT_F_S
  0
DICTIONARY
  5
31A0
102
{ACAD_REACTORS
330
3182
102
}
330
3182
100
AcDbDictionary
281
     1
  0
DICTIONARY
  5
1B2F0
102
{ACAD_REACTORS
330
3182
102
}
330
3182
100
AcDbDictionary
281
     1
  3
Metric50
350
1B2F1
  0
DICTIONARY
  5
3183
102
{ACAD_REACTORS
330
3182
102
}
330
3182
100
AcDbDictionary
281
     1
  0
DICTIONARY
  5
31A5
102
{ACAD_REACTORS
330
3182
102
}
330
3182
100
AcDbDictionary
281
     1
  3
Layout1
350
31A7
  3
Model
350
31A6
  0
DICTIONARY
  5
318B
102
{ACAD_REACTORS
330
3182
102
}
330
3182
100
AcDbDictionary
281
     1
  3
ByBlock
350
318D
  3
ByLayer
350
318C
  3
Global
350
318E
  0
DICTIONARY
  5
1B221
102
{ACAD_REACTORS
330
3182
102
}
330
3182
100
AcDbDictionary
281
     1
  3
Standard
350
1B2ED
  0
DICTIONARY
  5
3184
102
{ACAD_REACTORS
330
3182
102
}
330
3182
100
AcDbDictionary
281
     1
  3
STANDARD
350
3185
  0
DICTIONARY
  5
31A4
102
{ACAD_REACTORS
330
3182
102
}
330
3182
100
AcDbDictionary
281
     1
  0
ACDBDICTIONARYWDFLT
  5
3189
102
{ACAD_REACTORS
330
3182
102
}
330
3182
100
AcDbDictionary
281
     1
  3
Normal
350
318A
100
AcDbDictionaryWithDefault
340
318A
  0
DICTIONARY
  5
1B1FC
102
{ACAD_REACTORS
330
3182
102
}
330
3182
100
AcDbDictionary
281
     1
  3
A0
350
1B1FD
  3
A1
350
1B1FE
  3
A2
350
1B1FF
  3
A3
350
1B200
  3
A4
350
1B201
  3
A5
350
1B202
  3
A6
350
1B203
  3
A7
350
1B204
  3
A8
350
1B205
  3
A9
350
1B206
  3
B0
350
1B207
  3
B1
350
1B208
  3
B2
350
1B209
  3
B3
350
1B20A
  3
B4
350
1B20B
  3
B5
350
1B20C
  3
B6
350
1B20D
  3
B7
350
1B20E
  3
B8
350
1B20F
  3
B9
350
1B210
  3
C0
350
1B211
  3
C1
350
1B212
  3
C2
350
1B213
  3
C3
350
1B214
  3
C4
350
1B215
  3
C5
350
1B216
  3
C6
350
1B217
  3
C7
350
1B218
  3
C8
350
1B219
  3
C9
350
1B21A
  3
D0
350
1B21B
  3
D1
350
1B21C
  3
D2
350
1B21D
  0
DICTIONARY
  5
1B2EE
102
{ACAD_REACTORS
330
3182
102
}
330
3182
100
AcDbDictionary
281
     1
  3
Metric50
350
1B2EF
  0
DICTIONARY
  5
31A1
102
{ACAD_REACTORS
330
3182
102
}
330
3182
100
AcDbDictionary
281
     1
  3
Standard
350
31A2
  0
DICTIONARY
  5
318F
102
{ACAD_REACTORS
330
3182
102
}
330
3182
100
AcDbDictionary
281
     1
  3
2dWireframe
350
3195
  3
3D Hidden
350
3197
  3
3dWireframe
350
3196
  3
Basic
350
3194
  3
Brighten
350
319B
  3
ColorChange
350
319F
  3
Conceptual
350
3198
  3
Dim
350
319A
  3
EdgeColorOff
350
1B2EC
  3
Facepattern
350
319E
  3
Flat
350
3190
  3
FlatWithEdges
350
3191
  3
Gouraud
350
3192
  3
GouraudWithEdges
350
3193
  3
Hidden
350
1B2E4
  3
JitterOff
350
1B2EA
  3
Linepattern
350
319D
  3
OverhangOff
350
1B2EB
  3
Realistic
350
3199
  3
Shaded
350
1B2E9
  3
Shaded with edges
350
1B2E8
  3
Shades of Gray
350
1B2E5
  3
Sketchy
350
1B2E6
  3
Thicken
350
319C
  3
Wireframe
350
1B2E3
  3
X-Ray
350
1B2E7
  0
XRECORD
  5
2108C
102
{ACAD_REACTORS
330
3182
102
}
330
3182
100
AcDbXrecord
280
     1
 90
        1
330
31A2
  0
DICTIONARY
  5
33A3
102
{ACAD_REACTORS
330
3182
102
}
330
3182
100
AcDbDictionary
281
     1
  3
CANNOSCALE
350
1B222
  3
CMLEADERSTYLE
350
1B30F
  3
CTABLESTYLE
350
33A4
  3
CVIEWDETAILSTYLE
350
1B310
  3
CVIEWSECTIONSTYLE
350
1B311
  3
DIMASSOC
350
9BE8
  3
INDEXCTL
350
9BE7
  3
LAYEREVAL
350
20993
  3
LAYERNOTIFY
350
20994
  3
LIGHTINGUNITS
350
20992
  3
MSLTSCALE
350
20991
  3
SORTENTS
350
9BE6
  3
XCLIPFRAME
350
2108A
  0
XRECORD
  5
2108D
102
{ACAD_REACTORS
330
3182
102
}
330
3182
100
AcDbXrecord
280
     1
  1
DWGPROPS COOKIE
  2

  3

  4

  6

  7

  8
kamerka
  9

300
=
301
=
302
=
303
=
304
=
305
=
306
=
307
=
308
=
309
=
 40
0.0020604282407407
 41
2457354.630009468
 42
2457354.63632868
  1

 90
        0
  0
DICTIONARY
  5
1B063
102
{ACAD_REACTORS
330
422A
102
}
330
422A
100
AcDbDictionary
281
     1
  0
DICTIONARY
  5
9A1C
102
{ACAD_REACTORS
330
422A
102
}
330
422A
100
AcDbDictionary
281
     1
  0
DICTIONARY
  5
1B062
102
{ACAD_REACTORS
330
422A
102
}
330
422A
100
AcDbDictionary
281
     1
1001
ACAD
1000
<All
  0
XRECORD
  5
20CA5
102
{ACAD_REACTORS
330
1B2F5
102
}
330
1B2F5
100
AcDbXrecord
280
     1
290
     1
  0
XRECORD
  5
20CA6
102
{ACAD_REACTORS
330
1B2F7
102
}
330
1B2F7
100
AcDbXrecord
280
     1
290
     1
  0
XRECORD
  5
20CA7
102
{ACAD_REACTORS
330
1B2F9
102
}
330
1B2F9
100
AcDbXrecord
280
     1
290
     1
  0
XRECORD
  5
20CA8
102
{ACAD_REACTORS
330
1B2FB
102
}
330
1B2FB
100
AcDbXrecord
280
     1
290
     1
  0
XRECORD
  5
20CA9
102
{ACAD_REACTORS
330
1B2FD
102
}
330
1B2FD
100
AcDbXrecord
280
     1
290
     1
  0
XRECORD
  5
20CAA
102
{ACAD_REACTORS
330
1B2FF
102
}
330
1B2FF
100
AcDbXrecord
280
     1
290
     1
  0
XRECORD
  5
20CAB
102
{ACAD_REACTORS
330
1B301
102
}
330
1B301
100
AcDbXrecord
280
     1
290
     1
  0
XRECORD
  5
20CAC
102
{ACAD_REACTORS
330
1B303
102
}
330
1B303
100
AcDbXrecord
280
     1
290
     1
  0
XRECORD
  5
20CAD
102
{ACAD_REACTORS
330
1B305
102
}
330
1B305
100
AcDbXrecord
280
     1
290
     1
  0
XRECORD
  5
20CAE
102
{ACAD_REACTORS
330
1B307
102
}
330
1B307
100
AcDbXrecord
280
     1
290
     1
  0
XRECORD
  5
20CAF
102
{ACAD_REACTORS
330
1B309
102
}
330
1B309
100
AcDbXrecord
280
     1
290
     1
  0
SORTENTSTABLE
  5
339D
102
{ACAD_REACTORS
330
339C
102
}
330
339C
100
AcDbSortentsTable
330
1F
  0
DICTIONARY
  5
210CF
102
{ACAD_REACTORS
330
1DE81
102
}
330
1DE81
100
AcDbDictionary
280
     1
281
     1
  3
Edit
360
210D0
  0
DIMASSOC
  5
20F97
102
{ACAD_REACTORS
330
20F96
102
}
330
20F96
100
AcDbDimAssoc
330
20F95
 90
        3
 70
     0
 71
     0
  1
AcDbOsnapPointRef
 72
     5
331
20F92
331
20D18
 73
     2
 91
        0
 40
6.283185307179584
 10
0.0
 20
0.0
 30
0.0
 75
     0
  1
AcDbOsnapPointRef
 72
     1
331
20F92
331
20D1A
 73
     2
 91
        0
 40
3.142797977971444
 10
0.0
 20
0.0
 30
2.000000000000000E+50
 75
     0
  0
DIMASSOC
  5
20F9A
102
{ACAD_REACTORS
330
20F99
102
}
330
20F99
100
AcDbDimAssoc
330
20F98
 90
        2
 70
     0
 71
     0
  1
AcDbOsnapPointRef
 72
     3
331
20F92
331
20D18
 73
     2
 91
        0
 40
0.0
 10
0.0
 20
0.0
 30
0.0
 75
     0
  0
XRECORD
  5
210B4
102
{ACAD_REACTORS
330
210B3
102
}
330
210B3
100
AcDbXrecord
280
     1
102
SHADEPLOT
 70
     0
  0
XRECORD
  5
210B6
102
{ACAD_REACTORS
330
210B5
102
}
330
210B5
100
AcDbXrecord
280
     1
102
SHADEPLOT
 70
     0
  0
ACDBDETAILVIEWSTYLE
  5
1B2F1
102
{ACAD_XDICTIONARY
360
210CD
102
}
102
{ACAD_REACTORS
330
1B2F0
102
}
330
1B2F0
100
AcDbModelDocViewStyle
 70
     0
  3
Metric50
290
     0
100
AcDbDetailViewStyle
 70
     0
 71
     0
 90
        3
 71
     1
340
11
 40
5.0
340
0
 40
5.0
300

 40
0.0
280
     1
 71
     2
340
16
 90
       25
 71
     3
340
11
 40
5.0
 90
        0
 40
15.0
 90
        1
300
%<\AcVar ViewDetailId>% (%<\AcVar ViewScale \f "%sn">%)
 71
     4
340
16
 90
       25
340
16
 90
       25
280
     0
  0
LAYOUT
  5
31A7
102
{ACAD_XDICTIONARY
360
210B1
102
}
102
{ACAD_REACTORS
330
31A5
102
}
330
31A5
100
AcDbPlotSettings
  1

  2
\\ingdc01\ITB3
  4
A4
  6

 40
6.805083274841307
 41
5.027085781097412
 42
6.805068969726562
 43
5.027069091796875
 44
209.9733276367186
 45
296.9683227539062
 46
0.0
 47
0.0
 48
0.0
 49
0.0
140
0.0
141
0.0
142
1.0
143
1.0
 70
   688
 72
     1
 73
     1
 74
     5
  7

 75
    16
147
1.0
148
0.0
149
0.0
100
AcDbLayout
  1
Layout1
 70
     1
 71
     1
 10
-5.027069091796875
 20
-6.805083274841307
 11
291.9412536621094
 21
203.1682443618775
 12
0.0
 22
0.0
 32
0.0
 14
28.69141678810127
 24
19.6363175392151
 34
0.0
 15
258.2227510929107
 25
176.7268578529358
 35
0.0
146
0.0
 13
0.0
 23
0.0
 33
0.0
 16
1.0
 26
0.0
 36
0.0
 17
0.0
 27
1.0
 37
0.0
 76
     0
330
1B
331
9C00
1001
ACAD_PSEXT
1000
\\ingdc01\ITB3
1000
HP LaserJet 5000 Series PCL
1000
TB
1000

1070
     0
  0
LAYOUT
  5
31A6
102
{ACAD_XDICTIONARY
360
210AF
102
}
102
{ACAD_REACTORS
330
31A5
102
}
330
31A5
100
AcDbPlotSettings
  1

  2
\\ingdc01\ITB3
  4
A4
  6

 40
6.805083274841307
 41
5.027085781097412
 42
6.805068969726562
 43
5.027069091796875
 44
209.9733276367186
 45
296.9683227539062
 46
0.0
 47
0.0
 48
0.0
 49
0.0
140
0.0
141
0.0
142
1.0
143
1.500313223655698
 70
 11952
 72
     1
 73
     1
 74
     0
  7

 75
     0
147
0.6665274852163048
148
239.0155119930048
149
102.2558208723354
100
AcDbLayout
  1
Model
 70
     1
 71
     0
 10
0.0
 20
0.0
 11
12.0
 21
9.0
 12
0.0
 22
0.0
 32
0.0
 14
0.0
 24
0.0
 34
0.0
 15
0.0
 25
0.0
 35
0.0
146
0.0
 13
0.0
 23
0.0
 33
0.0
 16
1.0
 26
0.0
 36
0.0
 17
0.0
 27
1.0
 37
0.0
 76
     0
330
1F
331
1F4
1001
ACAD_PSEXT
1000
\\ingdc01\ITB3
1000
HP LaserJet 5000 Series PCL
1000
TB
1000

1070
     0
  0
MATERIAL
  5
318D
102
{ACAD_XDICTIONARY
360
1B22B
102
}
102
{ACAD_REACTORS
330
318B
102
}
330
318B
100
AcDbMaterial
  1
ByBlock
  0
MATERIAL
  5
318C
102
{ACAD_XDICTIONARY
360
1B22D
102
}
102
{ACAD_REACTORS
330
318B
102
}
330
318B
100
AcDbMaterial
  1
ByLayer
  0
MATERIAL
  5
318E
102
{ACAD_XDICTIONARY
360
1B22F
102
}
102
{ACAD_REACTORS
330
318B
102
}
330
318B
100
AcDbMaterial
  1
Global
  0
MLEADERSTYLE
  5
1B2ED
102
{ACAD_REACTORS
330
1B221
102
}
330
1B221
100
AcDbMLeaderStyle
170
     2
171
     1
172
     0
 90
        2
 40
0.0
 41
0.0
173
     1
 91
-1056964608
340
14
 92
       -2
290
     1
 42
2.0
291
     1
 43
0.36
  3
Standard
 44
4.0
300

342
11
174
     1
178
     6
175
     1
176
     0
 93
-1056964608
 45
4.0
292
     0
297
     0
 46
4.0
 94
-1056964608
 47
1.0
 49
1.0
140
1.0
293
     1
141
0.0
294
     1
177
     0
142
1.0
295
     0
296
     0
143
0.125
1001
ACAD_MLEADERVER
1070
     2
  0
MLINESTYLE
  5
3185
102
{ACAD_REACTORS
330
3184
102
}
330
3184
100
AcDbMlineStyle
  2
STANDARD
 70
     0
  3

 62
   256
 51
90.0
 52
90.0
 71
     2
 49
0.5
 62
   256
  6
BYLAYER
 49
-0.5
 62
   256
  6
BYLAYER
  0
ACDBPLACEHOLDER
  5
318A
102
{ACAD_REACTORS
330
3189
102
}
330
3189
  0
SCALE
  5
1B1FD
102
{ACAD_REACTORS
330
1B1FC
102
}
330
1B1FC
100
AcDbScale
 70
     0
300
1:1
140
1.0
141
1.0
290
     1
1001
ACAD
1000
AcRTDxfName
1000
SCALE
  0
SCALE
  5
1B1FE
102
{ACAD_REACTORS
330
1B1FC
102
}
330
1B1FC
100
AcDbScale
 70
     0
300
1:2
140
1.0
141
2.0
290
     0
1001
ACAD
1000
AcRTDxfName
1000
SCALE
  0
SCALE
  5
1B1FF
102
{ACAD_REACTORS
330
1B1FC
102
}
330
1B1FC
100
AcDbScale
 70
     0
300
1:4
140
1.0
141
4.0
290
     0
1001
ACAD
1000
AcRTDxfName
1000
SCALE
  0
SCALE
  5
1B200
102
{ACAD_REACTORS
330
1B1FC
102
}
330
1B1FC
100
AcDbScale
 70
     0
300
1:5
140
1.0
141
5.0
290
     0
1001
ACAD
1000
AcRTDxfName
1000
SCALE
  0
SCALE
  5
1B201
102
{ACAD_REACTORS
330
1B1FC
102
}
330
1B1FC
100
AcDbScale
 70
     0
300
1:8
140
1.0
141
8.0
290
     0
1001
ACAD
1000
AcRTDxfName
1000
SCALE
  0
SCALE
  5
1B202
102
{ACAD_REACTORS
330
1B1FC
102
}
330
1B1FC
100
AcDbScale
 70
     0
300
1:10
140
1.0
141
10.0
290
     0
1001
ACAD
1000
AcRTDxfName
1000
SCALE
  0
SCALE
  5
1B203
102
{ACAD_REACTORS
330
1B1FC
102
}
330
1B1FC
100
AcDbScale
 70
     0
300
1:16
140
1.0
141
16.0
290
     0
1001
ACAD
1000
AcRTDxfName
1000
SCALE
  0
SCALE
  5
1B204
102
{ACAD_REACTORS
330
1B1FC
102
}
330
1B1FC
100
AcDbScale
 70
     0
300
1:20
140
1.0
141
20.0
290
     0
1001
ACAD
1000
AcRTDxfName
1000
SCALE
  0
SCALE
  5
1B205
102
{ACAD_REACTORS
330
1B1FC
102
}
330
1B1FC
100
AcDbScale
 70
     0
300
1:30
140
1.0
141
30.0
290
     0
1001
ACAD
1000
AcRTDxfName
1000
SCALE
  0
SCALE
  5
1B206
102
{ACAD_REACTORS
330
1B1FC
102
}
330
1B1FC
100
AcDbScale
 70
     0
300
1:40
140
1.0
141
40.0
290
     0
1001
ACAD
1000
AcRTDxfName
1000
SCALE
  0
SCALE
  5
1B207
102
{ACAD_REACTORS
330
1B1FC
102
}
330
1B1FC
100
AcDbScale
 70
     0
300
1:50
140
1.0
141
50.0
290
     0
1001
ACAD
1000
AcRTDxfName
1000
SCALE
  0
SCALE
  5
1B208
102
{ACAD_REACTORS
330
1B1FC
102
}
330
1B1FC
100
AcDbScale
 70
     0
300
1:100
140
1.0
141
100.0
290
     0
1001
ACAD
1000
AcRTDxfName
1000
SCALE
  0
SCALE
  5
1B209
102
{ACAD_REACTORS
330
1B1FC
102
}
330
1B1FC
100
AcDbScale
 70
     0
300
2:1
140
2.0
141
1.0
290
     0
1001
ACAD
1000
AcRTDxfName
1000
SCALE
  0
SCALE
  5
1B20A
102
{ACAD_REACTORS
330
1B1FC
102
}
330
1B1FC
100
AcDbScale
 70
     0
300
4:1
140
4.0
141
1.0
290
     0
1001
ACAD
1000
AcRTDxfName
1000
SCALE
  0
SCALE
  5
1B20B
102
{ACAD_REACTORS
330
1B1FC
102
}
330
1B1FC
100
AcDbScale
 70
     0
300
8:1
140
8.0
141
1.0
290
     0
1001
ACAD
1000
AcRTDxfName
1000
SCALE
  0
SCALE
  5
1B20C
102
{ACAD_REACTORS
330
1B1FC
102
}
330
1B1FC
100
AcDbScale
 70
     0
300
10:1
140
10.0
141
1.0
290
     0
1001
ACAD
1000
AcRTDxfName
1000
SCALE
  0
SCALE
  5
1B20D
102
{ACAD_REACTORS
330
1B1FC
102
}
330
1B1FC
100
AcDbScale
 70
     0
300
100:1
140
100.0
141
1.0
290
     0
1001
ACAD
1000
AcRTDxfName
1000
SCALE
  0
SCALE
  5
1B20E
102
{ACAD_REACTORS
330
1B1FC
102
}
330
1B1FC
100
AcDbScale
 70
     0
300
1/128" = 1'-0"
140
0.0078125
141
12.0
290
     0
1001
ACAD
1000
AcRTDxfName
1000
SCALE
  0
SCALE
  5
1B20F
102
{ACAD_REACTORS
330
1B1FC
102
}
330
1B1FC
100
AcDbScale
 70
     0
300
1/64" = 1'-0"
140
0.015625
141
12.0
290
     0
1001
ACAD
1000
AcRTDxfName
1000
SCALE
  0
SCALE
  5
1B210
102
{ACAD_REACTORS
330
1B1FC
102
}
330
1B1FC
100
AcDbScale
 70
     0
300
1/32" = 1'-0"
140
0.03125
141
12.0
290
     0
1001
ACAD
1000
AcRTDxfName
1000
SCALE
  0
SCALE
  5
1B211
102
{ACAD_REACTORS
330
1B1FC
102
}
330
1B1FC
100
AcDbScale
 70
     0
300
1/16" = 1'-0"
140
0.0625
141
12.0
290
     0
1001
ACAD
1000
AcRTDxfName
1000
SCALE
  0
SCALE
  5
1B212
102
{ACAD_REACTORS
330
1B1FC
102
}
330
1B1FC
100
AcDbScale
 70
     0
300
3/32" = 1'-0"
140
0.09375
141
12.0
290
     0
1001
ACAD
1000
AcRTDxfName
1000
SCALE
  0
SCALE
  5
1B213
102
{ACAD_REACTORS
330
1B1FC
102
}
330
1B1FC
100
AcDbScale
 70
     0
300
1/8" = 1'-0"
140
0.125
141
12.0
290
     0
1001
ACAD
1000
AcRTDxfName
1000
SCALE
  0
SCALE
  5
1B214
102
{ACAD_REACTORS
330
1B1FC
102
}
330
1B1FC
100
AcDbScale
 70
     0
300
3/16" = 1'-0"
140
0.1875
141
12.0
290
     0
1001
ACAD
1000
AcRTDxfName
1000
SCALE
  0
SCALE
  5
1B215
102
{ACAD_REACTORS
330
1B1FC
102
}
330
1B1FC
100
AcDbScale
 70
     0
300
1/4" = 1'-0"
140
0.25
141
12.0
290
     0
1001
ACAD
1000
AcRTDxfName
1000
SCALE
  0
SCALE
  5
1B216
102
{ACAD_REACTORS
330
1B1FC
102
}
330
1B1FC
100
AcDbScale
 70
     0
300
3/8" = 1'-0"
140
0.375
141
12.0
290
     0
1001
ACAD
1000
AcRTDxfName
1000
SCALE
  0
SCALE
  5
1B217
102
{ACAD_REACTORS
330
1B1FC
102
}
330
1B1FC
100
AcDbScale
 70
     0
300
1/2" = 1'-0"
140
0.5
141
12.0
290
     0
1001
ACAD
1000
AcRTDxfName
1000
SCALE
  0
SCALE
  5
1B218
102
{ACAD_REACTORS
330
1B1FC
102
}
330
1B1FC
100
AcDbScale
 70
     0
300
3/4" = 1'-0"
140
0.75
141
12.0
290
     0
1001
ACAD
1000
AcRTDxfName
1000
SCALE
  0
SCALE
  5
1B219
102
{ACAD_REACTORS
330
1B1FC
102
}
330
1B1FC
100
AcDbScale
 70
     0
300
1" = 1'-0"
140
1.0
141
12.0
290
     0
1001
ACAD
1000
AcRTDxfName
1000
SCALE
  0
SCALE
  5
1B21A
102
{ACAD_REACTORS
330
1B1FC
102
}
330
1B1FC
100
AcDbScale
 70
     0
300
1-1/2" = 1'-0"
140
1.5
141
12.0
290
     0
1001
ACAD
1000
AcRTDxfName
1000
SCALE
  0
SCALE
  5
1B21B
102
{ACAD_REACTORS
330
1B1FC
102
}
330
1B1FC
100
AcDbScale
 70
     0
300
3" = 1'-0"
140
3.0
141
12.0
290
     0
1001
ACAD
1000
AcRTDxfName
1000
SCALE
  0
SCALE
  5
1B21C
102
{ACAD_REACTORS
330
1B1FC
102
}
330
1B1FC
100
AcDbScale
 70
     0
300
6" = 1'-0"
140
6.0
141
12.0
290
     0
1001
ACAD
1000
AcRTDxfName
1000
SCALE
  0
SCALE
  5
1B21D
102
{ACAD_REACTORS
330
1B1FC
102
}
330
1B1FC
100
AcDbScale
 70
     0
300
1'-0" = 1'-0"
140
12.0
141
12.0
290
     0
1001
ACAD
1000
AcRTDxfName
1000
SCALE
  0
ACDBSECTIONVIEWSTYLE
  5
1B2EF
102
{ACAD_XDICTIONARY
360
210CB
102
}
102
{ACAD_REACTORS
330
1B2EE
102
}
330
1B2EE
100
AcDbModelDocViewStyle
 70
     0
  3
Metric50
290
     0
100
AcDbSectionViewStyle
 70
     0
 71
     0
 90
      102
 71
     1
340
11
 40
5.0
340
0
340
0
 40
5.0
300
I, O, Q, S, X, Z
 40
10.0
 90
        0
 40
2.5
 90
        0
 71
     2
340
16
 90
       25
340
16
 90
       50
 40
5.0
 40
2.5
 40
5.0
 71
     3
340
11
 40
5.0
 90
        0
 40
15.0
 90
        1
300
%<\AcVar ViewSectionStartId>%-%<\AcVar ViewSectionEndId>% (%<\AcVar ViewScale \f "%sn">%)
 71
     4
300
ANSI31
 40
1.0
 90
        0
290
     0
290
     0
 90
        6
 40
0.0
 40
1.570796326794896
 40
0.2617993877991494
 40
1.308996938995747
 40
-0.2617993877991494
 40
1.832595714594044
  0
TABLESTYLE
  5
31A2
102
{ACAD_XDICTIONARY
360
1B314
102
}
102
{ACAD_REACTORS
330
31A1
102
}
330
31A1
100
AcDbTableStyle
  3
Standard
 70
     0
 71
     0
 40
1.5
 41
1.5
280
     0
281
     0
  7
STANDARD
140
4.5
170
     2
 62
     0
 63
     7
283
     0
274
    -2
284
     1
 64
     0
275
    -2
285
     1
 65
     0
276
    -2
286
     1
 66
     0
277
    -2
287
     1
 67
     0
278
    -2
288
     1
 68
     0
279
    -2
289
     1
 69
     0
  7
STANDARD
140
6.0
170
     5
 62
     0
 63
     7
283
     0
274
    -2
284
     1
 64
     0
275
    -2
285
     1
 65
     0
276
    -2
286
     1
 66
     0
277
    -2
287
     1
 67
     0
278
    -2
288
     1
 68
     0
279
    -2
289
     1
 69
     0
  7
STANDARD
140
4.5
170
     5
 62
     0
 63
     7
283
     0
274
    -2
284
     1
 64
     0
275
    -2
285
     1
 65
     0
276
    -2
286
     1
 66
     0
277
    -2
287
     1
 67
     0
278
    -2
288
     1
 68
     0
279
    -2
289
     1
 69
     0
  0
VISUALSTYLE
  5
3195
102
{ACAD_XDICTIONARY
360
21098
102
}
102
{ACAD_REACTORS
330
318F
102
}
330
318F
100
AcDbVisualStyle
  2

 70
     4
 71
     0
 72
     2
 73
     0
 90
        0
 40
-0.6
 41
-30.0
 62
     5
 63
     7
 74
     1
 91
        4
 64
     7
 65
   257
 75
     1
175
     1
 42
1.0
 92
        0
 66
   257
 43
1.0
 76
     1
 77
     6
 78
     2
 67
     7
 79
     5
170
     0
171
     0
290
     0
174
     0
 93
        1
 44
0.0
173
     0
291
     0
 45
0.0
1001
ACAD
1000
AcDbSavedByObjectVersion
1070
     0
  0
VISUALSTYLE
  5
3197
102
{ACAD_XDICTIONARY
360
2109C
102
}
102
{ACAD_REACTORS
330
318F
102
}
330
318F
100
AcDbVisualStyle
  2

 70
     6
 71
     1
 72
     2
 73
     2
 90
        0
 40
-0.6
 41
-30.0
 62
     5
 63
     7
 74
     2
 91
        2
 64
     7
 65
   257
 75
     2
175
     1
 42
40.0
 92
        0
 66
   257
 43
1.0
 76
     1
 77
     6
 78
     2
 67
     7
 79
     3
170
     0
171
     0
290
     0
174
     0
 93
        1
 44
0.0
173
     0
291
     0
 45
0.0
1001
ACAD
1000
AcDbSavedByObjectVersion
1070
     0
  0
VISUALSTYLE
  5
3196
102
{ACAD_XDICTIONARY
360
2109A
102
}
102
{ACAD_REACTORS
330
318F
102
}
330
318F
100
AcDbVisualStyle
  2

 70
     5
 71
     0
 72
     2
 73
     0
 90
        0
 40
-0.6
 41
-30.0
 62
     5
 63
     7
 74
     1
 91
        4
 64
     7
 65
   257
 75
     1
175
     1
 42
1.0
 92
        0
 66
   257
 43
1.0
 76
     1
 77
     6
 78
     2
 67
     7
 79
     5
170
     0
171
     0
290
     0
174
     0
 93
        1
 44
0.0
173
     0
291
     0
 45
0.0
1001
ACAD
1000
AcDbSavedByObjectVersion
1070
     0
  0
VISUALSTYLE
  5
3194
102
{ACAD_XDICTIONARY
360
21096
102
}
102
{ACAD_REACTORS
330
318F
102
}
330
318F
100
AcDbVisualStyle
  2

 70
     7
 71
     1
 72
     0
 73
     1
 90
        0
 40
-0.6
 41
-30.0
 62
     5
 63
     7
 74
     0
 91
        4
 64
     7
 65
   257
 75
     1
175
     1
 42
1.0
 92
        8
 66
     7
 43
1.0
 76
     1
 77
     6
 78
     2
 67
     7
 79
     5
170
     0
171
     0
290
     0
174
     0
 93
        1
 44
0.0
173
     0
291
     1
 45
0.0
1001
ACAD
1000
AcDbSavedByObjectVersion
1070
     0
  0
VISUALSTYLE
  5
319B
102
{ACAD_XDICTIONARY
360
210A4
102
}
102
{ACAD_REACTORS
330
318F
102
}
330
318F
100
AcDbVisualStyle
  2

 70
    12
 71
     2
 72
     2
 73
     0
 90
        0
 40
-0.6
 41
-30.0
 62
     5
 63
     7
 74
     1
 91
        4
 64
     7
 65
   257
 75
     1
175
     1
 42
1.0
 92
        8
 66
     7
 43
1.0
 76
     1
 77
     6
 78
     2
 67
     7
 79
     5
170
     0
171
     0
290
     0
174
     0
 93
        1
 44
50.0
173
     0
291
     1
 45
0.0
1001
ACAD
1000
AcDbSavedByObjectVersion
1070
     0
  0
VISUALSTYLE
  5
319F
102
{ACAD_XDICTIONARY
360
210AC
102
}
102
{ACAD_REACTORS
330
318F
102
}
330
318F
100
AcDbVisualStyle
  2

 70
    16
 71
     2
 72
     2
 73
     3
 90
        0
 40
-0.6
 41
-30.0
 62
     5
 63
     8
 74
     1
 91
        4
 64
     7
 65
   257
 75
     1
175
     1
 42
1.0
 92
        8
 66
     8
 43
1.0
 76
     1
 77
     6
 78
     2
 67
     7
 79
     5
170
     0
171
     0
290
     0
174
     0
 93
        1
 44
0.0
173
     0
291
     1
 45
0.0
1001
ACAD
1000
AcDbSavedByObjectVersion
1070
     0
  0
VISUALSTYLE
  5
3198
102
{ACAD_XDICTIONARY
360
2109E
102
}
102
{ACAD_REACTORS
330
318F
102
}
330
318F
100
AcDbVisualStyle
  2

 70
     9
 71
     3
 72
     2
 73
     0
 90
        0
 40
-0.6
 41
-30.0
 62
     5
 63
     7
 74
     2
 91
        2
 64
     7
 65
   257
 75
     1
175
     1
 42
40.0
 92
        8
 66
     7
 43
1.0
 76
     1
 77
     6
 78
     2
 67
     7
 79
     3
170
     0
171
     0
290
     0
174
     0
 93
        1
 44
0.0
173
     0
291
     0
 45
0.0
1001
ACAD
1000
AcDbSavedByObjectVersion
1070
     0
  0
VISUALSTYLE
  5
319A
102
{ACAD_XDICTIONARY
360
210A2
102
}
102
{ACAD_REACTORS
330
318F
102
}
330
318F
100
AcDbVisualStyle
  2

 70
    11
 71
     2
 72
     2
 73
     0
 90
        0
 40
-0.6
 41
-30.0
 62
     5
 63
     7
 74
     1
 91
        4
 64
     7
 65
   257
 75
     1
175
     1
 42
1.0
 92
        8
 66
     7
 43
1.0
 76
     1
 77
     6
 78
     2
 67
     7
 79
     5
170
     0
171
     0
290
     0
174
     0
 93
        1
 44
-50.0
173
     0
291
     1
 45
0.0
1001
ACAD
1000
AcDbSavedByObjectVersion
1070
     0
  0
VISUALSTYLE
  5
1B2EC
102
{ACAD_XDICTIONARY
360
210C9
102
}
102
{ACAD_REACTORS
330
318F
102
}
330
318F
100
AcDbVisualStyle
  2

 70
    22
 71
     2
 72
     2
 73
     0
 90
        0
 40
-0.6
 41
-30.0
 62
     5
 63
     7
 74
     1
 91
        4
 64
     7
 65
   257
 75
     1
175
     1
 42
1.0
 92
        8
 66
     7
 43
1.0
 76
     1
 77
     6
 78
     2
 67
     7
 79
     5
170
     0
171
     0
290
     0
174
     0
 93
        1
 44
0.0
173
     0
291
     1
 45
0.0
1001
ACAD
1000
AcDbSavedByObjectVersion
1070
     0
  0
VISUALSTYLE
  5
319E
102
{ACAD_XDICTIONARY
360
210AA
102
}
102
{ACAD_REACTORS
330
318F
102
}
330
318F
100
AcDbVisualStyle
  2

 70
    15
 71
     2
 72
     2
 73
     0
 90
        0
 40
-0.6
 41
-30.0
 62
     5
 63
     7
 74
     1
 91
        4
 64
     7
 65
   257
 75
     1
175
     1
 42
1.0
 92
        8
 66
     7
 43
1.0
 76
     1
 77
     6
 78
     2
 67
     7
 79
     5
170
     0
171
     0
290
     0
174
     0
 93
        1
 44
0.0
173
     0
291
     1
 45
0.0
1001
ACAD
1000
AcDbSavedByObjectVersion
1070
     0
  0
VISUALSTYLE
  5
3190
102
{ACAD_XDICTIONARY
360
2108E
102
}
102
{ACAD_REACTORS
330
318F
102
}
330
318F
100
AcDbVisualStyle
  2

 70
     0
 71
     2
 72
     1
 73
     1
 90
        2
 40
-0.6
 41
30.0
 62
     5
 63
     7
 74
     0
 91
        4
 64
     7
 65
   257
 75
     1
175
     1
 42
1.0
 92
        8
 66
     7
 43
1.0
 76
     1
 77
     6
 78
     2
 67
     7
 79
     5
170
     0
171
     0
290
     0
174
     0
 93
       13
 44
0.0
173
     0
291
     1
 45
0.0
1001
ACAD
1000
AcDbSavedByObjectVersion
1070
     0
  0
VISUALSTYLE
  5
3191
102
{ACAD_XDICTIONARY
360
21090
102
}
102
{ACAD_REACTORS
330
318F
102
}
330
318F
100
AcDbVisualStyle
  2

 70
     1
 71
     2
 72
     1
 73
     1
 90
        2
 40
-0.6
 41
30.0
 62
     5
 63
     7
 74
     1
 91
        4
 64
     7
 65
   257
 75
     1
175
     1
 42
1.0
 92
        0
 66
   257
 43
1.0
 76
     1
 77
     6
 78
     2
 67
     7
 79
     5
170
     0
171
     0
290
     0
174
     0
 93
       13
 44
0.0
173
     0
291
     1
 45
0.0
1001
ACAD
1000
AcDbSavedByObjectVersion
1070
     0
  0
VISUALSTYLE
  5
3192
102
{ACAD_XDICTIONARY
360
21092
102
}
102
{ACAD_REACTORS
330
318F
102
}
330
318F
100
AcDbVisualStyle
  2

 70
     2
 71
     2
 72
     2
 73
     1
 90
        2
 40
-0.6
 41
30.0
 62
     5
 63
     7
 74
     0
 91
        4
 64
     7
 65
   257
 75
     1
175
     1
 42
1.0
 92
        0
 66
     7
 43
1.0
 76
     1
 77
     6
 78
     2
 67
     7
 79
     5
170
     0
171
     0
290
     0
174
     0
 93
       13
 44
0.0
173
     0
291
     1
 45
0.0
1001
ACAD
1000
AcDbSavedByObjectVersion
1070
     0
  0
VISUALSTYLE
  5
3193
102
{ACAD_XDICTIONARY
360
21094
102
}
102
{ACAD_REACTORS
330
318F
102
}
330
318F
100
AcDbVisualStyle
  2

 70
     3
 71
     2
 72
     2
 73
     1
 90
        2
 40
-0.6
 41
30.0
 62
     5
 63
     7
 74
     1
 91
        4
 64
     7
 65
   257
 75
     1
175
     1
 42
1.0
 92
        0
 66
   257
 43
1.0
 76
     1
 77
     6
 78
     2
 67
     7
 79
     5
170
     0
171
     0
290
     0
174
     0
 93
       13
 44
0.0
173
     0
291
     1
 45
0.0
1001
ACAD
1000
AcDbSavedByObjectVersion
1070
     0
  0
VISUALSTYLE
  5
1B2E4
102
{ACAD_XDICTIONARY
360
210B9
102
}
102
{ACAD_REACTORS
330
318F
102
}
330
318F
100
AcDbVisualStyle
  2

 70
     6
 71
     1
 72
     2
 73
     2
 90
        0
 40
-0.6
 41
-30.0
 62
     5
 63
     7
 74
     2
 91
        2
 64
     7
 65
   257
 75
     2
175
     1
 42
40.0
 92
        0
 66
   257
 43
1.0
 76
     1
 77
     6
 78
     2
 67
     7
 79
     3
170
     0
171
     0
290
     0
174
     0
 93
        1
 44
0.0
173
     0
291
     0
 45
0.0
1001
ACAD
1000
AcDbSavedByObjectVersion
1070
     0
  0
VISUALSTYLE
  5
1B2EA
102
{ACAD_XDICTIONARY
360
210C5
102
}
102
{ACAD_REACTORS
330
318F
102
}
330
318F
100
AcDbVisualStyle
  2

 70
    20
 71
     2
 72
     2
 73
     0
 90
        0
 40
-0.6
 41
-30.0
 62
     5
 63
     7
 74
     1
 91
        4
 64
     7
 65
   257
 75
     1
175
     1
 42
1.0
 92
       10
 66
     7
 43
1.0
 76
     1
 77
     6
 78
     2
 67
     7
 79
     5
170
     0
171
     0
290
     0
174
     0
 93
        1
 44
0.0
173
     0
291
     1
 45
0.0
1001
ACAD
1000
AcDbSavedByObjectVersion
1070
     0
  0
VISUALSTYLE
  5
319D
102
{ACAD_XDICTIONARY
360
210A8
102
}
102
{ACAD_REACTORS
330
318F
102
}
330
318F
100
AcDbVisualStyle
  2

 70
    14
 71
     2
 72
     2
 73
     0
 90
        0
 40
-0.6
 41
-30.0
 62
     5
 63
     7
 74
     1
 91
        4
 64
     7
 65
   257
 75
     7
175
     7
 42
1.0
 92
        8
 66
     7
 43
1.0
 76
     1
 77
     6
 78
     2
 67
     7
 79
     5
170
     0
171
     0
290
     0
174
     0
 93
        1
 44
0.0
173
     0
291
     1
 45
0.0
1001
ACAD
1000
AcDbSavedByObjectVersion
1070
     0
  0
VISUALSTYLE
  5
1B2EB
102
{ACAD_XDICTIONARY
360
210C7
102
}
102
{ACAD_REACTORS
330
318F
102
}
330
318F
100
AcDbVisualStyle
  2

 70
    21
 71
     2
 72
     2
 73
     0
 90
        0
 40
-0.6
 41
-30.0
 62
     5
 63
     7
 74
     1
 91
        4
 64
     7
 65
   257
 75
     1
175
     1
 42
1.0
 92
        9
 66
     7
 43
1.0
 76
     1
 77
     6
 78
     2
 67
     7
 79
     5
170
     0
171
     0
290
     0
174
     0
 93
        1
 44
0.0
173
     0
291
     1
 45
0.0
1001
ACAD
1000
AcDbSavedByObjectVersion
1070
     0
  0
VISUALSTYLE
  5
3199
102
{ACAD_XDICTIONARY
360
210A0
102
}
102
{ACAD_REACTORS
330
318F
102
}
330
318F
100
AcDbVisualStyle
  2

 70
     8
 71
     2
 72
     2
 73
     0
 90
        0
 40
-0.6
 41
-30.0
 62
     5
 63
     7
 74
     1
 91
        0
 64
     7
 65
   257
 75
     1
175
     1
 42
1.0
 92
        8
 66
     8
 43
1.0
 76
     1
 77
     6
 78
     2
 67
     7
 79
     5
170
     0
171
     0
290
     0
174
     0
 93
       13
 44
0.0
173
     0
291
     0
 45
0.0
1001
ACAD
1000
AcDbSavedByObjectVersion
1070
     0
  0
VISUALSTYLE
  5
1B2E9
102
{ACAD_XDICTIONARY
360
210C3
102
}
102
{ACAD_REACTORS
330
318F
102
}
330
318F
100
AcDbVisualStyle
  2

 70
    27
 71
     2
 72
     2
 73
     1
 90
        2
 40
-0.6
 41
30.0
 62
     5
 63
     7
 74
     0
 91
        4
 64
     7
 65
   257
 75
     1
175
     1
 42
1.0
 92
        8
 66
   257
 43
1.0
 76
     1
 77
     6
 78
     2
 67
     8
 79
     3
170
     0
171
     0
290
     0
174
     0
 93
        5
 44
0.0
173
     0
291
     0
 45
0.0
1001
ACAD
1000
AcDbSavedByObjectVersion
1070
     0
  0
VISUALSTYLE
  5
1B2E8
102
{ACAD_XDICTIONARY
360
210C1
102
}
102
{ACAD_REACTORS
330
318F
102
}
330
318F
100
AcDbVisualStyle
  2

 70
    26
 71
     2
 72
     2
 73
     1
 90
        2
 40
-0.6
 41
30.0
 62
     5
 63
     7
 74
     1
 91
       10
 64
     7
 65
   257
 75
     2
175
     1
 42
1.0
 92
        8
 66
   257
 43
1.0
 76
     1
 77
     6
 78
     2
 67
     7
 79
     3
170
     0
171
     0
290
     0
174
     0
 93
        5
 44
0.0
173
     0
291
     0
 45
0.0
1001
ACAD
1000
AcDbSavedByObjectVersion
1070
     0
  0
VISUALSTYLE
  5
1B2E5
102
{ACAD_XDICTIONARY
360
210BB
102
}
102
{ACAD_REACTORS
330
318F
102
}
330
318F
100
AcDbVisualStyle
  2

 70
    23
 71
     2
 72
     2
 73
     3
 90
        0
 40
-0.6
 41
-30.0
 62
     5
 63
     7
 74
     2
 91
        2
 64
     7
 65
     7
 75
     1
175
     1
 42
40.0
 92
        8
 66
     7
 43
1.0
 76
     1
 77
     6
 78
     2
 67
     7
 79
     3
170
     0
171
     0
290
     0
174
     0
 93
        1
 44
0.0
173
     0
291
     0
 45
0.0
1001
ACAD
1000
AcDbSavedByObjectVersion
1070
     0
  0
VISUALSTYLE
  5
1B2E6
102
{ACAD_XDICTIONARY
360
210BD
102
}
102
{ACAD_REACTORS
330
318F
102
}
330
318F
100
AcDbVisualStyle
  2

 70
    24
 71
     1
 72
     2
 73
     2
 90
        0
 40
-0.6
 41
-30.0
 62
     5
 63
     7
 74
     2
 91
        2
 64
     7
 65
     7
 75
     1
175
     1
 42
40.0
 92
       11
 66
     7
 43
1.0
 76
     1
 77
     6
 78
     2
 67
     7
 79
     6
170
     0
171
     0
290
     0
174
     0
 93
        1
 44
0.0
173
     0
291
     0
 45
0.0
1001
ACAD
1000
AcDbSavedByObjectVersion
1070
     0
  0
VISUALSTYLE
  5
319C
102
{ACAD_XDICTIONARY
360
210A6
102
}
102
{ACAD_REACTORS
330
318F
102
}
330
318F
100
AcDbVisualStyle
  2

 70
    13
 71
     2
 72
     2
 73
     0
 90
        0
 40
-0.6
 41
-30.0
 62
     5
 63
     7
 74
     1
 91
        4
 64
     7
 65
   257
 75
     1
175
     1
 42
1.0
 92
       12
 66
     7
 43
1.0
 76
     1
 77
     6
 78
     2
 67
     7
 79
     5
170
     0
171
     0
290
     0
174
     0
 93
        1
 44
0.0
173
     0
291
     1
 45
0.0
1001
ACAD
1000
AcDbSavedByObjectVersion
1070
     0
  0
VISUALSTYLE
  5
1B2E3
102
{ACAD_XDICTIONARY
360
210B7
102
}
102
{ACAD_REACTORS
330
318F
102
}
330
318F
100
AcDbVisualStyle
  2

 70
     5
 71
     0
 72
     2
 73
     0
 90
        0
 40
-0.6
 41
-30.0
 62
     5
 63
     7
 74
     1
 91
        4
 64
     7
 65
   257
 75
     1
175
     1
 42
1.0
 92
        0
 66
   257
 43
1.0
 76
     1
 77
     6
 78
     2
 67
     7
 79
     3
170
     0
171
     0
290
     0
174
     0
 93
        1
 44
0.0
173
     0
291
     0
 45
0.0
1001
ACAD
1000
AcDbSavedByObjectVersion
1070
     0
  0
VISUALSTYLE
  5
1B2E7
102
{ACAD_XDICTIONARY
360
210BF
102
}
102
{ACAD_REACTORS
330
318F
102
}
330
318F
100
AcDbVisualStyle
  2

 70
    25
 71
     2
 72
     2
 73
     1
 90
        1
 40
0.5
 41
-30.0
 62
     5
 63
     7
 74
     1
 91
        0
 64
     7
 65
   257
 75
     1
175
     1
 42
1.0
 92
        8
 66
     7
 43
1.0
 76
     1
 77
     6
 78
     2
 67
     7
 79
     3
170
     0
171
     0
290
     0
174
     0
 93
       13
 44
0.0
173
     0
291
     0
 45
0.0
1001
ACAD
1000
AcDbSavedByObjectVersion
1070
     0
  0
DICTIONARYVAR
  5
1B222
102
{ACAD_REACTORS
330
33A3
102
}
330
33A3
100
DictionaryVariables
280
     0
  1
1:1
  0
DICTIONARYVAR
  5
1B30F
102
{ACAD_REACTORS
330
33A3
102
}
330
33A3
100
DictionaryVariables
280
     0
  1
STANDARD
  0
DICTIONARYVAR
  5
33A4
102
{ACAD_REACTORS
330
33A3
102
}
330
33A3
100
DictionaryVariables
280
     0
  1
STANDARD
  0
DICTIONARYVAR
  5
1B310
102
{ACAD_REACTORS
330
33A3
102
}
330
33A3
100
DictionaryVariables
280
     0
  1
Metric50
  0
DICTIONARYVAR
  5
1B311
102
{ACAD_REACTORS
330
33A3
102
}
330
33A3
100
DictionaryVariables
280
     0
  1
Metric50
  0
DICTIONARYVAR
  5
9BE8
102
{ACAD_REACTORS
330
33A3
102
}
330
33A3
100
DictionaryVariables
280
     0
  1
1
  0
DICTIONARYVAR
  5
9BE7
102
{ACAD_REACTORS
330
33A3
102
}
330
33A3
100
DictionaryVariables
280
     0
  1
0
  0
DICTIONARYVAR
  5
20993
102
{ACAD_REACTORS
330
33A3
102
}
330
33A3
100
DictionaryVariables
280
     0
  1
1
  0
DICTIONARYVAR
  5
20994
102
{ACAD_REACTORS
330
33A3
102
}
330
33A3
100
DictionaryVariables
280
     0
  1
15
  0
DICTIONARYVAR
  5
20992
102
{ACAD_REACTORS
330
33A3
102
}
330
33A3
100
DictionaryVariables
280
     0
  1
0
  0
DICTIONARYVAR
  5
20991
102
{ACAD_REACTORS
330
33A3
102
}
330
33A3
100
DictionaryVariables
280
     0
  1
0
  0
DICTIONARYVAR
  5
9BE6
102
{ACAD_REACTORS
330
33A3
102
}
330
33A3
100
DictionaryVariables
280
     0
  1
127
  0
DICTIONARYVAR
  5
2108A
102
{ACAD_REACTORS
330
33A3
102
}
330
33A3
100
DictionaryVariables
280
     0
  1
2
  0
XRECORD
  5
210D0
102
{ACAD_REACTORS
330
210CF
102
}
330
210CF
100
AcDbXrecord
280
     1
1070
     0
1070
     1
1070
     1
  0
DICTIONARY
  5
210CD
330
1B2F1
100
AcDbDictionary
280
     1
281
     1
  3
ACAD_XREC_ROUNDTRIP
360
210CE
  0
DICTIONARY
  5
210B1
330
31A7
100
AcDbDictionary
280
     1
281
     1
  3
ACAD_XREC_ROUNDTRIP
360
210B2
  0
DICTIONARY
  5
210AF
330
31A6
100
AcDbDictionary
280
     1
281
     1
  3
ACAD_XREC_ROUNDTRIP
360
210B0
  0
DICTIONARY
  5
1B22B
330
318D
100
AcDbDictionary
280
     1
281
     1
  3
ACAD_XREC_ROUNDTRIP
360
1B22C
  0
DICTIONARY
  5
1B22D
330
318C
100
AcDbDictionary
280
     1
281
     1
  3
ACAD_XREC_ROUNDTRIP
360
1B22E
  0
DICTIONARY
  5
1B22F
330
318E
100
AcDbDictionary
280
     1
281
     1
  3
ACAD_XREC_ROUNDTRIP
360
1B230
  0
DICTIONARY
  5
210CB
330
1B2EF
100
AcDbDictionary
280
     1
281
     1
  3
ACAD_XREC_ROUNDTRIP
360
210CC
  0
DICTIONARY
  5
1B314
330
31A2
100
AcDbDictionary
280
     1
281
     1
  3
ACAD_ROUNDTRIP_2008_TABLESTYLE_CELLSTYLEMAP
360
2108B
  3
ACAD_XREC_ROUNDTRIP
360
210AE
  0
DICTIONARY
  5
21098
330
3195
100
AcDbDictionary
280
     1
281
     1
  3
ACAD_XREC_ROUNDTRIP
360
21099
  0
DICTIONARY
  5
2109C
330
3197
100
AcDbDictionary
280
     1
281
     1
  3
ACAD_XREC_ROUNDTRIP
360
2109D
  0
DICTIONARY
  5
2109A
330
3196
100
AcDbDictionary
280
     1
281
     1
  3
ACAD_XREC_ROUNDTRIP
360
2109B
  0
DICTIONARY
  5
21096
330
3194
100
AcDbDictionary
280
     1
281
     1
  3
ACAD_XREC_ROUNDTRIP
360
21097
  0
DICTIONARY
  5
210A4
330
319B
100
AcDbDictionary
280
     1
281
     1
  3
ACAD_XREC_ROUNDTRIP
360
210A5
  0
DICTIONARY
  5
210AC
330
319F
100
AcDbDictionary
280
     1
281
     1
  3
ACAD_XREC_ROUNDTRIP
360
210AD
  0
DICTIONARY
  5
2109E
330
3198
100
AcDbDictionary
280
     1
281
     1
  3
ACAD_XREC_ROUNDTRIP
360
2109F
  0
DICTIONARY
  5
210A2
330
319A
100
AcDbDictionary
280
     1
281
     1
  3
ACAD_XREC_ROUNDTRIP
360
210A3
  0
DICTIONARY
  5
210C9
330
1B2EC
100
AcDbDictionary
280
     1
281
     1
  3
ACAD_XREC_ROUNDTRIP
360
210CA
  0
DICTIONARY
  5
210AA
330
319E
100
AcDbDictionary
280
     1
281
     1
  3
ACAD_XREC_ROUNDTRIP
360
210AB
  0
DICTIONARY
  5
2108E
330
3190
100
AcDbDictionary
280
     1
281
     1
  3
ACAD_XREC_ROUNDTRIP
360
2108F
  0
DICTIONARY
  5
21090
330
3191
100
AcDbDictionary
280
     1
281
     1
  3
ACAD_XREC_ROUNDTRIP
360
21091
  0
DICTIONARY
  5
21092
330
3192
100
AcDbDictionary
280
     1
281
     1
  3
ACAD_XREC_ROUNDTRIP
360
21093
  0
DICTIONARY
  5
21094
330
3193
100
AcDbDictionary
280
     1
281
     1
  3
ACAD_XREC_ROUNDTRIP
360
21095
  0
DICTIONARY
  5
210B9
330
1B2E4
100
AcDbDictionary
280
     1
281
     1
  3
ACAD_XREC_ROUNDTRIP
360
210BA
  0
DICTIONARY
  5
210C5
330
1B2EA
100
AcDbDictionary
280
     1
281
     1
  3
ACAD_XREC_ROUNDTRIP
360
210C6
  0
DICTIONARY
  5
210A8
330
319D
100
AcDbDictionary
280
     1
281
     1
  3
ACAD_XREC_ROUNDTRIP
360
210A9
  0
DICTIONARY
  5
210C7
330
1B2EB
100
AcDbDictionary
280
     1
281
     1
  3
ACAD_XREC_ROUNDTRIP
360
210C8
  0
DICTIONARY
  5
210A0
330
3199
100
AcDbDictionary
280
     1
281
     1
  3
ACAD_XREC_ROUNDTRIP
360
210A1
  0
DICTIONARY
  5
210C3
330
1B2E9
100
AcDbDictionary
280
     1
281
     1
  3
ACAD_XREC_ROUNDTRIP
360
210C4
  0
DICTIONARY
  5
210C1
330
1B2E8
100
AcDbDictionary
280
     1
281
     1
  3
ACAD_XREC_ROUNDTRIP
360
210C2
  0
DICTIONARY
  5
210BB
330
1B2E5
100
AcDbDictionary
280
     1
281
     1
  3
ACAD_XREC_ROUNDTRIP
360
210BC
  0
DICTIONARY
  5
210BD
330
1B2E6
100
AcDbDictionary
280
     1
281
     1
  3
ACAD_XREC_ROUNDTRIP
360
210BE
  0
DICTIONARY
  5
210A6
330
319C
100
AcDbDictionary
280
     1
281
     1
  3
ACAD_XREC_ROUNDTRIP
360
210A7
  0
DICTIONARY
  5
210B7
330
1B2E3
100
AcDbDictionary
280
     1
281
     1
  3
ACAD_XREC_ROUNDTRIP
360
210B8
  0
DICTIONARY
  5
210BF
330
1B2E7
100
AcDbDictionary
280
     1
281
     1
  3
ACAD_XREC_ROUNDTRIP
360
210C0
  0
XRECORD
  5
210CE
102
{ACAD_REACTORS
330
210CD
102
}
330
210CD
100
AcDbXrecord
280
     1
102
DISPLAYNAME
  1
Metric50
102
FLAGS
 90
        0
  0
XRECORD
  5
210B2
102
{ACAD_REACTORS
330
210B1
102
}
330
210B1
100
AcDbXrecord
280
     1
102
SHADEPLOT
 70
     0
102
SHADEPLOTRESLEVEL
 70
     2
102
SHADEPLOTCUSTOMDPI
 70
   300
  0
XRECORD
  5
210B0
102
{ACAD_REACTORS
330
210AF
102
}
330
210AF
100
AcDbXrecord
280
     1
102
SHADEPLOT
 70
     0
102
SHADEPLOTRESLEVEL
 70
     2
102
SHADEPLOTCUSTOMDPI
 70
   300
  0
XRECORD
  5
1B22C
102
{ACAD_REACTORS
330
1B22B
102
}
330
1B22B
100
AcDbXrecord
280
     1
102
MATERIAL
148
0.0
149
0.0
149
0.0
 93
        0
 94
      127
282
     0
 72
     1
 77
     1
171
     1
175
     1
179
     1
273
     0
  0
XRECORD
  5
1B22E
102
{ACAD_REACTORS
330
1B22D
102
}
330
1B22D
100
AcDbXrecord
280
     1
102
MATERIAL
148
0.0
149
0.0
149
0.0
 93
        0
 94
      127
282
     0
 72
     1
 77
     1
171
     1
175
     1
179
     1
273
     0
  0
XRECORD
  5
1B230
102
{ACAD_REACTORS
330
1B22F
102
}
330
1B22F
100
AcDbXrecord
280
     1
102
MATERIAL
148
0.0
149
0.0
149
0.0
 93
        0
 94
      127
282
     0
 72
     1
 77
     1
171
     1
175
     1
179
     1
273
     0
  0
XRECORD
  5
210CC
102
{ACAD_REACTORS
330
210CB
102
}
330
210CB
100
AcDbXrecord
280
     1
102
DISPLAYNAME
  1
Metric50
102
FLAGS
 90
        0
  0
CELLSTYLEMAP
  5
2108B
102
{ACAD_REACTORS
330
1B314
102
}
330
1B314
100
AcDbCellStyleMap
 90
        3
300
CELLSTYLE
  1
TABLEFORMAT_BEGIN
 90
        5
170
     1
 91
        0
 92
    32768
 62
   257
 93
        1
300
CONTENTFORMAT
  1
CONTENTFORMAT_BEGIN
 90
        0
 91
        0
 92
        4
 93
        0
300

 40
0.0
140
1.0
 94
        5
 62
     0
340
11
144
6.0
309
CONTENTFORMAT_END
171
     1
301
MARGIN
  1
CELLMARGIN_BEGIN
 40
1.5
 40
1.5
 40
1.5
 40
1.5
 40
0.18
 40
0.18
309
CELLMARGIN_END
 94
        6
 95
        1
302
GRIDFORMAT
  1
GRIDFORMAT_BEGIN
 90
        0
 91
        1
 62
     0
 92
       -2
340
0
 93
        0
 40
0.045
309
GRIDFORMAT_END
 95
        2
302
GRIDFORMAT
  1
GRIDFORMAT_BEGIN
 90
        0
 91
        1
 62
     0
 92
       -2
340
0
 93
        0
 40
0.045
309
GRIDFORMAT_END
 95
        4
302
GRIDFORMAT
  1
GRIDFORMAT_BEGIN
 90
        0
 91
        1
 62
     0
 92
       -2
340
0
 93
        0
 40
0.045
309
GRIDFORMAT_END
 95
        8
302
GRIDFORMAT
  1
GRIDFORMAT_BEGIN
 90
        0
 91
        1
 62
     0
 92
       -2
340
0
 93
        0
 40
0.045
309
GRIDFORMAT_END
 95
       16
302
GRIDFORMAT
  1
GRIDFORMAT_BEGIN
 90
        0
 91
        1
 62
     0
 92
       -2
340
0
 93
        0
 40
0.045
309
GRIDFORMAT_END
 95
       32
302
GRIDFORMAT
  1
GRIDFORMAT_BEGIN
 90
        0
 91
        1
 62
     0
 92
       -2
340
0
 93
        0
 40
0.045
309
GRIDFORMAT_END
309
TABLEFORMAT_END
  1
CELLSTYLE_BEGIN
 90
        1
 91
        1
300
_TITLE
309
CELLSTYLE_END
300
CELLSTYLE
  1
TABLEFORMAT_BEGIN
 90
        5
170
     1
 91
        0
 92
        0
 62
   257
 93
        1
300
CONTENTFORMAT
  1
CONTENTFORMAT_BEGIN
 90
        0
 91
        0
 92
        4
 93
        0
300

 40
0.0
140
1.0
 94
        5
 62
     0
340
11
144
4.5
309
CONTENTFORMAT_END
171
     1
301
MARGIN
  1
CELLMARGIN_BEGIN
 40
1.5
 40
1.5
 40
1.5
 40
1.5
 40
0.18
 40
0.18
309
CELLMARGIN_END
 94
        6
 95
        1
302
GRIDFORMAT
  1
GRIDFORMAT_BEGIN
 90
        0
 91
        1
 62
     0
 92
       -2
340
0
 93
        0
 40
0.045
309
GRIDFORMAT_END
 95
        2
302
GRIDFORMAT
  1
GRIDFORMAT_BEGIN
 90
        0
 91
        1
 62
     0
 92
       -2
340
0
 93
        0
 40
0.045
309
GRIDFORMAT_END
 95
        4
302
GRIDFORMAT
  1
GRIDFORMAT_BEGIN
 90
        0
 91
        1
 62
     0
 92
       -2
340
0
 93
        0
 40
0.045
309
GRIDFORMAT_END
 95
        8
302
GRIDFORMAT
  1
GRIDFORMAT_BEGIN
 90
        0
 91
        1
 62
     0
 92
       -2
340
0
 93
        0
 40
0.045
309
GRIDFORMAT_END
 95
       16
302
GRIDFORMAT
  1
GRIDFORMAT_BEGIN
 90
        0
 91
        1
 62
     0
 92
       -2
340
0
 93
        0
 40
0.045
309
GRIDFORMAT_END
 95
       32
302
GRIDFORMAT
  1
GRIDFORMAT_BEGIN
 90
        0
 91
        1
 62
     0
 92
       -2
340
0
 93
        0
 40
0.045
309
GRIDFORMAT_END
309
TABLEFORMAT_END
  1
CELLSTYLE_BEGIN
 90
        2
 91
        1
300
_HEADER
309
CELLSTYLE_END
300
CELLSTYLE
  1
TABLEFORMAT_BEGIN
 90
        5
170
     1
 91
        0
 92
        0
 62
   257
 93
        1
300
CONTENTFORMAT
  1
CONTENTFORMAT_BEGIN
 90
        0
 91
        0
 92
        4
 93
        0
300

 40
0.0
140
1.0
 94
        2
 62
     0
340
11
144
4.5
309
CONTENTFORMAT_END
171
     1
301
MARGIN
  1
CELLMARGIN_BEGIN
 40
1.5
 40
1.5
 40
1.5
 40
1.5
 40
0.18
 40
0.18
309
CELLMARGIN_END
 94
        6
 95
        1
302
GRIDFORMAT
  1
GRIDFORMAT_BEGIN
 90
        0
 91
        1
 62
     0
 92
       -2
340
0
 93
        0
 40
0.045
309
GRIDFORMAT_END
 95
        2
302
GRIDFORMAT
  1
GRIDFORMAT_BEGIN
 90
        0
 91
        1
 62
     0
 92
       -2
340
0
 93
        0
 40
0.045
309
GRIDFORMAT_END
 95
        4
302
GRIDFORMAT
  1
GRIDFORMAT_BEGIN
 90
        0
 91
        1
 62
     0
 92
       -2
340
0
 93
        0
 40
0.045
309
GRIDFORMAT_END
 95
        8
302
GRIDFORMAT
  1
GRIDFORMAT_BEGIN
 90
        0
 91
        1
 62
     0
 92
       -2
340
0
 93
        0
 40
0.045
309
GRIDFORMAT_END
 95
       16
302
GRIDFORMAT
  1
GRIDFORMAT_BEGIN
 90
        0
 91
        1
 62
     0
 92
       -2
340
0
 93
        0
 40
0.045
309
GRIDFORMAT_END
 95
       32
302
GRIDFORMAT
  1
GRIDFORMAT_BEGIN
 90
        0
 91
        1
 62
     0
 92
       -2
340
0
 93
        0
 40
0.045
309
GRIDFORMAT_END
309
TABLEFORMAT_END
  1
CELLSTYLE_BEGIN
 90
        3
 91
        2
300
_DATA
309
CELLSTYLE_END
  0
XRECORD
  5
210AE
102
{ACAD_REACTORS
330
1B314
102
}
330
1B314
100
AcDbXrecord
280
     1
102
ACAD_ROUNDTRIP_PRE2007_TABLESTYLE
 90
        4
 91
        0
  1

 92
        4
 93
        0
  2

 94
        4
 95
        0
  3

  0
XRECORD
  5
21099
102
{ACAD_REACTORS
330
21098
102
}
330
21098
100
AcDbXrecord
280
     1
102
RTVSPost2010Prop28
280
     1
102
RTVSPost2010PropOp28
 70
     1
102
RTVSPost2010Prop29
280
     1
102
RTVSPost2010PropOp29
 70
     1
102
RTVSPost2010Prop30
280
     0
102
RTVSPost2010PropOp30
 70
     1
102
RTVSPost2010Prop31
280
     0
102
RTVSPost2010PropOp31
 70
     1
102
RTVSPost2010Prop32
280
     0
102
RTVSPost2010PropOp32
 70
     1
102
RTVSPost2010Prop33
280
     0
102
RTVSPost2010PropOp33
 70
     1
102
RTVSPost2010Prop34
280
     0
102
RTVSPost2010PropOp34
 70
     1
102
RTVSPost2010Prop35
280
     0
102
RTVSPost2010PropOp35
 70
     1
102
RTVSPost2010Prop36
280
     0
102
RTVSPost2010PropOp36
 70
     1
102
RTVSPost2010Prop37
 90
       50
102
RTVSPost2010PropOp37
 70
     1
102
RTVSPost2010Prop38
140
0.0
102
RTVSPost2010PropOp38
 70
     1
102
RTVSPost2010Prop39
140
1.0
102
RTVSPost2010PropOp39
 70
     1
102
RTVSPost2010Prop40
 90
        0
102
RTVSPost2010PropOp40
 70
     1
102
RTVSPost2010Prop41ColorIndex
 90
       18
102
RTVSPost2010Prop41ColorRGB
 90
        0
102
RTVSPost2010PropOp41
 70
     1
102
RTVSPost2010Prop42
 90
       50
102
RTVSPost2010PropOp42
 70
     1
102
RTVSPost2010Prop43
 90
        3
102
RTVSPost2010PropOp43
 70
     1
102
RTVSPost2010Prop44ColorIndex
 90
        5
102
RTVSPost2010Prop44ColorRGB
 90
      255
102
RTVSPost2010PropOp44
 70
     1
102
RTVSPost2010Prop45
280
     0
102
RTVSPost2010PropOp45
 70
     1
102
RTVSPost2010Prop46
 90
       50
102
RTVSPost2010PropOp46
 70
     1
102
RTVSPost2010Prop47
 90
       50
102
RTVSPost2010PropOp47
 70
     1
102
RTVSPost2010Prop48
 90
       50
102
RTVSPost2010PropOp48
 70
     1
102
RTVSPost2010Prop49
280
     0
102
RTVSPost2010PropOp49
 70
     1
102
RTVSPost2010Prop50
 90
       50
102
RTVSPost2010PropOp50
 70
     1
102
RTVSPost2010Prop51ColorIndex
 90
      256
102
RTVSPost2010Prop51ColorRGB
 90
-16777216
102
RTVSPost2010PropOp51
 70
     0
102
RTVSPost2010Prop52
140
1.0
102
RTVSPost2010PropOp52
 70
     0
102
RTVSPost2010Prop53
 90
        2
102
RTVSPost2010PropOp53
 70
     1
102
RTVSPost2010Prop54
  1
strokes_ogs.tif
102
RTVSPost2010PropOp54
 70
     1
102
RTVSPost2010Prop55
280
     0
102
RTVSPost2010PropOp55
 70
     1
102
RTVSPost2010Prop56
140
1.0
102
RTVSPost2010PropOp56
 70
     1
102
RTVSPost2010Prop57
140
1.0
102
RTVSPost2010PropOp57
 70
     1
102
RTVSPropertyOp0
 70
     1
102
RTVSPropertyOp1
 70
     1
102
RTVSPropertyOp2
 70
     1
102
RTVSPropertyOp3
 70
     1
102
RTVSPropertyOp4
 70
     1
102
RTVSPropertyOp5
 70
     1
102
RTVSPropertyOp6
 70
     1
102
RTVSPropertyOp7
 70
     1
102
RTVSPropertyOp8
 70
     1
102
RTVSPropertyOp9
 70
     1
102
RTVSPropertyOp10
 70
     1
102
RTVSPropertyOp11
 70
     1
102
RTVSPropertyOp12
 70
     1
102
RTVSPropertyOp13
 70
     1
102
RTVSPropertyOp14
 70
     1
102
RTVSPropertyOp15
 70
     1
102
RTVSPropertyOp16
 70
     1
102
RTVSPropertyOp17
 70
     1
102
RTVSPropertyOp18
 70
     1
102
RTVSPropertyOp19
 70
     1
102
RTVSPropertyOp20
 70
     1
102
RTVSPropertyOp21
 70
     1
102
RTVSPropertyOp22
 70
     1
102
RTVSPropertyOp23
 70
     1
102
RTVSPropertyOp24
 70
     1
102
RTVSPropertyOp25
 70
     1
102
RTVSPropertyOp26
 70
     1
102
RTVSPropertyOp27
 70
     1
102
RTVSPropertyOp28
 70
     1
102
RTVSPropertyOp29
 70
     1
102
RTVSPropertyOp30
 70
     1
102
RTVSPropertyOp31
 70
     1
102
RTVSPropertyOp32
 70
     1
102
RTVSPropertyOp33
 70
     1
102
RTVSPropertyOp34
 70
     1
102
RTVSPropertyOp35
 70
     1
102
RTVSPropertyOp36
 70
     1
102
RTVSPropertyOp37
 70
     1
102
RTVSPropertyOp38
 70
     1
102
RTVSPropertyOp39
 70
     1
102
RTVSPropertyOp40
 70
     1
102
RTVSPropertyOp41
 70
     1
102
RTVSPropertyOp42
 70
     1
102
RTVSPropertyOp43
 70
     1
102
RTVSPropertyOp44
 70
     1
102
RTVSPropertyOp45
 70
     1
102
RTVSPropertyOp46
 70
     1
102
RTVSPropertyOp47
 70
     1
102
RTVSPropertyOp48
 70
     1
102
RTVSPropertyOp49
 70
     1
102
RTVSPropertyOp50
 70
     1
102
RTVSPropertyOp51
 70
     0
102
RTVSPropertyOp52
 70
     0
102
RTVSPropertyOp53
 70
     1
102
RTVSPropertyOp54
 70
     1
102
RTVSPropertyOp55
 70
     1
102
RTVSPropertyOp56
 70
     1
102
RTVSPropertyOp57
 70
     1
102
RTVSPropertyOp58
 70
     1
102
RTVSPropertyOp59
 70
     1
102
RTVSPropertyOp60
 70
     1
102
RTVSPropertyOp61
 70
     1
102
RTVSPropertyOp62
 70
     1
  0
XRECORD
  5
2109D
102
{ACAD_REACTORS
330
2109C
102
}
330
2109C
100
AcDbXrecord
280
     1
102
RTVSPost2010Prop28
280
     0
102
RTVSPost2010PropOp28
 70
     1
102
RTVSPost2010Prop29
280
     1
102
RTVSPost2010PropOp29
 70
     1
102
RTVSPost2010Prop30
280
     1
102
RTVSPost2010PropOp30
 70
     1
102
RTVSPost2010Prop31
280
     0
102
RTVSPost2010PropOp31
 70
     1
102
RTVSPost2010Prop32
280
     0
102
RTVSPost2010PropOp32
 70
     1
102
RTVSPost2010Prop33
280
     0
102
RTVSPost2010PropOp33
 70
     1
102
RTVSPost2010Prop34
280
     0
102
RTVSPost2010PropOp34
 70
     1
102
RTVSPost2010Prop35
280
     0
102
RTVSPost2010PropOp35
 70
     1
102
RTVSPost2010Prop36
280
     0
102
RTVSPost2010PropOp36
 70
     1
102
RTVSPost2010Prop37
 90
       50
102
RTVSPost2010PropOp37
 70
     1
102
RTVSPost2010Prop38
140
0.0
102
RTVSPost2010PropOp38
 70
     1
102
RTVSPost2010Prop39
140
1.0
102
RTVSPost2010PropOp39
 70
     1
102
RTVSPost2010Prop40
 90
        0
102
RTVSPost2010PropOp40
 70
     1
102
RTVSPost2010Prop41ColorIndex
 90
       18
102
RTVSPost2010Prop41ColorRGB
 90
        0
102
RTVSPost2010PropOp41
 70
     1
102
RTVSPost2010Prop42
 90
       50
102
RTVSPost2010PropOp42
 70
     1
102
RTVSPost2010Prop43
 90
        3
102
RTVSPost2010PropOp43
 70
     1
102
RTVSPost2010Prop44ColorIndex
 90
        5
102
RTVSPost2010Prop44ColorRGB
 90
      255
102
RTVSPost2010PropOp44
 70
     1
102
RTVSPost2010Prop45
280
     0
102
RTVSPost2010PropOp45
 70
     1
102
RTVSPost2010Prop46
 90
       50
102
RTVSPost2010PropOp46
 70
     1
102
RTVSPost2010Prop47
 90
       50
102
RTVSPost2010PropOp47
 70
     1
102
RTVSPost2010Prop48
 90
       50
102
RTVSPost2010PropOp48
 70
     1
102
RTVSPost2010Prop49
280
     0
102
RTVSPost2010PropOp49
 70
     1
102
RTVSPost2010Prop50
 90
       50
102
RTVSPost2010PropOp50
 70
     1
102
RTVSPost2010Prop51ColorIndex
 90
      256
102
RTVSPost2010Prop51ColorRGB
 90
-16777216
102
RTVSPost2010PropOp51
 70
     0
102
RTVSPost2010Prop52
140
1.0
102
RTVSPost2010PropOp52
 70
     0
102
RTVSPost2010Prop53
 90
        2
102
RTVSPost2010PropOp53
 70
     1
102
RTVSPost2010Prop54
  1
strokes_ogs.tif
102
RTVSPost2010PropOp54
 70
     1
102
RTVSPost2010Prop55
280
     0
102
RTVSPost2010PropOp55
 70
     1
102
RTVSPost2010Prop56
140
1.0
102
RTVSPost2010PropOp56
 70
     1
102
RTVSPost2010Prop57
140
1.0
102
RTVSPost2010PropOp57
 70
     1
102
RTVSPropertyOp0
 70
     1
102
RTVSPropertyOp1
 70
     1
102
RTVSPropertyOp2
 70
     1
102
RTVSPropertyOp3
 70
     1
102
RTVSPropertyOp4
 70
     1
102
RTVSPropertyOp5
 70
     1
102
RTVSPropertyOp6
 70
     1
102
RTVSPropertyOp7
 70
     1
102
RTVSPropertyOp8
 70
     1
102
RTVSPropertyOp9
 70
     1
102
RTVSPropertyOp10
 70
     1
102
RTVSPropertyOp11
 70
     1
102
RTVSPropertyOp12
 70
     1
102
RTVSPropertyOp13
 70
     1
102
RTVSPropertyOp14
 70
     1
102
RTVSPropertyOp15
 70
     1
102
RTVSPropertyOp16
 70
     1
102
RTVSPropertyOp17
 70
     1
102
RTVSPropertyOp18
 70
     1
102
RTVSPropertyOp19
 70
     1
102
RTVSPropertyOp20
 70
     1
102
RTVSPropertyOp21
 70
     1
102
RTVSPropertyOp22
 70
     1
102
RTVSPropertyOp23
 70
     1
102
RTVSPropertyOp24
 70
     1
102
RTVSPropertyOp25
 70
     1
102
RTVSPropertyOp26
 70
     1
102
RTVSPropertyOp27
 70
     1
102
RTVSPropertyOp28
 70
     1
102
RTVSPropertyOp29
 70
     1
102
RTVSPropertyOp30
 70
     1
102
RTVSPropertyOp31
 70
     1
102
RTVSPropertyOp32
 70
     1
102
RTVSPropertyOp33
 70
     1
102
RTVSPropertyOp34
 70
     1
102
RTVSPropertyOp35
 70
     1
102
RTVSPropertyOp36
 70
     1
102
RTVSPropertyOp37
 70
     1
102
RTVSPropertyOp38
 70
     1
102
RTVSPropertyOp39
 70
     1
102
RTVSPropertyOp40
 70
     1
102
RTVSPropertyOp41
 70
     1
102
RTVSPropertyOp42
 70
     1
102
RTVSPropertyOp43
 70
     1
102
RTVSPropertyOp44
 70
     1
102
RTVSPropertyOp45
 70
     1
102
RTVSPropertyOp46
 70
     1
102
RTVSPropertyOp47
 70
     1
102
RTVSPropertyOp48
 70
     1
102
RTVSPropertyOp49
 70
     1
102
RTVSPropertyOp50
 70
     1
102
RTVSPropertyOp51
 70
     0
102
RTVSPropertyOp52
 70
     0
102
RTVSPropertyOp53
 70
     1
102
RTVSPropertyOp54
 70
     1
102
RTVSPropertyOp55
 70
     1
102
RTVSPropertyOp56
 70
     1
102
RTVSPropertyOp57
 70
     1
102
RTVSPropertyOp58
 70
     1
102
RTVSPropertyOp59
 70
     1
102
RTVSPropertyOp60
 70
     1
102
RTVSPropertyOp61
 70
     1
102
RTVSPropertyOp62
 70
     1
  0
XRECORD
  5
2109B
102
{ACAD_REACTORS
330
2109A
102
}
330
2109A
100
AcDbXrecord
280
     1
102
RTVSPost2010Prop28
280
     0
102
RTVSPost2010PropOp28
 70
     1
102
RTVSPost2010Prop29
280
     1
102
RTVSPost2010PropOp29
 70
     1
102
RTVSPost2010Prop30
280
     1
102
RTVSPost2010PropOp30
 70
     1
102
RTVSPost2010Prop31
280
     0
102
RTVSPost2010PropOp31
 70
     1
102
RTVSPost2010Prop32
280
     0
102
RTVSPost2010PropOp32
 70
     1
102
RTVSPost2010Prop33
280
     0
102
RTVSPost2010PropOp33
 70
     1
102
RTVSPost2010Prop34
280
     0
102
RTVSPost2010PropOp34
 70
     1
102
RTVSPost2010Prop35
280
     0
102
RTVSPost2010PropOp35
 70
     1
102
RTVSPost2010Prop36
280
     0
102
RTVSPost2010PropOp36
 70
     1
102
RTVSPost2010Prop37
 90
       50
102
RTVSPost2010PropOp37
 70
     1
102
RTVSPost2010Prop38
140
0.0
102
RTVSPost2010PropOp38
 70
     1
102
RTVSPost2010Prop39
140
1.0
102
RTVSPost2010PropOp39
 70
     1
102
RTVSPost2010Prop40
 90
        0
102
RTVSPost2010PropOp40
 70
     1
102
RTVSPost2010Prop41ColorIndex
 90
       18
102
RTVSPost2010Prop41ColorRGB
 90
        0
102
RTVSPost2010PropOp41
 70
     1
102
RTVSPost2010Prop42
 90
       50
102
RTVSPost2010PropOp42
 70
     1
102
RTVSPost2010Prop43
 90
        3
102
RTVSPost2010PropOp43
 70
     1
102
RTVSPost2010Prop44ColorIndex
 90
        5
102
RTVSPost2010Prop44ColorRGB
 90
      255
102
RTVSPost2010PropOp44
 70
     1
102
RTVSPost2010Prop45
280
     0
102
RTVSPost2010PropOp45
 70
     1
102
RTVSPost2010Prop46
 90
       50
102
RTVSPost2010PropOp46
 70
     1
102
RTVSPost2010Prop47
 90
       50
102
RTVSPost2010PropOp47
 70
     1
102
RTVSPost2010Prop48
 90
       50
102
RTVSPost2010PropOp48
 70
     1
102
RTVSPost2010Prop49
280
     0
102
RTVSPost2010PropOp49
 70
     1
102
RTVSPost2010Prop50
 90
       50
102
RTVSPost2010PropOp50
 70
     1
102
RTVSPost2010Prop51ColorIndex
 90
      256
102
RTVSPost2010Prop51ColorRGB
 90
-16777216
102
RTVSPost2010PropOp51
 70
     0
102
RTVSPost2010Prop52
140
1.0
102
RTVSPost2010PropOp52
 70
     0
102
RTVSPost2010Prop53
 90
        2
102
RTVSPost2010PropOp53
 70
     1
102
RTVSPost2010Prop54
  1
strokes_ogs.tif
102
RTVSPost2010PropOp54
 70
     1
102
RTVSPost2010Prop55
280
     0
102
RTVSPost2010PropOp55
 70
     1
102
RTVSPost2010Prop56
140
1.0
102
RTVSPost2010PropOp56
 70
     1
102
RTVSPost2010Prop57
140
1.0
102
RTVSPost2010PropOp57
 70
     1
102
RTVSPropertyOp0
 70
     1
102
RTVSPropertyOp1
 70
     1
102
RTVSPropertyOp2
 70
     1
102
RTVSPropertyOp3
 70
     1
102
RTVSPropertyOp4
 70
     1
102
RTVSPropertyOp5
 70
     1
102
RTVSPropertyOp6
 70
     1
102
RTVSPropertyOp7
 70
     1
102
RTVSPropertyOp8
 70
     1
102
RTVSPropertyOp9
 70
     1
102
RTVSPropertyOp10
 70
     1
102
RTVSPropertyOp11
 70
     1
102
RTVSPropertyOp12
 70
     1
102
RTVSPropertyOp13
 70
     1
102
RTVSPropertyOp14
 70
     1
102
RTVSPropertyOp15
 70
     1
102
RTVSPropertyOp16
 70
     1
102
RTVSPropertyOp17
 70
     1
102
RTVSPropertyOp18
 70
     1
102
RTVSPropertyOp19
 70
     1
102
RTVSPropertyOp20
 70
     1
102
RTVSPropertyOp21
 70
     1
102
RTVSPropertyOp22
 70
     1
102
RTVSPropertyOp23
 70
     1
102
RTVSPropertyOp24
 70
     1
102
RTVSPropertyOp25
 70
     1
102
RTVSPropertyOp26
 70
     1
102
RTVSPropertyOp27
 70
     1
102
RTVSPropertyOp28
 70
     1
102
RTVSPropertyOp29
 70
     1
102
RTVSPropertyOp30
 70
     1
102
RTVSPropertyOp31
 70
     1
102
RTVSPropertyOp32
 70
     1
102
RTVSPropertyOp33
 70
     1
102
RTVSPropertyOp34
 70
     1
102
RTVSPropertyOp35
 70
     1
102
RTVSPropertyOp36
 70
     1
102
RTVSPropertyOp37
 70
     1
102
RTVSPropertyOp38
 70
     1
102
RTVSPropertyOp39
 70
     1
102
RTVSPropertyOp40
 70
     1
102
RTVSPropertyOp41
 70
     1
102
RTVSPropertyOp42
 70
     1
102
RTVSPropertyOp43
 70
     1
102
RTVSPropertyOp44
 70
     1
102
RTVSPropertyOp45
 70
     1
102
RTVSPropertyOp46
 70
     1
102
RTVSPropertyOp47
 70
     1
102
RTVSPropertyOp48
 70
     1
102
RTVSPropertyOp49
 70
     1
102
RTVSPropertyOp50
 70
     1
102
RTVSPropertyOp51
 70
     0
102
RTVSPropertyOp52
 70
     0
102
RTVSPropertyOp53
 70
     1
102
RTVSPropertyOp54
 70
     1
102
RTVSPropertyOp55
 70
     1
102
RTVSPropertyOp56
 70
     1
102
RTVSPropertyOp57
 70
     1
102
RTVSPropertyOp58
 70
     1
102
RTVSPropertyOp59
 70
     1
102
RTVSPropertyOp60
 70
     1
102
RTVSPropertyOp61
 70
     1
102
RTVSPropertyOp62
 70
     1
  0
XRECORD
  5
21097
102
{ACAD_REACTORS
330
21096
102
}
330
21096
100
AcDbXrecord
280
     1
102
RTVSPost2010Prop28
280
     0
102
RTVSPost2010PropOp28
 70
     1
102
RTVSPost2010Prop29
280
     1
102
RTVSPost2010PropOp29
 70
     1
102
RTVSPost2010Prop30
280
     1
102
RTVSPost2010PropOp30
 70
     1
102
RTVSPost2010Prop31
280
     0
102
RTVSPost2010PropOp31
 70
     1
102
RTVSPost2010Prop32
280
     0
102
RTVSPost2010PropOp32
 70
     1
102
RTVSPost2010Prop33
280
     0
102
RTVSPost2010PropOp33
 70
     1
102
RTVSPost2010Prop34
280
     0
102
RTVSPost2010PropOp34
 70
     1
102
RTVSPost2010Prop35
280
     0
102
RTVSPost2010PropOp35
 70
     1
102
RTVSPost2010Prop36
280
     0
102
RTVSPost2010PropOp36
 70
     1
102
RTVSPost2010Prop37
 90
       50
102
RTVSPost2010PropOp37
 70
     1
102
RTVSPost2010Prop38
140
0.0
102
RTVSPost2010PropOp38
 70
     1
102
RTVSPost2010Prop39
140
1.0
102
RTVSPost2010PropOp39
 70
     1
102
RTVSPost2010Prop40
 90
        0
102
RTVSPost2010PropOp40
 70
     1
102
RTVSPost2010Prop41ColorIndex
 90
       18
102
RTVSPost2010Prop41ColorRGB
 90
        0
102
RTVSPost2010PropOp41
 70
     1
102
RTVSPost2010Prop42
 90
       50
102
RTVSPost2010PropOp42
 70
     1
102
RTVSPost2010Prop43
 90
        3
102
RTVSPost2010PropOp43
 70
     1
102
RTVSPost2010Prop44ColorIndex
 90
        5
102
RTVSPost2010Prop44ColorRGB
 90
      255
102
RTVSPost2010PropOp44
 70
     1
102
RTVSPost2010Prop45
280
     0
102
RTVSPost2010PropOp45
 70
     1
102
RTVSPost2010Prop46
 90
       50
102
RTVSPost2010PropOp46
 70
     1
102
RTVSPost2010Prop47
 90
       50
102
RTVSPost2010PropOp47
 70
     1
102
RTVSPost2010Prop48
 90
       50
102
RTVSPost2010PropOp48
 70
     1
102
RTVSPost2010Prop49
280
     0
102
RTVSPost2010PropOp49
 70
     1
102
RTVSPost2010Prop50
 90
       50
102
RTVSPost2010PropOp50
 70
     1
102
RTVSPost2010Prop51ColorIndex
 90
      256
102
RTVSPost2010Prop51ColorRGB
 90
-16777216
102
RTVSPost2010PropOp51
 70
     0
102
RTVSPost2010Prop52
140
1.0
102
RTVSPost2010PropOp52
 70
     0
102
RTVSPost2010Prop53
 90
        2
102
RTVSPost2010PropOp53
 70
     1
102
RTVSPost2010Prop54
  1
strokes_ogs.tif
102
RTVSPost2010PropOp54
 70
     1
102
RTVSPost2010Prop55
280
     0
102
RTVSPost2010PropOp55
 70
     1
102
RTVSPost2010Prop56
140
1.0
102
RTVSPost2010PropOp56
 70
     1
102
RTVSPost2010Prop57
140
1.0
102
RTVSPost2010PropOp57
 70
     1
102
RTVSPropertyOp0
 70
     1
102
RTVSPropertyOp1
 70
     1
102
RTVSPropertyOp2
 70
     1
102
RTVSPropertyOp3
 70
     1
102
RTVSPropertyOp4
 70
     1
102
RTVSPropertyOp5
 70
     1
102
RTVSPropertyOp6
 70
     1
102
RTVSPropertyOp7
 70
     1
102
RTVSPropertyOp8
 70
     1
102
RTVSPropertyOp9
 70
     1
102
RTVSPropertyOp10
 70
     1
102
RTVSPropertyOp11
 70
     1
102
RTVSPropertyOp12
 70
     1
102
RTVSPropertyOp13
 70
     1
102
RTVSPropertyOp14
 70
     1
102
RTVSPropertyOp15
 70
     1
102
RTVSPropertyOp16
 70
     1
102
RTVSPropertyOp17
 70
     1
102
RTVSPropertyOp18
 70
     1
102
RTVSPropertyOp19
 70
     1
102
RTVSPropertyOp20
 70
     1
102
RTVSPropertyOp21
 70
     1
102
RTVSPropertyOp22
 70
     1
102
RTVSPropertyOp23
 70
     1
102
RTVSPropertyOp24
 70
     1
102
RTVSPropertyOp25
 70
     1
102
RTVSPropertyOp26
 70
     1
102
RTVSPropertyOp27
 70
     1
102
RTVSPropertyOp28
 70
     1
102
RTVSPropertyOp29
 70
     1
102
RTVSPropertyOp30
 70
     1
102
RTVSPropertyOp31
 70
     1
102
RTVSPropertyOp32
 70
     1
102
RTVSPropertyOp33
 70
     1
102
RTVSPropertyOp34
 70
     1
102
RTVSPropertyOp35
 70
     1
102
RTVSPropertyOp36
 70
     1
102
RTVSPropertyOp37
 70
     1
102
RTVSPropertyOp38
 70
     1
102
RTVSPropertyOp39
 70
     1
102
RTVSPropertyOp40
 70
     1
102
RTVSPropertyOp41
 70
     1
102
RTVSPropertyOp42
 70
     1
102
RTVSPropertyOp43
 70
     1
102
RTVSPropertyOp44
 70
     1
102
RTVSPropertyOp45
 70
     1
102
RTVSPropertyOp46
 70
     1
102
RTVSPropertyOp47
 70
     1
102
RTVSPropertyOp48
 70
     1
102
RTVSPropertyOp49
 70
     1
102
RTVSPropertyOp50
 70
     1
102
RTVSPropertyOp51
 70
     0
102
RTVSPropertyOp52
 70
     0
102
RTVSPropertyOp53
 70
     1
102
RTVSPropertyOp54
 70
     1
102
RTVSPropertyOp55
 70
     1
102
RTVSPropertyOp56
 70
     1
102
RTVSPropertyOp57
 70
     1
102
RTVSPropertyOp58
 70
     1
102
RTVSPropertyOp59
 70
     1
102
RTVSPropertyOp60
 70
     1
102
RTVSPropertyOp61
 70
     1
102
RTVSPropertyOp62
 70
     1
  0
XRECORD
  5
210A5
102
{ACAD_REACTORS
330
210A4
102
}
330
210A4
100
AcDbXrecord
280
     1
102
RTVSPost2010Prop28
280
     0
102
RTVSPost2010PropOp28
 70
     1
102
RTVSPost2010Prop29
280
     1
102
RTVSPost2010PropOp29
 70
     1
102
RTVSPost2010Prop30
280
     1
102
RTVSPost2010PropOp30
 70
     1
102
RTVSPost2010Prop31
280
     0
102
RTVSPost2010PropOp31
 70
     1
102
RTVSPost2010Prop32
280
     0
102
RTVSPost2010PropOp32
 70
     1
102
RTVSPost2010Prop33
280
     0
102
RTVSPost2010PropOp33
 70
     1
102
RTVSPost2010Prop34
280
     0
102
RTVSPost2010PropOp34
 70
     1
102
RTVSPost2010Prop35
280
     0
102
RTVSPost2010PropOp35
 70
     1
102
RTVSPost2010Prop36
280
     0
102
RTVSPost2010PropOp36
 70
     1
102
RTVSPost2010Prop37
 90
       50
102
RTVSPost2010PropOp37
 70
     1
102
RTVSPost2010Prop38
140
0.0
102
RTVSPost2010PropOp38
 70
     1
102
RTVSPost2010Prop39
140
1.0
102
RTVSPost2010PropOp39
 70
     1
102
RTVSPost2010Prop40
 90
        0
102
RTVSPost2010PropOp40
 70
     1
102
RTVSPost2010Prop41ColorIndex
 90
       18
102
RTVSPost2010Prop41ColorRGB
 90
        0
102
RTVSPost2010PropOp41
 70
     1
102
RTVSPost2010Prop42
 90
       50
102
RTVSPost2010PropOp42
 70
     1
102
RTVSPost2010Prop43
 90
        3
102
RTVSPost2010PropOp43
 70
     1
102
RTVSPost2010Prop44ColorIndex
 90
        5
102
RTVSPost2010Prop44ColorRGB
 90
      255
102
RTVSPost2010PropOp44
 70
     1
102
RTVSPost2010Prop45
280
     0
102
RTVSPost2010PropOp45
 70
     1
102
RTVSPost2010Prop46
 90
       50
102
RTVSPost2010PropOp46
 70
     1
102
RTVSPost2010Prop47
 90
       50
102
RTVSPost2010PropOp47
 70
     1
102
RTVSPost2010Prop48
 90
       50
102
RTVSPost2010PropOp48
 70
     1
102
RTVSPost2010Prop49
280
     0
102
RTVSPost2010PropOp49
 70
     1
102
RTVSPost2010Prop50
 90
       50
102
RTVSPost2010PropOp50
 70
     1
102
RTVSPost2010Prop51ColorIndex
 90
      256
102
RTVSPost2010Prop51ColorRGB
 90
-16777216
102
RTVSPost2010PropOp51
 70
     0
102
RTVSPost2010Prop52
140
1.0
102
RTVSPost2010PropOp52
 70
     0
102
RTVSPost2010Prop53
 90
        2
102
RTVSPost2010PropOp53
 70
     1
102
RTVSPost2010Prop54
  1
strokes_ogs.tif
102
RTVSPost2010PropOp54
 70
     1
102
RTVSPost2010Prop55
280
     0
102
RTVSPost2010PropOp55
 70
     1
102
RTVSPost2010Prop56
140
1.0
102
RTVSPost2010PropOp56
 70
     1
102
RTVSPost2010Prop57
140
1.0
102
RTVSPost2010PropOp57
 70
     1
102
RTVSPropertyOp0
 70
     1
102
RTVSPropertyOp1
 70
     1
102
RTVSPropertyOp2
 70
     1
102
RTVSPropertyOp3
 70
     1
102
RTVSPropertyOp4
 70
     1
102
RTVSPropertyOp5
 70
     1
102
RTVSPropertyOp6
 70
     1
102
RTVSPropertyOp7
 70
     1
102
RTVSPropertyOp8
 70
     1
102
RTVSPropertyOp9
 70
     1
102
RTVSPropertyOp10
 70
     1
102
RTVSPropertyOp11
 70
     1
102
RTVSPropertyOp12
 70
     1
102
RTVSPropertyOp13
 70
     1
102
RTVSPropertyOp14
 70
     1
102
RTVSPropertyOp15
 70
     1
102
RTVSPropertyOp16
 70
     1
102
RTVSPropertyOp17
 70
     1
102
RTVSPropertyOp18
 70
     1
102
RTVSPropertyOp19
 70
     1
102
RTVSPropertyOp20
 70
     1
102
RTVSPropertyOp21
 70
     1
102
RTVSPropertyOp22
 70
     1
102
RTVSPropertyOp23
 70
     1
102
RTVSPropertyOp24
 70
     1
102
RTVSPropertyOp25
 70
     1
102
RTVSPropertyOp26
 70
     1
102
RTVSPropertyOp27
 70
     1
102
RTVSPropertyOp28
 70
     1
102
RTVSPropertyOp29
 70
     1
102
RTVSPropertyOp30
 70
     1
102
RTVSPropertyOp31
 70
     1
102
RTVSPropertyOp32
 70
     1
102
RTVSPropertyOp33
 70
     1
102
RTVSPropertyOp34
 70
     1
102
RTVSPropertyOp35
 70
     1
102
RTVSPropertyOp36
 70
     1
102
RTVSPropertyOp37
 70
     1
102
RTVSPropertyOp38
 70
     1
102
RTVSPropertyOp39
 70
     1
102
RTVSPropertyOp40
 70
     1
102
RTVSPropertyOp41
 70
     1
102
RTVSPropertyOp42
 70
     1
102
RTVSPropertyOp43
 70
     1
102
RTVSPropertyOp44
 70
     1
102
RTVSPropertyOp45
 70
     1
102
RTVSPropertyOp46
 70
     1
102
RTVSPropertyOp47
 70
     1
102
RTVSPropertyOp48
 70
     1
102
RTVSPropertyOp49
 70
     1
102
RTVSPropertyOp50
 70
     1
102
RTVSPropertyOp51
 70
     0
102
RTVSPropertyOp52
 70
     0
102
RTVSPropertyOp53
 70
     1
102
RTVSPropertyOp54
 70
     1
102
RTVSPropertyOp55
 70
     1
102
RTVSPropertyOp56
 70
     1
102
RTVSPropertyOp57
 70
     1
102
RTVSPropertyOp58
 70
     1
102
RTVSPropertyOp59
 70
     1
102
RTVSPropertyOp60
 70
     1
102
RTVSPropertyOp61
 70
     1
102
RTVSPropertyOp62
 70
     1
  0
XRECORD
  5
210AD
102
{ACAD_REACTORS
330
210AC
102
}
330
210AC
100
AcDbXrecord
280
     1
102
RTVSPost2010Prop28
280
     0
102
RTVSPost2010PropOp28
 70
     1
102
RTVSPost2010Prop29
280
     1
102
RTVSPost2010PropOp29
 70
     1
102
RTVSPost2010Prop30
280
     1
102
RTVSPost2010PropOp30
 70
     1
102
RTVSPost2010Prop31
280
     0
102
RTVSPost2010PropOp31
 70
     1
102
RTVSPost2010Prop32
280
     0
102
RTVSPost2010PropOp32
 70
     1
102
RTVSPost2010Prop33
280
     0
102
RTVSPost2010PropOp33
 70
     1
102
RTVSPost2010Prop34
280
     0
102
RTVSPost2010PropOp34
 70
     1
102
RTVSPost2010Prop35
280
     0
102
RTVSPost2010PropOp35
 70
     1
102
RTVSPost2010Prop36
280
     0
102
RTVSPost2010PropOp36
 70
     1
102
RTVSPost2010Prop37
 90
       50
102
RTVSPost2010PropOp37
 70
     1
102
RTVSPost2010Prop38
140
0.0
102
RTVSPost2010PropOp38
 70
     1
102
RTVSPost2010Prop39
140
1.0
102
RTVSPost2010PropOp39
 70
     1
102
RTVSPost2010Prop40
 90
        0
102
RTVSPost2010PropOp40
 70
     1
102
RTVSPost2010Prop41ColorIndex
 90
       18
102
RTVSPost2010Prop41ColorRGB
 90
        0
102
RTVSPost2010PropOp41
 70
     1
102
RTVSPost2010Prop42
 90
       50
102
RTVSPost2010PropOp42
 70
     1
102
RTVSPost2010Prop43
 90
        3
102
RTVSPost2010PropOp43
 70
     1
102
RTVSPost2010Prop44ColorIndex
 90
        5
102
RTVSPost2010Prop44ColorRGB
 90
      255
102
RTVSPost2010PropOp44
 70
     1
102
RTVSPost2010Prop45
280
     0
102
RTVSPost2010PropOp45
 70
     1
102
RTVSPost2010Prop46
 90
       50
102
RTVSPost2010PropOp46
 70
     1
102
RTVSPost2010Prop47
 90
       50
102
RTVSPost2010PropOp47
 70
     1
102
RTVSPost2010Prop48
 90
       50
102
RTVSPost2010PropOp48
 70
     1
102
RTVSPost2010Prop49
280
     0
102
RTVSPost2010PropOp49
 70
     1
102
RTVSPost2010Prop50
 90
       50
102
RTVSPost2010PropOp50
 70
     1
102
RTVSPost2010Prop51ColorIndex
 90
      256
102
RTVSPost2010Prop51ColorRGB
 90
-16777216
102
RTVSPost2010PropOp51
 70
     0
102
RTVSPost2010Prop52
140
1.0
102
RTVSPost2010PropOp52
 70
     0
102
RTVSPost2010Prop53
 90
        2
102
RTVSPost2010PropOp53
 70
     1
102
RTVSPost2010Prop54
  1
strokes_ogs.tif
102
RTVSPost2010PropOp54
 70
     1
102
RTVSPost2010Prop55
280
     0
102
RTVSPost2010PropOp55
 70
     1
102
RTVSPost2010Prop56
140
1.0
102
RTVSPost2010PropOp56
 70
     1
102
RTVSPost2010Prop57
140
1.0
102
RTVSPost2010PropOp57
 70
     1
102
RTVSPropertyOp0
 70
     1
102
RTVSPropertyOp1
 70
     1
102
RTVSPropertyOp2
 70
     1
102
RTVSPropertyOp3
 70
     1
102
RTVSPropertyOp4
 70
     1
102
RTVSPropertyOp5
 70
     1
102
RTVSPropertyOp6
 70
     1
102
RTVSPropertyOp7
 70
     1
102
RTVSPropertyOp8
 70
     1
102
RTVSPropertyOp9
 70
     1
102
RTVSPropertyOp10
 70
     1
102
RTVSPropertyOp11
 70
     1
102
RTVSPropertyOp12
 70
     1
102
RTVSPropertyOp13
 70
     1
102
RTVSPropertyOp14
 70
     1
102
RTVSPropertyOp15
 70
     1
102
RTVSPropertyOp16
 70
     1
102
RTVSPropertyOp17
 70
     1
102
RTVSPropertyOp18
 70
     1
102
RTVSPropertyOp19
 70
     1
102
RTVSPropertyOp20
 70
     1
102
RTVSPropertyOp21
 70
     1
102
RTVSPropertyOp22
 70
     1
102
RTVSPropertyOp23
 70
     1
102
RTVSPropertyOp24
 70
     1
102
RTVSPropertyOp25
 70
     1
102
RTVSPropertyOp26
 70
     1
102
RTVSPropertyOp27
 70
     1
102
RTVSPropertyOp28
 70
     1
102
RTVSPropertyOp29
 70
     1
102
RTVSPropertyOp30
 70
     1
102
RTVSPropertyOp31
 70
     1
102
RTVSPropertyOp32
 70
     1
102
RTVSPropertyOp33
 70
     1
102
RTVSPropertyOp34
 70
     1
102
RTVSPropertyOp35
 70
     1
102
RTVSPropertyOp36
 70
     1
102
RTVSPropertyOp37
 70
     1
102
RTVSPropertyOp38
 70
     1
102
RTVSPropertyOp39
 70
     1
102
RTVSPropertyOp40
 70
     1
102
RTVSPropertyOp41
 70
     1
102
RTVSPropertyOp42
 70
     1
102
RTVSPropertyOp43
 70
     1
102
RTVSPropertyOp44
 70
     1
102
RTVSPropertyOp45
 70
     1
102
RTVSPropertyOp46
 70
     1
102
RTVSPropertyOp47
 70
     1
102
RTVSPropertyOp48
 70
     1
102
RTVSPropertyOp49
 70
     1
102
RTVSPropertyOp50
 70
     1
102
RTVSPropertyOp51
 70
     0
102
RTVSPropertyOp52
 70
     0
102
RTVSPropertyOp53
 70
     1
102
RTVSPropertyOp54
 70
     1
102
RTVSPropertyOp55
 70
     1
102
RTVSPropertyOp56
 70
     1
102
RTVSPropertyOp57
 70
     1
102
RTVSPropertyOp58
 70
     1
102
RTVSPropertyOp59
 70
     1
102
RTVSPropertyOp60
 70
     1
102
RTVSPropertyOp61
 70
     1
102
RTVSPropertyOp62
 70
     1
  0
XRECORD
  5
2109F
102
{ACAD_REACTORS
330
2109E
102
}
330
2109E
100
AcDbXrecord
280
     1
102
RTVSPost2010Prop28
280
     0
102
RTVSPost2010PropOp28
 70
     1
102
RTVSPost2010Prop29
280
     1
102
RTVSPost2010PropOp29
 70
     1
102
RTVSPost2010Prop30
280
     1
102
RTVSPost2010PropOp30
 70
     1
102
RTVSPost2010Prop31
280
     0
102
RTVSPost2010PropOp31
 70
     1
102
RTVSPost2010Prop32
280
     0
102
RTVSPost2010PropOp32
 70
     1
102
RTVSPost2010Prop33
280
     0
102
RTVSPost2010PropOp33
 70
     1
102
RTVSPost2010Prop34
280
     0
102
RTVSPost2010PropOp34
 70
     1
102
RTVSPost2010Prop35
280
     0
102
RTVSPost2010PropOp35
 70
     1
102
RTVSPost2010Prop36
280
     0
102
RTVSPost2010PropOp36
 70
     1
102
RTVSPost2010Prop37
 90
       50
102
RTVSPost2010PropOp37
 70
     1
102
RTVSPost2010Prop38
140
0.0
102
RTVSPost2010PropOp38
 70
     1
102
RTVSPost2010Prop39
140
1.0
102
RTVSPost2010PropOp39
 70
     1
102
RTVSPost2010Prop40
 90
        0
102
RTVSPost2010PropOp40
 70
     1
102
RTVSPost2010Prop41ColorIndex
 90
       18
102
RTVSPost2010Prop41ColorRGB
 90
        0
102
RTVSPost2010PropOp41
 70
     1
102
RTVSPost2010Prop42
 90
       50
102
RTVSPost2010PropOp42
 70
     1
102
RTVSPost2010Prop43
 90
        3
102
RTVSPost2010PropOp43
 70
     1
102
RTVSPost2010Prop44ColorIndex
 90
        5
102
RTVSPost2010Prop44ColorRGB
 90
      255
102
RTVSPost2010PropOp44
 70
     1
102
RTVSPost2010Prop45
280
     0
102
RTVSPost2010PropOp45
 70
     1
102
RTVSPost2010Prop46
 90
       50
102
RTVSPost2010PropOp46
 70
     1
102
RTVSPost2010Prop47
 90
       50
102
RTVSPost2010PropOp47
 70
     1
102
RTVSPost2010Prop48
 90
       50
102
RTVSPost2010PropOp48
 70
     1
102
RTVSPost2010Prop49
280
     0
102
RTVSPost2010PropOp49
 70
     1
102
RTVSPost2010Prop50
 90
       50
102
RTVSPost2010PropOp50
 70
     1
102
RTVSPost2010Prop51ColorIndex
 90
      256
102
RTVSPost2010Prop51ColorRGB
 90
-16777216
102
RTVSPost2010PropOp51
 70
     0
102
RTVSPost2010Prop52
140
1.0
102
RTVSPost2010PropOp52
 70
     0
102
RTVSPost2010Prop53
 90
        2
102
RTVSPost2010PropOp53
 70
     1
102
RTVSPost2010Prop54
  1
strokes_ogs.tif
102
RTVSPost2010PropOp54
 70
     1
102
RTVSPost2010Prop55
280
     0
102
RTVSPost2010PropOp55
 70
     1
102
RTVSPost2010Prop56
140
1.0
102
RTVSPost2010PropOp56
 70
     1
102
RTVSPost2010Prop57
140
1.0
102
RTVSPost2010PropOp57
 70
     1
102
RTVSPropertyOp0
 70
     1
102
RTVSPropertyOp1
 70
     1
102
RTVSPropertyOp2
 70
     1
102
RTVSPropertyOp3
 70
     1
102
RTVSPropertyOp4
 70
     1
102
RTVSPropertyOp5
 70
     1
102
RTVSPropertyOp6
 70
     1
102
RTVSPropertyOp7
 70
     1
102
RTVSPropertyOp8
 70
     1
102
RTVSPropertyOp9
 70
     1
102
RTVSPropertyOp10
 70
     1
102
RTVSPropertyOp11
 70
     1
102
RTVSPropertyOp12
 70
     1
102
RTVSPropertyOp13
 70
     1
102
RTVSPropertyOp14
 70
     1
102
RTVSPropertyOp15
 70
     1
102
RTVSPropertyOp16
 70
     1
102
RTVSPropertyOp17
 70
     1
102
RTVSPropertyOp18
 70
     1
102
RTVSPropertyOp19
 70
     1
102
RTVSPropertyOp20
 70
     1
102
RTVSPropertyOp21
 70
     1
102
RTVSPropertyOp22
 70
     1
102
RTVSPropertyOp23
 70
     1
102
RTVSPropertyOp24
 70
     1
102
RTVSPropertyOp25
 70
     1
102
RTVSPropertyOp26
 70
     1
102
RTVSPropertyOp27
 70
     1
102
RTVSPropertyOp28
 70
     1
102
RTVSPropertyOp29
 70
     1
102
RTVSPropertyOp30
 70
     1
102
RTVSPropertyOp31
 70
     1
102
RTVSPropertyOp32
 70
     1
102
RTVSPropertyOp33
 70
     1
102
RTVSPropertyOp34
 70
     1
102
RTVSPropertyOp35
 70
     1
102
RTVSPropertyOp36
 70
     1
102
RTVSPropertyOp37
 70
     1
102
RTVSPropertyOp38
 70
     1
102
RTVSPropertyOp39
 70
     1
102
RTVSPropertyOp40
 70
     1
102
RTVSPropertyOp41
 70
     1
102
RTVSPropertyOp42
 70
     1
102
RTVSPropertyOp43
 70
     1
102
RTVSPropertyOp44
 70
     1
102
RTVSPropertyOp45
 70
     1
102
RTVSPropertyOp46
 70
     1
102
RTVSPropertyOp47
 70
     1
102
RTVSPropertyOp48
 70
     1
102
RTVSPropertyOp49
 70
     1
102
RTVSPropertyOp50
 70
     1
102
RTVSPropertyOp51
 70
     0
102
RTVSPropertyOp52
 70
     0
102
RTVSPropertyOp53
 70
     1
102
RTVSPropertyOp54
 70
     1
102
RTVSPropertyOp55
 70
     1
102
RTVSPropertyOp56
 70
     1
102
RTVSPropertyOp57
 70
     1
102
RTVSPropertyOp58
 70
     1
102
RTVSPropertyOp59
 70
     1
102
RTVSPropertyOp60
 70
     1
102
RTVSPropertyOp61
 70
     1
102
RTVSPropertyOp62
 70
     1
  0
XRECORD
  5
210A3
102
{ACAD_REACTORS
330
210A2
102
}
330
210A2
100
AcDbXrecord
280
     1
102
RTVSPost2010Prop28
280
     0
102
RTVSPost2010PropOp28
 70
     1
102
RTVSPost2010Prop29
280
     1
102
RTVSPost2010PropOp29
 70
     1
102
RTVSPost2010Prop30
280
     1
102
RTVSPost2010PropOp30
 70
     1
102
RTVSPost2010Prop31
280
     0
102
RTVSPost2010PropOp31
 70
     1
102
RTVSPost2010Prop32
280
     0
102
RTVSPost2010PropOp32
 70
     1
102
RTVSPost2010Prop33
280
     0
102
RTVSPost2010PropOp33
 70
     1
102
RTVSPost2010Prop34
280
     0
102
RTVSPost2010PropOp34
 70
     1
102
RTVSPost2010Prop35
280
     0
102
RTVSPost2010PropOp35
 70
     1
102
RTVSPost2010Prop36
280
     0
102
RTVSPost2010PropOp36
 70
     1
102
RTVSPost2010Prop37
 90
       50
102
RTVSPost2010PropOp37
 70
     1
102
RTVSPost2010Prop38
140
0.0
102
RTVSPost2010PropOp38
 70
     1
102
RTVSPost2010Prop39
140
1.0
102
RTVSPost2010PropOp39
 70
     1
102
RTVSPost2010Prop40
 90
        0
102
RTVSPost2010PropOp40
 70
     1
102
RTVSPost2010Prop41ColorIndex
 90
       18
102
RTVSPost2010Prop41ColorRGB
 90
        0
102
RTVSPost2010PropOp41
 70
     1
102
RTVSPost2010Prop42
 90
       50
102
RTVSPost2010PropOp42
 70
     1
102
RTVSPost2010Prop43
 90
        3
102
RTVSPost2010PropOp43
 70
     1
102
RTVSPost2010Prop44ColorIndex
 90
        5
102
RTVSPost2010Prop44ColorRGB
 90
      255
102
RTVSPost2010PropOp44
 70
     1
102
RTVSPost2010Prop45
280
     0
102
RTVSPost2010PropOp45
 70
     1
102
RTVSPost2010Prop46
 90
       50
102
RTVSPost2010PropOp46
 70
     1
102
RTVSPost2010Prop47
 90
       50
102
RTVSPost2010PropOp47
 70
     1
102
RTVSPost2010Prop48
 90
       50
102
RTVSPost2010PropOp48
 70
     1
102
RTVSPost2010Prop49
280
     0
102
RTVSPost2010PropOp49
 70
     1
102
RTVSPost2010Prop50
 90
       50
102
RTVSPost2010PropOp50
 70
     1
102
RTVSPost2010Prop51ColorIndex
 90
      256
102
RTVSPost2010Prop51ColorRGB
 90
-16777216
102
RTVSPost2010PropOp51
 70
     0
102
RTVSPost2010Prop52
140
1.0
102
RTVSPost2010PropOp52
 70
     0
102
RTVSPost2010Prop53
 90
        2
102
RTVSPost2010PropOp53
 70
     1
102
RTVSPost2010Prop54
  1
strokes_ogs.tif
102
RTVSPost2010PropOp54
 70
     1
102
RTVSPost2010Prop55
280
     0
102
RTVSPost2010PropOp55
 70
     1
102
RTVSPost2010Prop56
140
1.0
102
RTVSPost2010PropOp56
 70
     1
102
RTVSPost2010Prop57
140
1.0
102
RTVSPost2010PropOp57
 70
     1
102
RTVSPropertyOp0
 70
     1
102
RTVSPropertyOp1
 70
     1
102
RTVSPropertyOp2
 70
     1
102
RTVSPropertyOp3
 70
     1
102
RTVSPropertyOp4
 70
     1
102
RTVSPropertyOp5
 70
     1
102
RTVSPropertyOp6
 70
     1
102
RTVSPropertyOp7
 70
     1
102
RTVSPropertyOp8
 70
     1
102
RTVSPropertyOp9
 70
     1
102
RTVSPropertyOp10
 70
     1
102
RTVSPropertyOp11
 70
     1
102
RTVSPropertyOp12
 70
     1
102
RTVSPropertyOp13
 70
     1
102
RTVSPropertyOp14
 70
     1
102
RTVSPropertyOp15
 70
     1
102
RTVSPropertyOp16
 70
     1
102
RTVSPropertyOp17
 70
     1
102
RTVSPropertyOp18
 70
     1
102
RTVSPropertyOp19
 70
     1
102
RTVSPropertyOp20
 70
     1
102
RTVSPropertyOp21
 70
     1
102
RTVSPropertyOp22
 70
     1
102
RTVSPropertyOp23
 70
     1
102
RTVSPropertyOp24
 70
     1
102
RTVSPropertyOp25
 70
     1
102
RTVSPropertyOp26
 70
     1
102
RTVSPropertyOp27
 70
     1
102
RTVSPropertyOp28
 70
     1
102
RTVSPropertyOp29
 70
     1
102
RTVSPropertyOp30
 70
     1
102
RTVSPropertyOp31
 70
     1
102
RTVSPropertyOp32
 70
     1
102
RTVSPropertyOp33
 70
     1
102
RTVSPropertyOp34
 70
     1
102
RTVSPropertyOp35
 70
     1
102
RTVSPropertyOp36
 70
     1
102
RTVSPropertyOp37
 70
     1
102
RTVSPropertyOp38
 70
     1
102
RTVSPropertyOp39
 70
     1
102
RTVSPropertyOp40
 70
     1
102
RTVSPropertyOp41
 70
     1
102
RTVSPropertyOp42
 70
     1
102
RTVSPropertyOp43
 70
     1
102
RTVSPropertyOp44
 70
     1
102
RTVSPropertyOp45
 70
     1
102
RTVSPropertyOp46
 70
     1
102
RTVSPropertyOp47
 70
     1
102
RTVSPropertyOp48
 70
     1
102
RTVSPropertyOp49
 70
     1
102
RTVSPropertyOp50
 70
     1
102
RTVSPropertyOp51
 70
     0
102
RTVSPropertyOp52
 70
     0
102
RTVSPropertyOp53
 70
     1
102
RTVSPropertyOp54
 70
     1
102
RTVSPropertyOp55
 70
     1
102
RTVSPropertyOp56
 70
     1
102
RTVSPropertyOp57
 70
     1
102
RTVSPropertyOp58
 70
     1
102
RTVSPropertyOp59
 70
     1
102
RTVSPropertyOp60
 70
     1
102
RTVSPropertyOp61
 70
     1
102
RTVSPropertyOp62
 70
     1
  0
XRECORD
  5
210CA
102
{ACAD_REACTORS
330
210C9
102
}
330
210C9
100
AcDbXrecord
280
     1
102
RTVSPost2010Prop28
280
     0
102
RTVSPost2010PropOp28
 70
     1
102
RTVSPost2010Prop29
280
     1
102
RTVSPost2010PropOp29
 70
     1
102
RTVSPost2010Prop30
280
     1
102
RTVSPost2010PropOp30
 70
     1
102
RTVSPost2010Prop31
280
     0
102
RTVSPost2010PropOp31
 70
     1
102
RTVSPost2010Prop32
280
     0
102
RTVSPost2010PropOp32
 70
     1
102
RTVSPost2010Prop33
280
     0
102
RTVSPost2010PropOp33
 70
     1
102
RTVSPost2010Prop34
280
     0
102
RTVSPost2010PropOp34
 70
     1
102
RTVSPost2010Prop35
280
     0
102
RTVSPost2010PropOp35
 70
     1
102
RTVSPost2010Prop36
280
     0
102
RTVSPost2010PropOp36
 70
     1
102
RTVSPost2010Prop37
 90
       50
102
RTVSPost2010PropOp37
 70
     0
102
RTVSPost2010Prop38
140
0.0
102
RTVSPost2010PropOp38
 70
     0
102
RTVSPost2010Prop39
140
1.0
102
RTVSPost2010PropOp39
 70
     0
102
RTVSPost2010Prop40
 90
        0
102
RTVSPost2010PropOp40
 70
     0
102
RTVSPost2010Prop41ColorIndex
 90
       18
102
RTVSPost2010Prop41ColorRGB
 90
        0
102
RTVSPost2010PropOp41
 70
     0
102
RTVSPost2010Prop42
 90
       50
102
RTVSPost2010PropOp42
 70
     0
102
RTVSPost2010Prop43
 90
        3
102
RTVSPost2010PropOp43
 70
     0
102
RTVSPost2010Prop44ColorIndex
 90
        5
102
RTVSPost2010Prop44ColorRGB
 90
      255
102
RTVSPost2010PropOp44
 70
     0
102
RTVSPost2010Prop45
280
     0
102
RTVSPost2010PropOp45
 70
     1
102
RTVSPost2010Prop46
 90
       50
102
RTVSPost2010PropOp46
 70
     0
102
RTVSPost2010Prop47
 90
       50
102
RTVSPost2010PropOp47
 70
     0
102
RTVSPost2010Prop48
 90
       50
102
RTVSPost2010PropOp48
 70
     0
102
RTVSPost2010Prop49
280
     0
102
RTVSPost2010PropOp49
 70
     1
102
RTVSPost2010Prop50
 90
       50
102
RTVSPost2010PropOp50
 70
     0
102
RTVSPost2010Prop51ColorIndex
 90
      256
102
RTVSPost2010Prop51ColorRGB
 90
-16777216
102
RTVSPost2010PropOp51
 70
     0
102
RTVSPost2010Prop52
140
1.0
102
RTVSPost2010PropOp52
 70
     0
102
RTVSPost2010Prop53
 90
        2
102
RTVSPost2010PropOp53
 70
     0
102
RTVSPost2010Prop54
  1
strokes_ogs.tif
102
RTVSPost2010PropOp54
 70
     0
102
RTVSPost2010Prop55
280
     0
102
RTVSPost2010PropOp55
 70
     1
102
RTVSPost2010Prop56
140
1.0
102
RTVSPost2010PropOp56
 70
     0
102
RTVSPost2010Prop57
140
1.0
102
RTVSPost2010PropOp57
 70
     0
102
RTVSPropertyOp0
 70
     0
102
RTVSPropertyOp1
 70
     0
102
RTVSPropertyOp2
 70
     0
102
RTVSPropertyOp3
 70
     0
102
RTVSPropertyOp4
 70
     0
102
RTVSPropertyOp5
 70
     0
102
RTVSPropertyOp6
 70
     0
102
RTVSPropertyOp7
 70
     0
102
RTVSPropertyOp8
 70
     0
102
RTVSPropertyOp9
 70
     0
102
RTVSPropertyOp10
 70
     0
102
RTVSPropertyOp11
 70
     0
102
RTVSPropertyOp12
 70
     0
102
RTVSPropertyOp13
 70
     0
102
RTVSPropertyOp14
 70
     2
102
RTVSPropertyOp15
 70
     0
102
RTVSPropertyOp16
 70
     0
102
RTVSPropertyOp17
 70
     0
102
RTVSPropertyOp18
 70
     0
102
RTVSPropertyOp19
 70
     0
102
RTVSPropertyOp20
 70
     0
102
RTVSPropertyOp21
 70
     0
102
RTVSPropertyOp22
 70
     0
102
RTVSPropertyOp23
 70
     0
102
RTVSPropertyOp24
 70
     0
102
RTVSPropertyOp25
 70
     0
102
RTVSPropertyOp26
 70
     0
102
RTVSPropertyOp27
 70
     0
102
RTVSPropertyOp28
 70
     1
102
RTVSPropertyOp29
 70
     1
102
RTVSPropertyOp30
 70
     1
102
RTVSPropertyOp31
 70
     1
102
RTVSPropertyOp32
 70
     1
102
RTVSPropertyOp33
 70
     1
102
RTVSPropertyOp34
 70
     1
102
RTVSPropertyOp35
 70
     1
102
RTVSPropertyOp36
 70
     1
102
RTVSPropertyOp37
 70
     0
102
RTVSPropertyOp38
 70
     0
102
RTVSPropertyOp39
 70
     0
102
RTVSPropertyOp40
 70
     0
102
RTVSPropertyOp41
 70
     0
102
RTVSPropertyOp42
 70
     0
102
RTVSPropertyOp43
 70
     0
102
RTVSPropertyOp44
 70
     0
102
RTVSPropertyOp45
 70
     1
102
RTVSPropertyOp46
 70
     0
102
RTVSPropertyOp47
 70
     0
102
RTVSPropertyOp48
 70
     0
102
RTVSPropertyOp49
 70
     1
102
RTVSPropertyOp50
 70
     0
102
RTVSPropertyOp51
 70
     0
102
RTVSPropertyOp52
 70
     0
102
RTVSPropertyOp53
 70
     0
102
RTVSPropertyOp54
 70
     0
102
RTVSPropertyOp55
 70
     1
102
RTVSPropertyOp56
 70
     0
102
RTVSPropertyOp57
 70
     0
102
RTVSPropertyOp58
 70
     1
102
RTVSPropertyOp59
 70
     1
102
RTVSPropertyOp60
 70
     1
102
RTVSPropertyOp61
 70
     1
102
RTVSPropertyOp62
 70
     1
  0
XRECORD
  5
210AB
102
{ACAD_REACTORS
330
210AA
102
}
330
210AA
100
AcDbXrecord
280
     1
102
RTVSPost2010Prop28
280
     0
102
RTVSPost2010PropOp28
 70
     1
102
RTVSPost2010Prop29
280
     1
102
RTVSPost2010PropOp29
 70
     1
102
RTVSPost2010Prop30
280
     1
102
RTVSPost2010PropOp30
 70
     1
102
RTVSPost2010Prop31
280
     0
102
RTVSPost2010PropOp31
 70
     1
102
RTVSPost2010Prop32
280
     0
102
RTVSPost2010PropOp32
 70
     1
102
RTVSPost2010Prop33
280
     0
102
RTVSPost2010PropOp33
 70
     1
102
RTVSPost2010Prop34
280
     0
102
RTVSPost2010PropOp34
 70
     1
102
RTVSPost2010Prop35
280
     0
102
RTVSPost2010PropOp35
 70
     1
102
RTVSPost2010Prop36
280
     0
102
RTVSPost2010PropOp36
 70
     1
102
RTVSPost2010Prop37
 90
       50
102
RTVSPost2010PropOp37
 70
     1
102
RTVSPost2010Prop38
140
0.0
102
RTVSPost2010PropOp38
 70
     1
102
RTVSPost2010Prop39
140
1.0
102
RTVSPost2010PropOp39
 70
     1
102
RTVSPost2010Prop40
 90
        0
102
RTVSPost2010PropOp40
 70
     1
102
RTVSPost2010Prop41ColorIndex
 90
       18
102
RTVSPost2010Prop41ColorRGB
 90
        0
102
RTVSPost2010PropOp41
 70
     1
102
RTVSPost2010Prop42
 90
       50
102
RTVSPost2010PropOp42
 70
     1
102
RTVSPost2010Prop43
 90
        3
102
RTVSPost2010PropOp43
 70
     1
102
RTVSPost2010Prop44ColorIndex
 90
        5
102
RTVSPost2010Prop44ColorRGB
 90
      255
102
RTVSPost2010PropOp44
 70
     1
102
RTVSPost2010Prop45
280
     0
102
RTVSPost2010PropOp45
 70
     1
102
RTVSPost2010Prop46
 90
       50
102
RTVSPost2010PropOp46
 70
     1
102
RTVSPost2010Prop47
 90
       50
102
RTVSPost2010PropOp47
 70
     1
102
RTVSPost2010Prop48
 90
       50
102
RTVSPost2010PropOp48
 70
     1
102
RTVSPost2010Prop49
280
     0
102
RTVSPost2010PropOp49
 70
     1
102
RTVSPost2010Prop50
 90
       50
102
RTVSPost2010PropOp50
 70
     1
102
RTVSPost2010Prop51ColorIndex
 90
      256
102
RTVSPost2010Prop51ColorRGB
 90
-16777216
102
RTVSPost2010PropOp51
 70
     0
102
RTVSPost2010Prop52
140
1.0
102
RTVSPost2010PropOp52
 70
     0
102
RTVSPost2010Prop53
 90
        2
102
RTVSPost2010PropOp53
 70
     1
102
RTVSPost2010Prop54
  1
strokes_ogs.tif
102
RTVSPost2010PropOp54
 70
     1
102
RTVSPost2010Prop55
280
     0
102
RTVSPost2010PropOp55
 70
     1
102
RTVSPost2010Prop56
140
1.0
102
RTVSPost2010PropOp56
 70
     1
102
RTVSPost2010Prop57
140
1.0
102
RTVSPost2010PropOp57
 70
     1
102
RTVSPropertyOp0
 70
     1
102
RTVSPropertyOp1
 70
     1
102
RTVSPropertyOp2
 70
     1
102
RTVSPropertyOp3
 70
     1
102
RTVSPropertyOp4
 70
     1
102
RTVSPropertyOp5
 70
     1
102
RTVSPropertyOp6
 70
     1
102
RTVSPropertyOp7
 70
     1
102
RTVSPropertyOp8
 70
     1
102
RTVSPropertyOp9
 70
     1
102
RTVSPropertyOp10
 70
     1
102
RTVSPropertyOp11
 70
     1
102
RTVSPropertyOp12
 70
     1
102
RTVSPropertyOp13
 70
     1
102
RTVSPropertyOp14
 70
     1
102
RTVSPropertyOp15
 70
     1
102
RTVSPropertyOp16
 70
     1
102
RTVSPropertyOp17
 70
     1
102
RTVSPropertyOp18
 70
     1
102
RTVSPropertyOp19
 70
     1
102
RTVSPropertyOp20
 70
     1
102
RTVSPropertyOp21
 70
     1
102
RTVSPropertyOp22
 70
     1
102
RTVSPropertyOp23
 70
     1
102
RTVSPropertyOp24
 70
     1
102
RTVSPropertyOp25
 70
     1
102
RTVSPropertyOp26
 70
     1
102
RTVSPropertyOp27
 70
     1
102
RTVSPropertyOp28
 70
     1
102
RTVSPropertyOp29
 70
     1
102
RTVSPropertyOp30
 70
     1
102
RTVSPropertyOp31
 70
     1
102
RTVSPropertyOp32
 70
     1
102
RTVSPropertyOp33
 70
     1
102
RTVSPropertyOp34
 70
     1
102
RTVSPropertyOp35
 70
     1
102
RTVSPropertyOp36
 70
     1
102
RTVSPropertyOp37
 70
     1
102
RTVSPropertyOp38
 70
     1
102
RTVSPropertyOp39
 70
     1
102
RTVSPropertyOp40
 70
     1
102
RTVSPropertyOp41
 70
     1
102
RTVSPropertyOp42
 70
     1
102
RTVSPropertyOp43
 70
     1
102
RTVSPropertyOp44
 70
     1
102
RTVSPropertyOp45
 70
     1
102
RTVSPropertyOp46
 70
     1
102
RTVSPropertyOp47
 70
     1
102
RTVSPropertyOp48
 70
     1
102
RTVSPropertyOp49
 70
     1
102
RTVSPropertyOp50
 70
     1
102
RTVSPropertyOp51
 70
     0
102
RTVSPropertyOp52
 70
     0
102
RTVSPropertyOp53
 70
     1
102
RTVSPropertyOp54
 70
     1
102
RTVSPropertyOp55
 70
     1
102
RTVSPropertyOp56
 70
     1
102
RTVSPropertyOp57
 70
     1
102
RTVSPropertyOp58
 70
     1
102
RTVSPropertyOp59
 70
     1
102
RTVSPropertyOp60
 70
     1
102
RTVSPropertyOp61
 70
     1
102
RTVSPropertyOp62
 70
     1
  0
XRECORD
  5
2108F
102
{ACAD_REACTORS
330
2108E
102
}
330
2108E
100
AcDbXrecord
280
     1
102
RTVSPost2010Prop28
280
     0
102
RTVSPost2010PropOp28
 70
     1
102
RTVSPost2010Prop29
280
     1
102
RTVSPost2010PropOp29
 70
     1
102
RTVSPost2010Prop30
280
     1
102
RTVSPost2010PropOp30
 70
     1
102
RTVSPost2010Prop31
280
     0
102
RTVSPost2010PropOp31
 70
     1
102
RTVSPost2010Prop32
280
     0
102
RTVSPost2010PropOp32
 70
     1
102
RTVSPost2010Prop33
280
     0
102
RTVSPost2010PropOp33
 70
     1
102
RTVSPost2010Prop34
280
     0
102
RTVSPost2010PropOp34
 70
     1
102
RTVSPost2010Prop35
280
     0
102
RTVSPost2010PropOp35
 70
     1
102
RTVSPost2010Prop36
280
     0
102
RTVSPost2010PropOp36
 70
     1
102
RTVSPost2010Prop37
 90
       50
102
RTVSPost2010PropOp37
 70
     1
102
RTVSPost2010Prop38
140
0.0
102
RTVSPost2010PropOp38
 70
     1
102
RTVSPost2010Prop39
140
1.0
102
RTVSPost2010PropOp39
 70
     1
102
RTVSPost2010Prop40
 90
        0
102
RTVSPost2010PropOp40
 70
     1
102
RTVSPost2010Prop41ColorIndex
 90
       18
102
RTVSPost2010Prop41ColorRGB
 90
        0
102
RTVSPost2010PropOp41
 70
     1
102
RTVSPost2010Prop42
 90
       50
102
RTVSPost2010PropOp42
 70
     1
102
RTVSPost2010Prop43
 90
        3
102
RTVSPost2010PropOp43
 70
     1
102
RTVSPost2010Prop44ColorIndex
 90
        5
102
RTVSPost2010Prop44ColorRGB
 90
      255
102
RTVSPost2010PropOp44
 70
     1
102
RTVSPost2010Prop45
280
     0
102
RTVSPost2010PropOp45
 70
     1
102
RTVSPost2010Prop46
 90
       50
102
RTVSPost2010PropOp46
 70
     1
102
RTVSPost2010Prop47
 90
       50
102
RTVSPost2010PropOp47
 70
     1
102
RTVSPost2010Prop48
 90
       50
102
RTVSPost2010PropOp48
 70
     1
102
RTVSPost2010Prop49
280
     0
102
RTVSPost2010PropOp49
 70
     1
102
RTVSPost2010Prop50
 90
       50
102
RTVSPost2010PropOp50
 70
     1
102
RTVSPost2010Prop51ColorIndex
 90
      256
102
RTVSPost2010Prop51ColorRGB
 90
-16777216
102
RTVSPost2010PropOp51
 70
     0
102
RTVSPost2010Prop52
140
1.0
102
RTVSPost2010PropOp52
 70
     0
102
RTVSPost2010Prop53
 90
        2
102
RTVSPost2010PropOp53
 70
     1
102
RTVSPost2010Prop54
  1
strokes_ogs.tif
102
RTVSPost2010PropOp54
 70
     1
102
RTVSPost2010Prop55
280
     0
102
RTVSPost2010PropOp55
 70
     1
102
RTVSPost2010Prop56
140
1.0
102
RTVSPost2010PropOp56
 70
     1
102
RTVSPost2010Prop57
140
1.0
102
RTVSPost2010PropOp57
 70
     1
102
RTVSPropertyOp0
 70
     1
102
RTVSPropertyOp1
 70
     1
102
RTVSPropertyOp2
 70
     1
102
RTVSPropertyOp3
 70
     1
102
RTVSPropertyOp4
 70
     1
102
RTVSPropertyOp5
 70
     1
102
RTVSPropertyOp6
 70
     1
102
RTVSPropertyOp7
 70
     1
102
RTVSPropertyOp8
 70
     1
102
RTVSPropertyOp9
 70
     1
102
RTVSPropertyOp10
 70
     1
102
RTVSPropertyOp11
 70
     1
102
RTVSPropertyOp12
 70
     1
102
RTVSPropertyOp13
 70
     1
102
RTVSPropertyOp14
 70
     1
102
RTVSPropertyOp15
 70
     1
102
RTVSPropertyOp16
 70
     1
102
RTVSPropertyOp17
 70
     1
102
RTVSPropertyOp18
 70
     1
102
RTVSPropertyOp19
 70
     1
102
RTVSPropertyOp20
 70
     1
102
RTVSPropertyOp21
 70
     1
102
RTVSPropertyOp22
 70
     1
102
RTVSPropertyOp23
 70
     1
102
RTVSPropertyOp24
 70
     1
102
RTVSPropertyOp25
 70
     1
102
RTVSPropertyOp26
 70
     1
102
RTVSPropertyOp27
 70
     1
102
RTVSPropertyOp28
 70
     1
102
RTVSPropertyOp29
 70
     1
102
RTVSPropertyOp30
 70
     1
102
RTVSPropertyOp31
 70
     1
102
RTVSPropertyOp32
 70
     1
102
RTVSPropertyOp33
 70
     1
102
RTVSPropertyOp34
 70
     1
102
RTVSPropertyOp35
 70
     1
102
RTVSPropertyOp36
 70
     1
102
RTVSPropertyOp37
 70
     1
102
RTVSPropertyOp38
 70
     1
102
RTVSPropertyOp39
 70
     1
102
RTVSPropertyOp40
 70
     1
102
RTVSPropertyOp41
 70
     1
102
RTVSPropertyOp42
 70
     1
102
RTVSPropertyOp43
 70
     1
102
RTVSPropertyOp44
 70
     1
102
RTVSPropertyOp45
 70
     1
102
RTVSPropertyOp46
 70
     1
102
RTVSPropertyOp47
 70
     1
102
RTVSPropertyOp48
 70
     1
102
RTVSPropertyOp49
 70
     1
102
RTVSPropertyOp50
 70
     1
102
RTVSPropertyOp51
 70
     0
102
RTVSPropertyOp52
 70
     0
102
RTVSPropertyOp53
 70
     1
102
RTVSPropertyOp54
 70
     1
102
RTVSPropertyOp55
 70
     1
102
RTVSPropertyOp56
 70
     1
102
RTVSPropertyOp57
 70
     1
102
RTVSPropertyOp58
 70
     1
102
RTVSPropertyOp59
 70
     1
102
RTVSPropertyOp60
 70
     1
102
RTVSPropertyOp61
 70
     1
102
RTVSPropertyOp62
 70
     1
  0
XRECORD
  5
21091
102
{ACAD_REACTORS
330
21090
102
}
330
21090
100
AcDbXrecord
280
     1
102
RTVSPost2010Prop28
280
     0
102
RTVSPost2010PropOp28
 70
     1
102
RTVSPost2010Prop29
280
     1
102
RTVSPost2010PropOp29
 70
     1
102
RTVSPost2010Prop30
280
     1
102
RTVSPost2010PropOp30
 70
     1
102
RTVSPost2010Prop31
280
     0
102
RTVSPost2010PropOp31
 70
     1
102
RTVSPost2010Prop32
280
     0
102
RTVSPost2010PropOp32
 70
     1
102
RTVSPost2010Prop33
280
     0
102
RTVSPost2010PropOp33
 70
     1
102
RTVSPost2010Prop34
280
     0
102
RTVSPost2010PropOp34
 70
     1
102
RTVSPost2010Prop35
280
     0
102
RTVSPost2010PropOp35
 70
     1
102
RTVSPost2010Prop36
280
     0
102
RTVSPost2010PropOp36
 70
     1
102
RTVSPost2010Prop37
 90
       50
102
RTVSPost2010PropOp37
 70
     1
102
RTVSPost2010Prop38
140
0.0
102
RTVSPost2010PropOp38
 70
     1
102
RTVSPost2010Prop39
140
1.0
102
RTVSPost2010PropOp39
 70
     1
102
RTVSPost2010Prop40
 90
        0
102
RTVSPost2010PropOp40
 70
     1
102
RTVSPost2010Prop41ColorIndex
 90
       18
102
RTVSPost2010Prop41ColorRGB
 90
        0
102
RTVSPost2010PropOp41
 70
     1
102
RTVSPost2010Prop42
 90
       50
102
RTVSPost2010PropOp42
 70
     1
102
RTVSPost2010Prop43
 90
        3
102
RTVSPost2010PropOp43
 70
     1
102
RTVSPost2010Prop44ColorIndex
 90
        5
102
RTVSPost2010Prop44ColorRGB
 90
      255
102
RTVSPost2010PropOp44
 70
     1
102
RTVSPost2010Prop45
280
     0
102
RTVSPost2010PropOp45
 70
     1
102
RTVSPost2010Prop46
 90
       50
102
RTVSPost2010PropOp46
 70
     1
102
RTVSPost2010Prop47
 90
       50
102
RTVSPost2010PropOp47
 70
     1
102
RTVSPost2010Prop48
 90
       50
102
RTVSPost2010PropOp48
 70
     1
102
RTVSPost2010Prop49
280
     0
102
RTVSPost2010PropOp49
 70
     1
102
RTVSPost2010Prop50
 90
       50
102
RTVSPost2010PropOp50
 70
     1
102
RTVSPost2010Prop51ColorIndex
 90
      256
102
RTVSPost2010Prop51ColorRGB
 90
-16777216
102
RTVSPost2010PropOp51
 70
     0
102
RTVSPost2010Prop52
140
1.0
102
RTVSPost2010PropOp52
 70
     0
102
RTVSPost2010Prop53
 90
        2
102
RTVSPost2010PropOp53
 70
     1
102
RTVSPost2010Prop54
  1
strokes_ogs.tif
102
RTVSPost2010PropOp54
 70
     1
102
RTVSPost2010Prop55
280
     0
102
RTVSPost2010PropOp55
 70
     1
102
RTVSPost2010Prop56
140
1.0
102
RTVSPost2010PropOp56
 70
     1
102
RTVSPost2010Prop57
140
1.0
102
RTVSPost2010PropOp57
 70
     1
102
RTVSPropertyOp0
 70
     1
102
RTVSPropertyOp1
 70
     1
102
RTVSPropertyOp2
 70
     1
102
RTVSPropertyOp3
 70
     1
102
RTVSPropertyOp4
 70
     1
102
RTVSPropertyOp5
 70
     1
102
RTVSPropertyOp6
 70
     1
102
RTVSPropertyOp7
 70
     1
102
RTVSPropertyOp8
 70
     1
102
RTVSPropertyOp9
 70
     1
102
RTVSPropertyOp10
 70
     1
102
RTVSPropertyOp11
 70
     1
102
RTVSPropertyOp12
 70
     1
102
RTVSPropertyOp13
 70
     1
102
RTVSPropertyOp14
 70
     1
102
RTVSPropertyOp15
 70
     1
102
RTVSPropertyOp16
 70
     1
102
RTVSPropertyOp17
 70
     1
102
RTVSPropertyOp18
 70
     1
102
RTVSPropertyOp19
 70
     1
102
RTVSPropertyOp20
 70
     1
102
RTVSPropertyOp21
 70
     1
102
RTVSPropertyOp22
 70
     1
102
RTVSPropertyOp23
 70
     1
102
RTVSPropertyOp24
 70
     1
102
RTVSPropertyOp25
 70
     1
102
RTVSPropertyOp26
 70
     1
102
RTVSPropertyOp27
 70
     1
102
RTVSPropertyOp28
 70
     1
102
RTVSPropertyOp29
 70
     1
102
RTVSPropertyOp30
 70
     1
102
RTVSPropertyOp31
 70
     1
102
RTVSPropertyOp32
 70
     1
102
RTVSPropertyOp33
 70
     1
102
RTVSPropertyOp34
 70
     1
102
RTVSPropertyOp35
 70
     1
102
RTVSPropertyOp36
 70
     1
102
RTVSPropertyOp37
 70
     1
102
RTVSPropertyOp38
 70
     1
102
RTVSPropertyOp39
 70
     1
102
RTVSPropertyOp40
 70
     1
102
RTVSPropertyOp41
 70
     1
102
RTVSPropertyOp42
 70
     1
102
RTVSPropertyOp43
 70
     1
102
RTVSPropertyOp44
 70
     1
102
RTVSPropertyOp45
 70
     1
102
RTVSPropertyOp46
 70
     1
102
RTVSPropertyOp47
 70
     1
102
RTVSPropertyOp48
 70
     1
102
RTVSPropertyOp49
 70
     1
102
RTVSPropertyOp50
 70
     1
102
RTVSPropertyOp51
 70
     0
102
RTVSPropertyOp52
 70
     0
102
RTVSPropertyOp53
 70
     1
102
RTVSPropertyOp54
 70
     1
102
RTVSPropertyOp55
 70
     1
102
RTVSPropertyOp56
 70
     1
102
RTVSPropertyOp57
 70
     1
102
RTVSPropertyOp58
 70
     1
102
RTVSPropertyOp59
 70
     1
102
RTVSPropertyOp60
 70
     1
102
RTVSPropertyOp61
 70
     1
102
RTVSPropertyOp62
 70
     1
  0
XRECORD
  5
21093
102
{ACAD_REACTORS
330
21092
102
}
330
21092
100
AcDbXrecord
280
     1
102
RTVSPost2010Prop28
280
     0
102
RTVSPost2010PropOp28
 70
     1
102
RTVSPost2010Prop29
280
     1
102
RTVSPost2010PropOp29
 70
     1
102
RTVSPost2010Prop30
280
     1
102
RTVSPost2010PropOp30
 70
     1
102
RTVSPost2010Prop31
280
     0
102
RTVSPost2010PropOp31
 70
     1
102
RTVSPost2010Prop32
280
     0
102
RTVSPost2010PropOp32
 70
     1
102
RTVSPost2010Prop33
280
     0
102
RTVSPost2010PropOp33
 70
     1
102
RTVSPost2010Prop34
280
     0
102
RTVSPost2010PropOp34
 70
     1
102
RTVSPost2010Prop35
280
     0
102
RTVSPost2010PropOp35
 70
     1
102
RTVSPost2010Prop36
280
     0
102
RTVSPost2010PropOp36
 70
     1
102
RTVSPost2010Prop37
 90
       50
102
RTVSPost2010PropOp37
 70
     1
102
RTVSPost2010Prop38
140
0.0
102
RTVSPost2010PropOp38
 70
     1
102
RTVSPost2010Prop39
140
1.0
102
RTVSPost2010PropOp39
 70
     1
102
RTVSPost2010Prop40
 90
        0
102
RTVSPost2010PropOp40
 70
     1
102
RTVSPost2010Prop41ColorIndex
 90
       18
102
RTVSPost2010Prop41ColorRGB
 90
        0
102
RTVSPost2010PropOp41
 70
     1
102
RTVSPost2010Prop42
 90
       50
102
RTVSPost2010PropOp42
 70
     1
102
RTVSPost2010Prop43
 90
        3
102
RTVSPost2010PropOp43
 70
     1
102
RTVSPost2010Prop44ColorIndex
 90
        5
102
RTVSPost2010Prop44ColorRGB
 90
      255
102
RTVSPost2010PropOp44
 70
     1
102
RTVSPost2010Prop45
280
     0
102
RTVSPost2010PropOp45
 70
     1
102
RTVSPost2010Prop46
 90
       50
102
RTVSPost2010PropOp46
 70
     1
102
RTVSPost2010Prop47
 90
       50
102
RTVSPost2010PropOp47
 70
     1
102
RTVSPost2010Prop48
 90
       50
102
RTVSPost2010PropOp48
 70
     1
102
RTVSPost2010Prop49
280
     0
102
RTVSPost2010PropOp49
 70
     1
102
RTVSPost2010Prop50
 90
       50
102
RTVSPost2010PropOp50
 70
     1
102
RTVSPost2010Prop51ColorIndex
 90
      256
102
RTVSPost2010Prop51ColorRGB
 90
-16777216
102
RTVSPost2010PropOp51
 70
     0
102
RTVSPost2010Prop52
140
1.0
102
RTVSPost2010PropOp52
 70
     0
102
RTVSPost2010Prop53
 90
        2
102
RTVSPost2010PropOp53
 70
     1
102
RTVSPost2010Prop54
  1
strokes_ogs.tif
102
RTVSPost2010PropOp54
 70
     1
102
RTVSPost2010Prop55
280
     0
102
RTVSPost2010PropOp55
 70
     1
102
RTVSPost2010Prop56
140
1.0
102
RTVSPost2010PropOp56
 70
     1
102
RTVSPost2010Prop57
140
1.0
102
RTVSPost2010PropOp57
 70
     1
102
RTVSPropertyOp0
 70
     1
102
RTVSPropertyOp1
 70
     1
102
RTVSPropertyOp2
 70
     1
102
RTVSPropertyOp3
 70
     1
102
RTVSPropertyOp4
 70
     1
102
RTVSPropertyOp5
 70
     1
102
RTVSPropertyOp6
 70
     1
102
RTVSPropertyOp7
 70
     1
102
RTVSPropertyOp8
 70
     1
102
RTVSPropertyOp9
 70
     1
102
RTVSPropertyOp10
 70
     1
102
RTVSPropertyOp11
 70
     1
102
RTVSPropertyOp12
 70
     1
102
RTVSPropertyOp13
 70
     1
102
RTVSPropertyOp14
 70
     1
102
RTVSPropertyOp15
 70
     1
102
RTVSPropertyOp16
 70
     1
102
RTVSPropertyOp17
 70
     1
102
RTVSPropertyOp18
 70
     1
102
RTVSPropertyOp19
 70
     1
102
RTVSPropertyOp20
 70
     1
102
RTVSPropertyOp21
 70
     1
102
RTVSPropertyOp22
 70
     1
102
RTVSPropertyOp23
 70
     1
102
RTVSPropertyOp24
 70
     1
102
RTVSPropertyOp25
 70
     1
102
RTVSPropertyOp26
 70
     1
102
RTVSPropertyOp27
 70
     1
102
RTVSPropertyOp28
 70
     1
102
RTVSPropertyOp29
 70
     1
102
RTVSPropertyOp30
 70
     1
102
RTVSPropertyOp31
 70
     1
102
RTVSPropertyOp32
 70
     1
102
RTVSPropertyOp33
 70
     1
102
RTVSPropertyOp34
 70
     1
102
RTVSPropertyOp35
 70
     1
102
RTVSPropertyOp36
 70
     1
102
RTVSPropertyOp37
 70
     1
102
RTVSPropertyOp38
 70
     1
102
RTVSPropertyOp39
 70
     1
102
RTVSPropertyOp40
 70
     1
102
RTVSPropertyOp41
 70
     1
102
RTVSPropertyOp42
 70
     1
102
RTVSPropertyOp43
 70
     1
102
RTVSPropertyOp44
 70
     1
102
RTVSPropertyOp45
 70
     1
102
RTVSPropertyOp46
 70
     1
102
RTVSPropertyOp47
 70
     1
102
RTVSPropertyOp48
 70
     1
102
RTVSPropertyOp49
 70
     1
102
RTVSPropertyOp50
 70
     1
102
RTVSPropertyOp51
 70
     0
102
RTVSPropertyOp52
 70
     0
102
RTVSPropertyOp53
 70
     1
102
RTVSPropertyOp54
 70
     1
102
RTVSPropertyOp55
 70
     1
102
RTVSPropertyOp56
 70
     1
102
RTVSPropertyOp57
 70
     1
102
RTVSPropertyOp58
 70
     1
102
RTVSPropertyOp59
 70
     1
102
RTVSPropertyOp60
 70
     1
102
RTVSPropertyOp61
 70
     1
102
RTVSPropertyOp62
 70
     1
  0
XRECORD
  5
21095
102
{ACAD_REACTORS
330
21094
102
}
330
21094
100
AcDbXrecord
280
     1
102
RTVSPost2010Prop28
280
     0
102
RTVSPost2010PropOp28
 70
     1
102
RTVSPost2010Prop29
280
     1
102
RTVSPost2010PropOp29
 70
     1
102
RTVSPost2010Prop30
280
     1
102
RTVSPost2010PropOp30
 70
     1
102
RTVSPost2010Prop31
280
     0
102
RTVSPost2010PropOp31
 70
     1
102
RTVSPost2010Prop32
280
     0
102
RTVSPost2010PropOp32
 70
     1
102
RTVSPost2010Prop33
280
     0
102
RTVSPost2010PropOp33
 70
     1
102
RTVSPost2010Prop34
280
     0
102
RTVSPost2010PropOp34
 70
     1
102
RTVSPost2010Prop35
280
     0
102
RTVSPost2010PropOp35
 70
     1
102
RTVSPost2010Prop36
280
     0
102
RTVSPost2010PropOp36
 70
     1
102
RTVSPost2010Prop37
 90
       50
102
RTVSPost2010PropOp37
 70
     1
102
RTVSPost2010Prop38
140
0.0
102
RTVSPost2010PropOp38
 70
     1
102
RTVSPost2010Prop39
140
1.0
102
RTVSPost2010PropOp39
 70
     1
102
RTVSPost2010Prop40
 90
        0
102
RTVSPost2010PropOp40
 70
     1
102
RTVSPost2010Prop41ColorIndex
 90
       18
102
RTVSPost2010Prop41ColorRGB
 90
        0
102
RTVSPost2010PropOp41
 70
     1
102
RTVSPost2010Prop42
 90
       50
102
RTVSPost2010PropOp42
 70
     1
102
RTVSPost2010Prop43
 90
        3
102
RTVSPost2010PropOp43
 70
     1
102
RTVSPost2010Prop44ColorIndex
 90
        5
102
RTVSPost2010Prop44ColorRGB
 90
      255
102
RTVSPost2010PropOp44
 70
     1
102
RTVSPost2010Prop45
280
     0
102
RTVSPost2010PropOp45
 70
     1
102
RTVSPost2010Prop46
 90
       50
102
RTVSPost2010PropOp46
 70
     1
102
RTVSPost2010Prop47
 90
       50
102
RTVSPost2010PropOp47
 70
     1
102
RTVSPost2010Prop48
 90
       50
102
RTVSPost2010PropOp48
 70
     1
102
RTVSPost2010Prop49
280
     0
102
RTVSPost2010PropOp49
 70
     1
102
RTVSPost2010Prop50
 90
       50
102
RTVSPost2010PropOp50
 70
     1
102
RTVSPost2010Prop51ColorIndex
 90
      256
102
RTVSPost2010Prop51ColorRGB
 90
-16777216
102
RTVSPost2010PropOp51
 70
     0
102
RTVSPost2010Prop52
140
1.0
102
RTVSPost2010PropOp52
 70
     0
102
RTVSPost2010Prop53
 90
        2
102
RTVSPost2010PropOp53
 70
     1
102
RTVSPost2010Prop54
  1
strokes_ogs.tif
102
RTVSPost2010PropOp54
 70
     1
102
RTVSPost2010Prop55
280
     0
102
RTVSPost2010PropOp55
 70
     1
102
RTVSPost2010Prop56
140
1.0
102
RTVSPost2010PropOp56
 70
     1
102
RTVSPost2010Prop57
140
1.0
102
RTVSPost2010PropOp57
 70
     1
102
RTVSPropertyOp0
 70
     1
102
RTVSPropertyOp1
 70
     1
102
RTVSPropertyOp2
 70
     1
102
RTVSPropertyOp3
 70
     1
102
RTVSPropertyOp4
 70
     1
102
RTVSPropertyOp5
 70
     1
102
RTVSPropertyOp6
 70
     1
102
RTVSPropertyOp7
 70
     1
102
RTVSPropertyOp8
 70
     1
102
RTVSPropertyOp9
 70
     1
102
RTVSPropertyOp10
 70
     1
102
RTVSPropertyOp11
 70
     1
102
RTVSPropertyOp12
 70
     1
102
RTVSPropertyOp13
 70
     1
102
RTVSPropertyOp14
 70
     1
102
RTVSPropertyOp15
 70
     1
102
RTVSPropertyOp16
 70
     1
102
RTVSPropertyOp17
 70
     1
102
RTVSPropertyOp18
 70
     1
102
RTVSPropertyOp19
 70
     1
102
RTVSPropertyOp20
 70
     1
102
RTVSPropertyOp21
 70
     1
102
RTVSPropertyOp22
 70
     1
102
RTVSPropertyOp23
 70
     1
102
RTVSPropertyOp24
 70
     1
102
RTVSPropertyOp25
 70
     1
102
RTVSPropertyOp26
 70
     1
102
RTVSPropertyOp27
 70
     1
102
RTVSPropertyOp28
 70
     1
102
RTVSPropertyOp29
 70
     1
102
RTVSPropertyOp30
 70
     1
102
RTVSPropertyOp31
 70
     1
102
RTVSPropertyOp32
 70
     1
102
RTVSPropertyOp33
 70
     1
102
RTVSPropertyOp34
 70
     1
102
RTVSPropertyOp35
 70
     1
102
RTVSPropertyOp36
 70
     1
102
RTVSPropertyOp37
 70
     1
102
RTVSPropertyOp38
 70
     1
102
RTVSPropertyOp39
 70
     1
102
RTVSPropertyOp40
 70
     1
102
RTVSPropertyOp41
 70
     1
102
RTVSPropertyOp42
 70
     1
102
RTVSPropertyOp43
 70
     1
102
RTVSPropertyOp44
 70
     1
102
RTVSPropertyOp45
 70
     1
102
RTVSPropertyOp46
 70
     1
102
RTVSPropertyOp47
 70
     1
102
RTVSPropertyOp48
 70
     1
102
RTVSPropertyOp49
 70
     1
102
RTVSPropertyOp50
 70
     1
102
RTVSPropertyOp51
 70
     0
102
RTVSPropertyOp52
 70
     0
102
RTVSPropertyOp53
 70
     1
102
RTVSPropertyOp54
 70
     1
102
RTVSPropertyOp55
 70
     1
102
RTVSPropertyOp56
 70
     1
102
RTVSPropertyOp57
 70
     1
102
RTVSPropertyOp58
 70
     1
102
RTVSPropertyOp59
 70
     1
102
RTVSPropertyOp60
 70
     1
102
RTVSPropertyOp61
 70
     1
102
RTVSPropertyOp62
 70
     1
  0
XRECORD
  5
210BA
102
{ACAD_REACTORS
330
210B9
102
}
330
210B9
100
AcDbXrecord
280
     1
102
RTVSPost2010Prop28
280
     0
102
RTVSPost2010PropOp28
 70
     1
102
RTVSPost2010Prop29
280
     1
102
RTVSPost2010PropOp29
 70
     1
102
RTVSPost2010Prop30
280
     1
102
RTVSPost2010PropOp30
 70
     1
102
RTVSPost2010Prop31
280
     0
102
RTVSPost2010PropOp31
 70
     1
102
RTVSPost2010Prop32
280
     0
102
RTVSPost2010PropOp32
 70
     1
102
RTVSPost2010Prop33
280
     0
102
RTVSPost2010PropOp33
 70
     1
102
RTVSPost2010Prop34
280
     0
102
RTVSPost2010PropOp34
 70
     1
102
RTVSPost2010Prop35
280
     0
102
RTVSPost2010PropOp35
 70
     1
102
RTVSPost2010Prop36
280
     0
102
RTVSPost2010PropOp36
 70
     1
102
RTVSPost2010Prop37
 90
       50
102
RTVSPost2010PropOp37
 70
     1
102
RTVSPost2010Prop38
140
0.0
102
RTVSPost2010PropOp38
 70
     1
102
RTVSPost2010Prop39
140
1.0
102
RTVSPost2010PropOp39
 70
     1
102
RTVSPost2010Prop40
 90
        0
102
RTVSPost2010PropOp40
 70
     1
102
RTVSPost2010Prop41ColorIndex
 90
       18
102
RTVSPost2010Prop41ColorRGB
 90
        0
102
RTVSPost2010PropOp41
 70
     1
102
RTVSPost2010Prop42
 90
       50
102
RTVSPost2010PropOp42
 70
     1
102
RTVSPost2010Prop43
 90
        3
102
RTVSPost2010PropOp43
 70
     1
102
RTVSPost2010Prop44ColorIndex
 90
        5
102
RTVSPost2010Prop44ColorRGB
 90
      255
102
RTVSPost2010PropOp44
 70
     1
102
RTVSPost2010Prop45
280
     0
102
RTVSPost2010PropOp45
 70
     1
102
RTVSPost2010Prop46
 90
       50
102
RTVSPost2010PropOp46
 70
     1
102
RTVSPost2010Prop47
 90
       50
102
RTVSPost2010PropOp47
 70
     1
102
RTVSPost2010Prop48
 90
       50
102
RTVSPost2010PropOp48
 70
     1
102
RTVSPost2010Prop49
280
     0
102
RTVSPost2010PropOp49
 70
     1
102
RTVSPost2010Prop50
 90
       50
102
RTVSPost2010PropOp50
 70
     1
102
RTVSPost2010Prop51ColorIndex
 90
      256
102
RTVSPost2010Prop51ColorRGB
 90
-16777216
102
RTVSPost2010PropOp51
 70
     0
102
RTVSPost2010Prop52
140
1.0
102
RTVSPost2010PropOp52
 70
     0
102
RTVSPost2010Prop53
 90
        2
102
RTVSPost2010PropOp53
 70
     1
102
RTVSPost2010Prop54
  1
strokes_ogs.tif
102
RTVSPost2010PropOp54
 70
     1
102
RTVSPost2010Prop55
280
     0
102
RTVSPost2010PropOp55
 70
     1
102
RTVSPost2010Prop56
140
1.0
102
RTVSPost2010PropOp56
 70
     1
102
RTVSPost2010Prop57
140
1.0
102
RTVSPost2010PropOp57
 70
     1
102
RTVSPropertyOp0
 70
     1
102
RTVSPropertyOp1
 70
     1
102
RTVSPropertyOp2
 70
     1
102
RTVSPropertyOp3
 70
     1
102
RTVSPropertyOp4
 70
     1
102
RTVSPropertyOp5
 70
     1
102
RTVSPropertyOp6
 70
     1
102
RTVSPropertyOp7
 70
     1
102
RTVSPropertyOp8
 70
     1
102
RTVSPropertyOp9
 70
     1
102
RTVSPropertyOp10
 70
     1
102
RTVSPropertyOp11
 70
     1
102
RTVSPropertyOp12
 70
     1
102
RTVSPropertyOp13
 70
     1
102
RTVSPropertyOp14
 70
     1
102
RTVSPropertyOp15
 70
     1
102
RTVSPropertyOp16
 70
     1
102
RTVSPropertyOp17
 70
     1
102
RTVSPropertyOp18
 70
     1
102
RTVSPropertyOp19
 70
     1
102
RTVSPropertyOp20
 70
     1
102
RTVSPropertyOp21
 70
     1
102
RTVSPropertyOp22
 70
     1
102
RTVSPropertyOp23
 70
     1
102
RTVSPropertyOp24
 70
     1
102
RTVSPropertyOp25
 70
     1
102
RTVSPropertyOp26
 70
     1
102
RTVSPropertyOp27
 70
     1
102
RTVSPropertyOp28
 70
     1
102
RTVSPropertyOp29
 70
     1
102
RTVSPropertyOp30
 70
     1
102
RTVSPropertyOp31
 70
     1
102
RTVSPropertyOp32
 70
     1
102
RTVSPropertyOp33
 70
     1
102
RTVSPropertyOp34
 70
     1
102
RTVSPropertyOp35
 70
     1
102
RTVSPropertyOp36
 70
     1
102
RTVSPropertyOp37
 70
     1
102
RTVSPropertyOp38
 70
     1
102
RTVSPropertyOp39
 70
     1
102
RTVSPropertyOp40
 70
     1
102
RTVSPropertyOp41
 70
     1
102
RTVSPropertyOp42
 70
     1
102
RTVSPropertyOp43
 70
     1
102
RTVSPropertyOp44
 70
     1
102
RTVSPropertyOp45
 70
     1
102
RTVSPropertyOp46
 70
     1
102
RTVSPropertyOp47
 70
     1
102
RTVSPropertyOp48
 70
     1
102
RTVSPropertyOp49
 70
     1
102
RTVSPropertyOp50
 70
     1
102
RTVSPropertyOp51
 70
     0
102
RTVSPropertyOp52
 70
     0
102
RTVSPropertyOp53
 70
     1
102
RTVSPropertyOp54
 70
     1
102
RTVSPropertyOp55
 70
     1
102
RTVSPropertyOp56
 70
     1
102
RTVSPropertyOp57
 70
     1
102
RTVSPropertyOp58
 70
     1
102
RTVSPropertyOp59
 70
     1
102
RTVSPropertyOp60
 70
     1
102
RTVSPropertyOp61
 70
     1
102
RTVSPropertyOp62
 70
     1
  0
XRECORD
  5
210C6
102
{ACAD_REACTORS
330
210C5
102
}
330
210C5
100
AcDbXrecord
280
     1
102
RTVSPost2010Prop28
280
     0
102
RTVSPost2010PropOp28
 70
     1
102
RTVSPost2010Prop29
280
     1
102
RTVSPost2010PropOp29
 70
     1
102
RTVSPost2010Prop30
280
     1
102
RTVSPost2010PropOp30
 70
     1
102
RTVSPost2010Prop31
280
     0
102
RTVSPost2010PropOp31
 70
     1
102
RTVSPost2010Prop32
280
     0
102
RTVSPost2010PropOp32
 70
     1
102
RTVSPost2010Prop33
280
     0
102
RTVSPost2010PropOp33
 70
     1
102
RTVSPost2010Prop34
280
     0
102
RTVSPost2010PropOp34
 70
     1
102
RTVSPost2010Prop35
280
     0
102
RTVSPost2010PropOp35
 70
     1
102
RTVSPost2010Prop36
280
     0
102
RTVSPost2010PropOp36
 70
     1
102
RTVSPost2010Prop37
 90
       50
102
RTVSPost2010PropOp37
 70
     0
102
RTVSPost2010Prop38
140
0.0
102
RTVSPost2010PropOp38
 70
     0
102
RTVSPost2010Prop39
140
1.0
102
RTVSPost2010PropOp39
 70
     0
102
RTVSPost2010Prop40
 90
        0
102
RTVSPost2010PropOp40
 70
     0
102
RTVSPost2010Prop41ColorIndex
 90
       18
102
RTVSPost2010Prop41ColorRGB
 90
        0
102
RTVSPost2010PropOp41
 70
     0
102
RTVSPost2010Prop42
 90
       50
102
RTVSPost2010PropOp42
 70
     0
102
RTVSPost2010Prop43
 90
        3
102
RTVSPost2010PropOp43
 70
     0
102
RTVSPost2010Prop44ColorIndex
 90
        5
102
RTVSPost2010Prop44ColorRGB
 90
      255
102
RTVSPost2010PropOp44
 70
     0
102
RTVSPost2010Prop45
280
     0
102
RTVSPost2010PropOp45
 70
     1
102
RTVSPost2010Prop46
 90
       50
102
RTVSPost2010PropOp46
 70
     0
102
RTVSPost2010Prop47
 90
       50
102
RTVSPost2010PropOp47
 70
     0
102
RTVSPost2010Prop48
 90
       50
102
RTVSPost2010PropOp48
 70
     0
102
RTVSPost2010Prop49
280
     0
102
RTVSPost2010PropOp49
 70
     1
102
RTVSPost2010Prop50
 90
       50
102
RTVSPost2010PropOp50
 70
     0
102
RTVSPost2010Prop51ColorIndex
 90
      256
102
RTVSPost2010Prop51ColorRGB
 90
-16777216
102
RTVSPost2010PropOp51
 70
     0
102
RTVSPost2010Prop52
140
1.0
102
RTVSPost2010PropOp52
 70
     0
102
RTVSPost2010Prop53
 90
        2
102
RTVSPost2010PropOp53
 70
     0
102
RTVSPost2010Prop54
  1
strokes_ogs.tif
102
RTVSPost2010PropOp54
 70
     0
102
RTVSPost2010Prop55
280
     0
102
RTVSPost2010PropOp55
 70
     1
102
RTVSPost2010Prop56
140
1.0
102
RTVSPost2010PropOp56
 70
     0
102
RTVSPost2010Prop57
140
1.0
102
RTVSPost2010PropOp57
 70
     0
102
RTVSPropertyOp0
 70
     0
102
RTVSPropertyOp1
 70
     0
102
RTVSPropertyOp2
 70
     0
102
RTVSPropertyOp3
 70
     0
102
RTVSPropertyOp4
 70
     0
102
RTVSPropertyOp5
 70
     0
102
RTVSPropertyOp6
 70
     0
102
RTVSPropertyOp7
 70
     0
102
RTVSPropertyOp8
 70
     0
102
RTVSPropertyOp9
 70
     0
102
RTVSPropertyOp10
 70
     0
102
RTVSPropertyOp11
 70
     0
102
RTVSPropertyOp12
 70
     0
102
RTVSPropertyOp13
 70
     0
102
RTVSPropertyOp14
 70
     2
102
RTVSPropertyOp15
 70
     0
102
RTVSPropertyOp16
 70
     0
102
RTVSPropertyOp17
 70
     0
102
RTVSPropertyOp18
 70
     0
102
RTVSPropertyOp19
 70
     0
102
RTVSPropertyOp20
 70
     0
102
RTVSPropertyOp21
 70
     0
102
RTVSPropertyOp22
 70
     0
102
RTVSPropertyOp23
 70
     0
102
RTVSPropertyOp24
 70
     0
102
RTVSPropertyOp25
 70
     0
102
RTVSPropertyOp26
 70
     0
102
RTVSPropertyOp27
 70
     0
102
RTVSPropertyOp28
 70
     1
102
RTVSPropertyOp29
 70
     1
102
RTVSPropertyOp30
 70
     1
102
RTVSPropertyOp31
 70
     1
102
RTVSPropertyOp32
 70
     1
102
RTVSPropertyOp33
 70
     1
102
RTVSPropertyOp34
 70
     1
102
RTVSPropertyOp35
 70
     1
102
RTVSPropertyOp36
 70
     1
102
RTVSPropertyOp37
 70
     0
102
RTVSPropertyOp38
 70
     0
102
RTVSPropertyOp39
 70
     0
102
RTVSPropertyOp40
 70
     0
102
RTVSPropertyOp41
 70
     0
102
RTVSPropertyOp42
 70
     0
102
RTVSPropertyOp43
 70
     0
102
RTVSPropertyOp44
 70
     0
102
RTVSPropertyOp45
 70
     1
102
RTVSPropertyOp46
 70
     0
102
RTVSPropertyOp47
 70
     0
102
RTVSPropertyOp48
 70
     0
102
RTVSPropertyOp49
 70
     1
102
RTVSPropertyOp50
 70
     0
102
RTVSPropertyOp51
 70
     0
102
RTVSPropertyOp52
 70
     0
102
RTVSPropertyOp53
 70
     0
102
RTVSPropertyOp54
 70
     0
102
RTVSPropertyOp55
 70
     1
102
RTVSPropertyOp56
 70
     0
102
RTVSPropertyOp57
 70
     0
102
RTVSPropertyOp58
 70
     1
102
RTVSPropertyOp59
 70
     1
102
RTVSPropertyOp60
 70
     1
102
RTVSPropertyOp61
 70
     1
102
RTVSPropertyOp62
 70
     1
  0
XRECORD
  5
210A9
102
{ACAD_REACTORS
330
210A8
102
}
330
210A8
100
AcDbXrecord
280
     1
102
RTVSPost2010Prop28
280
     0
102
RTVSPost2010PropOp28
 70
     1
102
RTVSPost2010Prop29
280
     1
102
RTVSPost2010PropOp29
 70
     1
102
RTVSPost2010Prop30
280
     1
102
RTVSPost2010PropOp30
 70
     1
102
RTVSPost2010Prop31
280
     0
102
RTVSPost2010PropOp31
 70
     1
102
RTVSPost2010Prop32
280
     0
102
RTVSPost2010PropOp32
 70
     1
102
RTVSPost2010Prop33
280
     0
102
RTVSPost2010PropOp33
 70
     1
102
RTVSPost2010Prop34
280
     0
102
RTVSPost2010PropOp34
 70
     1
102
RTVSPost2010Prop35
280
     0
102
RTVSPost2010PropOp35
 70
     1
102
RTVSPost2010Prop36
280
     0
102
RTVSPost2010PropOp36
 70
     1
102
RTVSPost2010Prop37
 90
       50
102
RTVSPost2010PropOp37
 70
     1
102
RTVSPost2010Prop38
140
0.0
102
RTVSPost2010PropOp38
 70
     1
102
RTVSPost2010Prop39
140
1.0
102
RTVSPost2010PropOp39
 70
     1
102
RTVSPost2010Prop40
 90
        0
102
RTVSPost2010PropOp40
 70
     1
102
RTVSPost2010Prop41ColorIndex
 90
       18
102
RTVSPost2010Prop41ColorRGB
 90
        0
102
RTVSPost2010PropOp41
 70
     1
102
RTVSPost2010Prop42
 90
       50
102
RTVSPost2010PropOp42
 70
     1
102
RTVSPost2010Prop43
 90
        3
102
RTVSPost2010PropOp43
 70
     1
102
RTVSPost2010Prop44ColorIndex
 90
        5
102
RTVSPost2010Prop44ColorRGB
 90
      255
102
RTVSPost2010PropOp44
 70
     1
102
RTVSPost2010Prop45
280
     0
102
RTVSPost2010PropOp45
 70
     1
102
RTVSPost2010Prop46
 90
       50
102
RTVSPost2010PropOp46
 70
     1
102
RTVSPost2010Prop47
 90
       50
102
RTVSPost2010PropOp47
 70
     1
102
RTVSPost2010Prop48
 90
       50
102
RTVSPost2010PropOp48
 70
     1
102
RTVSPost2010Prop49
280
     0
102
RTVSPost2010PropOp49
 70
     1
102
RTVSPost2010Prop50
 90
       50
102
RTVSPost2010PropOp50
 70
     1
102
RTVSPost2010Prop51ColorIndex
 90
      256
102
RTVSPost2010Prop51ColorRGB
 90
-16777216
102
RTVSPost2010PropOp51
 70
     0
102
RTVSPost2010Prop52
140
1.0
102
RTVSPost2010PropOp52
 70
     0
102
RTVSPost2010Prop53
 90
        2
102
RTVSPost2010PropOp53
 70
     1
102
RTVSPost2010Prop54
  1
strokes_ogs.tif
102
RTVSPost2010PropOp54
 70
     1
102
RTVSPost2010Prop55
280
     0
102
RTVSPost2010PropOp55
 70
     1
102
RTVSPost2010Prop56
140
1.0
102
RTVSPost2010PropOp56
 70
     1
102
RTVSPost2010Prop57
140
1.0
102
RTVSPost2010PropOp57
 70
     1
102
RTVSPropertyOp0
 70
     1
102
RTVSPropertyOp1
 70
     1
102
RTVSPropertyOp2
 70
     1
102
RTVSPropertyOp3
 70
     1
102
RTVSPropertyOp4
 70
     1
102
RTVSPropertyOp5
 70
     1
102
RTVSPropertyOp6
 70
     1
102
RTVSPropertyOp7
 70
     1
102
RTVSPropertyOp8
 70
     1
102
RTVSPropertyOp9
 70
     1
102
RTVSPropertyOp10
 70
     1
102
RTVSPropertyOp11
 70
     1
102
RTVSPropertyOp12
 70
     1
102
RTVSPropertyOp13
 70
     1
102
RTVSPropertyOp14
 70
     1
102
RTVSPropertyOp15
 70
     1
102
RTVSPropertyOp16
 70
     1
102
RTVSPropertyOp17
 70
     1
102
RTVSPropertyOp18
 70
     1
102
RTVSPropertyOp19
 70
     1
102
RTVSPropertyOp20
 70
     1
102
RTVSPropertyOp21
 70
     1
102
RTVSPropertyOp22
 70
     1
102
RTVSPropertyOp23
 70
     1
102
RTVSPropertyOp24
 70
     1
102
RTVSPropertyOp25
 70
     1
102
RTVSPropertyOp26
 70
     1
102
RTVSPropertyOp27
 70
     1
102
RTVSPropertyOp28
 70
     1
102
RTVSPropertyOp29
 70
     1
102
RTVSPropertyOp30
 70
     1
102
RTVSPropertyOp31
 70
     1
102
RTVSPropertyOp32
 70
     1
102
RTVSPropertyOp33
 70
     1
102
RTVSPropertyOp34
 70
     1
102
RTVSPropertyOp35
 70
     1
102
RTVSPropertyOp36
 70
     1
102
RTVSPropertyOp37
 70
     1
102
RTVSPropertyOp38
 70
     1
102
RTVSPropertyOp39
 70
     1
102
RTVSPropertyOp40
 70
     1
102
RTVSPropertyOp41
 70
     1
102
RTVSPropertyOp42
 70
     1
102
RTVSPropertyOp43
 70
     1
102
RTVSPropertyOp44
 70
     1
102
RTVSPropertyOp45
 70
     1
102
RTVSPropertyOp46
 70
     1
102
RTVSPropertyOp47
 70
     1
102
RTVSPropertyOp48
 70
     1
102
RTVSPropertyOp49
 70
     1
102
RTVSPropertyOp50
 70
     1
102
RTVSPropertyOp51
 70
     0
102
RTVSPropertyOp52
 70
     0
102
RTVSPropertyOp53
 70
     1
102
RTVSPropertyOp54
 70
     1
102
RTVSPropertyOp55
 70
     1
102
RTVSPropertyOp56
 70
     1
102
RTVSPropertyOp57
 70
     1
102
RTVSPropertyOp58
 70
     1
102
RTVSPropertyOp59
 70
     1
102
RTVSPropertyOp60
 70
     1
102
RTVSPropertyOp61
 70
     1
102
RTVSPropertyOp62
 70
     1
  0
XRECORD
  5
210C8
102
{ACAD_REACTORS
330
210C7
102
}
330
210C7
100
AcDbXrecord
280
     1
102
RTVSPost2010Prop28
280
     0
102
RTVSPost2010PropOp28
 70
     1
102
RTVSPost2010Prop29
280
     1
102
RTVSPost2010PropOp29
 70
     1
102
RTVSPost2010Prop30
280
     1
102
RTVSPost2010PropOp30
 70
     1
102
RTVSPost2010Prop31
280
     0
102
RTVSPost2010PropOp31
 70
     1
102
RTVSPost2010Prop32
280
     0
102
RTVSPost2010PropOp32
 70
     1
102
RTVSPost2010Prop33
280
     0
102
RTVSPost2010PropOp33
 70
     1
102
RTVSPost2010Prop34
280
     0
102
RTVSPost2010PropOp34
 70
     1
102
RTVSPost2010Prop35
280
     0
102
RTVSPost2010PropOp35
 70
     1
102
RTVSPost2010Prop36
280
     0
102
RTVSPost2010PropOp36
 70
     1
102
RTVSPost2010Prop37
 90
       50
102
RTVSPost2010PropOp37
 70
     0
102
RTVSPost2010Prop38
140
0.0
102
RTVSPost2010PropOp38
 70
     0
102
RTVSPost2010Prop39
140
1.0
102
RTVSPost2010PropOp39
 70
     0
102
RTVSPost2010Prop40
 90
        0
102
RTVSPost2010PropOp40
 70
     0
102
RTVSPost2010Prop41ColorIndex
 90
       18
102
RTVSPost2010Prop41ColorRGB
 90
        0
102
RTVSPost2010PropOp41
 70
     0
102
RTVSPost2010Prop42
 90
       50
102
RTVSPost2010PropOp42
 70
     0
102
RTVSPost2010Prop43
 90
        3
102
RTVSPost2010PropOp43
 70
     0
102
RTVSPost2010Prop44ColorIndex
 90
        5
102
RTVSPost2010Prop44ColorRGB
 90
      255
102
RTVSPost2010PropOp44
 70
     0
102
RTVSPost2010Prop45
280
     0
102
RTVSPost2010PropOp45
 70
     1
102
RTVSPost2010Prop46
 90
       50
102
RTVSPost2010PropOp46
 70
     0
102
RTVSPost2010Prop47
 90
       50
102
RTVSPost2010PropOp47
 70
     0
102
RTVSPost2010Prop48
 90
       50
102
RTVSPost2010PropOp48
 70
     0
102
RTVSPost2010Prop49
280
     0
102
RTVSPost2010PropOp49
 70
     1
102
RTVSPost2010Prop50
 90
       50
102
RTVSPost2010PropOp50
 70
     0
102
RTVSPost2010Prop51ColorIndex
 90
      256
102
RTVSPost2010Prop51ColorRGB
 90
-16777216
102
RTVSPost2010PropOp51
 70
     0
102
RTVSPost2010Prop52
140
1.0
102
RTVSPost2010PropOp52
 70
     0
102
RTVSPost2010Prop53
 90
        2
102
RTVSPost2010PropOp53
 70
     0
102
RTVSPost2010Prop54
  1
strokes_ogs.tif
102
RTVSPost2010PropOp54
 70
     0
102
RTVSPost2010Prop55
280
     0
102
RTVSPost2010PropOp55
 70
     1
102
RTVSPost2010Prop56
140
1.0
102
RTVSPost2010PropOp56
 70
     0
102
RTVSPost2010Prop57
140
1.0
102
RTVSPost2010PropOp57
 70
     0
102
RTVSPropertyOp0
 70
     0
102
RTVSPropertyOp1
 70
     0
102
RTVSPropertyOp2
 70
     0
102
RTVSPropertyOp3
 70
     0
102
RTVSPropertyOp4
 70
     0
102
RTVSPropertyOp5
 70
     0
102
RTVSPropertyOp6
 70
     0
102
RTVSPropertyOp7
 70
     0
102
RTVSPropertyOp8
 70
     0
102
RTVSPropertyOp9
 70
     0
102
RTVSPropertyOp10
 70
     0
102
RTVSPropertyOp11
 70
     0
102
RTVSPropertyOp12
 70
     0
102
RTVSPropertyOp13
 70
     0
102
RTVSPropertyOp14
 70
     2
102
RTVSPropertyOp15
 70
     0
102
RTVSPropertyOp16
 70
     0
102
RTVSPropertyOp17
 70
     0
102
RTVSPropertyOp18
 70
     0
102
RTVSPropertyOp19
 70
     0
102
RTVSPropertyOp20
 70
     0
102
RTVSPropertyOp21
 70
     0
102
RTVSPropertyOp22
 70
     0
102
RTVSPropertyOp23
 70
     0
102
RTVSPropertyOp24
 70
     0
102
RTVSPropertyOp25
 70
     0
102
RTVSPropertyOp26
 70
     0
102
RTVSPropertyOp27
 70
     0
102
RTVSPropertyOp28
 70
     1
102
RTVSPropertyOp29
 70
     1
102
RTVSPropertyOp30
 70
     1
102
RTVSPropertyOp31
 70
     1
102
RTVSPropertyOp32
 70
     1
102
RTVSPropertyOp33
 70
     1
102
RTVSPropertyOp34
 70
     1
102
RTVSPropertyOp35
 70
     1
102
RTVSPropertyOp36
 70
     1
102
RTVSPropertyOp37
 70
     0
102
RTVSPropertyOp38
 70
     0
102
RTVSPropertyOp39
 70
     0
102
RTVSPropertyOp40
 70
     0
102
RTVSPropertyOp41
 70
     0
102
RTVSPropertyOp42
 70
     0
102
RTVSPropertyOp43
 70
     0
102
RTVSPropertyOp44
 70
     0
102
RTVSPropertyOp45
 70
     1
102
RTVSPropertyOp46
 70
     0
102
RTVSPropertyOp47
 70
     0
102
RTVSPropertyOp48
 70
     0
102
RTVSPropertyOp49
 70
     1
102
RTVSPropertyOp50
 70
     0
102
RTVSPropertyOp51
 70
     0
102
RTVSPropertyOp52
 70
     0
102
RTVSPropertyOp53
 70
     0
102
RTVSPropertyOp54
 70
     0
102
RTVSPropertyOp55
 70
     1
102
RTVSPropertyOp56
 70
     0
102
RTVSPropertyOp57
 70
     0
102
RTVSPropertyOp58
 70
     1
102
RTVSPropertyOp59
 70
     1
102
RTVSPropertyOp60
 70
     1
102
RTVSPropertyOp61
 70
     1
102
RTVSPropertyOp62
 70
     1
  0
XRECORD
  5
210A1
102
{ACAD_REACTORS
330
210A0
102
}
330
210A0
100
AcDbXrecord
280
     1
102
RTVSPost2010Prop28
280
     0
102
RTVSPost2010PropOp28
 70
     1
102
RTVSPost2010Prop29
280
     1
102
RTVSPost2010PropOp29
 70
     1
102
RTVSPost2010Prop30
280
     1
102
RTVSPost2010PropOp30
 70
     1
102
RTVSPost2010Prop31
280
     0
102
RTVSPost2010PropOp31
 70
     1
102
RTVSPost2010Prop32
280
     0
102
RTVSPost2010PropOp32
 70
     1
102
RTVSPost2010Prop33
280
     0
102
RTVSPost2010PropOp33
 70
     1
102
RTVSPost2010Prop34
280
     0
102
RTVSPost2010PropOp34
 70
     1
102
RTVSPost2010Prop35
280
     0
102
RTVSPost2010PropOp35
 70
     1
102
RTVSPost2010Prop36
280
     0
102
RTVSPost2010PropOp36
 70
     1
102
RTVSPost2010Prop37
 90
       50
102
RTVSPost2010PropOp37
 70
     1
102
RTVSPost2010Prop38
140
0.0
102
RTVSPost2010PropOp38
 70
     1
102
RTVSPost2010Prop39
140
1.0
102
RTVSPost2010PropOp39
 70
     1
102
RTVSPost2010Prop40
 90
        0
102
RTVSPost2010PropOp40
 70
     1
102
RTVSPost2010Prop41ColorIndex
 90
       18
102
RTVSPost2010Prop41ColorRGB
 90
        0
102
RTVSPost2010PropOp41
 70
     1
102
RTVSPost2010Prop42
 90
       50
102
RTVSPost2010PropOp42
 70
     1
102
RTVSPost2010Prop43
 90
        3
102
RTVSPost2010PropOp43
 70
     1
102
RTVSPost2010Prop44ColorIndex
 90
        5
102
RTVSPost2010Prop44ColorRGB
 90
      255
102
RTVSPost2010PropOp44
 70
     1
102
RTVSPost2010Prop45
280
     0
102
RTVSPost2010PropOp45
 70
     1
102
RTVSPost2010Prop46
 90
       50
102
RTVSPost2010PropOp46
 70
     1
102
RTVSPost2010Prop47
 90
       50
102
RTVSPost2010PropOp47
 70
     1
102
RTVSPost2010Prop48
 90
       50
102
RTVSPost2010PropOp48
 70
     1
102
RTVSPost2010Prop49
280
     0
102
RTVSPost2010PropOp49
 70
     1
102
RTVSPost2010Prop50
 90
       50
102
RTVSPost2010PropOp50
 70
     1
102
RTVSPost2010Prop51ColorIndex
 90
      256
102
RTVSPost2010Prop51ColorRGB
 90
-16777216
102
RTVSPost2010PropOp51
 70
     0
102
RTVSPost2010Prop52
140
1.0
102
RTVSPost2010PropOp52
 70
     0
102
RTVSPost2010Prop53
 90
        2
102
RTVSPost2010PropOp53
 70
     1
102
RTVSPost2010Prop54
  1
strokes_ogs.tif
102
RTVSPost2010PropOp54
 70
     1
102
RTVSPost2010Prop55
280
     0
102
RTVSPost2010PropOp55
 70
     1
102
RTVSPost2010Prop56
140
1.0
102
RTVSPost2010PropOp56
 70
     1
102
RTVSPost2010Prop57
140
1.0
102
RTVSPost2010PropOp57
 70
     1
102
RTVSPropertyOp0
 70
     1
102
RTVSPropertyOp1
 70
     1
102
RTVSPropertyOp2
 70
     1
102
RTVSPropertyOp3
 70
     1
102
RTVSPropertyOp4
 70
     1
102
RTVSPropertyOp5
 70
     1
102
RTVSPropertyOp6
 70
     1
102
RTVSPropertyOp7
 70
     1
102
RTVSPropertyOp8
 70
     1
102
RTVSPropertyOp9
 70
     1
102
RTVSPropertyOp10
 70
     1
102
RTVSPropertyOp11
 70
     1
102
RTVSPropertyOp12
 70
     1
102
RTVSPropertyOp13
 70
     1
102
RTVSPropertyOp14
 70
     1
102
RTVSPropertyOp15
 70
     1
102
RTVSPropertyOp16
 70
     1
102
RTVSPropertyOp17
 70
     1
102
RTVSPropertyOp18
 70
     1
102
RTVSPropertyOp19
 70
     1
102
RTVSPropertyOp20
 70
     1
102
RTVSPropertyOp21
 70
     1
102
RTVSPropertyOp22
 70
     1
102
RTVSPropertyOp23
 70
     1
102
RTVSPropertyOp24
 70
     1
102
RTVSPropertyOp25
 70
     1
102
RTVSPropertyOp26
 70
     1
102
RTVSPropertyOp27
 70
     1
102
RTVSPropertyOp28
 70
     1
102
RTVSPropertyOp29
 70
     1
102
RTVSPropertyOp30
 70
     1
102
RTVSPropertyOp31
 70
     1
102
RTVSPropertyOp32
 70
     1
102
RTVSPropertyOp33
 70
     1
102
RTVSPropertyOp34
 70
     1
102
RTVSPropertyOp35
 70
     1
102
RTVSPropertyOp36
 70
     1
102
RTVSPropertyOp37
 70
     1
102
RTVSPropertyOp38
 70
     1
102
RTVSPropertyOp39
 70
     1
102
RTVSPropertyOp40
 70
     1
102
RTVSPropertyOp41
 70
     1
102
RTVSPropertyOp42
 70
     1
102
RTVSPropertyOp43
 70
     1
102
RTVSPropertyOp44
 70
     1
102
RTVSPropertyOp45
 70
     1
102
RTVSPropertyOp46
 70
     1
102
RTVSPropertyOp47
 70
     1
102
RTVSPropertyOp48
 70
     1
102
RTVSPropertyOp49
 70
     1
102
RTVSPropertyOp50
 70
     1
102
RTVSPropertyOp51
 70
     0
102
RTVSPropertyOp52
 70
     0
102
RTVSPropertyOp53
 70
     1
102
RTVSPropertyOp54
 70
     1
102
RTVSPropertyOp55
 70
     1
102
RTVSPropertyOp56
 70
     1
102
RTVSPropertyOp57
 70
     1
102
RTVSPropertyOp58
 70
     1
102
RTVSPropertyOp59
 70
     1
102
RTVSPropertyOp60
 70
     1
102
RTVSPropertyOp61
 70
     1
102
RTVSPropertyOp62
 70
     1
  0
XRECORD
  5
210C4
102
{ACAD_REACTORS
330
210C3
102
}
330
210C3
100
AcDbXrecord
280
     1
102
RTVSPost2010Prop28
280
     0
102
RTVSPost2010PropOp28
 70
     1
102
RTVSPost2010Prop29
280
     1
102
RTVSPost2010PropOp29
 70
     1
102
RTVSPost2010Prop30
280
     1
102
RTVSPost2010PropOp30
 70
     1
102
RTVSPost2010Prop31
280
     0
102
RTVSPost2010PropOp31
 70
     1
102
RTVSPost2010Prop32
280
     0
102
RTVSPost2010PropOp32
 70
     1
102
RTVSPost2010Prop33
280
     0
102
RTVSPost2010PropOp33
 70
     1
102
RTVSPost2010Prop34
280
     0
102
RTVSPost2010PropOp34
 70
     1
102
RTVSPost2010Prop35
280
     0
102
RTVSPost2010PropOp35
 70
     1
102
RTVSPost2010Prop36
280
     0
102
RTVSPost2010PropOp36
 70
     1
102
RTVSPost2010Prop37
 90
       50
102
RTVSPost2010PropOp37
 70
     1
102
RTVSPost2010Prop38
140
0.0
102
RTVSPost2010PropOp38
 70
     1
102
RTVSPost2010Prop39
140
1.0
102
RTVSPost2010PropOp39
 70
     1
102
RTVSPost2010Prop40
 90
        0
102
RTVSPost2010PropOp40
 70
     1
102
RTVSPost2010Prop41ColorIndex
 90
       18
102
RTVSPost2010Prop41ColorRGB
 90
        0
102
RTVSPost2010PropOp41
 70
     1
102
RTVSPost2010Prop42
 90
       50
102
RTVSPost2010PropOp42
 70
     1
102
RTVSPost2010Prop43
 90
        3
102
RTVSPost2010PropOp43
 70
     1
102
RTVSPost2010Prop44ColorIndex
 90
        5
102
RTVSPost2010Prop44ColorRGB
 90
      255
102
RTVSPost2010PropOp44
 70
     1
102
RTVSPost2010Prop45
280
     0
102
RTVSPost2010PropOp45
 70
     1
102
RTVSPost2010Prop46
 90
       50
102
RTVSPost2010PropOp46
 70
     1
102
RTVSPost2010Prop47
 90
       50
102
RTVSPost2010PropOp47
 70
     1
102
RTVSPost2010Prop48
 90
       50
102
RTVSPost2010PropOp48
 70
     1
102
RTVSPost2010Prop49
280
     0
102
RTVSPost2010PropOp49
 70
     1
102
RTVSPost2010Prop50
 90
       50
102
RTVSPost2010PropOp50
 70
     1
102
RTVSPost2010Prop51ColorIndex
 90
      256
102
RTVSPost2010Prop51ColorRGB
 90
-16777216
102
RTVSPost2010PropOp51
 70
     0
102
RTVSPost2010Prop52
140
1.0
102
RTVSPost2010PropOp52
 70
     0
102
RTVSPost2010Prop53
 90
        2
102
RTVSPost2010PropOp53
 70
     1
102
RTVSPost2010Prop54
  1
strokes_ogs.tif
102
RTVSPost2010PropOp54
 70
     1
102
RTVSPost2010Prop55
280
     0
102
RTVSPost2010PropOp55
 70
     1
102
RTVSPost2010Prop56
140
1.0
102
RTVSPost2010PropOp56
 70
     1
102
RTVSPost2010Prop57
140
1.0
102
RTVSPost2010PropOp57
 70
     1
102
RTVSPropertyOp0
 70
     1
102
RTVSPropertyOp1
 70
     1
102
RTVSPropertyOp2
 70
     1
102
RTVSPropertyOp3
 70
     1
102
RTVSPropertyOp4
 70
     1
102
RTVSPropertyOp5
 70
     1
102
RTVSPropertyOp6
 70
     1
102
RTVSPropertyOp7
 70
     1
102
RTVSPropertyOp8
 70
     1
102
RTVSPropertyOp9
 70
     1
102
RTVSPropertyOp10
 70
     1
102
RTVSPropertyOp11
 70
     1
102
RTVSPropertyOp12
 70
     1
102
RTVSPropertyOp13
 70
     1
102
RTVSPropertyOp14
 70
     1
102
RTVSPropertyOp15
 70
     1
102
RTVSPropertyOp16
 70
     1
102
RTVSPropertyOp17
 70
     1
102
RTVSPropertyOp18
 70
     1
102
RTVSPropertyOp19
 70
     1
102
RTVSPropertyOp20
 70
     1
102
RTVSPropertyOp21
 70
     1
102
RTVSPropertyOp22
 70
     1
102
RTVSPropertyOp23
 70
     1
102
RTVSPropertyOp24
 70
     1
102
RTVSPropertyOp25
 70
     1
102
RTVSPropertyOp26
 70
     1
102
RTVSPropertyOp27
 70
     1
102
RTVSPropertyOp28
 70
     1
102
RTVSPropertyOp29
 70
     1
102
RTVSPropertyOp30
 70
     1
102
RTVSPropertyOp31
 70
     1
102
RTVSPropertyOp32
 70
     1
102
RTVSPropertyOp33
 70
     1
102
RTVSPropertyOp34
 70
     1
102
RTVSPropertyOp35
 70
     1
102
RTVSPropertyOp36
 70
     1
102
RTVSPropertyOp37
 70
     1
102
RTVSPropertyOp38
 70
     1
102
RTVSPropertyOp39
 70
     1
102
RTVSPropertyOp40
 70
     1
102
RTVSPropertyOp41
 70
     1
102
RTVSPropertyOp42
 70
     1
102
RTVSPropertyOp43
 70
     1
102
RTVSPropertyOp44
 70
     1
102
RTVSPropertyOp45
 70
     1
102
RTVSPropertyOp46
 70
     1
102
RTVSPropertyOp47
 70
     1
102
RTVSPropertyOp48
 70
     1
102
RTVSPropertyOp49
 70
     1
102
RTVSPropertyOp50
 70
     1
102
RTVSPropertyOp51
 70
     0
102
RTVSPropertyOp52
 70
     0
102
RTVSPropertyOp53
 70
     1
102
RTVSPropertyOp54
 70
     1
102
RTVSPropertyOp55
 70
     1
102
RTVSPropertyOp56
 70
     1
102
RTVSPropertyOp57
 70
     1
102
RTVSPropertyOp58
 70
     1
102
RTVSPropertyOp59
 70
     1
102
RTVSPropertyOp60
 70
     1
102
RTVSPropertyOp61
 70
     1
102
RTVSPropertyOp62
 70
     1
  0
XRECORD
  5
210C2
102
{ACAD_REACTORS
330
210C1
102
}
330
210C1
100
AcDbXrecord
280
     1
102
RTVSPost2010Prop28
280
     0
102
RTVSPost2010PropOp28
 70
     1
102
RTVSPost2010Prop29
280
     1
102
RTVSPost2010PropOp29
 70
     1
102
RTVSPost2010Prop30
280
     1
102
RTVSPost2010PropOp30
 70
     1
102
RTVSPost2010Prop31
280
     0
102
RTVSPost2010PropOp31
 70
     1
102
RTVSPost2010Prop32
280
     0
102
RTVSPost2010PropOp32
 70
     1
102
RTVSPost2010Prop33
280
     0
102
RTVSPost2010PropOp33
 70
     1
102
RTVSPost2010Prop34
280
     0
102
RTVSPost2010PropOp34
 70
     1
102
RTVSPost2010Prop35
280
     0
102
RTVSPost2010PropOp35
 70
     1
102
RTVSPost2010Prop36
280
     0
102
RTVSPost2010PropOp36
 70
     1
102
RTVSPost2010Prop37
 90
       50
102
RTVSPost2010PropOp37
 70
     1
102
RTVSPost2010Prop38
140
0.0
102
RTVSPost2010PropOp38
 70
     1
102
RTVSPost2010Prop39
140
1.0
102
RTVSPost2010PropOp39
 70
     1
102
RTVSPost2010Prop40
 90
        0
102
RTVSPost2010PropOp40
 70
     1
102
RTVSPost2010Prop41ColorIndex
 90
       18
102
RTVSPost2010Prop41ColorRGB
 90
        0
102
RTVSPost2010PropOp41
 70
     1
102
RTVSPost2010Prop42
 90
       50
102
RTVSPost2010PropOp42
 70
     1
102
RTVSPost2010Prop43
 90
        3
102
RTVSPost2010PropOp43
 70
     1
102
RTVSPost2010Prop44ColorIndex
 90
        5
102
RTVSPost2010Prop44ColorRGB
 90
      255
102
RTVSPost2010PropOp44
 70
     1
102
RTVSPost2010Prop45
280
     0
102
RTVSPost2010PropOp45
 70
     1
102
RTVSPost2010Prop46
 90
       50
102
RTVSPost2010PropOp46
 70
     1
102
RTVSPost2010Prop47
 90
       50
102
RTVSPost2010PropOp47
 70
     1
102
RTVSPost2010Prop48
 90
       50
102
RTVSPost2010PropOp48
 70
     1
102
RTVSPost2010Prop49
280
     0
102
RTVSPost2010PropOp49
 70
     1
102
RTVSPost2010Prop50
 90
       50
102
RTVSPost2010PropOp50
 70
     1
102
RTVSPost2010Prop51ColorIndex
 90
      256
102
RTVSPost2010Prop51ColorRGB
 90
-16777216
102
RTVSPost2010PropOp51
 70
     0
102
RTVSPost2010Prop52
140
1.0
102
RTVSPost2010PropOp52
 70
     0
102
RTVSPost2010Prop53
 90
        2
102
RTVSPost2010PropOp53
 70
     1
102
RTVSPost2010Prop54
  1
strokes_ogs.tif
102
RTVSPost2010PropOp54
 70
     1
102
RTVSPost2010Prop55
280
     0
102
RTVSPost2010PropOp55
 70
     1
102
RTVSPost2010Prop56
140
1.0
102
RTVSPost2010PropOp56
 70
     1
102
RTVSPost2010Prop57
140
1.0
102
RTVSPost2010PropOp57
 70
     1
102
RTVSPropertyOp0
 70
     1
102
RTVSPropertyOp1
 70
     1
102
RTVSPropertyOp2
 70
     1
102
RTVSPropertyOp3
 70
     1
102
RTVSPropertyOp4
 70
     1
102
RTVSPropertyOp5
 70
     1
102
RTVSPropertyOp6
 70
     1
102
RTVSPropertyOp7
 70
     1
102
RTVSPropertyOp8
 70
     1
102
RTVSPropertyOp9
 70
     1
102
RTVSPropertyOp10
 70
     1
102
RTVSPropertyOp11
 70
     1
102
RTVSPropertyOp12
 70
     1
102
RTVSPropertyOp13
 70
     1
102
RTVSPropertyOp14
 70
     1
102
RTVSPropertyOp15
 70
     1
102
RTVSPropertyOp16
 70
     1
102
RTVSPropertyOp17
 70
     1
102
RTVSPropertyOp18
 70
     1
102
RTVSPropertyOp19
 70
     1
102
RTVSPropertyOp20
 70
     1
102
RTVSPropertyOp21
 70
     1
102
RTVSPropertyOp22
 70
     1
102
RTVSPropertyOp23
 70
     1
102
RTVSPropertyOp24
 70
     1
102
RTVSPropertyOp25
 70
     1
102
RTVSPropertyOp26
 70
     1
102
RTVSPropertyOp27
 70
     1
102
RTVSPropertyOp28
 70
     1
102
RTVSPropertyOp29
 70
     1
102
RTVSPropertyOp30
 70
     1
102
RTVSPropertyOp31
 70
     1
102
RTVSPropertyOp32
 70
     1
102
RTVSPropertyOp33
 70
     1
102
RTVSPropertyOp34
 70
     1
102
RTVSPropertyOp35
 70
     1
102
RTVSPropertyOp36
 70
     1
102
RTVSPropertyOp37
 70
     1
102
RTVSPropertyOp38
 70
     1
102
RTVSPropertyOp39
 70
     1
102
RTVSPropertyOp40
 70
     1
102
RTVSPropertyOp41
 70
     1
102
RTVSPropertyOp42
 70
     1
102
RTVSPropertyOp43
 70
     1
102
RTVSPropertyOp44
 70
     1
102
RTVSPropertyOp45
 70
     1
102
RTVSPropertyOp46
 70
     1
102
RTVSPropertyOp47
 70
     1
102
RTVSPropertyOp48
 70
     1
102
RTVSPropertyOp49
 70
     1
102
RTVSPropertyOp50
 70
     1
102
RTVSPropertyOp51
 70
     0
102
RTVSPropertyOp52
 70
     0
102
RTVSPropertyOp53
 70
     1
102
RTVSPropertyOp54
 70
     1
102
RTVSPropertyOp55
 70
     1
102
RTVSPropertyOp56
 70
     1
102
RTVSPropertyOp57
 70
     1
102
RTVSPropertyOp58
 70
     1
102
RTVSPropertyOp59
 70
     1
102
RTVSPropertyOp60
 70
     1
102
RTVSPropertyOp61
 70
     1
102
RTVSPropertyOp62
 70
     1
  0
XRECORD
  5
210BC
102
{ACAD_REACTORS
330
210BB
102
}
330
210BB
100
AcDbXrecord
280
     1
102
RTVSPost2010Prop28
280
     0
102
RTVSPost2010PropOp28
 70
     1
102
RTVSPost2010Prop29
280
     1
102
RTVSPost2010PropOp29
 70
     1
102
RTVSPost2010Prop30
280
     1
102
RTVSPost2010PropOp30
 70
     1
102
RTVSPost2010Prop31
280
     0
102
RTVSPost2010PropOp31
 70
     1
102
RTVSPost2010Prop32
280
     0
102
RTVSPost2010PropOp32
 70
     1
102
RTVSPost2010Prop33
280
     0
102
RTVSPost2010PropOp33
 70
     1
102
RTVSPost2010Prop34
280
     0
102
RTVSPost2010PropOp34
 70
     1
102
RTVSPost2010Prop35
280
     0
102
RTVSPost2010PropOp35
 70
     1
102
RTVSPost2010Prop36
280
     0
102
RTVSPost2010PropOp36
 70
     1
102
RTVSPost2010Prop37
 90
       50
102
RTVSPost2010PropOp37
 70
     1
102
RTVSPost2010Prop38
140
0.0
102
RTVSPost2010PropOp38
 70
     1
102
RTVSPost2010Prop39
140
1.0
102
RTVSPost2010PropOp39
 70
     1
102
RTVSPost2010Prop40
 90
        0
102
RTVSPost2010PropOp40
 70
     1
102
RTVSPost2010Prop41ColorIndex
 90
       18
102
RTVSPost2010Prop41ColorRGB
 90
        0
102
RTVSPost2010PropOp41
 70
     1
102
RTVSPost2010Prop42
 90
       50
102
RTVSPost2010PropOp42
 70
     1
102
RTVSPost2010Prop43
 90
        3
102
RTVSPost2010PropOp43
 70
     1
102
RTVSPost2010Prop44ColorIndex
 90
        5
102
RTVSPost2010Prop44ColorRGB
 90
      255
102
RTVSPost2010PropOp44
 70
     1
102
RTVSPost2010Prop45
280
     0
102
RTVSPost2010PropOp45
 70
     1
102
RTVSPost2010Prop46
 90
       50
102
RTVSPost2010PropOp46
 70
     1
102
RTVSPost2010Prop47
 90
       50
102
RTVSPost2010PropOp47
 70
     1
102
RTVSPost2010Prop48
 90
       50
102
RTVSPost2010PropOp48
 70
     1
102
RTVSPost2010Prop49
280
     0
102
RTVSPost2010PropOp49
 70
     1
102
RTVSPost2010Prop50
 90
       50
102
RTVSPost2010PropOp50
 70
     1
102
RTVSPost2010Prop51ColorIndex
 90
      256
102
RTVSPost2010Prop51ColorRGB
 90
-16777216
102
RTVSPost2010PropOp51
 70
     0
102
RTVSPost2010Prop52
140
1.0
102
RTVSPost2010PropOp52
 70
     0
102
RTVSPost2010Prop53
 90
        2
102
RTVSPost2010PropOp53
 70
     1
102
RTVSPost2010Prop54
  1
strokes_ogs.tif
102
RTVSPost2010PropOp54
 70
     1
102
RTVSPost2010Prop55
280
     0
102
RTVSPost2010PropOp55
 70
     1
102
RTVSPost2010Prop56
140
1.0
102
RTVSPost2010PropOp56
 70
     1
102
RTVSPost2010Prop57
140
1.0
102
RTVSPost2010PropOp57
 70
     1
102
RTVSPropertyOp0
 70
     1
102
RTVSPropertyOp1
 70
     1
102
RTVSPropertyOp2
 70
     1
102
RTVSPropertyOp3
 70
     1
102
RTVSPropertyOp4
 70
     1
102
RTVSPropertyOp5
 70
     1
102
RTVSPropertyOp6
 70
     1
102
RTVSPropertyOp7
 70
     1
102
RTVSPropertyOp8
 70
     1
102
RTVSPropertyOp9
 70
     1
102
RTVSPropertyOp10
 70
     1
102
RTVSPropertyOp11
 70
     1
102
RTVSPropertyOp12
 70
     1
102
RTVSPropertyOp13
 70
     1
102
RTVSPropertyOp14
 70
     1
102
RTVSPropertyOp15
 70
     1
102
RTVSPropertyOp16
 70
     1
102
RTVSPropertyOp17
 70
     1
102
RTVSPropertyOp18
 70
     1
102
RTVSPropertyOp19
 70
     1
102
RTVSPropertyOp20
 70
     1
102
RTVSPropertyOp21
 70
     1
102
RTVSPropertyOp22
 70
     1
102
RTVSPropertyOp23
 70
     1
102
RTVSPropertyOp24
 70
     1
102
RTVSPropertyOp25
 70
     1
102
RTVSPropertyOp26
 70
     1
102
RTVSPropertyOp27
 70
     1
102
RTVSPropertyOp28
 70
     1
102
RTVSPropertyOp29
 70
     1
102
RTVSPropertyOp30
 70
     1
102
RTVSPropertyOp31
 70
     1
102
RTVSPropertyOp32
 70
     1
102
RTVSPropertyOp33
 70
     1
102
RTVSPropertyOp34
 70
     1
102
RTVSPropertyOp35
 70
     1
102
RTVSPropertyOp36
 70
     1
102
RTVSPropertyOp37
 70
     1
102
RTVSPropertyOp38
 70
     1
102
RTVSPropertyOp39
 70
     1
102
RTVSPropertyOp40
 70
     1
102
RTVSPropertyOp41
 70
     1
102
RTVSPropertyOp42
 70
     1
102
RTVSPropertyOp43
 70
     1
102
RTVSPropertyOp44
 70
     1
102
RTVSPropertyOp45
 70
     1
102
RTVSPropertyOp46
 70
     1
102
RTVSPropertyOp47
 70
     1
102
RTVSPropertyOp48
 70
     1
102
RTVSPropertyOp49
 70
     1
102
RTVSPropertyOp50
 70
     1
102
RTVSPropertyOp51
 70
     0
102
RTVSPropertyOp52
 70
     0
102
RTVSPropertyOp53
 70
     1
102
RTVSPropertyOp54
 70
     1
102
RTVSPropertyOp55
 70
     1
102
RTVSPropertyOp56
 70
     1
102
RTVSPropertyOp57
 70
     1
102
RTVSPropertyOp58
 70
     1
102
RTVSPropertyOp59
 70
     1
102
RTVSPropertyOp60
 70
     1
102
RTVSPropertyOp61
 70
     1
102
RTVSPropertyOp62
 70
     1
  0
XRECORD
  5
210BE
102
{ACAD_REACTORS
330
210BD
102
}
330
210BD
100
AcDbXrecord
280
     1
102
RTVSPost2010Prop28
280
     0
102
RTVSPost2010PropOp28
 70
     1
102
RTVSPost2010Prop29
280
     1
102
RTVSPost2010PropOp29
 70
     1
102
RTVSPost2010Prop30
280
     1
102
RTVSPost2010PropOp30
 70
     1
102
RTVSPost2010Prop31
280
     0
102
RTVSPost2010PropOp31
 70
     1
102
RTVSPost2010Prop32
280
     0
102
RTVSPost2010PropOp32
 70
     1
102
RTVSPost2010Prop33
280
     0
102
RTVSPost2010PropOp33
 70
     1
102
RTVSPost2010Prop34
280
     0
102
RTVSPost2010PropOp34
 70
     1
102
RTVSPost2010Prop35
280
     0
102
RTVSPost2010PropOp35
 70
     1
102
RTVSPost2010Prop36
280
     0
102
RTVSPost2010PropOp36
 70
     1
102
RTVSPost2010Prop37
 90
       50
102
RTVSPost2010PropOp37
 70
     1
102
RTVSPost2010Prop38
140
0.0
102
RTVSPost2010PropOp38
 70
     1
102
RTVSPost2010Prop39
140
1.0
102
RTVSPost2010PropOp39
 70
     1
102
RTVSPost2010Prop40
 90
        0
102
RTVSPost2010PropOp40
 70
     1
102
RTVSPost2010Prop41ColorIndex
 90
       18
102
RTVSPost2010Prop41ColorRGB
 90
        0
102
RTVSPost2010PropOp41
 70
     1
102
RTVSPost2010Prop42
 90
       50
102
RTVSPost2010PropOp42
 70
     1
102
RTVSPost2010Prop43
 90
        3
102
RTVSPost2010PropOp43
 70
     1
102
RTVSPost2010Prop44ColorIndex
 90
        5
102
RTVSPost2010Prop44ColorRGB
 90
      255
102
RTVSPost2010PropOp44
 70
     1
102
RTVSPost2010Prop45
280
     0
102
RTVSPost2010PropOp45
 70
     1
102
RTVSPost2010Prop46
 90
       50
102
RTVSPost2010PropOp46
 70
     1
102
RTVSPost2010Prop47
 90
       50
102
RTVSPost2010PropOp47
 70
     1
102
RTVSPost2010Prop48
 90
       50
102
RTVSPost2010PropOp48
 70
     1
102
RTVSPost2010Prop49
280
     0
102
RTVSPost2010PropOp49
 70
     1
102
RTVSPost2010Prop50
 90
       50
102
RTVSPost2010PropOp50
 70
     1
102
RTVSPost2010Prop51ColorIndex
 90
      256
102
RTVSPost2010Prop51ColorRGB
 90
-16777216
102
RTVSPost2010PropOp51
 70
     0
102
RTVSPost2010Prop52
140
1.0
102
RTVSPost2010PropOp52
 70
     0
102
RTVSPost2010Prop53
 90
        2
102
RTVSPost2010PropOp53
 70
     1
102
RTVSPost2010Prop54
  1
strokes_ogs.tif
102
RTVSPost2010PropOp54
 70
     1
102
RTVSPost2010Prop55
280
     0
102
RTVSPost2010PropOp55
 70
     1
102
RTVSPost2010Prop56
140
1.0
102
RTVSPost2010PropOp56
 70
     1
102
RTVSPost2010Prop57
140
1.0
102
RTVSPost2010PropOp57
 70
     1
102
RTVSPropertyOp0
 70
     1
102
RTVSPropertyOp1
 70
     1
102
RTVSPropertyOp2
 70
     1
102
RTVSPropertyOp3
 70
     1
102
RTVSPropertyOp4
 70
     1
102
RTVSPropertyOp5
 70
     1
102
RTVSPropertyOp6
 70
     1
102
RTVSPropertyOp7
 70
     1
102
RTVSPropertyOp8
 70
     1
102
RTVSPropertyOp9
 70
     1
102
RTVSPropertyOp10
 70
     1
102
RTVSPropertyOp11
 70
     1
102
RTVSPropertyOp12
 70
     1
102
RTVSPropertyOp13
 70
     1
102
RTVSPropertyOp14
 70
     1
102
RTVSPropertyOp15
 70
     1
102
RTVSPropertyOp16
 70
     1
102
RTVSPropertyOp17
 70
     1
102
RTVSPropertyOp18
 70
     1
102
RTVSPropertyOp19
 70
     1
102
RTVSPropertyOp20
 70
     1
102
RTVSPropertyOp21
 70
     1
102
RTVSPropertyOp22
 70
     1
102
RTVSPropertyOp23
 70
     1
102
RTVSPropertyOp24
 70
     1
102
RTVSPropertyOp25
 70
     1
102
RTVSPropertyOp26
 70
     1
102
RTVSPropertyOp27
 70
     1
102
RTVSPropertyOp28
 70
     1
102
RTVSPropertyOp29
 70
     1
102
RTVSPropertyOp30
 70
     1
102
RTVSPropertyOp31
 70
     1
102
RTVSPropertyOp32
 70
     1
102
RTVSPropertyOp33
 70
     1
102
RTVSPropertyOp34
 70
     1
102
RTVSPropertyOp35
 70
     1
102
RTVSPropertyOp36
 70
     1
102
RTVSPropertyOp37
 70
     1
102
RTVSPropertyOp38
 70
     1
102
RTVSPropertyOp39
 70
     1
102
RTVSPropertyOp40
 70
     1
102
RTVSPropertyOp41
 70
     1
102
RTVSPropertyOp42
 70
     1
102
RTVSPropertyOp43
 70
     1
102
RTVSPropertyOp44
 70
     1
102
RTVSPropertyOp45
 70
     1
102
RTVSPropertyOp46
 70
     1
102
RTVSPropertyOp47
 70
     1
102
RTVSPropertyOp48
 70
     1
102
RTVSPropertyOp49
 70
     1
102
RTVSPropertyOp50
 70
     1
102
RTVSPropertyOp51
 70
     0
102
RTVSPropertyOp52
 70
     0
102
RTVSPropertyOp53
 70
     1
102
RTVSPropertyOp54
 70
     1
102
RTVSPropertyOp55
 70
     1
102
RTVSPropertyOp56
 70
     1
102
RTVSPropertyOp57
 70
     1
102
RTVSPropertyOp58
 70
     1
102
RTVSPropertyOp59
 70
     1
102
RTVSPropertyOp60
 70
     1
102
RTVSPropertyOp61
 70
     1
102
RTVSPropertyOp62
 70
     1
  0
XRECORD
  5
210A7
102
{ACAD_REACTORS
330
210A6
102
}
330
210A6
100
AcDbXrecord
280
     1
102
RTVSPost2010Prop28
280
     0
102
RTVSPost2010PropOp28
 70
     1
102
RTVSPost2010Prop29
280
     1
102
RTVSPost2010PropOp29
 70
     1
102
RTVSPost2010Prop30
280
     1
102
RTVSPost2010PropOp30
 70
     1
102
RTVSPost2010Prop31
280
     0
102
RTVSPost2010PropOp31
 70
     1
102
RTVSPost2010Prop32
280
     0
102
RTVSPost2010PropOp32
 70
     1
102
RTVSPost2010Prop33
280
     0
102
RTVSPost2010PropOp33
 70
     1
102
RTVSPost2010Prop34
280
     0
102
RTVSPost2010PropOp34
 70
     1
102
RTVSPost2010Prop35
280
     0
102
RTVSPost2010PropOp35
 70
     1
102
RTVSPost2010Prop36
280
     0
102
RTVSPost2010PropOp36
 70
     1
102
RTVSPost2010Prop37
 90
       50
102
RTVSPost2010PropOp37
 70
     1
102
RTVSPost2010Prop38
140
0.0
102
RTVSPost2010PropOp38
 70
     1
102
RTVSPost2010Prop39
140
1.0
102
RTVSPost2010PropOp39
 70
     1
102
RTVSPost2010Prop40
 90
        0
102
RTVSPost2010PropOp40
 70
     1
102
RTVSPost2010Prop41ColorIndex
 90
       18
102
RTVSPost2010Prop41ColorRGB
 90
        0
102
RTVSPost2010PropOp41
 70
     1
102
RTVSPost2010Prop42
 90
       50
102
RTVSPost2010PropOp42
 70
     1
102
RTVSPost2010Prop43
 90
        3
102
RTVSPost2010PropOp43
 70
     1
102
RTVSPost2010Prop44ColorIndex
 90
        5
102
RTVSPost2010Prop44ColorRGB
 90
      255
102
RTVSPost2010PropOp44
 70
     1
102
RTVSPost2010Prop45
280
     0
102
RTVSPost2010PropOp45
 70
     1
102
RTVSPost2010Prop46
 90
       50
102
RTVSPost2010PropOp46
 70
     1
102
RTVSPost2010Prop47
 90
       50
102
RTVSPost2010PropOp47
 70
     1
102
RTVSPost2010Prop48
 90
       50
102
RTVSPost2010PropOp48
 70
     1
102
RTVSPost2010Prop49
280
     0
102
RTVSPost2010PropOp49
 70
     1
102
RTVSPost2010Prop50
 90
       50
102
RTVSPost2010PropOp50
 70
     1
102
RTVSPost2010Prop51ColorIndex
 90
      256
102
RTVSPost2010Prop51ColorRGB
 90
-16777216
102
RTVSPost2010PropOp51
 70
     0
102
RTVSPost2010Prop52
140
1.0
102
RTVSPost2010PropOp52
 70
     0
102
RTVSPost2010Prop53
 90
        2
102
RTVSPost2010PropOp53
 70
     1
102
RTVSPost2010Prop54
  1
strokes_ogs.tif
102
RTVSPost2010PropOp54
 70
     1
102
RTVSPost2010Prop55
280
     0
102
RTVSPost2010PropOp55
 70
     1
102
RTVSPost2010Prop56
140
1.0
102
RTVSPost2010PropOp56
 70
     1
102
RTVSPost2010Prop57
140
1.0
102
RTVSPost2010PropOp57
 70
     1
102
RTVSPropertyOp0
 70
     1
102
RTVSPropertyOp1
 70
     1
102
RTVSPropertyOp2
 70
     1
102
RTVSPropertyOp3
 70
     1
102
RTVSPropertyOp4
 70
     1
102
RTVSPropertyOp5
 70
     1
102
RTVSPropertyOp6
 70
     1
102
RTVSPropertyOp7
 70
     1
102
RTVSPropertyOp8
 70
     1
102
RTVSPropertyOp9
 70
     1
102
RTVSPropertyOp10
 70
     1
102
RTVSPropertyOp11
 70
     1
102
RTVSPropertyOp12
 70
     1
102
RTVSPropertyOp13
 70
     1
102
RTVSPropertyOp14
 70
     1
102
RTVSPropertyOp15
 70
     1
102
RTVSPropertyOp16
 70
     1
102
RTVSPropertyOp17
 70
     1
102
RTVSPropertyOp18
 70
     1
102
RTVSPropertyOp19
 70
     1
102
RTVSPropertyOp20
 70
     1
102
RTVSPropertyOp21
 70
     1
102
RTVSPropertyOp22
 70
     1
102
RTVSPropertyOp23
 70
     1
102
RTVSPropertyOp24
 70
     1
102
RTVSPropertyOp25
 70
     1
102
RTVSPropertyOp26
 70
     1
102
RTVSPropertyOp27
 70
     1
102
RTVSPropertyOp28
 70
     1
102
RTVSPropertyOp29
 70
     1
102
RTVSPropertyOp30
 70
     1
102
RTVSPropertyOp31
 70
     1
102
RTVSPropertyOp32
 70
     1
102
RTVSPropertyOp33
 70
     1
102
RTVSPropertyOp34
 70
     1
102
RTVSPropertyOp35
 70
     1
102
RTVSPropertyOp36
 70
     1
102
RTVSPropertyOp37
 70
     1
102
RTVSPropertyOp38
 70
     1
102
RTVSPropertyOp39
 70
     1
102
RTVSPropertyOp40
 70
     1
102
RTVSPropertyOp41
 70
     1
102
RTVSPropertyOp42
 70
     1
102
RTVSPropertyOp43
 70
     1
102
RTVSPropertyOp44
 70
     1
102
RTVSPropertyOp45
 70
     1
102
RTVSPropertyOp46
 70
     1
102
RTVSPropertyOp47
 70
     1
102
RTVSPropertyOp48
 70
     1
102
RTVSPropertyOp49
 70
     1
102
RTVSPropertyOp50
 70
     1
102
RTVSPropertyOp51
 70
     0
102
RTVSPropertyOp52
 70
     0
102
RTVSPropertyOp53
 70
     1
102
RTVSPropertyOp54
 70
     1
102
RTVSPropertyOp55
 70
     1
102
RTVSPropertyOp56
 70
     1
102
RTVSPropertyOp57
 70
     1
102
RTVSPropertyOp58
 70
     1
102
RTVSPropertyOp59
 70
     1
102
RTVSPropertyOp60
 70
     1
102
RTVSPropertyOp61
 70
     1
102
RTVSPropertyOp62
 70
     1
  0
XRECORD
  5
210B8
102
{ACAD_REACTORS
330
210B7
102
}
330
210B7
100
AcDbXrecord
280
     1
102
RTVSPost2010Prop28
280
     0
102
RTVSPost2010PropOp28
 70
     1
102
RTVSPost2010Prop29
280
     1
102
RTVSPost2010PropOp29
 70
     1
102
RTVSPost2010Prop30
280
     1
102
RTVSPost2010PropOp30
 70
     1
102
RTVSPost2010Prop31
280
     0
102
RTVSPost2010PropOp31
 70
     1
102
RTVSPost2010Prop32
280
     0
102
RTVSPost2010PropOp32
 70
     1
102
RTVSPost2010Prop33
280
     0
102
RTVSPost2010PropOp33
 70
     1
102
RTVSPost2010Prop34
280
     0
102
RTVSPost2010PropOp34
 70
     1
102
RTVSPost2010Prop35
280
     0
102
RTVSPost2010PropOp35
 70
     1
102
RTVSPost2010Prop36
280
     0
102
RTVSPost2010PropOp36
 70
     1
102
RTVSPost2010Prop37
 90
       50
102
RTVSPost2010PropOp37
 70
     1
102
RTVSPost2010Prop38
140
0.0
102
RTVSPost2010PropOp38
 70
     1
102
RTVSPost2010Prop39
140
1.0
102
RTVSPost2010PropOp39
 70
     1
102
RTVSPost2010Prop40
 90
        0
102
RTVSPost2010PropOp40
 70
     1
102
RTVSPost2010Prop41ColorIndex
 90
       18
102
RTVSPost2010Prop41ColorRGB
 90
        0
102
RTVSPost2010PropOp41
 70
     1
102
RTVSPost2010Prop42
 90
       50
102
RTVSPost2010PropOp42
 70
     1
102
RTVSPost2010Prop43
 90
        3
102
RTVSPost2010PropOp43
 70
     1
102
RTVSPost2010Prop44ColorIndex
 90
        5
102
RTVSPost2010Prop44ColorRGB
 90
      255
102
RTVSPost2010PropOp44
 70
     1
102
RTVSPost2010Prop45
280
     0
102
RTVSPost2010PropOp45
 70
     1
102
RTVSPost2010Prop46
 90
       50
102
RTVSPost2010PropOp46
 70
     1
102
RTVSPost2010Prop47
 90
       50
102
RTVSPost2010PropOp47
 70
     1
102
RTVSPost2010Prop48
 90
       50
102
RTVSPost2010PropOp48
 70
     1
102
RTVSPost2010Prop49
280
     0
102
RTVSPost2010PropOp49
 70
     1
102
RTVSPost2010Prop50
 90
       50
102
RTVSPost2010PropOp50
 70
     1
102
RTVSPost2010Prop51ColorIndex
 90
      256
102
RTVSPost2010Prop51ColorRGB
 90
-16777216
102
RTVSPost2010PropOp51
 70
     0
102
RTVSPost2010Prop52
140
1.0
102
RTVSPost2010PropOp52
 70
     0
102
RTVSPost2010Prop53
 90
        2
102
RTVSPost2010PropOp53
 70
     1
102
RTVSPost2010Prop54
  1
strokes_ogs.tif
102
RTVSPost2010PropOp54
 70
     1
102
RTVSPost2010Prop55
280
     0
102
RTVSPost2010PropOp55
 70
     1
102
RTVSPost2010Prop56
140
1.0
102
RTVSPost2010PropOp56
 70
     1
102
RTVSPost2010Prop57
140
1.0
102
RTVSPost2010PropOp57
 70
     1
102
RTVSPropertyOp0
 70
     1
102
RTVSPropertyOp1
 70
     1
102
RTVSPropertyOp2
 70
     1
102
RTVSPropertyOp3
 70
     1
102
RTVSPropertyOp4
 70
     1
102
RTVSPropertyOp5
 70
     1
102
RTVSPropertyOp6
 70
     1
102
RTVSPropertyOp7
 70
     1
102
RTVSPropertyOp8
 70
     1
102
RTVSPropertyOp9
 70
     1
102
RTVSPropertyOp10
 70
     1
102
RTVSPropertyOp11
 70
     1
102
RTVSPropertyOp12
 70
     1
102
RTVSPropertyOp13
 70
     1
102
RTVSPropertyOp14
 70
     1
102
RTVSPropertyOp15
 70
     1
102
RTVSPropertyOp16
 70
     1
102
RTVSPropertyOp17
 70
     1
102
RTVSPropertyOp18
 70
     1
102
RTVSPropertyOp19
 70
     1
102
RTVSPropertyOp20
 70
     1
102
RTVSPropertyOp21
 70
     1
102
RTVSPropertyOp22
 70
     1
102
RTVSPropertyOp23
 70
     1
102
RTVSPropertyOp24
 70
     1
102
RTVSPropertyOp25
 70
     1
102
RTVSPropertyOp26
 70
     1
102
RTVSPropertyOp27
 70
     1
102
RTVSPropertyOp28
 70
     1
102
RTVSPropertyOp29
 70
     1
102
RTVSPropertyOp30
 70
     1
102
RTVSPropertyOp31
 70
     1
102
RTVSPropertyOp32
 70
     1
102
RTVSPropertyOp33
 70
     1
102
RTVSPropertyOp34
 70
     1
102
RTVSPropertyOp35
 70
     1
102
RTVSPropertyOp36
 70
     1
102
RTVSPropertyOp37
 70
     1
102
RTVSPropertyOp38
 70
     1
102
RTVSPropertyOp39
 70
     1
102
RTVSPropertyOp40
 70
     1
102
RTVSPropertyOp41
 70
     1
102
RTVSPropertyOp42
 70
     1
102
RTVSPropertyOp43
 70
     1
102
RTVSPropertyOp44
 70
     1
102
RTVSPropertyOp45
 70
     1
102
RTVSPropertyOp46
 70
     1
102
RTVSPropertyOp47
 70
     1
102
RTVSPropertyOp48
 70
     1
102
RTVSPropertyOp49
 70
     1
102
RTVSPropertyOp50
 70
     1
102
RTVSPropertyOp51
 70
     0
102
RTVSPropertyOp52
 70
     0
102
RTVSPropertyOp53
 70
     1
102
RTVSPropertyOp54
 70
     1
102
RTVSPropertyOp55
 70
     1
102
RTVSPropertyOp56
 70
     1
102
RTVSPropertyOp57
 70
     1
102
RTVSPropertyOp58
 70
     1
102
RTVSPropertyOp59
 70
     1
102
RTVSPropertyOp60
 70
     1
102
RTVSPropertyOp61
 70
     1
102
RTVSPropertyOp62
 70
     1
  0
XRECORD
  5
210C0
102
{ACAD_REACTORS
330
210BF
102
}
330
210BF
100
AcDbXrecord
280
     1
102
RTVSPost2010Prop28
280
     0
102
RTVSPost2010PropOp28
 70
     1
102
RTVSPost2010Prop29
280
     1
102
RTVSPost2010PropOp29
 70
     1
102
RTVSPost2010Prop30
280
     1
102
RTVSPost2010PropOp30
 70
     1
102
RTVSPost2010Prop31
280
     0
102
RTVSPost2010PropOp31
 70
     1
102
RTVSPost2010Prop32
280
     0
102
RTVSPost2010PropOp32
 70
     1
102
RTVSPost2010Prop33
280
     0
102
RTVSPost2010PropOp33
 70
     1
102
RTVSPost2010Prop34
280
     0
102
RTVSPost2010PropOp34
 70
     1
102
RTVSPost2010Prop35
280
     0
102
RTVSPost2010PropOp35
 70
     1
102
RTVSPost2010Prop36
280
     0
102
RTVSPost2010PropOp36
 70
     1
102
RTVSPost2010Prop37
 90
       50
102
RTVSPost2010PropOp37
 70
     1
102
RTVSPost2010Prop38
140
0.0
102
RTVSPost2010PropOp38
 70
     1
102
RTVSPost2010Prop39
140
1.0
102
RTVSPost2010PropOp39
 70
     1
102
RTVSPost2010Prop40
 90
        0
102
RTVSPost2010PropOp40
 70
     1
102
RTVSPost2010Prop41ColorIndex
 90
       18
102
RTVSPost2010Prop41ColorRGB
 90
        0
102
RTVSPost2010PropOp41
 70
     1
102
RTVSPost2010Prop42
 90
       50
102
RTVSPost2010PropOp42
 70
     1
102
RTVSPost2010Prop43
 90
        3
102
RTVSPost2010PropOp43
 70
     1
102
RTVSPost2010Prop44ColorIndex
 90
        5
102
RTVSPost2010Prop44ColorRGB
 90
      255
102
RTVSPost2010PropOp44
 70
     1
102
RTVSPost2010Prop45
280
     0
102
RTVSPost2010PropOp45
 70
     1
102
RTVSPost2010Prop46
 90
       50
102
RTVSPost2010PropOp46
 70
     1
102
RTVSPost2010Prop47
 90
       50
102
RTVSPost2010PropOp47
 70
     1
102
RTVSPost2010Prop48
 90
       50
102
RTVSPost2010PropOp48
 70
     1
102
RTVSPost2010Prop49
280
     0
102
RTVSPost2010PropOp49
 70
     1
102
RTVSPost2010Prop50
 90
       50
102
RTVSPost2010PropOp50
 70
     1
102
RTVSPost2010Prop51ColorIndex
 90
      256
102
RTVSPost2010Prop51ColorRGB
 90
-16777216
102
RTVSPost2010PropOp51
 70
     0
102
RTVSPost2010Prop52
140
1.0
102
RTVSPost2010PropOp52
 70
     0
102
RTVSPost2010Prop53
 90
        2
102
RTVSPost2010PropOp53
 70
     1
102
RTVSPost2010Prop54
  1
strokes_ogs.tif
102
RTVSPost2010PropOp54
 70
     1
102
RTVSPost2010Prop55
280
     0
102
RTVSPost2010PropOp55
 70
     1
102
RTVSPost2010Prop56
140
1.0
102
RTVSPost2010PropOp56
 70
     1
102
RTVSPost2010Prop57
140
1.0
102
RTVSPost2010PropOp57
 70
     1
102
RTVSPropertyOp0
 70
     1
102
RTVSPropertyOp1
 70
     1
102
RTVSPropertyOp2
 70
     1
102
RTVSPropertyOp3
 70
     1
102
RTVSPropertyOp4
 70
     1
102
RTVSPropertyOp5
 70
     1
102
RTVSPropertyOp6
 70
     1
102
RTVSPropertyOp7
 70
     1
102
RTVSPropertyOp8
 70
     1
102
RTVSPropertyOp9
 70
     1
102
RTVSPropertyOp10
 70
     1
102
RTVSPropertyOp11
 70
     1
102
RTVSPropertyOp12
 70
     1
102
RTVSPropertyOp13
 70
     1
102
RTVSPropertyOp14
 70
     1
102
RTVSPropertyOp15
 70
     1
102
RTVSPropertyOp16
 70
     1
102
RTVSPropertyOp17
 70
     1
102
RTVSPropertyOp18
 70
     1
102
RTVSPropertyOp19
 70
     1
102
RTVSPropertyOp20
 70
     1
102
RTVSPropertyOp21
 70
     1
102
RTVSPropertyOp22
 70
     1
102
RTVSPropertyOp23
 70
     1
102
RTVSPropertyOp24
 70
     1
102
RTVSPropertyOp25
 70
     1
102
RTVSPropertyOp26
 70
     1
102
RTVSPropertyOp27
 70
     1
102
RTVSPropertyOp28
 70
     1
102
RTVSPropertyOp29
 70
     1
102
RTVSPropertyOp30
 70
     1
102
RTVSPropertyOp31
 70
     1
102
RTVSPropertyOp32
 70
     1
102
RTVSPropertyOp33
 70
     1
102
RTVSPropertyOp34
 70
     1
102
RTVSPropertyOp35
 70
     1
102
RTVSPropertyOp36
 70
     1
102
RTVSPropertyOp37
 70
     1
102
RTVSPropertyOp38
 70
     1
102
RTVSPropertyOp39
 70
     1
102
RTVSPropertyOp40
 70
     1
102
RTVSPropertyOp41
 70
     1
102
RTVSPropertyOp42
 70
     1
102
RTVSPropertyOp43
 70
     1
102
RTVSPropertyOp44
 70
     1
102
RTVSPropertyOp45
 70
     1
102
RTVSPropertyOp46
 70
     1
102
RTVSPropertyOp47
 70
     1
102
RTVSPropertyOp48
 70
     1
102
RTVSPropertyOp49
 70
     1
102
RTVSPropertyOp50
 70
     1
102
RTVSPropertyOp51
 70
     0
102
RTVSPropertyOp52
 70
     0
102
RTVSPropertyOp53
 70
     1
102
RTVSPropertyOp54
 70
     1
102
RTVSPropertyOp55
 70
     1
102
RTVSPropertyOp56
 70
     1
102
RTVSPropertyOp57
 70
     1
102
RTVSPropertyOp58
 70
     1
102
RTVSPropertyOp59
 70
     1
102
RTVSPropertyOp60
 70
     1
102
RTVSPropertyOp61
 70
     1
102
RTVSPropertyOp62
 70
     1
  0
ENDSEC
  0
EOF
