  0
SECTION
  2
HEADER
  9
$ACADVER
  1
AC1015
  9
$ACADMAINTVER
 70
    20
  9
$DWGCODEPAGE
  3
ANSI_1252
  9
$INSBASE
 10
0.0
 20
0.0
 30
0.0
  9
$EXTMIN
 10
-44.8206375283421
 20
-27.6675041850219
 30
0.0
  9
$EXTMAX
 10
24.75624282628851
 20
26.17978319388701
 30
0.0
  9
$LIMMIN
 10
0.0
 20
0.0
  9
$LIMMAX
 10
420.0
 20
297.0
  9
$ORTHOMODE
 70
     0
  9
$REGENMODE
 70
     1
  9
$FILLMODE
 70
     1
  9
$QTEXTMODE
 70
     0
  9
$MIRRTEXT
 70
     0
  9
$LTSCALE
 40
23.1
  9
$ATTMODE
 70
     1
  9
$TEXTSIZE
 40
3.5
  9
$TRACEWID
 40
0.05
  9
$TEXTSTYLE
  7
STANDARD
  9
$CLAYER
  8
0
  9
$CELTYPE
  6
BYLAYER
  9
$CECOLOR
 62
   256
  9
$CELTSCALE
 40
1.0
  9
$DISPSILH
 70
     0
  9
$DIMSCALE
 40
1.0
  9
$DIMASZ
 40
4.57
  9
$DIMEXO
 40
0.0625
  9
$DIMDLI
 40
0.38
  9
$DIMRND
 40
0.0
  9
$DIMDLE
 40
0.0
  9
$DIMEXE
 40
0.18
  9
$DIMTP
 40
0.01
  9
$DIMTM
 40
0.01
  9
$DIMTXT
 40
3.5
  9
$DIMCEN
 40
0.09
  9
$DIMTSZ
 40
0.0
  9
$DIMTOL
 70
     0
  9
$DIMLIM
 70
     0
  9
$DIMTIH
 70
     0
  9
$DIMTOH
 70
     0
  9
$DIMSE1
 70
     0
  9
$DIMSE2
 70
     0
  9
$DIMTAD
 70
     1
  9
$DIMZIN
 70
     8
  9
$DIMBLK
  1

  9
$DIMASO
 70
     1
  9
$DIMSHO
 70
     1
  9
$DIMPOST
  1

  9
$DIMAPOST
  1

  9
$DIMALT
 70
     0
  9
$DIMALTD
 70
     2
  9
$DIMALTF
 40
25.4
  9
$DIMLFAC
 40
1.0
  9
$DIMTOFL
 70
     0
  9
$DIMTVP
 40
0.0
  9
$DIMTIX
 70
     0
  9
$DIMSOXD
 70
     0
  9
$DIMSAH
 70
     0
  9
$DIMBLK1
  1

  9
$DIMBLK2
  1

  9
$DIMSTYLE
  2
STANDARD
  9
$DIMCLRD
 70
     0
  9
$DIMCLRE
 70
     0
  9
$DIMCLRT
 70
     0
  9
$DIMTFAC
 40
1.0
  9
$DIMGAP
 40
0.09
  9
$DIMJUST
 70
     0
  9
$DIMSD1
 70
     0
  9
$DIMSD2
 70
     0
  9
$DIMTOLJ
 70
     1
  9
$DIMTZIN
 70
     8
  9
$DIMALTZ
 70
     0
  9
$DIMALTTZ
 70
     0
  9
$DIMUPT
 70
     0
  9
$DIMDEC
 70
     3
  9
$DIMTDEC
 70
     3
  9
$DIMALTU
 70
     2
  9
$DIMALTTD
 70
     2
  9
$DIMTXSTY
  7
STANDARD
  9
$DIMAUNIT
 70
     0
  9
$DIMADEC
 70
     0
  9
$DIMALTRND
 40
0.0
  9
$DIMAZIN
 70
     0
  9
$DIMDSEP
 70
    46
  9
$DIMATFIT
 70
     0
  9
$DIMFRAC
 70
     0
  9
$DIMLDRBLK
  1

  9
$DIMLUNIT
 70
     2
  9
$DIMLWD
 70
    -2
  9
$DIMLWE
 70
    -2
  9
$DIMTMOVE
 70
     0
  9
$LUNITS
 70
     2
  9
$LUPREC
 70
     4
  9
$SKETCHINC
 40
0.1
  9
$FILLETRAD
 40
0.0
  9
$AUNITS
 70
     0
  9
$AUPREC
 70
     0
  9
$MENU
  1
.
  9
$ELEVATION
 40
0.0
  9
$PELEVATION
 40
0.0
  9
$THICKNESS
 40
0.0
  9
$LIMCHECK
 70
     0
  9
$CHAMFERA
 40
0.0
  9
$CHAMFERB
 40
0.0
  9
$CHAMFERC
 40
0.0
  9
$CHAMFERD
 40
0.0
  9
$SKPOLY
 70
     0
  9
$TDCREATE
 40
2457351.313439815
  9
$TDUCREATE
 40
2457351.271773148
  9
$TDUPDATE
 40
2457351.338188114
  9
$TDUUPDATE
 40
2457351.296521447
  9
$TDINDWG
 40
0.0010721644
  9
$TDUSRTIMER
 40
0.0010720602
  9
$USRTIMER
 70
     1
  9
$ANGBASE
 50
0.0
  9
$ANGDIR
 70
     0
  9
$PDMODE
 70
     3
  9
$PDSIZE
 40
0.3125
  9
$PLINEWID
 40
0.0
  9
$SPLFRAME
 70
     0
  9
$SPLINETYPE
 70
     6
  9
$SPLINESEGS
 70
     8
  9
$HANDSEED
  5
20F02
  9
$SURFTAB1
 70
     6
  9
$SURFTAB2
 70
     6
  9
$SURFTYPE
 70
     6
  9
$SURFU
 70
     6
  9
$SURFV
 70
     6
  9
$UCSBASE
  2

  9
$UCSNAME
  2

  9
$UCSORG
 10
0.0
 20
0.0
 30
0.0
  9
$UCSXDIR
 10
1.0
 20
0.0
 30
0.0
  9
$UCSYDIR
 10
0.0
 20
1.0
 30
0.0
  9
$UCSORTHOREF
  2

  9
$UCSORTHOVIEW
 70
     0
  9
$UCSORGTOP
 10
0.0
 20
0.0
 30
0.0
  9
$UCSORGBOTTOM
 10
0.0
 20
0.0
 30
0.0
  9
$UCSORGLEFT
 10
0.0
 20
0.0
 30
0.0
  9
$UCSORGRIGHT
 10
0.0
 20
0.0
 30
0.0
  9
$UCSORGFRONT
 10
0.0
 20
0.0
 30
0.0
  9
$UCSORGBACK
 10
0.0
 20
0.0
 30
0.0
  9
$PUCSBASE
  2

  9
$PUCSNAME
  2

  9
$PUCSORG
 10
0.0
 20
0.0
 30
0.0
  9
$PUCSXDIR
 10
1.0
 20
0.0
 30
0.0
  9
$PUCSYDIR
 10
0.0
 20
1.0
 30
0.0
  9
$PUCSORTHOREF
  2

  9
$PUCSORTHOVIEW
 70
     0
  9
$PUCSORGTOP
 10
0.0
 20
0.0
 30
0.0
  9
$PUCSORGBOTTOM
 10
0.0
 20
0.0
 30
0.0
  9
$PUCSORGLEFT
 10
0.0
 20
0.0
 30
0.0
  9
$PUCSORGRIGHT
 10
0.0
 20
0.0
 30
0.0
  9
$PUCSORGFRONT
 10
0.0
 20
0.0
 30
0.0
  9
$PUCSORGBACK
 10
0.0
 20
0.0
 30
0.0
  9
$USERI1
 70
     0
  9
$USERI2
 70
     0
  9
$USERI3
 70
     0
  9
$USERI4
 70
     0
  9
$USERI5
 70
     0
  9
$USERR1
 40
0.0
  9
$USERR2
 40
0.0
  9
$USERR3
 40
0.0
  9
$USERR4
 40
0.0
  9
$USERR5
 40
0.0
  9
$WORLDVIEW
 70
     1
  9
$SHADEDGE
 70
     3
  9
$SHADEDIF
 70
    70
  9
$TILEMODE
 70
     1
  9
$MAXACTVP
 70
    64
  9
$PINSBASE
 10
0.0
 20
0.0
 30
0.0
  9
$PLIMCHECK
 70
     0
  9
$PEXTMIN
 10
28.69141678810127
 20
19.6363175392151
 30
0.0
  9
$PEXTMAX
 10
258.2227510929107
 20
176.7268578529358
 30
0.0
  9
$PLIMMIN
 10
-5.027069091796875
 20
-6.805083274841307
  9
$PLIMMAX
 10
291.9412536621094
 20
203.1682443618775
  9
$UNITMODE
 70
     0
  9
$VISRETAIN
 70
     1
  9
$PLINEGEN
 70
     0
  9
$PSLTSCALE
 70
     1
  9
$TREEDEPTH
 70
  3020
  9
$CMLSTYLE
  2
STANDARD
  9
$CMLJUST
 70
     0
  9
$CMLSCALE
 40
1.0
  9
$PROXYGRAPHICS
 70
     1
  9
$MEASUREMENT
 70
     1
  9
$CELWEIGHT
370
    -1
  9
$ENDCAPS
280
     0
  9
$JOINSTYLE
280
     0
  9
$LWDISPLAY
290
     0
  9
$INSUNITS
 70
     0
  9
$HYPERLINKBASE
  1

  9
$STYLESHEET
  1
A1-A2.CTB
  9
$XEDIT
290
     1
  9
$CEPSNTYPE
380
     0
  9
$PSTYLEMODE
290
     1
  9
$FINGERPRINTGUID
  2
{840DA257-58B1-436F-8C66-AB7A2A938268}
  9
$VERSIONGUID
  2
{EB70B5FF-F128-4A6E-B720-04C2C88C0BF5}
  9
$EXTNAMES
290
     1
  9
$PSVPSCALE
 40
0.0
  9
$OLESTARTUP
290
     0
  0
ENDSEC
  0
SECTION
  2
CLASSES
  0
CLASS
  1
ACDBDICTIONARYWDFLT
  2
AcDbDictionaryWithDefault
  3
ObjectDBX Classes
 90
        0
280
     0
281
     0
  0
CLASS
  1
MATERIAL
  2
AcDbMaterial
  3
ObjectDBX Classes
 90
     1153
280
     0
281
     0
  0
CLASS
  1
VISUALSTYLE
  2
AcDbVisualStyle
  3
ObjectDBX Classes
 90
     4095
280
     0
281
     0
  0
CLASS
  1
TABLESTYLE
  2
AcDbTableStyle
  3
ObjectDBX Classes
 90
     4095
280
     0
281
     0
  0
CLASS
  1
SORTENTSTABLE
  2
AcDbSortentsTable
  3
ObjectDBX Classes
 90
        0
280
     0
281
     0
  0
CLASS
  1
DICTIONARYVAR
  2
AcDbDictionaryVar
  3
ObjectDBX Classes
 90
        0
280
     0
281
     0
  0
CLASS
  1
EXACXREFPANELOBJECT
  2
ExAcXREFPanelObject
  3
EXAC_ESW
 90
    33793
280
     1
281
     0
  0
CLASS
  1
NPOCOLLECTION
  2
AcDbImpNonPersistentObjectsCollection
  3
ObjectDBX Classes
 90
    33921
280
     1
281
     0
  0
CLASS
  1
ACDBPLACEHOLDER
  2
AcDbPlaceHolder
  3
ObjectDBX Classes
 90
        0
280
     0
281
     0
  0
CLASS
  1
LAYOUT
  2
AcDbLayout
  3
ObjectDBX Classes
 90
        0
280
     0
281
     0
  0
CLASS
  1
SCALE
  2
AcDbScale
  3
ObjectDBX Classes
 90
     1153
280
     0
281
     0
  0
CLASS
  1
MLEADERSTYLE
  2
AcDbMLeaderStyle
  3
ACDB_MLEADERSTYLE_CLASS
 90
     4095
280
     0
281
     0
  0
CLASS
  1
ACDBSECTIONVIEWSTYLE
  2
AcDbSectionViewStyle
  3
ObjectDBX Classes
 90
     1025
280
     0
281
     0
  0
CLASS
  1
ACDBDETAILVIEWSTYLE
  2
AcDbDetailViewStyle
  3
ObjectDBX Classes
 90
     1025
280
     0
281
     0
  0
CLASS
  1
CELLSTYLEMAP
  2
AcDbCellStyleMap
  3
ObjectDBX Classes
 90
     1152
280
     0
281
     0
  0
CLASS
  1
ACAD_EVALUATION_GRAPH
  2
AcDbEvalGraph
  3
ObjectDBX Classes
 90
    33921
280
     0
281
     0
  0
CLASS
  1
ACAECUSTOBJ
  2
AcAeEditorObj
  3
AcAeEditorObj
 90
    33792
280
     0
281
     0
  0
CLASS
  1
ACDB_DYNAMICBLOCKPURGEPREVENTER_VERSION
  2
AcDbDynamicBlockPurgePreventer
  3
ObjectDBX Classes
 90
    33921
280
     0
281
     0
  0
CLASS
  1
DIMASSOC
  2
AcDbDimAssoc
  3
"AcDbDimAssoc|Product Desc:     AcDim ARX App For Dimension|Company:          Autodesk, Inc.|WEB Address:      www.autodesk.com"
 90
        0
280
     0
281
     0
  0
ENDSEC
  0
SECTION
  2
TABLES
  0
TABLE
  2
VPORT
  5
8
330
0
100
AcDbSymbolTable
 70
     1
  0
VPORT
  5
1F4
330
8
100
AcDbSymbolTableRecord
100
AcDbViewportTableRecord
  2
*ACTIVE
 70
     0
 10
0.0
 20
0.0
 11
1.0
 21
1.0
 12
-10.03219735102679
 22
1.318617614202274
 13
0.0
 23
0.0
 14
1.0
 24
1.0
 15
0.0
 25
0.0
 16
0.0
 26
0.0
 36
1.0
 17
0.0
 27
0.0
 37
0.0
 40
53.82059768840433
 41
2.336194563662374
 42
50.0
 43
0.0
 44
0.0
 50
0.0
 51
0.0
 71
     0
 72
  2000
 73
     1
 74
     1
 75
     0
 76
     0
 77
     0
 78
     0
281
     0
 65
     1
110
0.0
120
0.0
130
0.0
111
1.0
121
0.0
131
0.0
112
0.0
122
1.0
132
0.0
 79
     0
146
0.0
1001
ACAD_NAV_VCDISPLAY
1070
     3
  0
ENDTAB
  0
TABLE
  2
LTYPE
  5
5
330
0
100
AcDbSymbolTable
 70
     2
  0
LTYPE
  5
14
330
5
100
AcDbSymbolTableRecord
100
AcDbLinetypeTableRecord
  2
BYBLOCK
 70
     0
  3

 72
    65
 73
     0
 40
0.0
  0
LTYPE
  5
15
330
5
100
AcDbSymbolTableRecord
100
AcDbLinetypeTableRecord
  2
BYLAYER
 70
     0
  3

 72
    65
 73
     0
 40
0.0
  0
LTYPE
  5
16
330
5
100
AcDbSymbolTableRecord
100
AcDbLinetypeTableRecord
  2
CONTINUOUS
 70
     0
  3
Solid line
 72
    65
 73
     0
 40
0.0
  0
LTYPE
  5
9C48
330
5
100
AcDbSymbolTableRecord
100
AcDbLinetypeTableRecord
  2
CENTER
 70
     0
  3
____ _ ____ _ ____ _ ____ _ ____ _ ____ _ ____
 72
    65
 73
     4
 40
0.6
 49
0.375
 74
     0
 49
-0.075
 74
     0
 49
0.075
 74
     0
 49
-0.075
 74
     0
  0
ENDTAB
  0
TABLE
  2
LAYER
  5
2
102
{ACAD_XDICTIONARY
360
422A
102
}
330
0
100
AcDbSymbolTable
 70
    12
  0
LAYER
  5
10
102
{ACAD_XDICTIONARY
360
1B2F5
102
}
330
2
100
AcDbSymbolTableRecord
100
AcDbLayerTableRecord
  2
0
 70
     0
 62
     7
  6
CONTINUOUS
370
    -3
390
318A
  0
LAYER
  5
3F8C
102
{ACAD_XDICTIONARY
360
1B2F7
102
}
330
2
100
AcDbSymbolTableRecord
100
AcDbLayerTableRecord
  2
1
 70
     0
 62
     4
  6
BYBLOCK
370
    50
390
318A
  0
LAYER
  5
3FA7
330
2
100
AcDbSymbolTableRecord
100
AcDbLayerTableRecord
  2
Defpoints
 70
     0
 62
     7
  6
CONTINUOUS
290
     0
370
    -3
390
318A
  0
LAYER
  5
9C4A
102
{ACAD_XDICTIONARY
360
1B2F9
102
}
330
2
100
AcDbSymbolTableRecord
100
AcDbLayerTableRecord
  2
2
 70
     0
 62
     7
  6
BYBLOCK
370
    25
390
318A
  0
LAYER
  5
9C4B
102
{ACAD_XDICTIONARY
360
1B2FB
102
}
330
2
100
AcDbSymbolTableRecord
100
AcDbLayerTableRecord
  2
4
 70
     0
 62
     2
  6
CENTER
370
    25
390
318A
  0
LAYER
  5
9C4D
102
{ACAD_XDICTIONARY
360
1B2FD
102
}
330
2
100
AcDbSymbolTableRecord
100
AcDbLayerTableRecord
  2
CUT
 70
     0
 62
     1
  6
BYBLOCK
370
    25
390
318A
  0
LAYER
  5
9C4E
102
{ACAD_XDICTIONARY
360
1B2FF
102
}
330
2
100
AcDbSymbolTableRecord
100
AcDbLayerTableRecord
  2
NOCUT
 70
     0
 62
     7
  6
BYBLOCK
370
    25
390
318A
  0
LAYER
  5
9C4F
102
{ACAD_XDICTIONARY
360
1B301
102
}
330
2
100
AcDbSymbolTableRecord
100
AcDbLayerTableRecord
  2
SK2
 70
     0
 62
     7
  6
BYBLOCK
370
    25
390
318A
  0
LAYER
  5
9C50
102
{ACAD_XDICTIONARY
360
1B303
102
}
330
2
100
AcDbSymbolTableRecord
100
AcDbLayerTableRecord
  2
SK1
 70
     0
 62
     4
  6
BYBLOCK
370
    50
390
318A
  0
LAYER
  5
9C51
102
{ACAD_XDICTIONARY
360
1B305
102
}
330
2
100
AcDbSymbolTableRecord
100
AcDbLayerTableRecord
  2
SK4
 70
     0
 62
     2
  6
CENTER
370
    25
390
318A
  0
LAYER
  5
13335
102
{ACAD_XDICTIONARY
360
1B307
102
}
330
2
100
AcDbSymbolTableRecord
100
AcDbLayerTableRecord
  2
INFTOTAL
 70
     0
 62
     9
  6
BYBLOCK
370
    18
390
318A
1001
AcAecLayerStandard
1000

1000

  0
LAYER
  5
1686E
102
{ACAD_XDICTIONARY
360
1B309
102
}
330
2
100
AcDbSymbolTableRecord
100
AcDbLayerTableRecord
  2
SK6
 70
     0
 62
     5
  6
BYBLOCK
370
    -3
390
318A
  0
ENDTAB
  0
TABLE
  2
STYLE
  5
3
330
0
100
AcDbSymbolTable
 70
     1
  0
STYLE
  5
11
330
3
100
AcDbSymbolTableRecord
100
AcDbTextStyleTableRecord
  2
STANDARD
 70
     0
 40
3.5
 41
0.8
 50
0.0
 71
     0
 42
3.5
  3
monos.ttf
  4

1001
ACAD
1000
Monospac821 BT
1071
       49
  0
ENDTAB
  0
TABLE
  2
VIEW
  5
6
330
0
100
AcDbSymbolTable
 70
     0
  0
ENDTAB
  0
TABLE
  2
UCS
  5
7
330
0
100
AcDbSymbolTable
 70
     0
  0
ENDTAB
  0
TABLE
  2
APPID
  5
9
330
0
100
AcDbSymbolTable
 70
    14
  0
APPID
  5
23B
330
9
100
AcDbSymbolTableRecord
100
AcDbRegAppTableRecord
  2
ACAD
 70
     0
  0
APPID
  5
3395
330
9
100
AcDbSymbolTableRecord
100
AcDbRegAppTableRecord
  2
ACAD_EXEMPT_FROM_CAD_STANDARDS
 70
     0
  0
APPID
  5
4229
330
9
100
AcDbSymbolTableRecord
100
AcDbRegAppTableRecord
  2
AcAecLayerStandard
 70
     0
  0
APPID
  5
9A1B
330
9
100
AcDbSymbolTableRecord
100
AcDbRegAppTableRecord
  2
ACAD_PSEXT
 70
     0
  0
APPID
  5
1B313
330
9
100
AcDbSymbolTableRecord
100
AcDbRegAppTableRecord
  2
ACAD_NAV_VCDISPLAY
 70
     0
  0
APPID
  5
1B355
330
9
100
AcDbSymbolTableRecord
100
AcDbRegAppTableRecord
  2
ACAD_MLEADERVER
 70
     0
  0
APPID
  5
1EC7F
330
9
100
AcDbSymbolTableRecord
100
AcDbRegAppTableRecord
  2
ACAUTHENVIRON
 70
     0
  0
APPID
  5
1EC82
330
9
100
AcDbSymbolTableRecord
100
AcDbRegAppTableRecord
  2
AcDbDynamicBlockTrueName
 70
     0
  0
APPID
  5
1EC83
330
9
100
AcDbSymbolTableRecord
100
AcDbRegAppTableRecord
  2
AcDbDynamicBlockGUID
 70
     0
  0
APPID
  5
20A85
330
9
100
AcDbSymbolTableRecord
100
AcDbRegAppTableRecord
  2
AcCmTransparency
 70
     0
  0
APPID
  5
20B25
330
9
100
AcDbSymbolTableRecord
100
AcDbRegAppTableRecord
  2
ACAD_DSTYLE_DIMJAG
 70
     0
  0
APPID
  5
20B26
330
9
100
AcDbSymbolTableRecord
100
AcDbRegAppTableRecord
  2
ACAD_DSTYLE_DIMBREAK
 70
     0
  0
APPID
  5
20B27
330
9
100
AcDbSymbolTableRecord
100
AcDbRegAppTableRecord
  2
ACAD_DSTYLE_DIMTALN
 70
     0
  0
APPID
  5
20B28
330
9
100
AcDbSymbolTableRecord
100
AcDbRegAppTableRecord
  2
ACAD_DSTYLE_DIMRADIAL_EXTENSION
 70
     0
  0
ENDTAB
  0
TABLE
  2
DIMSTYLE
  5
A
330
0
100
AcDbSymbolTable
 70
     1
100
AcDbDimStyleTable
 71
     1
340
243
  0
DIMSTYLE
105
243
102
{ACAD_REACTORS
330
20D74
330
20D77
330
20D7F
102
}
330
A
100
AcDbSymbolTableRecord
100
AcDbDimStyleTableRecord
  2
STANDARD
 70
     0
 41
4.57
 47
0.01
 48
0.01
 73
     0
 74
     0
 77
     1
 78
     8
140
3.5
271
     3
272
     3
284
     8
289
     0
340
11
  0
ENDTAB
  0
TABLE
  2
BLOCK_RECORD
  5
1
330
0
100
AcDbSymbolTable
 70
     4
  0
BLOCK_RECORD
  5
1F
102
{ACAD_XDICTIONARY
360
339C
102
}
330
1
100
AcDbSymbolTableRecord
100
AcDbBlockTableRecord
  2
*MODEL_SPACE
340
31A6
  0
BLOCK_RECORD
  5
1B
330
1
100
AcDbSymbolTableRecord
100
AcDbBlockTableRecord
  2
*PAPER_SPACE
340
31A7
  0
BLOCK_RECORD
  5
1B3D7
102
{ACAD_XDICTIONARY
360
1DE81
102
}
330
1
100
AcDbSymbolTableRecord
100
AcDbBlockTableRecord
  2
cero_point
340
0
310
28000000200000002000000001002000000000000010000001000000010000000000000000000000302821FF302821FF302821FF302821FF302821FF302821FF302821FF302821FF302821FF302821FF302821FF302821FF302821FF302821FF302821FF302821FF302821FF302821FF302821FF302821FF302821FF302821
310
FF302821FF302821FF302821FF302821FF302821FF302821FF302821FF302821FF302821FF302821FF302821FF302821FF302821FF302821FF302821FF302821FF302821FF302821FF302821FF302821FF302821FF302821FF302821FF302821FF302821FFFFFF00FFFFFF00FFFFFF00FF302821FF302821FF302821FF3028
310
21FF302821FF302821FF302821FF302821FF302821FF302821FF302821FF302821FF302821FF302821FF302821FF302821FF302821FF302821FF302821FF302821FF302821FF302821FF302821FF302821FFFFFF00FFFFFF00FFFFFF00FFFFFF00FFFFFF00FFFFFF00FFFFFF00FF302821FFFFFF00FFFFFF00FFFFFF00FF30
310
2821FF302821FF302821FF302821FF302821FF302821FF302821FF302821FF302821FF302821FF302821FF302821FF302821FF302821FF302821FF302821FF302821FF302821FF302821FFFFFF00FFFFFF00FFFFFF00FFFFFF00FFFFFF00FFFFFF00FFFFFF00FFFFFF00FFFFFF00FF302821FF302821FF302821FF302821FF
310
FFFF00FFFFFF00FF302821FF302821FF302821FF302821FF302821FF302821FF302821FF302821FF302821FF302821FF302821FF302821FF302821FF302821FF302821FF302821FFFFFF00FFFFFF00FFFFFF00FFFFFF00FFFFFF00FFFFFF00FFFFFF00FFFFFF00FFFFFF00FFFFFF00FF302821FF302821FF302821FF302821
310
FF302821FF302821FFFFFF00FFFFFF00FF302821FF302821FF302821FF302821FF302821FF302821FF302821FF302821FF302821FF302821FF302821FF302821FF302821FFFFFF00FFFFFF00FFFFFF00FFFFFF00FFFFFF00FFFFFF00FFFFFF00FFFFFF00FFFFFF00FFFFFF00FFFFFF00FF302821FF302821FF302821FF3028
310
21FF302821FF302821FF302821FF302821FFFFFF00FF302821FF302821FF302821FF302821FF302821FF302821FF302821FF302821FF302821FF302821FF302821FFFFFF00FFFFFF00FFFFFF00FFFFFF00FFFFFF00FFFFFF00FFFFFF00FFFFFF00FFFFFF00FFFFFF00FFFFFF00FFFFFF00FF302821FF302821FF302821FF30
310
2821FF302821FF302821FF302821FF302821FF302821FFFFFF00FF302821FF302821FF302821FF302821FF302821FF302821FF302821FF302821FF302821FFFFFF00FFFFFF00FFFFFF00FFFFFF00FFFFFF00FFFFFF00FFFFFF00FFFFFF00FFFFFF00FFFFFF00FFFFFF00FFFFFF00FFFFFF00FF302821FF302821FF302821FF
310
302821FF302821FF302821FF302821FF302821FF302821FF302821FFFFFF00FF302821FF302821FF302821FF302821FF302821FF302821FF302821FFFFFF00FFFFFF00FFFFFF00FFFFFF00FFFFFF00FFFFFF00FFFFFF00FFFFFF00FFFFFF00FFFFFF00FFFFFF00FFFFFF00FFFFFF00FFFFFF00FF302821FF302821FF302821
310
FF302821FF302821FF302821FF302821FF302821FF302821FF302821FFFFFF00FF302821FF302821FF302821FF302821FF302821FF302821FF302821FFFFFF00FFFFFF00FFFFFF00FFFFFF00FFFFFF00FFFFFF00FFFFFF00FFFFFF00FFFFFF00FFFFFF00FFFFFF00FFFFFF00FFFFFF00FFFFFF00FF302821FF302821FF3028
310
21FF302821FF302821FF302821FF302821FF302821FF302821FF302821FF302821FFFFFF00FF302821FF302821FF302821FF302821FF302821FFFFFF00FFFFFF00FFFFFF00FFFFFF00FFFFFF00FFFFFF00FFFFFF00FFFFFF00FFFFFF00FFFFFF00FFFFFF00FFFFFF00FFFFFF00FFFFFF00FFFFFF00FF302821FF302821FF30
310
2821FF302821FF302821FF302821FF302821FF302821FF302821FF302821FF302821FF302821FFFFFF00FF302821FF302821FF302821FF302821FFFFFF00FFFFFF00FFFFFF00FFFFFF00FFFFFF00FFFFFF00FFFFFF00FFFFFF00FFFFFF00FFFFFF00FFFFFF00FFFFFF00FFFFFF00FFFFFF00FFFFFF00FF302821FF302821FF
310
302821FF302821FF302821FF302821FF302821FF302821FF302821FF302821FF302821FF302821FFFFFF00FF302821FF302821FF302821FF302821FFFFFF00FFFFFF00FFFFFF00FFFFFF00FFFFFF00FFFFFF00FFFFFF00FFFFFF00FFFFFF00FFFFFF00FFFFFF00FFFFFF00FFFFFF00FFFFFF00FFFFFF00FF302821FF302821
310
FF302821FF302821FF302821FF302821FF302821FF302821FF302821FF302821FF302821FF302821FFFFFF00FF302821FF302821FF302821FF302821FFFFFF00FFFFFF00FFFFFF00FFFFFF00FFFFFF00FFFFFF00FFFFFF00FFFFFF00FFFFFF00FFFFFF00FFFFFF00FFFFFF00FFFFFF00FFFFFF00FFFFFF00FF302821FF3028
310
21FF302821FF302821FF302821FF302821FF302821FF302821FF302821FF302821FF302821FF302821FFFFFF00FF302821FF302821FF302821FFFFFF00FFFFFF00FFFFFF00FFFFFF00FFFFFF00FFFFFF00FFFFFF00FFFFFF00FFFFFF00FFFFFF00FFFFFF00FFFFFF00FFFFFF00FFFFFF00FFFFFF00FFFFFF00FF302821FF30
310
2821FF302821FF302821FF302821FF302821FF302821FF302821FF302821FF302821FF302821FF302821FF302821FFFFFF00FF302821FF302821FFFFFF00FFFFFF00FFFFFF00FFFFFF00FFFFFF00FFFFFF00FFFFFF00FFFFFF00FFFFFF00FFFFFF00FFFFFF00FFFFFF00FFFFFF00FFFFFF00FFFFFF00FFFFFF00FFFFFF00FF
310
FFFF00FFFFFF00FFFFFF00FFFFFF00FFFFFF00FFFFFF00FFFFFF00FFFFFF00FFFFFF00FFFFFF00FFFFFF00FFFFFF00FFFFFF00FF302821FF302821FFFFFF00FF302821FF302821FF302821FF302821FF302821FF302821FF302821FF302821FF302821FF302821FF302821FF302821FF302821FF302821FFFFFF00FFFFFF00
310
FFFFFF00FFFFFF00FFFFFF00FFFFFF00FFFFFF00FFFFFF00FFFFFF00FFFFFF00FFFFFF00FFFFFF00FFFFFF00FFFFFF00FFFFFF00FF302821FF302821FFFFFF00FF302821FF302821FF302821FF302821FF302821FF302821FF302821FF302821FF302821FF302821FF302821FF302821FF302821FF302821FFFFFF00FFFFFF
310
00FFFFFF00FFFFFF00FFFFFF00FFFFFF00FFFFFF00FFFFFF00FFFFFF00FFFFFF00FFFFFF00FFFFFF00FFFFFF00FFFFFF00FF302821FF302821FF302821FF302821FFFFFF00FF302821FF302821FF302821FF302821FF302821FF302821FF302821FF302821FF302821FF302821FF302821FF302821FF302821FFFFFF00FFFF
310
FF00FFFFFF00FFFFFF00FFFFFF00FFFFFF00FFFFFF00FFFFFF00FFFFFF00FFFFFF00FFFFFF00FFFFFF00FFFFFF00FFFFFF00FF302821FF302821FF302821FF302821FFFFFF00FF302821FF302821FF302821FF302821FF302821FF302821FF302821FF302821FF302821FF302821FF302821FF302821FF302821FFFFFF00FF
310
FFFF00FFFFFF00FFFFFF00FFFFFF00FFFFFF00FFFFFF00FFFFFF00FFFFFF00FFFFFF00FFFFFF00FFFFFF00FFFFFF00FFFFFF00FF302821FF302821FF302821FF302821FFFFFF00FF302821FF302821FF302821FF302821FF302821FF302821FF302821FF302821FF302821FF302821FF302821FF302821FF302821FFFFFF00
310
FFFFFF00FFFFFF00FFFFFF00FFFFFF00FFFFFF00FFFFFF00FFFFFF00FFFFFF00FFFFFF00FFFFFF00FFFFFF00FFFFFF00FFFFFF00FF302821FF302821FF302821FF302821FF302821FFFFFF00FF302821FF302821FF302821FF302821FF302821FF302821FF302821FF302821FF302821FF302821FF302821FF302821FFFFFF
310
00FFFFFF00FFFFFF00FFFFFF00FFFFFF00FFFFFF00FFFFFF00FFFFFF00FFFFFF00FFFFFF00FFFFFF00FFFFFF00FFFFFF00FFFFFF00FF302821FF302821FF302821FF302821FF302821FFFFFF00FF302821FF302821FF302821FF302821FF302821FF302821FF302821FF302821FF302821FF302821FF302821FF302821FFFF
310
FF00FFFFFF00FFFFFF00FFFFFF00FFFFFF00FFFFFF00FFFFFF00FFFFFF00FFFFFF00FFFFFF00FFFFFF00FFFFFF00FFFFFF00FF302821FF302821FF302821FF302821FF302821FF302821FF302821FFFFFF00FF302821FF302821FF302821FF302821FF302821FF302821FF302821FF302821FF302821FF302821FF302821FF
310
FFFF00FFFFFF00FFFFFF00FFFFFF00FFFFFF00FFFFFF00FFFFFF00FFFFFF00FFFFFF00FFFFFF00FFFFFF00FFFFFF00FFFFFF00FF302821FF302821FF302821FF302821FF302821FF302821FF302821FFFFFF00FF302821FF302821FF302821FF302821FF302821FF302821FF302821FF302821FF302821FF302821FF302821
310
FFFFFF00FFFFFF00FFFFFF00FFFFFF00FFFFFF00FFFFFF00FFFFFF00FFFFFF00FFFFFF00FFFFFF00FFFFFF00FFFFFF00FF302821FF302821FF302821FF302821FF302821FF302821FF302821FF302821FF302821FFFFFF00FF302821FF302821FF302821FF302821FF302821FF302821FF302821FF302821FF302821FF3028
310
21FFFFFF00FFFFFF00FFFFFF00FFFFFF00FFFFFF00FFFFFF00FFFFFF00FFFFFF00FFFFFF00FFFFFF00FFFFFF00FF302821FF302821FF302821FF302821FF302821FF302821FF302821FF302821FF302821FF302821FF302821FFFFFF00FF302821FF302821FF302821FF302821FF302821FF302821FF302821FF302821FF30
310
2821FFFFFF00FFFFFF00FFFFFF00FFFFFF00FFFFFF00FFFFFF00FFFFFF00FFFFFF00FFFFFF00FFFFFF00FF302821FF302821FF302821FF302821FF302821FF302821FF302821FF302821FF302821FF302821FF302821FF302821FF302821FFFFFF00FF302821FF302821FF302821FF302821FF302821FF302821FF302821FF
310
302821FFFFFF00FFFFFF00FFFFFF00FFFFFF00FFFFFF00FFFFFF00FFFFFF00FFFFFF00FFFFFF00FF302821FF302821FF302821FF302821FF302821FF302821FF302821FF302821FF302821FF302821FF302821FF302821FF302821FF302821FF302821FFFFFF00FFFFFF00FF302821FF302821FF302821FF302821FF302821
310
FF302821FFFFFF00FFFFFF00FFFFFF00FFFFFF00FFFFFF00FFFFFF00FFFFFF00FFFFFF00FF302821FF302821FF302821FF302821FF302821FF302821FF302821FF302821FF302821FF302821FF302821FF302821FF302821FF302821FF302821FF302821FF302821FF302821FFFFFF00FFFFFF00FFFFFF00FFFFFF00FFFFFF
310
00FF302821FFFFFF00FFFFFF00FFFFFF00FFFFFF00FFFFFF00FFFFFF00FF302821FF302821FF302821FF302821FF302821FF302821FF302821FF302821FF302821FF302821FF302821FF302821FF302821FF302821FF302821FF302821FF302821FF302821FF302821FF302821FF302821FF302821FF302821FF302821FF30
310
2821FFFFFF00FFFFFF00FFFFFF00FF302821FF302821FF302821FF302821FF302821FF302821FF302821FF302821FF302821FF302821FF302821FF302821FF302821FF302821FF302821FF302821FF302821FF302821FF302821FF302821FF302821FF302821FF302821FF302821FF302821FF302821FF302821FF302821FF
310
302821FF302821FF302821FF302821FF302821FF302821FF302821FF302821FF302821FF302821FF302821FF302821FF302821FF302821FF302821FF302821FF302821FF302821FF
102
{BLKREFS
331
20D78
102
}
  0
BLOCK_RECORD
  5
20D82
330
1
100
AcDbSymbolTableRecord
100
AcDbBlockTableRecord
  2
*D1
340
0
  0
BLOCK_RECORD
  5
20D8C
330
1
100
AcDbSymbolTableRecord
100
AcDbBlockTableRecord
  2
*D2
340
0
  0
BLOCK_RECORD
  5
20DA0
330
1
100
AcDbSymbolTableRecord
100
AcDbBlockTableRecord
  2
*D3
340
0
  0
ENDTAB
  0
ENDSEC
  0
SECTION
  2
BLOCKS
  0
BLOCK
  5
20
330
1F
100
AcDbEntity
  8
0
100
AcDbBlockBegin
  2
*MODEL_SPACE
 70
     0
 10
0.0
 20
0.0
 30
0.0
  3
*MODEL_SPACE
  1

  0
ENDBLK
  5
21
330
1F
100
AcDbEntity
  8
0
100
AcDbBlockEnd
  0
BLOCK
  5
1C
330
1B
100
AcDbEntity
 67
     1
  8
0
100
AcDbBlockBegin
  2
*PAPER_SPACE
 70
     0
 10
0.0
 20
0.0
 30
0.0
  3
*PAPER_SPACE
  1

  0
ENDBLK
  5
1D
330
1B
100
AcDbEntity
 67
     1
  8
0
100
AcDbBlockEnd
  0
BLOCK
  5
1B3D8
330
1B3D7
100
AcDbEntity
  8
0
100
AcDbBlockBegin
  2
cero_point
 70
     0
 10
0.0
 20
0.0
 30
0.0
  3
cero_point
  1

  0
HATCH
  5
1B3DA
330
1B3D7
100
AcDbEntity
  8
1
  6
ByBlock
370
    50
100
AcDbHatch
 10
0.0
 20
0.0
 30
0.0
210
0.0
220
0.0
230
1.0
  2
SOLID
 70
     1
 71
     0
 91
        2
 92
        7
 72
     1
 73
     1
 93
        3
 10
-0.0000000000001137
 20
0.0
 42
0.0
 10
-2.950972054112752
 20
0.0
 42
0.4142135623730968
 10
-0.0000000000001137
 20
-2.950972054112583
 42
0.0
 97
        0
 92
        7
 72
     1
 73
     1
 93
        3
 10
-0.0000000000001137
 20
2.950972054112638
 42
0.0
 10
-0.0000000000001137
 20
0.0
 42
0.0
 10
2.950972054112526
 20
0.0
 42
0.4142135623730966
 97
        0
 75
     0
 76
     1
 47
0.1190009775223266
 98
        2
 10
-0.7445530588121301
 20
-0.9212244733764125
 10
1.279464601852737
 20
1.696796923046345
  0
LWPOLYLINE
  5
1B3DB
330
1B3D7
100
AcDbEntity
  8
1
  6
ByBlock
370
    50
100
AcDbPolyline
 90
        3
 70
     1
 43
0.0
 10
-0.0000000000001137
 20
0.0
 10
2.950972054112526
 20
0.0
 42
0.4142135623730966
 10
-0.0000000000001137
 20
2.950972054112638
  0
LINE
  5
1B3DC
330
1B3D7
100
AcDbEntity
  8
1
  6
ByBlock
370
    50
100
AcDbLine
 10
-0.0000000000001137
 20
-2.950972054112583
 30
0.0
 11
-0.0000000000001137
 21
2.950972054112638
 31
0.0
  0
LWPOLYLINE
  5
1B3DD
330
1B3D7
100
AcDbEntity
  8
1
  6
ByBlock
370
    50
100
AcDbPolyline
 90
        3
 70
     1
 43
0.0
 10
-0.0000000000001137
 20
-2.950972054112583
 10
-0.0000000000001137
 20
0.0
 10
-2.950972054112752
 20
0.0
 42
0.4142135623730966
  0
LINE
  5
1B3DE
330
1B3D7
100
AcDbEntity
  8
1
  6
ByBlock
370
    50
100
AcDbLine
 10
2.950972054112638
 20
0.0
 30
0.0
 11
-2.950972054112638
 21
0.0
 31
0.0
  0
CIRCLE
  5
1B3DF
330
1B3D7
100
AcDbEntity
  8
1
  6
ByBlock
370
    50
100
AcDbCircle
 10
-0.0000000000001137
 20
0.0
 30
0.0
 40
2.950972054112601
  0
ENDBLK
  5
1B3D9
330
1B3D7
100
AcDbEntity
  8
0
100
AcDbBlockEnd
  0
BLOCK
  5
20D83
330
20D82
100
AcDbEntity
  8
0
100
AcDbBlockBegin
  2
*D1
 70
     1
 10
0.0
 20
0.0
 30
0.0
  3
*D1
  1

  0
LINE
  5
20E1B
330
20D82
100
AcDbEntity
  8
2
 62
     0
370
    -2
100
AcDbLine
 10
7.245326291576217
 20
10.49202276316637
 30
0.0
 11
23.58547891047875
 21
18.21452786330821
 31
0.0
  0
SOLID
  5
20E1C
330
20D82
100
AcDbEntity
  8
2
 62
     0
100
AcDbTrace
 10
6.919871989106527
 20
11.18065590796487
 30
0.0
 11
7.570780594045904
 21
9.803389618367862
 31
0.0
 12
3.113527422785181
 22
8.539296948348237
 32
0.0
 13
3.113527422785181
 23
8.539296948348237
 33
0.0
  0
MTEXT
  5
20E1D
330
20D82
100
AcDbEntity
  8
2
 62
     0
100
AcDbMText
 10
16.66881007938178
 20
17.048800900526
 30
0.0
 40
3.5
 41
0.0
 71
     5
 72
     1
  1
\A1;R0.591
 11
0.9041135380286727
 21
0.4272923008354772
 31
0.0
 73
     1
 44
1.0
1001
ACAD
1000
MTEXTBEGIN
1070
    73
1070
     1
1070
    44
1040
1.0
1070
    74
1070
     0
1000
MTEXTEND
  0
LINE
  5
20E1E
330
20D82
100
AcDbEntity
  8
2
 62
     0
370
    -2
100
AcDbLine
 10
2.489257353803655
 20
8.286796042830985
 30
0.0
 11
2.669257353803653
 21
8.286796042830985
 31
0.0
  0
LINE
  5
20E1F
330
20D82
100
AcDbEntity
  8
2
 62
     0
370
    -2
100
AcDbLine
 10
2.579257353803654
 20
8.196796042830985
 30
0.0
 11
2.579257353803654
 21
8.376796042830985
 31
0.0
  0
POINT
  5
20E20
330
20D82
100
AcDbEntity
  8
Defpoints
 62
     0
100
AcDbPoint
 10
3.113527422785181
 20
8.539296948348237
 30
0.0
  0
POINT
  5
20E21
330
20D82
100
AcDbEntity
  8
Defpoints
 62
     0
100
AcDbPoint
 10
2.579257353803654
 20
8.286796042830985
 30
0.0
  0
ENDBLK
  5
20D84
330
20D82
100
AcDbEntity
  8
0
100
AcDbBlockEnd
  0
BLOCK
  5
20D8D
330
20D8C
100
AcDbEntity
  8
0
100
AcDbBlockBegin
  2
*D2
 70
     1
 10
0.0
 20
0.0
 30
0.0
  3
*D2
  1

  0
LINE
  5
20EAE
330
20D8C
100
AcDbEntity
  8
2
 62
     0
370
    -2
100
AcDbLine
 10
3.189906127509459
 20
8.314743384313246
 30
0.0
 11
3.189906127509459
 21
18.73806015657676
 31
0.0
  0
LINE
  5
20EAF
330
20D8C
100
AcDbEntity
  8
2
 62
     0
370
    -2
100
AcDbLine
 10
1.990094275404145
 20
8.314752351776531
 30
0.0
 11
1.990094275404146
 21
18.73806015657676
 31
0.0
  0
LINE
  5
20EB0
330
20D8C
100
AcDbEntity
  8
2
 62
     0
370
    -2
100
AcDbLine
 10
7.759906127509459
 20
18.55806015657676
 30
0.0
 11
12.32990612750946
 21
18.55806015657676
 31
0.0
  0
LINE
  5
20EB1
330
20D8C
100
AcDbEntity
  8
2
 62
     0
370
    -2
100
AcDbLine
 10
-2.579905724595853
 20
18.55806015657676
 30
0.0
 11
-17.90537980760617
 21
18.55806015657676
 31
0.0
  0
LINE
  5
20EB2
330
20D8C
100
AcDbEntity
  8
2
 62
     0
370
    -2
100
AcDbLine
 10
3.189906127509459
 20
18.55806015657676
 30
0.0
 11
1.990094275404146
 21
18.55806015657676
 31
0.0
  0
SOLID
  5
20EB3
330
20D8C
100
AcDbEntity
  8
2
 62
     0
100
AcDbTrace
 10
7.759906127509459
 20
19.31972682324343
 30
0.0
 11
7.759906127509459
 21
17.79639348991009
 31
0.0
 12
3.189906127509459
 22
18.55806015657676
 32
0.0
 13
3.189906127509459
 23
18.55806015657676
 33
0.0
  0
SOLID
  5
20EB4
330
20D8C
100
AcDbEntity
  8
2
 62
     0
100
AcDbTrace
 10
-2.579905724595853
 20
19.31972682324343
 30
0.0
 11
-2.579905724595853
 21
17.79639348991009
 31
0.0
 12
1.990094275404146
 22
18.55806015657676
 32
0.0
 13
1.990094275404146
 23
18.55806015657676
 33
0.0
  0
MTEXT
  5
20EB5
330
20D8C
100
AcDbEntity
  8
2
 62
     0
100
AcDbMText
 10
-14.55691178230751
 20
20.40912832242356
 30
0.0
 40
3.5
 41
0.0
 71
     5
 72
     1
  1
\A1;1.2
 73
     1
 44
1.0
1001
ACAD
1000
MTEXTBEGIN
1070
    73
1070
     1
1070
    44
1040
1.0
1070
    74
1070
     0
1000
MTEXTEND
  0
POINT
  5
20EB6
330
20D8C
100
AcDbEntity
  8
Defpoints
 62
     0
100
AcDbPoint
 10
3.189906127509459
 20
8.252243384313246
 30
0.0
  0
POINT
  5
20EB7
330
20D8C
100
AcDbEntity
  8
Defpoints
 62
     0
100
AcDbPoint
 10
1.990094275404145
 20
8.252252351776531
 30
0.0
  0
POINT
  5
20EB8
330
20D8C
100
AcDbEntity
  8
Defpoints
 62
     0
100
AcDbPoint
 10
1.990094275404146
 20
18.55806015657676
 30
0.0
  0
ENDBLK
  5
20D8E
330
20D8C
100
AcDbEntity
  8
0
100
AcDbBlockEnd
  0
BLOCK
  5
20DA1
330
20DA0
100
AcDbEntity
  8
0
100
AcDbBlockBegin
  2
*D3
 70
     1
 10
0.0
 20
0.0
 30
0.0
  3
*D3
  1

  0
LINE
  5
20E35
330
20DA0
100
AcDbEntity
  8
2
  6
ByBlock
 62
     0
370
    -2
100
AcDbLine
 10
2.652500354169886
 20
8.850000000000591
 30
0.0
 11
15.76322050784534
 21
8.850000000000587
 31
0.0
  0
LINE
  5
20E36
330
20DA0
100
AcDbEntity
  8
2
  6
ByBlock
 62
     0
370
    -2
100
AcDbLine
 10
2.652500354169886
 20
-8.850000000000591
 30
0.0
 11
15.76322050784534
 21
-8.850000000000592
 31
0.0
  0
LINE
  5
20E37
330
20DA0
100
AcDbEntity
  8
2
  6
ByBlock
 62
     0
370
    -2
100
AcDbLine
 10
15.58322050784534
 20
4.280000000000587
 30
0.0
 11
15.58322050784534
 21
-4.280000000000593
 31
0.0
  0
SOLID
  5
20E38
330
20DA0
100
AcDbEntity
  8
2
 62
     0
100
AcDbTrace
 10
14.82155384117867
 20
4.280000000000587
 30
0.0
 11
16.34488717451201
 21
4.280000000000587
 31
0.0
 12
15.58322050784534
 22
8.850000000000587
 32
0.0
 13
15.58322050784534
 23
8.850000000000587
 33
0.0
  0
SOLID
  5
20E39
330
20DA0
100
AcDbEntity
  8
2
 62
     0
100
AcDbTrace
 10
14.82155384117867
 20
-4.280000000000593
 30
0.0
 11
16.34488717451201
 21
-4.280000000000593
 31
0.0
 12
15.58322050784534
 22
-8.850000000000592
 32
0.0
 13
15.58322050784534
 23
-8.850000000000592
 33
0.0
  0
MTEXT
  5
20E3A
330
20DA0
100
AcDbEntity
  8
2
 62
     0
100
AcDbMText
 10
13.63007925696691
 20
0.0000000000000145
 30
0.0
 40
3.5
 41
0.0
 71
     5
 72
     1
  1
\A1;%%C17.7
 11
0.0000000000000001
 21
1.0
 31
0.0
 73
     1
 44
1.0
1001
ACAD
1000
MTEXTBEGIN
1070
    73
1070
     1
1070
    44
1040
1.0
1070
    74
1070
     0
1000
MTEXTEND
  0
POINT
  5
20E3B
330
20DA0
100
AcDbEntity
  8
Defpoints
 62
     0
100
AcDbPoint
 10
2.590000354169886
 20
8.850000000000591
 30
0.0
  0
POINT
  5
20E3C
330
20DA0
100
AcDbEntity
  8
Defpoints
 62
     0
100
AcDbPoint
 10
2.590000354169886
 20
-8.850000000000591
 30
0.0
  0
POINT
  5
20E3D
330
20DA0
100
AcDbEntity
  8
Defpoints
 62
     0
100
AcDbPoint
 10
15.58322050784534
 20
-8.850000000000592
 30
0.0
  0
ENDBLK
  5
20DA2
330
20DA0
100
AcDbEntity
  8
0
100
AcDbBlockEnd
  0
ENDSEC
  0
SECTION
  2
ENTITIES
  0
LINE
  5
20C5A
330
1F
100
AcDbEntity
  8
1
 48
0.014982
100
AcDbLine
 10
2.889388999999937
 20
-3.069643000000013
 30
0.0
 11
2.290109000000029
 21
-3.069643000000013
 31
0.0
  0
LINE
  5
20C5B
330
1F
100
AcDbEntity
  8
1
 48
0.000299
100
AcDbLine
 10
3.189726999999833
 20
-4.339426000000003
 30
0.0
 11
3.189726999999833
 21
-4.351371999999996
 31
0.0
  0
LINE
  5
20C5C
330
1F
100
AcDbEntity
  8
1
 48
0.041619
100
AcDbLine
 10
2.02477599999986
 20
-3.039073999999998
 30
0.0
 11
0.3600000000000136
 21
-3.039073999999998
 31
0.0
  0
LINE
  5
20C5D
330
1F
100
AcDbEntity
  8
1
 48
0.027339
100
AcDbLine
 10
0.3600000000000136
 20
-4.132616000000012
 30
0.0
 11
0.3600000000000136
 21
-3.039073999999998
 31
0.0
  0
LINE
  5
20C5E
330
1F
100
AcDbEntity
  8
1
 48
0.043679
100
AcDbLine
 10
2.107147999999938
 20
-4.132616000000012
 30
0.0
 11
0.3600000000000136
 21
-4.132616000000012
 31
0.0
  0
LINE
  5
20C5F
330
1F
100
AcDbEntity
  8
1
 48
0.014553
100
AcDbLine
 10
2.988334000000008
 20
4.705026000000002
 30
0.0
 11
2.887252999999986
 21
4.13176700000011
 31
0.0
  0
LINE
  5
20C60
330
1F
100
AcDbEntity
  8
1
 48
0.065708
100
AcDbLine
 10
2.988334000000008
 20
4.705026000000002
 30
0.0
 11
0.3600000000000136
 21
4.705026000000002
 31
0.0
  0
LINE
  5
20C61
330
1F
100
AcDbEntity
  8
1
 48
0.014331
100
AcDbLine
 10
0.3600000000000136
 20
4.13176700000011
 30
0.0
 11
0.3600000000000136
 21
4.705026000000002
 31
0.0
  0
LINE
  5
20C62
330
1F
100
AcDbEntity
  8
1
 48
0.063181
100
AcDbLine
 10
2.887252999999986
 20
4.13176700000011
 30
0.0
 11
0.3600000000000136
 21
4.13176700000011
 31
0.0
  0
LINE
  5
20C63
330
1F
100
AcDbEntity
  8
1
 48
0.207498
100
AcDbLine
 10
0.0749999999999318
 20
-4.420544000000005
 30
0.0
 11
0.0749999999999318
 21
3.879392999999993
 31
0.0
  0
LINE
  5
20C64
330
1F
100
AcDbEntity
  8
1
 48
0.013529
100
AcDbLine
 10
0.0749999999999318
 20
3.879392999999993
 30
0.0
 11
0.0749999999999318
 21
4.420544000000005
 31
0.0
  0
LINE
  5
20C65
330
1F
100
AcDbEntity
  8
1
 48
0.207498
100
AcDbLine
 10
0.0
 20
-4.420544000000005
 30
0.0
 11
0.0
 21
3.879392999999993
 31
0.0
  0
LINE
  5
20C66
330
1F
100
AcDbEntity
  8
1
 48
0.013529
100
AcDbLine
 10
0.0
 20
3.879392999999993
 30
0.0
 11
0.0
 21
4.420544000000005
 31
0.0
  0
LINE
  5
20C67
330
1F
100
AcDbEntity
  8
SK1
 48
0.044057
100
AcDbLine
 10
-0.1895329999999831
 20
-3.385266999999998
 30
0.0
 11
-0.1895329999999831
 21
-1.62298299999989
 31
0.0
  0
LINE
  5
20C68
330
1F
100
AcDbEntity
  8
SK1
 48
0.125206
100
AcDbLine
 10
-0.1895329999999831
 20
-1.62298299999989
 30
0.0
 11
-0.1895329999999831
 21
3.385266999999998
 31
0.0
  0
LINE
  5
20C69
330
1F
100
AcDbEntity
  8
SK1
 48
0.043259
100
AcDbLine
 10
-1.360000000000012
 20
-3.323924999999888
 30
0.0
 11
-1.360000000000012
 21
-1.593575000000014
 31
0.0
  0
LINE
  5
20C6A
330
1F
100
AcDbEntity
  8
SK1
 48
0.122938
100
AcDbLine
 10
-1.360000000000012
 20
-1.593575000000014
 30
0.0
 11
-1.360000000000012
 21
3.323925000000001
 31
0.0
  0
LINE
  5
20C6B
330
1F
100
AcDbEntity
  8
SK1
 48
0.041386
100
AcDbLine
 10
-1.551978000000076
 20
-3.180000000000006
 30
0.0
 11
-1.551978000000076
 21
-1.524573000000003
 31
0.0
  0
ARC
  5
20C6C
330
1F
100
AcDbEntity
  8
SK1
100
AcDbCircle
 10
7.706886999999937
 20
1.199736999999998
 30
0.0
 40
9.276099999999999
100
AcDbArc
 50
183.5648379999994
 51
187.4316580000003
  0
SPLINE
  5
20C6D
330
1F
100
AcDbEntity
  8
SK1
100
AcDbSpline
210
0.0
220
0.0
230
1.0
 70
     8
 71
     5
 72
    18
 73
    12
 74
     0
 42
0.000000001
 43
0.0000000001
 40
0.0
 40
0.0
 40
0.0
 40
0.0
 40
0.0
 40
0.0
 40
0.2520344321031459
 40
0.2520344321031459
 40
0.2520344321031459
 40
0.5037530533632168
 40
0.5037530533632168
 40
0.5037530533632168
 40
1.244971096449422
 40
1.244971096449422
 40
1.244971096449422
 40
1.244971096449422
 40
1.244971096449422
 40
1.244971096449422
 10
-1.490780915114896
 20
-0.0000000000005684
 30
0.0
 10
-1.486072380373115
 20
-0.0281591199417619
 30
0.0
 10
-1.48165051331341
 20
-0.0563719621216592
 30
0.0
 10
-1.477198836677303
 20
-0.0850794600141853
 30
0.0
 10
-1.476787777089611
 20
-0.1420190961895855
 30
0.0
 10
-1.481498042882094
 20
-0.1985574358991755
 30
0.0
 10
-1.483605978674518
 20
-0.2267580850304114
 30
0.0
 10
-1.492438622898021
 20
-0.337924778368091
 30
0.0
 10
-1.500638592251448
 20
-0.4488057283610944
 30
0.0
 10
-1.505380623750624
 20
-0.5368968086689847
 30
0.0
 10
-1.50809248949099
 20
-0.6194259094494045
 30
0.0
 10
-1.50796569667409
 20
-0.7016282588978982
 30
0.0
  0
ARC
  5
20C6E
330
1F
100
AcDbEntity
  8
SK1
100
AcDbCircle
 10
-9.606514000000061
 20
-0.7201430000000073
 30
0.0
 40
8.098546
100
AcDbArc
 50
355.7589529999986
 51
0.130989999999445
  0
ARC
  5
20C6F
330
1F
100
AcDbEntity
  8
SK1
100
AcDbCircle
 10
-1.938216000000011
 20
-1.293754000000005
 30
0.0
 40
0.408756
100
AcDbArc
 50
340.9212950000039
 51
356.4525839999996
  0
LINE
  5
20C70
330
1F
100
AcDbEntity
  8
SK1
 48
0.002431
100
AcDbLine
 10
-1.551978000000076
 20
-1.524573000000003
 30
0.0
 11
-1.551978000000076
 21
-1.427340000000014
 31
0.0
  0
LINE
  5
20C71
330
1F
100
AcDbEntity
  8
SK1
 48
0.063927
100
AcDbLine
 10
-1.551978000000076
 20
0.6229229999999859
 30
0.0
 11
-1.551978000000076
 21
3.180000000000006
 31
0.0
  0
ARC
  5
20C72
330
1F
100
AcDbEntity
  8
SK1
100
AcDbCircle
 10
-2.61473699999999
 20
-3.158454000000006
 30
0.0
 40
0.021587
100
AcDbArc
 50
230.9284989999986
 51
267.9662070000018
  0
SPLINE
  5
20C73
330
1F
100
AcDbEntity
  8
SK1
100
AcDbSpline
210
0.0
220
0.0
230
1.0
 70
     8
 71
     5
 72
    18
 73
    12
 74
     0
 42
0.000000001
 43
0.0000000001
 40
0.0
 40
0.0
 40
0.0
 40
0.0
 40
0.0
 40
0.0
 40
1.199971652833012
 40
1.199971652833012
 40
1.199971652833012
 40
2.586927024784529
 40
2.586927024784529
 40
2.586927024784529
 40
4.808152377787231
 40
4.808152377787231
 40
4.808152377787231
 40
4.808152377787231
 40
4.808152377787231
 40
4.808152377787231
 10
-2.62836340792694
 20
-3.175237663381891
 30
0.0
 10
-2.64120242164506
 20
-3.165728897393876
 30
0.0
 10
-2.654045813793003
 20
-3.144378287552683
 30
0.0
 10
-2.66701761357376
 20
-3.110339505491481
 30
0.0
 10
-2.693463387022005
 20
-3.019100526303901
 30
0.0
 10
-2.720063243135426
 20
-2.880214480467486
 30
0.0
 10
-2.735481191934127
 20
-2.785076171119071
 30
0.0
 10
-2.771961544293048
 20
-2.527262425719868
 30
0.0
 10
-2.806918344989981
 20
-2.20652006265098
 30
0.0
 10
-2.82790199855583
 20
-1.989981624466679
 30
0.0
 10
-2.848183262946918
 20
-1.762179887281263
 30
0.0
 10
-2.868104040957064
 20
-1.524573212761993
 30
0.0
  0
ARC
  5
20C74
330
1F
100
AcDbEntity
  8
SK1
100
AcDbCircle
 10
-1.667865000000005
 20
-1.442058999999885
 30
0.0
 40
0.091722
100
AcDbArc
 50
270.1609970000027
 51
295.9206360000012
  0
LINE
  5
20C75
330
1F
100
AcDbEntity
  8
SK1
 48
0.00958
100
AcDbLine
 10
-1.667606999999974
 20
-1.533738999999996
 30
0.0
 11
-2.050820000000157
 21
-1.533738999999996
 31
0.0
  0
ARC
  5
20C76
330
1F
100
AcDbEntity
  8
SK1
100
AcDbCircle
 10
-2.049811999999973
 20
-1.433252999999893
 30
0.0
 40
0.100551
100
AcDbArc
 50
245.2085459999983
 51
269.4255399999989
  0
SPLINE
  5
20C77
330
1F
100
AcDbEntity
  8
SK1
100
AcDbSpline
210
0.0
220
0.0
230
1.0
 70
     8
 71
     5
 72
    30
 73
    24
 74
     0
 42
0.000000001
 43
0.0000000001
 40
0.0
 40
0.0
 40
0.0
 40
0.0
 40
0.0
 40
0.0
 40
1.086071621295968
 40
1.086071621295968
 40
1.086071621295968
 40
1.637580975514938
 40
1.637580975514938
 40
1.637580975514938
 40
2.235169469834943
 40
2.235169469834943
 40
2.235169469834943
 40
4.4944546268019
 40
4.4944546268019
 40
4.4944546268019
 40
6.702602175864035
 40
6.702602175864035
 40
6.702602175864035
 40
8.721757524246369
 40
8.721757524246369
 40
8.721757524246369
 40
10.51577469513
 40
10.51577469513
 40
10.51577469513
 40
10.51577469513
 40
10.51577469513
 40
10.51577469513
 10
-5.827675493243417
 20
-1.524573212761993
 30
0.0
 10
-5.837500314580436
 20
-1.407980129191399
 30
0.0
 10
-5.847259769402171
 20
-1.289003024323278
 30
0.0
 10
-5.856632929824512
 20
-1.171923174350979
 30
0.0
 10
-5.87068539918107
 20
-0.9934623994185756
 30
0.0
 10
-5.884880059098121
 20
-0.8094005370087984
 30
0.0
 10
-5.889693067074744
 20
-0.7466195620461633
 30
0.0
 10
-5.899788419538139
 20
-0.6142513537412812
 30
0.0
 10
-5.909902570164489
 20
-0.4804291830516833
 30
0.0
 10
-5.913118663528507
 20
-0.4377304237270039
 30
0.0
 10
-5.938182436473312
 20
-0.1041013408569711
 30
0.0
 10
-5.963169008711132
 20
0.2324058050829194
 30
0.0
 10
-5.982931207836371
 20
0.4979470788854883
 30
0.0
 10
-6.02201698592944
 20
1.015694970970229
 30
0.0
 10
-6.061597463551152
 20
1.507833405464736
 30
0.0
 10
-6.080617630715664
 20
1.732916475702011
 30
0.0
 10
-6.118853629512613
 20
2.1541437002289
 30
0.0
 10
-6.158863567263209
 20
2.515671571364578
 30
0.0
 10
-6.179327952896414
 20
2.678459465294706
 30
0.0
 10
-6.217943164110464
 20
2.93565066596912
 30
0.0
 10
-6.258192805336988
 20
3.100002565769614
 30
0.0
 10
-6.277386784059218
 20
3.153392676622303
 30
0.0
 10
-6.296666488662139
 20
3.179983213399423
 30
0.0
 10
-6.315855890007809
 20
3.179999993377093
 30
0.0
  0
ARC
  5
20C78
330
1F
100
AcDbEntity
  8
SK1
100
AcDbCircle
 10
-6.315092000000162
 20
3.158468999999995
 30
0.0
 40
0.021573
100
AcDbArc
 50
92.03192200000271
 51
129.2800570000017
  0
SPLINE
  5
20C79
330
1F
100
AcDbEntity
  8
SK1
100
AcDbSpline
210
0.0
220
0.0
230
1.0
 70
     8
 71
     5
 72
    15
 73
     9
 74
     0
 42
0.000000001
 43
0.0000000001
 40
0.0
 40
0.0
 40
0.0
 40
0.0
 40
0.0
 40
0.0
 40
3.485670052178748
 40
3.485670052178748
 40
3.485670052178748
 40
4.806180745955674
 40
4.806180745955674
 40
4.806180745955674
 40
4.806180745955674
 40
4.806180745955674
 40
4.806180745955674
 10
-5.827675493243417
 20
-1.524573212761993
 30
0.0
 10
-5.796143424059321
 20
-1.898770468011291
 30
0.0
 10
-5.763938537177408
 20
-2.248404720625757
 30
0.0
 10
-5.730295429736202
 20
-2.563992491494189
 30
0.0
 10
-5.682094459501398
 20
-2.909931791440783
 30
0.0
 10
-5.631118854382974
 20
-3.100313539659168
 30
0.0
 10
-5.616934272525098
 20
-3.139619665943199
 30
0.0
 10
-5.602658393779505
 20
-3.164631074883287
 30
0.0
 10
-5.588411845972472
 20
-3.175186621917986
 30
0.0
  0
ARC
  5
20C7A
330
1F
100
AcDbEntity
  8
SK1
100
AcDbCircle
 10
-5.574642000000038
 20
-3.158231
 30
0.0
 40
0.021811
100
AcDbArc
 50
230.9189920000025
 51
267.9193879999977
  0
SPLINE
  5
20C7B
330
1F
100
AcDbEntity
  8
SK1
100
AcDbSpline
210
0.0
220
0.0
230
1.0
 70
     8
 71
     5
 72
    33
 73
    27
 74
     0
 42
0.000000001
 43
0.0000000001
 40
0.0
 40
0.0
 40
0.0
 40
0.0
 40
0.0
 40
0.0
 40
1.042673036484029
 40
1.042673036484029
 40
1.042673036484029
 40
1.595566630376239
 40
1.595566630376239
 40
1.595566630376239
 40
2.109711814168738
 40
2.109711814168738
 40
2.109711814168738
 40
4.291137320789299
 40
4.291137320789299
 40
4.291137320789299
 40
5.437322066752304
 40
5.437322066752304
 40
5.437322066752304
 40
7.524977322614786
 40
7.524977322614786
 40
7.524977322614786
 40
8.475330513289536
 40
8.475330513289536
 40
8.475330513289536
 40
10.19687047337731
 40
10.19687047337731
 40
10.19687047337731
 40
10.19687047337731
 40
10.19687047337731
 40
10.19687047337731
 10
-4.347742675438439
 20
-1.524573212761993
 30
0.0
 10
-4.357146742240728
 20
-1.412678675384995
 30
0.0
 10
-4.366490386683721
 20
-1.298575874672081
 30
0.0
 10
-4.376810622944048
 20
-1.16999181460926
 30
0.0
 10
-4.391938409545446
 20
-0.9773782670346804
 30
0.0
 10
-4.406515301786838
 20
-0.7874521699638706
 30
0.0
 10
-4.41147207992401
 20
-0.7224102417249867
 30
0.0
 10
-4.420835409538425
 20
-0.5988426833275753
 30
0.0
 10
-4.430146632855438
 20
-0.4748018997750876
 30
0.0
 10
-4.436326525627804
 20
-0.3921315837361874
 30
0.0
 10
-4.459813422505249
 20
-0.0768855740545007
 30
0.0
 10
-4.483210598699542
 20
0.2405446598304195
 30
0.0
 10
-4.50217528716996
 20
0.4965929298263064
 30
0.0
 10
-4.531282788587192
 20
0.8825308854828222
 30
0.0
 10
-4.560879999688268
 20
1.255264859092022
 30
0.0
 10
-4.567878615649077
 20
1.341705398030114
 30
0.0
 10
-4.596920027064129
 20
1.692633047919713
 30
0.0
 10
-4.628678263652203
 20
2.04298715924824
 30
0.0
 10
-4.651307874561893
 20
2.272422634727803
 30
0.0
 10
-4.683457887057669
 20
2.556248095271115
 30
0.0
 10
-4.714213582342721
 20
2.77149628045572
 30
0.0
 10
-4.724710657000287
 20
2.838595825551891
 30
0.0
 10
-4.752243099553652
 20
2.996390807542893
 30
0.0
 10
-4.780571932289035
 20
3.106887186343498
 30
0.0
 10
-4.799065450955481
 20
3.15566869855175
 30
0.0
 10
-4.817622918086271
 20
3.180000943709586
 30
0.0
 10
-4.836088405687291
 20
3.179999999976615
 30
0.0
  0
ARC
  5
20C7C
330
1F
100
AcDbEntity
  8
SK1
100
AcDbCircle
 10
-4.835300000000074
 20
3.158242999999998
 30
0.0
 40
0.021799
100
AcDbArc
 50
92.07608600000179
 51
129.2945199999981
  0
SPLINE
  5
20C7D
330
1F
100
AcDbEntity
  8
SK1
100
AcDbSpline
210
0.0
220
0.0
230
1.0
 70
     8
 71
     5
 72
    15
 73
     9
 74
     0
 42
0.000000001
 43
0.0000000001
 40
0.0
 40
0.0
 40
0.0
 40
0.0
 40
0.0
 40
0.0
 40
3.511267818889818
 40
3.511267818889818
 40
3.511267818889818
 40
4.836792011908356
 40
4.836792011908356
 40
4.836792011908356
 40
4.836792011908356
 40
4.836792011908356
 40
4.836792011908356
 10
-4.347742675438439
 20
-1.524573212761993
 30
0.0
 10
-4.316073881890587
 20
-1.901385189722759
 30
0.0
 10
-4.283718631753231
 20
-2.253167542284272
 30
0.0
 10
-4.250294663995646
 20
-2.566594951043668
 30
0.0
 10
-4.200996195316291
 20
-2.915397106073696
 30
0.0
 10
-4.150281018588542
 20
-3.102407131650181
 30
0.0
 10
-4.136330694285788
 20
-3.140474357624667
 30
0.0
 10
-4.122353257919029
 20
-3.164852697568676
 30
0.0
 10
-4.108349139884808
 20
-3.175221879780877
 30
0.0
  0
ARC
  5
20C7E
330
1F
100
AcDbEntity
  8
SK1
100
AcDbCircle
 10
-4.094667999999842
 20
-3.158360000000016
 30
0.0
 40
0.021683
100
AcDbArc
 50
230.9456999999946
 51
267.8577610000003
  0
SPLINE
  5
20C7F
330
1F
100
AcDbEntity
  8
SK1
100
AcDbSpline
210
0.0
220
0.0
230
1.0
 70
     8
 71
     5
 72
    24
 73
    18
 74
     0
 42
0.000000001
 43
0.0000000001
 40
0.0
 40
0.0
 40
0.0
 40
0.0
 40
0.0
 40
0.0
 40
3.302924497788461
 40
3.302924497788461
 40
3.302924497788461
 40
4.402191405251049
 40
4.402191405251049
 40
4.402191405251049
 40
7.645612191580307
 40
7.645612191580307
 40
7.645612191580307
 40
10.01111487001192
 40
10.01111487001192
 40
10.01111487001192
 40
10.43205029503813
 40
10.43205029503813
 40
10.43205029503813
 40
10.43205029503813
 40
10.43205029503813
 40
10.43205029503813
 10
-2.868104040957064
 20
-1.524573212761993
 30
0.0
 10
-2.89772590062796
 20
-1.171256110088279
 30
0.0
 10
-2.926550696360208
 20
-0.7962608237864118
 30
0.0
 10
-2.953716564886235
 20
-0.4293607325901975
 30
0.0
 10
-2.991674052241023
 20
0.0868053798429003
 30
0.0
 10
-3.030235822504549
 20
0.5985245881941239
 30
0.0
 10
-3.041035284312441
 20
0.740468869432533
 30
0.0
 10
-3.079368430801537
 20
1.237986402716757
 30
0.0
 10
-3.118503069081156
 20
1.714911498237909
 30
0.0
 10
-3.147558866196503
 20
2.042906023593388
 30
0.0
 10
-3.200689939520543
 20
2.564796847260082
 30
0.0
 10
-3.257798865060748
 20
2.933651863494816
 30
0.0
 10
-3.2824864828616
 20
3.054828288923714
 30
0.0
 10
-3.312367935576048
 20
3.146728158430078
 30
0.0
 10
-3.342394627069778
 20
3.175623125890978
 30
0.0
 10
-3.346935896549438
 20
3.178540256671509
 30
0.0
 10
-3.351470852209899
 20
3.179997748721603
 30
0.0
 10
-3.356001655786485
 20
3.179999997826911
 30
0.0
  0
ARC
  5
20C80
330
1F
100
AcDbEntity
  8
SK1
100
AcDbCircle
 10
-3.355219000000147
 20
3.158096
 30
0.0
 40
0.021946
100
AcDbArc
 50
92.04662699999756
 51
129.2854809999992
  0
ARC
  5
20C81
330
1F
100
AcDbEntity
  8
SK1
100
AcDbCircle
 10
-1.874895000000037
 20
3.158033999999986
 30
0.0
 40
0.022008
100
AcDbArc
 50
92.06652100000281
 51
129.2372150000006
  0
SPLINE
  5
20C82
330
1F
100
AcDbEntity
  8
SK1
100
AcDbSpline
210
0.0
220
0.0
230
1.0
 70
     8
 71
     5
 72
    18
 73
    12
 74
     0
 42
0.000000001
 43
0.0000000001
 40
0.0
 40
0.0
 40
0.0
 40
0.0
 40
0.0
 40
0.0
 40
2.420454722442233
 40
2.420454722442233
 40
2.420454722442233
 40
5.110396377686492
 40
5.110396377686492
 40
5.110396377686492
 40
6.662679188247951
 40
6.662679188247951
 40
6.662679188247951
 40
6.662679188247951
 40
6.662679188247951
 40
6.662679188247951
 10
-1.875688074137427
 20
3.179999999028608
 30
0.0
 10
-1.849608694220023
 20
3.179991347820076
 30
0.0
 10
-1.823425999233221
 20
3.131801122292102
 30
0.0
 10
-1.797783383403043
 20
3.03443086515702
 30
0.0
 10
-1.745599995231144
 20
2.748382892442748
 30
0.0
 10
-1.696127676826904
 20
2.318378416611523
 30
0.0
 10
-1.670554252392435
 20
2.060226427963811
 30
0.0
 10
-1.63136412100698
 20
1.625294182768328
 30
0.0
 10
-1.59323996299838
 20
1.156298633647422
 30
0.0
 10
-1.579373876913335
 20
0.9807601609853405
 30
0.0
 10
-1.565630586575025
 20
0.8027308549102372
 30
0.0
 10
-1.55197796987386
 20
0.6229226782735111
 30
0.0
  0
LINE
  5
20C83
330
1F
100
AcDbEntity
  8
SK1
 48
0.024985
100
AcDbLine
 10
-1.559544999999842
 20
0.0
 30
0.0
 11
-1.636560000000031
 21
0.9964310000000011
 31
0.0
  0
ARC
  5
20C84
330
1F
100
AcDbEntity
  8
SK1
100
AcDbCircle
 10
-60.93238200000008
 20
-3.672534000000013
 30
0.0
 40
59.47928199999999
100
AcDbArc
 50
4.502193000001645
 51
5.359849000001204
  0
ARC
  5
20C85
330
1F
100
AcDbEntity
  8
SK1
100
AcDbCircle
 10
-19.91045099999996
 20
0.2191870000000051
 30
0.0
 40
18.273004
100
AcDbArc
 50
5.225583999999448
 51
7.392987999999992
  0
ARC
  5
20C86
330
1F
100
AcDbEntity
  8
SK1
100
AcDbCircle
 10
-5.183676999999987
 20
2.179952999999982
 30
0.0
 40
3.416002999999999
100
AcDbArc
 50
6.562670000001554
 51
13.71459300000054
  0
SPLINE
  5
20C87
330
1F
100
AcDbEntity
  8
SK1
100
AcDbSpline
210
0.0
220
0.0
230
1.0
 70
     8
 71
     5
 72
    12
 73
     6
 74
     0
 42
0.000000001
 43
0.0000000001
 40
0.0
 40
0.0
 40
0.0
 40
0.0
 40
0.0
 40
0.0
 40
0.9960793484150979
 40
0.9960793484150979
 40
0.9960793484150979
 40
0.9960793484150979
 40
0.9960793484150979
 40
0.9960793484150979
 10
-1.865572233287934
 20
2.989715632318421
 30
0.0
 10
-1.88040265180541
 20
3.042211239417524
 30
0.0
 10
-1.895527066505565
 20
3.080909716142428
 30
0.0
 10
-1.910866418611361
 20
3.103913846844732
 30
0.0
 10
-1.926310616870295
 20
3.109955287482221
 30
0.0
 10
-1.941703825514081
 20
3.099467922742235
 30
0.0
  0
ARC
  5
20C88
330
1F
100
AcDbEntity
  8
SK1
100
AcDbCircle
 10
-1.805251999999995
 20
2.976787999999998
 30
0.0
 40
0.184205
100
AcDbArc
 50
138.0421649999989
 51
168.9605870000011
  0
SPLINE
  5
20C89
330
1F
100
AcDbEntity
  8
SK1
100
AcDbSpline
210
0.0
220
0.0
230
1.0
 70
     8
 71
     5
 72
    24
 73
    18
 74
     0
 42
0.000000001
 43
0.0000000001
 40
0.0
 40
0.0
 40
0.0
 40
0.0
 40
0.0
 40
0.0
 40
1.891088859016956
 40
1.891088859016956
 40
1.891088859016956
 40
5.737159070903544
 40
5.737159070903544
 40
5.737159070903544
 40
9.825382248912598
 40
9.825382248912598
 40
9.825382248912598
 40
11.10590918833897
 40
11.10590918833897
 40
11.10590918833897
 40
11.60265734444806
 40
11.60265734444806
 40
11.60265734444806
 40
11.60265734444806
 40
11.60265734444806
 40
11.60265734444806
 10
-2.726874282532775
 20
-3.011900969072285
 30
0.0
 10
-2.755585372201152
 20
-2.920758924471897
 30
0.0
 10
-2.783260456747598
 20
-2.777060963412479
 30
0.0
 10
-2.809567738526651
 20
-2.592943286298917
 30
0.0
 10
-2.884592722828642
 20
-1.967759452725686
 30
0.0
 10
-2.949972708709765
 20
-1.181176681318788
 30
0.0
 10
-2.990992643571189
 20
-0.6477085431907029
 30
0.0
 10
-3.075796520065296
 20
0.4964653076779088
 30
0.0
 10
-3.16382939380378
 20
1.604484073576799
 30
0.0
 10
-3.215133827134763
 20
2.18869540392771
 30
0.0
 10
-3.287302096316578
 20
2.818716978552089
 30
0.0
 10
-3.369080473887038
 20
3.073790310700218
 30
0.0
 10
-3.388970219772318
 20
3.108760903205108
 30
0.0
 10
-3.416777401796252
 20
3.117006824742246
 30
0.0
 10
-3.444177996911435
 20
3.072896844257114
 30
0.0
 10
-3.451827389800881
 20
3.056486714493331
 30
0.0
 10
-3.459374279558231
 20
3.036356582565417
 30
0.0
 10
-3.466848787003754
 20
3.012655853284826
 30
0.0
  0
SPLINE
  5
20C8A
330
1F
100
AcDbEntity
  8
SK1
100
AcDbSpline
210
0.0
220
0.0
230
1.0
 70
     8
 71
     5
 72
    24
 73
    18
 74
     0
 42
0.000000001
 43
0.0000000001
 40
0.0
 40
0.0
 40
0.0
 40
0.0
 40
0.0
 40
0.0
 40
1.902931890437436
 40
1.902931890437436
 40
1.902931890437436
 40
5.738387709281981
 40
5.738387709281981
 40
5.738387709281981
 40
9.819475465908292
 40
9.819475465908292
 40
9.819475465908292
 40
11.09444965925421
 40
11.09444965925421
 40
11.09444965925421
 40
11.57036682588594
 40
11.57036682588594
 40
11.57036682588594
 40
11.57036682588594
 40
11.57036682588594
 40
11.57036682588594
 10
-4.206805081672996
 20
-3.012012420306888
 30
0.0
 10
-4.235350056455557
 20
-2.921394009350392
 30
0.0
 10
-4.262937197103268
 20
-2.7784947434358
 30
0.0
 10
-4.289269235605161
 20
-2.594446486220988
 30
0.0
 10
-4.364232589851893
 20
-1.969685397922916
 30
0.0
 10
-4.430141052539851
 20
-1.17860423532491
 30
0.0
 10
-4.472259597587138
 20
-0.6308347180838894
 30
0.0
 10
-4.557488654819962
 20
0.5177333731588192
 30
0.0
 10
-4.64580789668946
 20
1.626522867816816
 30
0.0
 10
-4.697142983410003
 20
2.209796185206214
 30
0.0
 10
-4.769498912766152
 20
2.833109735643006
 30
0.0
 10
-4.851131739936136
 20
3.078273701637214
 30
0.0
 10
-4.870921200711562
 20
3.110788408095799
 30
0.0
 10
-4.898267255216751
 20
3.115986648034095
 30
0.0
 10
-4.925196670811374
 20
3.070671814483091
 30
0.0
 10
-4.932505659487786
 20
3.054635596489902
 30
0.0
 10
-4.939722828735965
 20
3.035199878493215
 30
0.0
 10
-4.946874352181566
 20
3.012493236402916
 30
0.0
  0
SPLINE
  5
20C8B
330
1F
100
AcDbEntity
  8
SK1
100
AcDbSpline
210
0.0
220
0.0
230
1.0
 70
     8
 71
     5
 72
    24
 73
    18
 74
     0
 42
0.000000001
 43
0.0000000001
 40
0.0
 40
0.0
 40
0.0
 40
0.0
 40
0.0
 40
0.0
 40
1.900710319615956
 40
1.900710319615956
 40
1.900710319615956
 40
5.748361101270017
 40
5.748361101270017
 40
5.748361101270017
 40
9.842179455830445
 40
9.842179455830445
 40
9.842179455830445
 40
11.1248657845306
 40
11.1248657845306
 40
11.1248657845306
 40
11.60786017507179
 40
11.60786017507179
 40
11.60786017507179
 40
11.60786017507179
 40
11.60786017507179
 40
11.60786017507179
 10
-5.686816996929337
 20
-3.012005733283671
 30
0.0
 10
-5.715351672972018
 20
-2.921420515385591
 30
0.0
 10
-5.742940224619473
 20
-2.778567824334372
 30
0.0
 10
-5.769277066929928
 20
-2.59450758379097
 30
0.0
 10
-5.844461095041651
 20
-1.967907728904094
 30
0.0
 10
-5.910492370505949
 20
-1.174324819328518
 30
0.0
 10
-5.95282377627393
 20
-0.6233037179449923
 30
0.0
 10
-6.038273574057027
 20
0.5271549322746126
 30
0.0
 10
-6.126513641702445
 20
1.633402210945803
 30
0.0
 10
-6.176974420908662
 20
2.204529978111708
 30
0.0
 10
-6.248372153494415
 20
2.825604140618423
 30
0.0
 10
-6.329743785321625
 20
3.075665022436083
 30
0.0
 10
-6.349597718713994
 20
3.109758652551845
 30
0.0
 10
-6.377220121279036
 20
3.1166704810459
 30
0.0
 10
-6.404551877601761
 20
3.071617887474586
 30
0.0
 10
-6.412027815444843
 20
3.055399100929604
 30
0.0
 10
-6.41941375681415
 20
3.035614735017986
 30
0.0
 10
-6.426736784444187
 20
3.012396208809121
 30
0.0
  0
LINE
  5
20C8C
330
1F
100
AcDbEntity
  8
SK1
 48
0.017588
100
AcDbLine
 10
-1.559544999999842
 20
0.0
 30
0.0
 11
-1.507966000000124
 21
-0.7016279999999995
 31
0.0
  0
LINE
  5
20C8D
330
1F
100
AcDbEntity
  8
SK1
 48
0.033065
100
AcDbLine
 10
-1.626848999999991
 20
0.0
 30
0.0
 11
-1.530165000000123
 21
-1.319051000000001
 31
0.0
  0
LINE
  5
20C8E
330
1F
100
AcDbEntity
  8
SK1
 48
0.038446
100
AcDbLine
 10
-1.779857999999989
 20
0.0
 30
0.0
 11
-1.667606999999974
 21
-1.533738999999996
 31
0.0
  0
ARC
  5
20C8F
330
1F
100
AcDbEntity
  8
SK1
100
AcDbCircle
 10
-1.711884999999823
 20
-1.383433999999994
 30
0.0
 40
0.165062
100
AcDbArc
 50
300.7962190000001
 51
344.646422000001
  0
SPLINE
  5
20C90
330
1F
100
AcDbEntity
  8
SK1
100
AcDbSpline
210
0.0
220
0.0
230
1.0
 70
     8
 71
     5
 72
    18
 73
    12
 74
     0
 42
0.000000001
 43
0.0000000001
 40
0.0
 40
0.0
 40
0.0
 40
0.0
 40
0.0
 40
0.0
 40
0.0465192981926047
 40
0.0465192981926047
 40
0.0465192981926047
 40
0.2303909217738614
 40
0.2303909217738614
 40
0.2303909217738614
 40
0.4561182746068149
 40
0.4561182746068149
 40
0.4561182746068149
 40
0.4561182746068149
 40
0.4561182746068149
 40
0.4561182746068149
 10
-2.091991759344978
 20
-1.524573212761993
 30
0.0
 10
-2.09685582703696
 20
-1.522398909854586
 30
0.0
 10
-2.101718334227371
 20
-1.520220428338291
 30
0.0
 10
-2.106211114890014
 20
-1.517243362038015
 30
0.0
 10
-2.128188873511361
 20
-1.502902277498094
 30
0.0
 10
-2.146572658141963
 20
-1.483998135763414
 30
0.0
 10
-2.159269730677465
 20
-1.467287887501584
 30
0.0
 10
-2.18321429730929
 20
-1.428902982266578
 30
0.0
 10
-2.200263782480191
 20
-1.387284892345404
 30
0.0
 10
-2.208039392623048
 20
-1.363857730820086
 30
0.0
 10
-2.214409627868008
 20
-1.340183279463899
 30
0.0
 10
-2.219598497312289
 20
-1.316278074315504
 30
0.0
  0
ARC
  5
20C91
330
1F
100
AcDbEntity
  8
SK1
100
AcDbCircle
 10
6.713777999999932
 20
0.6092419999999949
 30
0.0
 40
9.138588999999999
100
AcDbArc
 50
187.5579759999998
 51
192.1635740000006
  0
SPLINE
  5
20C92
330
1F
100
AcDbEntity
  8
SK1
100
AcDbSpline
210
0.0
220
0.0
230
1.0
 70
     8
 71
     5
 72
    15
 73
     9
 74
     0
 42
0.000000001
 43
0.0000000001
 40
0.0
 40
0.0
 40
0.0
 40
0.0
 40
0.0
 40
0.0
 40
0.831254613376929
 40
0.831254613376929
 40
0.831254613376929
 40
1.038141393825583
 40
1.038141393825583
 40
1.038141393825583
 40
1.038141393825583
 40
1.038141393825583
 40
1.038141393825583
 10
-2.422465549827392
 20
-0.0000000000005684
 30
0.0
 10
-2.415427150745586
 20
-0.0956441550760587
 30
0.0
 10
-2.404927810128015
 20
-0.1911191240068888
 30
0.0
 10
-2.391012917400075
 20
-0.286551872119503
 30
0.0
 10
-2.372542258082716
 20
-0.4047042244720842
 30
0.0
 10
-2.355243868437469
 20
-0.522453187441414
 30
0.0
 10
-2.351871030215193
 20
-0.5459049544984964
 30
0.0
 10
-2.348602194777868
 20
-0.5693389529879767
 30
0.0
 10
-2.345467705422038
 20
-0.5927571987515706
 30
0.0
  0
SPLINE
  5
20C93
330
1F
100
AcDbEntity
  8
SK1
100
AcDbSpline
210
0.0
220
0.0
230
1.0
 70
     8
 71
     5
 72
    21
 73
    15
 74
     0
 42
0.000000001
 43
0.0000000001
 40
0.0
 40
0.0
 40
0.0
 40
0.0
 40
0.0
 40
0.0
 40
3.24146065087952
 40
3.24146065087952
 40
3.24146065087952
 40
4.756466053114738
 40
4.756466053114738
 40
4.756466053114738
 40
6.188072265672937
 40
6.188072265672937
 40
6.188072265672937
 40
7.458028455391155
 40
7.458028455391155
 40
7.458028455391155
 40
7.458028455391155
 40
7.458028455391155
 40
7.458028455391155
 10
-2.422465549827392
 20
-0.0000000000005684
 30
0.0
 10
-2.450653588810495
 20
0.3805488275706068
 30
0.0
 10
-2.478842257940526
 20
0.7610972402438279
 30
0.0
 10
-2.505957407862865
 20
1.119796434158017
 30
0.0
 10
-2.548491276405457
 20
1.646806716851983
 30
0.0
 10
-2.593071424159005
 20
2.115568404559923
 30
0.0
 10
-2.607538439231916
 20
2.257985092542895
 30
0.0
 10
-2.63599879593994
 20
2.516586021802027
 30
0.0
 10
-2.665327317313084
 20
2.735496001869988
 30
0.0
 10
-2.679331228195791
 20
2.827967798442216
 30
0.0
 10
-2.706374007841644
 20
2.98230951026673
 30
0.0
 10
-2.733734126155468
 20
3.088771154393611
 30
0.0
 10
-2.746817504692558
 20
3.128193719945699
 30
0.0
 10
-2.760066792050905
 20
3.15545596759108
 30
0.0
 10
-2.773470101955466
 20
3.1699234496281
 30
0.0
  0
ARC
  5
20C94
330
1F
100
AcDbEntity
  8
SK1
100
AcDbCircle
 10
-2.794522000000029
 20
3.153814999999979
 30
0.0
 40
0.026393
100
AcDbArc
 50
37.42189300000005
 51
84.78754800000158
  0
LINE
  5
20C95
330
1F
100
AcDbEntity
  8
SK1
 48
0.038446
100
AcDbLine
 10
-2.163069999999834
 20
0.0
 30
0.0
 11
-2.050820000000157
 21
-1.533738999999996
 31
0.0
  0
LINE
  5
20C96
330
1F
100
AcDbEntity
  8
SK1
 48
0.032995
100
AcDbLine
 10
-2.316079000000057
 20
0.0
 30
0.0
 11
-2.219598000000019
 21
-1.31627800000001
 31
0.0
  0
SPLINE
  5
20C97
330
1F
100
AcDbEntity
  8
SK1
100
AcDbSpline
210
0.0
220
0.0
230
1.0
 70
     8
 71
     5
 72
    33
 73
    27
 74
     0
 42
0.000000001
 43
0.0000000001
 40
0.0
 40
0.0
 40
0.0
 40
0.0
 40
0.0
 40
0.0
 40
1.002138448920663
 40
1.002138448920663
 40
1.002138448920663
 40
1.533375035400919
 40
1.533375035400919
 40
1.533375035400919
 40
2.010545446235945
 40
2.010545446235945
 40
2.010545446235945
 40
4.105348993595868
 40
4.105348993595868
 40
4.105348993595868
 40
5.119185999430992
 40
5.119185999430992
 40
5.119185999430992
 40
7.141834275295408
 40
7.141834275295408
 40
7.141834275295408
 40
8.098125959208509
 40
8.098125959208509
 40
8.098125959208509
 40
9.771502862173075
 40
9.771502862173075
 40
9.771502862173075
 40
9.771502862173075
 40
9.771502862173075
 40
9.771502862173075
 10
-5.264623587640699
 20
-1.524573212761993
 30
0.0
 10
-5.273733412004388
 20
-1.417032127194601
 30
0.0
 10
-5.282766796885083
 20
-1.307450237049919
 30
0.0
 10
-5.292612407084106
 20
-1.185239789275414
 30
0.0
 10
-5.307164467933262
 20
-1.000527215846062
 30
0.0
 10
-5.321248965491803
 20
-0.8174487860634942
 30
0.0
 10
-5.326046058275436
 20
-0.7546449965601028
 30
0.0
 10
-5.334963967725116
 20
-0.6372235634846959
 30
0.0
 10
-5.343745143444722
 20
-0.5205036022252614
 30
0.0
 10
-5.350279710092991
 20
-0.4332554194762963
 30
0.0
 10
-5.372699673887381
 20
-0.1327934845539289
 30
0.0
 10
-5.395025487035582
 20
0.170032485503981
 30
0.0
 10
-5.413227131864231
 20
0.4162167542168335
 30
0.0
 10
-5.440374105865998
 20
0.7779973228568338
 30
0.0
 10
-5.467901643774437
 20
1.129513996499752
 30
0.0
 10
-5.477893097304558
 20
1.254757191371709
 30
0.0
 10
-5.504919879926317
 20
1.586431585864828
 30
0.0
 10
-5.533633017372493
 20
1.9129862111875
 30
0.0
 10
-5.554415786975936
 20
2.134778182442004
 30
0.0
 10
-5.586222727722315
 20
2.434939866822304
 30
0.0
 10
-5.61696903778204
 20
2.671678420739823
 30
0.0
 10
-5.626130978978266
 20
2.736925503842002
 30
0.0
 10
-5.652757052844549
 20
2.911576344751921
 30
0.0
 10
-5.680031738886781
 20
3.043817471368896
 30
0.0
 10
-5.697623959300129
 20
3.108215784251996
 30
0.0
 10
-5.715409261732473
 20
3.150409920325613
 30
0.0
 10
-5.733278175348572
 20
3.169774862014293
 30
0.0
  0
ARC
  5
20C98
330
1F
100
AcDbEntity
  8
SK1
100
AcDbCircle
 10
-5.754568000000062
 20
3.153571999999996
 30
0.0
 40
0.026637
100
AcDbArc
 50
37.27258000000045
 51
84.82402699999886
  0
SPLINE
  5
20C99
330
1F
100
AcDbEntity
  8
SK1
100
AcDbSpline
210
0.0
220
0.0
230
1.0
 70
     8
 71
     5
 72
    15
 73
     9
 74
     0
 42
0.000000001
 43
0.0000000001
 40
0.0
 40
0.0
 40
0.0
 40
0.0
 40
0.0
 40
0.0
 40
3.684233553580908
 40
3.684233553580908
 40
3.684233553580908
 40
5.074231437258212
 40
5.074231437258212
 40
5.074231437258212
 40
5.074231437258212
 40
5.074231437258212
 40
5.074231437258212
 10
-5.264623587640699
 20
-1.524573212761993
 30
0.0
 10
-5.231132486062505
 20
-1.919934229258784
 30
0.0
 10
-5.196606902523966
 20
-2.287726805025754
 30
0.0
 10
-5.160709483678488
 20
-2.615947294347505
 30
0.0
 10
-5.109253395115047
 20
-2.966690767981076
 30
0.0
 10
-5.056425030186915
 20
-3.133503264119013
 30
0.0
 10
-5.041860619850921
 20
-3.164428718951683
 30
0.0
 10
-5.027205286413731
 20
-3.179999976039481
 30
0.0
 10
-5.012473240618191
 20
-3.180000000000488
 30
0.0
  0
ARC
  5
20C9A
330
1F
100
AcDbEntity
  8
SK1
100
AcDbCircle
 10
-5.014885000000048
 20
-3.15355799999989
 30
0.0
 40
0.026652
100
AcDbArc
 50
275.2108779999992
 51
322.4743389999984
  0
ARC
  5
20C9B
330
1F
100
AcDbEntity
  8
SK1
100
AcDbCircle
 10
-4.274590999999986
 20
3.153651999999993
 30
0.0
 40
0.02656
100
AcDbArc
 50
37.35714200000091
 51
84.72616699999989
  0
SPLINE
  5
20C9C
330
1F
100
AcDbEntity
  8
SK1
100
AcDbSpline
210
0.0
220
0.0
230
1.0
 70
     8
 71
     5
 72
    21
 73
    15
 74
     0
 42
0.000000001
 43
0.0000000001
 40
0.0
 40
0.0
 40
0.0
 40
0.0
 40
0.0
 40
0.0
 40
3.144826810829066
 40
3.144826810829066
 40
3.144826810829066
 40
6.226876105276632
 40
6.226876105276632
 40
6.226876105276632
 40
7.378440676635682
 40
7.378440676635682
 40
7.378440676635682
 40
10.17132623872988
 40
10.17132623872988
 40
10.17132623872988
 40
10.17132623872988
 40
10.17132623872988
 40
10.17132623872988
 10
-4.253386933900515
 20
3.169838154995346
 30
0.0
 10
-4.219800555785126
 20
3.133504973930911
 30
0.0
 10
-4.186630193383166
 20
3.016472409039919
 30
0.0
 10
-4.154164592976711
 20
2.823575587281908
 30
0.0
 10
-4.092187813176451
 20
2.340165433959838
 30
0.0
 10
-4.034067949779113
 20
1.710128449416713
 30
0.0
 10
-4.006722207683991
 20
1.381779360896842
 30
0.0
 10
-3.969342784094692
 20
0.9026590870340383
 30
0.0
 10
-3.93270087200949
 20
0.4111516676323391
 30
0.0
 10
-3.925978756434801
 20
0.320305044119408
 30
0.0
 10
-3.892019676424297
 20
-0.1400563714735199
 30
0.0
 10
-3.858580893853968
 20
-0.5937776498825828
 30
0.0
 10
-3.834626535642541
 20
-0.9115857725331864
 30
0.0
 10
-3.80985418062653
 20
-1.225828223689518
 30
0.0
 10
-3.784543200094276
 20
-1.524573212761993
 30
0.0
  0
ARC
  5
20C9D
330
1F
100
AcDbEntity
  8
SK1
100
AcDbCircle
 10
-3.534851999999999
 20
-3.153287999999888
 30
0.0
 40
0.026927
100
AcDbArc
 50
275.2759880000019
 51
322.5587029999949
  0
SPLINE
  5
20C9E
330
1F
100
AcDbEntity
  8
SK1
100
AcDbSpline
210
0.0
220
0.0
230
1.0
 70
     8
 71
     5
 72
    18
 73
    12
 74
     0
 42
0.000000001
 43
0.0000000001
 40
0.0
 40
0.0
 40
0.0
 40
0.0
 40
0.0
 40
0.0
 40
1.402099284699168
 40
1.402099284699168
 40
1.402099284699168
 40
2.862929503961037
 40
2.862929503961037
 40
2.862929503961037
 40
5.058923315665656
 40
5.058923315665656
 40
5.058923315665656
 40
5.058923315665656
 40
5.058923315665656
 40
5.058923315665656
 10
-3.532385672649524
 20
-3.179999994638251
 30
0.0
 10
-3.547489238580623
 20
-3.180011793706796
 30
0.0
 10
-3.5625741334361
 20
-3.163797269000582
 30
0.0
 10
-3.577376704518201
 20
-3.131096918972103
 30
0.0
 10
-3.606694046857455
 20
-3.037997789938883
 30
0.0
 10
-3.635818323505531
 20
-2.887007207792606
 30
0.0
 10
-3.651864179189146
 20
-2.787184431072404
 30
0.0
 10
-3.688401272618306
 20
-2.52518236448418
 30
0.0
 10
-3.723616615478363
 20
-2.199100606368403
 30
0.0
 10
-3.74440712813066
 20
-1.984786565991469
 30
0.0
 10
-3.764641648318955
 20
-1.759470824101555
 30
0.0
 10
-3.784543200094276
 20
-1.524573212761993
 30
0.0
  0
LINE
  5
20C9F
330
1F
100
AcDbEntity
  8
SK1
 48
0.023282
100
AcDbLine
 10
-1.626848999999991
 20
0.0
 30
0.0
 11
-1.704064000000015
 21
0.9280629999999804
 31
0.0
  0
ARC
  5
20CA0
330
1F
100
AcDbEntity
  8
SK1
100
AcDbCircle
 10
-52.72446999999999
 20
-3.396692000000001
 30
0.0
 40
51.203299
100
AcDbArc
 50
4.845107000000853
 51
5.773004000001359
  0
ARC
  5
20CA1
330
1F
100
AcDbEntity
  8
SK1
100
AcDbCircle
 10
-17.38725899999997
 20
0.2161370000000033
 30
0.0
 40
15.681722
100
AcDbArc
 50
5.626775000001077
 51
7.976284999998546
  0
ARC
  5
20CA2
330
1F
100
AcDbEntity
  8
SK1
100
AcDbCircle
 10
-4.748514999999996
 20
2.033685999999987
 30
0.0
 40
2.912687
100
AcDbArc
 50
7.068164000001035
 51
14.8536520000017
  0
SPLINE
  5
20CA3
330
1F
100
AcDbEntity
  8
SK1
100
AcDbSpline
210
0.0
220
0.0
230
1.0
 70
     8
 71
     5
 72
    12
 73
     6
 74
     0
 42
0.000000001
 43
0.0000000001
 40
0.0
 40
0.0
 40
0.0
 40
0.0
 40
0.0
 40
0.0
 40
0.9968987439100978
 40
0.9968987439100978
 40
0.9968987439100978
 40
0.9968987439100978
 40
0.9968987439100978
 40
0.9968987439100978
 10
-1.93366683351212
 20
2.780221424140421
 30
0.0
 10
-1.948591438054108
 20
2.8287108667636
 30
0.0
 10
-1.963773572981608
 20
2.864062967530998
 30
0.0
 10
-1.97913930534321
 20
2.884661122883413
 30
0.0
 10
-1.99459226927297
 20
2.889495554902595
 30
0.0
 10
-2.00999878914456
 20
2.878950415371518
 30
0.0
  0
ARC
  5
20CA4
330
1F
100
AcDbEntity
  8
SK1
100
AcDbCircle
 10
-1.914260000000011
 20
2.780905000000103
 30
0.0
 40
0.137457
100
AcDbArc
 50
134.317987000002
 51
164.3697410000018
  0
SPLINE
  5
20CA5
330
1F
100
AcDbEntity
  8
SK1
100
AcDbSpline
210
0.0
220
0.0
230
1.0
 70
     8
 71
     5
 72
    24
 73
    18
 74
     0
 42
0.000000001
 43
0.0000000001
 40
0.0
 40
0.0
 40
0.0
 40
0.0
 40
0.0
 40
0.0
 40
1.963884412912254
 40
1.963884412912254
 40
1.963884412912254
 40
5.649373214589872
 40
5.649373214589872
 40
5.649373214589872
 40
9.541205833185447
 40
9.541205833185447
 40
9.541205833185447
 40
10.81935732928577
 40
10.81935732928577
 40
10.81935732928577
 40
11.17755009887123
 40
11.17755009887123
 40
11.17755009887123
 40
11.17755009887123
 40
11.17755009887123
 40
11.17755009887123
 10
-2.798371964462489
 20
-2.785437030250477
 30
0.0
 10
-2.828194151542106
 20
-2.691201266721265
 30
0.0
 10
-2.856981342113498
 20
-2.544538934656372
 30
0.0
 10
-2.884422507002681
 20
-2.35748168994877
 30
0.0
 10
-2.958901564686811
 20
-1.755256464162555
 30
0.0
 10
-3.02494139829912
 20
-1.00746318704506
 30
0.0
 10
-3.065803169921308
 20
-0.5092120166956136
 30
0.0
 10
-3.149778138213831
 20
0.5451567270158364
 30
0.0
 10
-3.237297355627446
 20
1.556451372134431
 30
0.0
 10
-3.28801530700116
 20
2.083483825583726
 30
0.0
 10
-3.359428761061848
 20
2.640011834092006
 30
0.0
 10
-3.438596677679128
 20
2.860360110757738
 30
0.0
 10
-3.458479148162381
 20
2.890401053994395
 30
0.0
 10
-3.48406143049101
 20
2.894573436517219
 30
0.0
 10
-3.509311984046006
 20
2.857594347839608
 30
0.0
 10
-3.514831224488033
 20
2.847536854246584
 30
0.0
 10
-3.520311121472899
 20
2.835619309368808
 30
0.0
 10
-3.525761063910067
 20
2.821885475318508
 30
0.0
  0
SPLINE
  5
20CA6
330
1F
100
AcDbEntity
  8
SK1
100
AcDbSpline
210
0.0
220
0.0
230
1.0
 70
     8
 71
     5
 72
    24
 73
    18
 74
     0
 42
0.000000001
 43
0.0000000001
 40
0.0
 40
0.0
 40
0.0
 40
0.0
 40
0.0
 40
0.0
 40
1.974355009625304
 40
1.974355009625304
 40
1.974355009625304
 40
5.653977525279922
 40
5.653977525279922
 40
5.653977525279922
 40
9.54424290936628
 40
9.54424290936628
 40
9.54424290936628
 40
10.85277763246475
 40
10.85277763246475
 40
10.85277763246475
 40
11.16208665421366
 40
11.16208665421366
 40
11.16208665421366
 40
11.16208665421366
 40
11.16208665421366
 40
11.16208665421366
 10
-4.278230568152935
 20
-2.785767097755779
 30
0.0
 10
-4.307860015112622
 20
-2.692229540952752
 30
0.0
 10
-4.336544732165747
 20
-2.546552195771198
 30
0.0
 10
-4.364010016067823
 20
-2.359712794754556
 30
0.0
 10
-4.438553015610068
 20
-1.757276000093156
 30
0.0
 10
-4.505203323150682
 20
-1.004091255365749
 30
0.0
 10
-4.547361984679013
 20
-0.4900362507117963
 30
0.0
 10
-4.631891064610498
 20
0.5700956276798195
 30
0.0
 10
-4.71984012096891
 20
1.582848609053826
 30
0.0
 10
-4.770657767599914
 20
2.108678316163746
 30
0.0
 10
-4.842871700212525
 20
2.661442020890006
 30
0.0
 10
-4.922599858858347
 20
2.868768817236513
 30
0.0
 10
-4.942954156308473
 20
2.894975579473821
 30
0.0
 10
-4.96819995493729
 20
2.892629572686501
 30
0.0
 10
-4.993065148032655
 20
2.850606236708812
 30
0.0
 10
-4.997810148682559
 20
2.841130916228109
 30
0.0
 10
-5.002526739147923
 20
2.830284646259598
 30
0.0
 10
-5.007220843367348
 20
2.818094721568598
 30
0.0
  0
SPLINE
  5
20CA7
330
1F
100
AcDbEntity
  8
SK1
100
AcDbSpline
210
0.0
220
0.0
230
1.0
 70
     8
 71
     5
 72
    24
 73
    18
 74
     0
 42
0.000000001
 43
0.0000000001
 40
0.0
 40
0.0
 40
0.0
 40
0.0
 40
0.0
 40
0.0
 40
1.972183951080235
 40
1.972183951080235
 40
1.972183951080235
 40
5.663745005670592
 40
5.663745005670592
 40
5.663745005670592
 40
9.566676029473175
 40
9.566676029473175
 40
9.566676029473175
 40
10.88250393772257
 40
10.88250393772257
 40
10.88250393772257
 40
11.19982496964402
 40
11.19982496964402
 40
11.19982496964402
 40
11.19982496964402
 40
11.19982496964402
 40
11.19982496964402
 10
-5.75830634602505
 20
-2.785559327504386
 30
0.0
 10
-5.787927014425347
 20
-2.691956162469494
 30
0.0
 10
-5.816614338321755
 20
-2.546227717881976
 30
0.0
 10
-5.844085247327028
 20
-2.359288665388902
 30
0.0
 10
-5.918841372148449
 20
-1.754911945733198
 30
0.0
 10
-5.985610895580522
 20
-0.9993671245265998
 30
0.0
 10
-6.027997875064669
 20
-0.4821822450251716
 30
0.0
 10
-6.112730462355783
 20
0.579359878508825
 30
0.0
 10
-6.200547055989999
 20
1.589156532697415
 30
0.0
 10
-6.250495172181557
 20
2.104174176248818
 30
0.0
 10
-6.321782495152432
 20
2.655225050759014
 30
0.0
 10
-6.401314622046584
 20
2.866799390642909
 30
0.0
 10
-6.42174259237629
 20
2.894399266875722
 30
0.0
 10
-6.447291536546912
 20
2.893292284958703
 30
0.0
 10
-6.472558572962838
 20
2.851214797478518
 30
0.0
 10
-6.477462766971597
 20
2.841497763160247
 30
0.0
 10
-6.482339514734462
 20
2.830313609394096
 30
0.0
 10
-6.487195114031806
 20
2.817690162357393
 30
0.0
  0
LINE
  5
20CA8
330
1F
100
AcDbEntity
  8
SK1
 48
0.007897
100
AcDbLine
 10
-6.649999999999977
 20
2.264415999999981
 30
0.0
 11
-6.649999999999977
 21
2.580287999999995
 31
0.0
  0
ARC
  5
20CA9
330
1F
100
AcDbEntity
  8
SK1
100
AcDbCircle
 10
1.273234999999999
 20
2.359496000000006
 30
0.0
 40
7.864975
100
AcDbArc
 50
177.0453530000003
 51
179.6754170000007
  0
LINE
  5
20CAA
330
1F
100
AcDbEntity
  8
SK1
 48
0.000083
100
AcDbLine
 10
-6.580825000000003
 20
2.768337000000001
 30
0.0
 11
-6.580821000000012
 21
2.765017999999996
 31
0.0
  0
LINE
  5
20CAB
330
1F
100
AcDbEntity
  8
SK1
 48
0.000056
100
AcDbLine
 10
-6.580738999999994
 20
2.770577000000001
 30
0.0
 11
-6.580825000000003
 21
2.768337000000001
 31
0.0
  0
LINE
  5
20CAC
330
1F
100
AcDbEntity
  8
SK1
 48
0.021885
100
AcDbLine
 10
-1.779857999999989
 20
0.0
 30
0.0
 11
-1.855323999999995
 21
0.8721419999999966
 31
0.0
  0
ARC
  5
20CAD
330
1F
100
AcDbEntity
  8
SK1
100
AcDbCircle
 10
-50.85094000000004
 20
-3.445369999999996
 30
0.0
 40
49.18541
100
AcDbArc
 50
5.035918000001683
 51
5.948839000000384
  0
ARC
  5
20CAE
330
1F
100
AcDbEntity
  8
SK1
100
AcDbCircle
 10
-17.48544500000003
 20
0.0676090000000045
 30
0.0
 40
15.635342
100
AcDbArc
 50
5.816737999999522
 51
8.073804000000809
  0
ARC
  5
20CAF
330
1F
100
AcDbEntity
  8
SK1
100
AcDbCircle
 10
-5.185283000000139
 20
1.854539999999985
 30
0.0
 40
3.205795999999998
100
AcDbArc
 50
7.328996000000914
 51
14.337669
  0
SPLINE
  5
20CB0
330
1F
100
AcDbEntity
  8
SK1
100
AcDbSpline
210
0.0
220
0.0
230
1.0
 70
     8
 71
     5
 72
    12
 73
     6
 74
     0
 42
0.000000001
 43
0.0000000001
 40
0.0
 40
0.0
 40
0.0
 40
0.0
 40
0.0
 40
0.0
 40
0.9183971938741002
 40
0.9183971938741002
 40
0.9183971938741002
 40
0.9183971938741002
 40
0.9183971938741002
 40
0.9183971938741002
 10
-2.07975810488267
 20
2.648303041154093
 30
0.0
 10
-2.093454090975228
 20
2.695602218865928
 30
0.0
 10
-2.10736690833005
 20
2.732441844841844
 30
0.0
 10
-2.12145175891635
 20
2.757619175598108
 30
0.0
 10
-2.135642564259001
 20
2.770226325415336
 30
0.0
 10
-2.14984590363042
 20
2.770226330283122
 30
0.0
  0
SPLINE
  5
20CB1
330
1F
100
AcDbEntity
  8
SK1
100
AcDbSpline
210
0.0
220
0.0
230
1.0
 70
     8
 71
     5
 72
    24
 73
    18
 74
     0
 42
0.000000001
 43
0.0000000001
 40
0.0
 40
0.0
 40
0.0
 40
0.0
 40
0.0
 40
0.0
 40
1.9185983933071
 40
1.9185983933071
 40
1.9185983933071
 40
6.712177435818561
 40
6.712177435818561
 40
6.712177435818561
 40
9.895105434191339
 40
9.895105434191339
 40
9.895105434191339
 40
11.16977557107714
 40
11.16977557107714
 40
11.16977557107714
 40
11.24432988738753
 40
11.24432988738753
 40
11.24432988738753
 40
11.24432988738753
 40
11.24432988738753
 40
11.24432988738753
 10
-2.889790627966361
 20
-2.770056061434416
 30
0.0
 10
-2.919773385738948
 20
-2.770055982599386
 30
0.0
 10
-2.949806782342647
 20
-2.714083937491778
 30
0.0
 10
-2.978961543861713
 20
-2.601260570117489
 30
0.0
 10
-3.075815744541955
 20
-2.077035586642693
 30
0.0
 10
-3.158028494985956
 20
-1.211556126728396
 30
0.0
 10
-3.212573656918151
 20
-0.5705853344161655
 30
0.0
 10
-3.301819581994323
 20
0.5285188338293381
 30
0.0
 10
-3.396883068694022
 20
1.551198630746
 30
0.0
 10
-3.437619881208546
 20
1.944840626500506
 30
0.0
 10
-3.498184335333461
 20
2.415916360095934
 30
0.0
 10
-3.564970057818981
 20
2.678904787818821
 30
0.0
 10
-3.584516420809336
 20
2.733485538122238
 30
0.0
 10
-3.605500743964283
 20
2.765525181105828
 30
0.0
 10
-3.626493531069399
 20
2.770083020570723
 30
0.0
 10
-3.627653632457622
 20
2.770250931664008
 30
0.0
 10
-3.628813538288453
 20
2.770334857107626
 30
0.0
 10
-3.629973322405588
 20
2.770334846940102
 30
0.0
  0
SPLINE
  5
20CB2
330
1F
100
AcDbEntity
  8
SK1
100
AcDbSpline
210
0.0
220
0.0
230
1.0
 70
     8
 71
     5
 72
    24
 73
    18
 74
     0
 42
0.000000001
 43
0.0000000001
 40
0.0
 40
0.0
 40
0.0
 40
0.0
 40
0.0
 40
0.0
 40
1.939777407834893
 40
1.939777407834893
 40
1.939777407834893
 40
5.452479487151011
 40
5.452479487151011
 40
5.452479487151011
 40
9.88195664666593
 40
9.88195664666593
 40
9.88195664666593
 40
11.11174647431209
 40
11.11174647431209
 40
11.11174647431209
 40
11.19509082788158
 40
11.19509082788158
 40
11.19509082788158
 40
11.19509082788158
 40
11.19509082788158
 40
11.19509082788158
 10
-4.369841037474998
 20
-2.770003835429378
 30
0.0
 10
-4.399777939667386
 20
-2.770025270797787
 30
0.0
 10
-4.429708468852594
 20
-2.714048558790181
 30
0.0
 10
-4.458797499466527
 20
-2.601962868663064
 30
0.0
 10
-4.536917347467009
 20
-2.178793547674274
 30
0.0
 10
-4.606273862673788
 20
-1.527106325303576
 30
0.0
 10
-4.648417168895547
 20
-1.069858739371482
 30
0.0
 10
-4.740305830236025
 20
-0.0004888201943913
 30
0.0
 10
-4.831234986524123
 20
1.080566030402223
 30
0.0
 10
-4.886467809571739
 20
1.688904348017728
 30
0.0
 10
-4.961581592972606
 20
2.356748480422311
 30
0.0
 10
-5.046442224632301
 20
2.682724475565521
 30
0.0
 10
-5.065283845493012
 20
2.734205691398813
 30
0.0
 10
-5.085668916237636
 20
2.765111846631498
 30
0.0
 10
-5.106067035985688
 20
2.770058508897021
 30
0.0
 10
-5.107361855945555
 20
2.77026784555943
 30
0.0
 10
-5.108656422836361
 20
2.770372483426513
 30
0.0
 10
-5.109950839827433
 20
2.770372495411094
 30
0.0
  0
SPLINE
  5
20CB3
330
1F
100
AcDbEntity
  8
SK1
100
AcDbSpline
210
0.0
220
0.0
230
1.0
 70
     8
 71
     5
 72
    24
 73
    18
 74
     0
 42
0.000000001
 43
0.0000000001
 40
0.0
 40
0.0
 40
0.0
 40
0.0
 40
0.0
 40
0.0
 40
1.93865529025234
 40
1.93865529025234
 40
1.93865529025234
 40
5.430204509721979
 40
5.430204509721979
 40
5.430204509721979
 40
9.834672586728595
 40
9.834672586728595
 40
9.834672586728595
 40
11.06715162485879
 40
11.06715162485879
 40
11.06715162485879
 40
11.12678589814674
 40
11.12678589814674
 40
11.12678589814674
 40
11.12678589814674
 40
11.12678589814674
 40
11.12678589814674
 10
-5.849861155822054
 20
-2.770008768356972
 30
0.0
 10
-5.879781859961553
 20
-2.77000893579597
 30
0.0
 10
-5.909712754925293
 20
-2.7140711667719
 30
0.0
 10
-5.938814491829588
 20
-2.601974563458894
 30
0.0
 10
-6.016714816227589
 20
-2.179954892236053
 30
0.0
 10
-6.085893305782293
 20
-1.530755284935565
 30
0.0
 10
-6.127767685752472
 20
-1.076591105864195
 30
0.0
 10
-6.219189262205985
 20
-0.0145133131734951
 30
0.0
 10
-6.309284986648548
 20
1.056637078256841
 30
0.0
 10
-6.36310210126976
 20
1.64906191965042
 30
0.0
 10
-6.436193577476955
 20
2.31318180128673
 30
0.0
 10
-6.519387881229589
 20
2.659629975296496
 30
0.0
 10
-6.538050139758298
 20
2.717142023863515
 30
0.0
 10
-6.55797827772244
 20
2.75453382830551
 30
0.0
 10
-6.578044947264287
 20
2.766939992864705
 30
0.0
 10
-6.578971407517997
 20
2.767459280747317
 30
0.0
 10
-6.579898052154134
 20
2.767925123572723
 30
0.0
 10
-6.580824918661619
 20
2.768337486063727
 30
0.0
  0
LINE
  5
20CB4
330
1F
100
AcDbEntity
  8
SK1
 48
0.014859
100
AcDbLine
 10
-2.389053999999986
 20
0.0
 30
0.0
 11
-2.345467999999981
 21
-0.592757000000006
 31
0.0
  0
LINE
  5
20CB5
330
1F
100
AcDbEntity
  8
SK1
 48
0.019309
100
AcDbLine
 10
-2.389053999999986
 20
0.0
 30
0.0
 11
-2.447778999999968
 21
0.7701349999999822
 31
0.0
  0
LINE
  5
20CB6
330
1F
100
AcDbEntity
  8
SK1
 48
0.018064
100
AcDbLine
 10
-2.447778999999968
 20
0.7701349999999822
 30
0.0
 11
-2.506326000000058
 21
1.490329999999999
 31
0.0
  0
ARC
  5
20CB7
330
1F
100
AcDbEntity
  8
SK1
100
AcDbCircle
 10
-40.79958199999999
 20
-1.752702999999995
 30
0.0
 40
38.430293
100
AcDbArc
 50
4.84079399999887
 51
5.778827999998721
  0
ARC
  5
20CB8
330
1F
100
AcDbEntity
  8
SK1
100
AcDbCircle
 10
-17.29824700000006
 20
0.6485769999999889
 30
0.0
 40
14.806502
100
AcDbArc
 50
5.690758999998425
 51
7.624402999999812
  0
ARC
  5
20CB9
330
1F
100
AcDbEntity
  8
SK1
100
AcDbCircle
 10
-6.648359000000027
 20
2.100997000000005
 30
0.0
 40
4.057851
100
AcDbArc
 50
7.249284999998598
 51
12.08949499999919
  0
LINE
  5
20CBA
330
1F
100
AcDbEntity
  8
SK1
 48
0.002085
100
AcDbLine
 10
-2.680706999999983
 20
2.950828000000001
 30
0.0
 11
-2.702161000000045
 21
3.031430999999996
 31
0.0
  0
SPLINE
  5
20CBB
330
1F
100
AcDbEntity
  8
SK1
100
AcDbSpline
210
0.0
220
0.0
230
1.0
 70
     8
 71
     5
 72
    24
 73
    18
 74
     0
 42
0.000000001
 43
0.0000000001
 40
0.0
 40
0.0
 40
0.0
 40
0.0
 40
0.0
 40
0.0
 40
0.9866131672610427
 40
0.9866131672610427
 40
0.9866131672610427
 40
2.756285355447615
 40
2.756285355447615
 40
2.756285355447615
 40
6.391119857567034
 40
6.391119857567034
 40
6.391119857567034
 40
11.05752197469623
 40
11.05752197469623
 40
11.05752197469623
 40
11.63517817170179
 40
11.63517817170179
 40
11.63517817170179
 40
11.63517817170179
 40
11.63517817170179
 40
11.63517817170179
 10
-3.441921996071754
 20
-3.030994646892082
 30
0.0
 10
-3.456838218449092
 20
-3.078338477345766
 30
0.0
 10
-3.472048325185596
 20
-3.111432082169271
 30
0.0
 10
-3.487453436521036
 20
-3.128388506530511
 30
0.0
 10
-3.530684663987243
 20
-3.1277610046954
 30
0.0
 10
-3.573132681516539
 20
-2.998899535418161
 30
0.0
 10
-3.599376709470333
 20
-2.866875926145978
 30
0.0
 10
-3.674734584627457
 20
-2.375033163083514
 30
0.0
 10
-3.7396061915573
 20
-1.671216731932503
 30
0.0
 10
-3.780071571434632
 20
-1.174676907308509
 30
0.0
 10
-3.869993670082293
 20
0.0071869772368132
 30
0.0
 10
-3.959080060372343
 20
1.20180383601891
 30
0.0
 10
-4.013051007354761
 20
1.869554038422933
 30
0.0
 10
-4.079471389145168
 20
2.556018466739486
 30
0.0
 10
-4.156055977083268
 20
2.932953180366581
 30
0.0
 10
-4.164656864274205
 20
2.970507193630908
 30
0.0
 10
-4.173321215871396
 20
3.003270016048503
 30
0.0
 10
-4.182075958547216
 20
3.031094376918417
 30
0.0
  0
SPLINE
  5
20CBC
330
1F
100
AcDbEntity
  8
SK1
100
AcDbSpline
210
0.0
220
0.0
230
1.0
 70
     8
 71
     5
 72
    24
 73
    18
 74
     0
 42
0.000000001
 43
0.0000000001
 40
0.0
 40
0.0
 40
0.0
 40
0.0
 40
0.0
 40
0.0
 40
0.9910213108245216
 40
0.9910213108245216
 40
0.9910213108245216
 40
2.778337876852139
 40
2.778337876852139
 40
2.778337876852139
 40
6.41543427880587
 40
6.41543427880587
 40
6.41543427880587
 40
11.07558151069027
 40
11.07558151069027
 40
11.07558151069027
 40
11.62054425448313
 40
11.62054425448313
 40
11.62054425448313
 40
11.62054425448313
 40
11.62054425448313
 40
11.62054425448313
 10
-4.922155382680556
 20
-3.031187277245691
 30
0.0
 10
-4.937030331385358
 20
-3.078389926768181
 30
0.0
 10
-4.952164637769328
 20
-3.11129918347791
 30
0.0
 10
-4.967460703869163
 20
-3.128147461159584
 30
0.0
 10
-5.010478092713923
 20
-3.127882177883491
 30
0.0
 10
-5.052700437724752
 20
-3.000292074206668
 30
0.0
 10
-5.078869161235842
 20
-2.869507625411073
 30
0.0
 10
-5.154104555597085
 20
-2.37921045024666
 30
0.0
 10
-5.21955452948157
 20
-1.671064510545391
 30
0.0
 10
-5.260428315879835
 20
-1.169347922485399
 30
0.0
 10
-5.350979094410603
 20
0.019771304372739
 30
0.0
 10
-5.440579064099097
 20
1.219191570581728
 30
0.0
 10
-5.495142058763008
 20
1.894761557590213
 30
0.0
 10
-5.561490059123002
 20
2.572804636754113
 30
0.0
 10
-5.637634618322522
 20
2.939843181392518
 30
0.0
 10
-5.645748891102017
 20
2.974685656685521
 30
0.0
 10
-5.653918961216958
 20
3.005258392511392
 30
0.0
 10
-5.662168169814433
 20
3.031440369838206
 30
0.0
  0
LINE
  5
20CBD
330
1F
100
AcDbEntity
  8
SK1
 48
0.017455
100
AcDbLine
 10
-2.163069999999834
 20
0.0
 30
0.0
 11
-2.222876000000042
 21
0.6956399999999974
 31
0.0
  0
LINE
  5
20CBE
330
1F
100
AcDbEntity
  8
SK1
 48
0.016291
100
AcDbLine
 10
-2.222876000000042
 20
0.6956399999999974
 30
0.0
 11
-2.282497000000034
 21
1.344537000000002
 31
0.0
  0
ARC
  5
20CBF
330
1F
100
AcDbEntity
  8
SK1
100
AcDbCircle
 10
-31.30414500000006
 20
-1.436780999999995
 30
0.0
 40
29.154572
100
AcDbArc
 50
5.474278000001473
 51
6.583519000000004
  0
ARC
  5
20CC0
330
1F
100
AcDbEntity
  8
SK1
100
AcDbCircle
 10
-13.19903099999999
 20
0.6741889999999842
 30
0.0
 40
10.926703
100
AcDbArc
 50
6.471972000001606
 51
8.79941000000074
  0
ARC
  5
20CC1
330
1F
100
AcDbEntity
  8
SK1
100
AcDbCircle
 10
-5.197187999999981
 20
1.937907999999993
 30
0.0
 40
2.825491999999998
100
AcDbArc
 50
8.297406000000812
 51
14.34892399999835
  0
SPLINE
  5
20CC2
330
1F
100
AcDbEntity
  8
SK1
100
AcDbSpline
210
0.0
220
0.0
230
1.0
 70
     8
 71
     5
 72
    12
 73
     6
 74
     0
 42
0.000000001
 43
0.0000000001
 40
0.0
 40
0.0
 40
0.0
 40
0.0
 40
0.0
 40
0.0
 40
0.7770648973594341
 40
0.7770648973594341
 40
0.7770648973594341
 40
0.7770648973594341
 40
0.7770648973594341
 40
0.7770648973594341
 10
-2.460068675945763
 20
2.638080356199707
 30
0.0
 10
-2.47162548765982
 20
2.679591858548319
 30
0.0
 10
-2.483341038314732
 20
2.71372424951923
 30
0.0
 10
-2.495191476243803
 20
2.739743850255819
 30
0.0
 10
-2.507139240629725
 20
2.757033015998728
 30
0.0
 10
-2.519131791057475
 20
2.765379088218337
 30
0.0
  0
ARC
  5
20CC3
330
1F
100
AcDbEntity
  8
SK1
100
AcDbCircle
 10
-2.533800000000154
 20
2.745935999999999
 30
0.0
 40
0.024326
100
AcDbArc
 50
52.96842800000336
 51
88.2516419999998
  0
SPLINE
  5
20CC4
330
1F
100
AcDbEntity
  8
SK1
100
AcDbSpline
210
0.0
220
0.0
230
1.0
 70
     8
 71
     5
 72
    24
 73
    18
 74
     0
 42
0.000000001
 43
0.0000000001
 40
0.0
 40
0.0
 40
0.0
 40
0.0
 40
0.0
 40
0.0
 40
1.918598378067378
 40
1.918598378067378
 40
1.918598378067378
 40
6.712176499665417
 40
6.712176499665417
 40
6.712176499665417
 40
9.895104056085495
 40
9.895104056085495
 40
9.895104056085495
 40
11.16977411580051
 40
11.16977411580051
 40
11.16977411580051
 40
11.24432779088794
 40
11.24432779088794
 40
11.24432779088794
 40
11.24432779088794
 40
11.24432779088794
 40
11.24432779088794
 10
-3.273003074794359
 20
-2.770056061434416
 30
0.0
 10
-3.302985832317061
 20
-2.770055996283274
 30
0.0
 10
-3.333019228832539
 20
-2.714083965822765
 30
0.0
 10
-3.362173990345353
 20
-2.601260612095926
 30
0.0
 10
-3.459028178739457
 20
-2.07703573573019
 30
0.0
 10
-3.541240920681161
 20
-1.211556451852686
 30
0.0
 10
-3.595786074426881
 20
-0.5705857880482485
 30
0.0
 10
-3.685031985276963
 20
0.5285181735222296
 30
0.0
 10
-3.780095450109569
 20
1.55119787321081
 30
0.0
 10
-3.820832249211889
 20
1.944839822332113
 30
0.0
 10
-3.881396686498078
 20
2.415915656967996
 30
0.0
 10
-3.948182393079036
 20
2.678904394502523
 30
0.0
 10
-3.967728753144568
 20
2.73348525438422
 30
0.0
 10
-3.988713064082843
 20
2.765525010919333
 30
0.0
 10
-4.009705840023798
 20
2.770082994164794
 30
0.0
 10
-4.010865931436683
 20
2.770250912617342
 30
0.0
 10
-4.012025827300703
 20
2.77033484686413
 30
0.0
 10
-4.013185601457847
 20
2.770334846940897
 30
0.0
  0
SPLINE
  5
20CC5
330
1F
100
AcDbEntity
  8
SK1
100
AcDbSpline
210
0.0
220
0.0
230
1.0
 70
     8
 71
     5
 72
    24
 73
    18
 74
     0
 42
0.000000001
 43
0.0000000001
 40
0.0
 40
0.0
 40
0.0
 40
0.0
 40
0.0
 40
0.0
 40
1.939763735137143
 40
1.939763735137143
 40
1.939763735137143
 40
5.452471293430281
 40
5.452471293430281
 40
5.452471293430281
 40
9.882042057539059
 40
9.882042057539059
 40
9.882042057539059
 40
11.11185171769495
 40
11.11185171769495
 40
11.11185171769495
 40
11.19527063787896
 40
11.19527063787896
 40
11.19527063787896
 40
11.19527063787896
 40
11.19527063787896
 40
11.19527063787896
 10
-4.753045427435153
 20
-2.77000382802788
 30
0.0
 10
-4.78298211996116
 20
-2.770037333422293
 30
0.0
 10
-4.812912567993976
 20
-2.714073474291267
 30
0.0
 10
-4.842001605377503
 20
-2.601999697465173
 30
0.0
 10
-4.920122126458863
 20
-2.178855674146291
 30
0.0
 10
-4.989479206816553
 20
-1.527179556718408
 30
0.0
 10
-5.031622881078191
 20
-1.06993400277156
 30
0.0
 10
-5.123512990139943
 20
-0.0005548509692801
 30
0.0
 10
-5.214443012990159
 20
1.080517301015418
 30
0.0
 10
-5.269676780419786
 20
1.688871845197525
 30
0.0
 10
-5.344791759720465
 20
2.3567368839455
 30
0.0
 10
-5.429654022601994
 20
2.682722788198304
 30
0.0
 10
-5.448495942645081
 20
2.734205333434829
 30
0.0
 10
-5.468882480661817
 20
2.76511384095599
 30
0.0
 10
-5.489282067544536
 20
2.770059120813754
 30
0.0
 10
-5.490578046225436
 20
2.770268440589433
 30
0.0
 10
-5.491873771102291
 20
2.77037287410485
 30
0.0
 10
-5.493169345621936
 20
2.770372494553015
 30
0.0
  0
LINE
  5
20CC6
330
1F
100
AcDbEntity
  8
SK1
 48
0.000131
100
AcDbLine
 10
-5.855507999999987
 20
-2.770194000000003
 30
0.0
 11
-5.860690999999973
 21
-2.769537000000013
 31
0.0
  0
SPLINE
  5
20CC7
330
1F
100
AcDbEntity
  8
SK1
100
AcDbSpline
210
0.0
220
0.0
230
1.0
 70
     8
 71
     5
 72
    21
 73
    15
 74
     0
 42
0.000000001
 43
0.0000000001
 40
0.0
 40
0.0
 40
0.0
 40
0.0
 40
0.0
 40
0.0
 40
1.784543229760195
 40
1.784543229760195
 40
1.784543229760195
 40
5.114192785583571
 40
5.114192785583571
 40
5.114192785583571
 40
9.380140356014811
 40
9.380140356014811
 40
9.380140356014811
 40
10.67074570812596
 40
10.67074570812596
 40
10.67074570812596
 40
10.67074570812596
 40
10.67074570812596
 40
10.67074570812596
 10
-5.860690636354887
 20
-2.769537367103764
 30
0.0
 10
-5.889484481545991
 20
-2.762159417099069
 30
0.0
 10
-5.918146104993411
 20
-2.703017126273009
 30
0.0
 10
-5.945903010065762
 20
-2.593320070020921
 30
0.0
 10
-6.021649613929412
 20
-2.181947828139271
 30
0.0
 10
-6.088477705853392
 20
-1.559398072067011
 30
0.0
 10
-6.129595679959379
 20
-1.11869277685929
 30
0.0
 10
-6.219781413254053
 20
-0.0771821057415707
 30
0.0
 10
-6.308521559574613
 20
0.9843498179264143
 30
0.0
 10
-6.361470976701411
 20
1.571448224628027
 30
0.0
 10
-6.434884047106833
 20
2.259995341472802
 30
0.0
 10
-6.51923961227078
 20
2.639818327414416
 30
0.0
 10
-6.539439443169726
 20
2.707558665158217
 30
0.0
 10
-6.560082974223405
 20
2.749652906717584
 30
0.0
 10
-6.580879904422657
 20
2.764879016229428
 30
0.0
  0
LINE
  5
20CC8
330
1F
100
AcDbEntity
  8
SK1
 48
0.018005
100
AcDbLine
 10
-2.316079000000057
 20
0.0
 30
0.0
 11
-2.375351000000022
 21
0.7177490000001116
 31
0.0
  0
LINE
  5
20CC9
330
1F
100
AcDbEntity
  8
SK1
 48
0.016824
100
AcDbLine
 10
-2.375351000000022
 20
0.7177490000001116
 30
0.0
 11
-2.43444199999999
 21
1.388105999999992
 31
0.0
  0
ARC
  5
20CCA
330
1F
100
AcDbEntity
  8
SK1
100
AcDbCircle
 10
-34.48392699999999
 20
-1.556875000000019
 30
0.0
 40
32.18446
100
AcDbArc
 50
5.25008299999955
 51
6.290526999999777
  0
ARC
  5
20CCB
330
1F
100
AcDbEntity
  8
SK1
100
AcDbCircle
 10
-14.65456000000006
 20
0.6506959999999822
 30
0.0
 40
12.232488
100
AcDbArc
 50
6.189467000001467
 51
8.353000000001499
  0
ARC
  5
20CCC
330
1F
100
AcDbEntity
  8
SK1
100
AcDbCircle
 10
-5.780299000000012
 20
1.979106999999999
 30
0.0
 40
3.259163999999998
100
AcDbArc
 50
7.911028000000978
 51
13.4273780000005
  0
LINE
  5
20CCD
330
1F
100
AcDbEntity
  8
SK1
 48
0.001303
100
AcDbLine
 10
-2.610440000000039
 20
2.735874999999991
 30
0.0
 11
-2.624702000000069
 21
2.786004999999988
 31
0.0
  0
SPLINE
  5
20CCE
330
1F
100
AcDbEntity
  8
SK1
100
AcDbSpline
210
0.0
220
0.0
230
1.0
 70
     8
 71
     5
 72
    24
 73
    18
 74
     0
 42
0.000000001
 43
0.0000000001
 40
0.0
 40
0.0
 40
0.0
 40
0.0
 40
0.0
 40
0.0
 40
1.777720026441274
 40
1.777720026441274
 40
1.777720026441274
 40
3.808361467772825
 40
3.808361467772825
 40
3.808361467772825
 40
7.560517320878735
 40
7.560517320878735
 40
7.560517320878735
 40
10.72914775407623
 40
10.72914775407623
 40
10.72914775407623
 40
11.24280251557047
 40
11.24280251557047
 40
11.24280251557047
 40
11.24280251557047
 40
11.24280251557047
 40
11.24280251557047
 10
-3.375655049039663
 20
-2.817781740200075
 30
0.0
 10
-3.402805412963857
 20
-2.888155443968399
 30
0.0
 10
-3.430723630988381
 20
-2.913772057066778
 30
0.0
 10
-3.458585173308732
 20
-2.885326546473406
 30
0.0
 10
-3.517124068836892
 20
-2.718933675869976
 30
0.0
 10
-3.570926161669376
 20
-2.381416444588893
 30
0.0
 10
-3.598214418550583
 20
-2.167242843724266
 30
0.0
 10
-3.671846607966358
 20
-1.503856252473922
 30
0.0
 10
-3.738009756911309
 20
-0.7216955417115118
 30
0.0
 10
-3.779072605346526
 20
-0.2105572538940805
 30
0.0
 10
-3.855774626945048
 20
0.753762530732729
 30
0.0
 10
-3.937264617103551
 20
1.656728898177901
 30
0.0
 10
-3.977491042120731
 20
2.056192399432034
 30
0.0
 10
-4.027256868684843
 20
2.452616047683021
 30
0.0
 10
-4.081485872916458
 20
2.701386710232412
 30
0.0
 10
-4.089161865204004
 20
2.733077597919844
 30
0.0
 10
-4.096886034002523
 20
2.761269500856627
 30
0.0
 10
-4.104675469108769
 20
2.785865299160008
 30
0.0
  0
LINE
  5
20CCF
330
1F
100
AcDbEntity
  8
SK1
 48
0.000324
100
AcDbLine
 10
-4.844599000000016
 20
-2.785479000000009
 30
0.0
 11
-4.848629000000073
 21
-2.797810999999995
 31
0.0
  0
SPLINE
  5
20CD0
330
1F
100
AcDbEntity
  8
SK1
100
AcDbSpline
210
0.0
220
0.0
230
1.0
 70
     8
 71
     5
 72
    24
 73
    18
 74
     0
 42
0.000000001
 43
0.0000000001
 40
0.0
 40
0.0
 40
0.0
 40
0.0
 40
0.0
 40
0.0
 40
1.790263044384559
 40
1.790263044384559
 40
1.790263044384559
 40
3.827161967117323
 40
3.827161967117323
 40
3.827161967117323
 40
7.565497114211307
 40
7.565497114211307
 40
7.565497114211307
 40
10.73098815272716
 40
10.73098815272716
 40
10.73098815272716
 40
11.21144655245458
 40
11.21144655245458
 40
11.21144655245458
 40
11.21144655245458
 40
11.21144655245458
 40
11.21144655245458
 10
-4.855652083183485
 20
-2.817340116434593
 30
0.0
 10
-4.882769596726574
 20
-2.887924235812191
 30
0.0
 10
-4.910550989031094
 20
-2.913534949970085
 30
0.0
 10
-4.938253000494228
 20
-2.885541787979888
 30
0.0
 10
-4.996346561956784
 20
-2.721943274695775
 30
0.0
 10
-5.05014510482897
 20
-2.386121738462918
 30
0.0
 10
-5.077508912574329
 20
-2.172023553452675
 30
0.0
 10
-5.151264128954493
 20
-1.50879216655008
 30
0.0
 10
-5.21796847309224
 20
-0.7221566464697844
 30
0.0
 10
-5.260611850524128
 20
-0.1918903651836956
 30
0.0
 10
-5.337684980608513
 20
0.7755888740109072
 30
0.0
 10
-5.419396298432957
 20
1.678007956937818
 30
0.0
 10
-5.459723449750072
 20
2.07669411937374
 30
0.0
 10
-5.509224112332161
 20
2.465782580540917
 30
0.0
 10
-5.562987259895976
 20
2.707565942504913
 30
0.0
 10
-5.570166176315638
 20
2.736758447798506
 30
0.0
 10
-5.577386818154423
 20
2.762887067227921
 30
0.0
 10
-5.584663600847648
 20
2.785873780775601
 30
0.0
  0
LINE
  5
20CD1
330
1F
100
AcDbEntity
  8
SK1
 48
0.003739
100
AcDbLine
 10
-6.649999999999977
 20
-2.408520000000009
 30
0.0
 11
-6.649999999999977
 21
-2.558087999999997
 31
0.0
  0
LINE
  5
20CD2
330
1F
100
AcDbEntity
  8
SK1
 48
0.116823
100
AcDbLine
 10
-6.649999999999977
 20
-2.408520000000009
 30
0.0
 11
-6.649999999999977
 21
2.264415999999981
 31
0.0
  0
SPLINE
  5
20CD3
330
1F
100
AcDbEntity
  8
SK1
100
AcDbSpline
210
0.0
220
0.0
230
1.0
 70
     8
 71
     5
 72
    27
 73
    21
 74
     0
 42
0.000000001
 43
0.0000000001
 40
0.0
 40
0.0
 40
0.0
 40
0.0
 40
0.0
 40
0.0
 40
45.64851813448504
 40
45.64851813448504
 40
45.64851813448504
 40
91.54943807882268
 40
91.54943807882268
 40
91.54943807882268
 40
102.943251612389
 40
102.943251612389
 40
102.943251612389
 40
125.7309955511649
 40
125.7309955511649
 40
125.7309955511649
 40
137.1249278574173
 40
137.1249278574173
 40
137.1249278574173
 40
228.398710065964
 40
228.398710065964
 40
228.398710065964
 40
228.398710065964
 40
228.398710065964
 40
228.398710065964
 10
-6.649999738041741
 20
-2.408519950914268
 30
0.0
 10
-6.647674959710003
 20
-2.330007610512893
 30
0.0
 10
-6.645332832821622
 20
-2.225948094241174
 30
0.0
 10
-6.642957341532905
 20
-2.09697014465459
 30
0.0
 10
-6.638175815242789
 20
-1.789652519316006
 30
0.0
 10
-6.633509155501997
 20
-1.4067221378246
 30
0.0
 10
-6.631287855977915
 20
-1.206516130302105
 30
0.0
 10
-6.628418419997728
 20
-0.9301964065189736
 30
0.0
 10
-6.625537168025061
 20
-0.6393595677751592
 30
0.0
 10
-6.624962444588503
 20
-0.5809010094979215
 30
0.0
 10
-6.623261292087589
 20
-0.4068644961127461
 30
0.0
 10
-6.621601644542693
 20
-0.2346739481224063
 30
0.0
 10
-6.620503824904518
 20
-0.1202587781031923
 30
0.0
 10
-6.618773968819708
 20
0.0610841200185064
 30
0.0
 10
-6.617024407665097
 20
0.2437266720458239
 30
0.0
 10
-6.616442016069412
 20
0.3043400358102986
 30
0.0
 10
-6.611175849509095
 20
0.8504172808937369
 30
0.0
 10
-6.605828041021139
 20
1.382117665465613
 30
0.0
 10
-6.601236285784466
 20
1.80549682075653
 30
0.0
 10
-6.596692036989907
 20
2.153326258978609
 30
0.0
 10
-6.592086084749325
 20
2.404053975672724
 30
0.0
  0
LINE
  5
20CD4
330
1F
100
AcDbEntity
  8
1
 48
0.001405
100
AcDbLine
 10
2.988334000000008
 20
4.705026000000002
 30
0.0
 11
2.998093999999923
 21
4.760377000000004
 31
0.0
  0
LINE
  5
20CD5
330
1F
100
AcDbEntity
  8
1
 48
0.001384
100
AcDbLine
 10
0.3600000000000136
 20
4.760377000000004
 30
0.0
 11
0.3600000000000136
 21
4.705026000000002
 31
0.0
  0
LINE
  5
20CD6
330
1F
100
AcDbEntity
  8
1
 48
0.065952
100
AcDbLine
 10
2.998093999999923
 20
4.760377000000004
 30
0.0
 11
0.3600000000000136
 21
4.760377000000004
 31
0.0
  0
LINE
  5
20CD7
330
1F
100
AcDbEntity
  8
1
 48
0.003299
100
AcDbLine
 10
0.3600000000000136
 20
-2.907127999999999
 30
0.0
 11
0.3600000000000136
 21
-3.039078000000017
 31
0.0
  0
LINE
  5
20CD8
330
1F
100
AcDbEntity
  8
1
 48
0.041753
100
AcDbLine
 10
2.030123000000003
 20
-2.907127999999999
 30
0.0
 11
0.3600000000000136
 21
-2.907127999999999
 31
0.0
  0
LINE
  5
20CD9
330
1F
100
AcDbEntity
  8
1
 48
0.042482
100
AcDbLine
 10
0.3600000000000136
 20
-2.187261999999889
 30
0.0
 11
2.059294000000022
 21
-2.187261999999889
 31
0.0
  0
LINE
  5
20CDA
330
1F
100
AcDbEntity
  8
1
 48
0.017997
100
AcDbLine
 10
0.3600000000000136
 20
-2.187261999999889
 30
0.0
 11
0.3600000000000136
 21
-2.907128999999997
 31
0.0
  0
LINE
  5
20CDB
330
1F
100
AcDbEntity
  8
1
 48
0.032097
100
AcDbLine
 10
2.644406000000003
 20
-5.509024000000009
 30
0.0
 11
2.867481999999995
 21
-4.244676999999994
 31
0.0
  0
LINE
  5
20CDC
330
1F
100
AcDbEntity
  8
1
 48
0.018125
100
AcDbLine
 10
2.644406000000003
 20
2.754512000000004
 30
0.0
 11
2.885462999999958
 21
2.070749000000005
 31
0.0
  0
LINE
  5
20CDD
330
1F
100
AcDbEntity
  8
1
 48
0.104787
100
AcDbLine
 10
3.117697000000021
 20
-2.114057000000002
 30
0.0
 11
2.885449999999991
 21
2.070999
 31
0.0
  0
LINE
  5
20CDE
330
1F
100
AcDbEntity
  8
1
 48
0.018115
100
AcDbLine
 10
2.644406000000003
 20
-5.509024000000009
 30
0.0
 11
2.885462999999958
 21
-6.192364999999995
 31
0.0
  0
LINE
  5
20CDF
330
1F
100
AcDbEntity
  8
1
 48
0.05121
100
AcDbLine
 10
3.050790000000006
 20
-4.150823000000001
 30
0.0
 11
2.885449999999991
 21
-6.192537000000013
 31
0.0
  0
LINE
  5
20CE0
330
1F
100
AcDbEntity
  8
1
 48
0.002935
100
AcDbLine
 10
3.09731099999999
 20
5.323063999999988
 30
0.0
 11
3.117697000000021
 21
5.43867799999998
 31
0.0
  0
LINE
  5
20CE1
330
1F
100
AcDbEntity
  8
1
 48
0.014294
100
AcDbLine
 10
2.998025999999866
 20
4.759991999999981
 30
0.0
 11
3.09731099999999
 21
5.323063999999988
 31
0.0
  0
LINE
  5
20CE2
330
1F
100
AcDbEntity
  8
1
 48
0.034963
100
AcDbLine
 10
2.644406000000003
 20
2.754512000000004
 30
0.0
 11
2.887252999999986
 21
4.13176700000011
 31
0.0
  0
LINE
  5
20CE3
330
1F
100
AcDbEntity
  8
1
 48
0.063266
100
AcDbLine
 10
2.890624999999771
 20
1.925171000000004
 30
0.0
 11
0.3600000000000136
 21
1.925171000000004
 31
0.0
  0
LINE
  5
20CE4
330
1F
100
AcDbEntity
  8
1
 48
0.055165
100
AcDbLine
 10
0.3600000000000136
 20
4.13176700000011
 30
0.0
 11
0.3600000000000136
 21
1.925171000000004
 31
0.0
  0
LINE
  5
20CE5
330
1F
100
AcDbEntity
  8
1
 48
0.003642
100
AcDbLine
 10
2.890624999999771
 20
1.925171000000004
 30
0.0
 11
2.885462999999958
 21
2.070749000000005
 31
0.0
  0
LINE
  5
20CE6
330
1F
100
AcDbEntity
  8
1
 48
0.063266
100
AcDbLine
 10
2.890624999999771
 20
-6.337853999999991
 30
0.0
 11
0.3600000000000136
 21
-6.337853999999991
 31
0.0
  0
LINE
  5
20CE7
330
1F
100
AcDbEntity
  8
1
 48
0.055131
100
AcDbLine
 10
0.3600000000000136
 20
-4.132616000000012
 30
0.0
 11
0.3600000000000136
 21
-6.337853999999991
 31
0.0
  0
LINE
  5
20CE8
330
1F
100
AcDbEntity
  8
1
 48
0.003639
100
AcDbLine
 10
2.890624999999771
 20
-6.337853999999991
 30
0.0
 11
2.885462999999958
 21
-6.192364999999995
 31
0.0
  0
LINE
  5
20CE9
330
1F
100
AcDbEntity
  8
1
 48
0.000401
100
AcDbLine
 10
0.3600000000000136
 20
-6.353881999999997
 30
0.0
 11
0.3600000000000136
 21
-6.337853999999991
 31
0.0
  0
LINE
  5
20CEA
330
1F
100
AcDbEntity
  8
1
 48
0.005772
100
AcDbLine
 10
0.3600000000000136
 20
-2.187261999999889
 30
0.0
 11
0.3600000000000136
 21
-1.956366000000002
 31
0.0
  0
LINE
  5
20CEB
330
1F
100
AcDbEntity
  8
1
 48
0.096632
100
AcDbLine
 10
0.3600000000000136
 20
1.908919999999993
 30
0.0
 11
0.3600000000000136
 21
-1.956366000000002
 31
0.0
  0
LINE
  5
20CEC
330
1F
100
AcDbEntity
  8
1
 48
0.000406
100
AcDbLine
 10
0.3600000000000136
 20
1.908919999999993
 30
0.0
 11
0.3600000000000136
 21
1.925171000000004
 31
0.0
  0
LINE
  5
20CED
330
1F
100
AcDbEntity
  8
1
 48
0.009724
100
AcDbLine
 10
0.3600000000000136
 20
4.760324999999993
 30
0.0
 11
0.3600000000000136
 21
5.149298999999983
 31
0.0
  0
LINE
  5
20CEE
330
1F
100
AcDbEntity
  8
1
 48
0.035191
100
AcDbLine
 10
1.767631999999935
 20
-1.959766
 30
0.0
 11
0.3600000000000136
 21
-1.956366000000002
 31
0.0
  0
SPLINE
  5
20CEF
330
1F
100
AcDbEntity
  8
1
100
AcDbSpline
210
0.0
220
0.0
230
1.0
 70
     8
 71
     5
 72
    15
 73
     9
 74
     0
 42
0.000000001
 43
0.0000000001
 40
0.0
 40
0.0
 40
0.0
 40
0.0
 40
0.0
 40
0.0
 40
0.2611742230808737
 40
0.2611742230808737
 40
0.2611742230808737
 40
0.5426550132059467
 40
0.5426550132059467
 40
0.5426550132059467
 40
0.5426550132059467
 40
0.5426550132059467
 40
0.5426550132059467
 10
2.029941220831005
 20
-2.040475846618079
 30
0.0
 10
2.015827285917453
 20
-2.021722888051185
 30
0.0
 10
1.997472909212318
 20
-2.005994923724188
 30
0.0
 10
1.97444462458634
 20
-1.993417462490668
 30
0.0
 10
1.922996692375021
 20
-1.974051929809263
 30
0.0
 10
1.863315070046837
 20
-1.964384082142685
 30
0.0
 10
1.832613459708568
 20
-1.961437639383659
 30
0.0
 10
1.800134144047546
 20
-1.95984735168352
 30
0.0
 10
1.767632022535507
 20
-1.959766277857169
 30
0.0
  0
LINE
  5
20CF0
330
1F
100
AcDbEntity
  8
1
 48
0.026684
100
AcDbLine
 10
2.029941000000006
 20
5.323063999999988
 30
0.0
 11
3.09731099999999
 21
5.323063999999988
 31
0.0
  0
LINE
  5
20CF1
330
1F
100
AcDbEntity
  8
1
 48
0.035192
100
AcDbLine
 10
1.767631999999935
 20
5.159304999999988
 30
0.0
 11
0.3600000000000136
 21
5.149298999999983
 31
0.0
  0
ARC
  5
20CF2
330
1F
100
AcDbEntity
  8
1
100
AcDbCircle
 10
1.769181999999999
 20
5.449691000000001
 30
0.0
 40
0.290087
100
AcDbArc
 50
269.6942139999996
 51
334.0983339999977
  0
ARC
  5
20CF3
330
1F
100
AcDbEntity
  8
1
100
AcDbCircle
 10
1.735951999999996
 20
5.462849000000004
 30
0.0
 40
0.325555
100
AcDbArc
 50
334.5699060000002
 51
1.602777999998679
  0
ELLIPSE
  5
20CF4
330
1F
100
AcDbEntity
  8
1
100
AcDbEllipse
 10
1.223497999999949
 20
-25.92970800000001
 30
0.0
 11
3.990569591522216
 21
74.89376068115234
 31
0.0
210
0.0
220
0.0
230
1.0
 40
0.0103
 41
1.190619204790571
 42
1.245560200113486
  0
LINE
  5
20CF5
330
1F
100
AcDbEntity
  8
1
 48
0.0407
100
AcDbLine
 10
1.987993999999956
 20
1.900407
 30
0.0
 11
0.3600000000000136
 21
1.908919999999993
 31
0.0
  0
SPLINE
  5
20CF6
330
1F
100
AcDbEntity
  8
1
100
AcDbSpline
210
0.0
220
0.0
230
1.0
 70
     8
 71
     5
 72
    18
 73
    12
 74
     0
 42
0.000000001
 43
0.0000000001
 40
0.0
 40
0.0
 40
0.0
 40
0.0
 40
0.0
 40
0.0
 40
0.3245407719310655
 40
0.3245407719310655
 40
0.3245407719310655
 40
0.6296222671993066
 40
0.6296222671993066
 40
0.6296222671993066
 40
0.7687075086986877
 40
0.7687075086986877
 40
0.7687075086986877
 40
0.7687075086986877
 40
0.7687075086986877
 40
0.7687075086986877
 10
1.987994327376553
 20
1.900407412598838
 30
0.0
 10
2.025467698028819
 20
1.900210186566311
 30
0.0
 10
2.062894613763545
 20
1.896999704308739
 30
0.0
 10
2.099996142032181
 20
1.890623843094004
 30
0.0
 10
2.166790772196462
 20
1.87236509039684
 30
0.0
 10
2.2211227900342
 20
1.842352381811821
 30
0.0
 10
2.243423899902836
 20
1.825050313905903
 30
0.0
 10
2.267865832666415
 20
1.796487909781716
 30
0.0
 10
2.279388379902911
 20
1.764587349393423
 30
0.0
 10
2.28169707521249
 20
1.754204586674716
 30
0.0
 10
2.282616833252404
 20
1.743838612058908
 30
0.0
 10
2.282216347975008
 20
1.73342501720512
 30
0.0
  0
LINE
  5
20CF7
330
1F
100
AcDbEntity
  8
1
 48
0.096874
100
AcDbLine
 10
2.282215999999948
 20
1.733423999999985
 30
0.0
 11
2.061402999999926
 21
-2.135236000000019
 31
0.0
  0
ARC
  5
20CF8
330
1F
100
AcDbEntity
  8
1
100
AcDbCircle
 10
1.914817999999853
 20
-2.13175000000001
 30
0.0
 40
0.146754
100
AcDbArc
 50
358.6375900000007
 51
38.4087469999999
  0
SPLINE
  5
20CF9
330
1F
100
AcDbEntity
  8
1
100
AcDbSpline
210
0.0
220
0.0
230
1.0
 70
     8
 71
     5
 72
    18
 73
    12
 74
     0
 42
0.000000001
 43
0.0000000001
 40
0.0
 40
0.0
 40
0.0
 40
0.0
 40
0.0
 40
0.0
 40
0.3153837573848589
 40
0.3153837573848589
 40
0.3153837573848589
 40
0.6788190219337529
 40
0.6788190219337529
 40
0.6788190219337529
 40
0.7404425441632131
 40
0.7404425441632131
 40
0.7404425441632131
 40
0.7404425441632131
 40
0.7404425441632131
 40
0.7404425441632131
 10
1.987994327376553
 20
-6.362112418981666
 30
0.0
 10
2.024410388812384
 20
-6.362296462403577
 30
0.0
 10
2.060782972515879
 20
-6.365212949029285
 30
0.0
 10
2.095822303322846
 20
-6.370781125258559
 30
0.0
 10
2.168569971546616
 20
-6.388772020343679
 30
0.0
 10
2.227189406851379
 20
-6.418189634135472
 30
0.0
 10
2.252871441890647
 20
-6.436764804953497
 30
0.0
 10
2.273165547846474
 20
-6.460996393867588
 30
0.0
 10
2.280592199976125
 20
-6.485831797283992
 30
0.0
 10
2.28139472676048
 20
-6.489440945514757
 30
0.0
 10
2.281916610676602
 20
-6.493034231570675
 30
0.0
 10
2.282159634174149
 20
-6.496611388892262
 30
0.0
  0
LINE
  5
20CFA
330
1F
100
AcDbEntity
  8
1
 48
0.000171
100
AcDbLine
 10
2.282159999999861
 20
-6.496610999999887
 30
0.0
 11
2.282215999999948
 21
-6.503440000000011
 31
0.0
  0
LINE
  5
20CFB
330
1F
100
AcDbEntity
  8
1
 48
0.000349
100
AcDbLine
 10
2.282215999999948
 20
-6.503440000000011
 30
0.0
 11
2.281270999999945
 21
-6.489506000000004
 31
0.0
  0
LINE
  5
20CFC
330
1F
100
AcDbEntity
  8
1
 48
0.0407
100
AcDbLine
 10
1.987993999999956
 20
-6.362111999999996
 30
0.0
 11
0.3600000000000136
 21
-6.353881999999997
 31
0.0
  0
LINE
  5
20CFD
330
1F
100
AcDbEntity
  8
1
 48
0.004797
100
AcDbLine
 10
2.890624999999771
 20
1.925171000000004
 30
0.0
 11
2.897733000000016
 21
1.733424999999981
 31
0.0
  0
LINE
  5
20CFE
330
1F
100
AcDbEntity
  8
1
 48
0.015388
100
AcDbLine
 10
2.897733000000016
 20
1.733423999999985
 30
0.0
 11
2.282215999999948
 21
1.733423999999985
 31
0.0
  0
LINE
  5
20CFF
330
1F
100
AcDbEntity
  8
1
 48
0.004143
100
AcDbLine
 10
2.890624999999771
 20
-6.337853999999991
 30
0.0
 11
2.897733000000016
 21
-6.503440000000011
 31
0.0
  0
LINE
  5
20D00
330
1F
100
AcDbEntity
  8
1
 48
0.015388
100
AcDbLine
 10
2.897733000000016
 20
-6.503440000000011
 30
0.0
 11
2.282215999999948
 21
-6.503440000000011
 31
0.0
  0
LINE
  5
20D01
330
1F
100
AcDbEntity
  8
1
 48
0.000832
100
AcDbLine
 10
3.118556000000011
 20
5.471954999999978
 30
0.0
 11
3.117697000000021
 21
5.43867799999998
 31
0.0
  0
LINE
  5
20D02
330
1F
100
AcDbEntity
  8
1
 48
0.026429
100
AcDbLine
 10
3.118556000000011
 20
5.471954999999978
 30
0.0
 11
2.061402999999926
 21
5.471954999999978
 31
0.0
  0
LINE
  5
20D03
330
1F
100
AcDbEntity
  8
1
 48
0.00053
100
AcDbLine
 10
3.118556000000011
 20
-2.135236000000019
 30
0.0
 11
3.117697000000021
 21
-2.114057000000002
 31
0.0
  0
LINE
  5
20D04
330
1F
100
AcDbEntity
  8
1
 48
0.059165
100
AcDbLine
 10
2.897733000000016
 20
-6.503440000000011
 30
0.0
 11
3.06119799999999
 21
-4.142502000000006
 31
0.0
  0
LINE
  5
20D05
330
1F
100
AcDbEntity
  8
1
 48
0.096874
100
AcDbLine
 10
2.897733000000016
 20
1.733423999999985
 30
0.0
 11
3.118556000000011
 21
-2.135236000000019
 31
0.0
  0
LINE
  5
20D06
330
1F
100
AcDbEntity
  8
1
 48
0.000523
100
AcDbLine
 10
3.189726999999833
 20
-3.890518000000013
 30
0.0
 11
3.189726999999833
 21
-3.911429999999995
 31
0.0
  0
ARC
  5
20D07
330
1F
100
AcDbEntity
  8
1
100
AcDbCircle
 10
0.0749999999999318
 20
-4.705543999999888
 30
0.0
 40
0.285
100
AcDbArc
 50
0.0
 51
90.0
  0
ARC
  5
20D08
330
1F
100
AcDbEntity
  8
1
100
AcDbCircle
 10
0.0749999999999318
 20
4.705544000000003
 30
0.0
 40
0.285
100
AcDbArc
 50
270.0
 51
0.0
  0
LINE
  5
20D09
330
1F
100
AcDbEntity
  8
1
 48
0.001875
100
AcDbLine
 10
0.0
 20
-4.420544000000005
 30
0.0
 11
0.0749999999999318
 21
-4.420544000000005
 31
0.0
  0
LINE
  5
20D0A
330
1F
100
AcDbEntity
  8
1
 48
0.001875
100
AcDbLine
 10
0.0
 20
4.420544000000005
 30
0.0
 11
0.0749999999999318
 21
4.420544000000005
 31
0.0
  0
ARC
  5
20D0B
330
1F
100
AcDbEntity
  8
SK1
100
AcDbCircle
 10
-0.2000000000000455
 20
-3.584992999999997
 30
0.0
 40
0.2
100
AcDbArc
 50
0.0
 51
87.00000000000091
  0
ARC
  5
20D0C
330
1F
100
AcDbEntity
  8
SK1
100
AcDbCircle
 10
-0.2000001912485914
 20
3.584992906950901
 30
0.0
 40
0.2
100
AcDbArc
 50
272.9999999999991
 51
0.0
  0
LINE
  5
20D0D
330
1F
100
AcDbEntity
  8
SK1
 48
0.029302
100
AcDbLine
 10
-1.360000000000012
 20
-3.323924999999888
 30
0.0
 11
-0.1895329999999831
 21
-3.385266999999998
 31
0.0
  0
LINE
  5
20D0E
330
1F
100
AcDbEntity
  8
SK1
 48
0.029302
100
AcDbLine
 10
-1.360000000000012
 20
3.323925000000001
 30
0.0
 11
-0.1895329999999831
 21
3.385266999999998
 31
0.0
  0
ARC
  5
20D0F
330
1F
100
AcDbEntity
  8
SK1
100
AcDbCircle
 10
-1.551978000000076
 20
-3.379999999999995
 30
0.0
 40
0.2
100
AcDbArc
 50
16.28246100000067
 51
90.00000100000141
  0
ARC
  5
20D10
330
1F
100
AcDbEntity
  8
SK1
100
AcDbCircle
 10
-1.551978000000076
 20
3.379999999999995
 30
0.0
 40
0.2
100
AcDbArc
 50
269.9999989999986
 51
343.7175389999993
  0
LINE
  5
20D11
330
1F
100
AcDbEntity
  8
SK1
 48
0.026588
100
AcDbLine
 10
-2.615501999999991
 20
-3.180000000000006
 30
0.0
 11
-1.551978000000076
 21
-3.180000000000006
 31
0.0
  0
SPLINE
  5
20D12
330
1F
100
AcDbEntity
  8
SK1
100
AcDbSpline
210
0.0
220
0.0
230
1.0
 70
     8
 71
     3
 72
    18
 73
    14
 74
     0
 42
0.000000001
 43
0.0000000001
 40
0.0
 40
0.0
 40
0.0
 40
0.0
 40
0.0202659980461117
 40
0.0399152998614966
 40
0.0592287839196064
 40
0.0785241105138505
 40
0.1002748961213785
 40
0.1234372372345502
 40
0.1397926111217479
 40
0.1577498823481003
 40
0.1723998614962204
 40
0.1875640742831745
 40
0.1931751949199209
 40
0.1931751949199209
 40
0.1931751949199209
 40
0.1931751949199209
 10
-6.426736784444187
 20
3.012396208812389
 30
0.0
 10
-6.424705207435181
 20
3.018839283991126
 30
0.0
 10
-6.42055138423359
 20
3.0314805832339
 30
0.0
 10
-6.413847725954609
 20
3.050054150908238
 30
0.0
 10
-6.406626528919105
 20
3.068085914842838
 30
0.0
 10
-6.39836692722838
 20
3.086439978908003
 30
0.0
 10
-6.38852780309037
 20
3.105462753740225
 30
0.0
 10
-6.377823269017197
 20
3.122886060088915
 30
0.0
 10
-6.366541842101923
 20
3.138387546652892
 30
0.0
 10
-6.355956783977943
 20
3.150836809602991
 30
0.0
 10
-6.344712040003058
 20
3.162129932764229
 30
0.0
 10
-6.335757524011682
 20
3.169849463728013
 30
0.0
 10
-6.330269334011517
 20
3.174073865319996
 30
0.0
 10
-6.32876997480605
 20
3.175192155485404
 30
0.0
  0
SPLINE
  5
20D13
330
1F
100
AcDbEntity
  8
SK1
100
AcDbSpline
210
0.0
220
0.0
230
1.0
 70
     8
 71
     3
 72
    18
 73
    14
 74
     0
 42
0.000000001
 43
0.0000000001
 40
0.0
 40
0.0
 40
0.0
 40
0.0
 40
0.0202804507852834
 40
0.039995876695679
 40
0.059376139550708
 40
0.0787083440858229
 40
0.1004006432693998
 40
0.1235324611656476
 40
0.1398481790800552
 40
0.15778079715852
 40
0.1719925321109719
 40
0.187552410471052
 40
0.1937754671862509
 40
0.1937754671862509
 40
0.1937754671862509
 40
0.1937754671862509
 10
-5.686816996929337
 20
-3.012005733286258
 30
0.0
 10
-5.684785777928141
 20
-3.01845397257341
 30
0.0
 10
-5.68062722298066
 20
-3.031121989253279
 30
0.0
 10
-5.673911270976872
 20
-3.049743373822166
 30
0.0
 10
-5.666670808713092
 20
-3.067828442666665
 30
0.0
 10
-5.658403568688981
 20
-3.086195659135681
 30
0.0
 10
-5.648569373930512
 20
-3.105201360043252
 30
0.0
 10
-5.637885085708943
 20
-3.122586733809896
 30
0.0
 10
-5.626621090922526
 20
-3.138061674081398
 30
0.0
 10
-5.616144582857828
 20
-3.150383235980483
 30
0.0
 10
-5.604928541782668
 20
-3.161671822707063
 30
0.0
 10
-5.595839368996394
 20
-3.169527434883689
 30
0.0
 10
-5.590078430350671
 20
-3.173948467644378
 30
0.0
 10
-5.588411649814132
 20
-3.175183514849776
 30
0.0
  0
SPLINE
  5
20D14
330
1F
100
AcDbEntity
  8
SK1
100
AcDbSpline
210
0.0
220
0.0
230
1.0
 70
     8
 71
     3
 72
    19
 73
    15
 74
     0
 42
0.000000001
 43
0.0000000001
 40
0.0
 40
0.0
 40
0.0
 40
0.0
 40
0.010010731085212
 40
0.0275462364200223
 40
0.0446934792896227
 40
0.0616415920878816
 40
0.0786059258488374
 40
0.1002968944048333
 40
0.1234218151223897
 40
0.1397905819657085
 40
0.1577361050848561
 40
0.1721124128256709
 40
0.1874911860692106
 40
0.1929233629886524
 40
0.1929233629886524
 40
0.1929233629886524
 40
0.1929233629886524
 10
-4.946874352181566
 20
3.012493236400814
 30
0.0
 10
-4.945871913994436
 20
3.015676055956419
 30
0.0
 10
-4.943061295515462
 20
3.02441754059572
 30
0.0
 10
-4.938245349594466
 20
3.038517248951221
 30
0.0
 10
-4.932242523345052
 20
3.054649271804493
 30
0.0
 10
-4.925800788761421
 20
3.070406767238296
 30
0.0
 10
-4.91814057489546
 20
3.087289618569086
 30
0.0
 10
-4.90867287633955
 20
3.105592780210598
 30
0.0
 10
-4.897983310414018
 20
3.122992366055227
 30
0.0
 10
-4.886708644714075
 20
3.138484063949816
 30
0.0
 10
-4.876181206196406
 20
3.150863279242087
 30
0.0
 10
-4.864959732592978
 20
3.162145289355123
 30
0.0
 10
-4.856070578068396
 20
3.169819743765031
 30
0.0
 10
-4.850575597180636
 20
3.174054688999234
 30
0.0
 10
-4.849125242328796
 20
3.17513888992758
 30
0.0
  0
SPLINE
  5
20D15
330
1F
100
AcDbEntity
  8
SK1
100
AcDbSpline
210
0.0
220
0.0
230
1.0
 70
     8
 71
     3
 72
    18
 73
    14
 74
     0
 42
0.000000001
 43
0.0000000001
 40
0.0
 40
0.0
 40
0.0
 40
0.0
 40
0.0225127256878928
 40
0.0443580890160936
 40
0.061566745486635
 40
0.078739561786391
 40
0.1005350541400439
 40
0.1235882022703024
 40
0.1400456666408796
 40
0.1577985010168163
 40
0.1720181219193936
 40
0.1875313883096394
 40
0.1938321841035225
 40
0.1938321841035225
 40
0.1938321841035225
 40
0.1938321841035225
 10
-4.206805081672996
 20
-3.012012420300748
 30
0.0
 10
-4.204550266185491
 20
-3.019170516315398
 30
0.0
 10
-4.199919637240667
 20
-3.033214408817258
 30
0.0
 10
-4.192855729762412
 20
-3.052487833150194
 30
0.0
 10
-4.185770824851259
 20
-3.069843473298191
 30
0.0
 10
-4.178032295507705
 20
-3.086900953889085
 30
0.0
 10
-4.168520413456461
 20
-3.105272072288101
 30
0.0
 10
-4.157800278310218
 20
-3.122700235069173
 30
0.0
 10
-4.146550191779168
 20
-3.138137626270689
 30
0.0
 10
-4.136073437830191
 20
-3.150445163765993
 30
0.0
 10
-4.124906784136554
 20
-3.161680164182654
 30
0.0
 10
-4.115807180577917
 20
-3.169543440886172
 30
0.0
 10
-4.110037254330791
 20
-3.173969854774781
 30
0.0
 10
-4.108349173359214
 20
-3.175219693015263
 30
0.0
  0
SPLINE
  5
20D16
330
1F
100
AcDbEntity
  8
SK1
100
AcDbSpline
210
0.0
220
0.0
230
1.0
 70
     8
 71
     3
 72
    19
 73
    15
 74
     0
 42
0.000000001
 43
0.0000000001
 40
0.0
 40
0.0
 40
0.0
 40
0.0
 40
0.0166726455110484
 40
0.0328976443823541
 40
0.0488450423372881
 40
0.064606210521549
 40
0.0783972833373244
 40
0.1001289544321767
 40
0.1232912983999867
 40
0.1397591236624909
 40
0.1575127846918273
 40
0.1717430934988473
 40
0.1872485004796121
 40
0.1927350724175162
 40
0.1927350724175162
 40
0.1927350724175162
 40
0.1927350724175162
 10
-3.466848787003754
 20
3.012655853288237
 30
0.0
 10
-3.465177589679115
 20
3.017956423114298
 30
0.0
 10
-3.461776177547448
 20
3.028382115517927
 30
0.0
 10
-3.456369786504978
 20
3.043741830291082
 30
0.0
 10
-3.450664602344999
 20
3.058668642704816
 30
0.0
 10
-3.444811873342813
 20
3.072663721540833
 30
0.0
 10
-3.437680728331428
 20
3.088202998676393
 30
0.0
 10
-3.428684838609683
 20
3.105588225088723
 30
0.0
 10
-3.417959397215553
 20
3.123035165870021
 30
0.0
 10
-3.406686217179299
 20
3.138505439512584
 30
0.0
 10
-3.396205065906542
 20
3.15081881744831
 30
0.0
 10
-3.385037741919062
 20
3.162054855484796
 30
0.0
 10
-3.376143144067555
 20
3.169741298251921
 30
0.0
 10
-3.370600379225493
 20
3.174013119520224
 30
0.0
 10
-3.369135336238173
 20
3.175107958305801
 30
0.0
  0
SPLINE
  5
20D17
330
1F
100
AcDbEntity
  8
SK1
100
AcDbSpline
210
0.0
220
0.0
230
1.0
 70
     8
 71
     3
 72
    19
 73
    15
 74
     0
 42
0.000000001
 43
0.0000000001
 40
0.0
 40
0.0
 40
0.0
 40
0.0
 40
0.0202524892860532
 40
0.0399472822356221
 40
0.0593110996738213
 40
0.0786833614792872
 40
0.0908578074672886
 40
0.1068612907482132
 40
0.1236840447310831
 40
0.1401887380437141
 40
0.1579694125432627
 40
0.1723595887612252
 40
0.1877437317604424
 40
0.1939760880556672
 40
0.1939760880556672
 40
0.1939760880556672
 40
0.1939760880556672
 10
-2.726874282532775
 20
-3.011900969072285
 30
0.0
 10
-2.72484580625678
 20
-3.018340275142178
 30
0.0
 10
-2.720692620589602
 20
-3.030993010389408
 30
0.0
 10
-2.713986063428818
 20
-3.049594779192573
 30
0.0
 10
-2.706748868472118
 20
-3.067681919336961
 30
0.0
 10
-2.699784625970209
 20
-3.083164771051058
 30
0.0
 10
-2.692681590754546
 20
-3.097337189787991
 30
0.0
 10
-2.685397075323976
 20
-3.110457595952397
 30
0.0
 10
-2.67660482213364
 20
-3.124366114118402
 30
0.0
 10
-2.666564913075147
 20
-3.138145456022186
 30
0.0
 10
-2.656034994838023
 20
-3.150515177615403
 30
0.0
 10
-2.644846943728794
 20
-3.161762064124189
 30
0.0
 10
-2.635750339279184
 20
-3.1696145379004
 30
0.0
 10
-2.630032856154457
 20
-3.174001080390098
 30
0.0
 10
-2.628363408462746
 20
-3.175237738756748
 30
0.0
  0
SPLINE
  5
20D18
330
1F
100
AcDbEntity
  8
SK1
100
AcDbSpline
210
0.0
220
0.0
230
1.0
 70
     8
 71
     3
 72
    19
 73
    15
 74
     0
 42
0.000000001
 43
0.0000000001
 40
0.0
 40
0.0
 40
0.0
 40
0.0
 40
0.02025408629772
 40
0.0399415273617412
 40
0.0592905973202284
 40
0.0786458403894465
 40
0.0976455545369765
 40
0.1175897550980923
 40
0.1236304763366707
 40
0.1401045789661177
 40
0.1578686184980349
 40
0.1722439785654883
 40
0.1876238998101427
 40
0.1932768605301344
 40
0.1932768605301344
 40
0.1932768605301344
 40
0.1932768605301344
 10
-1.986816599273879
 20
3.012210338163725
 30
0.0
 10
-1.984788154597367
 20
3.0186502270885
 30
0.0
 10
-1.980635780999477
 20
3.031301203419531
 30
0.0
 10
-1.97393145468709
 20
3.049896473752994
 30
0.0
 10
-1.966699096319871
 20
3.067971664129031
 30
0.0
 10
-1.958806142106481
 20
3.085520173641015
 30
0.0
 10
-1.949938363910405
 20
3.102822070960228
 30
0.0
 10
-1.942274276334728
 20
3.115727082553746
 30
0.0
 10
-1.934457455672371
 20
3.127526277143431
 30
0.0
 10
-1.926544212415024
 20
3.13838670022173
 30
0.0
 10
-1.916028212158948
 20
3.150740607296511
 30
0.0
 10
-1.904849060038485
 20
3.161979627696098
 30
0.0
 10
-1.895903947790998
 20
3.169702034562703
 30
0.0
 10
-1.89034767906662
 20
3.173978770542531
 30
0.0
 10
-1.888836994758435
 20
3.175105200550489
 30
0.0
  0
LINE
  5
20D19
330
1F
100
AcDbEntity
  8
SK1
 48
0.008093
100
AcDbLine
 10
-1.875687999999968
 20
3.180000000000006
 30
0.0
 11
-1.551978000000076
 21
3.180000000000006
 31
0.0
  0
LINE
  5
20D1A
330
1F
100
AcDbEntity
  8
SK1
 48
0.014097
100
AcDbLine
 10
-3.356001999999988
 20
3.180000000000006
 30
0.0
 11
-2.792133000000147
 21
3.180000000000006
 31
0.0
  0
LINE
  5
20D1B
330
1F
100
AcDbEntity
  8
SK1
 48
0.014092
100
AcDbLine
 10
-6.315856000000052
 20
3.180000000000006
 30
0.0
 11
-5.752173999999968
 21
3.180000000000006
 31
0.0
  0
LINE
  5
20D1C
330
1F
100
AcDbEntity
  8
SK1
 48
0.014074
100
AcDbLine
 10
-5.575432999999974
 20
-3.180000000000006
 30
0.0
 11
-5.012472999999999
 21
-3.180000000000006
 31
0.0
  0
LINE
  5
20D1D
330
1F
100
AcDbEntity
  8
SK1
 48
0.014098
100
AcDbLine
 10
-4.836088000000017
 20
3.180000000000006
 30
0.0
 11
-4.27215799999999
 21
3.180000000000006
 31
0.0
  0
LINE
  5
20D1E
330
1F
100
AcDbEntity
  8
SK1
 48
0.014077
100
AcDbLine
 10
-4.095478000000071
 20
-3.180000000000006
 30
0.0
 11
-3.532385999999973
 21
-3.180000000000006
 31
0.0
  0
LINE
  5
20D1F
330
1F
100
AcDbEntity
  8
SK1
 48
0.005156
100
AcDbLine
 10
-6.426737000000002
 20
3.012395999999995
 30
0.0
 11
-6.488806000000067
 21
2.815719000000001
 31
0.0
  0
LINE
  5
20D20
330
1F
100
AcDbEntity
  8
SK1
 48
0.005937
100
AcDbLine
 10
-5.686817000000019
 20
-3.012006000000013
 30
0.0
 11
-5.758306000000062
 21
-2.785559000000005
 31
0.0
  0
LINE
  5
20D21
330
1F
100
AcDbEntity
  8
SK1
 48
0.005937
100
AcDbLine
 10
-4.946873999999978
 20
3.012493000000006
 30
0.0
 11
-5.018355000000155
 21
2.786035000000111
 31
0.0
  0
LINE
  5
20D22
330
1F
100
AcDbEntity
  8
SK1
 48
0.005931
100
AcDbLine
 10
-4.206805000000031
 20
-3.012011999999998
 30
0.0
 11
-4.278231000000004
 21
-2.785766999999991
 31
0.0
  0
LINE
  5
20D23
330
1F
100
AcDbEntity
  8
SK1
 48
0.005943
100
AcDbLine
 10
-3.466849000000138
 20
3.012655999999991
 30
0.0
 11
-3.538406000000009
 21
2.785960999999985
 31
0.0
  0
LINE
  5
20D24
330
1F
100
AcDbEntity
  8
SK1
 48
0.005937
100
AcDbLine
 10
-2.726874000000066
 20
-3.011900999999993
 30
0.0
 11
-2.798371999999971
 21
-2.785437000000001
 31
0.0
  0
LINE
  5
20D25
330
1F
100
AcDbEntity
  8
SK1
 48
0.005152
100
AcDbLine
 10
-1.986816999999973
 20
3.012209999999981
 30
0.0
 11
-2.048830999999835
 21
2.81570099999999
 31
0.0
  0
LINE
  5
20D26
330
1F
100
AcDbEntity
  8
SK1
 48
0.005063
100
AcDbLine
 10
-6.649999999999977
 20
2.580287999999995
 30
0.0
 11
-6.580739999999991
 21
2.770577000000001
 31
0.0
  0
ARC
  5
20D27
330
1F
100
AcDbEntity
  8
SK1
100
AcDbCircle
 10
-6.585788999999977
 20
2.89746199999999
 30
0.0
 40
0.126731
100
AcDbArc
 50
272.2915920000028
 51
323.150309999999
  0
ARC
  5
20D28
330
1F
100
AcDbEntity
  8
SK1
100
AcDbCircle
 10
-5.847778000000062
 20
-2.901351999999888
 30
0.0
 40
0.131221
100
AcDbArc
 50
40.95826699999925
 51
90.90861500000251
  0
ARC
  5
20D29
330
1F
100
AcDbEntity
  8
SK1
100
AcDbCircle
 10
-5.10672199999999
 20
2.898631999999991
 30
0.0
 40
0.128026
100
AcDbArc
 50
268.5580439999969
 51
322.9915650000046
  0
ARC
  5
20D2A
330
1F
100
AcDbEntity
  8
SK1
100
AcDbCircle
 10
-4.367750999999998
 20
-2.901296999999998
 30
0.0
 40
0.131169
100
AcDbArc
 50
40.91900899999891
 51
90.91210000000193
  0
ARC
  5
20D2B
330
1F
100
AcDbEntity
  8
SK1
100
AcDbCircle
 10
-3.626828000000044
 20
2.898774000000003
 30
0.0
 40
0.128223
100
AcDbArc
 50
268.5970550000016
 51
322.9467080000022
  0
ARC
  5
20D2C
330
1F
100
AcDbEntity
  8
SK1
100
AcDbCircle
 10
-2.887747999999986
 20
-2.901341999999998
 30
0.0
 40
0.131171
100
AcDbArc
 50
40.98666999999568
 51
90.89134799999769
  0
ARC
  5
20D2D
330
1F
100
AcDbEntity
  8
SK1
100
AcDbCircle
 10
-2.146626999999965
 20
2.898586000000107
 30
0.0
 40
0.128107
100
AcDbArc
 50
268.5636919999974
 51
322.950770000001
  0
ARC
  5
20D2E
330
1F
100
AcDbEntity
  8
SK1
100
AcDbCircle
 10
-6.012031999999976
 20
2.941815000000103
 30
0.0
 40
0.360601
100
AcDbArc
 50
14.36864200000213
 51
39.2765120000033
  0
ARC
  5
20D2F
330
1F
100
AcDbEntity
  8
SK1
100
AcDbCircle
 10
-5.269195999999964
 20
-2.942842000000013
 30
0.0
 40
0.357512
100
AcDbArc
 50
320.5144460000046
 51
345.7176439999982
  0
ARC
  5
20D30
330
1F
100
AcDbEntity
  8
SK1
100
AcDbCircle
 10
-4.530557000000158
 20
2.942498999999997
 30
0.0
 40
0.358971
100
AcDbArc
 50
14.26434600000178
 51
39.35934500000096
  0
ARC
  5
20D31
330
1F
100
AcDbEntity
  8
SK1
100
AcDbCircle
 10
-3.789835000000038
 20
-2.942385000000001
 30
0.0
 40
0.358425
100
AcDbArc
 50
320.5676620000013
 51
345.7112100000013
  0
ARC
  5
20D32
330
1F
100
AcDbEntity
  8
SK1
100
AcDbCircle
 10
-3.048399000000017
 20
2.943535999999993
 30
0.0
 40
0.356624
100
AcDbArc
 50
14.24408099999907
 51
39.46945300000032
  0
LINE
  5
20D33
330
1F
100
AcDbEntity
  8
SK1
 48
0.000144
100
AcDbLine
 10
-5.849861000000032
 20
-2.770009000000015
 30
0.0
 11
-5.855633000000011
 21
-2.770009000000015
 31
0.0
  0
LINE
  5
20D34
330
1F
100
AcDbEntity
  8
SK1
 48
0.00958
100
AcDbLine
 10
-5.109951000000023
 20
2.770371999999979
 30
0.0
 11
-5.493168999999965
 21
2.770371999999979
 31
0.0
  0
LINE
  5
20D35
330
1F
100
AcDbEntity
  8
SK1
 48
0.00958
100
AcDbLine
 10
-4.369840999999836
 20
-2.770004
 30
0.0
 11
-4.753045000000156
 21
-2.770004
 31
0.0
  0
LINE
  5
20D36
330
1F
100
AcDbEntity
  8
SK1
 48
0.00958
100
AcDbLine
 10
-3.629973000000063
 20
2.770334999999988
 30
0.0
 11
-4.013186000000017
 21
2.770334999999988
 31
0.0
  0
LINE
  5
20D37
330
1F
100
AcDbEntity
  8
SK1
 48
0.00958
100
AcDbLine
 10
-2.889791000000058
 20
-2.770056000000009
 30
0.0
 11
-3.273003000000129
 21
-2.770056000000009
 31
0.0
  0
LINE
  5
20D38
330
1F
100
AcDbEntity
  8
SK1
 48
0.00958
100
AcDbLine
 10
-2.149846000000025
 20
2.770225999999979
 30
0.0
 11
-2.533057999999981
 21
2.770225999999979
 31
0.0
  0
ARC
  5
20D39
330
1F
100
AcDbEntity
  8
SK1
100
AcDbCircle
 10
-5.495264000000132
 20
2.901684999999986
 30
0.0
 40
0.131189
100
AcDbArc
 50
220.9821760000006
 51
270.9139460000027
  0
ARC
  5
20D3A
330
1F
100
AcDbEntity
  8
SK1
100
AcDbCircle
 10
-4.756320000000073
 20
-2.898222000000004
 30
0.0
 40
0.12799
100
AcDbArc
 50
88.53715399999934
 51
142.9349239999991
  0
ARC
  5
20D3B
330
1F
100
AcDbEntity
  8
SK1
100
AcDbCircle
 10
-4.015259000000013
 20
2.901697999999981
 30
0.0
 40
0.131242
100
AcDbArc
 50
221.0204139999992
 51
270.904226
  0
ARC
  5
20D3C
330
1F
100
AcDbEntity
  8
SK1
100
AcDbCircle
 10
-3.276025000000004
 20
-2.898810999999993
 30
0.0
 40
0.12855
100
AcDbArc
 50
88.65527799999863
 51
142.734983999999
  0
ARC
  5
20D3D
330
1F
100
AcDbEntity
  8
SK1
100
AcDbCircle
 10
-2.535155000000145
 20
2.901580999999993
 30
0.0
 40
0.131232
100
AcDbArc
 50
220.9589109999965
 51
270.9145310000026
  0
LINE
  5
20D3E
330
1F
100
AcDbEntity
  8
SK1
 48
0.020422
100
AcDbLine
 10
-5.860924000000068
 20
-2.769475999999996
 30
0.0
 11
-6.649999999999977
 21
-2.558088999999995
 31
0.0
  0
LINE
  5
20D3F
330
1F
100
AcDbEntity
  8
SK1
 48
0.006438
100
AcDbLine
 10
-5.584663999999975
 20
2.785874000000005
 30
0.0
 11
-5.662167999999837
 21
3.031440000000003
 31
0.0
  0
LINE
  5
20D40
330
1F
100
AcDbEntity
  8
SK1
 48
0.006441
100
AcDbLine
 10
-4.844599000000016
 20
-2.785479000000009
 30
0.0
 11
-4.922154999999974
 21
-3.031187000000016
 31
0.0
  0
LINE
  5
20D41
330
1F
100
AcDbEntity
  8
SK1
 48
0.006429
100
AcDbLine
 10
-4.104675000000042
 20
2.785865000000001
 30
0.0
 11
-4.18207600000005
 21
3.031093999999995
 31
0.0
  0
LINE
  5
20D42
330
1F
100
AcDbEntity
  8
SK1
 48
0.006435
100
AcDbLine
 10
-3.364441000000056
 20
-2.785535000000009
 30
0.0
 11
-3.441921999999975
 21
-3.030995000000018
 31
0.0
  0
LINE
  5
20D43
330
1F
100
AcDbEntity
  8
SK1
 48
0.006434
100
AcDbLine
 10
-2.624702000000069
 20
2.786004999999988
 30
0.0
 11
-2.702161000000045
 21
3.031430999999996
 31
0.0
  0
LINE
  5
20D44
330
1F
100
AcDbEntity
  8
1
 48
0.015388
100
AcDbLine
 10
2.897733000000016
 20
-6.503440000000011
 30
0.0
 11
2.282215999999948
 21
-6.503440000000011
 31
0.0
  0
LINE
  5
20D45
330
1F
100
AcDbEntity
  8
1
 48
0.059165
100
AcDbLine
 10
2.897733000000016
 20
-6.503440000000011
 30
0.0
 11
3.06119799999999
 21
-4.142502000000006
 31
0.0
  0
LINE
  5
20D46
330
1F
100
AcDbEntity
  8
1
 48
0.000293
100
AcDbLine
 10
3.189740000000028
 20
-4.351162000000016
 30
0.0
 11
3.189726999999833
 21
-4.339426000000003
 31
0.0
  0
LINE
  5
20D47
330
1F
100
AcDbEntity
  8
1
 48
0.008261
100
AcDbLine
 10
3.189726999999833
 20
-4.339426000000003
 30
0.0
 11
3.166332000000011
 21
-4.009828999999995
 31
0.0
  0
LINE
  5
20D48
330
1F
100
AcDbEntity
  8
1
 48
0.000636
100
AcDbLine
 10
2.142647000000009
 20
-6.565395999999991
 30
0.0
 11
2.145208000000025
 21
-6.590700999999994
 31
0.0
  0
LINE
  5
20D49
330
1F
100
AcDbEntity
  8
1
 48
0.005261
100
AcDbLine
 10
2.145208000000025
 20
-6.590700999999994
 30
0.0
 11
2.130760000000008
 21
-6.380761000000005
 31
0.0
  0
LINE
  5
20D4A
330
1F
100
AcDbEntity
  8
1
 48
0.056415
100
AcDbLine
 10
3.034784999999942
 20
-6.590708000000005
 30
0.0
 11
3.189726999999833
 21
-4.339426000000003
 31
0.0
  0
LINE
  5
20D4B
330
1F
100
AcDbEntity
  8
1
 48
0.000636
100
AcDbLine
 10
3.037347999999951
 20
-6.565394999999995
 30
0.0
 11
3.034784999999942
 21
-6.590708000000005
 31
0.0
  0
ELLIPSE
  5
20D4C
330
1F
100
AcDbEntity
  8
1
100
AcDbEllipse
 10
2.071181000000024
 20
-2.655062000000015
 30
0.0
 11
0.1515250355005264
 21
-4.252139091491698
 31
0.0
210
0.0
220
0.0
230
1.0
 40
0.040937
 41
5.893457300509312
 42
6.198174335104946
  0
ELLIPSE
  5
20D4D
330
1F
100
AcDbEntity
  8
1
100
AcDbEllipse
 10
2.071645999999985
 20
-2.66504500000002
 30
0.0
 11
0.1510601043701172
 21
-4.242156028747555
 31
0.0
210
0.0
220
0.0
230
0.9999999999999998
 40
0.040981
 41
6.281722935939613
 42
6.721564165156122
  0
ARC
  5
20D4E
330
1F
100
AcDbEntity
  8
1
100
AcDbCircle
 10
2.229367000000023
 20
-6.885955999999991
 30
0.0
 40
0.022608
100
AcDbArc
 50
196.2662780000013
 51
251.9736079999992
  0
ELLIPSE
  5
20D4F
330
1F
100
AcDbEntity
  8
1
100
AcDbEllipse
 10
3.108723000000168
 20
-2.655641999999999
 30
0.0
 11
-0.1514536887407303
 21
-4.251558780670166
 31
0.0
210
0.0
220
0.0
230
0.9999999999999998
 40
0.040952
 41
5.845300898404143
 42
6.284645309291183
  0
ELLIPSE
  5
20D50
330
1F
100
AcDbEntity
  8
1
100
AcDbEllipse
 10
3.108749999999986
 20
-2.655416000000001
 30
0.0
 11
-0.1514799892902374
 21
-4.251785278320311
 31
0.0
210
0.0
220
0.0
230
0.9999999999999998
 40
0.040952
 41
0.0014591950917592
 42
0.3897407659550857
  0
LINE
  5
20D51
330
1F
100
AcDbEntity
  8
1
 48
0.026429
100
AcDbLine
 10
3.118556000000011
 20
5.471954999999978
 30
0.0
 11
2.061402999999926
 21
5.471954999999978
 31
0.0
  0
LINE
  5
20D52
330
1F
100
AcDbEntity
  8
1
 48
0.000963
100
AcDbLine
 10
2.570746999999983
 20
8.848522000000002
 30
0.0
 11
2.609253999999963
 21
8.848522000000002
 31
0.0
  0
LINE
  5
20D53
330
1F
100
AcDbEntity
  8
1
 48
0.020481
100
AcDbLine
 10
2.061402999999926
 20
5.471954999999978
 30
0.0
 11
1.990272808544431
 21
8.229952911589434
 31
0.0
  0
ELLIPSE
  5
20D54
330
1F
100
AcDbEntity
  8
1
100
AcDbEllipse
 10
2.580998000000021
 20
8.235713000000004
 30
0.0
 11
0.1355439126491547
 21
-0.598819375038147
 31
0.0
210
0.0
220
0.0
230
1.0
 40
0.9605259999999999
 41
2.927509938600118
 42
4.507703477329306
  0
ELLIPSE
  5
20D55
330
1F
100
AcDbEntity
  8
1
100
AcDbEllipse
 10
2.599001999999926
 20
8.235713000000004
 30
0.0
 11
-0.1355489492416382
 21
-0.5988183617591858
 31
0.0
210
0.0
220
0.0
230
0.9999999999999998
 40
0.9605249999999999
 41
1.775474866086522
 42
3.355683400790189
  0
LINE
  5
20D56
330
1F
100
AcDbEntity
  8
1
 48
0.068973
100
AcDbLine
 10
3.189726999999833
 20
8.229943999999987
 30
0.0
 11
3.118556000000011
 21
5.471954999999978
 31
0.0
  0
LINE
  5
20D57
330
1F
100
AcDbEntity
  8
1
 48
0.015388
100
AcDbLine
 10
2.897733000000016
 20
1.733424999999981
 30
0.0
 11
2.282215999999948
 21
1.733424999999981
 31
0.0
  0
LINE
  5
20D58
330
1F
100
AcDbEntity
  8
1
 48
0.096874
100
AcDbLine
 10
2.282215999999948
 20
1.733423999999985
 30
0.0
 11
2.061402999999926
 21
-2.135236000000019
 31
0.0
  0
LINE
  5
20D59
330
1F
100
AcDbEntity
  8
1
 48
0.096874
100
AcDbLine
 10
2.897733000000016
 20
1.733423999999985
 30
0.0
 11
3.118556000000011
 21
-2.135236000000019
 31
0.0
  0
LINE
  5
20D5A
330
1F
100
AcDbEntity
  8
1
 48
0.000963
100
AcDbLine
 10
2.570746999999983
 20
-4.284203000000018
 30
0.0
 11
2.609253999999963
 21
-4.284203000000018
 31
0.0
  0
LINE
  5
20D5B
330
1F
100
AcDbEntity
  8
1
 48
0.008424
100
AcDbLine
 10
2.59000000000003
 20
-3.947799000000003
 30
0.0
 11
2.570746999999983
 21
-4.284203000000018
 31
0.0
  0
LINE
  5
20D5C
330
1F
100
AcDbEntity
  8
1
 48
0.008424
100
AcDbLine
 10
2.59000000000003
 20
-3.947799000000003
 30
0.0
 11
2.609253999999963
 21
-4.284203000000018
 31
0.0
  0
LINE
  5
20D5D
330
1F
100
AcDbEntity
  8
1
 48
0.013041
100
AcDbLine
 10
2.061402999999926
 20
-2.135236000000019
 30
0.0
 11
2.040281999999933
 21
-2.656446000000016
 31
0.0
  0
LINE
  5
20D5E
330
1F
100
AcDbEntity
  8
1
 48
0.030877
100
AcDbLine
 10
1.990273
 20
-3.890523999999998
 30
0.0
 11
2.040281999999933
 21
-2.656446000000016
 31
0.0
  0
ELLIPSE
  5
20D5F
330
1F
100
AcDbEntity
  8
1
100
AcDbEllipse
 10
2.580998000000021
 20
-3.894189000000011
 30
0.0
 11
0.5908834338188173
 21
0.0119802532717586
 31
0.0
210
0.0
220
0.0
230
0.9999999999999998
 40
0.6597400000000003
 41
3.101470764391406
 42
4.68166430312542
  0
ELLIPSE
  5
20D60
330
1F
100
AcDbEntity
  8
1
100
AcDbEllipse
 10
2.599001999999926
 20
-3.894189000000011
 30
0.0
 11
0.5908834934234621
 21
-0.0119807245209813
 31
0.0
210
0.0
220
0.0
230
1.0
 40
0.6597400000000003
 41
4.743114868446621
 42
6.323323403159344
  0
LINE
  5
20D61
330
1F
100
AcDbEntity
  8
1
 48
0.043918
100
AcDbLine
 10
3.189726999999833
 20
-3.890518000000013
 30
0.0
 11
3.118556000000011
 21
-2.135236000000019
 31
0.0
  0
SPLINE
  5
20D62
330
1F
100
AcDbEntity
  8
1
100
AcDbSpline
210
0.0
220
0.0
230
1.0
 70
     8
 71
     5
 72
    24
 73
    18
 74
     0
 42
0.000000001
 43
0.0000000001
 40
0.0
 40
0.0
 40
0.0
 40
0.0
 40
0.0
 40
0.0
 40
0.0286731657920486
 40
0.0286731657920486
 40
0.0286731657920486
 40
0.0573463315840973
 40
0.0573463315840973
 40
0.0573463315840973
 40
0.2315174808318241
 40
0.2315174808318241
 40
0.2315174808318241
 40
0.4052973106743434
 40
0.4052973106743434
 40
0.4052973106743434
 40
0.5777628068551631
 40
0.5777628068551631
 40
0.5777628068551631
 40
0.5777628068551631
 40
0.5777628068551631
 40
0.5777628068551631
 10
2.340549159423062
 20
-3.002525440207477
 30
0.0
 10
2.340757109229001
 20
-3.005731090952195
 30
0.0
 10
2.340966045246203
 20
-3.008949022710878
 30
0.0
 10
2.341430416920956
 20
-3.012171735726183
 30
0.0
 10
2.342530621294939
 20
-3.018588866663661
 30
0.0
 10
2.343938919506513
 20
-3.02496547585568
 30
0.0
 10
2.344749681554502
 20
-3.028143159315759
 30
0.0
 10
2.351170186783861
 20
-3.050518010850083
 30
0.0
 10
2.362270768542884
 20
-3.071935154181488
 30
0.0
 10
2.374743909688504
 20
-3.088537711897884
 30
0.0
 10
2.403030665679351
 20
-3.117295822372796
 30
0.0
 10
2.437137639166849
 20
-3.13887568171998
 30
0.0
 10
2.455033542946806
 20
-3.147868119747101
 30
0.0
 10
2.492065443679734
 20
-3.162911086212091
 30
0.0
 10
2.53074153837599
 20
-3.172652271851575
 30
0.0
 10
2.550344347000985
 20
-3.176369166166266
 30
0.0
 10
2.570141123623215
 20
-3.17905165656677
 30
0.0
 10
2.590016841073179
 20
-3.180747624089093
 30
0.0
  0
SPLINE
  5
20D63
330
1F
100
AcDbEntity
  8
1
100
AcDbSpline
210
0.0
220
0.0
230
1.0
 70
     8
 71
     5
 72
    15
 73
     9
 74
     0
 42
0.000000001
 43
0.0000000001
 40
0.0
 40
0.0
 40
0.0
 40
0.0
 40
0.0
 40
0.0
 40
0.9526755972231415
 40
0.9526755972231415
 40
0.9526755972231415
 40
3.194455129113658
 40
3.194455129113658
 40
3.194455129113658
 40
3.194455129113658
 40
3.194455129113658
 40
3.194455129113658
 10
2.340549159423062
 20
-3.002525440207477
 30
0.0
 10
2.33363995702973
 20
-2.896016613808398
 30
0.0
 10
2.321553878529015
 20
-2.78909089795357
 30
0.0
 10
2.30602788331896
 20
-2.681531560641416
 30
0.0
 10
2.248798429710518
 20
-2.32171281597408
 30
0.0
 10
2.185240999661231
 20
-1.959001080633156
 30
0.0
 10
2.151082232877342
 20
-1.700749172007988
 30
0.0
 10
2.131879149311544
 20
-1.440362445149759
 30
0.0
 10
2.145208328404804
 20
-1.183430837809082
 30
0.0
  0
LINE
  5
20D64
330
1F
100
AcDbEntity
  8
1
 48
0.067788
100
AcDbLine
 10
2.145208000000025
 20
-1.183431000000013
 30
0.0
 11
1.990273
 21
-3.890523999999998
 31
0.0
  0
LINE
  5
20D65
330
1F
100
AcDbEntity
  8
1
 48
0.019176
100
AcDbLine
 10
2.59000000000003
 20
-3.947799000000003
 30
0.0
 11
2.590003000000023
 21
-3.180746999999995
 31
0.0
  0
LINE
  5
20D66
330
1F
100
AcDbEntity
  8
1
 48
0.067788
100
AcDbLine
 10
3.034784999999942
 20
-1.183413
 30
0.0
 11
3.189726999999833
 21
-3.890518000000013
 31
0.0
  0
SPLINE
  5
20D67
330
1F
100
AcDbEntity
  8
1
100
AcDbSpline
210
0.0
220
0.0
230
1.0
 70
     8
 71
     5
 72
    15
 73
     9
 74
     0
 42
0.000000001
 43
0.0000000001
 40
0.0
 40
0.0
 40
0.0
 40
0.0
 40
0.0
 40
0.0
 40
0.9526849139094679
 40
0.9526849139094679
 40
0.9526849139094679
 40
3.194486419743761
 40
3.194486419743761
 40
3.194486419743761
 40
3.194486419743761
 40
3.194486419743761
 40
3.194486419743761
 10
2.839448734143388
 20
-3.002525440212679
 30
0.0
 10
2.846357770343273
 20
-2.896015557939562
 30
0.0
 10
2.85844378853244
 20
-2.789088767407206
 30
0.0
 10
2.873969778347486
 20
-2.681528334465069
 30
0.0
 10
2.931199207939016
 20
-2.321705967508676
 30
0.0
 10
2.994756429827701
 20
-1.958990397002081
 30
0.0
 10
3.028914576492296
 20
-1.700735969602277
 30
0.0
 10
3.048116569818602
 20
-1.4403464918268
 30
0.0
 10
3.034784929098349
 20
-1.183412587152985
 30
0.0
  0
SPLINE
  5
20D68
330
1F
100
AcDbEntity
  8
1
100
AcDbSpline
210
0.0
220
0.0
230
1.0
 70
     8
 71
     5
 72
    21
 73
    15
 74
     0
 42
0.000000001
 43
0.0000000001
 40
0.0
 40
0.0
 40
0.0
 40
0.0
 40
0.0
 40
0.0
 40
0.0286910173120296
 40
0.0286910173120296
 40
0.0286910173120296
 40
0.0573820346240589
 40
0.0573820346240589
 40
0.0573820346240589
 40
0.2316437744922892
 40
0.2316437744922892
 40
0.2316437744922892
 40
0.5767446093196265
 40
0.5767446093196265
 40
0.5767446093196265
 40
0.5767446093196265
 40
0.5767446093196265
 40
0.5767446093196265
 10
2.839448734143843
 20
-3.002525440206483
 30
0.0
 10
2.839240661910821
 20
-3.005733087175173
 30
0.0
 10
2.839031519562013
 20
-3.008953025453876
 30
0.0
 10
2.838550886387452
 20
-3.012176261773759
 30
0.0
 10
2.837463036504344
 20
-3.018596132595178
 30
0.0
 10
2.836063892989841
 20
-3.024977334153192
 30
0.0
 10
2.835243830748368
 20
-3.028158550043372
 30
0.0
 10
2.828814385039095
 20
-3.050555568346907
 30
0.0
 10
2.817726131947893
 20
-3.071946388264763
 30
0.0
 10
2.805288655300614
 20
-3.088512185746765
 30
0.0
 10
2.762874760413523
 20
-3.131585058844763
 30
0.0
 10
2.708065553348659
 20
-3.158232256958881
 30
0.0
 10
2.669077608781435
 20
-3.170034535395103
 30
0.0
 10
2.629749488135984
 20
-3.177359668617242
 30
0.0
 10
2.590016841073179
 20
-3.180747624089093
 30
0.0
  0
LINE
  5
20D69
330
1F
100
AcDbEntity
  8
1
 48
0.030982
100
AcDbLine
 10
2.207378999999832
 20
0.0542680000000075
 30
0.0
 11
2.145208000000025
 21
-1.183433000000007
 31
0.0
  0
ARC
  5
20D6A
330
1F
100
AcDbEntity
  8
1
100
AcDbCircle
 10
-177.754015
 20
8.942126999999997
 30
0.0
 40
180.180615
100
AcDbArc
 50
357.1725969999997
 51
357.7070849999996
  0
ARC
  5
20D6B
330
1F
100
AcDbEntity
  8
1
100
AcDbCircle
 10
247.9412790000004
 20
11.84914799999998
 30
0.0
 40
245.25265
100
AcDbArc
 50
182.3639040000015
 51
183.0460900000016
  0
LINE
  5
20D6C
330
1F
100
AcDbEntity
  8
1
 48
0.012472
100
AcDbLine
 10
2.839448999999944
 20
-3.002525000000018
 30
0.0
 11
2.340549000000009
 21
-3.002525000000018
 31
0.0
  0
LINE
  5
20D6D
330
1F
100
AcDbEntity
  8
1
 48
0.004632
100
AcDbLine
 10
2.142647000000009
 20
-6.565395999999991
 30
0.0
 11
2.129923999999959
 21
-6.380533000000013
 31
0.0
  0
LINE
  5
20D6E
330
1F
100
AcDbEntity
  8
1
 48
0.055487
100
AcDbLine
 10
3.037347999999951
 20
-6.565394999999995
 30
0.0
 11
3.189740000000028
 21
-4.351162000000016
 31
0.0
  0
LINE
  5
20D6F
330
1F
100
AcDbEntity
  8
1
 48
0.018377
100
AcDbLine
 10
2.957524000000034
 20
-6.907205999999887
 30
0.0
 11
2.222451999999974
 21
-6.907205999999887
 31
0.0
  0
LWPOLYLINE
  5
20D70
102
{ACAD_REACTORS
330
20D76
330
20D81
102
}
330
1F
100
AcDbEntity
  8
CUT
100
AcDbPolyline
 90
      159
 70
     1
 43
0.0
 10
2.570746519326006
 20
8.850000000001699
 10
2.558379475849392
 20
8.849866103435571
 10
2.546018580263761
 20
8.849464303133801
 10
2.533669935274133
 20
8.848794568154602
 10
2.521339619062587
 20
8.847857045436427
 10
2.509033682019889
 20
8.846652057218619
 10
2.496758143480633
 20
8.845180098462408
 10
2.48451898845576
 20
8.843441834270747
 10
2.472322164365094
 20
8.841438097309518
 10
2.460173577772025
 20
8.8391698852281
 10
2.448079091116028
 20
8.836638358079824
 10
2.436044519445431
 20
8.833844835742326
 10
2.424075627152545
 20
8.830790795338572
 10
2.412178124704381
 20
8.827477868657522
 10
2.400357665378578
 20
8.823907839574246
 10
2.388619841994909
 20
8.820082641471001
 10
2.376970183648608
 20
8.816004354657508
 10
2.365414152445509
 20
8.811675203791908
 10
2.353957140232977
 20
8.807097555300885
 10
2.342604465334487
 20
8.802273914800906
 10
2.33136136928283
 20
8.797206924518008
 10
2.320233013553433
 20
8.791899360709322
 10
2.309224476297116
 20
8.786354131082902
 10
2.298340749074326
 20
8.780574272218927
 10
2.287586733587318
 20
8.774562946989732
 10
2.276967238414384
 20
8.768323441980925
 10
2.266486975742963
 20
8.76185916491184
 10
2.25615055810192
 20
8.755173642055806
 10
2.245962495097046
 20
8.748270515661431
 10
2.235927190142205
 20
8.741153541372341
 10
2.22604893719324
 20
8.733826585648612
 10
2.216331917473326
 20
8.726293623176616
 10
2.206780181830366
 20
8.718558715784837
 10
2.197397615238628
 20
8.710625958116422
 10
2.188187966641407
 20
8.702499499417397
 10
2.179154857933895
 20
8.694183548579387
 10
2.170301785437118
 20
8.685682370931742
 10
2.161632121370074
 20
8.677000285033214
 10
2.153149115323913
 20
8.668141659465334
 10
2.144855895736327
 20
8.659110909623905
 10
2.136755471361993
 20
8.649912494512022
 10
2.128850732749583
 20
8.640550913531512
 10
2.121144453712303
 20
8.631030703276023
 10
2.113639292802531
 20
8.621356434322933
 10
2.106337794785416
 20
8.611532708025805
 10
2.099242392111818
 20
8.601564153306838
 10
2.092355406391106
 20
8.591455423448906
 10
2.085679049866143
 20
8.581211192887707
 10
2.079215426885184
 20
8.570836154005121
 10
2.072966535375825
 20
8.56033501391991
 10
2.066934268318277
 20
8.549712491281439
 10
2.061120415219534
 20
8.538973313061317
 10
2.055526663585054
 20
8.52812221134593
 10
2.050154600393851
 20
8.517163920128581
 10
2.045005713571184
 20
8.506103172101916
 10
2.04008139346206
 20
8.494944695450243
 10
2.035382934303696
 20
8.483693210641803
 10
2.030911535700623
 20
8.472353427221207
 10
2.026668304096915
 20
8.460930040601851
 10
2.022654254250028
 20
8.449427728857415
 10
2.01887031070305
 20
8.437851149515521
 10
2.015317309260581
 20
8.426204936348909
 10
2.011995997779536
 20
8.414493691963315
 10
2.008906905483967
 20
8.40272115156074
 10
2.006050368087015
 20
8.390890217765218
 10
2.003426953171696
 20
8.379005537563925
 10
2.00103738332848
 20
8.367073071309249
 10
1.998882391711504
 20
8.355099249494941
 10
1.996962577595468
 20
8.343090129532013
 10
1.995278261934004
 20
8.331050552523606
 10
1.993829353537306
 20
8.318983282239344
 10
1.992615597882718
 20
8.306888836137433
 10
1.991636992261759
 20
8.294769598565919
 10
1.990893629513834
 20
8.282631257880439
 10
1.99038561035229
 20
8.270481350739999
 10
1.990112966569084
 20
8.258327721564198
 10
1.990075584239662
 20
8.246176981989009
 10
1.990273
 20
8.234032999999982
 10
2.040281999999933
 20
6.316196999999986
 10
2.061402999999926
 20
5.515748999999998
 10
3.118556000000011
 20
5.515748999999998
 10
3.189727007278519
 20
8.234024277998997
 10
3.189924728105437
 20
8.246167956034497
 10
3.18988752691348
 20
8.258318812591994
 10
3.189615059930359
 20
8.270472562214621
 10
3.1891072131408
 20
8.282622593085308
 10
3.188364018233187
 20
8.294761060570721
 10
3.187385575822986
 20
8.306880427809602
 10
3.186171978679453
 20
8.318975006301485
 10
3.184723224068988
 20
8.331042411650429
 10
3.18303905746211
 20
8.343082126384302
 10
3.181119387637294
 20
8.355091386649007
 10
3.178964535497924
 20
8.367065351199897
 10
3.176575100260606
 20
8.378997962452983
 10
3.173951815020018
 20
8.390882789733126
 10
3.171095402311721
 20
8.402713872523236
 10
3.168006429677461
 20
8.414486563712301
 10
3.164685232808096
 20
8.426197960598415
 10
3.161132340900053
 20
8.43784432786694
 10
3.157348501777049
 20
8.449421062779919
 10
3.153334551211627
 20
8.460923531430324
 10
3.149091413718678
 20
8.472347076154505
 10
3.144620104029968
 20
8.483687018740425
 10
3.139921728566377
 20
8.494938663634512
 10
3.134997486912084
 20
8.506097301150731
 10
3.129848673287596
 20
8.517158210677337
 10
3.124476678024393
 20
8.528116663885214
 10
3.118882989037274
 20
8.538967927935741
 10
3.113069193297518
 20
8.549707268687996
 10
3.107036978307973
 20
8.560329953907311
 10
3.100788133574837
 20
8.570831256472812
 10
3.094324552082753
 20
8.581206457584841
 10
3.087648231766593
 20
8.591450849973396
 10
3.080761276986776
 20
8.601559741105404
 10
3.073665900001401
 20
8.611528456392816
 10
3.066364422439392
 20
8.621352342400427
 10
3.058859276776273
 20
8.63102677005358
 10
3.051153007805055
 20
8.640547137845912
 10
3.043248274111306
 20
8.649908875047344
 10
3.035147849545978
 20
8.659107444911484
 10
3.026854624699581
 20
8.668138347884221
 10
3.018371608373967
 20
8.67699712481081
 10
3.009701929058563
 20
8.685679360143721
 10
3.000848836401473
 20
8.694180685151025
 10
2.991815702683993
 20
8.7024967811235
 10
2.982606024294453
 20
8.710623382582808
 10
2.973223423200464
 20
8.718556280489423
 10
2.963671648423313
 20
8.726291325450006
 10
2.95395458502162
 20
8.733824422675438
 10
2.944076283934919
 20
8.741151510190121
 10
2.934040926483476
 20
8.7482686131641
 10
2.923852806726472
 20
8.755171864997578
 10
2.913516328184981
 20
8.761857509911235
 10
2.903036000575979
 20
8.768321905524743
 10
2.892416436545545
 20
8.774561525437603
 10
2.881662348402528
 20
8.78057296180782
 10
2.870778544849371
 20
8.786352927931517
 10
2.859769927717819
 20
8.791898260822589
 10
2.848641488701446
 20
8.797205923792347
 10
2.837398306088061
 20
8.802273009028425
 10
2.826045541493043
 20
8.807096740174898
 10
2.814588436592997
 20
8.811674474911823
 10
2.803032309858508
 20
8.816003707534008
 10
2.791382553287462
 20
8.820082071531514
 10
2.779644629137577
 20
8.823907342168126
 10
2.76782406666109
 20
8.827477439061793
 10
2.755926458835459
 20
8.830790428763721
 10
2.743957459099078
 20
8.833844527337532
 10
2.731922778083116
 20
8.836638102939419
 10
2.719828180344051
 20
8.839169678397523
 10
2.70767948109858
 20
8.841437933790729
 10
2.695482542954664
 20
8.843441709029008
 10
2.683243272646449
 20
8.845180006432912
 10
2.670967617767018
 20
8.84665199331232
 10
2.658661563500003
 20
8.847857004546739
 10
2.646331129354734
 20
8.848794545164224
 10
2.633982365898986
 20
8.849464292921338
 10
2.621621351491171
 20
8.849866100882536
 10
2.609254189013768
 20
8.849999999999511
  0
LINE
  5
20D71
330
1F
100
AcDbEntity
  8
4
100
AcDbLine
 10
0.0
 20
0.0
 30
0.0
 11
3.613536509187268
 21
0.0
 31
0.0
  0
LWPOLYLINE
  5
20D72
102
{ACAD_XDICTIONARY
360
20F00
102
}
330
1F
100
AcDbEntity
  8
NOCUT
100
AcDbPolyline
 90
       22
 70
     1
 43
0.0
 10
2.048187310663024
 20
5.370679760011086
 10
2.029238488915892
 20
5.321156607163914
 42
-0.2423274214080404
 10
1.815620594324059
 20
5.163345187168316
 10
1.763350576386983
 20
5.159274565962816
 10
0.3600000000000136
 20
5.149298999999983
 10
0.3600000000000136
 20
4.760350999999984
 10
0.3600000000000136
 20
4.705544000000003
 42
-0.4142135623732849
 10
0.0749999999998181
 20
4.420544000000005
 10
0.0
 20
4.420544000000005
 10
0.0
 20
0.0
 10
2.887328403750415
 20
0.0
 10
2.644406931143179
 20
2.754517280780333
 10
2.887252999999986
 20
4.13176700000011
 10
2.988334000000008
 20
4.705026000000002
 10
2.998025999999866
 20
4.759991999999981
 10
2.998093999999923
 20
4.760377000000004
 10
3.09731099999999
 20
5.323063999999988
 10
3.117697000000021
 20
5.43867799999998
 10
3.118556000000011
 20
5.471954999999978
 10
3.118556000000011
 20
5.515748999999998
 10
2.061402999999926
 20
5.515748999999998
 10
2.061379629887027
 20
5.471954807544505
 42
-0.0789165545813198
  0
LINE
  5
20D73
330
1F
100
AcDbEntity
  8
SK4
100
AcDbLine
 10
0.0
 20
0.0
 30
0.0
 11
-7.343536132711165
 21
0.0
 31
0.0
  0
DIMENSION
  5
20D74
102
{ACAD_XDICTIONARY
360
20D75
102
}
102
{ACAD_REACTORS
330
20D76
102
}
330
1F
100
AcDbEntity
  8
2
100
AcDbDimension
  2
*D2
 10
1.990094275404146
 20
18.55806015657676
 30
0.0
 11
-14.55691178230751
 21
18.55806015657676
 31
0.0
 70
   160
 71
     5
 42
1.199811852105313
  3
STANDARD
100
AcDbAlignedDimension
 13
3.189906127509459
 23
8.252243384313246
 33
0.0
 14
1.990094275404145
 24
8.252252351776531
 34
0.0
100
AcDbRotatedDimension
1001
ACAD
1000
DSTYLE
1002
{
1070
   172
1070
     1
1002
}
  0
DIMENSION
  5
20D77
330
1F
100
AcDbEntity
  8
2
100
AcDbDimension
  2
*D1
 10
2.579257353803654
 20
8.286796042830985
 30
0.0
 11
16.66881007938178
 21
17.048800900526
 31
0.0
 70
    36
 71
     5
 42
0.5909324952112202
  3
STANDARD
100
AcDbRadialDimension
 15
3.113527422785181
 25
8.539296948348237
 35
0.0
 40
0.0
1001
ACAD_DSTYLE_DIMRADIAL_EXTENSION
1070
   387
1070
     1
1070
   388
1040
6.23624699737148
1070
   390
1040
1.554195938614293
1001
ACAD
1000
DSTYLE
1002
{
1070
   288
1070
     1
1002
}
  0
INSERT
  5
20D78
330
1F
100
AcDbEntity
  8
SK2
100
AcDbBlockReference
  2
cero_point
 10
0.0
 20
0.0
 30
0.0
 41
0.3607807931820824
 42
0.3607807931820824
 43
0.3607807931820824
  0
ATTDEF
  5
20D79
330
1F
100
AcDbEntity
  8
SK6
100
AcDbText
 10
-35.619167290395
 20
-17.2647284824265
 30
0.0
 40
3.5
  1

 72
     1
 11
-14.39042519622774
 21
-17.2647284824265
 31
0.0
100
AcDbAttributeDefinition
  3

  2
16T17712T6RP06
 70
     0
  0
LINE
  5
20D7A
330
1F
100
AcDbEntity
  8
INFTOTAL
100
AcDbLine
 10
-44.8206375283421
 20
-13.82947212910241
 30
0.0
 11
-44.8206375283421
 21
26.17978319388701
 31
0.0
  0
LINE
  5
20D7B
330
1F
100
AcDbEntity
  8
INFTOTAL
100
AcDbLine
 10
-44.8206375283421
 20
26.17978319388701
 30
0.0
 11
-4.544810342580943
 21
26.17978319388701
 31
0.0
  0
LINE
  5
20D7C
330
1F
100
AcDbEntity
  8
INFTOTAL
100
AcDbLine
 10
24.40270883015104
 20
13.09664305613731
 30
0.0
 11
24.40270883015104
 21
-27.6675041850219
 31
0.0
  0
LINE
  5
20D7D
330
1F
100
AcDbEntity
  8
INFTOTAL
100
AcDbLine
 10
24.40270883015104
 20
-27.6675041850219
 30
0.0
 11
-24.9351786086836
 21
-27.6675041850219
 31
0.0
  0
DIMENSION
  5
20D7F
102
{ACAD_XDICTIONARY
360
20D80
102
}
102
{ACAD_REACTORS
330
20D81
102
}
330
1F
100
AcDbEntity
  8
2
100
AcDbDimension
  2
*D3
 10
15.58322050784534
 20
-8.850000000000578
 30
0.0
 11
15.58322050784534
 21
0.0000000000000284
 31
0.0
 70
   160
  1
%%C<>
 71
     5
 42
17.70000000000118
  3
STANDARD
100
AcDbAlignedDimension
 13
2.590000354169886
 23
8.850000000000591
 33
0.0
 14
2.590000354169886
 24
-8.850000000000591
 34
0.0
 50
90.0
100
AcDbRotatedDimension
1001
ACAD
1000
DSTYLE
1002
{
1070
    90
1070
     1
1070
   345
1005
14
1070
   346
1005
14
1070
   347
1005
14
1002
}
  0
VIEWPORT
  5
9C00
102
{ACAD_XDICTIONARY
360
20EE2
102
}
330
1B
100
AcDbEntity
 67
     1
  8
0
100
AcDbViewport
 10
108.2280559557949
 20
71.69854161746989
 30
0.0
 40
251.8950231529317
 41
201.8884082081047
 68
     1
 69
     1
 12
108.2280559557949
 22
71.69854161746989
 13
0.0
 23
0.0
 14
10.0
 24
10.0
 15
10.0
 25
10.0
 16
0.0
 26
0.0
 36
1.0
 17
0.0
 27
0.0
 37
0.0
 42
50.0
 43
0.0
 44
0.0
 45
201.8884082081047
 50
0.0
 51
0.0
 72
   100
 90
   557088
  1

281
     0
 71
     1
 74
     0
110
0.0
120
0.0
130
0.0
111
1.0
121
0.0
131
0.0
112
0.0
122
1.0
132
0.0
 79
     0
146
0.0
  0
VIEWPORT
  5
9C02
102
{ACAD_XDICTIONARY
360
20EE4
102
}
330
1B
100
AcDbEntity
 67
     1
  8
1
100
AcDbViewport
 10
143.457083940506
 20
98.18158769607544
 30
0.0
 40
229.5313343048095
 41
157.0905403137207
 68
     2
 69
     2
 12
-44.37697124786255
 22
-35.12342998133886
 13
0.0
 23
0.0
 14
10.0
 24
10.0
 15
10.0
 25
10.0
 16
0.0
 26
0.0
 36
1.0
 17
0.0
 27
0.0
 37
0.0
 42
50.0
 43
0.0
 44
0.0
 45
300.3886240724386
 50
0.0
 51
0.0
 72
   100
 90
   557088
  1

281
     0
 71
     1
 74
     0
110
0.0
120
0.0
130
0.0
111
1.0
121
0.0
131
0.0
112
0.0
122
1.0
132
0.0
 79
     0
146
0.0
  0
ENDSEC
  0
SECTION
  2
OBJECTS
  0
DICTIONARY
  5
3182
330
0
100
AcDbDictionary
281
     1
  3
ACAD_CIP_PREVIOUS_PRODUCT_INFO
350
1B2F4
  3
ACAD_COLOR
350
31A0
  3
ACAD_DETAILVIEWSTYLE
350
1B2F0
  3
ACAD_GROUP
350
3183
  3
ACAD_LAYOUT
350
31A5
  3
ACAD_MATERIAL
350
318B
  3
ACAD_MLEADERSTYLE
350
1B221
  3
ACAD_MLINESTYLE
350
3184
  3
ACAD_PLOTSETTINGS
350
31A4
  3
ACAD_PLOTSTYLENAME
350
3189
  3
ACAD_SCALELIST
350
1B1FC
  3
ACAD_SECTIONVIEWSTYLE
350
1B2EE
  3
ACAD_TABLESTYLE
350
31A1
  3
ACAD_VISUALSTYLE
350
318F
  3
ACDB_RECOMPOSE_DATA
350
20EBB
  3
AcDbVariableDictionary
350
33A3
  3
AEC_PROPERTY_SET_DEFS
350
20C56
  3
DWGPROPS
350
20EBC
  0
DICTIONARY
  5
422A
330
2
100
AcDbDictionary
280
     1
281
     1
  3
ACAD_LAYERFILTERS
360
1B063
  3
ACAD_LAYERSTATES
360
9A1C
  3
ACLYDICTIONARY
360
1B062
  0
DICTIONARY
  5
1B2F5
330
10
100
AcDbDictionary
280
     1
281
     1
  3
ADSK_XREC_LAYER_RECONCILED
360
20A9D
  0
DICTIONARY
  5
1B2F7
330
3F8C
100
AcDbDictionary
280
     1
281
     1
  3
ADSK_XREC_LAYER_RECONCILED
360
20A9E
  0
DICTIONARY
  5
1B2F9
330
9C4A
100
AcDbDictionary
280
     1
281
     1
  3
ADSK_XREC_LAYER_RECONCILED
360
20A9F
  0
DICTIONARY
  5
1B2FB
330
9C4B
100
AcDbDictionary
280
     1
281
     1
  3
ADSK_XREC_LAYER_RECONCILED
360
20AA0
  0
DICTIONARY
  5
1B2FD
330
9C4D
100
AcDbDictionary
280
     1
281
     1
  3
ADSK_XREC_LAYER_RECONCILED
360
20AA1
  0
DICTIONARY
  5
1B2FF
330
9C4E
100
AcDbDictionary
280
     1
281
     1
  3
ADSK_XREC_LAYER_RECONCILED
360
20AA2
  0
DICTIONARY
  5
1B301
330
9C4F
100
AcDbDictionary
280
     1
281
     1
  3
ADSK_XREC_LAYER_RECONCILED
360
20AA3
  0
DICTIONARY
  5
1B303
330
9C50
100
AcDbDictionary
280
     1
281
     1
  3
ADSK_XREC_LAYER_RECONCILED
360
20AA4
  0
DICTIONARY
  5
1B305
330
9C51
100
AcDbDictionary
280
     1
281
     1
  3
ADSK_XREC_LAYER_RECONCILED
360
20AA5
  0
DICTIONARY
  5
1B307
330
13335
100
AcDbDictionary
280
     1
281
     1
  3
ADSK_XREC_LAYER_RECONCILED
360
20AA6
  0
DICTIONARY
  5
1B309
330
1686E
100
AcDbDictionary
280
     1
281
     1
  3
ADSK_XREC_LAYER_RECONCILED
360
20AA7
  0
DICTIONARY
  5
339C
330
1F
100
AcDbDictionary
280
     1
281
     1
  3
ACAD_SORTENTS
360
339D
  0
DICTIONARY
  5
1DE81
330
1B3D7
100
AcDbDictionary
280
     1
281
     1
  3
AcDbBlockTableRecordData
360
20EFE
  0
DICTIONARY
  5
20F00
330
20D72
100
AcDbDictionary
280
     1
281
     1
  3
ACAD_XREC_ROUNDTRIP
360
20F01
  0
DICTIONARY
  5
20D75
330
20D74
100
AcDbDictionary
280
     1
281
     1
  3
ACAD_DIMASSOC
360
20D76
  0
DICTIONARY
  5
20D80
330
20D7F
100
AcDbDictionary
280
     1
281
     1
  3
ACAD_DIMASSOC
360
20D81
  0
DICTIONARY
  5
20EE2
330
9C00
100
AcDbDictionary
280
     1
281
     1
  3
ACAD_XREC_ROUNDTRIP
360
20EE3
  0
DICTIONARY
  5
20EE4
330
9C02
100
AcDbDictionary
280
     1
281
     1
  3
ACAD_XREC_ROUNDTRIP
360
20EE5
  0
XRECORD
  5
1B2F4
102
{ACAD_REACTORS
330
3182
102
}
330
3182
100
AcDbXrecord
280
     1
300
ACDLT
300
2015
300
ACDLT_F_S
  0
DICTIONARY
  5
31A0
102
{ACAD_REACTORS
330
3182
102
}
330
3182
100
AcDbDictionary
281
     1
  0
DICTIONARY
  5
1B2F0
102
{ACAD_REACTORS
330
3182
102
}
330
3182
100
AcDbDictionary
281
     1
  3
Metric50
350
1B2F1
  0
DICTIONARY
  5
3183
102
{ACAD_REACTORS
330
3182
102
}
330
3182
100
AcDbDictionary
281
     1
  0
DICTIONARY
  5
31A5
102
{ACAD_REACTORS
330
3182
102
}
330
3182
100
AcDbDictionary
281
     1
  3
Layout1
350
31A7
  3
Model
350
31A6
  0
DICTIONARY
  5
318B
102
{ACAD_REACTORS
330
3182
102
}
330
3182
100
AcDbDictionary
281
     1
  3
ByBlock
350
318D
  3
ByLayer
350
318C
  3
Global
350
318E
  0
DICTIONARY
  5
1B221
102
{ACAD_REACTORS
330
3182
102
}
330
3182
100
AcDbDictionary
281
     1
  3
Standard
350
1B2ED
  0
DICTIONARY
  5
3184
102
{ACAD_REACTORS
330
3182
102
}
330
3182
100
AcDbDictionary
281
     1
  3
STANDARD
350
3185
  0
DICTIONARY
  5
31A4
102
{ACAD_REACTORS
330
3182
102
}
330
3182
100
AcDbDictionary
281
     1
  0
ACDBDICTIONARYWDFLT
  5
3189
102
{ACAD_REACTORS
330
3182
102
}
330
3182
100
AcDbDictionary
281
     1
  3
Normal
350
318A
100
AcDbDictionaryWithDefault
340
318A
  0
DICTIONARY
  5
1B1FC
102
{ACAD_REACTORS
330
3182
102
}
330
3182
100
AcDbDictionary
281
     1
  3
A0
350
1B1FD
  3
A1
350
1B1FE
  3
A2
350
1B1FF
  3
A3
350
1B200
  3
A4
350
1B201
  3
A5
350
1B202
  3
A6
350
1B203
  3
A7
350
1B204
  3
A8
350
1B205
  3
A9
350
1B206
  3
B0
350
1B207
  3
B1
350
1B208
  3
B2
350
1B209
  3
B3
350
1B20A
  3
B4
350
1B20B
  3
B5
350
1B20C
  3
B6
350
1B20D
  3
B7
350
1B20E
  3
B8
350
1B20F
  3
B9
350
1B210
  3
C0
350
1B211
  3
C1
350
1B212
  3
C2
350
1B213
  3
C3
350
1B214
  3
C4
350
1B215
  3
C5
350
1B216
  3
C6
350
1B217
  3
C7
350
1B218
  3
C8
350
1B219
  3
C9
350
1B21A
  3
D0
350
1B21B
  3
D1
350
1B21C
  3
D2
350
1B21D
  0
DICTIONARY
  5
1B2EE
102
{ACAD_REACTORS
330
3182
102
}
330
3182
100
AcDbDictionary
281
     1
  3
Metric50
350
1B2EF
  0
DICTIONARY
  5
31A1
102
{ACAD_REACTORS
330
3182
102
}
330
3182
100
AcDbDictionary
281
     1
  3
Standard
350
31A2
  0
DICTIONARY
  5
318F
102
{ACAD_REACTORS
330
3182
102
}
330
3182
100
AcDbDictionary
281
     1
  3
2dWireframe
350
3195
  3
3D Hidden
350
3197
  3
3dWireframe
350
3196
  3
Basic
350
3194
  3
Brighten
350
319B
  3
ColorChange
350
319F
  3
Conceptual
350
3198
  3
Dim
350
319A
  3
EdgeColorOff
350
1B2EC
  3
Facepattern
350
319E
  3
Flat
350
3190
  3
FlatWithEdges
350
3191
  3
Gouraud
350
3192
  3
GouraudWithEdges
350
3193
  3
Hidden
350
1B2E4
  3
JitterOff
350
1B2EA
  3
Linepattern
350
319D
  3
OverhangOff
350
1B2EB
  3
Realistic
350
3199
  3
Shaded
350
1B2E9
  3
Shaded with edges
350
1B2E8
  3
Shades of Gray
350
1B2E5
  3
Sketchy
350
1B2E6
  3
Thicken
350
319C
  3
Wireframe
350
1B2E3
  3
X-Ray
350
1B2E7
  0
XRECORD
  5
20EBB
102
{ACAD_REACTORS
330
3182
102
}
330
3182
100
AcDbXrecord
280
     1
 90
        1
330
31A2
  0
DICTIONARY
  5
33A3
102
{ACAD_REACTORS
330
3182
102
}
330
3182
100
AcDbDictionary
281
     1
  3
CANNOSCALE
350
1B222
  3
CMLEADERSTYLE
350
1B30F
  3
CTABLESTYLE
350
33A4
  3
CVIEWDETAILSTYLE
350
1B310
  3
CVIEWSECTIONSTYLE
350
1B311
  3
DIMASSOC
350
9BE8
  3
INDEXCTL
350
9BE7
  3
LAYEREVAL
350
20993
  3
LAYERNOTIFY
350
20994
  3
LIGHTINGUNITS
350
20992
  3
MSLTSCALE
350
20991
  3
SORTENTS
350
9BE6
  3
XCLIPFRAME
350
20EB9
  0
DICTIONARY
  5
20C56
102
{ACAD_REACTORS
330
3182
102
}
330
3182
100
AcDbDictionary
281
     1
  0
XRECORD
  5
20EBC
102
{ACAD_REACTORS
330
3182
102
}
330
3182
100
AcDbXrecord
280
     1
  1
DWGPROPS COOKIE
  2

  3

  4

  6

  7

  8
kamerka
  9

300
=
301
=
302
=
303
=
304
=
305
=
306
=
307
=
308
=
309
=
 40
0.0010708333333333
 41
2457351.313439815
 42
2457351.338188114
  1

 90
        0
  0
DICTIONARY
  5
1B063
102
{ACAD_REACTORS
330
422A
102
}
330
422A
100
AcDbDictionary
281
     1
  0
DICTIONARY
  5
9A1C
102
{ACAD_REACTORS
330
422A
102
}
330
422A
100
AcDbDictionary
281
     1
  0
DICTIONARY
  5
1B062
102
{ACAD_REACTORS
330
422A
102
}
330
422A
100
AcDbDictionary
281
     1
1001
ACAD
1000
<All
  0
XRECORD
  5
20A9D
102
{ACAD_REACTORS
330
1B2F5
102
}
330
1B2F5
100
AcDbXrecord
280
     1
290
     1
  0
XRECORD
  5
20A9E
102
{ACAD_REACTORS
330
1B2F7
102
}
330
1B2F7
100
AcDbXrecord
280
     1
290
     1
  0
XRECORD
  5
20A9F
102
{ACAD_REACTORS
330
1B2F9
102
}
330
1B2F9
100
AcDbXrecord
280
     1
290
     1
  0
XRECORD
  5
20AA0
102
{ACAD_REACTORS
330
1B2FB
102
}
330
1B2FB
100
AcDbXrecord
280
     1
290
     1
  0
XRECORD
  5
20AA1
102
{ACAD_REACTORS
330
1B2FD
102
}
330
1B2FD
100
AcDbXrecord
280
     1
290
     1
  0
XRECORD
  5
20AA2
102
{ACAD_REACTORS
330
1B2FF
102
}
330
1B2FF
100
AcDbXrecord
280
     1
290
     1
  0
XRECORD
  5
20AA3
102
{ACAD_REACTORS
330
1B301
102
}
330
1B301
100
AcDbXrecord
280
     1
290
     1
  0
XRECORD
  5
20AA4
102
{ACAD_REACTORS
330
1B303
102
}
330
1B303
100
AcDbXrecord
280
     1
290
     1
  0
XRECORD
  5
20AA5
102
{ACAD_REACTORS
330
1B305
102
}
330
1B305
100
AcDbXrecord
280
     1
290
     1
  0
XRECORD
  5
20AA6
102
{ACAD_REACTORS
330
1B307
102
}
330
1B307
100
AcDbXrecord
280
     1
290
     1
  0
XRECORD
  5
20AA7
102
{ACAD_REACTORS
330
1B309
102
}
330
1B309
100
AcDbXrecord
280
     1
290
     1
  0
SORTENTSTABLE
  5
339D
102
{ACAD_REACTORS
330
339C
102
}
330
339C
100
AcDbSortentsTable
330
1F
  0
DICTIONARY
  5
20EFE
102
{ACAD_REACTORS
330
1DE81
102
}
330
1DE81
100
AcDbDictionary
280
     1
281
     1
  3
Edit
360
20EFF
  0
XRECORD
  5
20F01
102
{ACAD_REACTORS
330
20F00
102
}
330
20F00
100
AcDbXrecord
280
     1
102
VERTEXIDENTIFIER
310
1700000000000000000000000000000000000000000000000000000000000000000000000000000051000000520000000000000000000000000000000000000000000000000000000000000000000000000000000000000000000000
  0
DIMASSOC
  5
20D76
102
{ACAD_REACTORS
330
20D75
102
}
330
20D75
100
AcDbDimAssoc
330
20D74
 90
        3
 70
     0
 71
     0
  1
AcDbOsnapPointRef
 72
     2
331
20D70
 73
     2
 91
       83
 40
0.5000000000000017
 10
0.0
 20
0.0
 30
0.0
 75
     0
  1
AcDbOsnapPointRef
 72
     2
331
20D70
 73
     2
 91
       76
 40
0.4999999999999984
 10
0.0
 20
0.0
 30
0.0
 75
     0
  0
DIMASSOC
  5
20D81
102
{ACAD_REACTORS
330
20D80
102
}
330
20D80
100
AcDbDimAssoc
330
20D7F
 90
        1
 70
     0
 71
     0
  1
AcDbOsnapPointRef
 72
     2
331
20D70
 73
     2
 91
      159
 40
0.5
 10
0.0
 20
0.0
 30
0.0
 75
     0
  0
XRECORD
  5
20EE3
102
{ACAD_REACTORS
330
20EE2
102
}
330
20EE2
100
AcDbXrecord
280
     1
102
SHADEPLOT
 70
     0
  0
XRECORD
  5
20EE5
102
{ACAD_REACTORS
330
20EE4
102
}
330
20EE4
100
AcDbXrecord
280
     1
102
SHADEPLOT
 70
     0
  0
ACDBDETAILVIEWSTYLE
  5
1B2F1
102
{ACAD_XDICTIONARY
360
20EFC
102
}
102
{ACAD_REACTORS
330
1B2F0
102
}
330
1B2F0
100
AcDbModelDocViewStyle
 70
     0
  3
Metric50
290
     0
100
AcDbDetailViewStyle
 70
     0
 71
     0
 90
        3
 71
     1
340
11
 40
5.0
340
0
 40
5.0
300

 40
0.0
280
     1
 71
     2
340
16
 90
       25
 71
     3
340
11
 40
5.0
 90
        0
 40
15.0
 90
        1
300
%<\AcVar ViewDetailId>% (%<\AcVar ViewScale \f "%sn">%)
 71
     4
340
16
 90
       25
340
16
 90
       25
280
     0
  0
LAYOUT
  5
31A7
102
{ACAD_XDICTIONARY
360
20EE0
102
}
102
{ACAD_REACTORS
330
31A5
102
}
330
31A5
100
AcDbPlotSettings
  1

  2
\\ingdc01\ITB3
  4
A4
  6

 40
6.805083274841307
 41
5.027085781097412
 42
6.805068969726562
 43
5.027069091796875
 44
209.9733276367186
 45
296.9683227539062
 46
0.0
 47
0.0
 48
0.0
 49
0.0
140
0.0
141
0.0
142
1.0
143
1.0
 70
   688
 72
     1
 73
     1
 74
     5
  7

 75
    16
147
1.0
148
0.0
149
0.0
100
AcDbLayout
  1
Layout1
 70
     1
 71
     1
 10
-5.027069091796875
 20
-6.805083274841307
 11
291.9412536621094
 21
203.1682443618775
 12
0.0
 22
0.0
 32
0.0
 14
28.69141678810127
 24
19.6363175392151
 34
0.0
 15
258.2227510929107
 25
176.7268578529358
 35
0.0
146
0.0
 13
0.0
 23
0.0
 33
0.0
 16
1.0
 26
0.0
 36
0.0
 17
0.0
 27
1.0
 37
0.0
 76
     0
330
1B
331
9C00
1001
ACAD_PSEXT
1000
\\ingdc01\ITB3
1000
HP LaserJet 5000 Series PCL
1000
TB
1000

1070
     0
  0
LAYOUT
  5
31A6
102
{ACAD_XDICTIONARY
360
20EDE
102
}
102
{ACAD_REACTORS
330
31A5
102
}
330
31A5
100
AcDbPlotSettings
  1

  2
\\ingdc01\ITB3
  4
A4
  6

 40
6.805083274841307
 41
5.027085781097412
 42
6.805068969726562
 43
5.027069091796875
 44
209.9733276367186
 45
296.9683227539062
 46
0.0
 47
0.0
 48
0.0
 49
0.0
140
0.0
141
0.0
142
1.0
143
1.500313223655698
 70
 11952
 72
     1
 73
     1
 74
     0
  7

 75
     0
147
0.6665274852163048
148
239.0155119930048
149
102.2558208723354
100
AcDbLayout
  1
Model
 70
     1
 71
     0
 10
0.0
 20
0.0
 11
12.0
 21
9.0
 12
0.0
 22
0.0
 32
0.0
 14
0.0
 24
0.0
 34
0.0
 15
0.0
 25
0.0
 35
0.0
146
0.0
 13
0.0
 23
0.0
 33
0.0
 16
1.0
 26
0.0
 36
0.0
 17
0.0
 27
1.0
 37
0.0
 76
     0
330
1F
331
1F4
1001
ACAD_PSEXT
1000
\\ingdc01\ITB3
1000
HP LaserJet 5000 Series PCL
1000
TB
1000

1070
     0
  0
MATERIAL
  5
318D
102
{ACAD_XDICTIONARY
360
1B22B
102
}
102
{ACAD_REACTORS
330
318B
102
}
330
318B
100
AcDbMaterial
  1
ByBlock
  0
MATERIAL
  5
318C
102
{ACAD_XDICTIONARY
360
1B22D
102
}
102
{ACAD_REACTORS
330
318B
102
}
330
318B
100
AcDbMaterial
  1
ByLayer
  0
MATERIAL
  5
318E
102
{ACAD_XDICTIONARY
360
1B22F
102
}
102
{ACAD_REACTORS
330
318B
102
}
330
318B
100
AcDbMaterial
  1
Global
  0
MLEADERSTYLE
  5
1B2ED
102
{ACAD_REACTORS
330
1B221
102
}
330
1B221
100
AcDbMLeaderStyle
170
     2
171
     1
172
     0
 90
        2
 40
0.0
 41
0.0
173
     1
 91
-1056964608
340
14
 92
       -2
290
     1
 42
2.0
291
     1
 43
0.36
  3
Standard
 44
4.0
300

342
11
174
     1
178
     6
175
     1
176
     0
 93
-1056964608
 45
4.0
292
     0
297
     0
 46
4.0
 94
-1056964608
 47
1.0
 49
1.0
140
1.0
293
     1
141
0.0
294
     1
177
     0
142
1.0
295
     0
296
     0
143
0.125
1001
ACAD_MLEADERVER
1070
     2
  0
MLINESTYLE
  5
3185
102
{ACAD_REACTORS
330
3184
102
}
330
3184
100
AcDbMlineStyle
  2
STANDARD
 70
     0
  3

 62
   256
 51
90.0
 52
90.0
 71
     2
 49
0.5
 62
   256
  6
BYLAYER
 49
-0.5
 62
   256
  6
BYLAYER
  0
ACDBPLACEHOLDER
  5
318A
102
{ACAD_REACTORS
330
3189
102
}
330
3189
  0
SCALE
  5
1B1FD
102
{ACAD_REACTORS
330
1B1FC
102
}
330
1B1FC
100
AcDbScale
 70
     0
300
1:1
140
1.0
141
1.0
290
     1
1001
ACAD
1000
AcRTDxfName
1000
SCALE
  0
SCALE
  5
1B1FE
102
{ACAD_REACTORS
330
1B1FC
102
}
330
1B1FC
100
AcDbScale
 70
     0
300
1:2
140
1.0
141
2.0
290
     0
1001
ACAD
1000
AcRTDxfName
1000
SCALE
  0
SCALE
  5
1B1FF
102
{ACAD_REACTORS
330
1B1FC
102
}
330
1B1FC
100
AcDbScale
 70
     0
300
1:4
140
1.0
141
4.0
290
     0
1001
ACAD
1000
AcRTDxfName
1000
SCALE
  0
SCALE
  5
1B200
102
{ACAD_REACTORS
330
1B1FC
102
}
330
1B1FC
100
AcDbScale
 70
     0
300
1:5
140
1.0
141
5.0
290
     0
1001
ACAD
1000
AcRTDxfName
1000
SCALE
  0
SCALE
  5
1B201
102
{ACAD_REACTORS
330
1B1FC
102
}
330
1B1FC
100
AcDbScale
 70
     0
300
1:8
140
1.0
141
8.0
290
     0
1001
ACAD
1000
AcRTDxfName
1000
SCALE
  0
SCALE
  5
1B202
102
{ACAD_REACTORS
330
1B1FC
102
}
330
1B1FC
100
AcDbScale
 70
     0
300
1:10
140
1.0
141
10.0
290
     0
1001
ACAD
1000
AcRTDxfName
1000
SCALE
  0
SCALE
  5
1B203
102
{ACAD_REACTORS
330
1B1FC
102
}
330
1B1FC
100
AcDbScale
 70
     0
300
1:16
140
1.0
141
16.0
290
     0
1001
ACAD
1000
AcRTDxfName
1000
SCALE
  0
SCALE
  5
1B204
102
{ACAD_REACTORS
330
1B1FC
102
}
330
1B1FC
100
AcDbScale
 70
     0
300
1:20
140
1.0
141
20.0
290
     0
1001
ACAD
1000
AcRTDxfName
1000
SCALE
  0
SCALE
  5
1B205
102
{ACAD_REACTORS
330
1B1FC
102
}
330
1B1FC
100
AcDbScale
 70
     0
300
1:30
140
1.0
141
30.0
290
     0
1001
ACAD
1000
AcRTDxfName
1000
SCALE
  0
SCALE
  5
1B206
102
{ACAD_REACTORS
330
1B1FC
102
}
330
1B1FC
100
AcDbScale
 70
     0
300
1:40
140
1.0
141
40.0
290
     0
1001
ACAD
1000
AcRTDxfName
1000
SCALE
  0
SCALE
  5
1B207
102
{ACAD_REACTORS
330
1B1FC
102
}
330
1B1FC
100
AcDbScale
 70
     0
300
1:50
140
1.0
141
50.0
290
     0
1001
ACAD
1000
AcRTDxfName
1000
SCALE
  0
SCALE
  5
1B208
102
{ACAD_REACTORS
330
1B1FC
102
}
330
1B1FC
100
AcDbScale
 70
     0
300
1:100
140
1.0
141
100.0
290
     0
1001
ACAD
1000
AcRTDxfName
1000
SCALE
  0
SCALE
  5
1B209
102
{ACAD_REACTORS
330
1B1FC
102
}
330
1B1FC
100
AcDbScale
 70
     0
300
2:1
140
2.0
141
1.0
290
     0
1001
ACAD
1000
AcRTDxfName
1000
SCALE
  0
SCALE
  5
1B20A
102
{ACAD_REACTORS
330
1B1FC
102
}
330
1B1FC
100
AcDbScale
 70
     0
300
4:1
140
4.0
141
1.0
290
     0
1001
ACAD
1000
AcRTDxfName
1000
SCALE
  0
SCALE
  5
1B20B
102
{ACAD_REACTORS
330
1B1FC
102
}
330
1B1FC
100
AcDbScale
 70
     0
300
8:1
140
8.0
141
1.0
290
     0
1001
ACAD
1000
AcRTDxfName
1000
SCALE
  0
SCALE
  5
1B20C
102
{ACAD_REACTORS
330
1B1FC
102
}
330
1B1FC
100
AcDbScale
 70
     0
300
10:1
140
10.0
141
1.0
290
     0
1001
ACAD
1000
AcRTDxfName
1000
SCALE
  0
SCALE
  5
1B20D
102
{ACAD_REACTORS
330
1B1FC
102
}
330
1B1FC
100
AcDbScale
 70
     0
300
100:1
140
100.0
141
1.0
290
     0
1001
ACAD
1000
AcRTDxfName
1000
SCALE
  0
SCALE
  5
1B20E
102
{ACAD_REACTORS
330
1B1FC
102
}
330
1B1FC
100
AcDbScale
 70
     0
300
1/128" = 1'-0"
140
0.0078125
141
12.0
290
     0
1001
ACAD
1000
AcRTDxfName
1000
SCALE
  0
SCALE
  5
1B20F
102
{ACAD_REACTORS
330
1B1FC
102
}
330
1B1FC
100
AcDbScale
 70
     0
300
1/64" = 1'-0"
140
0.015625
141
12.0
290
     0
1001
ACAD
1000
AcRTDxfName
1000
SCALE
  0
SCALE
  5
1B210
102
{ACAD_REACTORS
330
1B1FC
102
}
330
1B1FC
100
AcDbScale
 70
     0
300
1/32" = 1'-0"
140
0.03125
141
12.0
290
     0
1001
ACAD
1000
AcRTDxfName
1000
SCALE
  0
SCALE
  5
1B211
102
{ACAD_REACTORS
330
1B1FC
102
}
330
1B1FC
100
AcDbScale
 70
     0
300
1/16" = 1'-0"
140
0.0625
141
12.0
290
     0
1001
ACAD
1000
AcRTDxfName
1000
SCALE
  0
SCALE
  5
1B212
102
{ACAD_REACTORS
330
1B1FC
102
}
330
1B1FC
100
AcDbScale
 70
     0
300
3/32" = 1'-0"
140
0.09375
141
12.0
290
     0
1001
ACAD
1000
AcRTDxfName
1000
SCALE
  0
SCALE
  5
1B213
102
{ACAD_REACTORS
330
1B1FC
102
}
330
1B1FC
100
AcDbScale
 70
     0
300
1/8" = 1'-0"
140
0.125
141
12.0
290
     0
1001
ACAD
1000
AcRTDxfName
1000
SCALE
  0
SCALE
  5
1B214
102
{ACAD_REACTORS
330
1B1FC
102
}
330
1B1FC
100
AcDbScale
 70
     0
300
3/16" = 1'-0"
140
0.1875
141
12.0
290
     0
1001
ACAD
1000
AcRTDxfName
1000
SCALE
  0
SCALE
  5
1B215
102
{ACAD_REACTORS
330
1B1FC
102
}
330
1B1FC
100
AcDbScale
 70
     0
300
1/4" = 1'-0"
140
0.25
141
12.0
290
     0
1001
ACAD
1000
AcRTDxfName
1000
SCALE
  0
SCALE
  5
1B216
102
{ACAD_REACTORS
330
1B1FC
102
}
330
1B1FC
100
AcDbScale
 70
     0
300
3/8" = 1'-0"
140
0.375
141
12.0
290
     0
1001
ACAD
1000
AcRTDxfName
1000
SCALE
  0
SCALE
  5
1B217
102
{ACAD_REACTORS
330
1B1FC
102
}
330
1B1FC
100
AcDbScale
 70
     0
300
1/2" = 1'-0"
140
0.5
141
12.0
290
     0
1001
ACAD
1000
AcRTDxfName
1000
SCALE
  0
SCALE
  5
1B218
102
{ACAD_REACTORS
330
1B1FC
102
}
330
1B1FC
100
AcDbScale
 70
     0
300
3/4" = 1'-0"
140
0.75
141
12.0
290
     0
1001
ACAD
1000
AcRTDxfName
1000
SCALE
  0
SCALE
  5
1B219
102
{ACAD_REACTORS
330
1B1FC
102
}
330
1B1FC
100
AcDbScale
 70
     0
300
1" = 1'-0"
140
1.0
141
12.0
290
     0
1001
ACAD
1000
AcRTDxfName
1000
SCALE
  0
SCALE
  5
1B21A
102
{ACAD_REACTORS
330
1B1FC
102
}
330
1B1FC
100
AcDbScale
 70
     0
300
1-1/2" = 1'-0"
140
1.5
141
12.0
290
     0
1001
ACAD
1000
AcRTDxfName
1000
SCALE
  0
SCALE
  5
1B21B
102
{ACAD_REACTORS
330
1B1FC
102
}
330
1B1FC
100
AcDbScale
 70
     0
300
3" = 1'-0"
140
3.0
141
12.0
290
     0
1001
ACAD
1000
AcRTDxfName
1000
SCALE
  0
SCALE
  5
1B21C
102
{ACAD_REACTORS
330
1B1FC
102
}
330
1B1FC
100
AcDbScale
 70
     0
300
6" = 1'-0"
140
6.0
141
12.0
290
     0
1001
ACAD
1000
AcRTDxfName
1000
SCALE
  0
SCALE
  5
1B21D
102
{ACAD_REACTORS
330
1B1FC
102
}
330
1B1FC
100
AcDbScale
 70
     0
300
1'-0" = 1'-0"
140
12.0
141
12.0
290
     0
1001
ACAD
1000
AcRTDxfName
1000
SCALE
  0
ACDBSECTIONVIEWSTYLE
  5
1B2EF
102
{ACAD_XDICTIONARY
360
20EFA
102
}
102
{ACAD_REACTORS
330
1B2EE
102
}
330
1B2EE
100
AcDbModelDocViewStyle
 70
     0
  3
Metric50
290
     0
100
AcDbSectionViewStyle
 70
     0
 71
     0
 90
      102
 71
     1
340
11
 40
5.0
340
0
340
0
 40
5.0
300
I, O, Q, S, X, Z
 40
10.0
 90
        0
 40
2.5
 90
        0
 71
     2
340
16
 90
       25
340
16
 90
       50
 40
5.0
 40
2.5
 40
5.0
 71
     3
340
11
 40
5.0
 90
        0
 40
15.0
 90
        1
300
%<\AcVar ViewSectionStartId>%-%<\AcVar ViewSectionEndId>% (%<\AcVar ViewScale \f "%sn">%)
 71
     4
300
ANSI31
 40
1.0
 90
        0
290
     0
290
     0
 90
        6
 40
0.0
 40
1.570796326794896
 40
0.2617993877991494
 40
1.308996938995747
 40
-0.2617993877991494
 40
1.832595714594044
  0
TABLESTYLE
  5
31A2
102
{ACAD_XDICTIONARY
360
1B314
102
}
102
{ACAD_REACTORS
330
31A1
102
}
330
31A1
100
AcDbTableStyle
  3
Standard
 70
     0
 71
     0
 40
1.5
 41
1.5
280
     0
281
     0
  7
STANDARD
140
4.5
170
     2
 62
     0
 63
     7
283
     0
274
    -2
284
     1
 64
     0
275
    -2
285
     1
 65
     0
276
    -2
286
     1
 66
     0
277
    -2
287
     1
 67
     0
278
    -2
288
     1
 68
     0
279
    -2
289
     1
 69
     0
  7
STANDARD
140
6.0
170
     5
 62
     0
 63
     7
283
     0
274
    -2
284
     1
 64
     0
275
    -2
285
     1
 65
     0
276
    -2
286
     1
 66
     0
277
    -2
287
     1
 67
     0
278
    -2
288
     1
 68
     0
279
    -2
289
     1
 69
     0
  7
STANDARD
140
4.5
170
     5
 62
     0
 63
     7
283
     0
274
    -2
284
     1
 64
     0
275
    -2
285
     1
 65
     0
276
    -2
286
     1
 66
     0
277
    -2
287
     1
 67
     0
278
    -2
288
     1
 68
     0
279
    -2
289
     1
 69
     0
  0
VISUALSTYLE
  5
3195
102
{ACAD_XDICTIONARY
360
20EC7
102
}
102
{ACAD_REACTORS
330
318F
102
}
330
318F
100
AcDbVisualStyle
  2

 70
     4
 71
     0
 72
     2
 73
     0
 90
        0
 40
-0.6
 41
-30.0
 62
     5
 63
     7
 74
     1
 91
        4
 64
     7
 65
   257
 75
     1
175
     1
 42
1.0
 92
        0
 66
   257
 43
1.0
 76
     1
 77
     6
 78
     2
 67
     7
 79
     5
170
     0
171
     0
290
     0
174
     0
 93
        1
 44
0.0
173
     0
291
     0
 45
0.0
1001
ACAD
1000
AcDbSavedByObjectVersion
1070
     0
  0
VISUALSTYLE
  5
3197
102
{ACAD_XDICTIONARY
360
20ECB
102
}
102
{ACAD_REACTORS
330
318F
102
}
330
318F
100
AcDbVisualStyle
  2

 70
     6
 71
     1
 72
     2
 73
     2
 90
        0
 40
-0.6
 41
-30.0
 62
     5
 63
     7
 74
     2
 91
        2
 64
     7
 65
   257
 75
     2
175
     1
 42
40.0
 92
        0
 66
   257
 43
1.0
 76
     1
 77
     6
 78
     2
 67
     7
 79
     3
170
     0
171
     0
290
     0
174
     0
 93
        1
 44
0.0
173
     0
291
     0
 45
0.0
1001
ACAD
1000
AcDbSavedByObjectVersion
1070
     0
  0
VISUALSTYLE
  5
3196
102
{ACAD_XDICTIONARY
360
20EC9
102
}
102
{ACAD_REACTORS
330
318F
102
}
330
318F
100
AcDbVisualStyle
  2

 70
     5
 71
     0
 72
     2
 73
     0
 90
        0
 40
-0.6
 41
-30.0
 62
     5
 63
     7
 74
     1
 91
        4
 64
     7
 65
   257
 75
     1
175
     1
 42
1.0
 92
        0
 66
   257
 43
1.0
 76
     1
 77
     6
 78
     2
 67
     7
 79
     5
170
     0
171
     0
290
     0
174
     0
 93
        1
 44
0.0
173
     0
291
     0
 45
0.0
1001
ACAD
1000
AcDbSavedByObjectVersion
1070
     0
  0
VISUALSTYLE
  5
3194
102
{ACAD_XDICTIONARY
360
20EC5
102
}
102
{ACAD_REACTORS
330
318F
102
}
330
318F
100
AcDbVisualStyle
  2

 70
     7
 71
     1
 72
     0
 73
     1
 90
        0
 40
-0.6
 41
-30.0
 62
     5
 63
     7
 74
     0
 91
        4
 64
     7
 65
   257
 75
     1
175
     1
 42
1.0
 92
        8
 66
     7
 43
1.0
 76
     1
 77
     6
 78
     2
 67
     7
 79
     5
170
     0
171
     0
290
     0
174
     0
 93
        1
 44
0.0
173
     0
291
     1
 45
0.0
1001
ACAD
1000
AcDbSavedByObjectVersion
1070
     0
  0
VISUALSTYLE
  5
319B
102
{ACAD_XDICTIONARY
360
20ED3
102
}
102
{ACAD_REACTORS
330
318F
102
}
330
318F
100
AcDbVisualStyle
  2

 70
    12
 71
     2
 72
     2
 73
     0
 90
        0
 40
-0.6
 41
-30.0
 62
     5
 63
     7
 74
     1
 91
        4
 64
     7
 65
   257
 75
     1
175
     1
 42
1.0
 92
        8
 66
     7
 43
1.0
 76
     1
 77
     6
 78
     2
 67
     7
 79
     5
170
     0
171
     0
290
     0
174
     0
 93
        1
 44
50.0
173
     0
291
     1
 45
0.0
1001
ACAD
1000
AcDbSavedByObjectVersion
1070
     0
  0
VISUALSTYLE
  5
319F
102
{ACAD_XDICTIONARY
360
20EDB
102
}
102
{ACAD_REACTORS
330
318F
102
}
330
318F
100
AcDbVisualStyle
  2

 70
    16
 71
     2
 72
     2
 73
     3
 90
        0
 40
-0.6
 41
-30.0
 62
     5
 63
     8
 74
     1
 91
        4
 64
     7
 65
   257
 75
     1
175
     1
 42
1.0
 92
        8
 66
     8
 43
1.0
 76
     1
 77
     6
 78
     2
 67
     7
 79
     5
170
     0
171
     0
290
     0
174
     0
 93
        1
 44
0.0
173
     0
291
     1
 45
0.0
1001
ACAD
1000
AcDbSavedByObjectVersion
1070
     0
  0
VISUALSTYLE
  5
3198
102
{ACAD_XDICTIONARY
360
20ECD
102
}
102
{ACAD_REACTORS
330
318F
102
}
330
318F
100
AcDbVisualStyle
  2

 70
     9
 71
     3
 72
     2
 73
     0
 90
        0
 40
-0.6
 41
-30.0
 62
     5
 63
     7
 74
     2
 91
        2
 64
     7
 65
   257
 75
     1
175
     1
 42
40.0
 92
        8
 66
     7
 43
1.0
 76
     1
 77
     6
 78
     2
 67
     7
 79
     3
170
     0
171
     0
290
     0
174
     0
 93
        1
 44
0.0
173
     0
291
     0
 45
0.0
1001
ACAD
1000
AcDbSavedByObjectVersion
1070
     0
  0
VISUALSTYLE
  5
319A
102
{ACAD_XDICTIONARY
360
20ED1
102
}
102
{ACAD_REACTORS
330
318F
102
}
330
318F
100
AcDbVisualStyle
  2

 70
    11
 71
     2
 72
     2
 73
     0
 90
        0
 40
-0.6
 41
-30.0
 62
     5
 63
     7
 74
     1
 91
        4
 64
     7
 65
   257
 75
     1
175
     1
 42
1.0
 92
        8
 66
     7
 43
1.0
 76
     1
 77
     6
 78
     2
 67
     7
 79
     5
170
     0
171
     0
290
     0
174
     0
 93
        1
 44
-50.0
173
     0
291
     1
 45
0.0
1001
ACAD
1000
AcDbSavedByObjectVersion
1070
     0
  0
VISUALSTYLE
  5
1B2EC
102
{ACAD_XDICTIONARY
360
20EF8
102
}
102
{ACAD_REACTORS
330
318F
102
}
330
318F
100
AcDbVisualStyle
  2

 70
    22
 71
     2
 72
     2
 73
     0
 90
        0
 40
-0.6
 41
-30.0
 62
     5
 63
     7
 74
     1
 91
        4
 64
     7
 65
   257
 75
     1
175
     1
 42
1.0
 92
        8
 66
     7
 43
1.0
 76
     1
 77
     6
 78
     2
 67
     7
 79
     5
170
     0
171
     0
290
     0
174
     0
 93
        1
 44
0.0
173
     0
291
     1
 45
0.0
1001
ACAD
1000
AcDbSavedByObjectVersion
1070
     0
  0
VISUALSTYLE
  5
319E
102
{ACAD_XDICTIONARY
360
20ED9
102
}
102
{ACAD_REACTORS
330
318F
102
}
330
318F
100
AcDbVisualStyle
  2

 70
    15
 71
     2
 72
     2
 73
     0
 90
        0
 40
-0.6
 41
-30.0
 62
     5
 63
     7
 74
     1
 91
        4
 64
     7
 65
   257
 75
     1
175
     1
 42
1.0
 92
        8
 66
     7
 43
1.0
 76
     1
 77
     6
 78
     2
 67
     7
 79
     5
170
     0
171
     0
290
     0
174
     0
 93
        1
 44
0.0
173
     0
291
     1
 45
0.0
1001
ACAD
1000
AcDbSavedByObjectVersion
1070
     0
  0
VISUALSTYLE
  5
3190
102
{ACAD_XDICTIONARY
360
20EBD
102
}
102
{ACAD_REACTORS
330
318F
102
}
330
318F
100
AcDbVisualStyle
  2

 70
     0
 71
     2
 72
     1
 73
     1
 90
        2
 40
-0.6
 41
30.0
 62
     5
 63
     7
 74
     0
 91
        4
 64
     7
 65
   257
 75
     1
175
     1
 42
1.0
 92
        8
 66
     7
 43
1.0
 76
     1
 77
     6
 78
     2
 67
     7
 79
     5
170
     0
171
     0
290
     0
174
     0
 93
       13
 44
0.0
173
     0
291
     1
 45
0.0
1001
ACAD
1000
AcDbSavedByObjectVersion
1070
     0
  0
VISUALSTYLE
  5
3191
102
{ACAD_XDICTIONARY
360
20EBF
102
}
102
{ACAD_REACTORS
330
318F
102
}
330
318F
100
AcDbVisualStyle
  2

 70
     1
 71
     2
 72
     1
 73
     1
 90
        2
 40
-0.6
 41
30.0
 62
     5
 63
     7
 74
     1
 91
        4
 64
     7
 65
   257
 75
     1
175
     1
 42
1.0
 92
        0
 66
   257
 43
1.0
 76
     1
 77
     6
 78
     2
 67
     7
 79
     5
170
     0
171
     0
290
     0
174
     0
 93
       13
 44
0.0
173
     0
291
     1
 45
0.0
1001
ACAD
1000
AcDbSavedByObjectVersion
1070
     0
  0
VISUALSTYLE
  5
3192
102
{ACAD_XDICTIONARY
360
20EC1
102
}
102
{ACAD_REACTORS
330
318F
102
}
330
318F
100
AcDbVisualStyle
  2

 70
     2
 71
     2
 72
     2
 73
     1
 90
        2
 40
-0.6
 41
30.0
 62
     5
 63
     7
 74
     0
 91
        4
 64
     7
 65
   257
 75
     1
175
     1
 42
1.0
 92
        0
 66
     7
 43
1.0
 76
     1
 77
     6
 78
     2
 67
     7
 79
     5
170
     0
171
     0
290
     0
174
     0
 93
       13
 44
0.0
173
     0
291
     1
 45
0.0
1001
ACAD
1000
AcDbSavedByObjectVersion
1070
     0
  0
VISUALSTYLE
  5
3193
102
{ACAD_XDICTIONARY
360
20EC3
102
}
102
{ACAD_REACTORS
330
318F
102
}
330
318F
100
AcDbVisualStyle
  2

 70
     3
 71
     2
 72
     2
 73
     1
 90
        2
 40
-0.6
 41
30.0
 62
     5
 63
     7
 74
     1
 91
        4
 64
     7
 65
   257
 75
     1
175
     1
 42
1.0
 92
        0
 66
   257
 43
1.0
 76
     1
 77
     6
 78
     2
 67
     7
 79
     5
170
     0
171
     0
290
     0
174
     0
 93
       13
 44
0.0
173
     0
291
     1
 45
0.0
1001
ACAD
1000
AcDbSavedByObjectVersion
1070
     0
  0
VISUALSTYLE
  5
1B2E4
102
{ACAD_XDICTIONARY
360
20EE8
102
}
102
{ACAD_REACTORS
330
318F
102
}
330
318F
100
AcDbVisualStyle
  2

 70
     6
 71
     1
 72
     2
 73
     2
 90
        0
 40
-0.6
 41
-30.0
 62
     5
 63
     7
 74
     2
 91
        2
 64
     7
 65
   257
 75
     2
175
     1
 42
40.0
 92
        0
 66
   257
 43
1.0
 76
     1
 77
     6
 78
     2
 67
     7
 79
     3
170
     0
171
     0
290
     0
174
     0
 93
        1
 44
0.0
173
     0
291
     0
 45
0.0
1001
ACAD
1000
AcDbSavedByObjectVersion
1070
     0
  0
VISUALSTYLE
  5
1B2EA
102
{ACAD_XDICTIONARY
360
20EF4
102
}
102
{ACAD_REACTORS
330
318F
102
}
330
318F
100
AcDbVisualStyle
  2

 70
    20
 71
     2
 72
     2
 73
     0
 90
        0
 40
-0.6
 41
-30.0
 62
     5
 63
     7
 74
     1
 91
        4
 64
     7
 65
   257
 75
     1
175
     1
 42
1.0
 92
       10
 66
     7
 43
1.0
 76
     1
 77
     6
 78
     2
 67
     7
 79
     5
170
     0
171
     0
290
     0
174
     0
 93
        1
 44
0.0
173
     0
291
     1
 45
0.0
1001
ACAD
1000
AcDbSavedByObjectVersion
1070
     0
  0
VISUALSTYLE
  5
319D
102
{ACAD_XDICTIONARY
360
20ED7
102
}
102
{ACAD_REACTORS
330
318F
102
}
330
318F
100
AcDbVisualStyle
  2

 70
    14
 71
     2
 72
     2
 73
     0
 90
        0
 40
-0.6
 41
-30.0
 62
     5
 63
     7
 74
     1
 91
        4
 64
     7
 65
   257
 75
     7
175
     7
 42
1.0
 92
        8
 66
     7
 43
1.0
 76
     1
 77
     6
 78
     2
 67
     7
 79
     5
170
     0
171
     0
290
     0
174
     0
 93
        1
 44
0.0
173
     0
291
     1
 45
0.0
1001
ACAD
1000
AcDbSavedByObjectVersion
1070
     0
  0
VISUALSTYLE
  5
1B2EB
102
{ACAD_XDICTIONARY
360
20EF6
102
}
102
{ACAD_REACTORS
330
318F
102
}
330
318F
100
AcDbVisualStyle
  2

 70
    21
 71
     2
 72
     2
 73
     0
 90
        0
 40
-0.6
 41
-30.0
 62
     5
 63
     7
 74
     1
 91
        4
 64
     7
 65
   257
 75
     1
175
     1
 42
1.0
 92
        9
 66
     7
 43
1.0
 76
     1
 77
     6
 78
     2
 67
     7
 79
     5
170
     0
171
     0
290
     0
174
     0
 93
        1
 44
0.0
173
     0
291
     1
 45
0.0
1001
ACAD
1000
AcDbSavedByObjectVersion
1070
     0
  0
VISUALSTYLE
  5
3199
102
{ACAD_XDICTIONARY
360
20ECF
102
}
102
{ACAD_REACTORS
330
318F
102
}
330
318F
100
AcDbVisualStyle
  2

 70
     8
 71
     2
 72
     2
 73
     0
 90
        0
 40
-0.6
 41
-30.0
 62
     5
 63
     7
 74
     1
 91
        0
 64
     7
 65
   257
 75
     1
175
     1
 42
1.0
 92
        8
 66
     8
 43
1.0
 76
     1
 77
     6
 78
     2
 67
     7
 79
     5
170
     0
171
     0
290
     0
174
     0
 93
       13
 44
0.0
173
     0
291
     0
 45
0.0
1001
ACAD
1000
AcDbSavedByObjectVersion
1070
     0
  0
VISUALSTYLE
  5
1B2E9
102
{ACAD_XDICTIONARY
360
20EF2
102
}
102
{ACAD_REACTORS
330
318F
102
}
330
318F
100
AcDbVisualStyle
  2

 70
    27
 71
     2
 72
     2
 73
     1
 90
        2
 40
-0.6
 41
30.0
 62
     5
 63
     7
 74
     0
 91
        4
 64
     7
 65
   257
 75
     1
175
     1
 42
1.0
 92
        8
 66
   257
 43
1.0
 76
     1
 77
     6
 78
     2
 67
     8
 79
     3
170
     0
171
     0
290
     0
174
     0
 93
        5
 44
0.0
173
     0
291
     0
 45
0.0
1001
ACAD
1000
AcDbSavedByObjectVersion
1070
     0
  0
VISUALSTYLE
  5
1B2E8
102
{ACAD_XDICTIONARY
360
20EF0
102
}
102
{ACAD_REACTORS
330
318F
102
}
330
318F
100
AcDbVisualStyle
  2

 70
    26
 71
     2
 72
     2
 73
     1
 90
        2
 40
-0.6
 41
30.0
 62
     5
 63
     7
 74
     1
 91
       10
 64
     7
 65
   257
 75
     2
175
     1
 42
1.0
 92
        8
 66
   257
 43
1.0
 76
     1
 77
     6
 78
     2
 67
     7
 79
     3
170
     0
171
     0
290
     0
174
     0
 93
        5
 44
0.0
173
     0
291
     0
 45
0.0
1001
ACAD
1000
AcDbSavedByObjectVersion
1070
     0
  0
VISUALSTYLE
  5
1B2E5
102
{ACAD_XDICTIONARY
360
20EEA
102
}
102
{ACAD_REACTORS
330
318F
102
}
330
318F
100
AcDbVisualStyle
  2

 70
    23
 71
     2
 72
     2
 73
     3
 90
        0
 40
-0.6
 41
-30.0
 62
     5
 63
     7
 74
     2
 91
        2
 64
     7
 65
     7
 75
     1
175
     1
 42
40.0
 92
        8
 66
     7
 43
1.0
 76
     1
 77
     6
 78
     2
 67
     7
 79
     3
170
     0
171
     0
290
     0
174
     0
 93
        1
 44
0.0
173
     0
291
     0
 45
0.0
1001
ACAD
1000
AcDbSavedByObjectVersion
1070
     0
  0
VISUALSTYLE
  5
1B2E6
102
{ACAD_XDICTIONARY
360
20EEC
102
}
102
{ACAD_REACTORS
330
318F
102
}
330
318F
100
AcDbVisualStyle
  2

 70
    24
 71
     1
 72
     2
 73
     2
 90
        0
 40
-0.6
 41
-30.0
 62
     5
 63
     7
 74
     2
 91
        2
 64
     7
 65
     7
 75
     1
175
     1
 42
40.0
 92
       11
 66
     7
 43
1.0
 76
     1
 77
     6
 78
     2
 67
     7
 79
     6
170
     0
171
     0
290
     0
174
     0
 93
        1
 44
0.0
173
     0
291
     0
 45
0.0
1001
ACAD
1000
AcDbSavedByObjectVersion
1070
     0
  0
VISUALSTYLE
  5
319C
102
{ACAD_XDICTIONARY
360
20ED5
102
}
102
{ACAD_REACTORS
330
318F
102
}
330
318F
100
AcDbVisualStyle
  2

 70
    13
 71
     2
 72
     2
 73
     0
 90
        0
 40
-0.6
 41
-30.0
 62
     5
 63
     7
 74
     1
 91
        4
 64
     7
 65
   257
 75
     1
175
     1
 42
1.0
 92
       12
 66
     7
 43
1.0
 76
     1
 77
     6
 78
     2
 67
     7
 79
     5
170
     0
171
     0
290
     0
174
     0
 93
        1
 44
0.0
173
     0
291
     1
 45
0.0
1001
ACAD
1000
AcDbSavedByObjectVersion
1070
     0
  0
VISUALSTYLE
  5
1B2E3
102
{ACAD_XDICTIONARY
360
20EE6
102
}
102
{ACAD_REACTORS
330
318F
102
}
330
318F
100
AcDbVisualStyle
  2

 70
     5
 71
     0
 72
     2
 73
     0
 90
        0
 40
-0.6
 41
-30.0
 62
     5
 63
     7
 74
     1
 91
        4
 64
     7
 65
   257
 75
     1
175
     1
 42
1.0
 92
        0
 66
   257
 43
1.0
 76
     1
 77
     6
 78
     2
 67
     7
 79
     3
170
     0
171
     0
290
     0
174
     0
 93
        1
 44
0.0
173
     0
291
     0
 45
0.0
1001
ACAD
1000
AcDbSavedByObjectVersion
1070
     0
  0
VISUALSTYLE
  5
1B2E7
102
{ACAD_XDICTIONARY
360
20EEE
102
}
102
{ACAD_REACTORS
330
318F
102
}
330
318F
100
AcDbVisualStyle
  2

 70
    25
 71
     2
 72
     2
 73
     1
 90
        1
 40
0.5
 41
-30.0
 62
     5
 63
     7
 74
     1
 91
        0
 64
     7
 65
   257
 75
     1
175
     1
 42
1.0
 92
        8
 66
     7
 43
1.0
 76
     1
 77
     6
 78
     2
 67
     7
 79
     3
170
     0
171
     0
290
     0
174
     0
 93
       13
 44
0.0
173
     0
291
     0
 45
0.0
1001
ACAD
1000
AcDbSavedByObjectVersion
1070
     0
  0
DICTIONARYVAR
  5
1B222
102
{ACAD_REACTORS
330
33A3
102
}
330
33A3
100
DictionaryVariables
280
     0
  1
1:1
  0
DICTIONARYVAR
  5
1B30F
102
{ACAD_REACTORS
330
33A3
102
}
330
33A3
100
DictionaryVariables
280
     0
  1
STANDARD
  0
DICTIONARYVAR
  5
33A4
102
{ACAD_REACTORS
330
33A3
102
}
330
33A3
100
DictionaryVariables
280
     0
  1
STANDARD
  0
DICTIONARYVAR
  5
1B310
102
{ACAD_REACTORS
330
33A3
102
}
330
33A3
100
DictionaryVariables
280
     0
  1
Metric50
  0
DICTIONARYVAR
  5
1B311
102
{ACAD_REACTORS
330
33A3
102
}
330
33A3
100
DictionaryVariables
280
     0
  1
Metric50
  0
DICTIONARYVAR
  5
9BE8
102
{ACAD_REACTORS
330
33A3
102
}
330
33A3
100
DictionaryVariables
280
     0
  1
1
  0
DICTIONARYVAR
  5
9BE7
102
{ACAD_REACTORS
330
33A3
102
}
330
33A3
100
DictionaryVariables
280
     0
  1
0
  0
DICTIONARYVAR
  5
20993
102
{ACAD_REACTORS
330
33A3
102
}
330
33A3
100
DictionaryVariables
280
     0
  1
1
  0
DICTIONARYVAR
  5
20994
102
{ACAD_REACTORS
330
33A3
102
}
330
33A3
100
DictionaryVariables
280
     0
  1
15
  0
DICTIONARYVAR
  5
20992
102
{ACAD_REACTORS
330
33A3
102
}
330
33A3
100
DictionaryVariables
280
     0
  1
0
  0
DICTIONARYVAR
  5
20991
102
{ACAD_REACTORS
330
33A3
102
}
330
33A3
100
DictionaryVariables
280
     0
  1
0
  0
DICTIONARYVAR
  5
9BE6
102
{ACAD_REACTORS
330
33A3
102
}
330
33A3
100
DictionaryVariables
280
     0
  1
127
  0
DICTIONARYVAR
  5
20EB9
102
{ACAD_REACTORS
330
33A3
102
}
330
33A3
100
DictionaryVariables
280
     0
  1
2
  0
XRECORD
  5
20EFF
102
{ACAD_REACTORS
330
20EFE
102
}
330
20EFE
100
AcDbXrecord
280
     1
1070
     0
1070
     1
1070
     1
  0
DICTIONARY
  5
20EFC
330
1B2F1
100
AcDbDictionary
280
     1
281
     1
  3
ACAD_XREC_ROUNDTRIP
360
20EFD
  0
DICTIONARY
  5
20EE0
330
31A7
100
AcDbDictionary
280
     1
281
     1
  3
ACAD_XREC_ROUNDTRIP
360
20EE1
  0
DICTIONARY
  5
20EDE
330
31A6
100
AcDbDictionary
280
     1
281
     1
  3
ACAD_XREC_ROUNDTRIP
360
20EDF
  0
DICTIONARY
  5
1B22B
330
318D
100
AcDbDictionary
280
     1
281
     1
  3
ACAD_XREC_ROUNDTRIP
360
1B22C
  0
DICTIONARY
  5
1B22D
330
318C
100
AcDbDictionary
280
     1
281
     1
  3
ACAD_XREC_ROUNDTRIP
360
1B22E
  0
DICTIONARY
  5
1B22F
330
318E
100
AcDbDictionary
280
     1
281
     1
  3
ACAD_XREC_ROUNDTRIP
360
1B230
  0
DICTIONARY
  5
20EFA
330
1B2EF
100
AcDbDictionary
280
     1
281
     1
  3
ACAD_XREC_ROUNDTRIP
360
20EFB
  0
DICTIONARY
  5
1B314
330
31A2
100
AcDbDictionary
280
     1
281
     1
  3
ACAD_ROUNDTRIP_2008_TABLESTYLE_CELLSTYLEMAP
360
20EBA
  3
ACAD_XREC_ROUNDTRIP
360
20EDD
  0
DICTIONARY
  5
20EC7
330
3195
100
AcDbDictionary
280
     1
281
     1
  3
ACAD_XREC_ROUNDTRIP
360
20EC8
  0
DICTIONARY
  5
20ECB
330
3197
100
AcDbDictionary
280
     1
281
     1
  3
ACAD_XREC_ROUNDTRIP
360
20ECC
  0
DICTIONARY
  5
20EC9
330
3196
100
AcDbDictionary
280
     1
281
     1
  3
ACAD_XREC_ROUNDTRIP
360
20ECA
  0
DICTIONARY
  5
20EC5
330
3194
100
AcDbDictionary
280
     1
281
     1
  3
ACAD_XREC_ROUNDTRIP
360
20EC6
  0
DICTIONARY
  5
20ED3
330
319B
100
AcDbDictionary
280
     1
281
     1
  3
ACAD_XREC_ROUNDTRIP
360
20ED4
  0
DICTIONARY
  5
20EDB
330
319F
100
AcDbDictionary
280
     1
281
     1
  3
ACAD_XREC_ROUNDTRIP
360
20EDC
  0
DICTIONARY
  5
20ECD
330
3198
100
AcDbDictionary
280
     1
281
     1
  3
ACAD_XREC_ROUNDTRIP
360
20ECE
  0
DICTIONARY
  5
20ED1
330
319A
100
AcDbDictionary
280
     1
281
     1
  3
ACAD_XREC_ROUNDTRIP
360
20ED2
  0
DICTIONARY
  5
20EF8
330
1B2EC
100
AcDbDictionary
280
     1
281
     1
  3
ACAD_XREC_ROUNDTRIP
360
20EF9
  0
DICTIONARY
  5
20ED9
330
319E
100
AcDbDictionary
280
     1
281
     1
  3
ACAD_XREC_ROUNDTRIP
360
20EDA
  0
DICTIONARY
  5
20EBD
330
3190
100
AcDbDictionary
280
     1
281
     1
  3
ACAD_XREC_ROUNDTRIP
360
20EBE
  0
DICTIONARY
  5
20EBF
330
3191
100
AcDbDictionary
280
     1
281
     1
  3
ACAD_XREC_ROUNDTRIP
360
20EC0
  0
DICTIONARY
  5
20EC1
330
3192
100
AcDbDictionary
280
     1
281
     1
  3
ACAD_XREC_ROUNDTRIP
360
20EC2
  0
DICTIONARY
  5
20EC3
330
3193
100
AcDbDictionary
280
     1
281
     1
  3
ACAD_XREC_ROUNDTRIP
360
20EC4
  0
DICTIONARY
  5
20EE8
330
1B2E4
100
AcDbDictionary
280
     1
281
     1
  3
ACAD_XREC_ROUNDTRIP
360
20EE9
  0
DICTIONARY
  5
20EF4
330
1B2EA
100
AcDbDictionary
280
     1
281
     1
  3
ACAD_XREC_ROUNDTRIP
360
20EF5
  0
DICTIONARY
  5
20ED7
330
319D
100
AcDbDictionary
280
     1
281
     1
  3
ACAD_XREC_ROUNDTRIP
360
20ED8
  0
DICTIONARY
  5
20EF6
330
1B2EB
100
AcDbDictionary
280
     1
281
     1
  3
ACAD_XREC_ROUNDTRIP
360
20EF7
  0
DICTIONARY
  5
20ECF
330
3199
100
AcDbDictionary
280
     1
281
     1
  3
ACAD_XREC_ROUNDTRIP
360
20ED0
  0
DICTIONARY
  5
20EF2
330
1B2E9
100
AcDbDictionary
280
     1
281
     1
  3
ACAD_XREC_ROUNDTRIP
360
20EF3
  0
DICTIONARY
  5
20EF0
330
1B2E8
100
AcDbDictionary
280
     1
281
     1
  3
ACAD_XREC_ROUNDTRIP
360
20EF1
  0
DICTIONARY
  5
20EEA
330
1B2E5
100
AcDbDictionary
280
     1
281
     1
  3
ACAD_XREC_ROUNDTRIP
360
20EEB
  0
DICTIONARY
  5
20EEC
330
1B2E6
100
AcDbDictionary
280
     1
281
     1
  3
ACAD_XREC_ROUNDTRIP
360
20EED
  0
DICTIONARY
  5
20ED5
330
319C
100
AcDbDictionary
280
     1
281
     1
  3
ACAD_XREC_ROUNDTRIP
360
20ED6
  0
DICTIONARY
  5
20EE6
330
1B2E3
100
AcDbDictionary
280
     1
281
     1
  3
ACAD_XREC_ROUNDTRIP
360
20EE7
  0
DICTIONARY
  5
20EEE
330
1B2E7
100
AcDbDictionary
280
     1
281
     1
  3
ACAD_XREC_ROUNDTRIP
360
20EEF
  0
XRECORD
  5
20EFD
102
{ACAD_REACTORS
330
20EFC
102
}
330
20EFC
100
AcDbXrecord
280
     1
102
DISPLAYNAME
  1
Metric50
102
FLAGS
 90
        0
  0
XRECORD
  5
20EE1
102
{ACAD_REACTORS
330
20EE0
102
}
330
20EE0
100
AcDbXrecord
280
     1
102
SHADEPLOT
 70
     0
102
SHADEPLOTRESLEVEL
 70
     2
102
SHADEPLOTCUSTOMDPI
 70
   300
  0
XRECORD
  5
20EDF
102
{ACAD_REACTORS
330
20EDE
102
}
330
20EDE
100
AcDbXrecord
280
     1
102
SHADEPLOT
 70
     0
102
SHADEPLOTRESLEVEL
 70
     2
102
SHADEPLOTCUSTOMDPI
 70
   300
  0
XRECORD
  5
1B22C
102
{ACAD_REACTORS
330
1B22B
102
}
330
1B22B
100
AcDbXrecord
280
     1
102
MATERIAL
148
0.0
149
0.0
149
0.0
 93
        0
 94
      127
282
     0
 72
     1
 77
     1
171
     1
175
     1
179
     1
273
     0
  0
XRECORD
  5
1B22E
102
{ACAD_REACTORS
330
1B22D
102
}
330
1B22D
100
AcDbXrecord
280
     1
102
MATERIAL
148
0.0
149
0.0
149
0.0
 93
        0
 94
      127
282
     0
 72
     1
 77
     1
171
     1
175
     1
179
     1
273
     0
  0
XRECORD
  5
1B230
102
{ACAD_REACTORS
330
1B22F
102
}
330
1B22F
100
AcDbXrecord
280
     1
102
MATERIAL
148
0.0
149
0.0
149
0.0
 93
        0
 94
      127
282
     0
 72
     1
 77
     1
171
     1
175
     1
179
     1
273
     0
  0
XRECORD
  5
20EFB
102
{ACAD_REACTORS
330
20EFA
102
}
330
20EFA
100
AcDbXrecord
280
     1
102
DISPLAYNAME
  1
Metric50
102
FLAGS
 90
        0
  0
CELLSTYLEMAP
  5
20EBA
102
{ACAD_REACTORS
330
1B314
102
}
330
1B314
100
AcDbCellStyleMap
 90
        3
300
CELLSTYLE
  1
TABLEFORMAT_BEGIN
 90
        5
170
     1
 91
        0
 92
    32768
 62
   257
 93
        1
300
CONTENTFORMAT
  1
CONTENTFORMAT_BEGIN
 90
        0
 91
        0
 92
        4
 93
        0
300

 40
0.0
140
1.0
 94
        5
 62
     0
340
11
144
6.0
309
CONTENTFORMAT_END
171
     1
301
MARGIN
  1
CELLMARGIN_BEGIN
 40
1.5
 40
1.5
 40
1.5
 40
1.5
 40
0.18
 40
0.18
309
CELLMARGIN_END
 94
        6
 95
        1
302
GRIDFORMAT
  1
GRIDFORMAT_BEGIN
 90
        0
 91
        1
 62
     0
 92
       -2
340
0
 93
        0
 40
0.045
309
GRIDFORMAT_END
 95
        2
302
GRIDFORMAT
  1
GRIDFORMAT_BEGIN
 90
        0
 91
        1
 62
     0
 92
       -2
340
0
 93
        0
 40
0.045
309
GRIDFORMAT_END
 95
        4
302
GRIDFORMAT
  1
GRIDFORMAT_BEGIN
 90
        0
 91
        1
 62
     0
 92
       -2
340
0
 93
        0
 40
0.045
309
GRIDFORMAT_END
 95
        8
302
GRIDFORMAT
  1
GRIDFORMAT_BEGIN
 90
        0
 91
        1
 62
     0
 92
       -2
340
0
 93
        0
 40
0.045
309
GRIDFORMAT_END
 95
       16
302
GRIDFORMAT
  1
GRIDFORMAT_BEGIN
 90
        0
 91
        1
 62
     0
 92
       -2
340
0
 93
        0
 40
0.045
309
GRIDFORMAT_END
 95
       32
302
GRIDFORMAT
  1
GRIDFORMAT_BEGIN
 90
        0
 91
        1
 62
     0
 92
       -2
340
0
 93
        0
 40
0.045
309
GRIDFORMAT_END
309
TABLEFORMAT_END
  1
CELLSTYLE_BEGIN
 90
        1
 91
        1
300
_TITLE
309
CELLSTYLE_END
300
CELLSTYLE
  1
TABLEFORMAT_BEGIN
 90
        5
170
     1
 91
        0
 92
        0
 62
   257
 93
        1
300
CONTENTFORMAT
  1
CONTENTFORMAT_BEGIN
 90
        0
 91
        0
 92
        4
 93
        0
300

 40
0.0
140
1.0
 94
        5
 62
     0
340
11
144
4.5
309
CONTENTFORMAT_END
171
     1
301
MARGIN
  1
CELLMARGIN_BEGIN
 40
1.5
 40
1.5
 40
1.5
 40
1.5
 40
0.18
 40
0.18
309
CELLMARGIN_END
 94
        6
 95
        1
302
GRIDFORMAT
  1
GRIDFORMAT_BEGIN
 90
        0
 91
        1
 62
     0
 92
       -2
340
0
 93
        0
 40
0.045
309
GRIDFORMAT_END
 95
        2
302
GRIDFORMAT
  1
GRIDFORMAT_BEGIN
 90
        0
 91
        1
 62
     0
 92
       -2
340
0
 93
        0
 40
0.045
309
GRIDFORMAT_END
 95
        4
302
GRIDFORMAT
  1
GRIDFORMAT_BEGIN
 90
        0
 91
        1
 62
     0
 92
       -2
340
0
 93
        0
 40
0.045
309
GRIDFORMAT_END
 95
        8
302
GRIDFORMAT
  1
GRIDFORMAT_BEGIN
 90
        0
 91
        1
 62
     0
 92
       -2
340
0
 93
        0
 40
0.045
309
GRIDFORMAT_END
 95
       16
302
GRIDFORMAT
  1
GRIDFORMAT_BEGIN
 90
        0
 91
        1
 62
     0
 92
       -2
340
0
 93
        0
 40
0.045
309
GRIDFORMAT_END
 95
       32
302
GRIDFORMAT
  1
GRIDFORMAT_BEGIN
 90
        0
 91
        1
 62
     0
 92
       -2
340
0
 93
        0
 40
0.045
309
GRIDFORMAT_END
309
TABLEFORMAT_END
  1
CELLSTYLE_BEGIN
 90
        2
 91
        1
300
_HEADER
309
CELLSTYLE_END
300
CELLSTYLE
  1
TABLEFORMAT_BEGIN
 90
        5
170
     1
 91
        0
 92
        0
 62
   257
 93
        1
300
CONTENTFORMAT
  1
CONTENTFORMAT_BEGIN
 90
        0
 91
        0
 92
        4
 93
        0
300

 40
0.0
140
1.0
 94
        2
 62
     0
340
11
144
4.5
309
CONTENTFORMAT_END
171
     1
301
MARGIN
  1
CELLMARGIN_BEGIN
 40
1.5
 40
1.5
 40
1.5
 40
1.5
 40
0.18
 40
0.18
309
CELLMARGIN_END
 94
        6
 95
        1
302
GRIDFORMAT
  1
GRIDFORMAT_BEGIN
 90
        0
 91
        1
 62
     0
 92
       -2
340
0
 93
        0
 40
0.045
309
GRIDFORMAT_END
 95
        2
302
GRIDFORMAT
  1
GRIDFORMAT_BEGIN
 90
        0
 91
        1
 62
     0
 92
       -2
340
0
 93
        0
 40
0.045
309
GRIDFORMAT_END
 95
        4
302
GRIDFORMAT
  1
GRIDFORMAT_BEGIN
 90
        0
 91
        1
 62
     0
 92
       -2
340
0
 93
        0
 40
0.045
309
GRIDFORMAT_END
 95
        8
302
GRIDFORMAT
  1
GRIDFORMAT_BEGIN
 90
        0
 91
        1
 62
     0
 92
       -2
340
0
 93
        0
 40
0.045
309
GRIDFORMAT_END
 95
       16
302
GRIDFORMAT
  1
GRIDFORMAT_BEGIN
 90
        0
 91
        1
 62
     0
 92
       -2
340
0
 93
        0
 40
0.045
309
GRIDFORMAT_END
 95
       32
302
GRIDFORMAT
  1
GRIDFORMAT_BEGIN
 90
        0
 91
        1
 62
     0
 92
       -2
340
0
 93
        0
 40
0.045
309
GRIDFORMAT_END
309
TABLEFORMAT_END
  1
CELLSTYLE_BEGIN
 90
        3
 91
        2
300
_DATA
309
CELLSTYLE_END
  0
XRECORD
  5
20EDD
102
{ACAD_REACTORS
330
1B314
102
}
330
1B314
100
AcDbXrecord
280
     1
102
ACAD_ROUNDTRIP_PRE2007_TABLESTYLE
 90
        4
 91
        0
  1

 92
        4
 93
        0
  2

 94
        4
 95
        0
  3

  0
XRECORD
  5
20EC8
102
{ACAD_REACTORS
330
20EC7
102
}
330
20EC7
100
AcDbXrecord
280
     1
102
RTVSPost2010Prop28
280
     1
102
RTVSPost2010PropOp28
 70
     1
102
RTVSPost2010Prop29
280
     1
102
RTVSPost2010PropOp29
 70
     1
102
RTVSPost2010Prop30
280
     0
102
RTVSPost2010PropOp30
 70
     1
102
RTVSPost2010Prop31
280
     0
102
RTVSPost2010PropOp31
 70
     1
102
RTVSPost2010Prop32
280
     0
102
RTVSPost2010PropOp32
 70
     1
102
RTVSPost2010Prop33
280
     0
102
RTVSPost2010PropOp33
 70
     1
102
RTVSPost2010Prop34
280
     0
102
RTVSPost2010PropOp34
 70
     1
102
RTVSPost2010Prop35
280
     0
102
RTVSPost2010PropOp35
 70
     1
102
RTVSPost2010Prop36
280
     0
102
RTVSPost2010PropOp36
 70
     1
102
RTVSPost2010Prop37
 90
       50
102
RTVSPost2010PropOp37
 70
     1
102
RTVSPost2010Prop38
140
0.0
102
RTVSPost2010PropOp38
 70
     1
102
RTVSPost2010Prop39
140
1.0
102
RTVSPost2010PropOp39
 70
     1
102
RTVSPost2010Prop40
 90
        0
102
RTVSPost2010PropOp40
 70
     1
102
RTVSPost2010Prop41ColorIndex
 90
       18
102
RTVSPost2010Prop41ColorRGB
 90
        0
102
RTVSPost2010PropOp41
 70
     1
102
RTVSPost2010Prop42
 90
       50
102
RTVSPost2010PropOp42
 70
     1
102
RTVSPost2010Prop43
 90
        3
102
RTVSPost2010PropOp43
 70
     1
102
RTVSPost2010Prop44ColorIndex
 90
        5
102
RTVSPost2010Prop44ColorRGB
 90
      255
102
RTVSPost2010PropOp44
 70
     1
102
RTVSPost2010Prop45
280
     0
102
RTVSPost2010PropOp45
 70
     1
102
RTVSPost2010Prop46
 90
       50
102
RTVSPost2010PropOp46
 70
     1
102
RTVSPost2010Prop47
 90
       50
102
RTVSPost2010PropOp47
 70
     1
102
RTVSPost2010Prop48
 90
       50
102
RTVSPost2010PropOp48
 70
     1
102
RTVSPost2010Prop49
280
     0
102
RTVSPost2010PropOp49
 70
     1
102
RTVSPost2010Prop50
 90
       50
102
RTVSPost2010PropOp50
 70
     1
102
RTVSPost2010Prop51ColorIndex
 90
      256
102
RTVSPost2010Prop51ColorRGB
 90
-16777216
102
RTVSPost2010PropOp51
 70
     0
102
RTVSPost2010Prop52
140
1.0
102
RTVSPost2010PropOp52
 70
     0
102
RTVSPost2010Prop53
 90
        2
102
RTVSPost2010PropOp53
 70
     1
102
RTVSPost2010Prop54
  1
strokes_ogs.tif
102
RTVSPost2010PropOp54
 70
     1
102
RTVSPost2010Prop55
280
     0
102
RTVSPost2010PropOp55
 70
     1
102
RTVSPost2010Prop56
140
1.0
102
RTVSPost2010PropOp56
 70
     1
102
RTVSPost2010Prop57
140
1.0
102
RTVSPost2010PropOp57
 70
     1
102
RTVSPropertyOp0
 70
     1
102
RTVSPropertyOp1
 70
     1
102
RTVSPropertyOp2
 70
     1
102
RTVSPropertyOp3
 70
     1
102
RTVSPropertyOp4
 70
     1
102
RTVSPropertyOp5
 70
     1
102
RTVSPropertyOp6
 70
     1
102
RTVSPropertyOp7
 70
     1
102
RTVSPropertyOp8
 70
     1
102
RTVSPropertyOp9
 70
     1
102
RTVSPropertyOp10
 70
     1
102
RTVSPropertyOp11
 70
     1
102
RTVSPropertyOp12
 70
     1
102
RTVSPropertyOp13
 70
     1
102
RTVSPropertyOp14
 70
     1
102
RTVSPropertyOp15
 70
     1
102
RTVSPropertyOp16
 70
     1
102
RTVSPropertyOp17
 70
     1
102
RTVSPropertyOp18
 70
     1
102
RTVSPropertyOp19
 70
     1
102
RTVSPropertyOp20
 70
     1
102
RTVSPropertyOp21
 70
     1
102
RTVSPropertyOp22
 70
     1
102
RTVSPropertyOp23
 70
     1
102
RTVSPropertyOp24
 70
     1
102
RTVSPropertyOp25
 70
     1
102
RTVSPropertyOp26
 70
     1
102
RTVSPropertyOp27
 70
     1
102
RTVSPropertyOp28
 70
     1
102
RTVSPropertyOp29
 70
     1
102
RTVSPropertyOp30
 70
     1
102
RTVSPropertyOp31
 70
     1
102
RTVSPropertyOp32
 70
     1
102
RTVSPropertyOp33
 70
     1
102
RTVSPropertyOp34
 70
     1
102
RTVSPropertyOp35
 70
     1
102
RTVSPropertyOp36
 70
     1
102
RTVSPropertyOp37
 70
     1
102
RTVSPropertyOp38
 70
     1
102
RTVSPropertyOp39
 70
     1
102
RTVSPropertyOp40
 70
     1
102
RTVSPropertyOp41
 70
     1
102
RTVSPropertyOp42
 70
     1
102
RTVSPropertyOp43
 70
     1
102
RTVSPropertyOp44
 70
     1
102
RTVSPropertyOp45
 70
     1
102
RTVSPropertyOp46
 70
     1
102
RTVSPropertyOp47
 70
     1
102
RTVSPropertyOp48
 70
     1
102
RTVSPropertyOp49
 70
     1
102
RTVSPropertyOp50
 70
     1
102
RTVSPropertyOp51
 70
     0
102
RTVSPropertyOp52
 70
     0
102
RTVSPropertyOp53
 70
     1
102
RTVSPropertyOp54
 70
     1
102
RTVSPropertyOp55
 70
     1
102
RTVSPropertyOp56
 70
     1
102
RTVSPropertyOp57
 70
     1
102
RTVSPropertyOp58
 70
     1
102
RTVSPropertyOp59
 70
     1
102
RTVSPropertyOp60
 70
     1
102
RTVSPropertyOp61
 70
     1
102
RTVSPropertyOp62
 70
     1
  0
XRECORD
  5
20ECC
102
{ACAD_REACTORS
330
20ECB
102
}
330
20ECB
100
AcDbXrecord
280
     1
102
RTVSPost2010Prop28
280
     0
102
RTVSPost2010PropOp28
 70
     1
102
RTVSPost2010Prop29
280
     1
102
RTVSPost2010PropOp29
 70
     1
102
RTVSPost2010Prop30
280
     1
102
RTVSPost2010PropOp30
 70
     1
102
RTVSPost2010Prop31
280
     0
102
RTVSPost2010PropOp31
 70
     1
102
RTVSPost2010Prop32
280
     0
102
RTVSPost2010PropOp32
 70
     1
102
RTVSPost2010Prop33
280
     0
102
RTVSPost2010PropOp33
 70
     1
102
RTVSPost2010Prop34
280
     0
102
RTVSPost2010PropOp34
 70
     1
102
RTVSPost2010Prop35
280
     0
102
RTVSPost2010PropOp35
 70
     1
102
RTVSPost2010Prop36
280
     0
102
RTVSPost2010PropOp36
 70
     1
102
RTVSPost2010Prop37
 90
       50
102
RTVSPost2010PropOp37
 70
     1
102
RTVSPost2010Prop38
140
0.0
102
RTVSPost2010PropOp38
 70
     1
102
RTVSPost2010Prop39
140
1.0
102
RTVSPost2010PropOp39
 70
     1
102
RTVSPost2010Prop40
 90
        0
102
RTVSPost2010PropOp40
 70
     1
102
RTVSPost2010Prop41ColorIndex
 90
       18
102
RTVSPost2010Prop41ColorRGB
 90
        0
102
RTVSPost2010PropOp41
 70
     1
102
RTVSPost2010Prop42
 90
       50
102
RTVSPost2010PropOp42
 70
     1
102
RTVSPost2010Prop43
 90
        3
102
RTVSPost2010PropOp43
 70
     1
102
RTVSPost2010Prop44ColorIndex
 90
        5
102
RTVSPost2010Prop44ColorRGB
 90
      255
102
RTVSPost2010PropOp44
 70
     1
102
RTVSPost2010Prop45
280
     0
102
RTVSPost2010PropOp45
 70
     1
102
RTVSPost2010Prop46
 90
       50
102
RTVSPost2010PropOp46
 70
     1
102
RTVSPost2010Prop47
 90
       50
102
RTVSPost2010PropOp47
 70
     1
102
RTVSPost2010Prop48
 90
       50
102
RTVSPost2010PropOp48
 70
     1
102
RTVSPost2010Prop49
280
     0
102
RTVSPost2010PropOp49
 70
     1
102
RTVSPost2010Prop50
 90
       50
102
RTVSPost2010PropOp50
 70
     1
102
RTVSPost2010Prop51ColorIndex
 90
      256
102
RTVSPost2010Prop51ColorRGB
 90
-16777216
102
RTVSPost2010PropOp51
 70
     0
102
RTVSPost2010Prop52
140
1.0
102
RTVSPost2010PropOp52
 70
     0
102
RTVSPost2010Prop53
 90
        2
102
RTVSPost2010PropOp53
 70
     1
102
RTVSPost2010Prop54
  1
strokes_ogs.tif
102
RTVSPost2010PropOp54
 70
     1
102
RTVSPost2010Prop55
280
     0
102
RTVSPost2010PropOp55
 70
     1
102
RTVSPost2010Prop56
140
1.0
102
RTVSPost2010PropOp56
 70
     1
102
RTVSPost2010Prop57
140
1.0
102
RTVSPost2010PropOp57
 70
     1
102
RTVSPropertyOp0
 70
     1
102
RTVSPropertyOp1
 70
     1
102
RTVSPropertyOp2
 70
     1
102
RTVSPropertyOp3
 70
     1
102
RTVSPropertyOp4
 70
     1
102
RTVSPropertyOp5
 70
     1
102
RTVSPropertyOp6
 70
     1
102
RTVSPropertyOp7
 70
     1
102
RTVSPropertyOp8
 70
     1
102
RTVSPropertyOp9
 70
     1
102
RTVSPropertyOp10
 70
     1
102
RTVSPropertyOp11
 70
     1
102
RTVSPropertyOp12
 70
     1
102
RTVSPropertyOp13
 70
     1
102
RTVSPropertyOp14
 70
     1
102
RTVSPropertyOp15
 70
     1
102
RTVSPropertyOp16
 70
     1
102
RTVSPropertyOp17
 70
     1
102
RTVSPropertyOp18
 70
     1
102
RTVSPropertyOp19
 70
     1
102
RTVSPropertyOp20
 70
     1
102
RTVSPropertyOp21
 70
     1
102
RTVSPropertyOp22
 70
     1
102
RTVSPropertyOp23
 70
     1
102
RTVSPropertyOp24
 70
     1
102
RTVSPropertyOp25
 70
     1
102
RTVSPropertyOp26
 70
     1
102
RTVSPropertyOp27
 70
     1
102
RTVSPropertyOp28
 70
     1
102
RTVSPropertyOp29
 70
     1
102
RTVSPropertyOp30
 70
     1
102
RTVSPropertyOp31
 70
     1
102
RTVSPropertyOp32
 70
     1
102
RTVSPropertyOp33
 70
     1
102
RTVSPropertyOp34
 70
     1
102
RTVSPropertyOp35
 70
     1
102
RTVSPropertyOp36
 70
     1
102
RTVSPropertyOp37
 70
     1
102
RTVSPropertyOp38
 70
     1
102
RTVSPropertyOp39
 70
     1
102
RTVSPropertyOp40
 70
     1
102
RTVSPropertyOp41
 70
     1
102
RTVSPropertyOp42
 70
     1
102
RTVSPropertyOp43
 70
     1
102
RTVSPropertyOp44
 70
     1
102
RTVSPropertyOp45
 70
     1
102
RTVSPropertyOp46
 70
     1
102
RTVSPropertyOp47
 70
     1
102
RTVSPropertyOp48
 70
     1
102
RTVSPropertyOp49
 70
     1
102
RTVSPropertyOp50
 70
     1
102
RTVSPropertyOp51
 70
     0
102
RTVSPropertyOp52
 70
     0
102
RTVSPropertyOp53
 70
     1
102
RTVSPropertyOp54
 70
     1
102
RTVSPropertyOp55
 70
     1
102
RTVSPropertyOp56
 70
     1
102
RTVSPropertyOp57
 70
     1
102
RTVSPropertyOp58
 70
     1
102
RTVSPropertyOp59
 70
     1
102
RTVSPropertyOp60
 70
     1
102
RTVSPropertyOp61
 70
     1
102
RTVSPropertyOp62
 70
     1
  0
XRECORD
  5
20ECA
102
{ACAD_REACTORS
330
20EC9
102
}
330
20EC9
100
AcDbXrecord
280
     1
102
RTVSPost2010Prop28
280
     0
102
RTVSPost2010PropOp28
 70
     1
102
RTVSPost2010Prop29
280
     1
102
RTVSPost2010PropOp29
 70
     1
102
RTVSPost2010Prop30
280
     1
102
RTVSPost2010PropOp30
 70
     1
102
RTVSPost2010Prop31
280
     0
102
RTVSPost2010PropOp31
 70
     1
102
RTVSPost2010Prop32
280
     0
102
RTVSPost2010PropOp32
 70
     1
102
RTVSPost2010Prop33
280
     0
102
RTVSPost2010PropOp33
 70
     1
102
RTVSPost2010Prop34
280
     0
102
RTVSPost2010PropOp34
 70
     1
102
RTVSPost2010Prop35
280
     0
102
RTVSPost2010PropOp35
 70
     1
102
RTVSPost2010Prop36
280
     0
102
RTVSPost2010PropOp36
 70
     1
102
RTVSPost2010Prop37
 90
       50
102
RTVSPost2010PropOp37
 70
     1
102
RTVSPost2010Prop38
140
0.0
102
RTVSPost2010PropOp38
 70
     1
102
RTVSPost2010Prop39
140
1.0
102
RTVSPost2010PropOp39
 70
     1
102
RTVSPost2010Prop40
 90
        0
102
RTVSPost2010PropOp40
 70
     1
102
RTVSPost2010Prop41ColorIndex
 90
       18
102
RTVSPost2010Prop41ColorRGB
 90
        0
102
RTVSPost2010PropOp41
 70
     1
102
RTVSPost2010Prop42
 90
       50
102
RTVSPost2010PropOp42
 70
     1
102
RTVSPost2010Prop43
 90
        3
102
RTVSPost2010PropOp43
 70
     1
102
RTVSPost2010Prop44ColorIndex
 90
        5
102
RTVSPost2010Prop44ColorRGB
 90
      255
102
RTVSPost2010PropOp44
 70
     1
102
RTVSPost2010Prop45
280
     0
102
RTVSPost2010PropOp45
 70
     1
102
RTVSPost2010Prop46
 90
       50
102
RTVSPost2010PropOp46
 70
     1
102
RTVSPost2010Prop47
 90
       50
102
RTVSPost2010PropOp47
 70
     1
102
RTVSPost2010Prop48
 90
       50
102
RTVSPost2010PropOp48
 70
     1
102
RTVSPost2010Prop49
280
     0
102
RTVSPost2010PropOp49
 70
     1
102
RTVSPost2010Prop50
 90
       50
102
RTVSPost2010PropOp50
 70
     1
102
RTVSPost2010Prop51ColorIndex
 90
      256
102
RTVSPost2010Prop51ColorRGB
 90
-16777216
102
RTVSPost2010PropOp51
 70
     0
102
RTVSPost2010Prop52
140
1.0
102
RTVSPost2010PropOp52
 70
     0
102
RTVSPost2010Prop53
 90
        2
102
RTVSPost2010PropOp53
 70
     1
102
RTVSPost2010Prop54
  1
strokes_ogs.tif
102
RTVSPost2010PropOp54
 70
     1
102
RTVSPost2010Prop55
280
     0
102
RTVSPost2010PropOp55
 70
     1
102
RTVSPost2010Prop56
140
1.0
102
RTVSPost2010PropOp56
 70
     1
102
RTVSPost2010Prop57
140
1.0
102
RTVSPost2010PropOp57
 70
     1
102
RTVSPropertyOp0
 70
     1
102
RTVSPropertyOp1
 70
     1
102
RTVSPropertyOp2
 70
     1
102
RTVSPropertyOp3
 70
     1
102
RTVSPropertyOp4
 70
     1
102
RTVSPropertyOp5
 70
     1
102
RTVSPropertyOp6
 70
     1
102
RTVSPropertyOp7
 70
     1
102
RTVSPropertyOp8
 70
     1
102
RTVSPropertyOp9
 70
     1
102
RTVSPropertyOp10
 70
     1
102
RTVSPropertyOp11
 70
     1
102
RTVSPropertyOp12
 70
     1
102
RTVSPropertyOp13
 70
     1
102
RTVSPropertyOp14
 70
     1
102
RTVSPropertyOp15
 70
     1
102
RTVSPropertyOp16
 70
     1
102
RTVSPropertyOp17
 70
     1
102
RTVSPropertyOp18
 70
     1
102
RTVSPropertyOp19
 70
     1
102
RTVSPropertyOp20
 70
     1
102
RTVSPropertyOp21
 70
     1
102
RTVSPropertyOp22
 70
     1
102
RTVSPropertyOp23
 70
     1
102
RTVSPropertyOp24
 70
     1
102
RTVSPropertyOp25
 70
     1
102
RTVSPropertyOp26
 70
     1
102
RTVSPropertyOp27
 70
     1
102
RTVSPropertyOp28
 70
     1
102
RTVSPropertyOp29
 70
     1
102
RTVSPropertyOp30
 70
     1
102
RTVSPropertyOp31
 70
     1
102
RTVSPropertyOp32
 70
     1
102
RTVSPropertyOp33
 70
     1
102
RTVSPropertyOp34
 70
     1
102
RTVSPropertyOp35
 70
     1
102
RTVSPropertyOp36
 70
     1
102
RTVSPropertyOp37
 70
     1
102
RTVSPropertyOp38
 70
     1
102
RTVSPropertyOp39
 70
     1
102
RTVSPropertyOp40
 70
     1
102
RTVSPropertyOp41
 70
     1
102
RTVSPropertyOp42
 70
     1
102
RTVSPropertyOp43
 70
     1
102
RTVSPropertyOp44
 70
     1
102
RTVSPropertyOp45
 70
     1
102
RTVSPropertyOp46
 70
     1
102
RTVSPropertyOp47
 70
     1
102
RTVSPropertyOp48
 70
     1
102
RTVSPropertyOp49
 70
     1
102
RTVSPropertyOp50
 70
     1
102
RTVSPropertyOp51
 70
     0
102
RTVSPropertyOp52
 70
     0
102
RTVSPropertyOp53
 70
     1
102
RTVSPropertyOp54
 70
     1
102
RTVSPropertyOp55
 70
     1
102
RTVSPropertyOp56
 70
     1
102
RTVSPropertyOp57
 70
     1
102
RTVSPropertyOp58
 70
     1
102
RTVSPropertyOp59
 70
     1
102
RTVSPropertyOp60
 70
     1
102
RTVSPropertyOp61
 70
     1
102
RTVSPropertyOp62
 70
     1
  0
XRECORD
  5
20EC6
102
{ACAD_REACTORS
330
20EC5
102
}
330
20EC5
100
AcDbXrecord
280
     1
102
RTVSPost2010Prop28
280
     0
102
RTVSPost2010PropOp28
 70
     1
102
RTVSPost2010Prop29
280
     1
102
RTVSPost2010PropOp29
 70
     1
102
RTVSPost2010Prop30
280
     1
102
RTVSPost2010PropOp30
 70
     1
102
RTVSPost2010Prop31
280
     0
102
RTVSPost2010PropOp31
 70
     1
102
RTVSPost2010Prop32
280
     0
102
RTVSPost2010PropOp32
 70
     1
102
RTVSPost2010Prop33
280
     0
102
RTVSPost2010PropOp33
 70
     1
102
RTVSPost2010Prop34
280
     0
102
RTVSPost2010PropOp34
 70
     1
102
RTVSPost2010Prop35
280
     0
102
RTVSPost2010PropOp35
 70
     1
102
RTVSPost2010Prop36
280
     0
102
RTVSPost2010PropOp36
 70
     1
102
RTVSPost2010Prop37
 90
       50
102
RTVSPost2010PropOp37
 70
     1
102
RTVSPost2010Prop38
140
0.0
102
RTVSPost2010PropOp38
 70
     1
102
RTVSPost2010Prop39
140
1.0
102
RTVSPost2010PropOp39
 70
     1
102
RTVSPost2010Prop40
 90
        0
102
RTVSPost2010PropOp40
 70
     1
102
RTVSPost2010Prop41ColorIndex
 90
       18
102
RTVSPost2010Prop41ColorRGB
 90
        0
102
RTVSPost2010PropOp41
 70
     1
102
RTVSPost2010Prop42
 90
       50
102
RTVSPost2010PropOp42
 70
     1
102
RTVSPost2010Prop43
 90
        3
102
RTVSPost2010PropOp43
 70
     1
102
RTVSPost2010Prop44ColorIndex
 90
        5
102
RTVSPost2010Prop44ColorRGB
 90
      255
102
RTVSPost2010PropOp44
 70
     1
102
RTVSPost2010Prop45
280
     0
102
RTVSPost2010PropOp45
 70
     1
102
RTVSPost2010Prop46
 90
       50
102
RTVSPost2010PropOp46
 70
     1
102
RTVSPost2010Prop47
 90
       50
102
RTVSPost2010PropOp47
 70
     1
102
RTVSPost2010Prop48
 90
       50
102
RTVSPost2010PropOp48
 70
     1
102
RTVSPost2010Prop49
280
     0
102
RTVSPost2010PropOp49
 70
     1
102
RTVSPost2010Prop50
 90
       50
102
RTVSPost2010PropOp50
 70
     1
102
RTVSPost2010Prop51ColorIndex
 90
      256
102
RTVSPost2010Prop51ColorRGB
 90
-16777216
102
RTVSPost2010PropOp51
 70
     0
102
RTVSPost2010Prop52
140
1.0
102
RTVSPost2010PropOp52
 70
     0
102
RTVSPost2010Prop53
 90
        2
102
RTVSPost2010PropOp53
 70
     1
102
RTVSPost2010Prop54
  1
strokes_ogs.tif
102
RTVSPost2010PropOp54
 70
     1
102
RTVSPost2010Prop55
280
     0
102
RTVSPost2010PropOp55
 70
     1
102
RTVSPost2010Prop56
140
1.0
102
RTVSPost2010PropOp56
 70
     1
102
RTVSPost2010Prop57
140
1.0
102
RTVSPost2010PropOp57
 70
     1
102
RTVSPropertyOp0
 70
     1
102
RTVSPropertyOp1
 70
     1
102
RTVSPropertyOp2
 70
     1
102
RTVSPropertyOp3
 70
     1
102
RTVSPropertyOp4
 70
     1
102
RTVSPropertyOp5
 70
     1
102
RTVSPropertyOp6
 70
     1
102
RTVSPropertyOp7
 70
     1
102
RTVSPropertyOp8
 70
     1
102
RTVSPropertyOp9
 70
     1
102
RTVSPropertyOp10
 70
     1
102
RTVSPropertyOp11
 70
     1
102
RTVSPropertyOp12
 70
     1
102
RTVSPropertyOp13
 70
     1
102
RTVSPropertyOp14
 70
     1
102
RTVSPropertyOp15
 70
     1
102
RTVSPropertyOp16
 70
     1
102
RTVSPropertyOp17
 70
     1
102
RTVSPropertyOp18
 70
     1
102
RTVSPropertyOp19
 70
     1
102
RTVSPropertyOp20
 70
     1
102
RTVSPropertyOp21
 70
     1
102
RTVSPropertyOp22
 70
     1
102
RTVSPropertyOp23
 70
     1
102
RTVSPropertyOp24
 70
     1
102
RTVSPropertyOp25
 70
     1
102
RTVSPropertyOp26
 70
     1
102
RTVSPropertyOp27
 70
     1
102
RTVSPropertyOp28
 70
     1
102
RTVSPropertyOp29
 70
     1
102
RTVSPropertyOp30
 70
     1
102
RTVSPropertyOp31
 70
     1
102
RTVSPropertyOp32
 70
     1
102
RTVSPropertyOp33
 70
     1
102
RTVSPropertyOp34
 70
     1
102
RTVSPropertyOp35
 70
     1
102
RTVSPropertyOp36
 70
     1
102
RTVSPropertyOp37
 70
     1
102
RTVSPropertyOp38
 70
     1
102
RTVSPropertyOp39
 70
     1
102
RTVSPropertyOp40
 70
     1
102
RTVSPropertyOp41
 70
     1
102
RTVSPropertyOp42
 70
     1
102
RTVSPropertyOp43
 70
     1
102
RTVSPropertyOp44
 70
     1
102
RTVSPropertyOp45
 70
     1
102
RTVSPropertyOp46
 70
     1
102
RTVSPropertyOp47
 70
     1
102
RTVSPropertyOp48
 70
     1
102
RTVSPropertyOp49
 70
     1
102
RTVSPropertyOp50
 70
     1
102
RTVSPropertyOp51
 70
     0
102
RTVSPropertyOp52
 70
     0
102
RTVSPropertyOp53
 70
     1
102
RTVSPropertyOp54
 70
     1
102
RTVSPropertyOp55
 70
     1
102
RTVSPropertyOp56
 70
     1
102
RTVSPropertyOp57
 70
     1
102
RTVSPropertyOp58
 70
     1
102
RTVSPropertyOp59
 70
     1
102
RTVSPropertyOp60
 70
     1
102
RTVSPropertyOp61
 70
     1
102
RTVSPropertyOp62
 70
     1
  0
XRECORD
  5
20ED4
102
{ACAD_REACTORS
330
20ED3
102
}
330
20ED3
100
AcDbXrecord
280
     1
102
RTVSPost2010Prop28
280
     0
102
RTVSPost2010PropOp28
 70
     1
102
RTVSPost2010Prop29
280
     1
102
RTVSPost2010PropOp29
 70
     1
102
RTVSPost2010Prop30
280
     1
102
RTVSPost2010PropOp30
 70
     1
102
RTVSPost2010Prop31
280
     0
102
RTVSPost2010PropOp31
 70
     1
102
RTVSPost2010Prop32
280
     0
102
RTVSPost2010PropOp32
 70
     1
102
RTVSPost2010Prop33
280
     0
102
RTVSPost2010PropOp33
 70
     1
102
RTVSPost2010Prop34
280
     0
102
RTVSPost2010PropOp34
 70
     1
102
RTVSPost2010Prop35
280
     0
102
RTVSPost2010PropOp35
 70
     1
102
RTVSPost2010Prop36
280
     0
102
RTVSPost2010PropOp36
 70
     1
102
RTVSPost2010Prop37
 90
       50
102
RTVSPost2010PropOp37
 70
     1
102
RTVSPost2010Prop38
140
0.0
102
RTVSPost2010PropOp38
 70
     1
102
RTVSPost2010Prop39
140
1.0
102
RTVSPost2010PropOp39
 70
     1
102
RTVSPost2010Prop40
 90
        0
102
RTVSPost2010PropOp40
 70
     1
102
RTVSPost2010Prop41ColorIndex
 90
       18
102
RTVSPost2010Prop41ColorRGB
 90
        0
102
RTVSPost2010PropOp41
 70
     1
102
RTVSPost2010Prop42
 90
       50
102
RTVSPost2010PropOp42
 70
     1
102
RTVSPost2010Prop43
 90
        3
102
RTVSPost2010PropOp43
 70
     1
102
RTVSPost2010Prop44ColorIndex
 90
        5
102
RTVSPost2010Prop44ColorRGB
 90
      255
102
RTVSPost2010PropOp44
 70
     1
102
RTVSPost2010Prop45
280
     0
102
RTVSPost2010PropOp45
 70
     1
102
RTVSPost2010Prop46
 90
       50
102
RTVSPost2010PropOp46
 70
     1
102
RTVSPost2010Prop47
 90
       50
102
RTVSPost2010PropOp47
 70
     1
102
RTVSPost2010Prop48
 90
       50
102
RTVSPost2010PropOp48
 70
     1
102
RTVSPost2010Prop49
280
     0
102
RTVSPost2010PropOp49
 70
     1
102
RTVSPost2010Prop50
 90
       50
102
RTVSPost2010PropOp50
 70
     1
102
RTVSPost2010Prop51ColorIndex
 90
      256
102
RTVSPost2010Prop51ColorRGB
 90
-16777216
102
RTVSPost2010PropOp51
 70
     0
102
RTVSPost2010Prop52
140
1.0
102
RTVSPost2010PropOp52
 70
     0
102
RTVSPost2010Prop53
 90
        2
102
RTVSPost2010PropOp53
 70
     1
102
RTVSPost2010Prop54
  1
strokes_ogs.tif
102
RTVSPost2010PropOp54
 70
     1
102
RTVSPost2010Prop55
280
     0
102
RTVSPost2010PropOp55
 70
     1
102
RTVSPost2010Prop56
140
1.0
102
RTVSPost2010PropOp56
 70
     1
102
RTVSPost2010Prop57
140
1.0
102
RTVSPost2010PropOp57
 70
     1
102
RTVSPropertyOp0
 70
     1
102
RTVSPropertyOp1
 70
     1
102
RTVSPropertyOp2
 70
     1
102
RTVSPropertyOp3
 70
     1
102
RTVSPropertyOp4
 70
     1
102
RTVSPropertyOp5
 70
     1
102
RTVSPropertyOp6
 70
     1
102
RTVSPropertyOp7
 70
     1
102
RTVSPropertyOp8
 70
     1
102
RTVSPropertyOp9
 70
     1
102
RTVSPropertyOp10
 70
     1
102
RTVSPropertyOp11
 70
     1
102
RTVSPropertyOp12
 70
     1
102
RTVSPropertyOp13
 70
     1
102
RTVSPropertyOp14
 70
     1
102
RTVSPropertyOp15
 70
     1
102
RTVSPropertyOp16
 70
     1
102
RTVSPropertyOp17
 70
     1
102
RTVSPropertyOp18
 70
     1
102
RTVSPropertyOp19
 70
     1
102
RTVSPropertyOp20
 70
     1
102
RTVSPropertyOp21
 70
     1
102
RTVSPropertyOp22
 70
     1
102
RTVSPropertyOp23
 70
     1
102
RTVSPropertyOp24
 70
     1
102
RTVSPropertyOp25
 70
     1
102
RTVSPropertyOp26
 70
     1
102
RTVSPropertyOp27
 70
     1
102
RTVSPropertyOp28
 70
     1
102
RTVSPropertyOp29
 70
     1
102
RTVSPropertyOp30
 70
     1
102
RTVSPropertyOp31
 70
     1
102
RTVSPropertyOp32
 70
     1
102
RTVSPropertyOp33
 70
     1
102
RTVSPropertyOp34
 70
     1
102
RTVSPropertyOp35
 70
     1
102
RTVSPropertyOp36
 70
     1
102
RTVSPropertyOp37
 70
     1
102
RTVSPropertyOp38
 70
     1
102
RTVSPropertyOp39
 70
     1
102
RTVSPropertyOp40
 70
     1
102
RTVSPropertyOp41
 70
     1
102
RTVSPropertyOp42
 70
     1
102
RTVSPropertyOp43
 70
     1
102
RTVSPropertyOp44
 70
     1
102
RTVSPropertyOp45
 70
     1
102
RTVSPropertyOp46
 70
     1
102
RTVSPropertyOp47
 70
     1
102
RTVSPropertyOp48
 70
     1
102
RTVSPropertyOp49
 70
     1
102
RTVSPropertyOp50
 70
     1
102
RTVSPropertyOp51
 70
     0
102
RTVSPropertyOp52
 70
     0
102
RTVSPropertyOp53
 70
     1
102
RTVSPropertyOp54
 70
     1
102
RTVSPropertyOp55
 70
     1
102
RTVSPropertyOp56
 70
     1
102
RTVSPropertyOp57
 70
     1
102
RTVSPropertyOp58
 70
     1
102
RTVSPropertyOp59
 70
     1
102
RTVSPropertyOp60
 70
     1
102
RTVSPropertyOp61
 70
     1
102
RTVSPropertyOp62
 70
     1
  0
XRECORD
  5
20EDC
102
{ACAD_REACTORS
330
20EDB
102
}
330
20EDB
100
AcDbXrecord
280
     1
102
RTVSPost2010Prop28
280
     0
102
RTVSPost2010PropOp28
 70
     1
102
RTVSPost2010Prop29
280
     1
102
RTVSPost2010PropOp29
 70
     1
102
RTVSPost2010Prop30
280
     1
102
RTVSPost2010PropOp30
 70
     1
102
RTVSPost2010Prop31
280
     0
102
RTVSPost2010PropOp31
 70
     1
102
RTVSPost2010Prop32
280
     0
102
RTVSPost2010PropOp32
 70
     1
102
RTVSPost2010Prop33
280
     0
102
RTVSPost2010PropOp33
 70
     1
102
RTVSPost2010Prop34
280
     0
102
RTVSPost2010PropOp34
 70
     1
102
RTVSPost2010Prop35
280
     0
102
RTVSPost2010PropOp35
 70
     1
102
RTVSPost2010Prop36
280
     0
102
RTVSPost2010PropOp36
 70
     1
102
RTVSPost2010Prop37
 90
       50
102
RTVSPost2010PropOp37
 70
     1
102
RTVSPost2010Prop38
140
0.0
102
RTVSPost2010PropOp38
 70
     1
102
RTVSPost2010Prop39
140
1.0
102
RTVSPost2010PropOp39
 70
     1
102
RTVSPost2010Prop40
 90
        0
102
RTVSPost2010PropOp40
 70
     1
102
RTVSPost2010Prop41ColorIndex
 90
       18
102
RTVSPost2010Prop41ColorRGB
 90
        0
102
RTVSPost2010PropOp41
 70
     1
102
RTVSPost2010Prop42
 90
       50
102
RTVSPost2010PropOp42
 70
     1
102
RTVSPost2010Prop43
 90
        3
102
RTVSPost2010PropOp43
 70
     1
102
RTVSPost2010Prop44ColorIndex
 90
        5
102
RTVSPost2010Prop44ColorRGB
 90
      255
102
RTVSPost2010PropOp44
 70
     1
102
RTVSPost2010Prop45
280
     0
102
RTVSPost2010PropOp45
 70
     1
102
RTVSPost2010Prop46
 90
       50
102
RTVSPost2010PropOp46
 70
     1
102
RTVSPost2010Prop47
 90
       50
102
RTVSPost2010PropOp47
 70
     1
102
RTVSPost2010Prop48
 90
       50
102
RTVSPost2010PropOp48
 70
     1
102
RTVSPost2010Prop49
280
     0
102
RTVSPost2010PropOp49
 70
     1
102
RTVSPost2010Prop50
 90
       50
102
RTVSPost2010PropOp50
 70
     1
102
RTVSPost2010Prop51ColorIndex
 90
      256
102
RTVSPost2010Prop51ColorRGB
 90
-16777216
102
RTVSPost2010PropOp51
 70
     0
102
RTVSPost2010Prop52
140
1.0
102
RTVSPost2010PropOp52
 70
     0
102
RTVSPost2010Prop53
 90
        2
102
RTVSPost2010PropOp53
 70
     1
102
RTVSPost2010Prop54
  1
strokes_ogs.tif
102
RTVSPost2010PropOp54
 70
     1
102
RTVSPost2010Prop55
280
     0
102
RTVSPost2010PropOp55
 70
     1
102
RTVSPost2010Prop56
140
1.0
102
RTVSPost2010PropOp56
 70
     1
102
RTVSPost2010Prop57
140
1.0
102
RTVSPost2010PropOp57
 70
     1
102
RTVSPropertyOp0
 70
     1
102
RTVSPropertyOp1
 70
     1
102
RTVSPropertyOp2
 70
     1
102
RTVSPropertyOp3
 70
     1
102
RTVSPropertyOp4
 70
     1
102
RTVSPropertyOp5
 70
     1
102
RTVSPropertyOp6
 70
     1
102
RTVSPropertyOp7
 70
     1
102
RTVSPropertyOp8
 70
     1
102
RTVSPropertyOp9
 70
     1
102
RTVSPropertyOp10
 70
     1
102
RTVSPropertyOp11
 70
     1
102
RTVSPropertyOp12
 70
     1
102
RTVSPropertyOp13
 70
     1
102
RTVSPropertyOp14
 70
     1
102
RTVSPropertyOp15
 70
     1
102
RTVSPropertyOp16
 70
     1
102
RTVSPropertyOp17
 70
     1
102
RTVSPropertyOp18
 70
     1
102
RTVSPropertyOp19
 70
     1
102
RTVSPropertyOp20
 70
     1
102
RTVSPropertyOp21
 70
     1
102
RTVSPropertyOp22
 70
     1
102
RTVSPropertyOp23
 70
     1
102
RTVSPropertyOp24
 70
     1
102
RTVSPropertyOp25
 70
     1
102
RTVSPropertyOp26
 70
     1
102
RTVSPropertyOp27
 70
     1
102
RTVSPropertyOp28
 70
     1
102
RTVSPropertyOp29
 70
     1
102
RTVSPropertyOp30
 70
     1
102
RTVSPropertyOp31
 70
     1
102
RTVSPropertyOp32
 70
     1
102
RTVSPropertyOp33
 70
     1
102
RTVSPropertyOp34
 70
     1
102
RTVSPropertyOp35
 70
     1
102
RTVSPropertyOp36
 70
     1
102
RTVSPropertyOp37
 70
     1
102
RTVSPropertyOp38
 70
     1
102
RTVSPropertyOp39
 70
     1
102
RTVSPropertyOp40
 70
     1
102
RTVSPropertyOp41
 70
     1
102
RTVSPropertyOp42
 70
     1
102
RTVSPropertyOp43
 70
     1
102
RTVSPropertyOp44
 70
     1
102
RTVSPropertyOp45
 70
     1
102
RTVSPropertyOp46
 70
     1
102
RTVSPropertyOp47
 70
     1
102
RTVSPropertyOp48
 70
     1
102
RTVSPropertyOp49
 70
     1
102
RTVSPropertyOp50
 70
     1
102
RTVSPropertyOp51
 70
     0
102
RTVSPropertyOp52
 70
     0
102
RTVSPropertyOp53
 70
     1
102
RTVSPropertyOp54
 70
     1
102
RTVSPropertyOp55
 70
     1
102
RTVSPropertyOp56
 70
     1
102
RTVSPropertyOp57
 70
     1
102
RTVSPropertyOp58
 70
     1
102
RTVSPropertyOp59
 70
     1
102
RTVSPropertyOp60
 70
     1
102
RTVSPropertyOp61
 70
     1
102
RTVSPropertyOp62
 70
     1
  0
XRECORD
  5
20ECE
102
{ACAD_REACTORS
330
20ECD
102
}
330
20ECD
100
AcDbXrecord
280
     1
102
RTVSPost2010Prop28
280
     0
102
RTVSPost2010PropOp28
 70
     1
102
RTVSPost2010Prop29
280
     1
102
RTVSPost2010PropOp29
 70
     1
102
RTVSPost2010Prop30
280
     1
102
RTVSPost2010PropOp30
 70
     1
102
RTVSPost2010Prop31
280
     0
102
RTVSPost2010PropOp31
 70
     1
102
RTVSPost2010Prop32
280
     0
102
RTVSPost2010PropOp32
 70
     1
102
RTVSPost2010Prop33
280
     0
102
RTVSPost2010PropOp33
 70
     1
102
RTVSPost2010Prop34
280
     0
102
RTVSPost2010PropOp34
 70
     1
102
RTVSPost2010Prop35
280
     0
102
RTVSPost2010PropOp35
 70
     1
102
RTVSPost2010Prop36
280
     0
102
RTVSPost2010PropOp36
 70
     1
102
RTVSPost2010Prop37
 90
       50
102
RTVSPost2010PropOp37
 70
     1
102
RTVSPost2010Prop38
140
0.0
102
RTVSPost2010PropOp38
 70
     1
102
RTVSPost2010Prop39
140
1.0
102
RTVSPost2010PropOp39
 70
     1
102
RTVSPost2010Prop40
 90
        0
102
RTVSPost2010PropOp40
 70
     1
102
RTVSPost2010Prop41ColorIndex
 90
       18
102
RTVSPost2010Prop41ColorRGB
 90
        0
102
RTVSPost2010PropOp41
 70
     1
102
RTVSPost2010Prop42
 90
       50
102
RTVSPost2010PropOp42
 70
     1
102
RTVSPost2010Prop43
 90
        3
102
RTVSPost2010PropOp43
 70
     1
102
RTVSPost2010Prop44ColorIndex
 90
        5
102
RTVSPost2010Prop44ColorRGB
 90
      255
102
RTVSPost2010PropOp44
 70
     1
102
RTVSPost2010Prop45
280
     0
102
RTVSPost2010PropOp45
 70
     1
102
RTVSPost2010Prop46
 90
       50
102
RTVSPost2010PropOp46
 70
     1
102
RTVSPost2010Prop47
 90
       50
102
RTVSPost2010PropOp47
 70
     1
102
RTVSPost2010Prop48
 90
       50
102
RTVSPost2010PropOp48
 70
     1
102
RTVSPost2010Prop49
280
     0
102
RTVSPost2010PropOp49
 70
     1
102
RTVSPost2010Prop50
 90
       50
102
RTVSPost2010PropOp50
 70
     1
102
RTVSPost2010Prop51ColorIndex
 90
      256
102
RTVSPost2010Prop51ColorRGB
 90
-16777216
102
RTVSPost2010PropOp51
 70
     0
102
RTVSPost2010Prop52
140
1.0
102
RTVSPost2010PropOp52
 70
     0
102
RTVSPost2010Prop53
 90
        2
102
RTVSPost2010PropOp53
 70
     1
102
RTVSPost2010Prop54
  1
strokes_ogs.tif
102
RTVSPost2010PropOp54
 70
     1
102
RTVSPost2010Prop55
280
     0
102
RTVSPost2010PropOp55
 70
     1
102
RTVSPost2010Prop56
140
1.0
102
RTVSPost2010PropOp56
 70
     1
102
RTVSPost2010Prop57
140
1.0
102
RTVSPost2010PropOp57
 70
     1
102
RTVSPropertyOp0
 70
     1
102
RTVSPropertyOp1
 70
     1
102
RTVSPropertyOp2
 70
     1
102
RTVSPropertyOp3
 70
     1
102
RTVSPropertyOp4
 70
     1
102
RTVSPropertyOp5
 70
     1
102
RTVSPropertyOp6
 70
     1
102
RTVSPropertyOp7
 70
     1
102
RTVSPropertyOp8
 70
     1
102
RTVSPropertyOp9
 70
     1
102
RTVSPropertyOp10
 70
     1
102
RTVSPropertyOp11
 70
     1
102
RTVSPropertyOp12
 70
     1
102
RTVSPropertyOp13
 70
     1
102
RTVSPropertyOp14
 70
     1
102
RTVSPropertyOp15
 70
     1
102
RTVSPropertyOp16
 70
     1
102
RTVSPropertyOp17
 70
     1
102
RTVSPropertyOp18
 70
     1
102
RTVSPropertyOp19
 70
     1
102
RTVSPropertyOp20
 70
     1
102
RTVSPropertyOp21
 70
     1
102
RTVSPropertyOp22
 70
     1
102
RTVSPropertyOp23
 70
     1
102
RTVSPropertyOp24
 70
     1
102
RTVSPropertyOp25
 70
     1
102
RTVSPropertyOp26
 70
     1
102
RTVSPropertyOp27
 70
     1
102
RTVSPropertyOp28
 70
     1
102
RTVSPropertyOp29
 70
     1
102
RTVSPropertyOp30
 70
     1
102
RTVSPropertyOp31
 70
     1
102
RTVSPropertyOp32
 70
     1
102
RTVSPropertyOp33
 70
     1
102
RTVSPropertyOp34
 70
     1
102
RTVSPropertyOp35
 70
     1
102
RTVSPropertyOp36
 70
     1
102
RTVSPropertyOp37
 70
     1
102
RTVSPropertyOp38
 70
     1
102
RTVSPropertyOp39
 70
     1
102
RTVSPropertyOp40
 70
     1
102
RTVSPropertyOp41
 70
     1
102
RTVSPropertyOp42
 70
     1
102
RTVSPropertyOp43
 70
     1
102
RTVSPropertyOp44
 70
     1
102
RTVSPropertyOp45
 70
     1
102
RTVSPropertyOp46
 70
     1
102
RTVSPropertyOp47
 70
     1
102
RTVSPropertyOp48
 70
     1
102
RTVSPropertyOp49
 70
     1
102
RTVSPropertyOp50
 70
     1
102
RTVSPropertyOp51
 70
     0
102
RTVSPropertyOp52
 70
     0
102
RTVSPropertyOp53
 70
     1
102
RTVSPropertyOp54
 70
     1
102
RTVSPropertyOp55
 70
     1
102
RTVSPropertyOp56
 70
     1
102
RTVSPropertyOp57
 70
     1
102
RTVSPropertyOp58
 70
     1
102
RTVSPropertyOp59
 70
     1
102
RTVSPropertyOp60
 70
     1
102
RTVSPropertyOp61
 70
     1
102
RTVSPropertyOp62
 70
     1
  0
XRECORD
  5
20ED2
102
{ACAD_REACTORS
330
20ED1
102
}
330
20ED1
100
AcDbXrecord
280
     1
102
RTVSPost2010Prop28
280
     0
102
RTVSPost2010PropOp28
 70
     1
102
RTVSPost2010Prop29
280
     1
102
RTVSPost2010PropOp29
 70
     1
102
RTVSPost2010Prop30
280
     1
102
RTVSPost2010PropOp30
 70
     1
102
RTVSPost2010Prop31
280
     0
102
RTVSPost2010PropOp31
 70
     1
102
RTVSPost2010Prop32
280
     0
102
RTVSPost2010PropOp32
 70
     1
102
RTVSPost2010Prop33
280
     0
102
RTVSPost2010PropOp33
 70
     1
102
RTVSPost2010Prop34
280
     0
102
RTVSPost2010PropOp34
 70
     1
102
RTVSPost2010Prop35
280
     0
102
RTVSPost2010PropOp35
 70
     1
102
RTVSPost2010Prop36
280
     0
102
RTVSPost2010PropOp36
 70
     1
102
RTVSPost2010Prop37
 90
       50
102
RTVSPost2010PropOp37
 70
     1
102
RTVSPost2010Prop38
140
0.0
102
RTVSPost2010PropOp38
 70
     1
102
RTVSPost2010Prop39
140
1.0
102
RTVSPost2010PropOp39
 70
     1
102
RTVSPost2010Prop40
 90
        0
102
RTVSPost2010PropOp40
 70
     1
102
RTVSPost2010Prop41ColorIndex
 90
       18
102
RTVSPost2010Prop41ColorRGB
 90
        0
102
RTVSPost2010PropOp41
 70
     1
102
RTVSPost2010Prop42
 90
       50
102
RTVSPost2010PropOp42
 70
     1
102
RTVSPost2010Prop43
 90
        3
102
RTVSPost2010PropOp43
 70
     1
102
RTVSPost2010Prop44ColorIndex
 90
        5
102
RTVSPost2010Prop44ColorRGB
 90
      255
102
RTVSPost2010PropOp44
 70
     1
102
RTVSPost2010Prop45
280
     0
102
RTVSPost2010PropOp45
 70
     1
102
RTVSPost2010Prop46
 90
       50
102
RTVSPost2010PropOp46
 70
     1
102
RTVSPost2010Prop47
 90
       50
102
RTVSPost2010PropOp47
 70
     1
102
RTVSPost2010Prop48
 90
       50
102
RTVSPost2010PropOp48
 70
     1
102
RTVSPost2010Prop49
280
     0
102
RTVSPost2010PropOp49
 70
     1
102
RTVSPost2010Prop50
 90
       50
102
RTVSPost2010PropOp50
 70
     1
102
RTVSPost2010Prop51ColorIndex
 90
      256
102
RTVSPost2010Prop51ColorRGB
 90
-16777216
102
RTVSPost2010PropOp51
 70
     0
102
RTVSPost2010Prop52
140
1.0
102
RTVSPost2010PropOp52
 70
     0
102
RTVSPost2010Prop53
 90
        2
102
RTVSPost2010PropOp53
 70
     1
102
RTVSPost2010Prop54
  1
strokes_ogs.tif
102
RTVSPost2010PropOp54
 70
     1
102
RTVSPost2010Prop55
280
     0
102
RTVSPost2010PropOp55
 70
     1
102
RTVSPost2010Prop56
140
1.0
102
RTVSPost2010PropOp56
 70
     1
102
RTVSPost2010Prop57
140
1.0
102
RTVSPost2010PropOp57
 70
     1
102
RTVSPropertyOp0
 70
     1
102
RTVSPropertyOp1
 70
     1
102
RTVSPropertyOp2
 70
     1
102
RTVSPropertyOp3
 70
     1
102
RTVSPropertyOp4
 70
     1
102
RTVSPropertyOp5
 70
     1
102
RTVSPropertyOp6
 70
     1
102
RTVSPropertyOp7
 70
     1
102
RTVSPropertyOp8
 70
     1
102
RTVSPropertyOp9
 70
     1
102
RTVSPropertyOp10
 70
     1
102
RTVSPropertyOp11
 70
     1
102
RTVSPropertyOp12
 70
     1
102
RTVSPropertyOp13
 70
     1
102
RTVSPropertyOp14
 70
     1
102
RTVSPropertyOp15
 70
     1
102
RTVSPropertyOp16
 70
     1
102
RTVSPropertyOp17
 70
     1
102
RTVSPropertyOp18
 70
     1
102
RTVSPropertyOp19
 70
     1
102
RTVSPropertyOp20
 70
     1
102
RTVSPropertyOp21
 70
     1
102
RTVSPropertyOp22
 70
     1
102
RTVSPropertyOp23
 70
     1
102
RTVSPropertyOp24
 70
     1
102
RTVSPropertyOp25
 70
     1
102
RTVSPropertyOp26
 70
     1
102
RTVSPropertyOp27
 70
     1
102
RTVSPropertyOp28
 70
     1
102
RTVSPropertyOp29
 70
     1
102
RTVSPropertyOp30
 70
     1
102
RTVSPropertyOp31
 70
     1
102
RTVSPropertyOp32
 70
     1
102
RTVSPropertyOp33
 70
     1
102
RTVSPropertyOp34
 70
     1
102
RTVSPropertyOp35
 70
     1
102
RTVSPropertyOp36
 70
     1
102
RTVSPropertyOp37
 70
     1
102
RTVSPropertyOp38
 70
     1
102
RTVSPropertyOp39
 70
     1
102
RTVSPropertyOp40
 70
     1
102
RTVSPropertyOp41
 70
     1
102
RTVSPropertyOp42
 70
     1
102
RTVSPropertyOp43
 70
     1
102
RTVSPropertyOp44
 70
     1
102
RTVSPropertyOp45
 70
     1
102
RTVSPropertyOp46
 70
     1
102
RTVSPropertyOp47
 70
     1
102
RTVSPropertyOp48
 70
     1
102
RTVSPropertyOp49
 70
     1
102
RTVSPropertyOp50
 70
     1
102
RTVSPropertyOp51
 70
     0
102
RTVSPropertyOp52
 70
     0
102
RTVSPropertyOp53
 70
     1
102
RTVSPropertyOp54
 70
     1
102
RTVSPropertyOp55
 70
     1
102
RTVSPropertyOp56
 70
     1
102
RTVSPropertyOp57
 70
     1
102
RTVSPropertyOp58
 70
     1
102
RTVSPropertyOp59
 70
     1
102
RTVSPropertyOp60
 70
     1
102
RTVSPropertyOp61
 70
     1
102
RTVSPropertyOp62
 70
     1
  0
XRECORD
  5
20EF9
102
{ACAD_REACTORS
330
20EF8
102
}
330
20EF8
100
AcDbXrecord
280
     1
102
RTVSPost2010Prop28
280
     0
102
RTVSPost2010PropOp28
 70
     1
102
RTVSPost2010Prop29
280
     1
102
RTVSPost2010PropOp29
 70
     1
102
RTVSPost2010Prop30
280
     1
102
RTVSPost2010PropOp30
 70
     1
102
RTVSPost2010Prop31
280
     0
102
RTVSPost2010PropOp31
 70
     1
102
RTVSPost2010Prop32
280
     0
102
RTVSPost2010PropOp32
 70
     1
102
RTVSPost2010Prop33
280
     0
102
RTVSPost2010PropOp33
 70
     1
102
RTVSPost2010Prop34
280
     0
102
RTVSPost2010PropOp34
 70
     1
102
RTVSPost2010Prop35
280
     0
102
RTVSPost2010PropOp35
 70
     1
102
RTVSPost2010Prop36
280
     0
102
RTVSPost2010PropOp36
 70
     1
102
RTVSPost2010Prop37
 90
       50
102
RTVSPost2010PropOp37
 70
     0
102
RTVSPost2010Prop38
140
0.0
102
RTVSPost2010PropOp38
 70
     0
102
RTVSPost2010Prop39
140
1.0
102
RTVSPost2010PropOp39
 70
     0
102
RTVSPost2010Prop40
 90
        0
102
RTVSPost2010PropOp40
 70
     0
102
RTVSPost2010Prop41ColorIndex
 90
       18
102
RTVSPost2010Prop41ColorRGB
 90
        0
102
RTVSPost2010PropOp41
 70
     0
102
RTVSPost2010Prop42
 90
       50
102
RTVSPost2010PropOp42
 70
     0
102
RTVSPost2010Prop43
 90
        3
102
RTVSPost2010PropOp43
 70
     0
102
RTVSPost2010Prop44ColorIndex
 90
        5
102
RTVSPost2010Prop44ColorRGB
 90
      255
102
RTVSPost2010PropOp44
 70
     0
102
RTVSPost2010Prop45
280
     0
102
RTVSPost2010PropOp45
 70
     1
102
RTVSPost2010Prop46
 90
       50
102
RTVSPost2010PropOp46
 70
     0
102
RTVSPost2010Prop47
 90
       50
102
RTVSPost2010PropOp47
 70
     0
102
RTVSPost2010Prop48
 90
       50
102
RTVSPost2010PropOp48
 70
     0
102
RTVSPost2010Prop49
280
     0
102
RTVSPost2010PropOp49
 70
     1
102
RTVSPost2010Prop50
 90
       50
102
RTVSPost2010PropOp50
 70
     0
102
RTVSPost2010Prop51ColorIndex
 90
      256
102
RTVSPost2010Prop51ColorRGB
 90
-16777216
102
RTVSPost2010PropOp51
 70
     0
102
RTVSPost2010Prop52
140
1.0
102
RTVSPost2010PropOp52
 70
     0
102
RTVSPost2010Prop53
 90
        2
102
RTVSPost2010PropOp53
 70
     0
102
RTVSPost2010Prop54
  1
strokes_ogs.tif
102
RTVSPost2010PropOp54
 70
     0
102
RTVSPost2010Prop55
280
     0
102
RTVSPost2010PropOp55
 70
     1
102
RTVSPost2010Prop56
140
1.0
102
RTVSPost2010PropOp56
 70
     0
102
RTVSPost2010Prop57
140
1.0
102
RTVSPost2010PropOp57
 70
     0
102
RTVSPropertyOp0
 70
     0
102
RTVSPropertyOp1
 70
     0
102
RTVSPropertyOp2
 70
     0
102
RTVSPropertyOp3
 70
     0
102
RTVSPropertyOp4
 70
     0
102
RTVSPropertyOp5
 70
     0
102
RTVSPropertyOp6
 70
     0
102
RTVSPropertyOp7
 70
     0
102
RTVSPropertyOp8
 70
     0
102
RTVSPropertyOp9
 70
     0
102
RTVSPropertyOp10
 70
     0
102
RTVSPropertyOp11
 70
     0
102
RTVSPropertyOp12
 70
     0
102
RTVSPropertyOp13
 70
     0
102
RTVSPropertyOp14
 70
     2
102
RTVSPropertyOp15
 70
     0
102
RTVSPropertyOp16
 70
     0
102
RTVSPropertyOp17
 70
     0
102
RTVSPropertyOp18
 70
     0
102
RTVSPropertyOp19
 70
     0
102
RTVSPropertyOp20
 70
     0
102
RTVSPropertyOp21
 70
     0
102
RTVSPropertyOp22
 70
     0
102
RTVSPropertyOp23
 70
     0
102
RTVSPropertyOp24
 70
     0
102
RTVSPropertyOp25
 70
     0
102
RTVSPropertyOp26
 70
     0
102
RTVSPropertyOp27
 70
     0
102
RTVSPropertyOp28
 70
     1
102
RTVSPropertyOp29
 70
     1
102
RTVSPropertyOp30
 70
     1
102
RTVSPropertyOp31
 70
     1
102
RTVSPropertyOp32
 70
     1
102
RTVSPropertyOp33
 70
     1
102
RTVSPropertyOp34
 70
     1
102
RTVSPropertyOp35
 70
     1
102
RTVSPropertyOp36
 70
     1
102
RTVSPropertyOp37
 70
     0
102
RTVSPropertyOp38
 70
     0
102
RTVSPropertyOp39
 70
     0
102
RTVSPropertyOp40
 70
     0
102
RTVSPropertyOp41
 70
     0
102
RTVSPropertyOp42
 70
     0
102
RTVSPropertyOp43
 70
     0
102
RTVSPropertyOp44
 70
     0
102
RTVSPropertyOp45
 70
     1
102
RTVSPropertyOp46
 70
     0
102
RTVSPropertyOp47
 70
     0
102
RTVSPropertyOp48
 70
     0
102
RTVSPropertyOp49
 70
     1
102
RTVSPropertyOp50
 70
     0
102
RTVSPropertyOp51
 70
     0
102
RTVSPropertyOp52
 70
     0
102
RTVSPropertyOp53
 70
     0
102
RTVSPropertyOp54
 70
     0
102
RTVSPropertyOp55
 70
     1
102
RTVSPropertyOp56
 70
     0
102
RTVSPropertyOp57
 70
     0
102
RTVSPropertyOp58
 70
     1
102
RTVSPropertyOp59
 70
     1
102
RTVSPropertyOp60
 70
     1
102
RTVSPropertyOp61
 70
     1
102
RTVSPropertyOp62
 70
     1
  0
XRECORD
  5
20EDA
102
{ACAD_REACTORS
330
20ED9
102
}
330
20ED9
100
AcDbXrecord
280
     1
102
RTVSPost2010Prop28
280
     0
102
RTVSPost2010PropOp28
 70
     1
102
RTVSPost2010Prop29
280
     1
102
RTVSPost2010PropOp29
 70
     1
102
RTVSPost2010Prop30
280
     1
102
RTVSPost2010PropOp30
 70
     1
102
RTVSPost2010Prop31
280
     0
102
RTVSPost2010PropOp31
 70
     1
102
RTVSPost2010Prop32
280
     0
102
RTVSPost2010PropOp32
 70
     1
102
RTVSPost2010Prop33
280
     0
102
RTVSPost2010PropOp33
 70
     1
102
RTVSPost2010Prop34
280
     0
102
RTVSPost2010PropOp34
 70
     1
102
RTVSPost2010Prop35
280
     0
102
RTVSPost2010PropOp35
 70
     1
102
RTVSPost2010Prop36
280
     0
102
RTVSPost2010PropOp36
 70
     1
102
RTVSPost2010Prop37
 90
       50
102
RTVSPost2010PropOp37
 70
     1
102
RTVSPost2010Prop38
140
0.0
102
RTVSPost2010PropOp38
 70
     1
102
RTVSPost2010Prop39
140
1.0
102
RTVSPost2010PropOp39
 70
     1
102
RTVSPost2010Prop40
 90
        0
102
RTVSPost2010PropOp40
 70
     1
102
RTVSPost2010Prop41ColorIndex
 90
       18
102
RTVSPost2010Prop41ColorRGB
 90
        0
102
RTVSPost2010PropOp41
 70
     1
102
RTVSPost2010Prop42
 90
       50
102
RTVSPost2010PropOp42
 70
     1
102
RTVSPost2010Prop43
 90
        3
102
RTVSPost2010PropOp43
 70
     1
102
RTVSPost2010Prop44ColorIndex
 90
        5
102
RTVSPost2010Prop44ColorRGB
 90
      255
102
RTVSPost2010PropOp44
 70
     1
102
RTVSPost2010Prop45
280
     0
102
RTVSPost2010PropOp45
 70
     1
102
RTVSPost2010Prop46
 90
       50
102
RTVSPost2010PropOp46
 70
     1
102
RTVSPost2010Prop47
 90
       50
102
RTVSPost2010PropOp47
 70
     1
102
RTVSPost2010Prop48
 90
       50
102
RTVSPost2010PropOp48
 70
     1
102
RTVSPost2010Prop49
280
     0
102
RTVSPost2010PropOp49
 70
     1
102
RTVSPost2010Prop50
 90
       50
102
RTVSPost2010PropOp50
 70
     1
102
RTVSPost2010Prop51ColorIndex
 90
      256
102
RTVSPost2010Prop51ColorRGB
 90
-16777216
102
RTVSPost2010PropOp51
 70
     0
102
RTVSPost2010Prop52
140
1.0
102
RTVSPost2010PropOp52
 70
     0
102
RTVSPost2010Prop53
 90
        2
102
RTVSPost2010PropOp53
 70
     1
102
RTVSPost2010Prop54
  1
strokes_ogs.tif
102
RTVSPost2010PropOp54
 70
     1
102
RTVSPost2010Prop55
280
     0
102
RTVSPost2010PropOp55
 70
     1
102
RTVSPost2010Prop56
140
1.0
102
RTVSPost2010PropOp56
 70
     1
102
RTVSPost2010Prop57
140
1.0
102
RTVSPost2010PropOp57
 70
     1
102
RTVSPropertyOp0
 70
     1
102
RTVSPropertyOp1
 70
     1
102
RTVSPropertyOp2
 70
     1
102
RTVSPropertyOp3
 70
     1
102
RTVSPropertyOp4
 70
     1
102
RTVSPropertyOp5
 70
     1
102
RTVSPropertyOp6
 70
     1
102
RTVSPropertyOp7
 70
     1
102
RTVSPropertyOp8
 70
     1
102
RTVSPropertyOp9
 70
     1
102
RTVSPropertyOp10
 70
     1
102
RTVSPropertyOp11
 70
     1
102
RTVSPropertyOp12
 70
     1
102
RTVSPropertyOp13
 70
     1
102
RTVSPropertyOp14
 70
     1
102
RTVSPropertyOp15
 70
     1
102
RTVSPropertyOp16
 70
     1
102
RTVSPropertyOp17
 70
     1
102
RTVSPropertyOp18
 70
     1
102
RTVSPropertyOp19
 70
     1
102
RTVSPropertyOp20
 70
     1
102
RTVSPropertyOp21
 70
     1
102
RTVSPropertyOp22
 70
     1
102
RTVSPropertyOp23
 70
     1
102
RTVSPropertyOp24
 70
     1
102
RTVSPropertyOp25
 70
     1
102
RTVSPropertyOp26
 70
     1
102
RTVSPropertyOp27
 70
     1
102
RTVSPropertyOp28
 70
     1
102
RTVSPropertyOp29
 70
     1
102
RTVSPropertyOp30
 70
     1
102
RTVSPropertyOp31
 70
     1
102
RTVSPropertyOp32
 70
     1
102
RTVSPropertyOp33
 70
     1
102
RTVSPropertyOp34
 70
     1
102
RTVSPropertyOp35
 70
     1
102
RTVSPropertyOp36
 70
     1
102
RTVSPropertyOp37
 70
     1
102
RTVSPropertyOp38
 70
     1
102
RTVSPropertyOp39
 70
     1
102
RTVSPropertyOp40
 70
     1
102
RTVSPropertyOp41
 70
     1
102
RTVSPropertyOp42
 70
     1
102
RTVSPropertyOp43
 70
     1
102
RTVSPropertyOp44
 70
     1
102
RTVSPropertyOp45
 70
     1
102
RTVSPropertyOp46
 70
     1
102
RTVSPropertyOp47
 70
     1
102
RTVSPropertyOp48
 70
     1
102
RTVSPropertyOp49
 70
     1
102
RTVSPropertyOp50
 70
     1
102
RTVSPropertyOp51
 70
     0
102
RTVSPropertyOp52
 70
     0
102
RTVSPropertyOp53
 70
     1
102
RTVSPropertyOp54
 70
     1
102
RTVSPropertyOp55
 70
     1
102
RTVSPropertyOp56
 70
     1
102
RTVSPropertyOp57
 70
     1
102
RTVSPropertyOp58
 70
     1
102
RTVSPropertyOp59
 70
     1
102
RTVSPropertyOp60
 70
     1
102
RTVSPropertyOp61
 70
     1
102
RTVSPropertyOp62
 70
     1
  0
XRECORD
  5
20EBE
102
{ACAD_REACTORS
330
20EBD
102
}
330
20EBD
100
AcDbXrecord
280
     1
102
RTVSPost2010Prop28
280
     0
102
RTVSPost2010PropOp28
 70
     1
102
RTVSPost2010Prop29
280
     1
102
RTVSPost2010PropOp29
 70
     1
102
RTVSPost2010Prop30
280
     1
102
RTVSPost2010PropOp30
 70
     1
102
RTVSPost2010Prop31
280
     0
102
RTVSPost2010PropOp31
 70
     1
102
RTVSPost2010Prop32
280
     0
102
RTVSPost2010PropOp32
 70
     1
102
RTVSPost2010Prop33
280
     0
102
RTVSPost2010PropOp33
 70
     1
102
RTVSPost2010Prop34
280
     0
102
RTVSPost2010PropOp34
 70
     1
102
RTVSPost2010Prop35
280
     0
102
RTVSPost2010PropOp35
 70
     1
102
RTVSPost2010Prop36
280
     0
102
RTVSPost2010PropOp36
 70
     1
102
RTVSPost2010Prop37
 90
       50
102
RTVSPost2010PropOp37
 70
     1
102
RTVSPost2010Prop38
140
0.0
102
RTVSPost2010PropOp38
 70
     1
102
RTVSPost2010Prop39
140
1.0
102
RTVSPost2010PropOp39
 70
     1
102
RTVSPost2010Prop40
 90
        0
102
RTVSPost2010PropOp40
 70
     1
102
RTVSPost2010Prop41ColorIndex
 90
       18
102
RTVSPost2010Prop41ColorRGB
 90
        0
102
RTVSPost2010PropOp41
 70
     1
102
RTVSPost2010Prop42
 90
       50
102
RTVSPost2010PropOp42
 70
     1
102
RTVSPost2010Prop43
 90
        3
102
RTVSPost2010PropOp43
 70
     1
102
RTVSPost2010Prop44ColorIndex
 90
        5
102
RTVSPost2010Prop44ColorRGB
 90
      255
102
RTVSPost2010PropOp44
 70
     1
102
RTVSPost2010Prop45
280
     0
102
RTVSPost2010PropOp45
 70
     1
102
RTVSPost2010Prop46
 90
       50
102
RTVSPost2010PropOp46
 70
     1
102
RTVSPost2010Prop47
 90
       50
102
RTVSPost2010PropOp47
 70
     1
102
RTVSPost2010Prop48
 90
       50
102
RTVSPost2010PropOp48
 70
     1
102
RTVSPost2010Prop49
280
     0
102
RTVSPost2010PropOp49
 70
     1
102
RTVSPost2010Prop50
 90
       50
102
RTVSPost2010PropOp50
 70
     1
102
RTVSPost2010Prop51ColorIndex
 90
      256
102
RTVSPost2010Prop51ColorRGB
 90
-16777216
102
RTVSPost2010PropOp51
 70
     0
102
RTVSPost2010Prop52
140
1.0
102
RTVSPost2010PropOp52
 70
     0
102
RTVSPost2010Prop53
 90
        2
102
RTVSPost2010PropOp53
 70
     1
102
RTVSPost2010Prop54
  1
strokes_ogs.tif
102
RTVSPost2010PropOp54
 70
     1
102
RTVSPost2010Prop55
280
     0
102
RTVSPost2010PropOp55
 70
     1
102
RTVSPost2010Prop56
140
1.0
102
RTVSPost2010PropOp56
 70
     1
102
RTVSPost2010Prop57
140
1.0
102
RTVSPost2010PropOp57
 70
     1
102
RTVSPropertyOp0
 70
     1
102
RTVSPropertyOp1
 70
     1
102
RTVSPropertyOp2
 70
     1
102
RTVSPropertyOp3
 70
     1
102
RTVSPropertyOp4
 70
     1
102
RTVSPropertyOp5
 70
     1
102
RTVSPropertyOp6
 70
     1
102
RTVSPropertyOp7
 70
     1
102
RTVSPropertyOp8
 70
     1
102
RTVSPropertyOp9
 70
     1
102
RTVSPropertyOp10
 70
     1
102
RTVSPropertyOp11
 70
     1
102
RTVSPropertyOp12
 70
     1
102
RTVSPropertyOp13
 70
     1
102
RTVSPropertyOp14
 70
     1
102
RTVSPropertyOp15
 70
     1
102
RTVSPropertyOp16
 70
     1
102
RTVSPropertyOp17
 70
     1
102
RTVSPropertyOp18
 70
     1
102
RTVSPropertyOp19
 70
     1
102
RTVSPropertyOp20
 70
     1
102
RTVSPropertyOp21
 70
     1
102
RTVSPropertyOp22
 70
     1
102
RTVSPropertyOp23
 70
     1
102
RTVSPropertyOp24
 70
     1
102
RTVSPropertyOp25
 70
     1
102
RTVSPropertyOp26
 70
     1
102
RTVSPropertyOp27
 70
     1
102
RTVSPropertyOp28
 70
     1
102
RTVSPropertyOp29
 70
     1
102
RTVSPropertyOp30
 70
     1
102
RTVSPropertyOp31
 70
     1
102
RTVSPropertyOp32
 70
     1
102
RTVSPropertyOp33
 70
     1
102
RTVSPropertyOp34
 70
     1
102
RTVSPropertyOp35
 70
     1
102
RTVSPropertyOp36
 70
     1
102
RTVSPropertyOp37
 70
     1
102
RTVSPropertyOp38
 70
     1
102
RTVSPropertyOp39
 70
     1
102
RTVSPropertyOp40
 70
     1
102
RTVSPropertyOp41
 70
     1
102
RTVSPropertyOp42
 70
     1
102
RTVSPropertyOp43
 70
     1
102
RTVSPropertyOp44
 70
     1
102
RTVSPropertyOp45
 70
     1
102
RTVSPropertyOp46
 70
     1
102
RTVSPropertyOp47
 70
     1
102
RTVSPropertyOp48
 70
     1
102
RTVSPropertyOp49
 70
     1
102
RTVSPropertyOp50
 70
     1
102
RTVSPropertyOp51
 70
     0
102
RTVSPropertyOp52
 70
     0
102
RTVSPropertyOp53
 70
     1
102
RTVSPropertyOp54
 70
     1
102
RTVSPropertyOp55
 70
     1
102
RTVSPropertyOp56
 70
     1
102
RTVSPropertyOp57
 70
     1
102
RTVSPropertyOp58
 70
     1
102
RTVSPropertyOp59
 70
     1
102
RTVSPropertyOp60
 70
     1
102
RTVSPropertyOp61
 70
     1
102
RTVSPropertyOp62
 70
     1
  0
XRECORD
  5
20EC0
102
{ACAD_REACTORS
330
20EBF
102
}
330
20EBF
100
AcDbXrecord
280
     1
102
RTVSPost2010Prop28
280
     0
102
RTVSPost2010PropOp28
 70
     1
102
RTVSPost2010Prop29
280
     1
102
RTVSPost2010PropOp29
 70
     1
102
RTVSPost2010Prop30
280
     1
102
RTVSPost2010PropOp30
 70
     1
102
RTVSPost2010Prop31
280
     0
102
RTVSPost2010PropOp31
 70
     1
102
RTVSPost2010Prop32
280
     0
102
RTVSPost2010PropOp32
 70
     1
102
RTVSPost2010Prop33
280
     0
102
RTVSPost2010PropOp33
 70
     1
102
RTVSPost2010Prop34
280
     0
102
RTVSPost2010PropOp34
 70
     1
102
RTVSPost2010Prop35
280
     0
102
RTVSPost2010PropOp35
 70
     1
102
RTVSPost2010Prop36
280
     0
102
RTVSPost2010PropOp36
 70
     1
102
RTVSPost2010Prop37
 90
       50
102
RTVSPost2010PropOp37
 70
     1
102
RTVSPost2010Prop38
140
0.0
102
RTVSPost2010PropOp38
 70
     1
102
RTVSPost2010Prop39
140
1.0
102
RTVSPost2010PropOp39
 70
     1
102
RTVSPost2010Prop40
 90
        0
102
RTVSPost2010PropOp40
 70
     1
102
RTVSPost2010Prop41ColorIndex
 90
       18
102
RTVSPost2010Prop41ColorRGB
 90
        0
102
RTVSPost2010PropOp41
 70
     1
102
RTVSPost2010Prop42
 90
       50
102
RTVSPost2010PropOp42
 70
     1
102
RTVSPost2010Prop43
 90
        3
102
RTVSPost2010PropOp43
 70
     1
102
RTVSPost2010Prop44ColorIndex
 90
        5
102
RTVSPost2010Prop44ColorRGB
 90
      255
102
RTVSPost2010PropOp44
 70
     1
102
RTVSPost2010Prop45
280
     0
102
RTVSPost2010PropOp45
 70
     1
102
RTVSPost2010Prop46
 90
       50
102
RTVSPost2010PropOp46
 70
     1
102
RTVSPost2010Prop47
 90
       50
102
RTVSPost2010PropOp47
 70
     1
102
RTVSPost2010Prop48
 90
       50
102
RTVSPost2010PropOp48
 70
     1
102
RTVSPost2010Prop49
280
     0
102
RTVSPost2010PropOp49
 70
     1
102
RTVSPost2010Prop50
 90
       50
102
RTVSPost2010PropOp50
 70
     1
102
RTVSPost2010Prop51ColorIndex
 90
      256
102
RTVSPost2010Prop51ColorRGB
 90
-16777216
102
RTVSPost2010PropOp51
 70
     0
102
RTVSPost2010Prop52
140
1.0
102
RTVSPost2010PropOp52
 70
     0
102
RTVSPost2010Prop53
 90
        2
102
RTVSPost2010PropOp53
 70
     1
102
RTVSPost2010Prop54
  1
strokes_ogs.tif
102
RTVSPost2010PropOp54
 70
     1
102
RTVSPost2010Prop55
280
     0
102
RTVSPost2010PropOp55
 70
     1
102
RTVSPost2010Prop56
140
1.0
102
RTVSPost2010PropOp56
 70
     1
102
RTVSPost2010Prop57
140
1.0
102
RTVSPost2010PropOp57
 70
     1
102
RTVSPropertyOp0
 70
     1
102
RTVSPropertyOp1
 70
     1
102
RTVSPropertyOp2
 70
     1
102
RTVSPropertyOp3
 70
     1
102
RTVSPropertyOp4
 70
     1
102
RTVSPropertyOp5
 70
     1
102
RTVSPropertyOp6
 70
     1
102
RTVSPropertyOp7
 70
     1
102
RTVSPropertyOp8
 70
     1
102
RTVSPropertyOp9
 70
     1
102
RTVSPropertyOp10
 70
     1
102
RTVSPropertyOp11
 70
     1
102
RTVSPropertyOp12
 70
     1
102
RTVSPropertyOp13
 70
     1
102
RTVSPropertyOp14
 70
     1
102
RTVSPropertyOp15
 70
     1
102
RTVSPropertyOp16
 70
     1
102
RTVSPropertyOp17
 70
     1
102
RTVSPropertyOp18
 70
     1
102
RTVSPropertyOp19
 70
     1
102
RTVSPropertyOp20
 70
     1
102
RTVSPropertyOp21
 70
     1
102
RTVSPropertyOp22
 70
     1
102
RTVSPropertyOp23
 70
     1
102
RTVSPropertyOp24
 70
     1
102
RTVSPropertyOp25
 70
     1
102
RTVSPropertyOp26
 70
     1
102
RTVSPropertyOp27
 70
     1
102
RTVSPropertyOp28
 70
     1
102
RTVSPropertyOp29
 70
     1
102
RTVSPropertyOp30
 70
     1
102
RTVSPropertyOp31
 70
     1
102
RTVSPropertyOp32
 70
     1
102
RTVSPropertyOp33
 70
     1
102
RTVSPropertyOp34
 70
     1
102
RTVSPropertyOp35
 70
     1
102
RTVSPropertyOp36
 70
     1
102
RTVSPropertyOp37
 70
     1
102
RTVSPropertyOp38
 70
     1
102
RTVSPropertyOp39
 70
     1
102
RTVSPropertyOp40
 70
     1
102
RTVSPropertyOp41
 70
     1
102
RTVSPropertyOp42
 70
     1
102
RTVSPropertyOp43
 70
     1
102
RTVSPropertyOp44
 70
     1
102
RTVSPropertyOp45
 70
     1
102
RTVSPropertyOp46
 70
     1
102
RTVSPropertyOp47
 70
     1
102
RTVSPropertyOp48
 70
     1
102
RTVSPropertyOp49
 70
     1
102
RTVSPropertyOp50
 70
     1
102
RTVSPropertyOp51
 70
     0
102
RTVSPropertyOp52
 70
     0
102
RTVSPropertyOp53
 70
     1
102
RTVSPropertyOp54
 70
     1
102
RTVSPropertyOp55
 70
     1
102
RTVSPropertyOp56
 70
     1
102
RTVSPropertyOp57
 70
     1
102
RTVSPropertyOp58
 70
     1
102
RTVSPropertyOp59
 70
     1
102
RTVSPropertyOp60
 70
     1
102
RTVSPropertyOp61
 70
     1
102
RTVSPropertyOp62
 70
     1
  0
XRECORD
  5
20EC2
102
{ACAD_REACTORS
330
20EC1
102
}
330
20EC1
100
AcDbXrecord
280
     1
102
RTVSPost2010Prop28
280
     0
102
RTVSPost2010PropOp28
 70
     1
102
RTVSPost2010Prop29
280
     1
102
RTVSPost2010PropOp29
 70
     1
102
RTVSPost2010Prop30
280
     1
102
RTVSPost2010PropOp30
 70
     1
102
RTVSPost2010Prop31
280
     0
102
RTVSPost2010PropOp31
 70
     1
102
RTVSPost2010Prop32
280
     0
102
RTVSPost2010PropOp32
 70
     1
102
RTVSPost2010Prop33
280
     0
102
RTVSPost2010PropOp33
 70
     1
102
RTVSPost2010Prop34
280
     0
102
RTVSPost2010PropOp34
 70
     1
102
RTVSPost2010Prop35
280
     0
102
RTVSPost2010PropOp35
 70
     1
102
RTVSPost2010Prop36
280
     0
102
RTVSPost2010PropOp36
 70
     1
102
RTVSPost2010Prop37
 90
       50
102
RTVSPost2010PropOp37
 70
     1
102
RTVSPost2010Prop38
140
0.0
102
RTVSPost2010PropOp38
 70
     1
102
RTVSPost2010Prop39
140
1.0
102
RTVSPost2010PropOp39
 70
     1
102
RTVSPost2010Prop40
 90
        0
102
RTVSPost2010PropOp40
 70
     1
102
RTVSPost2010Prop41ColorIndex
 90
       18
102
RTVSPost2010Prop41ColorRGB
 90
        0
102
RTVSPost2010PropOp41
 70
     1
102
RTVSPost2010Prop42
 90
       50
102
RTVSPost2010PropOp42
 70
     1
102
RTVSPost2010Prop43
 90
        3
102
RTVSPost2010PropOp43
 70
     1
102
RTVSPost2010Prop44ColorIndex
 90
        5
102
RTVSPost2010Prop44ColorRGB
 90
      255
102
RTVSPost2010PropOp44
 70
     1
102
RTVSPost2010Prop45
280
     0
102
RTVSPost2010PropOp45
 70
     1
102
RTVSPost2010Prop46
 90
       50
102
RTVSPost2010PropOp46
 70
     1
102
RTVSPost2010Prop47
 90
       50
102
RTVSPost2010PropOp47
 70
     1
102
RTVSPost2010Prop48
 90
       50
102
RTVSPost2010PropOp48
 70
     1
102
RTVSPost2010Prop49
280
     0
102
RTVSPost2010PropOp49
 70
     1
102
RTVSPost2010Prop50
 90
       50
102
RTVSPost2010PropOp50
 70
     1
102
RTVSPost2010Prop51ColorIndex
 90
      256
102
RTVSPost2010Prop51ColorRGB
 90
-16777216
102
RTVSPost2010PropOp51
 70
     0
102
RTVSPost2010Prop52
140
1.0
102
RTVSPost2010PropOp52
 70
     0
102
RTVSPost2010Prop53
 90
        2
102
RTVSPost2010PropOp53
 70
     1
102
RTVSPost2010Prop54
  1
strokes_ogs.tif
102
RTVSPost2010PropOp54
 70
     1
102
RTVSPost2010Prop55
280
     0
102
RTVSPost2010PropOp55
 70
     1
102
RTVSPost2010Prop56
140
1.0
102
RTVSPost2010PropOp56
 70
     1
102
RTVSPost2010Prop57
140
1.0
102
RTVSPost2010PropOp57
 70
     1
102
RTVSPropertyOp0
 70
     1
102
RTVSPropertyOp1
 70
     1
102
RTVSPropertyOp2
 70
     1
102
RTVSPropertyOp3
 70
     1
102
RTVSPropertyOp4
 70
     1
102
RTVSPropertyOp5
 70
     1
102
RTVSPropertyOp6
 70
     1
102
RTVSPropertyOp7
 70
     1
102
RTVSPropertyOp8
 70
     1
102
RTVSPropertyOp9
 70
     1
102
RTVSPropertyOp10
 70
     1
102
RTVSPropertyOp11
 70
     1
102
RTVSPropertyOp12
 70
     1
102
RTVSPropertyOp13
 70
     1
102
RTVSPropertyOp14
 70
     1
102
RTVSPropertyOp15
 70
     1
102
RTVSPropertyOp16
 70
     1
102
RTVSPropertyOp17
 70
     1
102
RTVSPropertyOp18
 70
     1
102
RTVSPropertyOp19
 70
     1
102
RTVSPropertyOp20
 70
     1
102
RTVSPropertyOp21
 70
     1
102
RTVSPropertyOp22
 70
     1
102
RTVSPropertyOp23
 70
     1
102
RTVSPropertyOp24
 70
     1
102
RTVSPropertyOp25
 70
     1
102
RTVSPropertyOp26
 70
     1
102
RTVSPropertyOp27
 70
     1
102
RTVSPropertyOp28
 70
     1
102
RTVSPropertyOp29
 70
     1
102
RTVSPropertyOp30
 70
     1
102
RTVSPropertyOp31
 70
     1
102
RTVSPropertyOp32
 70
     1
102
RTVSPropertyOp33
 70
     1
102
RTVSPropertyOp34
 70
     1
102
RTVSPropertyOp35
 70
     1
102
RTVSPropertyOp36
 70
     1
102
RTVSPropertyOp37
 70
     1
102
RTVSPropertyOp38
 70
     1
102
RTVSPropertyOp39
 70
     1
102
RTVSPropertyOp40
 70
     1
102
RTVSPropertyOp41
 70
     1
102
RTVSPropertyOp42
 70
     1
102
RTVSPropertyOp43
 70
     1
102
RTVSPropertyOp44
 70
     1
102
RTVSPropertyOp45
 70
     1
102
RTVSPropertyOp46
 70
     1
102
RTVSPropertyOp47
 70
     1
102
RTVSPropertyOp48
 70
     1
102
RTVSPropertyOp49
 70
     1
102
RTVSPropertyOp50
 70
     1
102
RTVSPropertyOp51
 70
     0
102
RTVSPropertyOp52
 70
     0
102
RTVSPropertyOp53
 70
     1
102
RTVSPropertyOp54
 70
     1
102
RTVSPropertyOp55
 70
     1
102
RTVSPropertyOp56
 70
     1
102
RTVSPropertyOp57
 70
     1
102
RTVSPropertyOp58
 70
     1
102
RTVSPropertyOp59
 70
     1
102
RTVSPropertyOp60
 70
     1
102
RTVSPropertyOp61
 70
     1
102
RTVSPropertyOp62
 70
     1
  0
XRECORD
  5
20EC4
102
{ACAD_REACTORS
330
20EC3
102
}
330
20EC3
100
AcDbXrecord
280
     1
102
RTVSPost2010Prop28
280
     0
102
RTVSPost2010PropOp28
 70
     1
102
RTVSPost2010Prop29
280
     1
102
RTVSPost2010PropOp29
 70
     1
102
RTVSPost2010Prop30
280
     1
102
RTVSPost2010PropOp30
 70
     1
102
RTVSPost2010Prop31
280
     0
102
RTVSPost2010PropOp31
 70
     1
102
RTVSPost2010Prop32
280
     0
102
RTVSPost2010PropOp32
 70
     1
102
RTVSPost2010Prop33
280
     0
102
RTVSPost2010PropOp33
 70
     1
102
RTVSPost2010Prop34
280
     0
102
RTVSPost2010PropOp34
 70
     1
102
RTVSPost2010Prop35
280
     0
102
RTVSPost2010PropOp35
 70
     1
102
RTVSPost2010Prop36
280
     0
102
RTVSPost2010PropOp36
 70
     1
102
RTVSPost2010Prop37
 90
       50
102
RTVSPost2010PropOp37
 70
     1
102
RTVSPost2010Prop38
140
0.0
102
RTVSPost2010PropOp38
 70
     1
102
RTVSPost2010Prop39
140
1.0
102
RTVSPost2010PropOp39
 70
     1
102
RTVSPost2010Prop40
 90
        0
102
RTVSPost2010PropOp40
 70
     1
102
RTVSPost2010Prop41ColorIndex
 90
       18
102
RTVSPost2010Prop41ColorRGB
 90
        0
102
RTVSPost2010PropOp41
 70
     1
102
RTVSPost2010Prop42
 90
       50
102
RTVSPost2010PropOp42
 70
     1
102
RTVSPost2010Prop43
 90
        3
102
RTVSPost2010PropOp43
 70
     1
102
RTVSPost2010Prop44ColorIndex
 90
        5
102
RTVSPost2010Prop44ColorRGB
 90
      255
102
RTVSPost2010PropOp44
 70
     1
102
RTVSPost2010Prop45
280
     0
102
RTVSPost2010PropOp45
 70
     1
102
RTVSPost2010Prop46
 90
       50
102
RTVSPost2010PropOp46
 70
     1
102
RTVSPost2010Prop47
 90
       50
102
RTVSPost2010PropOp47
 70
     1
102
RTVSPost2010Prop48
 90
       50
102
RTVSPost2010PropOp48
 70
     1
102
RTVSPost2010Prop49
280
     0
102
RTVSPost2010PropOp49
 70
     1
102
RTVSPost2010Prop50
 90
       50
102
RTVSPost2010PropOp50
 70
     1
102
RTVSPost2010Prop51ColorIndex
 90
      256
102
RTVSPost2010Prop51ColorRGB
 90
-16777216
102
RTVSPost2010PropOp51
 70
     0
102
RTVSPost2010Prop52
140
1.0
102
RTVSPost2010PropOp52
 70
     0
102
RTVSPost2010Prop53
 90
        2
102
RTVSPost2010PropOp53
 70
     1
102
RTVSPost2010Prop54
  1
strokes_ogs.tif
102
RTVSPost2010PropOp54
 70
     1
102
RTVSPost2010Prop55
280
     0
102
RTVSPost2010PropOp55
 70
     1
102
RTVSPost2010Prop56
140
1.0
102
RTVSPost2010PropOp56
 70
     1
102
RTVSPost2010Prop57
140
1.0
102
RTVSPost2010PropOp57
 70
     1
102
RTVSPropertyOp0
 70
     1
102
RTVSPropertyOp1
 70
     1
102
RTVSPropertyOp2
 70
     1
102
RTVSPropertyOp3
 70
     1
102
RTVSPropertyOp4
 70
     1
102
RTVSPropertyOp5
 70
     1
102
RTVSPropertyOp6
 70
     1
102
RTVSPropertyOp7
 70
     1
102
RTVSPropertyOp8
 70
     1
102
RTVSPropertyOp9
 70
     1
102
RTVSPropertyOp10
 70
     1
102
RTVSPropertyOp11
 70
     1
102
RTVSPropertyOp12
 70
     1
102
RTVSPropertyOp13
 70
     1
102
RTVSPropertyOp14
 70
     1
102
RTVSPropertyOp15
 70
     1
102
RTVSPropertyOp16
 70
     1
102
RTVSPropertyOp17
 70
     1
102
RTVSPropertyOp18
 70
     1
102
RTVSPropertyOp19
 70
     1
102
RTVSPropertyOp20
 70
     1
102
RTVSPropertyOp21
 70
     1
102
RTVSPropertyOp22
 70
     1
102
RTVSPropertyOp23
 70
     1
102
RTVSPropertyOp24
 70
     1
102
RTVSPropertyOp25
 70
     1
102
RTVSPropertyOp26
 70
     1
102
RTVSPropertyOp27
 70
     1
102
RTVSPropertyOp28
 70
     1
102
RTVSPropertyOp29
 70
     1
102
RTVSPropertyOp30
 70
     1
102
RTVSPropertyOp31
 70
     1
102
RTVSPropertyOp32
 70
     1
102
RTVSPropertyOp33
 70
     1
102
RTVSPropertyOp34
 70
     1
102
RTVSPropertyOp35
 70
     1
102
RTVSPropertyOp36
 70
     1
102
RTVSPropertyOp37
 70
     1
102
RTVSPropertyOp38
 70
     1
102
RTVSPropertyOp39
 70
     1
102
RTVSPropertyOp40
 70
     1
102
RTVSPropertyOp41
 70
     1
102
RTVSPropertyOp42
 70
     1
102
RTVSPropertyOp43
 70
     1
102
RTVSPropertyOp44
 70
     1
102
RTVSPropertyOp45
 70
     1
102
RTVSPropertyOp46
 70
     1
102
RTVSPropertyOp47
 70
     1
102
RTVSPropertyOp48
 70
     1
102
RTVSPropertyOp49
 70
     1
102
RTVSPropertyOp50
 70
     1
102
RTVSPropertyOp51
 70
     0
102
RTVSPropertyOp52
 70
     0
102
RTVSPropertyOp53
 70
     1
102
RTVSPropertyOp54
 70
     1
102
RTVSPropertyOp55
 70
     1
102
RTVSPropertyOp56
 70
     1
102
RTVSPropertyOp57
 70
     1
102
RTVSPropertyOp58
 70
     1
102
RTVSPropertyOp59
 70
     1
102
RTVSPropertyOp60
 70
     1
102
RTVSPropertyOp61
 70
     1
102
RTVSPropertyOp62
 70
     1
  0
XRECORD
  5
20EE9
102
{ACAD_REACTORS
330
20EE8
102
}
330
20EE8
100
AcDbXrecord
280
     1
102
RTVSPost2010Prop28
280
     0
102
RTVSPost2010PropOp28
 70
     1
102
RTVSPost2010Prop29
280
     1
102
RTVSPost2010PropOp29
 70
     1
102
RTVSPost2010Prop30
280
     1
102
RTVSPost2010PropOp30
 70
     1
102
RTVSPost2010Prop31
280
     0
102
RTVSPost2010PropOp31
 70
     1
102
RTVSPost2010Prop32
280
     0
102
RTVSPost2010PropOp32
 70
     1
102
RTVSPost2010Prop33
280
     0
102
RTVSPost2010PropOp33
 70
     1
102
RTVSPost2010Prop34
280
     0
102
RTVSPost2010PropOp34
 70
     1
102
RTVSPost2010Prop35
280
     0
102
RTVSPost2010PropOp35
 70
     1
102
RTVSPost2010Prop36
280
     0
102
RTVSPost2010PropOp36
 70
     1
102
RTVSPost2010Prop37
 90
       50
102
RTVSPost2010PropOp37
 70
     1
102
RTVSPost2010Prop38
140
0.0
102
RTVSPost2010PropOp38
 70
     1
102
RTVSPost2010Prop39
140
1.0
102
RTVSPost2010PropOp39
 70
     1
102
RTVSPost2010Prop40
 90
        0
102
RTVSPost2010PropOp40
 70
     1
102
RTVSPost2010Prop41ColorIndex
 90
       18
102
RTVSPost2010Prop41ColorRGB
 90
        0
102
RTVSPost2010PropOp41
 70
     1
102
RTVSPost2010Prop42
 90
       50
102
RTVSPost2010PropOp42
 70
     1
102
RTVSPost2010Prop43
 90
        3
102
RTVSPost2010PropOp43
 70
     1
102
RTVSPost2010Prop44ColorIndex
 90
        5
102
RTVSPost2010Prop44ColorRGB
 90
      255
102
RTVSPost2010PropOp44
 70
     1
102
RTVSPost2010Prop45
280
     0
102
RTVSPost2010PropOp45
 70
     1
102
RTVSPost2010Prop46
 90
       50
102
RTVSPost2010PropOp46
 70
     1
102
RTVSPost2010Prop47
 90
       50
102
RTVSPost2010PropOp47
 70
     1
102
RTVSPost2010Prop48
 90
       50
102
RTVSPost2010PropOp48
 70
     1
102
RTVSPost2010Prop49
280
     0
102
RTVSPost2010PropOp49
 70
     1
102
RTVSPost2010Prop50
 90
       50
102
RTVSPost2010PropOp50
 70
     1
102
RTVSPost2010Prop51ColorIndex
 90
      256
102
RTVSPost2010Prop51ColorRGB
 90
-16777216
102
RTVSPost2010PropOp51
 70
     0
102
RTVSPost2010Prop52
140
1.0
102
RTVSPost2010PropOp52
 70
     0
102
RTVSPost2010Prop53
 90
        2
102
RTVSPost2010PropOp53
 70
     1
102
RTVSPost2010Prop54
  1
strokes_ogs.tif
102
RTVSPost2010PropOp54
 70
     1
102
RTVSPost2010Prop55
280
     0
102
RTVSPost2010PropOp55
 70
     1
102
RTVSPost2010Prop56
140
1.0
102
RTVSPost2010PropOp56
 70
     1
102
RTVSPost2010Prop57
140
1.0
102
RTVSPost2010PropOp57
 70
     1
102
RTVSPropertyOp0
 70
     1
102
RTVSPropertyOp1
 70
     1
102
RTVSPropertyOp2
 70
     1
102
RTVSPropertyOp3
 70
     1
102
RTVSPropertyOp4
 70
     1
102
RTVSPropertyOp5
 70
     1
102
RTVSPropertyOp6
 70
     1
102
RTVSPropertyOp7
 70
     1
102
RTVSPropertyOp8
 70
     1
102
RTVSPropertyOp9
 70
     1
102
RTVSPropertyOp10
 70
     1
102
RTVSPropertyOp11
 70
     1
102
RTVSPropertyOp12
 70
     1
102
RTVSPropertyOp13
 70
     1
102
RTVSPropertyOp14
 70
     1
102
RTVSPropertyOp15
 70
     1
102
RTVSPropertyOp16
 70
     1
102
RTVSPropertyOp17
 70
     1
102
RTVSPropertyOp18
 70
     1
102
RTVSPropertyOp19
 70
     1
102
RTVSPropertyOp20
 70
     1
102
RTVSPropertyOp21
 70
     1
102
RTVSPropertyOp22
 70
     1
102
RTVSPropertyOp23
 70
     1
102
RTVSPropertyOp24
 70
     1
102
RTVSPropertyOp25
 70
     1
102
RTVSPropertyOp26
 70
     1
102
RTVSPropertyOp27
 70
     1
102
RTVSPropertyOp28
 70
     1
102
RTVSPropertyOp29
 70
     1
102
RTVSPropertyOp30
 70
     1
102
RTVSPropertyOp31
 70
     1
102
RTVSPropertyOp32
 70
     1
102
RTVSPropertyOp33
 70
     1
102
RTVSPropertyOp34
 70
     1
102
RTVSPropertyOp35
 70
     1
102
RTVSPropertyOp36
 70
     1
102
RTVSPropertyOp37
 70
     1
102
RTVSPropertyOp38
 70
     1
102
RTVSPropertyOp39
 70
     1
102
RTVSPropertyOp40
 70
     1
102
RTVSPropertyOp41
 70
     1
102
RTVSPropertyOp42
 70
     1
102
RTVSPropertyOp43
 70
     1
102
RTVSPropertyOp44
 70
     1
102
RTVSPropertyOp45
 70
     1
102
RTVSPropertyOp46
 70
     1
102
RTVSPropertyOp47
 70
     1
102
RTVSPropertyOp48
 70
     1
102
RTVSPropertyOp49
 70
     1
102
RTVSPropertyOp50
 70
     1
102
RTVSPropertyOp51
 70
     0
102
RTVSPropertyOp52
 70
     0
102
RTVSPropertyOp53
 70
     1
102
RTVSPropertyOp54
 70
     1
102
RTVSPropertyOp55
 70
     1
102
RTVSPropertyOp56
 70
     1
102
RTVSPropertyOp57
 70
     1
102
RTVSPropertyOp58
 70
     1
102
RTVSPropertyOp59
 70
     1
102
RTVSPropertyOp60
 70
     1
102
RTVSPropertyOp61
 70
     1
102
RTVSPropertyOp62
 70
     1
  0
XRECORD
  5
20EF5
102
{ACAD_REACTORS
330
20EF4
102
}
330
20EF4
100
AcDbXrecord
280
     1
102
RTVSPost2010Prop28
280
     0
102
RTVSPost2010PropOp28
 70
     1
102
RTVSPost2010Prop29
280
     1
102
RTVSPost2010PropOp29
 70
     1
102
RTVSPost2010Prop30
280
     1
102
RTVSPost2010PropOp30
 70
     1
102
RTVSPost2010Prop31
280
     0
102
RTVSPost2010PropOp31
 70
     1
102
RTVSPost2010Prop32
280
     0
102
RTVSPost2010PropOp32
 70
     1
102
RTVSPost2010Prop33
280
     0
102
RTVSPost2010PropOp33
 70
     1
102
RTVSPost2010Prop34
280
     0
102
RTVSPost2010PropOp34
 70
     1
102
RTVSPost2010Prop35
280
     0
102
RTVSPost2010PropOp35
 70
     1
102
RTVSPost2010Prop36
280
     0
102
RTVSPost2010PropOp36
 70
     1
102
RTVSPost2010Prop37
 90
       50
102
RTVSPost2010PropOp37
 70
     0
102
RTVSPost2010Prop38
140
0.0
102
RTVSPost2010PropOp38
 70
     0
102
RTVSPost2010Prop39
140
1.0
102
RTVSPost2010PropOp39
 70
     0
102
RTVSPost2010Prop40
 90
        0
102
RTVSPost2010PropOp40
 70
     0
102
RTVSPost2010Prop41ColorIndex
 90
       18
102
RTVSPost2010Prop41ColorRGB
 90
        0
102
RTVSPost2010PropOp41
 70
     0
102
RTVSPost2010Prop42
 90
       50
102
RTVSPost2010PropOp42
 70
     0
102
RTVSPost2010Prop43
 90
        3
102
RTVSPost2010PropOp43
 70
     0
102
RTVSPost2010Prop44ColorIndex
 90
        5
102
RTVSPost2010Prop44ColorRGB
 90
      255
102
RTVSPost2010PropOp44
 70
     0
102
RTVSPost2010Prop45
280
     0
102
RTVSPost2010PropOp45
 70
     1
102
RTVSPost2010Prop46
 90
       50
102
RTVSPost2010PropOp46
 70
     0
102
RTVSPost2010Prop47
 90
       50
102
RTVSPost2010PropOp47
 70
     0
102
RTVSPost2010Prop48
 90
       50
102
RTVSPost2010PropOp48
 70
     0
102
RTVSPost2010Prop49
280
     0
102
RTVSPost2010PropOp49
 70
     1
102
RTVSPost2010Prop50
 90
       50
102
RTVSPost2010PropOp50
 70
     0
102
RTVSPost2010Prop51ColorIndex
 90
      256
102
RTVSPost2010Prop51ColorRGB
 90
-16777216
102
RTVSPost2010PropOp51
 70
     0
102
RTVSPost2010Prop52
140
1.0
102
RTVSPost2010PropOp52
 70
     0
102
RTVSPost2010Prop53
 90
        2
102
RTVSPost2010PropOp53
 70
     0
102
RTVSPost2010Prop54
  1
strokes_ogs.tif
102
RTVSPost2010PropOp54
 70
     0
102
RTVSPost2010Prop55
280
     0
102
RTVSPost2010PropOp55
 70
     1
102
RTVSPost2010Prop56
140
1.0
102
RTVSPost2010PropOp56
 70
     0
102
RTVSPost2010Prop57
140
1.0
102
RTVSPost2010PropOp57
 70
     0
102
RTVSPropertyOp0
 70
     0
102
RTVSPropertyOp1
 70
     0
102
RTVSPropertyOp2
 70
     0
102
RTVSPropertyOp3
 70
     0
102
RTVSPropertyOp4
 70
     0
102
RTVSPropertyOp5
 70
     0
102
RTVSPropertyOp6
 70
     0
102
RTVSPropertyOp7
 70
     0
102
RTVSPropertyOp8
 70
     0
102
RTVSPropertyOp9
 70
     0
102
RTVSPropertyOp10
 70
     0
102
RTVSPropertyOp11
 70
     0
102
RTVSPropertyOp12
 70
     0
102
RTVSPropertyOp13
 70
     0
102
RTVSPropertyOp14
 70
     2
102
RTVSPropertyOp15
 70
     0
102
RTVSPropertyOp16
 70
     0
102
RTVSPropertyOp17
 70
     0
102
RTVSPropertyOp18
 70
     0
102
RTVSPropertyOp19
 70
     0
102
RTVSPropertyOp20
 70
     0
102
RTVSPropertyOp21
 70
     0
102
RTVSPropertyOp22
 70
     0
102
RTVSPropertyOp23
 70
     0
102
RTVSPropertyOp24
 70
     0
102
RTVSPropertyOp25
 70
     0
102
RTVSPropertyOp26
 70
     0
102
RTVSPropertyOp27
 70
     0
102
RTVSPropertyOp28
 70
     1
102
RTVSPropertyOp29
 70
     1
102
RTVSPropertyOp30
 70
     1
102
RTVSPropertyOp31
 70
     1
102
RTVSPropertyOp32
 70
     1
102
RTVSPropertyOp33
 70
     1
102
RTVSPropertyOp34
 70
     1
102
RTVSPropertyOp35
 70
     1
102
RTVSPropertyOp36
 70
     1
102
RTVSPropertyOp37
 70
     0
102
RTVSPropertyOp38
 70
     0
102
RTVSPropertyOp39
 70
     0
102
RTVSPropertyOp40
 70
     0
102
RTVSPropertyOp41
 70
     0
102
RTVSPropertyOp42
 70
     0
102
RTVSPropertyOp43
 70
     0
102
RTVSPropertyOp44
 70
     0
102
RTVSPropertyOp45
 70
     1
102
RTVSPropertyOp46
 70
     0
102
RTVSPropertyOp47
 70
     0
102
RTVSPropertyOp48
 70
     0
102
RTVSPropertyOp49
 70
     1
102
RTVSPropertyOp50
 70
     0
102
RTVSPropertyOp51
 70
     0
102
RTVSPropertyOp52
 70
     0
102
RTVSPropertyOp53
 70
     0
102
RTVSPropertyOp54
 70
     0
102
RTVSPropertyOp55
 70
     1
102
RTVSPropertyOp56
 70
     0
102
RTVSPropertyOp57
 70
     0
102
RTVSPropertyOp58
 70
     1
102
RTVSPropertyOp59
 70
     1
102
RTVSPropertyOp60
 70
     1
102
RTVSPropertyOp61
 70
     1
102
RTVSPropertyOp62
 70
     1
  0
XRECORD
  5
20ED8
102
{ACAD_REACTORS
330
20ED7
102
}
330
20ED7
100
AcDbXrecord
280
     1
102
RTVSPost2010Prop28
280
     0
102
RTVSPost2010PropOp28
 70
     1
102
RTVSPost2010Prop29
280
     1
102
RTVSPost2010PropOp29
 70
     1
102
RTVSPost2010Prop30
280
     1
102
RTVSPost2010PropOp30
 70
     1
102
RTVSPost2010Prop31
280
     0
102
RTVSPost2010PropOp31
 70
     1
102
RTVSPost2010Prop32
280
     0
102
RTVSPost2010PropOp32
 70
     1
102
RTVSPost2010Prop33
280
     0
102
RTVSPost2010PropOp33
 70
     1
102
RTVSPost2010Prop34
280
     0
102
RTVSPost2010PropOp34
 70
     1
102
RTVSPost2010Prop35
280
     0
102
RTVSPost2010PropOp35
 70
     1
102
RTVSPost2010Prop36
280
     0
102
RTVSPost2010PropOp36
 70
     1
102
RTVSPost2010Prop37
 90
       50
102
RTVSPost2010PropOp37
 70
     1
102
RTVSPost2010Prop38
140
0.0
102
RTVSPost2010PropOp38
 70
     1
102
RTVSPost2010Prop39
140
1.0
102
RTVSPost2010PropOp39
 70
     1
102
RTVSPost2010Prop40
 90
        0
102
RTVSPost2010PropOp40
 70
     1
102
RTVSPost2010Prop41ColorIndex
 90
       18
102
RTVSPost2010Prop41ColorRGB
 90
        0
102
RTVSPost2010PropOp41
 70
     1
102
RTVSPost2010Prop42
 90
       50
102
RTVSPost2010PropOp42
 70
     1
102
RTVSPost2010Prop43
 90
        3
102
RTVSPost2010PropOp43
 70
     1
102
RTVSPost2010Prop44ColorIndex
 90
        5
102
RTVSPost2010Prop44ColorRGB
 90
      255
102
RTVSPost2010PropOp44
 70
     1
102
RTVSPost2010Prop45
280
     0
102
RTVSPost2010PropOp45
 70
     1
102
RTVSPost2010Prop46
 90
       50
102
RTVSPost2010PropOp46
 70
     1
102
RTVSPost2010Prop47
 90
       50
102
RTVSPost2010PropOp47
 70
     1
102
RTVSPost2010Prop48
 90
       50
102
RTVSPost2010PropOp48
 70
     1
102
RTVSPost2010Prop49
280
     0
102
RTVSPost2010PropOp49
 70
     1
102
RTVSPost2010Prop50
 90
       50
102
RTVSPost2010PropOp50
 70
     1
102
RTVSPost2010Prop51ColorIndex
 90
      256
102
RTVSPost2010Prop51ColorRGB
 90
-16777216
102
RTVSPost2010PropOp51
 70
     0
102
RTVSPost2010Prop52
140
1.0
102
RTVSPost2010PropOp52
 70
     0
102
RTVSPost2010Prop53
 90
        2
102
RTVSPost2010PropOp53
 70
     1
102
RTVSPost2010Prop54
  1
strokes_ogs.tif
102
RTVSPost2010PropOp54
 70
     1
102
RTVSPost2010Prop55
280
     0
102
RTVSPost2010PropOp55
 70
     1
102
RTVSPost2010Prop56
140
1.0
102
RTVSPost2010PropOp56
 70
     1
102
RTVSPost2010Prop57
140
1.0
102
RTVSPost2010PropOp57
 70
     1
102
RTVSPropertyOp0
 70
     1
102
RTVSPropertyOp1
 70
     1
102
RTVSPropertyOp2
 70
     1
102
RTVSPropertyOp3
 70
     1
102
RTVSPropertyOp4
 70
     1
102
RTVSPropertyOp5
 70
     1
102
RTVSPropertyOp6
 70
     1
102
RTVSPropertyOp7
 70
     1
102
RTVSPropertyOp8
 70
     1
102
RTVSPropertyOp9
 70
     1
102
RTVSPropertyOp10
 70
     1
102
RTVSPropertyOp11
 70
     1
102
RTVSPropertyOp12
 70
     1
102
RTVSPropertyOp13
 70
     1
102
RTVSPropertyOp14
 70
     1
102
RTVSPropertyOp15
 70
     1
102
RTVSPropertyOp16
 70
     1
102
RTVSPropertyOp17
 70
     1
102
RTVSPropertyOp18
 70
     1
102
RTVSPropertyOp19
 70
     1
102
RTVSPropertyOp20
 70
     1
102
RTVSPropertyOp21
 70
     1
102
RTVSPropertyOp22
 70
     1
102
RTVSPropertyOp23
 70
     1
102
RTVSPropertyOp24
 70
     1
102
RTVSPropertyOp25
 70
     1
102
RTVSPropertyOp26
 70
     1
102
RTVSPropertyOp27
 70
     1
102
RTVSPropertyOp28
 70
     1
102
RTVSPropertyOp29
 70
     1
102
RTVSPropertyOp30
 70
     1
102
RTVSPropertyOp31
 70
     1
102
RTVSPropertyOp32
 70
     1
102
RTVSPropertyOp33
 70
     1
102
RTVSPropertyOp34
 70
     1
102
RTVSPropertyOp35
 70
     1
102
RTVSPropertyOp36
 70
     1
102
RTVSPropertyOp37
 70
     1
102
RTVSPropertyOp38
 70
     1
102
RTVSPropertyOp39
 70
     1
102
RTVSPropertyOp40
 70
     1
102
RTVSPropertyOp41
 70
     1
102
RTVSPropertyOp42
 70
     1
102
RTVSPropertyOp43
 70
     1
102
RTVSPropertyOp44
 70
     1
102
RTVSPropertyOp45
 70
     1
102
RTVSPropertyOp46
 70
     1
102
RTVSPropertyOp47
 70
     1
102
RTVSPropertyOp48
 70
     1
102
RTVSPropertyOp49
 70
     1
102
RTVSPropertyOp50
 70
     1
102
RTVSPropertyOp51
 70
     0
102
RTVSPropertyOp52
 70
     0
102
RTVSPropertyOp53
 70
     1
102
RTVSPropertyOp54
 70
     1
102
RTVSPropertyOp55
 70
     1
102
RTVSPropertyOp56
 70
     1
102
RTVSPropertyOp57
 70
     1
102
RTVSPropertyOp58
 70
     1
102
RTVSPropertyOp59
 70
     1
102
RTVSPropertyOp60
 70
     1
102
RTVSPropertyOp61
 70
     1
102
RTVSPropertyOp62
 70
     1
  0
XRECORD
  5
20EF7
102
{ACAD_REACTORS
330
20EF6
102
}
330
20EF6
100
AcDbXrecord
280
     1
102
RTVSPost2010Prop28
280
     0
102
RTVSPost2010PropOp28
 70
     1
102
RTVSPost2010Prop29
280
     1
102
RTVSPost2010PropOp29
 70
     1
102
RTVSPost2010Prop30
280
     1
102
RTVSPost2010PropOp30
 70
     1
102
RTVSPost2010Prop31
280
     0
102
RTVSPost2010PropOp31
 70
     1
102
RTVSPost2010Prop32
280
     0
102
RTVSPost2010PropOp32
 70
     1
102
RTVSPost2010Prop33
280
     0
102
RTVSPost2010PropOp33
 70
     1
102
RTVSPost2010Prop34
280
     0
102
RTVSPost2010PropOp34
 70
     1
102
RTVSPost2010Prop35
280
     0
102
RTVSPost2010PropOp35
 70
     1
102
RTVSPost2010Prop36
280
     0
102
RTVSPost2010PropOp36
 70
     1
102
RTVSPost2010Prop37
 90
       50
102
RTVSPost2010PropOp37
 70
     0
102
RTVSPost2010Prop38
140
0.0
102
RTVSPost2010PropOp38
 70
     0
102
RTVSPost2010Prop39
140
1.0
102
RTVSPost2010PropOp39
 70
     0
102
RTVSPost2010Prop40
 90
        0
102
RTVSPost2010PropOp40
 70
     0
102
RTVSPost2010Prop41ColorIndex
 90
       18
102
RTVSPost2010Prop41ColorRGB
 90
        0
102
RTVSPost2010PropOp41
 70
     0
102
RTVSPost2010Prop42
 90
       50
102
RTVSPost2010PropOp42
 70
     0
102
RTVSPost2010Prop43
 90
        3
102
RTVSPost2010PropOp43
 70
     0
102
RTVSPost2010Prop44ColorIndex
 90
        5
102
RTVSPost2010Prop44ColorRGB
 90
      255
102
RTVSPost2010PropOp44
 70
     0
102
RTVSPost2010Prop45
280
     0
102
RTVSPost2010PropOp45
 70
     1
102
RTVSPost2010Prop46
 90
       50
102
RTVSPost2010PropOp46
 70
     0
102
RTVSPost2010Prop47
 90
       50
102
RTVSPost2010PropOp47
 70
     0
102
RTVSPost2010Prop48
 90
       50
102
RTVSPost2010PropOp48
 70
     0
102
RTVSPost2010Prop49
280
     0
102
RTVSPost2010PropOp49
 70
     1
102
RTVSPost2010Prop50
 90
       50
102
RTVSPost2010PropOp50
 70
     0
102
RTVSPost2010Prop51ColorIndex
 90
      256
102
RTVSPost2010Prop51ColorRGB
 90
-16777216
102
RTVSPost2010PropOp51
 70
     0
102
RTVSPost2010Prop52
140
1.0
102
RTVSPost2010PropOp52
 70
     0
102
RTVSPost2010Prop53
 90
        2
102
RTVSPost2010PropOp53
 70
     0
102
RTVSPost2010Prop54
  1
strokes_ogs.tif
102
RTVSPost2010PropOp54
 70
     0
102
RTVSPost2010Prop55
280
     0
102
RTVSPost2010PropOp55
 70
     1
102
RTVSPost2010Prop56
140
1.0
102
RTVSPost2010PropOp56
 70
     0
102
RTVSPost2010Prop57
140
1.0
102
RTVSPost2010PropOp57
 70
     0
102
RTVSPropertyOp0
 70
     0
102
RTVSPropertyOp1
 70
     0
102
RTVSPropertyOp2
 70
     0
102
RTVSPropertyOp3
 70
     0
102
RTVSPropertyOp4
 70
     0
102
RTVSPropertyOp5
 70
     0
102
RTVSPropertyOp6
 70
     0
102
RTVSPropertyOp7
 70
     0
102
RTVSPropertyOp8
 70
     0
102
RTVSPropertyOp9
 70
     0
102
RTVSPropertyOp10
 70
     0
102
RTVSPropertyOp11
 70
     0
102
RTVSPropertyOp12
 70
     0
102
RTVSPropertyOp13
 70
     0
102
RTVSPropertyOp14
 70
     2
102
RTVSPropertyOp15
 70
     0
102
RTVSPropertyOp16
 70
     0
102
RTVSPropertyOp17
 70
     0
102
RTVSPropertyOp18
 70
     0
102
RTVSPropertyOp19
 70
     0
102
RTVSPropertyOp20
 70
     0
102
RTVSPropertyOp21
 70
     0
102
RTVSPropertyOp22
 70
     0
102
RTVSPropertyOp23
 70
     0
102
RTVSPropertyOp24
 70
     0
102
RTVSPropertyOp25
 70
     0
102
RTVSPropertyOp26
 70
     0
102
RTVSPropertyOp27
 70
     0
102
RTVSPropertyOp28
 70
     1
102
RTVSPropertyOp29
 70
     1
102
RTVSPropertyOp30
 70
     1
102
RTVSPropertyOp31
 70
     1
102
RTVSPropertyOp32
 70
     1
102
RTVSPropertyOp33
 70
     1
102
RTVSPropertyOp34
 70
     1
102
RTVSPropertyOp35
 70
     1
102
RTVSPropertyOp36
 70
     1
102
RTVSPropertyOp37
 70
     0
102
RTVSPropertyOp38
 70
     0
102
RTVSPropertyOp39
 70
     0
102
RTVSPropertyOp40
 70
     0
102
RTVSPropertyOp41
 70
     0
102
RTVSPropertyOp42
 70
     0
102
RTVSPropertyOp43
 70
     0
102
RTVSPropertyOp44
 70
     0
102
RTVSPropertyOp45
 70
     1
102
RTVSPropertyOp46
 70
     0
102
RTVSPropertyOp47
 70
     0
102
RTVSPropertyOp48
 70
     0
102
RTVSPropertyOp49
 70
     1
102
RTVSPropertyOp50
 70
     0
102
RTVSPropertyOp51
 70
     0
102
RTVSPropertyOp52
 70
     0
102
RTVSPropertyOp53
 70
     0
102
RTVSPropertyOp54
 70
     0
102
RTVSPropertyOp55
 70
     1
102
RTVSPropertyOp56
 70
     0
102
RTVSPropertyOp57
 70
     0
102
RTVSPropertyOp58
 70
     1
102
RTVSPropertyOp59
 70
     1
102
RTVSPropertyOp60
 70
     1
102
RTVSPropertyOp61
 70
     1
102
RTVSPropertyOp62
 70
     1
  0
XRECORD
  5
20ED0
102
{ACAD_REACTORS
330
20ECF
102
}
330
20ECF
100
AcDbXrecord
280
     1
102
RTVSPost2010Prop28
280
     0
102
RTVSPost2010PropOp28
 70
     1
102
RTVSPost2010Prop29
280
     1
102
RTVSPost2010PropOp29
 70
     1
102
RTVSPost2010Prop30
280
     1
102
RTVSPost2010PropOp30
 70
     1
102
RTVSPost2010Prop31
280
     0
102
RTVSPost2010PropOp31
 70
     1
102
RTVSPost2010Prop32
280
     0
102
RTVSPost2010PropOp32
 70
     1
102
RTVSPost2010Prop33
280
     0
102
RTVSPost2010PropOp33
 70
     1
102
RTVSPost2010Prop34
280
     0
102
RTVSPost2010PropOp34
 70
     1
102
RTVSPost2010Prop35
280
     0
102
RTVSPost2010PropOp35
 70
     1
102
RTVSPost2010Prop36
280
     0
102
RTVSPost2010PropOp36
 70
     1
102
RTVSPost2010Prop37
 90
       50
102
RTVSPost2010PropOp37
 70
     1
102
RTVSPost2010Prop38
140
0.0
102
RTVSPost2010PropOp38
 70
     1
102
RTVSPost2010Prop39
140
1.0
102
RTVSPost2010PropOp39
 70
     1
102
RTVSPost2010Prop40
 90
        0
102
RTVSPost2010PropOp40
 70
     1
102
RTVSPost2010Prop41ColorIndex
 90
       18
102
RTVSPost2010Prop41ColorRGB
 90
        0
102
RTVSPost2010PropOp41
 70
     1
102
RTVSPost2010Prop42
 90
       50
102
RTVSPost2010PropOp42
 70
     1
102
RTVSPost2010Prop43
 90
        3
102
RTVSPost2010PropOp43
 70
     1
102
RTVSPost2010Prop44ColorIndex
 90
        5
102
RTVSPost2010Prop44ColorRGB
 90
      255
102
RTVSPost2010PropOp44
 70
     1
102
RTVSPost2010Prop45
280
     0
102
RTVSPost2010PropOp45
 70
     1
102
RTVSPost2010Prop46
 90
       50
102
RTVSPost2010PropOp46
 70
     1
102
RTVSPost2010Prop47
 90
       50
102
RTVSPost2010PropOp47
 70
     1
102
RTVSPost2010Prop48
 90
       50
102
RTVSPost2010PropOp48
 70
     1
102
RTVSPost2010Prop49
280
     0
102
RTVSPost2010PropOp49
 70
     1
102
RTVSPost2010Prop50
 90
       50
102
RTVSPost2010PropOp50
 70
     1
102
RTVSPost2010Prop51ColorIndex
 90
      256
102
RTVSPost2010Prop51ColorRGB
 90
-16777216
102
RTVSPost2010PropOp51
 70
     0
102
RTVSPost2010Prop52
140
1.0
102
RTVSPost2010PropOp52
 70
     0
102
RTVSPost2010Prop53
 90
        2
102
RTVSPost2010PropOp53
 70
     1
102
RTVSPost2010Prop54
  1
strokes_ogs.tif
102
RTVSPost2010PropOp54
 70
     1
102
RTVSPost2010Prop55
280
     0
102
RTVSPost2010PropOp55
 70
     1
102
RTVSPost2010Prop56
140
1.0
102
RTVSPost2010PropOp56
 70
     1
102
RTVSPost2010Prop57
140
1.0
102
RTVSPost2010PropOp57
 70
     1
102
RTVSPropertyOp0
 70
     1
102
RTVSPropertyOp1
 70
     1
102
RTVSPropertyOp2
 70
     1
102
RTVSPropertyOp3
 70
     1
102
RTVSPropertyOp4
 70
     1
102
RTVSPropertyOp5
 70
     1
102
RTVSPropertyOp6
 70
     1
102
RTVSPropertyOp7
 70
     1
102
RTVSPropertyOp8
 70
     1
102
RTVSPropertyOp9
 70
     1
102
RTVSPropertyOp10
 70
     1
102
RTVSPropertyOp11
 70
     1
102
RTVSPropertyOp12
 70
     1
102
RTVSPropertyOp13
 70
     1
102
RTVSPropertyOp14
 70
     1
102
RTVSPropertyOp15
 70
     1
102
RTVSPropertyOp16
 70
     1
102
RTVSPropertyOp17
 70
     1
102
RTVSPropertyOp18
 70
     1
102
RTVSPropertyOp19
 70
     1
102
RTVSPropertyOp20
 70
     1
102
RTVSPropertyOp21
 70
     1
102
RTVSPropertyOp22
 70
     1
102
RTVSPropertyOp23
 70
     1
102
RTVSPropertyOp24
 70
     1
102
RTVSPropertyOp25
 70
     1
102
RTVSPropertyOp26
 70
     1
102
RTVSPropertyOp27
 70
     1
102
RTVSPropertyOp28
 70
     1
102
RTVSPropertyOp29
 70
     1
102
RTVSPropertyOp30
 70
     1
102
RTVSPropertyOp31
 70
     1
102
RTVSPropertyOp32
 70
     1
102
RTVSPropertyOp33
 70
     1
102
RTVSPropertyOp34
 70
     1
102
RTVSPropertyOp35
 70
     1
102
RTVSPropertyOp36
 70
     1
102
RTVSPropertyOp37
 70
     1
102
RTVSPropertyOp38
 70
     1
102
RTVSPropertyOp39
 70
     1
102
RTVSPropertyOp40
 70
     1
102
RTVSPropertyOp41
 70
     1
102
RTVSPropertyOp42
 70
     1
102
RTVSPropertyOp43
 70
     1
102
RTVSPropertyOp44
 70
     1
102
RTVSPropertyOp45
 70
     1
102
RTVSPropertyOp46
 70
     1
102
RTVSPropertyOp47
 70
     1
102
RTVSPropertyOp48
 70
     1
102
RTVSPropertyOp49
 70
     1
102
RTVSPropertyOp50
 70
     1
102
RTVSPropertyOp51
 70
     0
102
RTVSPropertyOp52
 70
     0
102
RTVSPropertyOp53
 70
     1
102
RTVSPropertyOp54
 70
     1
102
RTVSPropertyOp55
 70
     1
102
RTVSPropertyOp56
 70
     1
102
RTVSPropertyOp57
 70
     1
102
RTVSPropertyOp58
 70
     1
102
RTVSPropertyOp59
 70
     1
102
RTVSPropertyOp60
 70
     1
102
RTVSPropertyOp61
 70
     1
102
RTVSPropertyOp62
 70
     1
  0
XRECORD
  5
20EF3
102
{ACAD_REACTORS
330
20EF2
102
}
330
20EF2
100
AcDbXrecord
280
     1
102
RTVSPost2010Prop28
280
     0
102
RTVSPost2010PropOp28
 70
     1
102
RTVSPost2010Prop29
280
     1
102
RTVSPost2010PropOp29
 70
     1
102
RTVSPost2010Prop30
280
     1
102
RTVSPost2010PropOp30
 70
     1
102
RTVSPost2010Prop31
280
     0
102
RTVSPost2010PropOp31
 70
     1
102
RTVSPost2010Prop32
280
     0
102
RTVSPost2010PropOp32
 70
     1
102
RTVSPost2010Prop33
280
     0
102
RTVSPost2010PropOp33
 70
     1
102
RTVSPost2010Prop34
280
     0
102
RTVSPost2010PropOp34
 70
     1
102
RTVSPost2010Prop35
280
     0
102
RTVSPost2010PropOp35
 70
     1
102
RTVSPost2010Prop36
280
     0
102
RTVSPost2010PropOp36
 70
     1
102
RTVSPost2010Prop37
 90
       50
102
RTVSPost2010PropOp37
 70
     1
102
RTVSPost2010Prop38
140
0.0
102
RTVSPost2010PropOp38
 70
     1
102
RTVSPost2010Prop39
140
1.0
102
RTVSPost2010PropOp39
 70
     1
102
RTVSPost2010Prop40
 90
        0
102
RTVSPost2010PropOp40
 70
     1
102
RTVSPost2010Prop41ColorIndex
 90
       18
102
RTVSPost2010Prop41ColorRGB
 90
        0
102
RTVSPost2010PropOp41
 70
     1
102
RTVSPost2010Prop42
 90
       50
102
RTVSPost2010PropOp42
 70
     1
102
RTVSPost2010Prop43
 90
        3
102
RTVSPost2010PropOp43
 70
     1
102
RTVSPost2010Prop44ColorIndex
 90
        5
102
RTVSPost2010Prop44ColorRGB
 90
      255
102
RTVSPost2010PropOp44
 70
     1
102
RTVSPost2010Prop45
280
     0
102
RTVSPost2010PropOp45
 70
     1
102
RTVSPost2010Prop46
 90
       50
102
RTVSPost2010PropOp46
 70
     1
102
RTVSPost2010Prop47
 90
       50
102
RTVSPost2010PropOp47
 70
     1
102
RTVSPost2010Prop48
 90
       50
102
RTVSPost2010PropOp48
 70
     1
102
RTVSPost2010Prop49
280
     0
102
RTVSPost2010PropOp49
 70
     1
102
RTVSPost2010Prop50
 90
       50
102
RTVSPost2010PropOp50
 70
     1
102
RTVSPost2010Prop51ColorIndex
 90
      256
102
RTVSPost2010Prop51ColorRGB
 90
-16777216
102
RTVSPost2010PropOp51
 70
     0
102
RTVSPost2010Prop52
140
1.0
102
RTVSPost2010PropOp52
 70
     0
102
RTVSPost2010Prop53
 90
        2
102
RTVSPost2010PropOp53
 70
     1
102
RTVSPost2010Prop54
  1
strokes_ogs.tif
102
RTVSPost2010PropOp54
 70
     1
102
RTVSPost2010Prop55
280
     0
102
RTVSPost2010PropOp55
 70
     1
102
RTVSPost2010Prop56
140
1.0
102
RTVSPost2010PropOp56
 70
     1
102
RTVSPost2010Prop57
140
1.0
102
RTVSPost2010PropOp57
 70
     1
102
RTVSPropertyOp0
 70
     1
102
RTVSPropertyOp1
 70
     1
102
RTVSPropertyOp2
 70
     1
102
RTVSPropertyOp3
 70
     1
102
RTVSPropertyOp4
 70
     1
102
RTVSPropertyOp5
 70
     1
102
RTVSPropertyOp6
 70
     1
102
RTVSPropertyOp7
 70
     1
102
RTVSPropertyOp8
 70
     1
102
RTVSPropertyOp9
 70
     1
102
RTVSPropertyOp10
 70
     1
102
RTVSPropertyOp11
 70
     1
102
RTVSPropertyOp12
 70
     1
102
RTVSPropertyOp13
 70
     1
102
RTVSPropertyOp14
 70
     1
102
RTVSPropertyOp15
 70
     1
102
RTVSPropertyOp16
 70
     1
102
RTVSPropertyOp17
 70
     1
102
RTVSPropertyOp18
 70
     1
102
RTVSPropertyOp19
 70
     1
102
RTVSPropertyOp20
 70
     1
102
RTVSPropertyOp21
 70
     1
102
RTVSPropertyOp22
 70
     1
102
RTVSPropertyOp23
 70
     1
102
RTVSPropertyOp24
 70
     1
102
RTVSPropertyOp25
 70
     1
102
RTVSPropertyOp26
 70
     1
102
RTVSPropertyOp27
 70
     1
102
RTVSPropertyOp28
 70
     1
102
RTVSPropertyOp29
 70
     1
102
RTVSPropertyOp30
 70
     1
102
RTVSPropertyOp31
 70
     1
102
RTVSPropertyOp32
 70
     1
102
RTVSPropertyOp33
 70
     1
102
RTVSPropertyOp34
 70
     1
102
RTVSPropertyOp35
 70
     1
102
RTVSPropertyOp36
 70
     1
102
RTVSPropertyOp37
 70
     1
102
RTVSPropertyOp38
 70
     1
102
RTVSPropertyOp39
 70
     1
102
RTVSPropertyOp40
 70
     1
102
RTVSPropertyOp41
 70
     1
102
RTVSPropertyOp42
 70
     1
102
RTVSPropertyOp43
 70
     1
102
RTVSPropertyOp44
 70
     1
102
RTVSPropertyOp45
 70
     1
102
RTVSPropertyOp46
 70
     1
102
RTVSPropertyOp47
 70
     1
102
RTVSPropertyOp48
 70
     1
102
RTVSPropertyOp49
 70
     1
102
RTVSPropertyOp50
 70
     1
102
RTVSPropertyOp51
 70
     0
102
RTVSPropertyOp52
 70
     0
102
RTVSPropertyOp53
 70
     1
102
RTVSPropertyOp54
 70
     1
102
RTVSPropertyOp55
 70
     1
102
RTVSPropertyOp56
 70
     1
102
RTVSPropertyOp57
 70
     1
102
RTVSPropertyOp58
 70
     1
102
RTVSPropertyOp59
 70
     1
102
RTVSPropertyOp60
 70
     1
102
RTVSPropertyOp61
 70
     1
102
RTVSPropertyOp62
 70
     1
  0
XRECORD
  5
20EF1
102
{ACAD_REACTORS
330
20EF0
102
}
330
20EF0
100
AcDbXrecord
280
     1
102
RTVSPost2010Prop28
280
     0
102
RTVSPost2010PropOp28
 70
     1
102
RTVSPost2010Prop29
280
     1
102
RTVSPost2010PropOp29
 70
     1
102
RTVSPost2010Prop30
280
     1
102
RTVSPost2010PropOp30
 70
     1
102
RTVSPost2010Prop31
280
     0
102
RTVSPost2010PropOp31
 70
     1
102
RTVSPost2010Prop32
280
     0
102
RTVSPost2010PropOp32
 70
     1
102
RTVSPost2010Prop33
280
     0
102
RTVSPost2010PropOp33
 70
     1
102
RTVSPost2010Prop34
280
     0
102
RTVSPost2010PropOp34
 70
     1
102
RTVSPost2010Prop35
280
     0
102
RTVSPost2010PropOp35
 70
     1
102
RTVSPost2010Prop36
280
     0
102
RTVSPost2010PropOp36
 70
     1
102
RTVSPost2010Prop37
 90
       50
102
RTVSPost2010PropOp37
 70
     1
102
RTVSPost2010Prop38
140
0.0
102
RTVSPost2010PropOp38
 70
     1
102
RTVSPost2010Prop39
140
1.0
102
RTVSPost2010PropOp39
 70
     1
102
RTVSPost2010Prop40
 90
        0
102
RTVSPost2010PropOp40
 70
     1
102
RTVSPost2010Prop41ColorIndex
 90
       18
102
RTVSPost2010Prop41ColorRGB
 90
        0
102
RTVSPost2010PropOp41
 70
     1
102
RTVSPost2010Prop42
 90
       50
102
RTVSPost2010PropOp42
 70
     1
102
RTVSPost2010Prop43
 90
        3
102
RTVSPost2010PropOp43
 70
     1
102
RTVSPost2010Prop44ColorIndex
 90
        5
102
RTVSPost2010Prop44ColorRGB
 90
      255
102
RTVSPost2010PropOp44
 70
     1
102
RTVSPost2010Prop45
280
     0
102
RTVSPost2010PropOp45
 70
     1
102
RTVSPost2010Prop46
 90
       50
102
RTVSPost2010PropOp46
 70
     1
102
RTVSPost2010Prop47
 90
       50
102
RTVSPost2010PropOp47
 70
     1
102
RTVSPost2010Prop48
 90
       50
102
RTVSPost2010PropOp48
 70
     1
102
RTVSPost2010Prop49
280
     0
102
RTVSPost2010PropOp49
 70
     1
102
RTVSPost2010Prop50
 90
       50
102
RTVSPost2010PropOp50
 70
     1
102
RTVSPost2010Prop51ColorIndex
 90
      256
102
RTVSPost2010Prop51ColorRGB
 90
-16777216
102
RTVSPost2010PropOp51
 70
     0
102
RTVSPost2010Prop52
140
1.0
102
RTVSPost2010PropOp52
 70
     0
102
RTVSPost2010Prop53
 90
        2
102
RTVSPost2010PropOp53
 70
     1
102
RTVSPost2010Prop54
  1
strokes_ogs.tif
102
RTVSPost2010PropOp54
 70
     1
102
RTVSPost2010Prop55
280
     0
102
RTVSPost2010PropOp55
 70
     1
102
RTVSPost2010Prop56
140
1.0
102
RTVSPost2010PropOp56
 70
     1
102
RTVSPost2010Prop57
140
1.0
102
RTVSPost2010PropOp57
 70
     1
102
RTVSPropertyOp0
 70
     1
102
RTVSPropertyOp1
 70
     1
102
RTVSPropertyOp2
 70
     1
102
RTVSPropertyOp3
 70
     1
102
RTVSPropertyOp4
 70
     1
102
RTVSPropertyOp5
 70
     1
102
RTVSPropertyOp6
 70
     1
102
RTVSPropertyOp7
 70
     1
102
RTVSPropertyOp8
 70
     1
102
RTVSPropertyOp9
 70
     1
102
RTVSPropertyOp10
 70
     1
102
RTVSPropertyOp11
 70
     1
102
RTVSPropertyOp12
 70
     1
102
RTVSPropertyOp13
 70
     1
102
RTVSPropertyOp14
 70
     1
102
RTVSPropertyOp15
 70
     1
102
RTVSPropertyOp16
 70
     1
102
RTVSPropertyOp17
 70
     1
102
RTVSPropertyOp18
 70
     1
102
RTVSPropertyOp19
 70
     1
102
RTVSPropertyOp20
 70
     1
102
RTVSPropertyOp21
 70
     1
102
RTVSPropertyOp22
 70
     1
102
RTVSPropertyOp23
 70
     1
102
RTVSPropertyOp24
 70
     1
102
RTVSPropertyOp25
 70
     1
102
RTVSPropertyOp26
 70
     1
102
RTVSPropertyOp27
 70
     1
102
RTVSPropertyOp28
 70
     1
102
RTVSPropertyOp29
 70
     1
102
RTVSPropertyOp30
 70
     1
102
RTVSPropertyOp31
 70
     1
102
RTVSPropertyOp32
 70
     1
102
RTVSPropertyOp33
 70
     1
102
RTVSPropertyOp34
 70
     1
102
RTVSPropertyOp35
 70
     1
102
RTVSPropertyOp36
 70
     1
102
RTVSPropertyOp37
 70
     1
102
RTVSPropertyOp38
 70
     1
102
RTVSPropertyOp39
 70
     1
102
RTVSPropertyOp40
 70
     1
102
RTVSPropertyOp41
 70
     1
102
RTVSPropertyOp42
 70
     1
102
RTVSPropertyOp43
 70
     1
102
RTVSPropertyOp44
 70
     1
102
RTVSPropertyOp45
 70
     1
102
RTVSPropertyOp46
 70
     1
102
RTVSPropertyOp47
 70
     1
102
RTVSPropertyOp48
 70
     1
102
RTVSPropertyOp49
 70
     1
102
RTVSPropertyOp50
 70
     1
102
RTVSPropertyOp51
 70
     0
102
RTVSPropertyOp52
 70
     0
102
RTVSPropertyOp53
 70
     1
102
RTVSPropertyOp54
 70
     1
102
RTVSPropertyOp55
 70
     1
102
RTVSPropertyOp56
 70
     1
102
RTVSPropertyOp57
 70
     1
102
RTVSPropertyOp58
 70
     1
102
RTVSPropertyOp59
 70
     1
102
RTVSPropertyOp60
 70
     1
102
RTVSPropertyOp61
 70
     1
102
RTVSPropertyOp62
 70
     1
  0
XRECORD
  5
20EEB
102
{ACAD_REACTORS
330
20EEA
102
}
330
20EEA
100
AcDbXrecord
280
     1
102
RTVSPost2010Prop28
280
     0
102
RTVSPost2010PropOp28
 70
     1
102
RTVSPost2010Prop29
280
     1
102
RTVSPost2010PropOp29
 70
     1
102
RTVSPost2010Prop30
280
     1
102
RTVSPost2010PropOp30
 70
     1
102
RTVSPost2010Prop31
280
     0
102
RTVSPost2010PropOp31
 70
     1
102
RTVSPost2010Prop32
280
     0
102
RTVSPost2010PropOp32
 70
     1
102
RTVSPost2010Prop33
280
     0
102
RTVSPost2010PropOp33
 70
     1
102
RTVSPost2010Prop34
280
     0
102
RTVSPost2010PropOp34
 70
     1
102
RTVSPost2010Prop35
280
     0
102
RTVSPost2010PropOp35
 70
     1
102
RTVSPost2010Prop36
280
     0
102
RTVSPost2010PropOp36
 70
     1
102
RTVSPost2010Prop37
 90
       50
102
RTVSPost2010PropOp37
 70
     1
102
RTVSPost2010Prop38
140
0.0
102
RTVSPost2010PropOp38
 70
     1
102
RTVSPost2010Prop39
140
1.0
102
RTVSPost2010PropOp39
 70
     1
102
RTVSPost2010Prop40
 90
        0
102
RTVSPost2010PropOp40
 70
     1
102
RTVSPost2010Prop41ColorIndex
 90
       18
102
RTVSPost2010Prop41ColorRGB
 90
        0
102
RTVSPost2010PropOp41
 70
     1
102
RTVSPost2010Prop42
 90
       50
102
RTVSPost2010PropOp42
 70
     1
102
RTVSPost2010Prop43
 90
        3
102
RTVSPost2010PropOp43
 70
     1
102
RTVSPost2010Prop44ColorIndex
 90
        5
102
RTVSPost2010Prop44ColorRGB
 90
      255
102
RTVSPost2010PropOp44
 70
     1
102
RTVSPost2010Prop45
280
     0
102
RTVSPost2010PropOp45
 70
     1
102
RTVSPost2010Prop46
 90
       50
102
RTVSPost2010PropOp46
 70
     1
102
RTVSPost2010Prop47
 90
       50
102
RTVSPost2010PropOp47
 70
     1
102
RTVSPost2010Prop48
 90
       50
102
RTVSPost2010PropOp48
 70
     1
102
RTVSPost2010Prop49
280
     0
102
RTVSPost2010PropOp49
 70
     1
102
RTVSPost2010Prop50
 90
       50
102
RTVSPost2010PropOp50
 70
     1
102
RTVSPost2010Prop51ColorIndex
 90
      256
102
RTVSPost2010Prop51ColorRGB
 90
-16777216
102
RTVSPost2010PropOp51
 70
     0
102
RTVSPost2010Prop52
140
1.0
102
RTVSPost2010PropOp52
 70
     0
102
RTVSPost2010Prop53
 90
        2
102
RTVSPost2010PropOp53
 70
     1
102
RTVSPost2010Prop54
  1
strokes_ogs.tif
102
RTVSPost2010PropOp54
 70
     1
102
RTVSPost2010Prop55
280
     0
102
RTVSPost2010PropOp55
 70
     1
102
RTVSPost2010Prop56
140
1.0
102
RTVSPost2010PropOp56
 70
     1
102
RTVSPost2010Prop57
140
1.0
102
RTVSPost2010PropOp57
 70
     1
102
RTVSPropertyOp0
 70
     1
102
RTVSPropertyOp1
 70
     1
102
RTVSPropertyOp2
 70
     1
102
RTVSPropertyOp3
 70
     1
102
RTVSPropertyOp4
 70
     1
102
RTVSPropertyOp5
 70
     1
102
RTVSPropertyOp6
 70
     1
102
RTVSPropertyOp7
 70
     1
102
RTVSPropertyOp8
 70
     1
102
RTVSPropertyOp9
 70
     1
102
RTVSPropertyOp10
 70
     1
102
RTVSPropertyOp11
 70
     1
102
RTVSPropertyOp12
 70
     1
102
RTVSPropertyOp13
 70
     1
102
RTVSPropertyOp14
 70
     1
102
RTVSPropertyOp15
 70
     1
102
RTVSPropertyOp16
 70
     1
102
RTVSPropertyOp17
 70
     1
102
RTVSPropertyOp18
 70
     1
102
RTVSPropertyOp19
 70
     1
102
RTVSPropertyOp20
 70
     1
102
RTVSPropertyOp21
 70
     1
102
RTVSPropertyOp22
 70
     1
102
RTVSPropertyOp23
 70
     1
102
RTVSPropertyOp24
 70
     1
102
RTVSPropertyOp25
 70
     1
102
RTVSPropertyOp26
 70
     1
102
RTVSPropertyOp27
 70
     1
102
RTVSPropertyOp28
 70
     1
102
RTVSPropertyOp29
 70
     1
102
RTVSPropertyOp30
 70
     1
102
RTVSPropertyOp31
 70
     1
102
RTVSPropertyOp32
 70
     1
102
RTVSPropertyOp33
 70
     1
102
RTVSPropertyOp34
 70
     1
102
RTVSPropertyOp35
 70
     1
102
RTVSPropertyOp36
 70
     1
102
RTVSPropertyOp37
 70
     1
102
RTVSPropertyOp38
 70
     1
102
RTVSPropertyOp39
 70
     1
102
RTVSPropertyOp40
 70
     1
102
RTVSPropertyOp41
 70
     1
102
RTVSPropertyOp42
 70
     1
102
RTVSPropertyOp43
 70
     1
102
RTVSPropertyOp44
 70
     1
102
RTVSPropertyOp45
 70
     1
102
RTVSPropertyOp46
 70
     1
102
RTVSPropertyOp47
 70
     1
102
RTVSPropertyOp48
 70
     1
102
RTVSPropertyOp49
 70
     1
102
RTVSPropertyOp50
 70
     1
102
RTVSPropertyOp51
 70
     0
102
RTVSPropertyOp52
 70
     0
102
RTVSPropertyOp53
 70
     1
102
RTVSPropertyOp54
 70
     1
102
RTVSPropertyOp55
 70
     1
102
RTVSPropertyOp56
 70
     1
102
RTVSPropertyOp57
 70
     1
102
RTVSPropertyOp58
 70
     1
102
RTVSPropertyOp59
 70
     1
102
RTVSPropertyOp60
 70
     1
102
RTVSPropertyOp61
 70
     1
102
RTVSPropertyOp62
 70
     1
  0
XRECORD
  5
20EED
102
{ACAD_REACTORS
330
20EEC
102
}
330
20EEC
100
AcDbXrecord
280
     1
102
RTVSPost2010Prop28
280
     0
102
RTVSPost2010PropOp28
 70
     1
102
RTVSPost2010Prop29
280
     1
102
RTVSPost2010PropOp29
 70
     1
102
RTVSPost2010Prop30
280
     1
102
RTVSPost2010PropOp30
 70
     1
102
RTVSPost2010Prop31
280
     0
102
RTVSPost2010PropOp31
 70
     1
102
RTVSPost2010Prop32
280
     0
102
RTVSPost2010PropOp32
 70
     1
102
RTVSPost2010Prop33
280
     0
102
RTVSPost2010PropOp33
 70
     1
102
RTVSPost2010Prop34
280
     0
102
RTVSPost2010PropOp34
 70
     1
102
RTVSPost2010Prop35
280
     0
102
RTVSPost2010PropOp35
 70
     1
102
RTVSPost2010Prop36
280
     0
102
RTVSPost2010PropOp36
 70
     1
102
RTVSPost2010Prop37
 90
       50
102
RTVSPost2010PropOp37
 70
     1
102
RTVSPost2010Prop38
140
0.0
102
RTVSPost2010PropOp38
 70
     1
102
RTVSPost2010Prop39
140
1.0
102
RTVSPost2010PropOp39
 70
     1
102
RTVSPost2010Prop40
 90
        0
102
RTVSPost2010PropOp40
 70
     1
102
RTVSPost2010Prop41ColorIndex
 90
       18
102
RTVSPost2010Prop41ColorRGB
 90
        0
102
RTVSPost2010PropOp41
 70
     1
102
RTVSPost2010Prop42
 90
       50
102
RTVSPost2010PropOp42
 70
     1
102
RTVSPost2010Prop43
 90
        3
102
RTVSPost2010PropOp43
 70
     1
102
RTVSPost2010Prop44ColorIndex
 90
        5
102
RTVSPost2010Prop44ColorRGB
 90
      255
102
RTVSPost2010PropOp44
 70
     1
102
RTVSPost2010Prop45
280
     0
102
RTVSPost2010PropOp45
 70
     1
102
RTVSPost2010Prop46
 90
       50
102
RTVSPost2010PropOp46
 70
     1
102
RTVSPost2010Prop47
 90
       50
102
RTVSPost2010PropOp47
 70
     1
102
RTVSPost2010Prop48
 90
       50
102
RTVSPost2010PropOp48
 70
     1
102
RTVSPost2010Prop49
280
     0
102
RTVSPost2010PropOp49
 70
     1
102
RTVSPost2010Prop50
 90
       50
102
RTVSPost2010PropOp50
 70
     1
102
RTVSPost2010Prop51ColorIndex
 90
      256
102
RTVSPost2010Prop51ColorRGB
 90
-16777216
102
RTVSPost2010PropOp51
 70
     0
102
RTVSPost2010Prop52
140
1.0
102
RTVSPost2010PropOp52
 70
     0
102
RTVSPost2010Prop53
 90
        2
102
RTVSPost2010PropOp53
 70
     1
102
RTVSPost2010Prop54
  1
strokes_ogs.tif
102
RTVSPost2010PropOp54
 70
     1
102
RTVSPost2010Prop55
280
     0
102
RTVSPost2010PropOp55
 70
     1
102
RTVSPost2010Prop56
140
1.0
102
RTVSPost2010PropOp56
 70
     1
102
RTVSPost2010Prop57
140
1.0
102
RTVSPost2010PropOp57
 70
     1
102
RTVSPropertyOp0
 70
     1
102
RTVSPropertyOp1
 70
     1
102
RTVSPropertyOp2
 70
     1
102
RTVSPropertyOp3
 70
     1
102
RTVSPropertyOp4
 70
     1
102
RTVSPropertyOp5
 70
     1
102
RTVSPropertyOp6
 70
     1
102
RTVSPropertyOp7
 70
     1
102
RTVSPropertyOp8
 70
     1
102
RTVSPropertyOp9
 70
     1
102
RTVSPropertyOp10
 70
     1
102
RTVSPropertyOp11
 70
     1
102
RTVSPropertyOp12
 70
     1
102
RTVSPropertyOp13
 70
     1
102
RTVSPropertyOp14
 70
     1
102
RTVSPropertyOp15
 70
     1
102
RTVSPropertyOp16
 70
     1
102
RTVSPropertyOp17
 70
     1
102
RTVSPropertyOp18
 70
     1
102
RTVSPropertyOp19
 70
     1
102
RTVSPropertyOp20
 70
     1
102
RTVSPropertyOp21
 70
     1
102
RTVSPropertyOp22
 70
     1
102
RTVSPropertyOp23
 70
     1
102
RTVSPropertyOp24
 70
     1
102
RTVSPropertyOp25
 70
     1
102
RTVSPropertyOp26
 70
     1
102
RTVSPropertyOp27
 70
     1
102
RTVSPropertyOp28
 70
     1
102
RTVSPropertyOp29
 70
     1
102
RTVSPropertyOp30
 70
     1
102
RTVSPropertyOp31
 70
     1
102
RTVSPropertyOp32
 70
     1
102
RTVSPropertyOp33
 70
     1
102
RTVSPropertyOp34
 70
     1
102
RTVSPropertyOp35
 70
     1
102
RTVSPropertyOp36
 70
     1
102
RTVSPropertyOp37
 70
     1
102
RTVSPropertyOp38
 70
     1
102
RTVSPropertyOp39
 70
     1
102
RTVSPropertyOp40
 70
     1
102
RTVSPropertyOp41
 70
     1
102
RTVSPropertyOp42
 70
     1
102
RTVSPropertyOp43
 70
     1
102
RTVSPropertyOp44
 70
     1
102
RTVSPropertyOp45
 70
     1
102
RTVSPropertyOp46
 70
     1
102
RTVSPropertyOp47
 70
     1
102
RTVSPropertyOp48
 70
     1
102
RTVSPropertyOp49
 70
     1
102
RTVSPropertyOp50
 70
     1
102
RTVSPropertyOp51
 70
     0
102
RTVSPropertyOp52
 70
     0
102
RTVSPropertyOp53
 70
     1
102
RTVSPropertyOp54
 70
     1
102
RTVSPropertyOp55
 70
     1
102
RTVSPropertyOp56
 70
     1
102
RTVSPropertyOp57
 70
     1
102
RTVSPropertyOp58
 70
     1
102
RTVSPropertyOp59
 70
     1
102
RTVSPropertyOp60
 70
     1
102
RTVSPropertyOp61
 70
     1
102
RTVSPropertyOp62
 70
     1
  0
XRECORD
  5
20ED6
102
{ACAD_REACTORS
330
20ED5
102
}
330
20ED5
100
AcDbXrecord
280
     1
102
RTVSPost2010Prop28
280
     0
102
RTVSPost2010PropOp28
 70
     1
102
RTVSPost2010Prop29
280
     1
102
RTVSPost2010PropOp29
 70
     1
102
RTVSPost2010Prop30
280
     1
102
RTVSPost2010PropOp30
 70
     1
102
RTVSPost2010Prop31
280
     0
102
RTVSPost2010PropOp31
 70
     1
102
RTVSPost2010Prop32
280
     0
102
RTVSPost2010PropOp32
 70
     1
102
RTVSPost2010Prop33
280
     0
102
RTVSPost2010PropOp33
 70
     1
102
RTVSPost2010Prop34
280
     0
102
RTVSPost2010PropOp34
 70
     1
102
RTVSPost2010Prop35
280
     0
102
RTVSPost2010PropOp35
 70
     1
102
RTVSPost2010Prop36
280
     0
102
RTVSPost2010PropOp36
 70
     1
102
RTVSPost2010Prop37
 90
       50
102
RTVSPost2010PropOp37
 70
     1
102
RTVSPost2010Prop38
140
0.0
102
RTVSPost2010PropOp38
 70
     1
102
RTVSPost2010Prop39
140
1.0
102
RTVSPost2010PropOp39
 70
     1
102
RTVSPost2010Prop40
 90
        0
102
RTVSPost2010PropOp40
 70
     1
102
RTVSPost2010Prop41ColorIndex
 90
       18
102
RTVSPost2010Prop41ColorRGB
 90
        0
102
RTVSPost2010PropOp41
 70
     1
102
RTVSPost2010Prop42
 90
       50
102
RTVSPost2010PropOp42
 70
     1
102
RTVSPost2010Prop43
 90
        3
102
RTVSPost2010PropOp43
 70
     1
102
RTVSPost2010Prop44ColorIndex
 90
        5
102
RTVSPost2010Prop44ColorRGB
 90
      255
102
RTVSPost2010PropOp44
 70
     1
102
RTVSPost2010Prop45
280
     0
102
RTVSPost2010PropOp45
 70
     1
102
RTVSPost2010Prop46
 90
       50
102
RTVSPost2010PropOp46
 70
     1
102
RTVSPost2010Prop47
 90
       50
102
RTVSPost2010PropOp47
 70
     1
102
RTVSPost2010Prop48
 90
       50
102
RTVSPost2010PropOp48
 70
     1
102
RTVSPost2010Prop49
280
     0
102
RTVSPost2010PropOp49
 70
     1
102
RTVSPost2010Prop50
 90
       50
102
RTVSPost2010PropOp50
 70
     1
102
RTVSPost2010Prop51ColorIndex
 90
      256
102
RTVSPost2010Prop51ColorRGB
 90
-16777216
102
RTVSPost2010PropOp51
 70
     0
102
RTVSPost2010Prop52
140
1.0
102
RTVSPost2010PropOp52
 70
     0
102
RTVSPost2010Prop53
 90
        2
102
RTVSPost2010PropOp53
 70
     1
102
RTVSPost2010Prop54
  1
strokes_ogs.tif
102
RTVSPost2010PropOp54
 70
     1
102
RTVSPost2010Prop55
280
     0
102
RTVSPost2010PropOp55
 70
     1
102
RTVSPost2010Prop56
140
1.0
102
RTVSPost2010PropOp56
 70
     1
102
RTVSPost2010Prop57
140
1.0
102
RTVSPost2010PropOp57
 70
     1
102
RTVSPropertyOp0
 70
     1
102
RTVSPropertyOp1
 70
     1
102
RTVSPropertyOp2
 70
     1
102
RTVSPropertyOp3
 70
     1
102
RTVSPropertyOp4
 70
     1
102
RTVSPropertyOp5
 70
     1
102
RTVSPropertyOp6
 70
     1
102
RTVSPropertyOp7
 70
     1
102
RTVSPropertyOp8
 70
     1
102
RTVSPropertyOp9
 70
     1
102
RTVSPropertyOp10
 70
     1
102
RTVSPropertyOp11
 70
     1
102
RTVSPropertyOp12
 70
     1
102
RTVSPropertyOp13
 70
     1
102
RTVSPropertyOp14
 70
     1
102
RTVSPropertyOp15
 70
     1
102
RTVSPropertyOp16
 70
     1
102
RTVSPropertyOp17
 70
     1
102
RTVSPropertyOp18
 70
     1
102
RTVSPropertyOp19
 70
     1
102
RTVSPropertyOp20
 70
     1
102
RTVSPropertyOp21
 70
     1
102
RTVSPropertyOp22
 70
     1
102
RTVSPropertyOp23
 70
     1
102
RTVSPropertyOp24
 70
     1
102
RTVSPropertyOp25
 70
     1
102
RTVSPropertyOp26
 70
     1
102
RTVSPropertyOp27
 70
     1
102
RTVSPropertyOp28
 70
     1
102
RTVSPropertyOp29
 70
     1
102
RTVSPropertyOp30
 70
     1
102
RTVSPropertyOp31
 70
     1
102
RTVSPropertyOp32
 70
     1
102
RTVSPropertyOp33
 70
     1
102
RTVSPropertyOp34
 70
     1
102
RTVSPropertyOp35
 70
     1
102
RTVSPropertyOp36
 70
     1
102
RTVSPropertyOp37
 70
     1
102
RTVSPropertyOp38
 70
     1
102
RTVSPropertyOp39
 70
     1
102
RTVSPropertyOp40
 70
     1
102
RTVSPropertyOp41
 70
     1
102
RTVSPropertyOp42
 70
     1
102
RTVSPropertyOp43
 70
     1
102
RTVSPropertyOp44
 70
     1
102
RTVSPropertyOp45
 70
     1
102
RTVSPropertyOp46
 70
     1
102
RTVSPropertyOp47
 70
     1
102
RTVSPropertyOp48
 70
     1
102
RTVSPropertyOp49
 70
     1
102
RTVSPropertyOp50
 70
     1
102
RTVSPropertyOp51
 70
     0
102
RTVSPropertyOp52
 70
     0
102
RTVSPropertyOp53
 70
     1
102
RTVSPropertyOp54
 70
     1
102
RTVSPropertyOp55
 70
     1
102
RTVSPropertyOp56
 70
     1
102
RTVSPropertyOp57
 70
     1
102
RTVSPropertyOp58
 70
     1
102
RTVSPropertyOp59
 70
     1
102
RTVSPropertyOp60
 70
     1
102
RTVSPropertyOp61
 70
     1
102
RTVSPropertyOp62
 70
     1
  0
XRECORD
  5
20EE7
102
{ACAD_REACTORS
330
20EE6
102
}
330
20EE6
100
AcDbXrecord
280
     1
102
RTVSPost2010Prop28
280
     0
102
RTVSPost2010PropOp28
 70
     1
102
RTVSPost2010Prop29
280
     1
102
RTVSPost2010PropOp29
 70
     1
102
RTVSPost2010Prop30
280
     1
102
RTVSPost2010PropOp30
 70
     1
102
RTVSPost2010Prop31
280
     0
102
RTVSPost2010PropOp31
 70
     1
102
RTVSPost2010Prop32
280
     0
102
RTVSPost2010PropOp32
 70
     1
102
RTVSPost2010Prop33
280
     0
102
RTVSPost2010PropOp33
 70
     1
102
RTVSPost2010Prop34
280
     0
102
RTVSPost2010PropOp34
 70
     1
102
RTVSPost2010Prop35
280
     0
102
RTVSPost2010PropOp35
 70
     1
102
RTVSPost2010Prop36
280
     0
102
RTVSPost2010PropOp36
 70
     1
102
RTVSPost2010Prop37
 90
       50
102
RTVSPost2010PropOp37
 70
     1
102
RTVSPost2010Prop38
140
0.0
102
RTVSPost2010PropOp38
 70
     1
102
RTVSPost2010Prop39
140
1.0
102
RTVSPost2010PropOp39
 70
     1
102
RTVSPost2010Prop40
 90
        0
102
RTVSPost2010PropOp40
 70
     1
102
RTVSPost2010Prop41ColorIndex
 90
       18
102
RTVSPost2010Prop41ColorRGB
 90
        0
102
RTVSPost2010PropOp41
 70
     1
102
RTVSPost2010Prop42
 90
       50
102
RTVSPost2010PropOp42
 70
     1
102
RTVSPost2010Prop43
 90
        3
102
RTVSPost2010PropOp43
 70
     1
102
RTVSPost2010Prop44ColorIndex
 90
        5
102
RTVSPost2010Prop44ColorRGB
 90
      255
102
RTVSPost2010PropOp44
 70
     1
102
RTVSPost2010Prop45
280
     0
102
RTVSPost2010PropOp45
 70
     1
102
RTVSPost2010Prop46
 90
       50
102
RTVSPost2010PropOp46
 70
     1
102
RTVSPost2010Prop47
 90
       50
102
RTVSPost2010PropOp47
 70
     1
102
RTVSPost2010Prop48
 90
       50
102
RTVSPost2010PropOp48
 70
     1
102
RTVSPost2010Prop49
280
     0
102
RTVSPost2010PropOp49
 70
     1
102
RTVSPost2010Prop50
 90
       50
102
RTVSPost2010PropOp50
 70
     1
102
RTVSPost2010Prop51ColorIndex
 90
      256
102
RTVSPost2010Prop51ColorRGB
 90
-16777216
102
RTVSPost2010PropOp51
 70
     0
102
RTVSPost2010Prop52
140
1.0
102
RTVSPost2010PropOp52
 70
     0
102
RTVSPost2010Prop53
 90
        2
102
RTVSPost2010PropOp53
 70
     1
102
RTVSPost2010Prop54
  1
strokes_ogs.tif
102
RTVSPost2010PropOp54
 70
     1
102
RTVSPost2010Prop55
280
     0
102
RTVSPost2010PropOp55
 70
     1
102
RTVSPost2010Prop56
140
1.0
102
RTVSPost2010PropOp56
 70
     1
102
RTVSPost2010Prop57
140
1.0
102
RTVSPost2010PropOp57
 70
     1
102
RTVSPropertyOp0
 70
     1
102
RTVSPropertyOp1
 70
     1
102
RTVSPropertyOp2
 70
     1
102
RTVSPropertyOp3
 70
     1
102
RTVSPropertyOp4
 70
     1
102
RTVSPropertyOp5
 70
     1
102
RTVSPropertyOp6
 70
     1
102
RTVSPropertyOp7
 70
     1
102
RTVSPropertyOp8
 70
     1
102
RTVSPropertyOp9
 70
     1
102
RTVSPropertyOp10
 70
     1
102
RTVSPropertyOp11
 70
     1
102
RTVSPropertyOp12
 70
     1
102
RTVSPropertyOp13
 70
     1
102
RTVSPropertyOp14
 70
     1
102
RTVSPropertyOp15
 70
     1
102
RTVSPropertyOp16
 70
     1
102
RTVSPropertyOp17
 70
     1
102
RTVSPropertyOp18
 70
     1
102
RTVSPropertyOp19
 70
     1
102
RTVSPropertyOp20
 70
     1
102
RTVSPropertyOp21
 70
     1
102
RTVSPropertyOp22
 70
     1
102
RTVSPropertyOp23
 70
     1
102
RTVSPropertyOp24
 70
     1
102
RTVSPropertyOp25
 70
     1
102
RTVSPropertyOp26
 70
     1
102
RTVSPropertyOp27
 70
     1
102
RTVSPropertyOp28
 70
     1
102
RTVSPropertyOp29
 70
     1
102
RTVSPropertyOp30
 70
     1
102
RTVSPropertyOp31
 70
     1
102
RTVSPropertyOp32
 70
     1
102
RTVSPropertyOp33
 70
     1
102
RTVSPropertyOp34
 70
     1
102
RTVSPropertyOp35
 70
     1
102
RTVSPropertyOp36
 70
     1
102
RTVSPropertyOp37
 70
     1
102
RTVSPropertyOp38
 70
     1
102
RTVSPropertyOp39
 70
     1
102
RTVSPropertyOp40
 70
     1
102
RTVSPropertyOp41
 70
     1
102
RTVSPropertyOp42
 70
     1
102
RTVSPropertyOp43
 70
     1
102
RTVSPropertyOp44
 70
     1
102
RTVSPropertyOp45
 70
     1
102
RTVSPropertyOp46
 70
     1
102
RTVSPropertyOp47
 70
     1
102
RTVSPropertyOp48
 70
     1
102
RTVSPropertyOp49
 70
     1
102
RTVSPropertyOp50
 70
     1
102
RTVSPropertyOp51
 70
     0
102
RTVSPropertyOp52
 70
     0
102
RTVSPropertyOp53
 70
     1
102
RTVSPropertyOp54
 70
     1
102
RTVSPropertyOp55
 70
     1
102
RTVSPropertyOp56
 70
     1
102
RTVSPropertyOp57
 70
     1
102
RTVSPropertyOp58
 70
     1
102
RTVSPropertyOp59
 70
     1
102
RTVSPropertyOp60
 70
     1
102
RTVSPropertyOp61
 70
     1
102
RTVSPropertyOp62
 70
     1
  0
XRECORD
  5
20EEF
102
{ACAD_REACTORS
330
20EEE
102
}
330
20EEE
100
AcDbXrecord
280
     1
102
RTVSPost2010Prop28
280
     0
102
RTVSPost2010PropOp28
 70
     1
102
RTVSPost2010Prop29
280
     1
102
RTVSPost2010PropOp29
 70
     1
102
RTVSPost2010Prop30
280
     1
102
RTVSPost2010PropOp30
 70
     1
102
RTVSPost2010Prop31
280
     0
102
RTVSPost2010PropOp31
 70
     1
102
RTVSPost2010Prop32
280
     0
102
RTVSPost2010PropOp32
 70
     1
102
RTVSPost2010Prop33
280
     0
102
RTVSPost2010PropOp33
 70
     1
102
RTVSPost2010Prop34
280
     0
102
RTVSPost2010PropOp34
 70
     1
102
RTVSPost2010Prop35
280
     0
102
RTVSPost2010PropOp35
 70
     1
102
RTVSPost2010Prop36
280
     0
102
RTVSPost2010PropOp36
 70
     1
102
RTVSPost2010Prop37
 90
       50
102
RTVSPost2010PropOp37
 70
     1
102
RTVSPost2010Prop38
140
0.0
102
RTVSPost2010PropOp38
 70
     1
102
RTVSPost2010Prop39
140
1.0
102
RTVSPost2010PropOp39
 70
     1
102
RTVSPost2010Prop40
 90
        0
102
RTVSPost2010PropOp40
 70
     1
102
RTVSPost2010Prop41ColorIndex
 90
       18
102
RTVSPost2010Prop41ColorRGB
 90
        0
102
RTVSPost2010PropOp41
 70
     1
102
RTVSPost2010Prop42
 90
       50
102
RTVSPost2010PropOp42
 70
     1
102
RTVSPost2010Prop43
 90
        3
102
RTVSPost2010PropOp43
 70
     1
102
RTVSPost2010Prop44ColorIndex
 90
        5
102
RTVSPost2010Prop44ColorRGB
 90
      255
102
RTVSPost2010PropOp44
 70
     1
102
RTVSPost2010Prop45
280
     0
102
RTVSPost2010PropOp45
 70
     1
102
RTVSPost2010Prop46
 90
       50
102
RTVSPost2010PropOp46
 70
     1
102
RTVSPost2010Prop47
 90
       50
102
RTVSPost2010PropOp47
 70
     1
102
RTVSPost2010Prop48
 90
       50
102
RTVSPost2010PropOp48
 70
     1
102
RTVSPost2010Prop49
280
     0
102
RTVSPost2010PropOp49
 70
     1
102
RTVSPost2010Prop50
 90
       50
102
RTVSPost2010PropOp50
 70
     1
102
RTVSPost2010Prop51ColorIndex
 90
      256
102
RTVSPost2010Prop51ColorRGB
 90
-16777216
102
RTVSPost2010PropOp51
 70
     0
102
RTVSPost2010Prop52
140
1.0
102
RTVSPost2010PropOp52
 70
     0
102
RTVSPost2010Prop53
 90
        2
102
RTVSPost2010PropOp53
 70
     1
102
RTVSPost2010Prop54
  1
strokes_ogs.tif
102
RTVSPost2010PropOp54
 70
     1
102
RTVSPost2010Prop55
280
     0
102
RTVSPost2010PropOp55
 70
     1
102
RTVSPost2010Prop56
140
1.0
102
RTVSPost2010PropOp56
 70
     1
102
RTVSPost2010Prop57
140
1.0
102
RTVSPost2010PropOp57
 70
     1
102
RTVSPropertyOp0
 70
     1
102
RTVSPropertyOp1
 70
     1
102
RTVSPropertyOp2
 70
     1
102
RTVSPropertyOp3
 70
     1
102
RTVSPropertyOp4
 70
     1
102
RTVSPropertyOp5
 70
     1
102
RTVSPropertyOp6
 70
     1
102
RTVSPropertyOp7
 70
     1
102
RTVSPropertyOp8
 70
     1
102
RTVSPropertyOp9
 70
     1
102
RTVSPropertyOp10
 70
     1
102
RTVSPropertyOp11
 70
     1
102
RTVSPropertyOp12
 70
     1
102
RTVSPropertyOp13
 70
     1
102
RTVSPropertyOp14
 70
     1
102
RTVSPropertyOp15
 70
     1
102
RTVSPropertyOp16
 70
     1
102
RTVSPropertyOp17
 70
     1
102
RTVSPropertyOp18
 70
     1
102
RTVSPropertyOp19
 70
     1
102
RTVSPropertyOp20
 70
     1
102
RTVSPropertyOp21
 70
     1
102
RTVSPropertyOp22
 70
     1
102
RTVSPropertyOp23
 70
     1
102
RTVSPropertyOp24
 70
     1
102
RTVSPropertyOp25
 70
     1
102
RTVSPropertyOp26
 70
     1
102
RTVSPropertyOp27
 70
     1
102
RTVSPropertyOp28
 70
     1
102
RTVSPropertyOp29
 70
     1
102
RTVSPropertyOp30
 70
     1
102
RTVSPropertyOp31
 70
     1
102
RTVSPropertyOp32
 70
     1
102
RTVSPropertyOp33
 70
     1
102
RTVSPropertyOp34
 70
     1
102
RTVSPropertyOp35
 70
     1
102
RTVSPropertyOp36
 70
     1
102
RTVSPropertyOp37
 70
     1
102
RTVSPropertyOp38
 70
     1
102
RTVSPropertyOp39
 70
     1
102
RTVSPropertyOp40
 70
     1
102
RTVSPropertyOp41
 70
     1
102
RTVSPropertyOp42
 70
     1
102
RTVSPropertyOp43
 70
     1
102
RTVSPropertyOp44
 70
     1
102
RTVSPropertyOp45
 70
     1
102
RTVSPropertyOp46
 70
     1
102
RTVSPropertyOp47
 70
     1
102
RTVSPropertyOp48
 70
     1
102
RTVSPropertyOp49
 70
     1
102
RTVSPropertyOp50
 70
     1
102
RTVSPropertyOp51
 70
     0
102
RTVSPropertyOp52
 70
     0
102
RTVSPropertyOp53
 70
     1
102
RTVSPropertyOp54
 70
     1
102
RTVSPropertyOp55
 70
     1
102
RTVSPropertyOp56
 70
     1
102
RTVSPropertyOp57
 70
     1
102
RTVSPropertyOp58
 70
     1
102
RTVSPropertyOp59
 70
     1
102
RTVSPropertyOp60
 70
     1
102
RTVSPropertyOp61
 70
     1
102
RTVSPropertyOp62
 70
     1
  0
ENDSEC
  0
EOF
