  0
SECTION
  2
HEADER
  9
$ACADVER
  1
AC1018
  9
$ACADMAINTVER
 70
   104
  9
$DWGCODEPAGE
  3
ANSI_1252
  9
$LASTSAVEDBY
  1
kamerka
  9
$INSBASE
 10
0.0
 20
0.0
 30
0.0
  9
$EXTMIN
 10
-66.57948789858685
 20
-35.72082051649412
 30
0.0
  9
$EXTMAX
 10
16.47217425252336
 20
19.21819542691486
 30
0.0
  9
$LIMMIN
 10
-170.0
 20
-170.0
  9
$LIMMAX
 10
519.0
 20
260.0
  9
$ORTHOMODE
 70
     0
  9
$REGENMODE
 70
     1
  9
$FILLMODE
 70
     1
  9
$QTEXTMODE
 70
     0
  9
$MIRRTEXT
 70
     0
  9
$LTSCALE
 40
1.0
  9
$ATTMODE
 70
     1
  9
$TEXTSIZE
 40
3.5
  9
$TRACEWID
 40
1.0
  9
$TEXTSTYLE
  7
SIMPLEX
  9
$CLAYER
  8
1
  9
$CELTYPE
  6
BYLAYER
  9
$CECOLOR
 62
   256
  9
$CELTSCALE
 40
1.0
  9
$DISPSILH
 70
     0
  9
$DIMSCALE
 40
1.0
  9
$DIMASZ
 40
2.5
  9
$DIMEXO
 40
0.0
  9
$DIMDLI
 40
3.75
  9
$DIMRND
 40
0.0
  9
$DIMDLE
 40
0.0
  9
$DIMEXE
 40
1.25
  9
$DIMTP
 40
0.0
  9
$DIMTM
 40
0.0
  9
$DIMTXT
 40
3.5
  9
$DIMCEN
 40
0.0
  9
$DIMTSZ
 40
0.0
  9
$DIMTOL
 70
     0
  9
$DIMLIM
 70
     0
  9
$DIMTIH
 70
     0
  9
$DIMTOH
 70
     0
  9
$DIMSE1
 70
     0
  9
$DIMSE2
 70
     0
  9
$DIMTAD
 70
     1
  9
$DIMZIN
 70
     8
  9
$DIMBLK
  1

  9
$DIMASO
 70
     1
  9
$DIMSHO
 70
     1
  9
$DIMPOST
  1

  9
$DIMAPOST
  1

  9
$DIMALT
 70
     0
  9
$DIMALTD
 70
     3
  9
$DIMALTF
 40
0.039370078
  9
$DIMLFAC
 40
1.0
  9
$DIMTOFL
 70
     0
  9
$DIMTVP
 40
0.0
  9
$DIMTIX
 70
     0
  9
$DIMSOXD
 70
     0
  9
$DIMSAH
 70
     0
  9
$DIMBLK1
  1

  9
$DIMBLK2
  1

  9
$DIMSTYLE
  2
STANDARD
  9
$DIMCLRD
 70
     0
  9
$DIMCLRE
 70
     0
  9
$DIMCLRT
 70
     0
  9
$DIMTFAC
 40
1.0
  9
$DIMGAP
 40
0.625
  9
$DIMJUST
 70
     0
  9
$DIMSD1
 70
     0
  9
$DIMSD2
 70
     0
  9
$DIMTOLJ
 70
     0
  9
$DIMTZIN
 70
     8
  9
$DIMALTZ
 70
     0
  9
$DIMALTTZ
 70
     0
  9
$DIMUPT
 70
     0
  9
$DIMDEC
 70
     2
  9
$DIMTDEC
 70
     2
  9
$DIMALTU
 70
     2
  9
$DIMALTTD
 70
     3
  9
$DIMTXSTY
  7
SIMPLEX
  9
$DIMAUNIT
 70
     0
  9
$DIMADEC
 70
     2
  9
$DIMALTRND
 40
0.0
  9
$DIMAZIN
 70
     2
  9
$DIMDSEP
 70
    46
  9
$DIMATFIT
 70
     3
  9
$DIMFRAC
 70
     0
  9
$DIMLDRBLK
  1

  9
$DIMLUNIT
 70
     2
  9
$DIMLWD
 70
    -2
  9
$DIMLWE
 70
    -2
  9
$DIMTMOVE
 70
     0
  9
$LUNITS
 70
     2
  9
$LUPREC
 70
     4
  9
$SKETCHINC
 40
1.0
  9
$FILLETRAD
 40
0.0
  9
$AUNITS
 70
     0
  9
$AUPREC
 70
     0
  9
$MENU
  1
c:\tdm21\cad\caduti13\tdm13
  9
$ELEVATION
 40
0.0
  9
$PELEVATION
 40
0.0
  9
$THICKNESS
 40
0.0
  9
$LIMCHECK
 70
     0
  9
$CHAMFERA
 40
0.0
  9
$CHAMFERB
 40
0.0
  9
$CHAMFERC
 40
0.0
  9
$CHAMFERD
 40
0.0
  9
$SKPOLY
 70
     0
  9
$TDCREATE
 40
2455208.674033900
  9
$TDUCREATE
 40
2455208.590700567
  9
$TDUPDATE
 40
2456835.576503229
  9
$TDUUPDATE
 40
2456835.493169896
  9
$TDINDWG
 40
0.0019526852
  9
$TDUSRTIMER
 40
0.0019525000
  9
$USRTIMER
 70
     1
  9
$ANGBASE
 50
0.0
  9
$ANGDIR
 70
     0
  9
$PDMODE
 70
     1
  9
$PDSIZE
 40
0.0
  9
$PLINEWID
 40
0.0
  9
$SPLFRAME
 70
     0
  9
$SPLINETYPE
 70
     6
  9
$SPLINESEGS
 70
     8
  9
$HANDSEED
  5
A75
  9
$SURFTAB1
 70
     6
  9
$SURFTAB2
 70
     6
  9
$SURFTYPE
 70
     6
  9
$SURFU
 70
     6
  9
$SURFV
 70
     6
  9
$UCSBASE
  2

  9
$UCSNAME
  2

  9
$UCSORG
 10
0.0
 20
0.0
 30
0.0
  9
$UCSXDIR
 10
1.0
 20
0.0
 30
0.0
  9
$UCSYDIR
 10
0.0
 20
1.0
 30
0.0
  9
$UCSORTHOREF
  2

  9
$UCSORTHOVIEW
 70
     0
  9
$UCSORGTOP
 10
0.0
 20
0.0
 30
0.0
  9
$UCSORGBOTTOM
 10
0.0
 20
0.0
 30
0.0
  9
$UCSORGLEFT
 10
0.0
 20
0.0
 30
0.0
  9
$UCSORGRIGHT
 10
0.0
 20
0.0
 30
0.0
  9
$UCSORGFRONT
 10
0.0
 20
0.0
 30
0.0
  9
$UCSORGBACK
 10
0.0
 20
0.0
 30
0.0
  9
$PUCSBASE
  2

  9
$PUCSNAME
  2

  9
$PUCSORG
 10
0.0
 20
0.0
 30
0.0
  9
$PUCSXDIR
 10
1.0
 20
0.0
 30
0.0
  9
$PUCSYDIR
 10
0.0
 20
1.0
 30
0.0
  9
$PUCSORTHOREF
  2

  9
$PUCSORTHOVIEW
 70
     0
  9
$PUCSORGTOP
 10
0.0
 20
0.0
 30
0.0
  9
$PUCSORGBOTTOM
 10
0.0
 20
0.0
 30
0.0
  9
$PUCSORGLEFT
 10
0.0
 20
0.0
 30
0.0
  9
$PUCSORGRIGHT
 10
0.0
 20
0.0
 30
0.0
  9
$PUCSORGFRONT
 10
0.0
 20
0.0
 30
0.0
  9
$PUCSORGBACK
 10
0.0
 20
0.0
 30
0.0
  9
$USERI1
 70
     0
  9
$USERI2
 70
     0
  9
$USERI3
 70
     0
  9
$USERI4
 70
     0
  9
$USERI5
 70
     0
  9
$USERR1
 40
0.0
  9
$USERR2
 40
0.0
  9
$USERR3
 40
0.0
  9
$USERR4
 40
0.0
  9
$USERR5
 40
0.0
  9
$WORLDVIEW
 70
     1
  9
$SHADEDGE
 70
     3
  9
$SHADEDIF
 70
    70
  9
$TILEMODE
 70
     1
  9
$MAXACTVP
 70
    64
  9
$PINSBASE
 10
0.0
 20
0.0
 30
0.0
  9
$PLIMCHECK
 70
     0
  9
$PEXTMIN
 10
0.0
 20
0.0
 30
0.0
  9
$PEXTMAX
 10
0.0
 20
0.0
 30
0.0
  9
$PLIMMIN
 10
0.0
 20
0.0
  9
$PLIMMAX
 10
12.0
 20
9.0
  9
$UNITMODE
 70
     0
  9
$VISRETAIN
 70
     0
  9
$PLINEGEN
 70
     0
  9
$PSLTSCALE
 70
     1
  9
$TREEDEPTH
 70
  3020
  9
$CMLSTYLE
  2
STANDARD
  9
$CMLJUST
 70
     0
  9
$CMLSCALE
 40
20.0
  9
$PROXYGRAPHICS
 70
     1
  9
$MEASUREMENT
 70
     1
  9
$CELWEIGHT
370
    -1
  9
$ENDCAPS
280
     0
  9
$JOINSTYLE
280
     0
  9
$LWDISPLAY
290
     0
  9
$INSUNITS
 70
     4
  9
$HYPERLINKBASE
  1

  9
$STYLESHEET
  1
MONOCHROME.CTB
  9
$XEDIT
290
     1
  9
$CEPSNTYPE
380
     0
  9
$PSTYLEMODE
290
     1
  9
$FINGERPRINTGUID
  2
{CEC87482-4A9C-4647-815E-8DDB3E25E81A}
  9
$VERSIONGUID
  2
{8CBBC717-91B0-47E7-B9F4-8A9D0079C504}
  9
$EXTNAMES
290
     1
  9
$PSVPSCALE
 40
0.0
  9
$OLESTARTUP
290
     0
  9
$SORTENTS
280
   127
  9
$INDEXCTL
280
     0
  9
$HIDETEXT
280
     1
  9
$XCLIPFRAME
290
     0
  9
$HALOGAP
280
     0
  9
$OBSCOLOR
 70
   257
  9
$OBSLTYPE
280
     0
  9
$INTERSECTIONDISPLAY
280
     0
  9
$INTERSECTIONCOLOR
 70
   257
  9
$DIMASSOC
280
     2
  9
$PROJECTNAME
  1

  0
ENDSEC
  0
SECTION
  2
CLASSES
  0
CLASS
  1
ACDBDICTIONARYWDFLT
  2
AcDbDictionaryWithDefault
  3
ObjectDBX Classes
 90
        0
 91
        1
280
     0
281
     0
  0
CLASS
  1
DICTIONARYVAR
  2
AcDbDictionaryVar
  3
ObjectDBX Classes
 90
        0
 91
       10
280
     0
281
     0
  0
CLASS
  1
TABLESTYLE
  2
AcDbTableStyle
  3
ObjectDBX Classes
 90
     4095
 91
        1
280
     0
281
     0
  0
CLASS
  1
MATERIAL
  2
AcDbMaterial
  3
ObjectDBX Classes
 90
     1153
 91
        3
280
     0
281
     0
  0
CLASS
  1
VISUALSTYLE
  2
AcDbVisualStyle
  3
ObjectDBX Classes
 90
     4095
 91
       26
280
     0
281
     0
  0
CLASS
  1
SCALE
  2
AcDbScale
  3
ObjectDBX Classes
 90
     1153
 91
       33
280
     0
281
     0
  0
CLASS
  1
MLEADERSTYLE
  2
AcDbMLeaderStyle
  3
ACDB_MLEADERSTYLE_CLASS
 90
     4095
 91
        1
280
     0
281
     0
  0
CLASS
  1
CELLSTYLEMAP
  2
AcDbCellStyleMap
  3
ObjectDBX Classes
 90
     1152
 91
        2
280
     0
281
     0
  0
CLASS
  1
SORTENTSTABLE
  2
AcDbSortentsTable
  3
ObjectDBX Classes
 90
        0
 91
        3
280
     0
281
     0
  0
CLASS
  1
DIMASSOC
  2
AcDbDimAssoc
  3
"AcDbDimAssoc|Product Desc:     AcDim ARX App For Dimension|Company:          Autodesk, Inc.|WEB Address:      www.autodesk.com"
 90
        0
 91
        3
280
     0
281
     0
  0
ENDSEC
  0
SECTION
  2
TABLES
  0
TABLE
  2
VPORT
  5
8
330
0
100
AcDbSymbolTable
 70
     1
  0
VPORT
  5
3ED
330
8
100
AcDbSymbolTableRecord
100
AcDbViewportTableRecord
  2
*Active
 70
     0
 10
0.0
 20
0.0
 11
1.0
 21
1.0
 12
-13.06140679221393
 22
-9.284157191600307
 13
0.0
 23
0.0
 14
5.0
 24
5.0
 15
5.0
 25
5.0
 16
0.0
 26
0.0
 36
1.0
 17
0.0
 27
0.0
 37
0.0
 40
62.8155869488758
 41
1.922118380062305
 42
50.0
 43
0.0
 44
0.0
 50
0.0
 51
0.0
 71
     0
 72
  2000
 73
     1
 74
     3
 75
     0
 76
     0
 77
     0
 78
     0
281
     0
 65
     1
110
0.0
120
0.0
130
0.0
111
1.0
121
0.0
131
0.0
112
0.0
122
1.0
132
0.0
 79
     0
146
0.0
1001
ACAD_NAV_VCDISPLAY
1070
     3
  0
ENDTAB
  0
TABLE
  2
LTYPE
  5
5
330
0
100
AcDbSymbolTable
 70
     3
  0
LTYPE
  5
12
330
5
100
AcDbSymbolTableRecord
100
AcDbLinetypeTableRecord
  2
BYBLOCK
 70
     0
  3

 72
    65
 73
     0
 40
0.0
  0
LTYPE
  5
13
330
5
100
AcDbSymbolTableRecord
100
AcDbLinetypeTableRecord
  2
BYLAYER
 70
     0
  3

 72
    65
 73
     0
 40
0.0
  0
LTYPE
  5
14
330
5
100
AcDbSymbolTableRecord
100
AcDbLinetypeTableRecord
  2
CONTINUOUS
 70
     0
  3
Solid line
 72
    65
 73
     0
 40
0.0
  0
LTYPE
  5
20
330
5
100
AcDbSymbolTableRecord
100
AcDbLinetypeTableRecord
  2
HIDDEN
 70
     0
  3
Hidden __ __ __ __ __ __ __ __ __ __ __ __ __ _
 72
    65
 73
     2
 40
9.524999999999996
 49
6.349999999999998
 74
     0
 49
-3.174999999999998
 74
     0
  0
LTYPE
  5
351
330
5
100
AcDbSymbolTableRecord
100
AcDbLinetypeTableRecord
  2
CENTER
 70
     0
  3
Dash dot __ . __ . __ . __ . __ . __ . __ . __
 72
    65
 73
     4
 40
25.4
 49
12.7
 74
     0
 49
-6.349999999999998
 74
     0
 49
0.0
 74
     0
 49
-6.349999999999998
 74
     0
  0
ENDTAB
  0
TABLE
  2
LAYER
  5
2
102
{ACAD_XDICTIONARY
360
451
102
}
330
0
100
AcDbSymbolTable
 70
    15
  0
LAYER
  5
F
102
{ACAD_XDICTIONARY
360
9C2
102
}
330
2
100
AcDbSymbolTableRecord
100
AcDbLayerTableRecord
  2
0
 70
     0
 62
     7
  6
CONTINUOUS
370
    -3
390
300
  0
LAYER
  5
23
102
{ACAD_XDICTIONARY
360
9C4
102
}
330
2
100
AcDbSymbolTableRecord
100
AcDbLayerTableRecord
  2
1
 70
     0
 62
     4
  6
CONTINUOUS
370
    -3
390
300
  0
LAYER
  5
24
102
{ACAD_XDICTIONARY
360
9C6
102
}
330
2
100
AcDbSymbolTableRecord
100
AcDbLayerTableRecord
  2
SK1
 70
     0
 62
     4
  6
CONTINUOUS
370
    -3
390
300
  0
LAYER
  5
25
102
{ACAD_XDICTIONARY
360
9C8
102
}
330
2
100
AcDbSymbolTableRecord
100
AcDbLayerTableRecord
  2
2
 70
     0
 62
     7
  6
CONTINUOUS
370
    -3
390
300
  0
LAYER
  5
27
102
{ACAD_XDICTIONARY
360
9CA
102
}
330
2
100
AcDbSymbolTableRecord
100
AcDbLayerTableRecord
  2
SK2
 70
     0
 62
     7
  6
CONTINUOUS
370
    -3
390
300
  0
LAYER
  5
2A
102
{ACAD_XDICTIONARY
360
9CC
102
}
330
2
100
AcDbSymbolTableRecord
100
AcDbLayerTableRecord
  2
4
 70
     0
 62
     2
  6
CENTER
370
    -3
390
300
  0
LAYER
  5
2B
102
{ACAD_XDICTIONARY
360
9CE
102
}
330
2
100
AcDbSymbolTableRecord
100
AcDbLayerTableRecord
  2
SK4
 70
     0
 62
     2
  6
CENTER
370
    -3
390
300
  0
LAYER
  5
2E
102
{ACAD_XDICTIONARY
360
9D0
102
}
330
2
100
AcDbSymbolTableRecord
100
AcDbLayerTableRecord
  2
SK6
 70
     0
 62
     5
  6
CONTINUOUS
370
    -3
390
300
  0
LAYER
  5
2F
330
2
100
AcDbSymbolTableRecord
100
AcDbLayerTableRecord
  2
DEFPOINTS
 70
     0
 62
     7
  6
CONTINUOUS
290
     0
370
    -3
390
300
  0
LAYER
  5
375
102
{ACAD_XDICTIONARY
360
9D2
102
}
330
2
100
AcDbSymbolTableRecord
100
AcDbLayerTableRecord
  2
CUT
 70
     0
 62
     1
  6
CONTINUOUS
370
    -3
390
300
  0
LAYER
  5
376
102
{ACAD_XDICTIONARY
360
9D4
102
}
330
2
100
AcDbSymbolTableRecord
100
AcDbLayerTableRecord
  2
NOCUT
 70
     0
 62
     7
  6
CONTINUOUS
370
    -3
390
300
  0
LAYER
  5
479
102
{ACAD_XDICTIONARY
360
9D6
102
}
330
2
100
AcDbSymbolTableRecord
100
AcDbLayerTableRecord
  2
SKVIEW1
 70
     0
 62
     4
  6
CONTINUOUS
370
    -3
390
300
1001
AcAecLayerStandard
1000

1000

  0
LAYER
  5
47D
102
{ACAD_XDICTIONARY
360
9D8
102
}
330
2
100
AcDbSymbolTableRecord
100
AcDbLayerTableRecord
  2
SKVIEW2
 70
     0
 62
     7
  6
CONTINUOUS
370
    -3
390
300
1001
AcAecLayerStandard
1000

1000

  0
LAYER
  5
47E
102
{ACAD_XDICTIONARY
360
9DA
102
}
330
2
100
AcDbSymbolTableRecord
100
AcDbLayerTableRecord
  2
SKVIEW3
 70
     0
 62
     1
  6
HIDDEN
370
    -3
390
300
1001
AcAecLayerStandard
1000

1000

  0
LAYER
  5
47F
102
{ACAD_XDICTIONARY
360
9DC
102
}
330
2
100
AcDbSymbolTableRecord
100
AcDbLayerTableRecord
  2
SKVIEW4
 70
     0
 62
     2
  6
CENTER
370
    -3
390
300
1001
AcAecLayerStandard
1000

1000

  0
ENDTAB
  0
TABLE
  2
STYLE
  5
3
330
0
100
AcDbSymbolTable
 70
     2
  0
STYLE
  5
10
330
3
100
AcDbSymbolTableRecord
100
AcDbTextStyleTableRecord
  2
STANDARD
 70
     0
 40
0.0
 41
1.0
 50
0.0
 71
     0
 42
5.0
  3
txt
  4

  0
STYLE
  5
1E
330
3
100
AcDbSymbolTableRecord
100
AcDbTextStyleTableRecord
  2
SIMPLEX
 70
     0
 40
0.0
 41
1.0
 50
0.0
 71
     0
 42
3.5
  3
simplex
  4

  0
ENDTAB
  0
TABLE
  2
VIEW
  5
6
330
0
100
AcDbSymbolTable
 70
     0
  0
ENDTAB
  0
TABLE
  2
UCS
  5
7
330
0
100
AcDbSymbolTable
 70
     0
  0
ENDTAB
  0
TABLE
  2
APPID
  5
9
330
0
100
AcDbSymbolTable
 70
    13
  0
APPID
  5
11
330
9
100
AcDbSymbolTableRecord
100
AcDbRegAppTableRecord
  2
ACAD
 70
     0
  0
APPID
  5
3A6
330
9
100
AcDbSymbolTableRecord
100
AcDbRegAppTableRecord
  2
ACAD_PSEXT
 70
     0
  0
APPID
  5
3A8
330
9
100
AcDbSymbolTableRecord
100
AcDbRegAppTableRecord
  2
ACAD_EXEMPT_FROM_CAD_STANDARDS
 70
     0
  0
APPID
  5
43E
330
9
100
AcDbSymbolTableRecord
100
AcDbRegAppTableRecord
  2
ACAD_MLEADERVER
 70
     0
  0
APPID
  5
460
330
9
100
AcDbSymbolTableRecord
100
AcDbRegAppTableRecord
  2
ACAD_DSTYLE_DIMJAG
 70
     0
  0
APPID
  5
461
330
9
100
AcDbSymbolTableRecord
100
AcDbRegAppTableRecord
  2
ACAD_DSTYLE_DIMBREAK
 70
     0
  0
APPID
  5
462
330
9
100
AcDbSymbolTableRecord
100
AcDbRegAppTableRecord
  2
ACAD_DSTYLE_DIMTALN
 70
     0
  0
APPID
  5
47A
330
9
100
AcDbSymbolTableRecord
100
AcDbRegAppTableRecord
  2
AcAecLayerStandard
 70
     0
  0
APPID
  5
524
330
9
100
AcDbSymbolTableRecord
100
AcDbRegAppTableRecord
  2
ACAD_DSTYLE_DIMRADIAL_EXTENSION
 70
     0
  0
APPID
  5
525
330
9
100
AcDbSymbolTableRecord
100
AcDbRegAppTableRecord
  2
AcDbDynamicBlockGUID
 70
     0
  0
APPID
  5
526
330
9
100
AcDbSymbolTableRecord
100
AcDbRegAppTableRecord
  2
AcDbBlockRepETag
 70
     0
  0
APPID
  5
527
330
9
100
AcDbSymbolTableRecord
100
AcDbRegAppTableRecord
  2
DCO15
 70
     0
  0
APPID
  5
A3D
330
9
100
AcDbSymbolTableRecord
100
AcDbRegAppTableRecord
  2
ACAD_NAV_VCDISPLAY
 70
     0
  0
ENDTAB
  0
TABLE
  2
DIMSTYLE
  5
A
330
0
100
AcDbSymbolTable
 70
     1
100
AcDbDimStyleTable
 71
     1
340
3F
  0
DIMSTYLE
105
3F
102
{ACAD_REACTORS
330
942
330
945
330
946
330
94D
102
}
330
A
100
AcDbSymbolTableRecord
100
AcDbDimStyleTableRecord
  2
STANDARD
 70
     0
 41
2.5
 42
0.0
 43
3.75
 44
1.25
 73
     0
 74
     0
 77
     1
 78
     8
 79
     2
140
3.5
141
0.0
143
0.039370078
147
0.625
171
     3
179
     2
271
     2
272
     2
274
     3
283
     0
284
     8
340
1E
  0
ENDTAB
  0
TABLE
  2
BLOCK_RECORD
  5
1
330
0
100
AcDbSymbolTable
 70
     8
  0
BLOCK_RECORD
  5
18
102
{ACAD_XDICTIONARY
360
A3A
102
}
330
1
100
AcDbSymbolTableRecord
100
AcDbBlockTableRecord
  2
*MODEL_SPACE
340
303
  0
BLOCK_RECORD
  5
338
330
1
100
AcDbSymbolTableRecord
100
AcDbBlockTableRecord
  2
*Paper_Space
340
33B
  0
BLOCK_RECORD
  5
4BC
102
{ACAD_XDICTIONARY
360
4BD
102
}
330
1
100
AcDbSymbolTableRecord
100
AcDbBlockTableRecord
  2
CUT
340
0
310
2800000020000000200000000100080000000000000400000000000000000000000000000000000000000000000080000080000000808000800000008000800080800000C0C0C000C0DCC000F0CAA6000020400000206000002080000020A0000020C0000020E00000400000004020000040400000406000004080000040A0
310
000040C0000040E00000600000006020000060400000606000006080000060A0000060C0000060E00000800000008020000080400000806000008080000080A0000080C0000080E00000A0000000A0200000A0400000A0600000A0800000A0A00000A0C00000A0E00000C0000000C0200000C0400000C0600000C0800000C0
310
A00000C0C00000C0E00000E0000000E0200000E0400000E0600000E0800000E0A00000E0C00000E0E00040000000400020004000400040006000400080004000A0004000C0004000E00040200000402020004020400040206000402080004020A0004020C0004020E000404000004040200040404000404060004040800040
310
40A0004040C0004040E00040600000406020004060400040606000406080004060A0004060C0004060E00040800000408020004080400040806000408080004080A0004080C0004080E00040A0000040A0200040A0400040A0600040A0800040A0A00040A0C00040A0E00040C0000040C0200040C0400040C0600040C08000
310
40C0A00040C0C00040C0E00040E0000040E0200040E0400040E0600040E0800040E0A00040E0C00040E0E00080000000800020008000400080006000800080008000A0008000C0008000E00080200000802020008020400080206000802080008020A0008020C0008020E00080400000804020008040400080406000804080
310
008040A0008040C0008040E00080600000806020008060400080606000806080008060A0008060C0008060E00080800000808020008080400080806000808080008080A0008080C0008080E00080A0000080A0200080A0400080A0600080A0800080A0A00080A0C00080A0E00080C0000080C0200080C0400080C0600080C0
310
800080C0A00080C0C00080C0E00080E0000080E0200080E0400080E0600080E0800080E0A00080E0C00080E0E000C0000000C0002000C0004000C0006000C0008000C000A000C000C000C000E000C0200000C0202000C0204000C0206000C0208000C020A000C020C000C020E000C0400000C0402000C0404000C0406000C0
310
408000C040A000C040C000C040E000C0600000C0602000C0604000C0606000C0608000C060A000C060C000C060E000C0800000C0802000C0804000C0806000C0808000C080A000C080C000C080E000C0A00000C0A02000C0A04000C0A06000C0A08000C0A0A000C0A0C000C0A0E000C0C00000C0C02000C0C04000C0C06000
310
C0C08000C0C0A000F0FBFF00A4A0A000808080000000FF0000FF000000FFFF00FF000000FF00FF00FFFF0000FFFFFF000000000000000000000000000000000000000000000000000000000000000000000000000000000000F9F9F9F9F9F9F9F9F9F9F9F9F9F9F900000000000000000000000000000000F9000000000000
310
0000000000000000F900000000000000000000000000000000F90000000000000000000000000000F900000000000000000000000000000000F90000000000000000000000000000F900000000000000000000000000000000F90000000000000000000000000000F900000000000000000000000000000000F90000000000
310
000000000000000000F900000000000000000000000000000000F90000000000000000000000000000F900000000000000000000000000000000F90000000000000000000000000000F900000000000000000000000000000000F90000000000000000000000000000F900000000000000000000000000000000F900000000
310
00000000000000000000F900000000000000000000000000000000F90000000000000000000000000000F900000000000000000000000000000000F90000000000000000000000000000F900000000000000000000000000000000F90000000000000000000000000000F900000000000000000000000000000000F9000000
310
0000000000000000000000F900000000000000000000000000000000F90000000000000000000000000000F900000000000000000000000000000000F90000000000000000000000000000F900000000000000000000000000000000F90000000000000000000000000000F900000000000000000000000000000000F90000
310
000000000000000000000000F900000000000000000000000000000000F90000000000000000000000000000F900000000000000000000000000000000F90000000000000000000000000000F900000000000000000000000000000000F90000000000000000000000000000F900000000000000000000000000000000F900
310
00000000000000000000000000F900000000000000000000000000000000F90000000000000000000000000000F900000000000000000000000000000000F90000000000000000000000000000F900000000000000000000000000000000F90000000000000000000000000000F900000000000000000000000000000000F9
310
0000000000000000000000000000F900000000000000000000000000000000F90000000000000000000000000000F900000000000000000000000000000000F90000000000000000000000000000F90000000000000000000000000000000000F900000000000000000000000000F900000000000000000000000000000000
310
00F9F9F9F9F9F9F9F9F9F9F9F9F9F90000000000000000000000000000000000000000000000000000000000000000000000000000000000
102
{BLKREFS
331
949
102
}
1001
AcDbDynamicBlockGUID
1000
{CAD4CBD2-7467-4BA0-93B7-0AC60D798684}
1001
AcDbBlockRepETag
1070
     1
1071
       12
1001
ACAD
1000
DesignCenter Data
1002
{
1070
     1
1070
     4
1002
}
  0
BLOCK_RECORD
  5
4CF
102
{ACAD_XDICTIONARY
360
4D0
102
}
330
1
100
AcDbSymbolTableRecord
100
AcDbBlockTableRecord
  2
NOCUT
340
0
310
2800000020000000200000000100080000000000000400000000000000000000000000000000000000000000000080000080000000808000800000008000800080800000C0C0C000C0DCC000F0CAA6000020400000206000002080000020A0000020C0000020E00000400000004020000040400000406000004080000040A0
310
000040C0000040E00000600000006020000060400000606000006080000060A0000060C0000060E00000800000008020000080400000806000008080000080A0000080C0000080E00000A0000000A0200000A0400000A0600000A0800000A0A00000A0C00000A0E00000C0000000C0200000C0400000C0600000C0800000C0
310
A00000C0C00000C0E00000E0000000E0200000E0400000E0600000E0800000E0A00000E0C00000E0E00040000000400020004000400040006000400080004000A0004000C0004000E00040200000402020004020400040206000402080004020A0004020C0004020E000404000004040200040404000404060004040800040
310
40A0004040C0004040E00040600000406020004060400040606000406080004060A0004060C0004060E00040800000408020004080400040806000408080004080A0004080C0004080E00040A0000040A0200040A0400040A0600040A0800040A0A00040A0C00040A0E00040C0000040C0200040C0400040C0600040C08000
310
40C0A00040C0C00040C0E00040E0000040E0200040E0400040E0600040E0800040E0A00040E0C00040E0E00080000000800020008000400080006000800080008000A0008000C0008000E00080200000802020008020400080206000802080008020A0008020C0008020E00080400000804020008040400080406000804080
310
008040A0008040C0008040E00080600000806020008060400080606000806080008060A0008060C0008060E00080800000808020008080400080806000808080008080A0008080C0008080E00080A0000080A0200080A0400080A0600080A0800080A0A00080A0C00080A0E00080C0000080C0200080C0400080C0600080C0
310
800080C0A00080C0C00080C0E00080E0000080E0200080E0400080E0600080E0800080E0A00080E0C00080E0E000C0000000C0002000C0004000C0006000C0008000C000A000C000C000C000E000C0200000C0202000C0204000C0206000C0208000C020A000C020C000C020E000C0400000C0402000C0404000C0406000C0
310
408000C040A000C040C000C040E000C0600000C0602000C0604000C0606000C0608000C060A000C060C000C060E000C0800000C0802000C0804000C0806000C0808000C080A000C080C000C080E000C0A00000C0A02000C0A04000C0A06000C0A08000C0A0A000C0A0C000C0A0E000C0C00000C0C02000C0C04000C0C06000
310
C0C08000C0C0A000F0FBFF00A4A0A000808080000000FF0000FF000000FFFF00FF000000FF00FF00FFFF0000FFFFFF000000000000000000000000000000000000000000000000000000000000000000000000000000000000000000000000FFFFFFFFFFFFFF0000000000000000000000000000000000000000FFFFFFFFFF
310
000000000000FF0000000000000000000000000000000000000000FF00000000000000000000FF0000000000000000000000000000000000000000FF00000000000000000000FF0000000000000000000000000000000000000000FF00000000000000000000FF0000000000000000000000000000000000000000FF000000
310
00000000000000FF0000000000000000000000000000000000000000FF00000000000000000000FF0000000000000000000000000000000000000000FF00000000000000000000FF0000000000000000000000000000000000000000FF00000000000000000000FF0000000000000000000000000000000000000000FF0000
310
0000000000000000FF0000000000000000000000000000000000000000FF00000000000000000000FF0000000000000000000000000000000000000000FF00000000000000000000FF0000000000000000000000000000000000000000FF00000000000000000000FF0000000000000000000000000000000000000000FF00
310
000000000000000000FF0000000000000000000000000000000000000000FF00000000000000000000FF0000000000000000000000000000000000000000FF00000000000000000000FF0000000000000000000000000000000000000000FF00000000000000000000FF0000000000000000000000000000000000000000FF
310
00000000000000000000FF0000000000000000000000000000000000000000FF00000000000000000000FF0000000000000000000000000000000000000000FF00000000000000000000FF0000000000000000000000000000000000000000FF00000000000000000000FF0000000000000000000000000000000000000000
310
FF00000000000000000000FF0000000000000000000000000000000000000000FF00000000000000000000FF0000000000000000000000000000000000000000FF00000000000000000000FF0000000000000000000000000000000000000000FF00000000000000000000FF00000000000000000000000000000000000000
310
00FF00000000000000000000FF0000000000000000000000000000000000000000FF00000000000000000000FF0000000000000000000000000000000000000000FF00000000000000000000FF0000000000000000000000000000000000000000FF00000000000000000000FF000000000000000000000000000000000000
310
0000FFFFFFFFFFFFFFFFFFFFFFFF000000000000000000000000000000000000000000000000000000000000000000000000000000000000
102
{BLKREFS
331
94C
102
}
1001
AcDbDynamicBlockGUID
1000
{A9ED7243-5FB9-4C9D-BB82-79715C39EE44}
1001
AcDbBlockRepETag
1070
     1
1071
       13
1001
ACAD
1000
DesignCenter Data
1002
{
1070
     1
1070
     4
1002
}
  0
BLOCK_RECORD
  5
4EC
330
1
100
AcDbSymbolTableRecord
100
AcDbBlockTableRecord
  2
CERO_POINT
340
0
310
2800000020000000200000000100080000000000000400000000000000000000000000000000000000000000000080000080000000808000800000008000800080800000C0C0C000C0DCC000F0CAA6000020400000206000002080000020A0000020C0000020E00000400000004020000040400000406000004080000040A0
310
000040C0000040E00000600000006020000060400000606000006080000060A0000060C0000060E00000800000008020000080400000806000008080000080A0000080C0000080E00000A0000000A0200000A0400000A0600000A0800000A0A00000A0C00000A0E00000C0000000C0200000C0400000C0600000C0800000C0
310
A00000C0C00000C0E00000E0000000E0200000E0400000E0600000E0800000E0A00000E0C00000E0E00040000000400020004000400040006000400080004000A0004000C0004000E00040200000402020004020400040206000402080004020A0004020C0004020E000404000004040200040404000404060004040800040
310
40A0004040C0004040E00040600000406020004060400040606000406080004060A0004060C0004060E00040800000408020004080400040806000408080004080A0004080C0004080E00040A0000040A0200040A0400040A0600040A0800040A0A00040A0C00040A0E00040C0000040C0200040C0400040C0600040C08000
310
40C0A00040C0C00040C0E00040E0000040E0200040E0400040E0600040E0800040E0A00040E0C00040E0E00080000000800020008000400080006000800080008000A0008000C0008000E00080200000802020008020400080206000802080008020A0008020C0008020E00080400000804020008040400080406000804080
310
008040A0008040C0008040E00080600000806020008060400080606000806080008060A0008060C0008060E00080800000808020008080400080806000808080008080A0008080C0008080E00080A0000080A0200080A0400080A0600080A0800080A0A00080A0C00080A0E00080C0000080C0200080C0400080C0600080C0
310
800080C0A00080C0C00080C0E00080E0000080E0200080E0400080E0600080E0800080E0A00080E0C00080E0E000C0000000C0002000C0004000C0006000C0008000C000A000C000C000C000E000C0200000C0202000C0204000C0206000C0208000C020A000C020C000C020E000C0400000C0402000C0404000C0406000C0
310
408000C040A000C040C000C040E000C0600000C0602000C0604000C0606000C0608000C060A000C060C000C060E000C0800000C0802000C0804000C0806000C0808000C080A000C080C000C080E000C0A00000C0A02000C0A04000C0A06000C0A08000C0A0A000C0A0C000C0A0E000C0C00000C0C02000C0C04000C0C06000
310
C0C08000C0C0A000F0FBFF00A4A0A000808080000000FF0000FF000000FFFF00FF000000FF00FF00FFFF0000FFFFFF00000000000000000000000000000000000000000000000000000000000000000000000000000000000000000000000000FF0000000000000000000000000000000000000000000000000000000000FF
310
FFFFFFFF000000000000000000000000000000000000000000FFFFFFFFFFFF0000FF0000FFFF00FF00000000000000000000000000000000FF00000000000000FFFFFF0000FFFFFFFF000000000000000000000000000000FF0000000000000000FF00FF0000FF00FFFF00000000000000000000000000FF00000000000000
310
0000FFFF00FF0000FF0000FFFF00000000000000000000FF000000000000000000FFFF00FF00FF0000FF0000FF000000000000000000FF0000000000000000000000FF0000FF00FF0000FF0000FF0000000000000000FF00000000000000000000FFFFFF0000FFFFFF0000FF00FFFF000000000000FF000000000000000000
310
000000FF00FF000000FFFF0000FF00FF0000000000FF00000000000000000000000000FFFF00FFFF0000FFFF0000FFFF0000000000FF000000000000000000000000FFFF00FF0000FF0000FFFF0000FF0000000000FF00000000000000000000000000FF0000FF0000FF0000FFFF0000FF00000000FF000000000000000000
310
000000FFFFFF0000FF0000FF0000FFFF00FF00000000FF00FF00000000FF0000FF00FF00FFFFFF0000FF0000FF0000FFFF00FF0000FFFFFFFFFFFFFFFFFFFFFFFFFFFFFFFFFFFFFFFFFFFFFFFFFFFFFFFFFFFF000000FF00FF00FF00FF0000FF0000FFFFFF00000000000000000000000000FF000000FF0000FF00FF00FF00
310
00FF0000FFFF000000000000000000000000FF00000000FFFF0000FF00FF00FF00FF000000FF000000000000000000000000FF00000000FF00FF0000FF00FF00FF00FF0000FF0000000000000000000000FF000000000000FF00FF0000FFFF0000FF00FF00FF0000000000000000000000FF000000000000FFFF00FF00FF00
310
FF0000FF00FFFF00000000000000000000FF0000000000000000FF0000FF00FF00FF0000FF00FF00000000000000000000FF000000000000000000FF0000FF00FF00FF0000FFFF000000000000000000FF0000000000000000000000FF0000FF00FF00FF0000FF000000000000000000FF000000000000000000000000FF00
310
00FF00FF00FF00FF00000000000000FFFF00000000000000000000000000FFFF0000FF00FF00FFFF0000000000FFFF00000000000000000000000000000000FFFFFFFFFF00FF00FF000000FFFF0000000000000000000000000000000000000000000000FFFFFFFFFFFFFF0000000000000000000000000000000000000000
310
0000000000000000FF0000000000000000000000000000000000000000000000000000000000000000000000000000000000000000000000
102
{BLKREFS
331
950
102
}
1001
ACAD
1000
DesignCenter Data
1002
{
1070
     1
1070
     4
1002
}
  0
BLOCK_RECORD
  5
4F5
102
{ACAD_XDICTIONARY
360
4F6
102
}
330
1
100
AcDbSymbolTableRecord
100
AcDbBlockTableRecord
  2
ISCAR_LOGO
340
0
310
2800000020000000200000000100080000000000000400000000000000000000000000000000000000000000000080000080000000808000800000008000800080800000C0C0C000C0DCC000F0CAA6000020400000206000002080000020A0000020C0000020E00000400000004020000040400000406000004080000040A0
310
000040C0000040E00000600000006020000060400000606000006080000060A0000060C0000060E00000800000008020000080400000806000008080000080A0000080C0000080E00000A0000000A0200000A0400000A0600000A0800000A0A00000A0C00000A0E00000C0000000C0200000C0400000C0600000C0800000C0
310
A00000C0C00000C0E00000E0000000E0200000E0400000E0600000E0800000E0A00000E0C00000E0E00040000000400020004000400040006000400080004000A0004000C0004000E00040200000402020004020400040206000402080004020A0004020C0004020E000404000004040200040404000404060004040800040
310
40A0004040C0004040E00040600000406020004060400040606000406080004060A0004060C0004060E00040800000408020004080400040806000408080004080A0004080C0004080E00040A0000040A0200040A0400040A0600040A0800040A0A00040A0C00040A0E00040C0000040C0200040C0400040C0600040C08000
310
40C0A00040C0C00040C0E00040E0000040E0200040E0400040E0600040E0800040E0A00040E0C00040E0E00080000000800020008000400080006000800080008000A0008000C0008000E00080200000802020008020400080206000802080008020A0008020C0008020E00080400000804020008040400080406000804080
310
008040A0008040C0008040E00080600000806020008060400080606000806080008060A0008060C0008060E00080800000808020008080400080806000808080008080A0008080C0008080E00080A0000080A0200080A0400080A0600080A0800080A0A00080A0C00080A0E00080C0000080C0200080C0400080C0600080C0
310
800080C0A00080C0C00080C0E00080E0000080E0200080E0400080E0600080E0800080E0A00080E0C00080E0E000C0000000C0002000C0004000C0006000C0008000C000A000C000C000C000E000C0200000C0202000C0204000C0206000C0208000C020A000C020C000C020E000C0400000C0402000C0404000C0406000C0
310
408000C040A000C040C000C040E000C0600000C0602000C0604000C0606000C0608000C060A000C060C000C060E000C0800000C0802000C0804000C0806000C0808000C080A000C080C000C080E000C0A00000C0A02000C0A04000C0A06000C0A08000C0A0A000C0A0C000C0A0E000C0C00000C0C02000C0C04000C0C06000
310
C0C08000C0C0A000F0FBFF00A4A0A000808080000000FF0000FF000000FFFF00FF000000FF00FF00FFFF0000FFFFFF0000000000000000000000000000000000000000000000000000000000000000000000000000000000000000000000000000000000000000000000000000000000000000000000000000000000000000
310
0000000000000000000000000000000000000000000000000000000000FC0000FC00000000000000000000000000000000000000000000000000000000FC000000FC000000000000000000000000000000000000000000000000000000FCFC0000FC000000000000000000000000000000000000000000000000000000FC00
310
000000FC0000000000000000000000000000000000000000000000000000FCFCFCFCFCFC000000000000000000000000000000000000000000000000000000000000000000000000000000000000000000000000000000000000000000FCFC00FCFCFC00FC000000000000000000000000000000000000000000000000FCFC
310
FCFCFCFCFCFC000000000000000000000000000000000000000000000000FC00FCFCFC00FCFC000000000000000000000000000000000000000000000000FC0000FCFC0000FC000000000000000000000000000000000000000000000000000000000000000000000000000000000000000000000000000000000000000000
310
000000000000000000000000000000000000000000FCFCFCFCFCFCFCFC0000000000FCFCFCFCFCFCFCFCFCFCFCFCFC000000000000FC0000FCFC000000FC000000FC000000FC0000FCFC00FCFC00FC000000000000FC0000FCFC000000FC0000FC00000000FC0000FCFC00FCFC00FC000000000000FC0000FCFCFCFCFCFCFC
310
FCFCFCFCFCFCFC0000FCFC00FCFCFCFC000000000000FC0000FCFCFCFCFCFCFCFCFCFCFCFCFCFC0000FCFC00FCFCFCFCFCFCFCFC0000FC0000FC00FC000000FC00FCFC000000FCFCFCFCFCFC0000FC00000000FC0000FCFCFCFC0000FCFCFCFC000000FCFCFCFC0000FCFC00000000FCFCFCFCFC0000000000FC0000000000
310
000000000000000000000000000000000000000000000000FCFCFC00000000000000000000000000000000000000000000000000000000FC0000FC00000000000000000000000000000000000000000000000000000000FC0000FC00000000000000000000000000000000000000000000000000000000FC00FC0000000000
310
000000000000000000000000000000000000000000000000FCFC000000000000000000000000000000000000000000000000000000000000FC00000000000000000000000000000000000000000000000000000000000000000000000000000000000000000000000000000000000000000000000000000000000000000000
310
0000000000000000000000000000000000000000000000000000000000000000000000000000000000000000000000000000000000000000
  0
BLOCK_RECORD
  5
957
330
1
100
AcDbSymbolTableRecord
100
AcDbBlockTableRecord
  2
*D4
340
0
  0
BLOCK_RECORD
  5
964
330
1
100
AcDbSymbolTableRecord
100
AcDbBlockTableRecord
  2
*D5
340
0
  0
BLOCK_RECORD
  5
976
330
1
100
AcDbSymbolTableRecord
100
AcDbBlockTableRecord
  2
*D6
340
0
  0
BLOCK_RECORD
  5
983
330
1
100
AcDbSymbolTableRecord
100
AcDbBlockTableRecord
  2
*D7
340
0
  0
ENDTAB
  0
ENDSEC
  0
SECTION
  2
BLOCKS
  0
BLOCK
  5
32
330
18
100
AcDbEntity
  8
0
100
AcDbBlockBegin
  2
*MODEL_SPACE
 70
     0
 10
0.0
 20
0.0
 30
0.0
  3
*MODEL_SPACE
  1

  0
ENDBLK
  5
33
330
18
100
AcDbEntity
  8
0
100
AcDbBlockEnd
  0
BLOCK
  5
339
330
338
100
AcDbEntity
 67
     1
  8
0
100
AcDbBlockBegin
  2
*Paper_Space
 70
     0
 10
0.0
 20
0.0
 30
0.0
  3
*Paper_Space
  1

  0
ENDBLK
  5
33A
330
338
100
AcDbEntity
 67
     1
  8
0
100
AcDbBlockEnd
  0
BLOCK
  5
4BF
330
4BC
100
AcDbEntity
  8
0
100
AcDbBlockBegin
  2
CUT
 70
     0
 10
0.0
 20
0.0
 30
0.0
  3
CUT
  1

  0
ARC
  5
4C0
330
4BC
100
AcDbEntity
  8
CUT
100
AcDbCircle
 10
-188.6190299507835
 20
108.7574616068645
 30
0.0
 40
383.2333789547726
100
AcDbArc
 50
358.6099549835113
 51
358.6137296215657
1001
AcDbBlockRepETag
1070
     1
1071
        0
1005
4C0
  0
LINE
  5
4C1
330
4BC
100
AcDbEntity
  8
CUT
 48
0.034781
100
AcDbLine
 10
194.5417250162808
 20
100.954637935282
 30
0.0
 11
194.5018923808674
 21
99.48603021015358
 31
0.0
1001
AcDbBlockRepETag
1070
     1
1071
        1
1005
4C1
  0
ARC
  5
4C2
330
4BC
100
AcDbEntity
  8
CUT
 48
0.034781
100
AcDbCircle
 10
194.4417617780951
 20
100.9573492101536
 30
0.0
 40
0.1
100
AcDbArc
 50
358.446363541248
 51
90.0
1001
AcDbBlockRepETag
1070
     1
1071
        2
1005
4C2
  0
LINE
  5
4C3
330
4BC
100
AcDbEntity
  8
CUT
 48
0.03478
100
AcDbLine
 10
193.3377209923236
 20
100.9546247324419
 30
0.0
 11
193.3777473808674
 21
99.48603021015358
 31
0.0
1001
AcDbBlockRepETag
1070
     1
1071
        4
1005
4C3
  0
ARC
  5
4C4
330
4BC
100
AcDbEntity
  8
CUT
100
AcDbCircle
 10
145.3392840669011
 20
98.164297925534
 30
0.0
 40
48.05639663075584
100
AcDbArc
 50
0.3051570591865009
 51
1.576061035128908
1001
AcDbBlockRepETag
1070
     1
1071
        5
1005
4C4
  0
LINE
  5
4C5
330
4BC
100
AcDbEntity
  8
CUT
 48
0.020055
100
AcDbLine
 10
193.4376838715399
 20
101.0573492101536
 30
0.0
 11
194.4417617780951
 21
101.0573492101536
 31
0.0
1001
AcDbBlockRepETag
1070
     1
1071
        6
1005
4C5
  0
ARC
  5
4C6
330
4BC
100
AcDbEntity
  8
CUT
 48
0.020055
100
AcDbCircle
 10
193.4376838715399
 20
100.9573492101536
 30
0.0
 40
0.1
100
AcDbArc
 50
90.0
 51
181.5612039243888
1001
AcDbBlockRepETag
1070
     1
1071
        7
1005
4C6
  0
LINE
  5
4C7
330
4BC
100
AcDbEntity
  8
CUT
 48
0.020055
100
AcDbLine
 10
193.5565643324001
 20
97.25734921015359
 30
0.0
 11
194.4828259741923
 21
97.25734921015359
 31
0.0
1001
AcDbBlockRepETag
1070
     1
1071
        8
1005
4C7
  0
LINE
  5
4C8
330
4BC
100
AcDbEntity
  8
CUT
 48
0.09397
100
AcDbLine
 10
193.5565643324001
 20
97.25734921015359
 30
0.0
 11
193.556536946526
 21
98.19061459736204
 31
0.0
1001
AcDbBlockRepETag
1070
     1
1071
        9
1005
4C8
  0
ARC
  5
4C9
330
4BC
100
AcDbEntity
  8
CUT
100
AcDbCircle
 10
193.2929263516074
 20
98.1768062292245
 30
0.0
 40
0.263972
100
AcDbArc
 50
0.6529072956132273
 51
67.25190822885976
1001
AcDbBlockRepETag
1070
     1
1071
       10
1005
4C9
  0
POLYLINE
  5
4CA
330
4BC
100
AcDbEntity
  8
CUT
100
AcDb2dPolyline
 66
     1
 10
0.0
 20
0.0
 30
0.0
1001
AcDbBlockRepETag
1070
     1
1071
       11
1005
4CA
  0
VERTEX
  5
4CB
330
4CA
100
AcDbEntity
  8
CUT
100
AcDbVertex
100
AcDb2dVertex
 10
194.5015709760545
 20
99.46080142425728
 30
0.0
  0
VERTEX
  5
4CC
330
4CA
100
AcDbEntity
  8
CUT
100
AcDbVertex
100
AcDb2dVertex
 10
194.4828259741922
 20
97.25734921015362
 30
0.0
  0
SEQEND
  5
4CD
330
4CA
100
AcDbEntity
  8
CUT
  0
ENDBLK
  5
4CE
330
4BC
100
AcDbEntity
  8
0
100
AcDbBlockEnd
  0
BLOCK
  5
4D1
330
4CF
100
AcDbEntity
  8
0
100
AcDbBlockBegin
  2
NOCUT
 70
     0
 10
0.0
 20
0.0
 30
0.0
  3
NOCUT
  1

  0
LINE
  5
4D2
330
4CF
100
AcDbEntity
  8
NOCUT
 48
0.015025
100
AcDbLine
 10
220.7102983695269
 20
92.84000981305672
 30
0.0
 11
220.6968093695268
 21
93.44087081305678
 31
0.0
1001
AcDbBlockRepETag
1070
     1
1071
        0
1005
4D2
  0
ARC
  5
4D3
330
4CF
100
AcDbEntity
  8
NOCUT
100
AcDbCircle
 10
25.24380636952685
 20
88.99003481305678
 30
0.0
 40
195.503719
100
AcDbArc
 50
1.304505999999304
 51
1.771554999999726
1001
AcDbBlockRepETag
1070
     1
1071
        1
1005
4D3
  0
ARC
  5
4D4
330
4CF
100
AcDbEntity
  8
NOCUT
100
AcDbCircle
 10
236.5880443695267
 20
95.6808608130567
 30
0.0
 40
15.946164
100
AcDbArc
 50
179.473441669166
 51
182.3248699999991
1001
AcDbBlockRepETag
1070
     1
1071
        2
1005
4D4
  0
LINE
  5
4D5
330
4CF
100
AcDbEntity
  8
NOCUT
 48
0.000552
100
AcDbLine
 10
220.7102983695269
 20
92.84000981305672
 30
0.0
 11
220.6882033695269
 21
92.84000981305672
 31
0.0
1001
AcDbBlockRepETag
1070
     1
1071
        3
1005
4D5
  0
ARC
  5
4D6
330
4CF
100
AcDbEntity
  8
NOCUT
100
AcDbCircle
 10
177.2766433695268
 20
94.1661818130567
 30
0.0
 40
43.424331
100
AcDbArc
 50
357.3373649999995
 51
358.2501520000004
1001
AcDbBlockRepETag
1070
     1
1071
        4
1005
4D6
  0
POLYLINE
  5
4D7
330
4CF
100
AcDbEntity
  8
NOCUT
100
AcDb2dPolyline
 66
     1
 10
0.0
 20
0.0
 30
0.0
1001
AcDbBlockRepETag
1070
     1
1071
        5
1005
4D7
  0
VERTEX
  5
4D8
330
4D7
100
AcDbEntity
  8
NOCUT
100
AcDbVertex
100
AcDb2dVertex
 10
220.6435914311974
 20
91.29344777889228
 30
0.0
  0
VERTEX
  5
4D9
330
4D7
100
AcDbEntity
  8
NOCUT
100
AcDbVertex
100
AcDb2dVertex
 10
220.6418163695267
 20
91.50138681305667
 30
0.0
  0
VERTEX
  5
4DA
330
4D7
100
AcDbEntity
  8
NOCUT
100
AcDbVertex
100
AcDb2dVertex
 10
220.6540843695268
 20
92.14890881305679
 30
0.0
  0
SEQEND
  5
4DB
330
4D7
100
AcDbEntity
  8
NOCUT
  0
LINE
  5
4DC
330
4CF
100
AcDbEntity
  8
NOCUT
 48
0.057381
100
AcDbLine
 10
218.8573323695268
 20
93.71351481305678
 30
0.0
 11
218.8573323695268
 21
91.41828781305679
 31
0.0
1001
AcDbBlockRepETag
1070
     1
1071
        6
1005
4DC
  0
LINE
  5
4DD
330
4CF
100
AcDbEntity
  8
NOCUT
 48
0.163071
100
AcDbLine
 10
218.8573323695268
 20
95.8274068130567
 30
0.0
 11
218.8573323695268
 21
93.71351481305678
 31
0.0
1001
AcDbBlockRepETag
1070
     1
1071
        7
1005
4DD
  0
ARC
  5
4DE
330
4CF
100
AcDbEntity
  8
NOCUT
100
AcDbCircle
 10
219.4323443695268
 20
91.12177881305679
 30
0.0
 40
0.285
100
AcDbArc
 50
37.0381925563926
 51
89.99999700000229
1001
AcDbBlockRepETag
1070
     1
1071
        8
1005
4DE
  0
LINE
  5
4DF
330
4CF
100
AcDbEntity
  8
NOCUT
 48
0.0125
100
AcDbLine
 10
218.9323443695268
 20
91.40678281305667
 30
0.0
 11
219.4323443695268
 21
91.40678281305667
 31
0.0
1001
AcDbBlockRepETag
1070
     1
1071
        9
1005
4DF
  0
ARC
  5
4E0
330
4CF
100
AcDbEntity
  8
NOCUT
100
AcDbCircle
 10
218.9323443695268
 20
91.6567828130567
 30
0.0
 40
0.250008
100
AcDbArc
 50
252.5426670000033
 51
269.9997360000008
1001
AcDbBlockRepETag
1070
     1
1071
       10
1005
4E0
  0
LINE
  5
4E1
330
4CF
100
AcDbEntity
  8
NOCUT
100
AcDbLine
 10
218.8573323695268
 20
95.82740681305674
 30
0.0
 11
220.6425537660746
 21
95.8274068130567
 31
0.0
1001
AcDbBlockRepETag
1070
     1
1071
       11
1005
4E1
  0
LINE
  5
4E2
330
4CF
100
AcDbEntity
  8
0
100
AcDbLine
 10
219.6598411083364
 20
91.29344777889228
 30
0.0
 11
220.6435914311974
 21
91.29344777889228
 31
0.0
1001
AcDbBlockRepETag
1070
     1
1071
       12
1005
4E2
  0
ENDBLK
  5
4E3
330
4CF
100
AcDbEntity
  8
0
100
AcDbBlockEnd
  0
BLOCK
  5
4ED
330
4EC
100
AcDbEntity
  8
0
100
AcDbBlockBegin
  2
CERO_POINT
 70
     0
 10
0.0
 20
0.0
 30
0.0
  3
CERO_POINT
  1

  0
CIRCLE
  5
4EE
102
{ACAD_REACTORS
330
4F3
102
}
330
4EC
100
AcDbEntity
  8
SK2
100
AcDbCircle
 10
0.0
 20
0.0
 30
0.0
 40
2.5
  0
LINE
  5
4EF
330
4EC
100
AcDbEntity
  8
SK2
100
AcDbLine
 10
0.0900000000037835
 20
0.0
 30
0.0
 11
-0.0899999999965076
 21
0.0
 31
0.0
  0
LINE
  5
4F0
330
4EC
100
AcDbEntity
  8
SK2
100
AcDbLine
 10
0.0
 20
0.0899999999999182
 30
0.0
 11
0.0
 21
-0.0899999999999182
 31
0.0
  0
LINE
  5
4F1
102
{ACAD_REACTORS
330
4F3
102
}
330
4EC
100
AcDbEntity
  8
SK2
100
AcDbLine
 10
0.0
 20
-2.5
 30
0.0
 11
0.0
 21
2.5
 31
0.0
  0
LINE
  5
4F2
102
{ACAD_REACTORS
330
4F3
102
}
330
4EC
100
AcDbEntity
  8
SK2
100
AcDbLine
 10
2.5
 20
0.0
 30
0.0
 11
-2.5
 21
0.0
 31
0.0
  0
HATCH
  5
4F3
330
4EC
100
AcDbEntity
  8
SK2
100
AcDbHatch
 10
0.0
 20
0.0
 30
0.0
210
0.0
220
0.0
230
1.0
  2
ANSI31
 70
     0
 71
     1
 91
        2
 92
        7
 72
     1
 73
     1
 93
        3
 10
0.0
 20
-2.5
 42
0.4142135623730951
 10
2.5
 20
0.0
 42
0.0
 10
0.0
 20
0.0
 42
0.0
 97
        3
330
4EE
330
4F2
330
4F1
 92
        7
 72
     1
 73
     1
 93
        3
 10
0.0
 20
0.0
 42
0.0
 10
0.0
 20
2.5
 42
0.4142135623730951
 10
-2.5
 20
0.0
 42
0.0
 97
        3
330
4F2
330
4F1
330
4EE
 75
     0
 76
     1
 52
180.0
 41
0.1
 77
     0
 78
     1
 53
225.0
 43
5.170976743218488
 44
0.0
 45
0.2245064030267288
 46
-0.2245064030267289
 79
     0
 47
0.0243816376539857
 98
        2
 10
0.8789156907296272
 20
-1.044463114528752
 10
-0.8545028512526187
 20
0.7841600866017872
  0
ENDBLK
  5
4F4
330
4EC
100
AcDbEntity
  8
0
100
AcDbBlockEnd
  0
BLOCK
  5
4F8
330
4F5
100
AcDbEntity
  8
0
100
AcDbBlockBegin
  2
ISCAR_LOGO
 70
     2
 10
0.0
 20
0.0
 30
0.0
  3
ISCAR_LOGO
  1

  0
LINE
  5
4F9
330
4F5
100
AcDbEntity
  8
SK6
100
AcDbLine
 10
0.0
 20
6.250000000000794
 30
0.0
 11
1.750000000007275
 21
4.499999999999204
 31
0.0
  0
LINE
  5
4FA
330
4F5
100
AcDbEntity
  8
SK6
100
AcDbLine
 10
1.750000000007275
 20
4.499999999999204
 30
0.0
 11
1.750000000007275
 21
6.750000000000341
 31
0.0
  0
LINE
  5
4FB
330
4F5
100
AcDbEntity
  8
SK6
100
AcDbLine
 10
4.000000000007275
 20
4.0
 30
0.0
 11
6.250000000007275
 21
4.0
 31
0.0
  0
LINE
  5
4FC
330
4F5
100
AcDbEntity
  8
SK6
100
AcDbLine
 10
8.500000000003637
 20
4.0
 30
0.0
 11
10.74999999999636
 21
4.0
 31
0.0
  0
LINE
  5
4FD
330
4F5
100
AcDbEntity
  8
SK6
100
AcDbLine
 10
17.49999999997453
 20
4.0
 30
0.0
 11
19.74999999996362
 21
4.0
 31
0.0
  0
LINE
  5
4FE
330
4F5
100
AcDbEntity
  8
SK6
100
AcDbLine
 10
0.0
 20
4.0
 30
0.0
 11
1.750000000007275
 21
4.0
 31
0.0
  0
LINE
  5
4FF
330
4F5
100
AcDbEntity
  8
SK6
100
AcDbLine
 10
15.75000000000727
 20
1.750000000000681
 30
0.0
 11
17.49999999997453
 21
1.750000000000681
 31
0.0
  0
LINE
  5
500
330
4F5
100
AcDbEntity
  8
SK6
100
AcDbLine
 10
15.75000000000727
 20
2.250000000000113
 30
0.0
 11
19.74999999996362
 21
2.250000000000113
 31
0.0
  0
LINE
  5
501
330
4F5
100
AcDbEntity
  8
SK6
100
AcDbLine
 10
15.75000000000727
 20
0.0
 30
0.0
 11
17.49999999997453
 21
0.0
 31
0.0
  0
LINE
  5
502
330
4F5
100
AcDbEntity
  8
SK6
100
AcDbLine
 10
15.24999999997453
 20
0.0
 30
0.0
 11
15.24999999997453
 21
2.250000000000113
 31
0.0
  0
LINE
  5
503
330
4F5
100
AcDbEntity
  8
SK6
100
AcDbLine
 10
11.25000000000727
 20
0.0
 30
0.0
 11
11.25000000000727
 21
2.250000000000113
 31
0.0
  0
LINE
  5
504
330
4F5
100
AcDbEntity
  8
SK6
100
AcDbLine
 10
2.24999999999636
 20
1.750000000000681
 30
0.0
 11
6.250000000007275
 21
1.750000000000681
 31
0.0
  0
ARC
  5
505
330
4F5
100
AcDbEntity
  8
SK6
100
AcDbCircle
 10
4.499999999974534
 20
1.750000000000681
 30
0.0
 40
1.749999999999998
100
AcDbArc
 50
270.0
 51
0.0
  0
LINE
  5
506
330
4F5
100
AcDbEntity
  8
SK6
100
AcDbLine
 10
2.24999999999636
 20
0.0
 30
0.0
 11
4.499999999974534
 21
0.0
 31
0.0
  0
LINE
  5
507
330
4F5
100
AcDbEntity
  8
SK6
100
AcDbLine
 10
2.24999999999636
 20
0.0
 30
0.0
 11
2.24999999999636
 21
1.750000000000681
 31
0.0
  0
LINE
  5
508
330
4F5
100
AcDbEntity
  8
SK6
100
AcDbLine
 10
8.500000000003637
 20
0.0
 30
0.0
 11
10.74999999999636
 21
0.0
 31
0.0
  0
LINE
  5
509
330
4F5
100
AcDbEntity
  8
SK6
100
AcDbLine
 10
6.750000000003637
 20
1.750000000000681
 30
0.0
 11
10.74999999999636
 21
1.750000000000681
 31
0.0
  0
ARC
  5
50A
330
4F5
100
AcDbEntity
  8
SK6
100
AcDbCircle
 10
8.500000000003637
 20
1.750000000000681
 30
0.0
 40
1.749999999999998
100
AcDbArc
 50
180.0
 51
270.0
  0
LINE
  5
50B
330
4F5
100
AcDbEntity
  8
SK6
100
AcDbLine
 10
10.74999999999636
 20
0.0
 30
0.0
 11
10.74999999999636
 21
1.750000000000681
 31
0.0
  0
LINE
  5
50C
330
4F5
100
AcDbEntity
  8
SK6
100
AcDbLine
 10
15.75000000000727
 20
0.0
 30
0.0
 11
15.75000000000727
 21
1.750000000000681
 31
0.0
  0
LINE
  5
50D
330
4F5
100
AcDbEntity
  8
SK6
100
AcDbLine
 10
11.25000000000727
 20
0.0
 30
0.0
 11
12.99999999999272
 21
0.0
 31
0.0
  0
LINE
  5
50E
330
4F5
100
AcDbEntity
  8
SK6
100
AcDbLine
 10
13.4999999999527
 20
0.0
 30
0.0
 11
15.24999999997453
 21
0.0
 31
0.0
  0
LINE
  5
50F
330
4F5
100
AcDbEntity
  8
SK6
100
AcDbLine
 10
2.24999999999636
 20
2.250000000000113
 30
0.0
 11
6.250000000007275
 21
2.250000000000113
 31
0.0
  0
LINE
  5
510
330
4F5
100
AcDbEntity
  8
SK6
100
AcDbLine
 10
6.750000000003637
 20
2.250000000000113
 30
0.0
 11
10.74999999999636
 21
2.250000000000113
 31
0.0
  0
LINE
  5
511
330
4F5
100
AcDbEntity
  8
SK6
100
AcDbLine
 10
17.49999999997453
 20
0.0
 30
0.0
 11
17.49999999997453
 21
1.750000000000681
 31
0.0
  0
LINE
  5
512
330
4F5
100
AcDbEntity
  8
SK6
100
AcDbLine
 10
0.0
 20
0.0
 30
0.0
 11
1.750000000007275
 21
0.0
 31
0.0
  0
ARC
  5
513
330
4F5
100
AcDbEntity
  8
SK6
100
AcDbCircle
 10
17.49999999997453
 20
2.250000000000113
 30
0.0
 40
1.749999999999998
100
AcDbArc
 50
90.0
 51
180.0
  0
LINE
  5
514
330
4F5
100
AcDbEntity
  8
SK6
100
AcDbLine
 10
0.0
 20
0.0
 30
0.0
 11
0.0
 21
4.0
 31
0.0
  0
LINE
  5
515
330
4F5
100
AcDbEntity
  8
SK6
100
AcDbLine
 10
1.750000000007275
 20
0.0
 30
0.0
 11
1.750000000007275
 21
4.0
 31
0.0
  0
LINE
  5
516
330
4F5
100
AcDbEntity
  8
SK6
100
AcDbLine
 10
12.99999999999272
 20
0.0
 30
0.0
 11
12.99999999999272
 21
4.0
 31
0.0
  0
LINE
  5
517
330
4F5
100
AcDbEntity
  8
SK6
100
AcDbLine
 10
13.4999999999527
 20
0.0
 30
0.0
 11
13.4999999999527
 21
4.0
 31
0.0
  0
ARC
  5
518
330
4F5
100
AcDbEntity
  8
SK6
100
AcDbCircle
 10
4.000000000007275
 20
2.250000000000113
 30
0.0
 40
1.749999999999998
100
AcDbArc
 50
90.0
 51
180.0
  0
ARC
  5
519
330
4F5
100
AcDbEntity
  8
SK6
100
AcDbCircle
 10
12.99999999999272
 20
2.250000000000113
 30
0.0
 40
1.749999999999998
100
AcDbArc
 50
90.0
 51
180.0
  0
LINE
  5
51A
330
4F5
100
AcDbEntity
  8
SK6
100
AcDbLine
 10
6.250000000007275
 20
2.250000000000113
 30
0.0
 11
6.250000000007275
 21
4.0
 31
0.0
  0
ARC
  5
51B
330
4F5
100
AcDbEntity
  8
SK6
100
AcDbCircle
 10
8.500000000003637
 20
2.250000000000113
 30
0.0
 40
1.749999999999998
100
AcDbArc
 50
90.0
 51
180.0
  0
LINE
  5
51C
330
4F5
100
AcDbEntity
  8
SK6
100
AcDbLine
 10
10.74999999999636
 20
2.250000000000113
 30
0.0
 11
10.74999999999636
 21
4.0
 31
0.0
  0
ARC
  5
51D
330
4F5
100
AcDbEntity
  8
SK6
100
AcDbCircle
 10
13.4999999999527
 20
2.250000000000113
 30
0.0
 40
1.749999999999998
100
AcDbArc
 50
0.0
 51
90.0
  0
LINE
  5
51E
330
4F5
100
AcDbEntity
  8
SK6
100
AcDbLine
 10
19.74999999996362
 20
2.250000000000113
 30
0.0
 11
19.74999999996362
 21
4.0
 31
0.0
  0
LINE
  5
51F
330
4F5
100
AcDbEntity
  8
SK6
100
AcDbLine
 10
0.0
 20
8.499999999999545
 30
0.0
 11
1.750000000007275
 21
6.750000000000341
 31
0.0
  0
LINE
  5
520
330
4F5
100
AcDbEntity
  8
SK6
100
AcDbLine
 10
0.0
 20
6.250000000000794
 30
0.0
 11
0.0
 21
8.499999999999545
 31
0.0
  0
ATTDEF
  5
521
330
4F5
100
AcDbEntity
  8
SK6
100
AcDbText
 10
4.554821837822013
 20
-4.612942253799472
 30
0.0
 40
2.5
  1
----
 72
     1
 11
9.138155171155347
 21
-4.612942253799472
 31
0.0
100
AcDbAttributeDefinition
  3
NAME OF TOOL?
  2
MM
 70
     0
  0
ATTDEF
  5
522
330
4F5
100
AcDbEntity
  8
SK6
100
AcDbText
 10
9.138155171155347
 20
-8.489844117586358
 30
0.0
 40
2.5
  1

 72
     1
 11
9.138155171155347
 21
-8.489844117586358
 31
0.0
100
AcDbAttributeDefinition
  3

  2
F7
 70
     0
  0
ENDBLK
  5
523
330
4F5
100
AcDbEntity
  8
0
100
AcDbBlockEnd
  0
BLOCK
  5
958
330
957
100
AcDbEntity
  8
0
100
AcDbBlockBegin
  2
*D4
 70
     1
 10
0.0
 20
0.0
 30
0.0
  3
*D4
  1

  0
LINE
  5
99F
330
957
100
AcDbEntity
  8
2
 62
     0
440
 16777216
370
    -2
100
AcDbLine
 10
1.748326275534792
 20
-8.332950994146102
 30
0.0
 11
16.47217425252335
 21
-8.332950994146107
 31
0.0
  0
LINE
  5
9A0
330
957
100
AcDbEntity
  8
2
 62
     0
440
 16777216
370
    -2
100
AcDbLine
 10
0.7707993126454653
 20
-4.498431368942006
 30
0.0
 11
16.47217425252336
 21
-4.498431368942011
 31
0.0
  0
LINE
  5
9A1
330
957
100
AcDbEntity
  8
2
 62
     0
440
 16777216
370
    -2
100
AcDbLine
 10
15.22217425252336
 20
-10.8329509941461
 30
0.0
 11
15.22217425252336
 21
-13.3329509941461
 31
0.0
  0
LINE
  5
9A2
330
957
100
AcDbEntity
  8
2
 62
     0
440
 16777216
370
    -2
100
AcDbLine
 10
15.22217425252336
 20
-1.998431368942011
 30
0.0
 11
15.22217425252336
 21
9.084901964391319
 31
0.0
  0
SOLID
  5
9A3
330
957
100
AcDbEntity
  8
2
 62
     0
440
 16777216
100
AcDbTrace
 10
14.80550758585669
 20
-10.8329509941461
 30
0.0
 11
15.63884091919002
 21
-10.8329509941461
 31
0.0
 12
15.22217425252336
 22
-8.332950994146106
 32
0.0
 13
15.22217425252336
 23
-8.332950994146106
 33
0.0
  0
SOLID
  5
9A4
330
957
100
AcDbEntity
  8
2
 62
     0
440
 16777216
100
AcDbTrace
 10
14.80550758585669
 20
-1.998431368942011
 30
0.0
 11
15.63884091919003
 21
-1.998431368942011
 31
0.0
 12
15.22217425252336
 22
-4.498431368942011
 32
0.0
 13
15.22217425252336
 23
-4.498431368942011
 33
0.0
  0
MTEXT
  5
9A5
330
957
100
AcDbEntity
  8
2
 62
     0
440
 16777216
100
AcDbMText
 10
12.84717425252336
 20
4.793235297724656
 30
0.0
 40
3.5
 41
0.0
 71
     5
 72
     1
  1
3.8
  7
SIMPLEX
 11
0.0000000000000001
 21
1.0
 31
0.0
 73
     1
 44
1.0
  0
POINT
  5
9A6
330
957
100
AcDbEntity
  8
DEFPOINTS
 62
     0
440
 16777216
100
AcDbPoint
 10
1.748326275534792
 20
-8.332950994146102
 30
0.0
  0
POINT
  5
9A7
330
957
100
AcDbEntity
  8
DEFPOINTS
 62
     0
440
 16777216
100
AcDbPoint
 10
0.7707993126454653
 20
-4.498431368942006
 30
0.0
  0
POINT
  5
9A8
330
957
100
AcDbEntity
  8
DEFPOINTS
 62
     0
440
 16777216
100
AcDbPoint
 10
15.22217425252336
 20
-4.498431368942011
 30
0.0
  0
ENDBLK
  5
959
330
957
100
AcDbEntity
  8
0
100
AcDbBlockEnd
  0
BLOCK
  5
965
330
964
100
AcDbEntity
  8
0
100
AcDbBlockBegin
  2
*D5
 70
     1
 10
0.0
 20
0.0
 30
0.0
  3
*D5
  1

  0
LINE
  5
9BD
330
964
100
AcDbEntity
  8
SKVIEW2
 62
     0
440
 16777216
370
    -2
100
AcDbLine
 10
-66.57948789858685
 20
12.63327793156701
 30
0.0
 11
-51.10359745992543
 21
5.013611591723253
 31
0.0
  0
MTEXT
  5
9BE
330
964
100
AcDbEntity
  8
SKVIEW2
 62
     0
440
 16777216
100
AcDbMText
 10
-58.91389951932556
 20
11.50633303507269
 30
0.0
 40
3.5
 41
0.0
 71
     5
 72
     1
  1
D17.7
  7
SIMPLEX
 11
0.8971530689079083
 21
-0.4417197878170298
 31
0.0
 73
     1
 44
1.0
  0
SOLID
  5
9BF
330
964
100
AcDbEntity
  8
SKVIEW2
 62
     0
440
 16777216
100
AcDbTrace
 10
-50.91954754833499
 20
5.387425370434884
 30
0.0
 11
-51.28764737151585
 21
4.639797813011624
 31
0.0
 12
-48.86071478765565
 22
3.909312122180678
 32
0.0
 13
-48.86071478765565
 23
3.909312122180678
 33
0.0
  0
POINT
  5
9C0
330
964
100
AcDbEntity
  8
DEFPOINTS
 62
     0
440
 16777216
100
AcDbPoint
 10
-48.86071478765565
 20
3.909312122180678
 30
0.0
  0
POINT
  5
9C1
330
964
100
AcDbEntity
  8
DEFPOINTS
 62
     0
440
 16777216
100
AcDbPoint
 10
-32.98110546798568
 20
-3.909128122180746
 30
0.0
  0
ENDBLK
  5
966
330
964
100
AcDbEntity
  8
0
100
AcDbBlockEnd
  0
BLOCK
  5
977
330
976
100
AcDbEntity
  8
0
100
AcDbBlockBegin
  2
*D6
 70
     1
 10
0.0
 20
0.0
 30
0.0
  3
*D6
  1

  0
LINE
  5
9A9
330
976
100
AcDbEntity
  8
2
 62
     0
440
 16777216
370
    -2
100
AcDbLine
 10
1.846644539959868
 20
7.522405362564213
 30
0.0
 11
1.846644539959868
 21
16.34319542691486
 31
0.0
  0
LINE
  5
9AA
330
976
100
AcDbEntity
  8
2
 62
     0
440
 16777216
370
    -2
100
AcDbLine
 10
0.639847739059178
 20
7.522398761144201
 30
0.0
 11
0.6398477390591785
 21
16.34319542691486
 31
0.0
  0
LINE
  5
9AB
330
976
100
AcDbEntity
  8
2
 62
     0
440
 16777216
370
    -2
100
AcDbLine
 10
4.346644539959868
 20
15.09319542691486
 30
0.0
 11
6.846644539959867
 21
15.09319542691486
 31
0.0
  0
LINE
  5
9AC
330
976
100
AcDbEntity
  8
2
 62
     0
440
 16777216
370
    -2
100
AcDbLine
 10
-1.860152260940821
 20
15.09319542691486
 30
0.0
 11
-12.27681892760749
 21
15.09319542691486
 31
0.0
  0
SOLID
  5
9AD
330
976
100
AcDbEntity
  8
2
 62
     0
440
 16777216
100
AcDbTrace
 10
4.346644539959868
 20
15.50986209358153
 30
0.0
 11
4.346644539959868
 21
14.67652876024819
 31
0.0
 12
1.846644539959868
 22
15.09319542691486
 32
0.0
 13
1.846644539959868
 23
15.09319542691486
 33
0.0
  0
SOLID
  5
9AE
330
976
100
AcDbEntity
  8
2
 62
     0
440
 16777216
100
AcDbTrace
 10
-1.860152260940821
 20
15.50986209358153
 30
0.0
 11
-1.860152260940821
 21
14.67652876024819
 31
0.0
 12
0.6398477390591784
 22
15.09319542691486
 32
0.0
 13
0.6398477390591784
 23
15.09319542691486
 33
0.0
  0
MTEXT
  5
9AF
330
976
100
AcDbEntity
  8
2
 62
     0
440
 16777216
100
AcDbMText
 10
-8.318485594274156
 20
17.46819542691486
 30
0.0
 40
3.5
 41
0.0
 71
     5
 72
     1
  1
1.2
  7
SIMPLEX
 73
     1
 44
1.0
  0
POINT
  5
9B0
330
976
100
AcDbEntity
  8
DEFPOINTS
 62
     0
440
 16777216
100
AcDbPoint
 10
1.846644539959868
 20
7.522405362564213
 30
0.0
  0
POINT
  5
9B1
330
976
100
AcDbEntity
  8
DEFPOINTS
 62
     0
440
 16777216
100
AcDbPoint
 10
0.639847739059178
 20
7.522398761144201
 30
0.0
  0
POINT
  5
9B2
330
976
100
AcDbEntity
  8
DEFPOINTS
 62
     0
440
 16777216
100
AcDbPoint
 10
0.6398477390591784
 20
15.09319542691486
 30
0.0
  0
ENDBLK
  5
978
330
976
100
AcDbEntity
  8
0
100
AcDbBlockEnd
  0
BLOCK
  5
984
330
983
100
AcDbEntity
  8
0
100
AcDbBlockBegin
  2
*D7
 70
     1
 10
0.0
 20
0.0
 30
0.0
  3
*D7
  1

  0
LINE
  5
9B8
330
983
100
AcDbEntity
  8
2
 62
     0
440
 16777216
370
    -2
100
AcDbLine
 10
-22.88454948539069
 20
11.69672675371068
 30
0.0
 11
-1.821135563841418
 21
7.968233790930423
 31
0.0
  0
MTEXT
  5
9B9
330
983
100
AcDbEntity
  8
2
 62
     0
440
 16777216
100
AcDbMText
 10
-14.88024513167875
 20
12.69178433542436
 30
0.0
 40
3.5
 41
0.0
 71
     5
 72
     1
  1
R0.05
  7
SIMPLEX
 11
0.9846920558858229
 21
-0.1743030552668297
 31
0.0
 73
     1
 44
1.0
  0
SOLID
  5
9BA
330
983
100
AcDbEntity
  8
2
 62
     0
440
 16777216
100
AcDbTrace
 10
-1.748509290813573
 20
8.378522147549517
 30
0.0
 11
-1.893761836869264
 21
7.557945434311331
 31
0.0
 12
0.6405945758731379
 22
7.532476152763351
 32
0.0
 13
0.6405945758731379
 23
7.532476152763351
 33
0.0
  0
POINT
  5
9BB
330
983
100
AcDbEntity
  8
DEFPOINTS
 62
     0
440
 16777216
100
AcDbPoint
 10
0.6405945758731379
 20
7.532476152763351
 30
0.0
  0
POINT
  5
9BC
330
983
100
AcDbEntity
  8
DEFPOINTS
 62
     0
440
 16777216
100
AcDbPoint
 10
0.6898291786672817
 20
7.523761000000035
 30
0.0
  0
ENDBLK
  5
985
330
983
100
AcDbEntity
  8
0
100
AcDbBlockEnd
  0
ENDSEC
  0
SECTION
  2
ENTITIES
  0
LINE
  5
743
330
18
100
AcDbEntity
  8
SKVIEW1
 48
0.001677
100
AcDbLine
 10
-32.07667212782064
 20
-0.1710810000001004
 30
0.0
 11
-32.14118612782068
 21
-0.1526790000000631
 31
0.0
  0
LINE
  5
744
330
18
100
AcDbEntity
  8
SKVIEW1
 48
0.029249
100
AcDbLine
 10
-32.07667212782064
 20
-0.1710810000001004
 30
0.0
 11
-32.25800712782064
 21
-1.32690400000004
 31
0.0
  0
LINE
  5
745
330
18
100
AcDbEntity
  8
SKVIEW1
 48
0.003584
100
AcDbLine
 10
-32.14118612782068
 20
-0.1526790000000631
 30
0.0
 11
-32.28272612782064
 21
-0.1753230000000769
 31
0.0
  0
LINE
  5
746
330
18
100
AcDbEntity
  8
SKVIEW1
 48
0.050999
100
AcDbLine
 10
-32.28272612782064
 20
-0.1753230000000769
 30
0.0
 11
-32.59895012782067
 21
-2.190612000000071
 31
0.0
  0
ARC
  5
747
330
18
100
AcDbEntity
  8
SKVIEW1
100
AcDbCircle
 10
-36.5087401278206
 20
-0.5180660000000615
 30
0.0
 40
4.252524
100
AcDbArc
 50
270.0098530000019
 51
347.0273499999985
  0
ARC
  5
748
330
18
100
AcDbEntity
  8
SKVIEW1
100
AcDbCircle
 10
-32.14161312782074
 20
-1.524109000000095
 30
0.0
 40
0.228981
100
AcDbArc
 50
120.5501340000035
 51
167.0273449999993
  0
LINE
  5
749
330
18
100
AcDbEntity
  8
SKVIEW1
 48
0.037222
100
AcDbLine
 10
-32.28272612782064
 20
-0.1753230000000769
 30
0.0
 11
-33.75294112782068
 21
-0.4103390000001072
 31
0.0
  0
LINE
  5
74A
330
18
100
AcDbEntity
  8
SKVIEW1
 48
0.03681
100
AcDbLine
 10
-39.68983112782064
 20
-3.316559000000069
 30
0.0
 11
-39.91804112782075
 21
-4.771179000000046
 31
0.0
  0
LINE
  5
74B
330
18
100
AcDbEntity
  8
SKVIEW1
 48
0.029712
100
AcDbLine
 10
-38.66175512782071
 20
-3.912872000000078
 30
0.0
 11
-39.68983112782064
 21
-3.316559000000069
 31
0.0
  0
LINE
  5
74C
330
18
100
AcDbEntity
  8
SKVIEW1
 48
0.176355
100
AcDbLine
 10
-38.66175512782071
 20
-3.912872000000078
 30
0.0
 11
-37.15766512782068
 21
2.979125999999921
 31
0.0
  0
LINE
  5
74D
330
18
100
AcDbEntity
  8
SKVIEW1
 48
0.000576
100
AcDbLine
 10
-37.1361811278207
 20
2.987396999999958
 30
0.0
 11
-37.15766512782068
 21
2.979125999999921
 31
0.0
  0
LINE
  5
74E
330
18
100
AcDbEntity
  8
SKVIEW1
 48
0.017347
100
AcDbLine
 10
-37.1361811278207
 20
2.987396999999958
 30
0.0
 11
-36.78913512782072
 21
2.386535999999892
 31
0.0
  0
ARC
  5
74F
330
18
100
AcDbEntity
  8
SKVIEW1
100
AcDbCircle
 10
-40.92091012782065
 20
0.0000919999999667
 30
0.0
 40
4.771443999999998
100
AcDbArc
 50
9.571097999999322
 51
30.01019099999944
  0
POLYLINE
  5
750
330
18
100
AcDbEntity
  8
SKVIEW1
100
AcDb2dPolyline
 66
     1
 10
0.0
 20
0.0
 30
0.0
  0
VERTEX
  5
751
330
750
100
AcDbEntity
  8
SKVIEW1
100
AcDbVertex
100
AcDb2dVertex
 10
-34.46436712782065
 20
-0.2556450000000439
 30
0.0
  0
VERTEX
  5
752
330
750
100
AcDbEntity
  8
SKVIEW1
100
AcDbVertex
100
AcDb2dVertex
 10
-35.05689612782067
 20
-0.1485590000000059
 30
0.0
  0
VERTEX
  5
753
330
750
100
AcDbEntity
  8
SKVIEW1
100
AcDbVertex
100
AcDb2dVertex
 10
-35.57722112782074
 20
0.0480659999999773
 30
0.0
  0
VERTEX
  5
754
330
750
100
AcDbEntity
  8
SKVIEW1
100
AcDbVertex
100
AcDb2dVertex
 10
-35.7949951278207
 20
0.1811829999999475
 30
0.0
  0
VERTEX
  5
755
330
750
100
AcDbEntity
  8
SKVIEW1
100
AcDbVertex
100
AcDb2dVertex
 10
-35.97523112782062
 20
0.3368529999998771
 30
0.0
  0
VERTEX
  5
756
330
750
100
AcDbEntity
  8
SKVIEW1
100
AcDbVertex
100
AcDb2dVertex
 10
-36.13355712782061
 20
0.553191999999939
 30
0.0
  0
VERTEX
  5
757
330
750
100
AcDbEntity
  8
SKVIEW1
100
AcDbVertex
100
AcDb2dVertex
 10
-36.21589312782067
 20
0.7934569999999042
 30
0.0
  0
SEQEND
  5
758
330
750
100
AcDbEntity
  8
SKVIEW1
  0
ARC
  5
759
330
18
100
AcDbEntity
  8
SKVIEW1
100
AcDbCircle
 10
-33.91077812782079
 20
0.5771179999999561
 30
0.0
 40
1.0
100
AcDbArc
 50
236.3843810000015
 51
279.0824139999981
  0
LINE
  5
75A
330
18
100
AcDbEntity
  8
SKVIEW1
 48
0.085251
100
AcDbLine
 10
-39.91804112782075
 20
-4.771179000000046
 30
0.0
 11
-36.50800712782064
 21
-4.770599000000088
 31
0.0
  0
LINE
  5
75B
330
18
100
AcDbEntity
  8
SKVIEW1
 48
0.017348
100
AcDbLine
 10
-40.22620812782075
 20
-4.77124000000006
 30
0.0
 11
-40.92011712782072
 21
-4.771362000000038
 31
0.0
  0
LINE
  5
75C
330
18
100
AcDbEntity
  8
SKVIEW1
 48
0.007704
100
AcDbLine
 10
-40.22620812782075
 20
-4.77124000000006
 30
0.0
 11
-39.91804112782075
 21
-4.771179000000046
 31
0.0
  0
LINE
  5
75D
330
18
100
AcDbEntity
  8
SKVIEW1
 48
0.007703
100
AcDbLine
 10
-37.1361811278207
 20
2.987396999999958
 30
0.0
 11
-37.29029512782075
 21
3.254211999999966
 31
0.0
  0
LINE
  5
75E
330
18
100
AcDbEntity
  8
SKVIEW1
 48
0.085246
100
AcDbLine
 10
-37.29029512782075
 20
3.254211999999966
 30
0.0
 11
-38.99573912782068
 21
6.206908999999967
 31
0.0
  0
LINE
  5
75F
330
18
100
AcDbEntity
  8
SKVIEW1
 48
0.002553
100
AcDbLine
 10
-37.15766512782068
 20
2.979125999999921
 30
0.0
 11
-37.25294112782071
 21
2.942413999999898
 31
0.0
  0
LINE
  5
760
330
18
100
AcDbEntity
  8
SKVIEW1
 48
0.073974
100
AcDbLine
 10
-38.66175512782071
 20
3.913055999999897
 30
0.0
 11
-40.14124712782064
 21
1.350524999999975
 31
0.0
  0
LINE
  5
761
330
18
100
AcDbEntity
  8
SKVIEW1
 48
0.033761
100
AcDbLine
 10
-40.14124712782064
 20
1.350524999999975
 30
0.0
 11
-40.14124712782064
 21
0.0000919999999667
 31
0.0
  0
LINE
  5
762
330
18
100
AcDbEntity
  8
SKVIEW1
 48
0.033761
100
AcDbLine
 10
-40.14124712782064
 20
0.0000919999999667
 30
0.0
 11
-40.14124712782064
 21
-1.350341000000041
 31
0.0
  0
LINE
  5
763
330
18
100
AcDbEntity
  8
SKVIEW1
 48
0.073974
100
AcDbLine
 10
-38.66175512782071
 20
-3.912872000000078
 30
0.0
 11
-40.14124712782064
 21
-1.350341000000041
 31
0.0
  0
ELLIPSE
  5
764
330
18
100
AcDbEntity
  8
SKVIEW1
100
AcDbEllipse
 10
-37.2726561278207
 20
3.256316999999937
 30
0.0
 11
1.38702392578125
 21
0.555908203125
 31
0.0
210
0.0
220
0.0
230
0.9999999999999998
 40
0.200343
 41
3.061004333500825
 42
4.646438969656853
  0
LINE
  5
765
330
18
100
AcDbEntity
  8
SKVIEW1
 48
0.029712
100
AcDbLine
 10
-38.66175512782071
 20
3.913055999999897
 30
0.0
 11
-38.66413512782072
 21
2.724578999999976
 31
0.0
  0
LINE
  5
766
330
18
100
AcDbEntity
  8
SKVIEW1
 48
0.033761
100
AcDbLine
 10
-40.14124712782064
 20
-1.350341000000041
 30
0.0
 11
-41.31074212782072
 21
-0.6751100000000463
 31
0.0
  0
LINE
  5
767
330
18
100
AcDbEntity
  8
SKVIEW1
 48
0.03376
100
AcDbLine
 10
-41.31074212782072
 20
-0.6751100000000463
 30
0.0
 11
-42.4802361278206
 21
0.0000919999999667
 31
0.0
  0
LINE
  5
768
330
18
100
AcDbEntity
  8
SKVIEW1
 48
0.073975
100
AcDbLine
 10
-45.43922112782069
 20
0.0000919999999667
 30
0.0
 11
-42.4802361278206
 21
0.0000919999999667
 31
0.0
  0
LINE
  5
769
330
18
100
AcDbEntity
  8
SKVIEW1
 48
0.176355
100
AcDbLine
 10
-45.43922112782069
 20
0.0000919999999667
 30
0.0
 11
-40.22260712782063
 21
-4.748474000000071
 31
0.0
  0
LINE
  5
76A
330
18
100
AcDbEntity
  8
SKVIEW1
 48
0.002552
100
AcDbLine
 10
-40.22260712782063
 20
-4.748474000000071
 30
0.0
 11
-40.20679912782077
 21
-4.647644000000098
 31
0.0
  0
ELLIPSE
  5
76B
330
18
100
AcDbEntity
  8
SKVIEW1
100
AcDbEllipse
 10
-39.92506012782064
 20
-4.787536000000073
 30
0.0
 11
-0.21209716796875
 21
-1.47918701171875
 31
0.0
210
0.0
220
0.0
230
1.0
 40
0.200343
 41
3.061004333500791
 42
4.646438969656856
  0
ARC
  5
76C
330
18
100
AcDbEntity
  8
SKVIEW1
100
AcDbCircle
 10
-40.92091012782065
 20
0.0000919999999667
 30
0.0
 40
4.771443999999998
100
AcDbArc
 50
249.5694259999994
 51
270.0098530000019
  0
LINE
  5
76D
330
18
100
AcDbEntity
  8
SKVIEW1
 48
0.03681
100
AcDbLine
 10
-44.40876412782063
 20
0.5922549999999376
 30
0.0
 11
-45.5543941278206
 21
1.517211999999943
 31
0.0
  0
LINE
  5
76E
330
18
100
AcDbEntity
  8
SKVIEW1
 48
0.029712
100
AcDbLine
 10
-45.43922112782069
 20
0.0000919999999667
 30
0.0
 11
-44.40876412782063
 21
0.5922549999999376
 31
0.0
  0
LINE
  5
76F
330
18
100
AcDbEntity
  8
SKVIEW1
 48
0.000576
100
AcDbLine
 10
-40.22620812782075
 20
-4.77124000000006
 30
0.0
 11
-40.22260712782063
 21
-4.748474000000071
 31
0.0
  0
POLYLINE
  5
770
330
18
100
AcDbEntity
  8
SKVIEW1
100
AcDb2dPolyline
 66
     1
 10
0.0
 20
0.0
 30
0.0
  0
VERTEX
  5
771
330
770
100
AcDbEntity
  8
SKVIEW1
100
AcDbVertex
100
AcDb2dVertex
 10
-44.31379312782063
 20
-5.437530000000066
 30
0.0
  0
VERTEX
  5
772
330
770
100
AcDbEntity
  8
SKVIEW1
100
AcDbVertex
100
AcDb2dVertex
 10
-43.93421612782072
 20
-4.990936000000061
 30
0.0
  0
VERTEX
  5
773
330
770
100
AcDbEntity
  8
SKVIEW1
100
AcDbVertex
100
AcDb2dVertex
 10
-43.51655212782064
 20
-4.648437000000028
 30
0.0
  0
VERTEX
  5
774
330
770
100
AcDbEntity
  8
SKVIEW1
100
AcDbVertex
100
AcDb2dVertex
 10
-43.29975512782072
 20
-4.529632000000076
 30
0.0
  0
VERTEX
  5
775
330
770
100
AcDbEntity
  8
SKVIEW1
100
AcDbVertex
100
AcDb2dVertex
 10
-43.08265312782078
 20
-4.453277000000041
 30
0.0
  0
VERTEX
  5
776
330
770
100
AcDbEntity
  8
SKVIEW1
100
AcDbVertex
100
AcDb2dVertex
 10
-42.82606112782059
 20
-4.424621000000087
 30
0.0
  0
VERTEX
  5
777
330
770
100
AcDbEntity
  8
SKVIEW1
100
AcDbVertex
100
AcDb2dVertex
 10
-42.58649812782062
 20
-4.471222000000039
 30
0.0
  0
SEQEND
  5
778
330
770
100
AcDbEntity
  8
SKVIEW1
  0
ARC
  5
779
330
18
100
AcDbEntity
  8
SKVIEW1
100
AcDbCircle
 10
-43.92628112782062
 20
-6.359375000000027
 30
0.0
 40
1.0
100
AcDbArc
 50
112.8012980000018
 51
159.0824139999982
  0
LINE
  5
77A
330
18
100
AcDbEntity
  8
SKVIEW1
 48
0.037221
100
AcDbLine
 10
-45.39191812782064
 20
-7.393066000000062
 30
0.0
 11
-44.86036312782073
 21
-6.002350000000062
 31
0.0
  0
LINE
  5
77B
330
18
100
AcDbEntity
  8
SKVIEW1
 48
0.050976
100
AcDbLine
 10
-45.39191812782064
 20
-7.393066000000062
 30
0.0
 11
-46.97840512782067
 21
-6.112121000000088
 31
0.0
  0
ARC
  5
77C
330
18
100
AcDbEntity
  8
SKVIEW1
100
AcDbCircle
 10
-43.57557312782069
 20
-3.561676000000062
 30
0.0
 40
4.252524
100
AcDbArc
 50
150.0101879999997
 51
227.0276639999971
  0
LINE
  5
77D
330
18
100
AcDbEntity
  8
SKVIEW1
 48
0.085245
100
AcDbLine
 10
-45.5543941278206
 20
1.517211999999943
 30
0.0
 11
-47.25874012782059
 21
-1.43606500000007
 31
0.0
  0
LINE
  5
77E
330
18
100
AcDbEntity
  8
SKVIEW1
 48
0.03681
100
AcDbLine
 10
-38.66413512782072
 20
2.724578999999976
 30
0.0
 11
-37.29029512782075
 21
3.254211999999966
 31
0.0
  0
LINE
  5
77F
330
18
100
AcDbEntity
  8
SKVIEW1
 48
0.176356
100
AcDbLine
 10
-38.66175512782071
 20
3.913055999999897
 30
0.0
 11
-45.38245812782075
 21
1.769622999999938
 31
0.0
  0
LINE
  5
780
330
18
100
AcDbEntity
  8
SKVIEW1
 48
0.000575
100
AcDbLine
 10
-45.40034112782073
 20
1.784087999999968
 30
0.0
 11
-45.38245812782075
 21
1.769622999999938
 31
0.0
  0
LINE
  5
781
330
18
100
AcDbEntity
  8
SKVIEW1
 48
0.017347
100
AcDbLine
 10
-45.40034112782073
 20
1.784087999999968
 30
0.0
 11
-45.05353912782072
 21
2.385070999999953
 31
0.0
  0
ARC
  5
782
330
18
100
AcDbEntity
  8
SKVIEW1
100
AcDbCircle
 10
-40.92091012782065
 20
0.0000919999999667
 30
0.0
 40
4.771443999999998
100
AcDbArc
 50
129.5632380000022
 51
150.0101879999997
  0
POLYLINE
  5
783
330
18
100
AcDbEntity
  8
SKVIEW1
100
AcDb2dPolyline
 66
     1
 10
0.0
 20
0.0
 30
0.0
  0
VERTEX
  5
784
330
783
100
AcDbEntity
  8
SKVIEW1
100
AcDbVertex
100
AcDb2dVertex
 10
-43.92762412782078
 20
5.720275999999927
 30
0.0
  0
VERTEX
  5
785
330
783
100
AcDbEntity
  8
SKVIEW1
100
AcDbVertex
100
AcDb2dVertex
 10
-43.7238891278207
 20
5.153533999999949
 30
0.0
  0
VERTEX
  5
786
330
783
100
AcDbEntity
  8
SKVIEW1
100
AcDbVertex
100
AcDb2dVertex
 10
-43.63380112782067
 20
4.604492999999905
 30
0.0
  0
VERTEX
  5
787
330
783
100
AcDbEntity
  8
SKVIEW1
100
AcDbVertex
100
AcDb2dVertex
 10
-43.64014812782068
 20
4.349274000000008
 30
0.0
  0
VERTEX
  5
788
330
783
100
AcDbEntity
  8
SKVIEW1
100
AcDbVertex
100
AcDb2dVertex
 10
-43.68482612782066
 20
4.115295999999971
 30
0.0
  0
VERTEX
  5
789
330
783
100
AcDbEntity
  8
SKVIEW1
100
AcDbVertex
100
AcDb2dVertex
 10
-43.79304112782074
 20
3.869964999999893
 30
0.0
  0
VERTEX
  5
78A
330
783
100
AcDbEntity
  8
SKVIEW1
100
AcDbVertex
100
AcDb2dVertex
 10
-43.9599731278206
 20
3.678497999999904
 30
0.0
  0
SEQEND
  5
78B
330
783
100
AcDbEntity
  8
SKVIEW1
  0
ARC
  5
78C
330
18
100
AcDbEntity
  8
SKVIEW1
100
AcDbCircle
 10
-44.92573212782065
 20
5.782531999999918
 30
0.0
 40
1.0
100
AcDbArc
 50
356.4296050000014
 51
39.08241399999977
  0
LINE
  5
78D
330
18
100
AcDbEntity
  8
SKVIEW1
 48
0.037221
100
AcDbLine
 10
-44.14948712782074
 20
6.412963999999901
 30
0.0
 11
-45.0880851278207
 21
7.568664999999923
 31
0.0
  0
LINE
  5
78E
330
18
100
AcDbEntity
  8
SKVIEW1
 48
0.050977
100
AcDbLine
 10
-45.0880851278207
 20
7.568664999999923
 30
0.0
 11
-43.18549712782065
 21
8.302154999999942
 31
0.0
  0
ARC
  5
78F
330
18
100
AcDbEntity
  8
SKVIEW1
100
AcDbCircle
 10
-42.67817312782063
 20
4.079986999999988
 30
0.0
 40
4.252524
100
AcDbArc
 50
30.01019099999944
 51
107.0276570000026
  0
LINE
  5
790
330
18
100
AcDbEntity
  8
SKVIEW1
 48
0.03376
100
AcDbLine
 10
-42.4802361278206
 20
0.0000919999999667
 30
0.0
 11
-41.31074212782072
 21
0.6752929999999254
 31
0.0
  0
LINE
  5
791
330
18
100
AcDbEntity
  8
SKVIEW1
 48
0.033761
100
AcDbLine
 10
-41.31074212782072
 20
0.6752929999999254
 30
0.0
 11
-40.14124712782064
 21
1.350524999999975
 31
0.0
  0
LINE
  5
792
330
18
100
AcDbEntity
  8
SKVIEW1
 48
0.002552
100
AcDbLine
 10
-45.38245812782075
 20
1.769622999999938
 30
0.0
 11
-45.30305112782069
 21
1.705505999999928
 31
0.0
  0
ELLIPSE
  5
793
330
18
100
AcDbEntity
  8
SKVIEW1
100
AcDbEllipse
 10
-45.56501412782063
 20
1.531463999999941
 30
0.0
 11
-1.17498779296875
 21
0.923248291015625
 31
0.0
210
0.0
220
0.0
230
1.0
 40
0.200343
 41
3.061004333500691
 42
4.646438969656846
  0
ARC
  5
794
330
18
100
AcDbEntity
  8
SKVIEW1
100
AcDbCircle
 10
-116.0217401278206
 20
-0.8178400000000749
 30
0.0
 40
75.887468
100
AcDbArc
 50
0.9378359999992916
 51
1.607504999998905
  0
LINE
  5
795
330
18
100
AcDbEntity
  8
SKVIEW1
 48
0.010591
100
AcDbLine
 10
-40.14124712782064
 20
0.0006109999999069
 30
0.0
 11
-40.14448212782063
 21
0.4242559999999287
 31
0.0
  0
LINE
  5
796
330
18
100
AcDbEntity
  8
SKVIEW1
 48
0.001142
100
AcDbLine
 10
-40.14124712782064
 20
1.350524999999975
 30
0.0
 11
-40.16407412782075
 21
1.310973999999959
 31
0.0
  0
ARC
  5
797
330
18
100
AcDbEntity
  8
SKVIEW1
100
AcDbCircle
 10
-89.77082512782066
 20
0.2301029999999002
 30
0.0
 40
49.63038499999999
100
AcDbArc
 50
358.2208279999993
 51
359.733862
  0
LINE
  5
798
330
18
100
AcDbEntity
  8
SKVIEW1
 48
0.001142
100
AcDbLine
 10
-40.14124712782064
 20
-1.350341000000041
 30
0.0
 11
-40.16407412782075
 21
-1.310791000000079
 31
0.0
  0
ARC
  5
799
330
18
100
AcDbEntity
  8
SKVIEW1
100
AcDbCircle
 10
-16.70545612782064
 20
42.40161199999994
 30
0.0
 40
49.608994
100
AcDbArc
 50
240.2651449999969
 51
241.7794390000012
  0
LINE
  5
79A
330
18
100
AcDbEntity
  8
SKVIEW1
 48
0.011815
100
AcDbLine
 10
-41.71802912782072
 20
-0.4353630000000807
 30
0.0
 11
-41.31074212782072
 21
-0.6751100000000463
 31
0.0
  0
ARC
  5
79B
330
18
100
AcDbEntity
  8
SKVIEW1
100
AcDbCircle
 10
-0.5350461278206922
 20
68.12130799999998
 30
0.0
 40
79.97539599999997
100
AcDbArc
 50
238.4054209999998
 51
239.0061489999964
  0
LINE
  5
79C
330
18
100
AcDbEntity
  8
SKVIEW1
 48
0.001141
100
AcDbLine
 10
-42.4802361278206
 20
0.0000919999999667
 30
0.0
 11
-42.43458212782059
 21
0.0000919999999667
 31
0.0
  0
LINE
  5
79D
330
18
100
AcDbEntity
  8
SKVIEW1
 48
0.007704
100
AcDbLine
 10
-45.40034112782073
 20
1.784087999999968
 30
0.0
 11
-45.5543941278206
 21
1.517211999999943
 31
0.0
  0
LINE
  5
79E
330
18
100
AcDbEntity
  8
SKVIEW1
 48
0.003584
100
AcDbLine
 10
-45.44306612782078
 20
-7.52700800000005
 30
0.0
 11
-45.39191812782064
 21
-7.393066000000062
 31
0.0
  0
ARC
  5
79F
330
18
100
AcDbEntity
  8
SKVIEW1
100
AcDbCircle
 10
-46.63056612782077
 20
-6.840881000000052
 30
0.0
 40
0.229202
100
AcDbArc
 50
0.5046210000015665
 51
47.02765900000019
  0
LINE
  5
7A0
330
18
100
AcDbEntity
  8
SKVIEW1
 48
0.029241
100
AcDbLine
 10
-45.49128412782066
 20
-7.573669000000079
 30
0.0
 11
-46.40131812782064
 21
-6.838867000000077
 31
0.0
  0
LINE
  5
7A1
330
18
100
AcDbEntity
  8
SKVIEW1
 48
0.001677
100
AcDbLine
 10
-45.49128412782066
 20
-7.573669000000079
 30
0.0
 11
-45.44306612782078
 21
-7.52700800000005
 31
0.0
  0
LINE
  5
7A2
330
18
100
AcDbEntity
  8
SKVIEW1
 48
0.003585
100
AcDbLine
 10
-45.17847812782075
 20
7.679961999999959
 30
0.0
 11
-45.0880851278207
 21
7.568664999999923
 31
0.0
  0
ARC
  5
7A3
330
18
100
AcDbEntity
  8
SKVIEW1
100
AcDbCircle
 10
-43.99055112782071
 20
8.36526499999988
 30
0.0
 40
0.229202
100
AcDbArc
 50
240.5046250000003
 51
287.0276590000031
  0
LINE
  5
7A4
330
18
100
AcDbEntity
  8
SKVIEW1
 48
0.029242
100
AcDbLine
 10
-45.19477512782064
 20
7.74502599999991
 30
0.0
 11
-44.10340512782065
 21
8.165771999999916
 31
0.0
  0
LINE
  5
7A5
330
18
100
AcDbEntity
  8
SKVIEW1
 48
0.001677
100
AcDbLine
 10
-45.19477512782064
 20
7.74502599999991
 30
0.0
 11
-45.17847812782075
 21
7.679961999999959
 31
0.0
  0
ARC
  5
7A6
330
18
100
AcDbEntity
  8
SKVIEW1
100
AcDbCircle
 10
-16.29676512782066
 20
-42.1901550000001
 30
0.0
 40
49.630386
100
AcDbArc
 50
120.2661350000001
 51
121.7791720000019
  0
ARC
  5
7A7
330
18
100
AcDbEntity
  8
SKVIEW1
100
AcDbCircle
 10
-16.69514112782075
 20
-42.42016600000007
 30
0.0
 40
49.630386
100
AcDbArc
 50
118.2208349999992
 51
119.7338579999986
  0
CIRCLE
  5
7A8
330
18
100
AcDbEntity
  8
SKVIEW1
100
AcDbCircle
 10
-40.92091012782065
 20
0.0000919999999667
 30
0.0
 40
0.779669
  0
CIRCLE
  5
7A9
330
18
100
AcDbEntity
  8
SKVIEW1
100
AcDbCircle
 10
-40.92091012782065
 20
0.0000919999999667
 30
0.0
 40
0.675812
  0
CIRCLE
  5
7AA
330
18
100
AcDbEntity
  8
SKVIEW1
100
AcDbCircle
 10
-40.92091012782065
 20
0.0000919999999667
 30
0.0
 40
0.268949
  0
ARC
  5
7AB
330
18
100
AcDbEntity
  8
1
100
AcDbCircle
 10
0.8312979999964227
 20
-0.3743589999999841
 30
0.0
 40
0.5453540000000002
100
AcDbArc
 50
88.85808500000264
 51
104.7228189999968
  0
LINE
  5
7AC
330
18
100
AcDbEntity
  8
1
 48
0.027524
100
AcDbLine
 10
1.793700999996303
 20
0.1527710000000155
 30
0.0
 11
0.6927489999962974
 21
0.1527710000000155
 31
0.0
  0
ARC
  5
7AD
330
18
100
AcDbEntity
  8
1
100
AcDbCircle
 10
1.655211999996366
 20
-0.3743899999999627
 30
0.0
 40
0.545384
100
AcDbArc
 50
75.27747700000119
 51
91.14140399999685
  0
LINE
  5
7AE
330
18
100
AcDbEntity
  8
1
 48
0.020055
100
AcDbLine
 10
0.8421629999962759
 20
0.1711730000000529
 30
0.0
 11
1.644347999996398
 21
0.1711730000000529
 31
0.0
  0
LINE
  5
7AF
330
18
100
AcDbEntity
  8
1
 48
0.017902
100
AcDbLine
 10
0.8851919999963229
 20
1.326995999999994
 30
0.0
 11
1.601256999996393
 21
1.326995999999994
 31
0.0
  0
ELLIPSE
  5
7B0
330
18
100
AcDbEntity
  8
1
100
AcDbEllipse
 10
1.643004999996264
 20
0.1749270000000678
 30
0.0
 11
-0.20013427734375
 21
0.000396728515625
 31
0.0
210
0.0
220
0.0
230
1.0
 40
0.165842
 41
2.423512012111615
 42
3.168515096351922
  0
POLYLINE
  5
7B1
330
18
100
AcDbEntity
  8
1
100
AcDb2dPolyline
 66
     1
 10
0.0
 20
0.0
 30
0.0
  0
VERTEX
  5
7B2
330
7B1
100
AcDbEntity
  8
1
100
AcDbVertex
100
AcDb2dVertex
 10
1.757567999996354
 20
1.472809000000026
 30
0.0
  0
VERTEX
  5
7B3
330
7B1
100
AcDbEntity
  8
1
100
AcDbVertex
100
AcDb2dVertex
 10
1.770079999996254
 20
1.943695000000032
 30
0.0
  0
VERTEX
  5
7B4
330
7B1
100
AcDbEntity
  8
1
100
AcDbVertex
100
AcDb2dVertex
 10
1.768675999996276
 20
2.175263000000014
 30
0.0
  0
SEQEND
  5
7B5
330
7B1
100
AcDbEntity
  8
1
  0
LINE
  5
7B6
330
18
100
AcDbEntity
  8
1
 48
0.000386
100
AcDbLine
 10
1.768675999996276
 20
2.175263000000014
 30
0.0
 11
1.768065999996338
 21
2.190704000000025
 31
0.0
  0
POLYLINE
  5
7B7
330
18
100
AcDbEntity
  8
1
100
AcDb2dPolyline
 66
     1
 10
0.0
 20
0.0
 30
0.0
  0
VERTEX
  5
7B8
330
7B7
100
AcDbEntity
  8
1
100
AcDbVertex
100
AcDb2dVertex
 10
1.601256999996393
 20
1.326995999999994
 30
0.0
  0
VERTEX
  5
7B9
330
7B7
100
AcDbEntity
  8
1
100
AcDbVertex
100
AcDb2dVertex
 10
1.654723999996349
 20
1.332091999999974
 30
0.0
  0
VERTEX
  5
7BA
330
7B7
100
AcDbEntity
  8
1
100
AcDbVertex
100
AcDb2dVertex
 10
1.713683999996304
 20
1.357636000000056
 30
0.0
  0
VERTEX
  5
7BB
330
7B7
100
AcDbEntity
  8
1
100
AcDbVertex
100
AcDb2dVertex
 10
1.747618999996348
 20
1.407867999999993
 30
0.0
  0
VERTEX
  5
7BC
330
7B7
100
AcDbEntity
  8
1
100
AcDbVertex
100
AcDb2dVertex
 10
1.757567999996354
 20
1.472809000000026
 30
0.0
  0
SEQEND
  5
7BD
330
7B7
100
AcDbEntity
  8
1
  0
POLYLINE
  5
7BE
330
18
100
AcDbEntity
  8
1
100
AcDb2dPolyline
 66
     1
 10
0.0
 20
0.0
 30
0.0
  0
VERTEX
  5
7BF
330
7BE
100
AcDbEntity
  8
1
100
AcDbVertex
100
AcDb2dVertex
 10
0.6927489999962974
 20
0.1527710000000155
 30
0.0
  0
VERTEX
  5
7C0
330
7BE
100
AcDbEntity
  8
1
100
AcDbVertex
100
AcDb2dVertex
 10
0.6514889999963316
 20
0.1651610000000545
 30
0.0
  0
VERTEX
  5
7C1
330
7BE
100
AcDbEntity
  8
1
100
AcDbVertex
100
AcDb2dVertex
 10
0.6454459999963547
 20
0.1696780000000189
 30
0.0
  0
VERTEX
  5
7C2
330
7BE
100
AcDbEntity
  8
1
100
AcDbVertex
100
AcDb2dVertex
 10
0.6438589999962688
 20
0.1719669999999809
 30
0.0
  0
VERTEX
  5
7C3
330
7BE
100
AcDbEntity
  8
1
100
AcDbVertex
100
AcDb2dVertex
 10
0.6433709999963641
 20
0.1754150000000294
 30
0.0
  0
SEQEND
  5
7C4
330
7BE
100
AcDbEntity
  8
1
  0
POLYLINE
  5
7C5
330
18
100
AcDbEntity
  8
1
100
AcDb2dPolyline
 66
     1
 10
0.0
 20
0.0
 30
0.0
  0
VERTEX
  5
7C6
330
7C5
100
AcDbEntity
  8
1
100
AcDbVertex
100
AcDb2dVertex
 10
0.8851919999963229
 20
1.326995999999994
 30
0.0
  0
VERTEX
  5
7C7
330
7C5
100
AcDbEntity
  8
1
100
AcDbVertex
100
AcDb2dVertex
 10
0.852477999996381
 20
1.328826999999975
 30
0.0
  0
VERTEX
  5
7C8
330
7C5
100
AcDbEntity
  8
1
100
AcDbVertex
100
AcDb2dVertex
 10
0.7728269999963687
 20
1.357574999999981
 30
0.0
  0
VERTEX
  5
7C9
330
7C5
100
AcDbEntity
  8
1
100
AcDbVertex
100
AcDb2dVertex
 10
0.7377309999964155
 20
1.41140799999998
 30
0.0
  0
VERTEX
  5
7CA
330
7C5
100
AcDbEntity
  8
1
100
AcDbVertex
100
AcDb2dVertex
 10
0.728941999996323
 20
1.472809000000026
 30
0.0
  0
SEQEND
  5
7CB
330
7C5
100
AcDbEntity
  8
1
  0
POLYLINE
  5
7CC
330
18
100
AcDbEntity
  8
1
100
AcDb2dPolyline
 66
     1
 10
0.0
 20
0.0
 30
0.0
  0
VERTEX
  5
7CD
330
7CC
100
AcDbEntity
  8
1
100
AcDbVertex
100
AcDb2dVertex
 10
0.728941999996323
 20
1.472809000000026
 30
0.0
  0
VERTEX
  5
7CE
330
7CC
100
AcDbEntity
  8
1
100
AcDbVertex
100
AcDb2dVertex
 10
0.7164299999963079
 20
1.943360000000025
 30
0.0
  0
VERTEX
  5
7CF
330
7CC
100
AcDbEntity
  8
1
100
AcDbVertex
100
AcDb2dVertex
 10
0.7178339999962873
 20
2.175263000000014
 30
0.0
  0
SEQEND
  5
7D0
330
7CC
100
AcDbEntity
  8
1
  0
LINE
  5
7D1
330
18
100
AcDbEntity
  8
1
 48
0.00039
100
AcDbLine
 10
0.7178339999962873
 20
2.175263000000014
 30
0.0
 11
0.7185049999962985
 21
2.190857000000035
 31
0.0
  0
LINE
  5
7D2
330
18
100
AcDbEntity
  8
1
 48
0.015025
100
AcDbLine
 10
1.852965999996399
 20
-2.987305000000006
 30
0.0
 11
1.83947699999635
 21
-2.386443999999939
 31
0.0
  0
ARC
  5
7D3
330
18
100
AcDbEntity
  8
1
100
AcDbCircle
 10
-193.6135260000036
 20
-6.837279999999964
 30
0.0
 40
195.503719
100
AcDbArc
 50
1.304505999999324
 51
1.771554999999727
  0
ARC
  5
7D4
330
18
100
AcDbEntity
  8
1
100
AcDbCircle
 10
17.73071199999629
 20
-0.1464540000000198
 30
0.0
 40
15.946164
100
AcDbArc
 50
178.9245789999986
 51
182.3248699999991
  0
POLYLINE
  5
7D5
330
18
100
AcDbEntity
  8
1
100
AcDb2dPolyline
 66
     1
 10
0.0
 20
0.0
 30
0.0
  0
VERTEX
  5
7D6
330
7D5
100
AcDbEntity
  8
1
100
AcDbVertex
100
AcDb2dVertex
 10
1.601256999996393
 20
4.770691000000041
 30
0.0
  0
VERTEX
  5
7D7
330
7D5
100
AcDbEntity
  8
1
100
AcDbVertex
100
AcDb2dVertex
 10
1.602904999996326
 20
4.769897999999996
 30
0.0
  0
VERTEX
  5
7D8
330
7D5
100
AcDbEntity
  8
1
100
AcDbVertex
100
AcDb2dVertex
 10
1.604063999996241
 20
4.768523999999998
 30
0.0
  0
VERTEX
  5
7D9
330
7D5
100
AcDbEntity
  8
1
100
AcDbVertex
100
AcDb2dVertex
 10
1.606383999996295
 20
4.763703000000005
 30
0.0
  0
VERTEX
  5
7DA
330
7D5
100
AcDbEntity
  8
1
100
AcDbVertex
100
AcDb2dVertex
 10
1.617979999996349
 20
4.708405000000012
 30
0.0
  0
VERTEX
  5
7DB
330
7D5
100
AcDbEntity
  8
1
100
AcDbVertex
100
AcDb2dVertex
 10
1.660826999996402
 20
4.240051000000036
 30
0.0
  0
VERTEX
  5
7DC
330
7D5
100
AcDbEntity
  8
1
100
AcDbVertex
100
AcDb2dVertex
 10
1.768065999996338
 20
2.190704000000025
 30
0.0
  0
SEQEND
  5
7DD
330
7D5
100
AcDbEntity
  8
1
  0
LINE
  5
7DE
330
18
100
AcDbEntity
  8
1
 48
0.00172
100
AcDbLine
 10
1.53246999999635
 20
4.771270999999997
 30
0.0
 11
1.601256999996393
 21
4.770691000000041
 31
0.0
  0
LINE
  5
7DF
330
18
100
AcDbEntity
  8
1
 48
0.000101
100
AcDbLine
 10
0.8808589999963485
 20
4.770691000000041
 30
0.0
 11
0.8848869999962969
 21
4.770415999999997
 31
0.0
  0
POLYLINE
  5
7E0
330
18
100
AcDbEntity
  8
1
100
AcDb2dPolyline
 66
     1
 10
0.0
 20
0.0
 30
0.0
  0
VERTEX
  5
7E1
330
7E0
100
AcDbEntity
  8
1
100
AcDbVertex
100
AcDb2dVertex
 10
0.8848259999963373
 20
4.770294000000021
 30
0.0
  0
VERTEX
  5
7E2
330
7E0
100
AcDbEntity
  8
1
100
AcDbVertex
100
AcDb2dVertex
 10
0.884032999996293
 20
4.769653000000046
 30
0.0
  0
VERTEX
  5
7E3
330
7E0
100
AcDbEntity
  8
1
100
AcDbVertex
100
AcDb2dVertex
 10
0.8823849999962476
 20
4.767304000000009
 30
0.0
  0
VERTEX
  5
7E4
330
7E0
100
AcDbEntity
  8
1
100
AcDbVertex
100
AcDb2dVertex
 10
0.8773189999964188
 20
4.752380999999998
 30
0.0
  0
VERTEX
  5
7E5
330
7E0
100
AcDbEntity
  8
1
100
AcDbVertex
100
AcDb2dVertex
 10
0.8599849999962998
 20
4.637909000000021
 30
0.0
  0
SEQEND
  5
7E6
330
7E0
100
AcDbEntity
  8
1
  0
LINE
  5
7E7
330
18
100
AcDbEntity
  8
1
 48
0.006229
100
AcDbLine
 10
0.8599849999962998
 20
4.388732999999986
 30
0.0
 11
0.8599849999962998
 21
4.637909000000021
 31
0.0
  0
ARC
  5
7E8
330
18
100
AcDbEntity
  8
1
100
AcDbCircle
 10
0.7746579999962933
 20
4.394623000000009
 30
0.0
 40
0.085815
100
AcDbArc
 50
312.3420459999995
 51
356.063575999999
  0
ARC
  5
7E9
330
18
100
AcDbEntity
  8
1
100
AcDbCircle
 10
77.51101599999635
 20
-0.7823790000000203
 30
0.0
 40
76.84938299999998
100
AcDbArc
 50
176.1848449999997
 51
177.7827430000012
  0
LINE
  5
7EA
330
18
100
AcDbEntity
  8
1
 48
0.000522
100
AcDbLine
 10
0.8599849999962998
 20
4.770691000000041
 30
0.0
 11
0.8808589999963485
 21
4.770691000000041
 31
0.0
  0
LINE
  5
7EB
330
18
100
AcDbEntity
  8
1
 48
0.024487
100
AcDbLine
 10
1.83947699999635
 20
4.771453999999991
 30
0.0
 11
0.8599849999962998
 21
4.771453999999991
 31
0.0
  0
LINE
  5
7EC
330
18
100
AcDbEntity
  8
1
 48
0.000337
100
AcDbLine
 10
1.852965999996399
 20
4.771332000000015
 30
0.0
 11
1.83947699999635
 21
4.771453999999991
 31
0.0
  0
LINE
  5
7ED
330
18
100
AcDbEntity
  8
1
 48
0.000552
100
AcDbLine
 10
1.852965999996399
 20
4.771332000000015
 30
0.0
 11
1.830870999996362
 21
4.771332000000015
 31
0.0
  0
LINE
  5
7EE
330
18
100
AcDbEntity
  8
1
 48
0.00746
100
AcDbLine
 10
1.830870999996362
 20
4.771332000000015
 30
0.0
 11
1.53246999999635
 21
4.771270999999997
 31
0.0
  0
LINE
  5
7EF
330
18
100
AcDbEntity
  8
1
 48
0.023653
100
AcDbLine
 10
0.8599849999962998
 20
0.1527710000000155
 30
0.0
 11
0.8599849999962998
 21
-0.7933649999999517
 31
0.0
  0
LINE
  5
7F0
330
18
100
AcDbEntity
  8
1
 48
0.039827
100
AcDbLine
 10
0.8599849999962998
 20
-2.386443999999939
 30
0.0
 11
0.8599849999962998
 21
-0.7933649999999517
 31
0.0
  0
ARC
  5
7F1
330
18
100
AcDbEntity
  8
1
100
AcDbCircle
 10
0.6469109999964076
 20
-6.25167800000004
 30
0.0
 40
0.238151
100
AcDbArc
 50
10.85271500000058
 51
26.53764299999987
  0
LINE
  5
7F2
330
18
100
AcDbEntity
  8
1
 48
0.09397
100
AcDbLine
 10
0.8599849999962998
 20
-2.386443999999939
 30
0.0
 11
0.8599849999962998
 21
-6.145263999999953
 31
0.0
  0
LINE
  5
7F3
330
18
100
AcDbEntity
  8
1
 48
0.000552
100
AcDbLine
 10
1.852965999996399
 20
-2.987305000000006
 30
0.0
 11
1.830870999996362
 21
-2.987305000000006
 31
0.0
  0
ELLIPSE
  5
7F4
330
18
100
AcDbEntity
  8
1
100
AcDbEllipse
 10
1.832579999996254
 20
-3.250275000000001
 30
0.0
 11
-0.3001708984375
 21
0.00653076171875
 31
0.0
210
0.0
220
0.0
230
1.0
 40
0.8758379999999997
 41
4.737195374179491
 42
6.213094043073753
  0
LINE
  5
7F5
330
18
100
AcDbEntity
  8
1
 48
0.000719
100
AcDbLine
 10
1.533568999996418
 20
-3.225371999999949
 30
0.0
 11
1.53246999999635
 21
-3.254120000000013
 31
0.0
  0
LINE
  5
7F6
330
18
100
AcDbEntity
  8
1
 48
0.073837
100
AcDbLine
 10
1.53246999999635
 20
-3.254120000000013
 30
0.0
 11
1.601256999996393
 21
-6.206817000000014
 31
0.0
  0
LINE
  5
7F7
330
18
100
AcDbEntity
  8
1
 48
0.020371
100
AcDbLine
 10
1.587035999996373
 20
-3.912963999999944
 30
0.0
 11
1.586729999996349
 21
-3.098113999999966
 31
0.0
  0
LINE
  5
7F8
330
18
100
AcDbEntity
  8
1
 48
0.049244
100
AcDbLine
 10
1.742430999996371
 20
2.781860000000036
 30
0.0
 11
1.852232999996316
 21
4.748566000000026
 31
0.0
  0
LINE
  5
7F9
330
18
100
AcDbEntity
  8
1
 48
0.002555
100
AcDbLine
 10
1.852232999996316
 20
4.748566000000026
 30
0.0
 11
1.8354489999964
 21
4.64773600000005
 31
0.0
  0
ARC
  5
7FA
330
18
100
AcDbEntity
  8
1
100
AcDbCircle
 10
-61.47595300000364
 20
15.13568100000002
 30
0.0
 40
64.174171
100
AcDbArc
 50
349.8180369999993
 51
350.5940009999997
  0
LINE
  5
7FB
330
18
100
AcDbEntity
  8
1
 48
0.003319
100
AcDbLine
 10
0.8599849999962998
 20
4.637940000000056
 30
0.0
 11
0.8599849999962998
 21
4.770691000000041
 31
0.0
  0
LINE
  5
7FC
330
18
100
AcDbEntity
  8
1
 48
0.022693
100
AcDbLine
 10
0.8599849999962998
 20
-7.052978000000009
 30
0.0
 11
0.8599849999962998
 21
-6.145263999999953
 31
0.0
  0
LINE
  5
7FD
330
18
100
AcDbEntity
  8
1
 48
0.012071
100
AcDbLine
 10
0.8599849999962998
 20
5.252533000000012
 30
0.0
 11
0.8599849999962998
 21
4.769684000000026
 31
0.0
  0
LINE
  5
7FE
330
18
100
AcDbEntity
  8
1
 48
0.012195
100
AcDbLine
 10
0.8599849999962998
 20
-7.540771000000018
 30
0.0
 11
0.8599849999962998
 21
-7.052978000000009
 31
0.0
  0
LINE
  5
7FF
330
18
100
AcDbEntity
  8
1
 48
0.000569
100
AcDbLine
 10
1.852965999996399
 20
4.771332000000015
 30
0.0
 11
1.852232999996316
 21
4.748566000000026
 31
0.0
  0
LINE
  5
800
330
18
100
AcDbEntity
  8
1
 48
0.016656
100
AcDbLine
 10
1.796568999996338
 20
5.437622000000018
 30
0.0
 11
1.785704999996254
 21
4.771453999999991
 31
0.0
  0
ARC
  5
801
330
18
100
AcDbEntity
  8
1
100
AcDbCircle
 10
19.91644199999632
 20
5.416229000000028
 30
0.0
 40
18.120218
100
AcDbArc
 50
178.1460469999999
 51
179.9323190000011
  0
LINE
  5
802
102
{ACAD_REACTORS
330
948
102
}
330
18
100
AcDbEntity
  8
1
 48
0.034781
100
AcDbLine
 10
1.846644539959868
 20
7.522405362564213
 30
0.0
 11
1.805418999996389
 21
6.002442000000016
 31
0.0
  0
ARC
  5
803
330
18
100
AcDbEntity
  8
1
 48
0.034781
100
AcDbCircle
 10
1.796662920867021
 20
7.523761000000021
 30
0.0
 40
0.05
100
AcDbArc
 50
358.446363541248
 51
89.99999999999836
  0
LINE
  5
804
330
18
100
AcDbEntity
  8
1
 48
0.000498
100
AcDbLine
 10
0.8807979999963889
 20
-6.206817000000014
 30
0.0
 11
0.8836659999963103
 21
-6.226532000000034
 31
0.0
  0
LINE
  5
805
330
18
100
AcDbEntity
  8
1
 48
0.000719
100
AcDbLine
 10
0.8836659999963103
 20
-6.226532000000034
 30
0.0
 11
0.8848259999963373
 21
-6.255278999999986
 31
0.0
  0
LINE
  5
806
330
18
100
AcDbEntity
  8
1
 48
0.022634
100
AcDbLine
 10
1.587035999996373
 20
-3.912963999999944
 30
0.0
 11
1.698241999996297
 21
-3.01446499999993
 31
0.0
  0
LINE
  5
807
330
18
100
AcDbEntity
  8
1
 48
0.004739
100
AcDbLine
 10
1.828978999996365
 20
-1.957641000000037
 30
0.0
 11
1.852232999996316
 21
-1.769530999999985
 31
0.0
  0
LINE
  5
808
330
18
100
AcDbEntity
  8
1
 48
0.000362
100
AcDbLine
 10
1.852965999996399
 20
-1.783996000000015
 30
0.0
 11
1.852232999996316
 21
-1.769530999999985
 31
0.0
  0
LINE
  5
809
330
18
100
AcDbEntity
  8
1
 48
0.015028
100
AcDbLine
 10
1.852965999996399
 20
-1.783996000000015
 30
0.0
 11
1.83947699999635
 21
-2.384979
 31
0.0
  0
ARC
  5
80A
330
18
100
AcDbEntity
  8
1
100
AcDbCircle
 10
-41.58068900000364
 20
-1.661133000000019
 30
0.0
 40
43.424331
100
AcDbArc
 50
357.3373649999995
 51
358.2501520000004
  0
POLYLINE
  5
80B
330
18
100
AcDbEntity
  8
1
100
AcDb2dPolyline
 66
     1
 10
0.0
 20
0.0
 30
0.0
  0
VERTEX
  5
80C
330
80B
100
AcDbEntity
  8
1
100
AcDbVertex
100
AcDb2dVertex
 10
1.785956566796897
 20
-4.498431368942006
 30
0.0
  0
VERTEX
  5
80D
330
80B
100
AcDbEntity
  8
1
100
AcDbVertex
100
AcDb2dVertex
 10
1.784483999996268
 20
-4.325928000000047
 30
0.0
  0
VERTEX
  5
80E
330
80B
100
AcDbEntity
  8
1
100
AcDbVertex
100
AcDb2dVertex
 10
1.796751999996331
 20
-3.678405999999951
 30
0.0
  0
SEQEND
  5
80F
330
80B
100
AcDbEntity
  8
1
  0
POLYLINE
  5
810
330
18
100
AcDbEntity
  8
1
100
AcDb2dPolyline
 66
     1
 10
0.0
 20
0.0
 30
0.0
  0
VERTEX
  5
811
330
810
100
AcDbEntity
  8
1
100
AcDbVertex
100
AcDb2dVertex
 10
1.796385999996345
 20
-5.720183999999973
 30
0.0
  0
VERTEX
  5
812
330
810
100
AcDbEntity
  8
1
100
AcDbVertex
100
AcDb2dVertex
 10
1.785956566796897
 20
-4.498431368942006
 30
0.0
  0
SEQEND
  5
813
330
810
100
AcDbEntity
  8
1
  0
ARC
  5
814
330
18
100
AcDbEntity
  8
1
100
AcDbCircle
 10
22.84582499999635
 20
-5.796783000000019
 30
0.0
 40
21.049528
100
AcDbArc
 50
179.7914320000004
 51
181.6772089999984
  0
LINE
  5
815
330
18
100
AcDbEntity
  8
1
 48
0.028908
100
AcDbLine
 10
1.805418999996389
 20
-6.412871999999949
 30
0.0
 11
1.843138999996313
 21
-7.568572999999972
 31
0.0
  0
ELLIPSE
  5
816
330
18
100
AcDbEntity
  8
1
100
AcDbEllipse
 10
1.746153999996294
 20
-4.079650999999969
 30
0.0
 11
-0.0018310546874995
 21
4.252777099609375
 31
0.0
210
0.0
220
0.0
230
1.0
 40
0.039599
 41
2.094589771555213
 42
3.141581075615532
  0
ARC
  5
817
330
18
100
AcDbEntity
  8
1
100
AcDbCircle
 10
1.727965999996399
 20
-8.299042
 30
0.0
 40
0.039552
100
AcDbArc
 50
300.9822389999966
 51
355.6957969999996
  0
ARC
  5
818
330
18
100
AcDbEntity
  8
1
100
AcDbCircle
 10
-52.29492200000367
 20
-5.003905999999986
 30
0.0
 40
53.19441199999999
100
AcDbArc
 50
357.7923919999987
 51
358.6520399999998
  0
ARC
  5
819
330
18
100
AcDbEntity
  8
1
100
AcDbCircle
 10
0.7346799999962741
 20
-7.538909999999942
 30
0.0
 40
0.12541
100
AcDbArc
 50
321.3078299999994
 51
359.1509849999984
  0
ELLIPSE
  5
81A
330
18
100
AcDbEntity
  8
1
100
AcDbEllipse
 10
0.7410879999963527
 20
-4.080353000000015
 30
0.0
 11
0.0025024414062505
 21
4.2520751953125
 31
0.0
210
0.0
220
0.0
230
1.0
 40
0.03969
 41
3.141608456231511
 42
3.730007075020345
  0
ARC
  5
81B
330
18
100
AcDbEntity
  8
1
100
AcDbCircle
 10
0.758543999996391
 20
-8.299042
 30
0.0
 40
0.039525
100
AcDbArc
 50
184.3413879999997
 51
239.1032659999971
  0
LINE
  5
81C
330
18
100
AcDbEntity
  8
1
 48
0.00031
100
AcDbLine
 10
0.7160029999963628
 20
-8.289917000000016
 30
0.0
 11
0.7184439999963388
 21
-8.30209299999997
 31
0.0
  0
LINE
  5
81D
330
18
100
AcDbEntity
  8
1
 48
0.00031
100
AcDbLine
 10
1.770567999996274
 20
-8.289917000000016
 30
0.0
 11
1.768065999996338
 21
-8.302062999999987
 31
0.0
  0
LINE
  5
81E
330
18
100
AcDbEntity
  8
1
 48
0.001657
100
AcDbLine
 10
1.852232999996316
 20
-1.769530999999985
 30
0.0
 11
1.8354489999964
 21
-1.705413999999975
 31
0.0
  0
LINE
  5
81F
330
18
100
AcDbEntity
  8
1
 48
0.000915
100
AcDbLine
 10
1.826231999996365
 20
-1.670012999999996
 30
0.0
 11
1.8354489999964
 21
-1.705413999999975
 31
0.0
  0
ARC
  5
820
330
18
100
AcDbEntity
  8
1
100
AcDbCircle
 10
0.5963739999963309
 20
-5.451904000000027
 30
0.0
 40
0.263972
100
AcDbArc
 50
290.9384730000003
 51
359.3487739999984
  0
ARC
  5
821
330
18
100
AcDbEntity
  8
1
100
AcDbCircle
 10
212.4258109999963
 20
8.938567999999987
 30
0.0
 40
212.240044
100
AcDbArc
 50
183.9546339999989
 51
184.4739509999985
  0
LINE
  5
822
330
18
100
AcDbEntity
  8
1
 48
0.000531
100
AcDbLine
 10
0.6904899999963165
 20
-5.720183999999973
 30
0.0
 11
0.6909169999963753
 21
-5.69894399999994
 31
0.0
  0
LINE
  5
823
330
18
100
AcDbEntity
  8
1
 48
0.001308
100
AcDbLine
 10
0.6904289999963567
 20
5.451995999999994
 30
0.0
 11
0.7407219999962537
 21
5.437622000000018
 31
0.0
  0
POLYLINE
  5
824
330
18
100
AcDbEntity
  8
1
100
AcDb2dPolyline
 66
     1
 10
0.0
 20
0.0
 30
0.0
  0
VERTEX
  5
825
330
824
100
AcDbEntity
  8
1
100
AcDbVertex
100
AcDb2dVertex
 10
0.7407219999962537
 20
5.437622000000018
 30
0.0
  0
VERTEX
  5
826
330
824
100
AcDbEntity
  8
1
100
AcDbVertex
100
AcDb2dVertex
 10
0.8104849999963333
 20
5.379944000000008
 30
0.0
  0
VERTEX
  5
827
330
824
100
AcDbEntity
  8
1
100
AcDbVertex
100
AcDb2dVertex
 10
0.8599849999962998
 20
5.252533000000012
 30
0.0
  0
SEQEND
  5
828
330
824
100
AcDbEntity
  8
1
  0
LINE
  5
829
330
18
100
AcDbEntity
  8
1
 48
0.024226
100
AcDbLine
 10
0.7548209999963547
 20
4.485108000000009
 30
0.0
 11
0.6904289999963567
 21
5.451995999999994
 31
0.0
  0
LINE
  5
82A
330
18
100
AcDbEntity
  8
1
 48
0.026396
100
AcDbLine
 10
1.796568999996338
 20
5.437622000000018
 30
0.0
 11
0.7407219999962537
 21
5.437622000000018
 31
0.0
  0
LINE
  5
82B
102
{ACAD_REACTORS
330
948
102
}
330
18
100
AcDbEntity
  8
1
 48
0.03478
100
AcDbLine
 10
0.639847739059178
 20
7.522398761144201
 30
0.0
 11
0.6812739999963924
 21
6.002442000000016
 31
0.0
  0
LINE
  5
82C
330
18
100
AcDbEntity
  8
1
 48
0.027524
100
AcDbLine
 10
1.846551307080659
 20
7.527100000000017
 30
0.0
 11
0.6399407924536435
 21
7.527100000000003
 31
0.0
  0
ARC
  5
82D
330
18
100
AcDbEntity
  8
1
100
AcDbCircle
 10
-18.5678720000036
 20
5.390320000000016
 30
0.0
 40
19.25863
100
AcDbArc
 50
0.1835219999994271
 51
1.82144299999873
  0
LINE
  5
82E
330
18
100
AcDbEntity
  8
1
 48
0.000447
100
AcDbLine
 10
1.8424679999963
 20
-7.586455999999954
 30
0.0
 11
1.843138999996313
 21
-7.568572999999972
 31
0.0
  0
LINE
  5
82F
330
18
100
AcDbEntity
  8
1
 48
0.000449
100
AcDbLine
 10
0.6439809999964155
 20
-7.586486999999991
 30
0.0
 11
0.6433709999963641
 21
-7.568541999999991
 31
0.0
  0
LINE
  5
830
330
18
100
AcDbEntity
  8
1
 48
0.028907
100
AcDbLine
 10
0.6433709999963641
 20
-7.568541999999991
 30
0.0
 11
0.6812739999963924
 21
-6.412871999999949
 31
0.0
  0
ARC
  5
831
330
18
100
AcDbEntity
  8
1
100
AcDbCircle
 10
-20.31243900000368
 20
-5.793486999999982
 30
0.0
 40
21.002993
100
AcDbArc
 50
358.3100660000007
 51
0.2000240000013731
  0
LINE
  5
832
330
18
100
AcDbEntity
  8
1
 48
0.020055
100
AcDbLine
 10
0.6898291786672816
 20
7.573761000000032
 30
0.0
 11
1.796662920867021
 21
7.573761000000017
 31
0.0
  0
ARC
  5
833
102
{ACAD_REACTORS
330
94F
102
}
330
18
100
AcDbEntity
  8
1
 48
0.020055
100
AcDbCircle
 10
0.6898291786672816
 20
7.523761000000035
 30
0.0
 40
0.05
100
AcDbArc
 50
89.99999999999836
 51
181.5612039243896
  0
LINE
  5
834
330
18
100
AcDbEntity
  8
1
 48
0.057381
100
AcDbLine
 10
-0.000000000003638
 20
-2.113799999999983
 30
0.0
 11
-0.000000000003638
 21
-4.409026999999936
 31
0.0
  0
LINE
  5
835
330
18
100
AcDbEntity
  8
1
 48
0.163071
100
AcDbLine
 10
-0.000000000003638
 20
4.409027000000023
 30
0.0
 11
-0.000000000003638
 21
-2.113799999999983
 31
0.0
  0
ARC
  5
836
330
18
100
AcDbEntity
  8
SK1
100
AcDbCircle
 10
-0.2000130000036506
 20
3.580994000000017
 30
0.0
 40
0.2
100
AcDbArc
 50
272.9999990000016
 51
359.9999949999995
  0
ARC
  5
837
330
18
100
AcDbEntity
  8
SK1
100
AcDbCircle
 10
-0.2000130000036506
 20
-3.580993999999931
 30
0.0
 40
0.2
100
AcDbArc
 50
0.0000050000005032
 51
87.00000099999838
  0
LINE
  5
838
330
18
100
AcDbEntity
  8
SK1
 48
0.0293
100
AcDbLine
 10
-0.1895760000036262
 20
-3.381255999999963
 30
0.0
 11
-1.359986000003685
 21
-3.319915999999991
 31
0.0
  0
LINE
  5
839
330
18
100
AcDbEntity
  8
SK1
 48
0.165996
100
AcDbLine
 10
-1.359986000003685
 20
3.31991600000002
 30
0.0
 11
-1.359986000003685
 21
-3.319915999999991
 31
0.0
  0
LINE
  5
83A
330
18
100
AcDbEntity
  8
SK1
 48
0.0293
100
AcDbLine
 10
-0.1895760000036262
 20
3.381255999999993
 30
0.0
 11
-1.359986000003685
 21
3.31991600000002
 31
0.0
  0
ARC
  5
83B
330
18
100
AcDbEntity
  8
SK1
100
AcDbCircle
 10
-1.460022000003618
 20
3.279999000000017
 30
0.0
 40
0.1
100
AcDbArc
 50
270.0000029999976
 51
0.0000050000005032
  0
ARC
  5
83C
330
18
100
AcDbEntity
  8
SK1
100
AcDbCircle
 10
-1.460022000003618
 20
-3.279999000000046
 30
0.0
 40
0.1
100
AcDbArc
 50
359.9999949999995
 51
89.99999700000229
  0
LINE
  5
83D
330
18
100
AcDbEntity
  8
SK1
 48
0.000587
100
AcDbLine
 10
-1.460022000003618
 20
3.179993000000009
 30
0.0
 11
-1.483521000003634
 21
3.179993000000009
 31
0.0
  0
LINE
  5
83E
330
18
100
AcDbEntity
  8
SK1
 48
0.000244
100
AcDbLine
 10
-1.484253000003718
 20
3.179993000000009
 30
0.0
 11
-1.493592000003673
 21
3.177184999999993
 31
0.0
  0
LINE
  5
83F
330
18
100
AcDbEntity
  8
SK1
 48
0.01909
100
AcDbLine
 10
-1.460022000003618
 20
-3.179992999999981
 30
0.0
 11
-2.223633000003701
 21
-3.179992999999981
 31
0.0
  0
LINE
  5
840
330
18
100
AcDbEntity
  8
SK1
 48
0.000262
100
AcDbLine
 10
-2.223633000003701
 20
-3.179992999999981
 30
0.0
 11
-2.233704000003625
 21
-3.177124000000006
 31
0.0
  0
POLYLINE
  5
841
330
18
100
AcDbEntity
  8
SK1
100
AcDb2dPolyline
 66
     1
 10
0.0
 20
0.0
 30
0.0
  0
VERTEX
  5
842
330
841
100
AcDbEntity
  8
SK1
100
AcDbVertex
100
AcDb2dVertex
 10
-2.233704000003625
 20
-3.177124000000006
 30
0.0
  0
VERTEX
  5
843
330
841
100
AcDbEntity
  8
SK1
100
AcDbVertex
100
AcDb2dVertex
 10
-2.243592000003673
 20
-3.168670999999973
 30
0.0
  0
VERTEX
  5
844
330
841
100
AcDbEntity
  8
SK1
100
AcDbVertex
100
AcDb2dVertex
 10
-2.263245000003734
 20
-3.135436999999981
 30
0.0
  0
VERTEX
  5
845
330
841
100
AcDbEntity
  8
SK1
100
AcDbVertex
100
AcDb2dVertex
 10
-2.32025200000362
 20
-2.917449999999988
 30
0.0
  0
VERTEX
  5
846
330
841
100
AcDbEntity
  8
SK1
100
AcDbVertex
100
AcDb2dVertex
 10
-2.373597000003654
 20
-2.559600999999999
 30
0.0
  0
VERTEX
  5
847
330
841
100
AcDbEntity
  8
SK1
100
AcDbVertex
100
AcDb2dVertex
 10
-2.486329000003705
 20
-1.402557000000014
 30
0.0
  0
SEQEND
  5
848
330
841
100
AcDbEntity
  8
SK1
  0
POLYLINE
  5
849
330
18
100
AcDbEntity
  8
SK1
100
AcDb2dPolyline
 66
     1
 10
0.0
 20
0.0
 30
0.0
  0
VERTEX
  5
84A
330
849
100
AcDbEntity
  8
SK1
100
AcDbVertex
100
AcDb2dVertex
 10
-2.486329000003705
 20
-1.402557000000014
 30
0.0
  0
VERTEX
  5
84B
330
849
100
AcDbEntity
  8
SK1
100
AcDbVertex
100
AcDb2dVertex
 10
-2.605042000003662
 20
0.1513669999999792
 30
0.0
  0
VERTEX
  5
84C
330
849
100
AcDbEntity
  8
SK1
100
AcDbVertex
100
AcDb2dVertex
 10
-2.725220000003673
 20
1.684296000000003
 30
0.0
  0
VERTEX
  5
84D
330
849
100
AcDbEntity
  8
SK1
100
AcDbVertex
100
AcDb2dVertex
 10
-2.820923000003631
 20
2.61267100000002
 30
0.0
  0
VERTEX
  5
84E
330
849
100
AcDbEntity
  8
SK1
100
AcDbVertex
100
AcDb2dVertex
 10
-2.874085000003674
 20
2.951995999999993
 30
0.0
  0
VERTEX
  5
84F
330
849
100
AcDbEntity
  8
SK1
100
AcDbVertex
100
AcDb2dVertex
 10
-2.931397000003698
 20
3.149933000000018
 30
0.0
  0
VERTEX
  5
850
330
849
100
AcDbEntity
  8
SK1
100
AcDbVertex
100
AcDb2dVertex
 10
-2.950989000003687
 20
3.17532400000003
 30
0.0
  0
VERTEX
  5
851
330
849
100
AcDbEntity
  8
SK1
100
AcDbVertex
100
AcDb2dVertex
 10
-2.963685000003578
 20
3.179993000000009
 30
0.0
  0
SEQEND
  5
852
330
849
100
AcDbEntity
  8
SK1
  0
LINE
  5
853
330
18
100
AcDbEntity
  8
SK1
 48
0.013087
100
AcDbLine
 10
-2.440186000003676
 20
3.179993000000009
 30
0.0
 11
-2.963685000003578
 21
3.179993000000009
 31
0.0
  0
LINE
  5
854
330
18
100
AcDbEntity
  8
SK1
 48
0.000126
100
AcDbLine
 10
-2.440186000003676
 20
3.179993000000009
 30
0.0
 11
-2.435181000003581
 21
3.17929100000002
 31
0.0
  0
ARC
  5
855
330
18
100
AcDbEntity
  8
SK1
100
AcDbCircle
 10
-2.481019000003584
 20
2.981720000000038
 30
0.0
 40
0.202833
100
AcDbArc
 50
36.48216600000214
 51
76.92773899999973
  0
ARC
  5
856
330
18
100
AcDbEntity
  8
SK1
100
AcDbCircle
 10
-3.754700000003707
 20
2.147766000000031
 30
0.0
 40
1.724913999999999
100
AcDbArc
 50
27.28832200000046
 51
33.59889800000298
  0
LINE
  5
857
330
18
100
AcDbEntity
  8
SK1
 48
0.001018
100
AcDbLine
 10
-2.199219000003608
 20
2.904633000000031
 30
0.0
 11
-2.221619000003669
 21
2.938660000000012
 31
0.0
  0
ARC
  5
858
330
18
100
AcDbEntity
  8
SK1
100
AcDbCircle
 10
-2.007020000003649
 20
3.057373000000026
 30
0.0
 40
0.245548
100
AcDbArc
 50
218.4749270000001
 51
269.6394639999987
  0
LINE
  5
859
330
18
100
AcDbEntity
  8
SK1
 48
0.008121
100
AcDbLine
 10
-1.68371600000364
 20
2.813263000000048
 30
0.0
 11
-2.008545000003663
 21
2.811920000000029
 31
0.0
  0
ARC
  5
85A
330
18
100
AcDbEntity
  8
SK1
100
AcDbCircle
 10
-1.681885000003603
 20
3.00805700000005
 30
0.0
 40
0.194739
100
AcDbArc
 50
269.4525219999992
 51
304.3615030000035
  0
ARC
  5
85B
330
18
100
AcDbEntity
  8
SK1
100
AcDbCircle
 10
-1.654542000003629
 20
2.964600000000004
 30
0.0
 40
0.143333
100
AcDbArc
 50
305.1372480000027
 51
345.3859680000016
  0
LINE
  5
85C
330
18
100
AcDbEntity
  8
SK1
 48
0.000321
100
AcDbLine
 10
-1.515809000003628
 20
2.928436000000018
 30
0.0
 11
-1.51330600000358
 21
2.941040000000028
 31
0.0
  0
LINE
  5
85D
330
18
100
AcDbEntity
  8
SK1
 48
0.001994
100
AcDbLine
 10
-1.502991000003703
 20
3.020142000000006
 30
0.0
 11
-1.51330600000358
 21
2.941040000000028
 31
0.0
  0
ARC
  5
85E
330
18
100
AcDbEntity
  8
SK1
100
AcDbCircle
 10
-2.269837000003689
 20
3.108734000000012
 30
0.0
 40
0.7718850000000002
100
AcDbArc
 50
353.4092820000012
 51
359.6255740000006
  0
POLYLINE
  5
85F
330
18
100
AcDbEntity
  8
SK1
100
AcDb2dPolyline
 66
     1
 10
0.0
 20
0.0
 30
0.0
  0
VERTEX
  5
860
330
85F
100
AcDbEntity
  8
SK1
100
AcDbVertex
100
AcDb2dVertex
 10
-1.483521000003634
 20
3.179993000000009
 30
0.0
  0
VERTEX
  5
861
330
85F
100
AcDbEntity
  8
SK1
100
AcDbVertex
100
AcDb2dVertex
 10
-1.480286000003728
 20
3.179595999999988
 30
0.0
  0
VERTEX
  5
862
330
85F
100
AcDbEntity
  8
SK1
100
AcDbVertex
100
AcDb2dVertex
 10
-1.479310000003579
 20
3.179047000000011
 30
0.0
  0
VERTEX
  5
863
330
85F
100
AcDbEntity
  8
SK1
100
AcDbVertex
100
AcDb2dVertex
 10
-1.478394000003618
 20
3.177338000000061
 30
0.0
  0
VERTEX
  5
864
330
85F
100
AcDbEntity
  8
SK1
100
AcDbVertex
100
AcDb2dVertex
 10
-1.47851600000365
 20
3.175751000000033
 30
0.0
  0
VERTEX
  5
865
330
85F
100
AcDbEntity
  8
SK1
100
AcDbVertex
100
AcDb2dVertex
 10
-1.480042000003662
 20
3.171387000000023
 30
0.0
  0
VERTEX
  5
866
330
85F
100
AcDbEntity
  8
SK1
100
AcDbVertex
100
AcDb2dVertex
 10
-1.497986000003719
 20
3.103668000000013
 30
0.0
  0
SEQEND
  5
867
330
85F
100
AcDbEntity
  8
SK1
  0
LINE
  5
868
330
18
100
AcDbEntity
  8
SK1
 48
0.00026
100
AcDbLine
 10
-2.963685000003578
 20
3.179993000000009
 30
0.0
 11
-2.973694000003661
 21
3.177155000000013
 31
0.0
  0
LINE
  5
869
330
18
100
AcDbEntity
  8
SK1
 48
0.013086
100
AcDbLine
 10
-3.180237000003671
 20
-3.179992999999981
 30
0.0
 11
-3.703675000003727
 21
-3.179992999999981
 31
0.0
  0
LINE
  5
86A
330
18
100
AcDbEntity
  8
SK1
 48
0.000269
100
AcDbLine
 10
-3.180237000003671
 20
-3.179992999999981
 30
0.0
 11
-3.169922000003679
 21
-3.176970999999993
 31
0.0
  0
LINE
  5
86B
330
18
100
AcDbEntity
  8
SK1
 48
0.00026
100
AcDbLine
 10
-3.703675000003727
 20
-3.179992999999981
 30
0.0
 11
-3.713685000003578
 21
-3.177153999999986
 31
0.0
  0
POLYLINE
  5
86C
330
18
100
AcDbEntity
  8
SK1
100
AcDb2dPolyline
 66
     1
 10
0.0
 20
0.0
 30
0.0
  0
VERTEX
  5
86D
330
86C
100
AcDbEntity
  8
SK1
100
AcDbVertex
100
AcDb2dVertex
 10
-3.713685000003578
 20
-3.177153999999986
 30
0.0
  0
VERTEX
  5
86E
330
86C
100
AcDbEntity
  8
SK1
100
AcDbVertex
100
AcDb2dVertex
 10
-3.72717300000363
 20
-3.16421499999997
 30
0.0
  0
VERTEX
  5
86F
330
86C
100
AcDbEntity
  8
SK1
100
AcDbVertex
100
AcDb2dVertex
 10
-3.753907000003663
 20
-3.108001999999955
 30
0.0
  0
VERTEX
  5
870
330
86C
100
AcDbEntity
  8
SK1
100
AcDbVertex
100
AcDb2dVertex
 10
-3.829957000003673
 20
-2.733246000000022
 30
0.0
  0
VERTEX
  5
871
330
86C
100
AcDbEntity
  8
SK1
100
AcDbVertex
100
AcDb2dVertex
 10
-3.949097000003689
 20
-1.601622999999974
 30
0.0
  0
VERTEX
  5
872
330
86C
100
AcDbEntity
  8
SK1
100
AcDbVertex
100
AcDb2dVertex
 10
-4.159363000003621
 20
1.134765999999999
 30
0.0
  0
SEQEND
  5
873
330
86C
100
AcDbEntity
  8
SK1
  0
POLYLINE
  5
874
330
18
100
AcDbEntity
  8
SK1
100
AcDb2dPolyline
 66
     1
 10
0.0
 20
0.0
 30
0.0
  0
VERTEX
  5
875
330
874
100
AcDbEntity
  8
SK1
100
AcDbVertex
100
AcDb2dVertex
 10
-4.159363000003621
 20
1.134765999999999
 30
0.0
  0
VERTEX
  5
876
330
874
100
AcDbEntity
  8
SK1
100
AcDbVertex
100
AcDb2dVertex
 10
-4.270691000003693
 20
2.362152000000023
 30
0.0
  0
VERTEX
  5
877
330
874
100
AcDbEntity
  8
SK1
100
AcDbVertex
100
AcDb2dVertex
 10
-4.33313000000362
 20
2.837401999999982
 30
0.0
  0
VERTEX
  5
878
330
874
100
AcDbEntity
  8
SK1
100
AcDbVertex
100
AcDb2dVertex
 10
-4.390259000003651
 20
3.099121000000009
 30
0.0
  0
VERTEX
  5
879
330
874
100
AcDbEntity
  8
SK1
100
AcDbVertex
100
AcDb2dVertex
 10
-4.419983000003639
 20
3.164245999999976
 30
0.0
  0
VERTEX
  5
87A
330
874
100
AcDbEntity
  8
SK1
100
AcDbVertex
100
AcDb2dVertex
 10
-4.435608000003639
 20
3.178253000000026
 30
0.0
  0
VERTEX
  5
87B
330
874
100
AcDbEntity
  8
SK1
100
AcDbVertex
100
AcDb2dVertex
 10
-4.443421000003695
 20
3.179993000000009
 30
0.0
  0
SEQEND
  5
87C
330
874
100
AcDbEntity
  8
SK1
  0
LINE
  5
87D
330
18
100
AcDbEntity
  8
SK1
 48
0.013083
100
AcDbLine
 10
-3.920105000003673
 20
3.179993000000009
 30
0.0
 11
-4.443421000003695
 21
3.179993000000009
 31
0.0
  0
LINE
  5
87E
330
18
100
AcDbEntity
  8
SK1
 48
0.000269
100
AcDbLine
 10
-3.920105000003673
 20
3.179993000000009
 30
0.0
 11
-3.909791000003678
 21
3.176941000000041
 31
0.0
  0
POLYLINE
  5
87F
330
18
100
AcDbEntity
  8
SK1
100
AcDb2dPolyline
 66
     1
 10
0.0
 20
0.0
 30
0.0
  0
VERTEX
  5
880
330
87F
100
AcDbEntity
  8
SK1
100
AcDbVertex
100
AcDb2dVertex
 10
-3.909791000003678
 20
3.176941000000041
 30
0.0
  0
VERTEX
  5
881
330
87F
100
AcDbEntity
  8
SK1
100
AcDbVertex
100
AcDb2dVertex
 10
-3.895386000003668
 20
3.162567000000009
 30
0.0
  0
VERTEX
  5
882
330
87F
100
AcDbEntity
  8
SK1
100
AcDbVertex
100
AcDb2dVertex
 10
-3.866944000003627
 20
3.09957899999999
 30
0.0
  0
VERTEX
  5
883
330
87F
100
AcDbEntity
  8
SK1
100
AcDbVertex
100
AcDb2dVertex
 10
-3.786438000003613
 20
2.682312000000009
 30
0.0
  0
VERTEX
  5
884
330
87F
100
AcDbEntity
  8
SK1
100
AcDbVertex
100
AcDb2dVertex
 10
-3.685547000003679
 20
1.729920000000034
 30
0.0
  0
VERTEX
  5
885
330
87F
100
AcDbEntity
  8
SK1
100
AcDbVertex
100
AcDb2dVertex
 10
-3.507325000003674
 20
-0.5731809999999343
 30
0.0
  0
VERTEX
  5
886
330
87F
100
AcDbEntity
  8
SK1
100
AcDbVertex
100
AcDb2dVertex
 10
-3.436768000003666
 20
-1.469146999999978
 30
0.0
  0
SEQEND
  5
887
330
87F
100
AcDbEntity
  8
SK1
  0
POLYLINE
  5
888
330
18
100
AcDbEntity
  8
SK1
100
AcDb2dPolyline
 66
     1
 10
0.0
 20
0.0
 30
0.0
  0
VERTEX
  5
889
330
888
100
AcDbEntity
  8
SK1
100
AcDbVertex
100
AcDb2dVertex
 10
-3.436768000003666
 20
-1.469146999999978
 30
0.0
  0
VERTEX
  5
88A
330
888
100
AcDbEntity
  8
SK1
100
AcDbVertex
100
AcDb2dVertex
 10
-3.335938000003693
 20
-2.506926999999976
 30
0.0
  0
VERTEX
  5
88B
330
888
100
AcDbEntity
  8
SK1
100
AcDbVertex
100
AcDb2dVertex
 10
-3.279786000003696
 20
-2.898375999999998
 30
0.0
  0
VERTEX
  5
88C
330
888
100
AcDbEntity
  8
SK1
100
AcDbVertex
100
AcDb2dVertex
 10
-3.220765000003666
 20
-3.132537999999968
 30
0.0
  0
VERTEX
  5
88D
330
888
100
AcDbEntity
  8
SK1
100
AcDbVertex
100
AcDb2dVertex
 10
-3.200440000003708
 20
-3.168151999999976
 30
0.0
  0
VERTEX
  5
88E
330
888
100
AcDbEntity
  8
SK1
100
AcDbVertex
100
AcDb2dVertex
 10
-3.190247000003636
 20
-3.17709299999997
 30
0.0
  0
VERTEX
  5
88F
330
888
100
AcDbEntity
  8
SK1
100
AcDbVertex
100
AcDb2dVertex
 10
-3.180237000003671
 20
-3.179992999999981
 30
0.0
  0
SEQEND
  5
890
330
888
100
AcDbEntity
  8
SK1
  0
LINE
  5
891
330
18
100
AcDbEntity
  8
SK1
 48
0.000259
100
AcDbLine
 10
-4.443421000003695
 20
3.179993000000009
 30
0.0
 11
-4.453370000003701
 21
3.177155000000013
 31
0.0
  0
LINE
  5
892
330
18
100
AcDbEntity
  8
SK1
 48
0.0131
100
AcDbLine
 10
-4.660096000003703
 20
-3.179992999999981
 30
0.0
 11
-5.184083000003623
 21
-3.179992999999981
 31
0.0
  0
LINE
  5
893
330
18
100
AcDbEntity
  8
SK1
 48
0.000264
100
AcDbLine
 10
-4.660096000003703
 20
-3.179992999999981
 30
0.0
 11
-4.649964000003591
 21
-3.177032000000011
 31
0.0
  0
LINE
  5
894
330
18
100
AcDbEntity
  8
SK1
 48
0.000257
100
AcDbLine
 10
-5.184083000003623
 20
-3.179992999999981
 30
0.0
 11
-5.193970000003672
 21
-3.177184999999964
 31
0.0
  0
POLYLINE
  5
895
330
18
100
AcDbEntity
  8
SK1
100
AcDb2dPolyline
 66
     1
 10
0.0
 20
0.0
 30
0.0
  0
VERTEX
  5
896
330
895
100
AcDbEntity
  8
SK1
100
AcDbVertex
100
AcDb2dVertex
 10
-5.193970000003672
 20
-3.177184999999964
 30
0.0
  0
VERTEX
  5
897
330
895
100
AcDbEntity
  8
SK1
100
AcDbVertex
100
AcDb2dVertex
 10
-5.209839000003626
 20
-3.160766000000037
 30
0.0
  0
VERTEX
  5
898
330
895
100
AcDbEntity
  8
SK1
100
AcDbVertex
100
AcDb2dVertex
 10
-5.241395000003648
 20
-3.085784999999944
 30
0.0
  0
SEQEND
  5
899
330
895
100
AcDbEntity
  8
SK1
  0
POLYLINE
  5
89A
330
18
100
AcDbEntity
  8
SK1
100
AcDb2dPolyline
 66
     1
 10
0.0
 20
0.0
 30
0.0
  0
VERTEX
  5
89B
330
89A
100
AcDbEntity
  8
SK1
100
AcDbVertex
100
AcDb2dVertex
 10
-5.241395000003648
 20
-3.085784999999944
 30
0.0
  0
VERTEX
  5
89C
330
89A
100
AcDbEntity
  8
SK1
100
AcDbVertex
100
AcDb2dVertex
 10
-5.292420000003744
 20
-2.848907000000011
 30
0.0
  0
VERTEX
  5
89D
330
89A
100
AcDbEntity
  8
SK1
100
AcDbVertex
100
AcDb2dVertex
 10
-5.384888000003683
 20
-2.093139999999961
 30
0.0
  0
VERTEX
  5
89E
330
89A
100
AcDbEntity
  8
SK1
100
AcDbVertex
100
AcDb2dVertex
 10
-5.469239000003653
 20
-1.121367999999975
 30
0.0
  0
VERTEX
  5
89F
330
89A
100
AcDbEntity
  8
SK1
100
AcDbVertex
100
AcDb2dVertex
 10
-5.626954000003705
 20
0.9707030000000004
 30
0.0
  0
VERTEX
  5
8A0
330
89A
100
AcDbEntity
  8
SK1
100
AcDbVertex
100
AcDb2dVertex
 10
-5.731019000003583
 20
2.171172999999996
 30
0.0
  0
SEQEND
  5
8A1
330
89A
100
AcDbEntity
  8
SK1
  0
POLYLINE
  5
8A2
330
18
100
AcDbEntity
  8
SK1
100
AcDb2dPolyline
 66
     1
 10
0.0
 20
0.0
 30
0.0
  0
VERTEX
  5
8A3
330
8A2
100
AcDbEntity
  8
SK1
100
AcDbVertex
100
AcDb2dVertex
 10
-5.731019000003583
 20
2.171172999999996
 30
0.0
  0
VERTEX
  5
8A4
330
8A2
100
AcDbEntity
  8
SK1
100
AcDbVertex
100
AcDb2dVertex
 10
-5.807313000003659
 20
2.796691999999993
 30
0.0
  0
VERTEX
  5
8A5
330
8A2
100
AcDbEntity
  8
SK1
100
AcDbVertex
100
AcDb2dVertex
 10
-5.881775000003699
 20
3.128662000000004
 30
0.0
  0
VERTEX
  5
8A6
330
8A2
100
AcDbEntity
  8
SK1
100
AcDbVertex
100
AcDb2dVertex
 10
-5.898560000003612
 20
3.16134700000002
 30
0.0
  0
VERTEX
  5
8A7
330
8A2
100
AcDbEntity
  8
SK1
100
AcDbVertex
100
AcDb2dVertex
 10
-5.909852000003637
 20
3.174225000000021
 30
0.0
  0
VERTEX
  5
8A8
330
8A2
100
AcDbEntity
  8
SK1
100
AcDbVertex
100
AcDb2dVertex
 10
-5.915467000003673
 20
3.177918000000018
 30
0.0
  0
VERTEX
  5
8A9
330
8A2
100
AcDbEntity
  8
SK1
100
AcDbVertex
100
AcDb2dVertex
 10
-5.923890000003665
 20
3.179993000000009
 30
0.0
  0
SEQEND
  5
8AA
330
8A2
100
AcDbEntity
  8
SK1
  0
LINE
  5
8AB
330
18
100
AcDbEntity
  8
SK1
 48
0.013086
100
AcDbLine
 10
-5.40045200000361
 20
3.179993000000009
 30
0.0
 11
-5.923890000003665
 21
3.179993000000009
 31
0.0
  0
LINE
  5
8AC
330
18
100
AcDbEntity
  8
SK1
 48
0.000267
100
AcDbLine
 10
-5.40045200000361
 20
3.179993000000009
 30
0.0
 11
-5.390198000003578
 21
3.177002000000001
 31
0.0
  0
POLYLINE
  5
8AD
330
18
100
AcDbEntity
  8
SK1
100
AcDb2dPolyline
 66
     1
 10
0.0
 20
0.0
 30
0.0
  0
VERTEX
  5
8AE
330
8AD
100
AcDbEntity
  8
SK1
100
AcDbVertex
100
AcDb2dVertex
 10
-5.390198000003578
 20
3.177002000000001
 30
0.0
  0
VERTEX
  5
8AF
330
8AD
100
AcDbEntity
  8
SK1
100
AcDbVertex
100
AcDb2dVertex
 10
-5.379212000003691
 20
3.167145000000047
 30
0.0
  0
VERTEX
  5
8B0
330
8AD
100
AcDbEntity
  8
SK1
100
AcDbVertex
100
AcDb2dVertex
 10
-5.357422000003679
 20
3.127350000000021
 30
0.0
  0
VERTEX
  5
8B1
330
8AD
100
AcDbEntity
  8
SK1
100
AcDbVertex
100
AcDb2dVertex
 10
-5.294617000003652
 20
2.865082000000014
 30
0.0
  0
VERTEX
  5
8B2
330
8AD
100
AcDbEntity
  8
SK1
100
AcDbVertex
100
AcDb2dVertex
 10
-5.235474000003705
 20
2.432373000000025
 30
0.0
  0
VERTEX
  5
8B3
330
8AD
100
AcDbEntity
  8
SK1
100
AcDbVertex
100
AcDb2dVertex
 10
-5.11084000000369
 20
1.06466699999997
 30
0.0
  0
SEQEND
  5
8B4
330
8AD
100
AcDbEntity
  8
SK1
  0
POLYLINE
  5
8B5
330
18
100
AcDbEntity
  8
SK1
100
AcDb2dPolyline
 66
     1
 10
0.0
 20
0.0
 30
0.0
  0
VERTEX
  5
8B6
330
8B5
100
AcDbEntity
  8
SK1
100
AcDbVertex
100
AcDb2dVertex
 10
-5.11084000000369
 20
1.06466699999997
 30
0.0
  0
VERTEX
  5
8B7
330
8B5
100
AcDbEntity
  8
SK1
100
AcDbVertex
100
AcDb2dVertex
 10
-4.906678000003693
 20
-1.594329999999969
 30
0.0
  0
VERTEX
  5
8B8
330
8B5
100
AcDbEntity
  8
SK1
100
AcDbVertex
100
AcDb2dVertex
 10
-4.791016000003651
 20
-2.702362000000006
 30
0.0
  0
VERTEX
  5
8B9
330
8B5
100
AcDbEntity
  8
SK1
100
AcDbVertex
100
AcDb2dVertex
 10
-4.729737000003638
 20
-3.042388999999971
 30
0.0
  0
VERTEX
  5
8BA
330
8B5
100
AcDbEntity
  8
SK1
100
AcDbVertex
100
AcDb2dVertex
 10
-4.697388000003683
 20
-3.140320000000044
 30
0.0
  0
VERTEX
  5
8BB
330
8B5
100
AcDbEntity
  8
SK1
100
AcDbVertex
100
AcDb2dVertex
 10
-4.680848000003607
 20
-3.167662999999961
 30
0.0
  0
VERTEX
  5
8BC
330
8B5
100
AcDbEntity
  8
SK1
100
AcDbVertex
100
AcDb2dVertex
 10
-4.672547000003646
 20
-3.175537000000034
 30
0.0
  0
VERTEX
  5
8BD
330
8B5
100
AcDbEntity
  8
SK1
100
AcDbVertex
100
AcDb2dVertex
 10
-4.660096000003703
 20
-3.179992999999981
 30
0.0
  0
SEQEND
  5
8BE
330
8B5
100
AcDbEntity
  8
SK1
  0
LINE
  5
8BF
330
18
100
AcDbEntity
  8
SK1
 48
0.000257
100
AcDbLine
 10
-5.923890000003665
 20
3.179993000000009
 30
0.0
 11
-5.933777000003601
 21
3.177155000000013
 31
0.0
  0
LINE
  5
8C0
330
18
100
AcDbEntity
  8
SK1
 48
0.000134
100
AcDbLine
 10
-5.814454000003705
 20
-2.770568999999923
 30
0.0
 11
-5.819764000003601
 21
-2.76986699999999
 31
0.0
  0
POLYLINE
  5
8C1
330
18
100
AcDbEntity
  8
SK1
100
AcDb2dPolyline
 66
     1
 10
0.0
 20
0.0
 30
0.0
  0
VERTEX
  5
8C2
330
8C1
100
AcDbEntity
  8
SK1
100
AcDbVertex
100
AcDb2dVertex
 10
-5.819764000003601
 20
-2.76986699999999
 30
0.0
  0
VERTEX
  5
8C3
330
8C1
100
AcDbEntity
  8
SK1
100
AcDbVertex
100
AcDb2dVertex
 10
-5.830201000003626
 20
-2.764404000000026
 30
0.0
  0
VERTEX
  5
8C4
330
8C1
100
AcDbEntity
  8
SK1
100
AcDbVertex
100
AcDb2dVertex
 10
-5.850892000003682
 20
-2.737487999999998
 30
0.0
  0
VERTEX
  5
8C5
330
8C1
100
AcDbEntity
  8
SK1
100
AcDbVertex
100
AcDb2dVertex
 10
-5.911500000003683
 20
-2.538757000000046
 30
0.0
  0
VERTEX
  5
8C6
330
8C1
100
AcDbEntity
  8
SK1
100
AcDbVertex
100
AcDb2dVertex
 10
-5.970337000003723
 20
-2.185791000000008
 30
0.0
  0
SEQEND
  5
8C7
330
8C1
100
AcDbEntity
  8
SK1
  0
POLYLINE
  5
8C8
330
18
100
AcDbEntity
  8
SK1
100
AcDb2dPolyline
 66
     1
 10
0.0
 20
0.0
 30
0.0
  0
VERTEX
  5
8C9
330
8C8
100
AcDbEntity
  8
SK1
100
AcDbVertex
100
AcDb2dVertex
 10
-5.970337000003723
 20
-2.185791000000008
 30
0.0
  0
VERTEX
  5
8CA
330
8C8
100
AcDbEntity
  8
SK1
100
AcDbVertex
100
AcDb2dVertex
 10
-6.029725000003621
 20
-1.692046999999958
 30
0.0
  0
VERTEX
  5
8CB
330
8C8
100
AcDbEntity
  8
SK1
100
AcDbVertex
100
AcDb2dVertex
 10
-6.13952700000368
 20
-0.5259700000000436
 30
0.0
  0
VERTEX
  5
8CC
330
8C8
100
AcDbEntity
  8
SK1
100
AcDbVertex
100
AcDb2dVertex
 10
-6.343018000003667
 20
1.727295000000012
 30
0.0
  0
VERTEX
  5
8CD
330
8C8
100
AcDbEntity
  8
SK1
100
AcDbVertex
100
AcDb2dVertex
 10
-6.447999000003732
 20
2.492157000000004
 30
0.0
  0
VERTEX
  5
8CE
330
8C8
100
AcDbEntity
  8
SK1
100
AcDbVertex
100
AcDb2dVertex
 10
-6.505372000003602
 20
2.710480000000003
 30
0.0
  0
SEQEND
  5
8CF
330
8C8
100
AcDbEntity
  8
SK1
  0
POLYLINE
  5
8D0
330
18
100
AcDbEntity
  8
SK1
100
AcDb2dPolyline
 66
     1
 10
0.0
 20
0.0
 30
0.0
  0
VERTEX
  5
8D1
330
8D0
100
AcDbEntity
  8
SK1
100
AcDbVertex
100
AcDb2dVertex
 10
-6.505372000003602
 20
2.710480000000003
 30
0.0
  0
VERTEX
  5
8D2
330
8D0
100
AcDbEntity
  8
SK1
100
AcDbVertex
100
AcDb2dVertex
 10
-6.527039000003582
 20
2.751647999999974
 30
0.0
  0
VERTEX
  5
8D3
330
8D0
100
AcDbEntity
  8
SK1
100
AcDbVertex
100
AcDb2dVertex
 10
-6.537964000003626
 20
2.763640999999991
 30
0.0
  0
VERTEX
  5
8D4
330
8D0
100
AcDbEntity
  8
SK1
100
AcDbVertex
100
AcDb2dVertex
 10
-6.548951000003626
 20
2.769653000000046
 30
0.0
  0
VERTEX
  5
8D5
330
8D0
100
AcDbEntity
  8
SK1
100
AcDbVertex
100
AcDb2dVertex
 10
-6.554444000003627
 20
2.770415999999996
 30
0.0
  0
SEQEND
  5
8D6
330
8D0
100
AcDbEntity
  8
SK1
  0
LINE
  5
8D7
330
18
100
AcDbEntity
  8
SK1
 48
0.000131
100
AcDbLine
 10
-6.554444000003627
 20
2.770415999999996
 30
0.0
 11
-6.559632000003715
 21
2.769745000000041
 31
0.0
  0
LINE
  5
8D8
330
18
100
AcDbEntity
  8
SK1
 48
0.132432
100
AcDbLine
 10
-6.6400150000037
 20
2.748107999999986
 30
0.0
 11
-6.6400150000037
 21
-2.549163999999976
 31
0.0
  0
LINE
  5
8D9
330
18
100
AcDbEntity
  8
1
 48
0.050048
100
AcDbLine
 10
1.843199999996271
 20
0.1747440000000182
 30
0.0
 11
1.768675999996276
 21
2.175263000000014
 31
0.0
  0
LINE
  5
8DA
330
18
100
AcDbEntity
  8
1
 48
0.050048
100
AcDbLine
 10
0.7178339999962873
 20
2.175263000000014
 30
0.0
 11
0.6433099999962906
 21
0.1747129999999828
 31
0.0
  0
LINE
  5
8DB
330
18
100
AcDbEntity
  8
1
 48
0.025237
100
AcDbLine
 10
1.747984999996333
 20
-8.332428000000009
 30
0.0
 11
0.7385249999963435
 21
-8.332428000000009
 31
0.0
  0
ARC
  5
8DC
330
18
100
AcDbEntity
  8
1
100
AcDbCircle
 10
0.5750119999963772
 20
-4.705535999999952
 30
0.0
 40
0.285
100
AcDbArc
 50
359.9999949999995
 51
44.99999600000266
  0
ARC
  5
8DD
330
18
100
AcDbEntity
  8
1
100
AcDbCircle
 10
0.5750119999963772
 20
-4.705535999999952
 30
0.0
 40
0.285
100
AcDbArc
 50
44.99999600000266
 51
89.99999700000229
  0
ARC
  5
8DE
330
18
100
AcDbEntity
  8
1
100
AcDbCircle
 10
0.5750119999963772
 20
4.705536000000036
 30
0.0
 40
0.285
100
AcDbArc
 50
270.0000029999976
 51
0.0000050000005032
  0
LINE
  5
8DF
330
18
100
AcDbEntity
  8
1
 48
0.017678
100
AcDbLine
 10
1.8424679999963
 20
-7.586455999999954
 30
0.0
 11
1.770567999996274
 21
-8.289917000000016
 31
0.0
  0
LINE
  5
8E0
330
18
100
AcDbEntity
  8
1
 48
0.017678
100
AcDbLine
 10
0.7160029999963628
 20
-8.289917000000016
 30
0.0
 11
0.6439809999964155
 21
-7.586486999999991
 31
0.0
  0
LINE
  5
8E1
330
18
100
AcDbEntity
  8
1
 48
0.0125
100
AcDbLine
 10
0.0750119999963772
 20
-4.42053200000005
 30
0.0
 11
0.5750119999963772
 21
-4.42053200000005
 31
0.0
  0
LINE
  5
8E2
330
18
100
AcDbEntity
  8
1
 48
0.0125
100
AcDbLine
 10
0.0750119999963772
 20
4.420532000000021
 30
0.0
 11
0.5750119999963772
 21
4.420532000000021
 31
0.0
  0
ARC
  5
8E3
330
18
100
AcDbEntity
  8
1
100
AcDbCircle
 10
0.0750119999963772
 20
-4.170532000000051
 30
0.0
 40
0.250008
100
AcDbArc
 50
252.5426670000033
 51
269.9997360000008
  0
ARC
  5
8E4
330
18
100
AcDbEntity
  8
1
100
AcDbCircle
 10
0.0750119999963772
 20
4.170532000000021
 30
0.0
 40
0.250008
100
AcDbArc
 50
90.00026399999923
 51
107.4573329999967
  0
POLYLINE
  5
8E5
330
18
100
AcDbEntity
  8
SK1
100
AcDb2dPolyline
 66
     1
 10
0.0
 20
0.0
 30
0.0
  0
VERTEX
  5
8E6
330
8E5
100
AcDbEntity
  8
SK1
100
AcDbVertex
100
AcDb2dVertex
 10
-1.493592000003673
 20
3.177155000000013
 30
0.0
  0
VERTEX
  5
8E7
330
8E5
100
AcDbEntity
  8
SK1
100
AcDbVertex
100
AcDb2dVertex
 10
-1.58093300000371
 20
3.076965000000015
 30
0.0
  0
VERTEX
  5
8E8
330
8E5
100
AcDbEntity
  8
SK1
100
AcDbVertex
100
AcDb2dVertex
 10
-1.609742000003619
 20
3.002593999999973
 30
0.0
  0
SEQEND
  5
8E9
330
8E5
100
AcDbEntity
  8
SK1
  0
POLYLINE
  5
8EA
330
18
100
AcDbEntity
  8
SK1
100
AcDb2dPolyline
 66
     1
 10
0.0
 20
0.0
 30
0.0
  0
VERTEX
  5
8EB
330
8EA
100
AcDbEntity
  8
SK1
100
AcDbVertex
100
AcDb2dVertex
 10
-2.233643000003666
 20
-3.177124000000006
 30
0.0
  0
VERTEX
  5
8EC
330
8EA
100
AcDbEntity
  8
SK1
100
AcDbVertex
100
AcDb2dVertex
 10
-2.320984000003704
 20
-3.076874000000046
 30
0.0
  0
VERTEX
  5
8ED
330
8EA
100
AcDbEntity
  8
SK1
100
AcDbVertex
100
AcDb2dVertex
 10
-2.349732000003654
 20
-3.002624000000038
 30
0.0
  0
SEQEND
  5
8EE
330
8EA
100
AcDbEntity
  8
SK1
  0
POLYLINE
  5
8EF
330
18
100
AcDbEntity
  8
SK1
100
AcDb2dPolyline
 66
     1
 10
0.0
 20
0.0
 30
0.0
  0
VERTEX
  5
8F0
330
8EF
100
AcDbEntity
  8
SK1
100
AcDbVertex
100
AcDb2dVertex
 10
-2.973633000003701
 20
3.177124000000033
 30
0.0
  0
VERTEX
  5
8F1
330
8EF
100
AcDbEntity
  8
SK1
100
AcDbVertex
100
AcDb2dVertex
 10
-3.060975000003621
 20
3.076935000000033
 30
0.0
  0
VERTEX
  5
8F2
330
8EF
100
AcDbEntity
  8
SK1
100
AcDbVertex
100
AcDb2dVertex
 10
-3.089478000003736
 20
3.003479000000012
 30
0.0
  0
SEQEND
  5
8F3
330
8EF
100
AcDbEntity
  8
SK1
  0
LINE
  5
8F4
330
18
100
AcDbEntity
  8
SK1
 48
0.002529
100
AcDbLine
 10
-1.609742000003619
 20
3.002593999999973
 30
0.0
 11
-1.640259000003651
 21
2.906128000000009
 31
0.0
  0
LINE
  5
8F5
330
18
100
AcDbEntity
  8
SK1
 48
0.002528
100
AcDbLine
 10
-2.349732000003654
 20
-3.002624000000038
 30
0.0
 11
-2.380250000003684
 21
-2.906218999999921
 31
0.0
  0
LINE
  5
8F6
330
18
100
AcDbEntity
  8
SK1
 48
0.002528
100
AcDbLine
 10
-3.089783000003648
 20
3.002533000000012
 30
0.0
 11
-3.120240000003718
 21
2.906128000000009
 31
0.0
  0
POLYLINE
  5
8F7
330
18
100
AcDbEntity
  8
SK1
100
AcDb2dPolyline
 66
     1
 10
0.0
 20
0.0
 30
0.0
  0
VERTEX
  5
8F8
330
8F7
100
AcDbEntity
  8
SK1
100
AcDbVertex
100
AcDb2dVertex
 10
-3.713746000003652
 20
-3.177124000000006
 30
0.0
  0
VERTEX
  5
8F9
330
8F7
100
AcDbEntity
  8
SK1
100
AcDbVertex
100
AcDb2dVertex
 10
-3.800843000003623
 20
-3.077208999999995
 30
0.0
  0
VERTEX
  5
8FA
330
8F7
100
AcDbEntity
  8
SK1
100
AcDbVertex
100
AcDb2dVertex
 10
-3.829773000003569
 20
-3.002562999999966
 30
0.0
  0
SEQEND
  5
8FB
330
8F7
100
AcDbEntity
  8
SK1
  0
POLYLINE
  5
8FC
330
18
100
AcDbEntity
  8
SK1
100
AcDb2dPolyline
 66
     1
 10
0.0
 20
0.0
 30
0.0
  0
VERTEX
  5
8FD
330
8FC
100
AcDbEntity
  8
SK1
100
AcDbVertex
100
AcDb2dVertex
 10
-3.055115000003751
 20
-3.002257999999997
 30
0.0
  0
VERTEX
  5
8FE
330
8FC
100
AcDbEntity
  8
SK1
100
AcDbVertex
100
AcDb2dVertex
 10
-3.126465000003689
 20
-3.141600999999993
 30
0.0
  0
VERTEX
  5
8FF
330
8FC
100
AcDbEntity
  8
SK1
100
AcDbVertex
100
AcDb2dVertex
 10
-3.169983000003639
 20
-3.176970999999993
 30
0.0
  0
SEQEND
  5
900
330
8FC
100
AcDbEntity
  8
SK1
  0
LINE
  5
901
330
18
100
AcDbEntity
  8
SK1
 48
0.000962
100
AcDbLine
 10
-1.658875000003718
 20
2.842743000000026
 30
0.0
 11
-1.68371600000364
 21
2.813355000000044
 31
0.0
  0
LINE
  5
902
330
18
100
AcDbEntity
  8
SK1
 48
0.001696
100
AcDbLine
 10
-1.640259000003651
 20
2.906128000000009
 30
0.0
 11
-1.660706000003641
 21
2.841430999999984
 31
0.0
  0
LINE
  5
903
330
18
100
AcDbEntity
  8
SK1
 48
0.002386
100
AcDbLine
 10
-2.380250000003684
 20
-2.906218999999921
 30
0.0
 11
-2.40905800000371
 21
-2.815216000000035
 31
0.0
  0
LINE
  5
904
330
18
100
AcDbEntity
  8
SK1
 48
0.001746
100
AcDbLine
 10
-3.120240000003718
 20
2.906128000000009
 30
0.0
 11
-3.141236000003686
 21
2.839508000000008
 31
0.0
  0
POLYLINE
  5
905
330
18
100
AcDbEntity
  8
SK1
100
AcDb2dPolyline
 66
     1
 10
0.0
 20
0.0
 30
0.0
  0
VERTEX
  5
906
330
905
100
AcDbEntity
  8
SK1
100
AcDbVertex
100
AcDb2dVertex
 10
-4.453309000003628
 20
3.177155000000013
 30
0.0
  0
VERTEX
  5
907
330
905
100
AcDbEntity
  8
SK1
100
AcDbVertex
100
AcDb2dVertex
 10
-4.540833000003657
 20
3.077118000000026
 30
0.0
  0
VERTEX
  5
908
330
905
100
AcDbEntity
  8
SK1
100
AcDbVertex
100
AcDb2dVertex
 10
-4.569825000003674
 20
3.002318999999985
 30
0.0
  0
SEQEND
  5
909
330
905
100
AcDbEntity
  8
SK1
  0
LINE
  5
90A
330
18
100
AcDbEntity
  8
SK1
 48
0.002518
100
AcDbLine
 10
-4.569825000003674
 20
3.002318999999985
 30
0.0
 11
-4.600220000003672
 21
2.906311000000058
 31
0.0
  0
LINE
  5
90B
330
18
100
AcDbEntity
  8
SK1
 48
0.002528
100
AcDbLine
 10
-3.829712000003723
 20
-3.002959999999986
 30
0.0
 11
-3.860169000003565
 21
-2.906554999999982
 31
0.0
  0
POLYLINE
  5
90C
330
18
100
AcDbEntity
  8
SK1
100
AcDb2dPolyline
 66
     1
 10
0.0
 20
0.0
 30
0.0
  0
VERTEX
  5
90D
330
90C
100
AcDbEntity
  8
SK1
100
AcDbVertex
100
AcDb2dVertex
 10
-3.795167000003629
 20
3.002655000000046
 30
0.0
  0
VERTEX
  5
90E
330
90C
100
AcDbEntity
  8
SK1
100
AcDbVertex
100
AcDb2dVertex
 10
-3.866395000003648
 20
3.141632000000057
 30
0.0
  0
VERTEX
  5
90F
330
90C
100
AcDbEntity
  8
SK1
100
AcDbVertex
100
AcDb2dVertex
 10
-3.909730000003604
 20
3.176911000000059
 30
0.0
  0
SEQEND
  5
910
330
90C
100
AcDbEntity
  8
SK1
  0
LINE
  5
911
330
18
100
AcDbEntity
  8
SK1
 48
0.004303
100
AcDbLine
 10
-3.003418000003647
 20
-2.838104000000001
 30
0.0
 11
-3.055115000003751
 21
-3.002257999999997
 31
0.0
  0
ARC
  5
912
330
18
100
AcDbEntity
  8
SK1
100
AcDbCircle
 10
-2.869080000003691
 20
-2.938018999999953
 30
0.0
 40
0.167385
100
AcDbArc
 50
88.75856300000275
 51
145.458363999996
  0
LINE
  5
913
330
18
100
AcDbEntity
  8
SK1
 48
0.008128
100
AcDbLine
 10
-2.54028400000368
 20
-2.770079999999963
 30
0.0
 11
-2.865418000003614
 21
-2.77038599999993
 31
0.0
  0
ARC
  5
914
330
18
100
AcDbEntity
  8
SK1
100
AcDbCircle
 10
-2.537293000003614
 20
-2.939971999999968
 30
0.0
 40
0.16969
100
AcDbArc
 50
36.26704299999916
 51
90.99342099999814
  0
ARC
  5
915
330
18
100
AcDbEntity
  8
SK1
100
AcDbCircle
 10
-3.280091000003721
 20
2.949859999999986
 30
0.0
 40
0.179745
100
AcDbArc
 50
269.9620130000028
 51
297.7557809999984
  0
ARC
  5
916
330
18
100
AcDbEntity
  8
SK1
100
AcDbCircle
 10
-3.262330000003656
 20
2.921906000000021
 30
0.0
 40
0.146661
100
AcDbArc
 50
296.711758999997
 51
327.4955579999999
  0
POLYLINE
  5
917
330
18
100
AcDbEntity
  8
SK1
100
AcDb2dPolyline
 66
     1
 10
0.0
 20
0.0
 30
0.0
  0
VERTEX
  5
918
330
917
100
AcDbEntity
  8
SK1
100
AcDbVertex
100
AcDb2dVertex
 10
-5.193909000003599
 20
-3.177184999999964
 30
0.0
  0
VERTEX
  5
919
330
917
100
AcDbEntity
  8
SK1
100
AcDbVertex
100
AcDb2dVertex
 10
-5.280884000003652
 20
-3.077179000000014
 30
0.0
  0
VERTEX
  5
91A
330
917
100
AcDbEntity
  8
SK1
100
AcDbVertex
100
AcDb2dVertex
 10
-5.309449000003723
 20
-3.003508999999964
 30
0.0
  0
SEQEND
  5
91B
330
917
100
AcDbEntity
  8
SK1
  0
LINE
  5
91C
330
18
100
AcDbEntity
  8
SK1
 48
0.002382
100
AcDbLine
 10
-3.860291000003712
 20
-2.905883999999971
 30
0.0
 11
-3.889100000003621
 21
-2.815062999999966
 31
0.0
  0
POLYLINE
  5
91D
330
18
100
AcDbEntity
  8
SK1
100
AcDb2dPolyline
 66
     1
 10
0.0
 20
0.0
 30
0.0
  0
VERTEX
  5
91E
330
91D
100
AcDbEntity
  8
SK1
100
AcDbVertex
100
AcDb2dVertex
 10
-4.535279000003697
 20
-3.002593999999944
 30
0.0
  0
VERTEX
  5
91F
330
91D
100
AcDbEntity
  8
SK1
100
AcDbVertex
100
AcDb2dVertex
 10
-4.606751000003669
 20
-3.141875999999982
 30
0.0
  0
VERTEX
  5
920
330
91D
100
AcDbEntity
  8
SK1
100
AcDbVertex
100
AcDb2dVertex
 10
-4.649964000003591
 20
-3.177032000000011
 30
0.0
  0
SEQEND
  5
921
330
91D
100
AcDbEntity
  8
SK1
  0
LINE
  5
922
330
18
100
AcDbEntity
  8
SK1
 48
0.004919
100
AcDbLine
 10
-3.736084000003642
 20
2.814971999999997
 30
0.0
 11
-3.795167000003629
 21
3.002655000000046
 31
0.0
  0
ARC
  5
923
330
18
100
AcDbEntity
  8
SK1
100
AcDbCircle
 10
-3.608094000003575
 20
2.940430000000033
 30
0.0
 40
0.169864
100
AcDbArc
 50
217.1056719999998
 51
270.9044080000024
  0
LINE
  5
924
330
18
100
AcDbEntity
  8
SK1
 48
0.00813
100
AcDbLine
 10
-3.280213000003641
 20
2.770111000000028
 30
0.0
 11
-3.605408000003648
 21
2.770386000000016
 31
0.0
  0
ARC
  5
925
330
18
100
AcDbEntity
  8
SK1
100
AcDbCircle
 10
-4.016968000003656
 20
-2.939330999999937
 30
0.0
 40
0.169009
100
AcDbArc
 50
35.78320599999975
 51
91.09428900000052
  0
LINE
  5
926
330
18
100
AcDbEntity
  8
SK1
 48
0.002527
100
AcDbLine
 10
-5.309754000003636
 20
-3.002654999999961
 30
0.0
 11
-5.340210000003593
 21
-2.906279999999995
 31
0.0
  0
LINE
  5
927
330
18
100
AcDbEntity
  8
SK1
 48
0.002387
100
AcDbLine
 10
-5.340149000003748
 20
-2.906341000000011
 30
0.0
 11
-5.369019000003618
 21
-2.815338000000011
 31
0.0
  0
ARC
  5
928
330
18
100
AcDbEntity
  8
SK1
100
AcDbCircle
 10
-5.496949000003723
 20
-2.938994999999991
 30
0.0
 40
0.168949
100
AcDbArc
 50
35.8732000000016
 51
91.11333200000201
  0
ARC
  5
929
330
18
100
AcDbEntity
  8
SK1
100
AcDbCircle
 10
-4.756470000003672
 20
2.937805000000011
 30
0.0
 40
0.16757
100
AcDbArc
 50
268.7043500000015
 51
325.3954800000017
  0
POLYLINE
  5
92A
330
18
100
AcDbEntity
  8
SK1
100
AcDb2dPolyline
 66
     1
 10
0.0
 20
0.0
 30
0.0
  0
VERTEX
  5
92B
330
92A
100
AcDbEntity
  8
SK1
100
AcDbVertex
100
AcDb2dVertex
 10
-5.933777000003601
 20
3.177155000000013
 30
0.0
  0
VERTEX
  5
92C
330
92A
100
AcDbEntity
  8
SK1
100
AcDbVertex
100
AcDb2dVertex
 10
-6.020936000003757
 20
3.076995999999993
 30
0.0
  0
VERTEX
  5
92D
330
92A
100
AcDbEntity
  8
SK1
100
AcDbVertex
100
AcDb2dVertex
 10
-6.049683000003709
 20
3.002716000000006
 30
0.0
  0
SEQEND
  5
92E
330
92A
100
AcDbEntity
  8
SK1
  0
POLYLINE
  5
92F
330
18
100
AcDbEntity
  8
SK1
100
AcDb2dPolyline
 66
     1
 10
0.0
 20
0.0
 30
0.0
  0
VERTEX
  5
930
330
92F
100
AcDbEntity
  8
SK1
100
AcDbVertex
100
AcDb2dVertex
 10
-5.275208000003657
 20
3.002411000000036
 30
0.0
  0
VERTEX
  5
931
330
92F
100
AcDbEntity
  8
SK1
100
AcDbVertex
100
AcDb2dVertex
 10
-5.34668000000363
 20
3.141693000000017
 30
0.0
  0
VERTEX
  5
932
330
92F
100
AcDbEntity
  8
SK1
100
AcDbVertex
100
AcDb2dVertex
 10
-5.390259000003652
 20
3.177032999999979
 30
0.0
  0
SEQEND
  5
933
330
92F
100
AcDbEntity
  8
SK1
  0
LINE
  5
934
330
18
100
AcDbEntity
  8
SK1
 48
0.004304
100
AcDbLine
 10
-4.483521000003633
 20
-2.83840899999997
 30
0.0
 11
-4.535279000003697
 21
-3.002593999999944
 31
0.0
  0
LINE
  5
935
330
18
100
AcDbEntity
  8
SK1
 48
0.004918
100
AcDbLine
 10
-5.216065000003709
 20
2.814789000000004
 30
0.0
 11
-5.275208000003657
 21
3.002411000000036
 31
0.0
  0
LINE
  5
936
330
18
100
AcDbEntity
  8
SK1
 48
0.00813
100
AcDbLine
 10
-4.020264000003634
 20
-2.769988999999966
 30
0.0
 11
-4.345459000003643
 21
-2.770293999999934
 31
0.0
  0
ARC
  5
937
330
18
100
AcDbEntity
  8
SK1
100
AcDbCircle
 10
-4.349244000003636
 20
-2.937500000000013
 30
0.0
 40
0.166825
100
AcDbArc
 50
88.66785799999972
 51
145.5987580000024
  0
LINE
  5
938
330
18
100
AcDbEntity
  8
SK1
 48
0.002524
100
AcDbLine
 10
-6.049683000003709
 20
3.002716000000006
 30
0.0
 11
-6.080140000003665
 21
2.906464000000013
 31
0.0
  0
LINE
  5
939
330
18
100
AcDbEntity
  8
SK1
 48
0.007854
100
AcDbLine
 10
-5.500306000003661
 20
-2.770293999999934
 30
0.0
 11
-5.814454000003705
 21
-2.770568999999923
 31
0.0
  0
LINE
  5
93A
330
18
100
AcDbEntity
  8
SK1
 48
0.00813
100
AcDbLine
 10
-4.760193000003596
 20
2.769959000000014
 30
0.0
 11
-5.085389000003601
 21
2.770233000000004
 31
0.0
  0
ARC
  5
93B
330
18
100
AcDbEntity
  8
SK1
100
AcDbCircle
 10
-5.088074000003643
 20
2.940460000000014
 30
0.0
 40
0.170003
100
AcDbArc
 50
217.1356260000001
 51
270.8847240000002
  0
LINE
  5
93C
330
18
100
AcDbEntity
  8
SK1
 48
0.001805
100
AcDbLine
 10
-6.080140000003665
 20
2.906464000000013
 30
0.0
 11
-6.101929000003677
 21
2.837616000000011
 31
0.0
  0
ARC
  5
93D
330
18
100
AcDbEntity
  8
SK1
100
AcDbCircle
 10
-6.236390000003665
 20
2.937470000000004
 30
0.0
 40
0.167368
100
AcDbArc
 50
268.6747069999979
 51
325.4510499999997
  0
LINE
  5
93E
330
18
100
AcDbEntity
  8
SK1
 48
0.021235
100
AcDbLine
 10
-5.819825000003675
 20
-2.769439999999931
 30
0.0
 11
-6.640137000003732
 21
-2.549103000000016
 31
0.0
  0
LINE
  5
93F
330
18
100
AcDbEntity
  8
SK1
 48
0.002077
100
AcDbLine
 10
-6.559754000003636
 20
2.769440000000017
 30
0.0
 11
-6.6400150000037
 21
2.748015999999991
 31
0.0
  0
LINE
  5
940
330
18
100
AcDbEntity
  8
SK1
 48
0.007854
100
AcDbLine
 10
-6.240296000003695
 20
2.770142000000006
 30
0.0
 11
-6.554444000003627
 21
2.770415999999996
 31
0.0
  0
CIRCLE
  5
941
102
{ACAD_REACTORS
330
944
102
}
330
18
100
AcDbEntity
  8
SKVIEW3
100
AcDbCircle
 10
-40.92091012782065
 20
0.0000919999999667
 30
0.0
 40
8.849999999999997
  0
DIMENSION
  5
942
102
{ACAD_XDICTIONARY
360
943
102
}
102
{ACAD_REACTORS
330
944
102
}
330
18
100
AcDbEntity
  8
SKVIEW2
100
AcDbDimension
  2
*D5
 10
-32.98110546798568
 20
-3.909128122180746
 30
0.0
 11
-58.91389951932556
 21
11.50633303507269
 31
0.0
 70
    35
  1
D17.7
 71
     5
 42
17.69999999999999
  3
STANDARD
100
AcDbDiametricDimension
 15
-48.86071478765565
 25
3.909312122180678
 35
0.0
 40
0.0
1001
ACAD_DSTYLE_DIMRADIAL_EXTENSION
1070
   387
1070
     1
1070
   388
1040
0.0
1070
   390
1040
0.0
1001
ACAD
1000
DSTYLE
1002
{
1070
   271
1070
     1
1070
   288
1070
     1
1002
}
  0
DIMENSION
  5
945
330
18
100
AcDbEntity
  8
2
100
AcDbDimension
  2
*D4
 10
15.22217425252336
 20
-4.498431368942011
 30
0.0
 11
12.84717425252336
 21
4.793235297724656
 31
0.0
 70
    32
 71
     5
 42
3.834519625204093
  3
STANDARD
100
AcDbAlignedDimension
 13
1.748326275534792
 23
-8.332950994146102
 33
0.0
 14
0.7707993126454653
 24
-4.498431368942006
 34
0.0
 50
90.0
100
AcDbRotatedDimension
1001
ACAD
1000
DSTYLE
1002
{
1070
   271
1070
     1
1002
}
  0
DIMENSION
  5
946
102
{ACAD_XDICTIONARY
360
947
102
}
102
{ACAD_REACTORS
330
948
102
}
330
18
100
AcDbEntity
  8
2
100
AcDbDimension
  2
*D6
 10
0.6398477390591784
 20
15.09319542691486
 30
0.0
 11
-8.318485594274156
 21
17.46819542691486
 31
0.0
 70
    32
 71
     5
 42
1.206796800900689
  3
STANDARD
100
AcDbAlignedDimension
 13
1.846644539959868
 23
7.522405362564213
 33
0.0
 14
0.639847739059178
 24
7.522398761144201
 34
0.0
100
AcDbRotatedDimension
1001
ACAD
1000
DSTYLE
1002
{
1070
   271
1070
     1
1002
}
  0
INSERT
  5
949
330
18
100
AcDbEntity
  8
2
100
AcDbBlockReference
  2
CUT
 10
-192.6991588715435
 20
-92.72473721015362
 30
0.0
  0
LINE
  5
94A
330
18
100
AcDbEntity
  8
SKVIEW4
100
AcDbLine
 10
-53.66094547589147
 20
0.0000919999999667
 30
0.0
 11
-28.90789712498827
 21
0.0000919999999667
 31
0.0
  0
LINE
  5
94B
330
18
100
AcDbEntity
  8
4
100
AcDbLine
 10
0.0900000000001455
 20
0.0000919999999667
 30
0.0
 11
10.31219199853729
 21
0.0000919999999667
 31
0.0
  0
INSERT
  5
94C
330
18
100
AcDbEntity
  8
NOCUT
100
AcDbBlockReference
  2
NOCUT
 10
-218.8573323695331
 20
95.82740681305056
 30
0.0
 41
-1.0
 50
180.0000000000016
  0
DIMENSION
  5
94D
102
{ACAD_XDICTIONARY
360
94E
102
}
102
{ACAD_REACTORS
330
94F
102
}
330
18
100
AcDbEntity
  8
2
100
AcDbDimension
  2
*D7
 10
0.6898291786672817
 20
7.523761000000035
 30
0.0
 11
-15.29421488793747
 21
10.35314070269553
 31
0.0
 70
   164
 71
     5
 42
0.0499999999998502
  3
STANDARD
100
AcDbRadialDimension
 15
0.6405945758731379
 25
7.532476152763351
 35
0.0
 40
0.0
1001
ACAD
1000
DSTYLE
1002
{
1070
   288
1070
     1
1002
}
1001
ACAD_DSTYLE_DIMRADIAL_EXTENSION
1070
   387
1070
     1
1070
   388
1040
1.570796326794868
1070
   390
1040
3.168840802365448
  0
INSERT
  5
950
330
18
100
AcDbEntity
  8
2
100
AcDbBlockReference
  2
CERO_POINT
 10
-0.000000000003638
 20
0.0
 30
0.0
  0
LINE
  5
955
330
18
100
AcDbEntity
  8
SKVIEW4
100
AcDbLine
 10
-40.92008959552475
 20
-11.23969644379686
 30
0.0
 11
-40.92091012782065
 21
12.16137768007954
 31
0.0
  0
LINE
  5
956
330
18
100
AcDbEntity
  8
SK4
100
AcDbLine
 10
-0.000000000003638
 20
0.0
 30
0.0
 11
-7.44724040762199
 21
0.0000919999999667
 31
0.0
  0
ATTDEF
  5
A39
330
18
100
AcDbEntity
  8
SK6
100
AcDbText
 10
-33.22764803026268
 20
-35.72082051649412
 30
0.0
 40
2.5
  1

 72
     1
 11
-17.81098136359601
 21
-35.72082051649412
 31
0.0
100
AcDbAttributeDefinition
  3

  2
16T17712T6RK00
 70
     0
  0
ENDSEC
  0
SECTION
  2
OBJECTS
  0
DICTIONARY
  5
C
330
0
100
AcDbDictionary
281
     1
  3
ACAD_CIP_PREVIOUS_PRODUCT_INFO
350
A0F
  3
ACAD_COLOR
350
387
  3
ACAD_GROUP
350
D
  3
ACAD_LAYOUT
350
301
  3
ACAD_MATERIAL
350
386
  3
ACAD_MLEADERSTYLE
350
43C
  3
ACAD_MLINESTYLE
350
E
  3
ACAD_PLOTSETTINGS
350
302
  3
ACAD_PLOTSTYLENAME
350
2FF
  3
ACAD_SCALELIST
350
41A
  3
ACAD_TABLESTYLE
350
388
  3
ACAD_VISUALSTYLE
350
3F2
  3
ACDB_RECOMPOSE_DATA
350
A3F
  3
AcDbVariableDictionary
350
357
  3
AEC_PROPERTY_SET_DEFS
350
741
  3
ASE_INDEX_DICTIONARY
350
9DF
  0
DICTIONARY
  5
451
330
2
100
AcDbDictionary
280
     1
281
     1
  3
ACAD_LAYERFILTERS
360
491
  3
ACLYDICTIONARY
360
490
  0
DICTIONARY
  5
9C2
330
F
100
AcDbDictionary
280
     1
281
     1
  3
ADSK_XREC_LAYER_RECONCILED
360
9C3
  0
DICTIONARY
  5
9C4
330
23
100
AcDbDictionary
280
     1
281
     1
  3
ADSK_XREC_LAYER_RECONCILED
360
9C5
  0
DICTIONARY
  5
9C6
330
24
100
AcDbDictionary
280
     1
281
     1
  3
ADSK_XREC_LAYER_RECONCILED
360
9C7
  0
DICTIONARY
  5
9C8
330
25
100
AcDbDictionary
280
     1
281
     1
  3
ADSK_XREC_LAYER_RECONCILED
360
9C9
  0
DICTIONARY
  5
9CA
330
27
100
AcDbDictionary
280
     1
281
     1
  3
ADSK_XREC_LAYER_RECONCILED
360
9CB
  0
DICTIONARY
  5
9CC
330
2A
100
AcDbDictionary
280
     1
281
     1
  3
ADSK_XREC_LAYER_RECONCILED
360
9CD
  0
DICTIONARY
  5
9CE
330
2B
100
AcDbDictionary
280
     1
281
     1
  3
ADSK_XREC_LAYER_RECONCILED
360
9CF
  0
DICTIONARY
  5
9D0
330
2E
100
AcDbDictionary
280
     1
281
     1
  3
ADSK_XREC_LAYER_RECONCILED
360
9D1
  0
DICTIONARY
  5
9D2
330
375
100
AcDbDictionary
280
     1
281
     1
  3
ADSK_XREC_LAYER_RECONCILED
360
9D3
  0
DICTIONARY
  5
9D4
330
376
100
AcDbDictionary
280
     1
281
     1
  3
ADSK_XREC_LAYER_RECONCILED
360
9D5
  0
DICTIONARY
  5
9D6
330
479
100
AcDbDictionary
280
     1
281
     1
  3
ADSK_XREC_LAYER_RECONCILED
360
9D7
  0
DICTIONARY
  5
9D8
330
47D
100
AcDbDictionary
280
     1
281
     1
  3
ADSK_XREC_LAYER_RECONCILED
360
9D9
  0
DICTIONARY
  5
9DA
330
47E
100
AcDbDictionary
280
     1
281
     1
  3
ADSK_XREC_LAYER_RECONCILED
360
9DB
  0
DICTIONARY
  5
9DC
330
47F
100
AcDbDictionary
280
     1
281
     1
  3
ADSK_XREC_LAYER_RECONCILED
360
9DD
  0
DICTIONARY
  5
A3A
330
18
100
AcDbDictionary
280
     1
281
     1
  3
ACAD_SORTENTS
360
A3B
  0
DICTIONARY
  5
4BD
330
4BC
100
AcDbDictionary
280
     1
281
     1
  3
ACAD_SORTENTS
360
4BE
  0
DICTIONARY
  5
4D0
330
4CF
100
AcDbDictionary
280
     1
281
     1
  0
DICTIONARY
  5
4F6
330
4F5
100
AcDbDictionary
280
     1
281
     1
  3
ACAD_SORTENTS
360
4F7
  0
DICTIONARY
  5
943
330
942
100
AcDbDictionary
280
     1
281
     1
  3
ACAD_DIMASSOC
360
944
  0
DICTIONARY
  5
947
330
946
100
AcDbDictionary
280
     1
281
     1
  3
ACAD_DIMASSOC
360
948
  0
DICTIONARY
  5
94E
330
94D
100
AcDbDictionary
280
     1
281
     1
  3
ACAD_DIMASSOC
360
94F
  0
XRECORD
  5
A0F
102
{ACAD_REACTORS
330
C
102
}
330
C
100
AcDbXrecord
280
     1
300
ACDLT
300
2012
300
ACDLT_F_S
  0
DICTIONARY
  5
387
102
{ACAD_REACTORS
330
C
102
}
330
C
100
AcDbDictionary
281
     1
  0
DICTIONARY
  5
D
102
{ACAD_REACTORS
330
C
102
}
330
C
100
AcDbDictionary
281
     1
  0
DICTIONARY
  5
301
102
{ACAD_REACTORS
330
C
102
}
330
C
100
AcDbDictionary
281
     1
  3
Layout1
350
33B
  3
Model
350
303
  0
DICTIONARY
  5
386
102
{ACAD_REACTORS
330
C
102
}
330
C
100
AcDbDictionary
281
     1
  3
ByBlock
350
3F0
  3
ByLayer
350
3EF
  3
Global
350
3F1
  0
DICTIONARY
  5
43C
102
{ACAD_REACTORS
330
C
102
}
330
C
100
AcDbDictionary
281
     1
  3
Standard
350
43D
  0
DICTIONARY
  5
E
102
{ACAD_REACTORS
330
C
102
}
330
C
100
AcDbDictionary
281
     1
  3
STANDARD
350
1B
  0
DICTIONARY
  5
302
102
{ACAD_REACTORS
330
C
102
}
330
C
100
AcDbDictionary
281
     1
  0
ACDBDICTIONARYWDFLT
  5
2FF
102
{ACAD_REACTORS
330
C
102
}
330
C
100
AcDbDictionary
281
     1
  3
Normal
350
300
100
AcDbDictionaryWithDefault
340
300
  0
DICTIONARY
  5
41A
102
{ACAD_REACTORS
330
C
102
}
330
C
100
AcDbDictionary
281
     1
  3
A0
350
41B
  3
A1
350
41C
  3
A2
350
41D
  3
A3
350
41E
  3
A4
350
41F
  3
A5
350
420
  3
A6
350
421
  3
A7
350
422
  3
A8
350
423
  3
A9
350
424
  3
B0
350
425
  3
B1
350
426
  3
B2
350
427
  3
B3
350
428
  3
B4
350
429
  3
B5
350
42A
  3
B6
350
42B
  3
B7
350
42C
  3
B8
350
42D
  3
B9
350
42E
  3
C0
350
42F
  3
C1
350
430
  3
C2
350
431
  3
C3
350
432
  3
C4
350
433
  3
C5
350
434
  3
C6
350
435
  3
C7
350
436
  3
C8
350
437
  3
C9
350
438
  3
D0
350
439
  3
D1
350
43A
  3
D2
350
43B
  0
DICTIONARY
  5
388
102
{ACAD_REACTORS
330
C
102
}
330
C
100
AcDbDictionary
281
     1
  3
Standard
350
389
  0
DICTIONARY
  5
3F2
102
{ACAD_REACTORS
330
C
102
}
330
C
100
AcDbDictionary
281
     1
  3
2dWireframe
350
3F8
  3
3D Hidden
350
3FA
  3
3dWireframe
350
3F9
  3
Basic
350
3F7
  3
Brighten
350
3FE
  3
ColorChange
350
402
  3
Conceptual
350
3FB
  3
Dim
350
3FD
  3
EdgeColorOff
350
A0D
  3
Facepattern
350
401
  3
Flat
350
3F3
  3
FlatWithEdges
350
3F4
  3
Gouraud
350
3F5
  3
GouraudWithEdges
350
3F6
  3
Hidden
350
A05
  3
JitterOff
350
A0B
  3
Linepattern
350
400
  3
OverhangOff
350
A0C
  3
Realistic
350
3FC
  3
Shaded
350
A0A
  3
Shaded with edges
350
A09
  3
Shades of Gray
350
A06
  3
Sketchy
350
A07
  3
Thicken
350
3FF
  3
Wireframe
350
A04
  3
X-Ray
350
A08
  0
XRECORD
  5
A3F
102
{ACAD_REACTORS
330
C
102
}
330
C
100
AcDbXrecord
280
     1
 90
        1
330
389
  0
DICTIONARY
  5
357
102
{ACAD_REACTORS
330
C
102
}
330
C
100
AcDbDictionary
281
     1
  3
CANNOSCALE
350
449
  3
CMLEADERSTYLE
350
447
  3
CTABLESTYLE
350
38E
  3
DIMASSOC
350
359
  3
HIDETEXT
350
358
  3
INDEXCTL
350
9F3
  3
LIGHTINGUNITS
350
44A
  3
MSLTSCALE
350
448
  3
SORTENTS
350
9F2
  3
XCLIPFRAME
350
A3C
  0
DICTIONARY
  5
741
102
{ACAD_REACTORS
330
C
102
}
330
C
100
AcDbDictionary
281
     1
  0
DICTIONARY
  5
9DF
102
{ACAD_REACTORS
330
C
102
}
330
C
100
AcDbDictionary
281
     1
  3
ASEBlockHierarchyIndexRecord
350
9E0
1001
DCO15
1040
1676632074.88
  0
DICTIONARY
  5
491
102
{ACAD_REACTORS
330
451
102
}
330
451
100
AcDbDictionary
281
     1
  0
DICTIONARY
  5
490
102
{ACAD_REACTORS
330
451
102
}
330
451
100
AcDbDictionary
281
     1
1001
ACAD
1000
<All
  0
XRECORD
  5
9C3
102
{ACAD_REACTORS
330
9C2
102
}
330
9C2
100
AcDbXrecord
280
     1
290
     1
  0
XRECORD
  5
9C5
102
{ACAD_REACTORS
330
9C4
102
}
330
9C4
100
AcDbXrecord
280
     1
290
     1
  0
XRECORD
  5
9C7
102
{ACAD_REACTORS
330
9C6
102
}
330
9C6
100
AcDbXrecord
280
     1
290
     1
  0
XRECORD
  5
9C9
102
{ACAD_REACTORS
330
9C8
102
}
330
9C8
100
AcDbXrecord
280
     1
290
     1
  0
XRECORD
  5
9CB
102
{ACAD_REACTORS
330
9CA
102
}
330
9CA
100
AcDbXrecord
280
     1
290
     1
  0
XRECORD
  5
9CD
102
{ACAD_REACTORS
330
9CC
102
}
330
9CC
100
AcDbXrecord
280
     1
290
     1
  0
XRECORD
  5
9CF
102
{ACAD_REACTORS
330
9CE
102
}
330
9CE
100
AcDbXrecord
280
     1
290
     1
  0
XRECORD
  5
9D1
102
{ACAD_REACTORS
330
9D0
102
}
330
9D0
100
AcDbXrecord
280
     1
290
     1
  0
XRECORD
  5
9D3
102
{ACAD_REACTORS
330
9D2
102
}
330
9D2
100
AcDbXrecord
280
     1
290
     1
  0
XRECORD
  5
9D5
102
{ACAD_REACTORS
330
9D4
102
}
330
9D4
100
AcDbXrecord
280
     1
290
     1
  0
XRECORD
  5
9D7
102
{ACAD_REACTORS
330
9D6
102
}
330
9D6
100
AcDbXrecord
280
     1
290
     1
  0
XRECORD
  5
9D9
102
{ACAD_REACTORS
330
9D8
102
}
330
9D8
100
AcDbXrecord
280
     1
290
     1
  0
XRECORD
  5
9DB
102
{ACAD_REACTORS
330
9DA
102
}
330
9DA
100
AcDbXrecord
280
     1
290
     1
  0
XRECORD
  5
9DD
102
{ACAD_REACTORS
330
9DC
102
}
330
9DC
100
AcDbXrecord
280
     1
290
     1
  0
SORTENTSTABLE
  5
A3B
102
{ACAD_REACTORS
330
A3A
102
}
330
A3A
100
AcDbSortentsTable
330
18
331
956
  5
A39
331
87E
  5
87E
331
820
  5
820
331
93C
  5
93C
331
8E4
  5
8E4
331
831
  5
831
331
7F5
  5
7F5
331
7D3
  5
7D3
331
7B1
  5
7B1
331
78F
  5
78F
331
853
  5
853
331
942
  5
942
331
7A0
  5
7A0
331
762
  5
762
331
A39
  5
A37
331
840
  5
840
331
8F6
  5
8F6
331
8C0
  5
8C0
331
93A
  5
93A
331
8E2
  5
8E2
331
82F
  5
82F
331
7F3
  5
7F3
331
7D1
  5
7D1
331
7AF
  5
7AF
331
78D
  5
78D
331
940
  5
940
331
929
  5
929
331
81E
  5
81E
331
79E
  5
79E
331
782
  5
782
331
760
  5
760
331
74F
  5
74F
331
8F4
  5
8F4
331
938
  5
938
331
916
  5
916
331
8E0
  5
8E0
331
82D
  5
82D
331
80B
  5
80B
331
7F1
  5
7F1
331
7AD
  5
7AD
331
905
  5
905
331
8AD
  5
8AD
331
927
  5
927
331
81C
  5
81C
331
7E0
  5
7E0
331
7BE
  5
7BE
331
79C
  5
79C
331
780
  5
780
331
75E
  5
75E
331
83E
  5
83E
331
76F
  5
76F
331
74D
  5
74D
331
950
  5
950
331
89A
  5
89A
331
94D
  5
94D
331
936
  5
936
331
914
  5
914
331
8DE
  5
8DE
331
82B
  5
82B
331
809
  5
809
331
7EF
  5
7EF
331
7AB
  5
7AB
331
903
  5
903
331
925
  5
925
331
8AB
  5
8AB
331
8EF
  5
8EF
331
81A
  5
81A
331
7DE
  5
7DE
331
79A
  5
79A
331
77E
  5
77E
331
75C
  5
75C
331
83C
  5
83C
331
85E
  5
85E
331
76D
  5
76D
331
74B
  5
74B
331
94B
  5
94B
331
934
  5
934
331
912
  5
912
331
8DC
  5
8DC
331
829
  5
829
331
807
  5
807
331
7ED
  5
7ED
331
7A9
  5
7A9
331
923
  5
923
331
901
  5
901
331
818
  5
818
331
7FE
  5
7FE
331
798
  5
798
331
77C
  5
77C
331
75A
  5
75A
331
83A
  5
83A
331
85C
  5
85C
331
76B
  5
76B
331
749
  5
749
331
949
  5
949
331
8DA
  5
8DA
331
849
  5
849
331
805
  5
805
331
7EB
  5
7EB
331
86B
  5
86B
331
816
  5
816
331
7FC
  5
7FC
331
796
  5
796
331
77A
  5
77A
331
838
  5
838
331
85A
  5
85A
331
7A7
  5
7A7
331
769
  5
769
331
747
  5
747
331
8D8
  5
8D8
331
869
  5
869
331
803
  5
803
331
7E9
  5
7E9
331
814
  5
814
331
7FA
  5
7FA
331
7B6
  5
7B6
331
794
  5
794
331
836
  5
836
331
894
  5
894
331
858
  5
858
331
7A5
  5
7A5
331
767
  5
767
331
745
  5
745
331
823
  5
823
331
801
  5
801
331
93F
  5
93F
331
91D
  5
91D
331
7F8
  5
7F8
331
792
  5
792
331
834
  5
834
331
892
  5
892
331
856
  5
856
331
945
  5
945
331
90C
  5
90C
331
7E7
  5
7E7
331
7C5
  5
7C5
331
7A3
  5
7A3
331
765
  5
765
331
743
  5
743
331
87F
  5
87F
331
821
  5
821
331
93D
  5
93D
331
8E5
  5
8E5
331
832
  5
832
331
810
  5
810
331
7F6
  5
7F6
331
7D4
  5
7D4
331
790
  5
790
331
854
  5
854
331
90A
  5
90A
331
7A1
  5
7A1
331
763
  5
763
331
955
  5
A38
331
87D
  5
87D
331
841
  5
841
331
8F7
  5
8F7
331
8C1
  5
8C1
331
93B
  5
93B
331
8E3
  5
8E3
331
830
  5
830
331
7F4
  5
7F4
331
7D2
  5
7D2
331
7B0
  5
7B0
331
78E
  5
78E
331
874
  5
874
331
941
  5
941
331
92A
  5
92A
331
81F
  5
81F
331
79F
  5
79F
331
783
  5
783
331
761
  5
761
331
750
  5
750
331
8F5
  5
8F5
331
917
  5
917
331
939
  5
939
331
8E1
  5
8E1
331
8BF
  5
8BF
331
82E
  5
82E
331
7F2
  5
7F2
331
7AE
  5
7AE
331
78C
  5
78C
331
770
  5
770
331
928
  5
928
331
8D0
  5
8D0
331
81D
  5
81D
331
79D
  5
79D
331
781
  5
781
331
75F
  5
75F
331
83F
  5
83F
331
74E
  5
74E
331
937
  5
937
331
915
  5
915
331
8DF
  5
8DF
331
82C
  5
82C
331
80A
  5
80A
331
7F0
  5
7F0
331
7AC
  5
7AC
331
904
  5
904
331
926
  5
926
331
8AC
  5
8AC
331
81B
  5
81B
331
7DF
  5
7DF
331
79B
  5
79B
331
77F
  5
77F
331
75D
  5
75D
331
83D
  5
83D
331
85F
  5
85F
331
76E
  5
76E
331
74C
  5
74C
331
94C
  5
94C
331
913
  5
913
331
935
  5
935
331
8DD
  5
8DD
331
82A
  5
82A
331
808
  5
808
331
7EE
  5
7EE
331
7CC
  5
7CC
331
7AA
  5
7AA
331
888
  5
888
331
924
  5
924
331
902
  5
902
331
819
  5
819
331
7FF
  5
7FF
331
799
  5
799
331
77D
  5
77D
331
75B
  5
75B
331
83B
  5
83B
331
85D
  5
85D
331
76C
  5
76C
331
74A
  5
74A
331
94A
  5
94A
331
911
  5
911
331
8DB
  5
8DB
331
806
  5
806
331
7EC
  5
7EC
331
7A8
  5
7A8
331
86C
  5
86C
331
922
  5
922
331
817
  5
817
331
7FD
  5
7FD
331
797
  5
797
331
77B
  5
77B
331
759
  5
759
331
839
  5
839
331
85B
  5
85B
331
76A
  5
76A
331
748
  5
748
331
8D9
  5
8D9
331
804
  5
804
331
7EA
  5
7EA
331
86A
  5
86A
331
8EA
  5
8EA
331
8C8
  5
8C8
331
815
  5
815
331
7FB
  5
7FB
331
7B7
  5
7B7
331
795
  5
795
331
779
  5
779
331
837
  5
837
331
895
  5
895
331
859
  5
859
331
7A6
  5
7A6
331
768
  5
768
331
746
  5
746
331
868
  5
868
331
824
  5
824
331
802
  5
802
331
7E8
  5
7E8
331
8FC
  5
8FC
331
7F9
  5
7F9
331
793
  5
793
331
835
  5
835
331
893
  5
893
331
857
  5
857
331
946
  5
946
331
92F
  5
92F
331
8D7
  5
8D7
331
8B5
  5
8B5
331
7A4
  5
7A4
331
766
  5
766
331
744
  5
744
331
822
  5
822
331
800
  5
800
331
91C
  5
91C
331
8A2
  5
8A2
331
93E
  5
93E
331
833
  5
833
331
7F7
  5
7F7
331
7D5
  5
7D5
331
791
  5
791
331
891
  5
891
331
855
  5
855
331
90B
  5
90B
331
7A2
  5
7A2
331
764
  5
764
  0
SORTENTSTABLE
  5
4BE
102
{ACAD_REACTORS
330
4BD
102
}
330
4BD
100
AcDbSortentsTable
330
4BC
331
4C6
  5
2A8
331
4CA
  5
2AA
331
4C7
  5
2A7
331
4C9
  5
2AB
  0
SORTENTSTABLE
  5
4F7
102
{ACAD_REACTORS
330
4F6
102
}
330
4F6
100
AcDbSortentsTable
330
4F5
  0
DIMASSOC
  5
944
102
{ACAD_REACTORS
330
943
102
}
330
943
100
AcDbDimAssoc
330
942
 90
        2
 70
     0
 71
     0
  1
AcDbOsnapPointRef
 72
     3
331
941
 73
     2
 91
        0
 40
0.0
 10
0.0
 20
0.0
 30
0.0
 75
     0
  0
DIMASSOC
  5
948
102
{ACAD_REACTORS
330
947
102
}
330
947
100
AcDbDimAssoc
330
946
 90
        3
 70
     0
 71
     0
  1
AcDbOsnapPointRef
 72
    13
331
802
 73
     2
 91
        0
 40
0.0
 10
0.0
 20
0.0
 30
2.000000000000000E+50
 75
     0
  1
AcDbOsnapPointRef
 72
    13
331
82B
 73
     2
 91
        0
 40
0.0
 10
0.0
 20
0.0
 30
2.000000000000000E+50
 75
     0
  0
DIMASSOC
  5
94F
102
{ACAD_REACTORS
330
94E
102
}
330
94E
100
AcDbDimAssoc
330
94D
 90
        2
 70
     0
 71
     0
  1
AcDbOsnapPointRef
 72
     3
331
833
 73
     2
 91
        0
 40
0.0
 10
0.0
 20
0.0
 30
0.0
 75
     0
  0
LAYOUT
  5
33B
102
{ACAD_REACTORS
330
301
102
}
330
301
100
AcDbPlotSettings
  1

  2
Lexmark Optra PS2
  4

  6

 40
0.0
 41
0.0
 42
0.0
 43
0.0
 44
0.0
 45
0.0
 46
0.0
 47
0.0
 48
0.0
 49
0.0
140
0.0
141
0.0
142
1.0
143
1.0
 70
   688
 72
     0
 73
     0
 74
     5
  7
monochrome.ctb
 75
    16
147
1.0
 76
     0
 77
     2
 78
   300
148
0.0
149
0.0
100
AcDbLayout
  1
Layout1
 70
     1
 71
     1
 10
0.0
 20
0.0
 11
12.0
 21
9.0
 12
0.0
 22
0.0
 32
0.0
 14
0.0
 24
0.0
 34
0.0
 15
0.0
 25
0.0
 35
0.0
146
0.0
 13
0.0
 23
0.0
 33
0.0
 16
1.0
 26
0.0
 36
0.0
 17
0.0
 27
1.0
 37
0.0
 76
     0
330
338
  0
LAYOUT
  5
303
102
{ACAD_REACTORS
330
301
102
}
330
301
100
AcDbPlotSettings
  1

  2
Default Windows System Printer.pc3
  4
A4
  6

 40
6.805083274841307
 41
5.535083293914794
 42
6.974411010742187
 43
7.14373779296875
 44
209.9733276367186
 45
296.9259948730469
 46
67.83299579489725
 47
0.0
 48
0.0
 49
0.0
140
0.0
141
0.0
142
1.0
143
0.3604333568168785
 70
  3764
 72
     1
 73
     1
 74
     1
  7
monochrome.ctb
 75
     0
147
2.774437995504559
 76
     1
 77
     2
 78
   300
148
-82.35087775247029
149
-53.69369632994493
100
AcDbLayout
  1
Model
 70
     1
 71
     0
 10
0.0
 20
0.0
 11
12.0
 21
9.0
 12
0.0
 22
0.0
 32
0.0
 14
0.0
 24
0.0
 34
0.0
 15
0.0
 25
0.0
 35
0.0
146
0.0
 13
0.0
 23
0.0
 33
0.0
 16
1.0
 26
0.0
 36
0.0
 17
0.0
 27
1.0
 37
0.0
 76
     0
330
18
331
3ED
1001
ACAD_PSEXT
1000
Default Windows System Printer.pc3
1000
Lexmark Optra Rx
1000
Lexmark Rx
1000
Erstellt von Lexmark Benutzerdefinierte Installation,Nov 13,2005,10:03
1070
     0
  0
MATERIAL
  5
3F0
102
{ACAD_XDICTIONARY
360
9FD
102
}
102
{ACAD_REACTORS
330
386
102
}
330
386
100
AcDbMaterial
  1
ByBlock
 73
     1
 78
     1
172
     1
176
     1
270
     1
274
     1
  0
MATERIAL
  5
3EF
102
{ACAD_XDICTIONARY
360
9FB
102
}
102
{ACAD_REACTORS
330
386
102
}
330
386
100
AcDbMaterial
  1
ByLayer
 73
     1
 78
     1
172
     1
176
     1
270
     1
274
     1
  0
MATERIAL
  5
3F1
102
{ACAD_XDICTIONARY
360
9FF
102
}
102
{ACAD_REACTORS
330
386
102
}
330
386
100
AcDbMaterial
  1
Global
 73
     1
 78
     1
172
     1
176
     1
270
     1
274
     1
  0
MLEADERSTYLE
  5
43D
102
{ACAD_REACTORS
330
43C
102
}
330
43C
100
AcDbMLeaderStyle
170
     2
171
     1
172
     0
 90
        2
 40
0.0
 41
0.0
173
     1
 91
-1056964608
340
12
 92
       -2
290
     1
 42
2.0
291
     1
 43
0.36
  3
Standard
 44
4.0
300

342
10
174
     1
178
     6
175
     1
176
     0
 93
-1056964608
 45
4.0
292
     0
297
     0
 46
4.0
 94
-1056964608
 47
1.0
 49
1.0
140
1.0
293
     1
141
0.0
294
     1
177
     0
142
1.0
295
     0
296
     0
143
0.125
1001
ACAD_MLEADERVER
1070
     2
  0
MLINESTYLE
  5
1B
102
{ACAD_REACTORS
330
E
102
}
330
E
100
AcDbMlineStyle
  2
STANDARD
 70
     0
  3

 62
     0
 51
90.0
 52
90.0
 71
     2
 49
0.5
 62
   256
  6
BYLAYER
 49
-0.5
 62
   256
  6
BYLAYER
  0
ACDBPLACEHOLDER
  5
300
102
{ACAD_REACTORS
330
2FF
102
}
330
2FF
  0
SCALE
  5
41B
102
{ACAD_REACTORS
330
41A
102
}
330
41A
100
AcDbScale
 70
     0
300
1:1
140
1.0
141
1.0
290
     1
  0
SCALE
  5
41C
102
{ACAD_REACTORS
330
41A
102
}
330
41A
100
AcDbScale
 70
     0
300
1:2
140
1.0
141
2.0
290
     0
  0
SCALE
  5
41D
102
{ACAD_REACTORS
330
41A
102
}
330
41A
100
AcDbScale
 70
     0
300
1:4
140
1.0
141
4.0
290
     0
  0
SCALE
  5
41E
102
{ACAD_REACTORS
330
41A
102
}
330
41A
100
AcDbScale
 70
     0
300
1:5
140
1.0
141
5.0
290
     0
  0
SCALE
  5
41F
102
{ACAD_REACTORS
330
41A
102
}
330
41A
100
AcDbScale
 70
     0
300
1:8
140
1.0
141
8.0
290
     0
  0
SCALE
  5
420
102
{ACAD_REACTORS
330
41A
102
}
330
41A
100
AcDbScale
 70
     0
300
1:10
140
1.0
141
10.0
290
     0
  0
SCALE
  5
421
102
{ACAD_REACTORS
330
41A
102
}
330
41A
100
AcDbScale
 70
     0
300
1:16
140
1.0
141
16.0
290
     0
  0
SCALE
  5
422
102
{ACAD_REACTORS
330
41A
102
}
330
41A
100
AcDbScale
 70
     0
300
1:20
140
1.0
141
20.0
290
     0
  0
SCALE
  5
423
102
{ACAD_REACTORS
330
41A
102
}
330
41A
100
AcDbScale
 70
     0
300
1:30
140
1.0
141
30.0
290
     0
  0
SCALE
  5
424
102
{ACAD_REACTORS
330
41A
102
}
330
41A
100
AcDbScale
 70
     0
300
1:40
140
1.0
141
40.0
290
     0
  0
SCALE
  5
425
102
{ACAD_REACTORS
330
41A
102
}
330
41A
100
AcDbScale
 70
     0
300
1:50
140
1.0
141
50.0
290
     0
  0
SCALE
  5
426
102
{ACAD_REACTORS
330
41A
102
}
330
41A
100
AcDbScale
 70
     0
300
1:100
140
1.0
141
100.0
290
     0
  0
SCALE
  5
427
102
{ACAD_REACTORS
330
41A
102
}
330
41A
100
AcDbScale
 70
     0
300
2:1
140
2.0
141
1.0
290
     0
  0
SCALE
  5
428
102
{ACAD_REACTORS
330
41A
102
}
330
41A
100
AcDbScale
 70
     0
300
4:1
140
4.0
141
1.0
290
     0
  0
SCALE
  5
429
102
{ACAD_REACTORS
330
41A
102
}
330
41A
100
AcDbScale
 70
     0
300
8:1
140
8.0
141
1.0
290
     0
  0
SCALE
  5
42A
102
{ACAD_REACTORS
330
41A
102
}
330
41A
100
AcDbScale
 70
     0
300
10:1
140
10.0
141
1.0
290
     0
  0
SCALE
  5
42B
102
{ACAD_REACTORS
330
41A
102
}
330
41A
100
AcDbScale
 70
     0
300
100:1
140
100.0
141
1.0
290
     0
  0
SCALE
  5
42C
102
{ACAD_REACTORS
330
41A
102
}
330
41A
100
AcDbScale
 70
     0
300
1/128" = 1'-0"
140
0.0078125
141
12.0
290
     0
  0
SCALE
  5
42D
102
{ACAD_REACTORS
330
41A
102
}
330
41A
100
AcDbScale
 70
     0
300
1/64" = 1'-0"
140
0.015625
141
12.0
290
     0
  0
SCALE
  5
42E
102
{ACAD_REACTORS
330
41A
102
}
330
41A
100
AcDbScale
 70
     0
300
1/32" = 1'-0"
140
0.03125
141
12.0
290
     0
  0
SCALE
  5
42F
102
{ACAD_REACTORS
330
41A
102
}
330
41A
100
AcDbScale
 70
     0
300
1/16" = 1'-0"
140
0.0625
141
12.0
290
     0
  0
SCALE
  5
430
102
{ACAD_REACTORS
330
41A
102
}
330
41A
100
AcDbScale
 70
     0
300
3/32" = 1'-0"
140
0.09375
141
12.0
290
     0
  0
SCALE
  5
431
102
{ACAD_REACTORS
330
41A
102
}
330
41A
100
AcDbScale
 70
     0
300
1/8" = 1'-0"
140
0.125
141
12.0
290
     0
  0
SCALE
  5
432
102
{ACAD_REACTORS
330
41A
102
}
330
41A
100
AcDbScale
 70
     0
300
3/16" = 1'-0"
140
0.1875
141
12.0
290
     0
  0
SCALE
  5
433
102
{ACAD_REACTORS
330
41A
102
}
330
41A
100
AcDbScale
 70
     0
300
1/4" = 1'-0"
140
0.25
141
12.0
290
     0
  0
SCALE
  5
434
102
{ACAD_REACTORS
330
41A
102
}
330
41A
100
AcDbScale
 70
     0
300
3/8" = 1'-0"
140
0.375
141
12.0
290
     0
  0
SCALE
  5
435
102
{ACAD_REACTORS
330
41A
102
}
330
41A
100
AcDbScale
 70
     0
300
1/2" = 1'-0"
140
0.5
141
12.0
290
     0
  0
SCALE
  5
436
102
{ACAD_REACTORS
330
41A
102
}
330
41A
100
AcDbScale
 70
     0
300
3/4" = 1'-0"
140
0.75
141
12.0
290
     0
  0
SCALE
  5
437
102
{ACAD_REACTORS
330
41A
102
}
330
41A
100
AcDbScale
 70
     0
300
1" = 1'-0"
140
1.0
141
12.0
290
     0
  0
SCALE
  5
438
102
{ACAD_REACTORS
330
41A
102
}
330
41A
100
AcDbScale
 70
     0
300
1-1/2" = 1'-0"
140
1.5
141
12.0
290
     0
  0
SCALE
  5
439
102
{ACAD_REACTORS
330
41A
102
}
330
41A
100
AcDbScale
 70
     0
300
3" = 1'-0"
140
3.0
141
12.0
290
     0
  0
SCALE
  5
43A
102
{ACAD_REACTORS
330
41A
102
}
330
41A
100
AcDbScale
 70
     0
300
6" = 1'-0"
140
6.0
141
12.0
290
     0
  0
SCALE
  5
43B
102
{ACAD_REACTORS
330
41A
102
}
330
41A
100
AcDbScale
 70
     0
300
1'-0" = 1'-0"
140
12.0
141
12.0
290
     0
  0
TABLESTYLE
  5
389
102
{ACAD_XDICTIONARY
360
444
102
}
102
{ACAD_REACTORS
330
388
102
}
330
388
100
AcDbTableStyle
  3
Standard
 70
     0
 71
     0
 40
1.5
 41
1.5
280
     0
281
     0
  7
STANDARD
140
4.5
170
     2
 62
     0
 63
     7
283
     0
274
    -2
284
     1
 64
     0
275
    -2
285
     1
 65
     0
276
    -2
286
     1
 66
     0
277
    -2
287
     1
 67
     0
278
    -2
288
     1
 68
     0
279
    -2
289
     1
 69
     0
  7
STANDARD
140
6.0
170
     5
 62
     0
 63
     7
283
     0
274
    -2
284
     1
 64
     0
275
    -2
285
     1
 65
     0
276
    -2
286
     1
 66
     0
277
    -2
287
     1
 67
     0
278
    -2
288
     1
 68
     0
279
    -2
289
     1
 69
     0
  7
STANDARD
140
4.5
170
     5
 62
     0
 63
     7
283
     0
274
    -2
284
     1
 64
     0
275
    -2
285
     1
 65
     0
276
    -2
286
     1
 66
     0
277
    -2
287
     1
 67
     0
278
    -2
288
     1
 68
     0
279
    -2
289
     1
 69
     0
  0
VISUALSTYLE
  5
3F8
102
{ACAD_XDICTIONARY
360
A4B
102
}
102
{ACAD_REACTORS
330
3F2
102
}
330
3F2
100
AcDbVisualStyle
  2

 70
     4
 71
     0
 72
     2
 73
     0
 90
        0
 40
-0.6
 41
-30.0
 62
     5
 63
     7
 74
     1
 91
        4
 64
     7
 65
   257
 75
     1
175
     1
 42
1.0
 92
        0
 66
   257
 43
1.0
 76
     1
 77
     6
 78
     2
 67
     7
 79
     5
170
     0
171
     0
290
     0
174
     0
 93
        1
 44
0.0
173
     0
291
     0
 45
0.0
1001
ACAD
1000
AcDbSavedByObjectVersion
1070
     0
  0
VISUALSTYLE
  5
3FA
102
{ACAD_XDICTIONARY
360
A4F
102
}
102
{ACAD_REACTORS
330
3F2
102
}
330
3F2
100
AcDbVisualStyle
  2

 70
     6
 71
     1
 72
     2
 73
     2
 90
        0
 40
-0.6
 41
-30.0
 62
     5
 63
     7
 74
     2
 91
        2
 64
     7
 65
   257
 75
     2
175
     1
 42
40.0
 92
        0
 66
   257
 43
1.0
 76
     1
 77
     6
 78
     2
 67
     7
 79
     3
170
     0
171
     0
290
     0
174
     0
 93
        1
 44
0.0
173
     0
291
     0
 45
0.0
1001
ACAD
1000
AcDbSavedByObjectVersion
1070
     0
  0
VISUALSTYLE
  5
3F9
102
{ACAD_XDICTIONARY
360
A4D
102
}
102
{ACAD_REACTORS
330
3F2
102
}
330
3F2
100
AcDbVisualStyle
  2

 70
     5
 71
     0
 72
     2
 73
     0
 90
        0
 40
-0.6
 41
-30.0
 62
     5
 63
     7
 74
     1
 91
        4
 64
     7
 65
   257
 75
     1
175
     1
 42
1.0
 92
        0
 66
   257
 43
1.0
 76
     1
 77
     6
 78
     2
 67
     7
 79
     5
170
     0
171
     0
290
     0
174
     0
 93
        1
 44
0.0
173
     0
291
     0
 45
0.0
1001
ACAD
1000
AcDbSavedByObjectVersion
1070
     0
  0
VISUALSTYLE
  5
3F7
102
{ACAD_XDICTIONARY
360
A49
102
}
102
{ACAD_REACTORS
330
3F2
102
}
330
3F2
100
AcDbVisualStyle
  2

 70
     7
 71
     1
 72
     0
 73
     1
 90
        0
 40
-0.6
 41
-30.0
 62
     5
 63
     7
 74
     0
 91
        4
 64
     7
 65
   257
 75
     1
175
     1
 42
1.0
 92
        8
 66
     7
 43
1.0
 76
     1
 77
     6
 78
     2
 67
     7
 79
     5
170
     0
171
     0
290
     0
174
     0
 93
        1
 44
0.0
173
     0
291
     1
 45
0.0
1001
ACAD
1000
AcDbSavedByObjectVersion
1070
     0
  0
VISUALSTYLE
  5
3FE
102
{ACAD_XDICTIONARY
360
A57
102
}
102
{ACAD_REACTORS
330
3F2
102
}
330
3F2
100
AcDbVisualStyle
  2

 70
    12
 71
     2
 72
     2
 73
     0
 90
        0
 40
-0.6
 41
-30.0
 62
     5
 63
     7
 74
     1
 91
        4
 64
     7
 65
   257
 75
     1
175
     1
 42
1.0
 92
        8
 66
     7
 43
1.0
 76
     1
 77
     6
 78
     2
 67
     7
 79
     5
170
     0
171
     0
290
     0
174
     0
 93
        1
 44
50.0
173
     0
291
     1
 45
0.0
1001
ACAD
1000
AcDbSavedByObjectVersion
1070
     0
  0
VISUALSTYLE
  5
402
102
{ACAD_XDICTIONARY
360
A5F
102
}
102
{ACAD_REACTORS
330
3F2
102
}
330
3F2
100
AcDbVisualStyle
  2

 70
    16
 71
     2
 72
     2
 73
     3
 90
        0
 40
-0.6
 41
-30.0
 62
     5
 63
     8
 74
     1
 91
        4
 64
     7
 65
   257
 75
     1
175
     1
 42
1.0
 92
        8
 66
     8
 43
1.0
 76
     1
 77
     6
 78
     2
 67
     7
 79
     5
170
     0
171
     0
290
     0
174
     0
 93
        1
 44
0.0
173
     0
291
     1
 45
0.0
1001
ACAD
1000
AcDbSavedByObjectVersion
1070
     0
  0
VISUALSTYLE
  5
3FB
102
{ACAD_XDICTIONARY
360
A51
102
}
102
{ACAD_REACTORS
330
3F2
102
}
330
3F2
100
AcDbVisualStyle
  2

 70
     9
 71
     3
 72
     2
 73
     0
 90
        0
 40
-0.6
 41
-30.0
 62
     5
 63
     7
 74
     2
 91
        2
 64
     7
 65
   257
 75
     1
175
     1
 42
40.0
 92
        8
 66
     7
 43
1.0
 76
     1
 77
     6
 78
     2
 67
     7
 79
     3
170
     0
171
     0
290
     0
174
     0
 93
        1
 44
0.0
173
     0
291
     0
 45
0.0
1001
ACAD
1000
AcDbSavedByObjectVersion
1070
     0
  0
VISUALSTYLE
  5
3FD
102
{ACAD_XDICTIONARY
360
A55
102
}
102
{ACAD_REACTORS
330
3F2
102
}
330
3F2
100
AcDbVisualStyle
  2

 70
    11
 71
     2
 72
     2
 73
     0
 90
        0
 40
-0.6
 41
-30.0
 62
     5
 63
     7
 74
     1
 91
        4
 64
     7
 65
   257
 75
     1
175
     1
 42
1.0
 92
        8
 66
     7
 43
1.0
 76
     1
 77
     6
 78
     2
 67
     7
 79
     5
170
     0
171
     0
290
     0
174
     0
 93
        1
 44
-50.0
173
     0
291
     1
 45
0.0
1001
ACAD
1000
AcDbSavedByObjectVersion
1070
     0
  0
VISUALSTYLE
  5
A0D
102
{ACAD_XDICTIONARY
360
A73
102
}
102
{ACAD_REACTORS
330
3F2
102
}
330
3F2
100
AcDbVisualStyle
  2
EdgeColorOff
 70
    22
 71
     2
 72
     2
 73
     0
 90
        0
 40
-0.6
 41
-30.0
 62
     5
 63
     7
421
 16777215
 74
     1
 91
        4
 64
     7
 65
   257
 75
     1
175
     1
 42
1.0
 92
        8
 66
     7
 43
1.0
 76
     1
 77
     6
 78
     2
 67
     7
 79
     5
170
     0
171
     0
290
     0
174
     0
 93
        1
 44
0.0
173
     0
291
     1
 45
0.0
1001
ACAD
1000
AcDbSavedByObjectVersion
1070
     0
  0
VISUALSTYLE
  5
401
102
{ACAD_XDICTIONARY
360
A5D
102
}
102
{ACAD_REACTORS
330
3F2
102
}
330
3F2
100
AcDbVisualStyle
  2

 70
    15
 71
     2
 72
     2
 73
     0
 90
        0
 40
-0.6
 41
-30.0
 62
     5
 63
     7
 74
     1
 91
        4
 64
     7
 65
   257
 75
     1
175
     1
 42
1.0
 92
        8
 66
     7
 43
1.0
 76
     1
 77
     6
 78
     2
 67
     7
 79
     5
170
     0
171
     0
290
     0
174
     0
 93
        1
 44
0.0
173
     0
291
     1
 45
0.0
1001
ACAD
1000
AcDbSavedByObjectVersion
1070
     0
  0
VISUALSTYLE
  5
3F3
102
{ACAD_XDICTIONARY
360
A41
102
}
102
{ACAD_REACTORS
330
3F2
102
}
330
3F2
100
AcDbVisualStyle
  2

 70
     0
 71
     2
 72
     1
 73
     1
 90
        2
 40
-0.6
 41
30.0
 62
     5
 63
     7
 74
     0
 91
        4
 64
     7
 65
   257
 75
     1
175
     1
 42
1.0
 92
        8
 66
     7
 43
1.0
 76
     1
 77
     6
 78
     2
 67
     7
 79
     5
170
     0
171
     0
290
     0
174
     0
 93
       13
 44
0.0
173
     0
291
     1
 45
0.0
1001
ACAD
1000
AcDbSavedByObjectVersion
1070
     0
  0
VISUALSTYLE
  5
3F4
102
{ACAD_XDICTIONARY
360
A43
102
}
102
{ACAD_REACTORS
330
3F2
102
}
330
3F2
100
AcDbVisualStyle
  2

 70
     1
 71
     2
 72
     1
 73
     1
 90
        2
 40
-0.6
 41
30.0
 62
     5
 63
     7
 74
     1
 91
        4
 64
     7
 65
   257
 75
     1
175
     1
 42
1.0
 92
        0
 66
   257
 43
1.0
 76
     1
 77
     6
 78
     2
 67
     7
 79
     5
170
     0
171
     0
290
     0
174
     0
 93
       13
 44
0.0
173
     0
291
     1
 45
0.0
1001
ACAD
1000
AcDbSavedByObjectVersion
1070
     0
  0
VISUALSTYLE
  5
3F5
102
{ACAD_XDICTIONARY
360
A45
102
}
102
{ACAD_REACTORS
330
3F2
102
}
330
3F2
100
AcDbVisualStyle
  2

 70
     2
 71
     2
 72
     2
 73
     1
 90
        2
 40
-0.6
 41
30.0
 62
     5
 63
     7
 74
     0
 91
        4
 64
     7
 65
   257
 75
     1
175
     1
 42
1.0
 92
        0
 66
     7
 43
1.0
 76
     1
 77
     6
 78
     2
 67
     7
 79
     5
170
     0
171
     0
290
     0
174
     0
 93
       13
 44
0.0
173
     0
291
     1
 45
0.0
1001
ACAD
1000
AcDbSavedByObjectVersion
1070
     0
  0
VISUALSTYLE
  5
3F6
102
{ACAD_XDICTIONARY
360
A47
102
}
102
{ACAD_REACTORS
330
3F2
102
}
330
3F2
100
AcDbVisualStyle
  2

 70
     3
 71
     2
 72
     2
 73
     1
 90
        2
 40
-0.6
 41
30.0
 62
     5
 63
     7
 74
     1
 91
        4
 64
     7
 65
   257
 75
     1
175
     1
 42
1.0
 92
        0
 66
   257
 43
1.0
 76
     1
 77
     6
 78
     2
 67
     7
 79
     5
170
     0
171
     0
290
     0
174
     0
 93
       13
 44
0.0
173
     0
291
     1
 45
0.0
1001
ACAD
1000
AcDbSavedByObjectVersion
1070
     0
  0
VISUALSTYLE
  5
A05
102
{ACAD_XDICTIONARY
360
A63
102
}
102
{ACAD_REACTORS
330
3F2
102
}
330
3F2
100
AcDbVisualStyle
  2
Hidden
 70
     6
 71
     1
 72
     2
 73
     2
 90
        0
 40
-0.6
 41
-30.0
 62
     5
 63
     7
421
 16777215
 74
     2
 91
        2
 64
     7
 65
   257
 75
     2
175
     1
 42
40.0
 92
        0
 66
   257
 43
1.0
 76
     1
 77
     6
 78
     2
 67
     7
 79
     3
170
     0
171
     0
290
     0
174
     0
 93
        1
 44
0.0
173
     0
291
     0
 45
0.0
1001
ACAD
1000
AcDbSavedByObjectVersion
1070
     0
  0
VISUALSTYLE
  5
A0B
102
{ACAD_XDICTIONARY
360
A6F
102
}
102
{ACAD_REACTORS
330
3F2
102
}
330
3F2
100
AcDbVisualStyle
  2
JitterOff
 70
    20
 71
     2
 72
     2
 73
     0
 90
        0
 40
-0.6
 41
-30.0
 62
     5
 63
     7
421
 16777215
 74
     1
 91
        4
 64
     7
 65
   257
 75
     1
175
     1
 42
1.0
 92
       10
 66
     7
 43
1.0
 76
     1
 77
     6
 78
     2
 67
     7
 79
     5
170
     0
171
     0
290
     0
174
     0
 93
        1
 44
0.0
173
     0
291
     1
 45
0.0
1001
ACAD
1000
AcDbSavedByObjectVersion
1070
     0
  0
VISUALSTYLE
  5
400
102
{ACAD_XDICTIONARY
360
A5B
102
}
102
{ACAD_REACTORS
330
3F2
102
}
330
3F2
100
AcDbVisualStyle
  2

 70
    14
 71
     2
 72
     2
 73
     0
 90
        0
 40
-0.6
 41
-30.0
 62
     5
 63
     7
 74
     1
 91
        4
 64
     7
 65
   257
 75
     7
175
     7
 42
1.0
 92
        8
 66
     7
 43
1.0
 76
     1
 77
     6
 78
     2
 67
     7
 79
     5
170
     0
171
     0
290
     0
174
     0
 93
        1
 44
0.0
173
     0
291
     1
 45
0.0
1001
ACAD
1000
AcDbSavedByObjectVersion
1070
     0
  0
VISUALSTYLE
  5
A0C
102
{ACAD_XDICTIONARY
360
A71
102
}
102
{ACAD_REACTORS
330
3F2
102
}
330
3F2
100
AcDbVisualStyle
  2
OverhangOff
 70
    21
 71
     2
 72
     2
 73
     0
 90
        0
 40
-0.6
 41
-30.0
 62
     5
 63
     7
421
 16777215
 74
     1
 91
        4
 64
     7
 65
   257
 75
     1
175
     1
 42
1.0
 92
        9
 66
     7
 43
1.0
 76
     1
 77
     6
 78
     2
 67
     7
 79
     5
170
     0
171
     0
290
     0
174
     0
 93
        1
 44
0.0
173
     0
291
     1
 45
0.0
1001
ACAD
1000
AcDbSavedByObjectVersion
1070
     0
  0
VISUALSTYLE
  5
3FC
102
{ACAD_XDICTIONARY
360
A53
102
}
102
{ACAD_REACTORS
330
3F2
102
}
330
3F2
100
AcDbVisualStyle
  2

 70
     8
 71
     2
 72
     2
 73
     0
 90
        0
 40
-0.6
 41
-30.0
 62
     5
 63
     7
 74
     1
 91
        0
 64
     7
 65
   257
 75
     1
175
     1
 42
1.0
 92
        8
 66
     8
 43
1.0
 76
     1
 77
     6
 78
     2
 67
     7
 79
     5
170
     0
171
     0
290
     0
174
     0
 93
       13
 44
0.0
173
     0
291
     0
 45
0.0
1001
ACAD
1000
AcDbSavedByObjectVersion
1070
     0
  0
VISUALSTYLE
  5
A0A
102
{ACAD_XDICTIONARY
360
A6D
102
}
102
{ACAD_REACTORS
330
3F2
102
}
330
3F2
100
AcDbVisualStyle
  2
Shaded
 70
    27
 71
     2
 72
     2
 73
     1
 90
        2
 40
-0.6
 41
30.0
 62
     5
 63
     7
421
 16777215
 74
     0
 91
        4
 64
     7
 65
   257
 75
     1
175
     1
 42
1.0
 92
        8
 66
   257
 43
1.0
 76
     1
 77
     6
 78
     2
 67
     8
425
  7895160
 79
     3
170
     0
171
     0
290
     0
174
     0
 93
        5
 44
0.0
173
     0
291
     0
 45
0.0
1001
ACAD
1000
AcDbSavedByObjectVersion
1070
     0
  0
VISUALSTYLE
  5
A09
102
{ACAD_XDICTIONARY
360
A6B
102
}
102
{ACAD_REACTORS
330
3F2
102
}
330
3F2
100
AcDbVisualStyle
  2
Shaded with edges
 70
    26
 71
     2
 72
     2
 73
     1
 90
        2
 40
-0.6
 41
30.0
 62
     5
 63
     7
421
 16777215
 74
     1
 91
       10
 64
     7
 65
   257
 75
     2
175
     1
 42
1.0
 92
        8
 66
   257
 43
1.0
 76
     1
 77
     6
 78
     2
 67
     7
 79
     3
170
     0
171
     0
290
     0
174
     0
 93
        5
 44
0.0
173
     0
291
     0
 45
0.0
1001
ACAD
1000
AcDbSavedByObjectVersion
1070
     0
  0
VISUALSTYLE
  5
A06
102
{ACAD_XDICTIONARY
360
A65
102
}
102
{ACAD_REACTORS
330
3F2
102
}
330
3F2
100
AcDbVisualStyle
  2
Shades of Gray
 70
    23
 71
     2
 72
     2
 73
     3
 90
        0
 40
-0.6
 41
-30.0
 62
     5
 63
     7
421
 16777215
 74
     2
 91
        2
 64
     7
 65
     7
 75
     1
175
     1
 42
40.0
 92
        8
 66
     7
 43
1.0
 76
     1
 77
     6
 78
     2
 67
     7
 79
     3
170
     0
171
     0
290
     0
174
     0
 93
        1
 44
0.0
173
     0
291
     0
 45
0.0
1001
ACAD
1000
AcDbSavedByObjectVersion
1070
     0
  0
VISUALSTYLE
  5
A07
102
{ACAD_XDICTIONARY
360
A67
102
}
102
{ACAD_REACTORS
330
3F2
102
}
330
3F2
100
AcDbVisualStyle
  2
Sketchy
 70
    24
 71
     1
 72
     2
 73
     2
 90
        0
 40
-0.6
 41
-30.0
 62
     5
 63
     7
421
 16777215
 74
     2
 91
        2
 64
     7
 65
     7
 75
     1
175
     1
 42
40.0
 92
       11
 66
     7
 43
1.0
 76
     1
 77
     6
 78
     2
 67
     7
 79
     6
170
     0
171
     0
290
     0
174
     0
 93
        1
 44
0.0
173
     0
291
     0
 45
0.0
1001
ACAD
1000
AcDbSavedByObjectVersion
1070
     0
  0
VISUALSTYLE
  5
3FF
102
{ACAD_XDICTIONARY
360
A59
102
}
102
{ACAD_REACTORS
330
3F2
102
}
330
3F2
100
AcDbVisualStyle
  2

 70
    13
 71
     2
 72
     2
 73
     0
 90
        0
 40
-0.6
 41
-30.0
 62
     5
 63
     7
 74
     1
 91
        4
 64
     7
 65
   257
 75
     1
175
     1
 42
1.0
 92
       12
 66
     7
 43
1.0
 76
     1
 77
     6
 78
     2
 67
     7
 79
     5
170
     0
171
     0
290
     0
174
     0
 93
        1
 44
0.0
173
     0
291
     1
 45
0.0
1001
ACAD
1000
AcDbSavedByObjectVersion
1070
     0
  0
VISUALSTYLE
  5
A04
102
{ACAD_XDICTIONARY
360
A61
102
}
102
{ACAD_REACTORS
330
3F2
102
}
330
3F2
100
AcDbVisualStyle
  2
Wireframe
 70
     5
 71
     0
 72
     2
 73
     0
 90
        0
 40
-0.6
 41
-30.0
 62
     5
 63
     7
421
 16777215
 74
     1
 91
        4
 64
     7
 65
   257
 75
     1
175
     1
 42
1.0
 92
        0
 66
   257
 43
1.0
 76
     1
 77
     6
 78
     2
 67
     7
 79
     3
170
     0
171
     0
290
     0
174
     0
 93
        1
 44
0.0
173
     0
291
     0
 45
0.0
1001
ACAD
1000
AcDbSavedByObjectVersion
1070
     0
  0
VISUALSTYLE
  5
A08
102
{ACAD_XDICTIONARY
360
A69
102
}
102
{ACAD_REACTORS
330
3F2
102
}
330
3F2
100
AcDbVisualStyle
  2
X-Ray
 70
    25
 71
     2
 72
     2
 73
     1
 90
        1
 40
0.5
 41
-30.0
 62
     5
 63
     7
421
 16777215
 74
     1
 91
        0
 64
     7
 65
   257
 75
     1
175
     1
 42
1.0
 92
        8
 66
     7
 43
1.0
 76
     1
 77
     6
 78
     2
 67
     7
 79
     3
170
     0
171
     0
290
     0
174
     0
 93
       13
 44
0.0
173
     0
291
     0
 45
0.0
1001
ACAD
1000
AcDbSavedByObjectVersion
1070
     0
  0
DICTIONARYVAR
  5
449
102
{ACAD_REACTORS
330
357
102
}
330
357
100
DictionaryVariables
280
     0
  1
1:1
  0
DICTIONARYVAR
  5
447
102
{ACAD_REACTORS
330
357
102
}
330
357
100
DictionaryVariables
280
     0
  1
STANDARD
  0
DICTIONARYVAR
  5
38E
102
{ACAD_REACTORS
330
357
102
}
330
357
100
DictionaryVariables
280
     0
  1
STANDARD
  0
DICTIONARYVAR
  5
359
102
{ACAD_REACTORS
330
357
102
}
330
357
100
DictionaryVariables
280
     0
  1
2
  0
DICTIONARYVAR
  5
358
102
{ACAD_REACTORS
330
357
102
}
330
357
100
DictionaryVariables
280
     0
  1
1
  0
DICTIONARYVAR
  5
9F3
102
{ACAD_REACTORS
330
357
102
}
330
357
100
DictionaryVariables
280
     0
  1
0
  0
DICTIONARYVAR
  5
44A
102
{ACAD_REACTORS
330
357
102
}
330
357
100
DictionaryVariables
280
     0
  1
0
  0
DICTIONARYVAR
  5
448
102
{ACAD_REACTORS
330
357
102
}
330
357
100
DictionaryVariables
280
     0
  1
0
  0
DICTIONARYVAR
  5
9F2
102
{ACAD_REACTORS
330
357
102
}
330
357
100
DictionaryVariables
280
     0
  1
127
  0
DICTIONARYVAR
  5
A3C
102
{ACAD_REACTORS
330
357
102
}
330
357
100
DictionaryVariables
280
     0
  1
2
  0
XRECORD
  5
9E0
102
{ACAD_REACTORS
330
9DF
102
}
330
9DF
100
AcDbXrecord
280
     1
330
949
330
94C
330
950
330
951
  0
DICTIONARY
  5
9FD
330
3F0
100
AcDbDictionary
280
     1
281
     1
  3
ACAD_XREC_ROUNDTRIP
360
9FE
  0
DICTIONARY
  5
9FB
330
3EF
100
AcDbDictionary
280
     1
281
     1
  3
ACAD_XREC_ROUNDTRIP
360
9FC
  0
DICTIONARY
  5
9FF
330
3F1
100
AcDbDictionary
280
     1
281
     1
  3
ACAD_XREC_ROUNDTRIP
360
A00
  0
DICTIONARY
  5
444
330
389
100
AcDbDictionary
280
     1
281
     1
  3
ACAD_ROUNDTRIP_2008_TABLESTYLE_CELLSTYLEMAP
360
A3E
  3
ACAD_XREC_ROUNDTRIP
360
A40
  0
DICTIONARY
  5
A4B
330
3F8
100
AcDbDictionary
280
     1
281
     1
  3
ACAD_XREC_ROUNDTRIP
360
A4C
  0
DICTIONARY
  5
A4F
330
3FA
100
AcDbDictionary
280
     1
281
     1
  3
ACAD_XREC_ROUNDTRIP
360
A50
  0
DICTIONARY
  5
A4D
330
3F9
100
AcDbDictionary
280
     1
281
     1
  3
ACAD_XREC_ROUNDTRIP
360
A4E
  0
DICTIONARY
  5
A49
330
3F7
100
AcDbDictionary
280
     1
281
     1
  3
ACAD_XREC_ROUNDTRIP
360
A4A
  0
DICTIONARY
  5
A57
330
3FE
100
AcDbDictionary
280
     1
281
     1
  3
ACAD_XREC_ROUNDTRIP
360
A58
  0
DICTIONARY
  5
A5F
330
402
100
AcDbDictionary
280
     1
281
     1
  3
ACAD_XREC_ROUNDTRIP
360
A60
  0
DICTIONARY
  5
A51
330
3FB
100
AcDbDictionary
280
     1
281
     1
  3
ACAD_XREC_ROUNDTRIP
360
A52
  0
DICTIONARY
  5
A55
330
3FD
100
AcDbDictionary
280
     1
281
     1
  3
ACAD_XREC_ROUNDTRIP
360
A56
  0
DICTIONARY
  5
A73
330
A0D
100
AcDbDictionary
280
     1
281
     1
  3
ACAD_XREC_ROUNDTRIP
360
A74
  0
DICTIONARY
  5
A5D
330
401
100
AcDbDictionary
280
     1
281
     1
  3
ACAD_XREC_ROUNDTRIP
360
A5E
  0
DICTIONARY
  5
A41
330
3F3
100
AcDbDictionary
280
     1
281
     1
  3
ACAD_XREC_ROUNDTRIP
360
A42
  0
DICTIONARY
  5
A43
330
3F4
100
AcDbDictionary
280
     1
281
     1
  3
ACAD_XREC_ROUNDTRIP
360
A44
  0
DICTIONARY
  5
A45
330
3F5
100
AcDbDictionary
280
     1
281
     1
  3
ACAD_XREC_ROUNDTRIP
360
A46
  0
DICTIONARY
  5
A47
330
3F6
100
AcDbDictionary
280
     1
281
     1
  3
ACAD_XREC_ROUNDTRIP
360
A48
  0
DICTIONARY
  5
A63
330
A05
100
AcDbDictionary
280
     1
281
     1
  3
ACAD_XREC_ROUNDTRIP
360
A64
  0
DICTIONARY
  5
A6F
330
A0B
100
AcDbDictionary
280
     1
281
     1
  3
ACAD_XREC_ROUNDTRIP
360
A70
  0
DICTIONARY
  5
A5B
330
400
100
AcDbDictionary
280
     1
281
     1
  3
ACAD_XREC_ROUNDTRIP
360
A5C
  0
DICTIONARY
  5
A71
330
A0C
100
AcDbDictionary
280
     1
281
     1
  3
ACAD_XREC_ROUNDTRIP
360
A72
  0
DICTIONARY
  5
A53
330
3FC
100
AcDbDictionary
280
     1
281
     1
  3
ACAD_XREC_ROUNDTRIP
360
A54
  0
DICTIONARY
  5
A6D
330
A0A
100
AcDbDictionary
280
     1
281
     1
  3
ACAD_XREC_ROUNDTRIP
360
A6E
  0
DICTIONARY
  5
A6B
330
A09
100
AcDbDictionary
280
     1
281
     1
  3
ACAD_XREC_ROUNDTRIP
360
A6C
  0
DICTIONARY
  5
A65
330
A06
100
AcDbDictionary
280
     1
281
     1
  3
ACAD_XREC_ROUNDTRIP
360
A66
  0
DICTIONARY
  5
A67
330
A07
100
AcDbDictionary
280
     1
281
     1
  3
ACAD_XREC_ROUNDTRIP
360
A68
  0
DICTIONARY
  5
A59
330
3FF
100
AcDbDictionary
280
     1
281
     1
  3
ACAD_XREC_ROUNDTRIP
360
A5A
  0
DICTIONARY
  5
A61
330
A04
100
AcDbDictionary
280
     1
281
     1
  3
ACAD_XREC_ROUNDTRIP
360
A62
  0
DICTIONARY
  5
A69
330
A08
100
AcDbDictionary
280
     1
281
     1
  3
ACAD_XREC_ROUNDTRIP
360
A6A
  0
XRECORD
  5
9FE
102
{ACAD_REACTORS
330
9FD
102
}
330
9FD
100
AcDbXrecord
280
     1
102
MATERIAL
148
0.0
149
0.0
149
0.0
 93
        0
 94
      127
282
     0
 72
     1
 77
     1
171
     1
175
     1
179
     1
273
     0
  0
XRECORD
  5
9FC
102
{ACAD_REACTORS
330
9FB
102
}
330
9FB
100
AcDbXrecord
280
     1
102
MATERIAL
148
0.0
149
0.0
149
0.0
 93
        0
 94
      127
282
     0
 72
     1
 77
     1
171
     1
175
     1
179
     1
273
     0
  0
XRECORD
  5
A00
102
{ACAD_REACTORS
330
9FF
102
}
330
9FF
100
AcDbXrecord
280
     1
102
MATERIAL
148
0.0
149
0.0
149
0.0
 93
        0
 94
      127
282
     0
 72
     1
 77
     1
171
     1
175
     1
179
     1
273
     0
  0
CELLSTYLEMAP
  5
A3E
102
{ACAD_REACTORS
330
444
102
}
330
444
100
AcDbCellStyleMap
 90
        3
300
CELLSTYLE
  1
TABLEFORMAT_BEGIN
 90
        5
170
     1
 91
        0
 92
    32768
 62
   257
 93
        1
300
CONTENTFORMAT
  1
CONTENTFORMAT_BEGIN
 90
        0
 91
        0
 92
        4
 93
        0
300

 40
0.0
140
1.0
 94
        5
 62
     0
340
10
144
6.0
309
CONTENTFORMAT_END
171
     1
301
MARGIN
  1
CELLMARGIN_BEGIN
 40
1.5
 40
1.5
 40
1.5
 40
1.5
 40
0.18
 40
0.18
309
CELLMARGIN_END
 94
        6
 95
        1
302
GRIDFORMAT
  1
GRIDFORMAT_BEGIN
 90
        0
 91
        1
 62
     0
 92
       -2
340
0
 93
        0
 40
0.045
309
GRIDFORMAT_END
 95
        2
302
GRIDFORMAT
  1
GRIDFORMAT_BEGIN
 90
        0
 91
        1
 62
     0
 92
       -2
340
0
 93
        0
 40
0.045
309
GRIDFORMAT_END
 95
        4
302
GRIDFORMAT
  1
GRIDFORMAT_BEGIN
 90
        0
 91
        1
 62
     0
 92
       -2
340
0
 93
        0
 40
0.045
309
GRIDFORMAT_END
 95
        8
302
GRIDFORMAT
  1
GRIDFORMAT_BEGIN
 90
        0
 91
        1
 62
     0
 92
       -2
340
0
 93
        0
 40
0.045
309
GRIDFORMAT_END
 95
       16
302
GRIDFORMAT
  1
GRIDFORMAT_BEGIN
 90
        0
 91
        1
 62
     0
 92
       -2
340
0
 93
        0
 40
0.045
309
GRIDFORMAT_END
 95
       32
302
GRIDFORMAT
  1
GRIDFORMAT_BEGIN
 90
        0
 91
        1
 62
     0
 92
       -2
340
0
 93
        0
 40
0.045
309
GRIDFORMAT_END
309
TABLEFORMAT_END
  1
CELLSTYLE_BEGIN
 90
        1
 91
        1
300
_TITLE
309
CELLSTYLE_END
300
CELLSTYLE
  1
TABLEFORMAT_BEGIN
 90
        5
170
     1
 91
        0
 92
        0
 62
   257
 93
        1
300
CONTENTFORMAT
  1
CONTENTFORMAT_BEGIN
 90
        0
 91
        0
 92
        4
 93
        0
300

 40
0.0
140
1.0
 94
        5
 62
     0
340
10
144
4.5
309
CONTENTFORMAT_END
171
     1
301
MARGIN
  1
CELLMARGIN_BEGIN
 40
1.5
 40
1.5
 40
1.5
 40
1.5
 40
0.18
 40
0.18
309
CELLMARGIN_END
 94
        6
 95
        1
302
GRIDFORMAT
  1
GRIDFORMAT_BEGIN
 90
        0
 91
        1
 62
     0
 92
       -2
340
0
 93
        0
 40
0.045
309
GRIDFORMAT_END
 95
        2
302
GRIDFORMAT
  1
GRIDFORMAT_BEGIN
 90
        0
 91
        1
 62
     0
 92
       -2
340
0
 93
        0
 40
0.045
309
GRIDFORMAT_END
 95
        4
302
GRIDFORMAT
  1
GRIDFORMAT_BEGIN
 90
        0
 91
        1
 62
     0
 92
       -2
340
0
 93
        0
 40
0.045
309
GRIDFORMAT_END
 95
        8
302
GRIDFORMAT
  1
GRIDFORMAT_BEGIN
 90
        0
 91
        1
 62
     0
 92
       -2
340
0
 93
        0
 40
0.045
309
GRIDFORMAT_END
 95
       16
302
GRIDFORMAT
  1
GRIDFORMAT_BEGIN
 90
        0
 91
        1
 62
     0
 92
       -2
340
0
 93
        0
 40
0.045
309
GRIDFORMAT_END
 95
       32
302
GRIDFORMAT
  1
GRIDFORMAT_BEGIN
 90
        0
 91
        1
 62
     0
 92
       -2
340
0
 93
        0
 40
0.045
309
GRIDFORMAT_END
309
TABLEFORMAT_END
  1
CELLSTYLE_BEGIN
 90
        2
 91
        1
300
_HEADER
309
CELLSTYLE_END
300
CELLSTYLE
  1
TABLEFORMAT_BEGIN
 90
        5
170
     1
 91
        0
 92
        0
 62
   257
 93
        1
300
CONTENTFORMAT
  1
CONTENTFORMAT_BEGIN
 90
        0
 91
        0
 92
        4
 93
        0
300

 40
0.0
140
1.0
 94
        2
 62
     0
340
10
144
4.5
309
CONTENTFORMAT_END
171
     1
301
MARGIN
  1
CELLMARGIN_BEGIN
 40
1.5
 40
1.5
 40
1.5
 40
1.5
 40
0.18
 40
0.18
309
CELLMARGIN_END
 94
        6
 95
        1
302
GRIDFORMAT
  1
GRIDFORMAT_BEGIN
 90
        0
 91
        1
 62
     0
 92
       -2
340
0
 93
        0
 40
0.045
309
GRIDFORMAT_END
 95
        2
302
GRIDFORMAT
  1
GRIDFORMAT_BEGIN
 90
        0
 91
        1
 62
     0
 92
       -2
340
0
 93
        0
 40
0.045
309
GRIDFORMAT_END
 95
        4
302
GRIDFORMAT
  1
GRIDFORMAT_BEGIN
 90
        0
 91
        1
 62
     0
 92
       -2
340
0
 93
        0
 40
0.045
309
GRIDFORMAT_END
 95
        8
302
GRIDFORMAT
  1
GRIDFORMAT_BEGIN
 90
        0
 91
        1
 62
     0
 92
       -2
340
0
 93
        0
 40
0.045
309
GRIDFORMAT_END
 95
       16
302
GRIDFORMAT
  1
GRIDFORMAT_BEGIN
 90
        0
 91
        1
 62
     0
 92
       -2
340
0
 93
        0
 40
0.045
309
GRIDFORMAT_END
 95
       32
302
GRIDFORMAT
  1
GRIDFORMAT_BEGIN
 90
        0
 91
        1
 62
     0
 92
       -2
340
0
 93
        0
 40
0.045
309
GRIDFORMAT_END
309
TABLEFORMAT_END
  1
CELLSTYLE_BEGIN
 90
        3
 91
        2
300
_DATA
309
CELLSTYLE_END
  0
XRECORD
  5
A40
102
{ACAD_REACTORS
330
444
102
}
330
444
100
AcDbXrecord
280
     1
102
ACAD_ROUNDTRIP_PRE2007_TABLESTYLE
 90
        4
 91
        0
  1

 92
        4
 93
        0
  2

 94
        4
 95
        0
  3

  0
XRECORD
  5
A4C
102
{ACAD_REACTORS
330
A4B
102
}
330
A4B
100
AcDbXrecord
280
     1
102
RTVSPropertyOp0
 70
     1
102
RTVSPropertyOp1
 70
     1
102
RTVSPropertyOp2
 70
     1
102
RTVSPropertyOp3
 70
     1
102
RTVSPropertyOp4
 70
     1
102
RTVSPropertyOp5
 70
     1
102
RTVSPropertyOp6
 70
     1
102
RTVSPropertyOp7
 70
     1
102
RTVSPropertyOp8
 70
     1
102
RTVSPropertyOp9
 70
     1
102
RTVSPropertyOp10
 70
     1
102
RTVSPropertyOp11
 70
     1
102
RTVSPropertyOp12
 70
     1
102
RTVSPropertyOp13
 70
     1
102
RTVSPropertyOp14
 70
     1
102
RTVSPropertyOp15
 70
     1
102
RTVSPropertyOp16
 70
     1
102
RTVSPropertyOp17
 70
     1
102
RTVSPropertyOp18
 70
     1
102
RTVSPropertyOp19
 70
     1
102
RTVSPropertyOp20
 70
     1
102
RTVSPropertyOp21
 70
     1
102
RTVSPropertyOp22
 70
     1
102
RTVSPropertyOp23
 70
     1
102
RTVSPropertyOp24
 70
     1
102
RTVSPropertyOp25
 70
     1
102
RTVSPropertyOp26
 70
     1
102
RTVSPropertyOp27
 70
     1
102
RTVSPropertyOp28
 70
     1
102
RTVSPropertyOp29
 70
     1
102
RTVSPropertyOp30
 70
     1
102
RTVSPropertyOp31
 70
     1
102
RTVSPropertyOp32
 70
     1
  0
XRECORD
  5
A50
102
{ACAD_REACTORS
330
A4F
102
}
330
A4F
100
AcDbXrecord
280
     1
102
RTVSPropertyOp0
 70
     1
102
RTVSPropertyOp1
 70
     1
102
RTVSPropertyOp2
 70
     1
102
RTVSPropertyOp3
 70
     1
102
RTVSPropertyOp4
 70
     1
102
RTVSPropertyOp5
 70
     1
102
RTVSPropertyOp6
 70
     1
102
RTVSPropertyOp7
 70
     1
102
RTVSPropertyOp8
 70
     1
102
RTVSPropertyOp9
 70
     1
102
RTVSPropertyOp10
 70
     1
102
RTVSPropertyOp11
 70
     1
102
RTVSPropertyOp12
 70
     1
102
RTVSPropertyOp13
 70
     1
102
RTVSPropertyOp14
 70
     1
102
RTVSPropertyOp15
 70
     1
102
RTVSPropertyOp16
 70
     1
102
RTVSPropertyOp17
 70
     1
102
RTVSPropertyOp18
 70
     1
102
RTVSPropertyOp19
 70
     1
102
RTVSPropertyOp20
 70
     1
102
RTVSPropertyOp21
 70
     1
102
RTVSPropertyOp22
 70
     1
102
RTVSPropertyOp23
 70
     1
102
RTVSPropertyOp24
 70
     1
102
RTVSPropertyOp25
 70
     1
102
RTVSPropertyOp26
 70
     1
102
RTVSPropertyOp27
 70
     1
102
RTVSPropertyOp28
 70
     1
102
RTVSPropertyOp29
 70
     1
102
RTVSPropertyOp30
 70
     1
102
RTVSPropertyOp31
 70
     1
102
RTVSPropertyOp32
 70
     1
  0
XRECORD
  5
A4E
102
{ACAD_REACTORS
330
A4D
102
}
330
A4D
100
AcDbXrecord
280
     1
102
RTVSPropertyOp0
 70
     1
102
RTVSPropertyOp1
 70
     1
102
RTVSPropertyOp2
 70
     1
102
RTVSPropertyOp3
 70
     1
102
RTVSPropertyOp4
 70
     1
102
RTVSPropertyOp5
 70
     1
102
RTVSPropertyOp6
 70
     1
102
RTVSPropertyOp7
 70
     1
102
RTVSPropertyOp8
 70
     1
102
RTVSPropertyOp9
 70
     1
102
RTVSPropertyOp10
 70
     1
102
RTVSPropertyOp11
 70
     1
102
RTVSPropertyOp12
 70
     1
102
RTVSPropertyOp13
 70
     1
102
RTVSPropertyOp14
 70
     1
102
RTVSPropertyOp15
 70
     1
102
RTVSPropertyOp16
 70
     1
102
RTVSPropertyOp17
 70
     1
102
RTVSPropertyOp18
 70
     1
102
RTVSPropertyOp19
 70
     1
102
RTVSPropertyOp20
 70
     1
102
RTVSPropertyOp21
 70
     1
102
RTVSPropertyOp22
 70
     1
102
RTVSPropertyOp23
 70
     1
102
RTVSPropertyOp24
 70
     1
102
RTVSPropertyOp25
 70
     1
102
RTVSPropertyOp26
 70
     1
102
RTVSPropertyOp27
 70
     1
102
RTVSPropertyOp28
 70
     1
102
RTVSPropertyOp29
 70
     1
102
RTVSPropertyOp30
 70
     1
102
RTVSPropertyOp31
 70
     1
102
RTVSPropertyOp32
 70
     1
  0
XRECORD
  5
A4A
102
{ACAD_REACTORS
330
A49
102
}
330
A49
100
AcDbXrecord
280
     1
102
RTVSPropertyOp0
 70
     1
102
RTVSPropertyOp1
 70
     1
102
RTVSPropertyOp2
 70
     1
102
RTVSPropertyOp3
 70
     1
102
RTVSPropertyOp4
 70
     1
102
RTVSPropertyOp5
 70
     1
102
RTVSPropertyOp6
 70
     1
102
RTVSPropertyOp7
 70
     1
102
RTVSPropertyOp8
 70
     1
102
RTVSPropertyOp9
 70
     1
102
RTVSPropertyOp10
 70
     1
102
RTVSPropertyOp11
 70
     1
102
RTVSPropertyOp12
 70
     1
102
RTVSPropertyOp13
 70
     1
102
RTVSPropertyOp14
 70
     1
102
RTVSPropertyOp15
 70
     1
102
RTVSPropertyOp16
 70
     1
102
RTVSPropertyOp17
 70
     1
102
RTVSPropertyOp18
 70
     1
102
RTVSPropertyOp19
 70
     1
102
RTVSPropertyOp20
 70
     1
102
RTVSPropertyOp21
 70
     1
102
RTVSPropertyOp22
 70
     1
102
RTVSPropertyOp23
 70
     1
102
RTVSPropertyOp24
 70
     1
102
RTVSPropertyOp25
 70
     1
102
RTVSPropertyOp26
 70
     1
102
RTVSPropertyOp27
 70
     1
102
RTVSPropertyOp28
 70
     1
102
RTVSPropertyOp29
 70
     1
102
RTVSPropertyOp30
 70
     1
102
RTVSPropertyOp31
 70
     1
102
RTVSPropertyOp32
 70
     1
  0
XRECORD
  5
A58
102
{ACAD_REACTORS
330
A57
102
}
330
A57
100
AcDbXrecord
280
     1
102
RTVSPropertyOp0
 70
     1
102
RTVSPropertyOp1
 70
     1
102
RTVSPropertyOp2
 70
     1
102
RTVSPropertyOp3
 70
     1
102
RTVSPropertyOp4
 70
     1
102
RTVSPropertyOp5
 70
     1
102
RTVSPropertyOp6
 70
     1
102
RTVSPropertyOp7
 70
     1
102
RTVSPropertyOp8
 70
     1
102
RTVSPropertyOp9
 70
     1
102
RTVSPropertyOp10
 70
     1
102
RTVSPropertyOp11
 70
     1
102
RTVSPropertyOp12
 70
     1
102
RTVSPropertyOp13
 70
     1
102
RTVSPropertyOp14
 70
     1
102
RTVSPropertyOp15
 70
     1
102
RTVSPropertyOp16
 70
     1
102
RTVSPropertyOp17
 70
     1
102
RTVSPropertyOp18
 70
     1
102
RTVSPropertyOp19
 70
     1
102
RTVSPropertyOp20
 70
     1
102
RTVSPropertyOp21
 70
     1
102
RTVSPropertyOp22
 70
     1
102
RTVSPropertyOp23
 70
     1
102
RTVSPropertyOp24
 70
     1
102
RTVSPropertyOp25
 70
     1
102
RTVSPropertyOp26
 70
     1
102
RTVSPropertyOp27
 70
     1
102
RTVSPropertyOp28
 70
     1
102
RTVSPropertyOp29
 70
     1
102
RTVSPropertyOp30
 70
     1
102
RTVSPropertyOp31
 70
     1
102
RTVSPropertyOp32
 70
     1
  0
XRECORD
  5
A60
102
{ACAD_REACTORS
330
A5F
102
}
330
A5F
100
AcDbXrecord
280
     1
102
RTVSPropertyOp0
 70
     1
102
RTVSPropertyOp1
 70
     1
102
RTVSPropertyOp2
 70
     1
102
RTVSPropertyOp3
 70
     1
102
RTVSPropertyOp4
 70
     1
102
RTVSPropertyOp5
 70
     1
102
RTVSPropertyOp6
 70
     1
102
RTVSPropertyOp7
 70
     1
102
RTVSPropertyOp8
 70
     1
102
RTVSPropertyOp9
 70
     1
102
RTVSPropertyOp10
 70
     1
102
RTVSPropertyOp11
 70
     1
102
RTVSPropertyOp12
 70
     1
102
RTVSPropertyOp13
 70
     1
102
RTVSPropertyOp14
 70
     1
102
RTVSPropertyOp15
 70
     1
102
RTVSPropertyOp16
 70
     1
102
RTVSPropertyOp17
 70
     1
102
RTVSPropertyOp18
 70
     1
102
RTVSPropertyOp19
 70
     1
102
RTVSPropertyOp20
 70
     1
102
RTVSPropertyOp21
 70
     1
102
RTVSPropertyOp22
 70
     1
102
RTVSPropertyOp23
 70
     1
102
RTVSPropertyOp24
 70
     1
102
RTVSPropertyOp25
 70
     1
102
RTVSPropertyOp26
 70
     1
102
RTVSPropertyOp27
 70
     1
102
RTVSPropertyOp28
 70
     1
102
RTVSPropertyOp29
 70
     1
102
RTVSPropertyOp30
 70
     1
102
RTVSPropertyOp31
 70
     1
102
RTVSPropertyOp32
 70
     1
  0
XRECORD
  5
A52
102
{ACAD_REACTORS
330
A51
102
}
330
A51
100
AcDbXrecord
280
     1
102
RTVSPropertyOp0
 70
     1
102
RTVSPropertyOp1
 70
     1
102
RTVSPropertyOp2
 70
     1
102
RTVSPropertyOp3
 70
     1
102
RTVSPropertyOp4
 70
     1
102
RTVSPropertyOp5
 70
     1
102
RTVSPropertyOp6
 70
     1
102
RTVSPropertyOp7
 70
     1
102
RTVSPropertyOp8
 70
     1
102
RTVSPropertyOp9
 70
     1
102
RTVSPropertyOp10
 70
     1
102
RTVSPropertyOp11
 70
     1
102
RTVSPropertyOp12
 70
     1
102
RTVSPropertyOp13
 70
     1
102
RTVSPropertyOp14
 70
     1
102
RTVSPropertyOp15
 70
     1
102
RTVSPropertyOp16
 70
     1
102
RTVSPropertyOp17
 70
     1
102
RTVSPropertyOp18
 70
     1
102
RTVSPropertyOp19
 70
     1
102
RTVSPropertyOp20
 70
     1
102
RTVSPropertyOp21
 70
     1
102
RTVSPropertyOp22
 70
     1
102
RTVSPropertyOp23
 70
     1
102
RTVSPropertyOp24
 70
     1
102
RTVSPropertyOp25
 70
     1
102
RTVSPropertyOp26
 70
     1
102
RTVSPropertyOp27
 70
     1
102
RTVSPropertyOp28
 70
     1
102
RTVSPropertyOp29
 70
     1
102
RTVSPropertyOp30
 70
     1
102
RTVSPropertyOp31
 70
     1
102
RTVSPropertyOp32
 70
     1
  0
XRECORD
  5
A56
102
{ACAD_REACTORS
330
A55
102
}
330
A55
100
AcDbXrecord
280
     1
102
RTVSPropertyOp0
 70
     1
102
RTVSPropertyOp1
 70
     1
102
RTVSPropertyOp2
 70
     1
102
RTVSPropertyOp3
 70
     1
102
RTVSPropertyOp4
 70
     1
102
RTVSPropertyOp5
 70
     1
102
RTVSPropertyOp6
 70
     1
102
RTVSPropertyOp7
 70
     1
102
RTVSPropertyOp8
 70
     1
102
RTVSPropertyOp9
 70
     1
102
RTVSPropertyOp10
 70
     1
102
RTVSPropertyOp11
 70
     1
102
RTVSPropertyOp12
 70
     1
102
RTVSPropertyOp13
 70
     1
102
RTVSPropertyOp14
 70
     1
102
RTVSPropertyOp15
 70
     1
102
RTVSPropertyOp16
 70
     1
102
RTVSPropertyOp17
 70
     1
102
RTVSPropertyOp18
 70
     1
102
RTVSPropertyOp19
 70
     1
102
RTVSPropertyOp20
 70
     1
102
RTVSPropertyOp21
 70
     1
102
RTVSPropertyOp22
 70
     1
102
RTVSPropertyOp23
 70
     1
102
RTVSPropertyOp24
 70
     1
102
RTVSPropertyOp25
 70
     1
102
RTVSPropertyOp26
 70
     1
102
RTVSPropertyOp27
 70
     1
102
RTVSPropertyOp28
 70
     1
102
RTVSPropertyOp29
 70
     1
102
RTVSPropertyOp30
 70
     1
102
RTVSPropertyOp31
 70
     1
102
RTVSPropertyOp32
 70
     1
  0
XRECORD
  5
A74
102
{ACAD_REACTORS
330
A73
102
}
330
A73
100
AcDbXrecord
280
     1
102
RTVSPropertyOp0
 70
     0
102
RTVSPropertyOp1
 70
     0
102
RTVSPropertyOp2
 70
     0
102
RTVSPropertyOp3
 70
     0
102
RTVSPropertyOp4
 70
     0
102
RTVSPropertyOp5
 70
     0
102
RTVSPropertyOp6
 70
     0
102
RTVSPropertyOp7
 70
     0
102
RTVSPropertyOp8
 70
     0
102
RTVSPropertyOp9
 70
     0
102
RTVSPropertyOp10
 70
     0
102
RTVSPropertyOp11
 70
     0
102
RTVSPropertyOp12
 70
     0
102
RTVSPropertyOp13
 70
     0
102
RTVSPropertyOp14
 70
     2
102
RTVSPropertyOp15
 70
     0
102
RTVSPropertyOp16
 70
     0
102
RTVSPropertyOp17
 70
     0
102
RTVSPropertyOp18
 70
     0
102
RTVSPropertyOp19
 70
     0
102
RTVSPropertyOp20
 70
     0
102
RTVSPropertyOp21
 70
     0
102
RTVSPropertyOp22
 70
     0
102
RTVSPropertyOp23
 70
     0
102
RTVSPropertyOp24
 70
     0
102
RTVSPropertyOp25
 70
     0
102
RTVSPropertyOp26
 70
     0
102
RTVSPropertyOp27
 70
     0
102
RTVSPropertyOp28
 70
     0
102
RTVSPropertyOp29
 70
     0
102
RTVSPropertyOp30
 70
     0
102
RTVSPropertyOp31
 70
     0
102
RTVSPropertyOp32
 70
     0
  0
XRECORD
  5
A5E
102
{ACAD_REACTORS
330
A5D
102
}
330
A5D
100
AcDbXrecord
280
     1
102
RTVSPropertyOp0
 70
     1
102
RTVSPropertyOp1
 70
     1
102
RTVSPropertyOp2
 70
     1
102
RTVSPropertyOp3
 70
     1
102
RTVSPropertyOp4
 70
     1
102
RTVSPropertyOp5
 70
     1
102
RTVSPropertyOp6
 70
     1
102
RTVSPropertyOp7
 70
     1
102
RTVSPropertyOp8
 70
     1
102
RTVSPropertyOp9
 70
     1
102
RTVSPropertyOp10
 70
     1
102
RTVSPropertyOp11
 70
     1
102
RTVSPropertyOp12
 70
     1
102
RTVSPropertyOp13
 70
     1
102
RTVSPropertyOp14
 70
     1
102
RTVSPropertyOp15
 70
     1
102
RTVSPropertyOp16
 70
     1
102
RTVSPropertyOp17
 70
     1
102
RTVSPropertyOp18
 70
     1
102
RTVSPropertyOp19
 70
     1
102
RTVSPropertyOp20
 70
     1
102
RTVSPropertyOp21
 70
     1
102
RTVSPropertyOp22
 70
     1
102
RTVSPropertyOp23
 70
     1
102
RTVSPropertyOp24
 70
     1
102
RTVSPropertyOp25
 70
     1
102
RTVSPropertyOp26
 70
     1
102
RTVSPropertyOp27
 70
     1
102
RTVSPropertyOp28
 70
     1
102
RTVSPropertyOp29
 70
     1
102
RTVSPropertyOp30
 70
     1
102
RTVSPropertyOp31
 70
     1
102
RTVSPropertyOp32
 70
     1
  0
XRECORD
  5
A42
102
{ACAD_REACTORS
330
A41
102
}
330
A41
100
AcDbXrecord
280
     1
102
RTVSPropertyOp0
 70
     1
102
RTVSPropertyOp1
 70
     1
102
RTVSPropertyOp2
 70
     1
102
RTVSPropertyOp3
 70
     1
102
RTVSPropertyOp4
 70
     1
102
RTVSPropertyOp5
 70
     1
102
RTVSPropertyOp6
 70
     1
102
RTVSPropertyOp7
 70
     1
102
RTVSPropertyOp8
 70
     1
102
RTVSPropertyOp9
 70
     1
102
RTVSPropertyOp10
 70
     1
102
RTVSPropertyOp11
 70
     1
102
RTVSPropertyOp12
 70
     1
102
RTVSPropertyOp13
 70
     1
102
RTVSPropertyOp14
 70
     1
102
RTVSPropertyOp15
 70
     1
102
RTVSPropertyOp16
 70
     1
102
RTVSPropertyOp17
 70
     1
102
RTVSPropertyOp18
 70
     1
102
RTVSPropertyOp19
 70
     1
102
RTVSPropertyOp20
 70
     1
102
RTVSPropertyOp21
 70
     1
102
RTVSPropertyOp22
 70
     1
102
RTVSPropertyOp23
 70
     1
102
RTVSPropertyOp24
 70
     1
102
RTVSPropertyOp25
 70
     1
102
RTVSPropertyOp26
 70
     1
102
RTVSPropertyOp27
 70
     1
102
RTVSPropertyOp28
 70
     1
102
RTVSPropertyOp29
 70
     1
102
RTVSPropertyOp30
 70
     1
102
RTVSPropertyOp31
 70
     1
102
RTVSPropertyOp32
 70
     1
  0
XRECORD
  5
A44
102
{ACAD_REACTORS
330
A43
102
}
330
A43
100
AcDbXrecord
280
     1
102
RTVSPropertyOp0
 70
     1
102
RTVSPropertyOp1
 70
     1
102
RTVSPropertyOp2
 70
     1
102
RTVSPropertyOp3
 70
     1
102
RTVSPropertyOp4
 70
     1
102
RTVSPropertyOp5
 70
     1
102
RTVSPropertyOp6
 70
     1
102
RTVSPropertyOp7
 70
     1
102
RTVSPropertyOp8
 70
     1
102
RTVSPropertyOp9
 70
     1
102
RTVSPropertyOp10
 70
     1
102
RTVSPropertyOp11
 70
     1
102
RTVSPropertyOp12
 70
     1
102
RTVSPropertyOp13
 70
     1
102
RTVSPropertyOp14
 70
     1
102
RTVSPropertyOp15
 70
     1
102
RTVSPropertyOp16
 70
     1
102
RTVSPropertyOp17
 70
     1
102
RTVSPropertyOp18
 70
     1
102
RTVSPropertyOp19
 70
     1
102
RTVSPropertyOp20
 70
     1
102
RTVSPropertyOp21
 70
     1
102
RTVSPropertyOp22
 70
     1
102
RTVSPropertyOp23
 70
     1
102
RTVSPropertyOp24
 70
     1
102
RTVSPropertyOp25
 70
     1
102
RTVSPropertyOp26
 70
     1
102
RTVSPropertyOp27
 70
     1
102
RTVSPropertyOp28
 70
     1
102
RTVSPropertyOp29
 70
     1
102
RTVSPropertyOp30
 70
     1
102
RTVSPropertyOp31
 70
     1
102
RTVSPropertyOp32
 70
     1
  0
XRECORD
  5
A46
102
{ACAD_REACTORS
330
A45
102
}
330
A45
100
AcDbXrecord
280
     1
102
RTVSPropertyOp0
 70
     1
102
RTVSPropertyOp1
 70
     1
102
RTVSPropertyOp2
 70
     1
102
RTVSPropertyOp3
 70
     1
102
RTVSPropertyOp4
 70
     1
102
RTVSPropertyOp5
 70
     1
102
RTVSPropertyOp6
 70
     1
102
RTVSPropertyOp7
 70
     1
102
RTVSPropertyOp8
 70
     1
102
RTVSPropertyOp9
 70
     1
102
RTVSPropertyOp10
 70
     1
102
RTVSPropertyOp11
 70
     1
102
RTVSPropertyOp12
 70
     1
102
RTVSPropertyOp13
 70
     1
102
RTVSPropertyOp14
 70
     1
102
RTVSPropertyOp15
 70
     1
102
RTVSPropertyOp16
 70
     1
102
RTVSPropertyOp17
 70
     1
102
RTVSPropertyOp18
 70
     1
102
RTVSPropertyOp19
 70
     1
102
RTVSPropertyOp20
 70
     1
102
RTVSPropertyOp21
 70
     1
102
RTVSPropertyOp22
 70
     1
102
RTVSPropertyOp23
 70
     1
102
RTVSPropertyOp24
 70
     1
102
RTVSPropertyOp25
 70
     1
102
RTVSPropertyOp26
 70
     1
102
RTVSPropertyOp27
 70
     1
102
RTVSPropertyOp28
 70
     1
102
RTVSPropertyOp29
 70
     1
102
RTVSPropertyOp30
 70
     1
102
RTVSPropertyOp31
 70
     1
102
RTVSPropertyOp32
 70
     1
  0
XRECORD
  5
A48
102
{ACAD_REACTORS
330
A47
102
}
330
A47
100
AcDbXrecord
280
     1
102
RTVSPropertyOp0
 70
     1
102
RTVSPropertyOp1
 70
     1
102
RTVSPropertyOp2
 70
     1
102
RTVSPropertyOp3
 70
     1
102
RTVSPropertyOp4
 70
     1
102
RTVSPropertyOp5
 70
     1
102
RTVSPropertyOp6
 70
     1
102
RTVSPropertyOp7
 70
     1
102
RTVSPropertyOp8
 70
     1
102
RTVSPropertyOp9
 70
     1
102
RTVSPropertyOp10
 70
     1
102
RTVSPropertyOp11
 70
     1
102
RTVSPropertyOp12
 70
     1
102
RTVSPropertyOp13
 70
     1
102
RTVSPropertyOp14
 70
     1
102
RTVSPropertyOp15
 70
     1
102
RTVSPropertyOp16
 70
     1
102
RTVSPropertyOp17
 70
     1
102
RTVSPropertyOp18
 70
     1
102
RTVSPropertyOp19
 70
     1
102
RTVSPropertyOp20
 70
     1
102
RTVSPropertyOp21
 70
     1
102
RTVSPropertyOp22
 70
     1
102
RTVSPropertyOp23
 70
     1
102
RTVSPropertyOp24
 70
     1
102
RTVSPropertyOp25
 70
     1
102
RTVSPropertyOp26
 70
     1
102
RTVSPropertyOp27
 70
     1
102
RTVSPropertyOp28
 70
     1
102
RTVSPropertyOp29
 70
     1
102
RTVSPropertyOp30
 70
     1
102
RTVSPropertyOp31
 70
     1
102
RTVSPropertyOp32
 70
     1
  0
XRECORD
  5
A64
102
{ACAD_REACTORS
330
A63
102
}
330
A63
100
AcDbXrecord
280
     1
102
RTVSPropertyOp0
 70
     1
102
RTVSPropertyOp1
 70
     1
102
RTVSPropertyOp2
 70
     1
102
RTVSPropertyOp3
 70
     1
102
RTVSPropertyOp4
 70
     1
102
RTVSPropertyOp5
 70
     1
102
RTVSPropertyOp6
 70
     1
102
RTVSPropertyOp7
 70
     1
102
RTVSPropertyOp8
 70
     1
102
RTVSPropertyOp9
 70
     1
102
RTVSPropertyOp10
 70
     1
102
RTVSPropertyOp11
 70
     1
102
RTVSPropertyOp12
 70
     1
102
RTVSPropertyOp13
 70
     1
102
RTVSPropertyOp14
 70
     1
102
RTVSPropertyOp15
 70
     1
102
RTVSPropertyOp16
 70
     1
102
RTVSPropertyOp17
 70
     1
102
RTVSPropertyOp18
 70
     1
102
RTVSPropertyOp19
 70
     1
102
RTVSPropertyOp20
 70
     1
102
RTVSPropertyOp21
 70
     1
102
RTVSPropertyOp22
 70
     1
102
RTVSPropertyOp23
 70
     1
102
RTVSPropertyOp24
 70
     1
102
RTVSPropertyOp25
 70
     1
102
RTVSPropertyOp26
 70
     1
102
RTVSPropertyOp27
 70
     1
102
RTVSPropertyOp28
 70
     1
102
RTVSPropertyOp29
 70
     1
102
RTVSPropertyOp30
 70
     1
102
RTVSPropertyOp31
 70
     1
102
RTVSPropertyOp32
 70
     1
  0
XRECORD
  5
A70
102
{ACAD_REACTORS
330
A6F
102
}
330
A6F
100
AcDbXrecord
280
     1
102
RTVSPropertyOp0
 70
     0
102
RTVSPropertyOp1
 70
     0
102
RTVSPropertyOp2
 70
     0
102
RTVSPropertyOp3
 70
     0
102
RTVSPropertyOp4
 70
     0
102
RTVSPropertyOp5
 70
     0
102
RTVSPropertyOp6
 70
     0
102
RTVSPropertyOp7
 70
     0
102
RTVSPropertyOp8
 70
     0
102
RTVSPropertyOp9
 70
     0
102
RTVSPropertyOp10
 70
     0
102
RTVSPropertyOp11
 70
     0
102
RTVSPropertyOp12
 70
     0
102
RTVSPropertyOp13
 70
     0
102
RTVSPropertyOp14
 70
     2
102
RTVSPropertyOp15
 70
     0
102
RTVSPropertyOp16
 70
     0
102
RTVSPropertyOp17
 70
     0
102
RTVSPropertyOp18
 70
     0
102
RTVSPropertyOp19
 70
     0
102
RTVSPropertyOp20
 70
     0
102
RTVSPropertyOp21
 70
     0
102
RTVSPropertyOp22
 70
     0
102
RTVSPropertyOp23
 70
     0
102
RTVSPropertyOp24
 70
     0
102
RTVSPropertyOp25
 70
     0
102
RTVSPropertyOp26
 70
     0
102
RTVSPropertyOp27
 70
     0
102
RTVSPropertyOp28
 70
     0
102
RTVSPropertyOp29
 70
     0
102
RTVSPropertyOp30
 70
     0
102
RTVSPropertyOp31
 70
     0
102
RTVSPropertyOp32
 70
     0
  0
XRECORD
  5
A5C
102
{ACAD_REACTORS
330
A5B
102
}
330
A5B
100
AcDbXrecord
280
     1
102
RTVSPropertyOp0
 70
     1
102
RTVSPropertyOp1
 70
     1
102
RTVSPropertyOp2
 70
     1
102
RTVSPropertyOp3
 70
     1
102
RTVSPropertyOp4
 70
     1
102
RTVSPropertyOp5
 70
     1
102
RTVSPropertyOp6
 70
     1
102
RTVSPropertyOp7
 70
     1
102
RTVSPropertyOp8
 70
     1
102
RTVSPropertyOp9
 70
     1
102
RTVSPropertyOp10
 70
     1
102
RTVSPropertyOp11
 70
     1
102
RTVSPropertyOp12
 70
     1
102
RTVSPropertyOp13
 70
     1
102
RTVSPropertyOp14
 70
     1
102
RTVSPropertyOp15
 70
     1
102
RTVSPropertyOp16
 70
     1
102
RTVSPropertyOp17
 70
     1
102
RTVSPropertyOp18
 70
     1
102
RTVSPropertyOp19
 70
     1
102
RTVSPropertyOp20
 70
     1
102
RTVSPropertyOp21
 70
     1
102
RTVSPropertyOp22
 70
     1
102
RTVSPropertyOp23
 70
     1
102
RTVSPropertyOp24
 70
     1
102
RTVSPropertyOp25
 70
     1
102
RTVSPropertyOp26
 70
     1
102
RTVSPropertyOp27
 70
     1
102
RTVSPropertyOp28
 70
     1
102
RTVSPropertyOp29
 70
     1
102
RTVSPropertyOp30
 70
     1
102
RTVSPropertyOp31
 70
     1
102
RTVSPropertyOp32
 70
     1
  0
XRECORD
  5
A72
102
{ACAD_REACTORS
330
A71
102
}
330
A71
100
AcDbXrecord
280
     1
102
RTVSPropertyOp0
 70
     0
102
RTVSPropertyOp1
 70
     0
102
RTVSPropertyOp2
 70
     0
102
RTVSPropertyOp3
 70
     0
102
RTVSPropertyOp4
 70
     0
102
RTVSPropertyOp5
 70
     0
102
RTVSPropertyOp6
 70
     0
102
RTVSPropertyOp7
 70
     0
102
RTVSPropertyOp8
 70
     0
102
RTVSPropertyOp9
 70
     0
102
RTVSPropertyOp10
 70
     0
102
RTVSPropertyOp11
 70
     0
102
RTVSPropertyOp12
 70
     0
102
RTVSPropertyOp13
 70
     0
102
RTVSPropertyOp14
 70
     2
102
RTVSPropertyOp15
 70
     0
102
RTVSPropertyOp16
 70
     0
102
RTVSPropertyOp17
 70
     0
102
RTVSPropertyOp18
 70
     0
102
RTVSPropertyOp19
 70
     0
102
RTVSPropertyOp20
 70
     0
102
RTVSPropertyOp21
 70
     0
102
RTVSPropertyOp22
 70
     0
102
RTVSPropertyOp23
 70
     0
102
RTVSPropertyOp24
 70
     0
102
RTVSPropertyOp25
 70
     0
102
RTVSPropertyOp26
 70
     0
102
RTVSPropertyOp27
 70
     0
102
RTVSPropertyOp28
 70
     0
102
RTVSPropertyOp29
 70
     0
102
RTVSPropertyOp30
 70
     0
102
RTVSPropertyOp31
 70
     0
102
RTVSPropertyOp32
 70
     0
  0
XRECORD
  5
A54
102
{ACAD_REACTORS
330
A53
102
}
330
A53
100
AcDbXrecord
280
     1
102
RTVSPropertyOp0
 70
     1
102
RTVSPropertyOp1
 70
     1
102
RTVSPropertyOp2
 70
     1
102
RTVSPropertyOp3
 70
     1
102
RTVSPropertyOp4
 70
     1
102
RTVSPropertyOp5
 70
     1
102
RTVSPropertyOp6
 70
     1
102
RTVSPropertyOp7
 70
     1
102
RTVSPropertyOp8
 70
     1
102
RTVSPropertyOp9
 70
     1
102
RTVSPropertyOp10
 70
     1
102
RTVSPropertyOp11
 70
     1
102
RTVSPropertyOp12
 70
     1
102
RTVSPropertyOp13
 70
     1
102
RTVSPropertyOp14
 70
     1
102
RTVSPropertyOp15
 70
     1
102
RTVSPropertyOp16
 70
     1
102
RTVSPropertyOp17
 70
     1
102
RTVSPropertyOp18
 70
     1
102
RTVSPropertyOp19
 70
     1
102
RTVSPropertyOp20
 70
     1
102
RTVSPropertyOp21
 70
     1
102
RTVSPropertyOp22
 70
     1
102
RTVSPropertyOp23
 70
     1
102
RTVSPropertyOp24
 70
     1
102
RTVSPropertyOp25
 70
     1
102
RTVSPropertyOp26
 70
     1
102
RTVSPropertyOp27
 70
     1
102
RTVSPropertyOp28
 70
     1
102
RTVSPropertyOp29
 70
     1
102
RTVSPropertyOp30
 70
     1
102
RTVSPropertyOp31
 70
     1
102
RTVSPropertyOp32
 70
     1
  0
XRECORD
  5
A6E
102
{ACAD_REACTORS
330
A6D
102
}
330
A6D
100
AcDbXrecord
280
     1
102
RTVSPropertyOp0
 70
     1
102
RTVSPropertyOp1
 70
     1
102
RTVSPropertyOp2
 70
     1
102
RTVSPropertyOp3
 70
     1
102
RTVSPropertyOp4
 70
     1
102
RTVSPropertyOp5
 70
     1
102
RTVSPropertyOp6
 70
     1
102
RTVSPropertyOp7
 70
     1
102
RTVSPropertyOp8
 70
     1
102
RTVSPropertyOp9
 70
     1
102
RTVSPropertyOp10
 70
     1
102
RTVSPropertyOp11
 70
     1
102
RTVSPropertyOp12
 70
     1
102
RTVSPropertyOp13
 70
     1
102
RTVSPropertyOp14
 70
     1
102
RTVSPropertyOp15
 70
     1
102
RTVSPropertyOp16
 70
     1
102
RTVSPropertyOp17
 70
     1
102
RTVSPropertyOp18
 70
     1
102
RTVSPropertyOp19
 70
     1
102
RTVSPropertyOp20
 70
     1
102
RTVSPropertyOp21
 70
     1
102
RTVSPropertyOp22
 70
     1
102
RTVSPropertyOp23
 70
     1
102
RTVSPropertyOp24
 70
     1
102
RTVSPropertyOp25
 70
     1
102
RTVSPropertyOp26
 70
     1
102
RTVSPropertyOp27
 70
     1
102
RTVSPropertyOp28
 70
     1
102
RTVSPropertyOp29
 70
     1
102
RTVSPropertyOp30
 70
     1
102
RTVSPropertyOp31
 70
     1
102
RTVSPropertyOp32
 70
     1
  0
XRECORD
  5
A6C
102
{ACAD_REACTORS
330
A6B
102
}
330
A6B
100
AcDbXrecord
280
     1
102
RTVSPropertyOp0
 70
     1
102
RTVSPropertyOp1
 70
     1
102
RTVSPropertyOp2
 70
     1
102
RTVSPropertyOp3
 70
     1
102
RTVSPropertyOp4
 70
     1
102
RTVSPropertyOp5
 70
     1
102
RTVSPropertyOp6
 70
     1
102
RTVSPropertyOp7
 70
     1
102
RTVSPropertyOp8
 70
     1
102
RTVSPropertyOp9
 70
     1
102
RTVSPropertyOp10
 70
     1
102
RTVSPropertyOp11
 70
     1
102
RTVSPropertyOp12
 70
     1
102
RTVSPropertyOp13
 70
     1
102
RTVSPropertyOp14
 70
     1
102
RTVSPropertyOp15
 70
     1
102
RTVSPropertyOp16
 70
     1
102
RTVSPropertyOp17
 70
     1
102
RTVSPropertyOp18
 70
     1
102
RTVSPropertyOp19
 70
     1
102
RTVSPropertyOp20
 70
     1
102
RTVSPropertyOp21
 70
     1
102
RTVSPropertyOp22
 70
     1
102
RTVSPropertyOp23
 70
     1
102
RTVSPropertyOp24
 70
     1
102
RTVSPropertyOp25
 70
     1
102
RTVSPropertyOp26
 70
     1
102
RTVSPropertyOp27
 70
     1
102
RTVSPropertyOp28
 70
     1
102
RTVSPropertyOp29
 70
     1
102
RTVSPropertyOp30
 70
     1
102
RTVSPropertyOp31
 70
     1
102
RTVSPropertyOp32
 70
     1
  0
XRECORD
  5
A66
102
{ACAD_REACTORS
330
A65
102
}
330
A65
100
AcDbXrecord
280
     1
102
RTVSPropertyOp0
 70
     1
102
RTVSPropertyOp1
 70
     1
102
RTVSPropertyOp2
 70
     1
102
RTVSPropertyOp3
 70
     1
102
RTVSPropertyOp4
 70
     1
102
RTVSPropertyOp5
 70
     1
102
RTVSPropertyOp6
 70
     1
102
RTVSPropertyOp7
 70
     1
102
RTVSPropertyOp8
 70
     1
102
RTVSPropertyOp9
 70
     1
102
RTVSPropertyOp10
 70
     1
102
RTVSPropertyOp11
 70
     1
102
RTVSPropertyOp12
 70
     1
102
RTVSPropertyOp13
 70
     1
102
RTVSPropertyOp14
 70
     1
102
RTVSPropertyOp15
 70
     1
102
RTVSPropertyOp16
 70
     1
102
RTVSPropertyOp17
 70
     1
102
RTVSPropertyOp18
 70
     1
102
RTVSPropertyOp19
 70
     1
102
RTVSPropertyOp20
 70
     1
102
RTVSPropertyOp21
 70
     1
102
RTVSPropertyOp22
 70
     1
102
RTVSPropertyOp23
 70
     1
102
RTVSPropertyOp24
 70
     1
102
RTVSPropertyOp25
 70
     1
102
RTVSPropertyOp26
 70
     1
102
RTVSPropertyOp27
 70
     1
102
RTVSPropertyOp28
 70
     1
102
RTVSPropertyOp29
 70
     1
102
RTVSPropertyOp30
 70
     1
102
RTVSPropertyOp31
 70
     1
102
RTVSPropertyOp32
 70
     1
  0
XRECORD
  5
A68
102
{ACAD_REACTORS
330
A67
102
}
330
A67
100
AcDbXrecord
280
     1
102
RTVSPropertyOp0
 70
     1
102
RTVSPropertyOp1
 70
     1
102
RTVSPropertyOp2
 70
     1
102
RTVSPropertyOp3
 70
     1
102
RTVSPropertyOp4
 70
     1
102
RTVSPropertyOp5
 70
     1
102
RTVSPropertyOp6
 70
     1
102
RTVSPropertyOp7
 70
     1
102
RTVSPropertyOp8
 70
     1
102
RTVSPropertyOp9
 70
     1
102
RTVSPropertyOp10
 70
     1
102
RTVSPropertyOp11
 70
     1
102
RTVSPropertyOp12
 70
     1
102
RTVSPropertyOp13
 70
     1
102
RTVSPropertyOp14
 70
     1
102
RTVSPropertyOp15
 70
     1
102
RTVSPropertyOp16
 70
     1
102
RTVSPropertyOp17
 70
     1
102
RTVSPropertyOp18
 70
     1
102
RTVSPropertyOp19
 70
     1
102
RTVSPropertyOp20
 70
     1
102
RTVSPropertyOp21
 70
     1
102
RTVSPropertyOp22
 70
     1
102
RTVSPropertyOp23
 70
     1
102
RTVSPropertyOp24
 70
     1
102
RTVSPropertyOp25
 70
     1
102
RTVSPropertyOp26
 70
     1
102
RTVSPropertyOp27
 70
     1
102
RTVSPropertyOp28
 70
     1
102
RTVSPropertyOp29
 70
     1
102
RTVSPropertyOp30
 70
     1
102
RTVSPropertyOp31
 70
     1
102
RTVSPropertyOp32
 70
     1
  0
XRECORD
  5
A5A
102
{ACAD_REACTORS
330
A59
102
}
330
A59
100
AcDbXrecord
280
     1
102
RTVSPropertyOp0
 70
     1
102
RTVSPropertyOp1
 70
     1
102
RTVSPropertyOp2
 70
     1
102
RTVSPropertyOp3
 70
     1
102
RTVSPropertyOp4
 70
     1
102
RTVSPropertyOp5
 70
     1
102
RTVSPropertyOp6
 70
     1
102
RTVSPropertyOp7
 70
     1
102
RTVSPropertyOp8
 70
     1
102
RTVSPropertyOp9
 70
     1
102
RTVSPropertyOp10
 70
     1
102
RTVSPropertyOp11
 70
     1
102
RTVSPropertyOp12
 70
     1
102
RTVSPropertyOp13
 70
     1
102
RTVSPropertyOp14
 70
     1
102
RTVSPropertyOp15
 70
     1
102
RTVSPropertyOp16
 70
     1
102
RTVSPropertyOp17
 70
     1
102
RTVSPropertyOp18
 70
     1
102
RTVSPropertyOp19
 70
     1
102
RTVSPropertyOp20
 70
     1
102
RTVSPropertyOp21
 70
     1
102
RTVSPropertyOp22
 70
     1
102
RTVSPropertyOp23
 70
     1
102
RTVSPropertyOp24
 70
     1
102
RTVSPropertyOp25
 70
     1
102
RTVSPropertyOp26
 70
     1
102
RTVSPropertyOp27
 70
     1
102
RTVSPropertyOp28
 70
     1
102
RTVSPropertyOp29
 70
     1
102
RTVSPropertyOp30
 70
     1
102
RTVSPropertyOp31
 70
     1
102
RTVSPropertyOp32
 70
     1
  0
XRECORD
  5
A62
102
{ACAD_REACTORS
330
A61
102
}
330
A61
100
AcDbXrecord
280
     1
102
RTVSPropertyOp0
 70
     1
102
RTVSPropertyOp1
 70
     1
102
RTVSPropertyOp2
 70
     1
102
RTVSPropertyOp3
 70
     1
102
RTVSPropertyOp4
 70
     1
102
RTVSPropertyOp5
 70
     1
102
RTVSPropertyOp6
 70
     1
102
RTVSPropertyOp7
 70
     1
102
RTVSPropertyOp8
 70
     1
102
RTVSPropertyOp9
 70
     1
102
RTVSPropertyOp10
 70
     1
102
RTVSPropertyOp11
 70
     1
102
RTVSPropertyOp12
 70
     1
102
RTVSPropertyOp13
 70
     1
102
RTVSPropertyOp14
 70
     1
102
RTVSPropertyOp15
 70
     1
102
RTVSPropertyOp16
 70
     1
102
RTVSPropertyOp17
 70
     1
102
RTVSPropertyOp18
 70
     1
102
RTVSPropertyOp19
 70
     1
102
RTVSPropertyOp20
 70
     1
102
RTVSPropertyOp21
 70
     1
102
RTVSPropertyOp22
 70
     1
102
RTVSPropertyOp23
 70
     1
102
RTVSPropertyOp24
 70
     1
102
RTVSPropertyOp25
 70
     1
102
RTVSPropertyOp26
 70
     1
102
RTVSPropertyOp27
 70
     1
102
RTVSPropertyOp28
 70
     1
102
RTVSPropertyOp29
 70
     1
102
RTVSPropertyOp30
 70
     1
102
RTVSPropertyOp31
 70
     1
102
RTVSPropertyOp32
 70
     1
  0
XRECORD
  5
A6A
102
{ACAD_REACTORS
330
A69
102
}
330
A69
100
AcDbXrecord
280
     1
102
RTVSPropertyOp0
 70
     1
102
RTVSPropertyOp1
 70
     1
102
RTVSPropertyOp2
 70
     1
102
RTVSPropertyOp3
 70
     1
102
RTVSPropertyOp4
 70
     1
102
RTVSPropertyOp5
 70
     1
102
RTVSPropertyOp6
 70
     1
102
RTVSPropertyOp7
 70
     1
102
RTVSPropertyOp8
 70
     1
102
RTVSPropertyOp9
 70
     1
102
RTVSPropertyOp10
 70
     1
102
RTVSPropertyOp11
 70
     1
102
RTVSPropertyOp12
 70
     1
102
RTVSPropertyOp13
 70
     1
102
RTVSPropertyOp14
 70
     1
102
RTVSPropertyOp15
 70
     1
102
RTVSPropertyOp16
 70
     1
102
RTVSPropertyOp17
 70
     1
102
RTVSPropertyOp18
 70
     1
102
RTVSPropertyOp19
 70
     1
102
RTVSPropertyOp20
 70
     1
102
RTVSPropertyOp21
 70
     1
102
RTVSPropertyOp22
 70
     1
102
RTVSPropertyOp23
 70
     1
102
RTVSPropertyOp24
 70
     1
102
RTVSPropertyOp25
 70
     1
102
RTVSPropertyOp26
 70
     1
102
RTVSPropertyOp27
 70
     1
102
RTVSPropertyOp28
 70
     1
102
RTVSPropertyOp29
 70
     1
102
RTVSPropertyOp30
 70
     1
102
RTVSPropertyOp31
 70
     1
102
RTVSPropertyOp32
 70
     1
  0
ENDSEC
  0
EOF
