  0
SECTION
  2
HEADER
  9
$ACADVER
  1
AC1015
  9
$ACADMAINTVER
 70
    20
  9
$DWGCODEPAGE
  3
ANSI_1252
  9
$INSBASE
 10
0.0
 20
0.0
 30
0.0
  9
$EXTMIN
 10
-33.71601691389924
 20
-29.66735723389695
 30
-0.0000000000000053
  9
$EXTMAX
 10
28.41761883094159
 20
27.80944897305403
 30
0.0000000000000099
  9
$LIMMIN
 10
-170.0
 20
-170.0
  9
$LIMMAX
 10
519.0
 20
260.0
  9
$ORTHOMODE
 70
     0
  9
$REGENMODE
 70
     1
  9
$FILLMODE
 70
     1
  9
$QTEXTMODE
 70
     0
  9
$MIRRTEXT
 70
     0
  9
$LTSCALE
 40
1.0
  9
$ATTMODE
 70
     1
  9
$TEXTSIZE
 40
5.0
  9
$TRACEWID
 40
1.0
  9
$TEXTSTYLE
  7
STANDARD
  9
$CLAYER
  8
0
  9
$CELTYPE
  6
BYLAYER
  9
$CECOLOR
 62
   256
  9
$CELTSCALE
 40
1.0
  9
$DISPSILH
 70
     0
  9
$DIMSCALE
 40
1.0
  9
$DIMASZ
 40
2.5
  9
$DIMEXO
 40
0.0
  9
$DIMDLI
 40
3.75
  9
$DIMRND
 40
0.0
  9
$DIMDLE
 40
0.0
  9
$DIMEXE
 40
1.25
  9
$DIMTP
 40
0.0
  9
$DIMTM
 40
0.0
  9
$DIMTXT
 40
3.5
  9
$DIMCEN
 40
0.0
  9
$DIMTSZ
 40
0.0
  9
$DIMTOL
 70
     0
  9
$DIMLIM
 70
     0
  9
$DIMTIH
 70
     0
  9
$DIMTOH
 70
     0
  9
$DIMSE1
 70
     0
  9
$DIMSE2
 70
     0
  9
$DIMTAD
 70
     1
  9
$DIMZIN
 70
     1
  9
$DIMBLK
  1

  9
$DIMASO
 70
     1
  9
$DIMSHO
 70
     1
  9
$DIMPOST
  1

  9
$DIMAPOST
  1

  9
$DIMALT
 70
     0
  9
$DIMALTD
 70
     3
  9
$DIMALTF
 40
0.039370078
  9
$DIMLFAC
 40
1.0
  9
$DIMTOFL
 70
     0
  9
$DIMTVP
 40
0.0
  9
$DIMTIX
 70
     0
  9
$DIMSOXD
 70
     0
  9
$DIMSAH
 70
     0
  9
$DIMBLK1
  1

  9
$DIMBLK2
  1

  9
$DIMSTYLE
  2
STANDARD
  9
$DIMCLRD
 70
     0
  9
$DIMCLRE
 70
     0
  9
$DIMCLRT
 70
     0
  9
$DIMTFAC
 40
1.0
  9
$DIMGAP
 40
0.625
  9
$DIMJUST
 70
     0
  9
$DIMSD1
 70
     0
  9
$DIMSD2
 70
     0
  9
$DIMTOLJ
 70
     0
  9
$DIMTZIN
 70
     8
  9
$DIMALTZ
 70
     0
  9
$DIMALTTZ
 70
     0
  9
$DIMUPT
 70
     0
  9
$DIMDEC
 70
     2
  9
$DIMTDEC
 70
     2
  9
$DIMALTU
 70
     2
  9
$DIMALTTD
 70
     3
  9
$DIMTXSTY
  7
STANDARD
  9
$DIMAUNIT
 70
     0
  9
$DIMADEC
 70
     2
  9
$DIMALTRND
 40
0.0
  9
$DIMAZIN
 70
     0
  9
$DIMDSEP
 70
    46
  9
$DIMATFIT
 70
     3
  9
$DIMFRAC
 70
     0
  9
$DIMLDRBLK
  1

  9
$DIMLUNIT
 70
     2
  9
$DIMLWD
 70
    -2
  9
$DIMLWE
 70
    -2
  9
$DIMTMOVE
 70
     0
  9
$LUNITS
 70
     2
  9
$LUPREC
 70
     4
  9
$SKETCHINC
 40
1.0
  9
$FILLETRAD
 40
0.0
  9
$AUNITS
 70
     0
  9
$AUPREC
 70
     0
  9
$MENU
  1
c:\tdm21\cad\caduti13\tdm13
  9
$ELEVATION
 40
0.0
  9
$PELEVATION
 40
0.0
  9
$THICKNESS
 40
0.0
  9
$LIMCHECK
 70
     0
  9
$CHAMFERA
 40
0.0
  9
$CHAMFERB
 40
0.0
  9
$CHAMFERC
 40
0.0
  9
$CHAMFERD
 40
0.0
  9
$SKPOLY
 70
     0
  9
$TDCREATE
 40
2455925.371450706
  9
$TDUCREATE
 40
2455925.329784040
  9
$TDUPDATE
 40
2457350.442474607
  9
$TDUUPDATE
 40
2457350.400807940
  9
$TDINDWG
 40
0.0593445486
  9
$TDUSRTIMER
 40
0.0593445370
  9
$USRTIMER
 70
     1
  9
$ANGBASE
 50
0.0
  9
$ANGDIR
 70
     0
  9
$PDMODE
 70
     3
  9
$PDSIZE
 40
0.0
  9
$PLINEWID
 40
0.0
  9
$SPLFRAME
 70
     0
  9
$SPLINETYPE
 70
     6
  9
$SPLINESEGS
 70
     8
  9
$HANDSEED
  5
1C12
  9
$SURFTAB1
 70
     6
  9
$SURFTAB2
 70
     6
  9
$SURFTYPE
 70
     6
  9
$SURFU
 70
     6
  9
$SURFV
 70
     6
  9
$UCSBASE
  2

  9
$UCSNAME
  2

  9
$UCSORG
 10
0.0
 20
0.0
 30
0.0
  9
$UCSXDIR
 10
1.0
 20
0.0
 30
0.0
  9
$UCSYDIR
 10
0.0
 20
1.0
 30
0.0
  9
$UCSORTHOREF
  2

  9
$UCSORTHOVIEW
 70
     0
  9
$UCSORGTOP
 10
0.0
 20
0.0
 30
0.0
  9
$UCSORGBOTTOM
 10
0.0
 20
0.0
 30
0.0
  9
$UCSORGLEFT
 10
0.0
 20
0.0
 30
0.0
  9
$UCSORGRIGHT
 10
0.0
 20
0.0
 30
0.0
  9
$UCSORGFRONT
 10
0.0
 20
0.0
 30
0.0
  9
$UCSORGBACK
 10
0.0
 20
0.0
 30
0.0
  9
$PUCSBASE
  2

  9
$PUCSNAME
  2

  9
$PUCSORG
 10
0.0
 20
0.0
 30
0.0
  9
$PUCSXDIR
 10
1.0
 20
0.0
 30
0.0
  9
$PUCSYDIR
 10
0.0
 20
1.0
 30
0.0
  9
$PUCSORTHOREF
  2

  9
$PUCSORTHOVIEW
 70
     0
  9
$PUCSORGTOP
 10
0.0
 20
0.0
 30
0.0
  9
$PUCSORGBOTTOM
 10
0.0
 20
0.0
 30
0.0
  9
$PUCSORGLEFT
 10
0.0
 20
0.0
 30
0.0
  9
$PUCSORGRIGHT
 10
0.0
 20
0.0
 30
0.0
  9
$PUCSORGFRONT
 10
0.0
 20
0.0
 30
0.0
  9
$PUCSORGBACK
 10
0.0
 20
0.0
 30
0.0
  9
$USERI1
 70
     0
  9
$USERI2
 70
     0
  9
$USERI3
 70
     0
  9
$USERI4
 70
     0
  9
$USERI5
 70
     0
  9
$USERR1
 40
0.0
  9
$USERR2
 40
0.0
  9
$USERR3
 40
0.0
  9
$USERR4
 40
0.0
  9
$USERR5
 40
0.0
  9
$WORLDVIEW
 70
     1
  9
$SHADEDGE
 70
     3
  9
$SHADEDIF
 70
    70
  9
$TILEMODE
 70
     1
  9
$MAXACTVP
 70
    64
  9
$PINSBASE
 10
0.0
 20
0.0
 30
0.0
  9
$PLIMCHECK
 70
     0
  9
$PEXTMIN
 10
0.0
 20
0.0
 30
0.0
  9
$PEXTMAX
 10
0.0
 20
0.0
 30
0.0
  9
$PLIMMIN
 10
0.0
 20
0.0
  9
$PLIMMAX
 10
12.0
 20
9.0
  9
$UNITMODE
 70
     0
  9
$VISRETAIN
 70
     0
  9
$PLINEGEN
 70
     0
  9
$PSLTSCALE
 70
     1
  9
$TREEDEPTH
 70
  3020
  9
$CMLSTYLE
  2
STANDARD
  9
$CMLJUST
 70
     0
  9
$CMLSCALE
 40
20.0
  9
$PROXYGRAPHICS
 70
     1
  9
$MEASUREMENT
 70
     1
  9
$CELWEIGHT
370
    -1
  9
$ENDCAPS
280
     0
  9
$JOINSTYLE
280
     0
  9
$LWDISPLAY
290
     0
  9
$INSUNITS
 70
     4
  9
$HYPERLINKBASE
  1

  9
$STYLESHEET
  1
MONOCHROME.CTB
  9
$XEDIT
290
     1
  9
$CEPSNTYPE
380
     0
  9
$PSTYLEMODE
290
     1
  9
$FINGERPRINTGUID
  2
{0D35B962-F273-4165-BE8B-9908695D9A39}
  9
$VERSIONGUID
  2
{D42E46A6-AD43-42E9-8F3E-F30082A04FAB}
  9
$EXTNAMES
290
     1
  9
$PSVPSCALE
 40
0.0
  9
$OLESTARTUP
290
     0
  0
ENDSEC
  0
SECTION
  2
CLASSES
  0
CLASS
  1
ACDBDICTIONARYWDFLT
  2
AcDbDictionaryWithDefault
  3
ObjectDBX Classes
 90
        0
280
     0
281
     0
  0
CLASS
  1
ACDBPLACEHOLDER
  2
AcDbPlaceHolder
  3
ObjectDBX Classes
 90
        0
280
     0
281
     0
  0
CLASS
  1
LAYOUT
  2
AcDbLayout
  3
ObjectDBX Classes
 90
        0
280
     0
281
     0
  0
CLASS
  1
DICTIONARYVAR
  2
AcDbDictionaryVar
  3
ObjectDBX Classes
 90
        0
280
     0
281
     0
  0
CLASS
  1
TABLESTYLE
  2
AcDbTableStyle
  3
ObjectDBX Classes
 90
     4095
280
     0
281
     0
  0
CLASS
  1
MATERIAL
  2
AcDbMaterial
  3
ObjectDBX Classes
 90
     1153
280
     0
281
     0
  0
CLASS
  1
VISUALSTYLE
  2
AcDbVisualStyle
  3
ObjectDBX Classes
 90
     4095
280
     0
281
     0
  0
CLASS
  1
SCALE
  2
AcDbScale
  3
ObjectDBX Classes
 90
     1153
280
     0
281
     0
  0
CLASS
  1
MLEADERSTYLE
  2
AcDbMLeaderStyle
  3
ACDB_MLEADERSTYLE_CLASS
 90
     4095
280
     0
281
     0
  0
CLASS
  1
CELLSTYLEMAP
  2
AcDbCellStyleMap
  3
ObjectDBX Classes
 90
     1152
280
     0
281
     0
  0
CLASS
  1
DIMASSOC
  2
AcDbDimAssoc
  3
"AcDbDimAssoc|Product Desc:     AcDim ARX App For Dimension|Company:          Autodesk, Inc.|WEB Address:      www.autodesk.com"
 90
        0
280
     0
281
     0
  0
CLASS
  1
SORTENTSTABLE
  2
AcDbSortentsTable
  3
ObjectDBX Classes
 90
        0
280
     0
281
     0
  0
CLASS
  1
MULTILEADER
  2
AcDbMLeader
  3
ACDB_MLEADER_CLASS
 90
     1025
280
     0
281
     1
  0
CLASS
  1
AEC_REFEDIT_STATUS_TRACKER
  2
AecDbRefEditStatusTracker
  3
AecArchBase50|Product Desc: Autodesk Architectural Desktop 2007 |Company: Autodesk,Inc. |WEB Address: www.autodesk.com
 90
    32897
280
     0
281
     0
  0
CLASS
  1
NPOCOLLECTION
  2
AcDbImpNonPersistentObjectsCollection
  3
ObjectDBX Classes
 90
    33921
280
     0
281
     0
  0
CLASS
  1
ACDBSECTIONVIEWSTYLE
  2
AcDbSectionViewStyle
  3
ObjectDBX Classes
 90
     1025
280
     0
281
     0
  0
CLASS
  1
ACDBDETAILVIEWSTYLE
  2
AcDbDetailViewStyle
  3
ObjectDBX Classes
 90
     1025
280
     0
281
     0
  0
ENDSEC
  0
SECTION
  2
TABLES
  0
TABLE
  2
VPORT
  5
8
330
0
100
AcDbSymbolTable
 70
     1
  0
VPORT
  5
3ED
330
8
100
AcDbSymbolTableRecord
100
AcDbViewportTableRecord
  2
*Active
 70
     0
 10
0.0
 20
0.0
 11
1.0
 21
1.0
 12
-2.649199041478823
 22
-0.9289541304214594
 13
0.0
 23
0.0
 14
5.0
 24
5.0
 15
5.0
 25
5.0
 16
0.0
 26
0.0
 36
1.0
 17
0.0
 27
0.0
 37
0.0
 40
57.96946454586771
 41
2.336194563662374
 42
50.0
 43
0.0
 44
0.0
 50
0.0
 51
0.0
 71
     0
 72
  2000
 73
     1
 74
     3
 75
     0
 76
     0
 77
     0
 78
     0
281
     0
 65
     1
110
0.0
120
0.0
130
0.0
111
1.0
121
0.0
131
0.0
112
0.0
122
1.0
132
0.0
 79
     0
146
0.0
1001
ACAD_NAV_VCDISPLAY
1070
     3
  0
ENDTAB
  0
TABLE
  2
LTYPE
  5
5
330
0
100
AcDbSymbolTable
 70
     5
  0
LTYPE
  5
12
330
5
100
AcDbSymbolTableRecord
100
AcDbLinetypeTableRecord
  2
BYBLOCK
 70
     0
  3

 72
    65
 73
     0
 40
0.0
  0
LTYPE
  5
13
330
5
100
AcDbSymbolTableRecord
100
AcDbLinetypeTableRecord
  2
BYLAYER
 70
     0
  3

 72
    65
 73
     0
 40
0.0
  0
LTYPE
  5
14
330
5
100
AcDbSymbolTableRecord
100
AcDbLinetypeTableRecord
  2
CONTINUOUS
 70
     0
  3
Solid line
 72
    65
 73
     0
 40
0.0
  0
LTYPE
  5
6A7
330
5
100
AcDbSymbolTableRecord
100
AcDbLinetypeTableRecord
  2
CENTER2
 70
     0
  3
Center (.5x) ___ _ ___ _ ___ _ ___ _ ___ _ ___
 72
    65
 73
     4
 40
28.575
 49
19.05
 74
     0
 49
-3.174999999999998
 74
     0
 49
3.174999999999998
 74
     0
 49
-3.174999999999998
 74
     0
  0
ENDTAB
  0
TABLE
  2
LAYER
  5
2
102
{ACAD_XDICTIONARY
360
451
102
}
330
0
100
AcDbSymbolTable
 70
    18
  0
LAYER
  5
F
102
{ACAD_XDICTIONARY
360
1160
102
}
330
2
100
AcDbSymbolTableRecord
100
AcDbLayerTableRecord
  2
0
 70
     0
 62
     7
  6
CONTINUOUS
370
    -3
390
300
  0
LAYER
  5
23
102
{ACAD_XDICTIONARY
360
1162
102
}
330
2
100
AcDbSymbolTableRecord
100
AcDbLayerTableRecord
  2
1
 70
     0
 62
     4
  6
CONTINUOUS
370
    50
390
300
  0
LAYER
  5
24
102
{ACAD_XDICTIONARY
360
1164
102
}
330
2
100
AcDbSymbolTableRecord
100
AcDbLayerTableRecord
  2
SK1
 70
     0
 62
     4
  6
CONTINUOUS
370
    50
390
300
  0
LAYER
  5
25
102
{ACAD_XDICTIONARY
360
1166
102
}
330
2
100
AcDbSymbolTableRecord
100
AcDbLayerTableRecord
  2
2
 70
     0
 62
     7
  6
CONTINUOUS
370
    25
390
300
  0
LAYER
  5
27
102
{ACAD_XDICTIONARY
360
1168
102
}
330
2
100
AcDbSymbolTableRecord
100
AcDbLayerTableRecord
  2
SK2
 70
     0
 62
     7
  6
CONTINUOUS
370
    25
390
300
  0
LAYER
  5
2A
102
{ACAD_XDICTIONARY
360
116A
102
}
330
2
100
AcDbSymbolTableRecord
100
AcDbLayerTableRecord
  2
4
 70
     0
 62
     2
  6
CENTER2
370
    25
390
300
  0
LAYER
  5
2B
102
{ACAD_XDICTIONARY
360
116C
102
}
330
2
100
AcDbSymbolTableRecord
100
AcDbLayerTableRecord
  2
SK4
 70
     0
 62
     2
  6
CENTER2
370
    25
390
300
  0
LAYER
  5
2F
330
2
100
AcDbSymbolTableRecord
100
AcDbLayerTableRecord
  2
DEFPOINTS
 70
     0
 62
     7
  6
CONTINUOUS
290
     0
370
    25
390
300
  0
LAYER
  5
375
102
{ACAD_XDICTIONARY
360
1170
102
}
330
2
100
AcDbSymbolTableRecord
100
AcDbLayerTableRecord
  2
CUT
 70
     0
 62
     1
  6
CONTINUOUS
370
    25
390
300
  0
LAYER
  5
376
102
{ACAD_XDICTIONARY
360
1172
102
}
330
2
100
AcDbSymbolTableRecord
100
AcDbLayerTableRecord
  2
NOCUT
 70
     0
 62
     7
  6
CONTINUOUS
370
    -3
390
300
  0
LAYER
  5
49B
102
{ACAD_XDICTIONARY
360
117C
102
}
330
2
100
AcDbSymbolTableRecord
100
AcDbLayerTableRecord
  2
INFTOTAL
 70
     0
 62
     9
  6
CONTINUOUS
370
    18
390
300
1001
AcAecLayerStandard
1000

1000

  0
LAYER
  5
1891
102
{ACAD_XDICTIONARY
360
1892
102
}
330
2
100
AcDbSymbolTableRecord
100
AcDbLayerTableRecord
  2
INFTEXT63
 70
     0
 62
     5
  6
CONTINUOUS
370
    -3
390
300
  0
ENDTAB
  0
TABLE
  2
STYLE
  5
3
330
0
100
AcDbSymbolTable
 70
     2
  0
STYLE
  5
10
330
3
100
AcDbSymbolTableRecord
100
AcDbTextStyleTableRecord
  2
STANDARD
 70
     0
 40
0.0
 41
1.0
 50
0.0
 71
     0
 42
5.0
  3
monos.ttf
  4

1001
ACAD
1000
Monospac821 BT
1071
       49
  0
ENDTAB
  0
TABLE
  2
VIEW
  5
6
330
0
100
AcDbSymbolTable
 70
     0
  0
ENDTAB
  0
TABLE
  2
UCS
  5
7
330
0
100
AcDbSymbolTable
 70
     0
  0
ENDTAB
  0
TABLE
  2
APPID
  5
9
330
0
100
AcDbSymbolTable
 70
    22
  0
APPID
  5
11
330
9
100
AcDbSymbolTableRecord
100
AcDbRegAppTableRecord
  2
ACAD
 70
     0
  0
APPID
  5
3A6
330
9
100
AcDbSymbolTableRecord
100
AcDbRegAppTableRecord
  2
ACAD_PSEXT
 70
     0
  0
APPID
  5
3A8
330
9
100
AcDbSymbolTableRecord
100
AcDbRegAppTableRecord
  2
ACAD_EXEMPT_FROM_CAD_STANDARDS
 70
     0
  0
APPID
  5
43E
330
9
100
AcDbSymbolTableRecord
100
AcDbRegAppTableRecord
  2
ACAD_MLEADERVER
 70
     0
  0
APPID
  5
460
330
9
100
AcDbSymbolTableRecord
100
AcDbRegAppTableRecord
  2
ACAD_DSTYLE_DIMJAG
 70
     0
  0
APPID
  5
461
330
9
100
AcDbSymbolTableRecord
100
AcDbRegAppTableRecord
  2
ACAD_DSTYLE_DIMBREAK
 70
     0
  0
APPID
  5
462
330
9
100
AcDbSymbolTableRecord
100
AcDbRegAppTableRecord
  2
ACAD_DSTYLE_DIMTALN
 70
     0
  0
APPID
  5
47A
330
9
100
AcDbSymbolTableRecord
100
AcDbRegAppTableRecord
  2
AcAecLayerStandard
 70
     0
  0
APPID
  5
4AB
330
9
100
AcDbSymbolTableRecord
100
AcDbRegAppTableRecord
  2
DCO15
 70
     0
  0
APPID
  5
4B9
330
9
100
AcDbSymbolTableRecord
100
AcDbRegAppTableRecord
  2
AcadAnnoPO
 70
     0
  0
APPID
  5
55F
330
9
100
AcDbSymbolTableRecord
100
AcDbRegAppTableRecord
  2
ACAD_DSTYLE_DIMRADIAL_EXTENSION
 70
     0
  0
APPID
  5
701
330
9
100
AcDbSymbolTableRecord
100
AcDbRegAppTableRecord
  2
AcadAnnotative
 70
     0
  0
APPID
  5
702
330
9
100
AcDbSymbolTableRecord
100
AcDbRegAppTableRecord
  2
AcDbDynamicBlockGUID
 70
     0
  0
APPID
  5
703
330
9
100
AcDbSymbolTableRecord
100
AcDbRegAppTableRecord
  2
AcDbBlockRepETag
 70
     0
  0
APPID
  5
110E
330
9
100
AcDbSymbolTableRecord
100
AcDbRegAppTableRecord
  2
310397229
 70
     0
  0
APPID
  5
1897
330
9
100
AcDbSymbolTableRecord
100
AcDbRegAppTableRecord
  2
ACAD_NAV_VCDISPLAY
 70
     0
  0
APPID
  5
1898
330
9
100
AcDbSymbolTableRecord
100
AcDbRegAppTableRecord
  2
ACAUTHENVIRON
 70
     0
  0
APPID
  5
1899
330
9
100
AcDbSymbolTableRecord
100
AcDbRegAppTableRecord
  2
AcDbDynamicBlockTrueName
 70
     0
  0
APPID
  5
189A
330
9
100
AcDbSymbolTableRecord
100
AcDbRegAppTableRecord
  2
ACAD_DSTYLE_DIMJOGGED_JOGANGLE_SYMBOL
 70
     0
  0
APPID
  5
189B
330
9
100
AcDbSymbolTableRecord
100
AcDbRegAppTableRecord
  2
AcCmTransparency
 70
     0
  0
APPID
  5
189C
330
9
100
AcDbSymbolTableRecord
100
AcDbRegAppTableRecord
  2
ACAD_DSTYLE_DIMEXT_LENGTH
 70
     0
  0
APPID
  5
1BB1
330
9
100
AcDbSymbolTableRecord
100
AcDbRegAppTableRecord
  2
AcadAnnoMonitorAlertIconDisabled
 70
     0
  0
ENDTAB
  0
TABLE
  2
DIMSTYLE
  5
A
330
0
100
AcDbSymbolTable
 70
     3
100
AcDbDimStyleTable
 71
     2
340
1AE8
340
3F
  0
DIMSTYLE
105
3F
102
{ACAD_REACTORS
330
1501
102
}
330
A
100
AcDbSymbolTableRecord
100
AcDbDimStyleTableRecord
  2
STANDARD
 70
     0
 41
2.5
 42
0.0
 43
3.75
 44
1.25
 73
     0
 74
     0
 77
     1
 78
     1
140
3.5
141
0.0
143
0.039370078
147
0.625
171
     3
179
     2
271
     2
272
     2
274
     3
283
     0
284
     8
340
10
1001
ACAD_DSTYLE_DIMJAG
1070
   388
1040
1.5
1001
ACAD_DSTYLE_DIMTALN
1070
   392
1070
     0
  0
DIMSTYLE
105
1AE8
102
{ACAD_REACTORS
330
F92
330
E9E
102
}
330
A
100
AcDbSymbolTableRecord
100
AcDbDimStyleTableRecord
  2
ISO-25
 70
     0
 41
2.5
 42
0.625
 43
3.75
 44
1.25
 73
     0
 74
     0
 77
     1
 78
     8
140
2.5
141
2.5
143
0.03937007874016
147
0.625
171
     3
172
     1
271
     2
272
     2
274
     3
283
     0
284
     8
340
10
1001
ACAD_DSTYLE_DIMEXT_LENGTH
1070
   378
1040
1.25
1001
ACAD_DSTYLE_DIMJOGGED_JOGANGLE_SYMBOL
1070
   384
1040
1.570796326794896
  0
ENDTAB
  0
TABLE
  2
BLOCK_RECORD
  5
1
330
0
100
AcDbSymbolTable
 70
    27
  0
BLOCK_RECORD
  5
18
102
{ACAD_XDICTIONARY
360
DB9
102
}
330
1
100
AcDbSymbolTableRecord
100
AcDbBlockTableRecord
  2
*MODEL_SPACE
340
303
  0
BLOCK_RECORD
  5
338
330
1
100
AcDbSymbolTableRecord
100
AcDbBlockTableRecord
  2
*Paper_Space
340
33B
  0
BLOCK_RECORD
  5
51F
330
1
100
AcDbSymbolTableRecord
100
AcDbBlockTableRecord
  2
CERO_POINT
340
0
310
2800000020000000200000000100080000000000000400000000000000000000000000000000000000000000000080000080000000808000800000008000800080800000C0C0C000C0DCC000F0CAA6000020400000206000002080000020A0000020C0000020E00000400000004020000040400000406000004080000040A0
310
000040C0000040E00000600000006020000060400000606000006080000060A0000060C0000060E00000800000008020000080400000806000008080000080A0000080C0000080E00000A0000000A0200000A0400000A0600000A0800000A0A00000A0C00000A0E00000C0000000C0200000C0400000C0600000C0800000C0
310
A00000C0C00000C0E00000E0000000E0200000E0400000E0600000E0800000E0A00000E0C00000E0E00040000000400020004000400040006000400080004000A0004000C0004000E00040200000402020004020400040206000402080004020A0004020C0004020E000404000004040200040404000404060004040800040
310
40A0004040C0004040E00040600000406020004060400040606000406080004060A0004060C0004060E00040800000408020004080400040806000408080004080A0004080C0004080E00040A0000040A0200040A0400040A0600040A0800040A0A00040A0C00040A0E00040C0000040C0200040C0400040C0600040C08000
310
40C0A00040C0C00040C0E00040E0000040E0200040E0400040E0600040E0800040E0A00040E0C00040E0E00080000000800020008000400080006000800080008000A0008000C0008000E00080200000802020008020400080206000802080008020A0008020C0008020E00080400000804020008040400080406000804080
310
008040A0008040C0008040E00080600000806020008060400080606000806080008060A0008060C0008060E00080800000808020008080400080806000808080008080A0008080C0008080E00080A0000080A0200080A0400080A0600080A0800080A0A00080A0C00080A0E00080C0000080C0200080C0400080C0600080C0
310
800080C0A00080C0C00080C0E00080E0000080E0200080E0400080E0600080E0800080E0A00080E0C00080E0E000C0000000C0002000C0004000C0006000C0008000C000A000C000C000C000E000C0200000C0202000C0204000C0206000C0208000C020A000C020C000C020E000C0400000C0402000C0404000C0406000C0
310
408000C040A000C040C000C040E000C0600000C0602000C0604000C0606000C0608000C060A000C060C000C060E000C0800000C0802000C0804000C0806000C0808000C080A000C080C000C080E000C0A00000C0A02000C0A04000C0A06000C0A08000C0A0A000C0A0C000C0A0E000C0C00000C0C02000C0C04000C0C06000
310
C0C08000C0C0A000F0FBFF00A4A0A000808080000000FF0000FF000000FFFF00FF000000FF00FF00FFFF0000FFFFFF00000000000000000000000000000000000000000000000000000000000000000000000000000000000000000000000000FF0000000000000000000000000000000000000000000000000000000000FF
310
FFFFFFFF000000000000000000000000000000000000000000FFFFFFFFFFFF0000FF0000FFFF00FF00000000000000000000000000000000FF00000000000000FFFFFF0000FFFFFFFF000000000000000000000000000000FF0000000000000000FF00FF0000FF00FFFF00000000000000000000000000FF00000000000000
310
0000FFFF00FF0000FF0000FFFF00000000000000000000FF000000000000000000FFFF00FF00FF0000FF0000FF000000000000000000FF0000000000000000000000FF0000FF00FF0000FF0000FF0000000000000000FF00000000000000000000FFFFFF0000FFFFFF0000FF00FFFF000000000000FF000000000000000000
310
000000FF00FF000000FFFF0000FF00FF0000000000FF00000000000000000000000000FFFF00FFFF0000FFFF0000FFFF0000000000FF000000000000000000000000FFFF00FF0000FF0000FFFF0000FF0000000000FF00000000000000000000000000FF0000FF0000FF0000FFFF0000FF00000000FF000000000000000000
310
000000FFFFFF0000FF0000FF0000FFFF00FF00000000FF00FF00000000FF0000FF00FF00FFFFFF0000FF0000FF0000FFFF00FF0000FFFFFFFFFFFFFFFFFFFFFFFFFFFFFFFFFFFFFFFFFFFFFFFFFFFFFFFFFFFF000000FF00FF00FF00FF0000FF0000FFFFFF00000000000000000000000000FF000000FF0000FF00FF00FF00
310
00FF0000FFFF000000000000000000000000FF00000000FFFF0000FF00FF00FF00FF000000FF000000000000000000000000FF00000000FF00FF0000FF00FF00FF00FF0000FF0000000000000000000000FF000000000000FF00FF0000FFFF0000FF00FF00FF0000000000000000000000FF000000000000FFFF00FF00FF00
310
FF0000FF00FFFF00000000000000000000FF0000000000000000FF0000FF00FF00FF0000FF00FF00000000000000000000FF000000000000000000FF0000FF00FF00FF0000FFFF000000000000000000FF0000000000000000000000FF0000FF00FF00FF0000FF000000000000000000FF000000000000000000000000FF00
310
00FF00FF00FF00FF00000000000000FFFF00000000000000000000000000FFFF0000FF00FF00FFFF0000000000FFFF00000000000000000000000000000000FFFFFFFFFF00FF00FF000000FFFF0000000000000000000000000000000000000000000000FFFFFFFFFFFFFF0000000000000000000000000000000000000000
310
0000000000000000FF0000000000000000000000000000000000000000000000000000000000000000000000000000000000000000000000
102
{BLKREFS
331
D39
102
}
1001
ACAD
1000
DesignCenter Data
1002
{
1070
     1
1070
     4
1002
}
  0
BLOCK_RECORD
  5
EAB
330
1
100
AcDbSymbolTableRecord
100
AcDbBlockTableRecord
  2
*D2
340
0
  0
BLOCK_RECORD
  5
F93
330
1
100
AcDbSymbolTableRecord
100
AcDbBlockTableRecord
  2
*D3
340
0
  0
BLOCK_RECORD
  5
1502
330
1
100
AcDbSymbolTableRecord
100
AcDbBlockTableRecord
  2
*D5
340
0
  0
ENDTAB
  0
ENDSEC
  0
SECTION
  2
BLOCKS
  0
BLOCK
  5
32
330
18
100
AcDbEntity
  8
0
100
AcDbBlockBegin
  2
*MODEL_SPACE
 70
     0
 10
0.0
 20
0.0
 30
0.0
  3
*MODEL_SPACE
  1

  0
ENDBLK
  5
33
330
18
100
AcDbEntity
  8
0
100
AcDbBlockEnd
  0
BLOCK
  5
339
330
338
100
AcDbEntity
 67
     1
  8
0
100
AcDbBlockBegin
  2
*Paper_Space
 70
     0
 10
0.0
 20
0.0
 30
0.0
  3
*Paper_Space
  1

  0
ENDBLK
  5
33A
330
338
100
AcDbEntity
 67
     1
  8
0
100
AcDbBlockEnd
  0
BLOCK
  5
520
330
51F
100
AcDbEntity
  8
0
100
AcDbBlockBegin
  2
CERO_POINT
 70
     0
 10
0.0
 20
0.0
 30
0.0
  3
CERO_POINT
  1

  0
CIRCLE
  5
521
102
{ACAD_REACTORS
330
526
102
}
330
51F
100
AcDbEntity
  8
SK2
100
AcDbCircle
 10
0.0
 20
0.0
 30
0.0
 40
2.5
  0
LINE
  5
522
330
51F
100
AcDbEntity
  8
SK2
100
AcDbLine
 10
0.0900000000037835
 20
0.0
 30
0.0
 11
-0.0899999999965076
 21
0.0
 31
0.0
  0
LINE
  5
523
330
51F
100
AcDbEntity
  8
SK2
100
AcDbLine
 10
0.0
 20
0.0899999999999182
 30
0.0
 11
0.0
 21
-0.0899999999999182
 31
0.0
  0
LINE
  5
524
102
{ACAD_REACTORS
330
526
102
}
330
51F
100
AcDbEntity
  8
SK2
100
AcDbLine
 10
0.0
 20
-2.5
 30
0.0
 11
0.0
 21
2.5
 31
0.0
  0
LINE
  5
525
102
{ACAD_REACTORS
330
526
102
}
330
51F
100
AcDbEntity
  8
SK2
100
AcDbLine
 10
2.5
 20
0.0
 30
0.0
 11
-2.5
 21
0.0
 31
0.0
  0
HATCH
  5
526
330
51F
100
AcDbEntity
  8
SK2
100
AcDbHatch
 10
0.0
 20
0.0
 30
0.0
210
0.0
220
0.0
230
1.0
  2
ANSI31
 70
     0
 71
     1
 91
        2
 92
        7
 72
     1
 73
     1
 93
        3
 10
0.0
 20
-2.5
 42
0.4142135623730951
 10
2.5
 20
0.0
 42
0.0
 10
0.0
 20
0.0
 42
0.0
 97
        3
330
521
330
525
330
524
 92
        7
 72
     1
 73
     1
 93
        3
 10
0.0
 20
0.0
 42
0.0
 10
0.0
 20
2.5
 42
0.4142135623730951
 10
-2.5
 20
0.0
 42
0.0
 97
        3
330
525
330
524
330
521
 75
     0
 76
     1
 52
180.0
 41
0.1
 77
     0
 78
     1
 53
225.0
 43
5.170976743218488
 44
0.0
 45
0.2245064030267288
 46
-0.2245064030267289
 79
     0
 47
0.0243816376539857
 98
        2
 10
0.8789156907296272
 20
-1.044463114528752
 10
-0.8545028512526187
 20
0.7841600866017872
  0
ENDBLK
  5
527
330
51F
100
AcDbEntity
  8
0
100
AcDbBlockEnd
  0
BLOCK
  5
EAC
330
EAB
100
AcDbEntity
  8
0
100
AcDbBlockBegin
  2
*D2
 70
     1
 10
0.0
 20
0.0
 30
0.0
  3
*D2
  1

  0
LINE
  5
1B9D
330
EAB
100
AcDbEntity
  8
2
 62
     0
370
    -2
100
AcDbLine
 10
2.748116999996355
 20
8.14673900000012
 30
0.0
 11
2.748116999996355
 21
18.17483154175761
 31
0.0
  0
LINE
  5
1B9E
330
EAB
100
AcDbEntity
  8
2
 62
     0
370
    -2
100
AcDbLine
 10
0.2515929999963617
 20
8.345622000000112
 30
0.0
 11
0.2515929999963624
 21
18.17483154175761
 31
0.0
  0
LINE
  5
1B9F
330
EAB
100
AcDbEntity
  8
2
 62
     0
370
    -2
100
AcDbLine
 10
5.248116999996355
 20
16.92483154175761
 30
0.0
 11
7.748116999996355
 21
16.92483154175761
 31
0.0
  0
LINE
  5
1BA0
330
EAB
100
AcDbEntity
  8
2
 62
     0
370
    -2
100
AcDbLine
 10
-2.248407000003637
 20
16.92483154175761
 30
0.0
 11
-14.48154122347517
 21
16.92483154175761
 31
0.0
  0
LINE
  5
1BA1
330
EAB
100
AcDbEntity
  8
2
 62
     0
370
    -2
100
AcDbLine
 10
2.748116999996355
 20
16.92483154175761
 30
0.0
 11
0.2515929999963622
 21
16.92483154175761
 31
0.0
  0
SOLID
  5
1BA2
330
EAB
100
AcDbEntity
  8
2
 62
     0
100
AcDbTrace
 10
5.248116999996355
 20
17.34149820842428
 30
0.0
 11
5.248116999996355
 21
16.50816487509094
 31
0.0
 12
2.748116999996355
 22
16.92483154175761
 32
0.0
 13
2.748116999996355
 23
16.92483154175761
 33
0.0
  0
SOLID
  5
1BA3
330
EAB
100
AcDbEntity
  8
2
 62
     0
100
AcDbTrace
 10
-2.248407000003637
 20
17.34149820842428
 30
0.0
 11
-2.248407000003637
 21
16.50816487509094
 31
0.0
 12
0.2515929999963622
 22
16.92483154175761
 32
0.0
 13
0.2515929999963622
 23
16.92483154175761
 33
0.0
  0
MTEXT
  5
1BA4
330
EAB
100
AcDbEntity
  8
2
 62
     0
100
AcDbMText
 10
-9.614974111739407
 20
19.36132135201762
 30
0.0
 40
3.5
 41
0.0
 71
     5
 72
     1
  1
2.5
 73
     1
 44
1.0
1001
ACAD
1000
MTEXTBEGIN
1070
    73
1070
     1
1070
    44
1040
1.0
1070
    74
1070
     0
1000
MTEXTEND
  0
POINT
  5
1BA5
330
EAB
100
AcDbEntity
  8
DEFPOINTS
 62
     0
100
AcDbPoint
 10
2.748116999996355
 20
7.52173900000012
 30
0.0
  0
POINT
  5
1BA6
330
EAB
100
AcDbEntity
  8
DEFPOINTS
 62
     0
100
AcDbPoint
 10
0.2515929999963617
 20
7.720622000000112
 30
0.0
  0
POINT
  5
1BA7
330
EAB
100
AcDbEntity
  8
DEFPOINTS
 62
     0
100
AcDbPoint
 10
0.2515929999963622
 20
16.92483154175761
 30
0.0
  0
ENDBLK
  5
EAD
330
EAB
100
AcDbEntity
  8
0
100
AcDbBlockEnd
  0
BLOCK
  5
F94
330
F93
100
AcDbEntity
  8
0
100
AcDbBlockBegin
  2
*D3
 70
     1
 10
0.0
 20
0.0
 30
0.0
  3
*D3
  1

  0
LINE
  5
1BBC
330
F93
100
AcDbEntity
  8
2
 62
     0
370
    -2
100
AcDbLine
 10
2.874864485710645
 20
7.850000000000107
 30
0.0
 11
15.57978054157399
 21
7.850000000000103
 31
0.0
  0
LINE
  5
1BBD
330
F93
100
AcDbEntity
  8
2
 62
     0
370
    -2
100
AcDbLine
 10
2.874864485710645
 20
-7.849999999999938
 30
0.0
 11
15.57978054157399
 21
-7.849999999999941
 31
0.0
  0
LINE
  5
1BBE
330
F93
100
AcDbEntity
  8
2
 62
     0
370
    -2
100
AcDbLine
 10
14.32978054157399
 20
5.350000000000103
 30
0.0
 11
14.32978054157399
 21
-5.349999999999941
 31
0.0
  0
SOLID
  5
1BBF
330
F93
100
AcDbEntity
  8
2
 62
     0
100
AcDbTrace
 10
13.91311387490733
 20
5.350000000000104
 30
0.0
 11
14.74644720824066
 21
5.350000000000103
 31
0.0
 12
14.32978054157399
 22
7.850000000000103
 32
0.0
 13
14.32978054157399
 23
7.850000000000103
 33
0.0
  0
SOLID
  5
1BC0
330
F93
100
AcDbEntity
  8
2
 62
     0
100
AcDbTrace
 10
13.91311387490733
 20
-5.349999999999941
 30
0.0
 11
14.74644720824066
 21
-5.349999999999941
 31
0.0
 12
14.32978054157399
 22
-7.849999999999941
 32
0.0
 13
14.32978054157399
 23
-7.849999999999941
 33
0.0
  0
MTEXT
  5
1BC1
330
F93
100
AcDbEntity
  8
2
 62
     0
100
AcDbMText
 10
11.84163929069557
 20
0.0000000000000838
 30
0.0
 40
3.5
 41
0.0
 71
     5
 72
     1
  1
%%C15.7
 11
0.0000000000000001
 21
1.0
 31
0.0
 73
     1
 44
1.0
1001
ACAD
1000
MTEXTBEGIN
1070
    73
1070
     1
1070
    44
1040
1.0
1070
    74
1070
     0
1000
MTEXTEND
  0
POINT
  5
1BC2
330
F93
100
AcDbEntity
  8
DEFPOINTS
 62
     0
100
AcDbPoint
 10
2.249864485710645
 20
7.850000000000107
 30
0.0
  0
POINT
  5
1BC3
330
F93
100
AcDbEntity
  8
DEFPOINTS
 62
     0
100
AcDbPoint
 10
2.249864485710645
 20
-7.849999999999938
 30
0.0
  0
POINT
  5
1BC4
330
F93
100
AcDbEntity
  8
DEFPOINTS
 62
     0
100
AcDbPoint
 10
14.32978054157399
 20
-7.849999999999941
 30
0.0
  0
ENDBLK
  5
F95
330
F93
100
AcDbEntity
  8
0
100
AcDbBlockEnd
  0
BLOCK
  5
1503
330
1502
100
AcDbEntity
  8
0
100
AcDbBlockBegin
  2
*D5
 70
     1
 10
0.0
 20
0.0
 30
0.0
  3
*D5
  1

  0
LINE
  5
1680
330
1502
100
AcDbEntity
  8
2
 62
     0
370
    -2
100
AcDbLine
 10
22.81631296775553
 20
12.79913528046948
 30
0.0
 11
5.167851947667498
 21
8.30208510852875
 31
0.0
  0
MTEXT
  5
1681
330
1502
100
AcDbEntity
  8
2
 62
     0
100
AcDbMText
 10
14.60175264387238
 20
13.22030771661795
 30
0.0
 40
3.5
 41
0.0
 71
     5
 72
     1
  1
R0.20
 11
0.9690352590203159
 21
0.2469223901865302
 31
0.0
 73
     1
 44
1.0
1001
ACAD
1000
MTEXTBEGIN
1070
    73
1070
     1
1070
    44
1040
1.0
1070
    74
1070
     0
1000
MTEXTEND
  0
SOLID
  5
1682
330
1502
100
AcDbEntity
  8
2
 62
     0
100
AcDbTrace
 10
5.064967618423112
 20
8.705849799787213
 30
0.0
 11
5.270736276911886
 21
7.898320417270284
 31
0.0
 12
2.745263800116712
 22
7.684779133062422
 32
0.0
 13
2.745263800116712
 23
7.684779133062422
 33
0.0
  0
POINT
  5
1683
330
1502
100
AcDbEntity
  8
DEFPOINTS
 62
     0
100
AcDbPoint
 10
2.745263800116712
 20
7.684779133062422
 30
0.0
  0
POINT
  5
1684
330
1502
100
AcDbEntity
  8
DEFPOINTS
 62
     0
100
AcDbPoint
 10
2.551456748312646
 20
7.635394655025117
 30
0.0
  0
ENDBLK
  5
1504
330
1502
100
AcDbEntity
  8
0
100
AcDbBlockEnd
  0
ENDSEC
  0
SECTION
  2
ENTITIES
  0
LINE
  5
B31
330
18
100
AcDbEntity
  8
INFTOTAL
100
AcDbLine
 10
28.38565896709065
 20
10.93044024346091
 30
0.0
 11
28.38565896709065
 21
-29.64019765850935
 31
0.0
  0
LINE
  5
B32
330
18
100
AcDbEntity
  8
INFTOTAL
100
AcDbLine
 10
28.38565896709065
 20
-29.64019765850935
 30
0.0
 11
-22.47387622472756
 21
-29.64019765850935
 31
0.0
  0
LINE
  5
B33
330
18
100
AcDbEntity
  8
INFTOTAL
100
AcDbLine
 10
-33.70382088243622
 20
-12.78307576827192
 30
0.0
 11
-33.70382088243622
 21
27.78756213369835
 31
0.0
  0
LINE
  5
B34
330
18
100
AcDbEntity
  8
INFTOTAL
100
AcDbLine
 10
-33.70382088243622
 20
27.78756213369835
 30
0.0
 11
17.15571430938194
 21
27.78756213369835
 31
0.0
  0
INSERT
  5
D39
330
18
100
AcDbEntity
  8
0
100
AcDbBlockReference
  2
CERO_POINT
 10
-0.0495589070882987
 20
0.0000000000001136
 30
0.0
 41
0.7385209589640977
 42
0.7385209589640977
 43
0.7385209589640977
  0
LINE
  5
DE4
330
18
100
AcDbEntity
  8
4
100
AcDbLine
 10
3.094030645005118
 20
0.0000000000001137
 30
0.0
 11
0.0
 21
0.0000000000001137
 31
0.0
  0
LINE
  5
DE5
330
18
100
AcDbEntity
  8
SK4
100
AcDbLine
 10
0.0
 20
0.0000000000001137
 30
0.0
 11
-7.542742407952657
 21
0.0000000000001137
 31
0.0
  0
DIMENSION
  5
E9E
330
18
100
AcDbEntity
  8
2
100
AcDbDimension
  2
*D2
 10
0.2515929999963622
 20
16.92483154175761
 30
0.0
 11
-9.614974111739407
 21
19.36132135201762
 31
0.0
 70
    32
 71
     5
 42
2.496523999999993
  3
ISO-25
100
AcDbAlignedDimension
 13
2.748116999996355
 23
7.52173900000012
 33
0.0
 14
0.2515929999963617
 24
7.720622000000112
 34
0.0
100
AcDbRotatedDimension
1001
ACAD
1000
DSTYLE
1002
{
1070
   140
1040
3.5
1002
}
  0
DIMENSION
  5
F92
330
18
100
AcDbEntity
  8
2
100
AcDbDimension
  2
*D3
 10
14.32978054157399
 20
-7.849999999999941
 30
0.0
 11
14.32978054157399
 21
0.0000000000000835
 31
0.0
 70
   160
  1
%%C<>
 71
     5
 42
15.70000000000004
  3
ISO-25
100
AcDbAlignedDimension
 13
2.249864485710645
 23
7.850000000000107
 33
0.0
 14
2.249864485710645
 24
-7.849999999999938
 34
0.0
 50
90.0
100
AcDbRotatedDimension
1001
ACAD
1000
DSTYLE
1002
{
1070
   140
1040
3.5
1002
}
  0
LINE
  5
133C
330
18
100
AcDbEntity
  8
1
100
AcDbLine
 10
2.690773999996352
 20
-3.46660899999989
 30
0.0
 11
2.698878999996324
 21
-3.46660899999989
 31
0.0
  0
LINE
  5
1343
330
18
100
AcDbEntity
  8
1
100
AcDbLine
 10
2.640119999996358
 20
2.525404000000113
 30
0.0
 11
2.530892999996352
 21
1.634468000000113
 31
0.0
  0
ARC
  5
1344
330
18
100
AcDbEntity
  8
1
100
AcDbCircle
 10
-16.96183300000363
 20
5.97929000000011
 30
0.0
 40
19.903223
100
AcDbArc
 50
348.3285789999998
 51
350.0070179999998
  0
LINE
  5
1345
330
18
100
AcDbEntity
  8
1
100
AcDbLine
 10
2.528985999996351
 20
1.95307300000011
 30
0.0
 11
2.493342999996357
 21
2.331558000000113
 31
0.0
  0
LINE
  5
1346
330
18
100
AcDbEntity
  8
1
100
AcDbLine
 10
2.640119999996358
 20
-0.3908379999998863
 30
0.0
 11
2.49343199999636
 21
2.329695000000113
 31
0.0
  0
LINE
  5
1347
330
18
100
AcDbEntity
  8
1
100
AcDbLine
 10
2.504087999996357
 20
-2.615761999999886
 30
0.0
 11
2.493342999996357
 21
-3.657074999999886
 31
0.0
  0
LINE
  5
1348
330
18
100
AcDbEntity
  8
1
100
AcDbLine
 10
2.594895999996353
 20
-2.604145999999884
 30
0.0
 11
2.49343199999636
 21
-3.658539999999886
 31
0.0
  0
LINE
  5
1349
330
18
100
AcDbEntity
  8
1
100
AcDbLine
 10
2.493314999996357
 20
2.331870000000114
 30
0.0
 11
2.493203999996353
 21
2.333944000000113
 31
0.0
  0
LINE
  5
134A
330
18
100
AcDbEntity
  8
1
100
AcDbLine
 10
2.64011899999636
 20
2.525412000000113
 30
0.0
 11
2.688714999996349
 21
4.603771000000111
 31
0.0
  0
LINE
  5
134B
330
18
100
AcDbEntity
  8
1
100
AcDbLine
 10
2.688714999996349
 20
4.603771000000111
 30
0.0
 11
2.697810999996349
 21
4.968391000000113
 31
0.0
  0
ARC
  5
134C
330
18
100
AcDbEntity
  8
1
100
AcDbCircle
 10
8.043998999996361
 20
5.222643000000113
 30
0.0
 40
5.352967999999997
100
AcDbArc
 50
177.761382
 51
182.7228019999999
  0
LINE
  5
134D
330
18
100
AcDbEntity
  8
1
100
AcDbLine
 10
2.694457999996358
 20
5.431762000000113
 30
0.0
 11
2.748116999996355
 21
7.521739000000112
 31
0.0
  0
LINE
  5
134F
330
18
100
AcDbEntity
  8
1
100
AcDbLine
 10
2.37027099999635
 20
4.944028000000113
 30
0.0
 11
2.371608999996352
 21
4.939741000000113
 31
0.0
  0
LWPOLYLINE
  5
1350
330
18
100
AcDbEntity
  8
1
100
AcDbPolyline
 90
        7
 70
     0
 43
0.0
 10
2.669386999996359
 20
4.968390000000113
 10
2.611078999996351
 20
4.966131000000113
 10
2.573200999996356
 20
4.962304000000113
 10
2.501445999996349
 20
4.950696000000113
 10
2.446154999996352
 20
4.939557000000113
 10
2.421931999996357
 20
4.935082000000113
 10
2.393018999996356
 20
4.932088000000113
  0
ARC
  5
1351
330
18
100
AcDbEntity
  8
1
100
AcDbCircle
 10
2.388558999996348
 20
4.955009000000113
 30
0.0
 40
0.023059
100
AcDbArc
 50
222.0108159999999
 51
281.0106970000002
  0
LINE
  5
1352
330
18
100
AcDbEntity
  8
1
100
AcDbLine
 10
2.669386999996359
 20
4.968391000000113
 30
0.0
 11
2.688714999996349
 21
4.603771000000111
 31
0.0
  0
LINE
  5
1353
330
18
100
AcDbEntity
  8
1
100
AcDbLine
 10
2.37027099999635
 20
4.944028000000113
 30
0.0
 11
2.528985999996351
 21
1.95307300000011
 31
0.0
  0
ARC
  5
1354
330
18
100
AcDbEntity
  8
1
100
AcDbCircle
 10
355.0469579999963
 20
20.34997200000011
 30
0.0
 40
353.023533
100
AcDbArc
 50
182.797789
 51
183.107493
  0
LINE
  5
1355
330
18
100
AcDbEntity
  8
1
100
AcDbLine
 10
2.38728599999635
 20
4.393173000000113
 30
0.0
 11
2.444368999996356
 21
3.118467000000113
 31
0.0
  0
ARC
  5
1356
330
18
100
AcDbEntity
  8
1
100
AcDbCircle
 10
8.338818999996346
 20
4.769065000000113
 30
0.0
 40
5.962614
100
AcDbArc
 50
180.2289389999999
 51
183.613936
  0
LINE
  5
1357
330
18
100
AcDbEntity
  8
1
100
AcDbLine
 10
2.376901999996348
 20
4.745243000000113
 30
0.0
 11
2.378433999996357
 21
4.739232000000113
 31
0.0
  0
LINE
  5
1358
330
18
100
AcDbEntity
  8
1
100
AcDbLine
 10
2.378603999996355
 20
4.738566000000113
 30
0.0
 11
2.369768999996352
 21
4.950066000000113
 31
0.0
  0
LINE
  5
1359
330
18
100
AcDbEntity
  8
1
100
AcDbLine
 10
2.369768999996352
 20
4.950066000000113
 30
0.0
 11
2.37027099999635
 21
4.944028000000113
 31
0.0
  0
LINE
  5
135A
330
18
100
AcDbEntity
  8
1
100
AcDbLine
 10
2.493285999996357
 20
2.332145000000114
 30
0.0
 11
2.492940999996349
 21
2.329782000000113
 31
0.0
  0
LINE
  5
135B
330
18
100
AcDbEntity
  8
1
100
AcDbLine
 10
2.64011899999636
 20
-0.3908379999998863
 30
0.0
 11
2.688714999996349
 21
-1.389543999999883
 31
0.0
  0
LINE
  5
135C
330
18
100
AcDbEntity
  8
1
100
AcDbLine
 10
2.688714999996349
 20
-1.389543999999883
 30
0.0
 11
2.697810999996349
 21
-1.571647999999884
 31
0.0
  0
LINE
  5
135D
330
18
100
AcDbEntity
  8
1
100
AcDbLine
 10
2.694457999996358
 20
-1.532303999999883
 30
0.0
 11
2.691375999996352
 21
-1.465478999999884
 31
0.0
  0
LINE
  5
135E
330
18
100
AcDbEntity
  8
1
100
AcDbLine
 10
2.691375999996352
 20
-1.465478999999884
 30
0.0
 11
2.697810999996349
 21
-1.571647999999884
 31
0.0
  0
LINE
  5
135F
330
18
100
AcDbEntity
  8
1
100
AcDbLine
 10
2.694457999996358
 20
-1.532303999999883
 30
0.0
 11
2.748116999996355
 21
-2.576112999999884
 31
0.0
  0
LINE
  5
1360
330
18
100
AcDbEntity
  8
1
100
AcDbLine
 10
2.748116999996355
 20
-2.576112999999884
 30
0.0
 11
2.748428999996349
 21
-2.583395999999884
 31
0.0
  0
LINE
  5
1361
330
18
100
AcDbEntity
  8
1
100
AcDbLine
 10
2.689198999996349
 20
-1.501502999999885
 30
0.0
 11
2.748428999996349
 21
-2.583395999999884
 31
0.0
  0
LINE
  5
1362
330
18
100
AcDbEntity
  8
1
100
AcDbLine
 10
2.689198999996349
 20
-1.501505999999884
 30
0.0
 11
2.684315999996357
 21
-1.411733999999885
 31
0.0
  0
LINE
  5
1363
330
18
100
AcDbEntity
  8
1
100
AcDbLine
 10
2.68300299999636
 20
-1.387698999999884
 30
0.0
 11
2.684315999996357
 21
-1.411733999999885
 31
0.0
  0
LINE
  5
1364
330
18
100
AcDbEntity
  8
1
100
AcDbLine
 10
2.542354999996359
 20
1.212768000000113
 30
0.0
 11
2.68300299999636
 21
-1.387698999999884
 31
0.0
  0
LINE
  5
1365
330
18
100
AcDbEntity
  8
1
100
AcDbLine
 10
2.493199999996349
 20
-3.660884999999886
 30
0.0
 11
2.492850999996349
 21
-3.657130999999886
 31
0.0
  0
LINE
  5
1366
330
18
100
AcDbEntity
  8
1
100
AcDbLine
 10
2.493314999996357
 20
-3.659758999999886
 30
0.0
 11
2.493203999996353
 21
-3.660920999999885
 31
0.0
  0
LWPOLYLINE
  5
1367
330
18
100
AcDbEntity
  8
1
100
AcDbPolyline
 90
       12
 70
     0
 43
0.0
 10
2.444368999996356
 20
-5.816388999999886
 10
2.455758999996359
 20
-6.120532999999886
 10
2.462916999996352
 20
-6.252741999999884
 10
2.471048999996352
 20
-6.370090999999886
 10
2.48337899999636
 20
-6.501398999999886
 10
2.497340999996353
 20
-6.601598999999886
 10
2.504899999996354
 20
-6.639335999999886
 10
2.51282099999635
 20
-6.668530999999886
 10
2.519517999996352
 20
-6.685858999999886
 10
2.526428999996352
 20
-6.697352999999884
 10
2.533293999996356
 20
-6.702867999999884
 10
2.536789999996357
 20
-6.703556999999888
  0
LINE
  5
1368
330
18
100
AcDbEntity
  8
1
100
AcDbLine
 10
2.536789999996357
 20
-6.703556999999888
 30
0.0
 11
2.542354999996359
 21
-6.701858999999886
 31
0.0
  0
LINE
  5
1369
330
18
100
AcDbEntity
  8
1
100
AcDbLine
 10
2.38728599999635
 20
-3.749975999999886
 30
0.0
 11
2.444368999996356
 21
-5.816388999999886
 31
0.0
  0
ARC
  5
136A
330
18
100
AcDbEntity
  8
1
100
AcDbCircle
 10
43.04704699999637
 20
-2.787613999999885
 30
0.0
 40
40.67129
100
AcDbArc
 50
179.783609
 51
181.355861
  0
LINE
  5
136B
330
18
100
AcDbEntity
  8
1
100
AcDbLine
 10
2.493314999996357
 20
-3.659758999999886
 30
0.0
 11
2.493288999996352
 21
-3.662320999999886
 31
0.0
  0
LINE
  5
136C
330
18
100
AcDbEntity
  8
1
100
AcDbLine
 10
2.659630999996352
 20
-2.595460999999884
 30
0.0
 11
2.688714999996349
 21
-3.214226999999886
 31
0.0
  0
LINE
  5
136D
330
18
100
AcDbEntity
  8
1
100
AcDbLine
 10
2.688714999996349
 20
-3.214226999999886
 30
0.0
 11
2.697810999996349
 21
-3.396742999999886
 31
0.0
  0
ARC
  5
136E
330
18
100
AcDbEntity
  8
1
100
AcDbCircle
 10
9.905365999996362
 20
-3.708865999999886
 30
0.0
 40
7.213916
100
AcDbArc
 50
177.520357
 51
181.5140449999999
  0
LINE
  5
136F
330
18
100
AcDbEntity
  8
1
100
AcDbLine
 10
2.694457999996358
 20
-3.899458999999886
 30
0.0
 11
2.748116999996355
 21
-4.945625999999887
 31
0.0
  0
LINE
  5
1370
330
18
100
AcDbEntity
  8
1
100
AcDbLine
 10
2.748116999996355
 20
-4.945625999999887
 30
0.0
 11
2.748428999996349
 21
-5.001538999999886
 31
0.0
  0
LINE
  5
1371
330
18
100
AcDbEntity
  8
1
100
AcDbLine
 10
2.689198999996349
 20
-5.750169999999886
 30
0.0
 11
2.748428999996349
 21
-5.001538999999886
 31
0.0
  0
LINE
  5
1372
330
18
100
AcDbEntity
  8
1
100
AcDbLine
 10
2.689198999996349
 20
-5.750166999999886
 30
0.0
 11
2.684315999996357
 21
-5.790948999999883
 31
0.0
  0
LINE
  5
1373
330
18
100
AcDbEntity
  8
1
100
AcDbLine
 10
2.68300299999636
 20
-5.805959999999886
 30
0.0
 11
2.684315999996357
 21
-5.790948999999883
 31
0.0
  0
LINE
  5
1374
330
18
100
AcDbEntity
  8
1
100
AcDbLine
 10
2.542354999996359
 20
-6.701856999999886
 30
0.0
 11
2.68300299999636
 21
-5.805959999999886
 31
0.0
  0
LINE
  5
1375
330
18
100
AcDbEntity
  8
1
100
AcDbLine
 10
2.697810999996349
 20
4.968391000000113
 30
0.0
 11
2.669386999996359
 21
4.968391000000113
 31
0.0
  0
LINE
  5
1376
330
18
100
AcDbEntity
  8
1
100
AcDbLine
 10
0.3599999999963614
 20
4.949781000000113
 30
0.0
 11
0.3599999999963614
 21
5.431762000000113
 31
0.0
  0
LINE
  5
1378
330
18
100
AcDbEntity
  8
1
100
AcDbLine
 10
2.24064399999635
 20
7.65985100000011
 30
0.0
 11
2.748116999996355
 21
7.521739000000112
 31
0.0
  0
LINE
  5
1379
330
18
100
AcDbEntity
  8
1
100
AcDbLine
 10
0.3599999999963614
 20
5.431762000000113
 30
0.0
 11
0.3599999999963614
 21
5.78090500000011
 31
0.0
  0
ARC
  5
137A
330
18
100
AcDbEntity
  8
1
100
AcDbCircle
 10
0.069004999996352
 20
5.78112800000011
 30
0.0
 40
0.290983
100
AcDbArc
 50
359.956161
 51
38.9614040000001
  0
LINE
  5
137B
330
18
100
AcDbEntity
  8
1
100
AcDbLine
 10
0.2517939999963517
 20
7.65985100000011
 30
0.0
 11
0.2952589999963493
 21
5.96407800000011
 31
0.0
  0
LINE
  5
137C
330
18
100
AcDbEntity
  8
1
100
AcDbLine
 10
2.24064399999635
 20
7.65985100000011
 30
0.0
 11
0.2517939999963517
 21
7.65985100000011
 31
0.0
  0
LINE
  5
137D
330
18
100
AcDbEntity
  8
1
100
AcDbLine
 10
2.24064399999635
 20
7.65985100000011
 30
0.0
 11
2.252316999996352
 21
7.719954000000112
 31
0.0
  0
LINE
  5
137E
330
18
100
AcDbEntity
  8
1
100
AcDbLine
 10
2.252308999996357
 20
7.71995600000011
 30
0.0
 11
2.736785607973315
 21
7.588102818184695
 31
0.0
  0
LINE
  5
137F
330
18
100
AcDbEntity
  8
1
100
AcDbLine
 10
2.249864485710641
 20
7.720622000000112
 30
0.0
 11
2.252316999996352
 21
7.719954000000112
 31
0.0
  0
LINE
  5
1380
330
18
100
AcDbEntity
  8
1
100
AcDbLine
 10
2.369768999996352
 20
4.950066000000113
 30
0.0
 11
0.3599999999963614
 21
4.950066000000113
 31
0.0
  0
LINE
  5
1381
330
18
100
AcDbEntity
  8
1
100
AcDbLine
 10
2.444368999996356
 20
3.118467000000113
 30
0.0
 11
0.3599999999963614
 21
3.118467000000113
 31
0.0
  0
LINE
  5
1382
330
18
100
AcDbEntity
  8
1
100
AcDbLine
 10
0.3599999999963614
 20
2.460280000000113
 30
0.0
 11
0.3599999999963614
 21
3.118467000000113
 31
0.0
  0
LWPOLYLINE
  5
1383
330
18
100
AcDbEntity
  8
1
100
AcDbPolyline
 90
       10
 70
     0
 43
0.0
 10
0.3599989999963498
 20
2.460280000000113
 10
0.4036719999963623
 20
2.440204000000113
 10
0.423407999996357
 20
2.428033000000113
 10
0.4415149999963577
 20
2.414548000000113
 10
0.4628759999963564
 20
2.394706000000113
 10
0.4808089999963558
 20
2.373005000000113
 10
0.4951239999963521
 20
2.349774000000113
 10
0.5079289999963521
 20
2.318659000000113
 10
0.5148149999963608
 20
2.286160000000113
 10
0.5158989999963524
 20
2.253021000000114
  0
LINE
  5
1384
330
18
100
AcDbEntity
  8
1
100
AcDbLine
 10
0.5158989999963524
 20
2.253020000000113
 30
0.0
 11
0.3190739999963483
 21
-1.411733999999885
 31
0.0
  0
LINE
  5
1385
330
18
100
AcDbEntity
  8
1
100
AcDbLine
 10
2.684315999996357
 20
-1.411733999999885
 30
0.0
 11
0.3190739999963483
 21
-1.411733999999885
 31
0.0
  0
LWPOLYLINE
  5
1386
330
18
100
AcDbEntity
  8
1
100
AcDbPolyline
 90
       10
 70
     0
 43
0.0
 10
2.542351999996355
 20
1.212774000000113
 10
2.18683999999635
 20
0.9453010000001139
 10
1.922665999996354
 20
0.6691520000001137
 10
1.751149999996354
 20
0.3857020000001139
 10
1.673142999996358
 20
0.0963610000001136
 10
1.689032999996356
 20
-0.1974319999998864
 10
1.79874199999635
 20
-0.4942139999998865
 10
2.001721999996346
 20
-0.7925089999998863
 10
2.296965999996356
 20
-1.090831999999886
 10
2.683003999996357
 20
-1.387698999999884
  0
LINE
  5
1387
330
18
100
AcDbEntity
  8
1
100
AcDbLine
 10
0.3599999999963614
 20
4.393173000000113
 30
0.0
 11
0.3599999999963614
 21
3.118467000000113
 31
0.0
  0
LINE
  5
1388
330
18
100
AcDbEntity
  8
1
100
AcDbLine
 10
2.38728599999635
 20
4.393173000000113
 30
0.0
 11
0.3599999999963614
 21
4.393173000000113
 31
0.0
  0
LINE
  5
1389
330
18
100
AcDbEntity
  8
1
100
AcDbLine
 10
0.3599999999963614
 20
4.393173000000113
 30
0.0
 11
0.3599999999963614
 21
4.745243000000113
 31
0.0
  0
LINE
  5
138A
330
18
100
AcDbEntity
  8
1
100
AcDbLine
 10
0.3599999999963614
 20
4.950065000000113
 30
0.0
 11
0.3599999999963614
 21
4.745459000000113
 31
0.0
  0
LINE
  5
138B
330
18
100
AcDbEntity
  8
1
100
AcDbLine
 10
0.2517939999963517
 20
-2.645090999999884
 30
0.0
 11
0.2952589999963493
 21
-1.798160999999883
 31
0.0
  0
LINE
  5
138C
330
18
100
AcDbEntity
  8
1
100
AcDbLine
 10
2.252308999996357
 20
-2.650829999999884
 30
0.0
 11
2.748428999996349
 21
-2.583395999999884
 31
0.0
  0
LINE
  5
138D
330
18
100
AcDbEntity
  8
1
100
AcDbLine
 10
2.249489999996356
 20
-2.651213999999884
 30
0.0
 11
2.231559999996349
 21
-1.636697999999884
 31
0.0
  0
LINE
  5
138E
330
18
100
AcDbEntity
  8
1
100
AcDbLine
 10
2.231559999996349
 20
-1.636697999999884
 30
0.0
 11
2.337343999996349
 21
-1.615188999999884
 31
0.0
  0
LWPOLYLINE
  5
138F
330
18
100
AcDbEntity
  8
1
100
AcDbPolyline
 90
        8
 70
     0
 43
0.0
 10
2.689198999996349
 20
-1.501502999999885
 10
2.656258999996353
 20
-1.518684999999885
 10
2.622758999996349
 20
-1.533689999999884
 10
2.589001999996352
 20
-1.547008999999885
 10
2.535989999996357
 20
-1.565238999999885
 10
2.481602999996352
 20
-1.581364999999884
 10
2.40976299999636
 20
-1.599606999999885
 10
2.337343999996349
 20
-1.615188999999884
  0
LINE
  5
1390
330
18
100
AcDbEntity
  8
1
100
AcDbLine
 10
2.249489999996356
 20
-2.651213999999884
 30
0.0
 11
2.252316999996352
 21
-2.650828999999884
 31
0.0
  0
LINE
  5
1391
330
18
100
AcDbEntity
  8
1
100
AcDbLine
 10
2.337343999996349
 20
-1.615188999999884
 30
0.0
 11
0.3081539999963496
 21
-1.615188999999884
 31
0.0
  0
LINE
  5
1392
330
18
100
AcDbEntity
  8
1
100
AcDbLine
 10
0.3081539999963496
 20
-1.615188999999884
 30
0.0
 11
0.3190739999963483
 21
-1.411733999999885
 31
0.0
  0
LINE
  5
1393
330
18
100
AcDbEntity
  8
1
100
AcDbLine
 10
2.444368999996356
 20
-5.816388999999886
 30
0.0
 11
0.3599999999963614
 21
-5.816388999999886
 31
0.0
  0
LINE
  5
1394
330
18
100
AcDbEntity
  8
1
100
AcDbLine
 10
0.3599999999963614
 20
-6.438991999999887
 30
0.0
 11
0.3599999999963614
 21
-5.816388999999886
 31
0.0
  0
LWPOLYLINE
  5
1395
330
18
100
AcDbEntity
  8
1
100
AcDbPolyline
 90
        8
 70
     0
 43
0.0
 10
0.3599989999963498
 20
-6.438991999999887
 10
0.3914869999963599
 20
-6.446357999999886
 10
0.4205029999963588
 20
-6.455183999999886
 10
0.4543819999963575
 20
-6.468899999999884
 10
0.4816429999963532
 20
-6.484302999999886
 10
0.5013079999963566
 20
-6.500712999999884
 10
0.5118059999963549
 20
-6.515286999999887
 10
0.5160669999963547
 20
-6.529735999999886
  0
LINE
  5
1396
330
18
100
AcDbEntity
  8
1
100
AcDbLine
 10
0.5160669999963547
 20
-6.529735999999886
 30
0.0
 11
0.5158989999963524
 21
-6.536556999999886
 31
0.0
  0
LWPOLYLINE
  5
1397
330
18
100
AcDbEntity
  8
1
100
AcDbPolyline
 90
       10
 70
     0
 43
0.0
 10
0.4663519999963486
 20
-6.703556999999888
 10
0.472408999996361
 20
-6.701482999999886
 10
0.4783409999963625
 20
-6.695260999999886
 10
0.4841419999963537
 20
-6.684894999999886
 10
0.4898069999963611
 20
-6.670397999999884
 10
0.4953309999963551
 20
-6.651780999999886
 10
0.5007069999963534
 20
-6.629064999999886
 10
0.5059299999963544
 20
-6.602269999999887
 10
0.5109959999963536
 20
-6.571423999999886
 10
0.5158989999963524
 20
-6.536556999999886
  0
LWPOLYLINE
  5
1398
330
18
100
AcDbEntity
  8
1
100
AcDbPolyline
 90
       10
 70
     0
 43
0.0
 10
0.3920719999963609
 20
-6.447212999999884
 10
0.4007809999963571
 20
-6.500575999999886
 10
0.4094049999963545
 20
-6.547852999999888
 10
0.4179329999963528
 20
-6.588972999999884
 10
0.4263499999963615
 20
-6.623871999999886
 10
0.4346449999963511
 20
-6.652498999999886
 10
0.4428049999963548
 20
-6.674808999999886
 10
0.4508179999963602
 20
-6.690769999999884
 10
0.4586699999963602
 20
-6.700356999999886
 10
0.4663519999963486
 20
-6.703556999999888
  0
ARC
  5
1399
330
18
100
AcDbEntity
  8
1
100
AcDbCircle
 10
15.07253099999634
 20
-4.539595999999884
 30
0.0
 40
14.806377
100
AcDbArc
 50
184.848087
 51
186.5504810000001
  0
LINE
  5
139A
330
18
100
AcDbEntity
  8
1
100
AcDbLine
 10
2.38728599999635
 20
-3.749975999999886
 30
0.0
 11
0.3599999999963614
 21
-3.749975999999886
 31
0.0
  0
LINE
  5
139B
330
18
100
AcDbEntity
  8
1
100
AcDbLine
 10
0.3599999999963614
 20
-5.816388999999886
 30
0.0
 11
0.3599999999963614
 21
-3.749975999999886
 31
0.0
  0
LINE
  5
139C
330
18
100
AcDbEntity
  8
1
100
AcDbLine
 10
0.3599999999963614
 20
-3.749975999999886
 30
0.0
 11
0.3599999999963614
 21
-2.650871999999884
 31
0.0
  0
LINE
  5
139D
330
18
100
AcDbEntity
  8
1
100
AcDbLine
 10
0.2517939999963517
 20
-5.014759999999887
 30
0.0
 11
0.2778499999963486
 21
-4.505911999999886
 31
0.0
  0
LINE
  5
139E
330
18
100
AcDbEntity
  8
1
100
AcDbLine
 10
0.3081539999963496
 20
-5.753354999999886
 30
0.0
 11
0.3111349999963551
 21
-5.741761999999886
 31
0.0
  0
ARC
  5
139F
330
18
100
AcDbEntity
  8
1
100
AcDbCircle
 10
0.1567109999963492
 20
-5.788236999999886
 30
0.0
 40
0.161776
100
AcDbArc
 50
359.0429910000001
 51
16.7496009999999
  0
LINE
  5
13A0
330
18
100
AcDbEntity
  8
1
100
AcDbLine
 10
0.3599999999963614
 20
-0.6139999999998862
 30
0.0
 11
0.3599999999963614
 21
-0.5992679999998865
 31
0.0
  0
LINE
  5
13A1
330
18
100
AcDbEntity
  8
1
100
AcDbLine
 10
0.3599999999963614
 20
-0.5992679999998865
 30
0.0
 11
0.3599999999963614
 21
2.460287000000113
 31
0.0
  0
LWPOLYLINE
  5
13A2
330
18
100
AcDbEntity
  8
1
100
AcDbPolyline
 90
        7
 70
     0
 43
0.0
 10
0.3599989999963498
 20
5.597812000000113
 10
0.3596089999963539
 20
5.612934000000112
 10
0.3574859999963564
 20
5.639914000000112
 10
0.3530479999963489
 20
5.67742200000011
 10
0.340092999996358
 20
5.756215000000111
 10
0.3139619999963514
 20
5.883204000000112
 10
0.2952589999963493
 20
5.96409200000011
  0
LINE
  5
13A3
330
18
100
AcDbEntity
  8
1
100
AcDbLine
 10
0.2517939999963517
 20
7.65985100000011
 30
0.0
 11
0.2515929999963617
 21
7.720622000000112
 31
0.0
  0
LINE
  5
13A4
330
18
100
AcDbEntity
  8
1
100
AcDbLine
 10
0.2515929999963617
 20
7.720622000000112
 30
0.0
 11
2.249864485710641
 21
7.720622000000112
 31
0.0
  0
LINE
  5
13A5
330
18
100
AcDbEntity
  8
1
100
AcDbLine
 10
0.3599999999963614
 20
-0.5992679999998865
 30
0.0
 11
0.5158989999963524
 21
2.253020000000113
 31
0.0
  0
LINE
  5
13A6
330
18
100
AcDbEntity
  8
1
100
AcDbLine
 10
0.3599999999963614
 20
-0.6139999999998862
 30
0.0
 11
0.2952589999963493
 21
-1.798166999999885
 31
0.0
  0
LINE
  5
13A7
330
18
100
AcDbEntity
  8
1
100
AcDbLine
 10
0.3081539999963496
 20
-1.615188999999884
 30
0.0
 11
0.3070269999963529
 21
-1.636697999999884
 31
0.0
  0
LINE
  5
13A8
330
18
100
AcDbEntity
  8
1
100
AcDbLine
 10
0.3070269999963529
 20
-1.636697999999884
 30
0.0
 11
0.2515929999963617
 21
-2.650892999999884
 31
0.0
  0
LINE
  5
13A9
330
18
100
AcDbEntity
  8
1
100
AcDbLine
 10
0.2517939999963517
 20
-2.645090999999884
 30
0.0
 11
0.2515929999963617
 21
-2.650892999999884
 31
0.0
  0
LINE
  5
13AA
330
18
100
AcDbEntity
  8
1
100
AcDbLine
 10
0.2515929999963617
 20
-2.650892999999884
 30
0.0
 11
2.249999999996359
 21
-2.650892999999884
 31
0.0
  0
LINE
  5
13AB
330
18
100
AcDbEntity
  8
1
100
AcDbLine
 10
2.231559999996349
 20
-1.636697999999884
 30
0.0
 11
0.3070269999963529
 21
-1.636697999999884
 31
0.0
  0
LINE
  5
13AC
330
18
100
AcDbEntity
  8
1
100
AcDbLine
 10
0.5148139999963492
 20
-6.522996999999886
 30
0.0
 11
0.5158989999963524
 21
-6.536555999999886
 31
0.0
  0
LWPOLYLINE
  5
13AD
330
18
100
AcDbEntity
  8
1
100
AcDbPolyline
 90
        9
 70
     0
 43
0.0
 10
0.3599989999963498
 20
-4.983811999999886
 10
0.359817999996352
 20
-4.990398999999886
 10
0.3597059999963506
 20
-4.991158999999885
 10
0.3596199999963545
 20
-4.991402999999886
 10
0.3595169999963588
 20
-4.991481999999884
 10
0.3585039999963584
 20
-4.987402999999885
 10
0.3556689999963538
 20
-4.962741999999884
 10
0.3506009999963595
 20
-4.906446999999886
 10
0.324356999996354
 20
-4.568117999999886
  0
LINE
  5
13AE
330
18
100
AcDbEntity
  8
1
100
AcDbLine
 10
0.3081539999963496
 20
-5.753354999999886
 30
0.0
 11
0.3070269999963529
 21
-5.762920999999884
 31
0.0
  0
LINE
  5
13AF
330
18
100
AcDbEntity
  8
1
100
AcDbLine
 10
0.3070269999963529
 20
-5.762920999999884
 30
0.0
 11
0.2515929999963617
 21
-5.069728999999886
 31
0.0
  0
LINE
  5
13B0
330
18
100
AcDbEntity
  8
1
100
AcDbLine
 10
0.2517939999963517
 20
-5.014759999999887
 30
0.0
 11
0.2515929999963617
 21
-5.069728999999886
 31
0.0
  0
LINE
  5
13B1
330
18
100
AcDbEntity
  8
1
100
AcDbLine
 10
0.0749999999963507
 20
-4.421102999999884
 30
0.0
 11
0.0749999999963507
 21
-3.369232999999886
 31
0.0
  0
LINE
  5
13B2
330
18
100
AcDbEntity
  8
1
100
AcDbLine
 10
0.0749999999963507
 20
-3.369232999999886
 30
0.0
 11
0.0749999999963507
 21
4.421103000000113
 31
0.0
  0
LINE
  5
13B3
330
18
100
AcDbEntity
  8
1
100
AcDbLine
 10
-0.000000000003638
 20
-3.360457999999886
 30
0.0
 11
-0.000000000003638
 21
-4.409585999999886
 31
0.0
  0
LINE
  5
13B4
330
18
100
AcDbEntity
  8
1
100
AcDbLine
 10
-0.000000000003638
 20
4.409586000000113
 30
0.0
 11
-0.000000000003638
 21
-3.360457999999886
 31
0.0
  0
LINE
  5
13B5
330
18
100
AcDbEntity
  8
SK1
100
AcDbLine
 10
-0.1895330000036495
 20
-3.381794999999886
 30
0.0
 11
-0.1895330000036495
 21
3.157178000000113
 31
0.0
  0
LINE
  5
13B6
330
18
100
AcDbEntity
  8
SK1
100
AcDbLine
 10
-0.1895330000036495
 20
3.157178000000113
 30
0.0
 11
-0.1895330000036495
 21
3.381795000000114
 31
0.0
  0
LINE
  5
13B7
330
18
100
AcDbEntity
  8
SK1
100
AcDbLine
 10
-1.370000000003642
 20
3.099421000000113
 30
0.0
 11
-1.370000000003642
 21
-3.319928999999885
 31
0.0
  0
LINE
  5
13B8
330
18
100
AcDbEntity
  8
SK1
100
AcDbLine
 10
-1.370000000003642
 20
3.319929000000113
 30
0.0
 11
-1.370000000003642
 21
3.099421000000113
 31
0.0
  0
LINE
  5
13B9
330
18
100
AcDbEntity
  8
SK1
100
AcDbLine
 10
-1.470000000003649
 20
2.968786000000113
 30
0.0
 11
-1.470000000003649
 21
3.180000000000113
 31
0.0
  0
LINE
  5
13BA
330
18
100
AcDbEntity
  8
SK1
100
AcDbLine
 10
-1.470000000003649
 20
-3.179999999999886
 30
0.0
 11
-1.470000000003649
 21
2.968786000000113
 31
0.0
  0
LINE
  5
13BB
330
18
100
AcDbEntity
  8
SK1
100
AcDbLine
 10
-1.494131000003648
 20
2.971507000000113
 30
0.0
 11
-1.493519000003644
 21
2.968786000000113
 31
0.0
  0
LWPOLYLINE
  5
13BC
330
18
100
AcDbEntity
  8
SK1
100
AcDbPolyline
 90
        9
 70
     0
 43
0.0
 10
-1.494255000003646
 20
2.971545000000113
 10
-1.507819000003649
 20
3.032040000000113
 10
-1.521605000003646
 20
3.083078000000113
 10
-1.535250000003639
 20
3.123093000000113
 10
-1.549047000003639
 20
3.152832000000113
 10
-1.556076000003639
 20
3.163812000000113
 10
-1.563129000003639
 20
3.171991000000113
 10
-1.570200000003637
 20
3.177332000000113
 10
-1.579844000003645
 20
3.180000000000113
  0
LINE
  5
13BD
330
18
100
AcDbEntity
  8
SK1
100
AcDbLine
 10
-1.579844000003645
 20
3.180000000000113
 30
0.0
 11
-1.589903000003641
 21
3.177109000000113
 31
0.0
  0
LINE
  5
13BE
330
18
100
AcDbEntity
  8
SK1
100
AcDbLine
 10
-2.320174000003646
 20
-3.179999999999886
 30
0.0
 11
-2.330277000003647
 21
-3.177091999999886
 31
0.0
  0
LWPOLYLINE
  5
13BF
330
18
100
AcDbEntity
  8
SK1
100
AcDbPolyline
 90
       12
 70
     0
 43
0.0
 10
-2.330277000003647
 20
-3.177091999999886
 10
-2.336649000003645
 20
-3.172262999999886
 10
-2.343008000003647
 20
-3.165137999999886
 10
-2.352697000003642
 20
-3.149860999999886
 10
-2.362332000003644
 20
-3.129397999999885
 10
-2.377953000003643
 20
-3.085135999999886
 10
-2.393346000003646
 20
-3.028259999999886
 10
-2.408789000003634
 20
-2.958204999999886
 10
-2.423933000003643
 20
-2.877149999999886
 10
-2.448942000003639
 20
-2.717400999999885
 10
-2.473063000003647
 20
-2.534224999999886
 10
-2.496341000003639
 20
-2.332167999999884
  0
LWPOLYLINE
  5
13C0
330
18
100
AcDbEntity
  8
SK1
100
AcDbPolyline
 90
       16
 70
     0
 43
0.0
 10
-2.496341000003639
 20
-2.332167999999884
 10
-2.525029000003641
 20
-2.051950999999883
 10
-2.552646000003647
 20
-1.753340999999885
 10
-2.579372000003643
 20
-1.441308999999884
 10
-2.63090900000364
 20
-0.7908759999998864
 10
-2.681130000003645
 20
-0.1207589999998864
 10
-2.731345000003641
 20
0.554320000000114
 10
-2.77421900000364
 20
1.111797000000113
 10
-2.796305000003641
 20
1.385705000000112
 10
-2.830545000003638
 20
1.785375000000111
 10
-2.85722000000365
 20
2.071090000000113
 10
-2.884822000003636
 20
2.338900000000114
 10
-2.91339900000365
 20
2.582544000000114
 10
-2.942995000003648
 20
2.795030000000114
 10
-2.958191000003651
 20
2.887241000000113
 10
-2.973663000003639
 20
2.968786000000113
  0
LINE
  5
13C1
330
18
100
AcDbEntity
  8
SK1
100
AcDbLine
 10
-2.45018600000364
 20
2.968786000000113
 30
0.0
 11
-2.445158000003643
 21
2.944139000000113
 31
0.0
  0
LWPOLYLINE
  5
13C2
330
18
100
AcDbEntity
  8
SK1
100
AcDbPolyline
 90
        7
 70
     0
 43
0.0
 10
-2.328050000003642
 20
2.645670000000113
 10
-2.349352000003646
 20
2.712756000000114
 10
-2.374252000003647
 20
2.776074000000114
 10
-2.396456000003638
 20
2.826562000000113
 10
-2.418040000003641
 20
2.874471000000113
 10
-2.437497000003645
 20
2.921582000000113
 10
-2.445128000003649
 20
2.944097000000113
  0
LINE
  5
13C3
330
18
100
AcDbEntity
  8
SK1
100
AcDbLine
 10
-2.231580000003646
 20
2.308002000000113
 30
0.0
 11
-2.328050000003642
 21
2.645670000000113
 31
0.0
  0
ARC
  5
13C4
330
18
100
AcDbEntity
  8
SK1
100
AcDbCircle
 10
-1.807351000003649
 20
2.431624000000113
 30
0.0
 40
0.441885
100
AcDbArc
 50
196.2463079999999
 51
204.5799419999999
  0
LWPOLYLINE
  5
13C5
330
18
100
AcDbEntity
  8
SK1
100
AcDbPolyline
 90
        9
 70
     0
 43
0.0
 10
-2.018536000003649
 20
2.092935000000113
 10
-2.048141000003639
 20
2.095888000000114
 10
-2.076179000003647
 20
2.104469000000113
 10
-2.101750000003645
 20
2.11732200000011
 10
-2.119965000003645
 20
2.129675000000114
 10
-2.136669000003649
 20
2.143634000000114
 10
-2.165602000003644
 20
2.17496100000011
 10
-2.188893000003645
 20
2.208919000000113
 10
-2.209200000003646
 20
2.247813000000113
  0
LINE
  5
13C6
330
18
100
AcDbEntity
  8
SK1
100
AcDbLine
 10
-1.693722000003645
 20
2.095095000000114
 30
0.0
 11
-2.018536000003649
 21
2.092935000000113
 31
0.0
  0
LWPOLYLINE
  5
13C7
330
18
100
AcDbEntity
  8
SK1
100
AcDbPolyline
 90
       12
 70
     0
 43
0.0
 10
-1.693722000003645
 20
2.095095000000114
 10
-1.677746000003637
 20
2.096054000000114
 10
-1.662184000003648
 20
2.098991000000113
 10
-1.645161000003639
 20
2.104492000000114
 10
-1.629303000003645
 20
2.111922000000113
 10
-1.604329000003643
 20
2.12883600000011
 10
-1.583206000003641
 20
2.149492000000114
 10
-1.566103000003649
 20
2.172493000000113
 10
-1.555483000003644
 20
2.191162000000113
 10
-1.546728000003639
 20
2.210451000000113
 10
-1.533811000003638
 20
2.249986000000113
 10
-1.525783000003641
 20
2.289697000000114
  0
LINE
  5
13C8
330
18
100
AcDbEntity
  8
SK1
100
AcDbLine
 10
-1.525783000003641
 20
2.289697000000114
 30
0.0
 11
-1.523320000003649
 21
2.312284000000113
 31
0.0
  0
LINE
  5
13C9
330
18
100
AcDbEntity
  8
SK1
100
AcDbLine
 10
-1.512978000003641
 20
2.462762000000113
 30
0.0
 11
-1.523320000003649
 21
2.312284000000113
 31
0.0
  0
ARC
  5
13CA
330
18
100
AcDbEntity
  8
SK1
100
AcDbCircle
 10
-4.930775000003648
 20
2.648182000000113
 30
0.0
 40
3.422801
100
AcDbArc
 50
356.89468
 51
0.0203930000000029
  0
LWPOLYLINE
  5
13CB
330
18
100
AcDbEntity
  8
SK1
100
AcDbPolyline
 90
        8
 70
     0
 43
0.0
 10
-1.493519000003644
 20
2.968786000000113
 10
-1.488836000003644
 20
2.933203000000113
 10
-1.488465000003643
 20
2.908087000000113
 10
-1.492034000003639
 20
2.854765000000113
 10
-1.497898000003643
 20
2.801583000000114
 10
-1.503635000003639
 20
2.745473000000114
 10
-1.506840000003649
 20
2.698239000000113
 10
-1.50799600000364
 20
2.649363000000113
  0
LWPOLYLINE
  5
13CC
330
18
100
AcDbEntity
  8
SK1
100
AcDbPolyline
 90
       10
 70
     0
 43
0.0
 10
-1.494131000003648
 20
2.971507000000113
 10
-1.504686000003643
 20
2.964958000000113
 10
-1.514647000003648
 20
2.957622000000113
 10
-1.523945000003649
 20
2.949552000000113
 10
-1.532514000003643
 20
2.940803000000112
 10
-1.540295000003638
 20
2.931436000000113
 10
-1.547234000003639
 20
2.921517000000113
 10
-1.553283000003645
 20
2.911114000000113
 10
-1.558398000003649
 20
2.900301000000112
 10
-1.562545000003652
 20
2.889153000000113
  0
LWPOLYLINE
  5
13CD
330
18
100
AcDbEntity
  8
SK1
100
AcDbPolyline
 90
       10
 70
     0
 43
0.0
 10
-1.562545000003652
 20
2.889153000000113
 10
-1.556483000003638
 20
2.861599000000113
 10
-1.550422000003649
 20
2.834270000000113
 10
-1.544360000003649
 20
2.807171000000113
 10
-1.538298000003649
 20
2.780300000000114
 10
-1.532237000003646
 20
2.753654000000113
 10
-1.526176000003643
 20
2.727240000000113
 10
-1.520116000003639
 20
2.701052000000114
 10
-1.514055000003649
 20
2.675093000000114
 10
-1.50799600000364
 20
2.649364000000113
  0
LWPOLYLINE
  5
13CE
330
18
100
AcDbEntity
  8
SK1
100
AcDbPolyline
 90
       14
 70
     0
 43
0.0
 10
-1.562542000003645
 20
2.889260000000113
 10
-1.584892000003648
 20
2.980941000000113
 10
-1.596223000003645
 20
3.017288000000113
 10
-1.607639000003644
 20
3.046879000000113
 10
-1.622970000003645
 20
3.075368000000113
 10
-1.630671000003643
 20
3.084773000000113
 10
-1.638386000003649
 20
3.090890000000113
 10
-1.646111000003639
 20
3.093691000000113
 10
-1.653840000003639
 20
3.093160000000112
 10
-1.662598000003639
 20
3.088526000000113
 10
-1.671351000003639
 20
3.079615000000113
 10
-1.680091000003639
 20
3.066476000000113
 10
-1.688798000003643
 20
3.049195000000113
 10
-1.706058000003649
 20
3.002647000000113
  0
LWPOLYLINE
  5
13CF
330
18
100
AcDbEntity
  8
SK1
100
AcDbPolyline
 90
        7
 70
     0
 43
0.0
 10
-2.44600400000364
 20
-3.002990999999886
 10
-2.466663000003649
 20
-2.926121999999886
 10
-2.486948000003649
 20
-2.828715999999886
 10
-2.503874000003647
 20
-2.731352999999884
 10
-2.520475000003642
 20
-2.622163999999886
 10
-2.542381000003643
 20
-2.458327999999884
 10
-2.564386000003636
 20
-2.272533999999884
  0
LWPOLYLINE
  5
13D0
330
18
100
AcDbEntity
  8
SK1
100
AcDbPolyline
 90
       20
 70
     0
 43
0.0
 10
-2.564386000003636
 20
-2.272533999999884
 10
-2.588376000003647
 20
-2.047494999999885
 10
-2.611743000003642
 20
-1.807758999999883
 10
-2.642053000003642
 20
-1.470613999999885
 10
-2.661806000003647
 20
-1.237425999999886
 10
-2.700489000003641
 20
-0.7571099999998863
 10
-2.764462000003644
 20
0.0755080000001138
 10
-2.82875600000365
 20
0.9066060000001135
 10
-2.882263000003646
 20
1.549674000000113
 10
-2.910176000003643
 20
1.855459000000113
 10
-2.939568000003646
 20
2.149186000000113
 10
-2.969980000003642
 20
2.417835000000113
 10
-2.989653000003641
 20
2.570445000000113
 10
-3.009729000003642
 20
2.707708000000113
 10
-3.029456000003647
 20
2.823437000000113
 10
-3.04955500000365
 20
2.920977000000113
 10
-3.062629000003638
 20
2.973042000000113
 10
-3.075859000003646
 20
3.016405000000113
 10
-3.087635000003641
 20
3.047023000000113
 10
-3.09946200000364
 20
3.070108000000113
  0
ARC
  5
13D1
330
18
100
AcDbEntity
  8
SK1
100
AcDbCircle
 10
-3.666412000003646
 20
2.864405000000113
 30
0.0
 40
0.699766
100
AcDbArc
 50
8.568663000000089
 51
24.67086799999981
  0
ARC
  5
13D2
330
18
100
AcDbEntity
  8
SK1
100
AcDbCircle
 10
-3.068703000003651
 20
3.141446000000113
 30
0.0
 40
0.039883
100
AcDbArc
 50
21.44784799999997
 51
77.34330900000023
  0
LINE
  5
13D3
330
18
100
AcDbEntity
  8
SK1
100
AcDbLine
 10
-3.060045000003638
 20
3.180000000000113
 30
0.0
 11
-3.070136000003643
 21
3.177090000000113
 31
0.0
  0
LINE
  5
13D4
330
18
100
AcDbEntity
  8
SK1
100
AcDbLine
 10
-2.536595000003643
 20
3.180000000000113
 30
0.0
 11
-2.526435000003643
 21
3.177034000000113
 31
0.0
  0
LWPOLYLINE
  5
13D5
330
18
100
AcDbEntity
  8
SK1
100
AcDbPolyline
 90
        8
 70
     0
 43
0.0
 10
-2.526435000003643
 20
3.177034000000113
 10
-2.519949000003649
 20
3.172046000000113
 10
-2.51347400000364
 20
3.164669000000113
 10
-2.500576000003646
 20
3.142861000000113
 10
-2.489198000003639
 20
3.115819000000113
 10
-2.477915000003645
 20
3.081858000000113
 10
-2.463951000003646
 20
3.030111000000113
 10
-2.45018600000364
 20
2.968786000000113
  0
LWPOLYLINE
  5
13D6
330
18
100
AcDbEntity
  8
SK1
100
AcDbPolyline
 90
       10
 70
     0
 43
0.0
 10
-2.378083000003641
 20
2.866302000000113
 10
-2.382165000003638
 20
2.877066000000113
 10
-2.387188000003646
 20
2.887452000000113
 10
-2.393120000003646
 20
2.897389000000113
 10
-2.399918000003634
 20
2.906811000000113
 10
-2.407539000003636
 20
2.915654000000113
 10
-2.415929000003643
 20
2.923856000000114
 10
-2.425032000003639
 20
2.931364000000113
 10
-2.43478600000364
 20
2.938126000000113
 10
-2.445126000003638
 20
2.944097000000113
  0
ARC
  5
13D7
330
18
100
AcDbEntity
  8
SK1
100
AcDbCircle
 10
-3.743822000003646
 20
2.604372000000113
 30
0.0
 40
1.390571999999999
100
AcDbArc
 50
10.85698899999988
 51
16.62948499999985
  0
LWPOLYLINE
  5
13D8
330
18
100
AcDbEntity
  8
SK1
100
AcDbPolyline
 90
       10
 70
     0
 43
0.0
 10
-2.378083000003641
 20
2.866302000000113
 10
-2.372523000003639
 20
2.841022000000113
 10
-2.366963000003647
 20
2.815931000000113
 10
-2.361404000003644
 20
2.791033000000114
 10
-2.355844000003642
 20
2.766327000000114
 10
-2.350285000003634
 20
2.741812000000113
 10
-2.344726000003646
 20
2.717487000000113
 10
-2.339167000003641
 20
2.693357000000113
 10
-2.333608000003647
 20
2.669418000000113
 10
-2.328050000003642
 20
2.645672000000113
  0
LWPOLYLINE
  5
13D9
330
18
100
AcDbEntity
  8
SK1
100
AcDbPolyline
 90
       10
 70
     0
 43
0.0
 10
-2.322483000003642
 20
2.697563000000114
 10
-2.312379000003645
 20
2.651760000000113
 10
-2.302275000003644
 20
2.606583000000114
 10
-2.292172000003644
 20
2.562035000000113
 10
-2.282070000003642
 20
2.518116000000113
 10
-2.271968000003639
 20
2.474827000000113
 10
-2.261869000003642
 20
2.432169000000113
 10
-2.251770000003645
 20
2.390146000000113
 10
-2.241674000003641
 20
2.348757000000113
 10
-2.231580000003646
 20
2.308001000000113
  0
LINE
  5
13DA
330
18
100
AcDbEntity
  8
SK1
100
AcDbLine
 10
-2.322482000003645
 20
2.697564000000113
 30
0.0
 11
-2.378083000003641
 21
2.866302000000113
 31
0.0
  0
LWPOLYLINE
  5
13DB
330
18
100
AcDbEntity
  8
SK1
100
AcDbPolyline
 90
       10
 70
     0
 43
0.0
 10
-2.131808000003644
 20
2.570803000000113
 10
-2.119215000003649
 20
2.513811000000114
 10
-2.106623000003649
 20
2.457787000000113
 10
-2.094032000003649
 20
2.402733000000113
 10
-2.081442000003645
 20
2.348654000000113
 10
-2.068855000003637
 20
2.295549000000113
 10
-2.05627000000365
 20
2.243425000000113
 10
-2.043688000003641
 20
2.19227800000011
 10
-2.031110000003649
 20
2.142115000000114
 10
-2.018536000003649
 20
2.092936000000113
  0
LWPOLYLINE
  5
13DC
330
18
100
AcDbEntity
  8
SK1
100
AcDbPolyline
 90
       10
 70
     0
 43
0.0
 10
-2.322482000003645
 20
2.697564000000113
 10
-2.312350000003644
 20
2.673202000000113
 10
-2.298605000003647
 20
2.650527000000113
 10
-2.281523000003645
 20
2.629992000000113
 10
-2.261446000003644
 20
2.612009000000114
 10
-2.238775000003641
 20
2.596938000000113
 10
-2.213964000003642
 20
2.585079000000114
 10
-2.187509000003643
 20
2.576670000000113
 10
-2.159940000003643
 20
2.571880000000113
 10
-2.131808000003644
 20
2.570804000000113
  0
LWPOLYLINE
  5
13DD
330
18
100
AcDbEntity
  8
SK1
100
AcDbPolyline
 90
       10
 70
     0
 43
0.0
 10
-1.808786000003649
 20
2.579893000000113
 10
-1.795994000003645
 20
2.522005000000113
 10
-1.783203000003638
 20
2.465117000000113
 10
-1.770412000003645
 20
2.409231000000113
 10
-1.757623000003647
 20
2.354349000000113
 10
-1.744836000003644
 20
2.300476000000113
 10
-1.732052000003648
 20
2.247610000000113
 10
-1.719272000003639
 20
2.195757000000114
 10
-1.706495000003639
 20
2.144918000000114
 10
-1.693722000003645
 20
2.095095000000114
  0
LINE
  5
13DE
330
18
100
AcDbEntity
  8
SK1
100
AcDbLine
 10
-1.808786000003649
 20
2.579893000000113
 30
0.0
 11
-2.131808000003644
 21
2.570804000000113
 31
0.0
  0
LWPOLYLINE
  5
13DF
330
18
100
AcDbEntity
  8
SK1
100
AcDbPolyline
 90
       10
 70
     0
 43
0.0
 10
-1.618113000003646
 20
2.717384000000113
 10
-1.607576000003646
 20
2.669632000000113
 10
-1.597040000003643
 20
2.622562000000113
 10
-1.586504000003643
 20
2.576178000000114
 10
-1.575969000003638
 20
2.530476000000113
 10
-1.565436000003643
 20
2.485460000000113
 10
-1.554904000003645
 20
2.441132000000113
 10
-1.544374000003641
 20
2.397491000000114
 10
-1.533846000003649
 20
2.354542000000114
 10
-1.523320000003649
 20
2.312284000000113
  0
LWPOLYLINE
  5
13E0
330
18
100
AcDbEntity
  8
SK1
100
AcDbPolyline
 90
       10
 70
     0
 43
0.0
 10
-1.808786000003649
 20
2.579893000000113
 10
-1.780654000003649
 20
2.582553000000113
 10
-1.753085000003649
 20
2.588895000000113
 10
-1.726630000003638
 20
2.598792000000113
 10
-1.701819000003638
 20
2.612048000000113
 10
-1.679148000003649
 20
2.628395000000113
 10
-1.659071000003649
 20
2.647508000000113
 10
-1.641990000003644
 20
2.669004000000113
 10
-1.628245000003643
 20
2.692452000000113
 10
-1.618113000003646
 20
2.717384000000113
  0
LINE
  5
13E1
330
18
100
AcDbEntity
  8
SK1
100
AcDbLine
 10
-1.591147000003641
 20
2.800741000000114
 30
0.0
 11
-1.618113000003646
 21
2.717385000000113
 31
0.0
  0
LINE
  5
13E2
330
18
100
AcDbEntity
  8
SK1
100
AcDbLine
 10
-1.562540000003649
 20
2.889168000000113
 30
0.0
 11
-1.591147000003641
 21
2.800741000000114
 31
0.0
  0
LWPOLYLINE
  5
13E3
330
18
100
AcDbEntity
  8
SK1
100
AcDbPolyline
 90
       11
 70
     0
 43
0.0
 10
-3.110859000003642
 20
3.085033000000113
 10
-3.117144000003646
 20
3.090180000000113
 10
-3.123437000003647
 20
3.093132000000113
 10
-3.129734000003651
 20
3.093879000000113
 10
-3.136033000003647
 20
3.092415000000114
 10
-3.142328000003641
 20
3.088744000000113
 10
-3.148617000003638
 20
3.082875000000113
 10
-3.156189000003647
 20
3.072895000000113
 10
-3.163741000003638
 20
3.059779000000113
 10
-3.174929000003641
 20
3.034574000000113
 10
-3.186045000003642
 20
3.002752000000113
  0
LINE
  5
13E4
330
18
100
AcDbEntity
  8
SK1
100
AcDbLine
 10
-3.09946200000364
 20
3.070108000000113
 30
0.0
 11
-3.110859000003642
 21
3.085033000000113
 31
0.0
  0
LINE
  5
13E5
330
18
100
AcDbEntity
  8
SK1
100
AcDbLine
 10
-4.203741000003645
 20
-0.4571129999998865
 30
0.0
 11
-4.237923000003647
 21
-0.0102149999998864
 31
0.0
  0
LWPOLYLINE
  5
13E6
330
18
100
AcDbEntity
  8
SK1
100
AcDbPolyline
 90
       12
 70
     0
 43
0.0
 10
-3.925985000003649
 20
-3.002737999999886
 10
-3.938178000003643
 20
-2.960149999999886
 10
-3.950252000003643
 20
-2.910170999999886
 10
-3.974000000003641
 20
-2.789707999999885
 10
-3.995489000003642
 20
-2.656280999999884
 10
-4.016448000003649
 20
-2.504848999999884
 10
-4.040068000003643
 20
-2.310526999999884
 10
-4.063008000003646
 20
-2.099542999999886
 10
-4.087665000003639
 20
-1.850623999999885
 10
-4.111723000003649
 20
-1.588147999999883
 10
-4.143030000003648
 20
-1.222172999999886
 10
-4.203741000003645
 20
-0.4571129999998865
  0
LINE
  5
13E7
330
18
100
AcDbEntity
  8
SK1
100
AcDbLine
 10
-3.799959000003638
 20
-3.179999999999886
 30
0.0
 11
-3.809847000003641
 21
-3.177195999999886
 31
0.0
  0
LWPOLYLINE
  5
13E8
330
18
100
AcDbEntity
  8
SK1
100
AcDbPolyline
 90
       17
 70
     0
 43
0.0
 10
-3.809847000003641
 20
-3.177195999999886
 10
-3.818963000003647
 20
-3.169638999999885
 10
-3.828050000003641
 20
-3.157366999999886
 10
-3.83709600000364
 20
-3.140468999999886
 10
-3.846091000003638
 20
-3.119061999999886
 10
-3.863886000003645
 20
-3.063309999999886
 10
-3.877030000003641
 20
-3.010852999999886
 10
-3.889977000003638
 20
-2.949991999999886
 10
-3.915230000003646
 20
-2.805769999999884
 10
-3.942224000003647
 20
-2.615946999999884
 10
-3.968243000003639
 20
-2.400424999999884
 10
-3.99499700000365
 20
-2.148319999999884
 10
-4.020862000003647
 20
-1.878263999999884
 10
-4.057465000003642
 20
-1.458326999999884
 10
-4.081103000003636
 20
-1.167846999999885
 10
-4.127083000003651
 20
-0.5720579999998864
 10
-4.16932600000365
 20
-0.0051769999998865
  0
LWPOLYLINE
  5
13E9
330
18
100
AcDbEntity
  8
SK1
100
AcDbPolyline
 90
       10
 70
     0
 43
0.0
 10
-4.16932600000365
 20
-0.0051769999998865
 10
-4.239972000003646
 20
0.9339620000001136
 10
-4.276536000003645
 20
1.392380000000112
 10
-4.304832000003639
 20
1.72476800000011
 10
-4.334044000003641
 20
2.041890000000114
 10
-4.358215000003639
 20
2.280858000000113
 10
-4.383149000003641
 20
2.502274000000113
 10
-4.405574000003636
 20
2.677605000000113
 10
-4.428703000003636
 20
2.833040000000113
 10
-4.453388000003641
 20
2.968786000000113
  0
LWPOLYLINE
  5
13EA
330
18
100
AcDbEntity
  8
SK1
100
AcDbPolyline
 90
       15
 70
     0
 43
0.0
 10
-3.930114000003641
 20
2.968786000000113
 10
-3.904509000003642
 20
2.828144000000113
 10
-3.879781000003646
 20
2.660550000000114
 10
-3.861209000003638
 20
2.515226000000113
 10
-3.843139000003643
 20
2.358751000000113
 10
-3.815545000003638
 20
2.093220000000114
 10
-3.788999000003641
 20
1.81051000000011
 10
-3.747086000003647
 20
1.318775000000113
 10
-3.720102000003647
 20
0.9791150000001136
 10
-3.667569000003638
 20
0.2852770000001135
 10
-3.589181000003647
 20
-0.7647239999998864
 10
-3.548761000003636
 20
-1.280058999999885
 10
-3.516102000003641
 20
-1.669630999999886
 10
-3.482194000003643
 20
-2.040151999999884
 10
-3.446767000003646
 20
-2.382256999999884
  0
LWPOLYLINE
  5
13EB
330
18
100
AcDbEntity
  8
SK1
100
AcDbPolyline
 90
       13
 70
     0
 43
0.0
 10
-3.446767000003646
 20
-2.382256999999884
 10
-3.425946000003647
 20
-2.558737999999884
 10
-3.404438000003651
 20
-2.720123999999884
 10
-3.386588000003641
 20
-2.836964999999885
 10
-3.368288000003643
 20
-2.939885999999886
 10
-3.347289000003641
 20
-3.036145999999886
 10
-3.336613000003652
 20
-3.075890999999886
 10
-3.325831000003642
 20
-3.109615999999886
 10
-3.314926000003636
 20
-3.137089999999886
 10
-3.303924000003647
 20
-3.157981999999885
 10
-3.292860000003641
 20
-3.172051999999886
 10
-3.28454900000365
 20
-3.178014999999886
 10
-3.276242000003647
 20
-3.179999999999886
  0
LINE
  5
13EC
330
18
100
AcDbEntity
  8
SK1
100
AcDbLine
 10
-3.276242000003647
 20
-3.179999999999886
 30
0.0
 11
-3.266072000003646
 21
-3.177018999999886
 31
0.0
  0
LWPOLYLINE
  5
13ED
330
18
100
AcDbEntity
  8
SK1
100
AcDbPolyline
 90
       18
 70
     0
 43
0.0
 10
-3.151556000003651
 20
-3.002683999999886
 10
-3.162703000003642
 20
-3.034750999999886
 10
-3.173931000003647
 20
-3.060180999999886
 10
-3.182977000003646
 20
-3.075616999999886
 10
-3.192053000003638
 20
-3.086545999999886
 10
-3.202276000003647
 20
-3.093365999999886
 10
-3.212510000003646
 20
-3.094356999999886
 10
-3.222741000003636
 20
-3.089504999999886
 10
-3.230403000003647
 20
-3.082049999999886
 10
-3.238050000003638
 20
-3.071354999999886
 10
-3.253270000003638
 20
-3.040436999999886
 10
-3.263205000003651
 20
-3.013388999999885
 10
-3.273069000003641
 20
-2.981225999999886
 10
-3.292545000003642
 20
-2.902404999999886
 10
-3.309635000003638
 20
-2.816866999999886
 10
-3.326390000003641
 20
-2.718612999999884
 10
-3.34663100000364
 20
-2.581657999999884
 10
-3.379901000003641
 20
-2.315946999999884
  0
ARC
  5
13EE
330
18
100
AcDbEntity
  8
SK1
100
AcDbCircle
 10
-3.625367000003647
 20
2.428216000000113
 30
0.0
 40
1.330394999999997
100
AcDbArc
 50
11.68444199999988
 51
16.8882329999998
  0
LWPOLYLINE
  5
13EF
330
18
100
AcDbEntity
  8
SK1
100
AcDbPolyline
 90
        9
 70
     0
 43
0.0
 10
-2.131810000003639
 20
2.570896000000113
 10
-2.153800000003641
 20
2.655762000000109
 10
-2.164956000003638
 20
2.690079000000113
 10
-2.176202000003641
 20
2.718599000000113
 10
-2.191314000003643
 20
2.747179000000113
 10
-2.19891000000365
 20
2.757284000000113
 10
-2.206524000003639
 20
2.764537000000113
 10
-2.214152000003647
 20
2.768904000000113
 10
-2.221787000003641
 20
2.770365000000113
  0
LWPOLYLINE
  5
13F0
330
18
100
AcDbEntity
  8
SK1
100
AcDbPolyline
 90
        9
 70
     0
 43
0.0
 10
-1.808788000003644
 20
2.579985000000113
 10
-1.830289000003645
 20
2.661012000000113
 10
-1.841184000003649
 20
2.693716000000113
 10
-1.852160000003649
 20
2.720866000000113
 10
-1.866900000003639
 20
2.748048000000113
 10
-1.874305000003641
 20
2.757653000000113
 10
-1.881727000003649
 20
2.764545000000113
 10
-1.889161000003639
 20
2.768696000000113
 10
-1.896601000003639
 20
2.770087000000113
  0
LWPOLYLINE
  5
13F1
330
18
100
AcDbEntity
  8
SK1
100
AcDbPolyline
 90
       14
 70
     0
 43
0.0
 10
-1.618115000003641
 20
2.717471000000113
 10
-1.641041000003639
 20
2.806036000000114
 10
-1.652667000003646
 20
2.840907000000113
 10
-1.664381000003641
 20
2.869074000000114
 10
-1.680112000003646
 20
2.895746000000113
 10
-1.688013000003649
 20
2.904279000000114
 10
-1.695929000003643
 20
2.909552000000113
 10
-1.703854000003643
 20
2.911536000000113
 10
-1.711780000003639
 20
2.910222000000113
 10
-1.720770000003639
 20
2.904735000000113
 10
-1.729755000003649
 20
2.895010000000111
 10
-1.738722000003646
 20
2.881107000000113
 10
-1.747653000003634
 20
2.863118000000113
 10
-1.765342000003641
 20
2.815359000000113
  0
LINE
  5
13F2
330
18
100
AcDbEntity
  8
SK1
100
AcDbLine
 10
-2.597162000003649
 20
-2.321795999999884
 30
0.0
 11
-2.631342000003641
 21
-2.043643999999884
 31
0.0
  0
ARC
  5
13F3
330
18
100
AcDbEntity
  8
SK1
100
AcDbCircle
 10
0.7882019999963604
 20
-1.959267999999885
 30
0.0
 40
3.403816
100
AcDbArc
 50
186.1123319999999
 51
194.5721439999999
  0
LWPOLYLINE
  5
13F4
330
18
100
AcDbEntity
  8
SK1
100
AcDbPolyline
 90
       11
 70
     0
 43
0.0
 10
-3.109488000003651
 20
2.764469000000113
 10
-3.122234000003643
 20
2.809786000000113
 10
-3.135105000003648
 20
2.847205000000113
 10
-3.145201000003638
 20
2.870621000000113
 10
-3.155347000003643
 20
2.888847000000113
 10
-3.163097000003642
 20
2.899166000000113
 10
-3.170863000003647
 20
2.906363000000114
 10
-3.181231000003649
 20
2.911056000000113
 10
-3.191601000003643
 20
2.910119000000113
 10
-3.20195500000365
 20
2.903569000000113
 10
-3.211956000003638
 20
2.891928000000113
  0
LWPOLYLINE
  5
13F5
330
18
100
AcDbEntity
  8
SK1
100
AcDbPolyline
 90
       15
 70
     0
 43
0.0
 10
-2.631341000003644
 20
-2.043643999999884
 10
-2.659587000003639
 20
-1.781103999999885
 10
-2.687010000003638
 20
-1.501458999999884
 10
-2.735319000003642
 20
-0.9618029999998864
 10
-2.77769900000365
 20
-0.4544119999998867
 10
-2.867722000003638
 20
0.6508140000001137
 10
-2.908664000003638
 20
1.131816000000113
 10
-2.92970900000364
 20
1.36670500000011
 10
-2.962222000003649
 20
1.70744500000011
 10
-2.991587000003647
 20
1.987385000000113
 10
-3.021938000003641
 20
2.244240000000113
 10
-3.050314000003638
 20
2.450825000000113
 10
-3.079497000003641
 20
2.626209000000113
 10
-3.094390000003641
 20
2.700342000000113
 10
-3.109488000003651
 20
2.764469000000113
  0
LWPOLYLINE
  5
13F6
330
18
100
AcDbEntity
  8
SK1
100
AcDbPolyline
 90
       25
 70
     0
 43
0.0
 10
-4.237923000003647
 20
-0.0102149999998864
 10
-4.299050000003646
 20
0.7838040000001138
 10
-4.330270000003636
 20
1.172647000000113
 10
-4.378518000003636
 20
1.73059500000011
 10
-4.403462000003641
 20
1.99196900000011
 10
-4.429070000003648
 20
2.237031000000113
 10
-4.455441000003643
 20
2.461735000000113
 10
-4.474678000003648
 20
2.606358000000113
 10
-4.494378000003648
 20
2.736457000000113
 10
-4.513021000003647
 20
2.841993000000113
 10
-4.532034000003648
 20
2.931304000000113
 10
-4.552155000003651
 20
3.005046000000113
 10
-4.562329000003643
 20
3.034023000000113
 10
-4.572565000003648
 20
3.057468000000113
 10
-4.586578000003639
 20
3.080203000000113
 10
-4.593608000003642
 20
3.087509000000113
 10
-4.600648000003643
 20
3.092070000000113
 10
-4.607375000003641
 20
3.093849000000113
 10
-4.614103000003638
 20
3.093105000000113
 10
-4.621464000003641
 20
3.089402000000113
 10
-4.628816000003636
 20
3.082691000000113
 10
-4.636288000003643
 20
3.072795000000113
 10
-4.643741000003643
 20
3.059844000000113
 10
-4.654920000003642
 20
3.034676000000112
 10
-4.666029000003646
 20
3.002893000000113
  0
LWPOLYLINE
  5
13F7
330
18
100
AcDbEntity
  8
SK1
100
AcDbPolyline
 90
        9
 70
     0
 43
0.0
 10
-4.453388000003641
 20
2.968786000000113
 10
-4.467068000003648
 20
3.029827000000113
 10
-4.480966000003646
 20
3.081385000000113
 10
-4.494830000003643
 20
3.122169000000113
 10
-4.508842000003636
 20
3.152461000000113
 10
-4.515949000003643
 20
3.163592000000113
 10
-4.523077000003636
 20
3.171883000000113
 10
-4.530221000003648
 20
3.177297000000113
 10
-4.539957000003639
 20
3.180000000000113
  0
LINE
  5
13F8
330
18
100
AcDbEntity
  8
SK1
100
AcDbLine
 10
-4.539957000003639
 20
3.180000000000113
 30
0.0
 11
-4.550075000003643
 21
3.177090000000113
 31
0.0
  0
LINE
  5
13F9
330
18
100
AcDbEntity
  8
SK1
100
AcDbLine
 10
-4.016406000003641
 20
3.180000000000113
 30
0.0
 11
-4.006214000003636
 21
3.177018000000114
 31
0.0
  0
ARC
  5
13FA
330
18
100
AcDbEntity
  8
SK1
100
AcDbCircle
 10
-4.051504000003646
 20
3.117550000000113
 30
0.0
 40
0.074934
100
AcDbArc
 50
22.4100760000002
 51
52.70705900000017
  0
ARC
  5
13FB
330
18
100
AcDbEntity
  8
SK1
100
AcDbCircle
 10
-4.721071000003646
 20
2.838248000000113
 30
0.0
 40
0.8011179999999999
100
AcDbArc
 50
9.371513999999956
 51
22.62109199999998
  0
LWPOLYLINE
  5
13FC
330
18
100
AcDbEntity
  8
SK1
100
AcDbPolyline
 90
       18
 70
     0
 43
0.0
 10
-3.379901000003641
 20
-2.315946999999884
 10
-3.41053800000364
 20
-2.030403999999883
 10
-3.440096000003649
 20
-1.722179999999885
 10
-3.468742000003643
 20
-1.397533999999885
 10
-3.493569000003645
 20
-1.099260999999885
 10
-3.542051000003638
 20
-0.4847599999998864
 10
-3.632090000003643
 20
0.6903360000001138
 10
-3.689788000003642
 20
1.401428000000112
 10
-3.71982000000365
 20
1.740955000000113
 10
-3.74301400000364
 20
1.98407000000011
 10
-3.76684700000365
 20
2.213805000000113
 10
-3.788634000003638
 20
2.404066000000113
 10
-3.811000000003645
 20
2.577975000000114
 10
-3.82667900000365
 20
2.686128000000113
 10
-3.842658000003638
 20
2.784102000000113
 10
-3.866723000003645
 20
2.907345000000113
 10
-3.87899700000365
 20
2.958608000000113
 10
-3.891393000003643
 20
3.002225000000113
  0
LWPOLYLINE
  5
13FD
330
18
100
AcDbEntity
  8
SK1
100
AcDbPolyline
 90
       16
 70
     0
 43
0.0
 10
-3.102258000003641
 20
-2.843741999999886
 10
-3.112844000003647
 20
-2.869123999999886
 10
-3.123494000003642
 20
-2.888811999999886
 10
-3.130548000003641
 20
-2.898603999999886
 10
-3.137619000003638
 20
-2.905807999999886
 10
-3.149499000003642
 20
-2.912010999999885
 10
-3.161389000003636
 20
-2.910794999999886
 10
-3.173265000003638
 20
-2.902166999999886
 10
-3.182150000003642
 20
-2.890879999999885
 10
-3.191003000003647
 20
-2.875532999999886
 10
-3.208138000003643
 20
-2.834291999999886
 10
-3.225059000003638
 20
-2.778824999999884
 10
-3.239422000003641
 20
-2.720468999999885
 10
-3.253571000003642
 20
-2.653094999999884
 10
-3.271931000003647
 20
-2.551463999999886
 10
-3.301559000003649
 20
-2.355288999999884
  0
LINE
  5
13FE
330
18
100
AcDbEntity
  8
SK1
100
AcDbLine
 10
-3.301559000003649
 20
-2.355288999999884
 30
0.0
 11
-3.324347000003641
 21
-2.179013999999884
 31
0.0
  0
LWPOLYLINE
  5
13FF
330
18
100
AcDbEntity
  8
SK1
100
AcDbPolyline
 90
       12
 70
     0
 43
0.0
 10
-2.961739000003646
 20
-2.770551999999884
 10
-2.969450000003647
 20
-2.769083999999884
 10
-2.97715400000365
 20
-2.764649999999885
 10
-2.984846000003641
 20
-2.757269999999885
 10
-2.992517000003643
 20
-2.746975999999885
 10
-3.007781000003646
 20
-2.717827999999884
 10
-3.019140000003643
 20
-2.688713999999885
 10
-3.030405000003638
 20
-2.653654999999884
 10
-3.052604000003638
 20
-2.566869999999886
 10
-3.067539000003647
 20
-2.495594999999884
 10
-3.082242000003645
 20
-2.415633999999884
 10
-3.110871000003641
 20
-2.233422999999886
  0
LINE
  5
1400
330
18
100
AcDbEntity
  8
SK1
100
AcDbLine
 10
-3.110871000003641
 20
-2.233423999999884
 30
0.0
 11
-3.122269000003639
 21
-2.151627999999885
 31
0.0
  0
LWPOLYLINE
  5
1401
330
18
100
AcDbEntity
  8
SK1
100
AcDbPolyline
 90
       12
 70
     0
 43
0.0
 10
-2.636620000003645
 20
-2.770367999999884
 10
-2.644439000003643
 20
-2.768836999999884
 10
-2.652252000003642
 20
-2.764256999999885
 10
-2.660052000003644
 20
-2.756645999999884
 10
-2.667832000003642
 20
-2.746036999999884
 10
-2.683312000003638
 20
-2.716016999999884
 10
-2.694832000003643
 20
-2.686042999999885
 10
-2.706258000003642
 20
-2.649955999999884
 10
-2.72877900000364
 20
-2.560641999999884
 10
-2.743917000003647
 20
-2.487398999999884
 10
-2.758824000003641
 20
-2.405251999999884
 10
-2.787864000003636
 20
-2.218126999999884
  0
LINE
  5
1402
330
18
100
AcDbEntity
  8
SK1
100
AcDbLine
 10
-2.787864000003636
 20
-2.218126999999884
 30
0.0
 11
-2.799260000003641
 21
-2.135371999999883
 31
0.0
  0
LWPOLYLINE
  5
1403
330
18
100
AcDbEntity
  8
SK1
100
AcDbPolyline
 90
       16
 70
     0
 43
0.0
 10
-2.799261000003638
 20
-2.135371999999883
 10
-2.835342000003647
 20
-1.841244999999885
 10
-2.870108000003638
 20
-1.516853999999884
 10
-2.914867000003638
 20
-1.051724999999886
 10
-2.943958000003647
 20
-0.7280309999998864
 10
-3.001109000003636
 20
-0.0645889999998861
 10
-3.06518000000365
 20
0.6820450000001137
 10
-3.097731000003647
 20
1.045547000000113
 10
-3.147969000003641
 20
1.564999000000113
 10
-3.174638000003638
 20
1.81326000000011
 10
-3.202179000003638
 20
2.045207000000111
 10
-3.224041000003651
 20
2.209567000000113
 10
-3.246484000003647
 20
2.358478000000113
 10
-3.272977000003649
 20
2.506610000000113
 10
-3.286489000003641
 20
2.570062000000113
 10
-3.300171000003643
 20
2.625682000000113
  0
ARC
  5
1404
330
18
100
AcDbEntity
  8
SK1
100
AcDbCircle
 10
-3.019906000003643
 20
2.768687000000113
 30
0.0
 40
0.228283
100
AcDbArc
 50
147.3111199999997
 51
161.1896429999998
  0
ARC
  5
1405
330
18
100
AcDbEntity
  8
SK1
100
AcDbCircle
 10
-3.384740000003643
 20
2.729142000000113
 30
0.0
 40
0.042279
100
AcDbArc
 50
23.92597500000015
 51
78.84975400000001
  0
ARC
  5
1406
330
18
100
AcDbEntity
  8
SK1
100
AcDbCircle
 10
-3.754297000003646
 20
2.526494000000113
 30
0.0
 40
0.464407
100
AcDbArc
 50
12.32079600000011
 51
28.29622099999984
  0
LWPOLYLINE
  5
1407
330
18
100
AcDbEntity
  8
SK1
100
AcDbPolyline
 90
       23
 70
     0
 43
0.0
 10
-4.350420000003636
 20
0.6833410000001137
 10
-4.391025000003636
 20
1.158518000000113
 10
-4.411869000003648
 20
1.390135000000112
 10
-4.44401300000365
 20
1.72535100000011
 10
-4.468884000003638
 20
1.96295000000011
 10
-4.494447000003646
 20
2.184309000000113
 10
-4.515118000003639
 20
2.344617000000113
 10
-4.536239000003646
 20
2.489766000000113
 10
-4.555663000003646
 20
2.605613000000113
 10
-4.575470000003647
 20
2.705505000000114
 10
-4.598724000003642
 20
2.798346000000114
 10
-4.610522000003641
 20
2.835083000000113
 10
-4.622414000003643
 20
2.864925000000113
 10
-4.638389000003641
 20
2.893522000000113
 10
-4.646414000003645
 20
2.902877000000113
 10
-4.654457000003644
 20
2.908875000000113
 10
-4.662509000003636
 20
2.911484000000113
 10
-4.670566000003645
 20
2.910691000000113
 10
-4.678546000003648
 20
2.906546000000113
 10
-4.686523000003646
 20
2.899064000000113
 10
-4.694489000003641
 20
2.888277000000113
 10
-4.702430000003643
 20
2.874243000000113
 10
-4.718193000003651
 20
2.836724000000113
  0
ARC
  5
1408
330
18
100
AcDbEntity
  8
SK1
100
AcDbCircle
 10
241.3881899999964
 20
19.96237300000011
 30
0.0
 40
246.49291
100
AcDbArc
 50
184.4858609999999
 51
184.9343599999999
  0
LWPOLYLINE
  5
1409
330
18
100
AcDbEntity
  8
SK1
100
AcDbPolyline
 90
       10
 70
     0
 43
0.0
 10
-3.985364000003641
 20
-2.815348999999886
 10
-4.006867000003636
 20
-2.735928999999885
 10
-4.027955000003641
 20
-2.635891999999884
 10
-4.045738000003652
 20
-2.535071999999884
 10
-4.063162000003643
 20
-2.422275999999884
 10
-4.085663000003648
 20
-2.257119999999884
 10
-4.107547000003648
 20
-2.076740999999886
 10
-4.136164000003645
 20
-1.814114999999883
 10
-4.163952000003646
 20
-1.533490999999884
 10
-4.191025000003647
 20
-1.239556999999886
  0
LINE
  5
140A
330
18
100
AcDbEntity
  8
SK1
100
AcDbLine
 10
-5.280231000003636
 20
-3.179999999999886
 30
0.0
 11
-5.290401000003638
 21
-3.177049999999886
 31
0.0
  0
LWPOLYLINE
  5
140B
330
18
100
AcDbEntity
  8
SK1
100
AcDbPolyline
 90
       17
 70
     0
 43
0.0
 10
-5.290401000003638
 20
-3.177049999999886
 10
-5.300657000003639
 20
-3.168096999999886
 10
-5.310877000003642
 20
-3.153224999999886
 10
-5.324419000003643
 20
-3.124419999999886
 10
-5.337831000003646
 20
-3.085760999999886
 10
-5.351079000003648
 20
-3.037789999999886
 10
-5.365757000003639
 20
-2.973463999999886
 10
-5.380169000003646
 20
-2.899086999999886
 10
-5.408146000003638
 20
-2.724024999999885
 10
-5.433860000003646
 20
-2.529136999999884
 10
-5.458649000003646
 20
-2.312623999999884
 10
-5.490436000003636
 20
-1.997698999999883
 10
-5.520991000003646
 20
-1.660389999999885
 10
-5.550546000003649
 20
-1.307288999999886
 10
-5.593504000003648
 20
-0.7588339999998867
 10
-5.677234000003648
 20
0.3641150000001136
 10
-5.740979000003648
 20
1.194325000000113
  0
LWPOLYLINE
  5
140C
330
18
100
AcDbEntity
  8
SK1
100
AcDbPolyline
 90
        9
 70
     0
 43
0.0
 10
-5.740979000003648
 20
1.194325000000113
 10
-5.787343000003643
 20
1.746399000000113
 10
-5.811514000003637
 20
2.008825000000113
 10
-5.832360000003646
 20
2.218420000000113
 10
-5.853799000003648
 20
2.416098000000113
 10
-5.884771000003652
 20
2.666456000000113
 10
-5.90072900000365
 20
2.777961000000113
 10
-5.917009000003642
 20
2.878711000000113
 10
-5.933901000003642
 20
2.968786000000113
  0
LWPOLYLINE
  5
140D
330
18
100
AcDbEntity
  8
SK1
100
AcDbPolyline
 90
       10
 70
     0
 43
0.0
 10
-5.410412000003643
 20
2.968786000000113
 10
-5.384606000003643
 20
2.826648000000113
 10
-5.359669000003646
 20
2.657079000000113
 10
-5.340847000003648
 20
2.509253000000109
 10
-5.322535000003639
 20
2.350026000000113
 10
-5.294786000003639
 20
2.081960000000114
 10
-5.26809100000365
 20
1.796700000000113
 10
-5.217391000003643
 20
1.194536000000113
 10
-5.184777000003648
 20
0.7760780000001139
 10
-5.120826000003646
 20
-0.0798799999998865
  0
LWPOLYLINE
  5
140E
330
18
100
AcDbEntity
  8
SK1
100
AcDbPolyline
 90
       18
 70
     0
 43
0.0
 10
-5.120826000003646
 20
-0.0798799999998865
 10
-5.050473000003646
 20
-1.012115999999886
 10
-5.013880000003636
 20
-1.466348999999883
 10
-4.985492000003644
 20
-1.794845999999884
 10
-4.956141000003637
 20
-2.107014999999885
 10
-4.932675000003642
 20
-2.333307999999886
 10
-4.908488000003643
 20
-2.542330999999884
 10
-4.885088000003648
 20
-2.719096999999885
 10
-4.860928000003639
 20
-2.873480999999886
 10
-4.845713000003641
 20
-2.955319999999886
 10
-4.830198000003646
 20
-3.026103999999885
 10
-4.815657000003636
 20
-3.080566999999886
 10
-4.800913000003646
 20
-3.123836999999886
 10
-4.790567000003646
 20
-3.146923999999886
 10
-4.780158000003638
 20
-3.164041999999886
 10
-4.769703000003644
 20
-3.175031999999886
 10
-4.763109000003638
 20
-3.178757999999886
 10
-4.756510000003643
 20
-3.179999999999886
  0
LINE
  5
140F
330
18
100
AcDbEntity
  8
SK1
100
AcDbLine
 10
-4.756510000003643
 20
-3.179999999999886
 30
0.0
 11
-4.746234000003639
 21
-3.176977999999885
 31
0.0
  0
LWPOLYLINE
  5
1410
330
18
100
AcDbEntity
  8
SK1
100
AcDbPolyline
 90
       24
 70
     0
 43
0.0
 10
-4.631446000003648
 20
-3.002450999999886
 10
-4.642588000003641
 20
-3.034529999999886
 10
-4.653806000003639
 20
-3.059962999999886
 10
-4.662775000003648
 20
-3.075304999999886
 10
-4.671771000003643
 20
-3.086210999999886
 10
-4.681940000003648
 20
-3.093119999999886
 10
-4.692116000003648
 20
-3.094264999999886
 10
-4.702286000003636
 20
-3.089642999999886
 10
-4.712438000003643
 20
-3.079288999999886
 10
-4.720790000003646
 20
-3.066484999999885
 10
-4.72911300000365
 20
-3.049892999999886
 10
-4.740904000003652
 20
-3.019879999999885
 10
-4.752600000003639
 20
-2.982636999999886
 10
-4.772756000003639
 20
-2.901282999999886
 10
-4.792510000003645
 20
-2.800959999999884
 10
-4.808200000003651
 20
-2.707221999999884
 10
-4.823590000003648
 20
-2.603610999999884
 10
-4.845631000003648
 20
-2.435988999999886
 10
-4.867040000003639
 20
-2.252739999999886
 10
-4.894042000003636
 20
-1.995264999999885
 10
-4.920223000003645
 20
-1.720505999999885
 10
-4.954079000003645
 20
-1.334177999999885
 10
-4.976114000003646
 20
-1.067451999999885
 10
-5.019286000003646
 20
-0.5204669999998865
  0
LINE
  5
1411
330
18
100
AcDbEntity
  8
SK1
100
AcDbLine
 10
-5.019286000003646
 20
-0.5204669999998865
 30
0.0
 11
-5.053462000003648
 21
-0.0742489999998863
 31
0.0
  0
LWPOLYLINE
  5
1412
330
18
100
AcDbEntity
  8
SK1
100
AcDbPolyline
 90
       16
 70
     0
 43
0.0
 10
-3.324347000003641
 20
-2.179012999999883
 10
-3.347017000003646
 20
-1.983338999999885
 10
-3.369081000003646
 20
-1.775222999999884
 10
-3.395225000003647
 20
-1.508627999999885
 10
-3.445618000003647
 20
-0.9453429999998864
 10
-3.502130000003646
 20
-0.2635519999998861
 10
-3.576960000003636
 20
0.6557990000001137
 10
-3.615201000003636
 20
1.105890000000113
 10
-3.661444000003641
 20
1.610274000000113
 10
-3.685528000003643
 20
1.84957900000011
 10
-3.713459000003638
 20
2.102716000000111
 10
-3.742390000003638
 20
2.333696000000113
 10
-3.761429000003641
 20
2.466717000000111
 10
-3.780876000003641
 20
2.585936000000113
 10
-3.797235000003638
 20
2.672607000000113
 10
-3.813867000003638
 20
2.747488000000114
  0
LINE
  5
1413
330
18
100
AcDbEntity
  8
SK1
100
AcDbLine
 10
-3.813867000003638
 20
2.747488000000114
 30
0.0
 11
-3.832372000003643
 21
2.814748000000113
 31
0.0
  0
LWPOLYLINE
  5
1414
330
18
100
AcDbEntity
  8
SK1
100
AcDbPolyline
 90
       16
 70
     0
 43
0.0
 10
-3.122269000003639
 20
-2.151627999999885
 10
-3.148413000003641
 20
-1.945282999999886
 10
-3.173792000003643
 20
-1.721918999999885
 10
-3.198646000003647
 20
-1.483789999999884
 10
-3.246682000003643
 20
-0.979229999999886
 10
-3.304522000003641
 20
-0.3197519999998863
 10
-3.380786000003638
 20
0.5725270000001137
 10
-3.419619000003649
 20
1.009689000000111
 10
-3.466965000003638
 20
1.50454900000011
 10
-3.491602000003638
 20
1.73923500000011
 10
-3.520304000003647
 20
1.98845500000011
 10
-3.550020000003641
 20
2.215348000000114
 10
-3.569122000003642
 20
2.342822000000113
 10
-3.588618000003647
 20
2.457037000000113
 10
-3.605748000003643
 20
2.543532000000113
 10
-3.62316400000364
 20
2.617678000000113
  0
ARC
  5
1415
330
18
100
AcDbEntity
  8
SK1
100
AcDbCircle
 10
-4.125398000003642
 20
2.509543000000113
 30
0.0
 40
0.513345
100
AcDbArc
 50
12.15080399999984
 51
27.09699499999989
  0
LWPOLYLINE
  5
1416
330
18
100
AcDbEntity
  8
SK1
100
AcDbPolyline
 90
       10
 70
     0
 43
0.0
 10
-4.191034000003639
 20
-1.239457999999886
 10
-4.201166000003638
 20
-1.228956999999885
 10
-4.214911000003636
 20
-1.219433999999883
 10
-4.231992000003643
 20
-1.211079999999886
 10
-4.252070000003641
 20
-1.204061999999886
 10
-4.274741000003642
 20
-1.198520999999886
 10
-4.29955200000364
 20
-1.194566999999886
 10
-4.326006000003641
 20
-1.192279999999886
 10
-4.35357600000364
 20
-1.191704999999886
 10
-4.381708000003641
 20
-1.192853999999885
  0
LWPOLYLINE
  5
1417
330
18
100
AcDbEntity
  8
SK1
100
AcDbPolyline
 90
       16
 70
     0
 43
0.0
 10
-4.11653800000364
 20
-2.769982999999884
 10
-4.126137000003636
 20
-2.767699999999885
 10
-4.135724000003647
 20
-2.760833999999884
 10
-4.143541000003651
 20
-2.751852999999885
 10
-4.151335000003641
 20
-2.739880999999884
 10
-4.162569000003641
 20
-2.717353999999884
 10
-4.173731000003641
 20
-2.688853999999885
 10
-4.185343000003641
 20
-2.652797999999884
 10
-4.196847000003643
 20
-2.610715999999884
 10
-4.212961000003645
 20
-2.541322999999884
 10
-4.228815000003646
 20
-2.461436999999884
 10
-4.256192000003649
 20
-2.297439999999884
 10
-4.282749000003646
 20
-2.108666999999885
 10
-4.316946000003638
 20
-1.826498999999886
 10
-4.349866000003641
 20
-1.518559999999884
 10
-4.381708000003641
 20
-1.192853999999885
  0
ARC
  5
1418
330
18
100
AcDbEntity
  8
SK1
100
AcDbCircle
 10
-3.711603000003647
 20
2.726241000000113
 30
0.0
 40
0.045626
100
AcDbArc
 50
21.58299599999988
 51
77.38172000000037
  0
LWPOLYLINE
  5
1419
330
18
100
AcDbEntity
  8
SK1
100
AcDbPolyline
 90
       13
 70
     0
 43
0.0
 10
-5.406066000003646
 20
-3.002970999999886
 10
-5.426944000003643
 20
-2.925178999999886
 10
-5.447442000003646
 20
-2.826419999999886
 10
-5.464817000003648
 20
-2.725888999999884
 10
-5.481855000003649
 20
-2.612909999999884
 10
-5.503704000003651
 20
-2.448096999999886
 10
-5.524967000003641
 20
-2.267471999999886
 10
-5.565711000003641
 20
-1.871179999999885
 10
-5.591950000003649
 20
-1.585592999999884
 10
-5.642783000003646
 20
-0.9798799999998863
 10
-5.698307000003651
 20
-0.2674359999998863
 10
-5.771705000003649
 20
0.6905610000001135
 10
-5.809001000003648
 20
1.157242000000113
  0
LINE
  5
141A
330
18
100
AcDbEntity
  8
SK1
100
AcDbLine
 10
-5.809001000003648
 20
1.157242000000113
 30
0.0
 11
-5.843172000003647
 21
1.55972400000011
 31
0.0
  0
LWPOLYLINE
  5
141B
330
18
100
AcDbEntity
  8
SK1
100
AcDbPolyline
 90
       17
 70
     0
 43
0.0
 10
-4.518304000003636
 20
0.3722750000001138
 10
-4.571041000003646
 20
0.9723710000001135
 10
-4.598196000003636
 20
1.264214000000113
 10
-4.640290000003643
 20
1.68205700000011
 10
-4.665437000003648
 20
1.90693700000011
 10
-4.691247000003642
 20
2.11519500000011
 10
-4.717758000003641
 20
2.302708000000113
 10
-4.738126000003646
 20
2.427100000000113
 10
-4.758937000003641
 20
2.535440000000114
 10
-4.782707000003639
 20
2.634937000000113
 10
-4.794789000003646
 20
2.675278000000114
 10
-4.806984000003636
 20
2.708858000000113
 10
-4.82339200000365
 20
2.742562000000113
 10
-4.831646000003643
 20
2.754493000000113
 10
-4.839925000003646
 20
2.763059000000113
 10
-4.848221000003646
 20
2.768219000000113
 10
-4.856525000003641
 20
2.769943000000113
  0
ARC
  5
141C
330
18
100
AcDbEntity
  8
SK1
100
AcDbCircle
 10
170.4144899999963
 20
14.77948300000011
 30
0.0
 40
175.524639
100
AcDbArc
 50
184.7081709999999
 51
185.221012
  0
LWPOLYLINE
  5
141D
330
18
100
AcDbEntity
  8
SK1
100
AcDbPolyline
 90
       21
 70
     0
 43
0.0
 10
-5.843173000003642
 20
1.55972400000011
 10
-5.872170000003649
 20
1.876140000000114
 10
-5.90215300000365
 20
2.173386000000113
 10
-5.922307000003641
 20
2.353676000000113
 10
-5.942960000003651
 20
2.520502000000114
 10
-5.969842000003652
 20
2.708429000000114
 10
-5.983587000003637
 20
2.791022000000113
 10
-5.997532000003642
 20
2.865110000000113
 10
-6.020996000003647
 20
2.966991000000113
 10
-6.032904000003638
 20
3.007507000000114
 10
-6.044912000003647
 20
3.040586000000113
 10
-6.055655000003638
 20
3.063495000000113
 10
-6.066451000003638
 20
3.080102000000113
 10
-6.077282000003648
 20
3.090272000000113
 10
-6.085420000003651
 20
3.093619000000114
 10
-6.093562000003642
 20
3.093275000000113
 10
-6.102373000003638
 20
3.088738000000113
 10
-6.111180000003643
 20
3.079880000000112
 10
-6.119973000003637
 20
3.066746000000113
 10
-6.128735000003643
 20
3.049423000000113
 10
-6.146102000003637
 20
3.002645000000113
  0
LWPOLYLINE
  5
141E
330
18
100
AcDbEntity
  8
SK1
100
AcDbPolyline
 90
        9
 70
     0
 43
0.0
 10
-5.933901000003642
 20
2.968786000000113
 10
-5.954114000003642
 20
3.056239000000113
 10
-5.964445000003649
 20
3.091938000000113
 10
-5.974900000003643
 20
3.121897000000113
 10
-5.989000000003643
 20
3.152472000000113
 10
-5.996104000003637
 20
3.163600000000113
 10
-6.003233000003646
 20
3.171889000000113
 10
-6.010383000003643
 20
3.177300000000113
 10
-6.020132000003641
 20
3.180000000000113
  0
LINE
  5
141F
330
18
100
AcDbEntity
  8
SK1
100
AcDbLine
 10
-6.020131000003643
 20
3.180000000000113
 30
0.0
 11
-6.030263000003643
 21
3.177086000000113
 31
0.0
  0
LINE
  5
1420
330
18
100
AcDbEntity
  8
SK1
100
AcDbLine
 10
-5.496452000003642
 20
3.180000000000113
 30
0.0
 11
-5.486418000003638
 21
3.177090000000113
 31
0.0
  0
LWPOLYLINE
  5
1421
330
18
100
AcDbEntity
  8
SK1
100
AcDbPolyline
 90
        8
 70
     0
 43
0.0
 10
-5.486418000003638
 20
3.177090000000113
 10
-5.479951000003636
 20
3.172130000000113
 10
-5.473497000003646
 20
3.164775000000113
 10
-5.460643000003641
 20
3.142992000000113
 10
-5.449384000003646
 20
3.116159000000113
 10
-5.438218000003643
 20
3.082478000000113
 10
-5.424221000003638
 20
3.030488000000113
 10
-5.410412000003643
 20
2.968786000000113
  0
LWPOLYLINE
  5
1422
330
18
100
AcDbEntity
  8
SK1
100
AcDbPolyline
 90
       13
 70
     0
 43
0.0
 10
-5.053462000003648
 20
-0.0742489999998863
 10
-5.124525000003643
 20
0.8486020000001136
 10
-5.161158000003636
 20
1.299328000000113
 10
-5.189397000003636
 20
1.625840000000111
 10
-5.218426000003645
 20
1.93710800000011
 10
-5.243046000003643
 20
2.178290000000114
 10
-5.268354000003639
 20
2.401434000000113
 10
-5.289637000003651
 20
2.567765000000113
 10
-5.31148200000365
 20
2.716692000000113
 10
-5.327795000003646
 20
2.812738000000113
 10
-5.344461000003646
 20
2.896934000000113
 10
-5.357919000003646
 20
2.954396000000113
 10
-5.371529000003646
 20
3.002686000000113
  0
LWPOLYLINE
  5
1423
330
18
100
AcDbEntity
  8
SK1
100
AcDbPolyline
 90
       20
 70
     0
 43
0.0
 10
-4.582018000003643
 20
-2.842894999999886
 10
-4.59858000000365
 20
-2.880169999999885
 10
-4.606912000003646
 20
-2.893553999999886
 10
-4.615268000003636
 20
-2.903341999999886
 10
-4.626432000003646
 20
-2.910720999999885
 10
-4.637608000003636
 20
-2.911563999999886
 10
-4.64877600000365
 20
-2.905865999999886
 10
-4.659523000003645
 20
-2.894217999999886
 10
-4.670232000003648
 20
-2.876621999999886
 10
-4.681671000003646
 20
-2.851262999999886
 10
-4.693027000003636
 20
-2.819434999999886
 10
-4.714876000003641
 20
-2.739839999999885
 10
-4.736274000003646
 20
-2.639035999999884
 10
-4.754410000003645
 20
-2.536499999999886
 10
-4.772150000003648
 20
-2.421646999999884
 10
-4.794746000003641
 20
-2.255522999999886
 10
-4.816678000003648
 20
-2.074416999999884
 10
-4.843684000003648
 20
-1.826903999999885
 10
-4.86989000000365
 20
-1.563880999999885
 10
-4.895403000003636
 20
-1.289518999999885
  0
LINE
  5
1424
330
18
100
AcDbEntity
  8
SK1
100
AcDbLine
 10
-4.895403000003636
 20
-1.289518999999885
 30
0.0
 11
-4.963717000003637
 21
-0.4890549999998865
 31
0.0
  0
LWPOLYLINE
  5
1425
330
18
100
AcDbEntity
  8
SK1
100
AcDbPolyline
 90
       13
 70
     0
 43
0.0
 10
-4.963717000003637
 20
-0.4890549999998865
 10
-5.016275000003643
 20
0.1586190000001135
 10
-5.06942400000365
 20
0.8051130000001137
 10
-5.119132000003643
 20
1.37325000000011
 10
-5.144767000003636
 20
1.64395200000011
 10
-5.171463000003639
 20
1.90520900000011
 10
-5.198934000003646
 20
2.148547000000114
 10
-5.222228000003639
 20
2.332146000000113
 10
-5.246202000003648
 20
2.497281000000113
 10
-5.263299000003641
 20
2.599347000000113
 10
-5.280764000003641
 20
2.689462000000113
 10
-5.296472000003646
 20
2.757897000000113
 10
-5.312430000003643
 20
2.814857000000113
  0
LINE
  5
1426
330
18
100
AcDbEntity
  8
SK1
100
AcDbLine
 10
-4.518321000003636
 20
0.3722680000001137
 30
0.0
 11
-4.841343000003647
 21
0.3471570000001138
 31
0.0
  0
ARC
  5
1427
330
18
100
AcDbEntity
  8
SK1
100
AcDbCircle
 10
165.1114159999964
 20
14.34557500000011
 30
0.0
 40
170.527853
100
AcDbArc
 50
184.7086249999999
 51
185.2357339999999
  0
LWPOLYLINE
  5
1428
330
18
100
AcDbEntity
  8
SK1
100
AcDbPolyline
 90
       16
 70
     0
 43
0.0
 10
-4.441855000003641
 20
-2.770369999999884
 10
-4.451388000003646
 20
-2.768040999999885
 10
-4.460907000003643
 20
-2.761189999999885
 10
-4.468588000003648
 20
-2.752371999999884
 10
-4.476247000003636
 20
-2.740664999999884
 10
-4.487467000003646
 20
-2.718286999999885
 10
-4.498610000003651
 20
-2.689959999999885
 10
-4.509992000003648
 20
-2.654811999999886
 10
-4.521264000003639
 20
-2.613894999999884
 10
-4.537342000003646
 20
-2.545207999999886
 10
-4.553147000003646
 20
-2.466129999999886
 10
-4.580324000003641
 20
-2.304456999999886
 10
-4.606663000003648
 20
-2.118513999999883
 10
-4.640560000003643
 20
-1.840672999999885
 10
-4.673182000003648
 20
-1.537254999999885
 10
-4.704732000003643
 20
-1.215698999999885
  0
LWPOLYLINE
  5
1429
330
18
100
AcDbEntity
  8
SK1
100
AcDbPolyline
 90
       17
 70
     0
 43
0.0
 10
-5.465361000003638
 20
-2.815359999999886
 10
-5.478881000003638
 20
-2.768133999999884
 10
-5.492254000003637
 20
-2.712452999999884
 10
-5.518509000003646
 20
-2.577903999999886
 10
-5.542538000003641
 20
-2.426681999999884
 10
-5.565892000003643
 20
-2.255509999999884
 10
-5.59140900000365
 20
-2.043202999999885
 10
-5.616132000003641
 20
-1.814619999999884
 10
-5.660645000003638
 20
-1.354507999999885
 10
-5.689373000003643
 20
-1.030840999999883
 10
-5.745381000003646
 20
-0.3603399999998862
 10
-5.828536000003638
 20
0.6607670000001136
 10
-5.871017000003647
 20
1.158682000000113
 10
-5.904537000003642
 20
1.52582700000011
 10
-5.939167000003648
 20
1.87268200000011
 10
-5.958582000003643
 20
2.049886000000113
 10
-5.978418000003642
 20
2.216391000000113
  0
LWPOLYLINE
  5
142A
330
18
100
AcDbEntity
  8
SK1
100
AcDbPolyline
 90
       18
 70
     0
 43
0.0
 10
-5.668183000003651
 20
-2.642872999999884
 10
-5.682022000003641
 20
-2.589612999999884
 10
-5.695689000003638
 20
-2.528249999999884
 10
-5.722476000003638
 20
-2.383541999999884
 10
-5.745794000003641
 20
-2.232457999999884
 10
-5.768473000003638
 20
-2.064524999999886
 10
-5.795617000003643
 20
-1.838518999999885
 10
-5.821894000003638
 20
-1.596436999999883
 10
-5.860835000003646
 20
-1.202093999999886
 10
-5.886132000003641
 20
-0.9275569999998863
 10
-5.93572200000365
 20
-0.3613399999998863
 10
-6.009471000003642
 20
0.5022270000001137
 10
-6.046937000003638
 20
0.9272050000001136
 10
-6.096470000003647
 20
1.45147100000011
 10
-6.122037000003643
 20
1.698521000000113
 10
-6.156300000003637
 20
1.99782500000011
 10
-6.173908000003647
 20
2.135540000000114
 10
-6.191864000003647
 20
2.263555000000113
  0
LWPOLYLINE
  5
142B
330
18
100
AcDbEntity
  8
SK1
100
AcDbPolyline
 90
        7
 70
     0
 43
0.0
 10
-5.596531000003651
 20
-2.770053999999884
 10
-5.60858200000365
 20
-2.766429999999885
 10
-5.620620000003638
 20
-2.755575999999885
 10
-5.63190700000365
 20
-2.738861999999885
 10
-5.643141000003637
 20
-2.715982999999885
 10
-5.65571600000365
 20
-2.683053999999884
 10
-5.668183000003651
 20
-2.642872999999884
  0
LINE
  5
142C
330
18
100
AcDbEntity
  8
SK1
100
AcDbLine
 10
-5.978418000003642
 20
2.216391000000113
 30
0.0
 11
-6.001210000003638
 21
2.388257000000113
 31
0.0
  0
LINE
  5
142D
330
18
100
AcDbEntity
  8
SK1
100
AcDbLine
 10
-5.910694000003642
 20
-2.770522999999884
 30
0.0
 11
-5.916108000003646
 21
-2.769798999999884
 31
0.0
  0
LWPOLYLINE
  5
142E
330
18
100
AcDbEntity
  8
SK1
100
AcDbPolyline
 90
        7
 70
     0
 43
0.0
 10
-5.916108000003646
 20
-2.769798999999884
 10
-5.926936000003649
 20
-2.763962999999884
 10
-5.937733000003646
 20
-2.752330999999884
 10
-5.946674000003638
 20
-2.738322999999884
 10
-5.955572000003641
 20
-2.720469999999885
 10
-5.967994000003643
 20
-2.689066999999885
 10
-5.980297000003642
 20
-2.650617999999886
  0
LWPOLYLINE
  5
142F
330
18
100
AcDbEntity
  8
SK1
100
AcDbPolyline
 90
       17
 70
     0
 43
0.0
 10
-4.841343000003647
 20
0.3471570000001138
 10
-4.903321000003643
 20
1.049875000000112
 10
-4.935576000003648
 20
1.390183000000112
 10
-4.960485000003643
 20
1.63540900000011
 10
-4.986061000003643
 20
1.868108000000114
 10
-5.017532000003638
 20
2.12396400000011
 10
-5.050061000003651
 20
2.348566000000113
 10
-5.066747000003643
 20
2.446640000000114
 10
-5.083731000003636
 20
2.533853000000113
 10
-5.10597600000365
 20
2.628109000000113
 10
-5.117274000003646
 20
2.667065000000113
 10
-5.128676000003636
 20
2.700162000000113
 10
-5.144015000003648
 20
2.734709000000114
 10
-5.159477000003646
 20
2.757807000000113
 10
-5.167239000003646
 20
2.764933000000113
 10
-5.175014000003641
 20
2.769064000000113
 10
-5.181747000003636
 20
2.770206000000113
  0
LWPOLYLINE
  5
1430
330
18
100
AcDbEntity
  8
SK1
100
AcDbPolyline
 90
       18
 70
     0
 43
0.0
 10
-6.001210000003638
 20
2.388258000000114
 10
-6.029513000003646
 20
2.570610000000113
 10
-6.044041000003643
 20
2.649997000000113
 10
-6.058810000003646
 20
2.720370000000113
 10
-6.078840000003638
 20
2.798692000000113
 10
-6.088983000003636
 20
2.830665000000113
 10
-6.09919900000365
 20
2.857559000000113
 10
-6.109475000003643
 20
2.879188000000113
 10
-6.119798000003638
 20
2.895396000000113
 10
-6.132666000003652
 20
2.907804000000113
 10
-6.139110000003638
 20
2.910758000000113
 10
-6.145556000003651
 20
2.911531000000113
 10
-6.152000000003638
 20
2.910123000000113
 10
-6.158439000003638
 20
2.906540000000113
 10
-6.166919000003643
 20
2.898506000000113
 10
-6.175377000003647
 20
2.886750000000113
 10
-6.186109000003638
 20
2.866477000000113
 10
-6.196778000003646
 20
2.840424000000113
  0
LWPOLYLINE
  5
1431
330
18
100
AcDbEntity
  8
SK1
100
AcDbPolyline
 90
       11
 70
     0
 43
0.0
 10
-6.203268000003646
 20
2.338037000000113
 10
-6.22094000000365
 20
2.442682000000113
 10
-6.238995000003638
 20
2.535474000000114
 10
-6.256213000003638
 20
2.610141000000114
 10
-6.273715000003647
 20
2.671783000000113
 10
-6.292078000003641
 20
2.720603000000114
 10
-6.301337000003641
 20
2.738967000000113
 10
-6.310635000003642
 20
2.753150000000113
 10
-6.323614000003643
 20
2.765765000000113
 10
-6.330117000003638
 20
2.768931000000113
 10
-6.336620000003647
 20
2.769984000000113
  0
LINE
  5
1432
330
18
100
AcDbEntity
  8
SK1
100
AcDbLine
 10
-6.191864000003647
 20
2.263555000000113
 30
0.0
 11
-6.203267000003648
 21
2.338036000000114
 31
0.0
  0
LWPOLYLINE
  5
1433
330
18
100
AcDbEntity
  8
SK1
100
AcDbPolyline
 90
       19
 70
     0
 43
0.0
 10
-5.980297000003642
 20
-2.650617999999886
 10
-5.994434000003638
 20
-2.597553999999886
 10
-6.008399000003649
 20
-2.535934999999884
 10
-6.035774000003641
 20
-2.389524999999884
 10
-6.059953000003643
 20
-2.233326999999884
 10
-6.083439000003648
 20
-2.059083999999884
 10
-6.110740000003643
 20
-1.830953999999884
 10
-6.137143000003646
 20
-1.586903999999885
 10
-6.164938000003642
 20
-1.308482999999885
 10
-6.192084000003646
 20
-1.018915999999886
 10
-6.227543000003649
 20
-0.6208779999998864
 10
-6.297262000003641
 20
0.1938300000001138
 10
-6.343936000003638
 20
0.7341010000001136
 10
-6.367634000003647
 20
0.9986780000001136
 10
-6.403926000003638
 20
1.38338800000011
 10
-6.433008000003638
 20
1.66842600000011
 10
-6.463025000003637
 20
1.936008000000111
 10
-6.488787000003638
 20
2.140795000000114
 10
-6.515348000003641
 20
2.325086000000114
  0
LWPOLYLINE
  5
1434
330
18
100
AcDbEntity
  8
SK1
100
AcDbPolyline
 90
       11
 70
     0
 43
0.0
 10
-6.515348000003641
 20
2.325086000000114
 10
-6.533155000003643
 20
2.432239000000113
 10
-6.551370000003642
 20
2.527483000000113
 10
-6.56873700000365
 20
2.604225000000113
 10
-6.586414000003642
 20
2.667793000000113
 10
-6.604990000003637
 20
2.718402000000113
 10
-6.614363000003647
 20
2.737536000000114
 10
-6.623781000003647
 20
2.752394000000113
 10
-6.636868000003643
 20
2.765733000000113
 10
-6.643427000003637
 20
2.769210000000112
 10
-6.649988000003642
 20
2.770540000000114
  0
LINE
  5
1435
330
18
100
AcDbEntity
  8
SK1
100
AcDbLine
 10
-6.650000000003642
 20
2.769923000000114
 30
0.0
 11
-6.650000000003642
 21
-2.573504999999884
 31
0.0
  0
LINE
  5
1436
330
18
100
AcDbEntity
  8
1
100
AcDbLine
 10
2.376901999996348
 20
4.745243000000113
 30
0.0
 11
0.3599999999963614
 21
4.745243000000113
 31
0.0
  0
LINE
  5
1437
330
18
100
AcDbEntity
  8
1
100
AcDbLine
 10
2.536789999996357
 20
-6.703556999999888
 30
0.0
 11
0.4663519999963486
 21
-6.703556999999888
 31
0.0
  0
ARC
  5
1438
330
18
100
AcDbEntity
  8
1
100
AcDbCircle
 10
0.0749999999963507
 20
-4.706102999999886
 30
0.0
 40
0.285
100
AcDbArc
 50
359.999999
 51
90.0
  0
ARC
  5
1439
330
18
100
AcDbEntity
  8
1
100
AcDbCircle
 10
0.0749999999963507
 20
4.706103000000113
 30
0.0
 40
0.285
100
AcDbArc
 50
270.0
 51
0.000001000000004
  0
ARC
  5
143A
330
18
100
AcDbEntity
  8
1
100
AcDbCircle
 10
0.0750009999963624
 20
-4.171094999999882
 30
0.0
 40
0.250008
100
AcDbArc
 50
252.542664
 51
269.9997329999998
  0
ARC
  5
143B
330
18
100
AcDbEntity
  8
1
100
AcDbCircle
 10
0.0750009999963624
 20
4.171095000000113
 30
0.0
 40
0.250008
100
AcDbArc
 50
90.00026700000018
 51
107.457336
  0
ARC
  5
143C
330
18
100
AcDbEntity
  8
SK1
100
AcDbCircle
 10
-0.201461000003647
 20
-3.582536999999886
 30
0.0
 40
0.201235
100
AcDbArc
 50
0.8347869999999895
 51
86.59955800000023
  0
ARC
  5
143D
330
18
100
AcDbEntity
  8
SK1
100
AcDbCircle
 10
-0.2000010000036383
 20
3.581521000000113
 30
0.0
 40
0.200001
100
AcDbArc
 50
273.0000939999998
 51
359.891053
  0
LINE
  5
143E
330
18
100
AcDbEntity
  8
SK1
100
AcDbLine
 10
-1.370000000003642
 20
-3.319928999999885
 30
0.0
 11
-0.1895330000036495
 21
-3.381794999999886
 31
0.0
  0
LINE
  5
143F
330
18
100
AcDbEntity
  8
SK1
100
AcDbLine
 10
-1.370000000003642
 20
3.319929000000113
 30
0.0
 11
-0.1895330000036495
 21
3.381795000000114
 31
0.0
  0
ARC
  5
1440
330
18
100
AcDbEntity
  8
SK1
100
AcDbCircle
 10
-1.470003000003643
 20
3.280003000000113
 30
0.0
 40
0.100003
100
AcDbArc
 50
270.0013469999998
 51
359.58521
  0
ARC
  5
1441
330
18
100
AcDbEntity
  8
SK1
100
AcDbCircle
 10
-1.469999000003639
 20
-3.279994999999883
 30
0.0
 40
0.099995
100
AcDbArc
 50
0.4838180000000028
 51
90.00057699999961
  0
LINE
  5
1442
330
18
100
AcDbEntity
  8
SK1
100
AcDbLine
 10
-1.470000000003649
 20
3.180000000000113
 30
0.0
 11
-1.579844000003645
 21
3.180000000000113
 31
0.0
  0
LINE
  5
1443
330
18
100
AcDbEntity
  8
SK1
100
AcDbLine
 10
-1.470000000003649
 20
-3.179999999999886
 30
0.0
 11
-2.320174000003646
 21
-3.179999999999886
 31
0.0
  0
LWPOLYLINE
  5
1444
330
18
100
AcDbEntity
  8
SK1
100
AcDbPolyline
 90
        7
 70
     0
 43
0.0
 10
-1.589885000003645
 20
3.177206000000113
 10
-1.612463000003643
 20
3.161890000000113
 10
-1.634021000003641
 20
3.141954000000113
 10
-1.655056000003639
 20
3.115616000000113
 10
-1.677267000003638
 20
3.077038000000113
 10
-1.692797000003649
 20
3.040917000000114
 10
-1.706058000003649
 20
3.002647000000113
  0
LWPOLYLINE
  5
1445
330
18
100
AcDbEntity
  8
SK1
100
AcDbPolyline
 90
        7
 70
     0
 43
0.0
 10
-2.330368000003645
 20
-3.177098999999885
 10
-2.352549000003647
 20
-3.161993999999886
 10
-2.374085000003645
 20
-3.142056999999886
 10
-2.395111000003634
 20
-3.115708999999886
 10
-2.417216000003648
 20
-3.077316999999886
 10
-2.432719000003642
 20
-3.041299999999885
 10
-2.44600400000364
 20
-3.002990999999886
  0
LINE
  5
1446
330
18
100
AcDbEntity
  8
SK1
100
AcDbLine
 10
-2.536595000003643
 20
3.180000000000113
 30
0.0
 11
-3.060045000003638
 21
3.180000000000113
 31
0.0
  0
LWPOLYLINE
  5
1447
330
18
100
AcDbEntity
  8
SK1
100
AcDbPolyline
 90
        7
 70
     0
 43
0.0
 10
-2.411489000003641
 20
3.002304000000113
 10
-2.43205800000365
 20
3.058930000000113
 10
-2.449969000003645
 20
3.095654000000113
 10
-2.471634000003644
 20
3.128392000000113
 10
-2.482924000003649
 20
3.141708000000113
 10
-2.504169000003642
 20
3.161667000000113
 10
-2.526422000003647
 20
3.177079000000113
  0
LINE
  5
1448
330
18
100
AcDbEntity
  8
SK1
100
AcDbLine
 10
-1.706058000003649
 20
3.002647000000113
 30
0.0
 11
-1.736495000003641
 21
2.906385000000113
 31
0.0
  0
LINE
  5
1449
330
18
100
AcDbEntity
  8
SK1
100
AcDbLine
 10
-2.44600400000364
 20
-3.002990999999886
 30
0.0
 11
-2.476488000003641
 21
-2.906561999999885
 31
0.0
  0
LWPOLYLINE
  5
144A
330
18
100
AcDbEntity
  8
SK1
100
AcDbPolyline
 90
        7
 70
     0
 43
0.0
 10
-3.070123000003647
 20
3.177081000000113
 10
-3.092495000003636
 20
3.161873000000113
 10
-3.114051000003641
 20
3.141930000000114
 10
-3.13690500000365
 20
3.112895000000113
 10
-3.157310000003647
 20
3.076968000000113
 10
-3.172801000003643
 20
3.040947000000113
 10
-3.186045000003642
 20
3.002752000000113
  0
LWPOLYLINE
  5
144B
330
18
100
AcDbEntity
  8
SK1
100
AcDbPolyline
 90
        7
 70
     0
 43
0.0
 10
-3.809842000003641
 20
-3.177194999999886
 10
-3.83221600000364
 20
-3.162034999999886
 10
-3.853813000003638
 20
-3.142108999999886
 10
-3.874958000003643
 20
-3.115667999999886
 10
-3.897146000003641
 20
-3.077168999999886
 10
-3.912687000003641
 20
-3.041071999999886
 10
-3.925985000003649
 20
-3.002737999999886
  0
LINE
  5
144C
330
18
100
AcDbEntity
  8
SK1
100
AcDbLine
 10
-3.276242000003647
 20
-3.179999999999886
 30
0.0
 11
-3.799959000003638
 21
-3.179999999999886
 31
0.0
  0
LWPOLYLINE
  5
144D
330
18
100
AcDbEntity
  8
SK1
100
AcDbPolyline
 90
        7
 70
     0
 43
0.0
 10
-3.151558000003646
 20
-3.002685999999886
 10
-3.17207100000364
 20
-3.059138999999886
 10
-3.190098000003643
 20
-3.096061999999886
 10
-3.211569000003647
 20
-3.128483999999886
 10
-3.222872000003647
 20
-3.141825999999886
 10
-3.244100000003641
 20
-3.161785999999886
 10
-3.265996000003638
 20
-3.177002999999886
  0
LINE
  5
144E
330
18
100
AcDbEntity
  8
SK1
100
AcDbLine
 10
-2.352397000003645
 20
2.814692000000113
 30
0.0
 11
-2.411489000003641
 21
3.002304000000113
 31
0.0
  0
ARC
  5
144F
330
18
100
AcDbEntity
  8
SK1
100
AcDbCircle
 10
-2.224794000003639
 20
2.939740000000113
 30
0.0
 40
0.169138
100
AcDbArc
 50
216.102604
 51
271.0171930000002
  0
LINE
  5
1450
330
18
100
AcDbEntity
  8
SK1
100
AcDbLine
 10
-1.896601000003639
 20
2.770087000000113
 30
0.0
 11
-2.221787000003641
 21
2.770365000000113
 31
0.0
  0
ARC
  5
1451
330
18
100
AcDbEntity
  8
SK1
100
AcDbCircle
 10
-1.892826000003637
 20
2.937923000000113
 30
0.0
 40
0.167609
100
AcDbArc
 50
268.7114410000003
 51
325.3865969999998
  0
LINE
  5
1452
330
18
100
AcDbEntity
  8
SK1
100
AcDbLine
 10
-1.736495000003641
 20
2.906385000000113
 30
0.0
 11
-1.756990000003639
 21
2.841694000000113
 31
0.0
  0
LINE
  5
1453
330
18
100
AcDbEntity
  8
SK1
100
AcDbLine
 10
-2.476488000003641
 20
-2.906561999999885
 30
0.0
 11
-2.505317000003643
 21
-2.815455999999885
 31
0.0
  0
LINE
  5
1454
330
18
100
AcDbEntity
  8
SK1
100
AcDbLine
 10
-3.186045000003642
 20
3.002752000000113
 30
0.0
 11
-3.216561000003649
 21
2.906288000000113
 31
0.0
  0
LWPOLYLINE
  5
1455
330
18
100
AcDbEntity
  8
SK1
100
AcDbPolyline
 90
        7
 70
     0
 43
0.0
 10
-4.550109000003643
 20
3.177106000000113
 10
-4.572287000003639
 20
3.162064000000113
 10
-4.593937000003648
 20
3.142088000000113
 10
-4.615037000003638
 20
3.115703000000113
 10
-4.637231000003636
 20
3.077198000000113
 10
-4.652746000003643
 20
3.041171000000113
 10
-4.666029000003646
 20
3.002893000000113
  0
LINE
  5
1456
330
18
100
AcDbEntity
  8
SK1
100
AcDbLine
 10
-4.665970000003636
 20
3.002974000000113
 30
0.0
 11
-4.696446000003646
 21
2.906586000000113
 31
0.0
  0
LINE
  5
1457
330
18
100
AcDbEntity
  8
SK1
100
AcDbLine
 10
-3.925985000003649
 20
-3.002736999999886
 30
0.0
 11
-3.956504000003647
 21
-2.906268999999886
 31
0.0
  0
LINE
  5
1458
330
18
100
AcDbEntity
  8
SK1
100
AcDbLine
 10
-4.016406000003641
 20
3.180000000000113
 30
0.0
 11
-4.539957000003639
 21
3.180000000000113
 31
0.0
  0
ARC
  5
1459
330
18
100
AcDbEntity
  8
SK1
100
AcDbCircle
 10
-4.392247000003647
 20
2.852421000000113
 30
0.0
 40
0.522702
100
AcDbArc
 50
16.65586399999979
 51
26.66990599999996
  0
LINE
  5
145A
330
18
100
AcDbEntity
  8
SK1
100
AcDbLine
 10
-3.099859000003647
 20
-2.838492999999886
 30
0.0
 11
-3.151558000003646
 21
-3.002685999999886
 31
0.0
  0
ARC
  5
145B
330
18
100
AcDbEntity
  8
SK1
100
AcDbCircle
 10
-2.965391000003647
 20
-2.938336999999886
 30
0.0
 40
0.167446
100
AcDbArc
 50
88.76160600000039
 51
145.4910459999999
  0
LINE
  5
145C
330
18
100
AcDbEntity
  8
SK1
100
AcDbLine
 10
-2.636593000003641
 20
-2.770274999999884
 30
0.0
 11
-2.961766000003649
 21
-2.770645999999885
 31
0.0
  0
ARC
  5
145D
330
18
100
AcDbEntity
  8
SK1
100
AcDbCircle
 10
-2.633232000003641
 20
-2.939142999999886
 30
0.0
 40
0.168625
100
AcDbArc
 50
35.29319999999971
 51
91.14036899999977
  0
LINE
  5
145E
330
18
100
AcDbEntity
  8
SK1
100
AcDbLine
 10
-3.216442000003638
 20
2.906502000000113
 30
0.0
 11
-3.237941000003643
 21
2.838638000000113
 31
0.0
  0
ARC
  5
145F
330
18
100
AcDbEntity
  8
SK1
100
AcDbCircle
 10
-3.372946000003636
 20
2.938264000000113
 30
0.0
 40
0.167763
100
AcDbArc
 50
268.7431159999998
 51
325.399041
  0
LINE
  5
1460
330
18
100
AcDbEntity
  8
SK1
100
AcDbLine
 10
-4.696536000003646
 20
2.906398000000113
 30
0.0
 11
-4.717280000003637
 21
2.840920000000113
 31
0.0
  0
LINE
  5
1461
330
18
100
AcDbEntity
  8
SK1
100
AcDbLine
 10
-3.956504000003647
 20
-2.906268999999886
 30
0.0
 11
-3.985364000003641
 21
-2.815348999999886
 31
0.0
  0
LINE
  5
1462
330
18
100
AcDbEntity
  8
SK1
100
AcDbLine
 10
-4.756510000003643
 20
-3.179999999999886
 30
0.0
 11
-5.280231000003636
 21
-3.179999999999886
 31
0.0
  0
LWPOLYLINE
  5
1463
330
18
100
AcDbEntity
  8
SK1
100
AcDbPolyline
 90
        7
 70
     0
 43
0.0
 10
-4.631427000003639
 20
-3.002314999999886
 10
-4.646587000003646
 20
-3.045704999999886
 10
-4.660183000003641
 20
-3.077026999999886
 10
-4.682156000003643
 20
-3.115488999999886
 10
-4.702977000003642
 20
-3.141837999999886
 10
-4.72429500000365
 20
-3.161816999999885
 10
-4.746255000003642
 20
-3.177010999999886
  0
ARC
  5
1464
330
18
100
AcDbEntity
  8
SK1
100
AcDbCircle
 10
-4.121645000003636
 20
2.992513000000113
 30
0.0
 40
0.217761
100
AcDbArc
 50
25.68984299999998
 51
57.94592200000021
  0
LINE
  5
1465
330
18
100
AcDbEntity
  8
SK1
100
AcDbLine
 10
-3.832380000003638
 20
2.814857000000113
 30
0.0
 11
-3.89141200000364
 21
3.002258000000114
 31
0.0
  0
ARC
  5
1466
330
18
100
AcDbEntity
  8
SK1
100
AcDbCircle
 10
-4.113530000003649
 20
-2.939566999999886
 30
0.0
 40
0.169396
100
AcDbArc
 50
35.62960299999982
 51
91.01610999999978
  0
LINE
  5
1467
330
18
100
AcDbEntity
  8
SK1
100
AcDbLine
 10
-3.376558000003639
 20
2.770086000000113
 30
0.0
 11
-3.701728000003638
 21
2.770356000000113
 31
0.0
  0
LWPOLYLINE
  5
1468
330
18
100
AcDbEntity
  8
SK1
100
AcDbPolyline
 90
        7
 70
     0
 43
0.0
 10
-5.290520000003636
 20
-3.177000999999886
 10
-5.312732000003648
 20
-3.161850999999886
 10
-5.334239000003648
 20
-3.141913999999886
 10
-5.355237000003637
 20
-3.115573999999885
 10
-5.377407000003643
 20
-3.077017999999886
 10
-5.392855000003648
 20
-3.041078999999886
 10
-5.406066000003646
 20
-3.002970999999886
  0
LINE
  5
1469
330
18
100
AcDbEntity
  8
SK1
100
AcDbLine
 10
-5.406067000003641
 20
-3.002970999999886
 30
0.0
 11
-5.436551000003646
 21
-2.906372999999886
 31
0.0
  0
ARC
  5
146A
330
18
100
AcDbEntity
  8
SK1
100
AcDbCircle
 10
-4.85273400000365
 20
2.937752000000113
 30
0.0
 40
0.167582
100
AcDbArc
 50
268.7057950000001
 51
325.3814189999998
  0
LWPOLYLINE
  5
146B
330
18
100
AcDbEntity
  8
SK1
100
AcDbPolyline
 90
        7
 70
     0
 43
0.0
 10
-6.030168000003643
 20
3.177082000000113
 10
-6.052631000003643
 20
3.161797000000113
 10
-6.074176000003646
 20
3.141834000000113
 10
-6.095152000003636
 20
3.115530000000113
 10
-6.117266000003637
 20
3.077117000000113
 10
-6.136555000003638
 20
3.030928000000113
 10
-6.146102000003637
 20
3.002645000000113
  0
LINE
  5
146C
330
18
100
AcDbEntity
  8
SK1
100
AcDbLine
 10
-5.496452000003642
 20
3.180000000000113
 30
0.0
 11
-6.020131000003643
 21
3.180000000000113
 31
0.0
  0
LWPOLYLINE
  5
146D
330
18
100
AcDbEntity
  8
SK1
100
AcDbPolyline
 90
        7
 70
     0
 43
0.0
 10
-5.371463000003641
 20
3.002241000000113
 10
-5.385725000003643
 20
3.043323000000113
 10
-5.400253000003641
 20
3.077039000000113
 10
-5.422264000003637
 20
3.115558000000113
 10
-5.443066000003637
 20
3.141877000000113
 10
-5.464388000003636
 20
3.161859000000113
 10
-5.486295000003637
 20
3.177021000000113
  0
LINE
  5
146E
330
18
100
AcDbEntity
  8
SK1
100
AcDbLine
 10
-4.579634000003648
 20
-2.837901999999886
 30
0.0
 11
-4.631427000003639
 21
-3.002314999999886
 31
0.0
  0
LINE
  5
146F
330
18
100
AcDbEntity
  8
SK1
100
AcDbLine
 10
-5.312453000003642
 20
2.815100000000113
 30
0.0
 11
-5.371529000003646
 21
3.002686000000113
 31
0.0
  0
ARC
  5
1470
330
18
100
AcDbEntity
  8
SK1
100
AcDbCircle
 10
-3.704063000003641
 20
2.941141000000113
 30
0.0
 40
0.170542
100
AcDbArc
 50
216.8848840000002
 51
270.7834829999999
  0
LINE
  5
1471
330
18
100
AcDbEntity
  8
SK1
100
AcDbLine
 10
-4.11653800000364
 20
-2.770099999999884
 30
0.0
 11
-4.441700000003648
 21
-2.770370999999884
 31
0.0
  0
ARC
  5
1472
330
18
100
AcDbEntity
  8
SK1
100
AcDbCircle
 10
-4.445586000003643
 20
-2.937353999999886
 30
0.0
 40
0.166831
100
AcDbArc
 50
88.66952999999979
 51
145.5624710000003
  0
LINE
  5
1473
330
18
100
AcDbEntity
  8
SK1
100
AcDbLine
 10
-6.146102000003637
 20
3.002645000000113
 30
0.0
 11
-6.176536000003649
 21
2.906179000000113
 31
0.0
  0
LINE
  5
1474
330
18
100
AcDbEntity
  8
SK1
100
AcDbLine
 10
-5.436551000003646
 20
-2.906372999999886
 30
0.0
 11
-5.465361000003638
 21
-2.815359999999886
 31
0.0
  0
ARC
  5
1475
330
18
100
AcDbEntity
  8
SK1
100
AcDbCircle
 10
-5.593268000003646
 20
-2.939293999999886
 30
0.0
 40
0.169053
100
AcDbArc
 50
35.92785100000039
 51
91.1045100000001
  0
LINE
  5
1476
330
18
100
AcDbEntity
  8
SK1
100
AcDbLine
 10
-5.596531000003651
 20
-2.770053999999884
 30
0.0
 11
-5.910694000003642
 21
-2.770522999999884
 31
0.0
  0
LINE
  5
1477
330
18
100
AcDbEntity
  8
SK1
100
AcDbLine
 10
-4.856525000003641
 20
2.769943000000113
 30
0.0
 11
-5.181747000003636
 21
2.770206000000113
 31
0.0
  0
ARC
  5
1478
330
18
100
AcDbEntity
  8
SK1
100
AcDbCircle
 10
-5.184312000003643
 20
2.940406000000113
 30
0.0
 40
0.170039
100
AcDbArc
 50
217.1519070000003
 51
270.863396
  0
ARC
  5
1479
330
18
100
AcDbEntity
  8
SK1
100
AcDbCircle
 10
-6.332619000003646
 20
2.937413000000113
 30
0.0
 40
0.167185
100
AcDbArc
 50
268.6311769999997
 51
325.5235619999998
  0
LINE
  5
147A
330
18
100
AcDbEntity
  8
SK1
100
AcDbLine
 10
-5.916091000003646
 20
-2.769204999999884
 30
0.0
 11
-6.650050000003642
 21
-2.573401999999886
 31
0.0
  0
LINE
  5
147B
330
18
100
AcDbEntity
  8
SK1
100
AcDbLine
 10
-6.336620000003647
 20
2.769984000000113
 30
0.0
 11
-6.650000000003642
 21
2.770554000000114
 31
0.0
  0
ARC
  5
14F4
330
18
100
AcDbEntity
  8
1
100
AcDbCircle
 10
2.548116999996353
 20
7.521739000000112
 30
0.0
 40
0.2
100
AcDbArc
 50
0.0
 51
19.37922414970013
  0
DIMENSION
  5
1501
330
18
100
AcDbEntity
  8
2
100
AcDbDimension
  2
*D5
 10
2.551456748312646
 20
7.635394655025117
 30
0.0
 11
14.60175264387238
 21
13.22030771661795
 31
0.0
 70
    36
 71
     5
 42
0.2000000000000028
  3
STANDARD
100
AcDbRadialDimension
 15
2.745263800116712
 25
7.684779133062422
 35
0.0
 40
0.0
1001
ACAD
1000
DSTYLE
1002
{
1070
   288
1070
     1
1002
}
1001
ACAD_DSTYLE_DIMRADIAL_EXTENSION
1070
   387
1070
     1
1070
   388
1040
0.0
1070
   390
1040
0.3382312678942658
  0
LWPOLYLINE
  5
172A
330
18
100
AcDbEntity
  8
CUT
100
AcDbPolyline
 90
       16
 70
     1
 43
0.0
 10
0.3599999999963614
 20
5.780758603388215
 10
0.3599999999963614
 20
5.431762000000113
 10
0.3599999999963614
 20
5.050000000000108
 10
2.693815750464167
 20
5.050000000000106
 42
-0.0089163207856782
 10
2.691062066134818
 20
5.240880081040351
 10
2.69478715078057
 20
5.431749483987083
 10
2.748116999996355
 20
7.521739000000112
 10
2.748116999996355
 20
7.651117000000111
 42
0.0847599251765236
 10
2.736785607973315
 20
7.717480818184688
 10
2.252308999996357
 20
7.849334000000106
 10
2.249864485710645
 20
7.850000000000107
 10
0.2515929999963617
 20
7.850000000000107
 10
0.2517939999963517
 20
7.65985100000011
 10
0.2952582668042822
 20
5.964106605252974
 42
-0.0458409858369703
 10
0.3248106086720526
 20
5.919816849079825
 42
-0.0831194803720534
 10
0.3560315469361228
 20
5.828949204928687
  0
LWPOLYLINE
  5
1762
330
18
100
AcDbEntity
  8
NOCUT
100
AcDbPolyline
 90
       14
 70
     1
 43
0.0
 10
0.0
 20
0.0000000000001137
 10
0.0
 20
4.409587872143076
 42
-0.0381035390086622
 10
0.0370603613845759
 20
4.418207338837031
 10
0.1182524198138992
 20
4.424404174691518
 42
0.3702629548941559
 10
0.3599999999999923
 20
4.706103000000058
 10
0.3599999999999994
 20
4.745351000000113
 10
0.3599999999999994
 20
5.050000000000108
 10
2.693815750467789
 20
5.050000000000108
 42
0.0019080571252076
 10
2.69528921229341
 20
5.009171653174005
 10
2.697442619536479
 20
4.968373370579048
 10
2.688714999999985
 20
4.603771000000111
 10
2.640119266597828
 20
2.525398017830949
 10
2.530910250694518
 20
1.634608709392264
 10
2.619046466047648
 20
0.0000000000001137
  0
ATTDEF
  5
193B
330
18
100
AcDbEntity
  8
INFTEXT63
100
AcDbText
 10
-26.78168307640635
 20
-20.2086312315015
 30
0.0
 40
3.5
  1

 72
     1
 11
-5.5529409822391
 21
-20.2086312315015
 31
0.0
100
AcDbAttributeDefinition
  3

  2
16T15725T6RK02
 70
     0
  0
ENDSEC
  0
SECTION
  2
OBJECTS
  0
DICTIONARY
  5
C
330
0
100
AcDbDictionary
281
     1
  3
ACAD_CIP_PREVIOUS_PRODUCT_INFO
350
17B9
  3
ACAD_COLOR
350
387
  3
ACAD_DETAILVIEWSTYLE
350
17B6
  3
ACAD_GROUP
350
D
  3
ACAD_LAYOUT
350
301
  3
ACAD_MATERIAL
350
386
  3
ACAD_MLEADERSTYLE
350
43C
  3
ACAD_MLINESTYLE
350
E
  3
ACAD_PLOTSETTINGS
350
302
  3
ACAD_PLOTSTYLENAME
350
2FF
  3
ACAD_SCALELIST
350
41A
  3
ACAD_SECTIONVIEWSTYLE
350
17B4
  3
ACAD_TABLESTYLE
350
388
  3
ACAD_VISUALSTYLE
350
3F2
  3
ACDB_RECOMPOSE_DATA
350
1BD3
  3
AcDbVariableDictionary
350
357
  3
AEC_PROPERTY_SET_DEFS
350
5CF
  3
ASE_INDEX_DICTIONARY
350
69C
  3
DWGPROPS
350
1BD4
  0
DICTIONARY
  5
451
330
2
100
AcDbDictionary
280
     1
281
     1
  3
ACAD_LAYERFILTERS
360
6C6
  3
ACAD_LAYERSTATES
360
189D
  3
ACLYDICTIONARY
360
6C5
  0
DICTIONARY
  5
1160
330
F
100
AcDbDictionary
280
     1
281
     1
  3
ADSK_XREC_LAYER_RECONCILED
360
1161
  0
DICTIONARY
  5
1162
330
23
100
AcDbDictionary
280
     1
281
     1
  3
ADSK_XREC_LAYER_RECONCILED
360
1163
  0
DICTIONARY
  5
1164
330
24
100
AcDbDictionary
280
     1
281
     1
  3
ADSK_XREC_LAYER_RECONCILED
360
1165
  0
DICTIONARY
  5
1166
330
25
100
AcDbDictionary
280
     1
281
     1
  3
ADSK_XREC_LAYER_RECONCILED
360
1167
  0
DICTIONARY
  5
1168
330
27
100
AcDbDictionary
280
     1
281
     1
  3
ADSK_XREC_LAYER_RECONCILED
360
1169
  0
DICTIONARY
  5
116A
330
2A
100
AcDbDictionary
280
     1
281
     1
  3
ADSK_XREC_LAYER_RECONCILED
360
116B
  0
DICTIONARY
  5
116C
330
2B
100
AcDbDictionary
280
     1
281
     1
  3
ADSK_XREC_LAYER_RECONCILED
360
116D
  0
DICTIONARY
  5
1170
330
375
100
AcDbDictionary
280
     1
281
     1
  3
ADSK_XREC_LAYER_RECONCILED
360
1171
  0
DICTIONARY
  5
1172
330
376
100
AcDbDictionary
280
     1
281
     1
  3
ADSK_XREC_LAYER_RECONCILED
360
1173
  0
DICTIONARY
  5
117C
330
49B
100
AcDbDictionary
280
     1
281
     1
  3
ADSK_XREC_LAYER_RECONCILED
360
117D
  0
DICTIONARY
  5
1892
330
1891
100
AcDbDictionary
280
     1
281
     1
  0
DICTIONARY
  5
DB9
330
18
100
AcDbDictionary
280
     1
281
     1
  3
ACAD_SORTENTS
360
DBA
  0
XRECORD
  5
17B9
102
{ACAD_REACTORS
330
C
102
}
330
C
100
AcDbXrecord
280
     1
300
ACDLT
300
2015
300
ACDLT_F_S
  0
DICTIONARY
  5
387
102
{ACAD_REACTORS
330
C
102
}
330
C
100
AcDbDictionary
281
     1
  0
DICTIONARY
  5
17B6
102
{ACAD_REACTORS
330
C
102
}
330
C
100
AcDbDictionary
281
     1
  3
Metric50
350
17B7
  0
DICTIONARY
  5
D
102
{ACAD_REACTORS
330
C
102
}
330
C
100
AcDbDictionary
281
     1
  0
DICTIONARY
  5
301
102
{ACAD_REACTORS
330
C
102
}
330
C
100
AcDbDictionary
281
     1
  3
Layout1
350
33B
  3
Model
350
303
  0
DICTIONARY
  5
386
102
{ACAD_REACTORS
330
C
102
}
330
C
100
AcDbDictionary
281
     1
  3
ByBlock
350
3F0
  3
ByLayer
350
3EF
  3
Global
350
3F1
  0
DICTIONARY
  5
43C
102
{ACAD_REACTORS
330
C
102
}
330
C
100
AcDbDictionary
281
     1
  3
Standard
350
43D
  0
DICTIONARY
  5
E
102
{ACAD_REACTORS
330
C
102
}
330
C
100
AcDbDictionary
281
     1
  3
STANDARD
350
1B
  0
DICTIONARY
  5
302
102
{ACAD_REACTORS
330
C
102
}
330
C
100
AcDbDictionary
281
     1
  0
ACDBDICTIONARYWDFLT
  5
2FF
102
{ACAD_REACTORS
330
C
102
}
330
C
100
AcDbDictionary
281
     1
  3
Normal
350
300
100
AcDbDictionaryWithDefault
340
300
  0
DICTIONARY
  5
41A
102
{ACAD_REACTORS
330
C
102
}
330
C
100
AcDbDictionary
281
     1
  3
A0
350
41B
  3
A1
350
41C
  3
A2
350
41D
  3
A3
350
41E
  3
A4
350
41F
  3
A5
350
420
  3
A6
350
421
  3
A7
350
422
  3
A8
350
423
  3
A9
350
424
  3
B0
350
425
  3
B1
350
426
  3
B2
350
427
  3
B3
350
428
  3
B4
350
429
  3
B5
350
42A
  3
B6
350
42B
  3
B7
350
42C
  3
B8
350
42D
  3
B9
350
42E
  3
C0
350
42F
  3
C1
350
430
  3
C2
350
431
  3
C3
350
432
  3
C4
350
433
  3
C5
350
434
  3
C6
350
435
  3
C7
350
436
  3
C8
350
437
  3
C9
350
438
  3
D0
350
439
  3
D1
350
43A
  3
D2
350
43B
  0
DICTIONARY
  5
17B4
102
{ACAD_REACTORS
330
C
102
}
330
C
100
AcDbDictionary
281
     1
  3
Metric50
350
17B5
  0
DICTIONARY
  5
388
102
{ACAD_REACTORS
330
C
102
}
330
C
100
AcDbDictionary
281
     1
  3
Standard
350
389
  0
DICTIONARY
  5
3F2
102
{ACAD_REACTORS
330
C
102
}
330
C
100
AcDbDictionary
281
     1
  3
2dWireframe
350
3F8
  3
3D Hidden
350
3FA
  3
3dWireframe
350
3F9
  3
Basic
350
3F7
  3
Brighten
350
3FE
  3
ColorChange
350
402
  3
Conceptual
350
3FB
  3
Dim
350
3FD
  3
EdgeColorOff
350
17B3
  3
Facepattern
350
401
  3
Flat
350
3F3
  3
FlatWithEdges
350
3F4
  3
Gouraud
350
3F5
  3
GouraudWithEdges
350
3F6
  3
Hidden
350
17AB
  3
JitterOff
350
17B1
  3
Linepattern
350
400
  3
OverhangOff
350
17B2
  3
Realistic
350
3FC
  3
Shaded
350
17B0
  3
Shaded with edges
350
17AF
  3
Shades of Gray
350
17AC
  3
Sketchy
350
17AD
  3
Thicken
350
3FF
  3
Wireframe
350
17AA
  3
X-Ray
350
17AE
  0
XRECORD
  5
1BD3
102
{ACAD_REACTORS
330
C
102
}
330
C
100
AcDbXrecord
280
     1
 90
        1
330
389
  0
DICTIONARY
  5
357
102
{ACAD_REACTORS
330
C
102
}
330
C
100
AcDbDictionary
281
     1
  3
CANNOSCALE
350
449
  3
CMLEADERSTYLE
350
447
  3
CTABLESTYLE
350
38E
  3
CVIEWDETAILSTYLE
350
193C
  3
CVIEWSECTIONSTYLE
350
193D
  3
DIMASSOC
350
359
  3
HIDETEXT
350
358
  3
INDEXCTL
350
1795
  3
LAYEREVAL
350
117F
  3
LAYERNOTIFY
350
1180
  3
LIGHTINGUNITS
350
44A
  3
MSLTSCALE
350
448
  3
SORTENTS
350
1794
  3
XCLIPFRAME
350
1BD1
  0
DICTIONARY
  5
5CF
102
{ACAD_REACTORS
330
C
102
}
330
C
100
AcDbDictionary
281
     1
  0
DICTIONARY
  5
69C
102
{ACAD_REACTORS
330
C
102
}
330
C
100
AcDbDictionary
281
     1
  3
ASEBlockHierarchyIndexRecord
350
69D
1001
DCO15
1040
1680501600.633
  0
XRECORD
  5
1BD4
102
{ACAD_REACTORS
330
C
102
}
330
C
100
AcDbXrecord
280
     1
  1
DWGPROPS COOKIE
  2

  3

  4

  6

  7

  8
kamerka
  9

300
=
301
=
302
=
303
=
304
=
305
=
306
=
307
=
308
=
309
=
 40
0.0593432986111111
 41
2455925.371450706
 42
2457350.442474607
  1

 90
        0
  0
DICTIONARY
  5
6C6
102
{ACAD_REACTORS
330
451
102
}
330
451
100
AcDbDictionary
281
     1
  0
DICTIONARY
  5
189D
102
{ACAD_REACTORS
330
451
102
}
330
451
100
AcDbDictionary
281
     1
  0
DICTIONARY
  5
6C5
102
{ACAD_REACTORS
330
451
102
}
330
451
100
AcDbDictionary
281
     1
1001
ACAD
1000
<All
  0
XRECORD
  5
1161
102
{ACAD_REACTORS
330
1160
102
}
330
1160
100
AcDbXrecord
280
     1
290
     1
  0
XRECORD
  5
1163
102
{ACAD_REACTORS
330
1162
102
}
330
1162
100
AcDbXrecord
280
     1
290
     1
  0
XRECORD
  5
1165
102
{ACAD_REACTORS
330
1164
102
}
330
1164
100
AcDbXrecord
280
     1
290
     1
  0
XRECORD
  5
1167
102
{ACAD_REACTORS
330
1166
102
}
330
1166
100
AcDbXrecord
280
     1
290
     1
  0
XRECORD
  5
1169
102
{ACAD_REACTORS
330
1168
102
}
330
1168
100
AcDbXrecord
280
     1
290
     1
  0
XRECORD
  5
116B
102
{ACAD_REACTORS
330
116A
102
}
330
116A
100
AcDbXrecord
280
     1
290
     1
  0
XRECORD
  5
116D
102
{ACAD_REACTORS
330
116C
102
}
330
116C
100
AcDbXrecord
280
     1
290
     1
  0
XRECORD
  5
1171
102
{ACAD_REACTORS
330
1170
102
}
330
1170
100
AcDbXrecord
280
     1
290
     1
  0
XRECORD
  5
1173
102
{ACAD_REACTORS
330
1172
102
}
330
1172
100
AcDbXrecord
280
     1
290
     1
  0
XRECORD
  5
117D
102
{ACAD_REACTORS
330
117C
102
}
330
117C
100
AcDbXrecord
280
     1
290
     1
  0
SORTENTSTABLE
  5
DBA
102
{ACAD_REACTORS
330
DB9
102
}
330
DB9
100
AcDbSortentsTable
330
18
331
1357
  5
1383
331
1353
  5
137F
331
138E
  5
13B9
331
134F
  5
137B
331
138A
  5
13B5
331
134B
  5
1378
331
143E
  5
1469
331
13C6
  5
13F1
331
143A
  5
1465
331
13C2
  5
13ED
331
1436
  5
1461
331
1475
  5
192D
331
1471
  5
1929
331
1432
  5
145D
331
13BE
  5
13E9
331
13FD
  5
1428
331
13F9
  5
1424
331
13BA
  5
13E5
331
1347
  5
1373
331
1386
  5
13B1
331
1343
  5
136F
331
1382
  5
13AD
331
137E
  5
13A9
331
137A
  5
13A5
331
E9E
  5
136A
331
142E
  5
1459
331
146D
  5
1925
331
142A
  5
1455
331
13B6
  5
13E1
331
13F5
  5
1420
331
1469
  5
1921
331
1426
  5
1451
331
13B2
  5
13DD
331
13F1
  5
141C
331
1465
  5
191D
331
1461
  5
1919
331
1422
  5
144D
331
13AE
  5
13D9
331
13ED
  5
1418
331
13E9
  5
1414
331
13AA
  5
13D5
331
1376
  5
13A2
331
1372
  5
139E
331
136E
  5
139A
331
136A
  5
1396
331
D39
  5
1366
331
145D
  5
1915
331
141E
  5
1449
331
141A
  5
1445
331
13A6
  5
13D1
331
13E5
  5
1410
331
1459
  5
1911
331
1416
  5
1441
331
13A2
  5
13CD
331
13E1
  5
140C
331
1455
  5
170F
331
1412
  5
143D
331
139E
  5
13C9
331
13DD
  5
1408
331
1451
  5
1488
331
13D9
  5
1404
331
139A
  5
13C5
331
1366
  5
1392
331
1479
  5
1931
331
1362
  5
138E
331
135E
  5
138A
331
135A
  5
1386
331
144D
  5
1478
331
140E
  5
1439
331
140A
  5
1435
331
13D5
  5
1400
331
1449
  5
1474
331
1396
  5
13C1
331
1406
  5
1431
331
1392
  5
13BD
331
13D1
  5
13FC
331
1445
  5
1470
331
B34
  5
BD0
331
1402
  5
142D
331
13CD
  5
13F8
331
1441
  5
146C
331
F92
  5
136D
331
13C9
  5
13F4
331
1356
  5
1382
331
1352
  5
137E
331
14F4
  5
1935
331
138D
  5
13B8
331
134A
  5
1376
331
1389
  5
13B4
331
143D
  5
1468
331
13C5
  5
13F0
331
1439
  5
1464
331
13C1
  5
13EC
331
1435
  5
1460
331
1474
  5
192C
331
1470
  5
1928
331
1431
  5
145C
331
13BD
  5
13E8
331
13FC
  5
1427
331
13F8
  5
1423
331
13B9
  5
13E4
331
1346
  5
1372
331
1385
  5
13B0
331
1381
  5
13AC
331
137D
  5
13A8
331
1379
  5
13A4
331
142D
  5
1458
331
146C
  5
1924
331
1429
  5
1454
331
13B5
  5
13E0
331
13F4
  5
141F
331
1468
  5
1920
331
1425
  5
1450
331
13B1
  5
13DC
331
13F0
  5
141B
331
1464
  5
191C
331
1460
  5
1918
331
1421
  5
144C
331
13AD
  5
13D8
331
13EC
  5
1417
331
13E8
  5
1413
331
13A9
  5
13D4
331
1375
  5
13A1
331
1371
  5
139D
331
136D
  5
1399
331
1369
  5
1395
331
141D
  5
1448
331
145C
  5
1914
331
1419
  5
1444
331
13A5
  5
13D0
331
13E4
  5
140F
331
1458
  5
1779
331
1415
  5
1440
331
13A1
  5
13CC
331
13E0
  5
140B
331
1454
  5
1501
331
1450
  5
147B
331
1411
  5
143C
331
139D
  5
13C8
331
13DC
  5
1407
331
13D8
  5
1403
331
1399
  5
13C4
331
1365
  5
1391
331
1478
  5
1930
331
1361
  5
138D
331
135D
  5
1389
331
1359
  5
1385
331
144C
  5
1477
331
140D
  5
1438
331
1409
  5
1434
331
1395
  5
13C0
331
13D4
  5
13FF
331
1448
  5
1473
331
B33
  5
BCF
331
1405
  5
1430
331
1391
  5
13BC
331
13D0
  5
13FB
331
1444
  5
146F
331
1401
  5
142C
331
13CC
  5
13F7
331
1440
  5
146B
331
13C8
  5
13F3
331
1355
  5
1381
331
1351
  5
137D
331
138C
  5
13B7
331
134D
  5
137A
331
1349
  5
1375
331
1388
  5
13B3
331
143C
  5
1467
331
DE5
  5
1369
331
13C4
  5
13EF
331
1438
  5
1463
331
1477
  5
192F
331
1434
  5
145F
331
13C0
  5
13EB
331
13FF
  5
142A
331
1473
  5
192B
331
13FB
  5
1426
331
13BC
  5
13E7
331
1430
  5
145B
331
13B8
  5
13E3
331
193B
  5
BCC
331
1345
  5
1371
331
1384
  5
13AF
331
1380
  5
13AB
331
137C
  5
13A7
331
1378
  5
13A3
331
146F
  5
1927
331
142C
  5
1457
331
13F7
  5
1422
331
146B
  5
1923
331
1428
  5
1453
331
13B4
  5
13DF
331
13F3
  5
141E
331
1467
  5
191F
331
1424
  5
144F
331
13B0
  5
13DB
331
13EF
  5
141A
331
1463
  5
191B
331
1420
  5
144B
331
13AC
  5
13D7
331
13EB
  5
1416
331
13A8
  5
13D3
331
1374
  5
13A0
331
1370
  5
139C
331
136C
  5
1398
331
1368
  5
1394
331
145F
  5
1917
331
141C
  5
1447
331
13E7
  5
1412
331
145B
  5
1913
331
1418
  5
1443
331
13A4
  5
13CF
331
13E3
  5
140E
331
1457
  5
1769
331
1414
  5
143F
331
13A0
  5
13CB
331
13DF
  5
140A
331
1453
  5
14F3
331
1410
  5
143B
331
139C
  5
13C7
331
13DB
  5
1406
331
1398
  5
13C3
331
147B
  5
1933
331
1364
  5
1390
331
1360
  5
138C
331
135C
  5
1388
331
1358
  5
1384
331
144F
  5
147A
331
140C
  5
1437
331
13D7
  5
1402
331
144B
  5
1476
331
1408
  5
1433
331
1394
  5
13BF
331
13D3
  5
13FE
331
1447
  5
1472
331
B32
  5
BCE
331
1404
  5
142F
331
1390
  5
13BB
331
13CF
  5
13FA
331
1443
  5
146E
331
1400
  5
142B
331
13CB
  5
13F6
331
1354
  5
1380
331
1350
  5
137C
331
138F
  5
13BA
331
138B
  5
13B6
331
134C
  5
1379
331
1348
  5
1374
331
143F
  5
146A
331
13C7
  5
13F2
331
143B
  5
1466
331
DE4
  5
1368
331
13C3
  5
13EE
331
1437
  5
1462
331
1476
  5
192E
331
1472
  5
192A
331
1433
  5
145E
331
13BF
  5
13EA
331
13FE
  5
1429
331
13FA
  5
1425
331
13BB
  5
13E6
331
1387
  5
13B2
331
1344
  5
1370
331
1383
  5
13AE
331
137F
  5
13AA
331
137B
  5
13A6
331
133C
  5
136E
331
146E
  5
1926
331
142F
  5
145A
331
142B
  5
1456
331
13B7
  5
13E2
331
13F6
  5
1421
331
146A
  5
1922
331
1427
  5
1452
331
13B3
  5
13DE
331
13F2
  5
141D
331
1466
  5
191E
331
1423
  5
144E
331
13AF
  5
13DA
331
13EE
  5
1419
331
1462
  5
191A
331
13EA
  5
1415
331
13AB
  5
13D6
331
1762
  5
1938
331
1373
  5
139F
331
136F
  5
139B
331
136B
  5
1397
331
145E
  5
1916
331
141F
  5
144A
331
141B
  5
1446
331
13E6
  5
1411
331
145A
  5
1912
331
13A7
  5
13D2
331
1417
  5
1442
331
13A3
  5
13CE
331
13E2
  5
140D
331
1456
  5
174D
331
1413
  5
143E
331
139F
  5
13CA
331
13DE
  5
1409
331
1452
  5
149D
331
139B
  5
13C6
331
13DA
  5
1405
331
172A
  5
1937
331
1367
  5
1393
331
147A
  5
1932
331
1363
  5
138F
331
135F
  5
138B
331
135B
  5
1387
331
144E
  5
1479
331
140F
  5
143A
331
140B
  5
1436
331
13D6
  5
1401
331
144A
  5
1475
331
1397
  5
13C2
331
1407
  5
1432
331
1446
  5
1471
331
1393
  5
13BE
331
13D2
  5
13FD
331
B31
  5
BCD
331
1403
  5
142E
331
13CE
  5
13F9
331
1442
  5
146D
331
1501
  5
1936
331
13CA
  5
13F5
  0
ACDBDETAILVIEWSTYLE
  5
17B7
102
{ACAD_XDICTIONARY
360
1C10
102
}
102
{ACAD_REACTORS
330
17B6
102
}
330
17B6
100
AcDbModelDocViewStyle
 70
     0
  3
Metric50
290
     0
100
AcDbDetailViewStyle
 70
     0
 71
     0
 90
        3
 71
     1
340
10
 40
5.0
340
0
 40
5.0
300

 40
0.0
280
     1
 71
     2
340
14
 90
       25
 71
     3
340
10
 40
5.0
 90
        0
 40
15.0
 90
        1
300
%<\AcVar ViewDetailId>% (%<\AcVar ViewScale \f "%sn">%)
 71
     4
340
14
 90
       25
340
14
 90
       25
280
     0
  0
LAYOUT
  5
33B
102
{ACAD_XDICTIONARY
360
1BD7
102
}
102
{ACAD_REACTORS
330
301
102
}
330
301
100
AcDbPlotSettings
  1

  2
Lexmark Optra PS2
  4

  6

 40
0.0
 41
0.0
 42
0.0
 43
0.0
 44
0.0
 45
0.0
 46
0.0
 47
0.0
 48
0.0
 49
0.0
140
0.0
141
0.0
142
1.0
143
1.0
 70
   688
 72
     0
 73
     0
 74
     5
  7
monochrome.ctb
 75
    16
147
1.0
148
0.0
149
0.0
100
AcDbLayout
  1
Layout1
 70
     1
 71
     1
 10
0.0
 20
0.0
 11
12.0
 21
9.0
 12
0.0
 22
0.0
 32
0.0
 14
0.0
 24
0.0
 34
0.0
 15
0.0
 25
0.0
 35
0.0
146
0.0
 13
0.0
 23
0.0
 33
0.0
 16
1.0
 26
0.0
 36
0.0
 17
0.0
 27
1.0
 37
0.0
 76
     0
330
338
  0
LAYOUT
  5
303
102
{ACAD_XDICTIONARY
360
1BD5
102
}
102
{ACAD_REACTORS
330
301
102
}
330
301
100
AcDbPlotSettings
  1

  2
Default Windows System Printer.pc3
  4
A4
  6

 40
6.805083274841307
 41
5.535083293914794
 42
6.974411010742187
 43
7.14373779296875
 44
209.9733276367186
 45
296.9259948730469
 46
67.83299579489725
 47
0.0
 48
0.0
 49
0.0
140
0.0
141
0.0
142
1.0
143
0.3604333568168785
 70
  3764
 72
     1
 73
     1
 74
     1
  7
monochrome.ctb
 75
     0
147
2.774437995504559
148
-82.35087775247029
149
-53.69369632994493
100
AcDbLayout
  1
Model
 70
     1
 71
     0
 10
0.0
 20
0.0
 11
12.0
 21
9.0
 12
0.0
 22
0.0
 32
0.0
 14
0.0
 24
0.0
 34
0.0
 15
0.0
 25
0.0
 35
0.0
146
0.0
 13
0.0
 23
0.0
 33
0.0
 16
1.0
 26
0.0
 36
0.0
 17
0.0
 27
1.0
 37
0.0
 76
     0
330
18
331
3ED
1001
ACAD_PSEXT
1000
Default Windows System Printer.pc3
1000
Lexmark Optra Rx
1000
Lexmark Rx
1000
Erstellt von Lexmark Benutzerdefinierte Installation,Nov 13,2005,10:03
1070
     0
  0
MATERIAL
  5
3F0
102
{ACAD_XDICTIONARY
360
179F
102
}
102
{ACAD_REACTORS
330
386
102
}
330
386
100
AcDbMaterial
  1
ByBlock
 73
     1
 78
     1
172
     1
176
     1
270
     1
274
     1
  0
MATERIAL
  5
3EF
102
{ACAD_XDICTIONARY
360
179D
102
}
102
{ACAD_REACTORS
330
386
102
}
330
386
100
AcDbMaterial
  1
ByLayer
 73
     1
 78
     1
172
     1
176
     1
270
     1
274
     1
  0
MATERIAL
  5
3F1
102
{ACAD_XDICTIONARY
360
17A1
102
}
102
{ACAD_REACTORS
330
386
102
}
330
386
100
AcDbMaterial
  1
Global
 73
     1
 78
     1
172
     1
176
     1
270
     1
274
     1
  0
MLEADERSTYLE
  5
43D
102
{ACAD_REACTORS
330
43C
102
}
330
43C
100
AcDbMLeaderStyle
170
     2
171
     1
172
     0
 90
        2
 40
0.0
 41
0.0
173
     1
 91
-1056964608
340
12
 92
       -2
290
     1
 42
2.0
291
     1
 43
0.36
  3
Standard
 44
4.0
300

342
10
174
     1
178
     6
175
     1
176
     0
 93
-1056964608
 45
4.0
292
     0
297
     0
 46
4.0
 94
-1056964608
 47
1.0
 49
1.0
140
1.0
293
     1
141
0.0
294
     1
177
     0
142
1.0
295
     0
296
     0
143
0.125
1001
ACAD_MLEADERVER
1070
     2
  0
MLINESTYLE
  5
1B
102
{ACAD_REACTORS
330
E
102
}
330
E
100
AcDbMlineStyle
  2
STANDARD
 70
     0
  3

 62
     0
 51
90.0
 52
90.0
 71
     2
 49
0.5
 62
   256
  6
BYLAYER
 49
-0.5
 62
   256
  6
BYLAYER
  0
ACDBPLACEHOLDER
  5
300
102
{ACAD_REACTORS
330
2FF
102
}
330
2FF
  0
SCALE
  5
41B
102
{ACAD_REACTORS
330
41A
102
}
330
41A
100
AcDbScale
 70
     0
300
1:1
140
1.0
141
1.0
290
     1
  0
SCALE
  5
41C
102
{ACAD_REACTORS
330
41A
102
}
330
41A
100
AcDbScale
 70
     0
300
1:2
140
1.0
141
2.0
290
     0
  0
SCALE
  5
41D
102
{ACAD_REACTORS
330
41A
102
}
330
41A
100
AcDbScale
 70
     0
300
1:4
140
1.0
141
4.0
290
     0
  0
SCALE
  5
41E
102
{ACAD_REACTORS
330
41A
102
}
330
41A
100
AcDbScale
 70
     0
300
1:5
140
1.0
141
5.0
290
     0
  0
SCALE
  5
41F
102
{ACAD_REACTORS
330
41A
102
}
330
41A
100
AcDbScale
 70
     0
300
1:8
140
1.0
141
8.0
290
     0
  0
SCALE
  5
420
102
{ACAD_REACTORS
330
41A
102
}
330
41A
100
AcDbScale
 70
     0
300
1:10
140
1.0
141
10.0
290
     0
  0
SCALE
  5
421
102
{ACAD_REACTORS
330
41A
102
}
330
41A
100
AcDbScale
 70
     0
300
1:16
140
1.0
141
16.0
290
     0
  0
SCALE
  5
422
102
{ACAD_REACTORS
330
41A
102
}
330
41A
100
AcDbScale
 70
     0
300
1:20
140
1.0
141
20.0
290
     0
  0
SCALE
  5
423
102
{ACAD_REACTORS
330
41A
102
}
330
41A
100
AcDbScale
 70
     0
300
1:30
140
1.0
141
30.0
290
     0
  0
SCALE
  5
424
102
{ACAD_REACTORS
330
41A
102
}
330
41A
100
AcDbScale
 70
     0
300
1:40
140
1.0
141
40.0
290
     0
  0
SCALE
  5
425
102
{ACAD_REACTORS
330
41A
102
}
330
41A
100
AcDbScale
 70
     0
300
1:50
140
1.0
141
50.0
290
     0
  0
SCALE
  5
426
102
{ACAD_REACTORS
330
41A
102
}
330
41A
100
AcDbScale
 70
     0
300
1:100
140
1.0
141
100.0
290
     0
  0
SCALE
  5
427
102
{ACAD_REACTORS
330
41A
102
}
330
41A
100
AcDbScale
 70
     0
300
2:1
140
2.0
141
1.0
290
     0
  0
SCALE
  5
428
102
{ACAD_REACTORS
330
41A
102
}
330
41A
100
AcDbScale
 70
     0
300
4:1
140
4.0
141
1.0
290
     0
  0
SCALE
  5
429
102
{ACAD_REACTORS
330
41A
102
}
330
41A
100
AcDbScale
 70
     0
300
8:1
140
8.0
141
1.0
290
     0
  0
SCALE
  5
42A
102
{ACAD_REACTORS
330
41A
102
}
330
41A
100
AcDbScale
 70
     0
300
10:1
140
10.0
141
1.0
290
     0
  0
SCALE
  5
42B
102
{ACAD_REACTORS
330
41A
102
}
330
41A
100
AcDbScale
 70
     0
300
100:1
140
100.0
141
1.0
290
     0
  0
SCALE
  5
42C
102
{ACAD_REACTORS
330
41A
102
}
330
41A
100
AcDbScale
 70
     0
300
1/128" = 1'-0"
140
0.0078125
141
12.0
290
     0
  0
SCALE
  5
42D
102
{ACAD_REACTORS
330
41A
102
}
330
41A
100
AcDbScale
 70
     0
300
1/64" = 1'-0"
140
0.015625
141
12.0
290
     0
  0
SCALE
  5
42E
102
{ACAD_REACTORS
330
41A
102
}
330
41A
100
AcDbScale
 70
     0
300
1/32" = 1'-0"
140
0.03125
141
12.0
290
     0
  0
SCALE
  5
42F
102
{ACAD_REACTORS
330
41A
102
}
330
41A
100
AcDbScale
 70
     0
300
1/16" = 1'-0"
140
0.0625
141
12.0
290
     0
  0
SCALE
  5
430
102
{ACAD_REACTORS
330
41A
102
}
330
41A
100
AcDbScale
 70
     0
300
3/32" = 1'-0"
140
0.09375
141
12.0
290
     0
  0
SCALE
  5
431
102
{ACAD_REACTORS
330
41A
102
}
330
41A
100
AcDbScale
 70
     0
300
1/8" = 1'-0"
140
0.125
141
12.0
290
     0
  0
SCALE
  5
432
102
{ACAD_REACTORS
330
41A
102
}
330
41A
100
AcDbScale
 70
     0
300
3/16" = 1'-0"
140
0.1875
141
12.0
290
     0
  0
SCALE
  5
433
102
{ACAD_REACTORS
330
41A
102
}
330
41A
100
AcDbScale
 70
     0
300
1/4" = 1'-0"
140
0.25
141
12.0
290
     0
  0
SCALE
  5
434
102
{ACAD_REACTORS
330
41A
102
}
330
41A
100
AcDbScale
 70
     0
300
3/8" = 1'-0"
140
0.375
141
12.0
290
     0
  0
SCALE
  5
435
102
{ACAD_REACTORS
330
41A
102
}
330
41A
100
AcDbScale
 70
     0
300
1/2" = 1'-0"
140
0.5
141
12.0
290
     0
  0
SCALE
  5
436
102
{ACAD_REACTORS
330
41A
102
}
330
41A
100
AcDbScale
 70
     0
300
3/4" = 1'-0"
140
0.75
141
12.0
290
     0
  0
SCALE
  5
437
102
{ACAD_REACTORS
330
41A
102
}
330
41A
100
AcDbScale
 70
     0
300
1" = 1'-0"
140
1.0
141
12.0
290
     0
  0
SCALE
  5
438
102
{ACAD_REACTORS
330
41A
102
}
330
41A
100
AcDbScale
 70
     0
300
1-1/2" = 1'-0"
140
1.5
141
12.0
290
     0
  0
SCALE
  5
439
102
{ACAD_REACTORS
330
41A
102
}
330
41A
100
AcDbScale
 70
     0
300
3" = 1'-0"
140
3.0
141
12.0
290
     0
  0
SCALE
  5
43A
102
{ACAD_REACTORS
330
41A
102
}
330
41A
100
AcDbScale
 70
     0
300
6" = 1'-0"
140
6.0
141
12.0
290
     0
  0
SCALE
  5
43B
102
{ACAD_REACTORS
330
41A
102
}
330
41A
100
AcDbScale
 70
     0
300
1'-0" = 1'-0"
140
12.0
141
12.0
290
     0
  0
ACDBSECTIONVIEWSTYLE
  5
17B5
102
{ACAD_XDICTIONARY
360
1C0E
102
}
102
{ACAD_REACTORS
330
17B4
102
}
330
17B4
100
AcDbModelDocViewStyle
 70
     0
  3
Metric50
290
     0
100
AcDbSectionViewStyle
 70
     0
 71
     0
 90
      102
 71
     1
340
10
 40
5.0
340
0
340
0
 40
5.0
300
I, O, Q, S, X, Z
 40
10.0
 90
        0
 40
2.5
 90
        0
 71
     2
340
14
 90
       25
340
14
 90
       50
 40
5.0
 40
2.5
 40
5.0
 71
     3
340
10
 40
5.0
 90
        0
 40
15.0
 90
        1
300
%<\AcVar ViewSectionStartId>%-%<\AcVar ViewSectionEndId>% (%<\AcVar ViewScale \f "%sn">%)
 71
     4
300
ANSI31
 40
1.0
 90
        0
290
     0
290
     0
 90
        6
 40
0.0
 40
1.570796326794896
 40
0.2617993877991494
 40
1.308996938995747
 40
-0.2617993877991494
 40
1.832595714594044
  0
TABLESTYLE
  5
389
102
{ACAD_XDICTIONARY
360
444
102
}
102
{ACAD_REACTORS
330
388
102
}
330
388
100
AcDbTableStyle
  3
Standard
 70
     0
 71
     0
 40
1.5
 41
1.5
280
     0
281
     0
  7
STANDARD
140
4.5
170
     2
 62
     0
 63
     7
283
     0
274
    -2
284
     1
 64
     0
275
    -2
285
     1
 65
     0
276
    -2
286
     1
 66
     0
277
    -2
287
     1
 67
     0
278
    -2
288
     1
 68
     0
279
    -2
289
     1
 69
     0
  7
STANDARD
140
6.0
170
     5
 62
     0
 63
     7
283
     0
274
    -2
284
     1
 64
     0
275
    -2
285
     1
 65
     0
276
    -2
286
     1
 66
     0
277
    -2
287
     1
 67
     0
278
    -2
288
     1
 68
     0
279
    -2
289
     1
 69
     0
  7
STANDARD
140
4.5
170
     5
 62
     0
 63
     7
283
     0
274
    -2
284
     1
 64
     0
275
    -2
285
     1
 65
     0
276
    -2
286
     1
 66
     0
277
    -2
287
     1
 67
     0
278
    -2
288
     1
 68
     0
279
    -2
289
     1
 69
     0
  0
VISUALSTYLE
  5
3F8
102
{ACAD_XDICTIONARY
360
1BE4
102
}
102
{ACAD_REACTORS
330
3F2
102
}
330
3F2
100
AcDbVisualStyle
  2

 70
     4
 71
     0
 72
     2
 73
     0
 90
        0
 40
-0.6
 41
-30.0
 62
     5
 63
     7
 74
     1
 91
        4
 64
     7
 65
   257
 75
     1
175
     1
 42
1.0
 92
        0
 66
   257
 43
1.0
 76
     1
 77
     6
 78
     2
 67
     7
 79
     5
170
     0
171
     0
290
     0
174
     0
 93
        1
 44
0.0
173
     0
291
     0
 45
0.0
1001
ACAD
1000
AcDbSavedByObjectVersion
1070
     0
  0
VISUALSTYLE
  5
3FA
102
{ACAD_XDICTIONARY
360
1BE8
102
}
102
{ACAD_REACTORS
330
3F2
102
}
330
3F2
100
AcDbVisualStyle
  2

 70
     6
 71
     1
 72
     2
 73
     2
 90
        0
 40
-0.6
 41
-30.0
 62
     5
 63
     7
 74
     2
 91
        2
 64
     7
 65
   257
 75
     2
175
     1
 42
40.0
 92
        0
 66
   257
 43
1.0
 76
     1
 77
     6
 78
     2
 67
     7
 79
     3
170
     0
171
     0
290
     0
174
     0
 93
        1
 44
0.0
173
     0
291
     0
 45
0.0
1001
ACAD
1000
AcDbSavedByObjectVersion
1070
     0
  0
VISUALSTYLE
  5
3F9
102
{ACAD_XDICTIONARY
360
1BE6
102
}
102
{ACAD_REACTORS
330
3F2
102
}
330
3F2
100
AcDbVisualStyle
  2

 70
     5
 71
     0
 72
     2
 73
     0
 90
        0
 40
-0.6
 41
-30.0
 62
     5
 63
     7
 74
     1
 91
        4
 64
     7
 65
   257
 75
     1
175
     1
 42
1.0
 92
        0
 66
   257
 43
1.0
 76
     1
 77
     6
 78
     2
 67
     7
 79
     5
170
     0
171
     0
290
     0
174
     0
 93
        1
 44
0.0
173
     0
291
     0
 45
0.0
1001
ACAD
1000
AcDbSavedByObjectVersion
1070
     0
  0
VISUALSTYLE
  5
3F7
102
{ACAD_XDICTIONARY
360
1BE2
102
}
102
{ACAD_REACTORS
330
3F2
102
}
330
3F2
100
AcDbVisualStyle
  2

 70
     7
 71
     1
 72
     0
 73
     1
 90
        0
 40
-0.6
 41
-30.0
 62
     5
 63
     7
 74
     0
 91
        4
 64
     7
 65
   257
 75
     1
175
     1
 42
1.0
 92
        8
 66
     7
 43
1.0
 76
     1
 77
     6
 78
     2
 67
     7
 79
     5
170
     0
171
     0
290
     0
174
     0
 93
        1
 44
0.0
173
     0
291
     1
 45
0.0
1001
ACAD
1000
AcDbSavedByObjectVersion
1070
     0
  0
VISUALSTYLE
  5
3FE
102
{ACAD_XDICTIONARY
360
1BF0
102
}
102
{ACAD_REACTORS
330
3F2
102
}
330
3F2
100
AcDbVisualStyle
  2

 70
    12
 71
     2
 72
     2
 73
     0
 90
        0
 40
-0.6
 41
-30.0
 62
     5
 63
     7
 74
     1
 91
        4
 64
     7
 65
   257
 75
     1
175
     1
 42
1.0
 92
        8
 66
     7
 43
1.0
 76
     1
 77
     6
 78
     2
 67
     7
 79
     5
170
     0
171
     0
290
     0
174
     0
 93
        1
 44
50.0
173
     0
291
     1
 45
0.0
1001
ACAD
1000
AcDbSavedByObjectVersion
1070
     0
  0
VISUALSTYLE
  5
402
102
{ACAD_XDICTIONARY
360
1BF8
102
}
102
{ACAD_REACTORS
330
3F2
102
}
330
3F2
100
AcDbVisualStyle
  2

 70
    16
 71
     2
 72
     2
 73
     3
 90
        0
 40
-0.6
 41
-30.0
 62
     5
 63
     8
 74
     1
 91
        4
 64
     7
 65
   257
 75
     1
175
     1
 42
1.0
 92
        8
 66
     8
 43
1.0
 76
     1
 77
     6
 78
     2
 67
     7
 79
     5
170
     0
171
     0
290
     0
174
     0
 93
        1
 44
0.0
173
     0
291
     1
 45
0.0
1001
ACAD
1000
AcDbSavedByObjectVersion
1070
     0
  0
VISUALSTYLE
  5
3FB
102
{ACAD_XDICTIONARY
360
1BEA
102
}
102
{ACAD_REACTORS
330
3F2
102
}
330
3F2
100
AcDbVisualStyle
  2

 70
     9
 71
     3
 72
     2
 73
     0
 90
        0
 40
-0.6
 41
-30.0
 62
     5
 63
     7
 74
     2
 91
        2
 64
     7
 65
   257
 75
     1
175
     1
 42
40.0
 92
        8
 66
     7
 43
1.0
 76
     1
 77
     6
 78
     2
 67
     7
 79
     3
170
     0
171
     0
290
     0
174
     0
 93
        1
 44
0.0
173
     0
291
     0
 45
0.0
1001
ACAD
1000
AcDbSavedByObjectVersion
1070
     0
  0
VISUALSTYLE
  5
3FD
102
{ACAD_XDICTIONARY
360
1BEE
102
}
102
{ACAD_REACTORS
330
3F2
102
}
330
3F2
100
AcDbVisualStyle
  2

 70
    11
 71
     2
 72
     2
 73
     0
 90
        0
 40
-0.6
 41
-30.0
 62
     5
 63
     7
 74
     1
 91
        4
 64
     7
 65
   257
 75
     1
175
     1
 42
1.0
 92
        8
 66
     7
 43
1.0
 76
     1
 77
     6
 78
     2
 67
     7
 79
     5
170
     0
171
     0
290
     0
174
     0
 93
        1
 44
-50.0
173
     0
291
     1
 45
0.0
1001
ACAD
1000
AcDbSavedByObjectVersion
1070
     0
  0
VISUALSTYLE
  5
17B3
102
{ACAD_XDICTIONARY
360
1C0C
102
}
102
{ACAD_REACTORS
330
3F2
102
}
330
3F2
100
AcDbVisualStyle
  2

 70
    22
 71
     2
 72
     2
 73
     0
 90
        0
 40
-0.6
 41
-30.0
 62
     5
 63
     7
 74
     1
 91
        4
 64
     7
 65
   257
 75
     1
175
     1
 42
1.0
 92
        8
 66
     7
 43
1.0
 76
     1
 77
     6
 78
     2
 67
     7
 79
     5
170
     0
171
     0
290
     0
174
     0
 93
        1
 44
0.0
173
     0
291
     1
 45
0.0
1001
ACAD
1000
AcDbSavedByObjectVersion
1070
     0
  0
VISUALSTYLE
  5
401
102
{ACAD_XDICTIONARY
360
1BF6
102
}
102
{ACAD_REACTORS
330
3F2
102
}
330
3F2
100
AcDbVisualStyle
  2

 70
    15
 71
     2
 72
     2
 73
     0
 90
        0
 40
-0.6
 41
-30.0
 62
     5
 63
     7
 74
     1
 91
        4
 64
     7
 65
   257
 75
     1
175
     1
 42
1.0
 92
        8
 66
     7
 43
1.0
 76
     1
 77
     6
 78
     2
 67
     7
 79
     5
170
     0
171
     0
290
     0
174
     0
 93
        1
 44
0.0
173
     0
291
     1
 45
0.0
1001
ACAD
1000
AcDbSavedByObjectVersion
1070
     0
  0
VISUALSTYLE
  5
3F3
102
{ACAD_XDICTIONARY
360
1BDA
102
}
102
{ACAD_REACTORS
330
3F2
102
}
330
3F2
100
AcDbVisualStyle
  2

 70
     0
 71
     2
 72
     1
 73
     1
 90
        2
 40
-0.6
 41
30.0
 62
     5
 63
     7
 74
     0
 91
        4
 64
     7
 65
   257
 75
     1
175
     1
 42
1.0
 92
        8
 66
     7
 43
1.0
 76
     1
 77
     6
 78
     2
 67
     7
 79
     5
170
     0
171
     0
290
     0
174
     0
 93
       13
 44
0.0
173
     0
291
     1
 45
0.0
1001
ACAD
1000
AcDbSavedByObjectVersion
1070
     0
  0
VISUALSTYLE
  5
3F4
102
{ACAD_XDICTIONARY
360
1BDC
102
}
102
{ACAD_REACTORS
330
3F2
102
}
330
3F2
100
AcDbVisualStyle
  2

 70
     1
 71
     2
 72
     1
 73
     1
 90
        2
 40
-0.6
 41
30.0
 62
     5
 63
     7
 74
     1
 91
        4
 64
     7
 65
   257
 75
     1
175
     1
 42
1.0
 92
        0
 66
   257
 43
1.0
 76
     1
 77
     6
 78
     2
 67
     7
 79
     5
170
     0
171
     0
290
     0
174
     0
 93
       13
 44
0.0
173
     0
291
     1
 45
0.0
1001
ACAD
1000
AcDbSavedByObjectVersion
1070
     0
  0
VISUALSTYLE
  5
3F5
102
{ACAD_XDICTIONARY
360
1BDE
102
}
102
{ACAD_REACTORS
330
3F2
102
}
330
3F2
100
AcDbVisualStyle
  2

 70
     2
 71
     2
 72
     2
 73
     1
 90
        2
 40
-0.6
 41
30.0
 62
     5
 63
     7
 74
     0
 91
        4
 64
     7
 65
   257
 75
     1
175
     1
 42
1.0
 92
        0
 66
     7
 43
1.0
 76
     1
 77
     6
 78
     2
 67
     7
 79
     5
170
     0
171
     0
290
     0
174
     0
 93
       13
 44
0.0
173
     0
291
     1
 45
0.0
1001
ACAD
1000
AcDbSavedByObjectVersion
1070
     0
  0
VISUALSTYLE
  5
3F6
102
{ACAD_XDICTIONARY
360
1BE0
102
}
102
{ACAD_REACTORS
330
3F2
102
}
330
3F2
100
AcDbVisualStyle
  2

 70
     3
 71
     2
 72
     2
 73
     1
 90
        2
 40
-0.6
 41
30.0
 62
     5
 63
     7
 74
     1
 91
        4
 64
     7
 65
   257
 75
     1
175
     1
 42
1.0
 92
        0
 66
   257
 43
1.0
 76
     1
 77
     6
 78
     2
 67
     7
 79
     5
170
     0
171
     0
290
     0
174
     0
 93
       13
 44
0.0
173
     0
291
     1
 45
0.0
1001
ACAD
1000
AcDbSavedByObjectVersion
1070
     0
  0
VISUALSTYLE
  5
17AB
102
{ACAD_XDICTIONARY
360
1BFC
102
}
102
{ACAD_REACTORS
330
3F2
102
}
330
3F2
100
AcDbVisualStyle
  2

 70
     6
 71
     1
 72
     2
 73
     2
 90
        0
 40
-0.6
 41
-30.0
 62
     5
 63
     7
 74
     2
 91
        2
 64
     7
 65
   257
 75
     2
175
     1
 42
40.0
 92
        0
 66
   257
 43
1.0
 76
     1
 77
     6
 78
     2
 67
     7
 79
     3
170
     0
171
     0
290
     0
174
     0
 93
        1
 44
0.0
173
     0
291
     0
 45
0.0
1001
ACAD
1000
AcDbSavedByObjectVersion
1070
     0
  0
VISUALSTYLE
  5
17B1
102
{ACAD_XDICTIONARY
360
1C08
102
}
102
{ACAD_REACTORS
330
3F2
102
}
330
3F2
100
AcDbVisualStyle
  2

 70
    20
 71
     2
 72
     2
 73
     0
 90
        0
 40
-0.6
 41
-30.0
 62
     5
 63
     7
 74
     1
 91
        4
 64
     7
 65
   257
 75
     1
175
     1
 42
1.0
 92
       10
 66
     7
 43
1.0
 76
     1
 77
     6
 78
     2
 67
     7
 79
     5
170
     0
171
     0
290
     0
174
     0
 93
        1
 44
0.0
173
     0
291
     1
 45
0.0
1001
ACAD
1000
AcDbSavedByObjectVersion
1070
     0
  0
VISUALSTYLE
  5
400
102
{ACAD_XDICTIONARY
360
1BF4
102
}
102
{ACAD_REACTORS
330
3F2
102
}
330
3F2
100
AcDbVisualStyle
  2

 70
    14
 71
     2
 72
     2
 73
     0
 90
        0
 40
-0.6
 41
-30.0
 62
     5
 63
     7
 74
     1
 91
        4
 64
     7
 65
   257
 75
     7
175
     7
 42
1.0
 92
        8
 66
     7
 43
1.0
 76
     1
 77
     6
 78
     2
 67
     7
 79
     5
170
     0
171
     0
290
     0
174
     0
 93
        1
 44
0.0
173
     0
291
     1
 45
0.0
1001
ACAD
1000
AcDbSavedByObjectVersion
1070
     0
  0
VISUALSTYLE
  5
17B2
102
{ACAD_XDICTIONARY
360
1C0A
102
}
102
{ACAD_REACTORS
330
3F2
102
}
330
3F2
100
AcDbVisualStyle
  2

 70
    21
 71
     2
 72
     2
 73
     0
 90
        0
 40
-0.6
 41
-30.0
 62
     5
 63
     7
 74
     1
 91
        4
 64
     7
 65
   257
 75
     1
175
     1
 42
1.0
 92
        9
 66
     7
 43
1.0
 76
     1
 77
     6
 78
     2
 67
     7
 79
     5
170
     0
171
     0
290
     0
174
     0
 93
        1
 44
0.0
173
     0
291
     1
 45
0.0
1001
ACAD
1000
AcDbSavedByObjectVersion
1070
     0
  0
VISUALSTYLE
  5
3FC
102
{ACAD_XDICTIONARY
360
1BEC
102
}
102
{ACAD_REACTORS
330
3F2
102
}
330
3F2
100
AcDbVisualStyle
  2

 70
     8
 71
     2
 72
     2
 73
     0
 90
        0
 40
-0.6
 41
-30.0
 62
     5
 63
     7
 74
     1
 91
        0
 64
     7
 65
   257
 75
     1
175
     1
 42
1.0
 92
        8
 66
     8
 43
1.0
 76
     1
 77
     6
 78
     2
 67
     7
 79
     5
170
     0
171
     0
290
     0
174
     0
 93
       13
 44
0.0
173
     0
291
     0
 45
0.0
1001
ACAD
1000
AcDbSavedByObjectVersion
1070
     0
  0
VISUALSTYLE
  5
17B0
102
{ACAD_XDICTIONARY
360
1C06
102
}
102
{ACAD_REACTORS
330
3F2
102
}
330
3F2
100
AcDbVisualStyle
  2

 70
    27
 71
     2
 72
     2
 73
     1
 90
        2
 40
-0.6
 41
30.0
 62
     5
 63
     7
 74
     0
 91
        4
 64
     7
 65
   257
 75
     1
175
     1
 42
1.0
 92
        8
 66
   257
 43
1.0
 76
     1
 77
     6
 78
     2
 67
     8
 79
     3
170
     0
171
     0
290
     0
174
     0
 93
        5
 44
0.0
173
     0
291
     0
 45
0.0
1001
ACAD
1000
AcDbSavedByObjectVersion
1070
     0
  0
VISUALSTYLE
  5
17AF
102
{ACAD_XDICTIONARY
360
1C04
102
}
102
{ACAD_REACTORS
330
3F2
102
}
330
3F2
100
AcDbVisualStyle
  2

 70
    26
 71
     2
 72
     2
 73
     1
 90
        2
 40
-0.6
 41
30.0
 62
     5
 63
     7
 74
     1
 91
       10
 64
     7
 65
   257
 75
     2
175
     1
 42
1.0
 92
        8
 66
   257
 43
1.0
 76
     1
 77
     6
 78
     2
 67
     7
 79
     3
170
     0
171
     0
290
     0
174
     0
 93
        5
 44
0.0
173
     0
291
     0
 45
0.0
1001
ACAD
1000
AcDbSavedByObjectVersion
1070
     0
  0
VISUALSTYLE
  5
17AC
102
{ACAD_XDICTIONARY
360
1BFE
102
}
102
{ACAD_REACTORS
330
3F2
102
}
330
3F2
100
AcDbVisualStyle
  2

 70
    23
 71
     2
 72
     2
 73
     3
 90
        0
 40
-0.6
 41
-30.0
 62
     5
 63
     7
 74
     2
 91
        2
 64
     7
 65
     7
 75
     1
175
     1
 42
40.0
 92
        8
 66
     7
 43
1.0
 76
     1
 77
     6
 78
     2
 67
     7
 79
     3
170
     0
171
     0
290
     0
174
     0
 93
        1
 44
0.0
173
     0
291
     0
 45
0.0
1001
ACAD
1000
AcDbSavedByObjectVersion
1070
     0
  0
VISUALSTYLE
  5
17AD
102
{ACAD_XDICTIONARY
360
1C00
102
}
102
{ACAD_REACTORS
330
3F2
102
}
330
3F2
100
AcDbVisualStyle
  2

 70
    24
 71
     1
 72
     2
 73
     2
 90
        0
 40
-0.6
 41
-30.0
 62
     5
 63
     7
 74
     2
 91
        2
 64
     7
 65
     7
 75
     1
175
     1
 42
40.0
 92
       11
 66
     7
 43
1.0
 76
     1
 77
     6
 78
     2
 67
     7
 79
     6
170
     0
171
     0
290
     0
174
     0
 93
        1
 44
0.0
173
     0
291
     0
 45
0.0
1001
ACAD
1000
AcDbSavedByObjectVersion
1070
     0
  0
VISUALSTYLE
  5
3FF
102
{ACAD_XDICTIONARY
360
1BF2
102
}
102
{ACAD_REACTORS
330
3F2
102
}
330
3F2
100
AcDbVisualStyle
  2

 70
    13
 71
     2
 72
     2
 73
     0
 90
        0
 40
-0.6
 41
-30.0
 62
     5
 63
     7
 74
     1
 91
        4
 64
     7
 65
   257
 75
     1
175
     1
 42
1.0
 92
       12
 66
     7
 43
1.0
 76
     1
 77
     6
 78
     2
 67
     7
 79
     5
170
     0
171
     0
290
     0
174
     0
 93
        1
 44
0.0
173
     0
291
     1
 45
0.0
1001
ACAD
1000
AcDbSavedByObjectVersion
1070
     0
  0
VISUALSTYLE
  5
17AA
102
{ACAD_XDICTIONARY
360
1BFA
102
}
102
{ACAD_REACTORS
330
3F2
102
}
330
3F2
100
AcDbVisualStyle
  2

 70
     5
 71
     0
 72
     2
 73
     0
 90
        0
 40
-0.6
 41
-30.0
 62
     5
 63
     7
 74
     1
 91
        4
 64
     7
 65
   257
 75
     1
175
     1
 42
1.0
 92
        0
 66
   257
 43
1.0
 76
     1
 77
     6
 78
     2
 67
     7
 79
     3
170
     0
171
     0
290
     0
174
     0
 93
        1
 44
0.0
173
     0
291
     0
 45
0.0
1001
ACAD
1000
AcDbSavedByObjectVersion
1070
     0
  0
VISUALSTYLE
  5
17AE
102
{ACAD_XDICTIONARY
360
1C02
102
}
102
{ACAD_REACTORS
330
3F2
102
}
330
3F2
100
AcDbVisualStyle
  2

 70
    25
 71
     2
 72
     2
 73
     1
 90
        1
 40
0.5
 41
-30.0
 62
     5
 63
     7
 74
     1
 91
        0
 64
     7
 65
   257
 75
     1
175
     1
 42
1.0
 92
        8
 66
     7
 43
1.0
 76
     1
 77
     6
 78
     2
 67
     7
 79
     3
170
     0
171
     0
290
     0
174
     0
 93
       13
 44
0.0
173
     0
291
     0
 45
0.0
1001
ACAD
1000
AcDbSavedByObjectVersion
1070
     0
  0
DICTIONARYVAR
  5
449
102
{ACAD_REACTORS
330
357
102
}
330
357
100
DictionaryVariables
280
     0
  1
1:1
  0
DICTIONARYVAR
  5
447
102
{ACAD_REACTORS
330
357
102
}
330
357
100
DictionaryVariables
280
     0
  1
STANDARD
  0
DICTIONARYVAR
  5
38E
102
{ACAD_REACTORS
330
357
102
}
330
357
100
DictionaryVariables
280
     0
  1
STANDARD
  0
DICTIONARYVAR
  5
193C
102
{ACAD_REACTORS
330
357
102
}
330
357
100
DictionaryVariables
280
     0
  1
Metric50
  0
DICTIONARYVAR
  5
193D
102
{ACAD_REACTORS
330
357
102
}
330
357
100
DictionaryVariables
280
     0
  1
Metric50
  0
DICTIONARYVAR
  5
359
102
{ACAD_REACTORS
330
357
102
}
330
357
100
DictionaryVariables
280
     0
  1
2
  0
DICTIONARYVAR
  5
358
102
{ACAD_REACTORS
330
357
102
}
330
357
100
DictionaryVariables
280
     0
  1
1
  0
DICTIONARYVAR
  5
1795
102
{ACAD_REACTORS
330
357
102
}
330
357
100
DictionaryVariables
280
     0
  1
0
  0
DICTIONARYVAR
  5
117F
102
{ACAD_REACTORS
330
357
102
}
330
357
100
DictionaryVariables
280
     0
  1
1
  0
DICTIONARYVAR
  5
1180
102
{ACAD_REACTORS
330
357
102
}
330
357
100
DictionaryVariables
280
     0
  1
15
  0
DICTIONARYVAR
  5
44A
102
{ACAD_REACTORS
330
357
102
}
330
357
100
DictionaryVariables
280
     0
  1
0
  0
DICTIONARYVAR
  5
448
102
{ACAD_REACTORS
330
357
102
}
330
357
100
DictionaryVariables
280
     0
  1
0
  0
DICTIONARYVAR
  5
1794
102
{ACAD_REACTORS
330
357
102
}
330
357
100
DictionaryVariables
280
     0
  1
127
  0
DICTIONARYVAR
  5
1BD1
102
{ACAD_REACTORS
330
357
102
}
330
357
100
DictionaryVariables
280
     0
  1
2
  0
XRECORD
  5
69D
102
{ACAD_REACTORS
330
69C
102
}
330
69C
100
AcDbXrecord
280
     1
  0
DICTIONARY
  5
1C10
330
17B7
100
AcDbDictionary
280
     1
281
     1
  3
ACAD_XREC_ROUNDTRIP
360
1C11
  0
DICTIONARY
  5
1BD7
330
33B
100
AcDbDictionary
280
     1
281
     1
  3
ACAD_XREC_ROUNDTRIP
360
1BD8
  0
DICTIONARY
  5
1BD5
330
303
100
AcDbDictionary
280
     1
281
     1
  3
ACAD_XREC_ROUNDTRIP
360
1BD6
  0
DICTIONARY
  5
179F
330
3F0
100
AcDbDictionary
280
     1
281
     1
  3
ACAD_XREC_ROUNDTRIP
360
17A0
  0
DICTIONARY
  5
179D
330
3EF
100
AcDbDictionary
280
     1
281
     1
  3
ACAD_XREC_ROUNDTRIP
360
179E
  0
DICTIONARY
  5
17A1
330
3F1
100
AcDbDictionary
280
     1
281
     1
  3
ACAD_XREC_ROUNDTRIP
360
17A2
  0
DICTIONARY
  5
1C0E
330
17B5
100
AcDbDictionary
280
     1
281
     1
  3
ACAD_XREC_ROUNDTRIP
360
1C0F
  0
DICTIONARY
  5
444
330
389
100
AcDbDictionary
280
     1
281
     1
  3
ACAD_ROUNDTRIP_2008_TABLESTYLE_CELLSTYLEMAP
360
1BD2
  3
ACAD_XREC_ROUNDTRIP
360
1BD9
  0
DICTIONARY
  5
1BE4
330
3F8
100
AcDbDictionary
280
     1
281
     1
  3
ACAD_XREC_ROUNDTRIP
360
1BE5
  0
DICTIONARY
  5
1BE8
330
3FA
100
AcDbDictionary
280
     1
281
     1
  3
ACAD_XREC_ROUNDTRIP
360
1BE9
  0
DICTIONARY
  5
1BE6
330
3F9
100
AcDbDictionary
280
     1
281
     1
  3
ACAD_XREC_ROUNDTRIP
360
1BE7
  0
DICTIONARY
  5
1BE2
330
3F7
100
AcDbDictionary
280
     1
281
     1
  3
ACAD_XREC_ROUNDTRIP
360
1BE3
  0
DICTIONARY
  5
1BF0
330
3FE
100
AcDbDictionary
280
     1
281
     1
  3
ACAD_XREC_ROUNDTRIP
360
1BF1
  0
DICTIONARY
  5
1BF8
330
402
100
AcDbDictionary
280
     1
281
     1
  3
ACAD_XREC_ROUNDTRIP
360
1BF9
  0
DICTIONARY
  5
1BEA
330
3FB
100
AcDbDictionary
280
     1
281
     1
  3
ACAD_XREC_ROUNDTRIP
360
1BEB
  0
DICTIONARY
  5
1BEE
330
3FD
100
AcDbDictionary
280
     1
281
     1
  3
ACAD_XREC_ROUNDTRIP
360
1BEF
  0
DICTIONARY
  5
1C0C
330
17B3
100
AcDbDictionary
280
     1
281
     1
  3
ACAD_XREC_ROUNDTRIP
360
1C0D
  0
DICTIONARY
  5
1BF6
330
401
100
AcDbDictionary
280
     1
281
     1
  3
ACAD_XREC_ROUNDTRIP
360
1BF7
  0
DICTIONARY
  5
1BDA
330
3F3
100
AcDbDictionary
280
     1
281
     1
  3
ACAD_XREC_ROUNDTRIP
360
1BDB
  0
DICTIONARY
  5
1BDC
330
3F4
100
AcDbDictionary
280
     1
281
     1
  3
ACAD_XREC_ROUNDTRIP
360
1BDD
  0
DICTIONARY
  5
1BDE
330
3F5
100
AcDbDictionary
280
     1
281
     1
  3
ACAD_XREC_ROUNDTRIP
360
1BDF
  0
DICTIONARY
  5
1BE0
330
3F6
100
AcDbDictionary
280
     1
281
     1
  3
ACAD_XREC_ROUNDTRIP
360
1BE1
  0
DICTIONARY
  5
1BFC
330
17AB
100
AcDbDictionary
280
     1
281
     1
  3
ACAD_XREC_ROUNDTRIP
360
1BFD
  0
DICTIONARY
  5
1C08
330
17B1
100
AcDbDictionary
280
     1
281
     1
  3
ACAD_XREC_ROUNDTRIP
360
1C09
  0
DICTIONARY
  5
1BF4
330
400
100
AcDbDictionary
280
     1
281
     1
  3
ACAD_XREC_ROUNDTRIP
360
1BF5
  0
DICTIONARY
  5
1C0A
330
17B2
100
AcDbDictionary
280
     1
281
     1
  3
ACAD_XREC_ROUNDTRIP
360
1C0B
  0
DICTIONARY
  5
1BEC
330
3FC
100
AcDbDictionary
280
     1
281
     1
  3
ACAD_XREC_ROUNDTRIP
360
1BED
  0
DICTIONARY
  5
1C06
330
17B0
100
AcDbDictionary
280
     1
281
     1
  3
ACAD_XREC_ROUNDTRIP
360
1C07
  0
DICTIONARY
  5
1C04
330
17AF
100
AcDbDictionary
280
     1
281
     1
  3
ACAD_XREC_ROUNDTRIP
360
1C05
  0
DICTIONARY
  5
1BFE
330
17AC
100
AcDbDictionary
280
     1
281
     1
  3
ACAD_XREC_ROUNDTRIP
360
1BFF
  0
DICTIONARY
  5
1C00
330
17AD
100
AcDbDictionary
280
     1
281
     1
  3
ACAD_XREC_ROUNDTRIP
360
1C01
  0
DICTIONARY
  5
1BF2
330
3FF
100
AcDbDictionary
280
     1
281
     1
  3
ACAD_XREC_ROUNDTRIP
360
1BF3
  0
DICTIONARY
  5
1BFA
330
17AA
100
AcDbDictionary
280
     1
281
     1
  3
ACAD_XREC_ROUNDTRIP
360
1BFB
  0
DICTIONARY
  5
1C02
330
17AE
100
AcDbDictionary
280
     1
281
     1
  3
ACAD_XREC_ROUNDTRIP
360
1C03
  0
XRECORD
  5
1C11
102
{ACAD_REACTORS
330
1C10
102
}
330
1C10
100
AcDbXrecord
280
     1
102
DISPLAYNAME
  1
Metric50
102
FLAGS
 90
        0
  0
XRECORD
  5
1BD8
102
{ACAD_REACTORS
330
1BD7
102
}
330
1BD7
100
AcDbXrecord
280
     1
102
SHADEPLOT
 70
     0
102
SHADEPLOTRESLEVEL
 70
     2
102
SHADEPLOTCUSTOMDPI
 70
   300
  0
XRECORD
  5
1BD6
102
{ACAD_REACTORS
330
1BD5
102
}
330
1BD5
100
AcDbXrecord
280
     1
102
SHADEPLOT
 70
     1
102
SHADEPLOTRESLEVEL
 70
     2
102
SHADEPLOTCUSTOMDPI
 70
   300
  0
XRECORD
  5
17A0
102
{ACAD_REACTORS
330
179F
102
}
330
179F
100
AcDbXrecord
280
     1
102
MATERIAL
148
0.0
149
0.0
149
0.0
 93
        0
 94
      127
282
     0
 72
     1
 77
     1
171
     1
175
     1
179
     1
273
     0
  0
XRECORD
  5
179E
102
{ACAD_REACTORS
330
179D
102
}
330
179D
100
AcDbXrecord
280
     1
102
MATERIAL
148
0.0
149
0.0
149
0.0
 93
        0
 94
      127
282
     0
 72
     1
 77
     1
171
     1
175
     1
179
     1
273
     0
  0
XRECORD
  5
17A2
102
{ACAD_REACTORS
330
17A1
102
}
330
17A1
100
AcDbXrecord
280
     1
102
MATERIAL
148
0.0
149
0.0
149
0.0
 93
        0
 94
      127
282
     0
 72
     1
 77
     1
171
     1
175
     1
179
     1
273
     0
  0
XRECORD
  5
1C0F
102
{ACAD_REACTORS
330
1C0E
102
}
330
1C0E
100
AcDbXrecord
280
     1
102
DISPLAYNAME
  1
Metric50
102
FLAGS
 90
        0
  0
CELLSTYLEMAP
  5
1BD2
102
{ACAD_REACTORS
330
444
102
}
330
444
100
AcDbCellStyleMap
 90
        3
300
CELLSTYLE
  1
TABLEFORMAT_BEGIN
 90
        5
170
     1
 91
        0
 92
    32768
 62
   257
 93
        1
300
CONTENTFORMAT
  1
CONTENTFORMAT_BEGIN
 90
        0
 91
        0
 92
        4
 93
        0
300

 40
0.0
140
1.0
 94
        5
 62
     0
340
10
144
6.0
309
CONTENTFORMAT_END
171
     1
301
MARGIN
  1
CELLMARGIN_BEGIN
 40
1.5
 40
1.5
 40
1.5
 40
1.5
 40
0.18
 40
0.18
309
CELLMARGIN_END
 94
        6
 95
        1
302
GRIDFORMAT
  1
GRIDFORMAT_BEGIN
 90
        0
 91
        1
 62
     0
 92
       -2
340
0
 93
        0
 40
0.045
309
GRIDFORMAT_END
 95
        2
302
GRIDFORMAT
  1
GRIDFORMAT_BEGIN
 90
        0
 91
        1
 62
     0
 92
       -2
340
0
 93
        0
 40
0.045
309
GRIDFORMAT_END
 95
        4
302
GRIDFORMAT
  1
GRIDFORMAT_BEGIN
 90
        0
 91
        1
 62
     0
 92
       -2
340
0
 93
        0
 40
0.045
309
GRIDFORMAT_END
 95
        8
302
GRIDFORMAT
  1
GRIDFORMAT_BEGIN
 90
        0
 91
        1
 62
     0
 92
       -2
340
0
 93
        0
 40
0.045
309
GRIDFORMAT_END
 95
       16
302
GRIDFORMAT
  1
GRIDFORMAT_BEGIN
 90
        0
 91
        1
 62
     0
 92
       -2
340
0
 93
        0
 40
0.045
309
GRIDFORMAT_END
 95
       32
302
GRIDFORMAT
  1
GRIDFORMAT_BEGIN
 90
        0
 91
        1
 62
     0
 92
       -2
340
0
 93
        0
 40
0.045
309
GRIDFORMAT_END
309
TABLEFORMAT_END
  1
CELLSTYLE_BEGIN
 90
        1
 91
        1
300
_TITLE
309
CELLSTYLE_END
300
CELLSTYLE
  1
TABLEFORMAT_BEGIN
 90
        5
170
     1
 91
        0
 92
        0
 62
   257
 93
        1
300
CONTENTFORMAT
  1
CONTENTFORMAT_BEGIN
 90
        0
 91
        0
 92
        4
 93
        0
300

 40
0.0
140
1.0
 94
        5
 62
     0
340
10
144
4.5
309
CONTENTFORMAT_END
171
     1
301
MARGIN
  1
CELLMARGIN_BEGIN
 40
1.5
 40
1.5
 40
1.5
 40
1.5
 40
0.18
 40
0.18
309
CELLMARGIN_END
 94
        6
 95
        1
302
GRIDFORMAT
  1
GRIDFORMAT_BEGIN
 90
        0
 91
        1
 62
     0
 92
       -2
340
0
 93
        0
 40
0.045
309
GRIDFORMAT_END
 95
        2
302
GRIDFORMAT
  1
GRIDFORMAT_BEGIN
 90
        0
 91
        1
 62
     0
 92
       -2
340
0
 93
        0
 40
0.045
309
GRIDFORMAT_END
 95
        4
302
GRIDFORMAT
  1
GRIDFORMAT_BEGIN
 90
        0
 91
        1
 62
     0
 92
       -2
340
0
 93
        0
 40
0.045
309
GRIDFORMAT_END
 95
        8
302
GRIDFORMAT
  1
GRIDFORMAT_BEGIN
 90
        0
 91
        1
 62
     0
 92
       -2
340
0
 93
        0
 40
0.045
309
GRIDFORMAT_END
 95
       16
302
GRIDFORMAT
  1
GRIDFORMAT_BEGIN
 90
        0
 91
        1
 62
     0
 92
       -2
340
0
 93
        0
 40
0.045
309
GRIDFORMAT_END
 95
       32
302
GRIDFORMAT
  1
GRIDFORMAT_BEGIN
 90
        0
 91
        1
 62
     0
 92
       -2
340
0
 93
        0
 40
0.045
309
GRIDFORMAT_END
309
TABLEFORMAT_END
  1
CELLSTYLE_BEGIN
 90
        2
 91
        1
300
_HEADER
309
CELLSTYLE_END
300
CELLSTYLE
  1
TABLEFORMAT_BEGIN
 90
        5
170
     1
 91
        0
 92
        0
 62
   257
 93
        1
300
CONTENTFORMAT
  1
CONTENTFORMAT_BEGIN
 90
        0
 91
        0
 92
        4
 93
        0
300

 40
0.0
140
1.0
 94
        2
 62
     0
340
10
144
4.5
309
CONTENTFORMAT_END
171
     1
301
MARGIN
  1
CELLMARGIN_BEGIN
 40
1.5
 40
1.5
 40
1.5
 40
1.5
 40
0.18
 40
0.18
309
CELLMARGIN_END
 94
        6
 95
        1
302
GRIDFORMAT
  1
GRIDFORMAT_BEGIN
 90
        0
 91
        1
 62
     0
 92
       -2
340
0
 93
        0
 40
0.045
309
GRIDFORMAT_END
 95
        2
302
GRIDFORMAT
  1
GRIDFORMAT_BEGIN
 90
        0
 91
        1
 62
     0
 92
       -2
340
0
 93
        0
 40
0.045
309
GRIDFORMAT_END
 95
        4
302
GRIDFORMAT
  1
GRIDFORMAT_BEGIN
 90
        0
 91
        1
 62
     0
 92
       -2
340
0
 93
        0
 40
0.045
309
GRIDFORMAT_END
 95
        8
302
GRIDFORMAT
  1
GRIDFORMAT_BEGIN
 90
        0
 91
        1
 62
     0
 92
       -2
340
0
 93
        0
 40
0.045
309
GRIDFORMAT_END
 95
       16
302
GRIDFORMAT
  1
GRIDFORMAT_BEGIN
 90
        0
 91
        1
 62
     0
 92
       -2
340
0
 93
        0
 40
0.045
309
GRIDFORMAT_END
 95
       32
302
GRIDFORMAT
  1
GRIDFORMAT_BEGIN
 90
        0
 91
        1
 62
     0
 92
       -2
340
0
 93
        0
 40
0.045
309
GRIDFORMAT_END
309
TABLEFORMAT_END
  1
CELLSTYLE_BEGIN
 90
        3
 91
        2
300
_DATA
309
CELLSTYLE_END
  0
XRECORD
  5
1BD9
102
{ACAD_REACTORS
330
444
102
}
330
444
100
AcDbXrecord
280
     1
102
ACAD_ROUNDTRIP_PRE2007_TABLESTYLE
 90
        4
 91
        0
  1

 92
        4
 93
        0
  2

 94
        4
 95
        0
  3

  0
XRECORD
  5
1BE5
102
{ACAD_REACTORS
330
1BE4
102
}
330
1BE4
100
AcDbXrecord
280
     1
102
RTVSPost2010Prop28
280
     1
102
RTVSPost2010PropOp28
 70
     1
102
RTVSPost2010Prop29
280
     1
102
RTVSPost2010PropOp29
 70
     1
102
RTVSPost2010Prop30
280
     0
102
RTVSPost2010PropOp30
 70
     1
102
RTVSPost2010Prop31
280
     0
102
RTVSPost2010PropOp31
 70
     1
102
RTVSPost2010Prop32
280
     0
102
RTVSPost2010PropOp32
 70
     1
102
RTVSPost2010Prop33
280
     0
102
RTVSPost2010PropOp33
 70
     1
102
RTVSPost2010Prop34
280
     0
102
RTVSPost2010PropOp34
 70
     1
102
RTVSPost2010Prop35
280
     0
102
RTVSPost2010PropOp35
 70
     1
102
RTVSPost2010Prop36
280
     0
102
RTVSPost2010PropOp36
 70
     1
102
RTVSPost2010Prop37
 90
       50
102
RTVSPost2010PropOp37
 70
     1
102
RTVSPost2010Prop38
140
0.0
102
RTVSPost2010PropOp38
 70
     1
102
RTVSPost2010Prop39
140
1.0
102
RTVSPost2010PropOp39
 70
     1
102
RTVSPost2010Prop40
 90
        0
102
RTVSPost2010PropOp40
 70
     1
102
RTVSPost2010Prop41ColorIndex
 90
       18
102
RTVSPost2010Prop41ColorRGB
 90
        0
102
RTVSPost2010PropOp41
 70
     1
102
RTVSPost2010Prop42
 90
       50
102
RTVSPost2010PropOp42
 70
     1
102
RTVSPost2010Prop43
 90
        3
102
RTVSPost2010PropOp43
 70
     1
102
RTVSPost2010Prop44ColorIndex
 90
        5
102
RTVSPost2010Prop44ColorRGB
 90
      255
102
RTVSPost2010PropOp44
 70
     1
102
RTVSPost2010Prop45
280
     0
102
RTVSPost2010PropOp45
 70
     1
102
RTVSPost2010Prop46
 90
       50
102
RTVSPost2010PropOp46
 70
     1
102
RTVSPost2010Prop47
 90
       50
102
RTVSPost2010PropOp47
 70
     1
102
RTVSPost2010Prop48
 90
       50
102
RTVSPost2010PropOp48
 70
     1
102
RTVSPost2010Prop49
280
     0
102
RTVSPost2010PropOp49
 70
     1
102
RTVSPost2010Prop50
 90
       50
102
RTVSPost2010PropOp50
 70
     1
102
RTVSPost2010Prop51ColorIndex
 90
      256
102
RTVSPost2010Prop51ColorRGB
 90
-16777216
102
RTVSPost2010PropOp51
 70
     0
102
RTVSPost2010Prop52
140
1.0
102
RTVSPost2010PropOp52
 70
     0
102
RTVSPost2010Prop53
 90
        2
102
RTVSPost2010PropOp53
 70
     1
102
RTVSPost2010Prop54
  1
strokes_ogs.tif
102
RTVSPost2010PropOp54
 70
     1
102
RTVSPost2010Prop55
280
     0
102
RTVSPost2010PropOp55
 70
     1
102
RTVSPost2010Prop56
140
1.0
102
RTVSPost2010PropOp56
 70
     1
102
RTVSPost2010Prop57
140
1.0
102
RTVSPost2010PropOp57
 70
     1
102
RTVSPropertyOp0
 70
     1
102
RTVSPropertyOp1
 70
     1
102
RTVSPropertyOp2
 70
     1
102
RTVSPropertyOp3
 70
     1
102
RTVSPropertyOp4
 70
     1
102
RTVSPropertyOp5
 70
     1
102
RTVSPropertyOp6
 70
     1
102
RTVSPropertyOp7
 70
     1
102
RTVSPropertyOp8
 70
     1
102
RTVSPropertyOp9
 70
     1
102
RTVSPropertyOp10
 70
     1
102
RTVSPropertyOp11
 70
     1
102
RTVSPropertyOp12
 70
     1
102
RTVSPropertyOp13
 70
     1
102
RTVSPropertyOp14
 70
     1
102
RTVSPropertyOp15
 70
     1
102
RTVSPropertyOp16
 70
     1
102
RTVSPropertyOp17
 70
     1
102
RTVSPropertyOp18
 70
     1
102
RTVSPropertyOp19
 70
     1
102
RTVSPropertyOp20
 70
     1
102
RTVSPropertyOp21
 70
     1
102
RTVSPropertyOp22
 70
     1
102
RTVSPropertyOp23
 70
     1
102
RTVSPropertyOp24
 70
     1
102
RTVSPropertyOp25
 70
     1
102
RTVSPropertyOp26
 70
     1
102
RTVSPropertyOp27
 70
     1
102
RTVSPropertyOp28
 70
     1
102
RTVSPropertyOp29
 70
     1
102
RTVSPropertyOp30
 70
     1
102
RTVSPropertyOp31
 70
     1
102
RTVSPropertyOp32
 70
     1
102
RTVSPropertyOp33
 70
     1
102
RTVSPropertyOp34
 70
     1
102
RTVSPropertyOp35
 70
     1
102
RTVSPropertyOp36
 70
     1
102
RTVSPropertyOp37
 70
     1
102
RTVSPropertyOp38
 70
     1
102
RTVSPropertyOp39
 70
     1
102
RTVSPropertyOp40
 70
     1
102
RTVSPropertyOp41
 70
     1
102
RTVSPropertyOp42
 70
     1
102
RTVSPropertyOp43
 70
     1
102
RTVSPropertyOp44
 70
     1
102
RTVSPropertyOp45
 70
     1
102
RTVSPropertyOp46
 70
     1
102
RTVSPropertyOp47
 70
     1
102
RTVSPropertyOp48
 70
     1
102
RTVSPropertyOp49
 70
     1
102
RTVSPropertyOp50
 70
     1
102
RTVSPropertyOp51
 70
     0
102
RTVSPropertyOp52
 70
     0
102
RTVSPropertyOp53
 70
     1
102
RTVSPropertyOp54
 70
     1
102
RTVSPropertyOp55
 70
     1
102
RTVSPropertyOp56
 70
     1
102
RTVSPropertyOp57
 70
     1
102
RTVSPropertyOp58
 70
     1
102
RTVSPropertyOp59
 70
     1
102
RTVSPropertyOp60
 70
     1
102
RTVSPropertyOp61
 70
     1
102
RTVSPropertyOp62
 70
     1
  0
XRECORD
  5
1BE9
102
{ACAD_REACTORS
330
1BE8
102
}
330
1BE8
100
AcDbXrecord
280
     1
102
RTVSPost2010Prop28
280
     0
102
RTVSPost2010PropOp28
 70
     1
102
RTVSPost2010Prop29
280
     1
102
RTVSPost2010PropOp29
 70
     1
102
RTVSPost2010Prop30
280
     1
102
RTVSPost2010PropOp30
 70
     1
102
RTVSPost2010Prop31
280
     0
102
RTVSPost2010PropOp31
 70
     1
102
RTVSPost2010Prop32
280
     0
102
RTVSPost2010PropOp32
 70
     1
102
RTVSPost2010Prop33
280
     0
102
RTVSPost2010PropOp33
 70
     1
102
RTVSPost2010Prop34
280
     0
102
RTVSPost2010PropOp34
 70
     1
102
RTVSPost2010Prop35
280
     0
102
RTVSPost2010PropOp35
 70
     1
102
RTVSPost2010Prop36
280
     0
102
RTVSPost2010PropOp36
 70
     1
102
RTVSPost2010Prop37
 90
       50
102
RTVSPost2010PropOp37
 70
     1
102
RTVSPost2010Prop38
140
0.0
102
RTVSPost2010PropOp38
 70
     1
102
RTVSPost2010Prop39
140
1.0
102
RTVSPost2010PropOp39
 70
     1
102
RTVSPost2010Prop40
 90
        0
102
RTVSPost2010PropOp40
 70
     1
102
RTVSPost2010Prop41ColorIndex
 90
       18
102
RTVSPost2010Prop41ColorRGB
 90
        0
102
RTVSPost2010PropOp41
 70
     1
102
RTVSPost2010Prop42
 90
       50
102
RTVSPost2010PropOp42
 70
     1
102
RTVSPost2010Prop43
 90
        3
102
RTVSPost2010PropOp43
 70
     1
102
RTVSPost2010Prop44ColorIndex
 90
        5
102
RTVSPost2010Prop44ColorRGB
 90
      255
102
RTVSPost2010PropOp44
 70
     1
102
RTVSPost2010Prop45
280
     0
102
RTVSPost2010PropOp45
 70
     1
102
RTVSPost2010Prop46
 90
       50
102
RTVSPost2010PropOp46
 70
     1
102
RTVSPost2010Prop47
 90
       50
102
RTVSPost2010PropOp47
 70
     1
102
RTVSPost2010Prop48
 90
       50
102
RTVSPost2010PropOp48
 70
     1
102
RTVSPost2010Prop49
280
     0
102
RTVSPost2010PropOp49
 70
     1
102
RTVSPost2010Prop50
 90
       50
102
RTVSPost2010PropOp50
 70
     1
102
RTVSPost2010Prop51ColorIndex
 90
      256
102
RTVSPost2010Prop51ColorRGB
 90
-16777216
102
RTVSPost2010PropOp51
 70
     0
102
RTVSPost2010Prop52
140
1.0
102
RTVSPost2010PropOp52
 70
     0
102
RTVSPost2010Prop53
 90
        2
102
RTVSPost2010PropOp53
 70
     1
102
RTVSPost2010Prop54
  1
strokes_ogs.tif
102
RTVSPost2010PropOp54
 70
     1
102
RTVSPost2010Prop55
280
     0
102
RTVSPost2010PropOp55
 70
     1
102
RTVSPost2010Prop56
140
1.0
102
RTVSPost2010PropOp56
 70
     1
102
RTVSPost2010Prop57
140
1.0
102
RTVSPost2010PropOp57
 70
     1
102
RTVSPropertyOp0
 70
     1
102
RTVSPropertyOp1
 70
     1
102
RTVSPropertyOp2
 70
     1
102
RTVSPropertyOp3
 70
     1
102
RTVSPropertyOp4
 70
     1
102
RTVSPropertyOp5
 70
     1
102
RTVSPropertyOp6
 70
     1
102
RTVSPropertyOp7
 70
     1
102
RTVSPropertyOp8
 70
     1
102
RTVSPropertyOp9
 70
     1
102
RTVSPropertyOp10
 70
     1
102
RTVSPropertyOp11
 70
     1
102
RTVSPropertyOp12
 70
     1
102
RTVSPropertyOp13
 70
     1
102
RTVSPropertyOp14
 70
     1
102
RTVSPropertyOp15
 70
     1
102
RTVSPropertyOp16
 70
     1
102
RTVSPropertyOp17
 70
     1
102
RTVSPropertyOp18
 70
     1
102
RTVSPropertyOp19
 70
     1
102
RTVSPropertyOp20
 70
     1
102
RTVSPropertyOp21
 70
     1
102
RTVSPropertyOp22
 70
     1
102
RTVSPropertyOp23
 70
     1
102
RTVSPropertyOp24
 70
     1
102
RTVSPropertyOp25
 70
     1
102
RTVSPropertyOp26
 70
     1
102
RTVSPropertyOp27
 70
     1
102
RTVSPropertyOp28
 70
     1
102
RTVSPropertyOp29
 70
     1
102
RTVSPropertyOp30
 70
     1
102
RTVSPropertyOp31
 70
     1
102
RTVSPropertyOp32
 70
     1
102
RTVSPropertyOp33
 70
     1
102
RTVSPropertyOp34
 70
     1
102
RTVSPropertyOp35
 70
     1
102
RTVSPropertyOp36
 70
     1
102
RTVSPropertyOp37
 70
     1
102
RTVSPropertyOp38
 70
     1
102
RTVSPropertyOp39
 70
     1
102
RTVSPropertyOp40
 70
     1
102
RTVSPropertyOp41
 70
     1
102
RTVSPropertyOp42
 70
     1
102
RTVSPropertyOp43
 70
     1
102
RTVSPropertyOp44
 70
     1
102
RTVSPropertyOp45
 70
     1
102
RTVSPropertyOp46
 70
     1
102
RTVSPropertyOp47
 70
     1
102
RTVSPropertyOp48
 70
     1
102
RTVSPropertyOp49
 70
     1
102
RTVSPropertyOp50
 70
     1
102
RTVSPropertyOp51
 70
     0
102
RTVSPropertyOp52
 70
     0
102
RTVSPropertyOp53
 70
     1
102
RTVSPropertyOp54
 70
     1
102
RTVSPropertyOp55
 70
     1
102
RTVSPropertyOp56
 70
     1
102
RTVSPropertyOp57
 70
     1
102
RTVSPropertyOp58
 70
     1
102
RTVSPropertyOp59
 70
     1
102
RTVSPropertyOp60
 70
     1
102
RTVSPropertyOp61
 70
     1
102
RTVSPropertyOp62
 70
     1
  0
XRECORD
  5
1BE7
102
{ACAD_REACTORS
330
1BE6
102
}
330
1BE6
100
AcDbXrecord
280
     1
102
RTVSPost2010Prop28
280
     0
102
RTVSPost2010PropOp28
 70
     1
102
RTVSPost2010Prop29
280
     1
102
RTVSPost2010PropOp29
 70
     1
102
RTVSPost2010Prop30
280
     1
102
RTVSPost2010PropOp30
 70
     1
102
RTVSPost2010Prop31
280
     0
102
RTVSPost2010PropOp31
 70
     1
102
RTVSPost2010Prop32
280
     0
102
RTVSPost2010PropOp32
 70
     1
102
RTVSPost2010Prop33
280
     0
102
RTVSPost2010PropOp33
 70
     1
102
RTVSPost2010Prop34
280
     0
102
RTVSPost2010PropOp34
 70
     1
102
RTVSPost2010Prop35
280
     0
102
RTVSPost2010PropOp35
 70
     1
102
RTVSPost2010Prop36
280
     0
102
RTVSPost2010PropOp36
 70
     1
102
RTVSPost2010Prop37
 90
       50
102
RTVSPost2010PropOp37
 70
     1
102
RTVSPost2010Prop38
140
0.0
102
RTVSPost2010PropOp38
 70
     1
102
RTVSPost2010Prop39
140
1.0
102
RTVSPost2010PropOp39
 70
     1
102
RTVSPost2010Prop40
 90
        0
102
RTVSPost2010PropOp40
 70
     1
102
RTVSPost2010Prop41ColorIndex
 90
       18
102
RTVSPost2010Prop41ColorRGB
 90
        0
102
RTVSPost2010PropOp41
 70
     1
102
RTVSPost2010Prop42
 90
       50
102
RTVSPost2010PropOp42
 70
     1
102
RTVSPost2010Prop43
 90
        3
102
RTVSPost2010PropOp43
 70
     1
102
RTVSPost2010Prop44ColorIndex
 90
        5
102
RTVSPost2010Prop44ColorRGB
 90
      255
102
RTVSPost2010PropOp44
 70
     1
102
RTVSPost2010Prop45
280
     0
102
RTVSPost2010PropOp45
 70
     1
102
RTVSPost2010Prop46
 90
       50
102
RTVSPost2010PropOp46
 70
     1
102
RTVSPost2010Prop47
 90
       50
102
RTVSPost2010PropOp47
 70
     1
102
RTVSPost2010Prop48
 90
       50
102
RTVSPost2010PropOp48
 70
     1
102
RTVSPost2010Prop49
280
     0
102
RTVSPost2010PropOp49
 70
     1
102
RTVSPost2010Prop50
 90
       50
102
RTVSPost2010PropOp50
 70
     1
102
RTVSPost2010Prop51ColorIndex
 90
      256
102
RTVSPost2010Prop51ColorRGB
 90
-16777216
102
RTVSPost2010PropOp51
 70
     0
102
RTVSPost2010Prop52
140
1.0
102
RTVSPost2010PropOp52
 70
     0
102
RTVSPost2010Prop53
 90
        2
102
RTVSPost2010PropOp53
 70
     1
102
RTVSPost2010Prop54
  1
strokes_ogs.tif
102
RTVSPost2010PropOp54
 70
     1
102
RTVSPost2010Prop55
280
     0
102
RTVSPost2010PropOp55
 70
     1
102
RTVSPost2010Prop56
140
1.0
102
RTVSPost2010PropOp56
 70
     1
102
RTVSPost2010Prop57
140
1.0
102
RTVSPost2010PropOp57
 70
     1
102
RTVSPropertyOp0
 70
     1
102
RTVSPropertyOp1
 70
     1
102
RTVSPropertyOp2
 70
     1
102
RTVSPropertyOp3
 70
     1
102
RTVSPropertyOp4
 70
     1
102
RTVSPropertyOp5
 70
     1
102
RTVSPropertyOp6
 70
     1
102
RTVSPropertyOp7
 70
     1
102
RTVSPropertyOp8
 70
     1
102
RTVSPropertyOp9
 70
     1
102
RTVSPropertyOp10
 70
     1
102
RTVSPropertyOp11
 70
     1
102
RTVSPropertyOp12
 70
     1
102
RTVSPropertyOp13
 70
     1
102
RTVSPropertyOp14
 70
     1
102
RTVSPropertyOp15
 70
     1
102
RTVSPropertyOp16
 70
     1
102
RTVSPropertyOp17
 70
     1
102
RTVSPropertyOp18
 70
     1
102
RTVSPropertyOp19
 70
     1
102
RTVSPropertyOp20
 70
     1
102
RTVSPropertyOp21
 70
     1
102
RTVSPropertyOp22
 70
     1
102
RTVSPropertyOp23
 70
     1
102
RTVSPropertyOp24
 70
     1
102
RTVSPropertyOp25
 70
     1
102
RTVSPropertyOp26
 70
     1
102
RTVSPropertyOp27
 70
     1
102
RTVSPropertyOp28
 70
     1
102
RTVSPropertyOp29
 70
     1
102
RTVSPropertyOp30
 70
     1
102
RTVSPropertyOp31
 70
     1
102
RTVSPropertyOp32
 70
     1
102
RTVSPropertyOp33
 70
     1
102
RTVSPropertyOp34
 70
     1
102
RTVSPropertyOp35
 70
     1
102
RTVSPropertyOp36
 70
     1
102
RTVSPropertyOp37
 70
     1
102
RTVSPropertyOp38
 70
     1
102
RTVSPropertyOp39
 70
     1
102
RTVSPropertyOp40
 70
     1
102
RTVSPropertyOp41
 70
     1
102
RTVSPropertyOp42
 70
     1
102
RTVSPropertyOp43
 70
     1
102
RTVSPropertyOp44
 70
     1
102
RTVSPropertyOp45
 70
     1
102
RTVSPropertyOp46
 70
     1
102
RTVSPropertyOp47
 70
     1
102
RTVSPropertyOp48
 70
     1
102
RTVSPropertyOp49
 70
     1
102
RTVSPropertyOp50
 70
     1
102
RTVSPropertyOp51
 70
     0
102
RTVSPropertyOp52
 70
     0
102
RTVSPropertyOp53
 70
     1
102
RTVSPropertyOp54
 70
     1
102
RTVSPropertyOp55
 70
     1
102
RTVSPropertyOp56
 70
     1
102
RTVSPropertyOp57
 70
     1
102
RTVSPropertyOp58
 70
     1
102
RTVSPropertyOp59
 70
     1
102
RTVSPropertyOp60
 70
     1
102
RTVSPropertyOp61
 70
     1
102
RTVSPropertyOp62
 70
     1
  0
XRECORD
  5
1BE3
102
{ACAD_REACTORS
330
1BE2
102
}
330
1BE2
100
AcDbXrecord
280
     1
102
RTVSPost2010Prop28
280
     0
102
RTVSPost2010PropOp28
 70
     1
102
RTVSPost2010Prop29
280
     1
102
RTVSPost2010PropOp29
 70
     1
102
RTVSPost2010Prop30
280
     1
102
RTVSPost2010PropOp30
 70
     1
102
RTVSPost2010Prop31
280
     0
102
RTVSPost2010PropOp31
 70
     1
102
RTVSPost2010Prop32
280
     0
102
RTVSPost2010PropOp32
 70
     1
102
RTVSPost2010Prop33
280
     0
102
RTVSPost2010PropOp33
 70
     1
102
RTVSPost2010Prop34
280
     0
102
RTVSPost2010PropOp34
 70
     1
102
RTVSPost2010Prop35
280
     0
102
RTVSPost2010PropOp35
 70
     1
102
RTVSPost2010Prop36
280
     0
102
RTVSPost2010PropOp36
 70
     1
102
RTVSPost2010Prop37
 90
       50
102
RTVSPost2010PropOp37
 70
     1
102
RTVSPost2010Prop38
140
0.0
102
RTVSPost2010PropOp38
 70
     1
102
RTVSPost2010Prop39
140
1.0
102
RTVSPost2010PropOp39
 70
     1
102
RTVSPost2010Prop40
 90
        0
102
RTVSPost2010PropOp40
 70
     1
102
RTVSPost2010Prop41ColorIndex
 90
       18
102
RTVSPost2010Prop41ColorRGB
 90
        0
102
RTVSPost2010PropOp41
 70
     1
102
RTVSPost2010Prop42
 90
       50
102
RTVSPost2010PropOp42
 70
     1
102
RTVSPost2010Prop43
 90
        3
102
RTVSPost2010PropOp43
 70
     1
102
RTVSPost2010Prop44ColorIndex
 90
        5
102
RTVSPost2010Prop44ColorRGB
 90
      255
102
RTVSPost2010PropOp44
 70
     1
102
RTVSPost2010Prop45
280
     0
102
RTVSPost2010PropOp45
 70
     1
102
RTVSPost2010Prop46
 90
       50
102
RTVSPost2010PropOp46
 70
     1
102
RTVSPost2010Prop47
 90
       50
102
RTVSPost2010PropOp47
 70
     1
102
RTVSPost2010Prop48
 90
       50
102
RTVSPost2010PropOp48
 70
     1
102
RTVSPost2010Prop49
280
     0
102
RTVSPost2010PropOp49
 70
     1
102
RTVSPost2010Prop50
 90
       50
102
RTVSPost2010PropOp50
 70
     1
102
RTVSPost2010Prop51ColorIndex
 90
      256
102
RTVSPost2010Prop51ColorRGB
 90
-16777216
102
RTVSPost2010PropOp51
 70
     0
102
RTVSPost2010Prop52
140
1.0
102
RTVSPost2010PropOp52
 70
     0
102
RTVSPost2010Prop53
 90
        2
102
RTVSPost2010PropOp53
 70
     1
102
RTVSPost2010Prop54
  1
strokes_ogs.tif
102
RTVSPost2010PropOp54
 70
     1
102
RTVSPost2010Prop55
280
     0
102
RTVSPost2010PropOp55
 70
     1
102
RTVSPost2010Prop56
140
1.0
102
RTVSPost2010PropOp56
 70
     1
102
RTVSPost2010Prop57
140
1.0
102
RTVSPost2010PropOp57
 70
     1
102
RTVSPropertyOp0
 70
     1
102
RTVSPropertyOp1
 70
     1
102
RTVSPropertyOp2
 70
     1
102
RTVSPropertyOp3
 70
     1
102
RTVSPropertyOp4
 70
     1
102
RTVSPropertyOp5
 70
     1
102
RTVSPropertyOp6
 70
     1
102
RTVSPropertyOp7
 70
     1
102
RTVSPropertyOp8
 70
     1
102
RTVSPropertyOp9
 70
     1
102
RTVSPropertyOp10
 70
     1
102
RTVSPropertyOp11
 70
     1
102
RTVSPropertyOp12
 70
     1
102
RTVSPropertyOp13
 70
     1
102
RTVSPropertyOp14
 70
     1
102
RTVSPropertyOp15
 70
     1
102
RTVSPropertyOp16
 70
     1
102
RTVSPropertyOp17
 70
     1
102
RTVSPropertyOp18
 70
     1
102
RTVSPropertyOp19
 70
     1
102
RTVSPropertyOp20
 70
     1
102
RTVSPropertyOp21
 70
     1
102
RTVSPropertyOp22
 70
     1
102
RTVSPropertyOp23
 70
     1
102
RTVSPropertyOp24
 70
     1
102
RTVSPropertyOp25
 70
     1
102
RTVSPropertyOp26
 70
     1
102
RTVSPropertyOp27
 70
     1
102
RTVSPropertyOp28
 70
     1
102
RTVSPropertyOp29
 70
     1
102
RTVSPropertyOp30
 70
     1
102
RTVSPropertyOp31
 70
     1
102
RTVSPropertyOp32
 70
     1
102
RTVSPropertyOp33
 70
     1
102
RTVSPropertyOp34
 70
     1
102
RTVSPropertyOp35
 70
     1
102
RTVSPropertyOp36
 70
     1
102
RTVSPropertyOp37
 70
     1
102
RTVSPropertyOp38
 70
     1
102
RTVSPropertyOp39
 70
     1
102
RTVSPropertyOp40
 70
     1
102
RTVSPropertyOp41
 70
     1
102
RTVSPropertyOp42
 70
     1
102
RTVSPropertyOp43
 70
     1
102
RTVSPropertyOp44
 70
     1
102
RTVSPropertyOp45
 70
     1
102
RTVSPropertyOp46
 70
     1
102
RTVSPropertyOp47
 70
     1
102
RTVSPropertyOp48
 70
     1
102
RTVSPropertyOp49
 70
     1
102
RTVSPropertyOp50
 70
     1
102
RTVSPropertyOp51
 70
     0
102
RTVSPropertyOp52
 70
     0
102
RTVSPropertyOp53
 70
     1
102
RTVSPropertyOp54
 70
     1
102
RTVSPropertyOp55
 70
     1
102
RTVSPropertyOp56
 70
     1
102
RTVSPropertyOp57
 70
     1
102
RTVSPropertyOp58
 70
     1
102
RTVSPropertyOp59
 70
     1
102
RTVSPropertyOp60
 70
     1
102
RTVSPropertyOp61
 70
     1
102
RTVSPropertyOp62
 70
     1
  0
XRECORD
  5
1BF1
102
{ACAD_REACTORS
330
1BF0
102
}
330
1BF0
100
AcDbXrecord
280
     1
102
RTVSPost2010Prop28
280
     0
102
RTVSPost2010PropOp28
 70
     1
102
RTVSPost2010Prop29
280
     1
102
RTVSPost2010PropOp29
 70
     1
102
RTVSPost2010Prop30
280
     1
102
RTVSPost2010PropOp30
 70
     1
102
RTVSPost2010Prop31
280
     0
102
RTVSPost2010PropOp31
 70
     1
102
RTVSPost2010Prop32
280
     0
102
RTVSPost2010PropOp32
 70
     1
102
RTVSPost2010Prop33
280
     0
102
RTVSPost2010PropOp33
 70
     1
102
RTVSPost2010Prop34
280
     0
102
RTVSPost2010PropOp34
 70
     1
102
RTVSPost2010Prop35
280
     0
102
RTVSPost2010PropOp35
 70
     1
102
RTVSPost2010Prop36
280
     0
102
RTVSPost2010PropOp36
 70
     1
102
RTVSPost2010Prop37
 90
       50
102
RTVSPost2010PropOp37
 70
     1
102
RTVSPost2010Prop38
140
0.0
102
RTVSPost2010PropOp38
 70
     1
102
RTVSPost2010Prop39
140
1.0
102
RTVSPost2010PropOp39
 70
     1
102
RTVSPost2010Prop40
 90
        0
102
RTVSPost2010PropOp40
 70
     1
102
RTVSPost2010Prop41ColorIndex
 90
       18
102
RTVSPost2010Prop41ColorRGB
 90
        0
102
RTVSPost2010PropOp41
 70
     1
102
RTVSPost2010Prop42
 90
       50
102
RTVSPost2010PropOp42
 70
     1
102
RTVSPost2010Prop43
 90
        3
102
RTVSPost2010PropOp43
 70
     1
102
RTVSPost2010Prop44ColorIndex
 90
        5
102
RTVSPost2010Prop44ColorRGB
 90
      255
102
RTVSPost2010PropOp44
 70
     1
102
RTVSPost2010Prop45
280
     0
102
RTVSPost2010PropOp45
 70
     1
102
RTVSPost2010Prop46
 90
       50
102
RTVSPost2010PropOp46
 70
     1
102
RTVSPost2010Prop47
 90
       50
102
RTVSPost2010PropOp47
 70
     1
102
RTVSPost2010Prop48
 90
       50
102
RTVSPost2010PropOp48
 70
     1
102
RTVSPost2010Prop49
280
     0
102
RTVSPost2010PropOp49
 70
     1
102
RTVSPost2010Prop50
 90
       50
102
RTVSPost2010PropOp50
 70
     1
102
RTVSPost2010Prop51ColorIndex
 90
      256
102
RTVSPost2010Prop51ColorRGB
 90
-16777216
102
RTVSPost2010PropOp51
 70
     0
102
RTVSPost2010Prop52
140
1.0
102
RTVSPost2010PropOp52
 70
     0
102
RTVSPost2010Prop53
 90
        2
102
RTVSPost2010PropOp53
 70
     1
102
RTVSPost2010Prop54
  1
strokes_ogs.tif
102
RTVSPost2010PropOp54
 70
     1
102
RTVSPost2010Prop55
280
     0
102
RTVSPost2010PropOp55
 70
     1
102
RTVSPost2010Prop56
140
1.0
102
RTVSPost2010PropOp56
 70
     1
102
RTVSPost2010Prop57
140
1.0
102
RTVSPost2010PropOp57
 70
     1
102
RTVSPropertyOp0
 70
     1
102
RTVSPropertyOp1
 70
     1
102
RTVSPropertyOp2
 70
     1
102
RTVSPropertyOp3
 70
     1
102
RTVSPropertyOp4
 70
     1
102
RTVSPropertyOp5
 70
     1
102
RTVSPropertyOp6
 70
     1
102
RTVSPropertyOp7
 70
     1
102
RTVSPropertyOp8
 70
     1
102
RTVSPropertyOp9
 70
     1
102
RTVSPropertyOp10
 70
     1
102
RTVSPropertyOp11
 70
     1
102
RTVSPropertyOp12
 70
     1
102
RTVSPropertyOp13
 70
     1
102
RTVSPropertyOp14
 70
     1
102
RTVSPropertyOp15
 70
     1
102
RTVSPropertyOp16
 70
     1
102
RTVSPropertyOp17
 70
     1
102
RTVSPropertyOp18
 70
     1
102
RTVSPropertyOp19
 70
     1
102
RTVSPropertyOp20
 70
     1
102
RTVSPropertyOp21
 70
     1
102
RTVSPropertyOp22
 70
     1
102
RTVSPropertyOp23
 70
     1
102
RTVSPropertyOp24
 70
     1
102
RTVSPropertyOp25
 70
     1
102
RTVSPropertyOp26
 70
     1
102
RTVSPropertyOp27
 70
     1
102
RTVSPropertyOp28
 70
     1
102
RTVSPropertyOp29
 70
     1
102
RTVSPropertyOp30
 70
     1
102
RTVSPropertyOp31
 70
     1
102
RTVSPropertyOp32
 70
     1
102
RTVSPropertyOp33
 70
     1
102
RTVSPropertyOp34
 70
     1
102
RTVSPropertyOp35
 70
     1
102
RTVSPropertyOp36
 70
     1
102
RTVSPropertyOp37
 70
     1
102
RTVSPropertyOp38
 70
     1
102
RTVSPropertyOp39
 70
     1
102
RTVSPropertyOp40
 70
     1
102
RTVSPropertyOp41
 70
     1
102
RTVSPropertyOp42
 70
     1
102
RTVSPropertyOp43
 70
     1
102
RTVSPropertyOp44
 70
     1
102
RTVSPropertyOp45
 70
     1
102
RTVSPropertyOp46
 70
     1
102
RTVSPropertyOp47
 70
     1
102
RTVSPropertyOp48
 70
     1
102
RTVSPropertyOp49
 70
     1
102
RTVSPropertyOp50
 70
     1
102
RTVSPropertyOp51
 70
     0
102
RTVSPropertyOp52
 70
     0
102
RTVSPropertyOp53
 70
     1
102
RTVSPropertyOp54
 70
     1
102
RTVSPropertyOp55
 70
     1
102
RTVSPropertyOp56
 70
     1
102
RTVSPropertyOp57
 70
     1
102
RTVSPropertyOp58
 70
     1
102
RTVSPropertyOp59
 70
     1
102
RTVSPropertyOp60
 70
     1
102
RTVSPropertyOp61
 70
     1
102
RTVSPropertyOp62
 70
     1
  0
XRECORD
  5
1BF9
102
{ACAD_REACTORS
330
1BF8
102
}
330
1BF8
100
AcDbXrecord
280
     1
102
RTVSPost2010Prop28
280
     0
102
RTVSPost2010PropOp28
 70
     1
102
RTVSPost2010Prop29
280
     1
102
RTVSPost2010PropOp29
 70
     1
102
RTVSPost2010Prop30
280
     1
102
RTVSPost2010PropOp30
 70
     1
102
RTVSPost2010Prop31
280
     0
102
RTVSPost2010PropOp31
 70
     1
102
RTVSPost2010Prop32
280
     0
102
RTVSPost2010PropOp32
 70
     1
102
RTVSPost2010Prop33
280
     0
102
RTVSPost2010PropOp33
 70
     1
102
RTVSPost2010Prop34
280
     0
102
RTVSPost2010PropOp34
 70
     1
102
RTVSPost2010Prop35
280
     0
102
RTVSPost2010PropOp35
 70
     1
102
RTVSPost2010Prop36
280
     0
102
RTVSPost2010PropOp36
 70
     1
102
RTVSPost2010Prop37
 90
       50
102
RTVSPost2010PropOp37
 70
     1
102
RTVSPost2010Prop38
140
0.0
102
RTVSPost2010PropOp38
 70
     1
102
RTVSPost2010Prop39
140
1.0
102
RTVSPost2010PropOp39
 70
     1
102
RTVSPost2010Prop40
 90
        0
102
RTVSPost2010PropOp40
 70
     1
102
RTVSPost2010Prop41ColorIndex
 90
       18
102
RTVSPost2010Prop41ColorRGB
 90
        0
102
RTVSPost2010PropOp41
 70
     1
102
RTVSPost2010Prop42
 90
       50
102
RTVSPost2010PropOp42
 70
     1
102
RTVSPost2010Prop43
 90
        3
102
RTVSPost2010PropOp43
 70
     1
102
RTVSPost2010Prop44ColorIndex
 90
        5
102
RTVSPost2010Prop44ColorRGB
 90
      255
102
RTVSPost2010PropOp44
 70
     1
102
RTVSPost2010Prop45
280
     0
102
RTVSPost2010PropOp45
 70
     1
102
RTVSPost2010Prop46
 90
       50
102
RTVSPost2010PropOp46
 70
     1
102
RTVSPost2010Prop47
 90
       50
102
RTVSPost2010PropOp47
 70
     1
102
RTVSPost2010Prop48
 90
       50
102
RTVSPost2010PropOp48
 70
     1
102
RTVSPost2010Prop49
280
     0
102
RTVSPost2010PropOp49
 70
     1
102
RTVSPost2010Prop50
 90
       50
102
RTVSPost2010PropOp50
 70
     1
102
RTVSPost2010Prop51ColorIndex
 90
      256
102
RTVSPost2010Prop51ColorRGB
 90
-16777216
102
RTVSPost2010PropOp51
 70
     0
102
RTVSPost2010Prop52
140
1.0
102
RTVSPost2010PropOp52
 70
     0
102
RTVSPost2010Prop53
 90
        2
102
RTVSPost2010PropOp53
 70
     1
102
RTVSPost2010Prop54
  1
strokes_ogs.tif
102
RTVSPost2010PropOp54
 70
     1
102
RTVSPost2010Prop55
280
     0
102
RTVSPost2010PropOp55
 70
     1
102
RTVSPost2010Prop56
140
1.0
102
RTVSPost2010PropOp56
 70
     1
102
RTVSPost2010Prop57
140
1.0
102
RTVSPost2010PropOp57
 70
     1
102
RTVSPropertyOp0
 70
     1
102
RTVSPropertyOp1
 70
     1
102
RTVSPropertyOp2
 70
     1
102
RTVSPropertyOp3
 70
     1
102
RTVSPropertyOp4
 70
     1
102
RTVSPropertyOp5
 70
     1
102
RTVSPropertyOp6
 70
     1
102
RTVSPropertyOp7
 70
     1
102
RTVSPropertyOp8
 70
     1
102
RTVSPropertyOp9
 70
     1
102
RTVSPropertyOp10
 70
     1
102
RTVSPropertyOp11
 70
     1
102
RTVSPropertyOp12
 70
     1
102
RTVSPropertyOp13
 70
     1
102
RTVSPropertyOp14
 70
     1
102
RTVSPropertyOp15
 70
     1
102
RTVSPropertyOp16
 70
     1
102
RTVSPropertyOp17
 70
     1
102
RTVSPropertyOp18
 70
     1
102
RTVSPropertyOp19
 70
     1
102
RTVSPropertyOp20
 70
     1
102
RTVSPropertyOp21
 70
     1
102
RTVSPropertyOp22
 70
     1
102
RTVSPropertyOp23
 70
     1
102
RTVSPropertyOp24
 70
     1
102
RTVSPropertyOp25
 70
     1
102
RTVSPropertyOp26
 70
     1
102
RTVSPropertyOp27
 70
     1
102
RTVSPropertyOp28
 70
     1
102
RTVSPropertyOp29
 70
     1
102
RTVSPropertyOp30
 70
     1
102
RTVSPropertyOp31
 70
     1
102
RTVSPropertyOp32
 70
     1
102
RTVSPropertyOp33
 70
     1
102
RTVSPropertyOp34
 70
     1
102
RTVSPropertyOp35
 70
     1
102
RTVSPropertyOp36
 70
     1
102
RTVSPropertyOp37
 70
     1
102
RTVSPropertyOp38
 70
     1
102
RTVSPropertyOp39
 70
     1
102
RTVSPropertyOp40
 70
     1
102
RTVSPropertyOp41
 70
     1
102
RTVSPropertyOp42
 70
     1
102
RTVSPropertyOp43
 70
     1
102
RTVSPropertyOp44
 70
     1
102
RTVSPropertyOp45
 70
     1
102
RTVSPropertyOp46
 70
     1
102
RTVSPropertyOp47
 70
     1
102
RTVSPropertyOp48
 70
     1
102
RTVSPropertyOp49
 70
     1
102
RTVSPropertyOp50
 70
     1
102
RTVSPropertyOp51
 70
     0
102
RTVSPropertyOp52
 70
     0
102
RTVSPropertyOp53
 70
     1
102
RTVSPropertyOp54
 70
     1
102
RTVSPropertyOp55
 70
     1
102
RTVSPropertyOp56
 70
     1
102
RTVSPropertyOp57
 70
     1
102
RTVSPropertyOp58
 70
     1
102
RTVSPropertyOp59
 70
     1
102
RTVSPropertyOp60
 70
     1
102
RTVSPropertyOp61
 70
     1
102
RTVSPropertyOp62
 70
     1
  0
XRECORD
  5
1BEB
102
{ACAD_REACTORS
330
1BEA
102
}
330
1BEA
100
AcDbXrecord
280
     1
102
RTVSPost2010Prop28
280
     0
102
RTVSPost2010PropOp28
 70
     1
102
RTVSPost2010Prop29
280
     1
102
RTVSPost2010PropOp29
 70
     1
102
RTVSPost2010Prop30
280
     1
102
RTVSPost2010PropOp30
 70
     1
102
RTVSPost2010Prop31
280
     0
102
RTVSPost2010PropOp31
 70
     1
102
RTVSPost2010Prop32
280
     0
102
RTVSPost2010PropOp32
 70
     1
102
RTVSPost2010Prop33
280
     0
102
RTVSPost2010PropOp33
 70
     1
102
RTVSPost2010Prop34
280
     0
102
RTVSPost2010PropOp34
 70
     1
102
RTVSPost2010Prop35
280
     0
102
RTVSPost2010PropOp35
 70
     1
102
RTVSPost2010Prop36
280
     0
102
RTVSPost2010PropOp36
 70
     1
102
RTVSPost2010Prop37
 90
       50
102
RTVSPost2010PropOp37
 70
     1
102
RTVSPost2010Prop38
140
0.0
102
RTVSPost2010PropOp38
 70
     1
102
RTVSPost2010Prop39
140
1.0
102
RTVSPost2010PropOp39
 70
     1
102
RTVSPost2010Prop40
 90
        0
102
RTVSPost2010PropOp40
 70
     1
102
RTVSPost2010Prop41ColorIndex
 90
       18
102
RTVSPost2010Prop41ColorRGB
 90
        0
102
RTVSPost2010PropOp41
 70
     1
102
RTVSPost2010Prop42
 90
       50
102
RTVSPost2010PropOp42
 70
     1
102
RTVSPost2010Prop43
 90
        3
102
RTVSPost2010PropOp43
 70
     1
102
RTVSPost2010Prop44ColorIndex
 90
        5
102
RTVSPost2010Prop44ColorRGB
 90
      255
102
RTVSPost2010PropOp44
 70
     1
102
RTVSPost2010Prop45
280
     0
102
RTVSPost2010PropOp45
 70
     1
102
RTVSPost2010Prop46
 90
       50
102
RTVSPost2010PropOp46
 70
     1
102
RTVSPost2010Prop47
 90
       50
102
RTVSPost2010PropOp47
 70
     1
102
RTVSPost2010Prop48
 90
       50
102
RTVSPost2010PropOp48
 70
     1
102
RTVSPost2010Prop49
280
     0
102
RTVSPost2010PropOp49
 70
     1
102
RTVSPost2010Prop50
 90
       50
102
RTVSPost2010PropOp50
 70
     1
102
RTVSPost2010Prop51ColorIndex
 90
      256
102
RTVSPost2010Prop51ColorRGB
 90
-16777216
102
RTVSPost2010PropOp51
 70
     0
102
RTVSPost2010Prop52
140
1.0
102
RTVSPost2010PropOp52
 70
     0
102
RTVSPost2010Prop53
 90
        2
102
RTVSPost2010PropOp53
 70
     1
102
RTVSPost2010Prop54
  1
strokes_ogs.tif
102
RTVSPost2010PropOp54
 70
     1
102
RTVSPost2010Prop55
280
     0
102
RTVSPost2010PropOp55
 70
     1
102
RTVSPost2010Prop56
140
1.0
102
RTVSPost2010PropOp56
 70
     1
102
RTVSPost2010Prop57
140
1.0
102
RTVSPost2010PropOp57
 70
     1
102
RTVSPropertyOp0
 70
     1
102
RTVSPropertyOp1
 70
     1
102
RTVSPropertyOp2
 70
     1
102
RTVSPropertyOp3
 70
     1
102
RTVSPropertyOp4
 70
     1
102
RTVSPropertyOp5
 70
     1
102
RTVSPropertyOp6
 70
     1
102
RTVSPropertyOp7
 70
     1
102
RTVSPropertyOp8
 70
     1
102
RTVSPropertyOp9
 70
     1
102
RTVSPropertyOp10
 70
     1
102
RTVSPropertyOp11
 70
     1
102
RTVSPropertyOp12
 70
     1
102
RTVSPropertyOp13
 70
     1
102
RTVSPropertyOp14
 70
     1
102
RTVSPropertyOp15
 70
     1
102
RTVSPropertyOp16
 70
     1
102
RTVSPropertyOp17
 70
     1
102
RTVSPropertyOp18
 70
     1
102
RTVSPropertyOp19
 70
     1
102
RTVSPropertyOp20
 70
     1
102
RTVSPropertyOp21
 70
     1
102
RTVSPropertyOp22
 70
     1
102
RTVSPropertyOp23
 70
     1
102
RTVSPropertyOp24
 70
     1
102
RTVSPropertyOp25
 70
     1
102
RTVSPropertyOp26
 70
     1
102
RTVSPropertyOp27
 70
     1
102
RTVSPropertyOp28
 70
     1
102
RTVSPropertyOp29
 70
     1
102
RTVSPropertyOp30
 70
     1
102
RTVSPropertyOp31
 70
     1
102
RTVSPropertyOp32
 70
     1
102
RTVSPropertyOp33
 70
     1
102
RTVSPropertyOp34
 70
     1
102
RTVSPropertyOp35
 70
     1
102
RTVSPropertyOp36
 70
     1
102
RTVSPropertyOp37
 70
     1
102
RTVSPropertyOp38
 70
     1
102
RTVSPropertyOp39
 70
     1
102
RTVSPropertyOp40
 70
     1
102
RTVSPropertyOp41
 70
     1
102
RTVSPropertyOp42
 70
     1
102
RTVSPropertyOp43
 70
     1
102
RTVSPropertyOp44
 70
     1
102
RTVSPropertyOp45
 70
     1
102
RTVSPropertyOp46
 70
     1
102
RTVSPropertyOp47
 70
     1
102
RTVSPropertyOp48
 70
     1
102
RTVSPropertyOp49
 70
     1
102
RTVSPropertyOp50
 70
     1
102
RTVSPropertyOp51
 70
     0
102
RTVSPropertyOp52
 70
     0
102
RTVSPropertyOp53
 70
     1
102
RTVSPropertyOp54
 70
     1
102
RTVSPropertyOp55
 70
     1
102
RTVSPropertyOp56
 70
     1
102
RTVSPropertyOp57
 70
     1
102
RTVSPropertyOp58
 70
     1
102
RTVSPropertyOp59
 70
     1
102
RTVSPropertyOp60
 70
     1
102
RTVSPropertyOp61
 70
     1
102
RTVSPropertyOp62
 70
     1
  0
XRECORD
  5
1BEF
102
{ACAD_REACTORS
330
1BEE
102
}
330
1BEE
100
AcDbXrecord
280
     1
102
RTVSPost2010Prop28
280
     0
102
RTVSPost2010PropOp28
 70
     1
102
RTVSPost2010Prop29
280
     1
102
RTVSPost2010PropOp29
 70
     1
102
RTVSPost2010Prop30
280
     1
102
RTVSPost2010PropOp30
 70
     1
102
RTVSPost2010Prop31
280
     0
102
RTVSPost2010PropOp31
 70
     1
102
RTVSPost2010Prop32
280
     0
102
RTVSPost2010PropOp32
 70
     1
102
RTVSPost2010Prop33
280
     0
102
RTVSPost2010PropOp33
 70
     1
102
RTVSPost2010Prop34
280
     0
102
RTVSPost2010PropOp34
 70
     1
102
RTVSPost2010Prop35
280
     0
102
RTVSPost2010PropOp35
 70
     1
102
RTVSPost2010Prop36
280
     0
102
RTVSPost2010PropOp36
 70
     1
102
RTVSPost2010Prop37
 90
       50
102
RTVSPost2010PropOp37
 70
     1
102
RTVSPost2010Prop38
140
0.0
102
RTVSPost2010PropOp38
 70
     1
102
RTVSPost2010Prop39
140
1.0
102
RTVSPost2010PropOp39
 70
     1
102
RTVSPost2010Prop40
 90
        0
102
RTVSPost2010PropOp40
 70
     1
102
RTVSPost2010Prop41ColorIndex
 90
       18
102
RTVSPost2010Prop41ColorRGB
 90
        0
102
RTVSPost2010PropOp41
 70
     1
102
RTVSPost2010Prop42
 90
       50
102
RTVSPost2010PropOp42
 70
     1
102
RTVSPost2010Prop43
 90
        3
102
RTVSPost2010PropOp43
 70
     1
102
RTVSPost2010Prop44ColorIndex
 90
        5
102
RTVSPost2010Prop44ColorRGB
 90
      255
102
RTVSPost2010PropOp44
 70
     1
102
RTVSPost2010Prop45
280
     0
102
RTVSPost2010PropOp45
 70
     1
102
RTVSPost2010Prop46
 90
       50
102
RTVSPost2010PropOp46
 70
     1
102
RTVSPost2010Prop47
 90
       50
102
RTVSPost2010PropOp47
 70
     1
102
RTVSPost2010Prop48
 90
       50
102
RTVSPost2010PropOp48
 70
     1
102
RTVSPost2010Prop49
280
     0
102
RTVSPost2010PropOp49
 70
     1
102
RTVSPost2010Prop50
 90
       50
102
RTVSPost2010PropOp50
 70
     1
102
RTVSPost2010Prop51ColorIndex
 90
      256
102
RTVSPost2010Prop51ColorRGB
 90
-16777216
102
RTVSPost2010PropOp51
 70
     0
102
RTVSPost2010Prop52
140
1.0
102
RTVSPost2010PropOp52
 70
     0
102
RTVSPost2010Prop53
 90
        2
102
RTVSPost2010PropOp53
 70
     1
102
RTVSPost2010Prop54
  1
strokes_ogs.tif
102
RTVSPost2010PropOp54
 70
     1
102
RTVSPost2010Prop55
280
     0
102
RTVSPost2010PropOp55
 70
     1
102
RTVSPost2010Prop56
140
1.0
102
RTVSPost2010PropOp56
 70
     1
102
RTVSPost2010Prop57
140
1.0
102
RTVSPost2010PropOp57
 70
     1
102
RTVSPropertyOp0
 70
     1
102
RTVSPropertyOp1
 70
     1
102
RTVSPropertyOp2
 70
     1
102
RTVSPropertyOp3
 70
     1
102
RTVSPropertyOp4
 70
     1
102
RTVSPropertyOp5
 70
     1
102
RTVSPropertyOp6
 70
     1
102
RTVSPropertyOp7
 70
     1
102
RTVSPropertyOp8
 70
     1
102
RTVSPropertyOp9
 70
     1
102
RTVSPropertyOp10
 70
     1
102
RTVSPropertyOp11
 70
     1
102
RTVSPropertyOp12
 70
     1
102
RTVSPropertyOp13
 70
     1
102
RTVSPropertyOp14
 70
     1
102
RTVSPropertyOp15
 70
     1
102
RTVSPropertyOp16
 70
     1
102
RTVSPropertyOp17
 70
     1
102
RTVSPropertyOp18
 70
     1
102
RTVSPropertyOp19
 70
     1
102
RTVSPropertyOp20
 70
     1
102
RTVSPropertyOp21
 70
     1
102
RTVSPropertyOp22
 70
     1
102
RTVSPropertyOp23
 70
     1
102
RTVSPropertyOp24
 70
     1
102
RTVSPropertyOp25
 70
     1
102
RTVSPropertyOp26
 70
     1
102
RTVSPropertyOp27
 70
     1
102
RTVSPropertyOp28
 70
     1
102
RTVSPropertyOp29
 70
     1
102
RTVSPropertyOp30
 70
     1
102
RTVSPropertyOp31
 70
     1
102
RTVSPropertyOp32
 70
     1
102
RTVSPropertyOp33
 70
     1
102
RTVSPropertyOp34
 70
     1
102
RTVSPropertyOp35
 70
     1
102
RTVSPropertyOp36
 70
     1
102
RTVSPropertyOp37
 70
     1
102
RTVSPropertyOp38
 70
     1
102
RTVSPropertyOp39
 70
     1
102
RTVSPropertyOp40
 70
     1
102
RTVSPropertyOp41
 70
     1
102
RTVSPropertyOp42
 70
     1
102
RTVSPropertyOp43
 70
     1
102
RTVSPropertyOp44
 70
     1
102
RTVSPropertyOp45
 70
     1
102
RTVSPropertyOp46
 70
     1
102
RTVSPropertyOp47
 70
     1
102
RTVSPropertyOp48
 70
     1
102
RTVSPropertyOp49
 70
     1
102
RTVSPropertyOp50
 70
     1
102
RTVSPropertyOp51
 70
     0
102
RTVSPropertyOp52
 70
     0
102
RTVSPropertyOp53
 70
     1
102
RTVSPropertyOp54
 70
     1
102
RTVSPropertyOp55
 70
     1
102
RTVSPropertyOp56
 70
     1
102
RTVSPropertyOp57
 70
     1
102
RTVSPropertyOp58
 70
     1
102
RTVSPropertyOp59
 70
     1
102
RTVSPropertyOp60
 70
     1
102
RTVSPropertyOp61
 70
     1
102
RTVSPropertyOp62
 70
     1
  0
XRECORD
  5
1C0D
102
{ACAD_REACTORS
330
1C0C
102
}
330
1C0C
100
AcDbXrecord
280
     1
102
RTVSPost2010Prop28
280
     0
102
RTVSPost2010PropOp28
 70
     1
102
RTVSPost2010Prop29
280
     1
102
RTVSPost2010PropOp29
 70
     1
102
RTVSPost2010Prop30
280
     1
102
RTVSPost2010PropOp30
 70
     1
102
RTVSPost2010Prop31
280
     0
102
RTVSPost2010PropOp31
 70
     1
102
RTVSPost2010Prop32
280
     0
102
RTVSPost2010PropOp32
 70
     1
102
RTVSPost2010Prop33
280
     0
102
RTVSPost2010PropOp33
 70
     1
102
RTVSPost2010Prop34
280
     0
102
RTVSPost2010PropOp34
 70
     1
102
RTVSPost2010Prop35
280
     0
102
RTVSPost2010PropOp35
 70
     1
102
RTVSPost2010Prop36
280
     0
102
RTVSPost2010PropOp36
 70
     1
102
RTVSPost2010Prop37
 90
       50
102
RTVSPost2010PropOp37
 70
     0
102
RTVSPost2010Prop38
140
0.0
102
RTVSPost2010PropOp38
 70
     0
102
RTVSPost2010Prop39
140
1.0
102
RTVSPost2010PropOp39
 70
     0
102
RTVSPost2010Prop40
 90
        0
102
RTVSPost2010PropOp40
 70
     0
102
RTVSPost2010Prop41ColorIndex
 90
       18
102
RTVSPost2010Prop41ColorRGB
 90
        0
102
RTVSPost2010PropOp41
 70
     0
102
RTVSPost2010Prop42
 90
       50
102
RTVSPost2010PropOp42
 70
     0
102
RTVSPost2010Prop43
 90
        3
102
RTVSPost2010PropOp43
 70
     0
102
RTVSPost2010Prop44ColorIndex
 90
        5
102
RTVSPost2010Prop44ColorRGB
 90
      255
102
RTVSPost2010PropOp44
 70
     0
102
RTVSPost2010Prop45
280
     0
102
RTVSPost2010PropOp45
 70
     1
102
RTVSPost2010Prop46
 90
       50
102
RTVSPost2010PropOp46
 70
     0
102
RTVSPost2010Prop47
 90
       50
102
RTVSPost2010PropOp47
 70
     0
102
RTVSPost2010Prop48
 90
       50
102
RTVSPost2010PropOp48
 70
     0
102
RTVSPost2010Prop49
280
     0
102
RTVSPost2010PropOp49
 70
     1
102
RTVSPost2010Prop50
 90
       50
102
RTVSPost2010PropOp50
 70
     0
102
RTVSPost2010Prop51ColorIndex
 90
      256
102
RTVSPost2010Prop51ColorRGB
 90
-16777216
102
RTVSPost2010PropOp51
 70
     0
102
RTVSPost2010Prop52
140
1.0
102
RTVSPost2010PropOp52
 70
     0
102
RTVSPost2010Prop53
 90
        2
102
RTVSPost2010PropOp53
 70
     0
102
RTVSPost2010Prop54
  1
strokes_ogs.tif
102
RTVSPost2010PropOp54
 70
     0
102
RTVSPost2010Prop55
280
     0
102
RTVSPost2010PropOp55
 70
     1
102
RTVSPost2010Prop56
140
1.0
102
RTVSPost2010PropOp56
 70
     0
102
RTVSPost2010Prop57
140
1.0
102
RTVSPost2010PropOp57
 70
     0
102
RTVSPropertyOp0
 70
     0
102
RTVSPropertyOp1
 70
     0
102
RTVSPropertyOp2
 70
     0
102
RTVSPropertyOp3
 70
     0
102
RTVSPropertyOp4
 70
     0
102
RTVSPropertyOp5
 70
     0
102
RTVSPropertyOp6
 70
     0
102
RTVSPropertyOp7
 70
     0
102
RTVSPropertyOp8
 70
     0
102
RTVSPropertyOp9
 70
     0
102
RTVSPropertyOp10
 70
     0
102
RTVSPropertyOp11
 70
     0
102
RTVSPropertyOp12
 70
     0
102
RTVSPropertyOp13
 70
     0
102
RTVSPropertyOp14
 70
     2
102
RTVSPropertyOp15
 70
     0
102
RTVSPropertyOp16
 70
     0
102
RTVSPropertyOp17
 70
     0
102
RTVSPropertyOp18
 70
     0
102
RTVSPropertyOp19
 70
     0
102
RTVSPropertyOp20
 70
     0
102
RTVSPropertyOp21
 70
     0
102
RTVSPropertyOp22
 70
     0
102
RTVSPropertyOp23
 70
     0
102
RTVSPropertyOp24
 70
     0
102
RTVSPropertyOp25
 70
     0
102
RTVSPropertyOp26
 70
     0
102
RTVSPropertyOp27
 70
     0
102
RTVSPropertyOp28
 70
     1
102
RTVSPropertyOp29
 70
     1
102
RTVSPropertyOp30
 70
     1
102
RTVSPropertyOp31
 70
     1
102
RTVSPropertyOp32
 70
     1
102
RTVSPropertyOp33
 70
     1
102
RTVSPropertyOp34
 70
     1
102
RTVSPropertyOp35
 70
     1
102
RTVSPropertyOp36
 70
     1
102
RTVSPropertyOp37
 70
     0
102
RTVSPropertyOp38
 70
     0
102
RTVSPropertyOp39
 70
     0
102
RTVSPropertyOp40
 70
     0
102
RTVSPropertyOp41
 70
     0
102
RTVSPropertyOp42
 70
     0
102
RTVSPropertyOp43
 70
     0
102
RTVSPropertyOp44
 70
     0
102
RTVSPropertyOp45
 70
     1
102
RTVSPropertyOp46
 70
     0
102
RTVSPropertyOp47
 70
     0
102
RTVSPropertyOp48
 70
     0
102
RTVSPropertyOp49
 70
     1
102
RTVSPropertyOp50
 70
     0
102
RTVSPropertyOp51
 70
     0
102
RTVSPropertyOp52
 70
     0
102
RTVSPropertyOp53
 70
     0
102
RTVSPropertyOp54
 70
     0
102
RTVSPropertyOp55
 70
     1
102
RTVSPropertyOp56
 70
     0
102
RTVSPropertyOp57
 70
     0
102
RTVSPropertyOp58
 70
     0
102
RTVSPropertyOp59
 70
     0
102
RTVSPropertyOp60
 70
     0
102
RTVSPropertyOp61
 70
     0
102
RTVSPropertyOp62
 70
     0
  0
XRECORD
  5
1BF7
102
{ACAD_REACTORS
330
1BF6
102
}
330
1BF6
100
AcDbXrecord
280
     1
102
RTVSPost2010Prop28
280
     0
102
RTVSPost2010PropOp28
 70
     1
102
RTVSPost2010Prop29
280
     1
102
RTVSPost2010PropOp29
 70
     1
102
RTVSPost2010Prop30
280
     1
102
RTVSPost2010PropOp30
 70
     1
102
RTVSPost2010Prop31
280
     0
102
RTVSPost2010PropOp31
 70
     1
102
RTVSPost2010Prop32
280
     0
102
RTVSPost2010PropOp32
 70
     1
102
RTVSPost2010Prop33
280
     0
102
RTVSPost2010PropOp33
 70
     1
102
RTVSPost2010Prop34
280
     0
102
RTVSPost2010PropOp34
 70
     1
102
RTVSPost2010Prop35
280
     0
102
RTVSPost2010PropOp35
 70
     1
102
RTVSPost2010Prop36
280
     0
102
RTVSPost2010PropOp36
 70
     1
102
RTVSPost2010Prop37
 90
       50
102
RTVSPost2010PropOp37
 70
     1
102
RTVSPost2010Prop38
140
0.0
102
RTVSPost2010PropOp38
 70
     1
102
RTVSPost2010Prop39
140
1.0
102
RTVSPost2010PropOp39
 70
     1
102
RTVSPost2010Prop40
 90
        0
102
RTVSPost2010PropOp40
 70
     1
102
RTVSPost2010Prop41ColorIndex
 90
       18
102
RTVSPost2010Prop41ColorRGB
 90
        0
102
RTVSPost2010PropOp41
 70
     1
102
RTVSPost2010Prop42
 90
       50
102
RTVSPost2010PropOp42
 70
     1
102
RTVSPost2010Prop43
 90
        3
102
RTVSPost2010PropOp43
 70
     1
102
RTVSPost2010Prop44ColorIndex
 90
        5
102
RTVSPost2010Prop44ColorRGB
 90
      255
102
RTVSPost2010PropOp44
 70
     1
102
RTVSPost2010Prop45
280
     0
102
RTVSPost2010PropOp45
 70
     1
102
RTVSPost2010Prop46
 90
       50
102
RTVSPost2010PropOp46
 70
     1
102
RTVSPost2010Prop47
 90
       50
102
RTVSPost2010PropOp47
 70
     1
102
RTVSPost2010Prop48
 90
       50
102
RTVSPost2010PropOp48
 70
     1
102
RTVSPost2010Prop49
280
     0
102
RTVSPost2010PropOp49
 70
     1
102
RTVSPost2010Prop50
 90
       50
102
RTVSPost2010PropOp50
 70
     1
102
RTVSPost2010Prop51ColorIndex
 90
      256
102
RTVSPost2010Prop51ColorRGB
 90
-16777216
102
RTVSPost2010PropOp51
 70
     0
102
RTVSPost2010Prop52
140
1.0
102
RTVSPost2010PropOp52
 70
     0
102
RTVSPost2010Prop53
 90
        2
102
RTVSPost2010PropOp53
 70
     1
102
RTVSPost2010Prop54
  1
strokes_ogs.tif
102
RTVSPost2010PropOp54
 70
     1
102
RTVSPost2010Prop55
280
     0
102
RTVSPost2010PropOp55
 70
     1
102
RTVSPost2010Prop56
140
1.0
102
RTVSPost2010PropOp56
 70
     1
102
RTVSPost2010Prop57
140
1.0
102
RTVSPost2010PropOp57
 70
     1
102
RTVSPropertyOp0
 70
     1
102
RTVSPropertyOp1
 70
     1
102
RTVSPropertyOp2
 70
     1
102
RTVSPropertyOp3
 70
     1
102
RTVSPropertyOp4
 70
     1
102
RTVSPropertyOp5
 70
     1
102
RTVSPropertyOp6
 70
     1
102
RTVSPropertyOp7
 70
     1
102
RTVSPropertyOp8
 70
     1
102
RTVSPropertyOp9
 70
     1
102
RTVSPropertyOp10
 70
     1
102
RTVSPropertyOp11
 70
     1
102
RTVSPropertyOp12
 70
     1
102
RTVSPropertyOp13
 70
     1
102
RTVSPropertyOp14
 70
     1
102
RTVSPropertyOp15
 70
     1
102
RTVSPropertyOp16
 70
     1
102
RTVSPropertyOp17
 70
     1
102
RTVSPropertyOp18
 70
     1
102
RTVSPropertyOp19
 70
     1
102
RTVSPropertyOp20
 70
     1
102
RTVSPropertyOp21
 70
     1
102
RTVSPropertyOp22
 70
     1
102
RTVSPropertyOp23
 70
     1
102
RTVSPropertyOp24
 70
     1
102
RTVSPropertyOp25
 70
     1
102
RTVSPropertyOp26
 70
     1
102
RTVSPropertyOp27
 70
     1
102
RTVSPropertyOp28
 70
     1
102
RTVSPropertyOp29
 70
     1
102
RTVSPropertyOp30
 70
     1
102
RTVSPropertyOp31
 70
     1
102
RTVSPropertyOp32
 70
     1
102
RTVSPropertyOp33
 70
     1
102
RTVSPropertyOp34
 70
     1
102
RTVSPropertyOp35
 70
     1
102
RTVSPropertyOp36
 70
     1
102
RTVSPropertyOp37
 70
     1
102
RTVSPropertyOp38
 70
     1
102
RTVSPropertyOp39
 70
     1
102
RTVSPropertyOp40
 70
     1
102
RTVSPropertyOp41
 70
     1
102
RTVSPropertyOp42
 70
     1
102
RTVSPropertyOp43
 70
     1
102
RTVSPropertyOp44
 70
     1
102
RTVSPropertyOp45
 70
     1
102
RTVSPropertyOp46
 70
     1
102
RTVSPropertyOp47
 70
     1
102
RTVSPropertyOp48
 70
     1
102
RTVSPropertyOp49
 70
     1
102
RTVSPropertyOp50
 70
     1
102
RTVSPropertyOp51
 70
     0
102
RTVSPropertyOp52
 70
     0
102
RTVSPropertyOp53
 70
     1
102
RTVSPropertyOp54
 70
     1
102
RTVSPropertyOp55
 70
     1
102
RTVSPropertyOp56
 70
     1
102
RTVSPropertyOp57
 70
     1
102
RTVSPropertyOp58
 70
     1
102
RTVSPropertyOp59
 70
     1
102
RTVSPropertyOp60
 70
     1
102
RTVSPropertyOp61
 70
     1
102
RTVSPropertyOp62
 70
     1
  0
XRECORD
  5
1BDB
102
{ACAD_REACTORS
330
1BDA
102
}
330
1BDA
100
AcDbXrecord
280
     1
102
RTVSPost2010Prop28
280
     0
102
RTVSPost2010PropOp28
 70
     1
102
RTVSPost2010Prop29
280
     1
102
RTVSPost2010PropOp29
 70
     1
102
RTVSPost2010Prop30
280
     1
102
RTVSPost2010PropOp30
 70
     1
102
RTVSPost2010Prop31
280
     0
102
RTVSPost2010PropOp31
 70
     1
102
RTVSPost2010Prop32
280
     0
102
RTVSPost2010PropOp32
 70
     1
102
RTVSPost2010Prop33
280
     0
102
RTVSPost2010PropOp33
 70
     1
102
RTVSPost2010Prop34
280
     0
102
RTVSPost2010PropOp34
 70
     1
102
RTVSPost2010Prop35
280
     0
102
RTVSPost2010PropOp35
 70
     1
102
RTVSPost2010Prop36
280
     0
102
RTVSPost2010PropOp36
 70
     1
102
RTVSPost2010Prop37
 90
       50
102
RTVSPost2010PropOp37
 70
     1
102
RTVSPost2010Prop38
140
0.0
102
RTVSPost2010PropOp38
 70
     1
102
RTVSPost2010Prop39
140
1.0
102
RTVSPost2010PropOp39
 70
     1
102
RTVSPost2010Prop40
 90
        0
102
RTVSPost2010PropOp40
 70
     1
102
RTVSPost2010Prop41ColorIndex
 90
       18
102
RTVSPost2010Prop41ColorRGB
 90
        0
102
RTVSPost2010PropOp41
 70
     1
102
RTVSPost2010Prop42
 90
       50
102
RTVSPost2010PropOp42
 70
     1
102
RTVSPost2010Prop43
 90
        3
102
RTVSPost2010PropOp43
 70
     1
102
RTVSPost2010Prop44ColorIndex
 90
        5
102
RTVSPost2010Prop44ColorRGB
 90
      255
102
RTVSPost2010PropOp44
 70
     1
102
RTVSPost2010Prop45
280
     0
102
RTVSPost2010PropOp45
 70
     1
102
RTVSPost2010Prop46
 90
       50
102
RTVSPost2010PropOp46
 70
     1
102
RTVSPost2010Prop47
 90
       50
102
RTVSPost2010PropOp47
 70
     1
102
RTVSPost2010Prop48
 90
       50
102
RTVSPost2010PropOp48
 70
     1
102
RTVSPost2010Prop49
280
     0
102
RTVSPost2010PropOp49
 70
     1
102
RTVSPost2010Prop50
 90
       50
102
RTVSPost2010PropOp50
 70
     1
102
RTVSPost2010Prop51ColorIndex
 90
      256
102
RTVSPost2010Prop51ColorRGB
 90
-16777216
102
RTVSPost2010PropOp51
 70
     0
102
RTVSPost2010Prop52
140
1.0
102
RTVSPost2010PropOp52
 70
     0
102
RTVSPost2010Prop53
 90
        2
102
RTVSPost2010PropOp53
 70
     1
102
RTVSPost2010Prop54
  1
strokes_ogs.tif
102
RTVSPost2010PropOp54
 70
     1
102
RTVSPost2010Prop55
280
     0
102
RTVSPost2010PropOp55
 70
     1
102
RTVSPost2010Prop56
140
1.0
102
RTVSPost2010PropOp56
 70
     1
102
RTVSPost2010Prop57
140
1.0
102
RTVSPost2010PropOp57
 70
     1
102
RTVSPropertyOp0
 70
     1
102
RTVSPropertyOp1
 70
     1
102
RTVSPropertyOp2
 70
     1
102
RTVSPropertyOp3
 70
     1
102
RTVSPropertyOp4
 70
     1
102
RTVSPropertyOp5
 70
     1
102
RTVSPropertyOp6
 70
     1
102
RTVSPropertyOp7
 70
     1
102
RTVSPropertyOp8
 70
     1
102
RTVSPropertyOp9
 70
     1
102
RTVSPropertyOp10
 70
     1
102
RTVSPropertyOp11
 70
     1
102
RTVSPropertyOp12
 70
     1
102
RTVSPropertyOp13
 70
     1
102
RTVSPropertyOp14
 70
     1
102
RTVSPropertyOp15
 70
     1
102
RTVSPropertyOp16
 70
     1
102
RTVSPropertyOp17
 70
     1
102
RTVSPropertyOp18
 70
     1
102
RTVSPropertyOp19
 70
     1
102
RTVSPropertyOp20
 70
     1
102
RTVSPropertyOp21
 70
     1
102
RTVSPropertyOp22
 70
     1
102
RTVSPropertyOp23
 70
     1
102
RTVSPropertyOp24
 70
     1
102
RTVSPropertyOp25
 70
     1
102
RTVSPropertyOp26
 70
     1
102
RTVSPropertyOp27
 70
     1
102
RTVSPropertyOp28
 70
     1
102
RTVSPropertyOp29
 70
     1
102
RTVSPropertyOp30
 70
     1
102
RTVSPropertyOp31
 70
     1
102
RTVSPropertyOp32
 70
     1
102
RTVSPropertyOp33
 70
     1
102
RTVSPropertyOp34
 70
     1
102
RTVSPropertyOp35
 70
     1
102
RTVSPropertyOp36
 70
     1
102
RTVSPropertyOp37
 70
     1
102
RTVSPropertyOp38
 70
     1
102
RTVSPropertyOp39
 70
     1
102
RTVSPropertyOp40
 70
     1
102
RTVSPropertyOp41
 70
     1
102
RTVSPropertyOp42
 70
     1
102
RTVSPropertyOp43
 70
     1
102
RTVSPropertyOp44
 70
     1
102
RTVSPropertyOp45
 70
     1
102
RTVSPropertyOp46
 70
     1
102
RTVSPropertyOp47
 70
     1
102
RTVSPropertyOp48
 70
     1
102
RTVSPropertyOp49
 70
     1
102
RTVSPropertyOp50
 70
     1
102
RTVSPropertyOp51
 70
     0
102
RTVSPropertyOp52
 70
     0
102
RTVSPropertyOp53
 70
     1
102
RTVSPropertyOp54
 70
     1
102
RTVSPropertyOp55
 70
     1
102
RTVSPropertyOp56
 70
     1
102
RTVSPropertyOp57
 70
     1
102
RTVSPropertyOp58
 70
     1
102
RTVSPropertyOp59
 70
     1
102
RTVSPropertyOp60
 70
     1
102
RTVSPropertyOp61
 70
     1
102
RTVSPropertyOp62
 70
     1
  0
XRECORD
  5
1BDD
102
{ACAD_REACTORS
330
1BDC
102
}
330
1BDC
100
AcDbXrecord
280
     1
102
RTVSPost2010Prop28
280
     0
102
RTVSPost2010PropOp28
 70
     1
102
RTVSPost2010Prop29
280
     1
102
RTVSPost2010PropOp29
 70
     1
102
RTVSPost2010Prop30
280
     1
102
RTVSPost2010PropOp30
 70
     1
102
RTVSPost2010Prop31
280
     0
102
RTVSPost2010PropOp31
 70
     1
102
RTVSPost2010Prop32
280
     0
102
RTVSPost2010PropOp32
 70
     1
102
RTVSPost2010Prop33
280
     0
102
RTVSPost2010PropOp33
 70
     1
102
RTVSPost2010Prop34
280
     0
102
RTVSPost2010PropOp34
 70
     1
102
RTVSPost2010Prop35
280
     0
102
RTVSPost2010PropOp35
 70
     1
102
RTVSPost2010Prop36
280
     0
102
RTVSPost2010PropOp36
 70
     1
102
RTVSPost2010Prop37
 90
       50
102
RTVSPost2010PropOp37
 70
     1
102
RTVSPost2010Prop38
140
0.0
102
RTVSPost2010PropOp38
 70
     1
102
RTVSPost2010Prop39
140
1.0
102
RTVSPost2010PropOp39
 70
     1
102
RTVSPost2010Prop40
 90
        0
102
RTVSPost2010PropOp40
 70
     1
102
RTVSPost2010Prop41ColorIndex
 90
       18
102
RTVSPost2010Prop41ColorRGB
 90
        0
102
RTVSPost2010PropOp41
 70
     1
102
RTVSPost2010Prop42
 90
       50
102
RTVSPost2010PropOp42
 70
     1
102
RTVSPost2010Prop43
 90
        3
102
RTVSPost2010PropOp43
 70
     1
102
RTVSPost2010Prop44ColorIndex
 90
        5
102
RTVSPost2010Prop44ColorRGB
 90
      255
102
RTVSPost2010PropOp44
 70
     1
102
RTVSPost2010Prop45
280
     0
102
RTVSPost2010PropOp45
 70
     1
102
RTVSPost2010Prop46
 90
       50
102
RTVSPost2010PropOp46
 70
     1
102
RTVSPost2010Prop47
 90
       50
102
RTVSPost2010PropOp47
 70
     1
102
RTVSPost2010Prop48
 90
       50
102
RTVSPost2010PropOp48
 70
     1
102
RTVSPost2010Prop49
280
     0
102
RTVSPost2010PropOp49
 70
     1
102
RTVSPost2010Prop50
 90
       50
102
RTVSPost2010PropOp50
 70
     1
102
RTVSPost2010Prop51ColorIndex
 90
      256
102
RTVSPost2010Prop51ColorRGB
 90
-16777216
102
RTVSPost2010PropOp51
 70
     0
102
RTVSPost2010Prop52
140
1.0
102
RTVSPost2010PropOp52
 70
     0
102
RTVSPost2010Prop53
 90
        2
102
RTVSPost2010PropOp53
 70
     1
102
RTVSPost2010Prop54
  1
strokes_ogs.tif
102
RTVSPost2010PropOp54
 70
     1
102
RTVSPost2010Prop55
280
     0
102
RTVSPost2010PropOp55
 70
     1
102
RTVSPost2010Prop56
140
1.0
102
RTVSPost2010PropOp56
 70
     1
102
RTVSPost2010Prop57
140
1.0
102
RTVSPost2010PropOp57
 70
     1
102
RTVSPropertyOp0
 70
     1
102
RTVSPropertyOp1
 70
     1
102
RTVSPropertyOp2
 70
     1
102
RTVSPropertyOp3
 70
     1
102
RTVSPropertyOp4
 70
     1
102
RTVSPropertyOp5
 70
     1
102
RTVSPropertyOp6
 70
     1
102
RTVSPropertyOp7
 70
     1
102
RTVSPropertyOp8
 70
     1
102
RTVSPropertyOp9
 70
     1
102
RTVSPropertyOp10
 70
     1
102
RTVSPropertyOp11
 70
     1
102
RTVSPropertyOp12
 70
     1
102
RTVSPropertyOp13
 70
     1
102
RTVSPropertyOp14
 70
     1
102
RTVSPropertyOp15
 70
     1
102
RTVSPropertyOp16
 70
     1
102
RTVSPropertyOp17
 70
     1
102
RTVSPropertyOp18
 70
     1
102
RTVSPropertyOp19
 70
     1
102
RTVSPropertyOp20
 70
     1
102
RTVSPropertyOp21
 70
     1
102
RTVSPropertyOp22
 70
     1
102
RTVSPropertyOp23
 70
     1
102
RTVSPropertyOp24
 70
     1
102
RTVSPropertyOp25
 70
     1
102
RTVSPropertyOp26
 70
     1
102
RTVSPropertyOp27
 70
     1
102
RTVSPropertyOp28
 70
     1
102
RTVSPropertyOp29
 70
     1
102
RTVSPropertyOp30
 70
     1
102
RTVSPropertyOp31
 70
     1
102
RTVSPropertyOp32
 70
     1
102
RTVSPropertyOp33
 70
     1
102
RTVSPropertyOp34
 70
     1
102
RTVSPropertyOp35
 70
     1
102
RTVSPropertyOp36
 70
     1
102
RTVSPropertyOp37
 70
     1
102
RTVSPropertyOp38
 70
     1
102
RTVSPropertyOp39
 70
     1
102
RTVSPropertyOp40
 70
     1
102
RTVSPropertyOp41
 70
     1
102
RTVSPropertyOp42
 70
     1
102
RTVSPropertyOp43
 70
     1
102
RTVSPropertyOp44
 70
     1
102
RTVSPropertyOp45
 70
     1
102
RTVSPropertyOp46
 70
     1
102
RTVSPropertyOp47
 70
     1
102
RTVSPropertyOp48
 70
     1
102
RTVSPropertyOp49
 70
     1
102
RTVSPropertyOp50
 70
     1
102
RTVSPropertyOp51
 70
     0
102
RTVSPropertyOp52
 70
     0
102
RTVSPropertyOp53
 70
     1
102
RTVSPropertyOp54
 70
     1
102
RTVSPropertyOp55
 70
     1
102
RTVSPropertyOp56
 70
     1
102
RTVSPropertyOp57
 70
     1
102
RTVSPropertyOp58
 70
     1
102
RTVSPropertyOp59
 70
     1
102
RTVSPropertyOp60
 70
     1
102
RTVSPropertyOp61
 70
     1
102
RTVSPropertyOp62
 70
     1
  0
XRECORD
  5
1BDF
102
{ACAD_REACTORS
330
1BDE
102
}
330
1BDE
100
AcDbXrecord
280
     1
102
RTVSPost2010Prop28
280
     0
102
RTVSPost2010PropOp28
 70
     1
102
RTVSPost2010Prop29
280
     1
102
RTVSPost2010PropOp29
 70
     1
102
RTVSPost2010Prop30
280
     1
102
RTVSPost2010PropOp30
 70
     1
102
RTVSPost2010Prop31
280
     0
102
RTVSPost2010PropOp31
 70
     1
102
RTVSPost2010Prop32
280
     0
102
RTVSPost2010PropOp32
 70
     1
102
RTVSPost2010Prop33
280
     0
102
RTVSPost2010PropOp33
 70
     1
102
RTVSPost2010Prop34
280
     0
102
RTVSPost2010PropOp34
 70
     1
102
RTVSPost2010Prop35
280
     0
102
RTVSPost2010PropOp35
 70
     1
102
RTVSPost2010Prop36
280
     0
102
RTVSPost2010PropOp36
 70
     1
102
RTVSPost2010Prop37
 90
       50
102
RTVSPost2010PropOp37
 70
     1
102
RTVSPost2010Prop38
140
0.0
102
RTVSPost2010PropOp38
 70
     1
102
RTVSPost2010Prop39
140
1.0
102
RTVSPost2010PropOp39
 70
     1
102
RTVSPost2010Prop40
 90
        0
102
RTVSPost2010PropOp40
 70
     1
102
RTVSPost2010Prop41ColorIndex
 90
       18
102
RTVSPost2010Prop41ColorRGB
 90
        0
102
RTVSPost2010PropOp41
 70
     1
102
RTVSPost2010Prop42
 90
       50
102
RTVSPost2010PropOp42
 70
     1
102
RTVSPost2010Prop43
 90
        3
102
RTVSPost2010PropOp43
 70
     1
102
RTVSPost2010Prop44ColorIndex
 90
        5
102
RTVSPost2010Prop44ColorRGB
 90
      255
102
RTVSPost2010PropOp44
 70
     1
102
RTVSPost2010Prop45
280
     0
102
RTVSPost2010PropOp45
 70
     1
102
RTVSPost2010Prop46
 90
       50
102
RTVSPost2010PropOp46
 70
     1
102
RTVSPost2010Prop47
 90
       50
102
RTVSPost2010PropOp47
 70
     1
102
RTVSPost2010Prop48
 90
       50
102
RTVSPost2010PropOp48
 70
     1
102
RTVSPost2010Prop49
280
     0
102
RTVSPost2010PropOp49
 70
     1
102
RTVSPost2010Prop50
 90
       50
102
RTVSPost2010PropOp50
 70
     1
102
RTVSPost2010Prop51ColorIndex
 90
      256
102
RTVSPost2010Prop51ColorRGB
 90
-16777216
102
RTVSPost2010PropOp51
 70
     0
102
RTVSPost2010Prop52
140
1.0
102
RTVSPost2010PropOp52
 70
     0
102
RTVSPost2010Prop53
 90
        2
102
RTVSPost2010PropOp53
 70
     1
102
RTVSPost2010Prop54
  1
strokes_ogs.tif
102
RTVSPost2010PropOp54
 70
     1
102
RTVSPost2010Prop55
280
     0
102
RTVSPost2010PropOp55
 70
     1
102
RTVSPost2010Prop56
140
1.0
102
RTVSPost2010PropOp56
 70
     1
102
RTVSPost2010Prop57
140
1.0
102
RTVSPost2010PropOp57
 70
     1
102
RTVSPropertyOp0
 70
     1
102
RTVSPropertyOp1
 70
     1
102
RTVSPropertyOp2
 70
     1
102
RTVSPropertyOp3
 70
     1
102
RTVSPropertyOp4
 70
     1
102
RTVSPropertyOp5
 70
     1
102
RTVSPropertyOp6
 70
     1
102
RTVSPropertyOp7
 70
     1
102
RTVSPropertyOp8
 70
     1
102
RTVSPropertyOp9
 70
     1
102
RTVSPropertyOp10
 70
     1
102
RTVSPropertyOp11
 70
     1
102
RTVSPropertyOp12
 70
     1
102
RTVSPropertyOp13
 70
     1
102
RTVSPropertyOp14
 70
     1
102
RTVSPropertyOp15
 70
     1
102
RTVSPropertyOp16
 70
     1
102
RTVSPropertyOp17
 70
     1
102
RTVSPropertyOp18
 70
     1
102
RTVSPropertyOp19
 70
     1
102
RTVSPropertyOp20
 70
     1
102
RTVSPropertyOp21
 70
     1
102
RTVSPropertyOp22
 70
     1
102
RTVSPropertyOp23
 70
     1
102
RTVSPropertyOp24
 70
     1
102
RTVSPropertyOp25
 70
     1
102
RTVSPropertyOp26
 70
     1
102
RTVSPropertyOp27
 70
     1
102
RTVSPropertyOp28
 70
     1
102
RTVSPropertyOp29
 70
     1
102
RTVSPropertyOp30
 70
     1
102
RTVSPropertyOp31
 70
     1
102
RTVSPropertyOp32
 70
     1
102
RTVSPropertyOp33
 70
     1
102
RTVSPropertyOp34
 70
     1
102
RTVSPropertyOp35
 70
     1
102
RTVSPropertyOp36
 70
     1
102
RTVSPropertyOp37
 70
     1
102
RTVSPropertyOp38
 70
     1
102
RTVSPropertyOp39
 70
     1
102
RTVSPropertyOp40
 70
     1
102
RTVSPropertyOp41
 70
     1
102
RTVSPropertyOp42
 70
     1
102
RTVSPropertyOp43
 70
     1
102
RTVSPropertyOp44
 70
     1
102
RTVSPropertyOp45
 70
     1
102
RTVSPropertyOp46
 70
     1
102
RTVSPropertyOp47
 70
     1
102
RTVSPropertyOp48
 70
     1
102
RTVSPropertyOp49
 70
     1
102
RTVSPropertyOp50
 70
     1
102
RTVSPropertyOp51
 70
     0
102
RTVSPropertyOp52
 70
     0
102
RTVSPropertyOp53
 70
     1
102
RTVSPropertyOp54
 70
     1
102
RTVSPropertyOp55
 70
     1
102
RTVSPropertyOp56
 70
     1
102
RTVSPropertyOp57
 70
     1
102
RTVSPropertyOp58
 70
     1
102
RTVSPropertyOp59
 70
     1
102
RTVSPropertyOp60
 70
     1
102
RTVSPropertyOp61
 70
     1
102
RTVSPropertyOp62
 70
     1
  0
XRECORD
  5
1BE1
102
{ACAD_REACTORS
330
1BE0
102
}
330
1BE0
100
AcDbXrecord
280
     1
102
RTVSPost2010Prop28
280
     0
102
RTVSPost2010PropOp28
 70
     1
102
RTVSPost2010Prop29
280
     1
102
RTVSPost2010PropOp29
 70
     1
102
RTVSPost2010Prop30
280
     1
102
RTVSPost2010PropOp30
 70
     1
102
RTVSPost2010Prop31
280
     0
102
RTVSPost2010PropOp31
 70
     1
102
RTVSPost2010Prop32
280
     0
102
RTVSPost2010PropOp32
 70
     1
102
RTVSPost2010Prop33
280
     0
102
RTVSPost2010PropOp33
 70
     1
102
RTVSPost2010Prop34
280
     0
102
RTVSPost2010PropOp34
 70
     1
102
RTVSPost2010Prop35
280
     0
102
RTVSPost2010PropOp35
 70
     1
102
RTVSPost2010Prop36
280
     0
102
RTVSPost2010PropOp36
 70
     1
102
RTVSPost2010Prop37
 90
       50
102
RTVSPost2010PropOp37
 70
     1
102
RTVSPost2010Prop38
140
0.0
102
RTVSPost2010PropOp38
 70
     1
102
RTVSPost2010Prop39
140
1.0
102
RTVSPost2010PropOp39
 70
     1
102
RTVSPost2010Prop40
 90
        0
102
RTVSPost2010PropOp40
 70
     1
102
RTVSPost2010Prop41ColorIndex
 90
       18
102
RTVSPost2010Prop41ColorRGB
 90
        0
102
RTVSPost2010PropOp41
 70
     1
102
RTVSPost2010Prop42
 90
       50
102
RTVSPost2010PropOp42
 70
     1
102
RTVSPost2010Prop43
 90
        3
102
RTVSPost2010PropOp43
 70
     1
102
RTVSPost2010Prop44ColorIndex
 90
        5
102
RTVSPost2010Prop44ColorRGB
 90
      255
102
RTVSPost2010PropOp44
 70
     1
102
RTVSPost2010Prop45
280
     0
102
RTVSPost2010PropOp45
 70
     1
102
RTVSPost2010Prop46
 90
       50
102
RTVSPost2010PropOp46
 70
     1
102
RTVSPost2010Prop47
 90
       50
102
RTVSPost2010PropOp47
 70
     1
102
RTVSPost2010Prop48
 90
       50
102
RTVSPost2010PropOp48
 70
     1
102
RTVSPost2010Prop49
280
     0
102
RTVSPost2010PropOp49
 70
     1
102
RTVSPost2010Prop50
 90
       50
102
RTVSPost2010PropOp50
 70
     1
102
RTVSPost2010Prop51ColorIndex
 90
      256
102
RTVSPost2010Prop51ColorRGB
 90
-16777216
102
RTVSPost2010PropOp51
 70
     0
102
RTVSPost2010Prop52
140
1.0
102
RTVSPost2010PropOp52
 70
     0
102
RTVSPost2010Prop53
 90
        2
102
RTVSPost2010PropOp53
 70
     1
102
RTVSPost2010Prop54
  1
strokes_ogs.tif
102
RTVSPost2010PropOp54
 70
     1
102
RTVSPost2010Prop55
280
     0
102
RTVSPost2010PropOp55
 70
     1
102
RTVSPost2010Prop56
140
1.0
102
RTVSPost2010PropOp56
 70
     1
102
RTVSPost2010Prop57
140
1.0
102
RTVSPost2010PropOp57
 70
     1
102
RTVSPropertyOp0
 70
     1
102
RTVSPropertyOp1
 70
     1
102
RTVSPropertyOp2
 70
     1
102
RTVSPropertyOp3
 70
     1
102
RTVSPropertyOp4
 70
     1
102
RTVSPropertyOp5
 70
     1
102
RTVSPropertyOp6
 70
     1
102
RTVSPropertyOp7
 70
     1
102
RTVSPropertyOp8
 70
     1
102
RTVSPropertyOp9
 70
     1
102
RTVSPropertyOp10
 70
     1
102
RTVSPropertyOp11
 70
     1
102
RTVSPropertyOp12
 70
     1
102
RTVSPropertyOp13
 70
     1
102
RTVSPropertyOp14
 70
     1
102
RTVSPropertyOp15
 70
     1
102
RTVSPropertyOp16
 70
     1
102
RTVSPropertyOp17
 70
     1
102
RTVSPropertyOp18
 70
     1
102
RTVSPropertyOp19
 70
     1
102
RTVSPropertyOp20
 70
     1
102
RTVSPropertyOp21
 70
     1
102
RTVSPropertyOp22
 70
     1
102
RTVSPropertyOp23
 70
     1
102
RTVSPropertyOp24
 70
     1
102
RTVSPropertyOp25
 70
     1
102
RTVSPropertyOp26
 70
     1
102
RTVSPropertyOp27
 70
     1
102
RTVSPropertyOp28
 70
     1
102
RTVSPropertyOp29
 70
     1
102
RTVSPropertyOp30
 70
     1
102
RTVSPropertyOp31
 70
     1
102
RTVSPropertyOp32
 70
     1
102
RTVSPropertyOp33
 70
     1
102
RTVSPropertyOp34
 70
     1
102
RTVSPropertyOp35
 70
     1
102
RTVSPropertyOp36
 70
     1
102
RTVSPropertyOp37
 70
     1
102
RTVSPropertyOp38
 70
     1
102
RTVSPropertyOp39
 70
     1
102
RTVSPropertyOp40
 70
     1
102
RTVSPropertyOp41
 70
     1
102
RTVSPropertyOp42
 70
     1
102
RTVSPropertyOp43
 70
     1
102
RTVSPropertyOp44
 70
     1
102
RTVSPropertyOp45
 70
     1
102
RTVSPropertyOp46
 70
     1
102
RTVSPropertyOp47
 70
     1
102
RTVSPropertyOp48
 70
     1
102
RTVSPropertyOp49
 70
     1
102
RTVSPropertyOp50
 70
     1
102
RTVSPropertyOp51
 70
     0
102
RTVSPropertyOp52
 70
     0
102
RTVSPropertyOp53
 70
     1
102
RTVSPropertyOp54
 70
     1
102
RTVSPropertyOp55
 70
     1
102
RTVSPropertyOp56
 70
     1
102
RTVSPropertyOp57
 70
     1
102
RTVSPropertyOp58
 70
     1
102
RTVSPropertyOp59
 70
     1
102
RTVSPropertyOp60
 70
     1
102
RTVSPropertyOp61
 70
     1
102
RTVSPropertyOp62
 70
     1
  0
XRECORD
  5
1BFD
102
{ACAD_REACTORS
330
1BFC
102
}
330
1BFC
100
AcDbXrecord
280
     1
102
RTVSPost2010Prop28
280
     0
102
RTVSPost2010PropOp28
 70
     1
102
RTVSPost2010Prop29
280
     1
102
RTVSPost2010PropOp29
 70
     1
102
RTVSPost2010Prop30
280
     1
102
RTVSPost2010PropOp30
 70
     1
102
RTVSPost2010Prop31
280
     0
102
RTVSPost2010PropOp31
 70
     1
102
RTVSPost2010Prop32
280
     0
102
RTVSPost2010PropOp32
 70
     1
102
RTVSPost2010Prop33
280
     0
102
RTVSPost2010PropOp33
 70
     1
102
RTVSPost2010Prop34
280
     0
102
RTVSPost2010PropOp34
 70
     1
102
RTVSPost2010Prop35
280
     0
102
RTVSPost2010PropOp35
 70
     1
102
RTVSPost2010Prop36
280
     0
102
RTVSPost2010PropOp36
 70
     1
102
RTVSPost2010Prop37
 90
       50
102
RTVSPost2010PropOp37
 70
     1
102
RTVSPost2010Prop38
140
0.0
102
RTVSPost2010PropOp38
 70
     1
102
RTVSPost2010Prop39
140
1.0
102
RTVSPost2010PropOp39
 70
     1
102
RTVSPost2010Prop40
 90
        0
102
RTVSPost2010PropOp40
 70
     1
102
RTVSPost2010Prop41ColorIndex
 90
       18
102
RTVSPost2010Prop41ColorRGB
 90
        0
102
RTVSPost2010PropOp41
 70
     1
102
RTVSPost2010Prop42
 90
       50
102
RTVSPost2010PropOp42
 70
     1
102
RTVSPost2010Prop43
 90
        3
102
RTVSPost2010PropOp43
 70
     1
102
RTVSPost2010Prop44ColorIndex
 90
        5
102
RTVSPost2010Prop44ColorRGB
 90
      255
102
RTVSPost2010PropOp44
 70
     1
102
RTVSPost2010Prop45
280
     0
102
RTVSPost2010PropOp45
 70
     1
102
RTVSPost2010Prop46
 90
       50
102
RTVSPost2010PropOp46
 70
     1
102
RTVSPost2010Prop47
 90
       50
102
RTVSPost2010PropOp47
 70
     1
102
RTVSPost2010Prop48
 90
       50
102
RTVSPost2010PropOp48
 70
     1
102
RTVSPost2010Prop49
280
     0
102
RTVSPost2010PropOp49
 70
     1
102
RTVSPost2010Prop50
 90
       50
102
RTVSPost2010PropOp50
 70
     1
102
RTVSPost2010Prop51ColorIndex
 90
      256
102
RTVSPost2010Prop51ColorRGB
 90
-16777216
102
RTVSPost2010PropOp51
 70
     0
102
RTVSPost2010Prop52
140
1.0
102
RTVSPost2010PropOp52
 70
     0
102
RTVSPost2010Prop53
 90
        2
102
RTVSPost2010PropOp53
 70
     1
102
RTVSPost2010Prop54
  1
strokes_ogs.tif
102
RTVSPost2010PropOp54
 70
     1
102
RTVSPost2010Prop55
280
     0
102
RTVSPost2010PropOp55
 70
     1
102
RTVSPost2010Prop56
140
1.0
102
RTVSPost2010PropOp56
 70
     1
102
RTVSPost2010Prop57
140
1.0
102
RTVSPost2010PropOp57
 70
     1
102
RTVSPropertyOp0
 70
     1
102
RTVSPropertyOp1
 70
     1
102
RTVSPropertyOp2
 70
     1
102
RTVSPropertyOp3
 70
     1
102
RTVSPropertyOp4
 70
     1
102
RTVSPropertyOp5
 70
     1
102
RTVSPropertyOp6
 70
     1
102
RTVSPropertyOp7
 70
     1
102
RTVSPropertyOp8
 70
     1
102
RTVSPropertyOp9
 70
     1
102
RTVSPropertyOp10
 70
     1
102
RTVSPropertyOp11
 70
     1
102
RTVSPropertyOp12
 70
     1
102
RTVSPropertyOp13
 70
     1
102
RTVSPropertyOp14
 70
     1
102
RTVSPropertyOp15
 70
     1
102
RTVSPropertyOp16
 70
     1
102
RTVSPropertyOp17
 70
     1
102
RTVSPropertyOp18
 70
     1
102
RTVSPropertyOp19
 70
     1
102
RTVSPropertyOp20
 70
     1
102
RTVSPropertyOp21
 70
     1
102
RTVSPropertyOp22
 70
     1
102
RTVSPropertyOp23
 70
     1
102
RTVSPropertyOp24
 70
     1
102
RTVSPropertyOp25
 70
     1
102
RTVSPropertyOp26
 70
     1
102
RTVSPropertyOp27
 70
     1
102
RTVSPropertyOp28
 70
     1
102
RTVSPropertyOp29
 70
     1
102
RTVSPropertyOp30
 70
     1
102
RTVSPropertyOp31
 70
     1
102
RTVSPropertyOp32
 70
     1
102
RTVSPropertyOp33
 70
     1
102
RTVSPropertyOp34
 70
     1
102
RTVSPropertyOp35
 70
     1
102
RTVSPropertyOp36
 70
     1
102
RTVSPropertyOp37
 70
     1
102
RTVSPropertyOp38
 70
     1
102
RTVSPropertyOp39
 70
     1
102
RTVSPropertyOp40
 70
     1
102
RTVSPropertyOp41
 70
     1
102
RTVSPropertyOp42
 70
     1
102
RTVSPropertyOp43
 70
     1
102
RTVSPropertyOp44
 70
     1
102
RTVSPropertyOp45
 70
     1
102
RTVSPropertyOp46
 70
     1
102
RTVSPropertyOp47
 70
     1
102
RTVSPropertyOp48
 70
     1
102
RTVSPropertyOp49
 70
     1
102
RTVSPropertyOp50
 70
     1
102
RTVSPropertyOp51
 70
     0
102
RTVSPropertyOp52
 70
     0
102
RTVSPropertyOp53
 70
     1
102
RTVSPropertyOp54
 70
     1
102
RTVSPropertyOp55
 70
     1
102
RTVSPropertyOp56
 70
     1
102
RTVSPropertyOp57
 70
     1
102
RTVSPropertyOp58
 70
     1
102
RTVSPropertyOp59
 70
     1
102
RTVSPropertyOp60
 70
     1
102
RTVSPropertyOp61
 70
     1
102
RTVSPropertyOp62
 70
     1
  0
XRECORD
  5
1C09
102
{ACAD_REACTORS
330
1C08
102
}
330
1C08
100
AcDbXrecord
280
     1
102
RTVSPost2010Prop28
280
     0
102
RTVSPost2010PropOp28
 70
     1
102
RTVSPost2010Prop29
280
     1
102
RTVSPost2010PropOp29
 70
     1
102
RTVSPost2010Prop30
280
     1
102
RTVSPost2010PropOp30
 70
     1
102
RTVSPost2010Prop31
280
     0
102
RTVSPost2010PropOp31
 70
     1
102
RTVSPost2010Prop32
280
     0
102
RTVSPost2010PropOp32
 70
     1
102
RTVSPost2010Prop33
280
     0
102
RTVSPost2010PropOp33
 70
     1
102
RTVSPost2010Prop34
280
     0
102
RTVSPost2010PropOp34
 70
     1
102
RTVSPost2010Prop35
280
     0
102
RTVSPost2010PropOp35
 70
     1
102
RTVSPost2010Prop36
280
     0
102
RTVSPost2010PropOp36
 70
     1
102
RTVSPost2010Prop37
 90
       50
102
RTVSPost2010PropOp37
 70
     0
102
RTVSPost2010Prop38
140
0.0
102
RTVSPost2010PropOp38
 70
     0
102
RTVSPost2010Prop39
140
1.0
102
RTVSPost2010PropOp39
 70
     0
102
RTVSPost2010Prop40
 90
        0
102
RTVSPost2010PropOp40
 70
     0
102
RTVSPost2010Prop41ColorIndex
 90
       18
102
RTVSPost2010Prop41ColorRGB
 90
        0
102
RTVSPost2010PropOp41
 70
     0
102
RTVSPost2010Prop42
 90
       50
102
RTVSPost2010PropOp42
 70
     0
102
RTVSPost2010Prop43
 90
        3
102
RTVSPost2010PropOp43
 70
     0
102
RTVSPost2010Prop44ColorIndex
 90
        5
102
RTVSPost2010Prop44ColorRGB
 90
      255
102
RTVSPost2010PropOp44
 70
     0
102
RTVSPost2010Prop45
280
     0
102
RTVSPost2010PropOp45
 70
     1
102
RTVSPost2010Prop46
 90
       50
102
RTVSPost2010PropOp46
 70
     0
102
RTVSPost2010Prop47
 90
       50
102
RTVSPost2010PropOp47
 70
     0
102
RTVSPost2010Prop48
 90
       50
102
RTVSPost2010PropOp48
 70
     0
102
RTVSPost2010Prop49
280
     0
102
RTVSPost2010PropOp49
 70
     1
102
RTVSPost2010Prop50
 90
       50
102
RTVSPost2010PropOp50
 70
     0
102
RTVSPost2010Prop51ColorIndex
 90
      256
102
RTVSPost2010Prop51ColorRGB
 90
-16777216
102
RTVSPost2010PropOp51
 70
     0
102
RTVSPost2010Prop52
140
1.0
102
RTVSPost2010PropOp52
 70
     0
102
RTVSPost2010Prop53
 90
        2
102
RTVSPost2010PropOp53
 70
     0
102
RTVSPost2010Prop54
  1
strokes_ogs.tif
102
RTVSPost2010PropOp54
 70
     0
102
RTVSPost2010Prop55
280
     0
102
RTVSPost2010PropOp55
 70
     1
102
RTVSPost2010Prop56
140
1.0
102
RTVSPost2010PropOp56
 70
     0
102
RTVSPost2010Prop57
140
1.0
102
RTVSPost2010PropOp57
 70
     0
102
RTVSPropertyOp0
 70
     0
102
RTVSPropertyOp1
 70
     0
102
RTVSPropertyOp2
 70
     0
102
RTVSPropertyOp3
 70
     0
102
RTVSPropertyOp4
 70
     0
102
RTVSPropertyOp5
 70
     0
102
RTVSPropertyOp6
 70
     0
102
RTVSPropertyOp7
 70
     0
102
RTVSPropertyOp8
 70
     0
102
RTVSPropertyOp9
 70
     0
102
RTVSPropertyOp10
 70
     0
102
RTVSPropertyOp11
 70
     0
102
RTVSPropertyOp12
 70
     0
102
RTVSPropertyOp13
 70
     0
102
RTVSPropertyOp14
 70
     2
102
RTVSPropertyOp15
 70
     0
102
RTVSPropertyOp16
 70
     0
102
RTVSPropertyOp17
 70
     0
102
RTVSPropertyOp18
 70
     0
102
RTVSPropertyOp19
 70
     0
102
RTVSPropertyOp20
 70
     0
102
RTVSPropertyOp21
 70
     0
102
RTVSPropertyOp22
 70
     0
102
RTVSPropertyOp23
 70
     0
102
RTVSPropertyOp24
 70
     0
102
RTVSPropertyOp25
 70
     0
102
RTVSPropertyOp26
 70
     0
102
RTVSPropertyOp27
 70
     0
102
RTVSPropertyOp28
 70
     1
102
RTVSPropertyOp29
 70
     1
102
RTVSPropertyOp30
 70
     1
102
RTVSPropertyOp31
 70
     1
102
RTVSPropertyOp32
 70
     1
102
RTVSPropertyOp33
 70
     1
102
RTVSPropertyOp34
 70
     1
102
RTVSPropertyOp35
 70
     1
102
RTVSPropertyOp36
 70
     1
102
RTVSPropertyOp37
 70
     0
102
RTVSPropertyOp38
 70
     0
102
RTVSPropertyOp39
 70
     0
102
RTVSPropertyOp40
 70
     0
102
RTVSPropertyOp41
 70
     0
102
RTVSPropertyOp42
 70
     0
102
RTVSPropertyOp43
 70
     0
102
RTVSPropertyOp44
 70
     0
102
RTVSPropertyOp45
 70
     1
102
RTVSPropertyOp46
 70
     0
102
RTVSPropertyOp47
 70
     0
102
RTVSPropertyOp48
 70
     0
102
RTVSPropertyOp49
 70
     1
102
RTVSPropertyOp50
 70
     0
102
RTVSPropertyOp51
 70
     0
102
RTVSPropertyOp52
 70
     0
102
RTVSPropertyOp53
 70
     0
102
RTVSPropertyOp54
 70
     0
102
RTVSPropertyOp55
 70
     1
102
RTVSPropertyOp56
 70
     0
102
RTVSPropertyOp57
 70
     0
102
RTVSPropertyOp58
 70
     0
102
RTVSPropertyOp59
 70
     0
102
RTVSPropertyOp60
 70
     0
102
RTVSPropertyOp61
 70
     0
102
RTVSPropertyOp62
 70
     0
  0
XRECORD
  5
1BF5
102
{ACAD_REACTORS
330
1BF4
102
}
330
1BF4
100
AcDbXrecord
280
     1
102
RTVSPost2010Prop28
280
     0
102
RTVSPost2010PropOp28
 70
     1
102
RTVSPost2010Prop29
280
     1
102
RTVSPost2010PropOp29
 70
     1
102
RTVSPost2010Prop30
280
     1
102
RTVSPost2010PropOp30
 70
     1
102
RTVSPost2010Prop31
280
     0
102
RTVSPost2010PropOp31
 70
     1
102
RTVSPost2010Prop32
280
     0
102
RTVSPost2010PropOp32
 70
     1
102
RTVSPost2010Prop33
280
     0
102
RTVSPost2010PropOp33
 70
     1
102
RTVSPost2010Prop34
280
     0
102
RTVSPost2010PropOp34
 70
     1
102
RTVSPost2010Prop35
280
     0
102
RTVSPost2010PropOp35
 70
     1
102
RTVSPost2010Prop36
280
     0
102
RTVSPost2010PropOp36
 70
     1
102
RTVSPost2010Prop37
 90
       50
102
RTVSPost2010PropOp37
 70
     1
102
RTVSPost2010Prop38
140
0.0
102
RTVSPost2010PropOp38
 70
     1
102
RTVSPost2010Prop39
140
1.0
102
RTVSPost2010PropOp39
 70
     1
102
RTVSPost2010Prop40
 90
        0
102
RTVSPost2010PropOp40
 70
     1
102
RTVSPost2010Prop41ColorIndex
 90
       18
102
RTVSPost2010Prop41ColorRGB
 90
        0
102
RTVSPost2010PropOp41
 70
     1
102
RTVSPost2010Prop42
 90
       50
102
RTVSPost2010PropOp42
 70
     1
102
RTVSPost2010Prop43
 90
        3
102
RTVSPost2010PropOp43
 70
     1
102
RTVSPost2010Prop44ColorIndex
 90
        5
102
RTVSPost2010Prop44ColorRGB
 90
      255
102
RTVSPost2010PropOp44
 70
     1
102
RTVSPost2010Prop45
280
     0
102
RTVSPost2010PropOp45
 70
     1
102
RTVSPost2010Prop46
 90
       50
102
RTVSPost2010PropOp46
 70
     1
102
RTVSPost2010Prop47
 90
       50
102
RTVSPost2010PropOp47
 70
     1
102
RTVSPost2010Prop48
 90
       50
102
RTVSPost2010PropOp48
 70
     1
102
RTVSPost2010Prop49
280
     0
102
RTVSPost2010PropOp49
 70
     1
102
RTVSPost2010Prop50
 90
       50
102
RTVSPost2010PropOp50
 70
     1
102
RTVSPost2010Prop51ColorIndex
 90
      256
102
RTVSPost2010Prop51ColorRGB
 90
-16777216
102
RTVSPost2010PropOp51
 70
     0
102
RTVSPost2010Prop52
140
1.0
102
RTVSPost2010PropOp52
 70
     0
102
RTVSPost2010Prop53
 90
        2
102
RTVSPost2010PropOp53
 70
     1
102
RTVSPost2010Prop54
  1
strokes_ogs.tif
102
RTVSPost2010PropOp54
 70
     1
102
RTVSPost2010Prop55
280
     0
102
RTVSPost2010PropOp55
 70
     1
102
RTVSPost2010Prop56
140
1.0
102
RTVSPost2010PropOp56
 70
     1
102
RTVSPost2010Prop57
140
1.0
102
RTVSPost2010PropOp57
 70
     1
102
RTVSPropertyOp0
 70
     1
102
RTVSPropertyOp1
 70
     1
102
RTVSPropertyOp2
 70
     1
102
RTVSPropertyOp3
 70
     1
102
RTVSPropertyOp4
 70
     1
102
RTVSPropertyOp5
 70
     1
102
RTVSPropertyOp6
 70
     1
102
RTVSPropertyOp7
 70
     1
102
RTVSPropertyOp8
 70
     1
102
RTVSPropertyOp9
 70
     1
102
RTVSPropertyOp10
 70
     1
102
RTVSPropertyOp11
 70
     1
102
RTVSPropertyOp12
 70
     1
102
RTVSPropertyOp13
 70
     1
102
RTVSPropertyOp14
 70
     1
102
RTVSPropertyOp15
 70
     1
102
RTVSPropertyOp16
 70
     1
102
RTVSPropertyOp17
 70
     1
102
RTVSPropertyOp18
 70
     1
102
RTVSPropertyOp19
 70
     1
102
RTVSPropertyOp20
 70
     1
102
RTVSPropertyOp21
 70
     1
102
RTVSPropertyOp22
 70
     1
102
RTVSPropertyOp23
 70
     1
102
RTVSPropertyOp24
 70
     1
102
RTVSPropertyOp25
 70
     1
102
RTVSPropertyOp26
 70
     1
102
RTVSPropertyOp27
 70
     1
102
RTVSPropertyOp28
 70
     1
102
RTVSPropertyOp29
 70
     1
102
RTVSPropertyOp30
 70
     1
102
RTVSPropertyOp31
 70
     1
102
RTVSPropertyOp32
 70
     1
102
RTVSPropertyOp33
 70
     1
102
RTVSPropertyOp34
 70
     1
102
RTVSPropertyOp35
 70
     1
102
RTVSPropertyOp36
 70
     1
102
RTVSPropertyOp37
 70
     1
102
RTVSPropertyOp38
 70
     1
102
RTVSPropertyOp39
 70
     1
102
RTVSPropertyOp40
 70
     1
102
RTVSPropertyOp41
 70
     1
102
RTVSPropertyOp42
 70
     1
102
RTVSPropertyOp43
 70
     1
102
RTVSPropertyOp44
 70
     1
102
RTVSPropertyOp45
 70
     1
102
RTVSPropertyOp46
 70
     1
102
RTVSPropertyOp47
 70
     1
102
RTVSPropertyOp48
 70
     1
102
RTVSPropertyOp49
 70
     1
102
RTVSPropertyOp50
 70
     1
102
RTVSPropertyOp51
 70
     0
102
RTVSPropertyOp52
 70
     0
102
RTVSPropertyOp53
 70
     1
102
RTVSPropertyOp54
 70
     1
102
RTVSPropertyOp55
 70
     1
102
RTVSPropertyOp56
 70
     1
102
RTVSPropertyOp57
 70
     1
102
RTVSPropertyOp58
 70
     1
102
RTVSPropertyOp59
 70
     1
102
RTVSPropertyOp60
 70
     1
102
RTVSPropertyOp61
 70
     1
102
RTVSPropertyOp62
 70
     1
  0
XRECORD
  5
1C0B
102
{ACAD_REACTORS
330
1C0A
102
}
330
1C0A
100
AcDbXrecord
280
     1
102
RTVSPost2010Prop28
280
     0
102
RTVSPost2010PropOp28
 70
     1
102
RTVSPost2010Prop29
280
     1
102
RTVSPost2010PropOp29
 70
     1
102
RTVSPost2010Prop30
280
     1
102
RTVSPost2010PropOp30
 70
     1
102
RTVSPost2010Prop31
280
     0
102
RTVSPost2010PropOp31
 70
     1
102
RTVSPost2010Prop32
280
     0
102
RTVSPost2010PropOp32
 70
     1
102
RTVSPost2010Prop33
280
     0
102
RTVSPost2010PropOp33
 70
     1
102
RTVSPost2010Prop34
280
     0
102
RTVSPost2010PropOp34
 70
     1
102
RTVSPost2010Prop35
280
     0
102
RTVSPost2010PropOp35
 70
     1
102
RTVSPost2010Prop36
280
     0
102
RTVSPost2010PropOp36
 70
     1
102
RTVSPost2010Prop37
 90
       50
102
RTVSPost2010PropOp37
 70
     0
102
RTVSPost2010Prop38
140
0.0
102
RTVSPost2010PropOp38
 70
     0
102
RTVSPost2010Prop39
140
1.0
102
RTVSPost2010PropOp39
 70
     0
102
RTVSPost2010Prop40
 90
        0
102
RTVSPost2010PropOp40
 70
     0
102
RTVSPost2010Prop41ColorIndex
 90
       18
102
RTVSPost2010Prop41ColorRGB
 90
        0
102
RTVSPost2010PropOp41
 70
     0
102
RTVSPost2010Prop42
 90
       50
102
RTVSPost2010PropOp42
 70
     0
102
RTVSPost2010Prop43
 90
        3
102
RTVSPost2010PropOp43
 70
     0
102
RTVSPost2010Prop44ColorIndex
 90
        5
102
RTVSPost2010Prop44ColorRGB
 90
      255
102
RTVSPost2010PropOp44
 70
     0
102
RTVSPost2010Prop45
280
     0
102
RTVSPost2010PropOp45
 70
     1
102
RTVSPost2010Prop46
 90
       50
102
RTVSPost2010PropOp46
 70
     0
102
RTVSPost2010Prop47
 90
       50
102
RTVSPost2010PropOp47
 70
     0
102
RTVSPost2010Prop48
 90
       50
102
RTVSPost2010PropOp48
 70
     0
102
RTVSPost2010Prop49
280
     0
102
RTVSPost2010PropOp49
 70
     1
102
RTVSPost2010Prop50
 90
       50
102
RTVSPost2010PropOp50
 70
     0
102
RTVSPost2010Prop51ColorIndex
 90
      256
102
RTVSPost2010Prop51ColorRGB
 90
-16777216
102
RTVSPost2010PropOp51
 70
     0
102
RTVSPost2010Prop52
140
1.0
102
RTVSPost2010PropOp52
 70
     0
102
RTVSPost2010Prop53
 90
        2
102
RTVSPost2010PropOp53
 70
     0
102
RTVSPost2010Prop54
  1
strokes_ogs.tif
102
RTVSPost2010PropOp54
 70
     0
102
RTVSPost2010Prop55
280
     0
102
RTVSPost2010PropOp55
 70
     1
102
RTVSPost2010Prop56
140
1.0
102
RTVSPost2010PropOp56
 70
     0
102
RTVSPost2010Prop57
140
1.0
102
RTVSPost2010PropOp57
 70
     0
102
RTVSPropertyOp0
 70
     0
102
RTVSPropertyOp1
 70
     0
102
RTVSPropertyOp2
 70
     0
102
RTVSPropertyOp3
 70
     0
102
RTVSPropertyOp4
 70
     0
102
RTVSPropertyOp5
 70
     0
102
RTVSPropertyOp6
 70
     0
102
RTVSPropertyOp7
 70
     0
102
RTVSPropertyOp8
 70
     0
102
RTVSPropertyOp9
 70
     0
102
RTVSPropertyOp10
 70
     0
102
RTVSPropertyOp11
 70
     0
102
RTVSPropertyOp12
 70
     0
102
RTVSPropertyOp13
 70
     0
102
RTVSPropertyOp14
 70
     2
102
RTVSPropertyOp15
 70
     0
102
RTVSPropertyOp16
 70
     0
102
RTVSPropertyOp17
 70
     0
102
RTVSPropertyOp18
 70
     0
102
RTVSPropertyOp19
 70
     0
102
RTVSPropertyOp20
 70
     0
102
RTVSPropertyOp21
 70
     0
102
RTVSPropertyOp22
 70
     0
102
RTVSPropertyOp23
 70
     0
102
RTVSPropertyOp24
 70
     0
102
RTVSPropertyOp25
 70
     0
102
RTVSPropertyOp26
 70
     0
102
RTVSPropertyOp27
 70
     0
102
RTVSPropertyOp28
 70
     1
102
RTVSPropertyOp29
 70
     1
102
RTVSPropertyOp30
 70
     1
102
RTVSPropertyOp31
 70
     1
102
RTVSPropertyOp32
 70
     1
102
RTVSPropertyOp33
 70
     1
102
RTVSPropertyOp34
 70
     1
102
RTVSPropertyOp35
 70
     1
102
RTVSPropertyOp36
 70
     1
102
RTVSPropertyOp37
 70
     0
102
RTVSPropertyOp38
 70
     0
102
RTVSPropertyOp39
 70
     0
102
RTVSPropertyOp40
 70
     0
102
RTVSPropertyOp41
 70
     0
102
RTVSPropertyOp42
 70
     0
102
RTVSPropertyOp43
 70
     0
102
RTVSPropertyOp44
 70
     0
102
RTVSPropertyOp45
 70
     1
102
RTVSPropertyOp46
 70
     0
102
RTVSPropertyOp47
 70
     0
102
RTVSPropertyOp48
 70
     0
102
RTVSPropertyOp49
 70
     1
102
RTVSPropertyOp50
 70
     0
102
RTVSPropertyOp51
 70
     0
102
RTVSPropertyOp52
 70
     0
102
RTVSPropertyOp53
 70
     0
102
RTVSPropertyOp54
 70
     0
102
RTVSPropertyOp55
 70
     1
102
RTVSPropertyOp56
 70
     0
102
RTVSPropertyOp57
 70
     0
102
RTVSPropertyOp58
 70
     0
102
RTVSPropertyOp59
 70
     0
102
RTVSPropertyOp60
 70
     0
102
RTVSPropertyOp61
 70
     0
102
RTVSPropertyOp62
 70
     0
  0
XRECORD
  5
1BED
102
{ACAD_REACTORS
330
1BEC
102
}
330
1BEC
100
AcDbXrecord
280
     1
102
RTVSPost2010Prop28
280
     0
102
RTVSPost2010PropOp28
 70
     1
102
RTVSPost2010Prop29
280
     1
102
RTVSPost2010PropOp29
 70
     1
102
RTVSPost2010Prop30
280
     1
102
RTVSPost2010PropOp30
 70
     1
102
RTVSPost2010Prop31
280
     0
102
RTVSPost2010PropOp31
 70
     1
102
RTVSPost2010Prop32
280
     0
102
RTVSPost2010PropOp32
 70
     1
102
RTVSPost2010Prop33
280
     0
102
RTVSPost2010PropOp33
 70
     1
102
RTVSPost2010Prop34
280
     0
102
RTVSPost2010PropOp34
 70
     1
102
RTVSPost2010Prop35
280
     0
102
RTVSPost2010PropOp35
 70
     1
102
RTVSPost2010Prop36
280
     0
102
RTVSPost2010PropOp36
 70
     1
102
RTVSPost2010Prop37
 90
       50
102
RTVSPost2010PropOp37
 70
     1
102
RTVSPost2010Prop38
140
0.0
102
RTVSPost2010PropOp38
 70
     1
102
RTVSPost2010Prop39
140
1.0
102
RTVSPost2010PropOp39
 70
     1
102
RTVSPost2010Prop40
 90
        0
102
RTVSPost2010PropOp40
 70
     1
102
RTVSPost2010Prop41ColorIndex
 90
       18
102
RTVSPost2010Prop41ColorRGB
 90
        0
102
RTVSPost2010PropOp41
 70
     1
102
RTVSPost2010Prop42
 90
       50
102
RTVSPost2010PropOp42
 70
     1
102
RTVSPost2010Prop43
 90
        3
102
RTVSPost2010PropOp43
 70
     1
102
RTVSPost2010Prop44ColorIndex
 90
        5
102
RTVSPost2010Prop44ColorRGB
 90
      255
102
RTVSPost2010PropOp44
 70
     1
102
RTVSPost2010Prop45
280
     0
102
RTVSPost2010PropOp45
 70
     1
102
RTVSPost2010Prop46
 90
       50
102
RTVSPost2010PropOp46
 70
     1
102
RTVSPost2010Prop47
 90
       50
102
RTVSPost2010PropOp47
 70
     1
102
RTVSPost2010Prop48
 90
       50
102
RTVSPost2010PropOp48
 70
     1
102
RTVSPost2010Prop49
280
     0
102
RTVSPost2010PropOp49
 70
     1
102
RTVSPost2010Prop50
 90
       50
102
RTVSPost2010PropOp50
 70
     1
102
RTVSPost2010Prop51ColorIndex
 90
      256
102
RTVSPost2010Prop51ColorRGB
 90
-16777216
102
RTVSPost2010PropOp51
 70
     0
102
RTVSPost2010Prop52
140
1.0
102
RTVSPost2010PropOp52
 70
     0
102
RTVSPost2010Prop53
 90
        2
102
RTVSPost2010PropOp53
 70
     1
102
RTVSPost2010Prop54
  1
strokes_ogs.tif
102
RTVSPost2010PropOp54
 70
     1
102
RTVSPost2010Prop55
280
     0
102
RTVSPost2010PropOp55
 70
     1
102
RTVSPost2010Prop56
140
1.0
102
RTVSPost2010PropOp56
 70
     1
102
RTVSPost2010Prop57
140
1.0
102
RTVSPost2010PropOp57
 70
     1
102
RTVSPropertyOp0
 70
     1
102
RTVSPropertyOp1
 70
     1
102
RTVSPropertyOp2
 70
     1
102
RTVSPropertyOp3
 70
     1
102
RTVSPropertyOp4
 70
     1
102
RTVSPropertyOp5
 70
     1
102
RTVSPropertyOp6
 70
     1
102
RTVSPropertyOp7
 70
     1
102
RTVSPropertyOp8
 70
     1
102
RTVSPropertyOp9
 70
     1
102
RTVSPropertyOp10
 70
     1
102
RTVSPropertyOp11
 70
     1
102
RTVSPropertyOp12
 70
     1
102
RTVSPropertyOp13
 70
     1
102
RTVSPropertyOp14
 70
     1
102
RTVSPropertyOp15
 70
     1
102
RTVSPropertyOp16
 70
     1
102
RTVSPropertyOp17
 70
     1
102
RTVSPropertyOp18
 70
     1
102
RTVSPropertyOp19
 70
     1
102
RTVSPropertyOp20
 70
     1
102
RTVSPropertyOp21
 70
     1
102
RTVSPropertyOp22
 70
     1
102
RTVSPropertyOp23
 70
     1
102
RTVSPropertyOp24
 70
     1
102
RTVSPropertyOp25
 70
     1
102
RTVSPropertyOp26
 70
     1
102
RTVSPropertyOp27
 70
     1
102
RTVSPropertyOp28
 70
     1
102
RTVSPropertyOp29
 70
     1
102
RTVSPropertyOp30
 70
     1
102
RTVSPropertyOp31
 70
     1
102
RTVSPropertyOp32
 70
     1
102
RTVSPropertyOp33
 70
     1
102
RTVSPropertyOp34
 70
     1
102
RTVSPropertyOp35
 70
     1
102
RTVSPropertyOp36
 70
     1
102
RTVSPropertyOp37
 70
     1
102
RTVSPropertyOp38
 70
     1
102
RTVSPropertyOp39
 70
     1
102
RTVSPropertyOp40
 70
     1
102
RTVSPropertyOp41
 70
     1
102
RTVSPropertyOp42
 70
     1
102
RTVSPropertyOp43
 70
     1
102
RTVSPropertyOp44
 70
     1
102
RTVSPropertyOp45
 70
     1
102
RTVSPropertyOp46
 70
     1
102
RTVSPropertyOp47
 70
     1
102
RTVSPropertyOp48
 70
     1
102
RTVSPropertyOp49
 70
     1
102
RTVSPropertyOp50
 70
     1
102
RTVSPropertyOp51
 70
     0
102
RTVSPropertyOp52
 70
     0
102
RTVSPropertyOp53
 70
     1
102
RTVSPropertyOp54
 70
     1
102
RTVSPropertyOp55
 70
     1
102
RTVSPropertyOp56
 70
     1
102
RTVSPropertyOp57
 70
     1
102
RTVSPropertyOp58
 70
     1
102
RTVSPropertyOp59
 70
     1
102
RTVSPropertyOp60
 70
     1
102
RTVSPropertyOp61
 70
     1
102
RTVSPropertyOp62
 70
     1
  0
XRECORD
  5
1C07
102
{ACAD_REACTORS
330
1C06
102
}
330
1C06
100
AcDbXrecord
280
     1
102
RTVSPost2010Prop28
280
     0
102
RTVSPost2010PropOp28
 70
     1
102
RTVSPost2010Prop29
280
     1
102
RTVSPost2010PropOp29
 70
     1
102
RTVSPost2010Prop30
280
     1
102
RTVSPost2010PropOp30
 70
     1
102
RTVSPost2010Prop31
280
     0
102
RTVSPost2010PropOp31
 70
     1
102
RTVSPost2010Prop32
280
     0
102
RTVSPost2010PropOp32
 70
     1
102
RTVSPost2010Prop33
280
     0
102
RTVSPost2010PropOp33
 70
     1
102
RTVSPost2010Prop34
280
     0
102
RTVSPost2010PropOp34
 70
     1
102
RTVSPost2010Prop35
280
     0
102
RTVSPost2010PropOp35
 70
     1
102
RTVSPost2010Prop36
280
     0
102
RTVSPost2010PropOp36
 70
     1
102
RTVSPost2010Prop37
 90
       50
102
RTVSPost2010PropOp37
 70
     1
102
RTVSPost2010Prop38
140
0.0
102
RTVSPost2010PropOp38
 70
     1
102
RTVSPost2010Prop39
140
1.0
102
RTVSPost2010PropOp39
 70
     1
102
RTVSPost2010Prop40
 90
        0
102
RTVSPost2010PropOp40
 70
     1
102
RTVSPost2010Prop41ColorIndex
 90
       18
102
RTVSPost2010Prop41ColorRGB
 90
        0
102
RTVSPost2010PropOp41
 70
     1
102
RTVSPost2010Prop42
 90
       50
102
RTVSPost2010PropOp42
 70
     1
102
RTVSPost2010Prop43
 90
        3
102
RTVSPost2010PropOp43
 70
     1
102
RTVSPost2010Prop44ColorIndex
 90
        5
102
RTVSPost2010Prop44ColorRGB
 90
      255
102
RTVSPost2010PropOp44
 70
     1
102
RTVSPost2010Prop45
280
     0
102
RTVSPost2010PropOp45
 70
     1
102
RTVSPost2010Prop46
 90
       50
102
RTVSPost2010PropOp46
 70
     1
102
RTVSPost2010Prop47
 90
       50
102
RTVSPost2010PropOp47
 70
     1
102
RTVSPost2010Prop48
 90
       50
102
RTVSPost2010PropOp48
 70
     1
102
RTVSPost2010Prop49
280
     0
102
RTVSPost2010PropOp49
 70
     1
102
RTVSPost2010Prop50
 90
       50
102
RTVSPost2010PropOp50
 70
     1
102
RTVSPost2010Prop51ColorIndex
 90
      256
102
RTVSPost2010Prop51ColorRGB
 90
-16777216
102
RTVSPost2010PropOp51
 70
     0
102
RTVSPost2010Prop52
140
1.0
102
RTVSPost2010PropOp52
 70
     0
102
RTVSPost2010Prop53
 90
        2
102
RTVSPost2010PropOp53
 70
     1
102
RTVSPost2010Prop54
  1
strokes_ogs.tif
102
RTVSPost2010PropOp54
 70
     1
102
RTVSPost2010Prop55
280
     0
102
RTVSPost2010PropOp55
 70
     1
102
RTVSPost2010Prop56
140
1.0
102
RTVSPost2010PropOp56
 70
     1
102
RTVSPost2010Prop57
140
1.0
102
RTVSPost2010PropOp57
 70
     1
102
RTVSPropertyOp0
 70
     1
102
RTVSPropertyOp1
 70
     1
102
RTVSPropertyOp2
 70
     1
102
RTVSPropertyOp3
 70
     1
102
RTVSPropertyOp4
 70
     1
102
RTVSPropertyOp5
 70
     1
102
RTVSPropertyOp6
 70
     1
102
RTVSPropertyOp7
 70
     1
102
RTVSPropertyOp8
 70
     1
102
RTVSPropertyOp9
 70
     1
102
RTVSPropertyOp10
 70
     1
102
RTVSPropertyOp11
 70
     1
102
RTVSPropertyOp12
 70
     1
102
RTVSPropertyOp13
 70
     1
102
RTVSPropertyOp14
 70
     1
102
RTVSPropertyOp15
 70
     1
102
RTVSPropertyOp16
 70
     1
102
RTVSPropertyOp17
 70
     1
102
RTVSPropertyOp18
 70
     1
102
RTVSPropertyOp19
 70
     1
102
RTVSPropertyOp20
 70
     1
102
RTVSPropertyOp21
 70
     1
102
RTVSPropertyOp22
 70
     1
102
RTVSPropertyOp23
 70
     1
102
RTVSPropertyOp24
 70
     1
102
RTVSPropertyOp25
 70
     1
102
RTVSPropertyOp26
 70
     1
102
RTVSPropertyOp27
 70
     1
102
RTVSPropertyOp28
 70
     1
102
RTVSPropertyOp29
 70
     1
102
RTVSPropertyOp30
 70
     1
102
RTVSPropertyOp31
 70
     1
102
RTVSPropertyOp32
 70
     1
102
RTVSPropertyOp33
 70
     1
102
RTVSPropertyOp34
 70
     1
102
RTVSPropertyOp35
 70
     1
102
RTVSPropertyOp36
 70
     1
102
RTVSPropertyOp37
 70
     1
102
RTVSPropertyOp38
 70
     1
102
RTVSPropertyOp39
 70
     1
102
RTVSPropertyOp40
 70
     1
102
RTVSPropertyOp41
 70
     1
102
RTVSPropertyOp42
 70
     1
102
RTVSPropertyOp43
 70
     1
102
RTVSPropertyOp44
 70
     1
102
RTVSPropertyOp45
 70
     1
102
RTVSPropertyOp46
 70
     1
102
RTVSPropertyOp47
 70
     1
102
RTVSPropertyOp48
 70
     1
102
RTVSPropertyOp49
 70
     1
102
RTVSPropertyOp50
 70
     1
102
RTVSPropertyOp51
 70
     0
102
RTVSPropertyOp52
 70
     0
102
RTVSPropertyOp53
 70
     1
102
RTVSPropertyOp54
 70
     1
102
RTVSPropertyOp55
 70
     1
102
RTVSPropertyOp56
 70
     1
102
RTVSPropertyOp57
 70
     1
102
RTVSPropertyOp58
 70
     1
102
RTVSPropertyOp59
 70
     1
102
RTVSPropertyOp60
 70
     1
102
RTVSPropertyOp61
 70
     1
102
RTVSPropertyOp62
 70
     1
  0
XRECORD
  5
1C05
102
{ACAD_REACTORS
330
1C04
102
}
330
1C04
100
AcDbXrecord
280
     1
102
RTVSPost2010Prop28
280
     0
102
RTVSPost2010PropOp28
 70
     1
102
RTVSPost2010Prop29
280
     1
102
RTVSPost2010PropOp29
 70
     1
102
RTVSPost2010Prop30
280
     1
102
RTVSPost2010PropOp30
 70
     1
102
RTVSPost2010Prop31
280
     0
102
RTVSPost2010PropOp31
 70
     1
102
RTVSPost2010Prop32
280
     0
102
RTVSPost2010PropOp32
 70
     1
102
RTVSPost2010Prop33
280
     0
102
RTVSPost2010PropOp33
 70
     1
102
RTVSPost2010Prop34
280
     0
102
RTVSPost2010PropOp34
 70
     1
102
RTVSPost2010Prop35
280
     0
102
RTVSPost2010PropOp35
 70
     1
102
RTVSPost2010Prop36
280
     0
102
RTVSPost2010PropOp36
 70
     1
102
RTVSPost2010Prop37
 90
       50
102
RTVSPost2010PropOp37
 70
     1
102
RTVSPost2010Prop38
140
0.0
102
RTVSPost2010PropOp38
 70
     1
102
RTVSPost2010Prop39
140
1.0
102
RTVSPost2010PropOp39
 70
     1
102
RTVSPost2010Prop40
 90
        0
102
RTVSPost2010PropOp40
 70
     1
102
RTVSPost2010Prop41ColorIndex
 90
       18
102
RTVSPost2010Prop41ColorRGB
 90
        0
102
RTVSPost2010PropOp41
 70
     1
102
RTVSPost2010Prop42
 90
       50
102
RTVSPost2010PropOp42
 70
     1
102
RTVSPost2010Prop43
 90
        3
102
RTVSPost2010PropOp43
 70
     1
102
RTVSPost2010Prop44ColorIndex
 90
        5
102
RTVSPost2010Prop44ColorRGB
 90
      255
102
RTVSPost2010PropOp44
 70
     1
102
RTVSPost2010Prop45
280
     0
102
RTVSPost2010PropOp45
 70
     1
102
RTVSPost2010Prop46
 90
       50
102
RTVSPost2010PropOp46
 70
     1
102
RTVSPost2010Prop47
 90
       50
102
RTVSPost2010PropOp47
 70
     1
102
RTVSPost2010Prop48
 90
       50
102
RTVSPost2010PropOp48
 70
     1
102
RTVSPost2010Prop49
280
     0
102
RTVSPost2010PropOp49
 70
     1
102
RTVSPost2010Prop50
 90
       50
102
RTVSPost2010PropOp50
 70
     1
102
RTVSPost2010Prop51ColorIndex
 90
      256
102
RTVSPost2010Prop51ColorRGB
 90
-16777216
102
RTVSPost2010PropOp51
 70
     0
102
RTVSPost2010Prop52
140
1.0
102
RTVSPost2010PropOp52
 70
     0
102
RTVSPost2010Prop53
 90
        2
102
RTVSPost2010PropOp53
 70
     1
102
RTVSPost2010Prop54
  1
strokes_ogs.tif
102
RTVSPost2010PropOp54
 70
     1
102
RTVSPost2010Prop55
280
     0
102
RTVSPost2010PropOp55
 70
     1
102
RTVSPost2010Prop56
140
1.0
102
RTVSPost2010PropOp56
 70
     1
102
RTVSPost2010Prop57
140
1.0
102
RTVSPost2010PropOp57
 70
     1
102
RTVSPropertyOp0
 70
     1
102
RTVSPropertyOp1
 70
     1
102
RTVSPropertyOp2
 70
     1
102
RTVSPropertyOp3
 70
     1
102
RTVSPropertyOp4
 70
     1
102
RTVSPropertyOp5
 70
     1
102
RTVSPropertyOp6
 70
     1
102
RTVSPropertyOp7
 70
     1
102
RTVSPropertyOp8
 70
     1
102
RTVSPropertyOp9
 70
     1
102
RTVSPropertyOp10
 70
     1
102
RTVSPropertyOp11
 70
     1
102
RTVSPropertyOp12
 70
     1
102
RTVSPropertyOp13
 70
     1
102
RTVSPropertyOp14
 70
     1
102
RTVSPropertyOp15
 70
     1
102
RTVSPropertyOp16
 70
     1
102
RTVSPropertyOp17
 70
     1
102
RTVSPropertyOp18
 70
     1
102
RTVSPropertyOp19
 70
     1
102
RTVSPropertyOp20
 70
     1
102
RTVSPropertyOp21
 70
     1
102
RTVSPropertyOp22
 70
     1
102
RTVSPropertyOp23
 70
     1
102
RTVSPropertyOp24
 70
     1
102
RTVSPropertyOp25
 70
     1
102
RTVSPropertyOp26
 70
     1
102
RTVSPropertyOp27
 70
     1
102
RTVSPropertyOp28
 70
     1
102
RTVSPropertyOp29
 70
     1
102
RTVSPropertyOp30
 70
     1
102
RTVSPropertyOp31
 70
     1
102
RTVSPropertyOp32
 70
     1
102
RTVSPropertyOp33
 70
     1
102
RTVSPropertyOp34
 70
     1
102
RTVSPropertyOp35
 70
     1
102
RTVSPropertyOp36
 70
     1
102
RTVSPropertyOp37
 70
     1
102
RTVSPropertyOp38
 70
     1
102
RTVSPropertyOp39
 70
     1
102
RTVSPropertyOp40
 70
     1
102
RTVSPropertyOp41
 70
     1
102
RTVSPropertyOp42
 70
     1
102
RTVSPropertyOp43
 70
     1
102
RTVSPropertyOp44
 70
     1
102
RTVSPropertyOp45
 70
     1
102
RTVSPropertyOp46
 70
     1
102
RTVSPropertyOp47
 70
     1
102
RTVSPropertyOp48
 70
     1
102
RTVSPropertyOp49
 70
     1
102
RTVSPropertyOp50
 70
     1
102
RTVSPropertyOp51
 70
     0
102
RTVSPropertyOp52
 70
     0
102
RTVSPropertyOp53
 70
     1
102
RTVSPropertyOp54
 70
     1
102
RTVSPropertyOp55
 70
     1
102
RTVSPropertyOp56
 70
     1
102
RTVSPropertyOp57
 70
     1
102
RTVSPropertyOp58
 70
     1
102
RTVSPropertyOp59
 70
     1
102
RTVSPropertyOp60
 70
     1
102
RTVSPropertyOp61
 70
     1
102
RTVSPropertyOp62
 70
     1
  0
XRECORD
  5
1BFF
102
{ACAD_REACTORS
330
1BFE
102
}
330
1BFE
100
AcDbXrecord
280
     1
102
RTVSPost2010Prop28
280
     0
102
RTVSPost2010PropOp28
 70
     1
102
RTVSPost2010Prop29
280
     1
102
RTVSPost2010PropOp29
 70
     1
102
RTVSPost2010Prop30
280
     1
102
RTVSPost2010PropOp30
 70
     1
102
RTVSPost2010Prop31
280
     0
102
RTVSPost2010PropOp31
 70
     1
102
RTVSPost2010Prop32
280
     0
102
RTVSPost2010PropOp32
 70
     1
102
RTVSPost2010Prop33
280
     0
102
RTVSPost2010PropOp33
 70
     1
102
RTVSPost2010Prop34
280
     0
102
RTVSPost2010PropOp34
 70
     1
102
RTVSPost2010Prop35
280
     0
102
RTVSPost2010PropOp35
 70
     1
102
RTVSPost2010Prop36
280
     0
102
RTVSPost2010PropOp36
 70
     1
102
RTVSPost2010Prop37
 90
       50
102
RTVSPost2010PropOp37
 70
     1
102
RTVSPost2010Prop38
140
0.0
102
RTVSPost2010PropOp38
 70
     1
102
RTVSPost2010Prop39
140
1.0
102
RTVSPost2010PropOp39
 70
     1
102
RTVSPost2010Prop40
 90
        0
102
RTVSPost2010PropOp40
 70
     1
102
RTVSPost2010Prop41ColorIndex
 90
       18
102
RTVSPost2010Prop41ColorRGB
 90
        0
102
RTVSPost2010PropOp41
 70
     1
102
RTVSPost2010Prop42
 90
       50
102
RTVSPost2010PropOp42
 70
     1
102
RTVSPost2010Prop43
 90
        3
102
RTVSPost2010PropOp43
 70
     1
102
RTVSPost2010Prop44ColorIndex
 90
        5
102
RTVSPost2010Prop44ColorRGB
 90
      255
102
RTVSPost2010PropOp44
 70
     1
102
RTVSPost2010Prop45
280
     0
102
RTVSPost2010PropOp45
 70
     1
102
RTVSPost2010Prop46
 90
       50
102
RTVSPost2010PropOp46
 70
     1
102
RTVSPost2010Prop47
 90
       50
102
RTVSPost2010PropOp47
 70
     1
102
RTVSPost2010Prop48
 90
       50
102
RTVSPost2010PropOp48
 70
     1
102
RTVSPost2010Prop49
280
     0
102
RTVSPost2010PropOp49
 70
     1
102
RTVSPost2010Prop50
 90
       50
102
RTVSPost2010PropOp50
 70
     1
102
RTVSPost2010Prop51ColorIndex
 90
      256
102
RTVSPost2010Prop51ColorRGB
 90
-16777216
102
RTVSPost2010PropOp51
 70
     0
102
RTVSPost2010Prop52
140
1.0
102
RTVSPost2010PropOp52
 70
     0
102
RTVSPost2010Prop53
 90
        2
102
RTVSPost2010PropOp53
 70
     1
102
RTVSPost2010Prop54
  1
strokes_ogs.tif
102
RTVSPost2010PropOp54
 70
     1
102
RTVSPost2010Prop55
280
     0
102
RTVSPost2010PropOp55
 70
     1
102
RTVSPost2010Prop56
140
1.0
102
RTVSPost2010PropOp56
 70
     1
102
RTVSPost2010Prop57
140
1.0
102
RTVSPost2010PropOp57
 70
     1
102
RTVSPropertyOp0
 70
     1
102
RTVSPropertyOp1
 70
     1
102
RTVSPropertyOp2
 70
     1
102
RTVSPropertyOp3
 70
     1
102
RTVSPropertyOp4
 70
     1
102
RTVSPropertyOp5
 70
     1
102
RTVSPropertyOp6
 70
     1
102
RTVSPropertyOp7
 70
     1
102
RTVSPropertyOp8
 70
     1
102
RTVSPropertyOp9
 70
     1
102
RTVSPropertyOp10
 70
     1
102
RTVSPropertyOp11
 70
     1
102
RTVSPropertyOp12
 70
     1
102
RTVSPropertyOp13
 70
     1
102
RTVSPropertyOp14
 70
     1
102
RTVSPropertyOp15
 70
     1
102
RTVSPropertyOp16
 70
     1
102
RTVSPropertyOp17
 70
     1
102
RTVSPropertyOp18
 70
     1
102
RTVSPropertyOp19
 70
     1
102
RTVSPropertyOp20
 70
     1
102
RTVSPropertyOp21
 70
     1
102
RTVSPropertyOp22
 70
     1
102
RTVSPropertyOp23
 70
     1
102
RTVSPropertyOp24
 70
     1
102
RTVSPropertyOp25
 70
     1
102
RTVSPropertyOp26
 70
     1
102
RTVSPropertyOp27
 70
     1
102
RTVSPropertyOp28
 70
     1
102
RTVSPropertyOp29
 70
     1
102
RTVSPropertyOp30
 70
     1
102
RTVSPropertyOp31
 70
     1
102
RTVSPropertyOp32
 70
     1
102
RTVSPropertyOp33
 70
     1
102
RTVSPropertyOp34
 70
     1
102
RTVSPropertyOp35
 70
     1
102
RTVSPropertyOp36
 70
     1
102
RTVSPropertyOp37
 70
     1
102
RTVSPropertyOp38
 70
     1
102
RTVSPropertyOp39
 70
     1
102
RTVSPropertyOp40
 70
     1
102
RTVSPropertyOp41
 70
     1
102
RTVSPropertyOp42
 70
     1
102
RTVSPropertyOp43
 70
     1
102
RTVSPropertyOp44
 70
     1
102
RTVSPropertyOp45
 70
     1
102
RTVSPropertyOp46
 70
     1
102
RTVSPropertyOp47
 70
     1
102
RTVSPropertyOp48
 70
     1
102
RTVSPropertyOp49
 70
     1
102
RTVSPropertyOp50
 70
     1
102
RTVSPropertyOp51
 70
     0
102
RTVSPropertyOp52
 70
     0
102
RTVSPropertyOp53
 70
     1
102
RTVSPropertyOp54
 70
     1
102
RTVSPropertyOp55
 70
     1
102
RTVSPropertyOp56
 70
     1
102
RTVSPropertyOp57
 70
     1
102
RTVSPropertyOp58
 70
     1
102
RTVSPropertyOp59
 70
     1
102
RTVSPropertyOp60
 70
     1
102
RTVSPropertyOp61
 70
     1
102
RTVSPropertyOp62
 70
     1
  0
XRECORD
  5
1C01
102
{ACAD_REACTORS
330
1C00
102
}
330
1C00
100
AcDbXrecord
280
     1
102
RTVSPost2010Prop28
280
     0
102
RTVSPost2010PropOp28
 70
     1
102
RTVSPost2010Prop29
280
     1
102
RTVSPost2010PropOp29
 70
     1
102
RTVSPost2010Prop30
280
     1
102
RTVSPost2010PropOp30
 70
     1
102
RTVSPost2010Prop31
280
     0
102
RTVSPost2010PropOp31
 70
     1
102
RTVSPost2010Prop32
280
     0
102
RTVSPost2010PropOp32
 70
     1
102
RTVSPost2010Prop33
280
     0
102
RTVSPost2010PropOp33
 70
     1
102
RTVSPost2010Prop34
280
     0
102
RTVSPost2010PropOp34
 70
     1
102
RTVSPost2010Prop35
280
     0
102
RTVSPost2010PropOp35
 70
     1
102
RTVSPost2010Prop36
280
     0
102
RTVSPost2010PropOp36
 70
     1
102
RTVSPost2010Prop37
 90
       50
102
RTVSPost2010PropOp37
 70
     1
102
RTVSPost2010Prop38
140
0.0
102
RTVSPost2010PropOp38
 70
     1
102
RTVSPost2010Prop39
140
1.0
102
RTVSPost2010PropOp39
 70
     1
102
RTVSPost2010Prop40
 90
        0
102
RTVSPost2010PropOp40
 70
     1
102
RTVSPost2010Prop41ColorIndex
 90
       18
102
RTVSPost2010Prop41ColorRGB
 90
        0
102
RTVSPost2010PropOp41
 70
     1
102
RTVSPost2010Prop42
 90
       50
102
RTVSPost2010PropOp42
 70
     1
102
RTVSPost2010Prop43
 90
        3
102
RTVSPost2010PropOp43
 70
     1
102
RTVSPost2010Prop44ColorIndex
 90
        5
102
RTVSPost2010Prop44ColorRGB
 90
      255
102
RTVSPost2010PropOp44
 70
     1
102
RTVSPost2010Prop45
280
     0
102
RTVSPost2010PropOp45
 70
     1
102
RTVSPost2010Prop46
 90
       50
102
RTVSPost2010PropOp46
 70
     1
102
RTVSPost2010Prop47
 90
       50
102
RTVSPost2010PropOp47
 70
     1
102
RTVSPost2010Prop48
 90
       50
102
RTVSPost2010PropOp48
 70
     1
102
RTVSPost2010Prop49
280
     0
102
RTVSPost2010PropOp49
 70
     1
102
RTVSPost2010Prop50
 90
       50
102
RTVSPost2010PropOp50
 70
     1
102
RTVSPost2010Prop51ColorIndex
 90
      256
102
RTVSPost2010Prop51ColorRGB
 90
-16777216
102
RTVSPost2010PropOp51
 70
     0
102
RTVSPost2010Prop52
140
1.0
102
RTVSPost2010PropOp52
 70
     0
102
RTVSPost2010Prop53
 90
        2
102
RTVSPost2010PropOp53
 70
     1
102
RTVSPost2010Prop54
  1
strokes_ogs.tif
102
RTVSPost2010PropOp54
 70
     1
102
RTVSPost2010Prop55
280
     0
102
RTVSPost2010PropOp55
 70
     1
102
RTVSPost2010Prop56
140
1.0
102
RTVSPost2010PropOp56
 70
     1
102
RTVSPost2010Prop57
140
1.0
102
RTVSPost2010PropOp57
 70
     1
102
RTVSPropertyOp0
 70
     1
102
RTVSPropertyOp1
 70
     1
102
RTVSPropertyOp2
 70
     1
102
RTVSPropertyOp3
 70
     1
102
RTVSPropertyOp4
 70
     1
102
RTVSPropertyOp5
 70
     1
102
RTVSPropertyOp6
 70
     1
102
RTVSPropertyOp7
 70
     1
102
RTVSPropertyOp8
 70
     1
102
RTVSPropertyOp9
 70
     1
102
RTVSPropertyOp10
 70
     1
102
RTVSPropertyOp11
 70
     1
102
RTVSPropertyOp12
 70
     1
102
RTVSPropertyOp13
 70
     1
102
RTVSPropertyOp14
 70
     1
102
RTVSPropertyOp15
 70
     1
102
RTVSPropertyOp16
 70
     1
102
RTVSPropertyOp17
 70
     1
102
RTVSPropertyOp18
 70
     1
102
RTVSPropertyOp19
 70
     1
102
RTVSPropertyOp20
 70
     1
102
RTVSPropertyOp21
 70
     1
102
RTVSPropertyOp22
 70
     1
102
RTVSPropertyOp23
 70
     1
102
RTVSPropertyOp24
 70
     1
102
RTVSPropertyOp25
 70
     1
102
RTVSPropertyOp26
 70
     1
102
RTVSPropertyOp27
 70
     1
102
RTVSPropertyOp28
 70
     1
102
RTVSPropertyOp29
 70
     1
102
RTVSPropertyOp30
 70
     1
102
RTVSPropertyOp31
 70
     1
102
RTVSPropertyOp32
 70
     1
102
RTVSPropertyOp33
 70
     1
102
RTVSPropertyOp34
 70
     1
102
RTVSPropertyOp35
 70
     1
102
RTVSPropertyOp36
 70
     1
102
RTVSPropertyOp37
 70
     1
102
RTVSPropertyOp38
 70
     1
102
RTVSPropertyOp39
 70
     1
102
RTVSPropertyOp40
 70
     1
102
RTVSPropertyOp41
 70
     1
102
RTVSPropertyOp42
 70
     1
102
RTVSPropertyOp43
 70
     1
102
RTVSPropertyOp44
 70
     1
102
RTVSPropertyOp45
 70
     1
102
RTVSPropertyOp46
 70
     1
102
RTVSPropertyOp47
 70
     1
102
RTVSPropertyOp48
 70
     1
102
RTVSPropertyOp49
 70
     1
102
RTVSPropertyOp50
 70
     1
102
RTVSPropertyOp51
 70
     0
102
RTVSPropertyOp52
 70
     0
102
RTVSPropertyOp53
 70
     1
102
RTVSPropertyOp54
 70
     1
102
RTVSPropertyOp55
 70
     1
102
RTVSPropertyOp56
 70
     1
102
RTVSPropertyOp57
 70
     1
102
RTVSPropertyOp58
 70
     1
102
RTVSPropertyOp59
 70
     1
102
RTVSPropertyOp60
 70
     1
102
RTVSPropertyOp61
 70
     1
102
RTVSPropertyOp62
 70
     1
  0
XRECORD
  5
1BF3
102
{ACAD_REACTORS
330
1BF2
102
}
330
1BF2
100
AcDbXrecord
280
     1
102
RTVSPost2010Prop28
280
     0
102
RTVSPost2010PropOp28
 70
     1
102
RTVSPost2010Prop29
280
     1
102
RTVSPost2010PropOp29
 70
     1
102
RTVSPost2010Prop30
280
     1
102
RTVSPost2010PropOp30
 70
     1
102
RTVSPost2010Prop31
280
     0
102
RTVSPost2010PropOp31
 70
     1
102
RTVSPost2010Prop32
280
     0
102
RTVSPost2010PropOp32
 70
     1
102
RTVSPost2010Prop33
280
     0
102
RTVSPost2010PropOp33
 70
     1
102
RTVSPost2010Prop34
280
     0
102
RTVSPost2010PropOp34
 70
     1
102
RTVSPost2010Prop35
280
     0
102
RTVSPost2010PropOp35
 70
     1
102
RTVSPost2010Prop36
280
     0
102
RTVSPost2010PropOp36
 70
     1
102
RTVSPost2010Prop37
 90
       50
102
RTVSPost2010PropOp37
 70
     1
102
RTVSPost2010Prop38
140
0.0
102
RTVSPost2010PropOp38
 70
     1
102
RTVSPost2010Prop39
140
1.0
102
RTVSPost2010PropOp39
 70
     1
102
RTVSPost2010Prop40
 90
        0
102
RTVSPost2010PropOp40
 70
     1
102
RTVSPost2010Prop41ColorIndex
 90
       18
102
RTVSPost2010Prop41ColorRGB
 90
        0
102
RTVSPost2010PropOp41
 70
     1
102
RTVSPost2010Prop42
 90
       50
102
RTVSPost2010PropOp42
 70
     1
102
RTVSPost2010Prop43
 90
        3
102
RTVSPost2010PropOp43
 70
     1
102
RTVSPost2010Prop44ColorIndex
 90
        5
102
RTVSPost2010Prop44ColorRGB
 90
      255
102
RTVSPost2010PropOp44
 70
     1
102
RTVSPost2010Prop45
280
     0
102
RTVSPost2010PropOp45
 70
     1
102
RTVSPost2010Prop46
 90
       50
102
RTVSPost2010PropOp46
 70
     1
102
RTVSPost2010Prop47
 90
       50
102
RTVSPost2010PropOp47
 70
     1
102
RTVSPost2010Prop48
 90
       50
102
RTVSPost2010PropOp48
 70
     1
102
RTVSPost2010Prop49
280
     0
102
RTVSPost2010PropOp49
 70
     1
102
RTVSPost2010Prop50
 90
       50
102
RTVSPost2010PropOp50
 70
     1
102
RTVSPost2010Prop51ColorIndex
 90
      256
102
RTVSPost2010Prop51ColorRGB
 90
-16777216
102
RTVSPost2010PropOp51
 70
     0
102
RTVSPost2010Prop52
140
1.0
102
RTVSPost2010PropOp52
 70
     0
102
RTVSPost2010Prop53
 90
        2
102
RTVSPost2010PropOp53
 70
     1
102
RTVSPost2010Prop54
  1
strokes_ogs.tif
102
RTVSPost2010PropOp54
 70
     1
102
RTVSPost2010Prop55
280
     0
102
RTVSPost2010PropOp55
 70
     1
102
RTVSPost2010Prop56
140
1.0
102
RTVSPost2010PropOp56
 70
     1
102
RTVSPost2010Prop57
140
1.0
102
RTVSPost2010PropOp57
 70
     1
102
RTVSPropertyOp0
 70
     1
102
RTVSPropertyOp1
 70
     1
102
RTVSPropertyOp2
 70
     1
102
RTVSPropertyOp3
 70
     1
102
RTVSPropertyOp4
 70
     1
102
RTVSPropertyOp5
 70
     1
102
RTVSPropertyOp6
 70
     1
102
RTVSPropertyOp7
 70
     1
102
RTVSPropertyOp8
 70
     1
102
RTVSPropertyOp9
 70
     1
102
RTVSPropertyOp10
 70
     1
102
RTVSPropertyOp11
 70
     1
102
RTVSPropertyOp12
 70
     1
102
RTVSPropertyOp13
 70
     1
102
RTVSPropertyOp14
 70
     1
102
RTVSPropertyOp15
 70
     1
102
RTVSPropertyOp16
 70
     1
102
RTVSPropertyOp17
 70
     1
102
RTVSPropertyOp18
 70
     1
102
RTVSPropertyOp19
 70
     1
102
RTVSPropertyOp20
 70
     1
102
RTVSPropertyOp21
 70
     1
102
RTVSPropertyOp22
 70
     1
102
RTVSPropertyOp23
 70
     1
102
RTVSPropertyOp24
 70
     1
102
RTVSPropertyOp25
 70
     1
102
RTVSPropertyOp26
 70
     1
102
RTVSPropertyOp27
 70
     1
102
RTVSPropertyOp28
 70
     1
102
RTVSPropertyOp29
 70
     1
102
RTVSPropertyOp30
 70
     1
102
RTVSPropertyOp31
 70
     1
102
RTVSPropertyOp32
 70
     1
102
RTVSPropertyOp33
 70
     1
102
RTVSPropertyOp34
 70
     1
102
RTVSPropertyOp35
 70
     1
102
RTVSPropertyOp36
 70
     1
102
RTVSPropertyOp37
 70
     1
102
RTVSPropertyOp38
 70
     1
102
RTVSPropertyOp39
 70
     1
102
RTVSPropertyOp40
 70
     1
102
RTVSPropertyOp41
 70
     1
102
RTVSPropertyOp42
 70
     1
102
RTVSPropertyOp43
 70
     1
102
RTVSPropertyOp44
 70
     1
102
RTVSPropertyOp45
 70
     1
102
RTVSPropertyOp46
 70
     1
102
RTVSPropertyOp47
 70
     1
102
RTVSPropertyOp48
 70
     1
102
RTVSPropertyOp49
 70
     1
102
RTVSPropertyOp50
 70
     1
102
RTVSPropertyOp51
 70
     0
102
RTVSPropertyOp52
 70
     0
102
RTVSPropertyOp53
 70
     1
102
RTVSPropertyOp54
 70
     1
102
RTVSPropertyOp55
 70
     1
102
RTVSPropertyOp56
 70
     1
102
RTVSPropertyOp57
 70
     1
102
RTVSPropertyOp58
 70
     1
102
RTVSPropertyOp59
 70
     1
102
RTVSPropertyOp60
 70
     1
102
RTVSPropertyOp61
 70
     1
102
RTVSPropertyOp62
 70
     1
  0
XRECORD
  5
1BFB
102
{ACAD_REACTORS
330
1BFA
102
}
330
1BFA
100
AcDbXrecord
280
     1
102
RTVSPost2010Prop28
280
     0
102
RTVSPost2010PropOp28
 70
     1
102
RTVSPost2010Prop29
280
     1
102
RTVSPost2010PropOp29
 70
     1
102
RTVSPost2010Prop30
280
     1
102
RTVSPost2010PropOp30
 70
     1
102
RTVSPost2010Prop31
280
     0
102
RTVSPost2010PropOp31
 70
     1
102
RTVSPost2010Prop32
280
     0
102
RTVSPost2010PropOp32
 70
     1
102
RTVSPost2010Prop33
280
     0
102
RTVSPost2010PropOp33
 70
     1
102
RTVSPost2010Prop34
280
     0
102
RTVSPost2010PropOp34
 70
     1
102
RTVSPost2010Prop35
280
     0
102
RTVSPost2010PropOp35
 70
     1
102
RTVSPost2010Prop36
280
     0
102
RTVSPost2010PropOp36
 70
     1
102
RTVSPost2010Prop37
 90
       50
102
RTVSPost2010PropOp37
 70
     1
102
RTVSPost2010Prop38
140
0.0
102
RTVSPost2010PropOp38
 70
     1
102
RTVSPost2010Prop39
140
1.0
102
RTVSPost2010PropOp39
 70
     1
102
RTVSPost2010Prop40
 90
        0
102
RTVSPost2010PropOp40
 70
     1
102
RTVSPost2010Prop41ColorIndex
 90
       18
102
RTVSPost2010Prop41ColorRGB
 90
        0
102
RTVSPost2010PropOp41
 70
     1
102
RTVSPost2010Prop42
 90
       50
102
RTVSPost2010PropOp42
 70
     1
102
RTVSPost2010Prop43
 90
        3
102
RTVSPost2010PropOp43
 70
     1
102
RTVSPost2010Prop44ColorIndex
 90
        5
102
RTVSPost2010Prop44ColorRGB
 90
      255
102
RTVSPost2010PropOp44
 70
     1
102
RTVSPost2010Prop45
280
     0
102
RTVSPost2010PropOp45
 70
     1
102
RTVSPost2010Prop46
 90
       50
102
RTVSPost2010PropOp46
 70
     1
102
RTVSPost2010Prop47
 90
       50
102
RTVSPost2010PropOp47
 70
     1
102
RTVSPost2010Prop48
 90
       50
102
RTVSPost2010PropOp48
 70
     1
102
RTVSPost2010Prop49
280
     0
102
RTVSPost2010PropOp49
 70
     1
102
RTVSPost2010Prop50
 90
       50
102
RTVSPost2010PropOp50
 70
     1
102
RTVSPost2010Prop51ColorIndex
 90
      256
102
RTVSPost2010Prop51ColorRGB
 90
-16777216
102
RTVSPost2010PropOp51
 70
     0
102
RTVSPost2010Prop52
140
1.0
102
RTVSPost2010PropOp52
 70
     0
102
RTVSPost2010Prop53
 90
        2
102
RTVSPost2010PropOp53
 70
     1
102
RTVSPost2010Prop54
  1
strokes_ogs.tif
102
RTVSPost2010PropOp54
 70
     1
102
RTVSPost2010Prop55
280
     0
102
RTVSPost2010PropOp55
 70
     1
102
RTVSPost2010Prop56
140
1.0
102
RTVSPost2010PropOp56
 70
     1
102
RTVSPost2010Prop57
140
1.0
102
RTVSPost2010PropOp57
 70
     1
102
RTVSPropertyOp0
 70
     1
102
RTVSPropertyOp1
 70
     1
102
RTVSPropertyOp2
 70
     1
102
RTVSPropertyOp3
 70
     1
102
RTVSPropertyOp4
 70
     1
102
RTVSPropertyOp5
 70
     1
102
RTVSPropertyOp6
 70
     1
102
RTVSPropertyOp7
 70
     1
102
RTVSPropertyOp8
 70
     1
102
RTVSPropertyOp9
 70
     1
102
RTVSPropertyOp10
 70
     1
102
RTVSPropertyOp11
 70
     1
102
RTVSPropertyOp12
 70
     1
102
RTVSPropertyOp13
 70
     1
102
RTVSPropertyOp14
 70
     1
102
RTVSPropertyOp15
 70
     1
102
RTVSPropertyOp16
 70
     1
102
RTVSPropertyOp17
 70
     1
102
RTVSPropertyOp18
 70
     1
102
RTVSPropertyOp19
 70
     1
102
RTVSPropertyOp20
 70
     1
102
RTVSPropertyOp21
 70
     1
102
RTVSPropertyOp22
 70
     1
102
RTVSPropertyOp23
 70
     1
102
RTVSPropertyOp24
 70
     1
102
RTVSPropertyOp25
 70
     1
102
RTVSPropertyOp26
 70
     1
102
RTVSPropertyOp27
 70
     1
102
RTVSPropertyOp28
 70
     1
102
RTVSPropertyOp29
 70
     1
102
RTVSPropertyOp30
 70
     1
102
RTVSPropertyOp31
 70
     1
102
RTVSPropertyOp32
 70
     1
102
RTVSPropertyOp33
 70
     1
102
RTVSPropertyOp34
 70
     1
102
RTVSPropertyOp35
 70
     1
102
RTVSPropertyOp36
 70
     1
102
RTVSPropertyOp37
 70
     1
102
RTVSPropertyOp38
 70
     1
102
RTVSPropertyOp39
 70
     1
102
RTVSPropertyOp40
 70
     1
102
RTVSPropertyOp41
 70
     1
102
RTVSPropertyOp42
 70
     1
102
RTVSPropertyOp43
 70
     1
102
RTVSPropertyOp44
 70
     1
102
RTVSPropertyOp45
 70
     1
102
RTVSPropertyOp46
 70
     1
102
RTVSPropertyOp47
 70
     1
102
RTVSPropertyOp48
 70
     1
102
RTVSPropertyOp49
 70
     1
102
RTVSPropertyOp50
 70
     1
102
RTVSPropertyOp51
 70
     0
102
RTVSPropertyOp52
 70
     0
102
RTVSPropertyOp53
 70
     1
102
RTVSPropertyOp54
 70
     1
102
RTVSPropertyOp55
 70
     1
102
RTVSPropertyOp56
 70
     1
102
RTVSPropertyOp57
 70
     1
102
RTVSPropertyOp58
 70
     1
102
RTVSPropertyOp59
 70
     1
102
RTVSPropertyOp60
 70
     1
102
RTVSPropertyOp61
 70
     1
102
RTVSPropertyOp62
 70
     1
  0
XRECORD
  5
1C03
102
{ACAD_REACTORS
330
1C02
102
}
330
1C02
100
AcDbXrecord
280
     1
102
RTVSPost2010Prop28
280
     0
102
RTVSPost2010PropOp28
 70
     1
102
RTVSPost2010Prop29
280
     1
102
RTVSPost2010PropOp29
 70
     1
102
RTVSPost2010Prop30
280
     1
102
RTVSPost2010PropOp30
 70
     1
102
RTVSPost2010Prop31
280
     0
102
RTVSPost2010PropOp31
 70
     1
102
RTVSPost2010Prop32
280
     0
102
RTVSPost2010PropOp32
 70
     1
102
RTVSPost2010Prop33
280
     0
102
RTVSPost2010PropOp33
 70
     1
102
RTVSPost2010Prop34
280
     0
102
RTVSPost2010PropOp34
 70
     1
102
RTVSPost2010Prop35
280
     0
102
RTVSPost2010PropOp35
 70
     1
102
RTVSPost2010Prop36
280
     0
102
RTVSPost2010PropOp36
 70
     1
102
RTVSPost2010Prop37
 90
       50
102
RTVSPost2010PropOp37
 70
     1
102
RTVSPost2010Prop38
140
0.0
102
RTVSPost2010PropOp38
 70
     1
102
RTVSPost2010Prop39
140
1.0
102
RTVSPost2010PropOp39
 70
     1
102
RTVSPost2010Prop40
 90
        0
102
RTVSPost2010PropOp40
 70
     1
102
RTVSPost2010Prop41ColorIndex
 90
       18
102
RTVSPost2010Prop41ColorRGB
 90
        0
102
RTVSPost2010PropOp41
 70
     1
102
RTVSPost2010Prop42
 90
       50
102
RTVSPost2010PropOp42
 70
     1
102
RTVSPost2010Prop43
 90
        3
102
RTVSPost2010PropOp43
 70
     1
102
RTVSPost2010Prop44ColorIndex
 90
        5
102
RTVSPost2010Prop44ColorRGB
 90
      255
102
RTVSPost2010PropOp44
 70
     1
102
RTVSPost2010Prop45
280
     0
102
RTVSPost2010PropOp45
 70
     1
102
RTVSPost2010Prop46
 90
       50
102
RTVSPost2010PropOp46
 70
     1
102
RTVSPost2010Prop47
 90
       50
102
RTVSPost2010PropOp47
 70
     1
102
RTVSPost2010Prop48
 90
       50
102
RTVSPost2010PropOp48
 70
     1
102
RTVSPost2010Prop49
280
     0
102
RTVSPost2010PropOp49
 70
     1
102
RTVSPost2010Prop50
 90
       50
102
RTVSPost2010PropOp50
 70
     1
102
RTVSPost2010Prop51ColorIndex
 90
      256
102
RTVSPost2010Prop51ColorRGB
 90
-16777216
102
RTVSPost2010PropOp51
 70
     0
102
RTVSPost2010Prop52
140
1.0
102
RTVSPost2010PropOp52
 70
     0
102
RTVSPost2010Prop53
 90
        2
102
RTVSPost2010PropOp53
 70
     1
102
RTVSPost2010Prop54
  1
strokes_ogs.tif
102
RTVSPost2010PropOp54
 70
     1
102
RTVSPost2010Prop55
280
     0
102
RTVSPost2010PropOp55
 70
     1
102
RTVSPost2010Prop56
140
1.0
102
RTVSPost2010PropOp56
 70
     1
102
RTVSPost2010Prop57
140
1.0
102
RTVSPost2010PropOp57
 70
     1
102
RTVSPropertyOp0
 70
     1
102
RTVSPropertyOp1
 70
     1
102
RTVSPropertyOp2
 70
     1
102
RTVSPropertyOp3
 70
     1
102
RTVSPropertyOp4
 70
     1
102
RTVSPropertyOp5
 70
     1
102
RTVSPropertyOp6
 70
     1
102
RTVSPropertyOp7
 70
     1
102
RTVSPropertyOp8
 70
     1
102
RTVSPropertyOp9
 70
     1
102
RTVSPropertyOp10
 70
     1
102
RTVSPropertyOp11
 70
     1
102
RTVSPropertyOp12
 70
     1
102
RTVSPropertyOp13
 70
     1
102
RTVSPropertyOp14
 70
     1
102
RTVSPropertyOp15
 70
     1
102
RTVSPropertyOp16
 70
     1
102
RTVSPropertyOp17
 70
     1
102
RTVSPropertyOp18
 70
     1
102
RTVSPropertyOp19
 70
     1
102
RTVSPropertyOp20
 70
     1
102
RTVSPropertyOp21
 70
     1
102
RTVSPropertyOp22
 70
     1
102
RTVSPropertyOp23
 70
     1
102
RTVSPropertyOp24
 70
     1
102
RTVSPropertyOp25
 70
     1
102
RTVSPropertyOp26
 70
     1
102
RTVSPropertyOp27
 70
     1
102
RTVSPropertyOp28
 70
     1
102
RTVSPropertyOp29
 70
     1
102
RTVSPropertyOp30
 70
     1
102
RTVSPropertyOp31
 70
     1
102
RTVSPropertyOp32
 70
     1
102
RTVSPropertyOp33
 70
     1
102
RTVSPropertyOp34
 70
     1
102
RTVSPropertyOp35
 70
     1
102
RTVSPropertyOp36
 70
     1
102
RTVSPropertyOp37
 70
     1
102
RTVSPropertyOp38
 70
     1
102
RTVSPropertyOp39
 70
     1
102
RTVSPropertyOp40
 70
     1
102
RTVSPropertyOp41
 70
     1
102
RTVSPropertyOp42
 70
     1
102
RTVSPropertyOp43
 70
     1
102
RTVSPropertyOp44
 70
     1
102
RTVSPropertyOp45
 70
     1
102
RTVSPropertyOp46
 70
     1
102
RTVSPropertyOp47
 70
     1
102
RTVSPropertyOp48
 70
     1
102
RTVSPropertyOp49
 70
     1
102
RTVSPropertyOp50
 70
     1
102
RTVSPropertyOp51
 70
     0
102
RTVSPropertyOp52
 70
     0
102
RTVSPropertyOp53
 70
     1
102
RTVSPropertyOp54
 70
     1
102
RTVSPropertyOp55
 70
     1
102
RTVSPropertyOp56
 70
     1
102
RTVSPropertyOp57
 70
     1
102
RTVSPropertyOp58
 70
     1
102
RTVSPropertyOp59
 70
     1
102
RTVSPropertyOp60
 70
     1
102
RTVSPropertyOp61
 70
     1
102
RTVSPropertyOp62
 70
     1
  0
ENDSEC
  0
EOF
