  0
SECTION
  2
HEADER
  9
$ACADVER
  1
AC1015
  9
$ACADMAINTVER
 70
    20
  9
$DWGCODEPAGE
  3
ANSI_1252
  9
$INSBASE
 10
0.0
 20
0.0
 30
0.0
  9
$EXTMIN
 10
-34.76734748152944
 20
-36.49108771059082
 30
-0.0000000000000058
  9
$EXTMAX
 10
39.50915631943985
 20
32.86163403752926
 30
0.0000000000000104
  9
$LIMMIN
 10
-170.0
 20
-170.0
  9
$LIMMAX
 10
519.0
 20
260.0
  9
$ORTHOMODE
 70
     0
  9
$REGENMODE
 70
     1
  9
$FILLMODE
 70
     1
  9
$QTEXTMODE
 70
     0
  9
$MIRRTEXT
 70
     0
  9
$LTSCALE
 40
1.0
  9
$ATTMODE
 70
     1
  9
$TEXTSIZE
 40
5.0
  9
$TRACEWID
 40
1.0
  9
$TEXTSTYLE
  7
STANDARD
  9
$CLAYER
  8
0
  9
$CELTYPE
  6
BYLAYER
  9
$CECOLOR
 62
   256
  9
$CELTSCALE
 40
1.0
  9
$DISPSILH
 70
     0
  9
$DIMSCALE
 40
1.0
  9
$DIMASZ
 40
2.5
  9
$DIMEXO
 40
0.0
  9
$DIMDLI
 40
3.75
  9
$DIMRND
 40
0.0
  9
$DIMDLE
 40
0.0
  9
$DIMEXE
 40
1.25
  9
$DIMTP
 40
0.0
  9
$DIMTM
 40
0.0
  9
$DIMTXT
 40
3.5
  9
$DIMCEN
 40
0.0
  9
$DIMTSZ
 40
0.0
  9
$DIMTOL
 70
     0
  9
$DIMLIM
 70
     0
  9
$DIMTIH
 70
     0
  9
$DIMTOH
 70
     0
  9
$DIMSE1
 70
     0
  9
$DIMSE2
 70
     0
  9
$DIMTAD
 70
     1
  9
$DIMZIN
 70
     1
  9
$DIMBLK
  1

  9
$DIMASO
 70
     1
  9
$DIMSHO
 70
     1
  9
$DIMPOST
  1

  9
$DIMAPOST
  1

  9
$DIMALT
 70
     0
  9
$DIMALTD
 70
     3
  9
$DIMALTF
 40
0.039370078
  9
$DIMLFAC
 40
1.0
  9
$DIMTOFL
 70
     0
  9
$DIMTVP
 40
0.0
  9
$DIMTIX
 70
     0
  9
$DIMSOXD
 70
     0
  9
$DIMSAH
 70
     0
  9
$DIMBLK1
  1

  9
$DIMBLK2
  1

  9
$DIMSTYLE
  2
STANDARD
  9
$DIMCLRD
 70
     0
  9
$DIMCLRE
 70
     0
  9
$DIMCLRT
 70
     0
  9
$DIMTFAC
 40
1.0
  9
$DIMGAP
 40
0.625
  9
$DIMJUST
 70
     0
  9
$DIMSD1
 70
     0
  9
$DIMSD2
 70
     0
  9
$DIMTOLJ
 70
     0
  9
$DIMTZIN
 70
     8
  9
$DIMALTZ
 70
     0
  9
$DIMALTTZ
 70
     0
  9
$DIMUPT
 70
     0
  9
$DIMDEC
 70
     2
  9
$DIMTDEC
 70
     2
  9
$DIMALTU
 70
     2
  9
$DIMALTTD
 70
     3
  9
$DIMTXSTY
  7
STANDARD
  9
$DIMAUNIT
 70
     0
  9
$DIMADEC
 70
     2
  9
$DIMALTRND
 40
0.0
  9
$DIMAZIN
 70
     0
  9
$DIMDSEP
 70
    46
  9
$DIMATFIT
 70
     3
  9
$DIMFRAC
 70
     0
  9
$DIMLDRBLK
  1

  9
$DIMLUNIT
 70
     2
  9
$DIMLWD
 70
    -2
  9
$DIMLWE
 70
    -2
  9
$DIMTMOVE
 70
     0
  9
$LUNITS
 70
     2
  9
$LUPREC
 70
     4
  9
$SKETCHINC
 40
1.0
  9
$FILLETRAD
 40
0.0
  9
$AUNITS
 70
     0
  9
$AUPREC
 70
     0
  9
$MENU
  1
c:\tdm21\cad\caduti13\tdm13
  9
$ELEVATION
 40
0.0
  9
$PELEVATION
 40
0.0
  9
$THICKNESS
 40
0.0
  9
$LIMCHECK
 70
     0
  9
$CHAMFERA
 40
0.0
  9
$CHAMFERB
 40
0.0
  9
$CHAMFERC
 40
0.0
  9
$CHAMFERD
 40
0.0
  9
$SKPOLY
 70
     0
  9
$TDCREATE
 40
2456190.233617871
  9
$TDUCREATE
 40
2456190.191951204
  9
$TDUPDATE
 40
2457350.430574040
  9
$TDUUPDATE
 40
2457350.388907372
  9
$TDINDWG
 40
0.0570245718
  9
$TDUSRTIMER
 40
0.0570241898
  9
$USRTIMER
 70
     1
  9
$ANGBASE
 50
0.0
  9
$ANGDIR
 70
     0
  9
$PDMODE
 70
     3
  9
$PDSIZE
 40
0.0
  9
$PLINEWID
 40
0.0
  9
$SPLFRAME
 70
     0
  9
$SPLINETYPE
 70
     6
  9
$SPLINESEGS
 70
     8
  9
$HANDSEED
  5
18F3
  9
$SURFTAB1
 70
     6
  9
$SURFTAB2
 70
     6
  9
$SURFTYPE
 70
     6
  9
$SURFU
 70
     6
  9
$SURFV
 70
     6
  9
$UCSBASE
  2

  9
$UCSNAME
  2

  9
$UCSORG
 10
0.0
 20
0.0
 30
0.0
  9
$UCSXDIR
 10
1.0
 20
0.0
 30
0.0
  9
$UCSYDIR
 10
0.0
 20
1.0
 30
0.0
  9
$UCSORTHOREF
  2

  9
$UCSORTHOVIEW
 70
     0
  9
$UCSORGTOP
 10
0.0
 20
0.0
 30
0.0
  9
$UCSORGBOTTOM
 10
0.0
 20
0.0
 30
0.0
  9
$UCSORGLEFT
 10
0.0
 20
0.0
 30
0.0
  9
$UCSORGRIGHT
 10
0.0
 20
0.0
 30
0.0
  9
$UCSORGFRONT
 10
0.0
 20
0.0
 30
0.0
  9
$UCSORGBACK
 10
0.0
 20
0.0
 30
0.0
  9
$PUCSBASE
  2

  9
$PUCSNAME
  2

  9
$PUCSORG
 10
0.0
 20
0.0
 30
0.0
  9
$PUCSXDIR
 10
1.0
 20
0.0
 30
0.0
  9
$PUCSYDIR
 10
0.0
 20
1.0
 30
0.0
  9
$PUCSORTHOREF
  2

  9
$PUCSORTHOVIEW
 70
     0
  9
$PUCSORGTOP
 10
0.0
 20
0.0
 30
0.0
  9
$PUCSORGBOTTOM
 10
0.0
 20
0.0
 30
0.0
  9
$PUCSORGLEFT
 10
0.0
 20
0.0
 30
0.0
  9
$PUCSORGRIGHT
 10
0.0
 20
0.0
 30
0.0
  9
$PUCSORGFRONT
 10
0.0
 20
0.0
 30
0.0
  9
$PUCSORGBACK
 10
0.0
 20
0.0
 30
0.0
  9
$USERI1
 70
     0
  9
$USERI2
 70
     0
  9
$USERI3
 70
     0
  9
$USERI4
 70
     0
  9
$USERI5
 70
     0
  9
$USERR1
 40
0.0
  9
$USERR2
 40
0.0
  9
$USERR3
 40
0.0
  9
$USERR4
 40
0.0
  9
$USERR5
 40
0.0
  9
$WORLDVIEW
 70
     1
  9
$SHADEDGE
 70
     3
  9
$SHADEDIF
 70
    70
  9
$TILEMODE
 70
     1
  9
$MAXACTVP
 70
    64
  9
$PINSBASE
 10
0.0
 20
0.0
 30
0.0
  9
$PLIMCHECK
 70
     0
  9
$PEXTMIN
 10
0.0
 20
0.0
 30
0.0
  9
$PEXTMAX
 10
0.0
 20
0.0
 30
0.0
  9
$PLIMMIN
 10
0.0
 20
0.0
  9
$PLIMMAX
 10
12.0
 20
9.0
  9
$UNITMODE
 70
     0
  9
$VISRETAIN
 70
     0
  9
$PLINEGEN
 70
     0
  9
$PSLTSCALE
 70
     1
  9
$TREEDEPTH
 70
  3020
  9
$CMLSTYLE
  2
STANDARD
  9
$CMLJUST
 70
     0
  9
$CMLSCALE
 40
20.0
  9
$PROXYGRAPHICS
 70
     1
  9
$MEASUREMENT
 70
     1
  9
$CELWEIGHT
370
    -1
  9
$ENDCAPS
280
     0
  9
$JOINSTYLE
280
     0
  9
$LWDISPLAY
290
     0
  9
$INSUNITS
 70
     4
  9
$HYPERLINKBASE
  1

  9
$STYLESHEET
  1
MONOCHROME.CTB
  9
$XEDIT
290
     1
  9
$CEPSNTYPE
380
     0
  9
$PSTYLEMODE
290
     1
  9
$FINGERPRINTGUID
  2
{3639E217-9124-4ED4-A484-7CE430F903CD}
  9
$VERSIONGUID
  2
{50B2EB8B-61CD-4FF1-8A2D-46AC64415B4B}
  9
$EXTNAMES
290
     1
  9
$PSVPSCALE
 40
0.0
  9
$OLESTARTUP
290
     0
  0
ENDSEC
  0
SECTION
  2
CLASSES
  0
CLASS
  1
ACDBDICTIONARYWDFLT
  2
AcDbDictionaryWithDefault
  3
ObjectDBX Classes
 90
        0
280
     0
281
     0
  0
CLASS
  1
ACDBPLACEHOLDER
  2
AcDbPlaceHolder
  3
ObjectDBX Classes
 90
        0
280
     0
281
     0
  0
CLASS
  1
LAYOUT
  2
AcDbLayout
  3
ObjectDBX Classes
 90
        0
280
     0
281
     0
  0
CLASS
  1
DICTIONARYVAR
  2
AcDbDictionaryVar
  3
ObjectDBX Classes
 90
        0
280
     0
281
     0
  0
CLASS
  1
TABLESTYLE
  2
AcDbTableStyle
  3
ObjectDBX Classes
 90
     4095
280
     0
281
     0
  0
CLASS
  1
MATERIAL
  2
AcDbMaterial
  3
ObjectDBX Classes
 90
     1153
280
     0
281
     0
  0
CLASS
  1
VISUALSTYLE
  2
AcDbVisualStyle
  3
ObjectDBX Classes
 90
     4095
280
     0
281
     0
  0
CLASS
  1
SCALE
  2
AcDbScale
  3
ObjectDBX Classes
 90
     1153
280
     0
281
     0
  0
CLASS
  1
MLEADERSTYLE
  2
AcDbMLeaderStyle
  3
ACDB_MLEADERSTYLE_CLASS
 90
     4095
280
     0
281
     0
  0
CLASS
  1
CELLSTYLEMAP
  2
AcDbCellStyleMap
  3
ObjectDBX Classes
 90
     1152
280
     0
281
     0
  0
CLASS
  1
DIMASSOC
  2
AcDbDimAssoc
  3
"AcDbDimAssoc|Product Desc:     AcDim ARX App For Dimension|Company:          Autodesk, Inc.|WEB Address:      www.autodesk.com"
 90
        0
280
     0
281
     0
  0
CLASS
  1
SORTENTSTABLE
  2
AcDbSortentsTable
  3
ObjectDBX Classes
 90
        0
280
     0
281
     0
  0
CLASS
  1
ACME_DOCUMENT
  2
AcMeDbDoc
  3
AcMeServices
 90
    33792
280
     0
281
     0
  0
CLASS
  1
AMGSETTINGSOBJ
  2
AmgSettingsObj
  3
"AcadM|Product Description: AutoCAD Mechanical|Company: Autodesk, Inc."
 90
    33792
280
     0
281
     0
  0
CLASS
  1
ACMESCOPE
  2
AcMeScope
  3
AcMeServices
 90
    33792
280
     0
281
     0
  0
CLASS
  1
ACMECOMMANDHISTORY
  2
AcMeCommandHistory
  3
AcMeServices
 90
    33792
280
     0
281
     0
  0
CLASS
  1
ACIMSYSVARMAN
  2
AcImSysVarManager
  3
AcMeServices
 90
    33792
280
     0
281
     0
  0
CLASS
  1
ACIMINTSYSVAR
  2
AcImIntSysVar
  3
AcMeServices
 90
    33792
280
     0
281
     0
  0
CLASS
  1
ACMESTATEMGR
  2
AcMeStateMgr
  3
AcMeServices
 90
    33792
280
     0
281
     0
  0
CLASS
  1
ACDBENTITYCACHE
  2
AcMeEntityCache
  3
AcMeServices
 90
    33792
280
     0
281
     0
  0
CLASS
  1
ACGREFMASTER
  2
AcGrefMaster
  3
AcAttribServices
 90
    33792
280
     0
281
     0
  0
CLASS
  1
ACME_DATABASE
  2
AcMeDbDatabase
  3
AcMeServices
 90
    33792
280
     0
281
     0
  0
CLASS
  1
ACRFINSADJUSTERMGR
  2
AcRfInsAdjusterMgr
  3
AcMeServices
 90
    33792
280
     0
281
     0
  0
CLASS
  1
ACGREFACADMASTER
  2
AcGrefacadMaster
  3
AcGrefServices
 90
    33792
280
     0
281
     0
  0
CLASS
  1
AMDTMENUSTATEMGR
  2
AmdtMenuStateMgr
  3
McadcomServices
 90
    33792
280
     0
281
     0
  0
CLASS
  1
AMDTMCOMMENUSTATE
  2
AmdtMcomMenuState
  3
McadcomServices
 90
    33792
280
     0
281
     0
  0
CLASS
  1
AMIMASTER
  2
AmiMaster
  3
AmiServices
 90
    33792
280
     0
281
     0
  0
CLASS
  1
MAPIAMMOUDLE
  2
MApiAmModule
  3
MApiAmServices
 90
    33792
280
     0
281
     0
  0
CLASS
  1
ACIMSTRSYSVAR
  2
AcImStrSysVar
  3
AcMeServices
 90
    33792
280
     0
281
     0
  0
CLASS
  1
AMDTAMMENUSTATE
  2
AmdtAmMenuState
  3
DesignerAssemblies
 90
    33792
280
     0
281
     0
  0
CLASS
  1
ACAMPROJECT
  2
AcAmProject
  3
DesignerAssemblies
 90
    33792
280
     0
281
     0
  0
CLASS
  1
ACAMGRCOMPDEF
  2
AcAmGrCompDef
  3
DesignerAssemblies
 90
    33792
280
     0
281
     0
  0
CLASS
  1
ACAMCOMPDEF
  2
AcAmCompDef
  3
DesignerAssemblies
 90
    33792
280
     0
281
     0
  0
CLASS
  1
ACAMCOMPDEFMGR
  2
AcAmCompDefMgr
  3
DesignerAssemblies
 90
    33792
280
     0
281
     0
  0
CLASS
  1
AMCONTEXTMGR
  2
AcAmContextMgr
  3
DesignerAssemblies
 90
    33792
280
     0
281
     0
  0
CLASS
  1
ACAMCONTEXTMODELER
  2
AcAmContextModeler
  3
DesignerAssemblies
 90
    33792
280
     0
281
     0
  0
CLASS
  1
ACMDATADICTIONARY
  2
AcmDataDictionary
  3
"AcmSymBB|Product Description: AutoCAD Mechanical|Company: Autodesk, Inc."
 90
    33792
280
     0
281
     0
  0
CLASS
  1
ACMSTANDARDISO
  2
AcmStandardISO
  3
"Amdt_StdImp|Product Description: AutoCAD Mechanical|Company: Autodesk, Inc."
 90
    33792
280
     0
281
     0
  0
CLASS
  1
AMDTEDGESTANDARDISO13715
  2
AmdtEdgeStdISO13715
  3
"Amdt_StdImp|Product Description: AutoCAD Mechanical|Company: Autodesk, Inc."
 90
    33792
280
     0
281
     0
  0
CLASS
  1
ACMSURFSTANDARDISO2002
  2
AcmSurfTextStdISO2002
  3
"Amdt_StdImp|Product Description: AutoCAD Mechanical|Company: Autodesk, Inc."
 90
    33792
280
     0
281
     0
  0
CLASS
  1
ACMFCFSTANDARDISO2004
  2
AcmFCFStdISO2004
  3
"Amdt_StdImp|Product Description: AutoCAD Mechanical|Company: Autodesk, Inc."
 90
    33792
280
     0
281
     0
  0
CLASS
  1
ACMWELDSTANDARDISO
  2
AcmWeldingStdISO
  3
"Amdt_StdImp|Product Description: AutoCAD Mechanical|Company: Autodesk, Inc."
 90
    33792
280
     0
281
     0
  0
CLASS
  1
ACMIDSTANDARDISO2004
  2
AcmIdStdISO2004
  3
"Amdt_StdImp|Product Description: AutoCAD Mechanical|Company: Autodesk, Inc."
 90
    33792
280
     0
281
     0
  0
CLASS
  1
ACMDATUMSTANDARDISO
  2
AcmDatumStdISO
  3
"Amdt_StdImp|Product Description: AutoCAD Mechanical|Company: Autodesk, Inc."
 90
    33792
280
     0
281
     0
  0
CLASS
  1
ACMBOMSTANDARDISO
  2
AcmBOMStdISO
  3
"Amdt_StdImp|Product Description: AutoCAD Mechanical|Company: Autodesk, Inc."
 90
    33792
280
     0
281
     0
  0
CLASS
  1
ACMDETAILSTANDARDISO
  2
AmdtDetailSymStdISO
  3
"Amdt_StdImp|Product Description: AutoCAD Mechanical|Company: Autodesk, Inc."
 90
    33792
280
     0
281
     0
  0
CLASS
  1
ACMSECTIONSTANDARDISO2001
  2
AmdtSectionSymStdISO2001
  3
"Amdt_StdImp|Product Description: AutoCAD Mechanical|Company: Autodesk, Inc."
 90
    33792
280
     0
281
     0
  0
CLASS
  1
ACMCENTERLINESTANDARDISO
  2
AmdtCenterLineStdISO
  3
"Amdt_StdImp|Product Description: AutoCAD Mechanical|Company: Autodesk, Inc."
 90
    33792
280
     0
281
     0
  0
CLASS
  1
ACMTHREADLINESTANDARDISO
  2
AmdtThreadLineStdISO
  3
"Amdt_StdImp|Product Description: AutoCAD Mechanical|Company: Autodesk, Inc."
 90
    33792
280
     0
281
     0
  0
CLASS
  1
ACMNOTESTANDARDISO
  2
AmdtNoteStdISO
  3
"Amdt_StdImp|Product Description: AutoCAD Mechanical|Company: Autodesk, Inc."
 90
    33792
280
     0
281
     0
  0
CLASS
  1
ACMTAPERSTANDARDISO
  2
AcmTaperStdISO
  3
"Amdt_StdImp|Product Description: AutoCAD Mechanical|Company: Autodesk, Inc."
 90
    33792
280
     0
281
     0
  0
CLASS
  1
ACMANOOTATIONVIEWSTANDARDISO
  2
AmdtAnViewStdISO
  3
"Amdt_StdImp|Product Description: AutoCAD Mechanical|Company: Autodesk, Inc."
 90
    33792
280
     0
281
     0
  0
CLASS
  1
ACAMGLAYSTD
  2
AcAmgLayStd
  3
"AmgLay|Product Description: AutoCAD Mechanical|Company: Autodesk, Inc."
 90
    33792
280
     0
281
     0
  0
CLASS
  1
ACAMGDIMSTD
  2
AcAmgDimStd
  3
"AmgDim|Product Description: AutoCAD Mechanical|Company: Autodesk, Inc."
 90
    33792
280
     0
281
     0
  0
CLASS
  1
AMGOBJPROPCFG
  2
AmgObjPropCfg
  3
"AmgLay|Product Description: AutoCAD Mechanical|Company: Autodesk, Inc."
 90
    33793
280
     0
281
     0
  0
CLASS
  1
ACAMGHOLECHARTSTDISO
  2
AcAmgHoleChartStdISO
  3
AmgDim|Product Description: AutoCAD Mechanical|Company: Autodesk, Inc.
 90
    33792
280
     0
281
     0
  0
CLASS
  1
ACAMGTITLESTD
  2
AcAmgTitleStd
  3
"AmgTitle|Product Description: AutoCAD Mechanical|Company: Autodesk, Inc."
 90
    36863
280
     0
281
     0
  0
CLASS
  1
AMDTNOTETEMPLATEDB
  2
AmdtNoteTemplateDB
  3
AcmSymBB|Product Description: AutoCAD Mechanical|Company: Autodesk, Inc.
 90
    33792
280
     0
281
     0
  0
CLASS
  1
ACAMGRCOMPDEFSET
  2
AcAmGrCompDefSet
  3
DesignerAssemblies
 90
    33792
280
     0
281
     0
  0
CLASS
  1
AMDTBROWSERDBTAB
  2
AmdtBrowserDbTab
  3
McadcomServices
 90
    33792
280
     0
281
     0
  0
CLASS
  1
CBROWSERAPPOBJECT
  2
CBrowserAppObject
  3
McadcomServices
 90
    33792
280
     0
281
     0
  0
CLASS
  1
DM_PLACEHOLDER
  2
AcDmSelsetPlaceholder
  3
McadcomServices
 90
    33792
280
     0
281
     0
  0
CLASS
  1
CAMSSTRUCTBTNSTATE
  2
StructBtnState
  3
DesignerAssemblies
 90
    33792
280
     0
281
     0
  0
CLASS
  1
ACAMGFILTERDAT
  2
AcAmgFilterDat
  3
"AcadM|Product Description: AutoCAD Mechanical|Company: Autodesk, Inc."
 90
    33792
280
     0
281
     0
  0
CLASS
  1
MULTILEADER
  2
AcDbMLeader
  3
ACDB_MLEADER_CLASS
 90
     1025
280
     0
281
     1
  0
CLASS
  1
ACDBSECTIONVIEWSTYLE
  2
AcDbSectionViewStyle
  3
ObjectDBX Classes
 90
     1025
280
     0
281
     0
  0
CLASS
  1
ACDBDETAILVIEWSTYLE
  2
AcDbDetailViewStyle
  3
ObjectDBX Classes
 90
     1025
280
     0
281
     0
  0
ENDSEC
  0
SECTION
  2
TABLES
  0
TABLE
  2
VPORT
  5
8
330
0
100
AcDbSymbolTable
 70
     1
  0
VPORT
  5
3ED
330
8
100
AcDbSymbolTableRecord
100
AcDbViewportTableRecord
  2
*Active
 70
     0
 10
0.0
 20
0.0
 11
1.0
 21
1.0
 12
2.370904418955198
 22
-1.81472683653078
 13
0.0
 23
0.0
 14
5.0
 24
5.0
 15
5.0
 25
5.0
 16
0.0
 26
0.0
 36
1.0
 17
0.0
 27
0.0
 37
0.0
 40
69.94717364881825
 41
2.336194563662374
 42
50.0
 43
0.0
 44
0.0
 50
0.0
 51
0.0
 71
     0
 72
  2000
 73
     1
 74
     3
 75
     0
 76
     0
 77
     0
 78
     0
281
     0
 65
     1
110
0.0
120
0.0
130
0.0
111
1.0
121
0.0
131
0.0
112
0.0
122
1.0
132
0.0
 79
     0
146
0.0
1001
ACAD_NAV_VCDISPLAY
1070
     3
  0
ENDTAB
  0
TABLE
  2
LTYPE
  5
5
330
0
100
AcDbSymbolTable
 70
     5
  0
LTYPE
  5
12
330
5
100
AcDbSymbolTableRecord
100
AcDbLinetypeTableRecord
  2
BYBLOCK
 70
     0
  3

 72
    65
 73
     0
 40
0.0
  0
LTYPE
  5
13
330
5
100
AcDbSymbolTableRecord
100
AcDbLinetypeTableRecord
  2
BYLAYER
 70
     0
  3

 72
    65
 73
     0
 40
0.0
  0
LTYPE
  5
14
330
5
100
AcDbSymbolTableRecord
100
AcDbLinetypeTableRecord
  2
CONTINUOUS
 70
     0
  3
Solid line
 72
    65
 73
     0
 40
0.0
  0
LTYPE
  5
6A7
330
5
100
AcDbSymbolTableRecord
100
AcDbLinetypeTableRecord
  2
CENTER2
 70
     0
  3
Center (.5x) ___ _ ___ _ ___ _ ___ _ ___ _ ___
 72
    65
 73
     4
 40
28.575
 49
19.05
 74
     0
 49
-3.174999999999998
 74
     0
 49
3.174999999999998
 74
     0
 49
-3.174999999999998
 74
     0
  0
ENDTAB
  0
TABLE
  2
LAYER
  5
2
102
{ACAD_XDICTIONARY
360
451
102
}
330
0
100
AcDbSymbolTable
 70
    17
  0
LAYER
  5
F
102
{ACAD_XDICTIONARY
360
1479
102
}
330
2
100
AcDbSymbolTableRecord
100
AcDbLayerTableRecord
  2
0
 70
     0
 62
     7
  6
CONTINUOUS
370
    -3
390
300
  0
LAYER
  5
23
102
{ACAD_XDICTIONARY
360
147B
102
}
330
2
100
AcDbSymbolTableRecord
100
AcDbLayerTableRecord
  2
1
 70
     0
 62
     4
  6
CONTINUOUS
370
    50
390
300
  0
LAYER
  5
24
102
{ACAD_XDICTIONARY
360
147D
102
}
330
2
100
AcDbSymbolTableRecord
100
AcDbLayerTableRecord
  2
SK1
 70
     0
 62
     4
  6
CONTINUOUS
370
    50
390
300
  0
LAYER
  5
25
102
{ACAD_XDICTIONARY
360
147F
102
}
330
2
100
AcDbSymbolTableRecord
100
AcDbLayerTableRecord
  2
2
 70
     0
 62
     7
  6
CONTINUOUS
370
    25
390
300
  0
LAYER
  5
27
102
{ACAD_XDICTIONARY
360
1481
102
}
330
2
100
AcDbSymbolTableRecord
100
AcDbLayerTableRecord
  2
SK2
 70
     0
 62
     7
  6
CONTINUOUS
370
    25
390
300
  0
LAYER
  5
2A
102
{ACAD_XDICTIONARY
360
1483
102
}
330
2
100
AcDbSymbolTableRecord
100
AcDbLayerTableRecord
  2
4
 70
     0
 62
     2
  6
CENTER2
370
    25
390
300
  0
LAYER
  5
2B
102
{ACAD_XDICTIONARY
360
1485
102
}
330
2
100
AcDbSymbolTableRecord
100
AcDbLayerTableRecord
  2
SK4
 70
     0
 62
     2
  6
CENTER2
370
    25
390
300
  0
LAYER
  5
2E
102
{ACAD_XDICTIONARY
360
1487
102
}
330
2
100
AcDbSymbolTableRecord
100
AcDbLayerTableRecord
  2
INFTEXT63
 70
     0
 62
     5
  6
CONTINUOUS
370
    -3
390
300
  0
LAYER
  5
2F
330
2
100
AcDbSymbolTableRecord
100
AcDbLayerTableRecord
  2
DEFPOINTS
 70
     0
 62
     7
  6
CONTINUOUS
290
     0
370
    25
390
300
  0
LAYER
  5
375
102
{ACAD_XDICTIONARY
360
1489
102
}
330
2
100
AcDbSymbolTableRecord
100
AcDbLayerTableRecord
  2
CUT
 70
     0
 62
     1
  6
CONTINUOUS
370
    25
390
300
  0
LAYER
  5
376
102
{ACAD_XDICTIONARY
360
148B
102
}
330
2
100
AcDbSymbolTableRecord
100
AcDbLayerTableRecord
  2
NOCUT
 70
     0
 62
     7
  6
CONTINUOUS
370
    -3
390
300
  0
LAYER
  5
49B
102
{ACAD_XDICTIONARY
360
1495
102
}
330
2
100
AcDbSymbolTableRecord
100
AcDbLayerTableRecord
  2
INFTOTAL
 70
     0
 62
     9
  6
CONTINUOUS
370
    18
390
300
1001
AcAecLayerStandard
1000

1000

  0
ENDTAB
  0
TABLE
  2
STYLE
  5
3
330
0
100
AcDbSymbolTable
 70
     2
  0
STYLE
  5
10
330
3
100
AcDbSymbolTableRecord
100
AcDbTextStyleTableRecord
  2
STANDARD
 70
     0
 40
0.0
 41
1.0
 50
0.0
 71
     0
 42
5.0
  3
monos.ttf
  4

1001
ACAD
1000
Monospac821 BT
1071
       49
  0
ENDTAB
  0
TABLE
  2
VIEW
  5
6
330
0
100
AcDbSymbolTable
 70
     0
  0
ENDTAB
  0
TABLE
  2
UCS
  5
7
330
0
100
AcDbSymbolTable
 70
     0
  0
ENDTAB
  0
TABLE
  2
APPID
  5
9
330
0
100
AcDbSymbolTable
 70
    45
  0
APPID
  5
11
330
9
100
AcDbSymbolTableRecord
100
AcDbRegAppTableRecord
  2
ACAD
 70
     0
  0
APPID
  5
3A6
330
9
100
AcDbSymbolTableRecord
100
AcDbRegAppTableRecord
  2
ACAD_PSEXT
 70
     0
  0
APPID
  5
3A8
330
9
100
AcDbSymbolTableRecord
100
AcDbRegAppTableRecord
  2
ACAD_EXEMPT_FROM_CAD_STANDARDS
 70
     0
  0
APPID
  5
43E
330
9
100
AcDbSymbolTableRecord
100
AcDbRegAppTableRecord
  2
ACAD_MLEADERVER
 70
     0
  0
APPID
  5
460
330
9
100
AcDbSymbolTableRecord
100
AcDbRegAppTableRecord
  2
ACAD_DSTYLE_DIMJAG
 70
     0
  0
APPID
  5
461
330
9
100
AcDbSymbolTableRecord
100
AcDbRegAppTableRecord
  2
ACAD_DSTYLE_DIMBREAK
 70
     0
  0
APPID
  5
462
330
9
100
AcDbSymbolTableRecord
100
AcDbRegAppTableRecord
  2
ACAD_DSTYLE_DIMTALN
 70
     0
  0
APPID
  5
47A
330
9
100
AcDbSymbolTableRecord
100
AcDbRegAppTableRecord
  2
AcAecLayerStandard
 70
     0
  0
APPID
  5
4AB
330
9
100
AcDbSymbolTableRecord
100
AcDbRegAppTableRecord
  2
DCO15
 70
     0
  0
APPID
  5
4B9
330
9
100
AcDbSymbolTableRecord
100
AcDbRegAppTableRecord
  2
AcadAnnoPO
 70
     0
  0
APPID
  5
55F
330
9
100
AcDbSymbolTableRecord
100
AcDbRegAppTableRecord
  2
ACAD_DSTYLE_DIMRADIAL_EXTENSION
 70
     0
  0
APPID
  5
701
330
9
100
AcDbSymbolTableRecord
100
AcDbRegAppTableRecord
  2
AcadAnnotative
 70
     0
  0
APPID
  5
702
330
9
100
AcDbSymbolTableRecord
100
AcDbRegAppTableRecord
  2
AcDbDynamicBlockGUID
 70
     0
  0
APPID
  5
703
330
9
100
AcDbSymbolTableRecord
100
AcDbRegAppTableRecord
  2
AcDbBlockRepETag
 70
     0
  0
APPID
  5
748
330
9
100
AcDbSymbolTableRecord
100
AcDbRegAppTableRecord
  2
MCAD_NO_VIS
 70
     0
  0
APPID
  5
749
330
9
100
AcDbSymbolTableRecord
100
AcDbRegAppTableRecord
  2
ACAD_TEMP_GRAPHIC
 70
     0
  0
APPID
  5
754
330
9
100
AcDbSymbolTableRecord
100
AcDbRegAppTableRecord
  2
ACATTRIBSERVICES
 70
     0
  0
APPID
  5
76C
330
9
100
AcDbSymbolTableRecord
100
AcDbRegAppTableRecord
  2
DESIGNERASSEMBLIES
 70
     0
  0
APPID
  5
7A8
330
9
100
AcDbSymbolTableRecord
100
AcDbRegAppTableRecord
  2
ACAD_NAV_VCDISPLAY
 70
     0
  0
APPID
  5
B2F
330
9
100
AcDbSymbolTableRecord
100
AcDbRegAppTableRecord
  2
ADCADD_ZZ
 70
     0
  0
APPID
  5
B30
330
9
100
AcDbSymbolTableRecord
100
AcDbRegAppTableRecord
  2
SDSK_PMN
 70
     0
  0
APPID
  5
B31
330
9
100
AcDbSymbolTableRecord
100
AcDbRegAppTableRecord
  2
AEC_DWGVARSSETUP_DATA
 70
     0
  0
APPID
  5
B32
330
9
100
AcDbSymbolTableRecord
100
AcDbRegAppTableRecord
  2
AECBASE
 70
     0
  0
APPID
  5
B33
330
9
100
AcDbSymbolTableRecord
100
AcDbRegAppTableRecord
  2
AEC_DISPREPCONFIG_DATA
 70
     0
  0
APPID
  5
B34
330
9
100
AcDbSymbolTableRecord
100
AcDbRegAppTableRecord
  2
AEC_DISPREPSET_DATA
 70
     0
  0
APPID
  5
B35
330
9
100
AcDbSymbolTableRecord
100
AcDbRegAppTableRecord
  2
AD_DRAW
 70
     0
  0
APPID
  5
B36
330
9
100
AcDbSymbolTableRecord
100
AcDbRegAppTableRecord
  2
ACADM_DIM_EDIT
 70
     0
  0
APPID
  5
B37
330
9
100
AcDbSymbolTableRecord
100
AcDbRegAppTableRecord
  2
AMDT_DM_ADJ
 70
     0
  0
APPID
  5
B38
330
9
100
AcDbSymbolTableRecord
100
AcDbRegAppTableRecord
  2
ACAD_DSTYLE_DIMTEXT_FILL
 70
     0
  0
APPID
  5
B39
330
9
100
AcDbSymbolTableRecord
100
AcDbRegAppTableRecord
  2
GENIUS_GENREC_14
 70
     0
  0
APPID
  5
B3A
330
9
100
AcDbSymbolTableRecord
100
AcDbRegAppTableRecord
  2
GENIUS_GENODEF_13
 70
     0
  0
APPID
  5
B3B
330
9
100
AcDbSymbolTableRecord
100
AcDbRegAppTableRecord
  2
GENIUS_GENOBJ-N-REC_13
 70
     0
  0
APPID
  5
B43
330
9
100
AcDbSymbolTableRecord
100
AcDbRegAppTableRecord
  2
CONTENTBLOCKICON
 70
     0
  0
APPID
  5
B44
330
9
100
AcDbSymbolTableRecord
100
AcDbRegAppTableRecord
  2
ACAUTHENVIRON
 70
     0
  0
APPID
  5
B45
330
9
100
AcDbSymbolTableRecord
100
AcDbRegAppTableRecord
  2
AcDbDynamicBlockTrueName
 70
     0
  0
APPID
  5
B46
330
9
100
AcDbSymbolTableRecord
100
AcDbRegAppTableRecord
  2
AcDbBlockRepBTag
 70
     0
  0
APPID
  5
13E1
330
9
100
AcDbSymbolTableRecord
100
AcDbRegAppTableRecord
  2
310397229
 70
     0
  0
APPID
  5
14DE
330
9
100
AcDbSymbolTableRecord
100
AcDbRegAppTableRecord
  2
ACAD_DSTYLE_DIMARC_LENGTH_SYMBOL
 70
     0
  0
APPID
  5
14DF
330
9
100
AcDbSymbolTableRecord
100
AcDbRegAppTableRecord
  2
ACAD_DSTYLE_DIM_LINETYPE
 70
     0
  0
APPID
  5
14E0
330
9
100
AcDbSymbolTableRecord
100
AcDbRegAppTableRecord
  2
ACAD_DSTYLE_DIM_EXT1_LINETYPE
 70
     0
  0
APPID
  5
14E1
330
9
100
AcDbSymbolTableRecord
100
AcDbRegAppTableRecord
  2
ACAD_DSTYLE_DIM_EXT2_LINETYPE
 70
     0
  0
APPID
  5
15CD
330
9
100
AcDbSymbolTableRecord
100
AcDbRegAppTableRecord
  2
ACAD_DSTYLE_DIMJOGGED_JOGANGLE_SYMBOL
 70
     0
  0
APPID
  5
15CE
330
9
100
AcDbSymbolTableRecord
100
AcDbRegAppTableRecord
  2
AcCmTransparency
 70
     0
  0
APPID
  5
15CF
330
9
100
AcDbSymbolTableRecord
100
AcDbRegAppTableRecord
  2
ACAD_DSTYLE_DIMEXT_LENGTH
 70
     0
  0
APPID
  5
16C1
330
9
100
AcDbSymbolTableRecord
100
AcDbRegAppTableRecord
  2
AcadAnnoMonitorAlertIconDisabled
 70
     0
  0
ENDTAB
  0
TABLE
  2
DIMSTYLE
  5
A
330
0
100
AcDbSymbolTable
 70
     2
100
AcDbDimStyleTable
 71
     2
340
17D4
340
3F
  0
DIMSTYLE
105
3F
330
A
100
AcDbSymbolTableRecord
100
AcDbDimStyleTableRecord
  2
STANDARD
 70
     0
 41
2.5
 42
0.0
 43
3.75
 44
1.25
 73
     0
 74
     0
 77
     1
 78
     1
140
3.5
141
0.0
143
0.039370078
147
0.625
171
     3
179
     2
271
     2
272
     2
274
     3
283
     0
284
     8
340
10
1001
ACAD_DSTYLE_DIMJAG
1070
   388
1040
1.5
1001
ACAD_DSTYLE_DIMTALN
1070
   392
1070
     0
  0
DIMSTYLE
105
17D4
102
{ACAD_REACTORS
330
16E4
330
E99
330
BA8
102
}
330
A
100
AcDbSymbolTableRecord
100
AcDbDimStyleTableRecord
  2
ISO-25
 70
     0
 41
2.5
 42
0.625
 43
3.75
 44
1.25
 73
     0
 74
     0
 77
     1
 78
     8
140
2.5
141
2.5
143
0.03937007874016
147
0.625
171
     3
172
     1
271
     2
272
     2
274
     3
283
     0
284
     8
340
10
1001
ACAD_DSTYLE_DIMEXT_LENGTH
1070
   378
1040
1.25
1001
ACAD_DSTYLE_DIMJOGGED_JOGANGLE_SYMBOL
1070
   384
1040
1.570796326794896
  0
ENDTAB
  0
TABLE
  2
BLOCK_RECORD
  5
1
330
0
100
AcDbSymbolTable
 70
    26
  0
BLOCK_RECORD
  5
18
102
{ACAD_XDICTIONARY
360
B25
102
}
330
1
100
AcDbSymbolTableRecord
100
AcDbBlockTableRecord
  2
*MODEL_SPACE
340
303
  0
BLOCK_RECORD
  5
338
330
1
100
AcDbSymbolTableRecord
100
AcDbBlockTableRecord
  2
*Paper_Space
340
33B
  0
BLOCK_RECORD
  5
51F
330
1
100
AcDbSymbolTableRecord
100
AcDbBlockTableRecord
  2
CERO_POINT
340
0
310
2800000020000000200000000100080000000000000400000000000000000000000000000000000000000000000080000080000000808000800000008000800080800000C0C0C000C0DCC000F0CAA6000020400000206000002080000020A0000020C0000020E00000400000004020000040400000406000004080000040A0
310
000040C0000040E00000600000006020000060400000606000006080000060A0000060C0000060E00000800000008020000080400000806000008080000080A0000080C0000080E00000A0000000A0200000A0400000A0600000A0800000A0A00000A0C00000A0E00000C0000000C0200000C0400000C0600000C0800000C0
310
A00000C0C00000C0E00000E0000000E0200000E0400000E0600000E0800000E0A00000E0C00000E0E00040000000400020004000400040006000400080004000A0004000C0004000E00040200000402020004020400040206000402080004020A0004020C0004020E000404000004040200040404000404060004040800040
310
40A0004040C0004040E00040600000406020004060400040606000406080004060A0004060C0004060E00040800000408020004080400040806000408080004080A0004080C0004080E00040A0000040A0200040A0400040A0600040A0800040A0A00040A0C00040A0E00040C0000040C0200040C0400040C0600040C08000
310
40C0A00040C0C00040C0E00040E0000040E0200040E0400040E0600040E0800040E0A00040E0C00040E0E00080000000800020008000400080006000800080008000A0008000C0008000E00080200000802020008020400080206000802080008020A0008020C0008020E00080400000804020008040400080406000804080
310
008040A0008040C0008040E00080600000806020008060400080606000806080008060A0008060C0008060E00080800000808020008080400080806000808080008080A0008080C0008080E00080A0000080A0200080A0400080A0600080A0800080A0A00080A0C00080A0E00080C0000080C0200080C0400080C0600080C0
310
800080C0A00080C0C00080C0E00080E0000080E0200080E0400080E0600080E0800080E0A00080E0C00080E0E000C0000000C0002000C0004000C0006000C0008000C000A000C000C000C000E000C0200000C0202000C0204000C0206000C0208000C020A000C020C000C020E000C0400000C0402000C0404000C0406000C0
310
408000C040A000C040C000C040E000C0600000C0602000C0604000C0606000C0608000C060A000C060C000C060E000C0800000C0802000C0804000C0806000C0808000C080A000C080C000C080E000C0A00000C0A02000C0A04000C0A06000C0A08000C0A0A000C0A0C000C0A0E000C0C00000C0C02000C0C04000C0C06000
310
C0C08000C0C0A000F0FBFF00A4A0A000808080000000FF0000FF000000FFFF00FF000000FF00FF00FFFF0000FFFFFF00000000000000000000000000000000000000000000000000000000000000000000000000000000000000000000000000FF0000000000000000000000000000000000000000000000000000000000FF
310
FFFFFFFF000000000000000000000000000000000000000000FFFFFFFFFFFF0000FF0000FFFF00FF00000000000000000000000000000000FF00000000000000FFFFFF0000FFFFFFFF000000000000000000000000000000FF0000000000000000FF00FF0000FF00FFFF00000000000000000000000000FF00000000000000
310
0000FFFF00FF0000FF0000FFFF00000000000000000000FF000000000000000000FFFF00FF00FF0000FF0000FF000000000000000000FF0000000000000000000000FF0000FF00FF0000FF0000FF0000000000000000FF00000000000000000000FFFFFF0000FFFFFF0000FF00FFFF000000000000FF000000000000000000
310
000000FF00FF000000FFFF0000FF00FF0000000000FF00000000000000000000000000FFFF00FFFF0000FFFF0000FFFF0000000000FF000000000000000000000000FFFF00FF0000FF0000FFFF0000FF0000000000FF00000000000000000000000000FF0000FF0000FF0000FFFF0000FF00000000FF000000000000000000
310
000000FFFFFF0000FF0000FF0000FFFF00FF00000000FF00FF00000000FF0000FF00FF00FFFFFF0000FF0000FF0000FFFF00FF0000FFFFFFFFFFFFFFFFFFFFFFFFFFFFFFFFFFFFFFFFFFFFFFFFFFFFFFFFFFFF000000FF00FF00FF00FF0000FF0000FFFFFF00000000000000000000000000FF000000FF0000FF00FF00FF00
310
00FF0000FFFF000000000000000000000000FF00000000FFFF0000FF00FF00FF00FF000000FF000000000000000000000000FF00000000FF00FF0000FF00FF00FF00FF0000FF0000000000000000000000FF000000000000FF00FF0000FFFF0000FF00FF00FF0000000000000000000000FF000000000000FFFF00FF00FF00
310
FF0000FF00FFFF00000000000000000000FF0000000000000000FF0000FF00FF00FF0000FF00FF00000000000000000000FF000000000000000000FF0000FF00FF00FF0000FFFF000000000000000000FF0000000000000000000000FF0000FF00FF00FF0000FF000000000000000000FF000000000000000000000000FF00
310
00FF00FF00FF00FF00000000000000FFFF00000000000000000000000000FFFF0000FF00FF00FFFF0000000000FFFF00000000000000000000000000000000FFFFFFFFFF00FF00FF000000FFFF0000000000000000000000000000000000000000000000FFFFFFFFFFFFFF0000000000000000000000000000000000000000
310
0000000000000000FF0000000000000000000000000000000000000000000000000000000000000000000000000000000000000000000000
102
{BLKREFS
331
B41
102
}
1001
ACAD
1000
DesignCenter Data
1002
{
1070
     1
1070
     4
1002
}
  0
BLOCK_RECORD
  5
BA9
330
1
100
AcDbSymbolTableRecord
100
AcDbBlockTableRecord
  2
*D3
340
0
  0
BLOCK_RECORD
  5
E9A
330
1
100
AcDbSymbolTableRecord
100
AcDbBlockTableRecord
  2
*D5
340
0
  0
BLOCK_RECORD
  5
16E5
330
1
100
AcDbSymbolTableRecord
100
AcDbBlockTableRecord
  2
*D6
340
0
  0
ENDTAB
  0
ENDSEC
  0
SECTION
  2
BLOCKS
  0
BLOCK
  5
32
330
18
100
AcDbEntity
  8
0
100
AcDbBlockBegin
  2
*MODEL_SPACE
 70
     0
 10
0.0
 20
0.0
 30
0.0
  3
*MODEL_SPACE
  1

  0
ENDBLK
  5
33
330
18
100
AcDbEntity
  8
0
100
AcDbBlockEnd
  0
BLOCK
  5
339
330
338
100
AcDbEntity
 67
     1
  8
0
100
AcDbBlockBegin
  2
*Paper_Space
 70
     0
 10
0.0
 20
0.0
 30
0.0
  3
*Paper_Space
  1

  0
ENDBLK
  5
33A
330
338
100
AcDbEntity
 67
     1
  8
0
100
AcDbBlockEnd
  0
BLOCK
  5
520
330
51F
100
AcDbEntity
  8
0
100
AcDbBlockBegin
  2
CERO_POINT
 70
     0
 10
0.0
 20
0.0
 30
0.0
  3
CERO_POINT
  1

  0
CIRCLE
  5
521
102
{ACAD_REACTORS
330
526
102
}
330
51F
100
AcDbEntity
  8
SK2
100
AcDbCircle
 10
0.0
 20
0.0
 30
0.0
 40
2.5
  0
LINE
  5
522
330
51F
100
AcDbEntity
  8
SK2
100
AcDbLine
 10
0.0900000000037835
 20
0.0
 30
0.0
 11
-0.0899999999965076
 21
0.0
 31
0.0
  0
LINE
  5
523
330
51F
100
AcDbEntity
  8
SK2
100
AcDbLine
 10
0.0
 20
0.0899999999999182
 30
0.0
 11
0.0
 21
-0.0899999999999182
 31
0.0
  0
LINE
  5
524
102
{ACAD_REACTORS
330
526
102
}
330
51F
100
AcDbEntity
  8
SK2
100
AcDbLine
 10
0.0
 20
-2.5
 30
0.0
 11
0.0
 21
2.5
 31
0.0
  0
LINE
  5
525
102
{ACAD_REACTORS
330
526
102
}
330
51F
100
AcDbEntity
  8
SK2
100
AcDbLine
 10
2.5
 20
0.0
 30
0.0
 11
-2.5
 21
0.0
 31
0.0
  0
HATCH
  5
526
330
51F
100
AcDbEntity
  8
SK2
100
AcDbHatch
 10
0.0
 20
0.0
 30
0.0
210
0.0
220
0.0
230
1.0
  2
ANSI31
 70
     0
 71
     1
 91
        2
 92
        7
 72
     1
 73
     1
 93
        3
 10
0.0
 20
-2.5
 42
0.4142135623730951
 10
2.5
 20
0.0
 42
0.0
 10
0.0
 20
0.0
 42
0.0
 97
        3
330
521
330
525
330
524
 92
        7
 72
     1
 73
     1
 93
        3
 10
0.0
 20
0.0
 42
0.0
 10
0.0
 20
2.5
 42
0.4142135623730951
 10
-2.5
 20
0.0
 42
0.0
 97
        3
330
525
330
524
330
521
 75
     0
 76
     1
 52
180.0
 41
0.1
 77
     0
 78
     1
 53
225.0
 43
5.170976743218488
 44
0.0
 45
0.2245064030267288
 46
-0.2245064030267289
 79
     0
 47
0.0243816376539857
 98
        2
 10
0.8789156907296272
 20
-1.044463114528752
 10
-0.8545028512526187
 20
0.7841600866017872
  0
ENDBLK
  5
527
330
51F
100
AcDbEntity
  8
0
100
AcDbBlockEnd
  0
BLOCK
  5
BAA
330
BA9
100
AcDbEntity
  8
0
100
AcDbBlockBegin
  2
*D3
 70
     1
 10
0.0
 20
0.0
 30
0.0
  3
*D3
  1

  0
LINE
  5
188C
330
BA9
100
AcDbEntity
  8
2
 62
     0
370
    -2
100
AcDbLine
 10
0.1500489999963577
 20
7.410705999999947
 30
0.0
 11
0.1500489999963587
 21
23.01775419459568
 31
0.0
  0
LINE
  5
188D
330
BA9
100
AcDbEntity
  8
2
 62
     0
370
    -2
100
AcDbLine
 10
1.649950999996375
 20
7.410702999999953
 30
0.0
 11
1.649950999996376
 21
23.01775419459568
 31
0.0
  0
LINE
  5
188E
330
BA9
100
AcDbEntity
  8
2
 62
     0
370
    -2
100
AcDbLine
 10
-2.349951000003641
 20
21.76775419459568
 30
0.0
 11
-4.849951000003641
 21
21.76775419459568
 31
0.0
  0
LINE
  5
188F
330
BA9
100
AcDbEntity
  8
2
 62
     0
370
    -2
100
AcDbLine
 10
4.149950999996376
 20
21.76775419459568
 30
0.0
 11
16.06087861770544
 21
21.76775419459568
 31
0.0
  0
LINE
  5
1890
330
BA9
100
AcDbEntity
  8
2
 62
     0
370
    -2
100
AcDbLine
 10
0.1500489999963586
 20
21.76775419459568
 30
0.0
 11
1.649950999996376
 21
21.76775419459568
 31
0.0
  0
SOLID
  5
1891
330
BA9
100
AcDbEntity
  8
2
 62
     0
100
AcDbTrace
 10
-2.349951000003641
 20
22.18442086126235
 30
0.0
 11
-2.349951000003641
 21
21.35108752792902
 31
0.0
 12
0.1500489999963586
 22
21.76775419459568
 32
0.0
 13
0.1500489999963586
 23
21.76775419459568
 33
0.0
  0
SOLID
  5
1892
330
BA9
100
AcDbEntity
  8
2
 62
     0
100
AcDbTrace
 10
4.149950999996376
 20
22.18442086126235
 30
0.0
 11
4.149950999996376
 21
21.35108752792902
 31
0.0
 12
1.649950999996376
 22
21.76775419459568
 32
0.0
 13
1.649950999996376
 23
21.76775419459568
 33
0.0
  0
MTEXT
  5
1893
330
BA9
100
AcDbEntity
  8
2
 62
     0
100
AcDbMText
 10
11.35541480885091
 20
24.2042440048557
 30
0.0
 40
3.5
 41
0.0
 71
     5
 72
     1
  1
1.5
 73
     1
 44
1.0
1001
ACAD
1000
MTEXTBEGIN
1070
    73
1070
     1
1070
    44
1040
1.0
1070
    74
1070
     0
1000
MTEXTEND
  0
POINT
  5
1894
330
BA9
100
AcDbEntity
  8
DEFPOINTS
 62
     0
100
AcDbPoint
 10
0.1500489999963577
 20
6.785705999999947
 30
0.0
  0
POINT
  5
1895
330
BA9
100
AcDbEntity
  8
DEFPOINTS
 62
     0
100
AcDbPoint
 10
1.649950999996375
 20
6.785702999999953
 30
0.0
  0
POINT
  5
1896
330
BA9
100
AcDbEntity
  8
DEFPOINTS
 62
     0
100
AcDbPoint
 10
1.649950999996376
 20
21.76775419459568
 30
0.0
  0
ENDBLK
  5
BAB
330
BA9
100
AcDbEntity
  8
0
100
AcDbBlockEnd
  0
BLOCK
  5
E9B
330
E9A
100
AcDbEntity
  8
0
100
AcDbBlockBegin
  2
*D5
 70
     1
 10
0.0
 20
0.0
 30
0.0
  3
*D5
  1

  0
LINE
  5
1886
330
E9A
100
AcDbEntity
  8
2
 62
     0
370
    -2
100
AcDbLine
 10
19.57193244319897
 20
15.29683133853374
 30
0.0
 11
3.947944255368697
 21
8.75446820837913
 31
0.0
  0
MTEXT
  5
1887
330
E9A
100
AcDbEntity
  8
2
 62
     0
100
AcDbMText
 10
13.17093558069558
 20
15.25796457579636
 30
0.0
 40
3.5
 41
0.0
 71
     5
 72
     1
  1
R0.1
 11
0.9223970537968535
 21
0.3862430260171499
 31
0.0
 73
     1
 44
1.0
1001
ACAD
1000
MTEXTBEGIN
1070
    73
1070
     1
1070
    44
1040
1.0
1070
    74
1070
     0
1000
MTEXTEND
  0
LINE
  5
1888
330
E9A
100
AcDbEntity
  8
2
 62
     0
370
    -2
100
AcDbLine
 10
1.549805999996364
 20
7.750275737523193
 30
0.0
 11
1.641951620876564
 21
7.788860643336255
 31
0.0
  0
SOLID
  5
1889
330
E9A
100
AcDbEntity
  8
2
 62
     0
100
AcDbTrace
 10
3.787009661194884
 20
9.138800314127818
 30
0.0
 11
4.108878849542509
 21
8.370136102630439
 31
0.0
 12
1.641951620876564
 22
7.788860643336255
 32
0.0
 13
1.641951620876564
 23
7.788860643336255
 33
0.0
  0
POINT
  5
188A
330
E9A
100
AcDbEntity
  8
DEFPOINTS
 62
     0
100
AcDbPoint
 10
1.641951620876564
 20
7.788860643336255
 30
0.0
  0
POINT
  5
188B
330
E9A
100
AcDbEntity
  8
DEFPOINTS
 62
     0
100
AcDbPoint
 10
1.549805999996364
 20
7.750275737523193
 30
0.0
  0
ENDBLK
  5
E9C
330
E9A
100
AcDbEntity
  8
0
100
AcDbBlockEnd
  0
BLOCK
  5
16E6
330
16E5
100
AcDbEntity
  8
0
100
AcDbBlockBegin
  2
*D6
 70
     1
 10
0.0
 20
0.0
 30
0.0
  3
*D6
  1

  0
LINE
  5
18A1
330
16E5
100
AcDbEntity
  8
0
 62
     0
370
    -2
100
AcDbLine
 10
2.181280029653352
 20
7.849963737523192
 30
0.0
 11
19.18256139108075
 21
7.849963737523188
 31
0.0
  0
LINE
  5
18A2
330
16E5
100
AcDbEntity
  8
0
 62
     0
370
    -2
100
AcDbLine
 10
2.181280029653355
 20
-7.849963737523308
 30
0.0
 11
19.18256139108075
 21
-7.849963737523312
 31
0.0
  0
LINE
  5
18A3
330
16E5
100
AcDbEntity
  8
0
 62
     0
370
    -2
100
AcDbLine
 10
17.93256139108075
 20
5.349963737523188
 30
0.0
 11
17.93256139108075
 21
-5.349963737523311
 31
0.0
  0
LINE
  5
18A4
330
16E5
100
AcDbEntity
  8
0
 62
     0
370
    -2
100
AcDbLine
 10
17.93256139108075
 20
-7.849963737523311
 30
0.0
 11
17.93256139108074
 21
-26.33046268341228
 31
0.0
  0
SOLID
  5
18A5
330
16E5
100
AcDbEntity
  8
0
 62
     0
100
AcDbTrace
 10
17.51589472441408
 20
5.349963737523188
 30
0.0
 11
18.34922805774742
 21
5.349963737523188
 31
0.0
 12
17.93256139108075
 22
7.849963737523188
 32
0.0
 13
17.93256139108075
 23
7.849963737523188
 33
0.0
  0
SOLID
  5
18A6
330
16E5
100
AcDbEntity
  8
0
 62
     0
100
AcDbTrace
 10
17.51589472441408
 20
-5.349963737523311
 30
0.0
 11
18.34922805774742
 21
-5.349963737523312
 31
0.0
 12
17.93256139108075
 22
-7.849963737523311
 32
0.0
 13
17.93256139108075
 23
-7.849963737523311
 33
0.0
  0
MTEXT
  5
18A7
330
16E5
100
AcDbEntity
  8
0
 62
     0
100
AcDbMText
 10
15.44442014020232
 20
-18.34021321046779
 30
0.0
 40
3.5
 41
0.0
 71
     5
 72
     1
  1
%%C15.7
 11
0.0000000000000001
 21
1.0
 31
0.0
 73
     1
 44
1.0
1001
ACAD
1000
MTEXTBEGIN
1070
    73
1070
     1
1070
    44
1040
1.0
1070
    74
1070
     0
1000
MTEXTEND
  0
POINT
  5
18A8
330
16E5
100
AcDbEntity
  8
DEFPOINTS
 62
     0
100
AcDbPoint
 10
1.556280029653352
 20
7.849963737523193
 30
0.0
  0
POINT
  5
18A9
330
16E5
100
AcDbEntity
  8
DEFPOINTS
 62
     0
100
AcDbPoint
 10
1.556280029653355
 20
-7.849963737523307
 30
0.0
  0
POINT
  5
18AA
330
16E5
100
AcDbEntity
  8
DEFPOINTS
 62
     0
100
AcDbPoint
 10
17.93256139108075
 20
-7.849963737523311
 30
0.0
  0
ENDBLK
  5
16E7
330
16E5
100
AcDbEntity
  8
0
100
AcDbBlockEnd
  0
ENDSEC
  0
SECTION
  2
ENTITIES
  0
LINE
  5
9BD
330
18
100
AcDbEntity
  8
4
 48
0.201703
100
AcDbLine
 10
2.652913002868729
 20
-0.0000000000000568
 30
0.0
 11
-0.000000000003638
 21
-0.0000000000000568
 31
0.0
  0
LINE
  5
9BF
330
18
100
AcDbEntity
  8
1
 48
0.000214
100
AcDbLine
 10
1.590948999996326
 20
-1.420396000000039
 30
0.0
 11
1.58238099999636
 21
-1.420396000000039
 31
0.0
  0
LINE
  5
9C2
330
18
100
AcDbEntity
  8
SK1
 48
0.165996
100
AcDbLine
 10
-1.370000000003642
 20
3.319928999999944
 30
0.0
 11
-1.370000000003642
 21
-3.319929000000056
 31
0.0
  0
ARC
  5
9C3
330
18
100
AcDbEntity
  8
SK1
100
AcDbCircle
 10
-1.470000000003635
 20
-3.280000000000028
 30
0.0
 40
0.1
100
AcDbArc
 50
0.0
 51
90.0
  0
LINE
  5
9C4
330
18
100
AcDbEntity
  8
SK1
 48
0.159
100
AcDbLine
 10
-1.470000000003635
 20
-3.180000000000006
 30
0.0
 11
-1.470000000003635
 21
3.180000000000006
 31
0.0
  0
ARC
  5
9C5
330
18
100
AcDbEntity
  8
SK1
100
AcDbCircle
 10
-1.470000000003635
 20
3.279999999999971
 30
0.0
 40
0.1
100
AcDbArc
 50
270.0
 51
0.0
  0
LINE
  5
9C6
330
18
100
AcDbEntity
  8
SK1
 48
0.000588
100
AcDbLine
 10
-1.470000000003635
 20
-3.180000000000006
 30
0.0
 11
-1.49351900000363
 21
-3.180000000000006
 31
0.0
  0
LINE
  5
9C7
330
18
100
AcDbEntity
  8
SK1
 48
0.000244
100
AcDbLine
 10
-1.494254000003649
 20
-3.179991000000028
 30
0.0
 11
-1.503579000003639
 21
-3.177168999999991
 31
0.0
  0
SPLINE
  5
9C8
330
18
100
AcDbEntity
  8
SK1
100
AcDbSpline
210
0.0
220
0.0
230
1.0
 70
     8
 71
     5
 72
    18
 73
    12
 74
     0
 42
0.000000001
 43
0.0000000001
 40
0.0
 40
0.0
 40
0.0
 40
0.0
 40
0.0
 40
0.0
 40
1.7334040133025
 40
1.7334040133025
 40
1.7334040133025
 40
7.553031714778595
 40
7.553031714778595
 40
7.553031714778595
 40
7.964554373991494
 40
7.964554373991494
 40
7.964554373991494
 40
7.964554373991494
 40
7.964554373991494
 40
7.964554373991494
 10
-1.503579105675214
 20
-3.177168602993504
 30
0.0
 10
-1.528988976863784
 20
-3.162634014525906
 30
0.0
 10
-1.554328202264541
 20
-3.101570621356755
 30
0.0
 10
-1.578960411619048
 20
-2.995646655446931
 30
0.0
 10
-1.681627127386915
 20
-2.396970671480858
 30
0.0
 10
-1.76656812210035
 20
-1.337583201189942
 30
0.0
 10
-1.826145518070262
 20
-0.5288012821208668
 30
0.0
 10
-1.889482277008625
 20
0.3772590579348503
 30
0.0
 10
-1.956958247074195
 20
1.222888839937636
 30
0.0
 10
-1.961434691881549
 20
1.278449882765414
 30
0.0
 10
-1.965932277444409
 20
1.333684542091758
 30
0.0
 10
-1.970453203319832
 20
1.38856446864514
 30
0.0
  0
SPLINE
  5
9C9
330
18
100
AcDbEntity
  8
SK1
100
AcDbSpline
210
0.0
220
0.0
230
1.0
 70
     8
 71
     5
 72
    18
 73
    12
 74
     0
 42
0.000000001
 43
0.0000000001
 40
0.0
 40
0.0
 40
0.0
 40
0.0
 40
0.0
 40
0.0
 40
2.654245769671115
 40
2.654245769671115
 40
2.654245769671115
 40
3.946538112793568
 40
3.946538112793568
 40
3.946538112793568
 40
4.085573320554033
 40
4.085573320554033
 40
4.085573320554033
 40
4.085573320554033
 40
4.085573320554033
 40
4.085573320554033
 10
-1.970453203319832
 20
1.38856446864514
 30
0.0
 10
-1.999612347078254
 20
1.74252994207171
 30
0.0
 10
-2.029742501337722
 20
2.081737552196726
 30
0.0
 10
-2.061686305286315
 20
2.401700461368875
 30
0.0
 10
-2.1120233472773
 20
2.813669028801143
 30
0.0
 10
-2.167146265480027
 20
3.066683184411827
 30
0.0
 10
-2.185682687781393
 20
3.128814161465752
 30
0.0
 10
-2.20656653821527
 20
3.169814981528075
 30
0.0
 10
-2.227502397835079
 20
3.179097641519376
 30
0.0
 10
-2.229537005258235
 20
3.179699306721203
 30
0.0
 10
-2.231570651708634
 20
3.179999999999948
 30
0.0
 10
-2.233603797405805
 20
3.180000000000006
 30
0.0
  0
LINE
  5
9CA
330
18
100
AcDbEntity
  8
SK1
 48
0.01909
100
AcDbLine
 10
-1.470000000003635
 20
3.180000000000006
 30
0.0
 11
-2.233604000003623
 21
3.180000000000006
 31
0.0
  0
LINE
  5
9CB
330
18
100
AcDbEntity
  8
SK1
 48
0.000262
100
AcDbLine
 10
-2.233604000003623
 20
3.180000000000006
 30
0.0
 11
-2.24366500000363
 21
3.177118000000006
 31
0.0
  0
LINE
  5
9CC
330
18
100
AcDbEntity
  8
SK1
 48
0.013087
100
AcDbLine
 10
-2.45018600000364
 20
-3.180000000000006
 30
0.0
 11
-2.973663000003625
 21
-3.180000000000006
 31
0.0
  0
LINE
  5
9CD
330
18
100
AcDbEntity
  8
SK1
 48
0.000127
100
AcDbLine
 10
-2.45018600000364
 20
-3.180000000000006
 30
0.0
 11
-2.445158000003628
 21
-3.179295000000023
 31
0.0
  0
ARC
  5
9CE
330
18
100
AcDbEntity
  8
SK1
100
AcDbCircle
 10
-2.491004000003641
 20
-2.98172100000005
 30
0.0
 40
0.202833
100
AcDbArc
 50
283.0722599999992
 51
323.5178360000006
  0
ARC
  5
9CF
330
18
100
AcDbEntity
  8
SK1
100
AcDbCircle
 10
-3.764663000003622
 20
-2.147778000000014
 30
0.0
 40
1.724913999999999
100
AcDbArc
 50
326.4010989999994
 51
332.711684000001
  0
LINE
  5
9D0
330
18
100
AcDbEntity
  8
SK1
 48
0.001019
100
AcDbLine
 10
-2.209200000003646
 20
-2.904622000000017
 30
0.0
 11
-2.231579000003646
 21
-2.938666000000068
 31
0.0
  0
ARC
  5
9D1
330
18
100
AcDbEntity
  8
SK1
100
AcDbCircle
 10
-2.016991000003628
 20
-3.057374000000038
 30
0.0
 40
0.245548
100
AcDbArc
 50
90.36053199999953
 51
141.5250729999999
  0
LINE
  5
9D2
330
18
100
AcDbEntity
  8
SK1
 48
0.00812
100
AcDbLine
 10
-1.693722000003645
 20
-2.813254000000029
 30
0.0
 11
-2.018536000003649
 21
-2.811915000000055
 31
0.0
  0
SPLINE
  5
9D3
330
18
100
AcDbEntity
  8
SK1
100
AcDbSpline
210
0.0
220
0.0
230
1.0
 70
     8
 71
     5
 72
    15
 73
     9
 74
     0
 42
0.000000001
 43
0.0000000001
 40
0.0
 40
0.0
 40
0.0
 40
0.0
 40
0.0
 40
0.0
 40
2.02082078633501
 40
2.02082078633501
 40
2.02082078633501
 40
7.717732950736405
 40
7.717732950736405
 40
7.717732950736405
 40
7.717732950736405
 40
7.717732950736405
 40
7.717732950736405
 10
-1.619714157516909
 20
-3.002583518825814
 30
0.0
 10
-1.646006231779066
 20
-2.919386896174443
 30
0.0
 10
-1.671676777843229
 20
-2.791416921367213
 30
0.0
 10
-1.696471361942968
 20
-2.625883714317239
 30
0.0
 10
-1.787180363057301
 20
-1.899379798588539
 30
0.0
 10
-1.866491895842244
 20
-0.890842906271871
 30
0.0
 10
-1.922799588909299
 20
-0.1290572166864763
 30
0.0
 10
-1.978858450084942
 20
0.642883131887345
 30
0.0
 10
-2.038415262214896
 20
1.346366866536698
 30
0.0
  0
SPLINE
  5
9D4
330
18
100
AcDbEntity
  8
SK1
100
AcDbSpline
210
0.0
220
0.0
230
1.0
 70
     8
 71
     5
 72
    18
 73
    12
 74
     0
 42
0.000000001
 43
0.0000000001
 40
0.0
 40
0.0
 40
0.0
 40
0.0
 40
0.0
 40
0.0
 40
2.871427441052573
 40
2.871427441052573
 40
2.871427441052573
 40
4.341867125183314
 40
4.341867125183314
 40
4.341867125183314
 40
5.277762302198244
 40
5.277762302198244
 40
5.277762302198244
 40
5.277762302198244
 40
5.277762302198244
 40
5.277762302198244
 10
-2.038415262214896
 20
1.346366866536698
 30
0.0
 10
-2.068433816076435
 20
1.700945354270571
 30
0.0
 10
-2.0993452203505
 20
2.039632795475823
 30
0.0
 10
-2.131964798685743
 20
2.355767110739861
 30
0.0
 10
-2.18372504093989
 20
2.760517043001355
 30
0.0
 10
-2.23945032476527
 20
2.998810259281923
 30
0.0
 10
-2.258725555599937
 20
3.056761566857346
 30
0.0
 10
-2.290695283778148
 20
3.108451591381877
 30
0.0
 10
-2.322743885814559
 20
3.088792660502803
 30
0.0
 10
-2.335161458745744
 20
3.070279008892212
 30
0.0
 10
-2.347485099322256
 20
3.041361885340676
 30
0.0
 10
-2.359675207381938
 20
3.002817120363431
 30
0.0
  0
LINE
  5
9D5
330
18
100
AcDbEntity
  8
SK1
 48
0.00026
100
AcDbLine
 10
-2.973663000003625
 20
-3.180000000000006
 30
0.0
 11
-2.983662000003647
 21
-3.177139000000066
 31
0.0
  0
SPLINE
  5
9D6
330
18
100
AcDbEntity
  8
SK1
100
AcDbSpline
210
0.0
220
0.0
230
1.0
 70
     8
 71
     5
 72
    12
 73
     6
 74
     0
 42
0.000000001
 43
0.0000000001
 40
0.0
 40
0.0
 40
0.0
 40
0.0
 40
0.0
 40
0.0
 40
0.6511445950647719
 40
0.6511445950647719
 40
0.6511445950647719
 40
0.6511445950647719
 40
0.6511445950647719
 40
0.6511445950647719
 10
-2.983662348866997
 20
-3.177138895045175
 30
0.0
 10
-2.993254101934693
 20
-3.171650833725549
 30
0.0
 10
-3.002825577182107
 20
-3.159598063432383
 30
0.0
 10
-3.012418719979848
 20
-3.140906536823591
 30
0.0
 10
-3.021854526505848
 20
-3.116195106101542
 30
0.0
 10
-3.031188787371433
 20
-3.085764623358782
 30
0.0
  0
SPLINE
  5
9D7
330
18
100
AcDbEntity
  8
SK1
100
AcDbSpline
210
0.0
220
0.0
230
1.0
 70
     8
 71
     5
 72
    18
 73
    12
 74
     0
 42
0.000000001
 43
0.0000000001
 40
0.0
 40
0.0
 40
0.0
 40
0.0
 40
0.0
 40
0.0
 40
1.625205376537665
 40
1.625205376537665
 40
1.625205376537665
 40
5.598486792608824
 40
5.598486792608824
 40
5.598486792608824
 40
9.632363016411023
 40
9.632363016411023
 40
9.632363016411023
 40
9.632363016411023
 40
9.632363016411023
 40
9.632363016411023
 10
-3.031188787371433
 20
-3.085764623358782
 30
0.0
 10
-3.054486363761866
 20
-3.009812546755426
 30
0.0
 10
-3.077151289242066
 20
-2.898233926398631
 30
0.0
 10
-3.098977647957326
 20
-2.757295828126927
 30
0.0
 10
-3.17086985554198
 20
-2.204084063180912
 30
0.0
 10
-3.233932601177682
 20
-1.465835711820147
 30
0.0
 10
-3.275876554598168
 20
-0.9216861122259274
 30
0.0
 10
-3.35896167479879
 20
0.214433300584858
 30
0.0
 10
-3.443210769549267
 20
1.334487292845949
 30
0.0
 10
-3.487806813777806
 20
1.881519864662493
 30
0.0
 10
-3.535741987125048
 20
2.382882938247062
 30
0.0
 10
-3.588872233179785
 20
2.744919409904639
 30
0.0
  0
SPLINE
  5
9D8
330
18
100
AcDbEntity
  8
SK1
100
AcDbSpline
210
0.0
220
0.0
230
1.0
 70
     8
 71
     5
 72
    15
 73
     9
 74
     0
 42
0.000000001
 43
0.0000000001
 40
0.0
 40
0.0
 40
0.0
 40
0.0
 40
0.0
 40
0.0
 40
1.434463158432965
 40
1.434463158432965
 40
1.434463158432965
 40
1.762981647591403
 40
1.762981647591403
 40
1.762981647591403
 40
1.762981647591403
 40
1.762981647591403
 40
1.762981647591403
 10
-3.588872233179785
 20
2.744919409904639
 30
0.0
 10
-3.607765569597546
 20
2.873661084608841
 30
0.0
 10
-3.62731584395658
 20
2.984783512378271
 30
0.0
 10
-3.647585387349976
 20
3.073940149900522
 30
0.0
 10
-3.673171362443156
 20
3.147998525209516
 30
0.0
 10
-3.699124331382364
 20
3.174955976398337
 30
0.0
 10
-3.703979805399568
 20
3.178321570419996
 30
0.0
 10
-3.708829553524252
 20
3.179999999999893
 30
0.0
 10
-3.713679781692491
 20
3.180000000000006
 30
0.0
  0
LINE
  5
9D9
330
18
100
AcDbEntity
  8
SK1
 48
0.013087
100
AcDbLine
 10
-3.190197000003649
 20
3.180000000000006
 30
0.0
 11
-3.713680000003647
 21
3.180000000000006
 31
0.0
  0
LINE
  5
9DA
330
18
100
AcDbEntity
  8
SK1
 48
0.000269
100
AcDbLine
 10
-3.190197000003649
 20
3.180000000000006
 30
0.0
 11
-3.179861000003626
 21
3.176972999999973
 31
0.0
  0
SPLINE
  5
9DB
330
18
100
AcDbEntity
  8
SK1
100
AcDbSpline
210
0.0
220
0.0
230
1.0
 70
     8
 71
     5
 72
    18
 73
    12
 74
     0
 42
0.000000001
 43
0.0000000001
 40
0.0
 40
0.0
 40
0.0
 40
0.0
 40
0.0
 40
0.0
 40
1.238538643980005
 40
1.238538643980005
 40
1.238538643980005
 40
3.732049063115197
 40
3.732049063115197
 40
3.732049063115197
 40
4.048091474309548
 40
4.048091474309548
 40
4.048091474309548
 40
4.048091474309548
 40
4.048091474309548
 40
4.048091474309548
 10
-3.179860642077243
 20
3.176973054829943
 30
0.0
 10
-3.161533580181468
 20
3.166237203166872
 30
0.0
 10
-3.143307564987707
 20
3.131758830385706
 30
0.0
 10
-3.125410851200598
 20
3.074191317064673
 30
0.0
 10
-3.072885766232928
 20
2.842402029715741
 30
0.0
 10
-3.024805932025998
 20
2.46462366156305
 30
0.0
 10
-2.994437833634634
 20
2.171349097106201
 30
0.0
 10
-2.962145383017626
 20
1.819055357247405
 30
0.0
 10
-2.931084781958162
 20
1.447678165693275
 30
0.0
 10
-2.927605306117158
 20
1.405674624511219
 30
0.0
 10
-2.924139969960434
 20
1.36346454053131
 30
0.0
 10
-2.920687714935439
 20
1.321059284097827
 30
0.0
  0
SPLINE
  5
9DC
330
18
100
AcDbEntity
  8
SK1
100
AcDbSpline
210
0.0
220
0.0
230
1.0
 70
     8
 71
     5
 72
    21
 73
    15
 74
     0
 42
0.000000001
 43
0.0000000001
 40
0.0
 40
0.0
 40
0.0
 40
0.0
 40
0.0
 40
0.0
 40
4.445738792888178
 40
4.445738792888178
 40
4.445738792888178
 40
6.793871414866032
 40
6.793871414866032
 40
6.793871414866032
 40
7.982373463367339
 40
7.982373463367339
 40
7.982373463367339
 40
8.018888842424736
 40
8.018888842424736
 40
8.018888842424736
 40
8.018888842424736
 40
8.018888842424736
 40
8.018888842424736
 10
-2.920687714935439
 20
1.321059284097827
 30
0.0
 10
-2.872125169074903
 20
0.7245485410101084
 30
0.0
 10
-2.82615094881072
 20
0.0894200086781325
 30
0.0
 10
-2.781767275606569
 20
-0.5270276378755057
 30
0.0
 10
-2.710496046777135
 20
-1.486615107168233
 30
0.0
 10
-2.630966693526884
 20
-2.311147538744364
 30
0.0
 10
-2.601811910080213
 20
-2.575698475800948
 30
0.0
 10
-2.555453147295764
 20
-2.911397533363526
 30
0.0
 10
-2.505232836834579
 20
-3.105959422588511
 30
0.0
 10
-2.487969633925728
 20
-3.152433851261321
 30
0.0
 10
-2.469911612805359
 20
-3.177850906817808
 30
0.0
 10
-2.451805236699357
 20
-3.17993779098907
 30
0.0
 10
-2.451265468978673
 20
-3.179979264128462
 30
0.0
 10
-2.450725684004849
 20
-3.180000000000006
 30
0.0
 10
-2.450185872769253
 20
-3.180000000000006
 30
0.0
  0
ELLIPSE
  5
9DD
330
18
100
AcDbEntity
  8
SK1
100
AcDbEllipse
 10
-2.521088000003627
 20
-3.050087000000017
 30
0.0
 11
0.0000000000031487
 21
-0.1500000059604645
 31
0.0
210
0.0
220
0.0
230
1.0
 40
0.9969319999999996
 41
0.5328346131122912
 42
1.274088042063989
  0
SPLINE
  5
9DE
330
18
100
AcDbEntity
  8
SK1
100
AcDbSpline
210
0.0
220
0.0
230
1.0
 70
     8
 71
     5
 72
    18
 73
    12
 74
     0
 42
0.000000001
 43
0.0000000001
 40
0.0
 40
0.0
 40
0.0
 40
0.0
 40
0.0
 40
0.0
 40
1.316708318789197
 40
1.316708318789197
 40
1.316708318789197
 40
3.616221862231587
 40
3.616221862231587
 40
3.616221862231587
 40
8.302616884978839
 40
8.302616884978839
 40
8.302616884978839
 40
8.302616884978839
 40
8.302616884978839
 40
8.302616884978839
 10
-2.378057586830037
 20
-3.093911849350149
 30
0.0
 10
-2.396363878392405
 20
-3.098542140505173
 30
0.0
 10
-2.414707667224917
 20
-3.08001152315745
 30
0.0
 10
-2.432869163276933
 20
-3.037843863128158
 30
0.0
 10
-2.481854614743694
 20
-2.864172844814276
 30
0.0
 10
-2.52778910742117
 20
-2.555181160242852
 30
0.0
 10
-2.555702891057733
 20
-2.318882238505636
 30
0.0
 10
-2.636264485484273
 20
-1.534698244873309
 30
0.0
 10
-2.708690058497977
 20
-0.593932839624415
 30
0.0
 10
-2.75611812460923
 20
0.0471385722534592
 30
0.0
 10
-2.803763819558497
 20
0.6902081467353014
 30
0.0
 10
-2.853930649047811
 20
1.288694161105752
 30
0.0
  0
ELLIPSE
  5
9DF
330
18
100
AcDbEntity
  8
SK1
100
AcDbEllipse
 10
-2.378083000003641
 20
-27.76999900000004
 30
0.0
 11
-0.0000000000000045
 21
-24.67605590820312
 31
0.0
210
0.0
220
0.0
230
1.0
 40
0.078276
 41
3.115686653626294
 42
3.141592653589792
  0
ELLIPSE
  5
9E0
330
18
100
AcDbEntity
  8
SK1
100
AcDbEllipse
 10
-2.322482000003645
 20
-27.76999900000004
 30
0.0
 11
-0.0000000000000046
 21
-24.85847473144533
 31
0.0
210
0.0
220
0.0
230
0.9999999999999998
 40
0.078276
 41
3.094858637356023
 42
3.141592653589794
  0
LINE
  5
9E1
330
18
100
AcDbEntity
  8
SK1
 48
0.004768
100
AcDbLine
 10
-2.322482000003645
 20
-2.911524000000041
 30
0.0
 11
-2.378083000003641
 21
-3.093944000000021
 31
0.0
  0
ELLIPSE
  5
9E2
330
18
100
AcDbEntity
  8
SK1
100
AcDbEllipse
 10
-2.131808000003644
 20
-27.76999900000004
 30
0.0
 11
-0.0000000000000046
 21
-25.0
 31
0.0
210
0.0
220
0.0
230
1.0
 40
0.078276
 41
3.083676570574227
 42
3.138638069192986
  0
ELLIPSE
  5
9E3
330
18
100
AcDbEntity
  8
SK1
100
AcDbEllipse
 10
-2.131808000003644
 20
-2.969999000000028
 30
0.0
 11
-0.000000000004162
 21
0.2000000029802322
 31
0.0
210
0.0
220
0.0
230
1.0
 40
0.9969319999999999
 41
0.1791718730033586
 42
1.274088042064219
  0
ELLIPSE
  5
9E4
330
18
100
AcDbEntity
  8
SK1
100
AcDbEllipse
 10
-1.808786000003635
 20
-27.76999900000004
 30
0.0
 11
-0.0000000000000046
 21
-25.0
 31
0.0
210
0.0
220
0.0
230
1.0
 40
0.078276
 41
3.0827592018291
 42
3.140825491723223
  0
SPLINE
  5
9E5
330
18
100
AcDbEntity
  8
SK1
100
AcDbSpline
210
0.0
220
0.0
230
1.0
 70
     8
 71
     5
 72
    18
 73
    12
 74
     0
 42
0.000000001
 43
0.0000000001
 40
0.0
 40
0.0
 40
0.0
 40
0.0
 40
0.0
 40
0.0
 40
2.702414299678176
 40
2.702414299678176
 40
2.702414299678176
 40
8.013340693934928
 40
8.013340693934928
 40
8.013340693934928
 40
10.00717493973426
 40
10.00717493973426
 40
10.00717493973426
 40
10.00717493973426
 40
10.00717493973426
 40
10.00717493973426
 10
-3.110859053780501
 20
-2.964090693355103
 30
0.0
 10
-3.145739176451682
 20
-2.832864042264361
 30
0.0
 10
-3.179439470837451
 20
-2.624557503819517
 30
0.0
 10
-3.211604300665753
 20
-2.357854465390516
 30
0.0
 10
-3.301366351370687
 20
-1.484219362882129
 30
0.0
 10
-3.381705565482632
 20
-0.417577264021702
 30
0.0
 10
-3.433871459554693
 20
0.2940587270222181
 30
0.0
 10
-3.506825572980545
 20
1.270901482677402
 30
0.0
 10
-3.587000361174147
 20
2.102825778320436
 30
0.0
 10
-3.609629932833428
 20
2.315680205827332
 30
0.0
 10
-3.633054479426078
 20
2.506933433070514
 30
0.0
 10
-3.657307613429765
 20
2.667982691853808
 30
0.0
  0
LINE
  5
9E6
330
18
100
AcDbEntity
  8
SK1
 48
0.001025
100
AcDbLine
 10
-3.099462000003626
 20
-3.003471000000047
 30
0.0
 11
-3.110859000003642
 21
-2.964090999999995
 31
0.0
  0
SPLINE
  5
9E7
330
18
100
AcDbEntity
  8
SK1
100
AcDbSpline
210
0.0
220
0.0
230
1.0
 70
     8
 71
     5
 72
    15
 73
     9
 74
     0
 42
0.000000001
 43
0.0000000001
 40
0.0
 40
0.0
 40
0.0
 40
0.0
 40
0.0
 40
0.0
 40
1.716155677079225
 40
1.716155677079225
 40
1.716155677079225
 40
2.801386664930018
 40
2.801386664930018
 40
2.801386664930018
 40
2.801386664930018
 40
2.801386664930018
 40
2.801386664930018
 10
-3.657307613429765
 20
2.667982691853808
 30
0.0
 10
-3.678183046628419
 20
2.806602840611219
 30
0.0
 10
-3.699741760446983
 20
2.923810290926722
 30
0.0
 10
-3.722001300125695
 20
3.013832153350051
 30
0.0
 10
-3.759140671597291
 20
3.103894249311338
 30
0.0
 10
-3.796632011539401
 20
3.0971225765565
 30
0.0
 10
-3.811109813281348
 20
3.079573938191173
 30
0.0
 10
-3.825465538258128
 20
3.047763377912871
 30
0.0
 10
-3.839634143829897
 20
3.002954554262828
 30
0.0
  0
LINE
  5
9E8
330
18
100
AcDbEntity
  8
SK1
 48
0.000262
100
AcDbLine
 10
-3.713680000003647
 20
3.180000000000006
 30
0.0
 11
-3.723742000003625
 21
3.177100999999936
 31
0.0
  0
LINE
  5
9E9
330
18
100
AcDbEntity
  8
SK1
 48
0.013082
100
AcDbLine
 10
-3.930113000003641
 20
-3.180000000000006
 30
0.0
 11
-4.45338700000363
 21
-3.180000000000006
 31
0.0
  0
LINE
  5
9EA
330
18
100
AcDbEntity
  8
SK1
 48
0.00027
100
AcDbLine
 10
-3.930113000003641
 20
-3.180000000000006
 30
0.0
 11
-3.919752000003626
 21
-3.176947000000041
 31
0.0
  0
SPLINE
  5
9EB
330
18
100
AcDbEntity
  8
SK1
100
AcDbSpline
210
0.0
220
0.0
230
1.0
 70
     8
 71
     5
 72
    15
 73
     9
 74
     0
 42
0.000000001
 43
0.0000000001
 40
0.0
 40
0.0
 40
0.0
 40
0.0
 40
0.0
 40
0.0
 40
2.905713096344859
 40
2.905713096344859
 40
2.905713096344859
 40
3.504842209412918
 40
3.504842209412918
 40
3.504842209412918
 40
3.504842209412918
 40
3.504842209412918
 40
3.504842209412918
 10
-2.853930649047839
 20
1.288694161105752
 30
0.0
 10
-2.885035669589568
 20
1.659774413942784
 30
0.0
 10
-2.917108307217716
 20
2.015276428358844
 30
0.0
 10
-2.951162242967398
 20
2.349178353912122
 30
0.0
 10
-2.994491682197036
 20
2.689581438552238
 30
0.0
 10
-3.040832338965856
 20
2.911828307758412
 30
0.0
 10
-3.048868865939167
 20
2.946202392446195
 30
0.0
 10
-3.056951939266268
 20
2.976403702204891
 30
0.0
 10
-3.065100520573281
 20
3.002324342192648
 30
0.0
  0
SPLINE
  5
9EC
330
18
100
AcDbEntity
  8
SK1
100
AcDbSpline
210
0.0
220
0.0
230
1.0
 70
     8
 71
     5
 72
    18
 73
    12
 74
     0
 42
0.000000001
 43
0.0000000001
 40
0.0
 40
0.0
 40
0.0
 40
0.0
 40
0.0
 40
0.0
 40
1.247315301636821
 40
1.247315301636821
 40
1.247315301636821
 40
3.423171678146743
 40
3.423171678146743
 40
3.423171678146743
 40
7.849723965293327
 40
7.849723965293327
 40
7.849723965293327
 40
7.849723965293327
 40
7.849723965293327
 40
7.849723965293327
 10
-2.322483500400009
 20
-2.911588823935288
 30
0.0
 10
-2.340792688605174
 20
-2.915857805707844
 30
0.0
 10
-2.359134514044626
 20
-2.898362794053353
 30
0.0
 10
-2.37729455645015
 20
-2.858647500271615
 30
0.0
 10
-2.426251288186959
 20
-2.695199619915852
 30
0.0
 10
-2.472194498696779
 20
-2.404330859460856
 30
0.0
 10
-2.500118097483548
 20
-2.181849204130287
 30
0.0
 10
-2.580650223188115
 20
-1.44396931609782
 30
0.0
 10
-2.653124664641294
 20
-0.5581926258506087
 30
0.0
 10
-2.700556107408059
 20
0.0452385297535898
 30
0.0
 10
-2.748199386985844
 20
0.6503605752379258
 30
0.0
 10
-2.798358207785923
 20
1.213398481576518
 30
0.0
  0
SPLINE
  5
9ED
330
18
100
AcDbEntity
  8
SK1
100
AcDbSpline
210
0.0
220
0.0
230
1.0
 70
     8
 71
     5
 72
    18
 73
    12
 74
     0
 42
0.000000001
 43
0.0000000001
 40
0.0
 40
0.0
 40
0.0
 40
0.0
 40
0.0
 40
0.0
 40
1.69290405031388
 40
1.69290405031388
 40
1.69290405031388
 40
6.323405294169659
 40
6.323405294169659
 40
6.323405294169659
 40
7.546844612025691
 40
7.546844612025691
 40
7.546844612025691
 40
7.546844612025691
 40
7.546844612025691
 40
7.546844612025691
 10
-2.135242159248945
 20
-2.770352723676239
 30
0.0
 10
-2.160624939899121
 20
-2.770361991558388
 30
0.0
 10
-2.186017174927199
 20
-2.730519010450675
 30
0.0
 10
-2.21089085670391
 20
-2.650256144801856
 30
0.0
 10
-2.300754174698708
 20
-2.233313993684589
 30
0.0
 10
-2.379320562793509
 20
-1.473917352595149
 30
0.0
 10
-2.433805211421398
 20
-0.8553095030037525
 30
0.0
 10
-2.498825552759058
 20
-0.0680993997496557
 30
0.0
 10
-2.565230304528824
 20
0.6979612058976274
 30
0.0
 10
-2.579218477561595
 20
0.856515281554266
 30
0.0
 10
-2.593351066905794
 20
1.012639740273242
 30
0.0
 10
-2.607683766788964
 20
1.165384194805653
 30
0.0
  0
SPLINE
  5
9EE
330
18
100
AcDbEntity
  8
SK1
100
AcDbSpline
210
0.0
220
0.0
230
1.0
 70
     8
 71
     5
 72
    18
 73
    12
 74
     0
 42
0.000000001
 43
0.0000000001
 40
0.0
 40
0.0
 40
0.0
 40
0.0
 40
0.0
 40
0.0
 40
1.735300350631636
 40
1.735300350631636
 40
1.735300350631636
 40
6.453839558704888
 40
6.453839558704888
 40
6.453839558704888
 40
7.693525612274156
 40
7.693525612274156
 40
7.693525612274156
 40
7.693525612274156
 40
7.693525612274156
 40
7.693525612274156
 10
-1.810051816573093
 20
-2.770099273783102
 30
0.0
 10
-1.835532457546974
 20
-2.770101251015885
 30
0.0
 10
-1.861022937599955
 20
-2.729966162916582
 30
0.0
 10
-1.886009687649874
 20
-2.64910803312267
 30
0.0
 10
-1.975991101650946
 20
-2.230049706916529
 30
0.0
 10
-2.05500162778361
 20
-1.465703919527243
 30
0.0
 10
-2.109905855494984
 20
-0.8406827677884507
 30
0.0
 10
-2.175287033767629
 20
-0.0480072928986033
 30
0.0
 10
-2.242121173022525
 20
0.7214842693026072
 30
0.0
 10
-2.256138781041272
 20
0.8799446020467485
 30
0.0
 10
-2.270301109731008
 20
1.035850878521614
 30
0.0
 10
-2.284662670910876
 20
1.188231157462666
 30
0.0
  0
SPLINE
  5
9EF
330
18
100
AcDbEntity
  8
SK1
100
AcDbSpline
210
0.0
220
0.0
230
1.0
 70
     8
 71
     5
 72
    15
 73
     9
 74
     0
 42
0.000000001
 43
0.0000000001
 40
0.0
 40
0.0
 40
0.0
 40
0.0
 40
0.0
 40
0.0
 40
1.894087702396024
 40
1.894087702396024
 40
1.894087702396024
 40
7.222313527219148
 40
7.222313527219148
 40
7.222313527219148
 40
7.222313527219148
 40
7.222313527219148
 40
7.222313527219148
 10
-1.679066767259911
 20
-2.815096625213357
 30
0.0
 10
-1.705124397270678
 20
-2.732950026312891
 30
0.0
 10
-1.73054340483898
 20
-2.609763513278267
 30
0.0
 10
-1.755095914052246
 20
-2.452425870866874
 30
0.0
 10
-1.844837935681823
 20
-1.766638140776874
 30
0.0
 10
-1.923508262562221
 20
-0.8242882247373586
 30
0.0
 10
-1.979244074223771
 20
-0.114538759878144
 30
0.0
 10
-2.034904092420787
 20
0.605976435492039
 30
0.0
 10
-2.093987674452364
 20
1.263205457880758
 30
0.0
  0
SPLINE
  5
9F0
330
18
100
AcDbEntity
  8
SK1
100
AcDbSpline
210
0.0
220
0.0
230
1.0
 70
     8
 71
     5
 72
    18
 73
    12
 74
     0
 42
0.000000001
 43
0.0000000001
 40
0.0
 40
0.0
 40
0.0
 40
0.0
 40
0.0
 40
0.0
 40
3.135570961889506
 40
3.135570961889506
 40
3.135570961889506
 40
4.434465300512358
 40
4.434465300512358
 40
4.434465300512358
 40
4.891485969160608
 40
4.891485969160608
 40
4.891485969160608
 40
4.891485969160608
 40
4.891485969160608
 40
4.891485969160608
 10
-2.093987674452364
 20
1.263205457880758
 30
0.0
 10
-2.128757365196264
 20
1.649973644077419
 30
0.0
 10
-2.164729307975703
 20
2.016826244636659
 30
0.0
 10
-2.203512402735384
 20
2.358115585285929
 30
0.0
 10
-2.261355326008271
 20
2.73293296857224
 30
0.0
 10
-2.323092671197938
 20
2.892008150485537
 30
0.0
 10
-2.341397984105384
 20
2.917436522185537
 30
0.0
 10
-2.366256733778127
 20
2.921154952720542
 30
0.0
 10
-2.390912385420931
 20
2.885209576840225
 30
0.0
 10
-2.397326235739255
 20
2.873171690781248
 30
0.0
 10
-2.403694935680646
 20
2.858590577209552
 30
0.0
 10
-2.410030739147828
 20
2.84152924181177
 30
0.0
  0
ARC
  5
9F1
330
18
100
AcDbEntity
  8
SK1
100
AcDbCircle
 10
-1.288754000003649
 20
-2.275412000000017
 30
0.0
 40
1.946768
100
AcDbArc
 50
188.9706469999976
 51
196.0796409999994
  0
ARC
  5
9F2
330
18
100
AcDbEntity
  8
SK1
100
AcDbCircle
 10
-4.777732000003624
 20
-0.509490000000028
 30
0.0
 40
0.168869
100
AcDbArc
 50
247.8180460000009
 51
271.5972809999992
  0
ARC
  5
9F3
330
18
100
AcDbEntity
  8
SK1
100
AcDbCircle
 10
73.22190399999636
 20
5.286515999999949
 30
0.0
 40
78.28964599999998
100
AcDbArc
 50
184.3600949999991
 51
185.1607860000014
  0
SPLINE
  5
9F4
330
18
100
AcDbEntity
  8
SK1
100
AcDbSpline
210
0.0
220
0.0
230
1.0
 70
     8
 71
     5
 72
    15
 73
     9
 74
     0
 42
0.000000001
 43
0.0000000001
 40
0.0
 40
0.0
 40
0.0
 40
0.0
 40
0.0
 40
0.0
 40
1.922999064209053
 40
1.922999064209053
 40
1.922999064209053
 40
2.858859868626852
 40
2.858859868626852
 40
2.858859868626852
 40
2.858859868626852
 40
2.858859868626852
 40
2.858859868626852
 10
-4.579796958313608
 20
-3.002314216644606
 30
0.0
 10
-4.604901294888406
 20
-2.922779581721441
 30
0.0
 10
-4.629438454039216
 20
-2.8024465507537
 30
0.0
 10
-4.653183501206853
 20
-2.64771534110349
 30
0.0
 10
-4.687102980607903
 20
-2.382576081816921
 30
0.0
 10
-4.719408533024418
 20
-2.076505140539323
 30
0.0
 10
-4.729840066178695
 20
-1.972438866630625
 30
0.0
 10
-4.740108699708855
 20
-1.865402598437754
 30
0.0
 10
-4.75024670796165
 20
-1.755701562266323
 30
0.0
  0
LINE
  5
9F5
330
18
100
AcDbEntity
  8
SK1
 48
0.00026
100
AcDbLine
 10
-4.45338700000363
 20
-3.180000000000006
 30
0.0
 11
-4.463393000003632
 21
-3.17714200000006
 31
0.0
  0
SPLINE
  5
9F6
330
18
100
AcDbEntity
  8
SK1
100
AcDbSpline
210
0.0
220
0.0
230
1.0
 70
     8
 71
     5
 72
    18
 73
    12
 74
     0
 42
0.000000001
 43
0.0000000001
 40
0.0
 40
0.0
 40
0.0
 40
0.0
 40
0.0
 40
0.0
 40
1.273402837368132
 40
1.273402837368132
 40
1.273402837368132
 40
3.756326993261756
 40
3.756326993261756
 40
3.756326993261756
 40
4.98912876453582
 40
4.98912876453582
 40
4.98912876453582
 40
4.98912876453582
 40
4.98912876453582
 40
4.98912876453582
 10
-4.463392541980994
 20
-3.177141794074428
 30
0.0
 10
-4.482175365657496
 20
-3.166414721760986
 30
0.0
 10
-4.500900540469755
 20
-3.130581558502456
 30
0.0
 10
-4.519298466636541
 20
-3.070333662099129
 30
0.0
 10
-4.572125996483777
 20
-2.832811216936306
 30
0.0
 10
-4.620457515356831
 20
-2.449661153725685
 30
0.0
 10
-4.650630631291761
 20
-2.156700385992451
 30
0.0
 10
-4.693262781863809
 20
-1.689681653575348
 30
0.0
 10
-4.73373228334759
 20
-1.189715209219853
 30
0.0
 10
-4.746980926693652
 20
-1.021084857166272
 30
0.0
 10
-4.760082465975981
 20
-0.8505996945182801
 30
0.0
 10
-4.773088007746906
 20
-0.6787794674519887
 30
0.0
  0
SPLINE
  5
9F7
330
18
100
AcDbEntity
  8
SK1
100
AcDbSpline
210
0.0
220
0.0
230
1.0
 70
     8
 71
     5
 72
    18
 73
    12
 74
     0
 42
0.000000001
 43
0.0000000001
 40
0.0
 40
0.0
 40
0.0
 40
0.0
 40
0.0
 40
0.0
 40
5.326907615573407
 40
5.326907615573407
 40
5.326907615573407
 40
6.830002539188519
 40
6.830002539188519
 40
6.830002539188519
 40
7.040554009825171
 40
7.040554009825171
 40
7.040554009825171
 40
7.040554009825171
 40
7.040554009825171
 40
7.040554009825171
 10
-4.773088007746906
 20
-0.6787794674519887
 30
0.0
 10
-4.829284649509219
 20
0.0636517144267828
 30
0.0
 10
-4.883689130266049
 20
0.8310069316066801
 30
0.0
 10
-4.940152743568916
 20
1.57948557071512
 30
0.0
 10
-5.019350661027488
 20
2.500755712804505
 30
0.0
 10
-5.113270054117092
 20
3.011678809467696
 30
0.0
 10
-5.134695380642853
 20
3.099101634752287
 30
0.0
 10
-5.159701801176396
 20
3.161109676608873
 30
0.0
 10
-5.184814254952158
 20
3.177929834106633
 30
0.0
 10
-5.187902934022588
 20
3.179310431192845
 30
0.0
 10
-5.190988075661008
 20
3.179999999999893
 30
0.0
 10
-5.194071212815856
 20
3.180000000000006
 30
0.0
  0
LINE
  5
9F8
330
18
100
AcDbEntity
  8
SK1
 48
0.013099
100
AcDbLine
 10
-4.670091000003623
 20
3.180000000000006
 30
0.0
 11
-5.194071000003646
 21
3.180000000000006
 31
0.0
  0
LINE
  5
9F9
330
18
100
AcDbEntity
  8
SK1
 48
0.000266
100
AcDbLine
 10
-4.670091000003623
 20
3.180000000000006
 30
0.0
 11
-4.659893000003648
 21
3.177000999999961
 31
0.0
  0
SPLINE
  5
9FA
330
18
100
AcDbEntity
  8
SK1
100
AcDbSpline
210
0.0
220
0.0
230
1.0
 70
     8
 71
     5
 72
    15
 73
     9
 74
     0
 42
0.000000001
 43
0.0000000001
 40
0.0
 40
0.0
 40
0.0
 40
0.0
 40
0.0
 40
0.0
 40
1.167167735357709
 40
1.167167735357709
 40
1.167167735357709
 40
1.70874899956259
 40
1.70874899956259
 40
1.70874899956259
 40
1.70874899956259
 40
1.70874899956259
 40
1.70874899956259
 10
-4.659892836843396
 20
3.177001344754501
 30
0.0
 10
-4.642761002755122
 20
3.16693052826116
 30
0.0
 10
-4.625682192171581
 20
3.135770232687773
 30
0.0
 10
-4.608855642086666
 20
3.084068826354439
 30
0.0
 10
-4.584774445876917
 20
2.982658932139145
 30
0.0
 10
-4.561581296966918
 20
2.849548547704386
 30
0.0
 10
-4.554304012136525
 20
2.804330245840501
 30
0.0
 10
-4.547139132727835
 20
2.75659155320244
 30
0.0
 10
-4.540065665672869
 20
2.706455789904623
 30
0.0
  0
SPLINE
  5
9FB
330
18
100
AcDbEntity
  8
SK1
100
AcDbSpline
210
0.0
220
0.0
230
1.0
 70
     8
 71
     5
 72
    18
 73
    12
 74
     0
 42
0.000000001
 43
0.0000000001
 40
0.0
 40
0.0
 40
0.0
 40
0.0
 40
0.0
 40
0.0
 40
5.946260026479992
 40
5.946260026479992
 40
5.946260026479992
 40
8.849533734582553
 40
8.849533734582553
 40
8.849533734582553
 40
9.622249019228355
 40
9.622249019228355
 40
9.622249019228355
 40
9.622249019228355
 40
9.622249019228355
 40
9.622249019228355
 10
-4.540065665672869
 20
2.706455789904623
 30
0.0
 10
-4.462402945085242
 20
2.15599308947793
 30
0.0
 10
-4.395759811615391
 20
1.316581257123571
 30
0.0
 10
-4.33498260224337
 20
0.4891815134216131
 30
0.0
 10
-4.24516842090415
 20
-0.8001284297072857
 30
0.0
 10
-4.146393861773218
 20
-1.957253244802075
 30
0.0
 10
-4.111982472970963
 20
-2.3179658738851
 30
0.0
 10
-4.065657359066221
 20
-2.716018159936595
 30
0.0
 10
-4.015061778491173
 20
-2.979861613323862
 30
0.0
 10
-4.00415538187849
 20
-3.028974306455153
 30
0.0
 10
-3.993165978957447
 20
-3.070094497677871
 30
0.0
 10
-3.982044906771818
 20
-3.10295425385442
 30
0.0
  0
SPLINE
  5
9FC
330
18
100
AcDbEntity
  8
SK1
100
AcDbSpline
210
0.0
220
0.0
230
1.0
 70
     8
 71
     5
 72
    12
 73
     6
 74
     0
 42
0.000000001
 43
0.0000000001
 40
0.0
 40
0.0
 40
0.0
 40
0.0
 40
0.0
 40
0.0
 40
0.7094592985941725
 40
0.7094592985941725
 40
0.7094592985941725
 40
0.7094592985941725
 40
0.7094592985941725
 40
0.7094592985941725
 10
-3.982044906771818
 20
-3.10295425385442
 30
0.0
 10
-3.971834227328542
 20
-3.133124046056365
 30
0.0
 10
-3.961512566095676
 20
-3.156330301224953
 30
0.0
 10
-3.951006993304388
 20
-3.172171759932893
 30
0.0
 10
-3.940559621050709
 20
-3.180000000000006
 30
0.0
 10
-3.930113311708993
 20
-3.180000000000006
 30
0.0
  0
SPLINE
  5
9FD
330
18
100
AcDbEntity
  8
SK1
100
AcDbSpline
210
0.0
220
0.0
230
1.0
 70
     8
 71
     5
 72
    15
 73
     9
 74
     0
 42
0.000000001
 43
0.0000000001
 40
0.0
 40
0.0
 40
0.0
 40
0.0
 40
0.0
 40
0.0
 40
1.305448288344094
 40
1.305448288344094
 40
1.305448288344094
 40
1.587053943736538
 40
1.587053943736538
 40
1.587053943736538
 40
1.587053943736538
 40
1.587053943736538
 40
1.587053943736538
 10
-3.805156852405843
 20
-3.002642873330103
 30
0.0
 10
-3.822938635266978
 20
-3.059180911302461
 30
0.0
 10
-3.841038470563717
 20
-3.095320348891732
 30
0.0
 10
-3.859299475104676
 20
-3.108356008168981
 30
0.0
 10
-3.881498804870203
 20
-3.095068826527551
 30
0.0
 10
-3.903385353064436
 20
-3.049187793126803
 30
0.0
 10
-3.907261462869314
 20
-3.040028594879743
 30
0.0
 10
-3.91112031096847
 20
-3.029893812626426
 30
0.0
 10
-3.914964697473378
 20
-3.018800043870837
 30
0.0
  0
SPLINE
  5
9FE
330
18
100
AcDbEntity
  8
SK1
100
AcDbSpline
210
0.0
220
0.0
230
1.0
 70
     8
 71
     5
 72
    15
 73
     9
 74
     0
 42
0.000000001
 43
0.0000000001
 40
0.0
 40
0.0
 40
0.0
 40
0.0
 40
0.0
 40
0.0
 40
2.708709288999308
 40
2.708709288999308
 40
2.708709288999308
 40
3.269749728344533
 40
3.269749728344533
 40
3.269749728344533
 40
3.269749728344533
 40
3.269749728344533
 40
3.269749728344533
 10
-2.798358207785923
 20
1.213398481576518
 30
0.0
 10
-2.829051545402421
 20
1.557934343354645
 30
0.0
 10
-2.860662384069968
 20
1.887940502366688
 30
0.0
 10
-2.894133855757558
 20
2.197668249275634
 30
0.0
 10
-2.936707499197607
 20
2.515501879792905
 30
0.0
 10
-2.982196314791707
 20
2.727264146788172
 30
0.0
 10
-2.990112516836288
 20
2.760328565035763
 30
0.0
 10
-2.998076901797246
 20
2.78961953755572
 30
0.0
 10
-3.006107262542883
 20
2.815032583187246
 30
0.0
  0
SPLINE
  5
9FF
330
18
100
AcDbEntity
  8
SK1
100
AcDbSpline
210
0.0
220
0.0
230
1.0
 70
     8
 71
     5
 72
    15
 73
     9
 74
     0
 42
0.000000001
 43
0.0000000001
 40
0.0
 40
0.0
 40
0.0
 40
0.0
 40
0.0
 40
0.0
 40
2.929777252421944
 40
2.929777252421944
 40
2.929777252421944
 40
3.973439923803264
 40
3.973439923803264
 40
3.973439923803264
 40
3.973439923803264
 40
3.973439923803264
 40
3.973439923803264
 10
-2.607683766788964
 20
1.165384194805653
 30
0.0
 10
-2.642006366586654
 20
1.531162228739446
 30
0.0
 10
-2.677459945592858
 20
1.879146151949895
 30
0.0
 10
-2.715576115483115
 20
2.2042013390365
 30
0.0
 10
-2.770142509804514
 20
2.554336152330336
 30
0.0
 10
-2.828526215139446
 20
2.724395684949455
 30
0.0
 10
-2.844068852243508
 20
2.755013869114065
 30
0.0
 10
-2.859733848050978
 20
2.770332911973298
 30
0.0
 10
-2.875399245923631
 20
2.770351248945701
 30
0.0
  0
SPLINE
  5
A00
330
18
100
AcDbEntity
  8
SK1
100
AcDbSpline
210
0.0
220
0.0
230
1.0
 70
     8
 71
     5
 72
    15
 73
     9
 74
     0
 42
0.000000001
 43
0.0000000001
 40
0.0
 40
0.0
 40
0.0
 40
0.0
 40
0.0
 40
0.0
 40
2.948138397389982
 40
2.948138397389982
 40
2.948138397389982
 40
4.006395634255218
 40
4.006395634255218
 40
4.006395634255218
 40
4.006395634255218
 40
4.006395634255218
 40
4.006395634255218
 10
-2.284662670910876
 20
1.188231157462666
 30
0.0
 10
-2.31881637445457
 20
1.550611737656935
 30
0.0
 10
-2.354072540753833
 20
1.894551523842721
 30
0.0
 10
-2.391875507580749
 20
2.214253592430734
 30
0.0
 10
-2.446000809780001
 20
2.558042683071845
 30
0.0
 10
-2.503704420671595
 20
2.724855929501416
 30
0.0
 10
-2.519141839430089
 20
2.755016545284036
 30
0.0
 10
-2.534694025912102
 20
2.770102284700726
 30
0.0
 10
-2.550246587284931
 20
2.770110469418908
 30
0.0
  0
LINE
  5
A01
330
18
100
AcDbEntity
  8
SK1
 48
0.000256
100
AcDbLine
 10
-3.290216000003622
 20
-2.770125000000063
 30
0.0
 11
-3.300171000003643
 21
-2.767665000000022
 31
0.0
  0
SPLINE
  5
A02
330
18
100
AcDbEntity
  8
SK1
100
AcDbSpline
210
0.0
220
0.0
230
1.0
 70
     8
 71
     5
 72
    15
 73
     9
 74
     0
 42
0.000000001
 43
0.0000000001
 40
0.0
 40
0.0
 40
0.0
 40
0.0
 40
0.0
 40
0.0
 40
2.264751677820885
 40
2.264751677820885
 40
2.264751677820885
 40
3.113198885771677
 40
3.113198885771677
 40
3.113198885771677
 40
3.113198885771677
 40
3.113198885771677
 40
3.113198885771677
 10
-3.633204427492643
 20
1.875897406934143
 30
0.0
 10
-3.659875914544073
 20
2.127951913174513
 30
0.0
 10
-3.687546762780412
 20
2.359370270427064
 30
0.0
 10
-3.716766919511371
 20
2.564231009811634
 30
0.0
 10
-3.758672678936617
 20
2.780095812873752
 30
0.0
 10
-3.80222104459537
 20
2.883068777067193
 30
0.0
 10
-3.814172372214186
 20
2.902058960856378
 30
0.0
 10
-3.826158545176781
 20
2.911538951758756
 30
0.0
 10
-3.838118817437758
 20
2.91154826191547
 30
0.0
  0
SPLINE
  5
A03
330
18
100
AcDbEntity
  8
SK1
100
AcDbSpline
210
0.0
220
0.0
230
1.0
 70
     8
 71
     5
 72
    15
 73
     9
 74
     0
 42
0.000000001
 43
0.0000000001
 40
0.0
 40
0.0
 40
0.0
 40
0.0
 40
0.0
 40
0.0
 40
3.523019523718486
 40
3.523019523718486
 40
3.523019523718486
 40
7.444304102167053
 40
7.444304102167053
 40
7.444304102167053
 40
7.444304102167053
 40
7.444304102167053
 40
7.444304102167053
 10
-3.211954956696075
 20
-2.579006868649968
 30
0.0
 10
-3.258023354109923
 20
-2.315479310847591
 30
0.0
 10
-3.301337589246258
 20
-1.941815984023094
 30
0.0
 10
-3.342274256569282
 20
-1.51207863519312
 30
0.0
 10
-3.423916807703958
 20
-0.5670317204912863
 30
0.0
 10
-3.502378270590924
 20
0.4274872573352014
 30
0.0
 10
-3.543840088233736
 20
0.9412004236457391
 30
0.0
 10
-3.58702431340626
 20
1.43947982617766
 30
0.0
 10
-3.633204427492643
 20
1.875897406934143
 30
0.0
  0
SPLINE
  5
A04
330
18
100
AcDbEntity
  8
SK1
100
AcDbSpline
210
0.0
220
0.0
230
1.0
 70
     8
 71
     5
 72
    18
 73
    12
 74
     0
 42
0.000000001
 43
0.0000000001
 40
0.0
 40
0.0
 40
0.0
 40
0.0
 40
0.0
 40
0.0
 40
2.094820612946596
 40
2.094820612946596
 40
2.094820612946596
 40
7.077991150886519
 40
7.077991150886519
 40
7.077991150886519
 40
7.949264610176199
 40
7.949264610176199
 40
7.949264610176199
 40
7.949264610176199
 40
7.949264610176199
 40
7.949264610176199
 10
-3.345729329186895
 20
-2.693733415782219
 30
0.0
 10
-3.375937423464761
 20
-2.610905529387478
 30
0.0
 10
-3.405378008674404
 20
-2.474794476359306
 30
0.0
 10
-3.433681405052993
 20
-2.294716966988003
 30
0.0
 10
-3.524560988699191
 20
-1.598970257085566
 30
0.0
 10
-3.604604100623191
 20
-0.6747988489315162
 30
0.0
 10
-3.659061214394711
 20
-0.012525112928131
 30
0.0
 10
-3.723333218168733
 20
0.7733947698587828
 30
0.0
 10
-3.792284257655778
 20
1.475121302113675
 30
0.0
 10
-3.802676241804872
 20
1.577421625325428
 30
0.0
 10
-3.813193640020188
 20
1.676931879040749
 30
0.0
 10
-3.823862213461523
 20
1.773189943563861
 30
0.0
  0
ARC
  5
A05
330
18
100
AcDbEntity
  8
SK1
100
AcDbCircle
 10
-3.208416000003636
 20
-2.66328400000003
 30
0.0
 40
0.139766
100
AcDbArc
 50
192.5032179999991
 51
228.6836409999994
  0
ARC
  5
A06
330
18
100
AcDbEntity
  8
SK1
100
AcDbCircle
 10
-4.965184000003629
 20
2.897800999999958
 30
0.0
 40
0.369642
100
AcDbArc
 50
153.7616020000009
 51
163.3865880000019
  0
SPLINE
  5
A07
330
18
100
AcDbEntity
  8
SK1
100
AcDbSpline
210
0.0
220
0.0
230
1.0
 70
     8
 71
     5
 72
    18
 73
    12
 74
     0
 42
0.000000001
 43
0.0000000001
 40
0.0
 40
0.0
 40
0.0
 40
0.0
 40
0.0
 40
0.0
 40
5.241078024560034
 40
5.241078024560034
 40
5.241078024560034
 40
7.053042285362372
 40
7.053042285362372
 40
7.053042285362372
 40
8.020138930124737
 40
8.020138930124737
 40
8.020138930124737
 40
8.020138930124737
 40
8.020138930124737
 40
8.020138930124737
 10
-4.841313885040733
 20
-0.6654336853582095
 30
0.0
 10
-4.894371596982068
 20
0.0141021058199726
 30
0.0
 10
-4.945978516515166
 20
0.7197410808857967
 30
0.0
 10
-4.999528592924972
 20
1.414937676336534
 30
0.0
 10
-5.075371255006245
 20
2.28528802977479
 30
0.0
 10
-5.161899188844983
 20
2.836050821900983
 30
0.0
 10
-5.18494034890395
 20
2.950959485422629
 30
0.0
 10
-5.221228744957699
 20
3.071975738753678
 30
0.0
 10
-5.258193678415921
 20
3.100640786571886
 30
0.0
 10
-5.271077326794909
 20
3.098912940783518
 30
0.0
 10
-5.283925215421986
 20
3.085550599127428
 30
0.0
 10
-5.296678171018044
 20
3.061192565300075
 30
0.0
  0
LINE
  5
A08
330
18
100
AcDbEntity
  8
SK1
 48
0.000259
100
AcDbLine
 10
-5.194071000003646
 20
3.180000000000006
 30
0.0
 11
-5.204011000003646
 21
3.177133999999965
 31
0.0
  0
ARC
  5
A09
330
18
100
AcDbEntity
  8
SK1
100
AcDbCircle
 10
48.77380399999634
 20
3.577441999999961
 30
0.0
 40
53.834487
100
AcDbArc
 50
184.772679999999
 51
185.7001930000007
  0
SPLINE
  5
A0A
330
18
100
AcDbEntity
  8
SK1
100
AcDbSpline
210
0.0
220
0.0
230
1.0
 70
     8
 71
     5
 72
    15
 73
     9
 74
     0
 42
0.000000001
 43
0.0000000001
 40
0.0
 40
0.0
 40
0.0
 40
0.0
 40
0.0
 40
0.0
 40
1.908093461197359
 40
1.908093461197359
 40
1.908093461197359
 40
2.450628048333109
 40
2.450628048333109
 40
2.450628048333109
 40
2.450628048333109
 40
2.450628048333109
 40
2.450628048333109
 10
-4.639070767210028
 20
-2.815112737207186
 30
0.0
 10
-4.665341090606315
 20
-2.732256760826941
 30
0.0
 10
-4.690960578381805
 20
-2.60772042340494
 30
0.0
 10
-4.715701525609034
 20
-2.448643818033644
 30
0.0
 10
-4.746164637105579
 20
-2.214908037334168
 30
0.0
 10
-4.775354810529193
 20
-1.951725059686678
 30
0.0
 10
-4.781761782054445
 20
-1.892119268901126
 30
0.0
 10
-4.788108806600035
 20
-1.831372242802386
 30
0.0
 10
-4.794403437112862
 20
-1.769558378261024
 30
0.0
  0
SPLINE
  5
A0B
330
18
100
AcDbEntity
  8
SK1
100
AcDbSpline
210
0.0
220
0.0
230
1.0
 70
     8
 71
     5
 72
    12
 73
     6
 74
     0
 42
0.000000001
 43
0.0000000001
 40
0.0
 40
0.0
 40
0.0
 40
0.0
 40
0.0
 40
0.0
 40
0.8715144968686891
 40
0.8715144968686891
 40
0.8715144968686891
 40
0.8715144968686891
 40
0.8715144968686891
 40
0.8715144968686891
 10
-3.838118817437758
 20
2.91154826191547
 30
0.0
 10
-3.850404261439734
 20
2.911557825193426
 30
0.0
 10
-3.862695591991068
 20
2.901743579781736
 30
0.0
 10
-3.874934092702516
 20
2.88204688394404
 30
0.0
 10
-3.887074115822683
 20
2.852920167165961
 30
0.0
 10
-3.899078276509071
 20
2.815088014073921
 30
0.0
  0
LINE
  5
A0C
330
18
100
AcDbEntity
  8
SK1
 48
0.013087
100
AcDbLine
 10
-5.410412000003643
 20
-3.180000000000006
 30
0.0
 11
-5.933900000003632
 21
-3.180000000000006
 31
0.0
  0
LINE
  5
A0D
330
18
100
AcDbEntity
  8
SK1
 48
0.000267
100
AcDbLine
 10
-5.410412000003643
 20
-3.180000000000006
 30
0.0
 11
-5.400153000003625
 21
-3.176995000000033
 31
0.0
  0
ARC
  5
A0E
330
18
100
AcDbEntity
  8
SK1
100
AcDbCircle
 10
-7.10978700000362
 20
2.314155999999968
 30
0.0
 40
2.655906
100
AcDbArc
 50
6.948829999999307
 51
15.03204099999934
  0
LINE
  5
A0F
330
18
100
AcDbEntity
  8
SK1
 48
0.000953
100
AcDbLine
 10
-3.914965000003633
 20
-3.018799999999998
 30
0.0
 11
-3.926363000003647
 21
-2.982406000000023
 31
0.0
  0
SPLINE
  5
A10
330
18
100
AcDbEntity
  8
SK1
100
AcDbSpline
210
0.0
220
0.0
230
1.0
 70
     8
 71
     5
 72
    18
 73
    12
 74
     0
 42
0.000000001
 43
0.0000000001
 40
0.0
 40
0.0
 40
0.0
 40
0.0
 40
0.0
 40
0.0
 40
2.589159616486313
 40
2.589159616486313
 40
2.589159616486313
 40
7.774058962837915
 40
7.774058962837915
 40
7.774058962837915
 40
9.724810951357904
 40
9.724810951357904
 40
9.724810951357904
 40
9.724810951357904
 40
9.724810951357904
 40
9.724810951357904
 10
-3.926362633753028
 20
-2.982405851635746
 30
0.0
 10
-3.961367299455162
 20
-2.859925618599674
 30
0.0
 10
-3.995150586666794
 20
-2.659116305567124
 30
0.0
 10
-4.027302497733955
 20
-2.398773069297873
 30
0.0
 10
-4.117697027876031
 20
-1.5355272721535
 30
0.0
 10
-4.197762631522578
 20
-0.4754766135060322
 30
0.0
 10
-4.249063180463166
 20
0.2232395967188836
 30
0.0
 10
-4.321878897239656
 20
1.203973917731559
 30
0.0
 10
-4.402080511119294
 20
2.051058895341554
 30
0.0
 10
-4.424780262070072
 20
2.269356444419258
 30
0.0
 10
-4.448336697049568
 20
2.467214983741369
 30
0.0
 10
-4.472824179893875
 20
2.635543871322679
 30
0.0
  0
SPLINE
  5
A11
330
18
100
AcDbEntity
  8
SK1
100
AcDbSpline
210
0.0
220
0.0
230
1.0
 70
     8
 71
     5
 72
    12
 73
     6
 74
     0
 42
0.000000001
 43
0.0000000001
 40
0.0
 40
0.0
 40
0.0
 40
0.0
 40
0.0
 40
0.0
 40
0.9300529303026491
 40
0.9300529303026491
 40
0.9300529303026491
 40
0.9300529303026491
 40
0.9300529303026491
 40
0.9300529303026491
 10
-3.746074023107752
 20
-2.81507572864865
 30
0.0
 10
-3.759395652920118
 20
-2.857243550772181
 30
0.0
 10
-3.772898743505948
 20
-2.888722171484003
 30
0.0
 10
-3.78652736494763
 20
-2.908447165585982
 30
0.0
 10
-3.800213126386636
 20
-2.915790726620457
 30
0.0
 10
-3.813866327046098
 20
-2.910977981465178
 30
0.0
  0
SPLINE
  5
A12
330
18
100
AcDbEntity
  8
SK1
100
AcDbSpline
210
0.0
220
0.0
230
1.0
 70
     8
 71
     5
 72
    12
 73
     6
 74
     0
 42
0.000000001
 43
0.0000000001
 40
0.0
 40
0.0
 40
0.0
 40
0.0
 40
0.0
 40
0.0
 40
0.7816672873786033
 40
0.7816672873786033
 40
0.7816672873786033
 40
0.7816672873786033
 40
0.7816672873786033
 40
0.7816672873786033
 10
-3.813866327046098
 20
-2.910977981465178
 30
0.0
 10
-3.825341222695357
 20
-2.906933087537311
 30
0.0
 10
-3.836808373130111
 20
-2.89427461617066
 30
0.0
 10
-3.848325674309336
 20
-2.872812802871123
 30
0.0
 10
-3.859631760442653
 20
-2.843415501570348
 30
0.0
 10
-3.870806800676092
 20
-2.806550989574644
 30
0.0
  0
LINE
  5
A13
330
18
100
AcDbEntity
  8
SK1
 48
0.000199
100
AcDbLine
 10
-3.615346000003626
 20
-2.770331999999995
 30
0.0
 11
-3.623163000003643
 21
-2.768817000000069
 31
0.0
  0
ARC
  5
A14
330
18
100
AcDbEntity
  8
SK1
100
AcDbCircle
 10
-3.549005000003631
 20
-2.673506000000029
 30
0.0
 40
0.121608
100
AcDbArc
 50
192.3471609999981
 51
232.1145619999993
  0
SPLINE
  5
A15
330
18
100
AcDbEntity
  8
SK1
100
AcDbSpline
210
0.0
220
0.0
230
1.0
 70
     8
 71
     5
 72
    15
 73
     9
 74
     0
 42
0.000000001
 43
0.0000000001
 40
0.0
 40
0.0
 40
0.0
 40
0.0
 40
0.0
 40
0.0
 40
1.306511274432406
 40
1.306511274432406
 40
1.306511274432406
 40
1.442283770822356
 40
1.442283770822356
 40
1.442283770822356
 40
1.442283770822356
 40
1.442283770822356
 40
1.442283770822356
 10
-3.926325580127267
 20
2.504985439966844
 30
0.0
 10
-3.944385099237706
 20
2.595718320802745
 30
0.0
 10
-3.962886943053803
 20
2.670240255356189
 30
0.0
 10
-3.981788302701771
 20
2.725412157583319
 30
0.0
 10
-4.002950589052033
 20
2.761433821931575
 30
0.0
 10
-4.024181476149408
 20
2.769392026228103
 30
0.0
 10
-4.026181040600163
 20
2.769892061030361
 30
0.0
 10
-4.028180205344596
 20
2.770142431347835
 30
0.0
 10
-4.030179309670558
 20
2.770143350215619
 30
0.0
  0
ARC
  5
A16
330
18
100
AcDbEntity
  8
SK1
100
AcDbCircle
 10
-13.24203800000364
 20
0.846112000000005
 30
0.0
 40
9.462944999999999
100
AcDbArc
 50
5.621796000002286
 51
10.09697200000066
  0
ARC
  5
A17
330
18
100
AcDbEntity
  8
SK1
100
AcDbCircle
 10
-13.92074600000364
 20
0.7970859999999789
 30
0.0
 40
9.819841
100
AcDbArc
 50
5.590219999999217
 51
9.952658000000646
  0
SPLINE
  5
A18
330
18
100
AcDbEntity
  8
SK1
100
AcDbSpline
210
0.0
220
0.0
230
1.0
 70
     8
 71
     5
 72
    18
 73
    12
 74
     0
 42
0.000000001
 43
0.0000000001
 40
0.0
 40
0.0
 40
0.0
 40
0.0
 40
0.0
 40
0.0
 40
2.049145294936041
 40
2.049145294936041
 40
2.049145294936041
 40
7.769350998907556
 40
7.769350998907556
 40
7.769350998907556
 40
7.822553981649225
 40
7.822553981649225
 40
7.822553981649225
 40
7.822553981649225
 40
7.822553981649225
 40
7.822553981649225
 10
-3.668729732170531
 20
-2.699713965467879
 30
0.0
 10
-3.698891142469193
 20
-2.62029462725644
 30
0.0
 10
-3.728363523780897
 20
-2.487009824317167
 30
0.0
 10
-3.756690851135488
 20
-2.309234692340794
 30
0.0
 10
-3.858551675686752
 20
-1.538023524546813
 30
0.0
 10
-3.94627396948266
 20
-0.4805966524102132
 30
0.0
 10
-4.008816836520876
 20
0.2881338863186897
 30
0.0
 10
-4.073365336608475
 20
1.078717869569572
 30
0.0
 10
-4.144900675389235
 20
1.73564600091248
 30
0.0
 10
-4.145560487262628
 20
1.741688273298505
 30
0.0
 10
-4.146220896578595
 20
1.747718912939317
 30
0.0
 10
-4.146881911043521
 20
1.753737829940575
 30
0.0
  0
SPLINE
  5
A19
330
18
100
AcDbEntity
  8
SK1
100
AcDbSpline
210
0.0
220
0.0
230
1.0
 70
     8
 71
     5
 72
    18
 73
    12
 74
     0
 42
0.000000001
 43
0.0000000001
 40
0.0
 40
0.0
 40
0.0
 40
0.0
 40
0.0
 40
0.0
 40
4.565834048309389
 40
4.565834048309389
 40
4.565834048309389
 40
6.936284292329997
 40
6.936284292329997
 40
6.936284292329997
 40
8.249516971405723
 40
8.249516971405723
 40
8.249516971405723
 40
8.249516971405723
 40
8.249516971405723
 40
8.249516971405723
 10
-4.87411176657082
 20
-0.9017400463095556
 30
0.0
 10
-4.923693826820566
 20
-0.319877175818533
 30
0.0
 10
-4.971588314673396
 20
0.2946659566615608
 30
0.0
 10
-5.020045046648505
 20
0.9025224506755762
 30
0.0
 10
-5.096141351917394
 20
1.791674263738343
 30
0.0
 10
-5.181919811079636
 20
2.465541816339509
 30
0.0
 10
-5.212991894033308
 20
2.663206297452857
 30
0.0
 10
-5.263341562967068
 20
2.878185729614812
 30
0.0
 10
-5.315463074258132
 20
2.925218459039285
 30
0.0
 10
-5.33408067555834
 20
2.918685445372318
 30
0.0
 10
-5.352579520764577
 20
2.889270610945174
 30
0.0
 10
-5.370790034686846
 20
2.839460165382035
 30
0.0
  0
SPLINE
  5
A1A
330
18
100
AcDbEntity
  8
SK1
100
AcDbSpline
210
0.0
220
0.0
230
1.0
 70
     8
 71
     5
 72
    18
 73
    12
 74
     0
 42
0.000000001
 43
0.0000000001
 40
0.0
 40
0.0
 40
0.0
 40
0.0
 40
0.0
 40
0.0
 40
4.124126477876123
 40
4.124126477876123
 40
4.124126477876123
 40
5.445632648348089
 40
5.445632648348089
 40
5.445632648348089
 40
5.541855112051464
 40
5.541855112051464
 40
5.541855112051464
 40
5.541855112051464
 40
5.541855112051464
 40
5.541855112051464
 10
-5.155855575220214
 20
0.1835941161874075
 30
0.0
 10
-5.201882975761407
 20
0.7235888961982369
 30
0.0
 10
-5.248206849083715
 20
1.258201394708464
 30
0.0
 10
-5.298043283374936
 20
1.7839254266849
 30
0.0
 10
-5.367648056830431
 20
2.372882685960005
 30
0.0
 10
-5.445051231568157
 20
2.677416101109201
 30
0.0
 10
-5.464252965142833
 20
2.731320117133293
 30
0.0
 10
-5.485147935880632
 20
2.764061466159034
 30
0.0
 10
-5.506086792071981
 20
2.769498306817523
 30
0.0
 10
-5.507508250745587
 20
2.769741427820973
 30
0.0
 10
-5.508929537722281
 20
2.769858543380166
 30
0.0
 10
-5.510350770572983
 20
2.769849722124431
 30
0.0
  0
ARC
  5
A1B
330
18
100
AcDbEntity
  8
SK1
100
AcDbCircle
 10
83.20544699999635
 20
7.196977000000002
 30
0.0
 40
88.638311
100
AcDbArc
 50
184.5381470000016
 51
185.7577710000006
  0
SPLINE
  5
A1C
330
18
100
AcDbEntity
  8
SK1
100
AcDbSpline
210
0.0
220
0.0
230
1.0
 70
     8
 71
     5
 72
    15
 73
     9
 74
     0
 42
0.000000001
 43
0.0000000001
 40
0.0
 40
0.0
 40
0.0
 40
0.0
 40
0.0
 40
0.0
 40
1.30273570056069
 40
1.30273570056069
 40
1.30273570056069
 40
3.150449210124852
 40
3.150449210124852
 40
3.150449210124852
 40
3.150449210124852
 40
3.150449210124852
 40
3.150449210124852
 10
-4.77025228147653
 20
-2.770016876132955
 30
0.0
 10
-4.789471240504042
 20
-2.770026334259624
 30
0.0
 10
-4.808698270022688
 20
-2.746977971425337
 30
0.0
 10
-4.827710907917006
 20
-2.700812047731574
 30
0.0
 10
-4.872826207361072
 20
-2.540023065336241
 30
0.0
 10
-4.915441786183862
 20
-2.278908023579504
 30
0.0
 10
-4.939526185248809
 20
-2.099561134210773
 30
0.0
 10
-4.962654520828548
 20
-1.903650492327017
 30
0.0
 10
-4.985094296271568
 20
-1.695425580828496
 30
0.0
  0
SPLINE
  5
A1D
330
18
100
AcDbEntity
  8
SK1
100
AcDbSpline
210
0.0
220
0.0
230
1.0
 70
     8
 71
     5
 72
    15
 73
     9
 74
     0
 42
0.000000001
 43
0.0000000001
 40
0.0
 40
0.0
 40
0.0
 40
0.0
 40
0.0
 40
0.0
 40
2.023793162906438
 40
2.023793162906438
 40
2.023793162906438
 40
4.394727462217955
 40
4.394727462217955
 40
4.394727462217955
 40
4.394727462217955
 40
4.394727462217955
 40
4.394727462217955
 10
-6.059642827608996
 20
-3.002881802076841
 30
0.0
 10
-6.085980703473636
 20
-2.919565975240004
 30
0.0
 10
-6.111690517490814
 20
-2.791355765081048
 30
0.0
 10
-6.136523069108817
 20
-2.625641248913041
 30
0.0
 10
-6.188204610558668
 20
-2.211649169503061
 30
0.0
 10
-6.236194998015662
 20
-1.705893933354159
 30
0.0
 10
-6.261353627699662
 20
-1.415467933353511
 30
0.0
 10
-6.285810452338722
 20
-1.115887083644622
 30
0.0
 10
-6.309923679283855
 20
-0.8106255001010822
 30
0.0
  0
LINE
  5
A1E
330
18
100
AcDbEntity
  8
SK1
 48
0.000257
100
AcDbLine
 10
-5.933900000003632
 20
-3.180000000000006
 30
0.0
 11
-5.943783000003632
 21
-3.177137000000016
 31
0.0
  0
SPLINE
  5
A1F
330
18
100
AcDbEntity
  8
SK1
100
AcDbSpline
210
0.0
220
0.0
230
1.0
 70
     8
 71
     5
 72
    18
 73
    12
 74
     0
 42
0.000000001
 43
0.0000000001
 40
0.0
 40
0.0
 40
0.0
 40
0.0
 40
0.0
 40
0.0
 40
1.224879514335807
 40
1.224879514335807
 40
1.224879514335807
 40
3.598393099465649
 40
3.598393099465649
 40
3.598393099465649
 40
4.774721237537597
 40
4.774721237537597
 40
4.774721237537597
 40
4.774721237537597
 40
4.774721237537597
 40
4.774721237537597
 10
-5.943783150734473
 20
-3.177137030295283
 30
0.0
 10
-5.96165072450276
 20
-3.166808893027051
 30
0.0
 10
-5.979610021997102
 20
-3.133247033130997
 30
0.0
 10
-5.997337796132566
 20
-3.077076924537152
 30
0.0
 10
-6.048170415312084
 20
-2.856125353330241
 30
0.0
 10
-6.0949070327147
 20
-2.498285473066003
 30
0.0
 10
-6.12395743386898
 20
-2.22378773482427
 30
0.0
 10
-6.164997473710003
 20
-1.784506796370465
 30
0.0
 10
-6.203946117374812
 20
-1.311913365579869
 30
0.0
 10
-6.21668263488732
 20
-1.152454456791303
 30
0.0
 10
-6.229276615808345
 20
-0.9910196703841052
 30
0.0
 10
-6.241775975194456
 20
-0.8280688430662053
 30
0.0
  0
LINE
  5
A20
330
18
100
AcDbEntity
  8
SK1
 48
0.040602
100
AcDbLine
 10
-6.241776000003625
 20
-0.8280690000000275
 30
0.0
 11
-6.363418000003632
 21
0.7914639999999622
 31
0.0
  0
ARC
  5
A21
330
18
100
AcDbEntity
  8
SK1
100
AcDbCircle
 10
-12.72614200000365
 20
15.67660299999994
 30
0.0
 40
16.187978
100
AcDbArc
 50
293.1445190000003
 51
295.1096529999997
  0
LINE
  5
A22
330
18
100
AcDbEntity
  8
SK1
 48
0.044374
100
AcDbLine
 10
-5.856754000003632
 20
1.018458999999948
 30
0.0
 11
-5.724008000003633
 21
-0.7515340000000493
 31
0.0
  0
SPLINE
  5
A23
330
18
100
AcDbEntity
  8
SK1
100
AcDbSpline
210
0.0
220
0.0
230
1.0
 70
     8
 71
     5
 72
    18
 73
    12
 74
     0
 42
0.000000001
 43
0.0000000001
 40
0.0
 40
0.0
 40
0.0
 40
0.0
 40
0.0
 40
0.0
 40
3.749326985183921
 40
3.749326985183921
 40
3.749326985183921
 40
4.921777118543831
 40
4.921777118543831
 40
4.921777118543831
 40
4.9947963375327
 40
4.9947963375327
 40
4.9947963375327
 40
4.9947963375327
 40
4.9947963375327
 40
4.9947963375327
 10
-5.724007943135999
 20
-0.7515338315535021
 30
0.0
 10
-5.684263934429707
 20
-1.272626658430624
 30
0.0
 10
-5.643439965475579
 20
-1.779896326158449
 30
0.0
 10
-5.598880985740379
 20
-2.275044637868973
 30
0.0
 10
-5.536569380987288
 20
-2.822600036188473
 30
0.0
 10
-5.467129312232485
 20
-3.099431051908425
 30
0.0
 10
-5.450222336351513
 20
-3.147171373140905
 30
0.0
 10
-5.43198643227555
 20
-3.175508498897386
 30
0.0
 10
-5.41364096904428
 20
-3.179751210357038
 30
0.0
 10
-5.412564956824693
 20
-3.179917077588015
 30
0.0
 10
-5.411488755145313
 20
-3.180000000000006
 30
0.0
 10
-5.410412283654721
 20
-3.180000000000006
 30
0.0
  0
ARC
  5
A24
330
18
100
AcDbEntity
  8
SK1
100
AcDbCircle
 10
-5.749190000003636
 20
-0.5657180000000041
 30
0.0
 40
0.187097
100
AcDbArc
 50
277.7391319999995
 51
299.652256999999
  0
SPLINE
  5
A25
330
18
100
AcDbEntity
  8
SK1
100
AcDbSpline
210
0.0
220
0.0
230
1.0
 70
     8
 71
     5
 72
    18
 73
    12
 74
     0
 42
0.000000001
 43
0.0000000001
 40
0.0
 40
0.0
 40
0.0
 40
0.0
 40
0.0
 40
0.0
 40
1.34057036802892
 40
1.34057036802892
 40
1.34057036802892
 40
3.031713983593732
 40
3.031713983593732
 40
3.031713983593732
 40
4.340381285843253
 40
4.340381285843253
 40
4.340381285843253
 40
4.340381285843253
 40
4.340381285843253
 40
4.340381285843253
 10
-5.285154746710217
 20
-3.002359138374401
 30
0.0
 10
-5.303393219633334
 20
-3.060375378748005
 30
0.0
 10
-5.321962078604173
 20
-3.096962191797445
 30
0.0
 10
-5.340697956259075
 20
-3.10924052749891
 30
0.0
 10
-5.38307002004953
 20
-3.079972600118651
 30
0.0
 10
-5.424338235963375
 20
-2.931870354191061
 30
0.0
 10
-5.446703619161723
 20
-2.815969980027546
 30
0.0
 10
-5.484898244561889
 20
-2.567391403814154
 30
0.0
 10
-5.520839582219622
 20
-2.25870591123754
 30
0.0
 10
-5.536184774108278
 20
-2.114556794397628
 30
0.0
 10
-5.551113431825966
 20
-1.964159678213546
 30
0.0
 10
-5.565747284120334
 20
-1.808397528988449
 30
0.0
  0
ARC
  5
A26
330
18
100
AcDbEntity
  8
SK1
100
AcDbCircle
 10
65.62066999999638
 20
4.71832599999999
 30
0.0
 40
71.48512499999998
100
AcDbArc
 50
184.3694779999994
 51
185.2385150000024
  0
ARC
  5
A27
330
18
100
AcDbEntity
  8
SK1
100
AcDbCircle
 10
-6.888450000003643
 20
2.152997999999968
 30
0.0
 40
2.492347999999998
100
AcDbArc
 50
7.552543000000312
 51
15.41608999999997
  0
SPLINE
  5
A28
330
18
100
AcDbEntity
  8
SK1
100
AcDbSpline
210
0.0
220
0.0
230
1.0
 70
     8
 71
     5
 72
    18
 73
    12
 74
     0
 42
0.000000001
 43
0.0000000001
 40
0.0
 40
0.0
 40
0.0
 40
0.0
 40
0.0
 40
0.0
 40
1.160164418162836
 40
1.160164418162836
 40
1.160164418162836
 40
2.696327388313062
 40
2.696327388313062
 40
2.696327388313062
 40
3.958511993835068
 40
3.958511993835068
 40
3.958511993835068
 40
3.958511993835068
 40
3.958511993835068
 40
3.958511993835068
 10
-5.225979299429353
 20
-2.814412804742516
 30
0.0
 10
-5.242629990673862
 20
-2.8672662684599
 30
0.0
 10
-5.25957014844613
 20
-2.903467705697095
 30
0.0
 10
-5.276689393542311
 20
-2.920886531088796
 30
0.0
 10
-5.316595193683866
 20
-2.915304684361501
 30
0.0
 10
-5.355847454978658
 20
-2.807982099214255
 30
0.0
 10
-5.377667630471107
 20
-2.715970085242588
 30
0.0
 10
-5.416079909623048
 20
-2.50547739863151
 30
0.0
 10
-5.452238492662302
 20
-2.233044196149021
 30
0.0
 10
-5.468189302913399
 20
-2.099651836337386
 30
0.0
 10
-5.483658199319163
 20
-1.959452075636759
 30
0.0
 10
-5.498789814743105
 20
-1.813403340200634
 30
0.0
  0
LINE
  5
A29
330
18
100
AcDbEntity
  8
SK1
 48
0.00282
100
AcDbLine
 10
-5.498790000003621
 20
-1.81340300000005
 30
0.0
 11
-5.510194000003648
 21
-1.701189000000056
 31
0.0
  0
SPLINE
  5
A2A
330
18
100
AcDbEntity
  8
SK1
100
AcDbSpline
210
0.0
220
0.0
230
1.0
 70
     8
 71
     5
 72
    18
 73
    12
 74
     0
 42
0.000000001
 43
0.0000000001
 40
0.0
 40
0.0
 40
0.0
 40
0.0
 40
0.0
 40
0.0
 40
2.073185495538095
 40
2.073185495538095
 40
2.073185495538095
 40
7.056735267361382
 40
7.056735267361382
 40
7.056735267361382
 40
7.931139612404423
 40
7.931139612404423
 40
7.931139612404423
 40
7.931139612404423
 40
7.931139612404423
 40
7.931139612404423
 10
-3.870806800676092
 20
-2.806550989574644
 30
0.0
 10
-3.900445921691042
 20
-2.70877668994143
 30
0.0
 10
-3.929163119934031
 20
-2.558475781601655
 30
0.0
 10
-3.956678378023438
 20
-2.36657349362923
 30
0.0
 10
-4.045507956517923
 20
-1.63251099752
 30
0.0
 10
-4.123432857664396
 20
-0.6832468252649166
 30
0.0
 10
-4.176073726355779
 20
-0.01186394749476
 30
0.0
 10
-4.238940589918454
 20
0.7952983909544287
 30
0.0
 10
-4.30649862983779
 20
1.522559805342153
 30
0.0
 10
-4.316714191171937
 20
1.62908002715676
 30
0.0
 10
-4.327058318979368
 20
1.732920715683403
 30
0.0
 10
-4.337557758391708
 20
1.833625320647852
 30
0.0
  0
ARC
  5
A2B
330
18
100
AcDbEntity
  8
SK1
100
AcDbCircle
 10
-18.15202400000362
 20
0.4700879999999759
 30
0.0
 40
13.881361
100
AcDbArc
 50
5.637038000001088
 51
8.32805300000191
  0
SPLINE
  5
A2C
330
18
100
AcDbEntity
  8
SK1
100
AcDbSpline
210
0.0
220
0.0
230
1.0
 70
     8
 71
     5
 72
    15
 73
     9
 74
     0
 42
0.000000001
 43
0.0000000001
 40
0.0
 40
0.0
 40
0.0
 40
0.0
 40
0.0
 40
0.0
 40
1.308992522479465
 40
1.308992522479465
 40
1.308992522479465
 40
1.444381130806893
 40
1.444381130806893
 40
1.444381130806893
 40
1.444381130806893
 40
1.444381130806893
 40
1.444381130806893
 10
-4.249345608809901
 20
2.494176836161329
 30
0.0
 10
-4.26768741405368
 20
2.587901605483181
 30
0.0
 10
-4.286538628928183
 20
2.665472842424037
 30
0.0
 10
-4.305863275238066
 20
2.723323638110969
 30
0.0
 10
-4.327542126285151
 20
2.76114701821308
 30
0.0
 10
-4.349309993508453
 20
2.76949365416641
 30
0.0
 10
-4.351351549650046
 20
2.770016456247899
 30
0.0
 10
-4.353392742782117
 20
2.770279002927905
 30
0.0
 10
-4.355433940448761
 20
2.770281471021745
 30
0.0
  0
LINE
  5
A2D
330
18
100
AcDbEntity
  8
SK1
 48
0.026001
100
AcDbLine
 10
-6.309924000003632
 20
-0.8106260000000132
 30
0.0
 11
-6.389625000003632
 21
0.2263609999999403
 31
0.0
  0
SPLINE
  5
A2E
330
18
100
AcDbEntity
  8
SK1
100
AcDbSpline
210
0.0
220
0.0
230
1.0
 70
     8
 71
     5
 72
    15
 73
     9
 74
     0
 42
0.000000001
 43
0.0000000001
 40
0.0
 40
0.0
 40
0.0
 40
0.0
 40
0.0
 40
0.0
 40
1.664505640278524
 40
1.664505640278524
 40
1.664505640278524
 40
2.3093463362293
 40
2.3093463362293
 40
2.3093463362293
 40
2.3093463362293
 40
2.3093463362293
 40
2.3093463362293
 10
-5.659997290994907
 20
2.122198507719815
 30
0.0
 10
-5.681759212689057
 20
2.286473885284806
 30
0.0
 10
-5.704217362922491
 20
2.433651809274009
 30
0.0
 10
-5.727562713533131
 20
2.559177954252104
 30
0.0
 10
-5.760990719748548
 20
2.690471084409352
 30
0.0
 10
-5.795365859206952
 20
2.752873465691548
 30
0.0
 10
-5.805083238256457
 20
2.764691378154282
 30
0.0
 10
-5.81476580194996
 20
2.770561107778405
 30
0.0
 10
-5.824450303242455
 20
2.770572619702476
 30
0.0
  0
LINE
  5
A2F
330
18
100
AcDbEntity
  8
SK1
 48
0.000134
100
AcDbLine
 10
-5.82445000000365
 20
2.770572999999955
 30
0.0
 11
-5.829758000003637
 21
2.769875000000013
 31
0.0
  0
LINE
  5
A30
330
18
100
AcDbEntity
  8
SK1
 48
0.000585
100
AcDbLine
 10
-5.656947000003638
 20
2.098995999999999
 30
0.0
 11
-5.659997000003643
 21
2.122198999999965
 31
0.0
  0
ARC
  5
A31
330
18
100
AcDbEntity
  8
SK1
100
AcDbCircle
 10
-5.977696000003646
 20
2.08386200000001
 30
0.0
 40
0.321115
100
AcDbArc
 50
351.5969660000003
 51
2.702321000001616
  0
SPLINE
  5
A32
330
18
100
AcDbEntity
  8
SK1
100
AcDbSpline
210
0.0
220
0.0
230
1.0
 70
     8
 71
     5
 72
    12
 73
     6
 74
     0
 42
0.000000001
 43
0.0000000001
 40
0.0
 40
0.0
 40
0.0
 40
0.0
 40
0.0
 40
0.0
 40
3.05971783712979
 40
3.05971783712979
 40
3.05971783712979
 40
3.05971783712979
 40
3.05971783712979
 40
3.05971783712979
 10
-5.478892459279394
 20
0.1582993899441476
 30
0.0
 10
-5.513377618349778
 20
0.5623685707362256
 30
0.0
 10
-5.547994762464639
 20
0.9650886634769904
 30
0.0
 10
-5.583543249837217
 20
1.35597105602852
 30
0.0
 10
-5.620607254291653
 20
1.722747093057875
 30
0.0
 10
-5.660018989107356
 20
2.036934280775879
 30
0.0
  0
LINE
  5
A33
330
18
100
AcDbEntity
  8
SK1
 48
0.0081
100
AcDbLine
 10
-5.155871000003628
 20
0.1835949999999684
 30
0.0
 11
-5.478892000003638
 21
0.1582989999999995
 31
0.0
  0
ARC
  5
A34
330
18
100
AcDbEntity
  8
SK1
100
AcDbCircle
 10
79.98289999999639
 20
6.931985999999991
 30
0.0
 40
85.72890799999997
100
AcDbArc
 50
184.5317799999993
 51
185.7893820000016
  0
SPLINE
  5
A35
330
18
100
AcDbEntity
  8
SK1
100
AcDbSpline
210
0.0
220
0.0
230
1.0
 70
     8
 71
     5
 72
    15
 73
     9
 74
     0
 42
0.000000001
 43
0.0000000001
 40
0.0
 40
0.0
 40
0.0
 40
0.0
 40
0.0
 40
0.0
 40
1.260972994308892
 40
1.260972994308892
 40
1.260972994308892
 40
3.054877040928783
 40
3.054877040928783
 40
3.054877040928783
 40
3.054877040928783
 40
3.054877040928783
 40
3.054877040928783
 10
-5.095685818613018
 20
-2.770215661588565
 30
0.0
 10
-5.114704217008039
 20
-2.769935149949161
 30
0.0
 10
-5.133712725687161
 20
-2.747086871083467
 30
0.0
 10
-5.152491376138158
 20
-2.701721988476776
 30
0.0
 10
-5.197093895175669
 20
-2.544129118884029
 30
0.0
 10
-5.239193465080459
 20
-2.28875675641774
 30
0.0
 10
-5.263017239141504
 20
-2.113157597855831
 30
0.0
 10
-5.285920209229118
 20
-1.920855015665038
 30
0.0
 10
-5.308152829117688
 20
-1.715593749936033
 30
0.0
  0
ARC
  5
A36
330
18
100
AcDbEntity
  8
SK1
100
AcDbCircle
 10
-6.349663000003628
 20
0.8857639999999378
 30
0.0
 40
0.095295
100
AcDbArc
 50
202.4257929999993
 51
261.7025660000001
  0
LINE
  5
A37
330
18
100
AcDbEntity
  8
SK1
 48
0.015622
100
AcDbLine
 10
-6.389625000003632
 20
0.2263609999999403
 30
0.0
 11
-6.437874000003629
 21
0.8493599999999901
 31
0.0
  0
LINE
  5
A38
330
18
100
AcDbEntity
  8
SK1
 48
0.025577
100
AcDbLine
 10
-5.659997000003643
 20
2.122005999999998
 30
0.0
 11
-6.650000000003642
 21
1.863951999999983
 31
0.0
  0
LINE
  5
A39
330
18
100
AcDbEntity
  8
SK1
 48
0.018494
100
AcDbLine
 10
-6.650000000003642
 20
1.863958999999965
 30
0.0
 11
-6.650000000003642
 21
1.124195999999981
 31
0.0
  0
SPLINE
  5
A3A
330
18
100
AcDbEntity
  8
SK1
100
AcDbSpline
210
0.0
220
0.0
230
1.0
 70
     8
 71
     5
 72
    15
 73
     9
 74
     0
 42
0.000000001
 43
0.0000000001
 40
0.0
 40
0.0
 40
0.0
 40
0.0
 40
0.0
 40
0.0
 40
0.2273944690524714
 40
0.2273944690524714
 40
0.2273944690524714
 40
0.3322719332276565
 40
0.3322719332276565
 40
0.3322719332276565
 40
0.3322719332276565
 40
0.3322719332276565
 40
0.3322719332276565
 10
-6.513025335395496
 20
1.02497500698888
 30
0.0
 10
-6.521610660979972
 20
1.045802014774436
 30
0.0
 10
-6.533181390177872
 20
1.065793454909168
 30
0.0
 10
-6.548035285746608
 20
1.084439298299514
 30
0.0
 10
-6.575048833988062
 20
1.107770737583392
 30
0.0
 10
-6.611000369345047
 20
1.120782369283404
 30
0.0
 10
-6.623504236924842
 20
1.123663516423049
 30
0.0
 10
-6.636514528072692
 20
1.124883180650783
 30
0.0
 10
-6.649981310639986
 20
1.124225477567563
 30
0.0
  0
LINE
  5
A3B
330
18
100
AcDbEntity
  8
SK1
 48
0.002385
100
AcDbLine
 10
-6.475951000003647
 20
0.9367550000000052
 30
0.0
 11
-6.512995000003627
 21
1.02468299999998
 31
0.0
  0
LINE
  5
A3C
330
18
100
AcDbEntity
  8
SK1
 48
0.002376
100
AcDbLine
 10
-6.437916000003638
 20
0.8496199999999587
 30
0.0
 11
-6.475961000003621
 21
0.936710000000005
 31
0.0
  0
ARC
  5
A3D
330
18
100
AcDbEntity
  8
SK1
100
AcDbCircle
 10
-6.057878000003626
 20
1.17841199999998
 30
0.0
 40
0.257045
100
AcDbArc
 50
321.5038029999983
 51
353.5306459999997
  0
ARC
  5
A3E
330
18
100
AcDbEntity
  8
SK1
100
AcDbCircle
 10
-9.845013000003632
 20
1.629080999999985
 30
0.0
 40
4.070908
100
AcDbArc
 50
353.2362509999988
 51
357.292059999999
  0
SPLINE
  5
A3F
330
18
100
AcDbEntity
  8
SK1
100
AcDbSpline
210
0.0
220
0.0
230
1.0
 70
     8
 71
     5
 72
    15
 73
     9
 74
     0
 42
0.000000001
 43
0.0000000001
 40
0.0
 40
0.0
 40
0.0
 40
0.0
 40
0.0
 40
0.0
 40
0.6679863869716847
 40
0.6679863869716847
 40
0.6679863869716847
 40
1.139102128349586
 40
1.139102128349586
 40
1.139102128349586
 40
1.139102128349586
 40
1.139102128349586
 40
1.139102128349586
 10
-5.660289558508252
 20
2.036902244002249
 30
0.0
 10
-5.670780957747552
 20
1.968666774446774
 30
0.0
 10
-5.687986549198937
 20
1.900221820241938
 30
0.0
 10
-5.711514738626561
 20
1.810614049332114
 30
0.0
 10
-5.740152138625263
 20
1.69504652276265
 30
0.0
 10
-5.762825763121297
 20
1.579529933413879
 30
0.0
 10
-5.770824529168919
 20
1.53174454922248
 30
0.0
 10
-5.776560538630602
 20
1.484274548455573
 30
0.0
 10
-5.778687332786263
 20
1.43692389068093
 30
0.0
  0
ARC
  5
A40
330
18
100
AcDbEntity
  8
SK1
100
AcDbCircle
 10
-346.9196310000037
 20
-26.11656099999999
 30
0.0
 40
342.205256
100
AcDbArc
 50
4.254736999999543
 51
4.570051000001183
  0
SPLINE
  5
A41
330
18
100
AcDbEntity
  8
SK1
100
AcDbSpline
210
0.0
220
0.0
230
1.0
 70
     8
 71
     5
 72
    15
 73
     9
 74
     0
 42
0.000000001
 43
0.0000000001
 40
0.0
 40
0.0
 40
0.0
 40
0.0
 40
0.0
 40
0.0
 40
3.861945279251743
 40
3.861945279251743
 40
3.861945279251743
 40
4.828255867299891
 40
4.828255867299891
 40
4.828255867299891
 40
4.828255867299891
 40
4.828255867299891
 40
4.828255867299891
 10
-5.510193761355964
 20
-1.701189036622336
 30
0.0
 10
-5.555930950705088
 20
-1.242737690267629
 30
0.0
 10
-5.598940196103995
 20
-0.7294402134058374
 30
0.0
 10
-5.639559339334397
 20
-0.2199608079988025
 30
0.0
 10
-5.691635119655927
 20
0.4400756858431694
 30
0.0
 10
-5.745603559572995
 20
1.069854945091549
 30
0.0
 10
-5.756507168004445
 20
1.194391673487813
 30
0.0
 10
-5.767525273433761
 20
1.316897800282674
 30
0.0
 10
-5.778687332786263
 20
1.43692389068093
 30
0.0
  0
SPLINE
  5
A42
330
18
100
AcDbEntity
  8
SK1
100
AcDbSpline
210
0.0
220
0.0
230
1.0
 70
     8
 71
     5
 72
    15
 73
     9
 74
     0
 42
0.000000001
 43
0.0000000001
 40
0.0
 40
0.0
 40
0.0
 40
0.0
 40
0.0
 40
0.0
 40
1.786197715386904
 40
1.786197715386904
 40
1.786197715386904
 40
6.81838226788394
 40
6.81838226788394
 40
6.81838226788394
 40
6.81838226788394
 40
6.81838226788394
 40
6.81838226788394
 10
-6.119116977193298
 20
-2.814897690879602
 30
0.0
 10
-6.143818829748852
 20
-2.736942390754563
 30
0.0
 10
-6.167928138680109
 20
-2.622161414088905
 30
0.0
 10
-6.191241497894991
 20
-2.476650483247794
 30
0.0
 10
-6.27674470491263
 20
-1.841000272024245
 30
0.0
 10
-6.35194957126572
 20
-0.9636378887662999
 30
0.0
 10
-6.405115610204035
 20
-0.2942709463123378
 30
0.0
 10
-6.457874715688205
 20
0.3865691006878364
 30
0.0
 10
-6.512995008042222
 20
1.024682670725894
 30
0.0
  0
LINE
  5
A43
330
18
100
AcDbEntity
  8
SK1
 48
0.019382
100
AcDbLine
 10
-6.650000000003642
 20
1.124195999999981
 30
0.0
 11
-6.650000000003642
 21
0.3489229999999566
 31
0.0
  0
SPLINE
  5
A44
330
18
100
AcDbEntity
  8
SK1
100
AcDbSpline
210
0.0
220
0.0
230
1.0
 70
     8
 71
     5
 72
    18
 73
    12
 74
     0
 42
0.000000001
 43
0.0000000001
 40
0.0
 40
0.0
 40
0.0
 40
0.0
 40
0.0
 40
0.0
 40
1.568576863163085
 40
1.568576863163085
 40
1.568576863163085
 40
5.452769098264264
 40
5.452769098264264
 40
5.452769098264264
 40
6.364570188509905
 40
6.364570188509905
 40
6.364570188509905
 40
6.364570188509905
 40
6.364570188509905
 40
6.364570188509905
 10
-6.250300521664911
 20
-2.769869603916561
 30
0.0
 10
-6.273456047330427
 20
-2.769776339974271
 30
0.0
 10
-6.296635593402072
 20
-2.736263749911413
 30
0.0
 10
-6.31942562072308
 20
-2.669144329615674
 30
0.0
 10
-6.396469991533647
 20
-2.340642586986803
 30
0.0
 10
-6.465524807569662
 20
-1.745898261232069
 30
0.0
 10
-6.512019012461536
 20
-1.257533849960452
 30
0.0
 10
-6.566014665512228
 20
-0.6381958688037344
 30
0.0
 10
-6.619464847182712
 20
-0.0092395319617822
 30
0.0
 10
-6.629623877850036
 20
0.1104165616588375
 30
0.0
 10
-6.639796667304663
 20
0.2298958522222279
 30
0.0
 10
-6.650000000359767
 20
0.3489228839839029
 30
0.0
  0
LINE
  5
A45
330
18
100
AcDbEntity
  8
SK1
 48
0.000131
100
AcDbLine
 10
-6.564414000003638
 20
-2.770410000000024
 30
0.0
 11
-6.569627000003632
 21
-2.76973700000002
 31
0.0
  0
SPLINE
  5
A46
330
18
100
AcDbEntity
  8
SK1
100
AcDbSpline
210
0.0
220
0.0
230
1.0
 70
     8
 71
     5
 72
    12
 73
     6
 74
     0
 42
0.000000001
 43
0.0000000001
 40
0.0
 40
0.0
 40
0.0
 40
0.0
 40
0.0
 40
0.0
 40
1.086957443416646
 40
1.086957443416646
 40
1.086957443416646
 40
1.086957443416646
 40
1.086957443416646
 40
1.086957443416646
 10
-6.569627189193793
 20
-2.769737391584897
 30
0.0
 10
-6.585967148578758
 20
-2.76550522155122
 30
0.0
 10
-6.602296476771357
 20
-2.744623066912311
 30
0.0
 10
-6.618467373751057
 20
-2.707218224575115
 30
0.0
 10
-6.634381579540047
 20
-2.654968792409873
 30
0.0
 10
-6.649987455916942
 20
-2.589801835117894
 30
0.0
  0
LINE
  5
A47
330
18
100
AcDbEntity
  8
SK1
 48
0.003972
100
AcDbLine
 10
-6.650000000003642
 20
-2.589212000000029
 30
0.0
 11
-6.650000000003642
 21
-2.748095000000033
 31
0.0
  0
LINE
  5
A48
330
18
100
AcDbEntity
  8
SK1
 48
0.01713
100
AcDbLine
 10
-6.650000000003642
 20
2.549148000000001
 30
0.0
 11
-6.650000000003642
 21
1.863958999999965
 31
0.0
  0
LINE
  5
A49
330
18
100
AcDbEntity
  8
SK1
 48
0.073469
100
AcDbLine
 10
-6.650000000003642
 20
0.3489460000000122
 30
0.0
 11
-6.650000000003642
 21
-2.589799000000025
 31
0.0
  0
ARC
  5
A4A
330
18
100
AcDbEntity
  8
1
100
AcDbCircle
 10
-20.25779700000365
 20
4.776980999999977
 30
0.0
 40
21.728859
100
AcDbArc
 50
353.4156320000005
 51
357.5108740000016
  0
LINE
  5
A4B
330
18
100
AcDbEntity
  8
1
 48
0.027244
100
AcDbLine
 10
1.449744999996369
 20
3.833336999999971
 30
0.0
 11
0.3599999999963757
 21
3.833336999999971
 31
0.0
  0
LINE
  5
A4C
330
18
100
AcDbEntity
  8
1
 48
0.0387
100
AcDbLine
 10
0.3599999999963757
 20
2.285324999999998
 30
0.0
 11
0.3599999999963757
 21
3.833336999999971
 31
0.0
  0
LINE
  5
A4D
330
18
100
AcDbEntity
  8
1
 48
0.024214
100
AcDbLine
 10
1.328542999996356
 20
2.285324999999998
 30
0.0
 11
0.3599999999963757
 21
2.285324999999998
 31
0.0
  0
LINE
  5
A4E
330
18
100
AcDbEntity
  8
1
 48
0.057404
100
AcDbLine
 10
1.080591999996357
 20
0.0025939999999878
 30
0.0
 11
1.328542999996356
 21
2.285324999999998
 31
0.0
  0
LINE
  5
A4F
330
18
100
AcDbEntity
  8
1
 48
0.000063
100
AcDbLine
 10
1.080309999996359
 20
-0.0000000000000568
 30
0.0
 11
1.079791999996357
 21
0.0024719999999547
 31
0.0
  0
LINE
  5
A50
330
18
100
AcDbEntity
  8
1
 48
0.000062
100
AcDbLine
 10
1.080309999996359
 20
-0.0000000000000568
 30
0.0
 11
1.080041999996353
 21
-0.0024740000000634
 31
0.0
  0
LINE
  5
A51
330
18
100
AcDbEntity
  8
1
 48
0.017049
100
AcDbLine
 10
1.08085399999635
 20
-0.0025960000000396
 30
0.0
 11
1.220739999996366
 21
-0.6700710000000642
 31
0.0
  0
LINE
  5
A52
330
18
100
AcDbEntity
  8
1
 48
0.021519
100
AcDbLine
 10
1.220739999996366
 20
-0.6700710000000642
 30
0.0
 11
0.3599999999963757
 21
-0.6700710000000642
 31
0.0
  0
LINE
  5
A53
330
18
100
AcDbEntity
  8
1
 48
0.073885
100
AcDbLine
 10
0.3599999999963757
 20
2.285324999999998
 30
0.0
 11
0.3599999999963757
 21
-0.6700710000000642
 31
0.0
  0
ARC
  5
A54
330
18
100
AcDbEntity
  8
1
100
AcDbCircle
 10
-20.62357900000364
 20
0.129210999999998
 30
0.0
 40
22.076178
100
AcDbArc
 50
0.9767680000003695
 51
5.832643000001509
  0
LINE
  5
A55
330
18
100
AcDbEntity
  8
1
 48
0.163517
100
AcDbLine
 10
0.0749999999963507
 20
-2.119590000000014
 30
0.0
 11
0.0749999999963507
 21
-0.0000000000000568
 31
0.0
  0
LINE
  5
A56
330
18
100
AcDbEntity
  8
1
 48
0.057538
100
AcDbLine
 10
0.0749999999963507
 20
-4.421103000000016
 30
0.0
 11
0.0749999999963507
 21
-2.119590000000014
 31
0.0
  0
LINE
  5
A57
330
18
100
AcDbEntity
  8
1
 48
0.163091
100
AcDbLine
 10
-0.000000000003638
 20
4.409586999999928
 30
0.0
 11
-0.000000000003638
 21
0.0
 31
0.0
  0
LINE
  5
A58
330
18
100
AcDbEntity
  8
1
 48
0.057388
100
AcDbLine
 10
-0.000000000003638
 20
-2.114069000000029
 30
0.0
 11
-0.000000000003638
 21
-4.409587000000042
 31
0.0
  0
LINE
  5
A59
330
18
100
AcDbEntity
  8
SK1
 48
0.029552
100
AcDbLine
 10
-0.1895330000036495
 20
3.381794999999952
 30
0.0
 11
-1.370000000003642
 21
3.319928999999944
 31
0.0
  0
LINE
  5
A5A
330
18
100
AcDbEntity
  8
SK1
 48
0.029552
100
AcDbLine
 10
-0.1895330000036495
 20
-3.381795000000066
 30
0.0
 11
-1.370000000003642
 21
-3.319929000000056
 31
0.0
  0
LINE
  5
A5B
330
18
100
AcDbEntity
  8
SK1
 48
0.16909
100
AcDbLine
 10
-0.1895330000036495
 20
-3.381795000000066
 30
0.0
 11
-0.1895330000036495
 21
3.381794999999952
 31
0.0
  0
ARC
  5
A5C
330
18
100
AcDbEntity
  8
SK1
100
AcDbCircle
 10
-0.2000000000036266
 20
-3.581521000000008
 30
0.0
 40
0.2
100
AcDbArc
 50
0.0
 51
86.9999999999993
  0
ARC
  5
A5D
330
18
100
AcDbEntity
  8
SK1
100
AcDbCircle
 10
-0.2000000000036266
 20
3.581521000000008
 30
0.0
 40
0.2
100
AcDbArc
 50
273.0000000000007
 51
0.0
  0
ELLIPSE
  5
A5E
330
18
100
AcDbEntity
  8
1
100
AcDbEllipse
 10
1.829233999996375
 20
0.8335149999999771
 30
0.0
 11
-0.1061632409691811
 21
-1.092589735984802
 31
0.0
210
0.0
220
0.0
230
1.0
 40
0.333991
 41
5.049538510427749
 42
5.688746809241816
  0
ELLIPSE
  5
A5F
330
18
100
AcDbEntity
  8
1
100
AcDbEllipse
 10
1.829233999996375
 20
5.458301999999946
 30
0.0
 11
-0.3635010421276091
 21
-1.738420605659484
 31
0.0
210
0.0
220
0.0
230
1.0
 40
0.063798
 41
5.293802132499303
 42
5.93301044005094
  0
LINE
  5
A60
330
18
100
AcDbEntity
  8
1
 48
0.01724
100
AcDbLine
 10
0.3599999999963757
 20
4.52293499999996
 30
0.0
 11
0.3599999999963757
 21
3.833336999999971
 31
0.0
  0
LINE
  5
A61
330
18
100
AcDbEntity
  8
1
 48
0.029423
100
AcDbLine
 10
1.536913999996357
 20
4.52293499999996
 30
0.0
 11
0.3599999999963757
 21
4.52293499999996
 31
0.0
  0
LINE
  5
A62
330
18
100
AcDbEntity
  8
1
 48
0.038179
100
AcDbLine
 10
1.649950999996375
 20
-6.627049999999996
 30
0.0
 11
1.608015999996353
 21
-5.100480000000004
 31
0.0
  0
ARC
  5
A63
330
18
100
AcDbEntity
  8
1
100
AcDbCircle
 10
1.553065999996363
 20
-6.628923000000042
 30
0.0
 40
0.097044
100
AcDbArc
 50
269.1162290000006
 51
1.107394999998229
  0
LINE
  5
A64
330
18
100
AcDbEntity
  8
1
 48
0.032578
100
AcDbLine
 10
1.55156599999637
 20
-6.726128000000016
 30
0.0
 11
0.2484339999963652
 21
-6.726128000000016
 31
0.0
  0
ARC
  5
A65
330
18
100
AcDbEntity
  8
1
100
AcDbCircle
 10
0.2469339999963722
 20
-6.628923000000042
 30
0.0
 40
0.097044
100
AcDbArc
 50
178.8941690000005
 51
270.8837310000005
  0
LINE
  5
A66
330
18
100
AcDbEntity
  8
1
 48
0.036854
100
AcDbLine
 10
0.1500489999963577
 20
-6.627052999999986
 30
0.0
 11
0.1904899999963732
 21
-5.153428000000018
 31
0.0
  0
ARC
  5
A67
330
18
100
AcDbEntity
  8
1
100
AcDbCircle
 10
14.93819399999637
 20
-4.684571000000061
 30
0.0
 40
13.33653
100
AcDbArc
 50
179.8004679999996
 51
181.7870809999984
  0
ARC
  5
A68
330
18
100
AcDbEntity
  8
1
100
AcDbCircle
 10
0.0932509999963713
 20
5.274755999999968
 30
0.0
 40
0.29949
100
AcDbArc
 50
53.00884600000123
 51
71.07587700000066
  0
LINE
  5
A69
330
18
100
AcDbEntity
  8
1
 48
0.033365
100
AcDbLine
 10
1.608015999996353
 20
5.513942999999983
 30
0.0
 11
0.2734329999963734
 21
5.513942999999983
 31
0.0
  0
LINE
  5
A6A
330
18
100
AcDbEntity
  8
1
 48
0.031811
100
AcDbLine
 10
1.649950999996375
 20
6.785702999999953
 30
0.0
 11
1.608015999996353
 21
5.513942999999983
 31
0.0
  0
ELLIPSE
  5
A6B
330
18
100
AcDbEntity
  8
1
100
AcDbEllipse
 10
1.54982899999635
 20
6.786485999999968
 30
0.0
 11
-0.1000982001423836
 21
-0.0042399866506457
 31
0.0
210
0.0
220
0.0
230
1.0
 40
0.8156689999999999
 41
3.228013469287903
 42
4.660504901644847
  0
LINE
  5
A6C
102
{ACAD_REACTORS
330
BC1
102
}
330
18
100
AcDbEntity
  8
1
 48
0.000302
100
AcDbLine
 10
1.649254999996371
 20
6.79775699999999
 30
0.0
 11
1.649950999996375
 21
6.785702999999953
 31
0.0
  0
LINE
  5
A6D
330
18
100
AcDbEntity
  8
1
 48
0.032578
100
AcDbLine
 10
1.55156599999637
 20
6.868242999999949
 30
0.0
 11
0.2484339999963652
 21
6.868242999999949
 31
0.0
  0
ELLIPSE
  5
A6E
330
18
100
AcDbEntity
  8
1
100
AcDbEllipse
 10
0.2501709999963566
 20
6.786485999999968
 30
0.0
 11
0.1000981852412224
 21
-0.0042397095821798
 31
0.0
210
0.0
220
0.0
230
0.9999999999999998
 40
0.81567
 41
1.622677012227453
 42
3.05517711308394
  0
LINE
  5
A6F
330
18
100
AcDbEntity
  8
1
 48
0.000302
100
AcDbLine
 10
0.1507449999963626
 20
6.79775699999999
 30
0.0
 11
0.1500489999963577
 21
6.785705999999947
 31
0.0
  0
LINE
  5
A70
102
{ACAD_REACTORS
330
BC1
102
}
330
18
100
AcDbEntity
  8
1
 48
0.030708
100
AcDbLine
 10
0.1500489999963577
 20
6.785705999999947
 30
0.0
 11
0.1904899999963732
 21
5.558052999999971
 31
0.0
  0
ARC
  5
A71
330
18
100
AcDbEntity
  8
1
100
AcDbCircle
 10
16.23027099999638
 20
5.081569
 30
0.0
 40
14.628741
100
AcDbArc
 50
178.3062820000015
 51
180.4428829999993
  0
ARC
  5
A72
330
18
100
AcDbEntity
  8
1
100
AcDbCircle
 10
0.1480719999963753
 20
5.342727999999963
 30
0.0
 40
0.211971
100
AcDbArc
 50
359.8559029999988
 51
53.78887599999911
  0
LINE
  5
A73
330
18
100
AcDbEntity
  8
1
 48
0.020481
100
AcDbLine
 10
0.3599999999963757
 20
4.52293499999996
 30
0.0
 11
0.3599999999963757
 21
5.342195000000002
 31
0.0
  0
ARC
  5
A74
330
18
100
AcDbEntity
  8
1
100
AcDbCircle
 10
12.20706699999636
 20
3.193372000000008
 30
0.0
 40
10.752698
100
AcDbArc
 50
170.497784000002
 51
172.8972410000011
  0
ARC
  5
A75
330
18
100
AcDbEntity
  8
1
100
AcDbCircle
 10
-35.44726700000365
 20
-8.33834100000007
 30
0.0
 40
37.461263
100
AcDbArc
 50
10.72263100000082
 51
11.81186299999945
  0
LINE
  5
A76
330
18
100
AcDbEntity
  8
1
 48
0.081964
100
AcDbLine
 10
1.601883999996372
 20
-4.638126999999997
 30
0.0
 11
1.359912999996365
 21
-1.368492999999999
 31
0.0
  0
SPLINE
  5
A77
330
18
100
AcDbEntity
  8
1
100
AcDbSpline
210
0.0
220
0.0
230
1.0
 70
     8
 71
     5
 72
    39
 73
    33
 74
     0
 42
0.000000001
 43
0.0000000001
 40
0.0
 40
0.0
 40
0.0
 40
0.0
 40
0.0
 40
0.0
 40
0.0275870837310287
 40
0.0275870837310287
 40
0.0275870837310287
 40
0.0551741674620573
 40
0.0551741674620573
 40
0.0551741674620573
 40
0.1103449493974404
 40
0.1103449493974404
 40
0.1103449493974404
 40
0.2206507674988013
 40
0.2206507674988013
 40
0.2206507674988013
 40
0.4410806147716717
 40
0.4410806147716717
 40
0.4410806147716717
 40
0.5667877295735984
 40
0.5667877295735984
 40
0.5667877295735984
 40
0.9439008648397651
 40
0.9439008648397651
 40
0.9439008648397651
 40
1.398849303914898
 40
1.398849303914898
 40
1.398849303914898
 40
2.866799782081443
 40
2.866799782081443
 40
2.866799782081443
 40
4.918277430650205
 40
4.918277430650205
 40
4.918277430650205
 40
4.918277430650205
 40
4.918277430650205
 40
4.918277430650205
 10
0.359999999890988
 20
-3.320920822470895
 30
0.0
 10
0.3599999998910448
 20
-3.323236012641698
 30
0.0
 10
0.3599509687901445
 20
-3.325571151978634
 30
0.0
 10
0.3598278021881072
 20
-3.329534590043463
 30
0.0
 10
0.3595991579996678
 20
-3.335917322402166
 30
0.0
 10
0.359263126875959
 20
-3.342216855247045
 30
0.0
 10
0.3591055994612304
 20
-3.345302428951128
 30
0.0
 10
0.3586005096605618
 20
-3.354335835812605
 30
0.0
 10
0.3580739317446557
 20
-3.362861047527701
 30
0.0
 10
0.357702281368546
 20
-3.368459090485031
 30
0.0
 10
0.3566028763198972
 20
-3.384819437886163
 30
0.0
 10
0.3554679617471947
 20
-3.400332688587807
 30
0.0
 10
0.3547136262039885
 20
-3.410410770257896
 30
0.0
 10
0.3524534047190002
 20
-3.439983417975326
 30
0.0
 10
0.3502756620263483
 20
-3.467055092019051
 30
0.0
 10
0.3489014299424298
 20
-3.483849535614069
 30
0.0
 10
0.3467190472856316
 20
-3.510073513436337
 30
0.0
 10
0.344428666074748
 20
-3.537063127817018
 30
0.0
 10
0.3435763885389917
 20
-3.547049910959231
 30
0.0
 10
0.3401083002222549
 20
-3.587462908648716
 30
0.0
 10
0.3366409053934092
 20
-3.627025213294528
 30
0.0
 10
0.334069470427778
 20
-3.656059410086584
 30
0.0
 10
0.3284319640903845
 20
-3.719144162458349
 30
0.0
 10
0.3228017477560172
 20
-3.781096987217836
 30
0.0
 10
0.3181237260183991
 20
-3.832154740210568
 30
0.0
 10
0.3048714793908118
 20
-3.975754185964206
 30
0.0
 10
0.2916969412530932
 20
-4.115459446902207
 30
0.0
 10
0.2809615123677247
 20
-4.228184082495713
 30
0.0
 10
0.2567789816444588
 20
-4.479961877663297
 30
0.0
 10
0.2326285328935
 20
-4.727351896237451
 30
0.0
 10
0.2185580143417383
 20
-4.87047410529982
 30
0.0
 10
0.2044970538242694
 20
-5.012615835160146
 30
0.0
 10
0.1904435526718373
 20
-5.15389825874746
 30
0.0
  0
LINE
  5
A78
330
18
100
AcDbEntity
  8
1
 48
0.014486
100
AcDbLine
 10
0.3599999999963757
 20
-2.74150000000003
 30
0.0
 11
0.3599999999963757
 21
-3.320921000000055
 31
0.0
  0
LINE
  5
A79
330
18
100
AcDbEntity
  8
1
 48
0.022113
100
AcDbLine
 10
0.3599999999963757
 20
-2.74150000000003
 30
0.0
 11
0.3599999999963757
 21
-1.856992000000045
 31
0.0
  0
LINE
  5
A7A
330
18
100
AcDbEntity
  8
1
 48
0.029673
100
AcDbLine
 10
0.3599999999963757
 20
-1.856992000000045
 30
0.0
 11
0.3599999999963757
 21
-0.6700710000000642
 31
0.0
  0
LINE
  5
A7B
330
18
100
AcDbEntity
  8
1
 48
0.000317
100
AcDbLine
 10
1.608015999996353
 20
-0.4134630000000358
 30
0.0
 11
1.604606999996376
 21
-0.4256730000000175
 31
0.0
  0
ARC
  5
A7C
330
18
100
AcDbEntity
  8
1
100
AcDbCircle
 10
2.112761999996365
 20
-0.3692440000000374
 30
0.0
 40
0.5117760000000003
100
AcDbArc
 50
175.6480779999986
 51
186.3364890000017
  0
ARC
  5
A7D
330
18
100
AcDbEntity
  8
1
100
AcDbCircle
 10
2.899322999996371
 20
0.1134669999999573
 30
0.0
 40
1.371819
100
AcDbArc
 50
186.9163489999987
 51
198.8849490000003
  0
LINE
  5
A7E
330
18
100
AcDbEntity
  8
1
 48
0.006456
100
AcDbLine
 10
1.649950999996375
 20
-0.1586530000000152
 30
0.0
 11
1.608015999996353
 21
-0.4134630000000358
 31
0.0
  0
ELLIPSE
  5
A7F
330
18
100
AcDbEntity
  8
1
100
AcDbEllipse
 10
1.54982899999635
 20
-0.1584960000000706
 30
0.0
 11
-0.1001579165458679
 21
-0.000291958625894
 31
0.0
210
0.0
220
0.0
230
0.9999999999999998
 40
0.163524
 41
3.114197997734183
 42
4.694564840004313
  0
LINE
  5
A80
330
18
100
AcDbEntity
  8
1
 48
0.061014
100
AcDbLine
 10
1.601883999996372
 20
-0.3303650000000289
 30
0.0
 11
1.463414999996359
 21
-2.766976000000056
 31
0.0
  0
LINE
  5
A81
330
18
100
AcDbEntity
  8
1
 48
0.002728
100
AcDbLine
 10
1.590234999996368
 20
-1.26155299999999
 30
0.0
 11
1.583594999996364
 21
-1.370465000000024
 31
0.0
  0
LINE
  5
A82
330
18
100
AcDbEntity
  8
1
 48
0.033128
100
AcDbLine
 10
1.562554999996365
 20
-6.022925000000042
 30
0.0
 11
0.2374409999963518
 21
-6.022925000000042
 31
0.0
  0
ARC
  5
A83
330
18
100
AcDbEntity
  8
1
100
AcDbCircle
 10
0.3069299999963562
 20
-5.962667000000068
 30
0.0
 40
0.091874
100
AcDbArc
 50
220.931832999999
 51
269.0807809999994
  0
LINE
  5
A84
330
18
100
AcDbEntity
  8
1
 48
0.029727
100
AcDbLine
 10
1.494537999996365
 20
-6.054408000000022
 30
0.0
 11
0.3054579999963778
 21
-6.054408000000022
 31
0.0
  0
ARC
  5
A85
330
18
100
AcDbEntity
  8
1
100
AcDbCircle
 10
1.49306599999636
 20
-5.962667000000068
 30
0.0
 40
0.091874
100
AcDbArc
 50
270.9192020000005
 51
319.0682140000009
  0
LINE
  5
A86
330
18
100
AcDbEntity
  8
1
 48
0.002642
100
AcDbLine
 10
1.590234999996368
 20
-5.923681000000042
 30
0.0
 11
1.583594999996364
 21
-5.818207000000027
 31
0.0
  0
ARC
  5
A87
330
18
100
AcDbEntity
  8
1
100
AcDbCircle
 10
1.456916999996364
 20
-5.941658000000018
 30
0.0
 40
0.133862
100
AcDbArc
 50
322.4288530000012
 51
7.677809000000679
  0
ARC
  5
A88
330
18
100
AcDbEntity
  8
1
100
AcDbCircle
 10
0.3430769999963559
 20
-5.941659000000012
 30
0.0
 40
0.133859
100
AcDbArc
 50
172.323606999999
 51
217.5715600000005
  0
LINE
  5
A89
330
18
100
AcDbEntity
  8
1
 48
0.002642
100
AcDbLine
 10
0.2097609999963765
 20
-5.923685000000034
 30
0.0
 11
0.2163989999963576
 21
-5.818207000000027
 31
0.0
  0
LINE
  5
A8A
330
18
100
AcDbEntity
  8
1
 48
0.03418
100
AcDbLine
 10
1.583594999996364
 20
-5.818207000000027
 30
0.0
 11
0.2163989999963576
 21
-5.818207000000027
 31
0.0
  0
ARC
  5
A8B
330
18
100
AcDbEntity
  8
1
100
AcDbCircle
 10
-171.6972330000036
 20
8.132168999999976
 30
0.0
 40
173.541147
100
AcDbArc
 50
356.3082640000007
 51
356.861071999999
  0
ARC
  5
A8C
330
18
100
AcDbEntity
  8
1
100
AcDbCircle
 10
0.3027139999963708
 20
7.130732999999962
 30
0.0
 40
0.118968
100
AcDbArc
 50
88.67958399999929
 51
123.3292660000006
  0
LINE
  5
A8D
330
18
100
AcDbEntity
  8
1
 48
0.029727
100
AcDbLine
 10
0.3054579999963778
 20
7.249798999999994
 30
0.0
 11
1.494537999996365
 21
7.249798999999994
 31
0.0
  0
ARC
  5
A8E
330
18
100
AcDbEntity
  8
1
100
AcDbCircle
 10
1.497277999996356
 20
7.130798999999967
 30
0.0
 40
0.118906
100
AcDbArc
 50
56.65135699999975
 51
91.31904200000064
  0
ARC
  5
A8F
330
18
100
AcDbEntity
  8
1
100
AcDbCircle
 10
1.52912599999635
 20
7.175459999999986
 30
0.0
 40
0.063711
100
AcDbArc
 50
15.38464299999969
 51
58.48972099999842
  0
ARC
  5
A90
330
18
100
AcDbEntity
  8
1
100
AcDbCircle
 10
0.2708699999963642
 20
7.175459999999986
 30
0.0
 40
0.063711
100
AcDbArc
 50
121.5101410000022
 51
164.6156799999977
  0
ELLIPSE
  5
A91
330
18
100
AcDbEntity
  8
1
100
AcDbEllipse
 10
1.557390999996355
 20
-2.707176000000059
 30
0.0
 11
0.1741608530282974
 21
-4.229848861694335
 31
0.0
210
0.0
220
0.0
230
1.0
 40
0.035437
 41
4.388908695211517
 42
5.537325169503652
  0
ARC
  5
A92
330
18
100
AcDbEntity
  8
1
100
AcDbCircle
 10
0.0663649999963525
 20
-2.049225000000034
 30
0.0
 40
0.351161
100
AcDbArc
 50
357.1689499999985
 51
33.21137700000157
  0
ELLIPSE
  5
A93
330
18
100
AcDbEntity
  8
1
100
AcDbEllipse
 10
0.2424839999963524
 20
-2.706925000000012
 30
0.0
 11
-0.1740751564502716
 21
-4.230228424072263
 31
0.0
210
0.0
220
0.0
230
1.0
 40
0.035452
 41
0.7458695301608742
 42
1.724212676297899
  0
ELLIPSE
  5
A94
330
18
100
AcDbEntity
  8
1
100
AcDbEllipse
 10
1.55738999999636
 20
3.151497000000006
 30
0.0
 11
0.0431815199553967
 21
-4.229608058929443
 31
0.0
210
0.0
220
0.0
230
1.0
 40
0.053357
 41
2.859904127818353
 42
3.141047916929744
  0
ELLIPSE
  5
A95
330
18
100
AcDbEntity
  8
1
100
AcDbEllipse
 10
0.2424989999963714
 20
3.151541000000008
 30
0.0
 11
-0.0432766266167164
 21
-4.229563713073728
 31
0.0
210
0.0
220
0.0
230
0.9999999999999998
 40
0.053345
 41
3.142138566292023
 42
3.422905050287873
  0
LINE
  5
A96
330
18
100
AcDbEntity
  8
1
 48
0.017647
100
AcDbLine
 10
0.1500489999963577
 20
-6.627052999999986
 30
0.0
 11
0.2097609999963765
 21
-5.923686000000031
 31
0.0
  0
LINE
  5
A97
330
18
100
AcDbEntity
  8
1
 48
0.016853
100
AcDbLine
 10
0.2484339999963652
 20
-6.726128000000016
 30
0.0
 11
0.3054579999963778
 21
-6.054408000000022
 31
0.0
  0
LINE
  5
A98
330
18
100
AcDbEntity
  8
1
 48
0.016934
100
AcDbLine
 10
0.4172959999963555
 20
-2.066578999999988
 30
0.0
 11
0.3599999999963757
 21
-2.74150000000003
 31
0.0
  0
LINE
  5
A99
330
18
100
AcDbEntity
  8
1
 48
0.016853
100
AcDbLine
 10
1.55156599999637
 20
-6.726128000000016
 30
0.0
 11
1.494537999996365
 21
-6.054408000000022
 31
0.0
  0
LINE
  5
A9A
330
18
100
AcDbEntity
  8
1
 48
0.017647
100
AcDbLine
 10
1.649950999996375
 20
-6.627049999999996
 30
0.0
 11
1.590234999996368
 21
-5.923682000000042
 31
0.0
  0
LINE
  5
A9B
330
18
100
AcDbEntity
  8
1
 48
0.009645
100
AcDbLine
 10
0.2484339999963652
 20
6.868242999999949
 30
0.0
 11
0.3054579999963778
 21
7.249798999999994
 31
0.0
  0
LINE
  5
A9C
330
18
100
AcDbEntity
  8
1
 48
0.009645
100
AcDbLine
 10
1.55156599999637
 20
6.868242999999949
 30
0.0
 11
1.494537999996365
 21
7.249798999999994
 31
0.0
  0
LINE
  5
A9D
330
18
100
AcDbEntity
  8
1
 48
0.027613
100
AcDbLine
 10
1.649950999996375
 20
-0.1586530000000152
 30
0.0
 11
1.590234999996368
 21
-1.261554999999987
 31
0.0
  0
SPLINE
  5
A9E
330
18
100
AcDbEntity
  8
SK1
100
AcDbSpline
210
0.0
220
0.0
230
1.0
 70
     8
 71
     3
 72
    19
 73
    15
 74
     0
 42
0.000000001
 43
0.0000000001
 40
0.0
 40
0.0
 40
0.0
 40
0.0
 40
0.01409016520128
 40
0.0271984247961134
 40
0.0424853965612506
 40
0.0566071662370771
 40
0.0741863788043629
 40
0.0903424811495858
 40
0.1132822837162203
 40
0.1349280585993025
 40
0.1545565640251956
 40
0.1741958634213873
 40
0.1941757987996798
 40
0.2147527984722468
 40
0.2147527984722468
 40
0.2147527984722468
 40
0.2147527984722468
 10
-1.503570136326542
 20
-3.177133814389377
 30
0.0
 10
-1.5076447423433
 20
-3.174792881321366
 30
0.0
 10
-1.515327451267294
 20
-3.169964768612715
 30
0.0
 10
-1.526733411717543
 20
-3.161550491859598
 30
0.0
 10
-1.537482371059269
 20
-3.152289968745435
 30
0.0
 10
-1.548560019781005
 20
-3.141200302631602
 30
0.0
 10
-1.558951807449119
 20
-3.129072267924641
 30
0.0
 10
-1.570149916840279
 20
-3.113840597231897
 30
0.0
 10
-1.580851046146078
 20
-3.096621937347378
 30
0.0
 10
-1.590782617036778
 20
-3.077644833873648
 30
0.0
 10
-1.59918627427109
 20
-3.059152625249851
 30
0.0
 10
-1.606574517697053
 20
-3.04083211794358
 30
0.0
 10
-1.613415932213143
 20
-3.021965203329443
 30
0.0
 10
-1.617647337623195
 20
-3.009124204130498
 30
0.0
 10
-1.619714157516909
 20
-3.002583518825814
 30
0.0
  0
SPLINE
  5
A9F
330
18
100
AcDbEntity
  8
SK1
100
AcDbSpline
210
0.0
220
0.0
230
1.0
 70
     8
 71
     3
 72
    20
 73
    16
 74
     0
 42
0.000000001
 43
0.0000000001
 40
0.0
 40
0.0
 40
0.0
 40
0.0
 40
0.0141343277141628
 40
0.0272938002528308
 40
0.0425648797899131
 40
0.0566744901378223
 40
0.074231663629812
 40
0.090371526207402
 40
0.1010529680535059
 40
0.1184031149000745
 40
0.1350122762898332
 40
0.1546058387364002
 40
0.1741381473932621
 40
0.1940056177522153
 40
0.2144942704223833
 40
0.2144942704223833
 40
0.2144942704223833
 40
0.2144942704223833
 10
-2.243629426081014
 20
3.177120037320776
 30
0.0
 10
-2.247717522755805
 20
3.17477298286326
 30
0.0
 10
-2.255427887255763
 20
3.169928965325823
 30
0.0
 10
-2.266853715006417
 20
3.161496731661086
 30
0.0
 10
-2.277605325145086
 20
3.152227507383201
 30
0.0
 10
-2.288667573767355
 20
3.141145973765503
 30
0.0
 10
-2.299044596541563
 20
3.129027908437876
 30
0.0
 10
-2.307810289811838
 20
3.117097660103921
 30
0.0
 10
-2.315884059948615
 20
3.104780782506225
 30
0.0
 10
-2.323394839928083
 20
3.091923838595221
 30
0.0
 10
-2.33156071232497
 20
3.076042829458343
 30
0.0
 10
-2.339243934083185
 20
3.059119454715641
 30
0.0
 10
-2.346597179749466
 20
3.040876520311542
 30
0.0
 10
-2.353403947345155
 20
3.022106200758968
 30
0.0
 10
-2.357616176642095
 20
3.009329363327251
 30
0.0
 10
-2.359675207381938
 20
3.002817120363431
 30
0.0
  0
SPLINE
  5
AA0
330
18
100
AcDbEntity
  8
SK1
100
AcDbSpline
210
0.0
220
0.0
230
1.0
 70
     8
 71
     3
 72
    19
 73
    15
 74
     0
 42
0.000000001
 43
0.0000000001
 40
0.0
 40
0.0
 40
0.0
 40
0.0
 40
0.0141229000433537
 40
0.0272721768685181
 40
0.0425417532664667
 40
0.0566501122380523
 40
0.0742322781561601
 40
0.0903932009279256
 40
0.113334116547997
 40
0.134920611846469
 40
0.1542882871941779
 40
0.1736514445948055
 40
0.1933293892492886
 40
0.2138011636841834
 40
0.2138011636841834
 40
0.2138011636841834
 40
0.2138011636841834
 10
-2.983633115415272
 20
-3.177135494292371
 30
0.0
 10
-2.987717066630523
 20
-3.174788883682308
 30
0.0
 10
-2.99541976150624
 20
-3.169946245008928
 30
0.0
 10
-3.006837251812726
 20
-3.161515755919423
 30
0.0
 10
-3.017583688398017
 20
-3.152247133226466
 30
0.0
 10
-3.028649156874706
 20
-3.141158450680392
 30
0.0
 10
-3.039033537384398
 20
-3.129026527043151
 30
0.0
 10
-3.050225322264537
 20
-3.11378652564508
 30
0.0
 10
-3.060908260811771
 20
-3.096577567446274
 30
0.0
 10
-3.070784384318668
 20
-3.077691679209292
 30
0.0
 10
-3.079109177965078
 20
-3.059382273498271
 30
0.0
 10
-3.086406353551836
 20
-3.041326779241102
 30
0.0
 10
-3.093191730505508
 20
-3.022681989206091
 30
0.0
 10
-3.097397312873879
 20
-3.009975414018015
 30
0.0
 10
-3.099461758787214
 20
-3.003470768878115
 30
0.0
  0
LINE
  5
AA1
330
18
100
AcDbEntity
  8
SK1
 48
0.002529
100
AcDbLine
 10
-1.619714000003623
 20
-3.002584000000013
 30
0.0
 11
-1.650213000003645
 21
-2.906138999999996
 31
0.0
  0
LINE
  5
AA2
330
18
100
AcDbEntity
  8
SK1
 48
0.002528
100
AcDbLine
 10
-2.359675000003647
 20
3.002816999999993
 30
0.0
 11
-2.390161000003642
 21
2.906399999999961
 31
0.0
  0
LINE
  5
AA3
330
18
100
AcDbEntity
  8
SK1
 48
0.002523
100
AcDbLine
 10
-3.099752000003633
 20
-3.002519000000062
 30
0.0
 11
-3.130185000003649
 21
-2.906280000000037
 31
0.0
  0
SPLINE
  5
AA4
330
18
100
AcDbEntity
  8
SK1
100
AcDbSpline
210
0.0
220
0.0
230
1.0
 70
     8
 71
     3
 72
    19
 73
    15
 74
     0
 42
0.000000001
 43
0.0000000001
 40
0.0
 40
0.0
 40
0.0
 40
0.0
 40
0.0138715765291515
 40
0.026789714247242
 40
0.042087455840873
 40
0.0562285646842574
 40
0.0737903932857825
 40
0.0899443371028187
 40
0.112876814217536
 40
0.1345072309606232
 40
0.1583025947572361
 40
0.1822041551339497
 40
0.1980036082799608
 40
0.2142206767826076
 40
0.2142206767826076
 40
0.2142206767826076
 40
0.2142206767826076
 10
-3.723787104212873
 20
3.177091291396321
 30
0.0
 10
-3.727797023110808
 20
3.174784242319048
 30
0.0
 10
-3.735363917024356
 20
3.170028501974511
 30
0.0
 10
-3.746670973287478
 20
3.161704366739114
 30
0.0
 10
-3.757391655140025
 20
3.152492651089743
 30
0.0
 10
-3.768484229001301
 20
3.141411790124378
 30
0.0
 10
-3.778886751606788
 20
3.129292979009674
 30
0.0
 10
-3.790090678149936
 20
3.11407663439337
 30
0.0
 10
-3.800796571323273
 20
3.096870474968738
 30
0.0
 10
-3.811375862400608
 20
3.076672365094338
 30
0.0
 10
-3.820828357206806
 20
3.055570773127838
 30
0.0
 10
-3.828502258411333
 20
3.035838069565386
 30
0.0
 10
-3.834689109595501
 20
3.018253788223033
 30
0.0
 10
-3.838004649394378
 20
3.008109056471481
 30
0.0
 10
-3.839634143829897
 20
3.002954554262828
 30
0.0
  0
SPLINE
  5
AA5
330
18
100
AcDbEntity
  8
SK1
100
AcDbSpline
210
0.0
220
0.0
230
1.0
 70
     8
 71
     3
 72
    20
 73
    16
 74
     0
 42
0.000000001
 43
0.0000000001
 40
0.0
 40
0.0
 40
0.0
 40
0.0
 40
0.0205475051628779
 40
0.0405118325784123
 40
0.0601260510114596
 40
0.0797397109347859
 40
0.0875935216526309
 40
0.105389672441731
 40
0.1241815127406304
 40
0.1402580640945474
 40
0.1577503912794076
 40
0.1717549710372248
 40
0.1869160120270055
 40
0.1999551112142025
 40
0.2139631767800888
 40
0.2139631767800888
 40
0.2139631767800888
 40
0.2139631767800888
 10
-3.065101247528588
 20
3.002324767590835
 30
0.0
 10
-3.067155436383274
 20
3.008859084717584
 30
0.0
 10
-3.071361099687436
 20
3.021692695407921
 30
0.0
 10
-3.078156261490875
 20
3.040551449810606
 30
0.0
 10
-3.085491416341509
 20
3.058872770256073
 30
0.0
 10
-3.091942916069796
 20
3.073186853099628
 30
0.0
 10
-3.098642058774542
 20
3.086706703034224
 30
0.0
 10
-3.105709287021766
 20
3.099735248158197
 30
0.0
 10
-3.115030496115564
 20
3.114628115238303
 30
0.0
 10
-3.125293579667441
 20
3.128760632011163
 30
0.0
 10
-3.13554210370566
 20
3.1408856597522
 30
0.0
 10
-3.146457424493007
 20
3.151980817690457
 30
0.0
 10
-3.157047957357121
 20
3.161264194451346
 30
0.0
 10
-3.168300732712566
 20
3.169728995640126
 30
0.0
 10
-3.175892400338708
 20
3.174606061995175
 30
0.0
 10
-3.179919110266013
 20
3.176974820312921
 30
0.0
  0
LINE
  5
AA6
330
18
100
AcDbEntity
  8
SK1
 48
0.000806
100
AcDbLine
 10
-2.135242000003643
 20
-2.770353000000056
 30
0.0
 11
-2.167343000003626
 21
-2.773261999999987
 31
0.0
  0
LINE
  5
AA7
330
18
100
AcDbEntity
  8
SK1
 48
0.00813
100
AcDbLine
 10
-1.81005200000362
 20
-2.770099000000016
 30
0.0
 11
-2.135242000003643
 21
-2.770353000000056
 31
0.0
  0
ARC
  5
AA8
330
18
100
AcDbEntity
  8
SK1
100
AcDbCircle
 10
-1.807292000003626
 20
-2.940303000000028
 30
0.0
 40
0.17006
100
AcDbArc
 50
36.99903799999914
 51
90.92882499999964
  0
LINE
  5
AA9
330
18
100
AcDbEntity
  8
SK1
 48
0.002388
100
AcDbLine
 10
-1.650213000003645
 20
-2.906138999999996
 30
0.0
 11
-1.679070000003633
 21
-2.815083000000015
 31
0.0
  0
LINE
  5
AAA
330
18
100
AcDbEntity
  8
SK1
 48
0.001788
100
AcDbLine
 10
-2.390161000003642
 20
2.906399999999961
 30
0.0
 11
-2.411737000003626
 21
2.838219999999978
 31
0.0
  0
LINE
  5
AAB
330
18
100
AcDbEntity
  8
SK1
 48
0.00238
100
AcDbLine
 10
-3.130234000003639
 20
-2.905732
 30
0.0
 11
-3.159003000003622
 21
-2.814967000000023
 31
0.0
  0
SPLINE
  5
AAC
330
18
100
AcDbEntity
  8
SK1
100
AcDbSpline
210
0.0
220
0.0
230
1.0
 70
     8
 71
     3
 72
    19
 73
    15
 74
     0
 42
0.000000001
 43
0.0000000001
 40
0.0
 40
0.0
 40
0.0
 40
0.0
 40
0.0141285168190174
 40
0.0272837796711365
 40
0.0425671835329075
 40
0.0566967027459807
 40
0.0742745510485959
 40
0.0904400895619374
 40
0.1133016245242471
 40
0.1349538686067535
 40
0.1501649857274779
 40
0.165391557292199
 40
0.1899208564483114
 40
0.2152248579559253
 40
0.2152248579559253
 40
0.2152248579559253
 40
0.2152248579559253
 10
-4.46333615551009
 20
-3.177163877399436
 30
0.0
 10
-4.467427065474026
 20
-3.174825629791598
 30
0.0
 10
-4.475143857719131
 20
-3.169998151468973
 30
0.0
 10
-4.486586193293476
 20
-3.161587025278834
 30
0.0
 10
-4.497361586668032
 20
-3.15233098359846
 30
0.0
 10
-4.508454339003066
 20
-3.141254995197923
 30
0.0
 10
-4.518863166949045
 20
-3.129134525177335
 30
0.0
 10
-4.530061437783273
 20
-3.113931906947243
 30
0.0
 10
-4.540766249052153
 20
-3.096740207933008
 30
0.0
 10
-4.550016608737704
 20
-3.079096204320477
 30
0.0
 10
-4.557304563674903
 20
-3.063332265483211
 30
0.0
 10
-4.564403721322433
 20
-3.046437750285065
 30
0.0
 10
-4.57201925940012
 20
-3.026124309891598
 30
0.0
 10
-4.577257485595962
 20
-3.010358380811736
 30
0.0
 10
-4.579796958313608
 20
-3.002314216644606
 30
0.0
  0
LINE
  5
AAD
330
18
100
AcDbEntity
  8
SK1
 48
0.002519
100
AcDbLine
 10
-4.579797000003622
 20
-3.002314000000012
 30
0.0
 11
-4.610234000003628
 21
-2.906266000000016
 31
0.0
  0
LINE
  5
AAE
330
18
100
AcDbEntity
  8
SK1
 48
0.002531
100
AcDbLine
 10
-3.839634000003627
 20
3.002954999999984
 30
0.0
 11
-3.870190000003643
 21
2.906422999999961
 31
0.0
  0
SPLINE
  5
AAF
330
18
100
AcDbEntity
  8
SK1
100
AcDbSpline
210
0.0
220
0.0
230
1.0
 70
     8
 71
     3
 72
    19
 73
    15
 74
     0
 42
0.000000001
 43
0.0000000001
 40
0.0
 40
0.0
 40
0.0
 40
0.0
 40
0.0205207409727032
 40
0.0404176354178104
 40
0.0599706290774824
 40
0.079483049657664
 40
0.100930895776468
 40
0.1237469804116357
 40
0.1398468466347637
 40
0.1573627491468599
 40
0.1713610459056176
 40
0.1865126112038709
 40
0.1994762147177057
 40
0.2134021499165806
 40
0.2134021499165806
 40
0.2134021499165806
 40
0.2134021499165806
 10
-3.805183955182997
 20
-3.002689576267528
 30
0.0
 10
-3.807237080196529
 20
-3.009214904286238
 30
0.0
 10
-3.811436498536011
 20
-3.022017509251496
 30
0.0
 10
-3.818219687798147
 20
-3.040825395494948
 30
0.0
 10
-3.82553167102685
 20
-3.059073837181016
 30
0.0
 10
-3.833826907055593
 20
-3.07746834381345
 30
0.0
 10
-3.843617143727526
 20
-3.09635378584727
 30
0.0
 10
-3.854162324768196
 20
-3.113519663275781
 30
0.0
 10
-3.865217548805532
 20
-3.128754839442365
 30
0.0
 10
-3.875471585407865
 20
-3.140893138916794
 30
0.0
 10
-3.886386260073548
 20
-3.151992542473067
 30
0.0
 10
-3.896951539948815
 20
-3.161258536678984
 30
0.0
 10
-3.908155643245236
 20
-3.169695057092723
 30
0.0
 10
-3.915698564584203
 20
-3.174550539959851
 30
0.0
 10
-3.919698929797958
 20
-3.176910000010536
 30
0.0
  0
LINE
  5
AB0
330
18
100
AcDbEntity
  8
SK1
 48
0.00491
100
AcDbLine
 10
-3.006097000003649
 20
2.814989999999966
 30
0.0
 11
-3.065101000003636
 21
3.002324999999982
 31
0.0
  0
ARC
  5
AB1
330
18
100
AcDbEntity
  8
SK1
100
AcDbCircle
 10
-2.87822200000363
 20
2.940157999999938
 30
0.0
 40
0.169592
100
AcDbArc
 50
216.7798420000005
 51
270.9475460000001
  0
LINE
  5
AB2
330
18
100
AcDbEntity
  8
SK1
 48
0.00813
100
AcDbLine
 10
-2.55023200000363
 20
2.770077999999955
 30
0.0
 11
-2.875414000003642
 21
2.770384999999976
 31
0.0
  0
ARC
  5
AB3
330
18
100
AcDbEntity
  8
SK1
100
AcDbCircle
 10
-2.546790000003623
 20
2.938477999999975
 30
0.0
 40
0.168165
100
AcDbArc
 50
268.8291130000002
 51
325.305363000001
  0
ARC
  5
AB4
330
18
100
AcDbEntity
  8
SK1
100
AcDbCircle
 10
-3.290081000003622
 20
-2.949865999999985
 30
0.0
 40
0.179744
100
AcDbArc
 50
62.24955000000002
 51
90.0430429999997
  0
ARC
  5
AB5
330
18
100
AcDbEntity
  8
SK1
100
AcDbCircle
 10
-3.277916000003641
 20
-2.928735000000017
 30
0.0
 40
0.155346
100
AcDbArc
 50
35.45717000000152
 51
62.59097599999872
  0
SPLINE
  5
AB6
330
18
100
AcDbEntity
  8
SK1
100
AcDbSpline
210
0.0
220
0.0
230
1.0
 70
     8
 71
     3
 72
    19
 73
    15
 74
     0
 42
0.000000001
 43
0.0000000001
 40
0.0
 40
0.0
 40
0.0
 40
0.0
 40
0.013860852542266
 40
0.0267620977751744
 40
0.0420335395312229
 40
0.0561422051217141
 40
0.0737270537577074
 40
0.0898884002971326
 40
0.1128519199224071
 40
0.1344470366072759
 40
0.1538733146444562
 40
0.1732864861254364
 40
0.1930194206979424
 40
0.2135302722641527
 40
0.2135302722641527
 40
0.2135302722641527
 40
0.2135302722641527
 10
-5.203988649487396
 20
3.177133818979939
 30
0.0
 10
-5.207990464321936
 20
3.174819892955552
 30
0.0
 10
-5.21553952095212
 20
3.170053165583397
 30
0.0
 10
-5.226815738979238
 20
3.161717618106591
 30
0.0
 10
-5.237501052452528
 20
3.152503645740353
 30
0.0
 10
-5.248568576955278
 20
3.141414741539961
 30
0.0
 10
-5.258954454804834
 20
3.129282576445064
 30
0.0
 10
-5.270151970001675
 20
3.114036142112865
 30
0.0
 10
-5.280840317870596
 20
3.096818042827633
 30
0.0
 10
-5.290729453481673
 20
3.077905157747919
 30
0.0
 10
-5.299068506602566
 20
3.059559249410822
 30
0.0
 10
-5.3063831419295
 20
3.041451972013021
 30
0.0
 10
-5.313181545120128
 20
3.022760802749246
 30
0.0
 10
-5.317394885799441
 20
3.010023768976622
 30
0.0
 10
-5.319462362407222
 20
3.003506420248128
 30
0.0
  0
LINE
  5
AB7
330
18
100
AcDbEntity
  8
SK1
 48
0.00239
100
AcDbLine
 10
-4.610234000003628
 20
-2.906266000000016
 30
0.0
 11
-4.639071000003639
 21
-2.815113000000053
 31
0.0
  0
LINE
  5
AB8
330
18
100
AcDbEntity
  8
SK1
 48
0.001782
100
AcDbLine
 10
-3.870298000003628
 20
2.905895999999982
 30
0.0
 11
-3.891831000003633
 21
2.837935999999956
 31
0.0
  0
SPLINE
  5
AB9
330
18
100
AcDbEntity
  8
SK1
100
AcDbSpline
210
0.0
220
0.0
230
1.0
 70
     8
 71
     3
 72
    19
 73
    15
 74
     0
 42
0.000000001
 43
0.0000000001
 40
0.0
 40
0.0
 40
0.0
 40
0.0
 40
0.0205287548695155
 40
0.0404512305123728
 40
0.060029780310814
 40
0.079656661312521
 40
0.1012259385805873
 40
0.1241926693276252
 40
0.1402919063212347
 40
0.1577981995619156
 40
0.1720702859774091
 40
0.1875064185513351
 40
0.2001044639021961
 40
0.2136358332607102
 40
0.2136358332607102
 40
0.2136358332607102
 40
0.2136358332607102
 10
-4.545237968131856
 20
3.00260314342637
 30
0.0
 10
-4.547291282914528
 20
3.009131211212376
 30
0.0
 10
-4.551492741431616
 20
3.021944928397203
 30
0.0
 10
-4.55828006846383
 20
3.040772287088258
 30
0.0
 10
-4.56561006640419
 20
3.059072982594158
 30
0.0
 10
-4.57394070257362
 20
3.077547256394779
 30
0.0
 10
-4.583796114797761
 20
3.096544314567437
 30
0.0
 10
-4.594403762204733
 20
3.113778671539364
 30
0.0
 10
-4.605507001630996
 20
3.129036925960233
 30
0.0
 10
-4.615835605654638
 20
3.141227339727776
 30
0.0
 10
-4.626903760926238
 20
3.152433225156812
 30
0.0
 10
-4.637553188133606
 20
3.161701855360488
 30
0.0
 10
-4.648661235311976
 20
3.170000880482857
 30
0.0
 10
-4.655998883001188
 20
3.174706018836274
 30
0.0
 10
-4.659887317145063
 20
3.1769960003964
 30
0.0
  0
LINE
  5
ABA
330
18
100
AcDbEntity
  8
SK1
 48
0.004309
100
AcDbLine
 10
-3.753404000003627
 20
-2.838276000000006
 30
0.0
 11
-3.805184000003633
 21
-3.002690000000028
 31
0.0
  0
ARC
  5
ABB
330
18
100
AcDbEntity
  8
SK1
100
AcDbCircle
 10
-3.619019000003646
 20
-2.937977999999986
 30
0.0
 40
0.167338
100
AcDbArc
 50
88.75759799999979
 51
145.4372319999973
  0
LINE
  5
ABC
330
18
100
AcDbEntity
  8
SK1
 48
0.008129
100
AcDbLine
 10
-3.290216000003622
 20
-2.770125000000063
 30
0.0
 11
-3.615384000003643
 21
-2.770397000000059
 31
0.0
  0
ARC
  5
ABD
330
18
100
AcDbEntity
  8
SK1
100
AcDbCircle
 10
-4.026485000003646
 20
2.938077999999961
 30
0.0
 40
0.167709
100
AcDbArc
 50
268.7398700000004
 51
325.4492089999998
  0
LINE
  5
ABE
330
18
100
AcDbEntity
  8
SK1
 48
0.002527
100
AcDbLine
 10
-5.319747000003643
 20
3.002638999999986
 30
0.0
 11
-5.350219000003646
 21
2.906272999999998
 31
0.0
  0
LINE
  5
ABF
330
18
100
AcDbEntity
  8
SK1
 48
0.001765
100
AcDbLine
 10
-5.350144000003636
 20
2.906340999999939
 30
0.0
 11
-5.371464000003641
 21
2.839045999999995
 31
0.0
  0
ARC
  5
AC0
330
18
100
AcDbEntity
  8
SK1
100
AcDbCircle
 10
-5.506370000003641
 20
2.937550999999984
 30
0.0
 40
0.167467
100
AcDbArc
 50
268.6846770000006
 51
325.4221659999995
  0
ARC
  5
AC1
330
18
100
AcDbEntity
  8
SK1
100
AcDbCircle
 10
-4.767485000003631
 20
-2.940390000000036
 30
0.0
 40
0.170229
100
AcDbArc
 50
36.95724199999891
 51
90.93052300000055
  0
SPLINE
  5
AC2
330
18
100
AcDbEntity
  8
SK1
100
AcDbSpline
210
0.0
220
0.0
230
1.0
 70
     8
 71
     3
 72
    20
 73
    16
 74
     0
 42
0.000000001
 43
0.0000000001
 40
0.0
 40
0.0
 40
0.0
 40
0.0
 40
0.014034858030159
 40
0.0271000477817228
 40
0.0423620973177776
 40
0.056462398114646
 40
0.0740100699724745
 40
0.0901397805164186
 40
0.1053135057002652
 40
0.1203086177696862
 40
0.1347653654714391
 40
0.1543757558462504
 40
0.1739275000727852
 40
0.1938148840040593
 40
0.2143081933800808
 40
0.2143081933800808
 40
0.2143081933800808
 40
0.2143081933800808
 10
-5.943821502882826
 20
-3.177142483996588
 30
0.0
 10
-5.947876925991207
 20
-3.174805230767558
 30
0.0
 10
-5.95552588817631
 20
-3.169985211763103
 30
0.0
 10
-5.966890324999807
 20
-3.161584060807455
 30
0.0
 10
-5.977608661083079
 20
-3.152333796491176
 30
0.0
 10
-5.988659275967734
 20
-3.141253862856443
 30
0.0
 10
-5.99902540295278
 20
-3.129139032871478
 30
0.0
 10
-6.008670168336777
 20
-3.11600391585233
 30
0.0
 10
-6.017015925510518
 20
-3.103012407214635
 30
0.0
 10
-6.024378782786442
 20
-3.090080132611261
 30
0.0
 10
-6.031814928871312
 20
-3.075509321534923
 30
0.0
 10
-6.039204059756713
 20
-3.059227284980863
 30
0.0
 10
-6.046561605183682
 20
-3.040965927531088
 30
0.0
 10
-6.053370725220048
 20
-3.022180849720541
 30
0.0
 10
-6.057583995778968
 20
-3.009395729305083
 30
0.0
 10
-6.059642827608996
 20
-3.002881802076841
 30
0.0
  0
SPLINE
  5
AC3
330
18
100
AcDbEntity
  8
SK1
100
AcDbSpline
210
0.0
220
0.0
230
1.0
 70
     8
 71
     3
 72
    19
 73
    15
 74
     0
 42
0.000000001
 43
0.0000000001
 40
0.0
 40
0.0
 40
0.0
 40
0.0
 40
0.020603827590086
 40
0.0406378227910065
 40
0.0603193422578321
 40
0.0799957313523392
 40
0.1014879711150831
 40
0.1244071812195839
 40
0.1405296132083756
 40
0.1580642310806605
 40
0.1805992412153757
 40
0.1873338845137098
 40
0.2003512385186278
 40
0.2143297691205316
 40
0.2143297691205316
 40
0.2143297691205316
 40
0.2143297691205316
 10
-5.285092307711266
 20
-3.002149847844236
 30
0.0
 10
-5.287151544648736
 20
-3.008702288583151
 30
0.0
 10
-5.291369420993362
 20
-3.0215760870567
 30
0.0
 10
-5.298186858393306
 20
-3.040495242002236
 30
0.0
 10
-5.30555004712778
 20
-3.058877517580981
 30
0.0
 10
-5.313894676167905
 20
-3.077373119368814
 30
0.0
 10
-5.323742245462511
 20
-3.096346022904468
 30
0.0
 10
-5.334331175715218
 20
-3.113551635510587
 30
0.0
 10
-5.345433790280763
 20
-3.128813154414614
 30
0.0
 10
-5.357551941534126
 20
-3.143119126276983
 30
0.0
 10
-5.368762581590289
 20
-3.154026198017787
 30
0.0
 10
-5.379586661348296
 20
-3.163057531892263
 30
0.0
 10
-5.388593551921815
 20
-3.169805326024345
 30
0.0
 10
-5.396179920389698
 20
-3.174658532478872
 30
0.0
 10
-5.400202365661641
 20
-3.177014844314783
 30
0.0
  0
LINE
  5
AC4
330
18
100
AcDbEntity
  8
SK1
 48
0.004911
100
AcDbLine
 10
-4.486192000003625
 20
2.815242999999951
 30
0.0
 11
-4.545238000003648
 21
3.002602999999965
 31
0.0
  0
LINE
  5
AC5
330
18
100
AcDbEntity
  8
SK1
 48
0.004306
100
AcDbLine
 10
-5.233427000003644
 20
-2.838084000000037
 30
0.0
 11
-5.285155000003642
 21
-3.002359000000011
 31
0.0
  0
LINE
  5
AC6
330
18
100
AcDbEntity
  8
SK1
 48
0.008131
100
AcDbLine
 10
-4.030179000003641
 20
2.77014299999996
 30
0.0
 11
-4.35543400000364
 21
2.770281000000009
 31
0.0
  0
ARC
  5
AC7
330
18
100
AcDbEntity
  8
SK1
100
AcDbCircle
 10
-4.357748000003622
 20
2.940764000000001
 30
0.0
 40
0.170283
100
AcDbArc
 50
216.882907999999
 51
270.7776949999995
  0
LINE
  5
AC8
330
18
100
AcDbEntity
  8
SK1
 48
0.002531
100
AcDbLine
 10
-6.059643000003632
 20
-3.002882000000056
 30
0.0
 11
-6.090185000003629
 21
-2.906339000000057
 31
0.0
  0
LINE
  5
AC9
330
18
100
AcDbEntity
  8
SK1
 48
0.007855
100
AcDbLine
 10
-5.510270000003627
 20
2.770307999999943
 30
0.0
 11
-5.82445000000365
 21
2.770572999999955
 31
0.0
  0
LINE
  5
ACA
330
18
100
AcDbEntity
  8
SK1
 48
0.008129
100
AcDbLine
 10
-4.770203000003646
 20
-2.769948000000055
 30
0.0
 11
-5.095366000003648
 21
-2.770218000000056
 31
0.0
  0
ARC
  5
ACB
330
18
100
AcDbEntity
  8
SK1
100
AcDbCircle
 10
-5.099045000003625
 20
-2.937968000000012
 30
0.0
 40
0.167429
100
AcDbArc
 50
88.76016699999977
 51
145.5046439999985
  0
LINE
  5
ACC
330
18
100
AcDbEntity
  8
SK1
 48
0.002391
100
AcDbLine
 10
-6.090185000003629
 20
-2.906339000000057
 30
0.0
 11
-6.119034000003638
 21
-2.815160000000048
 31
0.0
  0
ARC
  5
ACD
330
18
100
AcDbEntity
  8
SK1
100
AcDbCircle
 10
-6.247143000003632
 20
-2.939728999999998
 30
0.0
 40
0.169685
100
AcDbArc
 50
36.86588599999954
 51
91.03464799999953
  0
LINE
  5
ACE
330
18
100
AcDbEntity
  8
SK1
 48
0.002077
100
AcDbLine
 10
-6.569726000003638
 20
-2.769454000000052
 30
0.0
 11
-6.650007000003625
 21
-2.748032000000023
 31
0.0
  0
LINE
  5
ACF
330
18
100
AcDbEntity
  8
SK1
 48
0.021235
100
AcDbLine
 10
-5.829811000003642
 20
2.769437999999979
 30
0.0
 11
-6.650135000003642
 21
2.549089999999976
 31
0.0
  0
LINE
  5
AD0
330
18
100
AcDbEntity
  8
SK1
 48
0.007853
100
AcDbLine
 10
-6.250279000003643
 20
-2.770147000000008
 30
0.0
 11
-6.564414000003638
 21
-2.770410000000024
 31
0.0
  0
ARC
  5
AD1
330
18
100
AcDbEntity
  8
1
100
AcDbCircle
 10
0.0749999999963507
 20
4.706102999999983
 30
0.0
 40
0.285
100
AcDbArc
 50
269.9999990000002
 51
0.0
  0
ARC
  5
AD2
330
18
100
AcDbEntity
  8
1
100
AcDbCircle
 10
0.0749999999963507
 20
-4.706103000000041
 30
0.0
 40
0.285
100
AcDbArc
 50
50.55008999999991
 51
89.99996200000039
  0
ARC
  5
AD3
330
18
100
AcDbEntity
  8
1
100
AcDbCircle
 10
0.0750009999963766
 20
4.171093999999982
 30
0.0
 40
0.250009
100
AcDbArc
 50
90.00030399999998
 51
107.4572989999991
  0
ARC
  5
AD4
330
18
100
AcDbEntity
  8
1
100
AcDbCircle
 10
0.0750009999963766
 20
-4.171094000000039
 30
0.0
 40
0.250009
100
AcDbArc
 50
252.5427010000009
 51
269.999696
  0
LINE
  5
AD5
330
18
100
AcDbEntity
  8
1
 48
0.030717
100
AcDbLine
 10
1.51433099999636
 20
7.38110499999999
 30
0.0
 11
0.2856519999963609
 21
7.38110499999999
 31
0.0
  0
LINE
  5
AD6
330
18
100
AcDbEntity
  8
1
 48
0.009973
100
AcDbLine
 10
0.1507449999963626
 20
6.79775699999999
 30
0.0
 11
0.2097089999963657
 21
7.192291000000011
 31
0.0
  0
LINE
  5
AD7
330
18
100
AcDbEntity
  8
1
 48
0.009973
100
AcDbLine
 10
1.649254999996371
 20
6.79775699999999
 30
0.0
 11
1.59028699999635
 21
7.192291000000011
 31
0.0
  0
LINE
  5
AD8
330
18
100
AcDbEntity
  8
1
 48
0.027565
100
AcDbLine
 10
1.649982999996353
 20
-0.1583570000000236
 30
0.0
 11
1.590371999996364
 21
-1.259338000000011
 31
0.0
  0
LINE
  5
B24
330
18
100
AcDbEntity
  8
1
 48
0.163091
100
AcDbLine
 10
-0.000000000003638
 20
0.0
 30
0.0
 11
-0.000000000003638
 21
-2.114069000000029
 31
0.0
  0
LINE
  5
B27
330
18
100
AcDbEntity
  8
1
 48
0.163517
100
AcDbLine
 10
0.0749999999963507
 20
-0.0000000000000568
 30
0.0
 11
0.0749999999963507
 21
4.421102999999958
 31
0.0
  0
LINE
  5
B28
330
18
100
AcDbEntity
  8
SK4
 48
0.201703
100
AcDbLine
 10
-0.000000000003638
 20
-0.0000000000000568
 30
0.0
 11
-7.504050680923397
 21
-0.0000000000000568
 31
0.0
  0
INSERT
  5
B41
330
18
100
AcDbEntity
  8
0
100
AcDbBlockReference
  2
CERO_POINT
 10
-0.0067920249882407
 20
0.0
 30
0.0
 41
0.9245330557237076
 42
0.9245330557237076
 43
0.9245330557237076
  0
DIMENSION
  5
BA8
102
{ACAD_XDICTIONARY
360
BB6
102
}
102
{ACAD_REACTORS
330
BC1
102
}
330
18
100
AcDbEntity
  8
2
100
AcDbDimension
  2
*D3
 10
1.649950999996376
 20
21.76775419459568
 30
0.0
 11
11.35541480885091
 21
24.2042440048557
 31
0.0
 70
    32
 71
     5
 42
1.499902000000018
  3
ISO-25
100
AcDbAlignedDimension
 13
0.1500489999963577
 23
6.785705999999947
 33
0.0
 14
1.649950999996375
 24
6.785702999999953
 34
0.0
100
AcDbRotatedDimension
1001
ACAD
1000
DSTYLE
1002
{
1070
   140
1040
3.5
1002
}
  0
LINE
  5
C2D
330
18
100
AcDbEntity
  8
INFTOTAL
100
AcDbLine
 10
-8.185009683463704
 20
-36.48138529103813
 30
0.0
 11
39.46192568969173
 21
-36.48138529103813
 31
0.0
  0
LINE
  5
C2E
330
18
100
AcDbEntity
  8
INFTOTAL
100
AcDbLine
 10
39.46192568969173
 20
-36.48138529103813
 30
0.0
 11
39.46192568969173
 21
-7.390416279993132
 31
0.0
  0
LINE
  5
C2F
330
18
100
AcDbEntity
  8
INFTOTAL
100
AcDbLine
 10
15.54721064579007
 20
32.85710269673129
 30
0.0
 11
-34.74616815966693
 21
32.85710269673129
 31
0.0
  0
LINE
  5
C30
330
18
100
AcDbEntity
  8
INFTOTAL
100
AcDbLine
 10
-34.74616815966693
 20
32.85710269673129
 30
0.0
 11
-34.74616815966693
 21
2.291474877089264
 31
0.0
  0
DIMENSION
  5
E99
330
18
100
AcDbEntity
  8
2
100
AcDbDimension
  2
*D5
 10
1.549805999996364
 20
7.750275737523193
 30
0.0
 11
14.11201277787036
 21
13.01055355320647
 31
0.0
 70
   164
 71
     5
 42
0.0998980000000023
  3
ISO-25
100
AcDbRadialDimension
 15
1.641951620876564
 25
7.788860643336255
 35
0.0
 40
0.0
1001
ACAD_DSTYLE_DIMRADIAL_EXTENSION
1070
   387
1070
     1
1070
   388
1040
6.234925836351221
1070
   390
1040
1.55449461996871
1001
ACAD
1000
DSTYLE
1002
{
1070
   140
1040
3.5
1002
}
  0
LWPOLYLINE
  5
13CD
102
{ACAD_REACTORS
330
16FB
102
}
330
18
100
AcDbEntity
  8
CUT
100
AcDbPolyline
 90
       16
 70
     1
 43
0.0
 10
1.601728530190154
 20
5.556064296277861
 10
1.602489796032459
 20
5.849180937408879
 10
1.60791031330835
 20
6.143256479772951
 10
1.649766368220028
 20
7.743548154995098
 10
1.646959070367215
 20
7.773532807878591
 42
0.3288887056924608
 10
1.556280029653378
 20
7.849963737523192
 10
0.2434499703393487
 20
7.849963737523192
 42
0.2779277016331125
 10
0.1587735476719919
 20
7.791156117231096
 10
0.1499414853443488
 20
7.74439666329441
 10
0.1903551045566037
 20
6.197458735204067
 42
-0.045783242435759
 10
0.2361248661026665
 20
6.172183770645307
 10
0.2733225339638792
 20
6.142122990842802
 42
-0.1612384263394408
 10
0.3559423686065859
 20
5.985933660862407
 10
0.3598649999963634
 20
5.938468021966874
 10
0.3598649999963634
 20
5.192950737523193
 10
1.536779357731129
 20
5.192950737523193
  0
LWPOLYLINE
  5
1422
330
18
100
AcDbEntity
  8
NOCUT
100
AcDbPolyline
 90
       50
 70
     1
 43
0.0
 10
1.452603587418279
 20
4.752673263624291
 10
1.451838015112014
 20
4.75000088197008
 10
1.45116908389712
 20
4.74792020309007
 10
1.450597104833581
 20
4.74643293008923
 10
1.450122314105575
 20
4.745540207045825
 10
1.449751450906885
 20
4.745247791602643
 10
1.449751450906885
 20
-0.0000000000001137
 10
-0.000000000003638
 20
-0.0000000000000568
 10
-0.000000000003638
 20
4.409587884874325
 42
-0.0381032347647313
 10
0.037060209623256
 20
4.418207327254571
 10
0.0750031946625285
 20
4.421103268743983
 42
0.4142104173154796
 10
0.3599999999963472
 20
4.70610313436461
 10
0.359999999996333
 20
4.745242999999915
 10
0.359999999996333
 20
5.192986999999915
 10
1.536913919312141
 20
5.192986999999915
 10
1.533354321671871
 20
5.173524723073742
 10
1.529847758941464
 20
5.154366864541346
 10
1.526395306092616
 20
5.135520746583964
 10
1.522998473004918
 20
5.116996116749167
 10
1.519658786308843
 20
5.098802858012271
 10
1.516377786541345
 20
5.080950969579938
 10
1.513157025301474
 20
5.06345054769376
 10
1.509998062405967
 20
5.046311766433853
 10
1.506902463044843
 20
5.029544858522458
 10
1.503871794937011
 20
5.013160096127528
 10
1.500907625485879
 20
4.997167771666322
 10
1.498011518934928
 20
4.981578178609002
 10
1.49518503352334
 20
4.966401592282213
 10
1.492429718641574
 20
4.951648250672706
 10
1.489747112175145
 20
4.937328336223433
 10
1.48713875050798
 20
4.923452023119787
 10
1.484606165752793
 20
4.910029450205382
 10
1.482150854701784
 20
4.897070546521534
 10
1.479774274422233
 20
4.884585001503253
 10
1.47747784058262
 20
4.872582249768733
 10
1.475262925778821
 20
4.861071455908891
 10
1.473130857860212
 20
4.850061499276828
 10
1.471082918255838
 20
4.839560958777377
 10
1.469120340300583
 20
4.829578097656578
 10
1.467244307561273
 20
4.8201208482912
 10
1.465455952162848
 20
4.811196796978236
 10
1.463756353114533
 20
4.802813168724423
 10
1.462146534635948
 20
4.794976812035724
 10
1.460627464483279
 20
4.787694183706863
 10
1.459200052275411
 20
4.780971333610798
 10
1.457865147820115
 20
4.774813889488259
 10
1.456623539440144
 20
4.769227041737226
 10
1.455475952299408
 20
4.764215528202451
 10
1.45442304672913
 20
4.759783618964955
 10
1.453465416554003
 20
4.755935101131541
  0
ATTDEF
  5
166E
330
18
100
AcDbEntity
  8
INFTEXT63
100
AcDbText
 10
-18.92887106644544
 20
-30.62992603562921
 30
0.0
 40
3.5
  1

 72
     1
 11
2.299871027721813
 21
-30.62992603562921
 31
0.0
100
AcDbAttributeDefinition
  3

  2
16T15715T6RP01
 70
     0
  0
DIMENSION
  5
16E4
102
{ACAD_XDICTIONARY
360
16F1
102
}
102
{ACAD_REACTORS
330
16FB
102
}
330
18
100
AcDbEntity
  8
0
100
AcDbDimension
  2
*D6
 10
17.93256139108075
 20
-7.849963737523311
 30
0.0
 11
15.44442014020232
 21
-18.34021321046779
 31
0.0
 70
    32
  1
%%C<>
 71
     5
 42
15.6999274750465
  3
ISO-25
100
AcDbAlignedDimension
 13
1.556280029653352
 23
7.849963737523193
 33
0.0
 14
1.556280029653355
 24
-7.849963737523307
 34
0.0
 50
90.0
100
AcDbRotatedDimension
1001
ACAD
1000
DSTYLE
1002
{
1070
   140
1040
3.5
1002
}
  0
ENDSEC
  0
SECTION
  2
OBJECTS
  0
DICTIONARY
  5
C
330
0
100
AcDbDictionary
281
     1
  3
ACAD_2007HEADERVARS_RT
350
18AF
  3
ACAD_CIP_PREVIOUS_PRODUCT_INFO
350
741
  3
ACAD_COLOR
350
387
  3
ACAD_DETAILVIEWSTYLE
350
14EB
  3
ACAD_GROUP
350
D
  3
ACAD_LAYOUT
350
301
  3
ACAD_MATERIAL
350
386
  3
ACAD_MLEADERSTYLE
350
43C
  3
ACAD_MLINESTYLE
350
E
  3
ACAD_PLOTSETTINGS
350
302
  3
ACAD_PLOTSTYLENAME
350
2FF
  3
ACAD_SCALELIST
350
41A
  3
ACAD_SECTIONVIEWSTYLE
350
14E9
  3
ACAD_TABLESTYLE
350
388
  3
ACAD_VISUALSTYLE
350
3F2
  3
ACDB_RECOMPOSE_DATA
350
18AD
  3
AcDbVariableDictionary
350
357
  3
AcmDictionary
350
76D
  3
AEC_PROPERTY_SET_DEFS
350
5CF
  3
AMG
350
743
  3
AMGSNAPSETTINGS
350
7F6
  3
ASE_INDEX_DICTIONARY
350
C31
  3
DWGPROPS
350
18AE
  0
DICTIONARY
  5
451
330
2
100
AcDbDictionary
280
     1
281
     1
  3
ACAD_LAYERFILTERS
360
6C6
  3
ACAD_LAYERSTATES
360
15D0
  3
ACLYDICTIONARY
360
6C5
  0
DICTIONARY
  5
1479
330
F
100
AcDbDictionary
280
     1
281
     1
  3
ADSK_XREC_LAYER_RECONCILED
360
147A
  0
DICTIONARY
  5
147B
330
23
100
AcDbDictionary
280
     1
281
     1
  3
ADSK_XREC_LAYER_RECONCILED
360
147C
  0
DICTIONARY
  5
147D
330
24
100
AcDbDictionary
280
     1
281
     1
  3
ADSK_XREC_LAYER_RECONCILED
360
147E
  0
DICTIONARY
  5
147F
330
25
100
AcDbDictionary
280
     1
281
     1
  3
ADSK_XREC_LAYER_RECONCILED
360
1480
  0
DICTIONARY
  5
1481
330
27
100
AcDbDictionary
280
     1
281
     1
  3
ADSK_XREC_LAYER_RECONCILED
360
1482
  0
DICTIONARY
  5
1483
330
2A
100
AcDbDictionary
280
     1
281
     1
  3
ADSK_XREC_LAYER_RECONCILED
360
1484
  0
DICTIONARY
  5
1485
330
2B
100
AcDbDictionary
280
     1
281
     1
  3
ADSK_XREC_LAYER_RECONCILED
360
1486
  0
DICTIONARY
  5
1487
330
2E
100
AcDbDictionary
280
     1
281
     1
  3
ADSK_XREC_LAYER_RECONCILED
360
1488
  0
DICTIONARY
  5
1489
330
375
100
AcDbDictionary
280
     1
281
     1
  3
ADSK_XREC_LAYER_RECONCILED
360
148A
  0
DICTIONARY
  5
148B
330
376
100
AcDbDictionary
280
     1
281
     1
  3
ADSK_XREC_LAYER_RECONCILED
360
148C
  0
DICTIONARY
  5
1495
330
49B
100
AcDbDictionary
280
     1
281
     1
  3
ADSK_XREC_LAYER_RECONCILED
360
1496
  0
DICTIONARY
  5
B25
330
18
100
AcDbDictionary
280
     1
281
     1
  3
ACAD_SORTENTS
360
B26
  0
DICTIONARY
  5
BB6
330
BA8
100
AcDbDictionary
280
     1
281
     1
  3
ACAD_DIMASSOC
360
BC1
  0
DICTIONARY
  5
16F1
330
16E4
100
AcDbDictionary
280
     1
281
     1
  3
ACAD_DIMASSOC
360
16FB
  0
DICTIONARY
  5
18AF
102
{ACAD_REACTORS
330
C
102
}
330
C
100
AcDbDictionary
281
     1
  3
DIMARCSYM
350
18B0
  3
DIMLTEX1
350
18B2
  3
DIMLTEX2
350
18B3
  3
DIMLTYPE
350
18B1
  0
XRECORD
  5
741
102
{ACAD_REACTORS
330
C
102
}
330
C
100
AcDbXrecord
280
     1
300
ACDLT
300
2015
300
ACDLT_F_S
  0
DICTIONARY
  5
387
102
{ACAD_REACTORS
330
C
102
}
330
C
100
AcDbDictionary
281
     1
  0
DICTIONARY
  5
14EB
102
{ACAD_REACTORS
330
C
102
}
330
C
100
AcDbDictionary
281
     1
  3
Metric50
350
14EC
  0
DICTIONARY
  5
D
102
{ACAD_REACTORS
330
C
102
}
330
C
100
AcDbDictionary
281
     1
  0
DICTIONARY
  5
301
102
{ACAD_REACTORS
330
C
102
}
330
C
100
AcDbDictionary
281
     1
  3
Layout1
350
33B
  3
Model
350
303
  0
DICTIONARY
  5
386
102
{ACAD_REACTORS
330
C
102
}
330
C
100
AcDbDictionary
281
     1
  3
ByBlock
350
3F0
  3
ByLayer
350
3EF
  3
Global
350
3F1
  0
DICTIONARY
  5
43C
102
{ACAD_REACTORS
330
C
102
}
330
C
100
AcDbDictionary
281
     1
  3
Standard
350
43D
  0
DICTIONARY
  5
E
102
{ACAD_REACTORS
330
C
102
}
330
C
100
AcDbDictionary
281
     1
  3
STANDARD
350
1B
  0
DICTIONARY
  5
302
102
{ACAD_REACTORS
330
C
102
}
330
C
100
AcDbDictionary
281
     1
  0
ACDBDICTIONARYWDFLT
  5
2FF
102
{ACAD_REACTORS
330
C
102
}
330
C
100
AcDbDictionary
281
     1
  3
Normal
350
300
100
AcDbDictionaryWithDefault
340
300
  0
DICTIONARY
  5
41A
102
{ACAD_REACTORS
330
C
102
}
330
C
100
AcDbDictionary
281
     1
  3
A0
350
41B
  3
A1
350
41C
  3
A2
350
41D
  3
A3
350
41E
  3
A4
350
41F
  3
A5
350
420
  3
A6
350
421
  3
A7
350
422
  3
A8
350
423
  3
A9
350
424
  3
B0
350
425
  3
B1
350
426
  3
B2
350
427
  3
B3
350
428
  3
B4
350
429
  3
B5
350
42A
  3
B6
350
42B
  3
B7
350
42C
  3
B8
350
42D
  3
B9
350
42E
  3
C0
350
42F
  3
C1
350
430
  3
C2
350
431
  3
C3
350
432
  3
C4
350
433
  3
C5
350
434
  3
C6
350
435
  3
C7
350
436
  3
C8
350
437
  3
C9
350
438
  3
D0
350
439
  3
D1
350
43A
  3
D2
350
43B
  0
DICTIONARY
  5
14E9
102
{ACAD_REACTORS
330
C
102
}
330
C
100
AcDbDictionary
281
     1
  3
Metric50
350
14EA
  0
DICTIONARY
  5
388
102
{ACAD_REACTORS
330
C
102
}
330
C
100
AcDbDictionary
281
     1
  3
Standard
350
389
  0
DICTIONARY
  5
3F2
102
{ACAD_REACTORS
330
C
102
}
330
C
100
AcDbDictionary
281
     1
  3
2dWireframe
350
3F8
  3
3D Hidden
350
3FA
  3
3dWireframe
350
3F9
  3
Basic
350
3F7
  3
Brighten
350
3FE
  3
ColorChange
350
402
  3
Conceptual
350
3FB
  3
Dim
350
3FD
  3
EdgeColorOff
350
73A
  3
Facepattern
350
401
  3
Flat
350
3F3
  3
FlatWithEdges
350
3F4
  3
Gouraud
350
3F5
  3
GouraudWithEdges
350
3F6
  3
Hidden
350
732
  3
JitterOff
350
738
  3
Linepattern
350
400
  3
OverhangOff
350
739
  3
Realistic
350
3FC
  3
Shaded
350
737
  3
Shaded with edges
350
736
  3
Shades of Gray
350
733
  3
Sketchy
350
734
  3
Thicken
350
3FF
  3
Wireframe
350
731
  3
X-Ray
350
735
  0
XRECORD
  5
18AD
102
{ACAD_REACTORS
330
C
102
}
330
C
100
AcDbXrecord
280
     1
 90
        1
330
389
  0
DICTIONARY
  5
357
102
{ACAD_REACTORS
330
C
102
}
330
C
100
AcDbDictionary
281
     1
  3
CANNOSCALE
350
449
  3
CMLEADERSTYLE
350
447
  3
CTABLESTYLE
350
38E
  3
CVIEWDETAILSTYLE
350
166F
  3
CVIEWSECTIONSTYLE
350
1670
  3
DIMASSOC
350
359
  3
HIDETEXT
350
358
  3
INDEXCTL
350
1498
  3
LAYEREVAL
350
7AE
  3
LAYERNOTIFY
350
7AF
  3
LIGHTINGUNITS
350
44A
  3
MSLTSCALE
350
448
  3
SOLIDHIST
350
149A
  3
SORTENTS
350
1497
  3
XCLIPFRAME
350
18AB
  0
DICTIONARY
  5
76D
102
{ACAD_REACTORS
330
C
102
}
330
C
100
AcDbDictionary
281
     1
  3
AcmStdDictionary
350
76F
  0
DICTIONARY
  5
5CF
102
{ACAD_REACTORS
330
C
102
}
330
C
100
AcDbDictionary
281
     1
  0
DICTIONARY
  5
743
102
{ACAD_REACTORS
330
C
102
}
330
C
100
AcDbDictionary
281
     1
  0
DICTIONARY
  5
7F6
102
{ACAD_REACTORS
330
C
102
}
330
C
100
AcDbDictionary
281
     1
  0
DICTIONARY
  5
C31
102
{ACAD_REACTORS
330
C
102
}
330
C
100
AcDbDictionary
281
     1
  3
ASEBlockHierarchyIndexRecord
350
C32
1001
DCO15
1040
1761450609.869
  0
XRECORD
  5
18AE
102
{ACAD_REACTORS
330
C
102
}
330
C
100
AcDbXrecord
280
     1
  1
DWGPROPS COOKIE
  2

  3

  4

  6

  7

  8
kamerka
  9

300
=
301
=
302
=
303
=
304
=
305
=
306
=
307
=
308
=
309
=
 40
0.0570233333333333
 41
2456190.233617871
 42
2457350.43057404
  1

 90
        0
  0
DICTIONARY
  5
6C6
102
{ACAD_REACTORS
330
451
102
}
330
451
100
AcDbDictionary
281
     1
  0
DICTIONARY
  5
15D0
102
{ACAD_REACTORS
330
451
102
}
330
451
100
AcDbDictionary
281
     1
  0
DICTIONARY
  5
6C5
102
{ACAD_REACTORS
330
451
102
}
330
451
100
AcDbDictionary
281
     1
1001
ACAD
1000
<All
  0
XRECORD
  5
147A
102
{ACAD_REACTORS
330
1479
102
}
330
1479
100
AcDbXrecord
280
     1
290
     1
  0
XRECORD
  5
147C
102
{ACAD_REACTORS
330
147B
102
}
330
147B
100
AcDbXrecord
280
     1
290
     1
  0
XRECORD
  5
147E
102
{ACAD_REACTORS
330
147D
102
}
330
147D
100
AcDbXrecord
280
     1
290
     1
  0
XRECORD
  5
1480
102
{ACAD_REACTORS
330
147F
102
}
330
147F
100
AcDbXrecord
280
     1
290
     1
  0
XRECORD
  5
1482
102
{ACAD_REACTORS
330
1481
102
}
330
1481
100
AcDbXrecord
280
     1
290
     1
  0
XRECORD
  5
1484
102
{ACAD_REACTORS
330
1483
102
}
330
1483
100
AcDbXrecord
280
     1
290
     1
  0
XRECORD
  5
1486
102
{ACAD_REACTORS
330
1485
102
}
330
1485
100
AcDbXrecord
280
     1
290
     1
  0
XRECORD
  5
1488
102
{ACAD_REACTORS
330
1487
102
}
330
1487
100
AcDbXrecord
280
     1
290
     1
  0
XRECORD
  5
148A
102
{ACAD_REACTORS
330
1489
102
}
330
1489
100
AcDbXrecord
280
     1
290
     1
  0
XRECORD
  5
148C
102
{ACAD_REACTORS
330
148B
102
}
330
148B
100
AcDbXrecord
280
     1
290
     1
  0
XRECORD
  5
1496
102
{ACAD_REACTORS
330
1495
102
}
330
1495
100
AcDbXrecord
280
     1
290
     1
  0
SORTENTSTABLE
  5
B26
102
{ACAD_REACTORS
330
B25
102
}
330
B25
100
AcDbSortentsTable
330
18
331
A0C
  5
A0D
331
A08
  5
A09
331
A47
  5
A48
331
9ED
  5
9EE
331
A04
  5
A05
331
A43
  5
A44
331
9E9
  5
9EA
331
A00
  5
A01
331
A7D
  5
A80
331
A79
  5
A7C
331
9CE
  5
9CF
331
9CA
  5
9CB
331
A75
  5
A78
331
AB4
  5
AB7
331
A71
  5
A74
331
AB0
  5
AB3
331
A3F
  5
A40
331
A3B
  5
A3C
331
9E5
  5
9E6
331
9FC
  5
9FD
331
9F8
  5
9F9
331
A37
  5
A38
331
9E1
  5
9E2
331
9DD
  5
9DE
331
A33
  5
A34
331
9D9
  5
9DA
331
9C6
  5
9C7
331
AAC
  5
AAF
331
9C2
  5
9C3
331
AA8
  5
AAB
331
A6D
  5
A70
331
AA4
  5
AA7
331
A69
  5
A6C
331
AA0
  5
AA3
331
A2F
  5
A30
331
A2B
  5
A2C
331
9D5
  5
9D6
331
9F4
  5
9F5
331
9F0
  5
9F1
331
A27
  5
A28
331
9D1
  5
9D2
331
A23
  5
A24
331
A65
  5
A68
331
A9C
  5
A9F
331
A98
  5
A9B
331
AD5
  5
AD8
331
A61
  5
A64
331
A5D
  5
A60
331
A94
  5
A97
331
AD1
  5
AD4
331
A59
  5
A5C
331
A90
  5
A93
331
ACD
  5
AD0
331
AC9
  5
ACC
331
B41
  5
B59
331
A1F
  5
A20
331
A1B
  5
A1C
331
A17
  5
A18
331
E99
  5
166B
331
A13
  5
A14
331
A55
  5
A56
331
A8C
  5
A8F
331
A88
  5
A8B
331
AC5
  5
AC8
331
A51
  5
A52
331
A4D
  5
A4E
331
A84
  5
A87
331
AC1
  5
AC4
331
A49
  5
A4A
331
A80
  5
A83
331
ABD
  5
AC0
331
AB9
  5
ABC
331
A0F
  5
A10
331
A0B
  5
A0C
331
A07
  5
A08
331
A46
  5
A47
331
9EC
  5
9ED
331
A03
  5
A04
331
A42
  5
A43
331
9E8
  5
9E9
331
A7C
  5
A7F
331
A78
  5
A7B
331
AB7
  5
ABA
331
9CD
  5
9CE
331
9C9
  5
9CA
331
A74
  5
A77
331
AB3
  5
AB6
331
A70
  5
A73
331
9FF
  5
A00
331
A3E
  5
A3F
331
A3A
  5
A3B
331
9E4
  5
9E5
331
9FB
  5
9FC
331
C2F
  5
1669
331
A36
  5
A37
331
9E0
  5
9E1
331
9DC
  5
9DD
331
A32
  5
A33
331
9D8
  5
9D9
331
9C5
  5
9C6
331
AAF
  5
AB2
331
AAB
  5
AAE
331
AA7
  5
AAA
331
166E
  5
165D
331
9BD
  5
9BD
331
A6C
  5
A6F
331
AA3
  5
AA6
331
A68
  5
A6B
331
AD8
  5
ADB
331
1422
  5
166D
331
9F7
  5
9F8
331
A2E
  5
A2F
331
A2A
  5
A2B
331
9D4
  5
9D5
331
9F3
  5
9F4
331
A26
  5
A27
331
9D0
  5
9D1
331
B24
  5
A5A
331
A22
  5
A23
331
A9F
  5
AA2
331
A9B
  5
A9E
331
A64
  5
A67
331
A97
  5
A9A
331
AD4
  5
AD7
331
A60
  5
A63
331
A5C
  5
A5F
331
A93
  5
A96
331
AD0
  5
AD3
331
A58
  5
A5B
331
ACC
  5
ACF
331
AC8
  5
ACB
331
A1E
  5
A1F
331
A1A
  5
A1B
331
A16
  5
A17
331
A12
  5
A13
331
A8F
  5
A92
331
A54
  5
A55
331
A8B
  5
A8E
331
A87
  5
A8A
331
AC4
  5
AC7
331
A50
  5
A51
331
A4C
  5
A4D
331
A83
  5
A86
331
AC0
  5
AC3
331
A48
  5
A49
331
ABC
  5
ABF
331
AB8
  5
ABB
331
A0E
  5
A0F
331
A0A
  5
A0B
331
A06
  5
A07
331
A45
  5
A46
331
BA8
  5
1664
331
9EF
  5
9F0
331
9EB
  5
9EC
331
A02
  5
A03
331
A41
  5
A42
331
A7F
  5
A82
331
A7B
  5
A7E
331
9CC
  5
9CD
331
A77
  5
A7A
331
AB6
  5
AB9
331
9C8
  5
9C9
331
A73
  5
A76
331
AB2
  5
AB5
331
B28
  5
9BF
331
A3D
  5
A3E
331
9E7
  5
9E8
331
9FE
  5
9FF
331
A39
  5
A3A
331
9E3
  5
9E4
331
9FA
  5
9FB
331
C2E
  5
1668
331
A35
  5
A36
331
9DF
  5
9E0
331
9DB
  5
9DC
331
A31
  5
A32
331
9C4
  5
9C5
331
AAE
  5
AB1
331
AAA
  5
AAD
331
A6F
  5
A72
331
AA6
  5
AA9
331
A6B
  5
A6E
331
AA2
  5
AA5
331
9D7
  5
9D8
331
9F6
  5
9F7
331
A2D
  5
A2E
331
A29
  5
A2A
331
9D3
  5
9D4
331
9F2
  5
9F3
331
A25
  5
A26
331
B27
  5
A57
331
A21
  5
A22
331
A67
  5
A6A
331
A9E
  5
AA1
331
A9A
  5
A9D
331
AD7
  5
ADA
331
A63
  5
A66
331
A5F
  5
A62
331
A96
  5
A99
331
AD3
  5
AD6
331
13CD
  5
166C
331
A5B
  5
A5E
331
A92
  5
A95
331
ACF
  5
AD2
331
ACB
  5
ACE
331
A1D
  5
A1E
331
A19
  5
A1A
331
A15
  5
A16
331
A11
  5
A12
331
A57
  5
A59
331
A8E
  5
A91
331
A8A
  5
A8D
331
AC7
  5
ACA
331
A53
  5
A54
331
A86
  5
A89
331
AC3
  5
AC6
331
A4F
  5
A50
331
A4B
  5
A4C
331
A82
  5
A85
331
ABF
  5
AC2
331
ABB
  5
ABE
331
A0D
  5
A0E
331
A09
  5
A0A
331
9EE
  5
9EF
331
A05
  5
A06
331
A44
  5
A45
331
9EA
  5
9EB
331
A01
  5
A02
331
A40
  5
A41
331
A7E
  5
A81
331
9CF
  5
9D0
331
A7A
  5
A7D
331
9CB
  5
9CC
331
A76
  5
A79
331
AB5
  5
AB8
331
A72
  5
A75
331
AB1
  5
AB4
331
A3C
  5
A3D
331
9E6
  5
9E7
331
9FD
  5
9FE
331
9F9
  5
9FA
331
A38
  5
A39
331
9E2
  5
9E3
331
C2D
  5
1667
331
A34
  5
A35
331
9DE
  5
9DF
331
9DA
  5
9DB
331
9C7
  5
9C8
331
A30
  5
A31
331
9C3
  5
9C4
331
AAD
  5
AB0
331
AA9
  5
AAC
331
9BF
  5
9C2
331
A6E
  5
A71
331
AA5
  5
AA8
331
A6A
  5
A6D
331
AA1
  5
AA4
331
A2C
  5
A2D
331
9D6
  5
9D7
331
9F5
  5
9F6
331
A28
  5
A29
331
9D2
  5
9D3
331
9F1
  5
9F2
331
A24
  5
A25
331
A20
  5
A21
331
A66
  5
A69
331
A9D
  5
AA0
331
A99
  5
A9C
331
AD6
  5
AD9
331
A62
  5
A65
331
A5E
  5
A61
331
A95
  5
A98
331
AD2
  5
AD5
331
A5A
  5
A5D
331
A91
  5
A94
331
ACE
  5
AD1
331
ACA
  5
ACD
331
C30
  5
166A
331
A1C
  5
A1D
331
A18
  5
A19
331
A14
  5
A15
331
A10
  5
A11
331
A56
  5
A58
331
A8D
  5
A90
331
A89
  5
A8C
331
AC6
  5
AC9
331
A52
  5
A53
331
A4E
  5
A4F
331
A85
  5
A88
331
AC2
  5
AC5
331
A4A
  5
A4B
331
A81
  5
A84
331
ABE
  5
AC1
331
ABA
  5
ABD
  0
DIMASSOC
  5
BC1
102
{ACAD_REACTORS
330
BB6
102
}
330
BB6
100
AcDbDimAssoc
330
BA8
 90
        3
 70
     0
 71
     0
  1
AcDbOsnapPointRef
 72
    13
331
A70
 73
     2
 91
        0
 40
0.0
 10
0.0
 20
0.0
 30
2.000000000000000E+50
 75
     0
  1
AcDbOsnapPointRef
 72
     1
331
A6C
 73
     2
 91
        0
 40
1.0
 10
0.0
 20
0.0
 30
2.000000000000000E+50
 75
     0
  0
DIMASSOC
  5
16FB
102
{ACAD_REACTORS
330
16F1
102
}
330
16F1
100
AcDbDimAssoc
330
16E4
 90
        1
 70
     0
 71
     0
  1
AcDbOsnapPointRef
 72
     6
331
13CD
 73
     2
 91
        6
 40
0.0
 10
0.0
 20
0.0
 30
0.0
332
13CD
 74
     2
 92
        5
 75
     0
  0
XRECORD
  5
18B0
102
{ACAD_REACTORS
330
18AF
102
}
330
18AF
100
AcDbXrecord
280
     1
 70
     1
  0
XRECORD
  5
18B2
102
{ACAD_REACTORS
330
18AF
102
}
330
18AF
100
AcDbXrecord
280
     1
340
12
  0
XRECORD
  5
18B3
102
{ACAD_REACTORS
330
18AF
102
}
330
18AF
100
AcDbXrecord
280
     1
340
12
  0
XRECORD
  5
18B1
102
{ACAD_REACTORS
330
18AF
102
}
330
18AF
100
AcDbXrecord
280
     1
340
12
  0
ACDBDETAILVIEWSTYLE
  5
14EC
102
{ACAD_XDICTIONARY
360
18F1
102
}
102
{ACAD_REACTORS
330
14EB
102
}
330
14EB
100
AcDbModelDocViewStyle
 70
     0
  3
Metric50
290
     0
100
AcDbDetailViewStyle
 70
     0
 71
     0
 90
        3
 71
     1
340
10
 40
5.0
340
0
 40
5.0
300

 40
0.0
280
     1
 71
     2
340
14
 90
       25
 71
     3
340
10
 40
5.0
 90
        0
 40
15.0
 90
        1
300
%<\AcVar ViewDetailId>% (%<\AcVar ViewScale \f "%sn">%)
 71
     4
340
14
 90
       25
340
14
 90
       25
280
     0
  0
LAYOUT
  5
33B
102
{ACAD_XDICTIONARY
360
18B6
102
}
102
{ACAD_REACTORS
330
301
102
}
330
301
100
AcDbPlotSettings
  1

  2
Lexmark Optra PS2
  4

  6

 40
0.0
 41
0.0
 42
0.0
 43
0.0
 44
0.0
 45
0.0
 46
0.0
 47
0.0
 48
0.0
 49
0.0
140
0.0
141
0.0
142
1.0
143
1.0
 70
   688
 72
     0
 73
     0
 74
     5
  7
monochrome.ctb
 75
    16
147
1.0
148
0.0
149
0.0
100
AcDbLayout
  1
Layout1
 70
     1
 71
     1
 10
0.0
 20
0.0
 11
12.0
 21
9.0
 12
0.0
 22
0.0
 32
0.0
 14
0.0
 24
0.0
 34
0.0
 15
0.0
 25
0.0
 35
0.0
146
0.0
 13
0.0
 23
0.0
 33
0.0
 16
1.0
 26
0.0
 36
0.0
 17
0.0
 27
1.0
 37
0.0
 76
     0
330
338
  0
LAYOUT
  5
303
102
{ACAD_XDICTIONARY
360
18B4
102
}
102
{ACAD_REACTORS
330
301
102
}
330
301
100
AcDbPlotSettings
  1

  2
Default Windows System Printer.pc3
  4
A4
  6

 40
6.805083274841307
 41
5.535083293914794
 42
6.974411010742187
 43
7.14373779296875
 44
209.9733276367186
 45
296.9259948730469
 46
67.83299579489725
 47
0.0
 48
0.0
 49
0.0
140
0.0
141
0.0
142
1.0
143
0.3604333568168785
 70
  3764
 72
     1
 73
     1
 74
     1
  7
monochrome.ctb
 75
     0
147
2.774437995504559
148
-82.35087775247029
149
-53.69369632994493
100
AcDbLayout
  1
Model
 70
     1
 71
     0
 10
0.0
 20
0.0
 11
12.0
 21
9.0
 12
0.0
 22
0.0
 32
0.0
 14
0.0
 24
0.0
 34
0.0
 15
0.0
 25
0.0
 35
0.0
146
0.0
 13
0.0
 23
0.0
 33
0.0
 16
1.0
 26
0.0
 36
0.0
 17
0.0
 27
1.0
 37
0.0
 76
     0
330
18
331
3ED
1001
ACAD_PSEXT
1000
Default Windows System Printer.pc3
1000
Lexmark Optra Rx
1000
Lexmark Rx
1000
Erstellt von Lexmark Benutzerdefinierte Installation,Nov 13,2005,10:03
1070
     0
  0
MATERIAL
  5
3F0
102
{ACAD_XDICTIONARY
360
14A6
102
}
102
{ACAD_REACTORS
330
386
102
}
330
386
100
AcDbMaterial
  1
ByBlock
 73
     1
 78
     1
172
     1
176
     1
270
     1
274
     1
  0
MATERIAL
  5
3EF
102
{ACAD_XDICTIONARY
360
14A4
102
}
102
{ACAD_REACTORS
330
386
102
}
330
386
100
AcDbMaterial
  1
ByLayer
 73
     1
 78
     1
172
     1
176
     1
270
     1
274
     1
  0
MATERIAL
  5
3F1
102
{ACAD_XDICTIONARY
360
14A8
102
}
102
{ACAD_REACTORS
330
386
102
}
330
386
100
AcDbMaterial
  1
Global
 73
     1
 78
     1
172
     1
176
     1
270
     1
274
     1
  0
MLEADERSTYLE
  5
43D
102
{ACAD_XDICTIONARY
360
18D9
102
}
102
{ACAD_REACTORS
330
43C
102
}
330
43C
100
AcDbMLeaderStyle
170
     2
171
     1
172
     0
 90
        2
 40
0.0
 41
0.0
173
     1
 91
-1056964608
340
12
 92
       -2
290
     1
 42
2.0
291
     1
 43
0.36
  3
Standard
 44
4.0
300

342
10
174
     1
178
     6
175
     1
176
     0
 93
-1056964608
 45
4.0
292
     0
297
     0
 46
4.0
 94
-1056964608
 47
1.0
 49
1.0
140
1.0
293
     1
141
0.0
294
     1
177
     0
142
1.0
295
     0
296
     0
143
0.125
1001
ACAD_MLEADERVER
1070
     2
  0
MLINESTYLE
  5
1B
102
{ACAD_REACTORS
330
E
102
}
330
E
100
AcDbMlineStyle
  2
STANDARD
 70
     0
  3

 62
     0
 51
90.0
 52
90.0
 71
     2
 49
0.5
 62
   256
  6
BYLAYER
 49
-0.5
 62
   256
  6
BYLAYER
  0
ACDBPLACEHOLDER
  5
300
102
{ACAD_REACTORS
330
2FF
102
}
330
2FF
  0
SCALE
  5
41B
102
{ACAD_REACTORS
330
41A
102
}
330
41A
100
AcDbScale
 70
     0
300
1:1
140
1.0
141
1.0
290
     1
  0
SCALE
  5
41C
102
{ACAD_REACTORS
330
41A
102
}
330
41A
100
AcDbScale
 70
     0
300
1:2
140
1.0
141
2.0
290
     0
  0
SCALE
  5
41D
102
{ACAD_REACTORS
330
41A
102
}
330
41A
100
AcDbScale
 70
     0
300
1:4
140
1.0
141
4.0
290
     0
  0
SCALE
  5
41E
102
{ACAD_REACTORS
330
41A
102
}
330
41A
100
AcDbScale
 70
     0
300
1:5
140
1.0
141
5.0
290
     0
  0
SCALE
  5
41F
102
{ACAD_REACTORS
330
41A
102
}
330
41A
100
AcDbScale
 70
     0
300
1:8
140
1.0
141
8.0
290
     0
  0
SCALE
  5
420
102
{ACAD_REACTORS
330
41A
102
}
330
41A
100
AcDbScale
 70
     0
300
1:10
140
1.0
141
10.0
290
     0
  0
SCALE
  5
421
102
{ACAD_REACTORS
330
41A
102
}
330
41A
100
AcDbScale
 70
     0
300
1:16
140
1.0
141
16.0
290
     0
  0
SCALE
  5
422
102
{ACAD_REACTORS
330
41A
102
}
330
41A
100
AcDbScale
 70
     0
300
1:20
140
1.0
141
20.0
290
     0
  0
SCALE
  5
423
102
{ACAD_REACTORS
330
41A
102
}
330
41A
100
AcDbScale
 70
     0
300
1:30
140
1.0
141
30.0
290
     0
  0
SCALE
  5
424
102
{ACAD_REACTORS
330
41A
102
}
330
41A
100
AcDbScale
 70
     0
300
1:40
140
1.0
141
40.0
290
     0
  0
SCALE
  5
425
102
{ACAD_REACTORS
330
41A
102
}
330
41A
100
AcDbScale
 70
     0
300
1:50
140
1.0
141
50.0
290
     0
  0
SCALE
  5
426
102
{ACAD_REACTORS
330
41A
102
}
330
41A
100
AcDbScale
 70
     0
300
1:100
140
1.0
141
100.0
290
     0
  0
SCALE
  5
427
102
{ACAD_REACTORS
330
41A
102
}
330
41A
100
AcDbScale
 70
     0
300
2:1
140
2.0
141
1.0
290
     0
  0
SCALE
  5
428
102
{ACAD_REACTORS
330
41A
102
}
330
41A
100
AcDbScale
 70
     0
300
4:1
140
4.0
141
1.0
290
     0
  0
SCALE
  5
429
102
{ACAD_REACTORS
330
41A
102
}
330
41A
100
AcDbScale
 70
     0
300
8:1
140
8.0
141
1.0
290
     0
  0
SCALE
  5
42A
102
{ACAD_REACTORS
330
41A
102
}
330
41A
100
AcDbScale
 70
     0
300
10:1
140
10.0
141
1.0
290
     0
  0
SCALE
  5
42B
102
{ACAD_REACTORS
330
41A
102
}
330
41A
100
AcDbScale
 70
     0
300
100:1
140
100.0
141
1.0
290
     0
  0
SCALE
  5
42C
102
{ACAD_REACTORS
330
41A
102
}
330
41A
100
AcDbScale
 70
     0
300
1/128" = 1'-0"
140
0.0078125
141
12.0
290
     0
  0
SCALE
  5
42D
102
{ACAD_REACTORS
330
41A
102
}
330
41A
100
AcDbScale
 70
     0
300
1/64" = 1'-0"
140
0.015625
141
12.0
290
     0
  0
SCALE
  5
42E
102
{ACAD_REACTORS
330
41A
102
}
330
41A
100
AcDbScale
 70
     0
300
1/32" = 1'-0"
140
0.03125
141
12.0
290
     0
  0
SCALE
  5
42F
102
{ACAD_REACTORS
330
41A
102
}
330
41A
100
AcDbScale
 70
     0
300
1/16" = 1'-0"
140
0.0625
141
12.0
290
     0
  0
SCALE
  5
430
102
{ACAD_REACTORS
330
41A
102
}
330
41A
100
AcDbScale
 70
     0
300
3/32" = 1'-0"
140
0.09375
141
12.0
290
     0
  0
SCALE
  5
431
102
{ACAD_REACTORS
330
41A
102
}
330
41A
100
AcDbScale
 70
     0
300
1/8" = 1'-0"
140
0.125
141
12.0
290
     0
  0
SCALE
  5
432
102
{ACAD_REACTORS
330
41A
102
}
330
41A
100
AcDbScale
 70
     0
300
3/16" = 1'-0"
140
0.1875
141
12.0
290
     0
  0
SCALE
  5
433
102
{ACAD_REACTORS
330
41A
102
}
330
41A
100
AcDbScale
 70
     0
300
1/4" = 1'-0"
140
0.25
141
12.0
290
     0
  0
SCALE
  5
434
102
{ACAD_REACTORS
330
41A
102
}
330
41A
100
AcDbScale
 70
     0
300
3/8" = 1'-0"
140
0.375
141
12.0
290
     0
  0
SCALE
  5
435
102
{ACAD_REACTORS
330
41A
102
}
330
41A
100
AcDbScale
 70
     0
300
1/2" = 1'-0"
140
0.5
141
12.0
290
     0
  0
SCALE
  5
436
102
{ACAD_REACTORS
330
41A
102
}
330
41A
100
AcDbScale
 70
     0
300
3/4" = 1'-0"
140
0.75
141
12.0
290
     0
  0
SCALE
  5
437
102
{ACAD_REACTORS
330
41A
102
}
330
41A
100
AcDbScale
 70
     0
300
1" = 1'-0"
140
1.0
141
12.0
290
     0
  0
SCALE
  5
438
102
{ACAD_REACTORS
330
41A
102
}
330
41A
100
AcDbScale
 70
     0
300
1-1/2" = 1'-0"
140
1.5
141
12.0
290
     0
  0
SCALE
  5
439
102
{ACAD_REACTORS
330
41A
102
}
330
41A
100
AcDbScale
 70
     0
300
3" = 1'-0"
140
3.0
141
12.0
290
     0
  0
SCALE
  5
43A
102
{ACAD_REACTORS
330
41A
102
}
330
41A
100
AcDbScale
 70
     0
300
6" = 1'-0"
140
6.0
141
12.0
290
     0
  0
SCALE
  5
43B
102
{ACAD_REACTORS
330
41A
102
}
330
41A
100
AcDbScale
 70
     0
300
1'-0" = 1'-0"
140
12.0
141
12.0
290
     0
  0
ACDBSECTIONVIEWSTYLE
  5
14EA
102
{ACAD_XDICTIONARY
360
18EF
102
}
102
{ACAD_REACTORS
330
14E9
102
}
330
14E9
100
AcDbModelDocViewStyle
 70
     0
  3
Metric50
290
     0
100
AcDbSectionViewStyle
 70
     0
 71
     0
 90
      102
 71
     1
340
10
 40
5.0
340
0
340
0
 40
5.0
300
I, O, Q, S, X, Z
 40
10.0
 90
        0
 40
2.5
 90
        0
 71
     2
340
14
 90
       25
340
14
 90
       50
 40
5.0
 40
2.5
 40
5.0
 71
     3
340
10
 40
5.0
 90
        0
 40
15.0
 90
        1
300
%<\AcVar ViewSectionStartId>%-%<\AcVar ViewSectionEndId>% (%<\AcVar ViewScale \f "%sn">%)
 71
     4
300
ANSI31
 40
1.0
 90
        0
290
     0
290
     0
 90
        6
 40
0.0
 40
1.570796326794896
 40
0.2617993877991494
 40
1.308996938995747
 40
-0.2617993877991494
 40
1.832595714594045
  0
TABLESTYLE
  5
389
102
{ACAD_XDICTIONARY
360
444
102
}
102
{ACAD_REACTORS
330
388
102
}
330
388
100
AcDbTableStyle
  3
Standard
 70
     0
 71
     0
 40
1.5
 41
1.5
280
     0
281
     0
  7
STANDARD
140
4.5
170
     2
 62
     0
 63
     7
283
     0
274
    -2
284
     1
 64
     0
275
    -2
285
     1
 65
     0
276
    -2
286
     1
 66
     0
277
    -2
287
     1
 67
     0
278
    -2
288
     1
 68
     0
279
    -2
289
     1
 69
     0
  7
STANDARD
140
6.0
170
     5
 62
     0
 63
     7
283
     0
274
    -2
284
     1
 64
     0
275
    -2
285
     1
 65
     0
276
    -2
286
     1
 66
     0
277
    -2
287
     1
 67
     0
278
    -2
288
     1
 68
     0
279
    -2
289
     1
 69
     0
  7
STANDARD
140
4.5
170
     5
 62
     0
 63
     7
283
     0
274
    -2
284
     1
 64
     0
275
    -2
285
     1
 65
     0
276
    -2
286
     1
 66
     0
277
    -2
287
     1
 67
     0
278
    -2
288
     1
 68
     0
279
    -2
289
     1
 69
     0
  0
VISUALSTYLE
  5
3F8
102
{ACAD_XDICTIONARY
360
18C3
102
}
102
{ACAD_REACTORS
330
3F2
102
}
330
3F2
100
AcDbVisualStyle
  2

 70
     4
 71
     0
 72
     2
 73
     0
 90
        0
 40
-0.6
 41
-30.0
 62
     5
 63
     7
 74
     1
 91
        4
 64
     7
 65
   257
 75
     1
175
     1
 42
1.0
 92
        0
 66
   257
 43
1.0
 76
     1
 77
     6
 78
     2
 67
     7
 79
     5
170
     0
171
     0
290
     0
174
     0
 93
        1
 44
0.0
173
     0
291
     0
 45
0.0
1001
ACAD
1000
AcDbSavedByObjectVersion
1070
     0
  0
VISUALSTYLE
  5
3FA
102
{ACAD_XDICTIONARY
360
18C7
102
}
102
{ACAD_REACTORS
330
3F2
102
}
330
3F2
100
AcDbVisualStyle
  2

 70
     6
 71
     1
 72
     2
 73
     2
 90
        0
 40
-0.6
 41
-30.0
 62
     5
 63
     7
 74
     2
 91
        2
 64
     7
 65
   257
 75
     2
175
     1
 42
40.0
 92
        0
 66
   257
 43
1.0
 76
     1
 77
     6
 78
     2
 67
     7
 79
     3
170
     0
171
     0
290
     0
174
     0
 93
        1
 44
0.0
173
     0
291
     0
 45
0.0
1001
ACAD
1000
AcDbSavedByObjectVersion
1070
     0
  0
VISUALSTYLE
  5
3F9
102
{ACAD_XDICTIONARY
360
18C5
102
}
102
{ACAD_REACTORS
330
3F2
102
}
330
3F2
100
AcDbVisualStyle
  2

 70
     5
 71
     0
 72
     2
 73
     0
 90
        0
 40
-0.6
 41
-30.0
 62
     5
 63
     7
 74
     1
 91
        4
 64
     7
 65
   257
 75
     1
175
     1
 42
1.0
 92
        0
 66
   257
 43
1.0
 76
     1
 77
     6
 78
     2
 67
     7
 79
     5
170
     0
171
     0
290
     0
174
     0
 93
        1
 44
0.0
173
     0
291
     0
 45
0.0
1001
ACAD
1000
AcDbSavedByObjectVersion
1070
     0
  0
VISUALSTYLE
  5
3F7
102
{ACAD_XDICTIONARY
360
18C1
102
}
102
{ACAD_REACTORS
330
3F2
102
}
330
3F2
100
AcDbVisualStyle
  2

 70
     7
 71
     1
 72
     0
 73
     1
 90
        0
 40
-0.6
 41
-30.0
 62
     5
 63
     7
 74
     0
 91
        4
 64
     7
 65
   257
 75
     1
175
     1
 42
1.0
 92
        8
 66
     7
 43
1.0
 76
     1
 77
     6
 78
     2
 67
     7
 79
     5
170
     0
171
     0
290
     0
174
     0
 93
        1
 44
0.0
173
     0
291
     1
 45
0.0
1001
ACAD
1000
AcDbSavedByObjectVersion
1070
     0
  0
VISUALSTYLE
  5
3FE
102
{ACAD_XDICTIONARY
360
18CF
102
}
102
{ACAD_REACTORS
330
3F2
102
}
330
3F2
100
AcDbVisualStyle
  2

 70
    12
 71
     2
 72
     2
 73
     0
 90
        0
 40
-0.6
 41
-30.0
 62
     5
 63
     7
 74
     1
 91
        4
 64
     7
 65
   257
 75
     1
175
     1
 42
1.0
 92
        8
 66
     7
 43
1.0
 76
     1
 77
     6
 78
     2
 67
     7
 79
     5
170
     0
171
     0
290
     0
174
     0
 93
        1
 44
50.0
173
     0
291
     1
 45
0.0
1001
ACAD
1000
AcDbSavedByObjectVersion
1070
     0
  0
VISUALSTYLE
  5
402
102
{ACAD_XDICTIONARY
360
18D7
102
}
102
{ACAD_REACTORS
330
3F2
102
}
330
3F2
100
AcDbVisualStyle
  2

 70
    16
 71
     2
 72
     2
 73
     3
 90
        0
 40
-0.6
 41
-30.0
 62
     5
 63
     8
 74
     1
 91
        4
 64
     7
 65
   257
 75
     1
175
     1
 42
1.0
 92
        8
 66
     8
 43
1.0
 76
     1
 77
     6
 78
     2
 67
     7
 79
     5
170
     0
171
     0
290
     0
174
     0
 93
        1
 44
0.0
173
     0
291
     1
 45
0.0
1001
ACAD
1000
AcDbSavedByObjectVersion
1070
     0
  0
VISUALSTYLE
  5
3FB
102
{ACAD_XDICTIONARY
360
18C9
102
}
102
{ACAD_REACTORS
330
3F2
102
}
330
3F2
100
AcDbVisualStyle
  2

 70
     9
 71
     3
 72
     2
 73
     0
 90
        0
 40
-0.6
 41
-30.0
 62
     5
 63
     7
 74
     2
 91
        2
 64
     7
 65
   257
 75
     1
175
     1
 42
40.0
 92
        8
 66
     7
 43
1.0
 76
     1
 77
     6
 78
     2
 67
     7
 79
     3
170
     0
171
     0
290
     0
174
     0
 93
        1
 44
0.0
173
     0
291
     0
 45
0.0
1001
ACAD
1000
AcDbSavedByObjectVersion
1070
     0
  0
VISUALSTYLE
  5
3FD
102
{ACAD_XDICTIONARY
360
18CD
102
}
102
{ACAD_REACTORS
330
3F2
102
}
330
3F2
100
AcDbVisualStyle
  2

 70
    11
 71
     2
 72
     2
 73
     0
 90
        0
 40
-0.6
 41
-30.0
 62
     5
 63
     7
 74
     1
 91
        4
 64
     7
 65
   257
 75
     1
175
     1
 42
1.0
 92
        8
 66
     7
 43
1.0
 76
     1
 77
     6
 78
     2
 67
     7
 79
     5
170
     0
171
     0
290
     0
174
     0
 93
        1
 44
-50.0
173
     0
291
     1
 45
0.0
1001
ACAD
1000
AcDbSavedByObjectVersion
1070
     0
  0
VISUALSTYLE
  5
73A
102
{ACAD_XDICTIONARY
360
18ED
102
}
102
{ACAD_REACTORS
330
3F2
102
}
330
3F2
100
AcDbVisualStyle
  2

 70
    22
 71
     2
 72
     2
 73
     0
 90
        0
 40
-0.6
 41
-30.0
 62
     5
 63
     7
 74
     1
 91
        4
 64
     7
 65
   257
 75
     1
175
     1
 42
1.0
 92
        8
 66
     7
 43
1.0
 76
     1
 77
     6
 78
     2
 67
     7
 79
     5
170
     0
171
     0
290
     0
174
     0
 93
        1
 44
0.0
173
     0
291
     1
 45
0.0
1001
ACAD
1000
AcDbSavedByObjectVersion
1070
     0
  0
VISUALSTYLE
  5
401
102
{ACAD_XDICTIONARY
360
18D5
102
}
102
{ACAD_REACTORS
330
3F2
102
}
330
3F2
100
AcDbVisualStyle
  2

 70
    15
 71
     2
 72
     2
 73
     0
 90
        0
 40
-0.6
 41
-30.0
 62
     5
 63
     7
 74
     1
 91
        4
 64
     7
 65
   257
 75
     1
175
     1
 42
1.0
 92
        8
 66
     7
 43
1.0
 76
     1
 77
     6
 78
     2
 67
     7
 79
     5
170
     0
171
     0
290
     0
174
     0
 93
        1
 44
0.0
173
     0
291
     1
 45
0.0
1001
ACAD
1000
AcDbSavedByObjectVersion
1070
     0
  0
VISUALSTYLE
  5
3F3
102
{ACAD_XDICTIONARY
360
18B9
102
}
102
{ACAD_REACTORS
330
3F2
102
}
330
3F2
100
AcDbVisualStyle
  2

 70
     0
 71
     2
 72
     1
 73
     1
 90
        2
 40
-0.6
 41
30.0
 62
     5
 63
     7
 74
     0
 91
        4
 64
     7
 65
   257
 75
     1
175
     1
 42
1.0
 92
        8
 66
     7
 43
1.0
 76
     1
 77
     6
 78
     2
 67
     7
 79
     5
170
     0
171
     0
290
     0
174
     0
 93
       13
 44
0.0
173
     0
291
     1
 45
0.0
1001
ACAD
1000
AcDbSavedByObjectVersion
1070
     0
  0
VISUALSTYLE
  5
3F4
102
{ACAD_XDICTIONARY
360
18BB
102
}
102
{ACAD_REACTORS
330
3F2
102
}
330
3F2
100
AcDbVisualStyle
  2

 70
     1
 71
     2
 72
     1
 73
     1
 90
        2
 40
-0.6
 41
30.0
 62
     5
 63
     7
 74
     1
 91
        4
 64
     7
 65
   257
 75
     1
175
     1
 42
1.0
 92
        0
 66
   257
 43
1.0
 76
     1
 77
     6
 78
     2
 67
     7
 79
     5
170
     0
171
     0
290
     0
174
     0
 93
       13
 44
0.0
173
     0
291
     1
 45
0.0
1001
ACAD
1000
AcDbSavedByObjectVersion
1070
     0
  0
VISUALSTYLE
  5
3F5
102
{ACAD_XDICTIONARY
360
18BD
102
}
102
{ACAD_REACTORS
330
3F2
102
}
330
3F2
100
AcDbVisualStyle
  2

 70
     2
 71
     2
 72
     2
 73
     1
 90
        2
 40
-0.6
 41
30.0
 62
     5
 63
     7
 74
     0
 91
        4
 64
     7
 65
   257
 75
     1
175
     1
 42
1.0
 92
        0
 66
     7
 43
1.0
 76
     1
 77
     6
 78
     2
 67
     7
 79
     5
170
     0
171
     0
290
     0
174
     0
 93
       13
 44
0.0
173
     0
291
     1
 45
0.0
1001
ACAD
1000
AcDbSavedByObjectVersion
1070
     0
  0
VISUALSTYLE
  5
3F6
102
{ACAD_XDICTIONARY
360
18BF
102
}
102
{ACAD_REACTORS
330
3F2
102
}
330
3F2
100
AcDbVisualStyle
  2

 70
     3
 71
     2
 72
     2
 73
     1
 90
        2
 40
-0.6
 41
30.0
 62
     5
 63
     7
 74
     1
 91
        4
 64
     7
 65
   257
 75
     1
175
     1
 42
1.0
 92
        0
 66
   257
 43
1.0
 76
     1
 77
     6
 78
     2
 67
     7
 79
     5
170
     0
171
     0
290
     0
174
     0
 93
       13
 44
0.0
173
     0
291
     1
 45
0.0
1001
ACAD
1000
AcDbSavedByObjectVersion
1070
     0
  0
VISUALSTYLE
  5
732
102
{ACAD_XDICTIONARY
360
18DD
102
}
102
{ACAD_REACTORS
330
3F2
102
}
330
3F2
100
AcDbVisualStyle
  2

 70
     6
 71
     1
 72
     2
 73
     2
 90
        0
 40
-0.6
 41
-30.0
 62
     5
 63
     7
 74
     2
 91
        2
 64
     7
 65
   257
 75
     2
175
     1
 42
40.0
 92
        0
 66
   257
 43
1.0
 76
     1
 77
     6
 78
     2
 67
     7
 79
     3
170
     0
171
     0
290
     0
174
     0
 93
        1
 44
0.0
173
     0
291
     0
 45
0.0
1001
ACAD
1000
AcDbSavedByObjectVersion
1070
     0
  0
VISUALSTYLE
  5
738
102
{ACAD_XDICTIONARY
360
18E9
102
}
102
{ACAD_REACTORS
330
3F2
102
}
330
3F2
100
AcDbVisualStyle
  2

 70
    20
 71
     2
 72
     2
 73
     0
 90
        0
 40
-0.6
 41
-30.0
 62
     5
 63
     7
 74
     1
 91
        4
 64
     7
 65
   257
 75
     1
175
     1
 42
1.0
 92
       10
 66
     7
 43
1.0
 76
     1
 77
     6
 78
     2
 67
     7
 79
     5
170
     0
171
     0
290
     0
174
     0
 93
        1
 44
0.0
173
     0
291
     1
 45
0.0
1001
ACAD
1000
AcDbSavedByObjectVersion
1070
     0
  0
VISUALSTYLE
  5
400
102
{ACAD_XDICTIONARY
360
18D3
102
}
102
{ACAD_REACTORS
330
3F2
102
}
330
3F2
100
AcDbVisualStyle
  2

 70
    14
 71
     2
 72
     2
 73
     0
 90
        0
 40
-0.6
 41
-30.0
 62
     5
 63
     7
 74
     1
 91
        4
 64
     7
 65
   257
 75
     7
175
     7
 42
1.0
 92
        8
 66
     7
 43
1.0
 76
     1
 77
     6
 78
     2
 67
     7
 79
     5
170
     0
171
     0
290
     0
174
     0
 93
        1
 44
0.0
173
     0
291
     1
 45
0.0
1001
ACAD
1000
AcDbSavedByObjectVersion
1070
     0
  0
VISUALSTYLE
  5
739
102
{ACAD_XDICTIONARY
360
18EB
102
}
102
{ACAD_REACTORS
330
3F2
102
}
330
3F2
100
AcDbVisualStyle
  2

 70
    21
 71
     2
 72
     2
 73
     0
 90
        0
 40
-0.6
 41
-30.0
 62
     5
 63
     7
 74
     1
 91
        4
 64
     7
 65
   257
 75
     1
175
     1
 42
1.0
 92
        9
 66
     7
 43
1.0
 76
     1
 77
     6
 78
     2
 67
     7
 79
     5
170
     0
171
     0
290
     0
174
     0
 93
        1
 44
0.0
173
     0
291
     1
 45
0.0
1001
ACAD
1000
AcDbSavedByObjectVersion
1070
     0
  0
VISUALSTYLE
  5
3FC
102
{ACAD_XDICTIONARY
360
18CB
102
}
102
{ACAD_REACTORS
330
3F2
102
}
330
3F2
100
AcDbVisualStyle
  2

 70
     8
 71
     2
 72
     2
 73
     0
 90
        0
 40
-0.6
 41
-30.0
 62
     5
 63
     7
 74
     1
 91
        0
 64
     7
 65
   257
 75
     1
175
     1
 42
1.0
 92
        8
 66
     8
 43
1.0
 76
     1
 77
     6
 78
     2
 67
     7
 79
     5
170
     0
171
     0
290
     0
174
     0
 93
       13
 44
0.0
173
     0
291
     0
 45
0.0
1001
ACAD
1000
AcDbSavedByObjectVersion
1070
     0
  0
VISUALSTYLE
  5
737
102
{ACAD_XDICTIONARY
360
18E7
102
}
102
{ACAD_REACTORS
330
3F2
102
}
330
3F2
100
AcDbVisualStyle
  2

 70
    27
 71
     2
 72
     2
 73
     1
 90
        2
 40
-0.6
 41
30.0
 62
     5
 63
     7
 74
     0
 91
        4
 64
     7
 65
   257
 75
     1
175
     1
 42
1.0
 92
        8
 66
   257
 43
1.0
 76
     1
 77
     6
 78
     2
 67
     8
 79
     3
170
     0
171
     0
290
     0
174
     0
 93
        5
 44
0.0
173
     0
291
     0
 45
0.0
1001
ACAD
1000
AcDbSavedByObjectVersion
1070
     0
  0
VISUALSTYLE
  5
736
102
{ACAD_XDICTIONARY
360
18E5
102
}
102
{ACAD_REACTORS
330
3F2
102
}
330
3F2
100
AcDbVisualStyle
  2

 70
    26
 71
     2
 72
     2
 73
     1
 90
        2
 40
-0.6
 41
30.0
 62
     5
 63
     7
 74
     1
 91
       10
 64
     7
 65
   257
 75
     2
175
     1
 42
1.0
 92
        8
 66
   257
 43
1.0
 76
     1
 77
     6
 78
     2
 67
     7
 79
     3
170
     0
171
     0
290
     0
174
     0
 93
        5
 44
0.0
173
     0
291
     0
 45
0.0
1001
ACAD
1000
AcDbSavedByObjectVersion
1070
     0
  0
VISUALSTYLE
  5
733
102
{ACAD_XDICTIONARY
360
18DF
102
}
102
{ACAD_REACTORS
330
3F2
102
}
330
3F2
100
AcDbVisualStyle
  2

 70
    23
 71
     2
 72
     2
 73
     3
 90
        0
 40
-0.6
 41
-30.0
 62
     5
 63
     7
 74
     2
 91
        2
 64
     7
 65
     7
 75
     1
175
     1
 42
40.0
 92
        8
 66
     7
 43
1.0
 76
     1
 77
     6
 78
     2
 67
     7
 79
     3
170
     0
171
     0
290
     0
174
     0
 93
        1
 44
0.0
173
     0
291
     0
 45
0.0
1001
ACAD
1000
AcDbSavedByObjectVersion
1070
     0
  0
VISUALSTYLE
  5
734
102
{ACAD_XDICTIONARY
360
18E1
102
}
102
{ACAD_REACTORS
330
3F2
102
}
330
3F2
100
AcDbVisualStyle
  2

 70
    24
 71
     1
 72
     2
 73
     2
 90
        0
 40
-0.6
 41
-30.0
 62
     5
 63
     7
 74
     2
 91
        2
 64
     7
 65
     7
 75
     1
175
     1
 42
40.0
 92
       11
 66
     7
 43
1.0
 76
     1
 77
     6
 78
     2
 67
     7
 79
     6
170
     0
171
     0
290
     0
174
     0
 93
        1
 44
0.0
173
     0
291
     0
 45
0.0
1001
ACAD
1000
AcDbSavedByObjectVersion
1070
     0
  0
VISUALSTYLE
  5
3FF
102
{ACAD_XDICTIONARY
360
18D1
102
}
102
{ACAD_REACTORS
330
3F2
102
}
330
3F2
100
AcDbVisualStyle
  2

 70
    13
 71
     2
 72
     2
 73
     0
 90
        0
 40
-0.6
 41
-30.0
 62
     5
 63
     7
 74
     1
 91
        4
 64
     7
 65
   257
 75
     1
175
     1
 42
1.0
 92
       12
 66
     7
 43
1.0
 76
     1
 77
     6
 78
     2
 67
     7
 79
     5
170
     0
171
     0
290
     0
174
     0
 93
        1
 44
0.0
173
     0
291
     1
 45
0.0
1001
ACAD
1000
AcDbSavedByObjectVersion
1070
     0
  0
VISUALSTYLE
  5
731
102
{ACAD_XDICTIONARY
360
18DB
102
}
102
{ACAD_REACTORS
330
3F2
102
}
330
3F2
100
AcDbVisualStyle
  2

 70
     5
 71
     0
 72
     2
 73
     0
 90
        0
 40
-0.6
 41
-30.0
 62
     5
 63
     7
 74
     1
 91
        4
 64
     7
 65
   257
 75
     1
175
     1
 42
1.0
 92
        0
 66
   257
 43
1.0
 76
     1
 77
     6
 78
     2
 67
     7
 79
     3
170
     0
171
     0
290
     0
174
     0
 93
        1
 44
0.0
173
     0
291
     0
 45
0.0
1001
ACAD
1000
AcDbSavedByObjectVersion
1070
     0
  0
VISUALSTYLE
  5
735
102
{ACAD_XDICTIONARY
360
18E3
102
}
102
{ACAD_REACTORS
330
3F2
102
}
330
3F2
100
AcDbVisualStyle
  2

 70
    25
 71
     2
 72
     2
 73
     1
 90
        1
 40
0.5
 41
-30.0
 62
     5
 63
     7
 74
     1
 91
        0
 64
     7
 65
   257
 75
     1
175
     1
 42
1.0
 92
        8
 66
     7
 43
1.0
 76
     1
 77
     6
 78
     2
 67
     7
 79
     3
170
     0
171
     0
290
     0
174
     0
 93
       13
 44
0.0
173
     0
291
     0
 45
0.0
1001
ACAD
1000
AcDbSavedByObjectVersion
1070
     0
  0
DICTIONARYVAR
  5
449
102
{ACAD_REACTORS
330
357
102
}
330
357
100
DictionaryVariables
280
     0
  1
1:1
  0
DICTIONARYVAR
  5
447
102
{ACAD_REACTORS
330
357
102
}
330
357
100
DictionaryVariables
280
     0
  1
STANDARD
  0
DICTIONARYVAR
  5
38E
102
{ACAD_REACTORS
330
357
102
}
330
357
100
DictionaryVariables
280
     0
  1
STANDARD
  0
DICTIONARYVAR
  5
166F
102
{ACAD_REACTORS
330
357
102
}
330
357
100
DictionaryVariables
280
     0
  1
Metric50
  0
DICTIONARYVAR
  5
1670
102
{ACAD_REACTORS
330
357
102
}
330
357
100
DictionaryVariables
280
     0
  1
Metric50
  0
DICTIONARYVAR
  5
359
102
{ACAD_REACTORS
330
357
102
}
330
357
100
DictionaryVariables
280
     0
  1
2
  0
DICTIONARYVAR
  5
358
102
{ACAD_REACTORS
330
357
102
}
330
357
100
DictionaryVariables
280
     0
  1
1
  0
DICTIONARYVAR
  5
1498
102
{ACAD_REACTORS
330
357
102
}
330
357
100
DictionaryVariables
280
     0
  1
0
  0
DICTIONARYVAR
  5
7AE
102
{ACAD_REACTORS
330
357
102
}
330
357
100
DictionaryVariables
280
     0
  1
1
  0
DICTIONARYVAR
  5
7AF
102
{ACAD_REACTORS
330
357
102
}
330
357
100
DictionaryVariables
280
     0
  1
15
  0
DICTIONARYVAR
  5
44A
102
{ACAD_REACTORS
330
357
102
}
330
357
100
DictionaryVariables
280
     0
  1
0
  0
DICTIONARYVAR
  5
448
102
{ACAD_REACTORS
330
357
102
}
330
357
100
DictionaryVariables
280
     0
  1
0
  0
DICTIONARYVAR
  5
149A
102
{ACAD_REACTORS
330
357
102
}
330
357
100
DictionaryVariables
280
     0
  1
1
  0
DICTIONARYVAR
  5
1497
102
{ACAD_REACTORS
330
357
102
}
330
357
100
DictionaryVariables
280
     0
  1
127
  0
DICTIONARYVAR
  5
18AB
102
{ACAD_REACTORS
330
357
102
}
330
357
100
DictionaryVariables
280
     0
  1
2
  0
DICTIONARY
  5
76F
102
{ACAD_REACTORS
330
76D
102
}
330
76D
100
AcDbDictionary
281
     1
  0
XRECORD
  5
C32
102
{ACAD_REACTORS
330
C31
102
}
330
C31
100
AcDbXrecord
280
     1
330
B41
330
B55
330
96D
330
B3D
330
B48
330
D61
330
FFD
330
1266
  0
DICTIONARY
  5
18F1
330
14EC
100
AcDbDictionary
280
     1
281
     1
  3
ACAD_XREC_ROUNDTRIP
360
18F2
  0
DICTIONARY
  5
18B6
330
33B
100
AcDbDictionary
280
     1
281
     1
  3
ACAD_XREC_ROUNDTRIP
360
18B7
  0
DICTIONARY
  5
18B4
330
303
100
AcDbDictionary
280
     1
281
     1
  3
ACAD_XREC_ROUNDTRIP
360
18B5
  0
DICTIONARY
  5
14A6
330
3F0
100
AcDbDictionary
280
     1
281
     1
  3
ACAD_XREC_ROUNDTRIP
360
14A7
  0
DICTIONARY
  5
14A4
330
3EF
100
AcDbDictionary
280
     1
281
     1
  3
ACAD_XREC_ROUNDTRIP
360
14A5
  0
DICTIONARY
  5
14A8
330
3F1
100
AcDbDictionary
280
     1
281
     1
  3
ACAD_XREC_ROUNDTRIP
360
14A9
  0
DICTIONARY
  5
18D9
330
43D
100
AcDbDictionary
280
     1
281
     1
  3
ACAD_XREC_ROUNDTRIP
360
18DA
  0
DICTIONARY
  5
18EF
330
14EA
100
AcDbDictionary
280
     1
281
     1
  3
ACAD_XREC_ROUNDTRIP
360
18F0
  0
DICTIONARY
  5
444
330
389
100
AcDbDictionary
280
     1
281
     1
  3
ACAD_ROUNDTRIP_2008_TABLESTYLE_CELLSTYLEMAP
360
18AC
  3
ACAD_XREC_ROUNDTRIP
360
18B8
  0
DICTIONARY
  5
18C3
330
3F8
100
AcDbDictionary
280
     1
281
     1
  3
ACAD_XREC_ROUNDTRIP
360
18C4
  0
DICTIONARY
  5
18C7
330
3FA
100
AcDbDictionary
280
     1
281
     1
  3
ACAD_XREC_ROUNDTRIP
360
18C8
  0
DICTIONARY
  5
18C5
330
3F9
100
AcDbDictionary
280
     1
281
     1
  3
ACAD_XREC_ROUNDTRIP
360
18C6
  0
DICTIONARY
  5
18C1
330
3F7
100
AcDbDictionary
280
     1
281
     1
  3
ACAD_XREC_ROUNDTRIP
360
18C2
  0
DICTIONARY
  5
18CF
330
3FE
100
AcDbDictionary
280
     1
281
     1
  3
ACAD_XREC_ROUNDTRIP
360
18D0
  0
DICTIONARY
  5
18D7
330
402
100
AcDbDictionary
280
     1
281
     1
  3
ACAD_XREC_ROUNDTRIP
360
18D8
  0
DICTIONARY
  5
18C9
330
3FB
100
AcDbDictionary
280
     1
281
     1
  3
ACAD_XREC_ROUNDTRIP
360
18CA
  0
DICTIONARY
  5
18CD
330
3FD
100
AcDbDictionary
280
     1
281
     1
  3
ACAD_XREC_ROUNDTRIP
360
18CE
  0
DICTIONARY
  5
18ED
330
73A
100
AcDbDictionary
280
     1
281
     1
  3
ACAD_XREC_ROUNDTRIP
360
18EE
  0
DICTIONARY
  5
18D5
330
401
100
AcDbDictionary
280
     1
281
     1
  3
ACAD_XREC_ROUNDTRIP
360
18D6
  0
DICTIONARY
  5
18B9
330
3F3
100
AcDbDictionary
280
     1
281
     1
  3
ACAD_XREC_ROUNDTRIP
360
18BA
  0
DICTIONARY
  5
18BB
330
3F4
100
AcDbDictionary
280
     1
281
     1
  3
ACAD_XREC_ROUNDTRIP
360
18BC
  0
DICTIONARY
  5
18BD
330
3F5
100
AcDbDictionary
280
     1
281
     1
  3
ACAD_XREC_ROUNDTRIP
360
18BE
  0
DICTIONARY
  5
18BF
330
3F6
100
AcDbDictionary
280
     1
281
     1
  3
ACAD_XREC_ROUNDTRIP
360
18C0
  0
DICTIONARY
  5
18DD
330
732
100
AcDbDictionary
280
     1
281
     1
  3
ACAD_XREC_ROUNDTRIP
360
18DE
  0
DICTIONARY
  5
18E9
330
738
100
AcDbDictionary
280
     1
281
     1
  3
ACAD_XREC_ROUNDTRIP
360
18EA
  0
DICTIONARY
  5
18D3
330
400
100
AcDbDictionary
280
     1
281
     1
  3
ACAD_XREC_ROUNDTRIP
360
18D4
  0
DICTIONARY
  5
18EB
330
739
100
AcDbDictionary
280
     1
281
     1
  3
ACAD_XREC_ROUNDTRIP
360
18EC
  0
DICTIONARY
  5
18CB
330
3FC
100
AcDbDictionary
280
     1
281
     1
  3
ACAD_XREC_ROUNDTRIP
360
18CC
  0
DICTIONARY
  5
18E7
330
737
100
AcDbDictionary
280
     1
281
     1
  3
ACAD_XREC_ROUNDTRIP
360
18E8
  0
DICTIONARY
  5
18E5
330
736
100
AcDbDictionary
280
     1
281
     1
  3
ACAD_XREC_ROUNDTRIP
360
18E6
  0
DICTIONARY
  5
18DF
330
733
100
AcDbDictionary
280
     1
281
     1
  3
ACAD_XREC_ROUNDTRIP
360
18E0
  0
DICTIONARY
  5
18E1
330
734
100
AcDbDictionary
280
     1
281
     1
  3
ACAD_XREC_ROUNDTRIP
360
18E2
  0
DICTIONARY
  5
18D1
330
3FF
100
AcDbDictionary
280
     1
281
     1
  3
ACAD_XREC_ROUNDTRIP
360
18D2
  0
DICTIONARY
  5
18DB
330
731
100
AcDbDictionary
280
     1
281
     1
  3
ACAD_XREC_ROUNDTRIP
360
18DC
  0
DICTIONARY
  5
18E3
330
735
100
AcDbDictionary
280
     1
281
     1
  3
ACAD_XREC_ROUNDTRIP
360
18E4
  0
XRECORD
  5
18F2
102
{ACAD_REACTORS
330
18F1
102
}
330
18F1
100
AcDbXrecord
280
     1
102
DISPLAYNAME
  1
Metric50
102
FLAGS
 90
        0
  0
XRECORD
  5
18B7
102
{ACAD_REACTORS
330
18B6
102
}
330
18B6
100
AcDbXrecord
280
     1
102
SHADEPLOT
 70
     0
102
SHADEPLOTRESLEVEL
 70
     2
102
SHADEPLOTCUSTOMDPI
 70
   300
  0
XRECORD
  5
18B5
102
{ACAD_REACTORS
330
18B4
102
}
330
18B4
100
AcDbXrecord
280
     1
102
SHADEPLOT
 70
     1
102
SHADEPLOTRESLEVEL
 70
     2
102
SHADEPLOTCUSTOMDPI
 70
   300
  0
XRECORD
  5
14A7
102
{ACAD_REACTORS
330
14A6
102
}
330
14A6
100
AcDbXrecord
280
     1
102
MATERIAL
148
0.0
149
0.0
149
0.0
 93
        0
 94
      127
282
     0
 72
     1
 77
     1
171
     1
175
     1
179
     1
273
     0
  0
XRECORD
  5
14A5
102
{ACAD_REACTORS
330
14A4
102
}
330
14A4
100
AcDbXrecord
280
     1
102
MATERIAL
148
0.0
149
0.0
149
0.0
 93
        0
 94
      127
282
     0
 72
     1
 77
     1
171
     1
175
     1
179
     1
273
     0
  0
XRECORD
  5
14A9
102
{ACAD_REACTORS
330
14A8
102
}
330
14A8
100
AcDbXrecord
280
     1
102
MATERIAL
148
0.0
149
0.0
149
0.0
 93
        0
 94
      127
282
     0
 72
     1
 77
     1
171
     1
175
     1
179
     1
273
     0
  0
XRECORD
  5
18DA
102
{ACAD_REACTORS
330
18D9
102
}
330
18D9
100
AcDbXrecord
280
     1
102
ACAD_ROUNDTRIP_2012_MLEADER_STYLE
298
     1
  0
XRECORD
  5
18F0
102
{ACAD_REACTORS
330
18EF
102
}
330
18EF
100
AcDbXrecord
280
     1
102
DISPLAYNAME
  1
Metric50
102
FLAGS
 90
        0
  0
CELLSTYLEMAP
  5
18AC
102
{ACAD_REACTORS
330
444
102
}
330
444
100
AcDbCellStyleMap
 90
        3
300
CELLSTYLE
  1
TABLEFORMAT_BEGIN
 90
        5
170
     1
 91
        0
 92
    32768
 62
   257
 93
        1
300
CONTENTFORMAT
  1
CONTENTFORMAT_BEGIN
 90
        0
 91
        0
 92
        4
 93
        0
300

 40
0.0
140
1.0
 94
        5
 62
     0
340
10
144
6.0
309
CONTENTFORMAT_END
171
     1
301
MARGIN
  1
CELLMARGIN_BEGIN
 40
1.5
 40
1.5
 40
1.5
 40
1.5
 40
0.18
 40
0.18
309
CELLMARGIN_END
 94
        6
 95
        1
302
GRIDFORMAT
  1
GRIDFORMAT_BEGIN
 90
        0
 91
        1
 62
     0
 92
       -2
340
0
 93
        0
 40
0.045
309
GRIDFORMAT_END
 95
        2
302
GRIDFORMAT
  1
GRIDFORMAT_BEGIN
 90
        0
 91
        1
 62
     0
 92
       -2
340
0
 93
        0
 40
0.045
309
GRIDFORMAT_END
 95
        4
302
GRIDFORMAT
  1
GRIDFORMAT_BEGIN
 90
        0
 91
        1
 62
     0
 92
       -2
340
0
 93
        0
 40
0.045
309
GRIDFORMAT_END
 95
        8
302
GRIDFORMAT
  1
GRIDFORMAT_BEGIN
 90
        0
 91
        1
 62
     0
 92
       -2
340
0
 93
        0
 40
0.045
309
GRIDFORMAT_END
 95
       16
302
GRIDFORMAT
  1
GRIDFORMAT_BEGIN
 90
        0
 91
        1
 62
     0
 92
       -2
340
0
 93
        0
 40
0.045
309
GRIDFORMAT_END
 95
       32
302
GRIDFORMAT
  1
GRIDFORMAT_BEGIN
 90
        0
 91
        1
 62
     0
 92
       -2
340
0
 93
        0
 40
0.045
309
GRIDFORMAT_END
309
TABLEFORMAT_END
  1
CELLSTYLE_BEGIN
 90
        1
 91
        1
300
_TITLE
309
CELLSTYLE_END
300
CELLSTYLE
  1
TABLEFORMAT_BEGIN
 90
        5
170
     1
 91
        0
 92
        0
 62
   257
 93
        1
300
CONTENTFORMAT
  1
CONTENTFORMAT_BEGIN
 90
        0
 91
        0
 92
        4
 93
        0
300

 40
0.0
140
1.0
 94
        5
 62
     0
340
10
144
4.5
309
CONTENTFORMAT_END
171
     1
301
MARGIN
  1
CELLMARGIN_BEGIN
 40
1.5
 40
1.5
 40
1.5
 40
1.5
 40
0.18
 40
0.18
309
CELLMARGIN_END
 94
        6
 95
        1
302
GRIDFORMAT
  1
GRIDFORMAT_BEGIN
 90
        0
 91
        1
 62
     0
 92
       -2
340
0
 93
        0
 40
0.045
309
GRIDFORMAT_END
 95
        2
302
GRIDFORMAT
  1
GRIDFORMAT_BEGIN
 90
        0
 91
        1
 62
     0
 92
       -2
340
0
 93
        0
 40
0.045
309
GRIDFORMAT_END
 95
        4
302
GRIDFORMAT
  1
GRIDFORMAT_BEGIN
 90
        0
 91
        1
 62
     0
 92
       -2
340
0
 93
        0
 40
0.045
309
GRIDFORMAT_END
 95
        8
302
GRIDFORMAT
  1
GRIDFORMAT_BEGIN
 90
        0
 91
        1
 62
     0
 92
       -2
340
0
 93
        0
 40
0.045
309
GRIDFORMAT_END
 95
       16
302
GRIDFORMAT
  1
GRIDFORMAT_BEGIN
 90
        0
 91
        1
 62
     0
 92
       -2
340
0
 93
        0
 40
0.045
309
GRIDFORMAT_END
 95
       32
302
GRIDFORMAT
  1
GRIDFORMAT_BEGIN
 90
        0
 91
        1
 62
     0
 92
       -2
340
0
 93
        0
 40
0.045
309
GRIDFORMAT_END
309
TABLEFORMAT_END
  1
CELLSTYLE_BEGIN
 90
        2
 91
        1
300
_HEADER
309
CELLSTYLE_END
300
CELLSTYLE
  1
TABLEFORMAT_BEGIN
 90
        5
170
     1
 91
        0
 92
        0
 62
   257
 93
        1
300
CONTENTFORMAT
  1
CONTENTFORMAT_BEGIN
 90
        0
 91
        0
 92
        4
 93
        0
300

 40
0.0
140
1.0
 94
        2
 62
     0
340
10
144
4.5
309
CONTENTFORMAT_END
171
     1
301
MARGIN
  1
CELLMARGIN_BEGIN
 40
1.5
 40
1.5
 40
1.5
 40
1.5
 40
0.18
 40
0.18
309
CELLMARGIN_END
 94
        6
 95
        1
302
GRIDFORMAT
  1
GRIDFORMAT_BEGIN
 90
        0
 91
        1
 62
     0
 92
       -2
340
0
 93
        0
 40
0.045
309
GRIDFORMAT_END
 95
        2
302
GRIDFORMAT
  1
GRIDFORMAT_BEGIN
 90
        0
 91
        1
 62
     0
 92
       -2
340
0
 93
        0
 40
0.045
309
GRIDFORMAT_END
 95
        4
302
GRIDFORMAT
  1
GRIDFORMAT_BEGIN
 90
        0
 91
        1
 62
     0
 92
       -2
340
0
 93
        0
 40
0.045
309
GRIDFORMAT_END
 95
        8
302
GRIDFORMAT
  1
GRIDFORMAT_BEGIN
 90
        0
 91
        1
 62
     0
 92
       -2
340
0
 93
        0
 40
0.045
309
GRIDFORMAT_END
 95
       16
302
GRIDFORMAT
  1
GRIDFORMAT_BEGIN
 90
        0
 91
        1
 62
     0
 92
       -2
340
0
 93
        0
 40
0.045
309
GRIDFORMAT_END
 95
       32
302
GRIDFORMAT
  1
GRIDFORMAT_BEGIN
 90
        0
 91
        1
 62
     0
 92
       -2
340
0
 93
        0
 40
0.045
309
GRIDFORMAT_END
309
TABLEFORMAT_END
  1
CELLSTYLE_BEGIN
 90
        3
 91
        2
300
_DATA
309
CELLSTYLE_END
  0
XRECORD
  5
18B8
102
{ACAD_REACTORS
330
444
102
}
330
444
100
AcDbXrecord
280
     1
102
ACAD_ROUNDTRIP_PRE2007_TABLESTYLE
 90
        4
 91
        0
  1

 92
        4
 93
        0
  2

 94
        4
 95
        0
  3

  0
XRECORD
  5
18C4
102
{ACAD_REACTORS
330
18C3
102
}
330
18C3
100
AcDbXrecord
280
     1
102
RTVSPost2010Prop28
280
     1
102
RTVSPost2010PropOp28
 70
     1
102
RTVSPost2010Prop29
280
     1
102
RTVSPost2010PropOp29
 70
     1
102
RTVSPost2010Prop30
280
     0
102
RTVSPost2010PropOp30
 70
     1
102
RTVSPost2010Prop31
280
     0
102
RTVSPost2010PropOp31
 70
     1
102
RTVSPost2010Prop32
280
     0
102
RTVSPost2010PropOp32
 70
     1
102
RTVSPost2010Prop33
280
     0
102
RTVSPost2010PropOp33
 70
     1
102
RTVSPost2010Prop34
280
     0
102
RTVSPost2010PropOp34
 70
     1
102
RTVSPost2010Prop35
280
     0
102
RTVSPost2010PropOp35
 70
     1
102
RTVSPost2010Prop36
280
     0
102
RTVSPost2010PropOp36
 70
     1
102
RTVSPost2010Prop37
 90
       50
102
RTVSPost2010PropOp37
 70
     1
102
RTVSPost2010Prop38
140
0.0
102
RTVSPost2010PropOp38
 70
     1
102
RTVSPost2010Prop39
140
1.0
102
RTVSPost2010PropOp39
 70
     1
102
RTVSPost2010Prop40
 90
        0
102
RTVSPost2010PropOp40
 70
     1
102
RTVSPost2010Prop41ColorIndex
 90
       18
102
RTVSPost2010Prop41ColorRGB
 90
        0
102
RTVSPost2010PropOp41
 70
     1
102
RTVSPost2010Prop42
 90
       50
102
RTVSPost2010PropOp42
 70
     1
102
RTVSPost2010Prop43
 90
        3
102
RTVSPost2010PropOp43
 70
     1
102
RTVSPost2010Prop44ColorIndex
 90
        5
102
RTVSPost2010Prop44ColorRGB
 90
      255
102
RTVSPost2010PropOp44
 70
     1
102
RTVSPost2010Prop45
280
     0
102
RTVSPost2010PropOp45
 70
     1
102
RTVSPost2010Prop46
 90
       50
102
RTVSPost2010PropOp46
 70
     1
102
RTVSPost2010Prop47
 90
       50
102
RTVSPost2010PropOp47
 70
     1
102
RTVSPost2010Prop48
 90
       50
102
RTVSPost2010PropOp48
 70
     1
102
RTVSPost2010Prop49
280
     0
102
RTVSPost2010PropOp49
 70
     1
102
RTVSPost2010Prop50
 90
       50
102
RTVSPost2010PropOp50
 70
     1
102
RTVSPost2010Prop51ColorIndex
 90
      256
102
RTVSPost2010Prop51ColorRGB
 90
-16777216
102
RTVSPost2010PropOp51
 70
     0
102
RTVSPost2010Prop52
140
1.0
102
RTVSPost2010PropOp52
 70
     0
102
RTVSPost2010Prop53
 90
        2
102
RTVSPost2010PropOp53
 70
     1
102
RTVSPost2010Prop54
  1
strokes_ogs.tif
102
RTVSPost2010PropOp54
 70
     1
102
RTVSPost2010Prop55
280
     0
102
RTVSPost2010PropOp55
 70
     1
102
RTVSPost2010Prop56
140
1.0
102
RTVSPost2010PropOp56
 70
     1
102
RTVSPost2010Prop57
140
1.0
102
RTVSPost2010PropOp57
 70
     1
102
RTVSPropertyOp0
 70
     1
102
RTVSPropertyOp1
 70
     1
102
RTVSPropertyOp2
 70
     1
102
RTVSPropertyOp3
 70
     1
102
RTVSPropertyOp4
 70
     1
102
RTVSPropertyOp5
 70
     1
102
RTVSPropertyOp6
 70
     1
102
RTVSPropertyOp7
 70
     1
102
RTVSPropertyOp8
 70
     1
102
RTVSPropertyOp9
 70
     1
102
RTVSPropertyOp10
 70
     1
102
RTVSPropertyOp11
 70
     1
102
RTVSPropertyOp12
 70
     1
102
RTVSPropertyOp13
 70
     1
102
RTVSPropertyOp14
 70
     1
102
RTVSPropertyOp15
 70
     1
102
RTVSPropertyOp16
 70
     1
102
RTVSPropertyOp17
 70
     1
102
RTVSPropertyOp18
 70
     1
102
RTVSPropertyOp19
 70
     1
102
RTVSPropertyOp20
 70
     1
102
RTVSPropertyOp21
 70
     1
102
RTVSPropertyOp22
 70
     1
102
RTVSPropertyOp23
 70
     1
102
RTVSPropertyOp24
 70
     1
102
RTVSPropertyOp25
 70
     1
102
RTVSPropertyOp26
 70
     1
102
RTVSPropertyOp27
 70
     1
102
RTVSPropertyOp28
 70
     1
102
RTVSPropertyOp29
 70
     1
102
RTVSPropertyOp30
 70
     1
102
RTVSPropertyOp31
 70
     1
102
RTVSPropertyOp32
 70
     1
102
RTVSPropertyOp33
 70
     1
102
RTVSPropertyOp34
 70
     1
102
RTVSPropertyOp35
 70
     1
102
RTVSPropertyOp36
 70
     1
102
RTVSPropertyOp37
 70
     1
102
RTVSPropertyOp38
 70
     1
102
RTVSPropertyOp39
 70
     1
102
RTVSPropertyOp40
 70
     1
102
RTVSPropertyOp41
 70
     1
102
RTVSPropertyOp42
 70
     1
102
RTVSPropertyOp43
 70
     1
102
RTVSPropertyOp44
 70
     1
102
RTVSPropertyOp45
 70
     1
102
RTVSPropertyOp46
 70
     1
102
RTVSPropertyOp47
 70
     1
102
RTVSPropertyOp48
 70
     1
102
RTVSPropertyOp49
 70
     1
102
RTVSPropertyOp50
 70
     1
102
RTVSPropertyOp51
 70
     0
102
RTVSPropertyOp52
 70
     0
102
RTVSPropertyOp53
 70
     1
102
RTVSPropertyOp54
 70
     1
102
RTVSPropertyOp55
 70
     1
102
RTVSPropertyOp56
 70
     1
102
RTVSPropertyOp57
 70
     1
102
RTVSPropertyOp58
 70
     1
102
RTVSPropertyOp59
 70
     1
102
RTVSPropertyOp60
 70
     1
102
RTVSPropertyOp61
 70
     1
102
RTVSPropertyOp62
 70
     1
  0
XRECORD
  5
18C8
102
{ACAD_REACTORS
330
18C7
102
}
330
18C7
100
AcDbXrecord
280
     1
102
RTVSPost2010Prop28
280
     0
102
RTVSPost2010PropOp28
 70
     1
102
RTVSPost2010Prop29
280
     1
102
RTVSPost2010PropOp29
 70
     1
102
RTVSPost2010Prop30
280
     1
102
RTVSPost2010PropOp30
 70
     1
102
RTVSPost2010Prop31
280
     0
102
RTVSPost2010PropOp31
 70
     1
102
RTVSPost2010Prop32
280
     0
102
RTVSPost2010PropOp32
 70
     1
102
RTVSPost2010Prop33
280
     0
102
RTVSPost2010PropOp33
 70
     1
102
RTVSPost2010Prop34
280
     0
102
RTVSPost2010PropOp34
 70
     1
102
RTVSPost2010Prop35
280
     0
102
RTVSPost2010PropOp35
 70
     1
102
RTVSPost2010Prop36
280
     0
102
RTVSPost2010PropOp36
 70
     1
102
RTVSPost2010Prop37
 90
       50
102
RTVSPost2010PropOp37
 70
     1
102
RTVSPost2010Prop38
140
0.0
102
RTVSPost2010PropOp38
 70
     1
102
RTVSPost2010Prop39
140
1.0
102
RTVSPost2010PropOp39
 70
     1
102
RTVSPost2010Prop40
 90
        0
102
RTVSPost2010PropOp40
 70
     1
102
RTVSPost2010Prop41ColorIndex
 90
       18
102
RTVSPost2010Prop41ColorRGB
 90
        0
102
RTVSPost2010PropOp41
 70
     1
102
RTVSPost2010Prop42
 90
       50
102
RTVSPost2010PropOp42
 70
     1
102
RTVSPost2010Prop43
 90
        3
102
RTVSPost2010PropOp43
 70
     1
102
RTVSPost2010Prop44ColorIndex
 90
        5
102
RTVSPost2010Prop44ColorRGB
 90
      255
102
RTVSPost2010PropOp44
 70
     1
102
RTVSPost2010Prop45
280
     0
102
RTVSPost2010PropOp45
 70
     1
102
RTVSPost2010Prop46
 90
       50
102
RTVSPost2010PropOp46
 70
     1
102
RTVSPost2010Prop47
 90
       50
102
RTVSPost2010PropOp47
 70
     1
102
RTVSPost2010Prop48
 90
       50
102
RTVSPost2010PropOp48
 70
     1
102
RTVSPost2010Prop49
280
     0
102
RTVSPost2010PropOp49
 70
     1
102
RTVSPost2010Prop50
 90
       50
102
RTVSPost2010PropOp50
 70
     1
102
RTVSPost2010Prop51ColorIndex
 90
      256
102
RTVSPost2010Prop51ColorRGB
 90
-16777216
102
RTVSPost2010PropOp51
 70
     0
102
RTVSPost2010Prop52
140
1.0
102
RTVSPost2010PropOp52
 70
     0
102
RTVSPost2010Prop53
 90
        2
102
RTVSPost2010PropOp53
 70
     1
102
RTVSPost2010Prop54
  1
strokes_ogs.tif
102
RTVSPost2010PropOp54
 70
     1
102
RTVSPost2010Prop55
280
     0
102
RTVSPost2010PropOp55
 70
     1
102
RTVSPost2010Prop56
140
1.0
102
RTVSPost2010PropOp56
 70
     1
102
RTVSPost2010Prop57
140
1.0
102
RTVSPost2010PropOp57
 70
     1
102
RTVSPropertyOp0
 70
     1
102
RTVSPropertyOp1
 70
     1
102
RTVSPropertyOp2
 70
     1
102
RTVSPropertyOp3
 70
     1
102
RTVSPropertyOp4
 70
     1
102
RTVSPropertyOp5
 70
     1
102
RTVSPropertyOp6
 70
     1
102
RTVSPropertyOp7
 70
     1
102
RTVSPropertyOp8
 70
     1
102
RTVSPropertyOp9
 70
     1
102
RTVSPropertyOp10
 70
     1
102
RTVSPropertyOp11
 70
     1
102
RTVSPropertyOp12
 70
     1
102
RTVSPropertyOp13
 70
     1
102
RTVSPropertyOp14
 70
     1
102
RTVSPropertyOp15
 70
     1
102
RTVSPropertyOp16
 70
     1
102
RTVSPropertyOp17
 70
     1
102
RTVSPropertyOp18
 70
     1
102
RTVSPropertyOp19
 70
     1
102
RTVSPropertyOp20
 70
     1
102
RTVSPropertyOp21
 70
     1
102
RTVSPropertyOp22
 70
     1
102
RTVSPropertyOp23
 70
     1
102
RTVSPropertyOp24
 70
     1
102
RTVSPropertyOp25
 70
     1
102
RTVSPropertyOp26
 70
     1
102
RTVSPropertyOp27
 70
     1
102
RTVSPropertyOp28
 70
     1
102
RTVSPropertyOp29
 70
     1
102
RTVSPropertyOp30
 70
     1
102
RTVSPropertyOp31
 70
     1
102
RTVSPropertyOp32
 70
     1
102
RTVSPropertyOp33
 70
     1
102
RTVSPropertyOp34
 70
     1
102
RTVSPropertyOp35
 70
     1
102
RTVSPropertyOp36
 70
     1
102
RTVSPropertyOp37
 70
     1
102
RTVSPropertyOp38
 70
     1
102
RTVSPropertyOp39
 70
     1
102
RTVSPropertyOp40
 70
     1
102
RTVSPropertyOp41
 70
     1
102
RTVSPropertyOp42
 70
     1
102
RTVSPropertyOp43
 70
     1
102
RTVSPropertyOp44
 70
     1
102
RTVSPropertyOp45
 70
     1
102
RTVSPropertyOp46
 70
     1
102
RTVSPropertyOp47
 70
     1
102
RTVSPropertyOp48
 70
     1
102
RTVSPropertyOp49
 70
     1
102
RTVSPropertyOp50
 70
     1
102
RTVSPropertyOp51
 70
     0
102
RTVSPropertyOp52
 70
     0
102
RTVSPropertyOp53
 70
     1
102
RTVSPropertyOp54
 70
     1
102
RTVSPropertyOp55
 70
     1
102
RTVSPropertyOp56
 70
     1
102
RTVSPropertyOp57
 70
     1
102
RTVSPropertyOp58
 70
     1
102
RTVSPropertyOp59
 70
     1
102
RTVSPropertyOp60
 70
     1
102
RTVSPropertyOp61
 70
     1
102
RTVSPropertyOp62
 70
     1
  0
XRECORD
  5
18C6
102
{ACAD_REACTORS
330
18C5
102
}
330
18C5
100
AcDbXrecord
280
     1
102
RTVSPost2010Prop28
280
     0
102
RTVSPost2010PropOp28
 70
     1
102
RTVSPost2010Prop29
280
     1
102
RTVSPost2010PropOp29
 70
     1
102
RTVSPost2010Prop30
280
     1
102
RTVSPost2010PropOp30
 70
     1
102
RTVSPost2010Prop31
280
     0
102
RTVSPost2010PropOp31
 70
     1
102
RTVSPost2010Prop32
280
     0
102
RTVSPost2010PropOp32
 70
     1
102
RTVSPost2010Prop33
280
     0
102
RTVSPost2010PropOp33
 70
     1
102
RTVSPost2010Prop34
280
     0
102
RTVSPost2010PropOp34
 70
     1
102
RTVSPost2010Prop35
280
     0
102
RTVSPost2010PropOp35
 70
     1
102
RTVSPost2010Prop36
280
     0
102
RTVSPost2010PropOp36
 70
     1
102
RTVSPost2010Prop37
 90
       50
102
RTVSPost2010PropOp37
 70
     1
102
RTVSPost2010Prop38
140
0.0
102
RTVSPost2010PropOp38
 70
     1
102
RTVSPost2010Prop39
140
1.0
102
RTVSPost2010PropOp39
 70
     1
102
RTVSPost2010Prop40
 90
        0
102
RTVSPost2010PropOp40
 70
     1
102
RTVSPost2010Prop41ColorIndex
 90
       18
102
RTVSPost2010Prop41ColorRGB
 90
        0
102
RTVSPost2010PropOp41
 70
     1
102
RTVSPost2010Prop42
 90
       50
102
RTVSPost2010PropOp42
 70
     1
102
RTVSPost2010Prop43
 90
        3
102
RTVSPost2010PropOp43
 70
     1
102
RTVSPost2010Prop44ColorIndex
 90
        5
102
RTVSPost2010Prop44ColorRGB
 90
      255
102
RTVSPost2010PropOp44
 70
     1
102
RTVSPost2010Prop45
280
     0
102
RTVSPost2010PropOp45
 70
     1
102
RTVSPost2010Prop46
 90
       50
102
RTVSPost2010PropOp46
 70
     1
102
RTVSPost2010Prop47
 90
       50
102
RTVSPost2010PropOp47
 70
     1
102
RTVSPost2010Prop48
 90
       50
102
RTVSPost2010PropOp48
 70
     1
102
RTVSPost2010Prop49
280
     0
102
RTVSPost2010PropOp49
 70
     1
102
RTVSPost2010Prop50
 90
       50
102
RTVSPost2010PropOp50
 70
     1
102
RTVSPost2010Prop51ColorIndex
 90
      256
102
RTVSPost2010Prop51ColorRGB
 90
-16777216
102
RTVSPost2010PropOp51
 70
     0
102
RTVSPost2010Prop52
140
1.0
102
RTVSPost2010PropOp52
 70
     0
102
RTVSPost2010Prop53
 90
        2
102
RTVSPost2010PropOp53
 70
     1
102
RTVSPost2010Prop54
  1
strokes_ogs.tif
102
RTVSPost2010PropOp54
 70
     1
102
RTVSPost2010Prop55
280
     0
102
RTVSPost2010PropOp55
 70
     1
102
RTVSPost2010Prop56
140
1.0
102
RTVSPost2010PropOp56
 70
     1
102
RTVSPost2010Prop57
140
1.0
102
RTVSPost2010PropOp57
 70
     1
102
RTVSPropertyOp0
 70
     1
102
RTVSPropertyOp1
 70
     1
102
RTVSPropertyOp2
 70
     1
102
RTVSPropertyOp3
 70
     1
102
RTVSPropertyOp4
 70
     1
102
RTVSPropertyOp5
 70
     1
102
RTVSPropertyOp6
 70
     1
102
RTVSPropertyOp7
 70
     1
102
RTVSPropertyOp8
 70
     1
102
RTVSPropertyOp9
 70
     1
102
RTVSPropertyOp10
 70
     1
102
RTVSPropertyOp11
 70
     1
102
RTVSPropertyOp12
 70
     1
102
RTVSPropertyOp13
 70
     1
102
RTVSPropertyOp14
 70
     1
102
RTVSPropertyOp15
 70
     1
102
RTVSPropertyOp16
 70
     1
102
RTVSPropertyOp17
 70
     1
102
RTVSPropertyOp18
 70
     1
102
RTVSPropertyOp19
 70
     1
102
RTVSPropertyOp20
 70
     1
102
RTVSPropertyOp21
 70
     1
102
RTVSPropertyOp22
 70
     1
102
RTVSPropertyOp23
 70
     1
102
RTVSPropertyOp24
 70
     1
102
RTVSPropertyOp25
 70
     1
102
RTVSPropertyOp26
 70
     1
102
RTVSPropertyOp27
 70
     1
102
RTVSPropertyOp28
 70
     1
102
RTVSPropertyOp29
 70
     1
102
RTVSPropertyOp30
 70
     1
102
RTVSPropertyOp31
 70
     1
102
RTVSPropertyOp32
 70
     1
102
RTVSPropertyOp33
 70
     1
102
RTVSPropertyOp34
 70
     1
102
RTVSPropertyOp35
 70
     1
102
RTVSPropertyOp36
 70
     1
102
RTVSPropertyOp37
 70
     1
102
RTVSPropertyOp38
 70
     1
102
RTVSPropertyOp39
 70
     1
102
RTVSPropertyOp40
 70
     1
102
RTVSPropertyOp41
 70
     1
102
RTVSPropertyOp42
 70
     1
102
RTVSPropertyOp43
 70
     1
102
RTVSPropertyOp44
 70
     1
102
RTVSPropertyOp45
 70
     1
102
RTVSPropertyOp46
 70
     1
102
RTVSPropertyOp47
 70
     1
102
RTVSPropertyOp48
 70
     1
102
RTVSPropertyOp49
 70
     1
102
RTVSPropertyOp50
 70
     1
102
RTVSPropertyOp51
 70
     0
102
RTVSPropertyOp52
 70
     0
102
RTVSPropertyOp53
 70
     1
102
RTVSPropertyOp54
 70
     1
102
RTVSPropertyOp55
 70
     1
102
RTVSPropertyOp56
 70
     1
102
RTVSPropertyOp57
 70
     1
102
RTVSPropertyOp58
 70
     1
102
RTVSPropertyOp59
 70
     1
102
RTVSPropertyOp60
 70
     1
102
RTVSPropertyOp61
 70
     1
102
RTVSPropertyOp62
 70
     1
  0
XRECORD
  5
18C2
102
{ACAD_REACTORS
330
18C1
102
}
330
18C1
100
AcDbXrecord
280
     1
102
RTVSPost2010Prop28
280
     0
102
RTVSPost2010PropOp28
 70
     1
102
RTVSPost2010Prop29
280
     1
102
RTVSPost2010PropOp29
 70
     1
102
RTVSPost2010Prop30
280
     1
102
RTVSPost2010PropOp30
 70
     1
102
RTVSPost2010Prop31
280
     0
102
RTVSPost2010PropOp31
 70
     1
102
RTVSPost2010Prop32
280
     0
102
RTVSPost2010PropOp32
 70
     1
102
RTVSPost2010Prop33
280
     0
102
RTVSPost2010PropOp33
 70
     1
102
RTVSPost2010Prop34
280
     0
102
RTVSPost2010PropOp34
 70
     1
102
RTVSPost2010Prop35
280
     0
102
RTVSPost2010PropOp35
 70
     1
102
RTVSPost2010Prop36
280
     0
102
RTVSPost2010PropOp36
 70
     1
102
RTVSPost2010Prop37
 90
       50
102
RTVSPost2010PropOp37
 70
     1
102
RTVSPost2010Prop38
140
0.0
102
RTVSPost2010PropOp38
 70
     1
102
RTVSPost2010Prop39
140
1.0
102
RTVSPost2010PropOp39
 70
     1
102
RTVSPost2010Prop40
 90
        0
102
RTVSPost2010PropOp40
 70
     1
102
RTVSPost2010Prop41ColorIndex
 90
       18
102
RTVSPost2010Prop41ColorRGB
 90
        0
102
RTVSPost2010PropOp41
 70
     1
102
RTVSPost2010Prop42
 90
       50
102
RTVSPost2010PropOp42
 70
     1
102
RTVSPost2010Prop43
 90
        3
102
RTVSPost2010PropOp43
 70
     1
102
RTVSPost2010Prop44ColorIndex
 90
        5
102
RTVSPost2010Prop44ColorRGB
 90
      255
102
RTVSPost2010PropOp44
 70
     1
102
RTVSPost2010Prop45
280
     0
102
RTVSPost2010PropOp45
 70
     1
102
RTVSPost2010Prop46
 90
       50
102
RTVSPost2010PropOp46
 70
     1
102
RTVSPost2010Prop47
 90
       50
102
RTVSPost2010PropOp47
 70
     1
102
RTVSPost2010Prop48
 90
       50
102
RTVSPost2010PropOp48
 70
     1
102
RTVSPost2010Prop49
280
     0
102
RTVSPost2010PropOp49
 70
     1
102
RTVSPost2010Prop50
 90
       50
102
RTVSPost2010PropOp50
 70
     1
102
RTVSPost2010Prop51ColorIndex
 90
      256
102
RTVSPost2010Prop51ColorRGB
 90
-16777216
102
RTVSPost2010PropOp51
 70
     0
102
RTVSPost2010Prop52
140
1.0
102
RTVSPost2010PropOp52
 70
     0
102
RTVSPost2010Prop53
 90
        2
102
RTVSPost2010PropOp53
 70
     1
102
RTVSPost2010Prop54
  1
strokes_ogs.tif
102
RTVSPost2010PropOp54
 70
     1
102
RTVSPost2010Prop55
280
     0
102
RTVSPost2010PropOp55
 70
     1
102
RTVSPost2010Prop56
140
1.0
102
RTVSPost2010PropOp56
 70
     1
102
RTVSPost2010Prop57
140
1.0
102
RTVSPost2010PropOp57
 70
     1
102
RTVSPropertyOp0
 70
     1
102
RTVSPropertyOp1
 70
     1
102
RTVSPropertyOp2
 70
     1
102
RTVSPropertyOp3
 70
     1
102
RTVSPropertyOp4
 70
     1
102
RTVSPropertyOp5
 70
     1
102
RTVSPropertyOp6
 70
     1
102
RTVSPropertyOp7
 70
     1
102
RTVSPropertyOp8
 70
     1
102
RTVSPropertyOp9
 70
     1
102
RTVSPropertyOp10
 70
     1
102
RTVSPropertyOp11
 70
     1
102
RTVSPropertyOp12
 70
     1
102
RTVSPropertyOp13
 70
     1
102
RTVSPropertyOp14
 70
     1
102
RTVSPropertyOp15
 70
     1
102
RTVSPropertyOp16
 70
     1
102
RTVSPropertyOp17
 70
     1
102
RTVSPropertyOp18
 70
     1
102
RTVSPropertyOp19
 70
     1
102
RTVSPropertyOp20
 70
     1
102
RTVSPropertyOp21
 70
     1
102
RTVSPropertyOp22
 70
     1
102
RTVSPropertyOp23
 70
     1
102
RTVSPropertyOp24
 70
     1
102
RTVSPropertyOp25
 70
     1
102
RTVSPropertyOp26
 70
     1
102
RTVSPropertyOp27
 70
     1
102
RTVSPropertyOp28
 70
     1
102
RTVSPropertyOp29
 70
     1
102
RTVSPropertyOp30
 70
     1
102
RTVSPropertyOp31
 70
     1
102
RTVSPropertyOp32
 70
     1
102
RTVSPropertyOp33
 70
     1
102
RTVSPropertyOp34
 70
     1
102
RTVSPropertyOp35
 70
     1
102
RTVSPropertyOp36
 70
     1
102
RTVSPropertyOp37
 70
     1
102
RTVSPropertyOp38
 70
     1
102
RTVSPropertyOp39
 70
     1
102
RTVSPropertyOp40
 70
     1
102
RTVSPropertyOp41
 70
     1
102
RTVSPropertyOp42
 70
     1
102
RTVSPropertyOp43
 70
     1
102
RTVSPropertyOp44
 70
     1
102
RTVSPropertyOp45
 70
     1
102
RTVSPropertyOp46
 70
     1
102
RTVSPropertyOp47
 70
     1
102
RTVSPropertyOp48
 70
     1
102
RTVSPropertyOp49
 70
     1
102
RTVSPropertyOp50
 70
     1
102
RTVSPropertyOp51
 70
     0
102
RTVSPropertyOp52
 70
     0
102
RTVSPropertyOp53
 70
     1
102
RTVSPropertyOp54
 70
     1
102
RTVSPropertyOp55
 70
     1
102
RTVSPropertyOp56
 70
     1
102
RTVSPropertyOp57
 70
     1
102
RTVSPropertyOp58
 70
     1
102
RTVSPropertyOp59
 70
     1
102
RTVSPropertyOp60
 70
     1
102
RTVSPropertyOp61
 70
     1
102
RTVSPropertyOp62
 70
     1
  0
XRECORD
  5
18D0
102
{ACAD_REACTORS
330
18CF
102
}
330
18CF
100
AcDbXrecord
280
     1
102
RTVSPost2010Prop28
280
     0
102
RTVSPost2010PropOp28
 70
     1
102
RTVSPost2010Prop29
280
     1
102
RTVSPost2010PropOp29
 70
     1
102
RTVSPost2010Prop30
280
     1
102
RTVSPost2010PropOp30
 70
     1
102
RTVSPost2010Prop31
280
     0
102
RTVSPost2010PropOp31
 70
     1
102
RTVSPost2010Prop32
280
     0
102
RTVSPost2010PropOp32
 70
     1
102
RTVSPost2010Prop33
280
     0
102
RTVSPost2010PropOp33
 70
     1
102
RTVSPost2010Prop34
280
     0
102
RTVSPost2010PropOp34
 70
     1
102
RTVSPost2010Prop35
280
     0
102
RTVSPost2010PropOp35
 70
     1
102
RTVSPost2010Prop36
280
     0
102
RTVSPost2010PropOp36
 70
     1
102
RTVSPost2010Prop37
 90
       50
102
RTVSPost2010PropOp37
 70
     1
102
RTVSPost2010Prop38
140
0.0
102
RTVSPost2010PropOp38
 70
     1
102
RTVSPost2010Prop39
140
1.0
102
RTVSPost2010PropOp39
 70
     1
102
RTVSPost2010Prop40
 90
        0
102
RTVSPost2010PropOp40
 70
     1
102
RTVSPost2010Prop41ColorIndex
 90
       18
102
RTVSPost2010Prop41ColorRGB
 90
        0
102
RTVSPost2010PropOp41
 70
     1
102
RTVSPost2010Prop42
 90
       50
102
RTVSPost2010PropOp42
 70
     1
102
RTVSPost2010Prop43
 90
        3
102
RTVSPost2010PropOp43
 70
     1
102
RTVSPost2010Prop44ColorIndex
 90
        5
102
RTVSPost2010Prop44ColorRGB
 90
      255
102
RTVSPost2010PropOp44
 70
     1
102
RTVSPost2010Prop45
280
     0
102
RTVSPost2010PropOp45
 70
     1
102
RTVSPost2010Prop46
 90
       50
102
RTVSPost2010PropOp46
 70
     1
102
RTVSPost2010Prop47
 90
       50
102
RTVSPost2010PropOp47
 70
     1
102
RTVSPost2010Prop48
 90
       50
102
RTVSPost2010PropOp48
 70
     1
102
RTVSPost2010Prop49
280
     0
102
RTVSPost2010PropOp49
 70
     1
102
RTVSPost2010Prop50
 90
       50
102
RTVSPost2010PropOp50
 70
     1
102
RTVSPost2010Prop51ColorIndex
 90
      256
102
RTVSPost2010Prop51ColorRGB
 90
-16777216
102
RTVSPost2010PropOp51
 70
     0
102
RTVSPost2010Prop52
140
1.0
102
RTVSPost2010PropOp52
 70
     0
102
RTVSPost2010Prop53
 90
        2
102
RTVSPost2010PropOp53
 70
     1
102
RTVSPost2010Prop54
  1
strokes_ogs.tif
102
RTVSPost2010PropOp54
 70
     1
102
RTVSPost2010Prop55
280
     0
102
RTVSPost2010PropOp55
 70
     1
102
RTVSPost2010Prop56
140
1.0
102
RTVSPost2010PropOp56
 70
     1
102
RTVSPost2010Prop57
140
1.0
102
RTVSPost2010PropOp57
 70
     1
102
RTVSPropertyOp0
 70
     1
102
RTVSPropertyOp1
 70
     1
102
RTVSPropertyOp2
 70
     1
102
RTVSPropertyOp3
 70
     1
102
RTVSPropertyOp4
 70
     1
102
RTVSPropertyOp5
 70
     1
102
RTVSPropertyOp6
 70
     1
102
RTVSPropertyOp7
 70
     1
102
RTVSPropertyOp8
 70
     1
102
RTVSPropertyOp9
 70
     1
102
RTVSPropertyOp10
 70
     1
102
RTVSPropertyOp11
 70
     1
102
RTVSPropertyOp12
 70
     1
102
RTVSPropertyOp13
 70
     1
102
RTVSPropertyOp14
 70
     1
102
RTVSPropertyOp15
 70
     1
102
RTVSPropertyOp16
 70
     1
102
RTVSPropertyOp17
 70
     1
102
RTVSPropertyOp18
 70
     1
102
RTVSPropertyOp19
 70
     1
102
RTVSPropertyOp20
 70
     1
102
RTVSPropertyOp21
 70
     1
102
RTVSPropertyOp22
 70
     1
102
RTVSPropertyOp23
 70
     1
102
RTVSPropertyOp24
 70
     1
102
RTVSPropertyOp25
 70
     1
102
RTVSPropertyOp26
 70
     1
102
RTVSPropertyOp27
 70
     1
102
RTVSPropertyOp28
 70
     1
102
RTVSPropertyOp29
 70
     1
102
RTVSPropertyOp30
 70
     1
102
RTVSPropertyOp31
 70
     1
102
RTVSPropertyOp32
 70
     1
102
RTVSPropertyOp33
 70
     1
102
RTVSPropertyOp34
 70
     1
102
RTVSPropertyOp35
 70
     1
102
RTVSPropertyOp36
 70
     1
102
RTVSPropertyOp37
 70
     1
102
RTVSPropertyOp38
 70
     1
102
RTVSPropertyOp39
 70
     1
102
RTVSPropertyOp40
 70
     1
102
RTVSPropertyOp41
 70
     1
102
RTVSPropertyOp42
 70
     1
102
RTVSPropertyOp43
 70
     1
102
RTVSPropertyOp44
 70
     1
102
RTVSPropertyOp45
 70
     1
102
RTVSPropertyOp46
 70
     1
102
RTVSPropertyOp47
 70
     1
102
RTVSPropertyOp48
 70
     1
102
RTVSPropertyOp49
 70
     1
102
RTVSPropertyOp50
 70
     1
102
RTVSPropertyOp51
 70
     0
102
RTVSPropertyOp52
 70
     0
102
RTVSPropertyOp53
 70
     1
102
RTVSPropertyOp54
 70
     1
102
RTVSPropertyOp55
 70
     1
102
RTVSPropertyOp56
 70
     1
102
RTVSPropertyOp57
 70
     1
102
RTVSPropertyOp58
 70
     1
102
RTVSPropertyOp59
 70
     1
102
RTVSPropertyOp60
 70
     1
102
RTVSPropertyOp61
 70
     1
102
RTVSPropertyOp62
 70
     1
  0
XRECORD
  5
18D8
102
{ACAD_REACTORS
330
18D7
102
}
330
18D7
100
AcDbXrecord
280
     1
102
RTVSPost2010Prop28
280
     0
102
RTVSPost2010PropOp28
 70
     1
102
RTVSPost2010Prop29
280
     1
102
RTVSPost2010PropOp29
 70
     1
102
RTVSPost2010Prop30
280
     1
102
RTVSPost2010PropOp30
 70
     1
102
RTVSPost2010Prop31
280
     0
102
RTVSPost2010PropOp31
 70
     1
102
RTVSPost2010Prop32
280
     0
102
RTVSPost2010PropOp32
 70
     1
102
RTVSPost2010Prop33
280
     0
102
RTVSPost2010PropOp33
 70
     1
102
RTVSPost2010Prop34
280
     0
102
RTVSPost2010PropOp34
 70
     1
102
RTVSPost2010Prop35
280
     0
102
RTVSPost2010PropOp35
 70
     1
102
RTVSPost2010Prop36
280
     0
102
RTVSPost2010PropOp36
 70
     1
102
RTVSPost2010Prop37
 90
       50
102
RTVSPost2010PropOp37
 70
     1
102
RTVSPost2010Prop38
140
0.0
102
RTVSPost2010PropOp38
 70
     1
102
RTVSPost2010Prop39
140
1.0
102
RTVSPost2010PropOp39
 70
     1
102
RTVSPost2010Prop40
 90
        0
102
RTVSPost2010PropOp40
 70
     1
102
RTVSPost2010Prop41ColorIndex
 90
       18
102
RTVSPost2010Prop41ColorRGB
 90
        0
102
RTVSPost2010PropOp41
 70
     1
102
RTVSPost2010Prop42
 90
       50
102
RTVSPost2010PropOp42
 70
     1
102
RTVSPost2010Prop43
 90
        3
102
RTVSPost2010PropOp43
 70
     1
102
RTVSPost2010Prop44ColorIndex
 90
        5
102
RTVSPost2010Prop44ColorRGB
 90
      255
102
RTVSPost2010PropOp44
 70
     1
102
RTVSPost2010Prop45
280
     0
102
RTVSPost2010PropOp45
 70
     1
102
RTVSPost2010Prop46
 90
       50
102
RTVSPost2010PropOp46
 70
     1
102
RTVSPost2010Prop47
 90
       50
102
RTVSPost2010PropOp47
 70
     1
102
RTVSPost2010Prop48
 90
       50
102
RTVSPost2010PropOp48
 70
     1
102
RTVSPost2010Prop49
280
     0
102
RTVSPost2010PropOp49
 70
     1
102
RTVSPost2010Prop50
 90
       50
102
RTVSPost2010PropOp50
 70
     1
102
RTVSPost2010Prop51ColorIndex
 90
      256
102
RTVSPost2010Prop51ColorRGB
 90
-16777216
102
RTVSPost2010PropOp51
 70
     0
102
RTVSPost2010Prop52
140
1.0
102
RTVSPost2010PropOp52
 70
     0
102
RTVSPost2010Prop53
 90
        2
102
RTVSPost2010PropOp53
 70
     1
102
RTVSPost2010Prop54
  1
strokes_ogs.tif
102
RTVSPost2010PropOp54
 70
     1
102
RTVSPost2010Prop55
280
     0
102
RTVSPost2010PropOp55
 70
     1
102
RTVSPost2010Prop56
140
1.0
102
RTVSPost2010PropOp56
 70
     1
102
RTVSPost2010Prop57
140
1.0
102
RTVSPost2010PropOp57
 70
     1
102
RTVSPropertyOp0
 70
     1
102
RTVSPropertyOp1
 70
     1
102
RTVSPropertyOp2
 70
     1
102
RTVSPropertyOp3
 70
     1
102
RTVSPropertyOp4
 70
     1
102
RTVSPropertyOp5
 70
     1
102
RTVSPropertyOp6
 70
     1
102
RTVSPropertyOp7
 70
     1
102
RTVSPropertyOp8
 70
     1
102
RTVSPropertyOp9
 70
     1
102
RTVSPropertyOp10
 70
     1
102
RTVSPropertyOp11
 70
     1
102
RTVSPropertyOp12
 70
     1
102
RTVSPropertyOp13
 70
     1
102
RTVSPropertyOp14
 70
     1
102
RTVSPropertyOp15
 70
     1
102
RTVSPropertyOp16
 70
     1
102
RTVSPropertyOp17
 70
     1
102
RTVSPropertyOp18
 70
     1
102
RTVSPropertyOp19
 70
     1
102
RTVSPropertyOp20
 70
     1
102
RTVSPropertyOp21
 70
     1
102
RTVSPropertyOp22
 70
     1
102
RTVSPropertyOp23
 70
     1
102
RTVSPropertyOp24
 70
     1
102
RTVSPropertyOp25
 70
     1
102
RTVSPropertyOp26
 70
     1
102
RTVSPropertyOp27
 70
     1
102
RTVSPropertyOp28
 70
     1
102
RTVSPropertyOp29
 70
     1
102
RTVSPropertyOp30
 70
     1
102
RTVSPropertyOp31
 70
     1
102
RTVSPropertyOp32
 70
     1
102
RTVSPropertyOp33
 70
     1
102
RTVSPropertyOp34
 70
     1
102
RTVSPropertyOp35
 70
     1
102
RTVSPropertyOp36
 70
     1
102
RTVSPropertyOp37
 70
     1
102
RTVSPropertyOp38
 70
     1
102
RTVSPropertyOp39
 70
     1
102
RTVSPropertyOp40
 70
     1
102
RTVSPropertyOp41
 70
     1
102
RTVSPropertyOp42
 70
     1
102
RTVSPropertyOp43
 70
     1
102
RTVSPropertyOp44
 70
     1
102
RTVSPropertyOp45
 70
     1
102
RTVSPropertyOp46
 70
     1
102
RTVSPropertyOp47
 70
     1
102
RTVSPropertyOp48
 70
     1
102
RTVSPropertyOp49
 70
     1
102
RTVSPropertyOp50
 70
     1
102
RTVSPropertyOp51
 70
     0
102
RTVSPropertyOp52
 70
     0
102
RTVSPropertyOp53
 70
     1
102
RTVSPropertyOp54
 70
     1
102
RTVSPropertyOp55
 70
     1
102
RTVSPropertyOp56
 70
     1
102
RTVSPropertyOp57
 70
     1
102
RTVSPropertyOp58
 70
     1
102
RTVSPropertyOp59
 70
     1
102
RTVSPropertyOp60
 70
     1
102
RTVSPropertyOp61
 70
     1
102
RTVSPropertyOp62
 70
     1
  0
XRECORD
  5
18CA
102
{ACAD_REACTORS
330
18C9
102
}
330
18C9
100
AcDbXrecord
280
     1
102
RTVSPost2010Prop28
280
     0
102
RTVSPost2010PropOp28
 70
     1
102
RTVSPost2010Prop29
280
     1
102
RTVSPost2010PropOp29
 70
     1
102
RTVSPost2010Prop30
280
     1
102
RTVSPost2010PropOp30
 70
     1
102
RTVSPost2010Prop31
280
     0
102
RTVSPost2010PropOp31
 70
     1
102
RTVSPost2010Prop32
280
     0
102
RTVSPost2010PropOp32
 70
     1
102
RTVSPost2010Prop33
280
     0
102
RTVSPost2010PropOp33
 70
     1
102
RTVSPost2010Prop34
280
     0
102
RTVSPost2010PropOp34
 70
     1
102
RTVSPost2010Prop35
280
     0
102
RTVSPost2010PropOp35
 70
     1
102
RTVSPost2010Prop36
280
     0
102
RTVSPost2010PropOp36
 70
     1
102
RTVSPost2010Prop37
 90
       50
102
RTVSPost2010PropOp37
 70
     1
102
RTVSPost2010Prop38
140
0.0
102
RTVSPost2010PropOp38
 70
     1
102
RTVSPost2010Prop39
140
1.0
102
RTVSPost2010PropOp39
 70
     1
102
RTVSPost2010Prop40
 90
        0
102
RTVSPost2010PropOp40
 70
     1
102
RTVSPost2010Prop41ColorIndex
 90
       18
102
RTVSPost2010Prop41ColorRGB
 90
        0
102
RTVSPost2010PropOp41
 70
     1
102
RTVSPost2010Prop42
 90
       50
102
RTVSPost2010PropOp42
 70
     1
102
RTVSPost2010Prop43
 90
        3
102
RTVSPost2010PropOp43
 70
     1
102
RTVSPost2010Prop44ColorIndex
 90
        5
102
RTVSPost2010Prop44ColorRGB
 90
      255
102
RTVSPost2010PropOp44
 70
     1
102
RTVSPost2010Prop45
280
     0
102
RTVSPost2010PropOp45
 70
     1
102
RTVSPost2010Prop46
 90
       50
102
RTVSPost2010PropOp46
 70
     1
102
RTVSPost2010Prop47
 90
       50
102
RTVSPost2010PropOp47
 70
     1
102
RTVSPost2010Prop48
 90
       50
102
RTVSPost2010PropOp48
 70
     1
102
RTVSPost2010Prop49
280
     0
102
RTVSPost2010PropOp49
 70
     1
102
RTVSPost2010Prop50
 90
       50
102
RTVSPost2010PropOp50
 70
     1
102
RTVSPost2010Prop51ColorIndex
 90
      256
102
RTVSPost2010Prop51ColorRGB
 90
-16777216
102
RTVSPost2010PropOp51
 70
     0
102
RTVSPost2010Prop52
140
1.0
102
RTVSPost2010PropOp52
 70
     0
102
RTVSPost2010Prop53
 90
        2
102
RTVSPost2010PropOp53
 70
     1
102
RTVSPost2010Prop54
  1
strokes_ogs.tif
102
RTVSPost2010PropOp54
 70
     1
102
RTVSPost2010Prop55
280
     0
102
RTVSPost2010PropOp55
 70
     1
102
RTVSPost2010Prop56
140
1.0
102
RTVSPost2010PropOp56
 70
     1
102
RTVSPost2010Prop57
140
1.0
102
RTVSPost2010PropOp57
 70
     1
102
RTVSPropertyOp0
 70
     1
102
RTVSPropertyOp1
 70
     1
102
RTVSPropertyOp2
 70
     1
102
RTVSPropertyOp3
 70
     1
102
RTVSPropertyOp4
 70
     1
102
RTVSPropertyOp5
 70
     1
102
RTVSPropertyOp6
 70
     1
102
RTVSPropertyOp7
 70
     1
102
RTVSPropertyOp8
 70
     1
102
RTVSPropertyOp9
 70
     1
102
RTVSPropertyOp10
 70
     1
102
RTVSPropertyOp11
 70
     1
102
RTVSPropertyOp12
 70
     1
102
RTVSPropertyOp13
 70
     1
102
RTVSPropertyOp14
 70
     1
102
RTVSPropertyOp15
 70
     1
102
RTVSPropertyOp16
 70
     1
102
RTVSPropertyOp17
 70
     1
102
RTVSPropertyOp18
 70
     1
102
RTVSPropertyOp19
 70
     1
102
RTVSPropertyOp20
 70
     1
102
RTVSPropertyOp21
 70
     1
102
RTVSPropertyOp22
 70
     1
102
RTVSPropertyOp23
 70
     1
102
RTVSPropertyOp24
 70
     1
102
RTVSPropertyOp25
 70
     1
102
RTVSPropertyOp26
 70
     1
102
RTVSPropertyOp27
 70
     1
102
RTVSPropertyOp28
 70
     1
102
RTVSPropertyOp29
 70
     1
102
RTVSPropertyOp30
 70
     1
102
RTVSPropertyOp31
 70
     1
102
RTVSPropertyOp32
 70
     1
102
RTVSPropertyOp33
 70
     1
102
RTVSPropertyOp34
 70
     1
102
RTVSPropertyOp35
 70
     1
102
RTVSPropertyOp36
 70
     1
102
RTVSPropertyOp37
 70
     1
102
RTVSPropertyOp38
 70
     1
102
RTVSPropertyOp39
 70
     1
102
RTVSPropertyOp40
 70
     1
102
RTVSPropertyOp41
 70
     1
102
RTVSPropertyOp42
 70
     1
102
RTVSPropertyOp43
 70
     1
102
RTVSPropertyOp44
 70
     1
102
RTVSPropertyOp45
 70
     1
102
RTVSPropertyOp46
 70
     1
102
RTVSPropertyOp47
 70
     1
102
RTVSPropertyOp48
 70
     1
102
RTVSPropertyOp49
 70
     1
102
RTVSPropertyOp50
 70
     1
102
RTVSPropertyOp51
 70
     0
102
RTVSPropertyOp52
 70
     0
102
RTVSPropertyOp53
 70
     1
102
RTVSPropertyOp54
 70
     1
102
RTVSPropertyOp55
 70
     1
102
RTVSPropertyOp56
 70
     1
102
RTVSPropertyOp57
 70
     1
102
RTVSPropertyOp58
 70
     1
102
RTVSPropertyOp59
 70
     1
102
RTVSPropertyOp60
 70
     1
102
RTVSPropertyOp61
 70
     1
102
RTVSPropertyOp62
 70
     1
  0
XRECORD
  5
18CE
102
{ACAD_REACTORS
330
18CD
102
}
330
18CD
100
AcDbXrecord
280
     1
102
RTVSPost2010Prop28
280
     0
102
RTVSPost2010PropOp28
 70
     1
102
RTVSPost2010Prop29
280
     1
102
RTVSPost2010PropOp29
 70
     1
102
RTVSPost2010Prop30
280
     1
102
RTVSPost2010PropOp30
 70
     1
102
RTVSPost2010Prop31
280
     0
102
RTVSPost2010PropOp31
 70
     1
102
RTVSPost2010Prop32
280
     0
102
RTVSPost2010PropOp32
 70
     1
102
RTVSPost2010Prop33
280
     0
102
RTVSPost2010PropOp33
 70
     1
102
RTVSPost2010Prop34
280
     0
102
RTVSPost2010PropOp34
 70
     1
102
RTVSPost2010Prop35
280
     0
102
RTVSPost2010PropOp35
 70
     1
102
RTVSPost2010Prop36
280
     0
102
RTVSPost2010PropOp36
 70
     1
102
RTVSPost2010Prop37
 90
       50
102
RTVSPost2010PropOp37
 70
     1
102
RTVSPost2010Prop38
140
0.0
102
RTVSPost2010PropOp38
 70
     1
102
RTVSPost2010Prop39
140
1.0
102
RTVSPost2010PropOp39
 70
     1
102
RTVSPost2010Prop40
 90
        0
102
RTVSPost2010PropOp40
 70
     1
102
RTVSPost2010Prop41ColorIndex
 90
       18
102
RTVSPost2010Prop41ColorRGB
 90
        0
102
RTVSPost2010PropOp41
 70
     1
102
RTVSPost2010Prop42
 90
       50
102
RTVSPost2010PropOp42
 70
     1
102
RTVSPost2010Prop43
 90
        3
102
RTVSPost2010PropOp43
 70
     1
102
RTVSPost2010Prop44ColorIndex
 90
        5
102
RTVSPost2010Prop44ColorRGB
 90
      255
102
RTVSPost2010PropOp44
 70
     1
102
RTVSPost2010Prop45
280
     0
102
RTVSPost2010PropOp45
 70
     1
102
RTVSPost2010Prop46
 90
       50
102
RTVSPost2010PropOp46
 70
     1
102
RTVSPost2010Prop47
 90
       50
102
RTVSPost2010PropOp47
 70
     1
102
RTVSPost2010Prop48
 90
       50
102
RTVSPost2010PropOp48
 70
     1
102
RTVSPost2010Prop49
280
     0
102
RTVSPost2010PropOp49
 70
     1
102
RTVSPost2010Prop50
 90
       50
102
RTVSPost2010PropOp50
 70
     1
102
RTVSPost2010Prop51ColorIndex
 90
      256
102
RTVSPost2010Prop51ColorRGB
 90
-16777216
102
RTVSPost2010PropOp51
 70
     0
102
RTVSPost2010Prop52
140
1.0
102
RTVSPost2010PropOp52
 70
     0
102
RTVSPost2010Prop53
 90
        2
102
RTVSPost2010PropOp53
 70
     1
102
RTVSPost2010Prop54
  1
strokes_ogs.tif
102
RTVSPost2010PropOp54
 70
     1
102
RTVSPost2010Prop55
280
     0
102
RTVSPost2010PropOp55
 70
     1
102
RTVSPost2010Prop56
140
1.0
102
RTVSPost2010PropOp56
 70
     1
102
RTVSPost2010Prop57
140
1.0
102
RTVSPost2010PropOp57
 70
     1
102
RTVSPropertyOp0
 70
     1
102
RTVSPropertyOp1
 70
     1
102
RTVSPropertyOp2
 70
     1
102
RTVSPropertyOp3
 70
     1
102
RTVSPropertyOp4
 70
     1
102
RTVSPropertyOp5
 70
     1
102
RTVSPropertyOp6
 70
     1
102
RTVSPropertyOp7
 70
     1
102
RTVSPropertyOp8
 70
     1
102
RTVSPropertyOp9
 70
     1
102
RTVSPropertyOp10
 70
     1
102
RTVSPropertyOp11
 70
     1
102
RTVSPropertyOp12
 70
     1
102
RTVSPropertyOp13
 70
     1
102
RTVSPropertyOp14
 70
     1
102
RTVSPropertyOp15
 70
     1
102
RTVSPropertyOp16
 70
     1
102
RTVSPropertyOp17
 70
     1
102
RTVSPropertyOp18
 70
     1
102
RTVSPropertyOp19
 70
     1
102
RTVSPropertyOp20
 70
     1
102
RTVSPropertyOp21
 70
     1
102
RTVSPropertyOp22
 70
     1
102
RTVSPropertyOp23
 70
     1
102
RTVSPropertyOp24
 70
     1
102
RTVSPropertyOp25
 70
     1
102
RTVSPropertyOp26
 70
     1
102
RTVSPropertyOp27
 70
     1
102
RTVSPropertyOp28
 70
     1
102
RTVSPropertyOp29
 70
     1
102
RTVSPropertyOp30
 70
     1
102
RTVSPropertyOp31
 70
     1
102
RTVSPropertyOp32
 70
     1
102
RTVSPropertyOp33
 70
     1
102
RTVSPropertyOp34
 70
     1
102
RTVSPropertyOp35
 70
     1
102
RTVSPropertyOp36
 70
     1
102
RTVSPropertyOp37
 70
     1
102
RTVSPropertyOp38
 70
     1
102
RTVSPropertyOp39
 70
     1
102
RTVSPropertyOp40
 70
     1
102
RTVSPropertyOp41
 70
     1
102
RTVSPropertyOp42
 70
     1
102
RTVSPropertyOp43
 70
     1
102
RTVSPropertyOp44
 70
     1
102
RTVSPropertyOp45
 70
     1
102
RTVSPropertyOp46
 70
     1
102
RTVSPropertyOp47
 70
     1
102
RTVSPropertyOp48
 70
     1
102
RTVSPropertyOp49
 70
     1
102
RTVSPropertyOp50
 70
     1
102
RTVSPropertyOp51
 70
     0
102
RTVSPropertyOp52
 70
     0
102
RTVSPropertyOp53
 70
     1
102
RTVSPropertyOp54
 70
     1
102
RTVSPropertyOp55
 70
     1
102
RTVSPropertyOp56
 70
     1
102
RTVSPropertyOp57
 70
     1
102
RTVSPropertyOp58
 70
     1
102
RTVSPropertyOp59
 70
     1
102
RTVSPropertyOp60
 70
     1
102
RTVSPropertyOp61
 70
     1
102
RTVSPropertyOp62
 70
     1
  0
XRECORD
  5
18EE
102
{ACAD_REACTORS
330
18ED
102
}
330
18ED
100
AcDbXrecord
280
     1
102
RTVSPost2010Prop28
280
     0
102
RTVSPost2010PropOp28
 70
     1
102
RTVSPost2010Prop29
280
     1
102
RTVSPost2010PropOp29
 70
     1
102
RTVSPost2010Prop30
280
     1
102
RTVSPost2010PropOp30
 70
     1
102
RTVSPost2010Prop31
280
     0
102
RTVSPost2010PropOp31
 70
     1
102
RTVSPost2010Prop32
280
     0
102
RTVSPost2010PropOp32
 70
     1
102
RTVSPost2010Prop33
280
     0
102
RTVSPost2010PropOp33
 70
     1
102
RTVSPost2010Prop34
280
     0
102
RTVSPost2010PropOp34
 70
     1
102
RTVSPost2010Prop35
280
     0
102
RTVSPost2010PropOp35
 70
     1
102
RTVSPost2010Prop36
280
     0
102
RTVSPost2010PropOp36
 70
     1
102
RTVSPost2010Prop37
 90
       50
102
RTVSPost2010PropOp37
 70
     1
102
RTVSPost2010Prop38
140
0.0
102
RTVSPost2010PropOp38
 70
     1
102
RTVSPost2010Prop39
140
1.0
102
RTVSPost2010PropOp39
 70
     1
102
RTVSPost2010Prop40
 90
        0
102
RTVSPost2010PropOp40
 70
     1
102
RTVSPost2010Prop41ColorIndex
 90
       18
102
RTVSPost2010Prop41ColorRGB
 90
        0
102
RTVSPost2010PropOp41
 70
     1
102
RTVSPost2010Prop42
 90
       50
102
RTVSPost2010PropOp42
 70
     1
102
RTVSPost2010Prop43
 90
        3
102
RTVSPost2010PropOp43
 70
     1
102
RTVSPost2010Prop44ColorIndex
 90
        5
102
RTVSPost2010Prop44ColorRGB
 90
      255
102
RTVSPost2010PropOp44
 70
     1
102
RTVSPost2010Prop45
280
     0
102
RTVSPost2010PropOp45
 70
     1
102
RTVSPost2010Prop46
 90
       50
102
RTVSPost2010PropOp46
 70
     1
102
RTVSPost2010Prop47
 90
       50
102
RTVSPost2010PropOp47
 70
     1
102
RTVSPost2010Prop48
 90
       50
102
RTVSPost2010PropOp48
 70
     1
102
RTVSPost2010Prop49
280
     0
102
RTVSPost2010PropOp49
 70
     1
102
RTVSPost2010Prop50
 90
       50
102
RTVSPost2010PropOp50
 70
     1
102
RTVSPost2010Prop51ColorIndex
 90
      256
102
RTVSPost2010Prop51ColorRGB
 90
-16777216
102
RTVSPost2010PropOp51
 70
     0
102
RTVSPost2010Prop52
140
1.0
102
RTVSPost2010PropOp52
 70
     0
102
RTVSPost2010Prop53
 90
        2
102
RTVSPost2010PropOp53
 70
     1
102
RTVSPost2010Prop54
  1
strokes_ogs.tif
102
RTVSPost2010PropOp54
 70
     1
102
RTVSPost2010Prop55
280
     0
102
RTVSPost2010PropOp55
 70
     1
102
RTVSPost2010Prop56
140
1.0
102
RTVSPost2010PropOp56
 70
     1
102
RTVSPost2010Prop57
140
1.0
102
RTVSPost2010PropOp57
 70
     1
102
RTVSPropertyOp0
 70
     0
102
RTVSPropertyOp1
 70
     0
102
RTVSPropertyOp2
 70
     0
102
RTVSPropertyOp3
 70
     0
102
RTVSPropertyOp4
 70
     0
102
RTVSPropertyOp5
 70
     0
102
RTVSPropertyOp6
 70
     0
102
RTVSPropertyOp7
 70
     0
102
RTVSPropertyOp8
 70
     0
102
RTVSPropertyOp9
 70
     0
102
RTVSPropertyOp10
 70
     0
102
RTVSPropertyOp11
 70
     0
102
RTVSPropertyOp12
 70
     0
102
RTVSPropertyOp13
 70
     0
102
RTVSPropertyOp14
 70
     2
102
RTVSPropertyOp15
 70
     0
102
RTVSPropertyOp16
 70
     0
102
RTVSPropertyOp17
 70
     0
102
RTVSPropertyOp18
 70
     0
102
RTVSPropertyOp19
 70
     0
102
RTVSPropertyOp20
 70
     0
102
RTVSPropertyOp21
 70
     0
102
RTVSPropertyOp22
 70
     0
102
RTVSPropertyOp23
 70
     0
102
RTVSPropertyOp24
 70
     0
102
RTVSPropertyOp25
 70
     0
102
RTVSPropertyOp26
 70
     0
102
RTVSPropertyOp27
 70
     0
102
RTVSPropertyOp28
 70
     1
102
RTVSPropertyOp29
 70
     1
102
RTVSPropertyOp30
 70
     1
102
RTVSPropertyOp31
 70
     1
102
RTVSPropertyOp32
 70
     1
102
RTVSPropertyOp33
 70
     1
102
RTVSPropertyOp34
 70
     1
102
RTVSPropertyOp35
 70
     1
102
RTVSPropertyOp36
 70
     1
102
RTVSPropertyOp37
 70
     1
102
RTVSPropertyOp38
 70
     1
102
RTVSPropertyOp39
 70
     1
102
RTVSPropertyOp40
 70
     1
102
RTVSPropertyOp41
 70
     1
102
RTVSPropertyOp42
 70
     1
102
RTVSPropertyOp43
 70
     1
102
RTVSPropertyOp44
 70
     1
102
RTVSPropertyOp45
 70
     1
102
RTVSPropertyOp46
 70
     1
102
RTVSPropertyOp47
 70
     1
102
RTVSPropertyOp48
 70
     1
102
RTVSPropertyOp49
 70
     1
102
RTVSPropertyOp50
 70
     1
102
RTVSPropertyOp51
 70
     0
102
RTVSPropertyOp52
 70
     0
102
RTVSPropertyOp53
 70
     1
102
RTVSPropertyOp54
 70
     1
102
RTVSPropertyOp55
 70
     1
102
RTVSPropertyOp56
 70
     1
102
RTVSPropertyOp57
 70
     1
102
RTVSPropertyOp58
 70
     1
102
RTVSPropertyOp59
 70
     1
102
RTVSPropertyOp60
 70
     1
102
RTVSPropertyOp61
 70
     1
102
RTVSPropertyOp62
 70
     1
  0
XRECORD
  5
18D6
102
{ACAD_REACTORS
330
18D5
102
}
330
18D5
100
AcDbXrecord
280
     1
102
RTVSPost2010Prop28
280
     0
102
RTVSPost2010PropOp28
 70
     1
102
RTVSPost2010Prop29
280
     1
102
RTVSPost2010PropOp29
 70
     1
102
RTVSPost2010Prop30
280
     1
102
RTVSPost2010PropOp30
 70
     1
102
RTVSPost2010Prop31
280
     0
102
RTVSPost2010PropOp31
 70
     1
102
RTVSPost2010Prop32
280
     0
102
RTVSPost2010PropOp32
 70
     1
102
RTVSPost2010Prop33
280
     0
102
RTVSPost2010PropOp33
 70
     1
102
RTVSPost2010Prop34
280
     0
102
RTVSPost2010PropOp34
 70
     1
102
RTVSPost2010Prop35
280
     0
102
RTVSPost2010PropOp35
 70
     1
102
RTVSPost2010Prop36
280
     0
102
RTVSPost2010PropOp36
 70
     1
102
RTVSPost2010Prop37
 90
       50
102
RTVSPost2010PropOp37
 70
     1
102
RTVSPost2010Prop38
140
0.0
102
RTVSPost2010PropOp38
 70
     1
102
RTVSPost2010Prop39
140
1.0
102
RTVSPost2010PropOp39
 70
     1
102
RTVSPost2010Prop40
 90
        0
102
RTVSPost2010PropOp40
 70
     1
102
RTVSPost2010Prop41ColorIndex
 90
       18
102
RTVSPost2010Prop41ColorRGB
 90
        0
102
RTVSPost2010PropOp41
 70
     1
102
RTVSPost2010Prop42
 90
       50
102
RTVSPost2010PropOp42
 70
     1
102
RTVSPost2010Prop43
 90
        3
102
RTVSPost2010PropOp43
 70
     1
102
RTVSPost2010Prop44ColorIndex
 90
        5
102
RTVSPost2010Prop44ColorRGB
 90
      255
102
RTVSPost2010PropOp44
 70
     1
102
RTVSPost2010Prop45
280
     0
102
RTVSPost2010PropOp45
 70
     1
102
RTVSPost2010Prop46
 90
       50
102
RTVSPost2010PropOp46
 70
     1
102
RTVSPost2010Prop47
 90
       50
102
RTVSPost2010PropOp47
 70
     1
102
RTVSPost2010Prop48
 90
       50
102
RTVSPost2010PropOp48
 70
     1
102
RTVSPost2010Prop49
280
     0
102
RTVSPost2010PropOp49
 70
     1
102
RTVSPost2010Prop50
 90
       50
102
RTVSPost2010PropOp50
 70
     1
102
RTVSPost2010Prop51ColorIndex
 90
      256
102
RTVSPost2010Prop51ColorRGB
 90
-16777216
102
RTVSPost2010PropOp51
 70
     0
102
RTVSPost2010Prop52
140
1.0
102
RTVSPost2010PropOp52
 70
     0
102
RTVSPost2010Prop53
 90
        2
102
RTVSPost2010PropOp53
 70
     1
102
RTVSPost2010Prop54
  1
strokes_ogs.tif
102
RTVSPost2010PropOp54
 70
     1
102
RTVSPost2010Prop55
280
     0
102
RTVSPost2010PropOp55
 70
     1
102
RTVSPost2010Prop56
140
1.0
102
RTVSPost2010PropOp56
 70
     1
102
RTVSPost2010Prop57
140
1.0
102
RTVSPost2010PropOp57
 70
     1
102
RTVSPropertyOp0
 70
     1
102
RTVSPropertyOp1
 70
     1
102
RTVSPropertyOp2
 70
     1
102
RTVSPropertyOp3
 70
     1
102
RTVSPropertyOp4
 70
     1
102
RTVSPropertyOp5
 70
     1
102
RTVSPropertyOp6
 70
     1
102
RTVSPropertyOp7
 70
     1
102
RTVSPropertyOp8
 70
     1
102
RTVSPropertyOp9
 70
     1
102
RTVSPropertyOp10
 70
     1
102
RTVSPropertyOp11
 70
     1
102
RTVSPropertyOp12
 70
     1
102
RTVSPropertyOp13
 70
     1
102
RTVSPropertyOp14
 70
     1
102
RTVSPropertyOp15
 70
     1
102
RTVSPropertyOp16
 70
     1
102
RTVSPropertyOp17
 70
     1
102
RTVSPropertyOp18
 70
     1
102
RTVSPropertyOp19
 70
     1
102
RTVSPropertyOp20
 70
     1
102
RTVSPropertyOp21
 70
     1
102
RTVSPropertyOp22
 70
     1
102
RTVSPropertyOp23
 70
     1
102
RTVSPropertyOp24
 70
     1
102
RTVSPropertyOp25
 70
     1
102
RTVSPropertyOp26
 70
     1
102
RTVSPropertyOp27
 70
     1
102
RTVSPropertyOp28
 70
     1
102
RTVSPropertyOp29
 70
     1
102
RTVSPropertyOp30
 70
     1
102
RTVSPropertyOp31
 70
     1
102
RTVSPropertyOp32
 70
     1
102
RTVSPropertyOp33
 70
     1
102
RTVSPropertyOp34
 70
     1
102
RTVSPropertyOp35
 70
     1
102
RTVSPropertyOp36
 70
     1
102
RTVSPropertyOp37
 70
     1
102
RTVSPropertyOp38
 70
     1
102
RTVSPropertyOp39
 70
     1
102
RTVSPropertyOp40
 70
     1
102
RTVSPropertyOp41
 70
     1
102
RTVSPropertyOp42
 70
     1
102
RTVSPropertyOp43
 70
     1
102
RTVSPropertyOp44
 70
     1
102
RTVSPropertyOp45
 70
     1
102
RTVSPropertyOp46
 70
     1
102
RTVSPropertyOp47
 70
     1
102
RTVSPropertyOp48
 70
     1
102
RTVSPropertyOp49
 70
     1
102
RTVSPropertyOp50
 70
     1
102
RTVSPropertyOp51
 70
     0
102
RTVSPropertyOp52
 70
     0
102
RTVSPropertyOp53
 70
     1
102
RTVSPropertyOp54
 70
     1
102
RTVSPropertyOp55
 70
     1
102
RTVSPropertyOp56
 70
     1
102
RTVSPropertyOp57
 70
     1
102
RTVSPropertyOp58
 70
     1
102
RTVSPropertyOp59
 70
     1
102
RTVSPropertyOp60
 70
     1
102
RTVSPropertyOp61
 70
     1
102
RTVSPropertyOp62
 70
     1
  0
XRECORD
  5
18BA
102
{ACAD_REACTORS
330
18B9
102
}
330
18B9
100
AcDbXrecord
280
     1
102
RTVSPost2010Prop28
280
     0
102
RTVSPost2010PropOp28
 70
     1
102
RTVSPost2010Prop29
280
     1
102
RTVSPost2010PropOp29
 70
     1
102
RTVSPost2010Prop30
280
     1
102
RTVSPost2010PropOp30
 70
     1
102
RTVSPost2010Prop31
280
     0
102
RTVSPost2010PropOp31
 70
     1
102
RTVSPost2010Prop32
280
     0
102
RTVSPost2010PropOp32
 70
     1
102
RTVSPost2010Prop33
280
     0
102
RTVSPost2010PropOp33
 70
     1
102
RTVSPost2010Prop34
280
     0
102
RTVSPost2010PropOp34
 70
     1
102
RTVSPost2010Prop35
280
     0
102
RTVSPost2010PropOp35
 70
     1
102
RTVSPost2010Prop36
280
     0
102
RTVSPost2010PropOp36
 70
     1
102
RTVSPost2010Prop37
 90
       50
102
RTVSPost2010PropOp37
 70
     1
102
RTVSPost2010Prop38
140
0.0
102
RTVSPost2010PropOp38
 70
     1
102
RTVSPost2010Prop39
140
1.0
102
RTVSPost2010PropOp39
 70
     1
102
RTVSPost2010Prop40
 90
        0
102
RTVSPost2010PropOp40
 70
     1
102
RTVSPost2010Prop41ColorIndex
 90
       18
102
RTVSPost2010Prop41ColorRGB
 90
        0
102
RTVSPost2010PropOp41
 70
     1
102
RTVSPost2010Prop42
 90
       50
102
RTVSPost2010PropOp42
 70
     1
102
RTVSPost2010Prop43
 90
        3
102
RTVSPost2010PropOp43
 70
     1
102
RTVSPost2010Prop44ColorIndex
 90
        5
102
RTVSPost2010Prop44ColorRGB
 90
      255
102
RTVSPost2010PropOp44
 70
     1
102
RTVSPost2010Prop45
280
     0
102
RTVSPost2010PropOp45
 70
     1
102
RTVSPost2010Prop46
 90
       50
102
RTVSPost2010PropOp46
 70
     1
102
RTVSPost2010Prop47
 90
       50
102
RTVSPost2010PropOp47
 70
     1
102
RTVSPost2010Prop48
 90
       50
102
RTVSPost2010PropOp48
 70
     1
102
RTVSPost2010Prop49
280
     0
102
RTVSPost2010PropOp49
 70
     1
102
RTVSPost2010Prop50
 90
       50
102
RTVSPost2010PropOp50
 70
     1
102
RTVSPost2010Prop51ColorIndex
 90
      256
102
RTVSPost2010Prop51ColorRGB
 90
-16777216
102
RTVSPost2010PropOp51
 70
     0
102
RTVSPost2010Prop52
140
1.0
102
RTVSPost2010PropOp52
 70
     0
102
RTVSPost2010Prop53
 90
        2
102
RTVSPost2010PropOp53
 70
     1
102
RTVSPost2010Prop54
  1
strokes_ogs.tif
102
RTVSPost2010PropOp54
 70
     1
102
RTVSPost2010Prop55
280
     0
102
RTVSPost2010PropOp55
 70
     1
102
RTVSPost2010Prop56
140
1.0
102
RTVSPost2010PropOp56
 70
     1
102
RTVSPost2010Prop57
140
1.0
102
RTVSPost2010PropOp57
 70
     1
102
RTVSPropertyOp0
 70
     1
102
RTVSPropertyOp1
 70
     1
102
RTVSPropertyOp2
 70
     1
102
RTVSPropertyOp3
 70
     1
102
RTVSPropertyOp4
 70
     1
102
RTVSPropertyOp5
 70
     1
102
RTVSPropertyOp6
 70
     1
102
RTVSPropertyOp7
 70
     1
102
RTVSPropertyOp8
 70
     1
102
RTVSPropertyOp9
 70
     1
102
RTVSPropertyOp10
 70
     1
102
RTVSPropertyOp11
 70
     1
102
RTVSPropertyOp12
 70
     1
102
RTVSPropertyOp13
 70
     1
102
RTVSPropertyOp14
 70
     1
102
RTVSPropertyOp15
 70
     1
102
RTVSPropertyOp16
 70
     1
102
RTVSPropertyOp17
 70
     1
102
RTVSPropertyOp18
 70
     1
102
RTVSPropertyOp19
 70
     1
102
RTVSPropertyOp20
 70
     1
102
RTVSPropertyOp21
 70
     1
102
RTVSPropertyOp22
 70
     1
102
RTVSPropertyOp23
 70
     1
102
RTVSPropertyOp24
 70
     1
102
RTVSPropertyOp25
 70
     1
102
RTVSPropertyOp26
 70
     1
102
RTVSPropertyOp27
 70
     1
102
RTVSPropertyOp28
 70
     1
102
RTVSPropertyOp29
 70
     1
102
RTVSPropertyOp30
 70
     1
102
RTVSPropertyOp31
 70
     1
102
RTVSPropertyOp32
 70
     1
102
RTVSPropertyOp33
 70
     1
102
RTVSPropertyOp34
 70
     1
102
RTVSPropertyOp35
 70
     1
102
RTVSPropertyOp36
 70
     1
102
RTVSPropertyOp37
 70
     1
102
RTVSPropertyOp38
 70
     1
102
RTVSPropertyOp39
 70
     1
102
RTVSPropertyOp40
 70
     1
102
RTVSPropertyOp41
 70
     1
102
RTVSPropertyOp42
 70
     1
102
RTVSPropertyOp43
 70
     1
102
RTVSPropertyOp44
 70
     1
102
RTVSPropertyOp45
 70
     1
102
RTVSPropertyOp46
 70
     1
102
RTVSPropertyOp47
 70
     1
102
RTVSPropertyOp48
 70
     1
102
RTVSPropertyOp49
 70
     1
102
RTVSPropertyOp50
 70
     1
102
RTVSPropertyOp51
 70
     0
102
RTVSPropertyOp52
 70
     0
102
RTVSPropertyOp53
 70
     1
102
RTVSPropertyOp54
 70
     1
102
RTVSPropertyOp55
 70
     1
102
RTVSPropertyOp56
 70
     1
102
RTVSPropertyOp57
 70
     1
102
RTVSPropertyOp58
 70
     1
102
RTVSPropertyOp59
 70
     1
102
RTVSPropertyOp60
 70
     1
102
RTVSPropertyOp61
 70
     1
102
RTVSPropertyOp62
 70
     1
  0
XRECORD
  5
18BC
102
{ACAD_REACTORS
330
18BB
102
}
330
18BB
100
AcDbXrecord
280
     1
102
RTVSPost2010Prop28
280
     0
102
RTVSPost2010PropOp28
 70
     1
102
RTVSPost2010Prop29
280
     1
102
RTVSPost2010PropOp29
 70
     1
102
RTVSPost2010Prop30
280
     1
102
RTVSPost2010PropOp30
 70
     1
102
RTVSPost2010Prop31
280
     0
102
RTVSPost2010PropOp31
 70
     1
102
RTVSPost2010Prop32
280
     0
102
RTVSPost2010PropOp32
 70
     1
102
RTVSPost2010Prop33
280
     0
102
RTVSPost2010PropOp33
 70
     1
102
RTVSPost2010Prop34
280
     0
102
RTVSPost2010PropOp34
 70
     1
102
RTVSPost2010Prop35
280
     0
102
RTVSPost2010PropOp35
 70
     1
102
RTVSPost2010Prop36
280
     0
102
RTVSPost2010PropOp36
 70
     1
102
RTVSPost2010Prop37
 90
       50
102
RTVSPost2010PropOp37
 70
     1
102
RTVSPost2010Prop38
140
0.0
102
RTVSPost2010PropOp38
 70
     1
102
RTVSPost2010Prop39
140
1.0
102
RTVSPost2010PropOp39
 70
     1
102
RTVSPost2010Prop40
 90
        0
102
RTVSPost2010PropOp40
 70
     1
102
RTVSPost2010Prop41ColorIndex
 90
       18
102
RTVSPost2010Prop41ColorRGB
 90
        0
102
RTVSPost2010PropOp41
 70
     1
102
RTVSPost2010Prop42
 90
       50
102
RTVSPost2010PropOp42
 70
     1
102
RTVSPost2010Prop43
 90
        3
102
RTVSPost2010PropOp43
 70
     1
102
RTVSPost2010Prop44ColorIndex
 90
        5
102
RTVSPost2010Prop44ColorRGB
 90
      255
102
RTVSPost2010PropOp44
 70
     1
102
RTVSPost2010Prop45
280
     0
102
RTVSPost2010PropOp45
 70
     1
102
RTVSPost2010Prop46
 90
       50
102
RTVSPost2010PropOp46
 70
     1
102
RTVSPost2010Prop47
 90
       50
102
RTVSPost2010PropOp47
 70
     1
102
RTVSPost2010Prop48
 90
       50
102
RTVSPost2010PropOp48
 70
     1
102
RTVSPost2010Prop49
280
     0
102
RTVSPost2010PropOp49
 70
     1
102
RTVSPost2010Prop50
 90
       50
102
RTVSPost2010PropOp50
 70
     1
102
RTVSPost2010Prop51ColorIndex
 90
      256
102
RTVSPost2010Prop51ColorRGB
 90
-16777216
102
RTVSPost2010PropOp51
 70
     0
102
RTVSPost2010Prop52
140
1.0
102
RTVSPost2010PropOp52
 70
     0
102
RTVSPost2010Prop53
 90
        2
102
RTVSPost2010PropOp53
 70
     1
102
RTVSPost2010Prop54
  1
strokes_ogs.tif
102
RTVSPost2010PropOp54
 70
     1
102
RTVSPost2010Prop55
280
     0
102
RTVSPost2010PropOp55
 70
     1
102
RTVSPost2010Prop56
140
1.0
102
RTVSPost2010PropOp56
 70
     1
102
RTVSPost2010Prop57
140
1.0
102
RTVSPost2010PropOp57
 70
     1
102
RTVSPropertyOp0
 70
     1
102
RTVSPropertyOp1
 70
     1
102
RTVSPropertyOp2
 70
     1
102
RTVSPropertyOp3
 70
     1
102
RTVSPropertyOp4
 70
     1
102
RTVSPropertyOp5
 70
     1
102
RTVSPropertyOp6
 70
     1
102
RTVSPropertyOp7
 70
     1
102
RTVSPropertyOp8
 70
     1
102
RTVSPropertyOp9
 70
     1
102
RTVSPropertyOp10
 70
     1
102
RTVSPropertyOp11
 70
     1
102
RTVSPropertyOp12
 70
     1
102
RTVSPropertyOp13
 70
     1
102
RTVSPropertyOp14
 70
     1
102
RTVSPropertyOp15
 70
     1
102
RTVSPropertyOp16
 70
     1
102
RTVSPropertyOp17
 70
     1
102
RTVSPropertyOp18
 70
     1
102
RTVSPropertyOp19
 70
     1
102
RTVSPropertyOp20
 70
     1
102
RTVSPropertyOp21
 70
     1
102
RTVSPropertyOp22
 70
     1
102
RTVSPropertyOp23
 70
     1
102
RTVSPropertyOp24
 70
     1
102
RTVSPropertyOp25
 70
     1
102
RTVSPropertyOp26
 70
     1
102
RTVSPropertyOp27
 70
     1
102
RTVSPropertyOp28
 70
     1
102
RTVSPropertyOp29
 70
     1
102
RTVSPropertyOp30
 70
     1
102
RTVSPropertyOp31
 70
     1
102
RTVSPropertyOp32
 70
     1
102
RTVSPropertyOp33
 70
     1
102
RTVSPropertyOp34
 70
     1
102
RTVSPropertyOp35
 70
     1
102
RTVSPropertyOp36
 70
     1
102
RTVSPropertyOp37
 70
     1
102
RTVSPropertyOp38
 70
     1
102
RTVSPropertyOp39
 70
     1
102
RTVSPropertyOp40
 70
     1
102
RTVSPropertyOp41
 70
     1
102
RTVSPropertyOp42
 70
     1
102
RTVSPropertyOp43
 70
     1
102
RTVSPropertyOp44
 70
     1
102
RTVSPropertyOp45
 70
     1
102
RTVSPropertyOp46
 70
     1
102
RTVSPropertyOp47
 70
     1
102
RTVSPropertyOp48
 70
     1
102
RTVSPropertyOp49
 70
     1
102
RTVSPropertyOp50
 70
     1
102
RTVSPropertyOp51
 70
     0
102
RTVSPropertyOp52
 70
     0
102
RTVSPropertyOp53
 70
     1
102
RTVSPropertyOp54
 70
     1
102
RTVSPropertyOp55
 70
     1
102
RTVSPropertyOp56
 70
     1
102
RTVSPropertyOp57
 70
     1
102
RTVSPropertyOp58
 70
     1
102
RTVSPropertyOp59
 70
     1
102
RTVSPropertyOp60
 70
     1
102
RTVSPropertyOp61
 70
     1
102
RTVSPropertyOp62
 70
     1
  0
XRECORD
  5
18BE
102
{ACAD_REACTORS
330
18BD
102
}
330
18BD
100
AcDbXrecord
280
     1
102
RTVSPost2010Prop28
280
     0
102
RTVSPost2010PropOp28
 70
     1
102
RTVSPost2010Prop29
280
     1
102
RTVSPost2010PropOp29
 70
     1
102
RTVSPost2010Prop30
280
     1
102
RTVSPost2010PropOp30
 70
     1
102
RTVSPost2010Prop31
280
     0
102
RTVSPost2010PropOp31
 70
     1
102
RTVSPost2010Prop32
280
     0
102
RTVSPost2010PropOp32
 70
     1
102
RTVSPost2010Prop33
280
     0
102
RTVSPost2010PropOp33
 70
     1
102
RTVSPost2010Prop34
280
     0
102
RTVSPost2010PropOp34
 70
     1
102
RTVSPost2010Prop35
280
     0
102
RTVSPost2010PropOp35
 70
     1
102
RTVSPost2010Prop36
280
     0
102
RTVSPost2010PropOp36
 70
     1
102
RTVSPost2010Prop37
 90
       50
102
RTVSPost2010PropOp37
 70
     1
102
RTVSPost2010Prop38
140
0.0
102
RTVSPost2010PropOp38
 70
     1
102
RTVSPost2010Prop39
140
1.0
102
RTVSPost2010PropOp39
 70
     1
102
RTVSPost2010Prop40
 90
        0
102
RTVSPost2010PropOp40
 70
     1
102
RTVSPost2010Prop41ColorIndex
 90
       18
102
RTVSPost2010Prop41ColorRGB
 90
        0
102
RTVSPost2010PropOp41
 70
     1
102
RTVSPost2010Prop42
 90
       50
102
RTVSPost2010PropOp42
 70
     1
102
RTVSPost2010Prop43
 90
        3
102
RTVSPost2010PropOp43
 70
     1
102
RTVSPost2010Prop44ColorIndex
 90
        5
102
RTVSPost2010Prop44ColorRGB
 90
      255
102
RTVSPost2010PropOp44
 70
     1
102
RTVSPost2010Prop45
280
     0
102
RTVSPost2010PropOp45
 70
     1
102
RTVSPost2010Prop46
 90
       50
102
RTVSPost2010PropOp46
 70
     1
102
RTVSPost2010Prop47
 90
       50
102
RTVSPost2010PropOp47
 70
     1
102
RTVSPost2010Prop48
 90
       50
102
RTVSPost2010PropOp48
 70
     1
102
RTVSPost2010Prop49
280
     0
102
RTVSPost2010PropOp49
 70
     1
102
RTVSPost2010Prop50
 90
       50
102
RTVSPost2010PropOp50
 70
     1
102
RTVSPost2010Prop51ColorIndex
 90
      256
102
RTVSPost2010Prop51ColorRGB
 90
-16777216
102
RTVSPost2010PropOp51
 70
     0
102
RTVSPost2010Prop52
140
1.0
102
RTVSPost2010PropOp52
 70
     0
102
RTVSPost2010Prop53
 90
        2
102
RTVSPost2010PropOp53
 70
     1
102
RTVSPost2010Prop54
  1
strokes_ogs.tif
102
RTVSPost2010PropOp54
 70
     1
102
RTVSPost2010Prop55
280
     0
102
RTVSPost2010PropOp55
 70
     1
102
RTVSPost2010Prop56
140
1.0
102
RTVSPost2010PropOp56
 70
     1
102
RTVSPost2010Prop57
140
1.0
102
RTVSPost2010PropOp57
 70
     1
102
RTVSPropertyOp0
 70
     1
102
RTVSPropertyOp1
 70
     1
102
RTVSPropertyOp2
 70
     1
102
RTVSPropertyOp3
 70
     1
102
RTVSPropertyOp4
 70
     1
102
RTVSPropertyOp5
 70
     1
102
RTVSPropertyOp6
 70
     1
102
RTVSPropertyOp7
 70
     1
102
RTVSPropertyOp8
 70
     1
102
RTVSPropertyOp9
 70
     1
102
RTVSPropertyOp10
 70
     1
102
RTVSPropertyOp11
 70
     1
102
RTVSPropertyOp12
 70
     1
102
RTVSPropertyOp13
 70
     1
102
RTVSPropertyOp14
 70
     1
102
RTVSPropertyOp15
 70
     1
102
RTVSPropertyOp16
 70
     1
102
RTVSPropertyOp17
 70
     1
102
RTVSPropertyOp18
 70
     1
102
RTVSPropertyOp19
 70
     1
102
RTVSPropertyOp20
 70
     1
102
RTVSPropertyOp21
 70
     1
102
RTVSPropertyOp22
 70
     1
102
RTVSPropertyOp23
 70
     1
102
RTVSPropertyOp24
 70
     1
102
RTVSPropertyOp25
 70
     1
102
RTVSPropertyOp26
 70
     1
102
RTVSPropertyOp27
 70
     1
102
RTVSPropertyOp28
 70
     1
102
RTVSPropertyOp29
 70
     1
102
RTVSPropertyOp30
 70
     1
102
RTVSPropertyOp31
 70
     1
102
RTVSPropertyOp32
 70
     1
102
RTVSPropertyOp33
 70
     1
102
RTVSPropertyOp34
 70
     1
102
RTVSPropertyOp35
 70
     1
102
RTVSPropertyOp36
 70
     1
102
RTVSPropertyOp37
 70
     1
102
RTVSPropertyOp38
 70
     1
102
RTVSPropertyOp39
 70
     1
102
RTVSPropertyOp40
 70
     1
102
RTVSPropertyOp41
 70
     1
102
RTVSPropertyOp42
 70
     1
102
RTVSPropertyOp43
 70
     1
102
RTVSPropertyOp44
 70
     1
102
RTVSPropertyOp45
 70
     1
102
RTVSPropertyOp46
 70
     1
102
RTVSPropertyOp47
 70
     1
102
RTVSPropertyOp48
 70
     1
102
RTVSPropertyOp49
 70
     1
102
RTVSPropertyOp50
 70
     1
102
RTVSPropertyOp51
 70
     0
102
RTVSPropertyOp52
 70
     0
102
RTVSPropertyOp53
 70
     1
102
RTVSPropertyOp54
 70
     1
102
RTVSPropertyOp55
 70
     1
102
RTVSPropertyOp56
 70
     1
102
RTVSPropertyOp57
 70
     1
102
RTVSPropertyOp58
 70
     1
102
RTVSPropertyOp59
 70
     1
102
RTVSPropertyOp60
 70
     1
102
RTVSPropertyOp61
 70
     1
102
RTVSPropertyOp62
 70
     1
  0
XRECORD
  5
18C0
102
{ACAD_REACTORS
330
18BF
102
}
330
18BF
100
AcDbXrecord
280
     1
102
RTVSPost2010Prop28
280
     0
102
RTVSPost2010PropOp28
 70
     1
102
RTVSPost2010Prop29
280
     1
102
RTVSPost2010PropOp29
 70
     1
102
RTVSPost2010Prop30
280
     1
102
RTVSPost2010PropOp30
 70
     1
102
RTVSPost2010Prop31
280
     0
102
RTVSPost2010PropOp31
 70
     1
102
RTVSPost2010Prop32
280
     0
102
RTVSPost2010PropOp32
 70
     1
102
RTVSPost2010Prop33
280
     0
102
RTVSPost2010PropOp33
 70
     1
102
RTVSPost2010Prop34
280
     0
102
RTVSPost2010PropOp34
 70
     1
102
RTVSPost2010Prop35
280
     0
102
RTVSPost2010PropOp35
 70
     1
102
RTVSPost2010Prop36
280
     0
102
RTVSPost2010PropOp36
 70
     1
102
RTVSPost2010Prop37
 90
       50
102
RTVSPost2010PropOp37
 70
     1
102
RTVSPost2010Prop38
140
0.0
102
RTVSPost2010PropOp38
 70
     1
102
RTVSPost2010Prop39
140
1.0
102
RTVSPost2010PropOp39
 70
     1
102
RTVSPost2010Prop40
 90
        0
102
RTVSPost2010PropOp40
 70
     1
102
RTVSPost2010Prop41ColorIndex
 90
       18
102
RTVSPost2010Prop41ColorRGB
 90
        0
102
RTVSPost2010PropOp41
 70
     1
102
RTVSPost2010Prop42
 90
       50
102
RTVSPost2010PropOp42
 70
     1
102
RTVSPost2010Prop43
 90
        3
102
RTVSPost2010PropOp43
 70
     1
102
RTVSPost2010Prop44ColorIndex
 90
        5
102
RTVSPost2010Prop44ColorRGB
 90
      255
102
RTVSPost2010PropOp44
 70
     1
102
RTVSPost2010Prop45
280
     0
102
RTVSPost2010PropOp45
 70
     1
102
RTVSPost2010Prop46
 90
       50
102
RTVSPost2010PropOp46
 70
     1
102
RTVSPost2010Prop47
 90
       50
102
RTVSPost2010PropOp47
 70
     1
102
RTVSPost2010Prop48
 90
       50
102
RTVSPost2010PropOp48
 70
     1
102
RTVSPost2010Prop49
280
     0
102
RTVSPost2010PropOp49
 70
     1
102
RTVSPost2010Prop50
 90
       50
102
RTVSPost2010PropOp50
 70
     1
102
RTVSPost2010Prop51ColorIndex
 90
      256
102
RTVSPost2010Prop51ColorRGB
 90
-16777216
102
RTVSPost2010PropOp51
 70
     0
102
RTVSPost2010Prop52
140
1.0
102
RTVSPost2010PropOp52
 70
     0
102
RTVSPost2010Prop53
 90
        2
102
RTVSPost2010PropOp53
 70
     1
102
RTVSPost2010Prop54
  1
strokes_ogs.tif
102
RTVSPost2010PropOp54
 70
     1
102
RTVSPost2010Prop55
280
     0
102
RTVSPost2010PropOp55
 70
     1
102
RTVSPost2010Prop56
140
1.0
102
RTVSPost2010PropOp56
 70
     1
102
RTVSPost2010Prop57
140
1.0
102
RTVSPost2010PropOp57
 70
     1
102
RTVSPropertyOp0
 70
     1
102
RTVSPropertyOp1
 70
     1
102
RTVSPropertyOp2
 70
     1
102
RTVSPropertyOp3
 70
     1
102
RTVSPropertyOp4
 70
     1
102
RTVSPropertyOp5
 70
     1
102
RTVSPropertyOp6
 70
     1
102
RTVSPropertyOp7
 70
     1
102
RTVSPropertyOp8
 70
     1
102
RTVSPropertyOp9
 70
     1
102
RTVSPropertyOp10
 70
     1
102
RTVSPropertyOp11
 70
     1
102
RTVSPropertyOp12
 70
     1
102
RTVSPropertyOp13
 70
     1
102
RTVSPropertyOp14
 70
     1
102
RTVSPropertyOp15
 70
     1
102
RTVSPropertyOp16
 70
     1
102
RTVSPropertyOp17
 70
     1
102
RTVSPropertyOp18
 70
     1
102
RTVSPropertyOp19
 70
     1
102
RTVSPropertyOp20
 70
     1
102
RTVSPropertyOp21
 70
     1
102
RTVSPropertyOp22
 70
     1
102
RTVSPropertyOp23
 70
     1
102
RTVSPropertyOp24
 70
     1
102
RTVSPropertyOp25
 70
     1
102
RTVSPropertyOp26
 70
     1
102
RTVSPropertyOp27
 70
     1
102
RTVSPropertyOp28
 70
     1
102
RTVSPropertyOp29
 70
     1
102
RTVSPropertyOp30
 70
     1
102
RTVSPropertyOp31
 70
     1
102
RTVSPropertyOp32
 70
     1
102
RTVSPropertyOp33
 70
     1
102
RTVSPropertyOp34
 70
     1
102
RTVSPropertyOp35
 70
     1
102
RTVSPropertyOp36
 70
     1
102
RTVSPropertyOp37
 70
     1
102
RTVSPropertyOp38
 70
     1
102
RTVSPropertyOp39
 70
     1
102
RTVSPropertyOp40
 70
     1
102
RTVSPropertyOp41
 70
     1
102
RTVSPropertyOp42
 70
     1
102
RTVSPropertyOp43
 70
     1
102
RTVSPropertyOp44
 70
     1
102
RTVSPropertyOp45
 70
     1
102
RTVSPropertyOp46
 70
     1
102
RTVSPropertyOp47
 70
     1
102
RTVSPropertyOp48
 70
     1
102
RTVSPropertyOp49
 70
     1
102
RTVSPropertyOp50
 70
     1
102
RTVSPropertyOp51
 70
     0
102
RTVSPropertyOp52
 70
     0
102
RTVSPropertyOp53
 70
     1
102
RTVSPropertyOp54
 70
     1
102
RTVSPropertyOp55
 70
     1
102
RTVSPropertyOp56
 70
     1
102
RTVSPropertyOp57
 70
     1
102
RTVSPropertyOp58
 70
     1
102
RTVSPropertyOp59
 70
     1
102
RTVSPropertyOp60
 70
     1
102
RTVSPropertyOp61
 70
     1
102
RTVSPropertyOp62
 70
     1
  0
XRECORD
  5
18DE
102
{ACAD_REACTORS
330
18DD
102
}
330
18DD
100
AcDbXrecord
280
     1
102
RTVSPost2010Prop28
280
     0
102
RTVSPost2010PropOp28
 70
     1
102
RTVSPost2010Prop29
280
     1
102
RTVSPost2010PropOp29
 70
     1
102
RTVSPost2010Prop30
280
     1
102
RTVSPost2010PropOp30
 70
     1
102
RTVSPost2010Prop31
280
     0
102
RTVSPost2010PropOp31
 70
     1
102
RTVSPost2010Prop32
280
     0
102
RTVSPost2010PropOp32
 70
     1
102
RTVSPost2010Prop33
280
     0
102
RTVSPost2010PropOp33
 70
     1
102
RTVSPost2010Prop34
280
     0
102
RTVSPost2010PropOp34
 70
     1
102
RTVSPost2010Prop35
280
     0
102
RTVSPost2010PropOp35
 70
     1
102
RTVSPost2010Prop36
280
     0
102
RTVSPost2010PropOp36
 70
     1
102
RTVSPost2010Prop37
 90
       50
102
RTVSPost2010PropOp37
 70
     1
102
RTVSPost2010Prop38
140
0.0
102
RTVSPost2010PropOp38
 70
     1
102
RTVSPost2010Prop39
140
1.0
102
RTVSPost2010PropOp39
 70
     1
102
RTVSPost2010Prop40
 90
        0
102
RTVSPost2010PropOp40
 70
     1
102
RTVSPost2010Prop41ColorIndex
 90
       18
102
RTVSPost2010Prop41ColorRGB
 90
        0
102
RTVSPost2010PropOp41
 70
     1
102
RTVSPost2010Prop42
 90
       50
102
RTVSPost2010PropOp42
 70
     1
102
RTVSPost2010Prop43
 90
        3
102
RTVSPost2010PropOp43
 70
     1
102
RTVSPost2010Prop44ColorIndex
 90
        5
102
RTVSPost2010Prop44ColorRGB
 90
      255
102
RTVSPost2010PropOp44
 70
     1
102
RTVSPost2010Prop45
280
     0
102
RTVSPost2010PropOp45
 70
     1
102
RTVSPost2010Prop46
 90
       50
102
RTVSPost2010PropOp46
 70
     1
102
RTVSPost2010Prop47
 90
       50
102
RTVSPost2010PropOp47
 70
     1
102
RTVSPost2010Prop48
 90
       50
102
RTVSPost2010PropOp48
 70
     1
102
RTVSPost2010Prop49
280
     0
102
RTVSPost2010PropOp49
 70
     1
102
RTVSPost2010Prop50
 90
       50
102
RTVSPost2010PropOp50
 70
     1
102
RTVSPost2010Prop51ColorIndex
 90
      256
102
RTVSPost2010Prop51ColorRGB
 90
-16777216
102
RTVSPost2010PropOp51
 70
     0
102
RTVSPost2010Prop52
140
1.0
102
RTVSPost2010PropOp52
 70
     0
102
RTVSPost2010Prop53
 90
        2
102
RTVSPost2010PropOp53
 70
     1
102
RTVSPost2010Prop54
  1
strokes_ogs.tif
102
RTVSPost2010PropOp54
 70
     1
102
RTVSPost2010Prop55
280
     0
102
RTVSPost2010PropOp55
 70
     1
102
RTVSPost2010Prop56
140
1.0
102
RTVSPost2010PropOp56
 70
     1
102
RTVSPost2010Prop57
140
1.0
102
RTVSPost2010PropOp57
 70
     1
102
RTVSPropertyOp0
 70
     1
102
RTVSPropertyOp1
 70
     1
102
RTVSPropertyOp2
 70
     1
102
RTVSPropertyOp3
 70
     1
102
RTVSPropertyOp4
 70
     1
102
RTVSPropertyOp5
 70
     1
102
RTVSPropertyOp6
 70
     1
102
RTVSPropertyOp7
 70
     1
102
RTVSPropertyOp8
 70
     1
102
RTVSPropertyOp9
 70
     1
102
RTVSPropertyOp10
 70
     1
102
RTVSPropertyOp11
 70
     1
102
RTVSPropertyOp12
 70
     1
102
RTVSPropertyOp13
 70
     1
102
RTVSPropertyOp14
 70
     1
102
RTVSPropertyOp15
 70
     1
102
RTVSPropertyOp16
 70
     1
102
RTVSPropertyOp17
 70
     1
102
RTVSPropertyOp18
 70
     1
102
RTVSPropertyOp19
 70
     1
102
RTVSPropertyOp20
 70
     1
102
RTVSPropertyOp21
 70
     1
102
RTVSPropertyOp22
 70
     1
102
RTVSPropertyOp23
 70
     1
102
RTVSPropertyOp24
 70
     1
102
RTVSPropertyOp25
 70
     1
102
RTVSPropertyOp26
 70
     1
102
RTVSPropertyOp27
 70
     1
102
RTVSPropertyOp28
 70
     1
102
RTVSPropertyOp29
 70
     1
102
RTVSPropertyOp30
 70
     1
102
RTVSPropertyOp31
 70
     1
102
RTVSPropertyOp32
 70
     1
102
RTVSPropertyOp33
 70
     1
102
RTVSPropertyOp34
 70
     1
102
RTVSPropertyOp35
 70
     1
102
RTVSPropertyOp36
 70
     1
102
RTVSPropertyOp37
 70
     1
102
RTVSPropertyOp38
 70
     1
102
RTVSPropertyOp39
 70
     1
102
RTVSPropertyOp40
 70
     1
102
RTVSPropertyOp41
 70
     1
102
RTVSPropertyOp42
 70
     1
102
RTVSPropertyOp43
 70
     1
102
RTVSPropertyOp44
 70
     1
102
RTVSPropertyOp45
 70
     1
102
RTVSPropertyOp46
 70
     1
102
RTVSPropertyOp47
 70
     1
102
RTVSPropertyOp48
 70
     1
102
RTVSPropertyOp49
 70
     1
102
RTVSPropertyOp50
 70
     1
102
RTVSPropertyOp51
 70
     0
102
RTVSPropertyOp52
 70
     0
102
RTVSPropertyOp53
 70
     1
102
RTVSPropertyOp54
 70
     1
102
RTVSPropertyOp55
 70
     1
102
RTVSPropertyOp56
 70
     1
102
RTVSPropertyOp57
 70
     1
102
RTVSPropertyOp58
 70
     1
102
RTVSPropertyOp59
 70
     1
102
RTVSPropertyOp60
 70
     1
102
RTVSPropertyOp61
 70
     1
102
RTVSPropertyOp62
 70
     1
  0
XRECORD
  5
18EA
102
{ACAD_REACTORS
330
18E9
102
}
330
18E9
100
AcDbXrecord
280
     1
102
RTVSPost2010Prop28
280
     0
102
RTVSPost2010PropOp28
 70
     1
102
RTVSPost2010Prop29
280
     1
102
RTVSPost2010PropOp29
 70
     1
102
RTVSPost2010Prop30
280
     1
102
RTVSPost2010PropOp30
 70
     1
102
RTVSPost2010Prop31
280
     0
102
RTVSPost2010PropOp31
 70
     1
102
RTVSPost2010Prop32
280
     0
102
RTVSPost2010PropOp32
 70
     1
102
RTVSPost2010Prop33
280
     0
102
RTVSPost2010PropOp33
 70
     1
102
RTVSPost2010Prop34
280
     0
102
RTVSPost2010PropOp34
 70
     1
102
RTVSPost2010Prop35
280
     0
102
RTVSPost2010PropOp35
 70
     1
102
RTVSPost2010Prop36
280
     0
102
RTVSPost2010PropOp36
 70
     1
102
RTVSPost2010Prop37
 90
       50
102
RTVSPost2010PropOp37
 70
     1
102
RTVSPost2010Prop38
140
0.0
102
RTVSPost2010PropOp38
 70
     1
102
RTVSPost2010Prop39
140
1.0
102
RTVSPost2010PropOp39
 70
     1
102
RTVSPost2010Prop40
 90
        0
102
RTVSPost2010PropOp40
 70
     1
102
RTVSPost2010Prop41ColorIndex
 90
       18
102
RTVSPost2010Prop41ColorRGB
 90
        0
102
RTVSPost2010PropOp41
 70
     1
102
RTVSPost2010Prop42
 90
       50
102
RTVSPost2010PropOp42
 70
     1
102
RTVSPost2010Prop43
 90
        3
102
RTVSPost2010PropOp43
 70
     1
102
RTVSPost2010Prop44ColorIndex
 90
        5
102
RTVSPost2010Prop44ColorRGB
 90
      255
102
RTVSPost2010PropOp44
 70
     1
102
RTVSPost2010Prop45
280
     0
102
RTVSPost2010PropOp45
 70
     1
102
RTVSPost2010Prop46
 90
       50
102
RTVSPost2010PropOp46
 70
     1
102
RTVSPost2010Prop47
 90
       50
102
RTVSPost2010PropOp47
 70
     1
102
RTVSPost2010Prop48
 90
       50
102
RTVSPost2010PropOp48
 70
     1
102
RTVSPost2010Prop49
280
     0
102
RTVSPost2010PropOp49
 70
     1
102
RTVSPost2010Prop50
 90
       50
102
RTVSPost2010PropOp50
 70
     1
102
RTVSPost2010Prop51ColorIndex
 90
      256
102
RTVSPost2010Prop51ColorRGB
 90
-16777216
102
RTVSPost2010PropOp51
 70
     0
102
RTVSPost2010Prop52
140
1.0
102
RTVSPost2010PropOp52
 70
     0
102
RTVSPost2010Prop53
 90
        2
102
RTVSPost2010PropOp53
 70
     1
102
RTVSPost2010Prop54
  1
strokes_ogs.tif
102
RTVSPost2010PropOp54
 70
     1
102
RTVSPost2010Prop55
280
     0
102
RTVSPost2010PropOp55
 70
     1
102
RTVSPost2010Prop56
140
1.0
102
RTVSPost2010PropOp56
 70
     1
102
RTVSPost2010Prop57
140
1.0
102
RTVSPost2010PropOp57
 70
     1
102
RTVSPropertyOp0
 70
     0
102
RTVSPropertyOp1
 70
     0
102
RTVSPropertyOp2
 70
     0
102
RTVSPropertyOp3
 70
     0
102
RTVSPropertyOp4
 70
     0
102
RTVSPropertyOp5
 70
     0
102
RTVSPropertyOp6
 70
     0
102
RTVSPropertyOp7
 70
     0
102
RTVSPropertyOp8
 70
     0
102
RTVSPropertyOp9
 70
     0
102
RTVSPropertyOp10
 70
     0
102
RTVSPropertyOp11
 70
     0
102
RTVSPropertyOp12
 70
     0
102
RTVSPropertyOp13
 70
     0
102
RTVSPropertyOp14
 70
     2
102
RTVSPropertyOp15
 70
     0
102
RTVSPropertyOp16
 70
     0
102
RTVSPropertyOp17
 70
     0
102
RTVSPropertyOp18
 70
     0
102
RTVSPropertyOp19
 70
     0
102
RTVSPropertyOp20
 70
     0
102
RTVSPropertyOp21
 70
     0
102
RTVSPropertyOp22
 70
     0
102
RTVSPropertyOp23
 70
     0
102
RTVSPropertyOp24
 70
     0
102
RTVSPropertyOp25
 70
     0
102
RTVSPropertyOp26
 70
     0
102
RTVSPropertyOp27
 70
     0
102
RTVSPropertyOp28
 70
     1
102
RTVSPropertyOp29
 70
     1
102
RTVSPropertyOp30
 70
     1
102
RTVSPropertyOp31
 70
     1
102
RTVSPropertyOp32
 70
     1
102
RTVSPropertyOp33
 70
     1
102
RTVSPropertyOp34
 70
     1
102
RTVSPropertyOp35
 70
     1
102
RTVSPropertyOp36
 70
     1
102
RTVSPropertyOp37
 70
     1
102
RTVSPropertyOp38
 70
     1
102
RTVSPropertyOp39
 70
     1
102
RTVSPropertyOp40
 70
     1
102
RTVSPropertyOp41
 70
     1
102
RTVSPropertyOp42
 70
     1
102
RTVSPropertyOp43
 70
     1
102
RTVSPropertyOp44
 70
     1
102
RTVSPropertyOp45
 70
     1
102
RTVSPropertyOp46
 70
     1
102
RTVSPropertyOp47
 70
     1
102
RTVSPropertyOp48
 70
     1
102
RTVSPropertyOp49
 70
     1
102
RTVSPropertyOp50
 70
     1
102
RTVSPropertyOp51
 70
     0
102
RTVSPropertyOp52
 70
     0
102
RTVSPropertyOp53
 70
     1
102
RTVSPropertyOp54
 70
     1
102
RTVSPropertyOp55
 70
     1
102
RTVSPropertyOp56
 70
     1
102
RTVSPropertyOp57
 70
     1
102
RTVSPropertyOp58
 70
     1
102
RTVSPropertyOp59
 70
     1
102
RTVSPropertyOp60
 70
     1
102
RTVSPropertyOp61
 70
     1
102
RTVSPropertyOp62
 70
     1
  0
XRECORD
  5
18D4
102
{ACAD_REACTORS
330
18D3
102
}
330
18D3
100
AcDbXrecord
280
     1
102
RTVSPost2010Prop28
280
     0
102
RTVSPost2010PropOp28
 70
     1
102
RTVSPost2010Prop29
280
     1
102
RTVSPost2010PropOp29
 70
     1
102
RTVSPost2010Prop30
280
     1
102
RTVSPost2010PropOp30
 70
     1
102
RTVSPost2010Prop31
280
     0
102
RTVSPost2010PropOp31
 70
     1
102
RTVSPost2010Prop32
280
     0
102
RTVSPost2010PropOp32
 70
     1
102
RTVSPost2010Prop33
280
     0
102
RTVSPost2010PropOp33
 70
     1
102
RTVSPost2010Prop34
280
     0
102
RTVSPost2010PropOp34
 70
     1
102
RTVSPost2010Prop35
280
     0
102
RTVSPost2010PropOp35
 70
     1
102
RTVSPost2010Prop36
280
     0
102
RTVSPost2010PropOp36
 70
     1
102
RTVSPost2010Prop37
 90
       50
102
RTVSPost2010PropOp37
 70
     1
102
RTVSPost2010Prop38
140
0.0
102
RTVSPost2010PropOp38
 70
     1
102
RTVSPost2010Prop39
140
1.0
102
RTVSPost2010PropOp39
 70
     1
102
RTVSPost2010Prop40
 90
        0
102
RTVSPost2010PropOp40
 70
     1
102
RTVSPost2010Prop41ColorIndex
 90
       18
102
RTVSPost2010Prop41ColorRGB
 90
        0
102
RTVSPost2010PropOp41
 70
     1
102
RTVSPost2010Prop42
 90
       50
102
RTVSPost2010PropOp42
 70
     1
102
RTVSPost2010Prop43
 90
        3
102
RTVSPost2010PropOp43
 70
     1
102
RTVSPost2010Prop44ColorIndex
 90
        5
102
RTVSPost2010Prop44ColorRGB
 90
      255
102
RTVSPost2010PropOp44
 70
     1
102
RTVSPost2010Prop45
280
     0
102
RTVSPost2010PropOp45
 70
     1
102
RTVSPost2010Prop46
 90
       50
102
RTVSPost2010PropOp46
 70
     1
102
RTVSPost2010Prop47
 90
       50
102
RTVSPost2010PropOp47
 70
     1
102
RTVSPost2010Prop48
 90
       50
102
RTVSPost2010PropOp48
 70
     1
102
RTVSPost2010Prop49
280
     0
102
RTVSPost2010PropOp49
 70
     1
102
RTVSPost2010Prop50
 90
       50
102
RTVSPost2010PropOp50
 70
     1
102
RTVSPost2010Prop51ColorIndex
 90
      256
102
RTVSPost2010Prop51ColorRGB
 90
-16777216
102
RTVSPost2010PropOp51
 70
     0
102
RTVSPost2010Prop52
140
1.0
102
RTVSPost2010PropOp52
 70
     0
102
RTVSPost2010Prop53
 90
        2
102
RTVSPost2010PropOp53
 70
     1
102
RTVSPost2010Prop54
  1
strokes_ogs.tif
102
RTVSPost2010PropOp54
 70
     1
102
RTVSPost2010Prop55
280
     0
102
RTVSPost2010PropOp55
 70
     1
102
RTVSPost2010Prop56
140
1.0
102
RTVSPost2010PropOp56
 70
     1
102
RTVSPost2010Prop57
140
1.0
102
RTVSPost2010PropOp57
 70
     1
102
RTVSPropertyOp0
 70
     1
102
RTVSPropertyOp1
 70
     1
102
RTVSPropertyOp2
 70
     1
102
RTVSPropertyOp3
 70
     1
102
RTVSPropertyOp4
 70
     1
102
RTVSPropertyOp5
 70
     1
102
RTVSPropertyOp6
 70
     1
102
RTVSPropertyOp7
 70
     1
102
RTVSPropertyOp8
 70
     1
102
RTVSPropertyOp9
 70
     1
102
RTVSPropertyOp10
 70
     1
102
RTVSPropertyOp11
 70
     1
102
RTVSPropertyOp12
 70
     1
102
RTVSPropertyOp13
 70
     1
102
RTVSPropertyOp14
 70
     1
102
RTVSPropertyOp15
 70
     1
102
RTVSPropertyOp16
 70
     1
102
RTVSPropertyOp17
 70
     1
102
RTVSPropertyOp18
 70
     1
102
RTVSPropertyOp19
 70
     1
102
RTVSPropertyOp20
 70
     1
102
RTVSPropertyOp21
 70
     1
102
RTVSPropertyOp22
 70
     1
102
RTVSPropertyOp23
 70
     1
102
RTVSPropertyOp24
 70
     1
102
RTVSPropertyOp25
 70
     1
102
RTVSPropertyOp26
 70
     1
102
RTVSPropertyOp27
 70
     1
102
RTVSPropertyOp28
 70
     1
102
RTVSPropertyOp29
 70
     1
102
RTVSPropertyOp30
 70
     1
102
RTVSPropertyOp31
 70
     1
102
RTVSPropertyOp32
 70
     1
102
RTVSPropertyOp33
 70
     1
102
RTVSPropertyOp34
 70
     1
102
RTVSPropertyOp35
 70
     1
102
RTVSPropertyOp36
 70
     1
102
RTVSPropertyOp37
 70
     1
102
RTVSPropertyOp38
 70
     1
102
RTVSPropertyOp39
 70
     1
102
RTVSPropertyOp40
 70
     1
102
RTVSPropertyOp41
 70
     1
102
RTVSPropertyOp42
 70
     1
102
RTVSPropertyOp43
 70
     1
102
RTVSPropertyOp44
 70
     1
102
RTVSPropertyOp45
 70
     1
102
RTVSPropertyOp46
 70
     1
102
RTVSPropertyOp47
 70
     1
102
RTVSPropertyOp48
 70
     1
102
RTVSPropertyOp49
 70
     1
102
RTVSPropertyOp50
 70
     1
102
RTVSPropertyOp51
 70
     0
102
RTVSPropertyOp52
 70
     0
102
RTVSPropertyOp53
 70
     1
102
RTVSPropertyOp54
 70
     1
102
RTVSPropertyOp55
 70
     1
102
RTVSPropertyOp56
 70
     1
102
RTVSPropertyOp57
 70
     1
102
RTVSPropertyOp58
 70
     1
102
RTVSPropertyOp59
 70
     1
102
RTVSPropertyOp60
 70
     1
102
RTVSPropertyOp61
 70
     1
102
RTVSPropertyOp62
 70
     1
  0
XRECORD
  5
18EC
102
{ACAD_REACTORS
330
18EB
102
}
330
18EB
100
AcDbXrecord
280
     1
102
RTVSPost2010Prop28
280
     0
102
RTVSPost2010PropOp28
 70
     1
102
RTVSPost2010Prop29
280
     1
102
RTVSPost2010PropOp29
 70
     1
102
RTVSPost2010Prop30
280
     1
102
RTVSPost2010PropOp30
 70
     1
102
RTVSPost2010Prop31
280
     0
102
RTVSPost2010PropOp31
 70
     1
102
RTVSPost2010Prop32
280
     0
102
RTVSPost2010PropOp32
 70
     1
102
RTVSPost2010Prop33
280
     0
102
RTVSPost2010PropOp33
 70
     1
102
RTVSPost2010Prop34
280
     0
102
RTVSPost2010PropOp34
 70
     1
102
RTVSPost2010Prop35
280
     0
102
RTVSPost2010PropOp35
 70
     1
102
RTVSPost2010Prop36
280
     0
102
RTVSPost2010PropOp36
 70
     1
102
RTVSPost2010Prop37
 90
       50
102
RTVSPost2010PropOp37
 70
     1
102
RTVSPost2010Prop38
140
0.0
102
RTVSPost2010PropOp38
 70
     1
102
RTVSPost2010Prop39
140
1.0
102
RTVSPost2010PropOp39
 70
     1
102
RTVSPost2010Prop40
 90
        0
102
RTVSPost2010PropOp40
 70
     1
102
RTVSPost2010Prop41ColorIndex
 90
       18
102
RTVSPost2010Prop41ColorRGB
 90
        0
102
RTVSPost2010PropOp41
 70
     1
102
RTVSPost2010Prop42
 90
       50
102
RTVSPost2010PropOp42
 70
     1
102
RTVSPost2010Prop43
 90
        3
102
RTVSPost2010PropOp43
 70
     1
102
RTVSPost2010Prop44ColorIndex
 90
        5
102
RTVSPost2010Prop44ColorRGB
 90
      255
102
RTVSPost2010PropOp44
 70
     1
102
RTVSPost2010Prop45
280
     0
102
RTVSPost2010PropOp45
 70
     1
102
RTVSPost2010Prop46
 90
       50
102
RTVSPost2010PropOp46
 70
     1
102
RTVSPost2010Prop47
 90
       50
102
RTVSPost2010PropOp47
 70
     1
102
RTVSPost2010Prop48
 90
       50
102
RTVSPost2010PropOp48
 70
     1
102
RTVSPost2010Prop49
280
     0
102
RTVSPost2010PropOp49
 70
     1
102
RTVSPost2010Prop50
 90
       50
102
RTVSPost2010PropOp50
 70
     1
102
RTVSPost2010Prop51ColorIndex
 90
      256
102
RTVSPost2010Prop51ColorRGB
 90
-16777216
102
RTVSPost2010PropOp51
 70
     0
102
RTVSPost2010Prop52
140
1.0
102
RTVSPost2010PropOp52
 70
     0
102
RTVSPost2010Prop53
 90
        2
102
RTVSPost2010PropOp53
 70
     1
102
RTVSPost2010Prop54
  1
strokes_ogs.tif
102
RTVSPost2010PropOp54
 70
     1
102
RTVSPost2010Prop55
280
     0
102
RTVSPost2010PropOp55
 70
     1
102
RTVSPost2010Prop56
140
1.0
102
RTVSPost2010PropOp56
 70
     1
102
RTVSPost2010Prop57
140
1.0
102
RTVSPost2010PropOp57
 70
     1
102
RTVSPropertyOp0
 70
     0
102
RTVSPropertyOp1
 70
     0
102
RTVSPropertyOp2
 70
     0
102
RTVSPropertyOp3
 70
     0
102
RTVSPropertyOp4
 70
     0
102
RTVSPropertyOp5
 70
     0
102
RTVSPropertyOp6
 70
     0
102
RTVSPropertyOp7
 70
     0
102
RTVSPropertyOp8
 70
     0
102
RTVSPropertyOp9
 70
     0
102
RTVSPropertyOp10
 70
     0
102
RTVSPropertyOp11
 70
     0
102
RTVSPropertyOp12
 70
     0
102
RTVSPropertyOp13
 70
     0
102
RTVSPropertyOp14
 70
     2
102
RTVSPropertyOp15
 70
     0
102
RTVSPropertyOp16
 70
     0
102
RTVSPropertyOp17
 70
     0
102
RTVSPropertyOp18
 70
     0
102
RTVSPropertyOp19
 70
     0
102
RTVSPropertyOp20
 70
     0
102
RTVSPropertyOp21
 70
     0
102
RTVSPropertyOp22
 70
     0
102
RTVSPropertyOp23
 70
     0
102
RTVSPropertyOp24
 70
     0
102
RTVSPropertyOp25
 70
     0
102
RTVSPropertyOp26
 70
     0
102
RTVSPropertyOp27
 70
     0
102
RTVSPropertyOp28
 70
     1
102
RTVSPropertyOp29
 70
     1
102
RTVSPropertyOp30
 70
     1
102
RTVSPropertyOp31
 70
     1
102
RTVSPropertyOp32
 70
     1
102
RTVSPropertyOp33
 70
     1
102
RTVSPropertyOp34
 70
     1
102
RTVSPropertyOp35
 70
     1
102
RTVSPropertyOp36
 70
     1
102
RTVSPropertyOp37
 70
     1
102
RTVSPropertyOp38
 70
     1
102
RTVSPropertyOp39
 70
     1
102
RTVSPropertyOp40
 70
     1
102
RTVSPropertyOp41
 70
     1
102
RTVSPropertyOp42
 70
     1
102
RTVSPropertyOp43
 70
     1
102
RTVSPropertyOp44
 70
     1
102
RTVSPropertyOp45
 70
     1
102
RTVSPropertyOp46
 70
     1
102
RTVSPropertyOp47
 70
     1
102
RTVSPropertyOp48
 70
     1
102
RTVSPropertyOp49
 70
     1
102
RTVSPropertyOp50
 70
     1
102
RTVSPropertyOp51
 70
     0
102
RTVSPropertyOp52
 70
     0
102
RTVSPropertyOp53
 70
     1
102
RTVSPropertyOp54
 70
     1
102
RTVSPropertyOp55
 70
     1
102
RTVSPropertyOp56
 70
     1
102
RTVSPropertyOp57
 70
     1
102
RTVSPropertyOp58
 70
     1
102
RTVSPropertyOp59
 70
     1
102
RTVSPropertyOp60
 70
     1
102
RTVSPropertyOp61
 70
     1
102
RTVSPropertyOp62
 70
     1
  0
XRECORD
  5
18CC
102
{ACAD_REACTORS
330
18CB
102
}
330
18CB
100
AcDbXrecord
280
     1
102
RTVSPost2010Prop28
280
     0
102
RTVSPost2010PropOp28
 70
     1
102
RTVSPost2010Prop29
280
     1
102
RTVSPost2010PropOp29
 70
     1
102
RTVSPost2010Prop30
280
     1
102
RTVSPost2010PropOp30
 70
     1
102
RTVSPost2010Prop31
280
     0
102
RTVSPost2010PropOp31
 70
     1
102
RTVSPost2010Prop32
280
     0
102
RTVSPost2010PropOp32
 70
     1
102
RTVSPost2010Prop33
280
     0
102
RTVSPost2010PropOp33
 70
     1
102
RTVSPost2010Prop34
280
     0
102
RTVSPost2010PropOp34
 70
     1
102
RTVSPost2010Prop35
280
     0
102
RTVSPost2010PropOp35
 70
     1
102
RTVSPost2010Prop36
280
     0
102
RTVSPost2010PropOp36
 70
     1
102
RTVSPost2010Prop37
 90
       50
102
RTVSPost2010PropOp37
 70
     1
102
RTVSPost2010Prop38
140
0.0
102
RTVSPost2010PropOp38
 70
     1
102
RTVSPost2010Prop39
140
1.0
102
RTVSPost2010PropOp39
 70
     1
102
RTVSPost2010Prop40
 90
        0
102
RTVSPost2010PropOp40
 70
     1
102
RTVSPost2010Prop41ColorIndex
 90
       18
102
RTVSPost2010Prop41ColorRGB
 90
        0
102
RTVSPost2010PropOp41
 70
     1
102
RTVSPost2010Prop42
 90
       50
102
RTVSPost2010PropOp42
 70
     1
102
RTVSPost2010Prop43
 90
        3
102
RTVSPost2010PropOp43
 70
     1
102
RTVSPost2010Prop44ColorIndex
 90
        5
102
RTVSPost2010Prop44ColorRGB
 90
      255
102
RTVSPost2010PropOp44
 70
     1
102
RTVSPost2010Prop45
280
     0
102
RTVSPost2010PropOp45
 70
     1
102
RTVSPost2010Prop46
 90
       50
102
RTVSPost2010PropOp46
 70
     1
102
RTVSPost2010Prop47
 90
       50
102
RTVSPost2010PropOp47
 70
     1
102
RTVSPost2010Prop48
 90
       50
102
RTVSPost2010PropOp48
 70
     1
102
RTVSPost2010Prop49
280
     0
102
RTVSPost2010PropOp49
 70
     1
102
RTVSPost2010Prop50
 90
       50
102
RTVSPost2010PropOp50
 70
     1
102
RTVSPost2010Prop51ColorIndex
 90
      256
102
RTVSPost2010Prop51ColorRGB
 90
-16777216
102
RTVSPost2010PropOp51
 70
     0
102
RTVSPost2010Prop52
140
1.0
102
RTVSPost2010PropOp52
 70
     0
102
RTVSPost2010Prop53
 90
        2
102
RTVSPost2010PropOp53
 70
     1
102
RTVSPost2010Prop54
  1
strokes_ogs.tif
102
RTVSPost2010PropOp54
 70
     1
102
RTVSPost2010Prop55
280
     0
102
RTVSPost2010PropOp55
 70
     1
102
RTVSPost2010Prop56
140
1.0
102
RTVSPost2010PropOp56
 70
     1
102
RTVSPost2010Prop57
140
1.0
102
RTVSPost2010PropOp57
 70
     1
102
RTVSPropertyOp0
 70
     1
102
RTVSPropertyOp1
 70
     1
102
RTVSPropertyOp2
 70
     1
102
RTVSPropertyOp3
 70
     1
102
RTVSPropertyOp4
 70
     1
102
RTVSPropertyOp5
 70
     1
102
RTVSPropertyOp6
 70
     1
102
RTVSPropertyOp7
 70
     1
102
RTVSPropertyOp8
 70
     1
102
RTVSPropertyOp9
 70
     1
102
RTVSPropertyOp10
 70
     1
102
RTVSPropertyOp11
 70
     1
102
RTVSPropertyOp12
 70
     1
102
RTVSPropertyOp13
 70
     1
102
RTVSPropertyOp14
 70
     1
102
RTVSPropertyOp15
 70
     1
102
RTVSPropertyOp16
 70
     1
102
RTVSPropertyOp17
 70
     1
102
RTVSPropertyOp18
 70
     1
102
RTVSPropertyOp19
 70
     1
102
RTVSPropertyOp20
 70
     1
102
RTVSPropertyOp21
 70
     1
102
RTVSPropertyOp22
 70
     1
102
RTVSPropertyOp23
 70
     1
102
RTVSPropertyOp24
 70
     1
102
RTVSPropertyOp25
 70
     1
102
RTVSPropertyOp26
 70
     1
102
RTVSPropertyOp27
 70
     1
102
RTVSPropertyOp28
 70
     1
102
RTVSPropertyOp29
 70
     1
102
RTVSPropertyOp30
 70
     1
102
RTVSPropertyOp31
 70
     1
102
RTVSPropertyOp32
 70
     1
102
RTVSPropertyOp33
 70
     1
102
RTVSPropertyOp34
 70
     1
102
RTVSPropertyOp35
 70
     1
102
RTVSPropertyOp36
 70
     1
102
RTVSPropertyOp37
 70
     1
102
RTVSPropertyOp38
 70
     1
102
RTVSPropertyOp39
 70
     1
102
RTVSPropertyOp40
 70
     1
102
RTVSPropertyOp41
 70
     1
102
RTVSPropertyOp42
 70
     1
102
RTVSPropertyOp43
 70
     1
102
RTVSPropertyOp44
 70
     1
102
RTVSPropertyOp45
 70
     1
102
RTVSPropertyOp46
 70
     1
102
RTVSPropertyOp47
 70
     1
102
RTVSPropertyOp48
 70
     1
102
RTVSPropertyOp49
 70
     1
102
RTVSPropertyOp50
 70
     1
102
RTVSPropertyOp51
 70
     0
102
RTVSPropertyOp52
 70
     0
102
RTVSPropertyOp53
 70
     1
102
RTVSPropertyOp54
 70
     1
102
RTVSPropertyOp55
 70
     1
102
RTVSPropertyOp56
 70
     1
102
RTVSPropertyOp57
 70
     1
102
RTVSPropertyOp58
 70
     1
102
RTVSPropertyOp59
 70
     1
102
RTVSPropertyOp60
 70
     1
102
RTVSPropertyOp61
 70
     1
102
RTVSPropertyOp62
 70
     1
  0
XRECORD
  5
18E8
102
{ACAD_REACTORS
330
18E7
102
}
330
18E7
100
AcDbXrecord
280
     1
102
RTVSPost2010Prop28
280
     0
102
RTVSPost2010PropOp28
 70
     1
102
RTVSPost2010Prop29
280
     1
102
RTVSPost2010PropOp29
 70
     1
102
RTVSPost2010Prop30
280
     1
102
RTVSPost2010PropOp30
 70
     1
102
RTVSPost2010Prop31
280
     0
102
RTVSPost2010PropOp31
 70
     1
102
RTVSPost2010Prop32
280
     0
102
RTVSPost2010PropOp32
 70
     1
102
RTVSPost2010Prop33
280
     0
102
RTVSPost2010PropOp33
 70
     1
102
RTVSPost2010Prop34
280
     0
102
RTVSPost2010PropOp34
 70
     1
102
RTVSPost2010Prop35
280
     0
102
RTVSPost2010PropOp35
 70
     1
102
RTVSPost2010Prop36
280
     0
102
RTVSPost2010PropOp36
 70
     1
102
RTVSPost2010Prop37
 90
       50
102
RTVSPost2010PropOp37
 70
     1
102
RTVSPost2010Prop38
140
0.0
102
RTVSPost2010PropOp38
 70
     1
102
RTVSPost2010Prop39
140
1.0
102
RTVSPost2010PropOp39
 70
     1
102
RTVSPost2010Prop40
 90
        0
102
RTVSPost2010PropOp40
 70
     1
102
RTVSPost2010Prop41ColorIndex
 90
       18
102
RTVSPost2010Prop41ColorRGB
 90
        0
102
RTVSPost2010PropOp41
 70
     1
102
RTVSPost2010Prop42
 90
       50
102
RTVSPost2010PropOp42
 70
     1
102
RTVSPost2010Prop43
 90
        3
102
RTVSPost2010PropOp43
 70
     1
102
RTVSPost2010Prop44ColorIndex
 90
        5
102
RTVSPost2010Prop44ColorRGB
 90
      255
102
RTVSPost2010PropOp44
 70
     1
102
RTVSPost2010Prop45
280
     0
102
RTVSPost2010PropOp45
 70
     1
102
RTVSPost2010Prop46
 90
       50
102
RTVSPost2010PropOp46
 70
     1
102
RTVSPost2010Prop47
 90
       50
102
RTVSPost2010PropOp47
 70
     1
102
RTVSPost2010Prop48
 90
       50
102
RTVSPost2010PropOp48
 70
     1
102
RTVSPost2010Prop49
280
     0
102
RTVSPost2010PropOp49
 70
     1
102
RTVSPost2010Prop50
 90
       50
102
RTVSPost2010PropOp50
 70
     1
102
RTVSPost2010Prop51ColorIndex
 90
      256
102
RTVSPost2010Prop51ColorRGB
 90
-16777216
102
RTVSPost2010PropOp51
 70
     0
102
RTVSPost2010Prop52
140
1.0
102
RTVSPost2010PropOp52
 70
     0
102
RTVSPost2010Prop53
 90
        2
102
RTVSPost2010PropOp53
 70
     1
102
RTVSPost2010Prop54
  1
strokes_ogs.tif
102
RTVSPost2010PropOp54
 70
     1
102
RTVSPost2010Prop55
280
     0
102
RTVSPost2010PropOp55
 70
     1
102
RTVSPost2010Prop56
140
1.0
102
RTVSPost2010PropOp56
 70
     1
102
RTVSPost2010Prop57
140
1.0
102
RTVSPost2010PropOp57
 70
     1
102
RTVSPropertyOp0
 70
     1
102
RTVSPropertyOp1
 70
     1
102
RTVSPropertyOp2
 70
     1
102
RTVSPropertyOp3
 70
     1
102
RTVSPropertyOp4
 70
     1
102
RTVSPropertyOp5
 70
     1
102
RTVSPropertyOp6
 70
     1
102
RTVSPropertyOp7
 70
     1
102
RTVSPropertyOp8
 70
     1
102
RTVSPropertyOp9
 70
     1
102
RTVSPropertyOp10
 70
     1
102
RTVSPropertyOp11
 70
     1
102
RTVSPropertyOp12
 70
     1
102
RTVSPropertyOp13
 70
     1
102
RTVSPropertyOp14
 70
     1
102
RTVSPropertyOp15
 70
     1
102
RTVSPropertyOp16
 70
     1
102
RTVSPropertyOp17
 70
     1
102
RTVSPropertyOp18
 70
     1
102
RTVSPropertyOp19
 70
     1
102
RTVSPropertyOp20
 70
     1
102
RTVSPropertyOp21
 70
     1
102
RTVSPropertyOp22
 70
     1
102
RTVSPropertyOp23
 70
     1
102
RTVSPropertyOp24
 70
     1
102
RTVSPropertyOp25
 70
     1
102
RTVSPropertyOp26
 70
     1
102
RTVSPropertyOp27
 70
     1
102
RTVSPropertyOp28
 70
     1
102
RTVSPropertyOp29
 70
     1
102
RTVSPropertyOp30
 70
     1
102
RTVSPropertyOp31
 70
     1
102
RTVSPropertyOp32
 70
     1
102
RTVSPropertyOp33
 70
     1
102
RTVSPropertyOp34
 70
     1
102
RTVSPropertyOp35
 70
     1
102
RTVSPropertyOp36
 70
     1
102
RTVSPropertyOp37
 70
     1
102
RTVSPropertyOp38
 70
     1
102
RTVSPropertyOp39
 70
     1
102
RTVSPropertyOp40
 70
     1
102
RTVSPropertyOp41
 70
     1
102
RTVSPropertyOp42
 70
     1
102
RTVSPropertyOp43
 70
     1
102
RTVSPropertyOp44
 70
     1
102
RTVSPropertyOp45
 70
     1
102
RTVSPropertyOp46
 70
     1
102
RTVSPropertyOp47
 70
     1
102
RTVSPropertyOp48
 70
     1
102
RTVSPropertyOp49
 70
     1
102
RTVSPropertyOp50
 70
     1
102
RTVSPropertyOp51
 70
     0
102
RTVSPropertyOp52
 70
     0
102
RTVSPropertyOp53
 70
     1
102
RTVSPropertyOp54
 70
     1
102
RTVSPropertyOp55
 70
     1
102
RTVSPropertyOp56
 70
     1
102
RTVSPropertyOp57
 70
     1
102
RTVSPropertyOp58
 70
     1
102
RTVSPropertyOp59
 70
     1
102
RTVSPropertyOp60
 70
     1
102
RTVSPropertyOp61
 70
     1
102
RTVSPropertyOp62
 70
     1
  0
XRECORD
  5
18E6
102
{ACAD_REACTORS
330
18E5
102
}
330
18E5
100
AcDbXrecord
280
     1
102
RTVSPost2010Prop28
280
     0
102
RTVSPost2010PropOp28
 70
     1
102
RTVSPost2010Prop29
280
     1
102
RTVSPost2010PropOp29
 70
     1
102
RTVSPost2010Prop30
280
     1
102
RTVSPost2010PropOp30
 70
     1
102
RTVSPost2010Prop31
280
     0
102
RTVSPost2010PropOp31
 70
     1
102
RTVSPost2010Prop32
280
     0
102
RTVSPost2010PropOp32
 70
     1
102
RTVSPost2010Prop33
280
     0
102
RTVSPost2010PropOp33
 70
     1
102
RTVSPost2010Prop34
280
     0
102
RTVSPost2010PropOp34
 70
     1
102
RTVSPost2010Prop35
280
     0
102
RTVSPost2010PropOp35
 70
     1
102
RTVSPost2010Prop36
280
     0
102
RTVSPost2010PropOp36
 70
     1
102
RTVSPost2010Prop37
 90
       50
102
RTVSPost2010PropOp37
 70
     1
102
RTVSPost2010Prop38
140
0.0
102
RTVSPost2010PropOp38
 70
     1
102
RTVSPost2010Prop39
140
1.0
102
RTVSPost2010PropOp39
 70
     1
102
RTVSPost2010Prop40
 90
        0
102
RTVSPost2010PropOp40
 70
     1
102
RTVSPost2010Prop41ColorIndex
 90
       18
102
RTVSPost2010Prop41ColorRGB
 90
        0
102
RTVSPost2010PropOp41
 70
     1
102
RTVSPost2010Prop42
 90
       50
102
RTVSPost2010PropOp42
 70
     1
102
RTVSPost2010Prop43
 90
        3
102
RTVSPost2010PropOp43
 70
     1
102
RTVSPost2010Prop44ColorIndex
 90
        5
102
RTVSPost2010Prop44ColorRGB
 90
      255
102
RTVSPost2010PropOp44
 70
     1
102
RTVSPost2010Prop45
280
     0
102
RTVSPost2010PropOp45
 70
     1
102
RTVSPost2010Prop46
 90
       50
102
RTVSPost2010PropOp46
 70
     1
102
RTVSPost2010Prop47
 90
       50
102
RTVSPost2010PropOp47
 70
     1
102
RTVSPost2010Prop48
 90
       50
102
RTVSPost2010PropOp48
 70
     1
102
RTVSPost2010Prop49
280
     0
102
RTVSPost2010PropOp49
 70
     1
102
RTVSPost2010Prop50
 90
       50
102
RTVSPost2010PropOp50
 70
     1
102
RTVSPost2010Prop51ColorIndex
 90
      256
102
RTVSPost2010Prop51ColorRGB
 90
-16777216
102
RTVSPost2010PropOp51
 70
     0
102
RTVSPost2010Prop52
140
1.0
102
RTVSPost2010PropOp52
 70
     0
102
RTVSPost2010Prop53
 90
        2
102
RTVSPost2010PropOp53
 70
     1
102
RTVSPost2010Prop54
  1
strokes_ogs.tif
102
RTVSPost2010PropOp54
 70
     1
102
RTVSPost2010Prop55
280
     0
102
RTVSPost2010PropOp55
 70
     1
102
RTVSPost2010Prop56
140
1.0
102
RTVSPost2010PropOp56
 70
     1
102
RTVSPost2010Prop57
140
1.0
102
RTVSPost2010PropOp57
 70
     1
102
RTVSPropertyOp0
 70
     1
102
RTVSPropertyOp1
 70
     1
102
RTVSPropertyOp2
 70
     1
102
RTVSPropertyOp3
 70
     1
102
RTVSPropertyOp4
 70
     1
102
RTVSPropertyOp5
 70
     1
102
RTVSPropertyOp6
 70
     1
102
RTVSPropertyOp7
 70
     1
102
RTVSPropertyOp8
 70
     1
102
RTVSPropertyOp9
 70
     1
102
RTVSPropertyOp10
 70
     1
102
RTVSPropertyOp11
 70
     1
102
RTVSPropertyOp12
 70
     1
102
RTVSPropertyOp13
 70
     1
102
RTVSPropertyOp14
 70
     1
102
RTVSPropertyOp15
 70
     1
102
RTVSPropertyOp16
 70
     1
102
RTVSPropertyOp17
 70
     1
102
RTVSPropertyOp18
 70
     1
102
RTVSPropertyOp19
 70
     1
102
RTVSPropertyOp20
 70
     1
102
RTVSPropertyOp21
 70
     1
102
RTVSPropertyOp22
 70
     1
102
RTVSPropertyOp23
 70
     1
102
RTVSPropertyOp24
 70
     1
102
RTVSPropertyOp25
 70
     1
102
RTVSPropertyOp26
 70
     1
102
RTVSPropertyOp27
 70
     1
102
RTVSPropertyOp28
 70
     1
102
RTVSPropertyOp29
 70
     1
102
RTVSPropertyOp30
 70
     1
102
RTVSPropertyOp31
 70
     1
102
RTVSPropertyOp32
 70
     1
102
RTVSPropertyOp33
 70
     1
102
RTVSPropertyOp34
 70
     1
102
RTVSPropertyOp35
 70
     1
102
RTVSPropertyOp36
 70
     1
102
RTVSPropertyOp37
 70
     1
102
RTVSPropertyOp38
 70
     1
102
RTVSPropertyOp39
 70
     1
102
RTVSPropertyOp40
 70
     1
102
RTVSPropertyOp41
 70
     1
102
RTVSPropertyOp42
 70
     1
102
RTVSPropertyOp43
 70
     1
102
RTVSPropertyOp44
 70
     1
102
RTVSPropertyOp45
 70
     1
102
RTVSPropertyOp46
 70
     1
102
RTVSPropertyOp47
 70
     1
102
RTVSPropertyOp48
 70
     1
102
RTVSPropertyOp49
 70
     1
102
RTVSPropertyOp50
 70
     1
102
RTVSPropertyOp51
 70
     0
102
RTVSPropertyOp52
 70
     0
102
RTVSPropertyOp53
 70
     1
102
RTVSPropertyOp54
 70
     1
102
RTVSPropertyOp55
 70
     1
102
RTVSPropertyOp56
 70
     1
102
RTVSPropertyOp57
 70
     1
102
RTVSPropertyOp58
 70
     1
102
RTVSPropertyOp59
 70
     1
102
RTVSPropertyOp60
 70
     1
102
RTVSPropertyOp61
 70
     1
102
RTVSPropertyOp62
 70
     1
  0
XRECORD
  5
18E0
102
{ACAD_REACTORS
330
18DF
102
}
330
18DF
100
AcDbXrecord
280
     1
102
RTVSPost2010Prop28
280
     0
102
RTVSPost2010PropOp28
 70
     1
102
RTVSPost2010Prop29
280
     1
102
RTVSPost2010PropOp29
 70
     1
102
RTVSPost2010Prop30
280
     1
102
RTVSPost2010PropOp30
 70
     1
102
RTVSPost2010Prop31
280
     0
102
RTVSPost2010PropOp31
 70
     1
102
RTVSPost2010Prop32
280
     0
102
RTVSPost2010PropOp32
 70
     1
102
RTVSPost2010Prop33
280
     0
102
RTVSPost2010PropOp33
 70
     1
102
RTVSPost2010Prop34
280
     0
102
RTVSPost2010PropOp34
 70
     1
102
RTVSPost2010Prop35
280
     0
102
RTVSPost2010PropOp35
 70
     1
102
RTVSPost2010Prop36
280
     0
102
RTVSPost2010PropOp36
 70
     1
102
RTVSPost2010Prop37
 90
       50
102
RTVSPost2010PropOp37
 70
     1
102
RTVSPost2010Prop38
140
0.0
102
RTVSPost2010PropOp38
 70
     1
102
RTVSPost2010Prop39
140
1.0
102
RTVSPost2010PropOp39
 70
     1
102
RTVSPost2010Prop40
 90
        0
102
RTVSPost2010PropOp40
 70
     1
102
RTVSPost2010Prop41ColorIndex
 90
       18
102
RTVSPost2010Prop41ColorRGB
 90
        0
102
RTVSPost2010PropOp41
 70
     1
102
RTVSPost2010Prop42
 90
       50
102
RTVSPost2010PropOp42
 70
     1
102
RTVSPost2010Prop43
 90
        3
102
RTVSPost2010PropOp43
 70
     1
102
RTVSPost2010Prop44ColorIndex
 90
        5
102
RTVSPost2010Prop44ColorRGB
 90
      255
102
RTVSPost2010PropOp44
 70
     1
102
RTVSPost2010Prop45
280
     0
102
RTVSPost2010PropOp45
 70
     1
102
RTVSPost2010Prop46
 90
       50
102
RTVSPost2010PropOp46
 70
     1
102
RTVSPost2010Prop47
 90
       50
102
RTVSPost2010PropOp47
 70
     1
102
RTVSPost2010Prop48
 90
       50
102
RTVSPost2010PropOp48
 70
     1
102
RTVSPost2010Prop49
280
     0
102
RTVSPost2010PropOp49
 70
     1
102
RTVSPost2010Prop50
 90
       50
102
RTVSPost2010PropOp50
 70
     1
102
RTVSPost2010Prop51ColorIndex
 90
      256
102
RTVSPost2010Prop51ColorRGB
 90
-16777216
102
RTVSPost2010PropOp51
 70
     0
102
RTVSPost2010Prop52
140
1.0
102
RTVSPost2010PropOp52
 70
     0
102
RTVSPost2010Prop53
 90
        2
102
RTVSPost2010PropOp53
 70
     1
102
RTVSPost2010Prop54
  1
strokes_ogs.tif
102
RTVSPost2010PropOp54
 70
     1
102
RTVSPost2010Prop55
280
     0
102
RTVSPost2010PropOp55
 70
     1
102
RTVSPost2010Prop56
140
1.0
102
RTVSPost2010PropOp56
 70
     1
102
RTVSPost2010Prop57
140
1.0
102
RTVSPost2010PropOp57
 70
     1
102
RTVSPropertyOp0
 70
     1
102
RTVSPropertyOp1
 70
     1
102
RTVSPropertyOp2
 70
     1
102
RTVSPropertyOp3
 70
     1
102
RTVSPropertyOp4
 70
     1
102
RTVSPropertyOp5
 70
     1
102
RTVSPropertyOp6
 70
     1
102
RTVSPropertyOp7
 70
     1
102
RTVSPropertyOp8
 70
     1
102
RTVSPropertyOp9
 70
     1
102
RTVSPropertyOp10
 70
     1
102
RTVSPropertyOp11
 70
     1
102
RTVSPropertyOp12
 70
     1
102
RTVSPropertyOp13
 70
     1
102
RTVSPropertyOp14
 70
     1
102
RTVSPropertyOp15
 70
     1
102
RTVSPropertyOp16
 70
     1
102
RTVSPropertyOp17
 70
     1
102
RTVSPropertyOp18
 70
     1
102
RTVSPropertyOp19
 70
     1
102
RTVSPropertyOp20
 70
     1
102
RTVSPropertyOp21
 70
     1
102
RTVSPropertyOp22
 70
     1
102
RTVSPropertyOp23
 70
     1
102
RTVSPropertyOp24
 70
     1
102
RTVSPropertyOp25
 70
     1
102
RTVSPropertyOp26
 70
     1
102
RTVSPropertyOp27
 70
     1
102
RTVSPropertyOp28
 70
     1
102
RTVSPropertyOp29
 70
     1
102
RTVSPropertyOp30
 70
     1
102
RTVSPropertyOp31
 70
     1
102
RTVSPropertyOp32
 70
     1
102
RTVSPropertyOp33
 70
     1
102
RTVSPropertyOp34
 70
     1
102
RTVSPropertyOp35
 70
     1
102
RTVSPropertyOp36
 70
     1
102
RTVSPropertyOp37
 70
     1
102
RTVSPropertyOp38
 70
     1
102
RTVSPropertyOp39
 70
     1
102
RTVSPropertyOp40
 70
     1
102
RTVSPropertyOp41
 70
     1
102
RTVSPropertyOp42
 70
     1
102
RTVSPropertyOp43
 70
     1
102
RTVSPropertyOp44
 70
     1
102
RTVSPropertyOp45
 70
     1
102
RTVSPropertyOp46
 70
     1
102
RTVSPropertyOp47
 70
     1
102
RTVSPropertyOp48
 70
     1
102
RTVSPropertyOp49
 70
     1
102
RTVSPropertyOp50
 70
     1
102
RTVSPropertyOp51
 70
     0
102
RTVSPropertyOp52
 70
     0
102
RTVSPropertyOp53
 70
     1
102
RTVSPropertyOp54
 70
     1
102
RTVSPropertyOp55
 70
     1
102
RTVSPropertyOp56
 70
     1
102
RTVSPropertyOp57
 70
     1
102
RTVSPropertyOp58
 70
     1
102
RTVSPropertyOp59
 70
     1
102
RTVSPropertyOp60
 70
     1
102
RTVSPropertyOp61
 70
     1
102
RTVSPropertyOp62
 70
     1
  0
XRECORD
  5
18E2
102
{ACAD_REACTORS
330
18E1
102
}
330
18E1
100
AcDbXrecord
280
     1
102
RTVSPost2010Prop28
280
     0
102
RTVSPost2010PropOp28
 70
     1
102
RTVSPost2010Prop29
280
     1
102
RTVSPost2010PropOp29
 70
     1
102
RTVSPost2010Prop30
280
     1
102
RTVSPost2010PropOp30
 70
     1
102
RTVSPost2010Prop31
280
     0
102
RTVSPost2010PropOp31
 70
     1
102
RTVSPost2010Prop32
280
     0
102
RTVSPost2010PropOp32
 70
     1
102
RTVSPost2010Prop33
280
     0
102
RTVSPost2010PropOp33
 70
     1
102
RTVSPost2010Prop34
280
     0
102
RTVSPost2010PropOp34
 70
     1
102
RTVSPost2010Prop35
280
     0
102
RTVSPost2010PropOp35
 70
     1
102
RTVSPost2010Prop36
280
     0
102
RTVSPost2010PropOp36
 70
     1
102
RTVSPost2010Prop37
 90
       50
102
RTVSPost2010PropOp37
 70
     1
102
RTVSPost2010Prop38
140
0.0
102
RTVSPost2010PropOp38
 70
     1
102
RTVSPost2010Prop39
140
1.0
102
RTVSPost2010PropOp39
 70
     1
102
RTVSPost2010Prop40
 90
        0
102
RTVSPost2010PropOp40
 70
     1
102
RTVSPost2010Prop41ColorIndex
 90
       18
102
RTVSPost2010Prop41ColorRGB
 90
        0
102
RTVSPost2010PropOp41
 70
     1
102
RTVSPost2010Prop42
 90
       50
102
RTVSPost2010PropOp42
 70
     1
102
RTVSPost2010Prop43
 90
        3
102
RTVSPost2010PropOp43
 70
     1
102
RTVSPost2010Prop44ColorIndex
 90
        5
102
RTVSPost2010Prop44ColorRGB
 90
      255
102
RTVSPost2010PropOp44
 70
     1
102
RTVSPost2010Prop45
280
     0
102
RTVSPost2010PropOp45
 70
     1
102
RTVSPost2010Prop46
 90
       50
102
RTVSPost2010PropOp46
 70
     1
102
RTVSPost2010Prop47
 90
       50
102
RTVSPost2010PropOp47
 70
     1
102
RTVSPost2010Prop48
 90
       50
102
RTVSPost2010PropOp48
 70
     1
102
RTVSPost2010Prop49
280
     0
102
RTVSPost2010PropOp49
 70
     1
102
RTVSPost2010Prop50
 90
       50
102
RTVSPost2010PropOp50
 70
     1
102
RTVSPost2010Prop51ColorIndex
 90
      256
102
RTVSPost2010Prop51ColorRGB
 90
-16777216
102
RTVSPost2010PropOp51
 70
     0
102
RTVSPost2010Prop52
140
1.0
102
RTVSPost2010PropOp52
 70
     0
102
RTVSPost2010Prop53
 90
        2
102
RTVSPost2010PropOp53
 70
     1
102
RTVSPost2010Prop54
  1
strokes_ogs.tif
102
RTVSPost2010PropOp54
 70
     1
102
RTVSPost2010Prop55
280
     0
102
RTVSPost2010PropOp55
 70
     1
102
RTVSPost2010Prop56
140
1.0
102
RTVSPost2010PropOp56
 70
     1
102
RTVSPost2010Prop57
140
1.0
102
RTVSPost2010PropOp57
 70
     1
102
RTVSPropertyOp0
 70
     1
102
RTVSPropertyOp1
 70
     1
102
RTVSPropertyOp2
 70
     1
102
RTVSPropertyOp3
 70
     1
102
RTVSPropertyOp4
 70
     1
102
RTVSPropertyOp5
 70
     1
102
RTVSPropertyOp6
 70
     1
102
RTVSPropertyOp7
 70
     1
102
RTVSPropertyOp8
 70
     1
102
RTVSPropertyOp9
 70
     1
102
RTVSPropertyOp10
 70
     1
102
RTVSPropertyOp11
 70
     1
102
RTVSPropertyOp12
 70
     1
102
RTVSPropertyOp13
 70
     1
102
RTVSPropertyOp14
 70
     1
102
RTVSPropertyOp15
 70
     1
102
RTVSPropertyOp16
 70
     1
102
RTVSPropertyOp17
 70
     1
102
RTVSPropertyOp18
 70
     1
102
RTVSPropertyOp19
 70
     1
102
RTVSPropertyOp20
 70
     1
102
RTVSPropertyOp21
 70
     1
102
RTVSPropertyOp22
 70
     1
102
RTVSPropertyOp23
 70
     1
102
RTVSPropertyOp24
 70
     1
102
RTVSPropertyOp25
 70
     1
102
RTVSPropertyOp26
 70
     1
102
RTVSPropertyOp27
 70
     1
102
RTVSPropertyOp28
 70
     1
102
RTVSPropertyOp29
 70
     1
102
RTVSPropertyOp30
 70
     1
102
RTVSPropertyOp31
 70
     1
102
RTVSPropertyOp32
 70
     1
102
RTVSPropertyOp33
 70
     1
102
RTVSPropertyOp34
 70
     1
102
RTVSPropertyOp35
 70
     1
102
RTVSPropertyOp36
 70
     1
102
RTVSPropertyOp37
 70
     1
102
RTVSPropertyOp38
 70
     1
102
RTVSPropertyOp39
 70
     1
102
RTVSPropertyOp40
 70
     1
102
RTVSPropertyOp41
 70
     1
102
RTVSPropertyOp42
 70
     1
102
RTVSPropertyOp43
 70
     1
102
RTVSPropertyOp44
 70
     1
102
RTVSPropertyOp45
 70
     1
102
RTVSPropertyOp46
 70
     1
102
RTVSPropertyOp47
 70
     1
102
RTVSPropertyOp48
 70
     1
102
RTVSPropertyOp49
 70
     1
102
RTVSPropertyOp50
 70
     1
102
RTVSPropertyOp51
 70
     0
102
RTVSPropertyOp52
 70
     0
102
RTVSPropertyOp53
 70
     1
102
RTVSPropertyOp54
 70
     1
102
RTVSPropertyOp55
 70
     1
102
RTVSPropertyOp56
 70
     1
102
RTVSPropertyOp57
 70
     1
102
RTVSPropertyOp58
 70
     1
102
RTVSPropertyOp59
 70
     1
102
RTVSPropertyOp60
 70
     1
102
RTVSPropertyOp61
 70
     1
102
RTVSPropertyOp62
 70
     1
  0
XRECORD
  5
18D2
102
{ACAD_REACTORS
330
18D1
102
}
330
18D1
100
AcDbXrecord
280
     1
102
RTVSPost2010Prop28
280
     0
102
RTVSPost2010PropOp28
 70
     1
102
RTVSPost2010Prop29
280
     1
102
RTVSPost2010PropOp29
 70
     1
102
RTVSPost2010Prop30
280
     1
102
RTVSPost2010PropOp30
 70
     1
102
RTVSPost2010Prop31
280
     0
102
RTVSPost2010PropOp31
 70
     1
102
RTVSPost2010Prop32
280
     0
102
RTVSPost2010PropOp32
 70
     1
102
RTVSPost2010Prop33
280
     0
102
RTVSPost2010PropOp33
 70
     1
102
RTVSPost2010Prop34
280
     0
102
RTVSPost2010PropOp34
 70
     1
102
RTVSPost2010Prop35
280
     0
102
RTVSPost2010PropOp35
 70
     1
102
RTVSPost2010Prop36
280
     0
102
RTVSPost2010PropOp36
 70
     1
102
RTVSPost2010Prop37
 90
       50
102
RTVSPost2010PropOp37
 70
     1
102
RTVSPost2010Prop38
140
0.0
102
RTVSPost2010PropOp38
 70
     1
102
RTVSPost2010Prop39
140
1.0
102
RTVSPost2010PropOp39
 70
     1
102
RTVSPost2010Prop40
 90
        0
102
RTVSPost2010PropOp40
 70
     1
102
RTVSPost2010Prop41ColorIndex
 90
       18
102
RTVSPost2010Prop41ColorRGB
 90
        0
102
RTVSPost2010PropOp41
 70
     1
102
RTVSPost2010Prop42
 90
       50
102
RTVSPost2010PropOp42
 70
     1
102
RTVSPost2010Prop43
 90
        3
102
RTVSPost2010PropOp43
 70
     1
102
RTVSPost2010Prop44ColorIndex
 90
        5
102
RTVSPost2010Prop44ColorRGB
 90
      255
102
RTVSPost2010PropOp44
 70
     1
102
RTVSPost2010Prop45
280
     0
102
RTVSPost2010PropOp45
 70
     1
102
RTVSPost2010Prop46
 90
       50
102
RTVSPost2010PropOp46
 70
     1
102
RTVSPost2010Prop47
 90
       50
102
RTVSPost2010PropOp47
 70
     1
102
RTVSPost2010Prop48
 90
       50
102
RTVSPost2010PropOp48
 70
     1
102
RTVSPost2010Prop49
280
     0
102
RTVSPost2010PropOp49
 70
     1
102
RTVSPost2010Prop50
 90
       50
102
RTVSPost2010PropOp50
 70
     1
102
RTVSPost2010Prop51ColorIndex
 90
      256
102
RTVSPost2010Prop51ColorRGB
 90
-16777216
102
RTVSPost2010PropOp51
 70
     0
102
RTVSPost2010Prop52
140
1.0
102
RTVSPost2010PropOp52
 70
     0
102
RTVSPost2010Prop53
 90
        2
102
RTVSPost2010PropOp53
 70
     1
102
RTVSPost2010Prop54
  1
strokes_ogs.tif
102
RTVSPost2010PropOp54
 70
     1
102
RTVSPost2010Prop55
280
     0
102
RTVSPost2010PropOp55
 70
     1
102
RTVSPost2010Prop56
140
1.0
102
RTVSPost2010PropOp56
 70
     1
102
RTVSPost2010Prop57
140
1.0
102
RTVSPost2010PropOp57
 70
     1
102
RTVSPropertyOp0
 70
     1
102
RTVSPropertyOp1
 70
     1
102
RTVSPropertyOp2
 70
     1
102
RTVSPropertyOp3
 70
     1
102
RTVSPropertyOp4
 70
     1
102
RTVSPropertyOp5
 70
     1
102
RTVSPropertyOp6
 70
     1
102
RTVSPropertyOp7
 70
     1
102
RTVSPropertyOp8
 70
     1
102
RTVSPropertyOp9
 70
     1
102
RTVSPropertyOp10
 70
     1
102
RTVSPropertyOp11
 70
     1
102
RTVSPropertyOp12
 70
     1
102
RTVSPropertyOp13
 70
     1
102
RTVSPropertyOp14
 70
     1
102
RTVSPropertyOp15
 70
     1
102
RTVSPropertyOp16
 70
     1
102
RTVSPropertyOp17
 70
     1
102
RTVSPropertyOp18
 70
     1
102
RTVSPropertyOp19
 70
     1
102
RTVSPropertyOp20
 70
     1
102
RTVSPropertyOp21
 70
     1
102
RTVSPropertyOp22
 70
     1
102
RTVSPropertyOp23
 70
     1
102
RTVSPropertyOp24
 70
     1
102
RTVSPropertyOp25
 70
     1
102
RTVSPropertyOp26
 70
     1
102
RTVSPropertyOp27
 70
     1
102
RTVSPropertyOp28
 70
     1
102
RTVSPropertyOp29
 70
     1
102
RTVSPropertyOp30
 70
     1
102
RTVSPropertyOp31
 70
     1
102
RTVSPropertyOp32
 70
     1
102
RTVSPropertyOp33
 70
     1
102
RTVSPropertyOp34
 70
     1
102
RTVSPropertyOp35
 70
     1
102
RTVSPropertyOp36
 70
     1
102
RTVSPropertyOp37
 70
     1
102
RTVSPropertyOp38
 70
     1
102
RTVSPropertyOp39
 70
     1
102
RTVSPropertyOp40
 70
     1
102
RTVSPropertyOp41
 70
     1
102
RTVSPropertyOp42
 70
     1
102
RTVSPropertyOp43
 70
     1
102
RTVSPropertyOp44
 70
     1
102
RTVSPropertyOp45
 70
     1
102
RTVSPropertyOp46
 70
     1
102
RTVSPropertyOp47
 70
     1
102
RTVSPropertyOp48
 70
     1
102
RTVSPropertyOp49
 70
     1
102
RTVSPropertyOp50
 70
     1
102
RTVSPropertyOp51
 70
     0
102
RTVSPropertyOp52
 70
     0
102
RTVSPropertyOp53
 70
     1
102
RTVSPropertyOp54
 70
     1
102
RTVSPropertyOp55
 70
     1
102
RTVSPropertyOp56
 70
     1
102
RTVSPropertyOp57
 70
     1
102
RTVSPropertyOp58
 70
     1
102
RTVSPropertyOp59
 70
     1
102
RTVSPropertyOp60
 70
     1
102
RTVSPropertyOp61
 70
     1
102
RTVSPropertyOp62
 70
     1
  0
XRECORD
  5
18DC
102
{ACAD_REACTORS
330
18DB
102
}
330
18DB
100
AcDbXrecord
280
     1
102
RTVSPost2010Prop28
280
     0
102
RTVSPost2010PropOp28
 70
     1
102
RTVSPost2010Prop29
280
     1
102
RTVSPost2010PropOp29
 70
     1
102
RTVSPost2010Prop30
280
     1
102
RTVSPost2010PropOp30
 70
     1
102
RTVSPost2010Prop31
280
     0
102
RTVSPost2010PropOp31
 70
     1
102
RTVSPost2010Prop32
280
     0
102
RTVSPost2010PropOp32
 70
     1
102
RTVSPost2010Prop33
280
     0
102
RTVSPost2010PropOp33
 70
     1
102
RTVSPost2010Prop34
280
     0
102
RTVSPost2010PropOp34
 70
     1
102
RTVSPost2010Prop35
280
     0
102
RTVSPost2010PropOp35
 70
     1
102
RTVSPost2010Prop36
280
     0
102
RTVSPost2010PropOp36
 70
     1
102
RTVSPost2010Prop37
 90
       50
102
RTVSPost2010PropOp37
 70
     1
102
RTVSPost2010Prop38
140
0.0
102
RTVSPost2010PropOp38
 70
     1
102
RTVSPost2010Prop39
140
1.0
102
RTVSPost2010PropOp39
 70
     1
102
RTVSPost2010Prop40
 90
        0
102
RTVSPost2010PropOp40
 70
     1
102
RTVSPost2010Prop41ColorIndex
 90
       18
102
RTVSPost2010Prop41ColorRGB
 90
        0
102
RTVSPost2010PropOp41
 70
     1
102
RTVSPost2010Prop42
 90
       50
102
RTVSPost2010PropOp42
 70
     1
102
RTVSPost2010Prop43
 90
        3
102
RTVSPost2010PropOp43
 70
     1
102
RTVSPost2010Prop44ColorIndex
 90
        5
102
RTVSPost2010Prop44ColorRGB
 90
      255
102
RTVSPost2010PropOp44
 70
     1
102
RTVSPost2010Prop45
280
     0
102
RTVSPost2010PropOp45
 70
     1
102
RTVSPost2010Prop46
 90
       50
102
RTVSPost2010PropOp46
 70
     1
102
RTVSPost2010Prop47
 90
       50
102
RTVSPost2010PropOp47
 70
     1
102
RTVSPost2010Prop48
 90
       50
102
RTVSPost2010PropOp48
 70
     1
102
RTVSPost2010Prop49
280
     0
102
RTVSPost2010PropOp49
 70
     1
102
RTVSPost2010Prop50
 90
       50
102
RTVSPost2010PropOp50
 70
     1
102
RTVSPost2010Prop51ColorIndex
 90
      256
102
RTVSPost2010Prop51ColorRGB
 90
-16777216
102
RTVSPost2010PropOp51
 70
     0
102
RTVSPost2010Prop52
140
1.0
102
RTVSPost2010PropOp52
 70
     0
102
RTVSPost2010Prop53
 90
        2
102
RTVSPost2010PropOp53
 70
     1
102
RTVSPost2010Prop54
  1
strokes_ogs.tif
102
RTVSPost2010PropOp54
 70
     1
102
RTVSPost2010Prop55
280
     0
102
RTVSPost2010PropOp55
 70
     1
102
RTVSPost2010Prop56
140
1.0
102
RTVSPost2010PropOp56
 70
     1
102
RTVSPost2010Prop57
140
1.0
102
RTVSPost2010PropOp57
 70
     1
102
RTVSPropertyOp0
 70
     1
102
RTVSPropertyOp1
 70
     1
102
RTVSPropertyOp2
 70
     1
102
RTVSPropertyOp3
 70
     1
102
RTVSPropertyOp4
 70
     1
102
RTVSPropertyOp5
 70
     1
102
RTVSPropertyOp6
 70
     1
102
RTVSPropertyOp7
 70
     1
102
RTVSPropertyOp8
 70
     1
102
RTVSPropertyOp9
 70
     1
102
RTVSPropertyOp10
 70
     1
102
RTVSPropertyOp11
 70
     1
102
RTVSPropertyOp12
 70
     1
102
RTVSPropertyOp13
 70
     1
102
RTVSPropertyOp14
 70
     1
102
RTVSPropertyOp15
 70
     1
102
RTVSPropertyOp16
 70
     1
102
RTVSPropertyOp17
 70
     1
102
RTVSPropertyOp18
 70
     1
102
RTVSPropertyOp19
 70
     1
102
RTVSPropertyOp20
 70
     1
102
RTVSPropertyOp21
 70
     1
102
RTVSPropertyOp22
 70
     1
102
RTVSPropertyOp23
 70
     1
102
RTVSPropertyOp24
 70
     1
102
RTVSPropertyOp25
 70
     1
102
RTVSPropertyOp26
 70
     1
102
RTVSPropertyOp27
 70
     1
102
RTVSPropertyOp28
 70
     1
102
RTVSPropertyOp29
 70
     1
102
RTVSPropertyOp30
 70
     1
102
RTVSPropertyOp31
 70
     1
102
RTVSPropertyOp32
 70
     1
102
RTVSPropertyOp33
 70
     1
102
RTVSPropertyOp34
 70
     1
102
RTVSPropertyOp35
 70
     1
102
RTVSPropertyOp36
 70
     1
102
RTVSPropertyOp37
 70
     1
102
RTVSPropertyOp38
 70
     1
102
RTVSPropertyOp39
 70
     1
102
RTVSPropertyOp40
 70
     1
102
RTVSPropertyOp41
 70
     1
102
RTVSPropertyOp42
 70
     1
102
RTVSPropertyOp43
 70
     1
102
RTVSPropertyOp44
 70
     1
102
RTVSPropertyOp45
 70
     1
102
RTVSPropertyOp46
 70
     1
102
RTVSPropertyOp47
 70
     1
102
RTVSPropertyOp48
 70
     1
102
RTVSPropertyOp49
 70
     1
102
RTVSPropertyOp50
 70
     1
102
RTVSPropertyOp51
 70
     0
102
RTVSPropertyOp52
 70
     0
102
RTVSPropertyOp53
 70
     1
102
RTVSPropertyOp54
 70
     1
102
RTVSPropertyOp55
 70
     1
102
RTVSPropertyOp56
 70
     1
102
RTVSPropertyOp57
 70
     1
102
RTVSPropertyOp58
 70
     1
102
RTVSPropertyOp59
 70
     1
102
RTVSPropertyOp60
 70
     1
102
RTVSPropertyOp61
 70
     1
102
RTVSPropertyOp62
 70
     1
  0
XRECORD
  5
18E4
102
{ACAD_REACTORS
330
18E3
102
}
330
18E3
100
AcDbXrecord
280
     1
102
RTVSPost2010Prop28
280
     0
102
RTVSPost2010PropOp28
 70
     1
102
RTVSPost2010Prop29
280
     1
102
RTVSPost2010PropOp29
 70
     1
102
RTVSPost2010Prop30
280
     1
102
RTVSPost2010PropOp30
 70
     1
102
RTVSPost2010Prop31
280
     0
102
RTVSPost2010PropOp31
 70
     1
102
RTVSPost2010Prop32
280
     0
102
RTVSPost2010PropOp32
 70
     1
102
RTVSPost2010Prop33
280
     0
102
RTVSPost2010PropOp33
 70
     1
102
RTVSPost2010Prop34
280
     0
102
RTVSPost2010PropOp34
 70
     1
102
RTVSPost2010Prop35
280
     0
102
RTVSPost2010PropOp35
 70
     1
102
RTVSPost2010Prop36
280
     0
102
RTVSPost2010PropOp36
 70
     1
102
RTVSPost2010Prop37
 90
       50
102
RTVSPost2010PropOp37
 70
     1
102
RTVSPost2010Prop38
140
0.0
102
RTVSPost2010PropOp38
 70
     1
102
RTVSPost2010Prop39
140
1.0
102
RTVSPost2010PropOp39
 70
     1
102
RTVSPost2010Prop40
 90
        0
102
RTVSPost2010PropOp40
 70
     1
102
RTVSPost2010Prop41ColorIndex
 90
       18
102
RTVSPost2010Prop41ColorRGB
 90
        0
102
RTVSPost2010PropOp41
 70
     1
102
RTVSPost2010Prop42
 90
       50
102
RTVSPost2010PropOp42
 70
     1
102
RTVSPost2010Prop43
 90
        3
102
RTVSPost2010PropOp43
 70
     1
102
RTVSPost2010Prop44ColorIndex
 90
        5
102
RTVSPost2010Prop44ColorRGB
 90
      255
102
RTVSPost2010PropOp44
 70
     1
102
RTVSPost2010Prop45
280
     0
102
RTVSPost2010PropOp45
 70
     1
102
RTVSPost2010Prop46
 90
       50
102
RTVSPost2010PropOp46
 70
     1
102
RTVSPost2010Prop47
 90
       50
102
RTVSPost2010PropOp47
 70
     1
102
RTVSPost2010Prop48
 90
       50
102
RTVSPost2010PropOp48
 70
     1
102
RTVSPost2010Prop49
280
     0
102
RTVSPost2010PropOp49
 70
     1
102
RTVSPost2010Prop50
 90
       50
102
RTVSPost2010PropOp50
 70
     1
102
RTVSPost2010Prop51ColorIndex
 90
      256
102
RTVSPost2010Prop51ColorRGB
 90
-16777216
102
RTVSPost2010PropOp51
 70
     0
102
RTVSPost2010Prop52
140
1.0
102
RTVSPost2010PropOp52
 70
     0
102
RTVSPost2010Prop53
 90
        2
102
RTVSPost2010PropOp53
 70
     1
102
RTVSPost2010Prop54
  1
strokes_ogs.tif
102
RTVSPost2010PropOp54
 70
     1
102
RTVSPost2010Prop55
280
     0
102
RTVSPost2010PropOp55
 70
     1
102
RTVSPost2010Prop56
140
1.0
102
RTVSPost2010PropOp56
 70
     1
102
RTVSPost2010Prop57
140
1.0
102
RTVSPost2010PropOp57
 70
     1
102
RTVSPropertyOp0
 70
     1
102
RTVSPropertyOp1
 70
     1
102
RTVSPropertyOp2
 70
     1
102
RTVSPropertyOp3
 70
     1
102
RTVSPropertyOp4
 70
     1
102
RTVSPropertyOp5
 70
     1
102
RTVSPropertyOp6
 70
     1
102
RTVSPropertyOp7
 70
     1
102
RTVSPropertyOp8
 70
     1
102
RTVSPropertyOp9
 70
     1
102
RTVSPropertyOp10
 70
     1
102
RTVSPropertyOp11
 70
     1
102
RTVSPropertyOp12
 70
     1
102
RTVSPropertyOp13
 70
     1
102
RTVSPropertyOp14
 70
     1
102
RTVSPropertyOp15
 70
     1
102
RTVSPropertyOp16
 70
     1
102
RTVSPropertyOp17
 70
     1
102
RTVSPropertyOp18
 70
     1
102
RTVSPropertyOp19
 70
     1
102
RTVSPropertyOp20
 70
     1
102
RTVSPropertyOp21
 70
     1
102
RTVSPropertyOp22
 70
     1
102
RTVSPropertyOp23
 70
     1
102
RTVSPropertyOp24
 70
     1
102
RTVSPropertyOp25
 70
     1
102
RTVSPropertyOp26
 70
     1
102
RTVSPropertyOp27
 70
     1
102
RTVSPropertyOp28
 70
     1
102
RTVSPropertyOp29
 70
     1
102
RTVSPropertyOp30
 70
     1
102
RTVSPropertyOp31
 70
     1
102
RTVSPropertyOp32
 70
     1
102
RTVSPropertyOp33
 70
     1
102
RTVSPropertyOp34
 70
     1
102
RTVSPropertyOp35
 70
     1
102
RTVSPropertyOp36
 70
     1
102
RTVSPropertyOp37
 70
     1
102
RTVSPropertyOp38
 70
     1
102
RTVSPropertyOp39
 70
     1
102
RTVSPropertyOp40
 70
     1
102
RTVSPropertyOp41
 70
     1
102
RTVSPropertyOp42
 70
     1
102
RTVSPropertyOp43
 70
     1
102
RTVSPropertyOp44
 70
     1
102
RTVSPropertyOp45
 70
     1
102
RTVSPropertyOp46
 70
     1
102
RTVSPropertyOp47
 70
     1
102
RTVSPropertyOp48
 70
     1
102
RTVSPropertyOp49
 70
     1
102
RTVSPropertyOp50
 70
     1
102
RTVSPropertyOp51
 70
     0
102
RTVSPropertyOp52
 70
     0
102
RTVSPropertyOp53
 70
     1
102
RTVSPropertyOp54
 70
     1
102
RTVSPropertyOp55
 70
     1
102
RTVSPropertyOp56
 70
     1
102
RTVSPropertyOp57
 70
     1
102
RTVSPropertyOp58
 70
     1
102
RTVSPropertyOp59
 70
     1
102
RTVSPropertyOp60
 70
     1
102
RTVSPropertyOp61
 70
     1
102
RTVSPropertyOp62
 70
     1
  0
ENDSEC
  0
EOF
