  0
SECTION
  2
HEADER
  9
$ACADVER
  1
AC1014
  9
$ACADMAINTVER
 70
     9
  9
$DWGCODEPAGE
  3
ANSI_1252
  9
$INSBASE
 10
0.0
 20
0.0
 30
0.0
  9
$EXTMIN
 10
-24.19424463348059
 20
-19.05124601938109
 30
-0.0000000349181948
  9
$EXTMAX
 10
32.87568670456494
 20
26.76587306736587
 30
0.0000000814935747
  9
$LIMMIN
 10
-798.297363
 20
-338.2568359999999
  9
$LIMMAX
 10
0.0
 20
0.0
  9
$ORTHOMODE
 70
     0
  9
$REGENMODE
 70
     1
  9
$FILLMODE
 70
     1
  9
$QTEXTMODE
 70
     0
  9
$MIRRTEXT
 70
     1
  9
$DRAGMODE
 70
     2
  9
$LTSCALE
 40
25.0
  9
$OSMODE
 70
   167
  9
$ATTMODE
 70
     1
  9
$TEXTSIZE
 40
4.1672
  9
$TRACEWID
 40
0.05
  9
$TEXTSTYLE
  7
STANDARD
  9
$CLAYER
  8
0
  9
$CELTYPE
  6
BYLAYER
  9
$CECOLOR
 62
   256
  9
$CELTSCALE
 40
1.0
  9
$DELOBJ
 70
     1
  9
$DISPSILH
 70
     0
  9
$DIMSCALE
 40
1.0
  9
$DIMASZ
 40
0.18
  9
$DIMEXO
 40
0.0625
  9
$DIMDLI
 40
0.38
  9
$DIMRND
 40
0.0
  9
$DIMDLE
 40
0.0
  9
$DIMEXE
 40
0.18
  9
$DIMTP
 40
0.0
  9
$DIMTM
 40
0.0
  9
$DIMTXT
 40
3.5
  9
$DIMCEN
 40
0.09
  9
$DIMTSZ
 40
0.0
  9
$DIMTOL
 70
     0
  9
$DIMLIM
 70
     0
  9
$DIMTIH
 70
     1
  9
$DIMTOH
 70
     1
  9
$DIMSE1
 70
     0
  9
$DIMSE2
 70
     0
  9
$DIMTAD
 70
     0
  9
$DIMZIN
 70
     0
  9
$DIMBLK
  1

  9
$DIMASO
 70
     1
  9
$DIMSHO
 70
     1
  9
$DIMPOST
  1

  9
$DIMAPOST
  1

  9
$DIMALT
 70
     0
  9
$DIMALTD
 70
     2
  9
$DIMALTF
 40
25.4
  9
$DIMLFAC
 40
1.0
  9
$DIMTOFL
 70
     0
  9
$DIMTVP
 40
0.0
  9
$DIMTIX
 70
     0
  9
$DIMSOXD
 70
     0
  9
$DIMSAH
 70
     0
  9
$DIMBLK1
  1

  9
$DIMBLK2
  1

  9
$DIMSTYLE
  2
STANDARD
  9
$DIMCLRD
 70
     0
  9
$DIMCLRE
 70
     0
  9
$DIMCLRT
 70
     0
  9
$DIMTFAC
 40
1.0
  9
$DIMGAP
 40
0.09
  9
$DIMJUST
 70
     0
  9
$DIMSD1
 70
     0
  9
$DIMSD2
 70
     0
  9
$DIMTOLJ
 70
     1
  9
$DIMTZIN
 70
     0
  9
$DIMALTZ
 70
     0
  9
$DIMALTTZ
 70
     0
  9
$DIMFIT
 70
     3
  9
$DIMUPT
 70
     0
  9
$DIMUNIT
 70
     2
  9
$DIMDEC
 70
     4
  9
$DIMTDEC
 70
     4
  9
$DIMALTU
 70
     2
  9
$DIMALTTD
 70
     2
  9
$DIMTXSTY
  7
STANDARD
  9
$DIMAUNIT
 70
     0
  9
$LUNITS
 70
     2
  9
$LUPREC
 70
     6
  9
$SKETCHINC
 40
0.1
  9
$FILLETRAD
 40
0.5
  9
$AUNITS
 70
     0
  9
$AUPREC
 70
     4
  9
$MENU
  1
.
  9
$ELEVATION
 40
0.0
  9
$PELEVATION
 40
0.0
  9
$THICKNESS
 40
0.0
  9
$LIMCHECK
 70
     0
  9
$BLIPMODE
 70
     0
  9
$CHAMFERA
 40
0.0
  9
$CHAMFERB
 40
0.0
  9
$CHAMFERC
 40
0.0
  9
$CHAMFERD
 40
0.0
  9
$SKPOLY
 70
     0
  9
$TDCREATE
 40
2311949.301279375
  9
$TDUPDATE
 40
2454187.625982279
  9
$TDINDWG
 40
0.0424572106
  9
$TDUSRTIMER
 40
0.0424572106
  9
$USRTIMER
 70
     1
  9
$ANGBASE
 50
0.0
  9
$ANGDIR
 70
     0
  9
$PDMODE
 70
     0
  9
$PDSIZE
 40
0.0
  9
$PLINEWID
 40
0.0
  9
$COORDS
 70
     0
  9
$SPLFRAME
 70
     0
  9
$SPLINETYPE
 70
     6
  9
$SPLINESEGS
 70
     8
  9
$ATTDIA
 70
     0
  9
$ATTREQ
 70
     1
  9
$HANDLING
 70
-16383
  9
$HANDSEED
  5
1A61
  9
$SURFTAB1
 70
     6
  9
$SURFTAB2
 70
     6
  9
$SURFTYPE
 70
     6
  9
$SURFU
 70
     6
  9
$SURFV
 70
     6
  9
$UCSNAME
  2

  9
$UCSORG
 10
0.0
 20
0.0
 30
0.0
  9
$UCSXDIR
 10
1.0
 20
0.0
 30
0.0
  9
$UCSYDIR
 10
0.0
 20
1.0
 30
0.0
  9
$PUCSNAME
  2

  9
$PUCSORG
 10
0.0
 20
0.0
 30
0.0
  9
$PUCSXDIR
 10
1.0
 20
0.0
 30
0.0
  9
$PUCSYDIR
 10
0.0
 20
1.0
 30
0.0
  9
$USERI1
 70
     0
  9
$USERI2
 70
     0
  9
$USERI3
 70
     0
  9
$USERI4
 70
     0
  9
$USERI5
 70
     0
  9
$USERR1
 40
0.0
  9
$USERR2
 40
0.0
  9
$USERR3
 40
0.0
  9
$USERR4
 40
0.0
  9
$USERR5
 40
0.0
  9
$WORLDVIEW
 70
     1
  9
$SHADEDGE
 70
     3
  9
$SHADEDIF
 70
    70
  9
$TILEMODE
 70
     1
  9
$MAXACTVP
 70
    48
  9
$PINSBASE
 10
0.0
 20
0.0
 30
0.0
  9
$PLIMCHECK
 70
     0
  9
$PEXTMIN
 10
-798.297363
 20
-338.2568359999999
 30
1.000000000000000E+20
  9
$PEXTMAX
 10
0.0
 20
0.0
 30
-1.000000000000000E+20
  9
$PLIMMIN
 10
0.0
 20
0.0
  9
$PLIMMAX
 10
12.0
 20
9.0
  9
$UNITMODE
 70
     0
  9
$VISRETAIN
 70
     0
  9
$PLINEGEN
 70
     0
  9
$PSLTSCALE
 70
     1
  9
$TREEDEPTH
 70
  3020
  9
$PICKSTYLE
 70
     1
  9
$CMLSTYLE
  2
STANDARD
  9
$CMLJUST
 70
     0
  9
$CMLSCALE
 40
1.0
  9
$PROXYGRAPHICS
 70
     1
  9
$MEASUREMENT
 70
     0
  0
ENDSEC
  0
SECTION
  2
CLASSES
  0
CLASS
  1
LWPOLYLINE
  2
AcDbPolyline
  3
AutoCAD 2000
 90
        0
280
     0
281
     1
  0
CLASS
  1
IMAGE
  2
AcDbRasterImage
  3
ISM
 90
      127
280
     0
281
     1
  0
CLASS
  1
OLE2FRAME
  2
AcDbOle2Frame
  3
AutoCAD 2000
 90
        0
280
     0
281
     1
  0
CLASS
  1
HATCH
  2
AcDbHatch
  3
AutoCAD 2000
 90
        0
280
     0
281
     1
  0
CLASS
  1
DICTIONARYVAR
  2
AcDbDictionaryVar
  3
AutoCAD 2000
 90
        0
280
     0
281
     0
  0
CLASS
  1
RASTERVARIABLES
  2
AcDbRasterVariables
  3
ISM
 90
        0
280
     0
281
     0
  0
CLASS
  1
IMAGEDEF
  2
AcDbRasterImageDef
  3
ISM
 90
        0
280
     0
281
     0
  0
CLASS
  1
IMAGEDEF_REACTOR
  2
AcDbRasterImageDefReactor
  3
ISM
 90
        1
280
     0
281
     0
  0
CLASS
  1
IDBUFFER
  2
AcDbIdBuffer
  3
AutoCAD 2000
 90
        0
280
     0
281
     0
  0
CLASS
  1
SPATIAL_FILTER
  2
AcDbSpatialFilter
  3
AutoCAD 2000
 90
        0
280
     0
281
     0
  0
CLASS
  1
XRECORD
  2
AcDbXrecord
  3
AutoCAD 2000
 90
        0
280
     0
281
     0
  0
CLASS
  1
SORTENTSTABLE
  2
AcDbSortentsTable
  3
AutoCAD 2000
 90
        0
280
     0
281
     0
  0
CLASS
  1
LAYER_INDEX
  2
AcDbLayerIndex
  3
AutoCAD 2000
 90
        0
280
     0
281
     0
  0
CLASS
  1
SPATIAL_INDEX
  2
AcDbSpatialIndex
  3
AutoCAD 2000
 90
        0
280
     0
281
     0
  0
CLASS
  1
OBJECT_PTR
  2
CAseDLPNTableRecord
  3
"ASE-LPNTableRecord"
 90
        0
280
     0
281
     0
  0
CLASS
  1
LAYOUT
  2
AcDbLayout
  3
AutoCAD 2000
 90
        0
280
     0
281
     0
  0
CLASS
  1
PLOTSETTINGS
  2
AcDbPlotSettings
  3
AutoCAD 2000
 90
        0
280
     0
281
     0
  0
CLASS
  1
ACDBDICTIONARYWDFLT
  2
AcDbDictionaryWithDefault
  3
AutoCAD 2000
 90
        0
280
     0
281
     0
  0
CLASS
  1
ACDBPLACEHOLDER
  2
AcDbPlaceHolder
  3
AutoCAD 2000
 90
        0
280
     0
281
     0
  0
CLASS
  1
VBA_PROJECT
  2
AcDbVbaProject
  3
"acadvba"
 90
        0
280
     0
281
     0
  0
CLASS
  1
WIPEOUT
  2
AcDbWipeout
  3
WipeOut|AutoCAD Express Tool|expresstools@autodesk.com
 90
        0
280
     0
281
     1
  0
CLASS
  1
WIPEOUTVARIABLES
  2
AcDbWipeoutVariables
  3
WipeOut|AutoCAD Express Tool|expresstools@autodesk.com
 90
        0
280
     0
281
     0
  0
CLASS
  1
RTEXT
  2
RText
  3
RText|AutoCAD Express Tool|expresstools@autodesk.com
 90
        0
280
     0
281
     1
  0
CLASS
  1
ARCALIGNEDTEXT
  2
AcDbArcAlignedText
  3
ATEXT|AutoCAD Express Tool|expresstools@autodesk.com
 90
        0
280
     0
281
     1
  0
CLASS
  1
LONG_TRANSACTION
  2
AcDbLongTransaction
  3
AutoCAD 2000
 90
        0
280
     0
281
     0
  0
CLASS
  1
LWPOLYLINE
  2
AcDbPolyline
  3
AutoCAD 2000
 90
        0
280
     0
281
     1
  0
CLASS
  1
HATCH
  2
AcDbHatch
  3
AutoCAD 2000
 90
        0
280
     0
281
     1
  0
CLASS
  1
XRECORD
  2
AcDbXrecord
  3
AutoCAD 2000
 90
        0
280
     0
281
     0
  0
CLASS
  1
LONG_TRANSACTION
  2
AcDbLongTransaction
  3
AutoCAD 2000
 90
        0
280
     0
281
     0
  0
CLASS
  1
LWPOLYLINE
  2
AcDbPolyline
  3
AutoCAD 2000
 90
        0
280
     0
281
     1
  0
CLASS
  1
HATCH
  2
AcDbHatch
  3
AutoCAD 2000
 90
        0
280
     0
281
     1
  0
CLASS
  1
XRECORD
  2
AcDbXrecord
  3
AutoCAD 2000
 90
        0
280
     0
281
     0
  0
CLASS
  1
LONG_TRANSACTION
  2
AcDbLongTransaction
  3
AutoCAD 2000
 90
        0
280
     0
281
     0
  0
CLASS
  1
LWPOLYLINE
  2
AcDbPolyline
  3
AutoCAD 2000
 90
        0
280
     0
281
     1
  0
CLASS
  1
HATCH
  2
AcDbHatch
  3
AutoCAD 2000
 90
        0
280
     0
281
     1
  0
CLASS
  1
XRECORD
  2
AcDbXrecord
  3
AutoCAD 2000
 90
        0
280
     0
281
     0
  0
ENDSEC
  0
SECTION
  2
TABLES
  0
TABLE
  2
VPORT
  5
7
330
0
100
AcDbSymbolTable
 70
     4
  0
VPORT
  5
1A3E
330
7
100
AcDbSymbolTableRecord
100
AcDbViewportTableRecord
  2
*ACTIVE
 70
     0
 10
0.0
 20
0.0
 11
1.0
 21
1.0
 12
4.34072103554217
 22
3.857313523992388
 13
0.0
 23
0.0
 14
6.349999999999997
 24
6.349999999999997
 15
6.349999999999997
 25
6.349999999999997
 16
0.0
 26
0.0
 36
1.0
 17
0.0
 27
0.0
 37
0.0
 40
46.08956974534011
 41
1.297619047619047
 42
50.0
 43
0.0
 44
0.0
 50
0.0
 51
0.0
 71
     0
 72
   100
 73
     1
 74
     1
 75
     0
 76
     0
 77
     0
 78
     0
  0
ENDTAB
  0
TABLE
  2
LTYPE
  5
4
330
0
100
AcDbSymbolTable
 70
     2
  0
LTYPE
  5
11
330
4
100
AcDbSymbolTableRecord
100
AcDbLinetypeTableRecord
  2
BYBLOCK
 70
     0
  3

 72
    65
 73
     0
 40
0.0
  0
LTYPE
  5
12
330
4
100
AcDbSymbolTableRecord
100
AcDbLinetypeTableRecord
  2
BYLAYER
 70
     0
  3

 72
    65
 73
     0
 40
0.0
  0
LTYPE
  5
13
330
4
100
AcDbSymbolTableRecord
100
AcDbLinetypeTableRecord
  2
CONTINUOUS
 70
     0
  3
DXF Default line type
 72
    65
 73
     0
 40
0.0
  0
LTYPE
  5
12DC
330
4
100
AcDbSymbolTableRecord
100
AcDbLinetypeTableRecord
  2
CENTER
 70
     0
  3
____ _ ____ _ ____ _ ____ _ ____ _ ____ _ ____
 72
    65
 73
     4
 40
0.6
 49
0.375
 74
     0
 49
-0.075
 74
     0
 49
0.075
 74
     0
 49
-0.075
 74
     0
  0
ENDTAB
  0
TABLE
  2
LAYER
  5
2
330
0
100
AcDbSymbolTable
 70
    11
  0
LAYER
  5
14
330
2
100
AcDbSymbolTableRecord
100
AcDbLayerTableRecord
  2
0
 70
     0
 62
     7
  6
CONTINUOUS
  0
LAYER
  5
1263
330
2
100
AcDbSymbolTableRecord
100
AcDbLayerTableRecord
  2
DEFPOINTS
 70
     0
 62
     7
  6
CONTINUOUS
  0
LAYER
  5
12DD
330
2
100
AcDbSymbolTableRecord
100
AcDbLayerTableRecord
  2
1
 70
     0
 62
     4
  6
CONTINUOUS
  0
LAYER
  5
12DE
330
2
100
AcDbSymbolTableRecord
100
AcDbLayerTableRecord
  2
2
 70
     0
 62
     7
  6
CONTINUOUS
  0
LAYER
  5
12E0
330
2
100
AcDbSymbolTableRecord
100
AcDbLayerTableRecord
  2
6
 70
     0
 62
     5
  6
CONTINUOUS
  0
LAYER
  5
12E1
330
2
100
AcDbSymbolTableRecord
100
AcDbLayerTableRecord
  2
CUT
 70
     0
 62
     1
  6
CONTINUOUS
  0
LAYER
  5
12E2
330
2
100
AcDbSymbolTableRecord
100
AcDbLayerTableRecord
  2
NOCUT
 70
     0
 62
     7
  6
CONTINUOUS
  0
LAYER
  5
12E3
330
2
100
AcDbSymbolTableRecord
100
AcDbLayerTableRecord
  2
SK1
 70
     0
 62
     4
  6
CONTINUOUS
  0
LAYER
  5
12E4
330
2
100
AcDbSymbolTableRecord
100
AcDbLayerTableRecord
  2
SK4
 70
     0
 62
     2
  6
CENTER
  0
LAYER
  5
12E5
330
2
100
AcDbSymbolTableRecord
100
AcDbLayerTableRecord
  2
SK2
 70
     0
 62
     7
  6
CONTINUOUS
  0
LAYER
  5
171A
330
2
100
AcDbSymbolTableRecord
100
AcDbLayerTableRecord
  2
4
 70
     0
 62
     2
  6
CENTER
  0
ENDTAB
  0
TABLE
  2
STYLE
  5
3
330
0
100
AcDbSymbolTable
 70
     1
  0
STYLE
  5
17
330
3
100
AcDbSymbolTableRecord
100
AcDbTextStyleTableRecord
  2
STANDARD
 70
     0
 40
4.1672
 41
1.0
 50
0.0
 71
     0
 42
4.1672
  3
isocp.shx
  4

  0
ENDTAB
  0
TABLE
  2
VIEW
  5
5
330
0
100
AcDbSymbolTable
 70
     0
  0
ENDTAB
  0
TABLE
  2
UCS
  5
6
330
0
100
AcDbSymbolTable
 70
     2
  0
UCS
  5
49
330
6
100
AcDbSymbolTableRecord
100
AcDbUCSTableRecord
  2
MO_001_VIEW_PV_P
 70
     0
 10
0.0
 20
0.0
 30
0.0
 11
1.0
 21
0.0
 31
0.0
 12
0.0
 22
1.0
 32
0.0
  0
UCS
  5
4A
330
6
100
AcDbSymbolTableRecord
100
AcDbUCSTableRecord
  2
MO_001_VIEW_RA_P
 70
     0
 10
-435.5476989746093
 20
-288.849151611328
 30
0.0
 11
-1.0
 21
-0.0000000000000003
 31
0.0
 12
0.0
 22
-1.0
 32
0.0
  0
ENDTAB
  0
TABLE
  2
APPID
  5
8
330
0
100
AcDbSymbolTable
 70
     1
  0
APPID
  5
16
330
8
100
AcDbSymbolTableRecord
100
AcDbRegAppTableRecord
  2
ACAD
 70
     0
  0
ENDTAB
  0
TABLE
  2
DIMSTYLE
  5
9
330
0
100
AcDbSymbolTable
 70
     2
  0
DIMSTYLE
105
18
330
9
100
AcDbSymbolTableRecord
100
AcDbDimStyleTableRecord
  2
STANDARD
 70
     0
  3

  4

  5

  6

  7

 40
1.0
 41
0.18
 42
0.0625
 43
0.38
 44
0.18
 45
0.0
 46
0.0
 47
0.0
 48
0.0
140
3.5
141
0.09
142
0.0
143
25.4
144
1.0
145
0.0
146
1.0
147
0.09
 71
     0
 72
     0
 73
     0
 74
     0
 75
     0
 76
     0
 77
     0
 78
     0
170
     0
171
     2
172
     0
173
     0
174
     0
175
     0
176
     0
177
     0
178
     0
270
     2
271
     0
272
     0
273
     0
274
     0
340
17
275
     0
280
     0
281
     0
282
     0
283
     0
284
     0
285
     0
286
     0
287
     3
288
     0
  0
DIMSTYLE
105
12E6
102
{ACAD_REACTORS
330
18F7
330
18E7
330
18E8
330
18EA
330
18EB
102
}
330
9
100
AcDbSymbolTableRecord
100
AcDbDimStyleTableRecord
  2
ISO-25
 70
     0
  3

  4

  5

  6

  7

 40
1.0
 41
2.5
 42
0.625
 43
3.75
 44
1.25
 45
0.0
 46
0.0
 47
0.0
 48
0.0
140
2.5
141
2.5
142
0.0
143
0.03937007874016
144
1.0
145
0.0
146
1.0
147
0.625
 71
     0
 72
     0
 73
     0
 74
     0
 75
     0
 76
     0
 77
     1
 78
     8
170
     0
171
     3
172
     1
173
     0
174
     0
175
     0
176
     0
177
     0
178
     0
270
     2
271
     2
272
     2
273
     2
274
     3
340
17
275
     0
280
     0
281
     0
282
     0
283
     0
284
     8
285
     0
286
     0
287
     3
288
     0
  0
ENDTAB
  0
TABLE
  2
BLOCK_RECORD
  5
1
330
0
100
AcDbSymbolTable
 70
    19
  0
BLOCK_RECORD
  5
A
102
{ACAD_XDICTIONARY
360
1256
102
}
330
1
100
AcDbSymbolTableRecord
100
AcDbBlockTableRecord
  2
*MODEL_SPACE
  0
BLOCK_RECORD
  5
B
102
{ACAD_XDICTIONARY
360
1258
102
}
330
1
100
AcDbSymbolTableRecord
100
AcDbBlockTableRecord
  2
*PAPER_SPACE
  0
BLOCK_RECORD
  5
19AA
330
1
100
AcDbSymbolTableRecord
100
AcDbBlockTableRecord
  2
*D14
  0
BLOCK_RECORD
  5
19B7
330
1
100
AcDbSymbolTableRecord
100
AcDbBlockTableRecord
  2
*D15
  0
BLOCK_RECORD
  5
19C0
330
1
100
AcDbSymbolTableRecord
100
AcDbBlockTableRecord
  2
*D16
  0
BLOCK_RECORD
  5
19CE
330
1
100
AcDbSymbolTableRecord
100
AcDbBlockTableRecord
  2
*D17
  0
BLOCK_RECORD
  5
19DC
330
1
100
AcDbSymbolTableRecord
100
AcDbBlockTableRecord
  2
*D18
  0
ENDTAB
  0
ENDSEC
  0
SECTION
  2
BLOCKS
  0
BLOCK
  5
D
330
A
100
AcDbEntity
  8
0
100
AcDbBlockBegin
  2
*MODEL_SPACE
 70
     0
 10
0.0
 20
0.0
 30
0.0
  3
*MODEL_SPACE
  1

  0
ENDBLK
  5
E
330
A
100
AcDbEntity
  8
0
100
AcDbBlockEnd
  0
BLOCK
  5
F
330
B
100
AcDbEntity
 67
     1
  8
0
100
AcDbBlockBegin
  2
*PAPER_SPACE
 70
     0
 10
0.0
 20
0.0
 30
0.0
  3
*PAPER_SPACE
  1

  0
ENDBLK
  5
10
330
B
100
AcDbEntity
 67
     1
  8
0
100
AcDbBlockEnd
  0
BLOCK
  5
19B5
330
19AA
100
AcDbEntity
  8
0
100
AcDbBlockBegin
  2
*D14
 70
     1
 10
0.0
 20
0.0
 30
0.0
  3
*D14
  1

  0
LINE
  5
19EA
330
19AA
100
AcDbEntity
  8
SK2
 62
     0
100
AcDbLine
 10
-5.917264007499966
 20
3.180001065000026
 30
0.0
 11
-18.6859985208948
 21
3.18000106500003
 31
0.0
  0
LINE
  5
19EB
330
19AA
100
AcDbEntity
  8
SK2
 62
     0
100
AcDbLine
 10
-6.657098153699962
 20
-3.180000578299966
 30
0.0
 11
-18.6859985208948
 21
-3.180000578299963
 31
0.0
  0
LINE
  5
19EC
330
19AA
100
AcDbEntity
  8
SK2
 62
     0
100
AcDbLine
 10
-17.4359985208948
 20
-0.6800005782999633
 30
0.0
 11
-17.4359985208948
 21
0.6800010650000305
 31
0.0
  0
LINE
  5
19ED
330
19AA
100
AcDbEntity
  8
SK2
 62
     0
100
AcDbLine
 10
-17.4359985208948
 20
3.18000106500003
 30
0.0
 11
-17.4359985208948
 21
15.06481843507877
 31
0.0
  0
SOLID
  5
19EE
330
19AA
100
AcDbEntity
  8
SK2
 62
     0
100
AcDbTrace
 10
-17.85266518756147
 20
-0.6800005782999632
 30
0.0
 11
-17.01933185422813
 21
-0.6800005782999634
 31
0.0
 12
-17.4359985208948
 22
-3.180000578299963
 32
0.0
 13
-17.4359985208948
 23
-3.180000578299963
 33
0.0
  0
SOLID
  5
19EF
330
19AA
100
AcDbEntity
  8
SK2
 62
     0
100
AcDbTrace
 10
-17.85266518756147
 20
0.6800010650000306
 30
0.0
 11
-17.01933185422813
 21
0.6800010650000303
 31
0.0
 12
-17.4359985208948
 22
3.18000106500003
 32
0.0
 13
-17.4359985208948
 23
3.18000106500003
 33
0.0
  0
MTEXT
  5
19F0
330
19AA
100
AcDbEntity
  8
SK2
 62
     0
100
AcDbMText
 10
-20.1445985208948
 20
10.3724097500394
 30
0.0
 40
4.1672
 41
0.0
 71
     5
 72
     1
  1
Ts6
 11
0.0000000000000001
 21
1.0
 31
0.0
1001
ACAD
1000
MTEXTBEGIN
1070
    73
1070
     1
1070
    44
1040
1.0
1070
    74
1070
     0
1000
MTEXTEND
  0
POINT
  5
19F1
330
19AA
100
AcDbEntity
  8
DEFPOINTS
 62
     0
100
AcDbPoint
 10
-5.292264007499966
 20
3.180001065000026
 30
0.0
  0
POINT
  5
19F2
330
19AA
100
AcDbEntity
  8
DEFPOINTS
 62
     0
100
AcDbPoint
 10
-6.032098153699962
 20
-3.180000578299966
 30
0.0
  0
POINT
  5
19F3
330
19AA
100
AcDbEntity
  8
DEFPOINTS
 62
     0
100
AcDbPoint
 10
-17.4359985208948
 20
-3.180000578299963
 30
0.0
  0
ENDBLK
  5
19B6
330
19AA
100
AcDbEntity
  8
0
100
AcDbBlockEnd
  0
BLOCK
  5
19BE
330
19B7
100
AcDbEntity
  8
0
100
AcDbBlockBegin
  2
*D15
 70
     1
 10
0.0
 20
0.0
 30
0.0
  3
*D15
  1

  0
LINE
  5
19F4
330
19B7
100
AcDbEntity
  8
2
 62
     0
100
AcDbLine
 10
14.02096308586143
 20
17.40030745127527
 30
0.0
 11
3.583781472580251
 21
10.22319147835682
 31
0.0
  0
MTEXT
  5
19F5
330
19B7
100
AcDbEntity
  8
2
 62
     0
100
AcDbMText
 10
8.537538244393811
 20
16.91683376225409
 30
0.0
 40
4.1672
 41
0.0
 71
     5
 72
     1
  1
R0.1
 11
0.8239846601318943
 21
0.5666121070603122
 31
0.0
1001
ACAD
1000
MTEXTBEGIN
1070
    73
1070
     1
1070
    44
1040
1.0
1070
    74
1070
     0
1000
MTEXTEND
  0
LINE
  5
19F6
330
19B7
100
AcDbEntity
  8
2
 62
     0
100
AcDbLine
 10
1.441421356237355
 20
8.750000000000035
 30
0.0
 11
1.523819822250515
 21
8.806661210706044
 31
0.0
  0
SOLID
  5
19F7
330
19B7
100
AcDbEntity
  8
2
 62
     0
100
AcDbTrace
 10
3.347693094638454
 20
10.56651842007845
 30
0.0
 11
3.819869850522048
 21
9.879864536635201
 31
0.0
 12
1.523819822250515
 22
8.806661210706044
 32
0.0
 13
1.523819822250515
 23
8.806661210706044
 33
0.0
  0
POINT
  5
19F8
330
19B7
100
AcDbEntity
  8
DEFPOINTS
 62
     0
100
AcDbPoint
 10
1.523819822250515
 20
8.806661210706044
 30
0.0
  0
POINT
  5
19F9
330
19B7
100
AcDbEntity
  8
DEFPOINTS
 62
     0
100
AcDbPoint
 10
1.441421356237355
 20
8.750000000000035
 30
0.0
  0
ENDBLK
  5
19BF
330
19B7
100
AcDbEntity
  8
0
100
AcDbBlockEnd
  0
BLOCK
  5
19CC
330
19C0
100
AcDbEntity
  8
0
100
AcDbBlockBegin
  2
*D16
 70
     1
 10
0.0
 20
0.0
 30
0.0
  3
*D16
  1

  0
LINE
  5
19FA
330
19C0
100
AcDbEntity
  8
2
 62
     0
100
AcDbLine
 10
0.0
 20
8.075000000000002
 30
0.0
 11
0.000000000000001
 21
23.21014739929881
 31
0.0
  0
LINE
  5
19FB
330
19C0
100
AcDbEntity
  8
2
 62
     0
100
AcDbLine
 10
2.882842712474626
 20
8.075000000000017
 30
0.0
 11
2.882842712474627
 21
23.21014739929881
 31
0.0
  0
LINE
  5
19FC
330
19C0
100
AcDbEntity
  8
2
 62
     0
100
AcDbLine
 10
-2.499999999999999
 20
21.96014739929881
 30
0.0
 11
-4.999999999999999
 21
21.96014739929881
 31
0.0
  0
LINE
  5
19FD
330
19C0
100
AcDbEntity
  8
2
 62
     0
100
AcDbLine
 10
5.382842712474627
 20
21.96014739929881
 30
0.0
 11
17.9897833423959
 21
21.96014739929881
 31
0.0
  0
LINE
  5
19FE
330
19C0
100
AcDbEntity
  8
2
 62
     0
100
AcDbLine
 10
0.0000000000000009
 20
21.96014739929881
 30
0.0
 11
2.882842712474627
 21
21.96014739929881
 31
0.0
  0
SOLID
  5
19FF
330
19C0
100
AcDbEntity
  8
2
 62
     0
100
AcDbTrace
 10
-2.499999999999999
 20
22.37681406596548
 30
0.0
 11
-2.499999999999999
 21
21.54348073263214
 31
0.0
 12
0.0000000000000009
 22
21.96014739929881
 32
0.0
 13
0.0000000000000009
 23
21.96014739929881
 33
0.0
  0
SOLID
  5
1A00
330
19C0
100
AcDbEntity
  8
2
 62
     0
100
AcDbTrace
 10
5.382842712474627
 20
22.37681406596548
 30
0.0
 11
5.382842712474627
 21
21.54348073263214
 31
0.0
 12
2.882842712474627
 22
21.96014739929881
 32
0.0
 13
2.882842712474627
 23
21.96014739929881
 33
0.0
  0
MTEXT
  5
1A01
330
19C0
100
AcDbEntity
  8
2
 62
     0
100
AcDbMText
 10
12.93631302743527
 20
24.66915755677913
 30
0.0
 40
4.1672
 41
0.0
 71
     5
 72
     1
  1
2.88
1001
ACAD
1000
MTEXTBEGIN
1070
    73
1070
     1
1070
    44
1040
1.0
1070
    74
1070
     0
1000
MTEXTEND
  0
POINT
  5
1A02
330
19C0
100
AcDbEntity
  8
DEFPOINTS
 62
     0
100
AcDbPoint
 10
0.0
 20
7.450000000000002
 30
0.0
  0
POINT
  5
1A03
330
19C0
100
AcDbEntity
  8
DEFPOINTS
 62
     0
100
AcDbPoint
 10
2.882842712474626
 20
7.450000000000017
 30
0.0
  0
POINT
  5
1A04
330
19C0
100
AcDbEntity
  8
DEFPOINTS
 62
     0
100
AcDbPoint
 10
2.882842712474627
 20
21.96014739929881
 30
0.0
  0
ENDBLK
  5
19CD
330
19C0
100
AcDbEntity
  8
0
100
AcDbBlockEnd
  0
BLOCK
  5
19DA
330
19CE
100
AcDbEntity
  8
0
100
AcDbBlockBegin
  2
*D17
 70
     1
 10
0.0
 20
0.0
 30
0.0
  3
*D17
  1

  0
LINE
  5
1A05
330
19CE
100
AcDbEntity
  8
2
 62
     0
100
AcDbLine
 10
2.066421356237327
 20
8.85000000000002
 30
0.0
 11
14.09986880670439
 21
8.850000000000017
 31
0.0
  0
LINE
  5
1A06
330
19CE
100
AcDbEntity
  8
2
 62
     0
100
AcDbLine
 10
2.238828899234249
 20
-8.849999999999997
 30
0.0
 11
14.09986880670439
 21
-8.850000000000001
 31
0.0
  0
LINE
  5
1A07
330
19CE
100
AcDbEntity
  8
2
 62
     0
100
AcDbLine
 10
12.84986880670439
 20
11.35000000000001
 30
0.0
 11
12.84986880670439
 21
13.85000000000001
 31
0.0
  0
LINE
  5
1A08
330
19CE
100
AcDbEntity
  8
2
 62
     0
100
AcDbLine
 10
12.84986880670439
 20
-11.35
 30
0.0
 11
12.84986880670438
 21
-13.85
 31
0.0
  0
LINE
  5
1A09
330
19CE
100
AcDbEntity
  8
2
 62
     0
100
AcDbLine
 10
12.84986880670439
 20
8.850000000000017
 30
0.0
 11
12.84986880670439
 21
-8.850000000000001
 31
0.0
  0
SOLID
  5
1A0A
330
19CE
100
AcDbEntity
  8
2
 62
     0
100
AcDbTrace
 10
12.43320214003772
 20
11.35000000000001
 30
0.0
 11
13.26653547337106
 21
11.35000000000001
 31
0.0
 12
12.84986880670439
 22
8.850000000000017
 32
0.0
 13
12.84986880670439
 23
8.850000000000017
 33
0.0
  0
SOLID
  5
1A0B
330
19CE
100
AcDbEntity
  8
2
 62
     0
100
AcDbTrace
 10
12.43320214003772
 20
-11.35
 30
0.0
 11
13.26653547337105
 21
-11.35
 31
0.0
 12
12.84986880670439
 22
-8.850000000000001
 32
0.0
 13
12.84986880670439
 23
-8.850000000000001
 33
0.0
  0
MTEXT
  5
1A0C
330
19CE
100
AcDbEntity
  8
2
 62
     0
100
AcDbMText
 10
10.14126880670439
 20
0.0000000000000074
 30
0.0
 40
4.1672
 41
0.0
 71
     5
 72
     1
  1
%%c17.7
 11
0.0000000000000001
 21
1.0
 31
0.0
1001
ACAD
1000
MTEXTBEGIN
1070
    73
1070
     1
1070
    44
1040
1.0
1070
    74
1070
     0
1000
MTEXTEND
  0
POINT
  5
1A0D
330
19CE
100
AcDbEntity
  8
DEFPOINTS
 62
     0
100
AcDbPoint
 10
1.441421356237327
 20
8.85000000000002
 30
0.0
  0
POINT
  5
1A0E
330
19CE
100
AcDbEntity
  8
DEFPOINTS
 62
     0
100
AcDbPoint
 10
1.613828899234249
 20
-8.849999999999997
 30
0.0
  0
POINT
  5
1A0F
330
19CE
100
AcDbEntity
  8
DEFPOINTS
 62
     0
100
AcDbPoint
 10
12.84986880670439
 20
-8.850000000000001
 30
0.0
  0
ENDBLK
  5
19DB
330
19CE
100
AcDbEntity
  8
0
100
AcDbBlockEnd
  0
BLOCK
  5
19E8
330
19DC
100
AcDbEntity
  8
0
100
AcDbBlockBegin
  2
*D18
 70
     1
 10
0.0
 20
0.0
 30
0.0
  3
*D18
  1

  0
LINE
  5
1A10
330
19DC
100
AcDbEntity
  8
2
 62
     0
100
AcDbLine
 10
-0.6249999999999858
 20
7.450000000000017
 30
0.0
 11
-10.99530944535135
 21
7.45000000000002
 31
0.0
  0
LINE
  5
1A11
330
19DC
100
AcDbEntity
  8
2
 62
     0
100
AcDbLine
 10
0.8164213562373277
 20
8.85000000000002
 30
0.0
 11
-10.99530944535135
 21
8.850000000000022
 31
0.0
  0
LINE
  5
1A12
330
19DC
100
AcDbEntity
  8
2
 62
     0
100
AcDbLine
 10
-9.745309445351352
 20
4.950000000000019
 30
0.0
 11
-9.745309445351354
 21
2.45000000000002
 31
0.0
  0
LINE
  5
1A13
330
19DC
100
AcDbEntity
  8
2
 62
     0
100
AcDbLine
 10
-9.745309445351352
 20
11.35000000000002
 30
0.0
 11
-9.745309445351349
 21
20.51736000000003
 31
0.0
  0
LINE
  5
1A14
330
19DC
100
AcDbEntity
  8
2
 62
     0
100
AcDbLine
 10
-9.745309445351352
 20
7.450000000000019
 30
0.0
 11
-9.745309445351352
 21
8.850000000000022
 31
0.0
  0
SOLID
  5
1A15
330
19DC
100
AcDbEntity
  8
2
 62
     0
100
AcDbTrace
 10
-10.16197611201801
 20
4.95000000000002
 30
0.0
 11
-9.328642778684686
 21
4.950000000000019
 31
0.0
 12
-9.745309445351352
 22
7.450000000000019
 32
0.0
 13
-9.745309445351352
 23
7.450000000000019
 33
0.0
  0
SOLID
  5
1A16
330
19DC
100
AcDbEntity
  8
2
 62
     0
100
AcDbTrace
 10
-10.16197611201801
 20
11.35000000000002
 30
0.0
 11
-9.328642778684686
 21
11.35000000000002
 31
0.0
 12
-9.745309445351352
 22
8.850000000000022
 32
0.0
 13
-9.745309445351352
 23
8.850000000000022
 33
0.0
  0
MTEXT
  5
1A17
330
19DC
100
AcDbEntity
  8
2
 62
     0
100
AcDbMText
 10
-12.45390944535135
 20
17.18368000000002
 30
0.0
 40
4.1672
 41
0.0
 71
     5
 72
     1
  1
1.4
 11
0.0000000000000001
 21
1.0
 31
0.0
1001
ACAD
1000
MTEXTBEGIN
1070
    73
1070
     1
1070
    44
1040
1.0
1070
    74
1070
     0
1000
MTEXTEND
  0
POINT
  5
1A18
330
19DC
100
AcDbEntity
  8
DEFPOINTS
 62
     0
100
AcDbPoint
 10
0.0000000000000142
 20
7.450000000000017
 30
0.0
  0
POINT
  5
1A19
330
19DC
100
AcDbEntity
  8
DEFPOINTS
 62
     0
100
AcDbPoint
 10
1.441421356237327
 20
8.85000000000002
 30
0.0
  0
POINT
  5
1A1A
330
19DC
100
AcDbEntity
  8
DEFPOINTS
 62
     0
100
AcDbPoint
 10
-9.745309445351352
 20
8.850000000000022
 30
0.0
  0
ENDBLK
  5
19E9
330
19DC
100
AcDbEntity
  8
0
100
AcDbBlockEnd
  0
ENDSEC
  0
SECTION
  2
ENTITIES
  0
DIMENSION
  5
18E7
330
A
100
AcDbEntity
  8
2
100
AcDbDimension
  2
*D15
 10
1.441421356237355
 20
8.750000000000035
 30
0.0
 11
10.07226379757737
 21
14.68498891182084
 31
0.0
 70
   164
  3
ISO-25
100
AcDbRadialDimension
 15
1.523819822250515
 25
8.806661210706044
 35
0.0
 40
0.0
  0
DIMENSION
  5
18E8
330
A
100
AcDbEntity
  8
2
100
AcDbDimension
  2
*D16
 10
2.882842712474627
 20
21.96014739929881
 30
0.0
 11
12.93631302743527
 21
21.96014739929881
 31
0.0
 70
   160
  3
ISO-25
100
AcDbAlignedDimension
 13
0.0
 23
7.450000000000002
 33
0.0
 14
2.882842712474626
 24
7.450000000000017
 34
0.0
100
AcDbRotatedDimension
  0
TEXT
  5
18E9
330
A
100
AcDbEntity
  8
6
100
AcDbText
 10
-25.07797429951711
 20
-19.08882660643852
 30
0.0
 40
5.0
  1
16N17734T6RK14
 41
1.199999999999999
 72
     1
 11
4.337025700482882
 21
-19.08882660643852
 31
0.0
100
AcDbText
  0
DIMENSION
  5
18EA
330
A
100
AcDbEntity
  8
2
100
AcDbDimension
  2
*D17
 10
12.84986880670439
 20
-8.850000000000001
 30
0.0
 11
12.84986880670439
 21
0.0000000000000071
 31
0.0
 70
   160
  1
%%c<>
  3
ISO-25
100
AcDbAlignedDimension
 13
1.441421356237327
 23
8.85000000000002
 33
0.0
 14
1.613828899234249
 24
-8.849999999999997
 34
0.0
 50
270.0
100
AcDbRotatedDimension
1001
ACAD
1000
DSTYLE
1002
{
1070
   271
1070
     3
1002
}
  0
DIMENSION
  5
18EB
330
A
100
AcDbEntity
  8
2
100
AcDbDimension
  2
*D18
 10
-9.745309445351352
 20
8.850000000000022
 30
0.0
 11
-12.45390944535135
 21
17.18368000000002
 31
0.0
 70
    32
  3
ISO-25
100
AcDbAlignedDimension
 13
0.0000000000000142
 23
7.450000000000017
 33
0.0
 14
1.441421356237327
 24
8.85000000000002
 34
0.0
 50
90.0
100
AcDbRotatedDimension
  0
LINE
  5
18EC
330
A
100
AcDbEntity
  8
1
100
AcDbLine
 10
2.882842712474655
 20
-6.071764731061988
 30
0.0
 11
2.882842712474655
 21
7.45
 31
0.0
  0
LINE
  5
18ED
330
A
100
AcDbEntity
  8
SK1
100
AcDbLine
 10
-2.30613593769997
 20
1.087707505600022
 30
0.0
 11
-2.347375436899966
 21
1.590041287800032
 31
0.0
  0
LINE
  5
18EE
330
A
100
AcDbEntity
  8
SK1
100
AcDbLine
 10
-4.783649333499937
 20
1.589870998800037
 30
0.0
 11
-4.74238448639997
 21
1.08751592460004
 31
0.0
  0
LINE
  5
18EF
330
A
100
AcDbEntity
  8
SK1
100
AcDbLine
 10
-3.282555812499964
 20
1.343798118700035
 30
0.0
 11
-3.241600390299971
 21
0.8229248647000275
 31
0.0
  0
LINE
  5
18F0
330
A
100
AcDbEntity
  8
SK1
100
AcDbLine
 10
-3.785891694299976
 20
1.087716243400038
 30
0.0
 11
-3.826846495499957
 21
1.590038229500038
 31
0.0
  0
CIRCLE
  5
18F1
330
A
100
AcDbEntity
  8
1
100
AcDbCircle
 10
0.0
 20
0.0
 30
0.0
 40
2.213229040584451
  0
HATCH
  5
18F2
330
A
100
AcDbEntity
  8
1
100
AcDbHatch
 10
0.0
 20
0.0
 30
0.0
210
0.0
220
0.0
230
1.0
  2
SOLID
 70
     1
 71
     0
 91
        2
 92
        7
 72
     1
 73
     1
 93
        3
 10
0.0000000000000284
 20
0.0
 42
0.0
 10
2.213229040584465
 20
0.0
 42
0.4142135623730966
 10
0.0000000000000284
 20
2.213229040584443
 42
0.0
 97
        0
 92
        7
 72
     1
 73
     1
 93
        3
 10
0.0000000000000284
 20
-2.213229040584422
 42
0.0
 10
0.0000000000000284
 20
0.0
 42
0.0
 10
-2.213229040584479
 20
0.0
 42
0.4142135623730953
 97
        0
 75
     0
 76
     1
 47
0.1190009775223266
 98
        2
 10
0.5584147941090408
 20
0.6909183550323519
 10
-0.9595984513896098
 20
-1.272597692284761
  0
LWPOLYLINE
  5
18F3
330
A
100
AcDbEntity
  8
1
100
AcDbPolyline
 90
        3
 70
     1
 43
0.0
 10
0.0
 20
2.213229040584443
 10
0.0
 20
0.0
 10
2.213229040584465
 20
0.0
 42
0.4142135623730966
  0
LINE
  5
18F4
330
A
100
AcDbEntity
  8
SK1
100
AcDbLine
 10
-5.886759731899957
 20
0.8371498492000315
 30
0.0
 11
-5.929834387099965
 21
1.303321811300037
 31
0.0
  0
LINE
  5
18F5
330
A
100
AcDbEntity
  8
SK1
100
AcDbLine
 10
-5.245448968999966
 20
0.8230711747000185
 30
0.0
 11
-5.286795196299955
 21
1.34393821040004
 31
0.0
  0
LINE
  5
18F6
330
A
100
AcDbEntity
  8
SK1
100
AcDbLine
 10
-6.640001071699963
 20
2.649382627200019
 30
0.0
 11
-6.639999999999965
 21
-1.698310081899974
 31
0.0
  0
DIMENSION
  5
18F7
330
A
100
AcDbEntity
  8
SK2
100
AcDbDimension
  2
*D14
 10
-17.4359985208948
 20
-3.180000578299963
 30
0.0
 11
-17.4359985208948
 21
10.3724097500394
 31
0.0
 70
   160
  1
Ts<>
  3
ISO-25
100
AcDbAlignedDimension
 13
-5.292264007499966
 23
3.180001065000026
 33
0.0
 14
-6.032098153699962
 24
-3.180000578299966
 34
0.0
 50
90.0
100
AcDbRotatedDimension
1001
ACAD
1000
DSTYLE
1002
{
1070
   271
1070
     0
1002
}
  0
LINE
  5
18F8
330
A
100
AcDbEntity
  8
1
100
AcDbLine
 10
0.0000000000000142
 20
-6.071764731061988
 30
0.0
 11
0.0000000000000142
 21
7.450000000000017
 31
0.0
  0
LINE
  5
18F9
330
A
100
AcDbEntity
  8
SK1
100
AcDbLine
 10
-1.359999999999985
 20
-3.319958756799976
 30
0.0
 11
-1.359999999999985
 21
3.319958756800026
 31
0.0
  0
LWPOLYLINE
  5
18FA
330
A
100
AcDbEntity
  8
NOCUT
100
AcDbPolyline
 90
        4
 70
     1
 43
0.0
 10
2.882842712474626
 20
0.0
 10
2.882842712474626
 20
7.450000000000017
 10
0.0
 20
7.450000000000017
 10
0.0000000000000284
 20
0.0000000000000284
  0
LINE
  5
18FB
330
A
100
AcDbEntity
  8
1
100
AcDbLine
 10
0.0000000000000142
 20
-6.071764731061988
 30
0.0
 11
2.882842712474655
 21
-6.071764731061987
 31
0.0
  0
LINE
  5
18FC
330
A
100
AcDbEntity
  8
SK1
100
AcDbLine
 10
-3.975369706599984
 20
-2.770184101199958
 30
0.0
 11
-3.650209532899964
 21
-2.769911621499957
 31
0.0
  0
LINE
  5
18FD
330
A
100
AcDbEntity
  8
SK4
100
AcDbLine
 10
0.0000000000000284
 20
0.0000000000000284
 30
0.0
 11
-7.589603289693044
 21
0.0
 31
0.0
  0
LWPOLYLINE
  5
18FE
330
A
100
AcDbEntity
  8
SK1
100
AcDbPolyline
 90
       13
 70
     0
 43
0.0
 10
-4.536811214599964
 20
-1.590035665999976
 10
-4.516299136099938
 20
-1.824024262899953
 10
-4.495843271599973
 20
-2.044126159999962
 10
-4.475440473899965
 20
-2.248636189899968
 10
-4.455053100599968
 20
-2.436036331499969
 10
-4.434644686899957
 20
-2.604927624299974
 10
-4.41420855269996
 20
-2.753992495899963
 10
-4.393722573499957
 20
-2.88207815629996
 10
-4.373196617599973
 20
-2.988232012599965
 10
-4.352632785699981
 20
-3.071655161599969
 10
-4.332032256199973
 20
-3.131699695799966
 10
-4.311390991899976
 20
-3.167905511599968
 10
-4.290731274299957
 20
-3.180001065099971
  0
LINE
  5
18FF
330
A
100
AcDbEntity
  8
SK1
100
AcDbLine
 10
-4.290731271899943
 20
-3.180001065099971
 30
0.0
 11
-4.813608213499975
 21
-3.180001065099971
 31
0.0
  0
LINE
  5
1900
330
A
100
AcDbEntity
  8
SK1
100
AcDbLine
 10
-4.813608211199984
 20
-3.180001065099971
 30
0.0
 11
-4.823579095199967
 21
-3.177174257799976
 31
0.0
  0
LWPOLYLINE
  5
1901
330
A
100
AcDbEntity
  8
SK1
100
AcDbPolyline
 90
        8
 70
     0
 43
0.0
 10
-4.267338435099958
 20
-3.168509062499964
 10
-4.254324038099952
 20
-3.158584918999969
 10
-4.242175819999964
 20
-3.147434860699958
 10
-4.22956579369994
 20
-3.133596026699961
 10
-4.215711791999964
 20
-3.115150298799959
 10
-4.200681023699964
 20
-3.090239186999943
 10
-4.183771413799945
 20
-3.054238717499969
 10
-4.165248740899954
 20
-3.002584889599957
  0
LINE
  5
1902
330
A
100
AcDbEntity
  8
SK1
100
AcDbLine
 10
-4.083564891099939
 20
-2.807036383099968
 30
0.0
 11
-4.062212831699966
 21
-2.792926979499944
 31
0.0
  0
LINE
  5
1903
330
A
100
AcDbEntity
  8
SK1
100
AcDbLine
 10
-4.280360029299949
 20
-3.176878536899976
 30
0.0
 11
-4.267338435099958
 21
-3.168509062499964
 31
0.0
  0
LWPOLYLINE
  5
1904
330
A
100
AcDbEntity
  8
SK1
100
AcDbPolyline
 90
        4
 70
     0
 43
0.0
 10
-4.062212831699966
 20
-2.792926979499944
 10
-4.033966833899967
 20
-2.780295661699966
 10
-4.002049681699965
 20
-2.772330821499969
 10
-3.975581690699961
 20
-2.770242772999964
  0
LINE
  5
1905
330
A
100
AcDbEntity
  8
SK1
100
AcDbLine
 10
-4.290731274299957
 20
-3.180001065099971
 30
0.0
 11
-4.280324672599952
 21
-3.176931586299956
 31
0.0
  0
LINE
  5
1906
330
A
100
AcDbEntity
  8
SK1
100
AcDbLine
 10
-4.165170599099944
 20
-3.002373084399976
 30
0.0
 11
-4.113615814099972
 21
-2.838658933799962
 31
0.0
  0
LINE
  5
1907
330
A
100
AcDbEntity
  8
SK1
100
AcDbLine
 10
-4.280324672599952
 20
-3.176931586299956
 30
0.0
 11
-4.270056082099962
 21
-3.16789486479996
 31
0.0
  0
LWPOLYLINE
  5
1908
330
A
100
AcDbEntity
  8
SK1
100
AcDbPolyline
 90
        4
 70
     0
 43
0.0
 10
-4.11361581409821
 20
-2.83865893379432
 10
-4.108726709199942
 20
-2.831858856599971
 10
-4.098983309399962
 20
-2.820792030299968
 10
-4.083564891099939
 20
-2.807036383099968
  0
LINE
  5
1909
330
A
100
AcDbEntity
  8
SK1
100
AcDbLine
 10
-4.701166260099938
 20
0.5520760047000195
 30
0.0
 11
-4.619137416899981
 21
-0.5522461146999618
 31
0.0
  0
LINE
  5
190A
330
A
100
AcDbEntity
  8
SK1
100
AcDbLine
 10
-4.74238448639997
 20
1.08751592460004
 30
0.0
 11
-4.701166260099938
 21
0.5520760047000195
 31
0.0
  0
LINE
  5
190B
330
A
100
AcDbEntity
  8
SK1
100
AcDbLine
 10
-4.578051097699955
 20
-1.087690417699966
 30
0.0
 11
-4.536811214599964
 21
-1.590035665999976
 31
0.0
  0
LINE
  5
190C
330
A
100
AcDbEntity
  8
SK1
100
AcDbLine
 10
-4.619137416899981
 20
-0.5522461146999618
 30
0.0
 11
-4.578051097699955
 21
-1.087690417699966
 31
0.0
  0
LWPOLYLINE
  5
190D
330
A
100
AcDbEntity
  8
SK1
100
AcDbPolyline
 90
        9
 70
     0
 43
0.0
 10
-4.916627760899956
 20
-2.882043143499969
 10
-4.937058288499947
 20
-2.753951187099957
 10
-4.957527494299938
 20
-2.604878701099976
 10
-4.978036552499965
 20
-2.435978203599971
 10
-4.998617793399965
 20
-2.248565870199968
 10
-5.019248024399956
 20
-2.04404168759997
 10
-5.039923606899975
 20
-1.823923567199954
 10
-5.060618209499942
 20
-1.589920880199968
 10
-5.081311903499937
 20
-1.343856189099965
  0
LINE
  5
190E
330
A
100
AcDbEntity
  8
SK1
100
AcDbLine
 10
-5.650056341699944
 20
-1.877129263299969
 30
0.0
 11
-5.674117924199961
 21
-1.996738119599959
 31
0.0
  0
LINE
  5
190F
330
A
100
AcDbEntity
  8
SK1
100
AcDbLine
 10
-6.639073006499963
 20
-1.808365742199966
 30
0.0
 11
-6.638851844599962
 21
-2.091482503499975
 31
0.0
  0
LWPOLYLINE
  5
1910
330
A
100
AcDbEntity
  8
SK1
100
AcDbPolyline
 90
        5
 70
     0
 43
0.0
 10
-5.674117924199961
 20
-1.996738119599959
 10
-5.72395309419997
 20
-2.219885010599965
 10
-5.745302785599967
 20
-2.326655479399974
 10
-5.760798604399958
 20
-2.430979665699964
 10
-5.768681210799975
 20
-2.532763486799971
  0
LINE
  5
1911
330
A
100
AcDbEntity
  8
SK1
100
AcDbLine
 10
-6.638851844599962
 20
-2.091482503499975
 30
0.0
 11
-6.639999999999965
 21
-2.544448349799963
 31
0.0
  0
LWPOLYLINE
  5
1912
330
A
100
AcDbEntity
  8
SK1
100
AcDbPolyline
 90
       10
 70
     0
 43
0.0
 10
-5.758885579799965
 20
-3.176337703999962
 10
-5.758212488499935
 20
-3.175933110499953
 10
-5.757427135599961
 20
-3.17545608319996
 10
-5.756547523199976
 20
-3.174915433399974
 10
-5.755461668699965
 20
-3.174238359199974
 10
-5.754052326599968
 20
-3.173343258199962
 10
-5.752358883799956
 20
-3.172243192899955
 10
-5.750328049099969
 20
-3.170888252599965
 10
-5.748129255799973
 20
-3.16937651459996
 10
-5.745920889999943
 20
-3.167810182999957
  0
LWPOLYLINE
  5
1913
330
A
100
AcDbEntity
  8
SK1
100
AcDbPolyline
 90
        4
 70
     0
 43
0.0
 10
-5.553722432099966
 20
-2.799723880399958
 10
-5.525113622499965
 20
-2.784373879499944
 10
-5.490945779899981
 20
-2.773841109499953
 10
-5.455630597199956
 20
-2.770264900199976
  0
LINE
  5
1914
330
A
100
AcDbEntity
  8
SK1
100
AcDbLine
 10
-4.896165636699947
 20
-2.988203813099957
 30
0.0
 11
-4.916627760899956
 21
-2.882043143499969
 31
0.0
  0
LINE
  5
1915
330
A
100
AcDbEntity
  8
SK1
100
AcDbLine
 10
-5.645159883699975
 20
-3.002458256199957
 30
0.0
 11
-5.593347039199962
 21
-2.837914813799955
 31
0.0
  0
LWPOLYLINE
  5
1916
330
A
100
AcDbEntity
  8
SK1
100
AcDbPolyline
 90
        4
 70
     0
 43
0.0
 10
-5.760204578699962
 20
-3.177074277399966
 10
-5.76068959319997
 20
-3.176859373799956
 10
-5.759964118699933
 20
-3.176993192199957
 10
-5.759512222899964
 20
-3.176710995299969
  0
LWPOLYLINE
  5
1917
330
A
100
AcDbEntity
  8
SK1
100
AcDbPolyline
 90
        5
 70
     0
 43
0.0
 10
-6.380145345699972
 20
-3.097594585899968
 10
-6.366613826199973
 20
-3.118816645999969
 10
-6.349229934199932
 20
-3.140458931799968
 10
-6.326768286599964
 20
-3.161560588899958
 10
-6.304037570999959
 20
-3.177107666799968
  0
LWPOLYLINE
  5
1918
330
A
100
AcDbEntity
  8
SK1
100
AcDbPolyline
 90
        4
 70
     0
 43
0.0
 10
-6.410662227499962
 20
-3.029671634399973
 10
-6.401466734099962
 20
-3.05357712499996
 10
-6.391405240799969
 20
-3.076174866599969
 10
-6.380145345699972
 20
-3.097594585899968
  0
LINE
  5
1919
330
A
100
AcDbEntity
  8
SK1
100
AcDbLine
 10
-6.420206462999964
 20
-2.996563026399968
 30
0.0
 11
-6.427898881699945
 21
-2.97509938959996
 31
0.0
  0
LINE
  5
191A
330
A
100
AcDbEntity
  8
SK1
100
AcDbLine
 10
-6.427934383099966
 20
-2.97485650569996
 30
0.0
 11
-6.465957628299975
 21
-2.850088737899944
 31
0.0
  0
LWPOLYLINE
  5
191B
330
A
100
AcDbEntity
  8
SK1
100
AcDbPolyline
 90
        4
 70
     0
 43
0.0
 10
-6.385114175199959
 20
-3.052900078299969
 10
-6.398776784299947
 20
-3.035868538099961
 10
-6.41052997859996
 20
-3.016951523699958
 10
-6.420206462999964
 20
-2.996563026399968
  0
LWPOLYLINE
  5
191C
330
A
100
AcDbEntity
  8
SK1
100
AcDbPolyline
 90
        5
 70
     0
 43
0.0
 10
-5.846758004299978
 20
-3.01250233639996
 10
-5.826457565899964
 20
-3.089028170399955
 10
-5.806197888599939
 20
-3.142590892299963
 10
-5.786004755599975
 20
-3.172798093099956
 10
-5.770238780199939
 20
-3.180000578299966
  0
LWPOLYLINE
  5
191D
330
A
100
AcDbEntity
  8
SK1
100
AcDbPolyline
 90
        7
 70
     0
 43
0.0
 10
-5.768680050299963
 20
-2.532833429799963
 10
-5.771152677299966
 20
-2.588782051999956
 10
-5.774232932499984
 20
-2.645122754299976
 10
-5.77793343029996
 20
-2.702044570199973
 10
-5.782216252499971
 20
-2.759143335899969
 10
-5.787043486299957
 20
-2.816033166799968
 10
-5.792427756999963
 20
-2.872914166299969
  0
LWPOLYLINE
  5
191E
330
A
100
AcDbEntity
  8
SK1
100
AcDbPolyline
 90
        7
 70
     0
 43
0.0
 10
-5.792433090799974
 20
-2.872838269599944
 10
-5.796271070499955
 20
-2.900611110599968
 10
-5.802317102099976
 20
-2.926842591299958
 10
-5.810457319599976
 20
-2.951315383899967
 10
-5.820664787299968
 20
-2.973869960199976
 10
-5.832898307799979
 20
-2.99436137379996
 10
-5.846851247699966
 20
-3.012570765899973
  0
LWPOLYLINE
  5
191F
330
A
100
AcDbEntity
  8
SK1
100
AcDbPolyline
 90
        3
 70
     0
 43
0.0
 10
-6.353390314299957
 20
-3.080007856199955
 10
-6.369931543699962
 20
-3.06766849959996
 10
-6.385114175199959
 20
-3.052900078299969
  0
LWPOLYLINE
  5
1920
330
A
100
AcDbEntity
  8
SK1
100
AcDbPolyline
 90
        4
 70
     0
 43
0.0
 10
-6.304062801699963
 20
-3.177107746899976
 10
-6.314283562499973
 20
-3.168283698499976
 10
-6.333860314799977
 20
-3.134857521799971
 10
-6.353422978699974
 20
-3.07993939279997
  0
LINE
  5
1921
330
A
100
AcDbEntity
  8
SK1
100
AcDbLine
 10
-4.995690917099963
 20
-2.832549002299969
 30
0.0
 11
-4.991915781299972
 21
-2.837924149199969
 31
0.0
  0
LWPOLYLINE
  5
1922
330
A
100
AcDbEntity
  8
SK1
100
AcDbPolyline
 90
        5
 70
     0
 43
0.0
 10
-5.05580369749996
 20
-2.786048034599957
 10
-5.03359513439998
 20
-2.79817653539996
 10
-5.016119363799965
 20
-2.811187064199969
 10
-5.00383305409997
 20
-2.822941998699959
 10
-4.995690917099963
 20
-2.832549002299969
  0
LINE
  5
1923
330
A
100
AcDbEntity
  8
SK1
100
AcDbLine
 10
-6.29396876119997
 20
-3.180000578299966
 30
0.0
 11
-6.304062801699963
 21
-3.177107746899976
 31
0.0
  0
LINE
  5
1924
330
A
100
AcDbEntity
  8
SK1
100
AcDbLine
 10
-5.573796873699969
 20
-2.815467841099973
 30
0.0
 11
-5.553722432099966
 21
-2.799723880399958
 31
0.0
  0
LINE
  5
1925
330
A
100
AcDbEntity
  8
SK1
100
AcDbLine
 10
-5.770228812099965
 20
-3.180000578299966
 30
0.0
 11
-6.293967495299973
 21
-3.180000578299966
 31
0.0
  0
LWPOLYLINE
  5
1926
330
A
100
AcDbEntity
  8
SK1
100
AcDbPolyline
 90
       34
 70
     0
 43
0.0
 10
-5.745920889999943
 20
-3.167810182999957
 10
-5.743667800499963
 20
-3.166161214599958
 10
-5.741391446599969
 20
-3.16444158959996
 10
-5.739077591299945
 20
-3.162636827099958
 10
-5.736718732099944
 20
-3.160736233999968
 10
-5.734318080799972
 20
-3.158737007699968
 10
-5.731875881899959
 20
-3.156633677199963
 10
-5.729394101299966
 20
-3.154421901999945
 10
-5.726875427399967
 20
-3.15209776109998
 10
-5.724318158099976
 20
-3.149652877999955
 10
-5.721714795499956
 20
-3.14707219799996
 10
-5.71908612019996
 20
-3.144368480199971
 10
-5.71646494579997
 20
-3.141570092599976
 10
-5.713803373999979
 20
-3.13861910819996
 10
-5.711098381799956
 20
-3.135501526999958
 10
-5.708257812199946
 20
-3.132092977499964
 10
-5.705154647899945
 20
-3.128204218199968
 10
-5.701919371099961
 20
-3.123957019699957
 10
-5.698631757799979
 20
-3.119428327899946
 10
-5.695289857199973
 20
-3.114592279699968
 10
-5.691914623899975
 20
-3.109455673499971
 10
-5.688505152699939
 20
-3.103993560499958
 10
-5.685061922499961
 20
-3.098180865399946
 10
-5.681593416999959
 20
-3.092005036499968
 10
-5.678104728999961
 20
-3.085447795999968
 10
-5.674593722799961
 20
-3.078476170099975
 10
-5.671059464199942
 20
-3.071057962299959
 10
-5.667494947699971
 20
-3.063146206899978
 10
-5.663893745299972
 20
-3.054691547999964
 10
-5.660249569699963
 20
-3.04564139899996
 10
-5.656556017199953
 20
-3.035939238599978
 10
-5.65280563069998
 20
-3.025521705299978
 10
-5.648990891999943
 20
-3.014320542099951
 10
-5.645188139299953
 20
-3.002529622599964
  0
LWPOLYLINE
  5
1927
330
A
100
AcDbEntity
  8
SK1
100
AcDbPolyline
 90
        3
 70
     0
 43
0.0
 10
-5.770238780199939
 20
-3.180000578299966
 10
-5.765800816799945
 20
-3.17943253659996
 10
-5.760157866499959
 20
-3.177074425599968
  0
LWPOLYLINE
  5
1928
330
A
100
AcDbEntity
  8
SK1
100
AcDbPolyline
 90
        7
 70
     0
 43
0.0
 10
-6.353422978699974
 20
-3.07993939279997
 10
-6.263972850399966
 20
-3.069754758199954
 10
-6.176556785599956
 20
-3.059140740699958
 10
-6.091204481499971
 20
-3.048110003599973
 10
-6.007826846299963
 20
-3.036660288299969
 10
-5.926334788099978
 20
-3.024787468799956
 10
-5.846758004299978
 20
-3.01250233639996
  0
LINE
  5
1929
330
A
100
AcDbEntity
  8
SK1
100
AcDbLine
 10
-4.991934482801269
 20
-2.837897521464667
 30
0.0
 11
-4.939691995299973
 21
-3.002831672399969
 31
0.0
  0
LINE
  5
192A
330
A
100
AcDbEntity
  8
SK1
100
AcDbLine
 10
-6.427898881699945
 20
-2.97509938959996
 30
0.0
 11
-6.410662227499962
 21
-3.029671634399973
 31
0.0
  0
LWPOLYLINE
  5
192B
330
A
100
AcDbEntity
  8
SK1
100
AcDbPolyline
 90
        3
 70
     0
 43
0.0
 10
-5.593347039185069
 20
-2.837914813752653
 10
-5.586895720399944
 20
-2.829257289499949
 10
-5.573796873699969
 20
-2.815467841099973
  0
LWPOLYLINE
  5
192C
330
A
100
AcDbEntity
  8
SK1
100
AcDbPolyline
 90
        4
 70
     0
 43
0.0
 10
-5.129975982199965
 20
-2.769967741099975
 10
-5.111425963499961
 20
-2.770991168899968
 10
-5.082807633999976
 20
-2.776312843099958
 10
-5.05580369749996
 20
-2.786048034599957
  0
LINE
  5
192D
330
A
100
AcDbEntity
  8
SK1
100
AcDbLine
 10
-5.455519909299965
 20
-2.770267374299975
 30
0.0
 11
-5.129610127352783
 21
-2.769987925770805
 31
0.0
  0
LINE
  5
192E
330
A
100
AcDbEntity
  8
SK1
100
AcDbLine
 10
-6.639999999999965
 20
-2.770245632799968
 30
0.0
 11
-6.639999999999965
 21
-2.544448349799963
 31
0.0
  0
LINE
  5
192F
330
A
100
AcDbEntity
  8
SK1
100
AcDbLine
 10
-6.639999999999965
 20
-2.770184599099962
 30
0.0
 11
-6.610252760399966
 21
-2.770170030699957
 31
0.0
  0
LWPOLYLINE
  5
1930
330
A
100
AcDbEntity
  8
SK1
100
AcDbPolyline
 90
       37
 70
     0
 43
0.0
 10
-6.610134751599971
 20
-2.77017032759997
 10
-6.608286974799966
 20
-2.769991592399961
 10
-6.602536672199967
 20
-2.770119779899971
 10
-6.597133450599955
 20
-2.770402268799954
 10
-6.591756321599973
 20
-2.770859812099955
 10
-6.585966540899967
 20
-2.771549744999973
 10
-6.580019113599938
 20
-2.772460772999955
 10
-6.573992694799962
 20
-2.773587853699949
 10
-6.567977195299967
 20
-2.774922608599978
 10
-6.562094851199972
 20
-2.776437401399959
 10
-6.556315024099973
 20
-2.778135654199971
 10
-6.550646998899964
 20
-2.780012017199964
 10
-6.545091716199941
 20
-2.782061817599966
 10
-6.539640310799974
 20
-2.784283712499969
 10
-6.534330091199961
 20
-2.78665708209997
 10
-6.529185311599974
 20
-2.789162852299965
 10
-6.52422809279998
 20
-2.79177988689998
 10
-6.519479793099975
 20
-2.794484381899976
 10
-6.514956846999972
 20
-2.79725240759997
 10
-6.510678740999935
 20
-2.800055303699969
 10
-6.506646735499963
 20
-2.802874101799971
 10
-6.502871069899939
 20
-2.805682391299946
 10
-6.499335722499985
 20
-2.808471795299978
 10
-6.496026842699961
 20
-2.811233951799976
 10
-6.492946321099971
 20
-2.813948389199963
 10
-6.490092243899965
 20
-2.816597408499979
 10
-6.487458939999982
 20
-2.819166844599962
 10
-6.485042121699933
 20
-2.821641515799966
 10
-6.482833841299964
 20
-2.82401038149996
 10
-6.480827661799935
 20
-2.826261480199973
 10
-6.479014292999949
 20
-2.828386770499959
 10
-6.477385822899961
 20
-2.830377568599971
 10
-6.475932408699939
 20
-2.832228515499969
 10
-6.47464679289996
 20
-2.833931994099969
 10
-6.473514913399952
 20
-2.835490673599976
 10
-6.472524721999974
 20
-2.836906371799969
 10
-6.465957628299975
 20
-2.850088737899944
  0
LINE
  5
1931
330
A
100
AcDbEntity
  8
SK1
100
AcDbLine
 10
-5.646938084899971
 20
-1.807948228899959
 30
0.0
 11
-5.649989999999974
 21
-1.780489999999971
 31
0.0
  0
LWPOLYLINE
  5
1932
330
A
100
AcDbEntity
  8
SK1
100
AcDbPolyline
 90
        4
 70
     0
 43
0.0
 10
-5.649989999999974
 20
-1.780489999999971
 10
-5.671511892799941
 20
-1.579541787899954
 10
-5.693046394499958
 20
-1.365154400199968
 10
-5.714583811699966
 20
-1.139313591799974
  0
LINE
  5
1933
330
A
100
AcDbEntity
  8
SK1
100
AcDbLine
 10
-5.714583811699966
 20
-1.139313591799974
 30
0.0
 11
-5.757641246099957
 21
-0.6612320886999611
 31
0.0
  0
LINE
  5
1934
330
A
100
AcDbEntity
  8
SK1
100
AcDbLine
 10
-5.081311903499937
 20
-1.343856189099965
 30
0.0
 11
-5.122600388699972
 21
-0.8229771774999639
 31
0.0
  0
LINE
  5
1935
330
A
100
AcDbEntity
  8
SK1
100
AcDbLine
 10
-5.122600388699972
 20
-0.8229771774999639
 30
0.0
 11
-5.163650032299962
 21
-0.2771096491999714
 31
0.0
  0
LINE
  5
1936
330
A
100
AcDbEntity
  8
SK1
100
AcDbLine
 10
-5.646936973999977
 20
-1.808018609599954
 30
0.0
 11
-5.650019364899968
 21
-1.87759523709996
 31
0.0
  0
LINE
  5
1937
330
A
100
AcDbEntity
  8
SK1
100
AcDbLine
 10
-6.639995702699955
 20
-1.673852462299961
 30
0.0
 11
-6.639073006499963
 21
-1.808365742199966
 31
0.0
  0
LINE
  5
1938
330
A
100
AcDbEntity
  8
SK1
100
AcDbLine
 10
-5.757641246099957
 20
-0.6612320886999611
 30
0.0
 11
-5.886759731899957
 21
0.8371498492000315
 31
0.0
  0
LINE
  5
1939
330
A
100
AcDbEntity
  8
SK1
100
AcDbLine
 10
-5.163650032299962
 20
-0.2771096491999714
 30
0.0
 11
-5.245448968999966
 21
0.8230711747000185
 31
0.0
  0
LWPOLYLINE
  5
193A
330
A
100
AcDbEntity
  8
SK1
100
AcDbPolyline
 90
        5
 70
     0
 43
0.0
 10
-4.823579095199967
 20
-3.177174257799976
 10
-4.834263692699984
 20
-3.167899342399955
 10
-4.854934599599943
 20
-3.131687607999964
 10
-4.875577172599946
 20
-3.071635533799962
 10
-4.896165636699947
 20
-2.988203813099957
  0
LWPOLYLINE
  5
193B
330
A
100
AcDbEntity
  8
SK1
100
AcDbPolyline
 90
        9
 70
     0
 43
0.0
 10
-4.939579800099949
 20
-3.003171766899967
 10
-4.930741786299954
 20
-3.029412592899958
 10
-4.92162057319998
 20
-3.053144445699969
 10
-4.911618496299958
 20
-3.075613957999961
 10
-4.900254901399968
 20
-3.097213242199956
 10
-4.886562382599976
 20
-3.118674651699961
 10
-4.869165665299959
 20
-3.140338577299957
 10
-4.846752130899943
 20
-3.161379695799964
 10
-4.823586478699972
 20
-3.177174280899976
  0
LINE
  5
193C
330
A
100
AcDbEntity
  8
1
100
AcDbLine
 10
2.882842712474655
 20
-4.536294313167998
 30
0.0
 11
1.441421356237327
 21
-5.236294313168001
 31
0.0
  0
LINE
  5
193D
330
A
100
AcDbEntity
  8
1
100
AcDbLine
 10
2.882842712474655
 20
-3.82502261374081
 30
0.0
 11
1.441421356237327
 21
-4.525022613740816
 31
0.0
  0
LINE
  5
193E
330
A
100
AcDbEntity
  8
1
100
AcDbLine
 10
2.882842712474655
 20
-3.725000000000006
 30
0.0
 11
1.441421356237327
 21
-4.42500000000001
 31
0.0
  0
LINE
  5
193F
330
A
100
AcDbEntity
  8
1
100
AcDbLine
 10
0.0
 20
-4.536294313167998
 30
0.0
 11
1.441421356237327
 21
-5.236294313168001
 31
0.0
  0
LINE
  5
1940
330
A
100
AcDbEntity
  8
1
100
AcDbLine
 10
0.0
 20
-3.82502261374081
 30
0.0
 11
1.441421356237327
 21
-4.525022613740816
 31
0.0
  0
LINE
  5
1941
330
A
100
AcDbEntity
  8
1
100
AcDbLine
 10
0.0
 20
-3.725000000000006
 30
0.0
 11
1.441421356237327
 21
-4.42500000000001
 31
0.0
  0
LINE
  5
1942
330
A
100
AcDbEntity
  8
4
100
AcDbLine
 10
0.0
 20
0.0
 30
0.0
 11
4.350945479553956
 21
0.0
 31
0.0
  0
LWPOLYLINE
  5
1943
330
A
100
AcDbEntity
  8
SK1
100
AcDbPolyline
 90
       10
 70
     0
 43
0.0
 10
-1.93621838139996
 20
-2.987157989299966
 10
-1.956743320099946
 20
-2.880842306699975
 10
-1.977327469199934
 20
-2.752636565399952
 10
-1.997964795999969
 20
-2.603489527199954
 10
-2.018617751099959
 20
-2.43455398849997
 10
-2.039247110199966
 20
-2.247146670699961
 10
-2.059851865899958
 20
-2.042665995199968
 10
-2.080417637399968
 20
-1.822629309299968
 10
-2.100945320899967
 20
-1.588741668099955
 10
-2.12142739309997
 20
-1.342820948599977
  0
LINE
  5
1944
330
A
100
AcDbEntity
  8
SK1
100
AcDbLine
 10
0.0000195856000289
 20
-3.391187514899968
 30
0.0
 11
-1.359981133799948
 21
-3.31993081279998
 31
0.0
  0
LINE
  5
1945
330
A
100
AcDbEntity
  8
SK1
100
AcDbLine
 10
-1.459999999999965
 20
-3.180001065099971
 30
0.0
 11
-1.854194744299974
 21
-3.180001065099971
 31
0.0
  0
LWPOLYLINE
  5
1946
330
A
100
AcDbEntity
  8
SK1
100
AcDbPolyline
 90
        5
 70
     0
 43
0.0
 10
-1.86415467269996
 20
-3.177148667599971
 10
-1.874967386599998
 20
-3.167573653899963
 10
-1.895401782299956
 20
-3.131078689599958
 10
-1.915797920199956
 20
-3.07078642859998
 10
-1.93621838139996
 20
-2.987157989299966
  0
LWPOLYLINE
  5
1947
330
A
100
AcDbEntity
  8
SK1
100
AcDbPolyline
 90
        9
 70
     0
 43
0.0
 10
-1.97937766779998
 20
-3.003738667599975
 10
-1.97057598569998
 20
-3.029860099899969
 10
-1.961429980999959
 20
-3.053647936599971
 10
-1.951389723699975
 20
-3.076182022399961
 10
-1.939998539199926
 20
-3.097799270999971
 10
-1.926280987299975
 20
-3.119248457899955
 10
-1.908833500499959
 20
-3.140904767199955
 10
-1.88638523139997
 20
-3.161901888399966
 10
-1.864066963299961
 20
-3.177148393299971
  0
LINE
  5
1948
330
A
100
AcDbEntity
  8
SK1
100
AcDbLine
 10
-1.85419568649997
 20
-3.180001065099971
 30
0.0
 11
-1.86415467269996
 21
-3.177148667599971
 31
0.0
  0
LWPOLYLINE
  5
1949
330
A
100
AcDbEntity
  8
SK1
100
AcDbPolyline
 90
        6
 70
     0
 43
0.0
 10
-2.088326298399955
 20
-2.790126894899969
 10
-2.068033969199944
 20
-2.802378448899958
 10
-2.052778702199965
 20
-2.814566216999948
 10
-2.041807109299959
 20
-2.825592297299968
 10
-2.034799614499974
 20
-2.834148804799966
 10
-2.03157633829997
 20
-2.838808018099968
  0
LINE
  5
194A
330
A
100
AcDbEntity
  8
SK1
100
AcDbLine
 10
-2.495343774799955
 20
-2.770758868499966
 30
0.0
 11
-2.170199709099968
 21
-2.77049055999997
 31
0.0
  0
LWPOLYLINE
  5
194B
330
A
100
AcDbEntity
  8
SK1
100
AcDbPolyline
 90
        5
 70
     0
 43
0.0
 10
-2.170167590499964
 20
-2.770445606899968
 10
-2.166961604799958
 20
-2.770479537399963
 10
-2.140378524099965
 20
-2.772967186199969
 10
-2.112496784799965
 20
-2.779919455699968
 10
-2.088326298399955
 20
-2.790126894899969
  0
LINE
  5
194C
330
A
100
AcDbEntity
  8
SK1
100
AcDbLine
 10
-2.031605383609822
 20
-2.838766033396963
 30
0.0
 11
-1.979605539899964
 21
-3.003067239399968
 31
0.0
  0
ARC
  5
194D
330
A
100
AcDbEntity
  8
SK1
100
AcDbCircle
 10
-1.45952690149997
 20
-3.279999684299966
 30
0.0
 40
0.0999986962
100
AcDbArc
 50
5.567854640452567
 51
90.1416222106997
  0
LINE
  5
194E
330
A
100
AcDbEntity
  8
SK1
100
AcDbLine
 10
-2.12142739309997
 20
-1.342820948599977
 30
0.0
 11
-2.162283804499971
 21
-0.8222987155999559
 31
0.0
  0
LINE
  5
194F
330
A
100
AcDbEntity
  8
SK1
100
AcDbLine
 10
-2.162283804499971
 20
-0.8222987155999559
 30
0.0
 11
-2.26481240329997
 21
0.5522548240000305
 31
0.0
  0
LINE
  5
1950
330
A
100
AcDbEntity
  8
SK1
100
AcDbLine
 10
-2.26481240329997
 20
0.5522548240000305
 30
0.0
 11
-2.30613593769997
 21
1.087707505600022
 31
0.0
  0
LWPOLYLINE
  5
1951
330
A
100
AcDbEntity
  8
SK1
100
AcDbPolyline
 90
        9
 70
     0
 43
0.0
 10
-3.436520007999973
 20
-2.882023599099965
 10
-3.457027247499965
 20
-2.753926801899978
 10
-3.477491778599961
 20
-2.604850573199968
 10
-3.497960312799961
 20
-2.43594722479996
 10
-3.518480644399943
 20
-2.248532540099971
 10
-3.539045343999966
 20
-2.044008250299981
 10
-3.55969265599996
 20
-1.823896773299971
 10
-3.580333353699963
 20
-1.589900399799957
 10
-3.600863014399941
 20
-1.34383108589997
  0
LWPOLYLINE
  5
1952
330
A
100
AcDbEntity
  8
SK1
100
AcDbPolyline
 90
       13
 70
     0
 43
0.0
 10
-3.056310458699961
 20
-1.590057104699964
 10
-3.035735421099957
 20
-1.824048064399973
 10
-3.015200435299973
 20
-2.044153876299958
 10
-2.994700084199934
 20
-2.248666860499966
 10
-2.974226040199965
 20
-2.43606793379996
 10
-2.953783033199982
 20
-2.604956038299973
 10
-2.933326472799961
 20
-2.754017174499948
 10
-2.912815063899955
 20
-2.88210066439997
 10
-2.892243651399979
 20
-2.988251816799973
 10
-2.871566643399972
 20
-3.07167111039996
 10
-2.850864055999949
 20
-3.13171081569996
 10
-2.830199625499943
 20
-3.167911106499957
 10
-2.809585729999945
 20
-3.180001065099971
  0
LINE
  5
1953
330
A
100
AcDbEntity
  8
SK1
100
AcDbLine
 10
-2.809585756499956
 20
-3.180001065099971
 30
0.0
 11
-3.333494700299958
 21
-3.180001065099971
 31
0.0
  0
LWPOLYLINE
  5
1954
330
A
100
AcDbEntity
  8
SK1
100
AcDbPolyline
 90
        5
 70
     0
 43
0.0
 10
-3.343463272599954
 20
-3.177166769699964
 10
-3.354109452499962
 20
-3.167895178699949
 10
-3.374732959599967
 20
-3.131678853499976
 10
-3.395364911699942
 20
-3.071623262799981
 10
-3.415974241399965
 20
-2.988188626899968
  0
LINE
  5
1955
330
A
100
AcDbEntity
  8
SK1
100
AcDbLine
 10
-3.513643886499977
 20
-2.835574112599971
 30
0.0
 11
-3.511509962999944
 21
-2.838812208199968
 31
0.0
  0
LWPOLYLINE
  5
1956
330
A
100
AcDbEntity
  8
SK1
100
AcDbPolyline
 90
        9
 70
     0
 43
0.0
 10
-3.45938428619997
 20
-3.003699948999964
 10
-3.449955451399965
 20
-3.031501513499974
 10
-3.440389081899958
 20
-3.056013213399963
 10
-3.429870846299962
 20
-3.079099812199955
 10
-3.417829669699955
 20
-3.10125968979996
 10
-3.403399562899942
 20
-3.122939514199969
 10
-3.385202814199971
 20
-3.144440172699971
 10
-3.362506657199958
 20
-3.164544931199955
 10
-3.343355250599955
 20
-3.177166430999974
  0
LINE
  5
1957
330
A
100
AcDbEntity
  8
SK1
100
AcDbLine
 10
-3.415974241399965
 20
-2.988188626899968
 30
0.0
 11
-3.436520007999973
 21
-2.882023599099965
 31
0.0
  0
LWPOLYLINE
  5
1958
330
A
100
AcDbEntity
  8
SK1
100
AcDbPolyline
 90
        4
 70
     0
 43
0.0
 10
-3.553215356799938
 20
-2.798641547299964
 10
-3.534344108699968
 20
-2.812955608699951
 10
-3.52130481069998
 20
-2.825975636799967
 10
-3.513643886499977
 20
-2.835574112599971
  0
LINE
  5
1959
330
A
100
AcDbEntity
  8
SK1
100
AcDbLine
 10
-3.333494695199966
 20
-3.180001065099971
 30
0.0
 11
-3.343463272599954
 21
-3.177166769699964
 31
0.0
  0
LINE
  5
195A
330
A
100
AcDbEntity
  8
SK1
100
AcDbLine
 10
-3.511509962999944
 20
-2.838812208199968
 30
0.0
 11
-3.459721940399965
 21
-3.002687168399973
 31
0.0
  0
LWPOLYLINE
  5
195B
330
A
100
AcDbEntity
  8
SK1
100
AcDbPolyline
 90
        5
 70
     0
 43
0.0
 10
-3.648938729299949
 20
-2.769879300799971
 10
-3.63825960309996
 20
-2.770505127199966
 10
-3.609545080099934
 20
-2.774788253299973
 10
-3.579786050899961
 20
-2.78450644209996
 10
-3.553215356799938
 20
-2.798641547299964
  0
LINE
  5
195C
330
A
100
AcDbEntity
  8
SK1
100
AcDbLine
 10
-2.799250917299985
 20
-3.176944267099954
 30
0.0
 11
-2.789024879199963
 21
-3.167889856999969
 31
0.0
  0
LWPOLYLINE
  5
195D
330
A
100
AcDbEntity
  8
SK1
100
AcDbPolyline
 90
      115
 70
     0
 43
0.0
 10
-2.781942606199969
 20
-3.165235706899976
 10
-2.781295747299971
 20
-3.164741763999969
 10
-2.78065254279997
 20
-3.164246022899958
 10
-2.780004183899954
 20
-3.163741620999971
 10
-2.779351660299973
 20
-3.163229200199978
 10
-2.778692969999973
 20
-3.162707050199968
 10
-2.778028282499974
 20
-3.162175148599971
 10
-2.777357320599975
 20
-3.161633116199951
 10
-2.776679409299966
 20
-3.161080241899966
 10
-2.775993381599981
 20
-3.160515387699973
 10
-2.775300427799976
 20
-3.159939350599954
 10
-2.774600771699937
 20
-3.159352146299966
 10
-2.773896231399959
 20
-3.158755118699956
 10
-2.773188973199957
 20
-3.158149953299968
 10
-2.772478348299983
 20
-3.157535959599961
 10
-2.771764411099958
 20
-3.156913037899953
 10
-2.771047223099969
 20
-3.156281092599968
 10
-2.770326834199963
 20
-3.155640015799959
 10
-2.769603336899969
 20
-3.154989735699969
 10
-2.768876802399972
 20
-3.154330159799968
 10
-2.768147346099972
 20
-3.153661234499948
 10
-2.767415064799962
 20
-3.152982888899962
 10
-2.76668008309997
 20
-3.152295077199966
 10
-2.76594251139997
 20
-3.151597739899969
 10
-2.765202485299973
 20
-3.150890841799976
 10
-2.764460206499968
 20
-3.150174411799966
 10
-2.763715581299948
 20
-3.149448193099956
 10
-2.762968704299936
 20
-3.148712106799976
 10
-2.762219206399947
 20
-3.147965615199978
 10
-2.761466666399975
 20
-3.14720811289996
 10
-2.760711313199941
 20
-3.146439637399963
 10
-2.759953211199963
 20
-3.145660061299969
 10
-2.759192426199973
 20
-3.144869257199957
 10
-2.758429024399966
 20
-3.144067096399965
 10
-2.75766306159997
 20
-3.143253437499963
 10
-2.756894595799963
 20
-3.14242813899996
 10
-2.756123680399966
 20
-3.141591052099953
 10
-2.755350375699983
 20
-3.140742033699949
 10
-2.754574711099969
 20
-3.139880903699959
 10
-2.753796720699966
 20
-3.139007483599968
 10
-2.753016444499969
 20
-3.138121598299959
 10
-2.752234000899967
 20
-3.137223160099964
 10
-2.751449182199955
 20
-3.136311700999968
 10
-2.750661814599965
 20
-3.135386780199965
 10
-2.749871931699971
 20
-3.134448193999957
 10
-2.749079479899968
 20
-3.133495629299972
 10
-2.748284548799944
 20
-3.132528939299973
 10
-2.747487188499945
 20
-3.131547926799966
 10
-2.746687453099951
 20
-3.130552396299961
 10
-2.745885387299978
 20
-3.129542137299963
 10
-2.745081056299966
 20
-3.128516961799973
 10
-2.744274512199943
 20
-3.127476662299968
 10
-2.74346582409997
 20
-3.126421050099956
 10
-2.742655056199971
 20
-3.12534992789996
 10
-2.74184225709996
 20
-3.124263074599952
 10
-2.741027478499951
 20
-3.123160270299976
 10
-2.740210756299944
 20
-3.122041269799963
 10
-2.739392122199973
 20
-3.120905817499973
 10
-2.738571621699961
 20
-3.119753673299967
 10
-2.737749288399953
 20
-3.118584575999975
 10
-2.736925168999981
 20
-3.11739827899997
 10
-2.736099292499972
 20
-3.116194506499964
 10
-2.735271721799954
 20
-3.114973028199968
 10
-2.734442493099976
 20
-3.113733571499969
 10
-2.733611689099973
 20
-3.112475930999976
 10
-2.732779372799939
 20
-3.111199870399957
 10
-2.731945609499945
 20
-3.109905155499958
 10
-2.731110457099966
 20
-3.108591539299971
 10
-2.730273968999981
 20
-3.107258765999978
 10
-2.72943620529994
 20
-3.105906589199975
 10
-2.728597172099966
 20
-3.104534672699968
 10
-2.727756924799969
 20
-3.103142757099958
 10
-2.726915347299978
 20
-3.101730292799969
 10
-2.726072368799947
 20
-3.100296791899978
 10
-2.725227889699965
 20
-3.098841704099966
 10
-2.724381826999973
 20
-3.09736449399996
 10
-2.72353404119994
 20
-3.095864511999969
 10
-2.722684642299981
 20
-3.094341539799969
 10
-2.721832787699959
 20
-3.092793622699971
 10
-2.720979004599961
 20
-3.091221269499953
 10
-2.720119358299974
 20
-3.089616653299969
 10
-2.719251634699958
 20
-3.087974815999969
 10
-2.718371496699973
 20
-3.086286447699976
 10
-2.717474549999963
 20
-3.084541630199978
 10
-2.716559149199966
 20
-3.082735369499956
 10
-2.71562075649998
 20
-3.080856578699949
 10
-2.714663872799938
 20
-3.078912045799966
 10
-2.713690478999943
 20
-3.076903781399969
 10
-2.712703252699959
 20
-3.07483544279998
 10
-2.71170498939994
 20
-3.072711226799967
 10
-2.710696934599944
 20
-3.070532279299968
 10
-2.709680735499965
 20
-3.068300767699966
 10
-2.708657713099967
 20
-3.066018326099977
 10
-2.707629283299965
 20
-3.06368696979996
 10
-2.706596581399963
 20
-3.061308251799971
 10
-2.70556110899998
 20
-3.058884745599968
 10
-2.704522998199962
 20
-3.056415961899971
 10
-2.703483080899957
 20
-3.053903134099968
 10
-2.70244067399998
 20
-3.051343875599968
 10
-2.701395497199968
 20
-3.048736706099973
 10
-2.700347179899971
 20
-3.046079871599971
 10
-2.699295376099968
 20
-3.04337162129996
 10
-2.698239742799962
 20
-3.040610155199971
 10
-2.697179938699946
 20
-3.037793619999966
 10
-2.696115623499956
 20
-3.034920105799968
 10
-2.695046461199964
 20
-3.031987654399968
 10
-2.693972109299949
 20
-3.028994227199958
 10
-2.692892229699964
 20
-3.025937735599967
 10
-2.691806484199965
 20
-3.022816025499969
 10
-2.690714536999962
 20
-3.019626884199972
 10
-2.689616055099946
 20
-3.016368039799957
 10
-2.688510707099965
 20
-3.013037156999956
 10
-2.687398164799994
 20
-3.009631841699969
 10
-2.686278002199976
 20
-3.006149321599969
 10
-2.633521616499969
 20
-2.838686131799973
  0
LINE
  5
195E
330
A
100
AcDbEntity
  8
SK1
100
AcDbLine
 10
-2.783271188499959
 20
-3.166236364399978
 30
0.0
 11
-2.781942606199969
 21
-3.165235706899976
 31
0.0
  0
LINE
  5
195F
330
A
100
AcDbEntity
  8
SK1
100
AcDbLine
 10
-2.784636686599959
 20
-3.167246551799975
 30
0.0
 11
-2.783271188499959
 21
-3.166236364399978
 31
0.0
  0
LINE
  5
1960
330
A
100
AcDbEntity
  8
SK1
100
AcDbLine
 10
-2.786028068899987
 20
-3.168258038599978
 30
0.0
 11
-2.784636686599959
 21
-3.167246551799975
 31
0.0
  0
LINE
  5
1961
330
A
100
AcDbEntity
  8
SK1
100
AcDbLine
 10
-2.787433856699948
 20
-3.169262676699971
 30
0.0
 11
-2.786028068899987
 21
-3.168258038599978
 31
0.0
  0
LWPOLYLINE
  5
1962
330
A
100
AcDbEntity
  8
SK1
100
AcDbPolyline
 90
        3
 70
     0
 43
0.0
 10
-2.789510778399936
 20
-3.170716267999964
 10
-2.788823932699955
 20
-3.170239584799958
 10
-2.787433856699948
 20
-3.169262676699971
  0
LINE
  5
1963
330
A
100
AcDbEntity
  8
SK1
100
AcDbLine
 10
-2.790796645899973
 20
-3.171597817599972
 30
0.0
 11
-2.790174121099973
 21
-3.171172842199964
 31
0.0
  0
LINE
  5
1964
330
A
100
AcDbEntity
  8
SK1
100
AcDbLine
 10
-2.791932755399962
 20
-3.172363550599968
 30
0.0
 11
-2.791384285799971
 21
-3.171995561499968
 31
0.0
  0
LINE
  5
1965
330
A
100
AcDbEntity
  8
SK1
100
AcDbLine
 10
-2.792960142899943
 20
-3.173043831499966
 30
0.0
 11
-2.79245503779996
 21
-3.172710889599954
 31
0.0
  0
LINE
  5
1966
330
A
100
AcDbEntity
  8
SK1
100
AcDbLine
 10
-2.793939490599967
 20
-3.173680810699969
 30
0.0
 11
-2.793452713599975
 21
-3.173365624499949
 31
0.0
  0
LINE
  5
1967
330
A
100
AcDbEntity
  8
SK1
100
AcDbLine
 10
-2.794902816399968
 20
-3.174296318999963
 30
0.0
 11
-2.79442181309998
 21
-3.173990348599971
 31
0.0
  0
LINE
  5
1968
330
A
100
AcDbEntity
  8
SK1
100
AcDbLine
 10
-2.79586612989997
 20
-3.17490110899996
 30
0.0
 11
-2.795383685199936
 21
-3.174599531599965
 31
0.0
  0
LINE
  5
1969
330
A
100
AcDbEntity
  8
SK1
100
AcDbLine
 10
-2.796841721399964
 20
-3.175503173899953
 30
0.0
 11
-2.796351537799942
 21
-3.175201942999961
 31
0.0
  0
LINE
  5
196A
330
A
100
AcDbEntity
  8
SK1
100
AcDbLine
 10
-2.797841517599948
 20
-3.176109957399958
 30
0.0
 11
-2.797336306399955
 21
-3.175804588299968
 31
0.0
  0
LINE
  5
196B
330
A
100
AcDbEntity
  8
SK1
100
AcDbLine
 10
-2.798807038899973
 20
-3.176686785999976
 30
0.0
 11
-2.79833830869996
 21
-3.176407838499969
 31
0.0
  0
LINE
  5
196C
330
A
100
AcDbEntity
  8
SK1
100
AcDbLine
 10
-2.809585729999945
 20
-3.180001065099971
 30
0.0
 11
-2.799250917299985
 21
-3.176944267099954
 31
0.0
  0
LWPOLYLINE
  5
196D
330
A
100
AcDbEntity
  8
SK1
100
AcDbPolyline
 90
        3
 70
     0
 43
0.0
 10
-2.633521616443033
 20
-2.838686131619268
 10
-2.627028718099985
 20
-2.829971749299971
 10
-2.613077667799963
 20
-2.815370204199971
  0
LWPOLYLINE
  5
196E
330
A
100
AcDbEntity
  8
SK1
100
AcDbPolyline
 90
        3
 70
     0
 43
0.0
 10
-3.641887090499977
 20
-0.8229419707999729
 10
-3.724280066299961
 20
0.2771948490000185
 10
-3.785891694299976
 20
1.087716243400038
  0
LINE
  5
196F
330
A
100
AcDbEntity
  8
SK1
100
AcDbLine
 10
-3.600863014399941
 20
-1.34383108589997
 30
0.0
 11
-3.641887090499977
 21
-0.8229419707999729
 31
0.0
  0
LINE
  5
1970
330
A
100
AcDbEntity
  8
SK1
100
AcDbLine
 10
-3.097605267499972
 20
-1.087722710399958
 30
0.0
 11
-3.056310458699961
 21
-1.590057104699964
 31
0.0
  0
LINE
  5
1971
330
A
100
AcDbEntity
  8
SK1
100
AcDbLine
 10
-3.138965279099963
 20
-0.5522633289999705
 30
0.0
 11
-3.097605267499972
 21
-1.087722710399958
 31
0.0
  0
LINE
  5
1972
330
A
100
AcDbEntity
  8
SK1
100
AcDbLine
 10
-3.241600390299971
 20
0.8229248647000275
 30
0.0
 11
-3.138965279099963
 21
-0.5522633289999705
 31
0.0
  0
LWPOLYLINE
  5
1973
330
A
100
AcDbEntity
  8
SK1
100
AcDbPolyline
 90
        5
 70
     0
 43
0.0
 10
-2.613077667799963
 20
-2.815370204199971
 10
-2.591922009299963
 20
-2.799072605499957
 10
-2.562457943199973
 20
-2.783799139099968
 10
-2.528073831799957
 20
-2.77377597399996
 10
-2.495551831099966
 20
-2.770715367499973
  0
LINE
  5
1974
330
A
100
AcDbEntity
  8
1
100
AcDbLine
 10
2.882842712474626
 20
7.450000000000017
 30
0.0
 11
1.512132034355985
 21
8.820710678118672
 31
0.0
  0
LINE
  5
1975
330
A
100
AcDbEntity
  8
1
100
AcDbLine
 10
1.370710678118669
 20
8.820710678118672
 30
0.0
 11
0.0000000000000142
 21
7.450000000000017
 31
0.0
  0
LWPOLYLINE
  5
1976
330
A
100
AcDbEntity
  8
CUT
100
AcDbPolyline
 90
        4
 70
     1
 43
0.0
 10
1.370710678118669
 20
8.820710678118672
 10
0.0000000000000142
 20
7.450000000000017
 10
2.882842712474626
 20
7.450000000000017
 10
1.512132034355985
 20
8.820710678118672
 42
0.4142135623731134
  0
LINE
  5
1977
330
A
100
AcDbEntity
  8
SK1
100
AcDbLine
 10
-3.549805137299955
 20
3.180001065000026
 30
0.0
 11
-4.073229518499978
 21
3.180001065000026
 31
0.0
  0
LWPOLYLINE
  5
1978
330
A
100
AcDbEntity
  8
SK1
100
AcDbPolyline
 90
        9
 70
     0
 43
0.0
 10
-4.083120752799942
 20
3.177165070500037
 10
-4.107054425999969
 20
3.160878954600036
 10
-4.12946918489996
 20
3.139756109400039
 10
-4.146879515699971
 20
3.117955281000028
 10
-4.160693891599969
 20
3.096183779600039
 10
-4.172138275599969
 20
3.074318319700026
 10
-4.182092835099943
 20
3.051833205500038
 10
-4.191143573099964
 20
3.028158663000041
 10
-4.199522780899961
 20
3.003227362600028
  0
LINE
  5
1979
330
A
100
AcDbEntity
  8
SK1
100
AcDbLine
 10
-4.083170260099954
 20
3.177165225400038
 30
0.0
 11
-4.093789203299969
 21
3.167893961200035
 31
0.0
  0
LINE
  5
197A
330
A
100
AcDbEntity
  8
SK1
100
AcDbLine
 10
-4.073229502299966
 20
3.180001065000026
 30
0.0
 11
-4.083170260099954
 21
3.177165225400038
 31
0.0
  0
LWPOLYLINE
  5
197B
330
A
100
AcDbEntity
  8
SK1
100
AcDbPolyline
 90
        5
 70
     0
 43
0.0
 10
-5.020360723199956
 20
3.177033254100017
 10
-5.009947166699966
 20
3.167896673300035
 10
-4.989308596199961
 20
3.131681623700046
 10
-4.96865553529998
 20
3.071626732100041
 10
-4.948021717299958
 20
2.988192196100037
  0
LWPOLYLINE
  5
197C
330
A
100
AcDbEntity
  8
SK1
100
AcDbPolyline
 90
        9
 70
     0
 43
0.0
 10
-5.564050150699962
 20
3.177105740300035
 10
-5.582664183699961
 20
3.164757977700026
 10
-5.605316202899963
 20
3.144639856000039
 10
-5.623425343999976
 20
3.123221440600019
 10
-5.637713075999954
 20
3.101763999700025
 10
-5.649655747499963
 20
3.07981296900003
 10
-5.66017631819998
 20
3.056769210300031
 10
-5.669767916299946
 20
3.03224743420003
 10
-5.679455432599944
 20
3.003682384800029
  0
LWPOLYLINE
  5
197D
330
A
100
AcDbEntity
  8
SK1
100
AcDbPolyline
 90
        7
 70
     0
 43
0.0
 10
-4.904982649999965
 20
3.001884984200032
 10
-4.926600846999939
 20
3.060872698000038
 10
-4.946921462399963
 20
3.101068666300035
 10
-4.965863743099959
 20
3.128814521900038
 10
-4.984354406699935
 20
3.149405855200028
 10
-5.002711784799977
 20
3.165155674700031
 10
-5.020385817599965
 20
3.176961967100041
  0
LINE
  5
197E
330
A
100
AcDbEntity
  8
SK1
100
AcDbLine
 10
-5.030550651899979
 20
3.180001065000026
 30
0.0
 11
-5.020360723199956
 21
3.177033254100017
 31
0.0
  0
LINE
  5
197F
330
A
100
AcDbEntity
  8
SK1
100
AcDbLine
 10
-5.030550642399973
 20
3.180001065000026
 30
0.0
 11
-5.553977372599966
 21
3.180001065000026
 31
0.0
  0
LINE
  5
1980
330
A
100
AcDbEntity
  8
SK1
100
AcDbLine
 10
-5.564091156899969
 20
3.177105870700031
 30
0.0
 11
-5.574666194899968
 21
3.167894964300031
 31
0.0
  0
LINE
  5
1981
330
A
100
AcDbEntity
  8
SK1
100
AcDbLine
 10
-5.553977373299971
 20
3.180001065000026
 30
0.0
 11
-5.564091156899969
 21
3.177105870700031
 31
0.0
  0
LWPOLYLINE
  5
1982
330
A
100
AcDbEntity
  8
SK1
100
AcDbPolyline
 90
        3
 70
     0
 43
0.0
 10
-4.715552018599971
 20
2.770104567200021
 10
-4.75406525409997
 20
2.774464247500034
 10
-4.787151069399961
 20
2.785315395300038
  0
LWPOLYLINE
  5
1983
330
A
100
AcDbEntity
  8
SK1
100
AcDbPolyline
 90
        5
 70
     0
 43
0.0
 10
-4.787151069399961
 20
2.785315395300038
 10
-4.814306852399973
 20
2.800210455400048
 10
-4.833715133299982
 20
2.815542498500036
 10
-4.846545080999959
 20
2.829044952000039
 10
-4.853421539499969
 20
2.838220047900037
  0
LINE
  5
1984
330
A
100
AcDbEntity
  8
SK1
100
AcDbLine
 10
-4.390110167899962
 20
2.769610538900024
 30
0.0
 11
-4.715273934299965
 21
2.769870554000021
 31
0.0
  0
LINE
  5
1985
330
A
100
AcDbEntity
  8
SK1
100
AcDbLine
 10
-4.280793991399974
 20
2.807296914300039
 30
0.0
 11
-4.299551151299965
 21
2.794472015400053
 31
0.0
  0
LWPOLYLINE
  5
1986
330
A
100
AcDbEntity
  8
SK1
100
AcDbPolyline
 90
        5
 70
     0
 43
0.0
 10
-4.299551151299965
 20
2.794472015400053
 10
-4.324459206499966
 20
2.782363764900026
 10
-4.351942392999973
 20
2.77405613200004
 10
-4.379125358699965
 20
2.77027255400003
 10
-4.389144964599971
 20
2.769774934200029
  0
LWPOLYLINE
  5
1987
330
A
100
AcDbEntity
  8
SK1
100
AcDbPolyline
 90
        5
 70
     0
 43
0.0
 10
-4.251920085065854
 20
2.837802376707799
 10
-4.252307729499968
 20
2.837191415200038
 10
-4.257859229499963
 20
2.829758127300023
 10
-4.266963594599964
 20
2.819641060200041
 10
-4.280793991399974
 20
2.807296914300039
  0
LINE
  5
1988
330
A
100
AcDbEntity
  8
SK1
100
AcDbLine
 10
-5.870150933499964
 20
2.770136037500037
 30
0.0
 11
-6.184296154799966
 21
2.770387790400036
 31
0.0
  0
LWPOLYLINE
  5
1989
330
A
100
AcDbEntity
  8
SK1
100
AcDbPolyline
 90
       10
 70
     0
 43
0.0
 10
-5.763194628199961
 20
2.805374287800026
 10
-5.766198256499968
 20
2.803140599300029
 10
-5.769363237799979
 20
2.800899392600029
 10
-5.77268550209996
 20
2.798663341000029
 10
-5.776166295999956
 20
2.796441074800028
 10
-5.77979551949997
 20
2.794247991800034
 10
-5.783565456199973
 20
2.792096790300028
 10
-5.787465587499966
 20
2.790000653000049
 10
-5.791485258499967
 20
2.787971566500033
 10
-5.795612658199978
 20
2.786020847900046
  0
LWPOLYLINE
  5
198A
330
A
100
AcDbEntity
  8
SK1
100
AcDbPolyline
 90
       18
 70
     0
 43
0.0
 10
-5.795612658199978
 20
2.786020847900046
 10
-5.799835281699962
 20
2.784158831600023
 10
-5.804140571199944
 20
2.782394578500031
 10
-5.808509471099938
 20
2.780738278400035
 10
-5.812945778399942
 20
2.779190529700031
 10
-5.817443559199965
 20
2.777755514600045
 10
-5.822012338799964
 20
2.776431251800032
 10
-5.826666472799963
 20
2.775215246700028
 10
-5.831385651399983
 20
2.774114504000023
 10
-5.836192865599969
 20
2.773125748300031
 10
-5.840970739899972
 20
2.772271699400036
 10
-5.845645518399955
 20
2.77155843100003
 10
-5.850104041999969
 20
2.770997919200026
 10
-5.854065340199959
 20
2.770606402100042
 10
-5.857957259099968
 20
2.77032632020004
 10
-5.862061453499968
 20
2.770136584700025
 10
-5.866542231199964
 20
2.770031428600034
 10
-5.870268292799977
 20
2.770008672800051
  0
LWPOLYLINE
  5
198B
330
A
100
AcDbEntity
  8
SK1
100
AcDbPolyline
 90
       20
 70
     0
 43
0.0
 10
-5.731824570091738
 20
2.837829000326038
 10
-5.732367040699962
 20
2.837023924600039
 10
-5.733111510799972
 20
2.835950071300039
 10
-5.733941404299947
 20
2.834787410800031
 10
-5.734864316699976
 20
2.833532442200023
 10
-5.735888493599958
 20
2.832181657100035
 10
-5.737017583499977
 20
2.830738384200031
 10
-5.738256805699961
 20
2.829204337700033
 10
-5.739610548699971
 20
2.827582750000033
 10
-5.741083774699944
 20
2.825876597600028
 10
-5.742680564799968
 20
2.824090306200025
 10
-5.744405588499951
 20
2.822228013500037
 10
-5.746262316399963
 20
2.820295507600036
 10
-5.748254859099972
 20
2.818298188200031
 10
-5.750385843099955
 20
2.816243201800027
 10
-5.75265854279997
 20
2.814137233400031
 10
-5.75507453899997
 20
2.811988679500031
 10
-5.757635968599942
 20
2.809805474500038
 10
-5.760343361899941
 20
2.807596939700018
 10
-5.763194628199961
 20
2.805374287800026
  0
LINE
  5
198C
330
A
100
AcDbEntity
  8
SK1
100
AcDbLine
 10
-6.184296154799966
 20
2.770387790400036
 30
0.0
 11
-6.189899116299976
 21
2.769191313200024
 31
0.0
  0
LINE
  5
198D
330
A
100
AcDbEntity
  8
SK1
100
AcDbLine
 10
-6.189899116299976
 20
2.769191313200024
 30
0.0
 11
-6.640001071699963
 21
2.649382627200019
 31
0.0
  0
LWPOLYLINE
  5
198E
330
A
100
AcDbEntity
  8
SK1
100
AcDbPolyline
 90
       13
 70
     0
 43
0.0
 10
-5.929834387099965
 20
1.303321811300037
 10
-5.951364991599973
 20
1.520950825400028
 10
-5.97288588599995
 20
1.725825670900029
 10
-5.994403538799957
 20
1.916306657200016
 10
-6.015923660899971
 20
2.090773962800041
 10
-6.037441869799941
 20
2.247795711400029
 10
-6.058951491099982
 20
2.386067190700031
 10
-6.080461995699941
 20
2.504408705300029
 10
-6.10197415409997
 20
2.601859104600038
 10
-6.123497962799945
 20
2.677726721600023
 10
-6.145046172899959
 20
2.731279255400039
 10
-6.166607696999967
 20
2.761940777600031
 10
-6.184296154799966
 20
2.770387790400036
  0
LINE
  5
198F
330
A
100
AcDbEntity
  8
SK1
100
AcDbLine
 10
-5.679755276799966
 20
3.002661182000038
 30
0.0
 11
-5.731824570099945
 21
2.837829000300031
 31
0.0
  0
LINE
  5
1990
330
A
100
AcDbEntity
  8
SK1
100
AcDbLine
 10
-4.853382679649691
 20
2.838168198121109
 30
0.0
 11
-4.905101448199978
 21
3.002370164600037
 31
0.0
  0
LINE
  5
1991
330
A
100
AcDbEntity
  8
SK1
100
AcDbLine
 10
-4.199719612399974
 20
3.002672461200034
 30
0.0
 11
-4.251920085099953
 21
2.837802376600023
 31
0.0
  0
LWPOLYLINE
  5
1992
330
A
100
AcDbEntity
  8
SK1
100
AcDbPolyline
 90
       14
 70
     0
 43
0.0
 10
-5.286795196299955
 20
1.34393821040004
 10
-5.30750082319998
 20
1.590000701800029
 10
-5.32815779159997
 20
1.82399776860003
 10
-5.34876598849997
 20
2.044108966000037
 10
-5.369300134299948
 20
2.24862577810002
 10
-5.389781132899962
 20
2.436030704600042
 10
-5.41020934399998
 20
2.604924257700034
 10
-5.430621120599965
 20
2.753990082900044
 10
-5.451045214099984
 20
2.882076002200022
 10
-5.471504789099959
 20
2.988230007700039
 10
-5.492037367999955
 20
3.071653562900038
 10
-5.512628629099971
 20
3.131698674000026
 10
-5.533291715099956
 20
3.167905162900041
 10
-5.553977373299971
 20
3.180001065000026
  0
LWPOLYLINE
  5
1993
330
A
100
AcDbEntity
  8
SK1
100
AcDbPolyline
 90
        9
 70
     0
 43
0.0
 10
-4.948021717299958
 20
2.988192196100037
 10
-4.92746077649997
 20
2.882027281400026
 10
-4.906936634999965
 20
2.753929943200033
 10
-4.88644126869994
 20
2.604851258100025
 10
-4.865944150199936
 20
2.435944075400044
 10
-4.845407302799941
 20
2.24852501520003
 10
-4.824845051299945
 20
2.043995156100038
 10
-4.804257551699961
 20
1.823874707400022
 10
-4.783649333499937
 20
1.589870998800037
  0
LWPOLYLINE
  5
1994
330
A
100
AcDbEntity
  8
SK1
100
AcDbPolyline
 90
       13
 70
     0
 43
0.0
 10
-3.826846495499957
 20
1.590038229500038
 10
-3.847333579499974
 20
1.824026047100048
 10
-3.867839466999981
 20
2.044131306800038
 10
-3.888378420999949
 20
2.248647896400028
 10
-3.908944696999959
 20
2.436052258700044
 10
-3.929545717999964
 20
2.604938989900034
 10
-3.950156244099979
 20
2.754000308200033
 10
-3.970762459799978
 20
2.882089863200022
 10
-3.991337514499939
 20
2.988245646800038
 10
-4.011834007699938
 20
3.071665017700041
 10
-4.03229977349995
 20
3.131705148200019
 10
-4.052754664499964
 20
3.167907617400032
 10
-4.073229502299966
 20
3.180001065000026
  0
LINE
  5
1995
330
A
100
AcDbEntity
  8
SK1
100
AcDbLine
 10
0.0000195856000289
 20
3.391187514800015
 30
0.0
 11
-1.359981133799948
 21
3.319930812700028
 31
0.0
  0
ARC
  5
1996
330
A
100
AcDbEntity
  8
SK1
100
AcDbCircle
 10
-1.45952690149997
 20
3.279999684300028
 30
0.0
 40
0.0999986962
100
AcDbArc
 50
269.8583777893003
 51
357.1905352693999
  0
LWPOLYLINE
  5
1997
330
A
100
AcDbEntity
  8
SK1
100
AcDbPolyline
 90
        5
 70
     0
 43
0.0
 10
-3.539594678199968
 20
3.17700361170003
 10
-3.529286993499951
 20
3.16789354840003
 10
-3.508791971799944
 20
3.131676261000038
 10
-3.488308891599977
 20
3.071620853000041
 10
-3.467818132599944
 20
2.988186835100036
  0
LWPOLYLINE
  5
1998
330
A
100
AcDbEntity
  8
SK1
100
AcDbPolyline
 90
        7
 70
     0
 43
0.0
 10
-3.425148142399997
 20
3.002476152300033
 10
-3.445881927499961
 20
3.05948427900003
 10
-3.465370871599972
 20
3.098843429000019
 10
-3.483347406899937
 20
3.125999041900029
 10
-3.501286436999961
 20
3.146779961200039
 10
-3.520268572699968
 20
3.163737762400031
 10
-3.53962439709997
 20
3.17693944020003
  0
LINE
  5
1999
330
A
100
AcDbEntity
  8
SK1
100
AcDbLine
 10
-3.549805129899972
 20
3.180001065000026
 30
0.0
 11
-3.539594678199968
 21
3.17700361170003
 31
0.0
  0
LWPOLYLINE
  5
199A
330
A
100
AcDbEntity
  8
SK1
100
AcDbPolyline
 90
        9
 70
     0
 43
0.0
 10
-2.604063233799962
 20
3.17707630590003
 10
-2.626748186799979
 20
3.161577540700022
 10
-2.649221634699955
 20
3.140488757900044
 10
-2.666674872599934
 20
3.118735666500028
 10
-2.680391369599966
 20
3.097179369600041
 10
-2.691759428499977
 20
3.07549992900003
 10
-2.701743701999959
 20
3.053002587100038
 10
-2.710833219199948
 20
3.029292665500028
 10
-2.71940323389996
 20
3.003837083300026
  0
LINE
  5
199B
330
A
100
AcDbEntity
  8
SK1
100
AcDbLine
 10
-2.594007805499956
 20
3.180001065000026
 30
0.0
 11
-2.604123503899955
 21
3.177076497600039
 31
0.0
  0
LINE
  5
199C
330
A
100
AcDbEntity
  8
SK1
100
AcDbLine
 10
-1.459999999999965
 20
3.180001065000026
 30
0.0
 11
-2.594007799399975
 21
3.180001065000026
 31
0.0
  0
LWPOLYLINE
  5
199D
330
A
100
AcDbEntity
  8
SK1
100
AcDbPolyline
 90
        4
 70
     0
 43
0.0
 10
-3.235530379399968
 20
2.770574452000033
 10
-3.265043698199981
 20
2.773102683900019
 10
-3.296965650299931
 20
2.781575442300023
 10
-3.324633477799942
 20
2.794502036700038
  0
LWPOLYLINE
  5
199E
330
A
100
AcDbEntity
  8
SK1
100
AcDbPolyline
 90
        4
 70
     0
 43
0.0
 10
-3.324633477799942
 20
2.794502036700038
 10
-3.345415753599944
 20
2.808710842600035
 10
-3.360252684099968
 20
2.822306323400026
 10
-3.369487616399965
 20
2.83301722980002
  0
LINE
  5
199F
330
A
100
AcDbEntity
  8
SK1
100
AcDbLine
 10
-3.369487616399965
 20
2.83301722980002
 30
0.0
 11
-3.373653821099971
 21
2.838901632400016
 31
0.0
  0
LINE
  5
19A0
330
A
100
AcDbEntity
  8
SK1
100
AcDbLine
 10
-2.910318995899956
 20
2.770269882900037
 30
0.0
 11
-3.235477485499956
 21
2.770551102400026
 31
0.0
  0
LINE
  5
19A1
330
A
100
AcDbEntity
  8
SK1
100
AcDbLine
 10
-2.802731988199958
 20
2.80619551680003
 30
0.0
 11
-2.820964572599969
 21
2.794051285700035
 31
0.0
  0
LWPOLYLINE
  5
19A2
330
A
100
AcDbEntity
  8
SK1
100
AcDbPolyline
 90
        5
 70
     0
 43
0.0
 10
-2.820964572599969
 20
2.794051285700035
 10
-2.843760932799973
 20
2.783039037700035
 10
-2.869072753899985
 20
2.775110577400026
 10
-2.895899291699947
 20
2.770965457400023
 10
-2.909986064599962
 20
2.770298487200022
  0
LWPOLYLINE
  5
19A3
330
A
100
AcDbEntity
  8
SK1
100
AcDbPolyline
 90
        5
 70
     0
 43
0.0
 10
-2.771619155463127
 20
2.838696179400314
 10
-2.773067735399962
 20
2.836478394500033
 10
-2.779188242499962
 20
2.828545743700047
 10
-2.788770978999956
 20
2.818255077500025
 10
-2.802731988199958
 20
2.80619551680003
  0
LINE
  5
19A4
330
A
100
AcDbEntity
  8
SK1
100
AcDbLine
 10
-3.373633655674389
 20
2.83887315048625
 30
0.0
 11
-3.425218801199974
 21
3.002676319900031
 31
0.0
  0
LINE
  5
19A5
330
A
100
AcDbEntity
  8
SK1
100
AcDbLine
 10
-2.719655379699965
 20
3.00300306960004
 30
0.0
 11
-2.771619155399974
 21
2.838696179600034
 31
0.0
  0
LWPOLYLINE
  5
19A6
330
A
100
AcDbEntity
  8
SK1
100
AcDbPolyline
 90
       10
 70
     0
 43
0.0
 10
-3.467818132599944
 20
2.988186835100036
 10
-3.447299860899967
 20
2.882020587500029
 10
-3.426749375999946
 20
2.753921112600039
 10
-3.406145259499972
 20
2.60484148280004
 10
-3.385517832099964
 20
2.435933976400022
 10
-3.364886780999967
 20
2.248515269300028
 10
-3.344262588299983
 20
2.043985967700038
 10
-3.323659967999958
 20
1.823864873700038
 10
-3.303085912399964
 20
1.589861327800036
 10
-3.282555812499964
 20
1.343798118700035
  0
LWPOLYLINE
  5
19A7
330
A
100
AcDbEntity
  8
SK1
100
AcDbPolyline
 90
       13
 70
     0
 43
0.0
 10
-2.347375436899966
 20
1.590041287800032
 10
-2.367924964399961
 20
1.824031986300034
 10
-2.388436944599966
 20
2.044137705600021
 10
-2.408909851699974
 20
2.248650489000026
 10
-2.429376065599974
 20
2.436052420600019
 10
-2.449864607999955
 20
2.604943823500036
 10
-2.470384027799944
 20
2.754007931900034
 10
-2.490962184399968
 20
2.882092406400019
 10
-2.511570167899961
 20
2.988244384000025
 10
-2.532192700099955
 20
3.071665003800049
 10
-2.552816745499974
 20
3.131706443600037
 10
-2.57342320769996
 20
3.167908837100036
 10
-2.594007805499956
 20
3.180001065000026
  0
ARC
  5
19A8
330
A
100
AcDbEntity
  8
1
100
AcDbCircle
 10
1.441421356237327
 20
8.750000000000017
 30
0.0
 40
0.1000000000000017
100
AcDbArc
 50
44.9999999999983
 51
135.0000000000017
  0
TEXT
  5
19A9
330
A
100
AcDbEntity
  8
6
100
AcDbText
 10
21.56715289021677
 20
-3.922488494405256
 30
0.0
 40
3.5
  1
Z=3
 50
90.0
 72
     4
 11
19.88964026363206
 21
-0.000001120989964
 31
0.0
100
AcDbText
  0
VIEWPORT
  5
B5C
330
B
100
AcDbEntity
 67
     1
  8
0
 62
     0
100
AcDbViewport
 10
0.0
 20
0.0
 30
0.0
 40
1000.0
 41
1000.0
 68
     1
 69
     1
1001
ACAD
1000
MVIEW
1002
{
1070
    16
1010
0.0
1020
0.0
1030
0.0
1010
0.0
1020
0.0
1030
1.0
1040
0.0
1040
1000.0
1040
0.0
1040
0.0
1040
50.0
1040
0.0
1040
0.0
1070
     0
1070
   100
1070
     1
1070
     1
1070
     0
1070
     0
1070
     0
1070
     0
1040
0.0
1040
0.0
1040
0.0
1040
1.0
1040
1.0
1040
1.0
1040
1.0
1070
     0
1002
{
1002
}
1002
}
  0
ENDSEC
  0
SECTION
  2
OBJECTS
  0
DICTIONARY
  5
19
330
0
100
AcDbDictionary
  3
ACAD_GROUP
350
1A
  3
ACAD_LAYOUT
350
1186
  3
ACAD_MLINESTYLE
350
1B
  3
ACAD_PLOTSETTINGS
350
1187
  3
ACAD_PLOTSTYLENAME
350
1184
  3
ACDBHEADERROUNDTRIPXREC
350
1A3F
  0
DICTIONARY
  5
1256
330
A
100
AcDbDictionary
280
     1
  3
ACAD_LAYOUTSELFREF
360
1A5F
  0
DICTIONARY
  5
1258
330
B
100
AcDbDictionary
280
     1
  3
ACAD_LAYOUTSELFREF
360
1A60
  0
DICTIONARY
  5
1A
102
{ACAD_REACTORS
330
19
102
}
330
19
100
AcDbDictionary
  0
DICTIONARY
  5
1186
102
{ACAD_REACTORS
330
19
102
}
330
19
100
AcDbDictionary
  0
DICTIONARY
  5
1B
102
{ACAD_REACTORS
330
19
102
}
330
19
100
AcDbDictionary
  3
STANDARD
350
1C
  0
DICTIONARY
  5
1187
102
{ACAD_REACTORS
330
19
102
}
330
19
100
AcDbDictionary
  0
ACDBDICTIONARYWDFLT
  5
1184
102
{ACAD_REACTORS
330
19
102
}
330
19
100
AcDbDictionary
281
     1
  3
Normal
350
1185
100
AcDbDictionaryWithDefault
340
1185
  0
DICTIONARY
  5
1A3F
102
{ACAD_REACTORS
330
19
102
}
330
19
100
AcDbDictionary
  3
CEPSNTYPE
350
1A49
  3
FINGERPRINTGUID
350
1A4A
  3
HYPERLINKBASE
350
1A42
  3
INSUNITS
350
1A48
  3
LAYOUTDICT
350
1A44
  3
LWETCUNION
350
1A47
  3
PLOTSETDICT
350
1A45
  3
PLOTSTYLNAMDICT
350
1A46
  3
PSVPSCALE
350
1A4C
  3
PUCSBASE
350
1A4F
  3
PUCSORGBACK
350
1A55
  3
PUCSORGBOTTOM
350
1A51
  3
PUCSORGFRONT
350
1A54
  3
PUCSORGLEFT
350
1A52
  3
PUCSORGRIGHT
350
1A53
  3
PUCSORGTOP
350
1A50
  3
PUCSORTHOREF
350
1A4D
  3
PUCSORTHOVIEW
350
1A4E
  3
STYLESHEET
350
1A43
  3
TSTACKALIGN
350
1A40
  3
TSTACKSIZE
350
1A41
  3
UCSBASE
350
1A58
  3
UCSORGBACK
350
1A5E
  3
UCSORGBOTTOM
350
1A5A
  3
UCSORGFRONT
350
1A5D
  3
UCSORGLEFT
350
1A5B
  3
UCSORGRIGHT
350
1A5C
  3
UCSORGTOP
350
1A59
  3
UCSORTHOREF
350
1A56
  3
UCSORTHOVIEW
350
1A57
  3
VERSIONGUID
350
1A4B
  0
XRECORD
  5
1A5F
102
{ACAD_REACTORS
330
1256
102
}
330
1256
100
AcDbXrecord
340
A
  0
XRECORD
  5
1A60
102
{ACAD_REACTORS
330
1258
102
}
330
1258
100
AcDbXrecord
340
B
  0
MLINESTYLE
  5
1C
102
{ACAD_REACTORS
330
1B
102
}
330
1B
100
AcDbMlineStyle
  2
STANDARD
 70
     0
  3

 62
     0
 51
90.0
 52
90.0
 71
     2
 49
0.5
 62
   256
  6
BYLAYER
 49
-0.5
 62
   256
  6
BYLAYER
  0
ACDBPLACEHOLDER
  5
1185
102
{ACAD_REACTORS
330
1184
102
}
330
1184
100
AcDbPlaceHolder
280
     0
  0
XRECORD
  5
1A49
102
{ACAD_REACTORS
330
1A3F
102
}
330
1A3F
100
AcDbXrecord
 90
        0
  0
XRECORD
  5
1A4A
102
{ACAD_REACTORS
330
1A3F
102
}
330
1A3F
100
AcDbXrecord
  1
{B27BBB66-F627-47B2-9D4E-55AD3026DC60}
  0
XRECORD
  5
1A42
102
{ACAD_REACTORS
330
1A3F
102
}
330
1A3F
100
AcDbXrecord
  1

  0
XRECORD
  5
1A48
102
{ACAD_REACTORS
330
1A3F
102
}
330
1A3F
100
AcDbXrecord
 90
        0
  0
XRECORD
  5
1A44
102
{ACAD_REACTORS
330
1A3F
102
}
330
1A3F
100
AcDbXrecord
340
1186
  0
XRECORD
  5
1A47
102
{ACAD_REACTORS
330
1A3F
102
}
330
1A3F
100
AcDbXrecord
 90
    10781
  0
XRECORD
  5
1A45
102
{ACAD_REACTORS
330
1A3F
102
}
330
1A3F
100
AcDbXrecord
340
1187
  0
XRECORD
  5
1A46
102
{ACAD_REACTORS
330
1A3F
102
}
330
1A3F
100
AcDbXrecord
340
1184
  0
XRECORD
  5
1A4C
102
{ACAD_REACTORS
330
1A3F
102
}
330
1A3F
100
AcDbXrecord
 40
0.0
  0
XRECORD
  5
1A4F
102
{ACAD_REACTORS
330
1A3F
102
}
330
1A3F
100
AcDbXrecord
340
0
  0
XRECORD
  5
1A55
102
{ACAD_REACTORS
330
1A3F
102
}
330
1A3F
100
AcDbXrecord
 10
0.0
 20
0.0
 30
0.0
  0
XRECORD
  5
1A51
102
{ACAD_REACTORS
330
1A3F
102
}
330
1A3F
100
AcDbXrecord
 10
0.0
 20
0.0
 30
0.0
  0
XRECORD
  5
1A54
102
{ACAD_REACTORS
330
1A3F
102
}
330
1A3F
100
AcDbXrecord
 10
0.0
 20
0.0
 30
0.0
  0
XRECORD
  5
1A52
102
{ACAD_REACTORS
330
1A3F
102
}
330
1A3F
100
AcDbXrecord
 10
0.0
 20
0.0
 30
0.0
  0
XRECORD
  5
1A53
102
{ACAD_REACTORS
330
1A3F
102
}
330
1A3F
100
AcDbXrecord
 10
0.0
 20
0.0
 30
0.0
  0
XRECORD
  5
1A50
102
{ACAD_REACTORS
330
1A3F
102
}
330
1A3F
100
AcDbXrecord
 10
0.0
 20
0.0
 30
0.0
  0
XRECORD
  5
1A4D
102
{ACAD_REACTORS
330
1A3F
102
}
330
1A3F
100
AcDbXrecord
340
0
  0
XRECORD
  5
1A4E
102
{ACAD_REACTORS
330
1A3F
102
}
330
1A3F
100
AcDbXrecord
 70
     0
  0
XRECORD
  5
1A43
102
{ACAD_REACTORS
330
1A3F
102
}
330
1A3F
100
AcDbXrecord
  1

  0
XRECORD
  5
1A40
102
{ACAD_REACTORS
330
1A3F
102
}
330
1A3F
100
AcDbXrecord
 90
        1
  0
XRECORD
  5
1A41
102
{ACAD_REACTORS
330
1A3F
102
}
330
1A3F
100
AcDbXrecord
 90
       70
  0
XRECORD
  5
1A58
102
{ACAD_REACTORS
330
1A3F
102
}
330
1A3F
100
AcDbXrecord
340
0
  0
XRECORD
  5
1A5E
102
{ACAD_REACTORS
330
1A3F
102
}
330
1A3F
100
AcDbXrecord
 10
0.0
 20
0.0
 30
0.0
  0
XRECORD
  5
1A5A
102
{ACAD_REACTORS
330
1A3F
102
}
330
1A3F
100
AcDbXrecord
 10
0.0
 20
0.0
 30
0.0
  0
XRECORD
  5
1A5D
102
{ACAD_REACTORS
330
1A3F
102
}
330
1A3F
100
AcDbXrecord
 10
0.0
 20
0.0
 30
0.0
  0
XRECORD
  5
1A5B
102
{ACAD_REACTORS
330
1A3F
102
}
330
1A3F
100
AcDbXrecord
 10
0.0
 20
0.0
 30
0.0
  0
XRECORD
  5
1A5C
102
{ACAD_REACTORS
330
1A3F
102
}
330
1A3F
100
AcDbXrecord
 10
0.0
 20
0.0
 30
0.0
  0
XRECORD
  5
1A59
102
{ACAD_REACTORS
330
1A3F
102
}
330
1A3F
100
AcDbXrecord
 10
0.0
 20
0.0
 30
0.0
  0
XRECORD
  5
1A56
102
{ACAD_REACTORS
330
1A3F
102
}
330
1A3F
100
AcDbXrecord
340
0
  0
XRECORD
  5
1A57
102
{ACAD_REACTORS
330
1A3F
102
}
330
1A3F
100
AcDbXrecord
 70
     0
  0
XRECORD
  5
1A4B
102
{ACAD_REACTORS
330
1A3F
102
}
330
1A3F
100
AcDbXrecord
  1
{FCD26F89-08A3-4BFC-BA95-B37519843D4C}
  0
ENDSEC
  0
EOF
