  0
SECTION
  2
HEADER
  9
$ACADVER
  1
AC1015
  9
$ACADMAINTVER
 70
    13
  9
$DWGCODEPAGE
  3
ANSI_1252
  9
$INSBASE
 10
0.0
 20
0.0
 30
0.0
  9
$EXTMIN
 10
-67.44350965553485
 20
-31.44781266753125
 30
-0.000000000000013
  9
$EXTMAX
 10
78.49026096477269
 20
79.83394266058872
 30
0.0000000000000023
  9
$LIMMIN
 10
0.0
 20
0.0
  9
$LIMMAX
 10
210.0
 20
297.0
  9
$ORTHOMODE
 70
     0
  9
$REGENMODE
 70
     1
  9
$FILLMODE
 70
     1
  9
$QTEXTMODE
 70
     0
  9
$MIRRTEXT
 70
     1
  9
$LTSCALE
 40
1.0
  9
$ATTMODE
 70
     1
  9
$TEXTSIZE
 40
2.5
  9
$TRACEWID
 40
1.0
  9
$TEXTSTYLE
  7
STANDARD
  9
$CLAYER
  8
SK2
  9
$CELTYPE
  6
ByLayer
  9
$CECOLOR
 62
   256
  9
$CELTSCALE
 40
1.0
  9
$DISPSILH
 70
     0
  9
$DIMSCALE
 40
1.0
  9
$DIMASZ
 40
2.5
  9
$DIMEXO
 40
0.0
  9
$DIMDLI
 40
10.0
  9
$DIMRND
 40
0.0
  9
$DIMDLE
 40
0.0
  9
$DIMEXE
 40
1.0
  9
$DIMTP
 40
0.1
  9
$DIMTM
 40
0.1
  9
$DIMTXT
 40
3.5
  9
$DIMCEN
 40
0.0
  9
$DIMTSZ
 40
0.0
  9
$DIMTOL
 70
     0
  9
$DIMLIM
 70
     0
  9
$DIMTIH
 70
     0
  9
$DIMTOH
 70
     0
  9
$DIMSE1
 70
     0
  9
$DIMSE2
 70
     0
  9
$DIMTAD
 70
     1
  9
$DIMZIN
 70
     8
  9
$DIMBLK
  1

  9
$DIMASO
 70
     1
  9
$DIMSHO
 70
     1
  9
$DIMPOST
  1

  9
$DIMAPOST
  1
"
  9
$DIMALT
 70
     0
  9
$DIMALTD
 70
     2
  9
$DIMALTF
 40
0.0393701
  9
$DIMLFAC
 40
1.0
  9
$DIMTOFL
 70
     1
  9
$DIMTVP
 40
0.0
  9
$DIMTIX
 70
     0
  9
$DIMSOXD
 70
     0
  9
$DIMSAH
 70
     0
  9
$DIMBLK1
  1

  9
$DIMBLK2
  1

  9
$DIMSTYLE
  2
AM_DIN
  9
$DIMCLRD
 70
   256
  9
$DIMCLRE
 70
   256
  9
$DIMCLRT
 70
     2
  9
$DIMTFAC
 40
0.71
  9
$DIMGAP
 40
1.5
  9
$DIMJUST
 70
     0
  9
$DIMSD1
 70
     0
  9
$DIMSD2
 70
     0
  9
$DIMTOLJ
 70
     1
  9
$DIMTZIN
 70
     8
  9
$DIMALTZ
 70
     8
  9
$DIMALTTZ
 70
     8
  9
$DIMUPT
 70
     0
  9
$DIMDEC
 70
     2
  9
$DIMTDEC
 70
     2
  9
$DIMALTU
 70
     2
  9
$DIMALTTD
 70
     2
  9
$DIMTXSTY
  7
STANDARD
  9
$DIMAUNIT
 70
     0
  9
$DIMADEC
 70
     0
  9
$DIMALTRND
 40
0.0
  9
$DIMAZIN
 70
     0
  9
$DIMDSEP
 70
    46
  9
$DIMATFIT
 70
     3
  9
$DIMFRAC
 70
     0
  9
$DIMLDRBLK
  1

  9
$DIMLUNIT
 70
     2
  9
$DIMLWD
 70
    -2
  9
$DIMLWE
 70
    -2
  9
$DIMTMOVE
 70
     2
  9
$LUNITS
 70
     2
  9
$LUPREC
 70
     2
  9
$SKETCHINC
 40
1.0
  9
$FILLETRAD
 40
2.5
  9
$AUNITS
 70
     0
  9
$AUPREC
 70
     0
  9
$MENU
  1
.
  9
$ELEVATION
 40
0.0
  9
$PELEVATION
 40
0.0
  9
$THICKNESS
 40
0.0
  9
$LIMCHECK
 70
     0
  9
$CHAMFERA
 40
2.5
  9
$CHAMFERB
 40
2.5
  9
$CHAMFERC
 40
0.0
  9
$CHAMFERD
 40
0.0
  9
$SKPOLY
 70
     0
  9
$TDCREATE
 40
2453447.430070810
  9
$TDUCREATE
 40
2453447.388404143
  9
$TDUPDATE
 40
2453754.114929270
  9
$TDUUPDATE
 40
2453754.073262604
  9
$TDINDWG
 40
0.1905490625
  9
$TDUSRTIMER
 40
0.1905247222
  9
$USRTIMER
 70
     1
  9
$ANGBASE
 50
0.0
  9
$ANGDIR
 70
     0
  9
$PDMODE
 70
     0
  9
$PDSIZE
 40
0.0
  9
$PLINEWID
 40
0.0
  9
$SPLFRAME
 70
     0
  9
$SPLINETYPE
 70
     6
  9
$SPLINESEGS
 70
     8
  9
$HANDSEED
  5
95D0
  9
$SURFTAB1
 70
     6
  9
$SURFTAB2
 70
     6
  9
$SURFTYPE
 70
     6
  9
$SURFU
 70
     6
  9
$SURFV
 70
     6
  9
$UCSBASE
  2

  9
$UCSNAME
  2

  9
$UCSORG
 10
0.0
 20
0.0
 30
0.0
  9
$UCSXDIR
 10
1.0
 20
0.0
 30
0.0
  9
$UCSYDIR
 10
0.0
 20
1.0
 30
0.0
  9
$UCSORTHOREF
  2

  9
$UCSORTHOVIEW
 70
     0
  9
$UCSORGTOP
 10
0.0
 20
0.0
 30
0.0
  9
$UCSORGBOTTOM
 10
0.0
 20
0.0
 30
0.0
  9
$UCSORGLEFT
 10
0.0
 20
0.0
 30
0.0
  9
$UCSORGRIGHT
 10
0.0
 20
0.0
 30
0.0
  9
$UCSORGFRONT
 10
0.0
 20
0.0
 30
0.0
  9
$UCSORGBACK
 10
0.0
 20
0.0
 30
0.0
  9
$PUCSBASE
  2

  9
$PUCSNAME
  2

  9
$PUCSORG
 10
0.0
 20
0.0
 30
0.0
  9
$PUCSXDIR
 10
1.0
 20
0.0
 30
0.0
  9
$PUCSYDIR
 10
0.0
 20
1.0
 30
0.0
  9
$PUCSORTHOREF
  2

  9
$PUCSORTHOVIEW
 70
     0
  9
$PUCSORGTOP
 10
0.0
 20
0.0
 30
0.0
  9
$PUCSORGBOTTOM
 10
0.0
 20
0.0
 30
0.0
  9
$PUCSORGLEFT
 10
0.0
 20
0.0
 30
0.0
  9
$PUCSORGRIGHT
 10
0.0
 20
0.0
 30
0.0
  9
$PUCSORGFRONT
 10
0.0
 20
0.0
 30
0.0
  9
$PUCSORGBACK
 10
0.0
 20
0.0
 30
0.0
  9
$USERI1
 70
     0
  9
$USERI2
 70
     0
  9
$USERI3
 70
     0
  9
$USERI4
 70
     0
  9
$USERI5
 70
     0
  9
$USERR1
 40
0.0
  9
$USERR2
 40
0.0
  9
$USERR3
 40
0.0
  9
$USERR4
 40
0.0
  9
$USERR5
 40
0.0
  9
$WORLDVIEW
 70
     1
  9
$SHADEDGE
 70
     3
  9
$SHADEDIF
 70
    70
  9
$TILEMODE
 70
     1
  9
$MAXACTVP
 70
    64
  9
$PINSBASE
 10
0.0
 20
0.0
 30
0.0
  9
$PLIMCHECK
 70
     0
  9
$PEXTMIN
 10
1.000000000000000E+20
 20
1.000000000000000E+20
 30
1.000000000000000E+20
  9
$PEXTMAX
 10
-1.000000000000000E+20
 20
-1.000000000000000E+20
 30
-1.000000000000000E+20
  9
$PLIMMIN
 10
0.0
 20
0.0
  9
$PLIMMAX
 10
420.0
 20
297.0
  9
$UNITMODE
 70
     0
  9
$VISRETAIN
 70
     1
  9
$PLINEGEN
 70
     0
  9
$PSLTSCALE
 70
     1
  9
$TREEDEPTH
 70
  3020
  9
$CMLSTYLE
  2
Standard
  9
$CMLJUST
 70
     0
  9
$CMLSCALE
 40
1.0
  9
$PROXYGRAPHICS
 70
     1
  9
$MEASUREMENT
 70
     1
  9
$CELWEIGHT
370
    -1
  9
$ENDCAPS
280
     0
  9
$JOINSTYLE
280
     0
  9
$LWDISPLAY
290
     0
  9
$INSUNITS
 70
     4
  9
$HYPERLINKBASE
  1

  9
$STYLESHEET
  1

  9
$XEDIT
290
     1
  9
$CEPSNTYPE
380
     0
  9
$PSTYLEMODE
290
     1
  9
$FINGERPRINTGUID
  2
{5E8163B8-4D8F-4110-B677-A6458ADDE735}
  9
$VERSIONGUID
  2
{BAC956FC-3BE8-4E3B-B8A1-168B9B9BD159}
  9
$EXTNAMES
290
     1
  9
$PSVPSCALE
 40
0.0
  9
$OLESTARTUP
290
     0
  0
ENDSEC
  0
SECTION
  2
CLASSES
  0
CLASS
  1
ACDBDICTIONARYWDFLT
  2
AcDbDictionaryWithDefault
  3
AutoCAD 2000
 90
        0
280
     0
281
     0
  0
CLASS
  1
ACDBPLACEHOLDER
  2
AcDbPlaceHolder
  3
AutoCAD 2000
 90
        0
280
     0
281
     0
  0
CLASS
  1
LAYOUT
  2
AcDbLayout
  3
AutoCAD 2000
 90
        0
280
     0
281
     0
  0
CLASS
  1
AMGSETTINGSOBJ
  2
AmgSettingsObj
  3
"AcadM|Product Description: AutoCAD Mechanical 2000|Company: Autodesk"
 90
        0
280
     0
281
     0
  0
CLASS
  1
ACME_DOCUMENT
  2
AcMeDbDoc
  3
AcMeServices
 90
        0
280
     0
281
     0
  0
CLASS
  1
ACMESCOPE
  2
AcMeScope
  3
AcMeServices
 90
        0
280
     0
281
     0
  0
CLASS
  1
ACMECOMMANDHISTORY
  2
AcMeCommandHistory
  3
AcMeServices
 90
        0
280
     0
281
     0
  0
CLASS
  1
ACIMSYSVARMAN
  2
AcImSysVarManager
  3
AcMeServices
 90
        0
280
     0
281
     0
  0
CLASS
  1
ACIMREALSYSVAR
  2
AcImRealSysVar
  3
AcMeServices
 90
        0
280
     0
281
     0
  0
CLASS
  1
ACIMINTSYSVAR
  2
AcImIntSysVar
  3
AcMeServices
 90
        0
280
     0
281
     0
  0
CLASS
  1
ACMEDRAWINGMAN
  2
AcMeDrawingMan
  3
AcMeServices
 90
        0
280
     0
281
     0
  0
CLASS
  1
ACMEVIEW
  2
AcMeView
  3
AcMeServices
 90
        0
280
     0
281
     0
  0
CLASS
  1
ACDBENTITYCACHE
  2
AcMeEntityCache
  3
AcMeServices
 90
        0
280
     0
281
     0
  0
CLASS
  1
GSMANAGER
  2
AcMeGSManager
  3
AcMeServices
 90
        0
280
     0
281
     0
  0
CLASS
  1
AMDTINTERNALREACTOR
  2
AmdtInternalReactor
  3
AcMeServices
 90
        0
280
     0
281
     0
  0
CLASS
  1
ACMESTATEMGR
  2
AcMeStateMgr
  3
AcMeServices
 90
        0
280
     0
281
     0
  0
CLASS
  1
ACGREFMASTER
  2
AcGrefMaster
  3
AcAttribServices
 90
        0
280
     0
281
     0
  0
CLASS
  1
ACME_DATABASE
  2
AcMeDbDatabase
  3
AcMeServices
 90
        0
280
     0
281
     0
  0
CLASS
  1
ACRFINSADJUSTERMGR
  2
AcRfInsAdjusterMgr
  3
AcMeServices
 90
        0
280
     0
281
     0
  0
CLASS
  1
ACGREFACADMASTER
  2
AcGrefacadMaster
  3
AcGrefServices
 90
        0
280
     0
281
     0
  0
CLASS
  1
AMIMASTER
  2
AmiMaster
  3
AmiServices
 90
        0
280
     0
281
     0
  0
CLASS
  1
ACMDATADICTIONARY
  2
AcmDataDictionary
  3
"AcmSymBB|Product Description: AutoCAD Mechanical 2000|Company: Autodesk"
 90
        0
280
     0
281
     0
  0
CLASS
  1
ACMDATAENTRYBLOCK
  2
AcmDataEntryBlock
  3
"AcmSymBB|Product Description: AutoCAD Mechanical 2000|Company: Autodesk"
 90
        0
280
     0
281
     0
  0
CLASS
  1
ACIMSTRSYSVAR
  2
AcImStrSysVar
  3
AcMeServices
 90
        0
280
     0
281
     0
  0
CLASS
  1
ACMSTANDARDANSI
  2
AcmStandardANSI
  3
"Amdt_StdImp|Product Description: AutoCAD Mechanical 2000|Company: Autodesk"
 90
        0
280
     0
281
     0
  0
CLASS
  1
AMGOBJPROPCFG
  2
AmgObjPropCfg
  3
"AmgLay|Product Description: AutoCAD Mechanical 2000|Company: Autodesk"
 90
        1
280
     0
281
     0
  0
CLASS
  1
ACMSURFSTANDARDANSI
  2
AcmSurfTextStdANSI
  3
"Amdt_StdImp|Product Description: AutoCAD Mechanical 2000|Company: Autodesk"
 90
        0
280
     0
281
     0
  0
CLASS
  1
ACMFCFSTANDARDANSI
  2
AcmFCFStdANSI
  3
"Amdt_StdImp|Product Description: AutoCAD Mechanical 2000|Company: Autodesk"
 90
        0
280
     0
281
     0
  0
CLASS
  1
ACMWELDSTANDARDANSI
  2
AcmWeldingStdANSI
  3
"Amdt_StdImp|Product Description: AutoCAD Mechanical 2000|Company: Autodesk"
 90
        0
280
     0
281
     0
  0
CLASS
  1
ACMIDSTANDARDANSI
  2
AcmIdStdANSI
  3
"Amdt_StdImp|Product Description: AutoCAD Mechanical 2000|Company: Autodesk"
 90
        0
280
     0
281
     0
  0
CLASS
  1
ACMDATUMSTANDARDANSI
  2
AcmDatumStdANSI
  3
"Amdt_StdImp|Product Description: AutoCAD Mechanical 2000|Company: Autodesk"
 90
        0
280
     0
281
     0
  0
CLASS
  1
ACMBOMSTANDARDANSI
  2
AcmBOMStdANSI
  3
"Amdt_StdImp|Product Description: AutoCAD Mechanical 2000|Company: Autodesk"
 90
        0
280
     0
281
     0
  0
CLASS
  1
ACMDETAILSTANDARDANSI
  2
AmdtDetailSymStdANSI
  3
"Amdt_StdImp|Product Description: AutoCAD Mechanical 2000|Company: Autodesk"
 90
        0
280
     0
281
     0
  0
CLASS
  1
ACMSECTIONSTANDARDANSI
  2
AmdtSectionSymStdANSI
  3
"Amdt_StdImp|Product Description: AutoCAD Mechanical 2000|Company: Autodesk"
 90
        0
280
     0
281
     0
  0
CLASS
  1
ACMCENTERLINESTANDARDANSI
  2
AmdtCenterLineStdANSI
  3
"Amdt_StdImp|Product Description: AutoCAD Mechanical 2000|Company: Autodesk"
 90
        0
280
     0
281
     0
  0
CLASS
  1
ACMNOTESTANDARDANSI
  2
AmdtNoteStdANSI
  3
"Amdt_StdImp|Product Description: AutoCAD Mechanical 2000|Company: Autodesk"
 90
        0
280
     0
281
     0
  0
CLASS
  1
ACAMGLAYSTD
  2
AcAmgLayStd
  3
"AcAmgLayStd|Product Description: AutoCAD Mechanical 2000|Company: Autodesk"
 90
        0
280
     0
281
     0
  0
CLASS
  1
ACAMGDIMSTD
  2
AcAmgDimStd
  3
"AcAmgDimStd|Product Description: AutoCAD Mechanical 2000|Company: Autodesk"
 90
        0
280
     0
281
     0
  0
CLASS
  1
ACAMGHOLECHARTSTDANSI
  2
AcAmgHoleChartStdANSI
  3
ACMSYMBB_MODULE_NAME
 90
        0
280
     0
281
     0
  0
CLASS
  1
ACAMGTITLESTD
  2
AcAmgTitleStd
  3
"TITLEAPP"
 90
        0
280
     0
281
     0
  0
CLASS
  1
ACAMGFILTERDAT
  2
AcAmgFilterDat
  3
"AcadM|Product Description: AutoCAD Mechanical 2000|Company: Autodesk"
 90
        0
280
     0
281
     0
  0
CLASS
  1
LAYER_INDEX
  2
AcDbLayerIndex
  3
AutoCAD 2000
 90
        0
280
     0
281
     0
  0
CLASS
  1
IDBUFFER
  2
AcDbIdBuffer
  3
AutoCAD 2000
 90
        0
280
     0
281
     0
  0
CLASS
  1
DICTIONARYVAR
  2
AcDbDictionaryVar
  3
AutoCAD 2000
 90
        0
280
     0
281
     0
  0
CLASS
  1
ACMSTANDARDDIN
  2
AcmStandardDIN
  3
"Amdt_StdImp|Product Description: AutoCAD Mechanical 2000|Company: Autodesk"
 90
        0
280
     0
281
     0
  0
CLASS
  1
AMDTEDGESTANDARDDIN
  2
AmdtEdgeStdDIN
  3
"Amdt_StdImp|Product Description: AutoCAD Mechanical 2000|Company: Autodesk"
 90
        0
280
     0
281
     0
  0
CLASS
  1
ACMSURFSTANDARDDIN
  2
AcmSurfTextStdDIN
  3
"Amdt_StdImp|Product Description: AutoCAD Mechanical 2000|Company: Autodesk"
 90
        0
280
     0
281
     0
  0
CLASS
  1
ACMFCFSTANDARDDIN
  2
AcmFCFStdDIN
  3
"Amdt_StdImp|Product Description: AutoCAD Mechanical 2000|Company: Autodesk"
 90
        0
280
     0
281
     0
  0
CLASS
  1
ACMWELDSTANDARDDIN
  2
AcmWeldingStdDIN
  3
"Amdt_StdImp|Product Description: AutoCAD Mechanical 2000|Company: Autodesk"
 90
        0
280
     0
281
     0
  0
CLASS
  1
ACMIDSTANDARDDIN
  2
AcmIdStdDIN
  3
"Amdt_StdImp|Product Description: AutoCAD Mechanical 2000|Company: Autodesk"
 90
        0
280
     0
281
     0
  0
CLASS
  1
ACMDATUMSTANDARDDIN
  2
AcmDatumStdDIN
  3
"Amdt_StdImp|Product Description: AutoCAD Mechanical 2000|Company: Autodesk"
 90
        0
280
     0
281
     0
  0
CLASS
  1
ACMBOMSTANDARDDIN
  2
AcmBOMStdDIN
  3
"Amdt_StdImp|Product Description: AutoCAD Mechanical 2000|Company: Autodesk"
 90
        0
280
     0
281
     0
  0
CLASS
  1
ACMDETAILSTANDARDDIN
  2
AmdtDetailSymStdDIN
  3
"Amdt_StdImp|Product Description: AutoCAD Mechanical 2000|Company: Autodesk"
 90
        0
280
     0
281
     0
  0
CLASS
  1
ACMSECTIONSTANDARDDIN
  2
AmdtSectionSymStdDIN
  3
"Amdt_StdImp|Product Description: AutoCAD Mechanical 2000|Company: Autodesk"
 90
        0
280
     0
281
     0
  0
CLASS
  1
ACMCENTERLINESTANDARDDIN
  2
AmdtCenterLineStdDIN
  3
"Amdt_StdImp|Product Description: AutoCAD Mechanical 2000|Company: Autodesk"
 90
        0
280
     0
281
     0
  0
CLASS
  1
ACMNOTESTANDARDDIN
  2
AmdtNoteStdDIN
  3
"Amdt_StdImp|Product Description: AutoCAD Mechanical 2000|Company: Autodesk"
 90
        0
280
     0
281
     0
  0
CLASS
  1
ACAMGHOLECHARTSTDDIN
  2
AcAmgHoleChartStdDIN
  3
ACMSYMBB_MODULE_NAME
 90
        0
280
     0
281
     0
  0
CLASS
  1
AMDTFORMULAUPDATEDISPATCHER
  2
AmdtFormulaUpdateDispatcher
  3
AcMeServices
 90
        0
280
     0
281
     0
  0
CLASS
  1
ACMSURFSYM
  2
AcmSurfaceTexture
  3
"AcmSymBB|Product Description: AutoCAD Mechanical 2000|Company: Autodesk"
 90
    33791
280
     0
281
     1
  0
ENDSEC
  0
SECTION
  2
TABLES
  0
TABLE
  2
VPORT
  5
6A1E
330
0
100
AcDbSymbolTable
 70
     4
  0
VPORT
  5
95CF
330
6A1E
100
AcDbSymbolTableRecord
100
AcDbViewportTableRecord
  2
*Active
 70
     0
 10
0.0
 20
0.0
 11
1.0
 21
1.0
 12
71.27824517223254
 22
132.7760936662343
 13
0.0
 23
0.0
 14
2.5
 24
2.5
 15
10.0
 25
10.0
 16
0.0
 26
0.0
 36
1.0
 17
0.0
 27
0.0
 37
0.0
 40
332.1176206302969
 41
1.716417910447761
 42
50.0
 43
0.0
 44
0.0
 50
0.0
 51
0.0
 71
    16
 72
 10000
 73
     1
 74
     3
 75
     0
 76
     0
 77
     0
 78
     0
281
     0
 65
     1
110
0.0
120
0.0
130
0.0
111
1.0
121
0.0
131
0.0
112
0.0
122
1.0
132
0.0
 79
     0
146
0.0
  0
ENDTAB
  0
TABLE
  2
LTYPE
  5
6A1B
330
0
100
AcDbSymbolTable
 70
    15
  0
LTYPE
  5
6A29
330
6A1B
100
AcDbSymbolTableRecord
100
AcDbLinetypeTableRecord
  2
ByBlock
 70
     0
  3

 72
    65
 73
     0
 40
0.0
  0
LTYPE
  5
6A2A
330
6A1B
100
AcDbSymbolTableRecord
100
AcDbLinetypeTableRecord
  2
ByLayer
 70
     0
  3

 72
    65
 73
     0
 40
0.0
  0
LTYPE
  5
6A2B
330
6A1B
100
AcDbSymbolTableRecord
100
AcDbLinetypeTableRecord
  2
CONTINUOUS
 70
     0
  3
Solid line
 72
    65
 73
     0
 40
0.0
  0
LTYPE
  5
6A39
330
6A1B
100
AcDbSymbolTableRecord
100
AcDbLinetypeTableRecord
  2
AMCONSTR
 70
     0
  3
_______________________
 72
    65
 73
     2
 40
9999.0
 49
9999.0
 74
     0
 49
0.0
 74
     0
  0
LTYPE
  5
6A43
330
6A1B
100
AcDbSymbolTableRecord
100
AcDbLinetypeTableRecord
  2
CENTER
 70
     0
  3
__ . __
 72
    65
 73
     4
 40
7.0
 49
4.0
 74
     0
 49
-1.0
 74
     0
 49
1.0
 74
     0
 49
-1.0
 74
     0
  0
LTYPE
  5
6A45
330
6A1B
100
AcDbSymbolTableRecord
100
AcDbLinetypeTableRecord
  2
PHANTOM2
 70
     0
  3
Phantom (.5x) ___ _ _ ___ _ _ ___ _ _ ___ _ _
 72
    65
 73
     6
 40
1.25
 49
0.625
 74
     0
 49
-0.125
 74
     0
 49
0.125
 74
     0
 49
-0.125
 74
     0
 49
0.125
 74
     0
 49
-0.125
 74
     0
  0
LTYPE
  5
6A46
330
6A1B
100
AcDbSymbolTableRecord
100
AcDbLinetypeTableRecord
  2
ACANSTGB
 70
     0
  3
__ . . __ . .
 72
    65
 73
     6
 40
0.35433070866
 49
0.15748031496
 74
     0
 49
-0.03937007874
 74
     0
 49
0.03937007874
 74
     0
 49
-0.03937007874
 74
     0
 49
0.03937007874
 74
     0
 49
-0.03937007874
 74
     0
  0
LTYPE
  5
6A47
330
6A1B
100
AcDbSymbolTableRecord
100
AcDbLinetypeTableRecord
  2
ACANSTGL
 70
     0
  3
_ _ _ _ _
 72
    65
 73
     2
 40
0.11811023622
 49
0.07874015748
 74
     0
 49
-0.03937007874
 74
     0
  0
LTYPE
  5
6D97
330
6A1B
100
AcDbSymbolTableRecord
100
AcDbLinetypeTableRecord
  2
ACDINWELD
 70
     0
  3
_ _ _ _ _
 72
    65
 73
     2
 40
2.0
 49
2.0
 74
     0
 49
-1.0
 74
     0
  0
LTYPE
  5
6D98
330
6A1B
100
AcDbSymbolTableRecord
100
AcDbLinetypeTableRecord
  2
ACDINTGB
 70
     0
  3
__ . . __ . .
 72
    65
 73
     6
 40
9.0
 49
4.0
 74
     0
 49
-1.0
 74
     0
 49
1.0
 74
     0
 49
-1.0
 74
     0
 49
1.0
 74
     0
 49
-1.0
 74
     0
  0
LTYPE
  5
6D99
330
6A1B
100
AcDbSymbolTableRecord
100
AcDbLinetypeTableRecord
  2
ACDINTGL
 70
     0
  3
_ _ _ _ _
 72
    65
 73
     2
 40
3.0
 49
2.0
 74
     0
 49
-1.0
 74
     0
  0
LTYPE
  5
8543
330
6A1B
100
AcDbSymbolTableRecord
100
AcDbLinetypeTableRecord
  2
Amzigzag
 70
     0
  3
/\/-/\/-/\/-/\/-/\/-/\/
 72
    65
 73
     2
 40
11.00009999999999
 49
0.0001
 74
     4
 75
   135
340
6A5B
 46
0.04
 50
0.0
 44
0.0
 45
0.0
 49
-11.0
 74
     0
  0
LTYPE
  5
8544
330
6A1B
100
AcDbSymbolTableRecord
100
AcDbLinetypeTableRecord
  2
AM_DIN_F_W050
 70
     0
  3
__ __ __ __ __ __ __ __ __ __ __ __ __ __ __
 72
    65
 73
     2
 40
6.25
 49
4.75
 74
     0
 49
-1.5
 74
     0
  0
LTYPE
  5
8545
330
6A1B
100
AcDbSymbolTableRecord
100
AcDbLinetypeTableRecord
  2
AM_DIN_G_W050
 70
     0
  3
____ . ____ . ____ . ____ . ____ . ____ . ____
 72
    65
 73
     4
 40
13.75
 49
9.75
 74
     0
 49
-1.5
 74
     0
 49
1.0
 74
     0
 49
-1.5
 74
     0
  0
LTYPE
  5
8546
330
6A1B
100
AcDbSymbolTableRecord
100
AcDbLinetypeTableRecord
  2
AM_DIN_K_W050
 70
     0
  3
_____ . . _____ . . _____ . . ____ .. ____
 72
    65
 73
     6
 40
16.25
 49
9.75
 74
     0
 49
-1.5
 74
     0
 49
1.0
 74
     0
 49
-1.5
 74
     0
 49
1.0
 74
     0
 49
-1.5
 74
     0
  0
LTYPE
  5
8547
330
6A1B
100
AcDbSymbolTableRecord
100
AcDbLinetypeTableRecord
  2
AM_DIN_G_W050x2
 70
     0
  3
__ . __ . __ . __ . __ . __
 72
    65
 73
     4
 40
6.875
 49
4.75
 74
     0
 49
-0.875
 74
     0
 49
0.375
 74
     0
 49
-0.875
 74
     0
  0
LTYPE
  5
8548
330
6A1B
100
AcDbSymbolTableRecord
100
AcDbLinetypeTableRecord
  2
AM_DIN_F_W050x2
 70
     0
  3
 _ _ _ _ _ _ _ _ _ _ _ _
 72
    65
 73
     2
 40
3.125
 49
2.25
 74
     0
 49
-0.875
 74
     0
  0
ENDTAB
  0
TABLE
  2
LAYER
  5
6A18
330
0
100
AcDbSymbolTable
 70
    11
  0
LAYER
  5
6A26
330
6A18
100
AcDbSymbolTableRecord
100
AcDbLayerTableRecord
  2
0
 70
     0
 62
     7
  6
CONTINUOUS
370
    -3
390
6A25
  0
LAYER
  5
6A4B
330
6A18
100
AcDbSymbolTableRecord
100
AcDbLayerTableRecord
  2
DEFPOINTS
 70
     0
 62
     7
  6
CONTINUOUS
290
     0
370
    -3
390
6A25
  0
LAYER
  5
6A4C
330
6A18
100
AcDbSymbolTableRecord
100
AcDbLayerTableRecord
  2
1
 70
     0
 62
     4
  6
CONTINUOUS
370
    -3
390
6A25
  0
LAYER
  5
6A4D
330
6A18
100
AcDbSymbolTableRecord
100
AcDbLayerTableRecord
  2
2
 70
     0
 62
     7
  6
CONTINUOUS
370
    -3
390
6A25
  0
LAYER
  5
6A4F
330
6A18
100
AcDbSymbolTableRecord
100
AcDbLayerTableRecord
  2
4
 70
     0
 62
     2
  6
CENTER
370
    -3
390
6A25
  0
LAYER
  5
6A50
330
6A18
100
AcDbSymbolTableRecord
100
AcDbLayerTableRecord
  2
6
 70
     0
 62
     5
  6
CONTINUOUS
370
    -3
390
6A25
  0
LAYER
  5
6A53
330
6A18
100
AcDbSymbolTableRecord
100
AcDbLayerTableRecord
  2
SK1
 70
     0
 62
     4
  6
CONTINUOUS
370
    -3
390
6A25
  0
LAYER
  5
6A54
330
6A18
100
AcDbSymbolTableRecord
100
AcDbLayerTableRecord
  2
SK2
 70
     0
 62
     7
  6
CONTINUOUS
370
    -3
390
6A25
  0
LAYER
  5
6A56
330
6A18
100
AcDbSymbolTableRecord
100
AcDbLayerTableRecord
  2
SK4
 70
     0
 62
     2
  6
CENTER
370
    -3
390
6A25
  0
LAYER
  5
6A57
330
6A18
100
AcDbSymbolTableRecord
100
AcDbLayerTableRecord
  2
CUT
 70
     0
 62
     1
  6
CONTINUOUS
370
    -3
390
6A25
  0
LAYER
  5
6A58
330
6A18
100
AcDbSymbolTableRecord
100
AcDbLayerTableRecord
  2
NOCUT
 70
     0
 62
     7
  6
CONTINUOUS
370
    -3
390
6A25
  0
ENDTAB
  0
TABLE
  2
STYLE
  5
6A19
330
0
100
AcDbSymbolTable
 70
     6
  0
STYLE
  5
6A27
330
6A19
100
AcDbSymbolTableRecord
100
AcDbTextStyleTableRecord
  2
STANDARD
 70
     0
 40
0.0
 41
1.0
 50
0.0
 71
     0
 42
2.5
  3
ISOCP.SHX
  4

  0
STYLE
  5
6A5B
330
6A19
100
AcDbSymbolTableRecord
100
AcDbTextStyleTableRecord
  2

 70
     1
 40
0.0
 41
1.0
 50
0.0
 71
     0
 42
2.5
  3
ltypeshp.shx
  4

  0
STYLE
  5
6A5E
330
6A19
100
AcDbSymbolTableRecord
100
AcDbTextStyleTableRecord
  2
ACANSTS
 70
     0
 40
1.0
 41
1.0
 50
0.0
 71
     0
 42
0.2
  3
romans.shx
  4

  0
STYLE
  5
6A5F
330
6A19
100
AcDbSymbolTableRecord
100
AcDbTextStyleTableRecord
  2
ACANSGDT
 70
     0
 40
0.0
 41
1.0
 50
0.0
 71
     0
 42
0.2
  3
amgdtans.shx
  4

  0
STYLE
  5
6D9A
330
6A19
100
AcDbSymbolTableRecord
100
AcDbTextStyleTableRecord
  2
ACDINTS
 70
     0
 40
1.0
 41
1.0
 50
0.0
 71
     0
 42
2.5
  3
isocp.shx
  4

  0
STYLE
  5
6D9B
330
6A19
100
AcDbSymbolTableRecord
100
AcDbTextStyleTableRecord
  2
ACDINGDT
 70
     0
 40
0.0
 41
1.0
 50
0.0
 71
     0
 42
2.5
  3
amgdt.shx
  4

  0
ENDTAB
  0
TABLE
  2
VIEW
  5
6A1C
330
0
100
AcDbSymbolTable
 70
     6
  0
VIEW
  5
6A60
330
6A1C
100
AcDbSymbolTableRecord
100
AcDbViewTableRecord
  2
AM_VIEW1
 70
     0
 40
148.5
 10
131.508173076923
 20
222.75
 41
263.016346153846
 11
0.0
 21
0.0
 31
1.0
 12
0.0
 22
0.0
 32
0.0
 42
50.0
 43
0.0
 44
0.0
 50
0.0
 71
    16
281
     0
 72
     0
  0
VIEW
  5
6A61
330
6A1C
100
AcDbSymbolTableRecord
100
AcDbViewTableRecord
  2
AM_VIEW2
 70
     0
 40
148.5
 10
78.4918269230769
 20
222.75
 41
263.016346153846
 11
0.0
 21
0.0
 31
1.0
 12
0.0
 22
0.0
 32
0.0
 42
50.0
 43
0.0
 44
0.0
 50
0.0
 71
    16
281
     0
 72
     0
  0
VIEW
  5
6A62
330
6A1C
100
AcDbSymbolTableRecord
100
AcDbViewTableRecord
  2
AM_VIEW3
 70
     0
 40
148.5
 10
131.508173076923
 20
74.25
 41
263.016346153846
 11
0.0
 21
0.0
 31
1.0
 12
0.0
 22
0.0
 32
0.0
 42
50.0
 43
0.0
 44
0.0
 50
0.0
 71
    16
281
     0
 72
     0
  0
VIEW
  5
6A63
330
6A1C
100
AcDbSymbolTableRecord
100
AcDbViewTableRecord
  2
AM_VIEW4
 70
     0
 40
148.5
 10
78.4918269230769
 20
74.25
 41
263.016346153846
 11
0.0
 21
0.0
 31
1.0
 12
0.0
 22
0.0
 32
0.0
 42
50.0
 43
0.0
 44
0.0
 50
0.0
 71
    16
281
     0
 72
     0
  0
VIEW
  5
6A64
330
6A1C
100
AcDbSymbolTableRecord
100
AcDbViewTableRecord
  2
AM_VIEW5
 70
     0
 40
148.5
 10
105.0
 20
148.5
 41
263.016346153846
 11
0.0
 21
0.0
 31
1.0
 12
0.0
 22
0.0
 32
0.0
 42
50.0
 43
0.0
 44
0.0
 50
0.0
 71
    16
281
     0
 72
     0
  0
VIEW
  5
6A65
330
6A1C
100
AcDbSymbolTableRecord
100
AcDbViewTableRecord
  2
AM_VIEW6
 70
     0
 40
296.9970299999999
 10
105.0
 20
148.5
 41
526.0274319807693
 11
0.0
 21
0.0
 31
1.0
 12
0.0
 22
0.0
 32
0.0
 42
50.0
 43
0.0
 44
0.0
 50
0.0
 71
    16
281
     0
 72
     0
  0
ENDTAB
  0
TABLE
  2
UCS
  5
6A1D
330
0
100
AcDbSymbolTable
 70
     0
  0
ENDTAB
  0
TABLE
  2
APPID
  5
6A1F
330
0
100
AcDbSymbolTable
 70
    44
  0
APPID
  5
6A28
330
6A1F
100
AcDbSymbolTableRecord
100
AcDbRegAppTableRecord
  2
ACAD
 70
     0
  0
APPID
  5
6A66
330
6A1F
100
AcDbSymbolTableRecord
100
AcDbRegAppTableRecord
  2
MCAD_NO_VIS
 70
     0
  0
APPID
  5
6A67
330
6A1F
100
AcDbSymbolTableRecord
100
AcDbRegAppTableRecord
  2
ACAD_TEMP_GRAPHIC
 70
     0
  0
APPID
  5
6A68
330
6A1F
100
AcDbSymbolTableRecord
100
AcDbRegAppTableRecord
  2
ACATTRIBSERVICES
 70
     0
  0
APPID
  5
6A69
330
6A1F
100
AcDbSymbolTableRecord
100
AcDbRegAppTableRecord
  2
GENIUS_GENDIMSH_14
 70
     0
  0
APPID
  5
6A6A
330
6A1F
100
AcDbSymbolTableRecord
100
AcDbRegAppTableRecord
  2
GENIUS_GENBLLY_14
 70
     0
  0
APPID
  5
6A6B
330
6A1F
100
AcDbSymbolTableRecord
100
AcDbRegAppTableRecord
  2
GENIUS_GENTRA_14
 70
     0
  0
APPID
  5
6A6C
330
6A1F
100
AcDbSymbolTableRecord
100
AcDbRegAppTableRecord
  2
GENIUS_GENODEF_13
 70
     0
  0
APPID
  5
6A6D
330
6A1F
100
AcDbSymbolTableRecord
100
AcDbRegAppTableRecord
  2
GENIUS_GENOLIS_13
 70
     0
  0
APPID
  5
6A6E
330
6A1F
100
AcDbSymbolTableRecord
100
AcDbRegAppTableRecord
  2
GENIUS_GENOENT_13
 70
     0
  0
APPID
  5
6A6F
330
6A1F
100
AcDbSymbolTableRecord
100
AcDbRegAppTableRecord
  2
GENIUS_GENOBJ-N-TIT_13
 70
     0
  0
APPID
  5
6A70
330
6A1F
100
AcDbSymbolTableRecord
100
AcDbRegAppTableRecord
  2
GENIUS_GENTITLE_13
 70
     0
  0
APPID
  5
6A71
330
6A1F
100
AcDbSymbolTableRecord
100
AcDbRegAppTableRecord
  2
GENIUS_GENOREF_13
 70
     0
  0
APPID
  5
6A72
330
6A1F
100
AcDbSymbolTableRecord
100
AcDbRegAppTableRecord
  2
GENIUS_GENSCREG_15
 70
     0
  0
APPID
  5
6A73
330
6A1F
100
AcDbSymbolTableRecord
100
AcDbRegAppTableRecord
  2
GENIUS_GENOBJ-N-SDF_13
 70
     0
  0
APPID
  5
6A74
330
6A1F
100
AcDbSymbolTableRecord
100
AcDbRegAppTableRecord
  2
ACADIGES
 70
     0
  0
APPID
  5
6A75
330
6A1F
100
AcDbSymbolTableRecord
100
AcDbRegAppTableRecord
  2
GENIUS_GENOBJ-N-HTC_13
 70
     0
  0
APPID
  5
6A76
330
6A1F
100
AcDbSymbolTableRecord
100
AcDbRegAppTableRecord
  2
GENIUS_GENHATCH_13
 70
     0
  0
APPID
  5
6DA2
330
6A1F
100
AcDbSymbolTableRecord
100
AcDbRegAppTableRecord
  2
GENIUS_GENOBJ-N-CRS_13
 70
     0
  0
APPID
  5
6DA3
330
6A1F
100
AcDbSymbolTableRecord
100
AcDbRegAppTableRecord
  2
GENIUS_GENOBJ-N-FIL_13
 70
     0
  0
APPID
  5
6DD2
330
6A1F
100
AcDbSymbolTableRecord
100
AcDbRegAppTableRecord
  2
GENIUS_GENFIL_13
 70
     0
  0
APPID
  5
6DD3
330
6A1F
100
AcDbSymbolTableRecord
100
AcDbRegAppTableRecord
  2
GENIUS_GENOBJ-N-CHA_13
 70
     0
  0
APPID
  5
7FA8
330
6A1F
100
AcDbSymbolTableRecord
100
AcDbRegAppTableRecord
  2
GENIUS12
 70
     0
  0
APPID
  5
7FA9
330
6A1F
100
AcDbSymbolTableRecord
100
AcDbRegAppTableRecord
  2
GENIUS_GENCFG_13
 70
     0
  0
APPID
  5
7FAA
330
6A1F
100
AcDbSymbolTableRecord
100
AcDbRegAppTableRecord
  2
GENIUS_GEFCFG0_13
 70
     0
  0
APPID
  5
7FAB
330
6A1F
100
AcDbSymbolTableRecord
100
AcDbRegAppTableRecord
  2
GENIUS_GENCFG0_13
 70
     0
  0
APPID
  5
7FAC
330
6A1F
100
AcDbSymbolTableRecord
100
AcDbRegAppTableRecord
  2
GENIUS_GENCFG1_13
 70
     0
  0
APPID
  5
7FAD
330
6A1F
100
AcDbSymbolTableRecord
100
AcDbRegAppTableRecord
  2
GENIUS_GENCFG2_13
 70
     0
  0
APPID
  5
7FAE
330
6A1F
100
AcDbSymbolTableRecord
100
AcDbRegAppTableRecord
  2
GENIUS_GENCFG3_13
 70
     0
  0
APPID
  5
7FAF
330
6A1F
100
AcDbSymbolTableRecord
100
AcDbRegAppTableRecord
  2
GENIUS_GENCFG4_13
 70
     0
  0
APPID
  5
7FB0
330
6A1F
100
AcDbSymbolTableRecord
100
AcDbRegAppTableRecord
  2
GENIUS_GEVCFG0_13
 70
     0
  0
APPID
  5
7FB1
330
6A1F
100
AcDbSymbolTableRecord
100
AcDbRegAppTableRecord
  2
GENIUS_GENOBJ-F-SUF_13
 70
     0
  0
APPID
  5
7FB2
330
6A1F
100
AcDbSymbolTableRecord
100
AcDbRegAppTableRecord
  2
GENIUS_GENDIM_13
 70
     0
  0
APPID
  5
7FB3
330
6A1F
100
AcDbSymbolTableRecord
100
AcDbRegAppTableRecord
  2
GENIUS_GENDTOL_13
 70
     0
  0
APPID
  5
7FB4
330
6A1F
100
AcDbSymbolTableRecord
100
AcDbRegAppTableRecord
  2
GENIUS_GE3DTOL_13
 70
     0
  0
APPID
  5
7FB5
330
6A1F
100
AcDbSymbolTableRecord
100
AcDbRegAppTableRecord
  2
AD_DRAW
 70
     0
  0
APPID
  5
7FB6
330
6A1F
100
AcDbSymbolTableRecord
100
AcDbRegAppTableRecord
  2
ASURF_PCURVE_APPNAME
 70
     0
  0
APPID
  5
7FB7
330
6A1F
100
AcDbSymbolTableRecord
100
AcDbRegAppTableRecord
  2
AMG_3D2D_5.0
 70
     0
  0
APPID
  5
7FB8
330
6A1F
100
AcDbSymbolTableRecord
100
AcDbRegAppTableRecord
  2
DESIGNERASSEMBLIES
 70
     0
  0
APPID
  5
7FB9
330
6A1F
100
AcDbSymbolTableRecord
100
AcDbRegAppTableRecord
  2
ACADM_DIM_EDIT
 70
     0
  0
APPID
  5
7FBA
330
6A1F
100
AcDbSymbolTableRecord
100
AcDbRegAppTableRecord
  2
AMDT_DM_ADJ
 70
     0
  0
APPID
  5
85F3
330
6A1F
100
AcDbSymbolTableRecord
100
AcDbRegAppTableRecord
  2
GENIUS_GENOBJ-N-CEN_13
 70
     0
  0
APPID
  5
89F7
330
6A1F
100
AcDbSymbolTableRecord
100
AcDbRegAppTableRecord
  2
DCO15
 70
     0
  0
APPID
  5
904A
330
6A1F
100
AcDbSymbolTableRecord
100
AcDbRegAppTableRecord
  2
GEV_VCCNULL_SWITCH_OFF
 70
     0
  0
ENDTAB
  0
TABLE
  2
DIMSTYLE
  5
6A20
330
0
100
AcDbSymbolTable
 70
    14
100
AcDbDimStyleTable
 71
     2
340
6A77
340
6A7F
  0
DIMSTYLE
105
6A77
102
{ACAD_REACTORS
330
92F8
330
9352
330
93E3
330
950F
102
}
330
6A20
100
AcDbSymbolTableRecord
100
AcDbDimStyleTableRecord
  2
AM_DIN
 70
     0
  4
"
 41
2.5
 42
0.0
 43
10.0
 44
1.0
 47
0.1
 48
0.1
 73
     0
 74
     0
 77
     1
 78
     8
140
3.5
141
0.0
143
0.0393701
146
0.71
147
1.5
172
     1
176
   256
177
   256
178
     2
271
     2
272
     2
279
     2
284
     8
285
     8
286
     8
340
6A27
  0
DIMSTYLE
105
6A7E
330
6A20
100
AcDbSymbolTableRecord
100
AcDbDimStyleTableRecord
  2
STANDARD
 70
     0
271
     2
272
     2
279
     2
284
     8
285
     8
286
     8
340
6A27
  0
DIMSTYLE
105
6A7F
102
{ACAD_REACTORS
330
819A
330
92C1
102
}
330
6A20
100
AcDbSymbolTableRecord
100
AcDbDimStyleTableRecord
  2
AM_ANSI
 70
     0
  4
mm
 41
0.1
 42
0.05
 43
0.5
 44
0.1
 47
0.1
 48
0.1
 78
     7
140
0.12
141
0.0
146
0.71
147
0.06
176
   256
177
   256
178
     2
271
     2
272
     2
279
     2
284
     8
285
     8
286
     8
340
6A27
  0
DIMSTYLE
105
6A80
330
6A20
100
AcDbSymbolTableRecord
100
AcDbDimStyleTableRecord
  2
AM_ANSI$3
 70
     0
  4
mm
 41
0.1
 42
0.05
 43
0.5
 44
0.1
 47
0.1
 48
0.1
 78
     7
140
0.12
141
0.0
146
0.71
147
0.06
176
   256
177
   256
178
     2
271
     2
272
     2
279
     2
284
     8
285
     8
286
     8
340
6A27
  0
DIMSTYLE
105
6A81
330
6A20
100
AcDbSymbolTableRecord
100
AcDbDimStyleTableRecord
  2
AM_ANSI$4
 70
     0
  4
mm
 41
0.1
 42
0.05
 43
0.5
 44
0.1
 47
0.1
 48
0.1
 78
     7
140
0.12
141
0.0
146
0.71
147
0.06
176
   256
177
   256
178
     2
271
     2
272
     2
279
     2
284
     8
285
     8
286
     8
340
6A27
  0
DIMSTYLE
105
6A82
330
6A20
100
AcDbSymbolTableRecord
100
AcDbDimStyleTableRecord
  2
AM_ANSI$7
 70
     0
  4
mm
 41
0.1
 42
0.05
 43
0.5
 44
0.1
 47
0.1
 48
0.1
 78
     7
140
0.24
141
0.0
146
0.71
147
0.06
176
   256
177
   256
178
     2
271
     2
272
     2
279
     2
284
     8
285
     8
286
     8
340
6A27
  0
DIMSTYLE
105
6A83
330
6A20
100
AcDbSymbolTableRecord
100
AcDbDimStyleTableRecord
  2
AM_ANSI$SF
 70
     0
  4
mm
 41
0.1
 42
0.05
 43
0.5
 44
0.1
 47
0.1
 48
0.1
 75
     1
 76
     1
 78
     7
140
0.12
141
0.0
146
0.71
147
0.06
176
   256
177
   256
178
     2
271
     2
272
     2
279
     2
284
     8
285
     8
286
     8
340
6A27
  0
DIMSTYLE
105
6A84
330
6A20
100
AcDbSymbolTableRecord
100
AcDbDimStyleTableRecord
  2
AM_ANSI$SH
 70
     0
  4
mm
 41
0.1
 42
0.05
 43
0.5
 44
0.1
 47
0.1
 48
0.1
 75
     1
 76
     1
 78
     7
140
0.12
141
0.0
146
0.71
147
0.06
173
     1
176
   256
177
   256
178
     2
271
     2
272
     2
279
     2
284
     8
285
     8
286
     8
340
6A27
  0
DIMSTYLE
105
6D9C
330
6A20
100
AcDbSymbolTableRecord
100
AcDbDimStyleTableRecord
  2
AM_DIN$3
 70
     0
  4
"
 41
3.5
 42
0.0
 43
10.0
 44
1.0
 47
0.1
 48
0.1
 73
     0
 77
     1
 78
     8
 79
     2
140
3.5
141
0.0
143
0.0393701
146
0.71
147
1.5
176
   256
177
   256
178
     2
271
     2
272
     2
283
     0
284
     8
288
     1
289
     0
340
6A27
371
    -1
372
    -1
  0
DIMSTYLE
105
6D9D
330
6A20
100
AcDbSymbolTableRecord
100
AcDbDimStyleTableRecord
  2
AM_DIN$4
 70
     0
  4
"
 41
3.5
 42
0.0
 43
10.0
 44
1.0
 47
0.1
 48
0.1
 73
     0
 77
     1
 78
     8
 79
     2
140
3.5
141
0.0
143
0.0393701
146
0.71
147
1.5
176
   256
177
   256
178
     2
271
     2
272
     2
283
     0
284
     8
288
     1
289
     0
340
6A27
371
    -1
372
    -1
  0
DIMSTYLE
105
6D9E
330
6A20
100
AcDbSymbolTableRecord
100
AcDbDimStyleTableRecord
  2
AM_DIN$6
 70
     0
  4
"
 41
3.5
 42
0.0
 43
0.0
 44
1.0
 47
0.1
 48
0.1
 73
     0
 74
     0
 78
     8
 79
     2
140
3.5
141
0.0
143
0.0393701
146
0.71
147
1.5
172
     1
176
   256
177
   256
178
     2
271
     2
272
     2
283
     0
284
     8
340
6A27
371
    -1
372
    -1
  0
DIMSTYLE
105
6D9F
330
6A20
100
AcDbSymbolTableRecord
100
AcDbDimStyleTableRecord
  2
AM_DIN$7
 70
     0
  4
"
 41
3.5
 42
0.0
 43
10.0
 44
1.0
 47
0.1
 48
0.1
 73
     0
 74
     0
 77
     1
 78
     8
 79
     2
140
3.5
141
0.0
143
0.0393701
146
0.71
147
1.5
172
     1
176
   256
177
   256
178
     2
271
     2
272
     2
283
     0
284
     8
340
6A27
371
    -1
372
    -1
  0
DIMSTYLE
105
6DA0
330
6A20
100
AcDbSymbolTableRecord
100
AcDbDimStyleTableRecord
  2
AM_DIN$SF
 70
     0
  4
"
 41
2.5
 42
1.0
 43
10.0
 44
1.0
 47
0.1
 48
0.1
 73
     0
 74
     0
 75
     1
 76
     1
 77
     1
 78
     8
 79
     2
140
3.5
141
0.0
143
0.0393701
146
0.71
147
1.5
172
     1
176
   256
177
   256
178
     2
271
     2
272
     3
274
     4
283
     0
284
     8
340
6A27
371
    -1
372
    -1
  0
DIMSTYLE
105
6DA1
330
6A20
100
AcDbSymbolTableRecord
100
AcDbDimStyleTableRecord
  2
AM_DIN$SH
 70
     0
  4
"
 41
2.5
 42
1.0
 43
10.0
 44
1.0
 47
0.1
 48
0.1
 73
     0
 74
     0
 75
     1
 76
     1
 77
     1
 78
     8
 79
     2
140
3.5
141
0.0
143
0.0393701
144
2.0
146
0.71
147
1.5
172
     1
173
     1
176
   256
177
   256
178
     2
271
     2
272
     3
274
     4
283
     0
284
     8
340
6A27
343
6D93
371
    -1
372
    -1
  0
ENDTAB
  0
TABLE
  2
BLOCK_RECORD
  5
6A17
330
0
100
AcDbSymbolTable
 70
     7
  0
BLOCK_RECORD
  5
6A34
102
{ACAD_XDICTIONARY
360
6B62
102
}
330
6A17
100
AcDbSymbolTableRecord
100
AcDbBlockTableRecord
  2
*Model_Space
340
6A37
  0
BLOCK_RECORD
  5
6A30
330
6A17
100
AcDbSymbolTableRecord
100
AcDbBlockTableRecord
  2
*Paper_Space
340
6A33
  0
BLOCK_RECORD
  5
6D93
330
6A17
100
AcDbSymbolTableRecord
100
AcDbBlockTableRecord
  2
GENAXEH
340
0
  0
BLOCK_RECORD
  5
819B
330
6A17
100
AcDbSymbolTableRecord
100
AcDbBlockTableRecord
  2
*D1
340
0
  0
BLOCK_RECORD
  5
92CF
330
6A17
100
AcDbSymbolTableRecord
100
AcDbBlockTableRecord
  2
*D2
340
0
  0
BLOCK_RECORD
  5
92F9
330
6A17
100
AcDbSymbolTableRecord
100
AcDbBlockTableRecord
  2
*D3
340
0
  0
BLOCK_RECORD
  5
9353
330
6A17
100
AcDbSymbolTableRecord
100
AcDbBlockTableRecord
  2
*D4
340
0
  0
BLOCK_RECORD
  5
93E4
330
6A17
100
AcDbSymbolTableRecord
100
AcDbBlockTableRecord
  2
*D5
340
0
  0
BLOCK_RECORD
  5
9510
330
6A17
100
AcDbSymbolTableRecord
100
AcDbBlockTableRecord
  2
*D6
340
0
  0
ENDTAB
  0
ENDSEC
  0
SECTION
  2
BLOCKS
  0
BLOCK
  5
6A35
330
6A34
100
AcDbEntity
  8
0
100
AcDbBlockBegin
  2
*Model_Space
 70
     0
 10
0.0
 20
0.0
 30
0.0
  3
*Model_Space
  1

  0
ENDBLK
  5
6A36
330
6A34
100
AcDbEntity
  8
0
100
AcDbBlockEnd
  0
BLOCK
  5
6A31
330
6A30
100
AcDbEntity
 67
     1
  8
0
100
AcDbBlockBegin
  2
*Paper_Space
 70
     0
 10
0.0
 20
0.0
 30
0.0
  3
*Paper_Space
  1

  0
ENDBLK
  5
6A32
330
6A30
100
AcDbEntity
 67
     1
  8
0
100
AcDbBlockEnd
  0
BLOCK
  5
6D95
330
6D93
100
AcDbEntity
  8
0
100
AcDbBlockBegin
  2
GENAXEH
 70
     0
 10
0.0
 20
0.0
 30
0.0
  3
GENAXEH
  1

  0
LINE
  5
6D94
330
6D93
100
AcDbEntity
  8
0
100
AcDbLine
 10
-1.0
 20
0.0
 30
0.0
 11
1.0
 21
0.0
 31
0.0
  0
ENDBLK
  5
6D96
330
6D93
100
AcDbEntity
  8
0
100
AcDbBlockEnd
  0
BLOCK
  5
81A6
330
819B
100
AcDbEntity
  8
0
100
AcDbBlockBegin
  2
*D1
 70
     1
 10
0.0
 20
0.0
 30
0.0
  3
*D1
  1

  0
LINE
  5
95B4
330
819B
100
AcDbEntity
  8
2
370
    -2
100
AcDbLine
 10
35.00000000000007
 20
9.500000000000582
 30
0.0
 11
58.00000000000006
 21
9.500000000000575
 31
0.0
  0
LINE
  5
95B5
330
819B
100
AcDbEntity
  8
2
370
    -2
100
AcDbLine
 10
35.00000000000007
 20
-9.499999999999415
 30
0.0
 11
58.00000000000006
 21
-9.499999999999422
 31
0.0
  0
LINE
  5
95B6
330
819B
100
AcDbEntity
  8
2
370
    -2
100
AcDbLine
 10
57.00000000000006
 20
7.000000000000575
 30
0.0
 11
57.00000000000006
 21
-6.999999999999422
 31
0.0
  0
MTEXT
  5
95B7
330
819B
100
AcDbEntity
  8
2
 62
     2
100
AcDbMText
 10
54.3226046362782
 20
0.5346872823734749
 30
0.0
 40
3.5
 41
0.0
 71
     5
 72
     1
  1
\A1;%%c19
 11
0.0000000000000001
 21
1.0
 31
0.0
 73
     1
 44
1.0
  0
SOLID
  5
95B8
330
819B
100
AcDbEntity
  8
2
100
AcDbTrace
 10
56.5833333333334
 20
7.000000000000575
 30
0.0
 11
57.41666666666673
 21
7.000000000000575
 31
0.0
 12
57.00000000000006
 22
9.500000000000575
 32
0.0
 13
57.00000000000006
 23
9.500000000000575
 33
0.0
  0
SOLID
  5
95B9
330
819B
100
AcDbEntity
  8
2
100
AcDbTrace
 10
56.5833333333334
 20
-6.999999999999422
 30
0.0
 11
57.41666666666673
 21
-6.999999999999422
 31
0.0
 12
57.00000000000006
 22
-9.499999999999422
 32
0.0
 13
57.00000000000006
 23
-9.499999999999422
 33
0.0
  0
POINT
  5
95BA
330
819B
100
AcDbEntity
  8
DEFPOINTS
 62
     0
100
AcDbPoint
 10
35.00000000000007
 20
9.500000000000582
 30
0.0
  0
POINT
  5
95BB
330
819B
100
AcDbEntity
  8
DEFPOINTS
 62
     0
100
AcDbPoint
 10
35.00000000000007
 20
-9.499999999999415
 30
0.0
  0
POINT
  5
95BC
330
819B
100
AcDbEntity
  8
DEFPOINTS
 62
     0
100
AcDbPoint
 10
57.00000000000006
 20
-9.499999999999422
 30
0.0
  0
ENDBLK
  5
81A7
330
819B
100
AcDbEntity
  8
0
100
AcDbBlockEnd
  0
BLOCK
  5
92D9
330
92CF
100
AcDbEntity
  8
0
100
AcDbBlockBegin
  2
*D2
 70
     1
 10
0.0
 20
0.0
 30
0.0
  3
*D2
  1

  0
LINE
  5
9590
330
92CF
100
AcDbEntity
  8
SK2
370
    -2
100
AcDbLine
 10
-48.99999999999992
 20
10.0000000000005
 30
0.0
 11
-64.15656024157195
 21
10.00000000000051
 31
0.0
  0
LINE
  5
9591
330
92CF
100
AcDbEntity
  8
SK2
370
    -2
100
AcDbLine
 10
-48.99999999999992
 20
-9.999999999999436
 30
0.0
 11
-64.15656024157195
 21
-9.999999999999431
 31
0.0
  0
LINE
  5
9592
330
92CF
100
AcDbEntity
  8
SK2
370
    -2
100
AcDbLine
 10
-63.15656024157195
 20
7.500000000000509
 30
0.0
 11
-63.15656024157195
 21
-7.499999999999433
 31
0.0
  0
MTEXT
  5
9593
330
92CF
100
AcDbEntity
  8
SK2
 62
     2
100
AcDbMText
 10
-65.68475933784457
 20
-0.4169954159585876
 30
0.0
 40
3.5
 41
0.0
 71
     5
 72
     1
  1
\A1;%%c20
 11
0.0000000000000001
 21
1.0
 31
0.0
 73
     1
 44
1.0
  0
SOLID
  5
9594
330
92CF
100
AcDbEntity
  8
SK2
100
AcDbTrace
 10
-63.57322690823862
 20
7.500000000000509
 30
0.0
 11
-62.73989357490529
 21
7.500000000000509
 31
0.0
 12
-63.15656024157195
 22
10.00000000000051
 32
0.0
 13
-63.15656024157195
 23
10.00000000000051
 33
0.0
  0
SOLID
  5
9595
330
92CF
100
AcDbEntity
  8
SK2
100
AcDbTrace
 10
-63.57322690823862
 20
-7.499999999999433
 30
0.0
 11
-62.73989357490529
 21
-7.499999999999433
 31
0.0
 12
-63.15656024157195
 22
-9.999999999999433
 32
0.0
 13
-63.15656024157195
 23
-9.999999999999433
 33
0.0
  0
POINT
  5
9596
330
92CF
100
AcDbEntity
  8
DEFPOINTS
 62
     0
100
AcDbPoint
 10
-48.99999999999992
 20
10.0000000000005
 30
0.0
  0
POINT
  5
9597
330
92CF
100
AcDbEntity
  8
DEFPOINTS
 62
     0
100
AcDbPoint
 10
-48.99999999999992
 20
-9.999999999999436
 30
0.0
  0
POINT
  5
9598
330
92CF
100
AcDbEntity
  8
DEFPOINTS
 62
     0
100
AcDbPoint
 10
-63.15656024157195
 20
-9.999999999999433
 30
0.0
  0
ENDBLK
  5
92DA
330
92CF
100
AcDbEntity
  8
0
100
AcDbBlockEnd
  0
BLOCK
  5
9303
330
92F9
100
AcDbEntity
  8
0
100
AcDbBlockBegin
  2
*D3
 70
     1
 10
0.0
 20
0.0
 30
0.0
  3
*D3
  1

  0
LINE
  5
9587
330
92F9
100
AcDbEntity
  8
SK2
370
    -2
100
AcDbLine
 10
-49.99999999999992
 20
-8.999999999999436
 30
0.0
 11
-49.99999999999992
 21
-31.42979297806263
 31
0.0
  0
LINE
  5
9588
330
92F9
100
AcDbEntity
  8
SK2
370
    -2
100
AcDbLine
 10
35.00000000000007
 20
-9.499999999999415
 30
0.0
 11
35.00000000000007
 21
-31.42979297806263
 31
0.0
  0
LINE
  5
9589
330
92F9
100
AcDbEntity
  8
SK2
370
    -2
100
AcDbLine
 10
-47.49999999999992
 20
-30.42979297806263
 30
0.0
 11
32.50000000000007
 21
-30.42979297806263
 31
0.0
  0
SOLID
  5
958A
330
92F9
100
AcDbEntity
  8
SK2
100
AcDbTrace
 10
-47.49999999999992
 20
-30.01312631139597
 30
0.0
 11
-47.49999999999992
 21
-30.8464596447293
 31
0.0
 12
-49.99999999999992
 22
-30.42979297806263
 32
0.0
 13
-49.99999999999992
 23
-30.42979297806263
 33
0.0
  0
SOLID
  5
958B
330
92F9
100
AcDbEntity
  8
SK2
100
AcDbTrace
 10
32.50000000000007
 20
-30.01312631139597
 30
0.0
 11
32.50000000000007
 21
-30.8464596447293
 31
0.0
 12
35.00000000000007
 22
-30.42979297806263
 32
0.0
 13
35.00000000000007
 23
-30.42979297806263
 33
0.0
  0
MTEXT
  5
958C
330
92F9
100
AcDbEntity
  8
SK2
 62
     2
100
AcDbMText
 10
-7.499999999999925
 20
-27.17979297806263
 30
0.0
 40
3.5
 41
0.0
 71
     5
 72
     1
  1
\A1;85
 73
     1
 44
1.0
  0
POINT
  5
958D
330
92F9
100
AcDbEntity
  8
DEFPOINTS
 62
     0
100
AcDbPoint
 10
-49.99999999999992
 20
-8.999999999999436
 30
0.0
  0
POINT
  5
958E
330
92F9
100
AcDbEntity
  8
DEFPOINTS
 62
     0
100
AcDbPoint
 10
35.00000000000007
 20
-9.499999999999415
 30
0.0
  0
POINT
  5
958F
330
92F9
100
AcDbEntity
  8
DEFPOINTS
 62
     0
100
AcDbPoint
 10
35.00000000000007
 20
-30.42979297806263
 30
0.0
  0
ENDBLK
  5
9304
330
92F9
100
AcDbEntity
  8
0
100
AcDbBlockEnd
  0
BLOCK
  5
935D
330
9353
100
AcDbEntity
  8
0
100
AcDbBlockBegin
  2
*D4
 70
     1
 10
0.0
 20
0.0
 30
0.0
  3
*D4
  1

  0
LINE
  5
95AB
330
9353
100
AcDbEntity
  8
2
370
    -2
100
AcDbLine
 10
35.00000000000007
 20
9.500000000000582
 30
0.0
 11
35.00000000000007
 21
61.00000000000072
 31
0.0
  0
LINE
  5
95AC
330
9353
100
AcDbEntity
  8
2
370
    -2
100
AcDbLine
 10
2.999999999999926
 20
10.00000000000047
 30
0.0
 11
2.999999999999929
 21
61.00000000000072
 31
0.0
  0
LINE
  5
95AD
330
9353
100
AcDbEntity
  8
2
370
    -2
100
AcDbLine
 10
32.50000000000007
 20
60.00000000000072
 30
0.0
 11
5.499999999999928
 21
60.00000000000072
 31
0.0
  0
SOLID
  5
95AE
330
9353
100
AcDbEntity
  8
2
100
AcDbTrace
 10
32.50000000000007
 20
60.41666666666738
 30
0.0
 11
32.50000000000007
 21
59.58333333333406
 31
0.0
 12
35.00000000000007
 22
60.00000000000072
 32
0.0
 13
35.00000000000007
 23
60.00000000000072
 33
0.0
  0
SOLID
  5
95AF
330
9353
100
AcDbEntity
  8
2
100
AcDbTrace
 10
5.499999999999928
 20
60.41666666666738
 30
0.0
 11
5.499999999999928
 21
59.58333333333406
 31
0.0
 12
2.999999999999929
 22
60.00000000000072
 32
0.0
 13
2.999999999999929
 23
60.00000000000072
 33
0.0
  0
MTEXT
  5
95B0
330
9353
100
AcDbEntity
  8
2
 62
     2
100
AcDbMText
 10
19.0
 20
63.2503444881897
 30
0.0
 40
3.5
 41
0.0
 71
     5
 72
     1
  1
\A1;32
 73
     1
 44
1.0
  0
POINT
  5
95B1
330
9353
100
AcDbEntity
  8
DEFPOINTS
 62
     0
100
AcDbPoint
 10
35.00000000000007
 20
9.500000000000582
 30
0.0
  0
POINT
  5
95B2
330
9353
100
AcDbEntity
  8
DEFPOINTS
 62
     0
100
AcDbPoint
 10
2.999999999999926
 20
10.00000000000047
 30
0.0
  0
POINT
  5
95B3
330
9353
100
AcDbEntity
  8
DEFPOINTS
 62
     0
100
AcDbPoint
 10
2.999999999999929
 20
60.00000000000072
 30
0.0
  0
ENDBLK
  5
935E
330
9353
100
AcDbEntity
  8
0
100
AcDbBlockEnd
  0
BLOCK
  5
93EE
330
93E4
100
AcDbEntity
  8
0
100
AcDbBlockBegin
  2
*D5
 70
     1
 10
0.0
 20
0.0
 30
0.0
  3
*D5
  1

  0
LINE
  5
95A2
330
93E4
100
AcDbEntity
  8
2
370
    -2
100
AcDbLine
 10
13.00000000000007
 20
9.892311307062216
 30
0.0
 11
13.00000000000007
 21
46.00000000000073
 31
0.0
  0
LINE
  5
95A3
330
93E4
100
AcDbEntity
  8
2
370
    -2
100
AcDbLine
 10
35.00000000000007
 20
9.500000000000582
 30
0.0
 11
35.00000000000007
 21
46.00000000000073
 31
0.0
  0
LINE
  5
95A4
330
93E4
100
AcDbEntity
  8
2
370
    -2
100
AcDbLine
 10
15.50000000000007
 20
45.00000000000073
 30
0.0
 11
32.50000000000007
 21
45.00000000000073
 31
0.0
  0
SOLID
  5
95A5
330
93E4
100
AcDbEntity
  8
2
100
AcDbTrace
 10
15.50000000000007
 20
45.41666666666739
 30
0.0
 11
15.50000000000007
 21
44.58333333333406
 31
0.0
 12
13.00000000000007
 22
45.00000000000073
 32
0.0
 13
13.00000000000007
 23
45.00000000000073
 33
0.0
  0
SOLID
  5
95A6
330
93E4
100
AcDbEntity
  8
2
100
AcDbTrace
 10
32.50000000000007
 20
45.41666666666739
 30
0.0
 11
32.50000000000007
 21
44.58333333333406
 31
0.0
 12
35.00000000000007
 22
45.00000000000073
 32
0.0
 13
35.00000000000007
 23
45.00000000000073
 33
0.0
  0
MTEXT
  5
95A7
330
93E4
100
AcDbEntity
  8
2
 62
     2
100
AcDbMText
 10
24.00000000000007
 20
48.25034448818971
 30
0.0
 40
3.5
 41
0.0
 71
     5
 72
     1
  1
\A1;22
 73
     1
 44
1.0
  0
POINT
  5
95A8
330
93E4
100
AcDbEntity
  8
DEFPOINTS
 62
     0
100
AcDbPoint
 10
13.00000000000007
 20
9.892311307062216
 30
0.0
  0
POINT
  5
95A9
330
93E4
100
AcDbEntity
  8
DEFPOINTS
 62
     0
100
AcDbPoint
 10
35.00000000000007
 20
9.500000000000582
 30
0.0
  0
POINT
  5
95AA
330
93E4
100
AcDbEntity
  8
DEFPOINTS
 62
     0
100
AcDbPoint
 10
35.00000000000007
 20
45.00000000000073
 30
0.0
  0
ENDBLK
  5
93EF
330
93E4
100
AcDbEntity
  8
0
100
AcDbBlockEnd
  0
BLOCK
  5
951A
330
9510
100
AcDbEntity
  8
0
100
AcDbBlockBegin
  2
*D6
 70
     1
 10
0.0
 20
0.0
 30
0.0
  3
*D6
  1

  0
LINE
  5
9599
330
9510
100
AcDbEntity
  8
2
370
    -2
100
AcDbLine
 10
-0.0000000000003793
 20
0.0000000000002682
 30
0.0
 11
-0.0000000000003746
 21
76.00000000000074
 31
0.0
  0
LINE
  5
959A
330
9510
100
AcDbEntity
  8
2
370
    -2
100
AcDbLine
 10
35.00000000000007
 20
9.500000000000582
 30
0.0
 11
35.00000000000007
 21
76.00000000000074
 31
0.0
  0
LINE
  5
959B
330
9510
100
AcDbEntity
  8
2
370
    -2
100
AcDbLine
 10
2.499999999999625
 20
75.00000000000074
 30
0.0
 11
32.50000000000007
 21
75.00000000000074
 31
0.0
  0
SOLID
  5
959C
330
9510
100
AcDbEntity
  8
2
100
AcDbTrace
 10
2.499999999999625
 20
75.41666666666741
 30
0.0
 11
2.499999999999625
 21
74.58333333333406
 31
0.0
 12
-0.0000000000003747
 22
75.00000000000074
 32
0.0
 13
-0.0000000000003747
 23
75.00000000000074
 33
0.0
  0
SOLID
  5
959D
330
9510
100
AcDbEntity
  8
2
100
AcDbTrace
 10
32.50000000000007
 20
75.41666666666741
 30
0.0
 11
32.50000000000007
 21
74.58333333333406
 31
0.0
 12
35.00000000000007
 22
75.00000000000074
 32
0.0
 13
35.00000000000007
 23
75.00000000000074
 33
0.0
  0
MTEXT
  5
959E
330
9510
100
AcDbEntity
  8
2
 62
     2
100
AcDbMText
 10
17.49999999999985
 20
78.25000000000073
 30
0.0
 40
3.5
 41
0.0
 71
     5
 72
     1
  1
\A1;35
 73
     1
 44
1.0
  0
POINT
  5
959F
330
9510
100
AcDbEntity
  8
DEFPOINTS
 62
     0
100
AcDbPoint
 10
-0.0000000000003793
 20
0.0000000000002682
 30
0.0
  0
POINT
  5
95A0
330
9510
100
AcDbEntity
  8
DEFPOINTS
 62
     0
100
AcDbPoint
 10
35.00000000000007
 20
9.500000000000582
 30
0.0
  0
POINT
  5
95A1
330
9510
100
AcDbEntity
  8
DEFPOINTS
 62
     0
100
AcDbPoint
 10
35.00000000000007
 20
75.00000000000074
 30
0.0
  0
ENDBLK
  5
951B
330
9510
100
AcDbEntity
  8
0
100
AcDbBlockEnd
  0
ENDSEC
  0
SECTION
  2
ENTITIES
  0
LINE
  5
807A
330
6A34
100
AcDbEntity
  8
SK1
100
AcDbLine
 10
-2.262823140784564
 20
-2.262823140783916
 30
0.0
 11
2.262823140783805
 21
2.262823140784451
 31
0.0
  0
CIRCLE
  5
807B
330
6A34
100
AcDbEntity
  8
SK1
100
AcDbCircle
 10
-0.0000000000003793
 20
0.0000000000002682
 30
0.0
 40
3.200115174948665
  0
LINE
  5
807C
330
6A34
100
AcDbEntity
  8
SK1
100
AcDbLine
 10
-2.262823140784564
 20
2.262823140784451
 30
0.0
 11
2.262823140783805
 21
-2.262823140783916
 31
0.0
  0
LINE
  5
80B1
330
6A34
100
AcDbEntity
  8
SK1
100
AcDbLine
 10
35.00000000000007
 20
9.963769369849401
 30
0.0
 11
35.00000000000007
 21
9.036230630151763
 31
0.0
  0
LINE
  5
80B2
330
6A34
100
AcDbEntity
  8
SK1
100
AcDbLine
 10
34.53623063015125
 20
9.500000000000582
 30
0.0
 11
35.4637693698489
 21
9.500000000000582
 31
0.0
  0
CIRCLE
  5
80B3
330
6A34
100
AcDbEntity
  8
SK1
100
AcDbCircle
 10
35.00000000000007
 20
9.500000000000582
 30
0.0
 40
0.4637693698488208
  0
LINE
  5
80DF
330
6A34
100
AcDbEntity
  8
SK1
100
AcDbLine
 10
35.00000000000007
 20
-9.963769369848234
 30
0.0
 11
35.00000000000007
 21
-9.036230630150596
 31
0.0
  0
LINE
  5
80E0
330
6A34
100
AcDbEntity
  8
SK1
100
AcDbLine
 10
34.53623063015125
 20
-9.499999999999415
 30
0.0
 11
35.4637693698489
 21
-9.499999999999415
 31
0.0
  0
CIRCLE
  5
80E1
330
6A34
100
AcDbEntity
  8
SK1
100
AcDbCircle
 10
35.00000000000007
 20
-9.499999999999415
 30
0.0
 40
0.4637693698488208
  0
LINE
  5
80E9
330
6A34
100
AcDbEntity
  8
1
100
AcDbLine
 10
33.99679480008389
 20
5.397769700942559
 30
0.0
 11
33.99679480008389
 21
-8.771134343416362
 31
0.0
  0
LINE
  5
80EC
330
6A34
100
AcDbEntity
  8
4
100
AcDbLine
 10
36.62883376006547
 20
0.000000000000532
 30
0.0
 11
-0.000000000000401
 21
0.0000000000009518
 31
0.0
  0
LINE
  5
80ED
330
6A34
100
AcDbEntity
  8
1
100
AcDbLine
 10
33.99679480008389
 20
-8.771134343416362
 30
0.0
 11
2.999999999999697
 21
-8.771134343416145
 31
0.0
  0
DIMENSION
  5
819A
330
6A34
100
AcDbEntity
  8
2
100
AcDbDimension
  2
*D1
 10
57.00000000000006
 20
-9.499999999999422
 30
0.0
 11
54.3226046362782
 21
0.5346872823734749
 31
0.0
 70
   160
  1
%%c<>
 71
     5
 42
19.0
 53
90.0
  3
AM_ANSI
100
AcDbAlignedDimension
 13
35.00000000000007
 23
9.500000000000582
 33
0.0
 14
35.00000000000007
 24
-9.499999999999415
 34
0.0
 50
90.0
100
AcDbRotatedDimension
1001
ACAD
1000
DSTYLE
1002
{
1070
    42
1040
0.0
1070
    44
1040
1.0
1070
    41
1040
2.5
1070
   140
1040
3.5
1070
   271
1070
     0
1002
}
  0
LINE
  5
84C9
330
6A34
100
AcDbEntity
  8
NOCUT
100
AcDbLine
 10
2.999999999999661
 20
-8.771134343416143
 30
0.0
 11
33.99679480008385
 21
-8.77113434341636
 31
0.0
  0
LINE
  5
84CA
330
6A34
100
AcDbEntity
  8
NOCUT
100
AcDbLine
 10
33.99679480008385
 20
-8.77113434341636
 30
0.0
 11
33.99679480008389
 21
0.0000000000005622
 31
0.0
  0
LINE
  5
84CB
330
6A34
100
AcDbEntity
  8
NOCUT
100
AcDbLine
 10
33.99679480008389
 20
0.0000000000005622
 30
0.0
 11
-0.000000000000381
 21
0.0000000000007355
 31
0.0
  0
TEXT
  5
84D5
330
6A34
100
AcDbEntity
  8
6
100
AcDbText
 10
70.37913369534648
 20
-8.191535030828061
 30
0.0
 40
3.5
  1
Zeff.=3
 50
90.0
100
AcDbText
  0
TEXT
  5
84D7
330
6A34
100
AcDbEntity
  8
6
100
AcDbText
 10
38.3928931720626
 20
-19.76277876256296
 30
0.0
 40
3.5
  1
22J3D019022W4R00
100
AcDbText
  0
LINE
  5
8523
330
6A34
100
AcDbEntity
  8
4
100
AcDbLine
 10
5.24580446458102
 20
0.0000000000008292
 30
0.0
 11
13.1756945787549
 21
3.421414843250741
 31
0.0
  0
TEXT
  5
8892
330
6A34
100
AcDbEntity
  8
6
100
AcDbText
 10
38.40803804664787
 20
11.58127399791958
 30
0.0
 40
2.5
  1
AOMT060202R
100
AcDbText
  0
LINE
  5
8947
330
6A34
100
AcDbEntity
  8
1
100
AcDbLine
 10
29.04140480196158
 20
9.49608236055694
 30
0.0
 11
28.26751850344827
 21
6.803645258486211
 31
0.0
  0
ARC
  5
8949
330
6A34
100
AcDbEntity
  8
1
100
AcDbCircle
 10
29.22860575565646
 20
6.527400270037771
 30
0.0
 40
1.0
100
AcDbArc
 50
163.9637789131361
 51
180.8929251581054
1001
GENIUS_GENODEF_13
1002
{
1000
HIER
1070
     0
1002
}
1002
{
1000
MANEDIT
1070
     0
1002
}
1002
{
1000
NOSEL
1070
     0
1002
}
1002
{
1000
BEHIND
1070
     0
1002
}
1002
{
1000
OTHER
1070
     0
1002
}
1002
{
1000
REACTOR
1002
}
1001
GENIUS_GENOBJ-N-FIL_13
1002
{
1000
OWNER
1000
GEN
1002
}
  0
ARC
  5
894B
330
6A34
100
AcDbEntity
  8
1
100
AcDbCircle
 10
28.44136758443274
 20
5.702352227686786
 30
0.0
 40
0.2
100
AcDbArc
 50
180.8929251581096
 51
267.9151181052089
1001
GENIUS_GENODEF_13
1002
{
1000
HIER
1070
     0
1002
}
1002
{
1000
MANEDIT
1070
     0
1002
}
1002
{
1000
NOSEL
1070
     0
1002
}
1002
{
1000
BEHIND
1070
     0
1002
}
1002
{
1000
OTHER
1070
     0
1002
}
1002
{
1000
REACTOR
1002
}
1001
GENIUS_GENOBJ-N-FIL_13
1002
{
1000
OWNER
1000
GEN
1002
}
  0
LINE
  5
894D
330
6A34
100
AcDbEntity
  8
1
100
AcDbLine
 10
28.24139187155534
 20
5.69923545705866
 30
0.0
 11
28.22872719126913
 21
6.511816416897188
 31
0.0
  0
CIRCLE
  5
894F
330
6A34
100
AcDbEntity
  8
1
100
AcDbCircle
 10
31.62068379221638
 20
7.501176113843667
 30
0.0
 40
1.255206518985224
  0
LINE
  5
8956
330
6A34
100
AcDbEntity
  8
1
100
AcDbLine
 10
34.1999627824713
 20
5.506269867130539
 30
0.0
 11
34.97384908098458
 21
8.198706969201168
 31
0.0
  0
ARC
  5
8958
330
6A34
100
AcDbEntity
  8
1
100
AcDbCircle
 10
34.05579969464007
 20
5.547706615397812
 30
0.0
 40
0.15
100
AcDbArc
 50
269.9493100169253
 51
343.9637789131317
1001
GENIUS_GENOBJ-N-FIL_13
1002
{
1000
OWNER
1000
GEN
1002
}
1001
GENIUS_GENODEF_13
1002
{
1000
HIER
1070
     0
1002
}
1002
{
1000
MANEDIT
1070
     0
1002
}
1002
{
1000
NOSEL
1070
     0
1002
}
1002
{
1000
BEHIND
1070
     0
1002
}
1002
{
1000
OTHER
1070
     0
1002
}
1002
{
1000
REACTOR
1002
}
  0
LINE
  5
895A
330
6A34
100
AcDbEntity
  8
1
100
AcDbLine
 10
34.99997571287748
 20
9.303116770628733
 30
0.0
 11
35.01264039316373
 21
8.490535810790206
 31
0.0
  0
ARC
  5
895C
330
6A34
100
AcDbEntity
  8
1
100
AcDbCircle
 10
34.01276182877633
 20
8.474951957649594
 30
0.0
 40
1.0
100
AcDbArc
 50
343.9637789131365
 51
0.8929251581055208
1001
GENIUS_GENODEF_13
1002
{
1000
HIER
1070
     0
1002
}
1002
{
1000
MANEDIT
1070
     0
1002
}
1002
{
1000
NOSEL
1070
     0
1002
}
1002
{
1000
BEHIND
1070
     0
1002
}
1002
{
1000
OTHER
1070
     0
1002
}
1002
{
1000
REACTOR
1002
}
1001
GENIUS_GENOBJ-N-FIL_13
1002
{
1000
OWNER
1000
GEN
1002
}
  0
ARC
  5
89D1
330
6A34
100
AcDbEntity
  8
1
100
AcDbCircle
 10
34.80000000000003
 20
9.300000000000549
 30
0.0
 40
0.2
100
AcDbArc
 50
0.8929251581094899
 51
87.91511810520898
1001
GENIUS_GENODEF_13
1002
{
1000
HIER
1070
     0
1002
}
1002
{
1000
MANEDIT
1070
     0
1002
}
1002
{
1000
NOSEL
1070
     0
1002
}
1002
{
1000
BEHIND
1070
     0
1002
}
1002
{
1000
OTHER
1070
     0
1002
}
1002
{
1000
REACTOR
1002
}
1001
GENIUS_GENOBJ-N-FIL_13
1002
{
1000
OWNER
1000
GEN
1002
}
  0
ARC
  5
8A73
330
6A34
100
AcDbEntity
  8
CUT
100
AcDbCircle
 10
34.59433591237714
 20
2353.978015452133
 30
0.0
 40
2348.580370552416
100
AcDbArc
 50
269.4586234207395
 51
269.9868586757578
  0
ARC
  5
8A76
330
6A34
100
AcDbEntity
  8
CUT
100
AcDbCircle
 10
12.61633107617806
 20
-2338.975663230115
 30
0.0
 40
2348.580370558085
100
AcDbArc
 50
89.4586234207402
 51
89.98685867575693
  0
LINE
  5
8A78
330
6A34
100
AcDbEntity
  8
CUT
100
AcDbLine
 10
13.01070420611673
 20
9.496082360556709
 30
0.0
 11
12.23681790760342
 21
6.803645258485982
 31
0.0
  0
ARC
  5
8A7A
330
6A34
100
AcDbEntity
  8
CUT
100
AcDbCircle
 10
13.19790515981161
 20
6.527400270037542
 30
0.0
 40
1.0
100
AcDbArc
 50
163.9637789131361
 51
180.8929251581054
1001
GENIUS_GENODEF_13
1002
{
1000
HIER
1070
     0
1002
}
1002
{
1000
MANEDIT
1070
     0
1002
}
1002
{
1000
NOSEL
1070
     0
1002
}
1002
{
1000
BEHIND
1070
     0
1002
}
1002
{
1000
OTHER
1070
     0
1002
}
1002
{
1000
REACTOR
1002
}
1001
GENIUS_GENOBJ-N-FIL_13
1002
{
1000
OWNER
1000
GEN
1002
}
  0
ARC
  5
8A7C
330
6A34
100
AcDbEntity
  8
CUT
100
AcDbCircle
 10
12.41066698858789
 20
5.702352227686557
 30
0.0
 40
0.2
100
AcDbArc
 50
180.8929251581096
 51
267.9151181052089
1001
GENIUS_GENODEF_13
1002
{
1000
HIER
1070
     0
1002
}
1002
{
1000
MANEDIT
1070
     0
1002
}
1002
{
1000
NOSEL
1070
     0
1002
}
1002
{
1000
BEHIND
1070
     0
1002
}
1002
{
1000
OTHER
1070
     0
1002
}
1002
{
1000
REACTOR
1002
}
1001
GENIUS_GENOBJ-N-FIL_13
1002
{
1000
OWNER
1000
GEN
1002
}
  0
LINE
  5
8A7E
330
6A34
100
AcDbEntity
  8
CUT
100
AcDbLine
 10
12.21069127571049
 20
5.699235457058431
 30
0.0
 11
12.19802659542428
 21
6.511816416896959
 31
0.0
  0
ARC
  5
8A80
330
6A34
100
AcDbEntity
  8
CUT
100
AcDbCircle
 10
13.15486729394793
 20
9.454645612289464
 30
0.0
 40
0.15
100
AcDbArc
 50
89.94931001695787
 51
163.9637789131396
1001
GENIUS_GENOBJ-N-FIL_13
1002
{
1000
OWNER
1000
GEN
1002
}
1001
GENIUS_GENODEF_13
1002
{
1000
HIER
1070
     0
1002
}
1002
{
1000
MANEDIT
1070
     0
1002
}
1002
{
1000
NOSEL
1070
     0
1002
}
1002
{
1000
BEHIND
1070
     0
1002
}
1002
{
1000
OTHER
1070
     0
1002
}
1002
{
1000
REACTOR
1002
}
  0
LINE
  5
8A85
330
6A34
100
AcDbEntity
  8
CUT
100
AcDbLine
 10
34.99997571287738
 20
9.303116770628502
 30
0.0
 11
35.01264039316361
 21
8.490535810789975
 31
0.0
  0
ARC
  5
8A87
330
6A34
100
AcDbEntity
  8
CUT
100
AcDbCircle
 10
34.01276182877623
 20
8.474951957649363
 30
0.0
 40
1.0
100
AcDbArc
 50
343.9637789131365
 51
0.8929251581055208
1001
GENIUS_GENODEF_13
1002
{
1000
HIER
1070
     0
1002
}
1002
{
1000
MANEDIT
1070
     0
1002
}
1002
{
1000
NOSEL
1070
     0
1002
}
1002
{
1000
BEHIND
1070
     0
1002
}
1002
{
1000
OTHER
1070
     0
1002
}
1002
{
1000
REACTOR
1002
}
1001
GENIUS_GENOBJ-N-FIL_13
1002
{
1000
OWNER
1000
GEN
1002
}
  0
ARC
  5
8A88
330
6A34
100
AcDbEntity
  8
CUT
100
AcDbCircle
 10
34.79999999999997
 20
9.300000000000363
 30
0.0
 40
0.2
100
AcDbArc
 50
0.8929251581099983
 51
87.91511810520896
1001
GENIUS_GENODEF_13
1002
{
1000
HIER
1070
     0
1002
}
1002
{
1000
MANEDIT
1070
     0
1002
}
1002
{
1000
NOSEL
1070
     0
1002
}
1002
{
1000
BEHIND
1070
     0
1002
}
1002
{
1000
OTHER
1070
     0
1002
}
1002
{
1000
REACTOR
1002
}
1001
GENIUS_GENOBJ-N-FIL_13
1002
{
1000
OWNER
1000
GEN
1002
}
  0
ARC
  5
8A8B
330
6A34
100
AcDbEntity
  8
CUT
100
AcDbCircle
 10
34.05579969463996
 20
5.547706615397583
 30
0.0
 40
0.15
100
AcDbArc
 50
269.9493100169253
 51
343.9637789131317
1001
GENIUS_GENOBJ-N-FIL_13
1002
{
1000
OWNER
1000
GEN
1002
}
1001
GENIUS_GENODEF_13
1002
{
1000
HIER
1070
     0
1002
}
1002
{
1000
MANEDIT
1070
     0
1002
}
1002
{
1000
NOSEL
1070
     0
1002
}
1002
{
1000
BEHIND
1070
     0
1002
}
1002
{
1000
OTHER
1070
     0
1002
}
1002
{
1000
REACTOR
1002
}
  0
LINE
  5
8A8D
330
6A34
100
AcDbEntity
  8
CUT
100
AcDbLine
 10
34.19996278247119
 20
5.50626986713031
 30
0.0
 11
34.97384908098447
 21
8.198706969200937
 31
0.0
  0
ARC
  5
8B52
330
6A34
100
AcDbEntity
  8
1
100
AcDbCircle
 10
12.61633107617702
 20
2338.975663230158
 30
0.0
 40
2348.580370558128
100
AcDbArc
 50
270.013141324243
 51
270.5413765792598
  0
ARC
  5
8B53
330
6A34
100
AcDbEntity
  8
1
100
AcDbCircle
 10
34.46140388208319
 20
-1337.601483340224
 30
0.0
 40
1332.203838451876
100
AcDbArc
 50
90.01745004126107
 51
90.01998203224859
  0
LINE
  5
8B54
330
6A34
100
AcDbEntity
  8
1
100
AcDbLine
 10
13.01070420611684
 20
-9.496082360555773
 30
0.0
 11
12.80233263926865
 21
-8.771134343416246
 31
0.0
  0
ARC
  5
8B58
330
6A34
100
AcDbEntity
  8
1
100
AcDbCircle
 10
13.15486729394804
 20
-9.454645612288528
 30
0.0
 40
0.15
100
AcDbArc
 50
196.0362210868603
 51
270.0506899830421
1001
GENIUS_GENOBJ-N-FIL_13
1002
{
1000
OWNER
1000
GEN
1002
}
1001
GENIUS_GENODEF_13
1002
{
1000
HIER
1070
     0
1002
}
1002
{
1000
MANEDIT
1070
     0
1002
}
1002
{
1000
NOSEL
1070
     0
1002
}
1002
{
1000
BEHIND
1070
     0
1002
}
1002
{
1000
OTHER
1070
     0
1002
}
1002
{
1000
REACTOR
1002
}
  0
ARC
  5
8B59
330
6A34
100
AcDbEntity
  8
1
100
AcDbCircle
 10
34.01276182877633
 20
-8.474951957648427
 30
0.0
 40
1.0
100
AcDbArc
 50
359.1070748418944
 51
16.03622108686347
1001
GENIUS_GENODEF_13
1002
{
1000
HIER
1070
     0
1002
}
1002
{
1000
MANEDIT
1070
     0
1002
}
1002
{
1000
NOSEL
1070
     0
1002
}
1002
{
1000
BEHIND
1070
     0
1002
}
1002
{
1000
OTHER
1070
     0
1002
}
1002
{
1000
REACTOR
1002
}
1001
GENIUS_GENOBJ-N-FIL_13
1002
{
1000
OWNER
1000
GEN
1002
}
  0
ARC
  5
8B60
330
6A34
100
AcDbEntity
  8
1
100
AcDbCircle
 10
34.05579969464007
 20
-5.547706615396649
 30
0.0
 40
0.15
100
AcDbArc
 50
16.03622108686825
 51
90.0506899830747
1001
GENIUS_GENOBJ-N-FIL_13
1002
{
1000
OWNER
1000
GEN
1002
}
1001
GENIUS_GENODEF_13
1002
{
1000
HIER
1070
     0
1002
}
1002
{
1000
MANEDIT
1070
     0
1002
}
1002
{
1000
NOSEL
1070
     0
1002
}
1002
{
1000
BEHIND
1070
     0
1002
}
1002
{
1000
OTHER
1070
     0
1002
}
1002
{
1000
REACTOR
1002
}
  0
LINE
  5
8B61
330
6A34
100
AcDbEntity
  8
1
100
AcDbLine
 10
34.1999627824713
 20
-5.506269867129376
 30
0.0
 11
34.97384908098458
 21
-8.198706969200001
 31
0.0
  0
LINE
  5
8B64
330
6A34
100
AcDbEntity
  8
1
100
AcDbLine
 10
34.99997571287748
 20
-9.303116770627566
 30
0.0
 11
35.01264039316373
 21
-8.490535810789038
 31
0.0
  0
ARC
  5
8B65
330
6A34
100
AcDbEntity
  8
1
100
AcDbCircle
 10
34.80000000000008
 20
-9.299999999999426
 30
0.0
 40
0.2
100
AcDbArc
 50
272.084881894791
 51
359.1070748418899
1001
GENIUS_GENODEF_13
1002
{
1000
HIER
1070
     0
1002
}
1002
{
1000
MANEDIT
1070
     0
1002
}
1002
{
1000
NOSEL
1070
     0
1002
}
1002
{
1000
BEHIND
1070
     0
1002
}
1002
{
1000
OTHER
1070
     0
1002
}
1002
{
1000
REACTOR
1002
}
1001
GENIUS_GENOBJ-N-FIL_13
1002
{
1000
OWNER
1000
GEN
1002
}
  0
LINE
  5
8BAA
330
6A34
100
AcDbEntity
  8
1
100
AcDbLine
 10
23.69640480196158
 20
9.49608236055694
 30
0.0
 11
22.92251850344827
 21
6.803645258486211
 31
0.0
  0
ARC
  5
8BAB
330
6A34
100
AcDbEntity
  8
1
100
AcDbCircle
 10
23.88360575565646
 20
6.527400270037771
 30
0.0
 40
1.0
100
AcDbArc
 50
163.9637789131361
 51
180.8929251581054
1001
GENIUS_GENODEF_13
1002
{
1000
HIER
1070
     0
1002
}
1002
{
1000
MANEDIT
1070
     0
1002
}
1002
{
1000
NOSEL
1070
     0
1002
}
1002
{
1000
BEHIND
1070
     0
1002
}
1002
{
1000
OTHER
1070
     0
1002
}
1002
{
1000
REACTOR
1002
}
1001
GENIUS_GENOBJ-N-FIL_13
1002
{
1000
OWNER
1000
GEN
1002
}
  0
ARC
  5
8BAC
330
6A34
100
AcDbEntity
  8
1
100
AcDbCircle
 10
23.09636758443274
 20
5.702352227686786
 30
0.0
 40
0.2
100
AcDbArc
 50
180.8929251581096
 51
267.9151181052089
1001
GENIUS_GENODEF_13
1002
{
1000
HIER
1070
     0
1002
}
1002
{
1000
MANEDIT
1070
     0
1002
}
1002
{
1000
NOSEL
1070
     0
1002
}
1002
{
1000
BEHIND
1070
     0
1002
}
1002
{
1000
OTHER
1070
     0
1002
}
1002
{
1000
REACTOR
1002
}
1001
GENIUS_GENOBJ-N-FIL_13
1002
{
1000
OWNER
1000
GEN
1002
}
  0
LINE
  5
8BAD
330
6A34
100
AcDbEntity
  8
1
100
AcDbLine
 10
22.89639187155534
 20
5.69923545705866
 30
0.0
 11
22.88372719126913
 21
6.511816416897188
 31
0.0
  0
CIRCLE
  5
8BAE
330
6A34
100
AcDbEntity
  8
1
100
AcDbCircle
 10
26.27568379221639
 20
7.501176113843667
 30
0.0
 40
1.255206518985224
  0
LINE
  5
8BAF
330
6A34
100
AcDbEntity
  8
1
100
AcDbLine
 10
18.35140480196157
 20
9.49608236055694
 30
0.0
 11
17.57751850344827
 21
6.803645258486211
 31
0.0
  0
ARC
  5
8BB0
330
6A34
100
AcDbEntity
  8
1
100
AcDbCircle
 10
18.53860575565646
 20
6.527400270037771
 30
0.0
 40
1.0
100
AcDbArc
 50
163.9637789131361
 51
180.8929251581054
1001
GENIUS_GENODEF_13
1002
{
1000
HIER
1070
     0
1002
}
1002
{
1000
MANEDIT
1070
     0
1002
}
1002
{
1000
NOSEL
1070
     0
1002
}
1002
{
1000
BEHIND
1070
     0
1002
}
1002
{
1000
OTHER
1070
     0
1002
}
1002
{
1000
REACTOR
1002
}
1001
GENIUS_GENOBJ-N-FIL_13
1002
{
1000
OWNER
1000
GEN
1002
}
  0
ARC
  5
8BB1
330
6A34
100
AcDbEntity
  8
1
100
AcDbCircle
 10
17.75136758443274
 20
5.702352227686786
 30
0.0
 40
0.2
100
AcDbArc
 50
180.8929251581096
 51
267.9151181052089
1001
GENIUS_GENODEF_13
1002
{
1000
HIER
1070
     0
1002
}
1002
{
1000
MANEDIT
1070
     0
1002
}
1002
{
1000
NOSEL
1070
     0
1002
}
1002
{
1000
BEHIND
1070
     0
1002
}
1002
{
1000
OTHER
1070
     0
1002
}
1002
{
1000
REACTOR
1002
}
1001
GENIUS_GENOBJ-N-FIL_13
1002
{
1000
OWNER
1000
GEN
1002
}
  0
LINE
  5
8BB2
330
6A34
100
AcDbEntity
  8
1
100
AcDbLine
 10
17.55139187155533
 20
5.69923545705866
 30
0.0
 11
17.53872719126913
 21
6.511816416897188
 31
0.0
  0
CIRCLE
  5
8BB3
330
6A34
100
AcDbEntity
  8
1
100
AcDbCircle
 10
20.93068379221639
 20
7.501176113843667
 30
0.0
 40
1.255206518985224
  0
LINE
  5
8BD1
330
6A34
100
AcDbEntity
  8
4
100
AcDbLine
 10
18.83095328513954
 20
0.0000000000006568
 30
0.0
 11
26.55747458497963
 21
3.858769927788649
 31
0.0
  0
TEXT
  5
8BD5
330
6A34
100
AcDbEntity
  8
6
100
AcDbText
 10
63.50484971646087
 20
-4.509643896662803
 30
0.0
 40
3.5
  1
Z=12
 50
90.0
100
AcDbText
  0
ARC
  5
8C4F
330
6A34
100
AcDbEntity
  8
1
100
AcDbCircle
 10
18.49556788979271
 20
9.454645612289528
 30
0.0
 40
0.15
100
AcDbArc
 50
89.94931001692524
 51
163.9637789131317
1001
GENIUS_GENOBJ-N-FIL_13
1002
{
1000
OWNER
1000
GEN
1002
}
1001
GENIUS_GENODEF_13
1002
{
1000
HIER
1070
     0
1002
}
1002
{
1000
MANEDIT
1070
     0
1002
}
1002
{
1000
NOSEL
1070
     0
1002
}
1002
{
1000
BEHIND
1070
     0
1002
}
1002
{
1000
OTHER
1070
     0
1002
}
1002
{
1000
REACTOR
1002
}
  0
ARC
  5
9271
330
6A34
100
AcDbEntity
  8
1
100
AcDbCircle
 10
13.15056788979271
 20
9.454645612289528
 30
0.0
 40
0.15
100
AcDbArc
 50
89.94931001692524
 51
163.9637789131317
1001
GENIUS_GENOBJ-N-FIL_13
1002
{
1000
OWNER
1000
GEN
1002
}
1001
GENIUS_GENODEF_13
1002
{
1000
HIER
1070
     0
1002
}
1002
{
1000
MANEDIT
1070
     0
1002
}
1002
{
1000
NOSEL
1070
     0
1002
}
1002
{
1000
BEHIND
1070
     0
1002
}
1002
{
1000
OTHER
1070
     0
1002
}
1002
{
1000
REACTOR
1002
}
  0
LINE
  5
9272
330
6A34
100
AcDbEntity
  8
1
100
AcDbLine
 10
12.20639187155533
 20
5.69923545705866
 30
0.0
 11
12.19372719126913
 21
6.511816416897188
 31
0.0
  0
ARC
  5
9273
330
6A34
100
AcDbEntity
  8
1
100
AcDbCircle
 10
12.40636758443274
 20
5.702352227686786
 30
0.0
 40
0.2
100
AcDbArc
 50
180.8929251581096
 51
267.9151181052089
1001
GENIUS_GENODEF_13
1002
{
1000
HIER
1070
     0
1002
}
1002
{
1000
MANEDIT
1070
     0
1002
}
1002
{
1000
NOSEL
1070
     0
1002
}
1002
{
1000
BEHIND
1070
     0
1002
}
1002
{
1000
OTHER
1070
     0
1002
}
1002
{
1000
REACTOR
1002
}
1001
GENIUS_GENOBJ-N-FIL_13
1002
{
1000
OWNER
1000
GEN
1002
}
  0
ARC
  5
9274
330
6A34
100
AcDbEntity
  8
1
100
AcDbCircle
 10
13.19360575565646
 20
6.527400270037771
 30
0.0
 40
1.0
100
AcDbArc
 50
163.9637789131361
 51
180.8929251581054
1001
GENIUS_GENODEF_13
1002
{
1000
HIER
1070
     0
1002
}
1002
{
1000
MANEDIT
1070
     0
1002
}
1002
{
1000
NOSEL
1070
     0
1002
}
1002
{
1000
BEHIND
1070
     0
1002
}
1002
{
1000
OTHER
1070
     0
1002
}
1002
{
1000
REACTOR
1002
}
1001
GENIUS_GENOBJ-N-FIL_13
1002
{
1000
OWNER
1000
GEN
1002
}
  0
LINE
  5
9275
330
6A34
100
AcDbEntity
  8
1
100
AcDbLine
 10
13.00640480196157
 20
9.49608236055694
 30
0.0
 11
12.23251850344827
 21
6.803645258486211
 31
0.0
  0
CIRCLE
  5
9276
330
6A34
100
AcDbEntity
  8
1
100
AcDbCircle
 10
15.58568379221638
 20
7.501176113843667
 30
0.0
 40
1.255206518985224
  0
LINE
  5
9278
330
6A34
100
AcDbEntity
  8
1
100
AcDbLine
 10
13.15070059584076
 20
9.604645553586532
 30
0.0
 11
34.80727600478642
 21
9.499867605565706
 31
0.0
  0
LINE
  5
9279
330
6A34
100
AcDbEntity
  8
1
100
AcDbLine
 10
12.39909157964635
 20
5.50248462212163
 30
0.0
 11
34.05566698859202
 21
5.397706674100808
 31
0.0
  0
LINE
  5
92B0
330
6A34
100
AcDbEntity
  8
1
100
AcDbLine
 10
2.999999999999898
 20
8.771134343417982
 30
0.0
 11
12.79803323511351
 21
8.771134343417825
 31
0.0
  0
LINE
  5
92B1
330
6A34
100
AcDbEntity
  8
1
100
AcDbLine
 10
2.99999999999947
 20
-9.99999999999955
 30
0.0
 11
2.999999999999926
 21
10.00000000000047
 31
0.0
  0
DIMENSION
  5
92C1
330
6A34
100
AcDbEntity
  8
SK2
100
AcDbDimension
  2
*D2
 10
-63.15656024157195
 20
-9.999999999999433
 30
0.0
 11
-65.68475933784457
 21
-0.4169954159585876
 31
0.0
 70
   160
  1
%%c<>
 71
     5
 42
19.99999999999994
 53
90.0
  3
AM_ANSI
100
AcDbAlignedDimension
 13
-48.99999999999992
 23
10.0000000000005
 33
0.0
 14
-48.99999999999992
 24
-9.999999999999436
 34
0.0
 50
90.0
100
AcDbRotatedDimension
1001
ACAD
1000
DSTYLE
1002
{
1070
    42
1040
0.0
1070
    44
1040
1.0
1070
    41
1040
2.5
1070
   140
1040
3.5
1070
   271
1070
     0
1002
}
  0
LINE
  5
92C2
330
6A34
100
AcDbEntity
  8
SK1
100
AcDbLine
 10
-48.99999999999992
 20
-9.999999999999436
 30
0.0
 11
-48.99999999999992
 21
10.0000000000005
 31
0.0
  0
LINE
  5
92C3
330
6A34
100
AcDbEntity
  8
SK1
100
AcDbLine
 10
-49.99999999999992
 20
9.000000000000506
 30
0.0
 11
-49.99999999999992
 21
-8.999999999999436
 31
0.0
  0
LINE
  5
92C4
330
6A34
100
AcDbEntity
  8
SK1
100
AcDbLine
 10
-49.99999999999992
 20
-8.999999999999436
 30
0.0
 11
-48.99999999999992
 21
-9.999999999999436
 31
0.0
  0
LINE
  5
92C5
330
6A34
100
AcDbEntity
  8
SK1
100
AcDbLine
 10
-48.99999999999992
 20
10.0000000000005
 30
0.0
 11
-49.99999999999992
 21
9.000000000000506
 31
0.0
  0
LINE
  5
92C6
330
6A34
100
AcDbEntity
  8
SK1
100
AcDbLine
 10
-19.49999999999772
 20
5.723500000000477
 30
0.0
 11
-30.49999999999769
 21
5.723500000000477
 31
0.0
  0
LINE
  5
92C7
330
6A34
100
AcDbEntity
  8
SK1
100
AcDbLine
 10
-30.49999999999769
 20
-5.723499999999525
 30
0.0
 11
-19.49999999999772
 21
-5.723499999999525
 31
0.0
  0
ARC
  5
92C8
330
6A34
100
AcDbEntity
  8
SK1
100
AcDbCircle
 10
-22.30042993055309
 20
0.0000000000004486
 30
0.0
 40
9.999570069444567
100
AcDbArc
 50
145.0840190482523
 51
214.9159809517473
  0
LINE
  5
92C9
330
6A34
100
AcDbEntity
  8
SK1
100
AcDbLine
 10
-30.49999999999769
 20
5.723500000000477
 30
0.0
 11
-30.49999999999769
 21
-5.723499999999525
 31
0.0
  0
ARC
  5
92CA
330
6A34
100
AcDbEntity
  8
SK1
100
AcDbCircle
 10
-27.69957006944201
 20
0.0000000000005339
 30
0.0
 40
9.999570069444315
100
AcDbArc
 50
325.0840190482516
 51
34.91598095174799
  0
LINE
  5
92CB
330
6A34
100
AcDbEntity
  8
SK1
100
AcDbLine
 10
-19.49999999999772
 20
-5.723499999999525
 30
0.0
 11
-19.49999999999772
 21
5.723500000000477
 31
0.0
  0
LINE
  5
92CC
330
6A34
100
AcDbEntity
  8
SK4
100
AcDbLine
 10
0.0000000000000755
 20
0.000000000000722
 30
0.0
 11
-52.79482556937777
 21
0.0000000000005339
 31
0.0
  0
LINE
  5
92CD
330
6A34
100
AcDbEntity
  8
1
100
AcDbLine
 10
2.999999999999926
 20
10.00000000000047
 30
0.0
 11
-0.0000000000003788
 21
10.00000000000047
 31
0.0
  0
LINE
  5
92CE
330
6A34
100
AcDbEntity
  8
SK1
100
AcDbLine
 10
-48.99999999999992
 20
-9.999999999999436
 30
0.0
 11
-0.0000000000004201
 21
-9.999999999999543
 31
0.0
  0
DIMENSION
  5
92F8
330
6A34
100
AcDbEntity
  8
SK2
100
AcDbDimension
  2
*D3
 10
35.00000000000007
 20
-30.42979297806263
 30
0.0
 11
-7.499999999999925
 21
-27.17979297806263
 31
0.0
 70
    32
 71
     5
 42
85.0
  3
AM_DIN
100
AcDbAlignedDimension
 13
-49.99999999999992
 23
-8.999999999999436
 33
0.0
 14
35.00000000000007
 24
-9.499999999999415
 34
0.0
 50
0.0000000000001132
100
AcDbRotatedDimension
  0
DIMENSION
  5
9352
330
6A34
100
AcDbEntity
  8
2
100
AcDbDimension
  2
*D4
 10
2.999999999999929
 20
60.00000000000072
 30
0.0
 11
19.0
 21
63.2503444881897
 31
0.0
 70
    32
 71
     5
 42
32.00000000000014
  3
AM_DIN
100
AcDbAlignedDimension
 13
35.00000000000007
 23
9.500000000000582
 33
0.0
 14
2.999999999999926
 24
10.00000000000047
 34
0.0
100
AcDbRotatedDimension
  0
LINE
  5
93C9
330
6A34
100
AcDbEntity
  8
2
100
AcDbLine
 10
13.00000000000007
 20
9.562201080217194
 30
0.0
 11
13.00000000000007
 21
9.892311307062216
 31
0.0
  0
DIMENSION
  5
93E3
330
6A34
100
AcDbEntity
  8
2
100
AcDbDimension
  2
*D5
 10
35.00000000000007
 20
45.00000000000073
 30
0.0
 11
24.00000000000007
 21
48.25034448818971
 31
0.0
 70
    32
 71
     5
 42
21.99999999999999
  3
AM_DIN
100
AcDbAlignedDimension
 13
13.00000000000007
 23
9.892311307062216
 33
0.0
 14
35.00000000000007
 24
9.500000000000582
 34
0.0
100
AcDbRotatedDimension
  0
ARC
  5
9489
330
6A34
100
AcDbEntity
  8
1
100
AcDbCircle
 10
-13.78756050396457
 20
-33.88725425675877
 30
0.0
 40
47.03523618386753
100
AcDbArc
 50
46.09290757064923
 51
65.08657644984769
  0
ARC
  5
948A
330
6A34
100
AcDbEntity
  8
1
100
AcDbCircle
 10
34.78327724348411
 20
14.20562039113582
 30
0.0
 40
21.36062476541885
100
AcDbArc
 50
221.6852163580067
 51
267.8899347349962
  0
ARC
  5
948B
330
6A34
100
AcDbEntity
  8
1
100
AcDbCircle
 10
36.64933957618375
 20
57.45081751118334
 30
0.0
 40
59.19695836965544
100
AcDbArc
 50
250.7358677544471
 51
267.4317848584092
  0
LINE
  5
9497
330
6A34
100
AcDbEntity
  8
4
100
AcDbLine
 10
5.24580446458102
 20
0.0000000000009542
 30
0.0
 11
13.17569457875482
 21
-3.421414843249139
 31
0.0
  0
LINE
  5
9498
330
6A34
100
AcDbEntity
  8
4
100
AcDbLine
 10
18.83095328513954
 20
0.0000000000008152
 30
0.0
 11
26.55747458497954
 21
-3.858769927787354
 31
0.0
  0
DIMENSION
  5
950F
330
6A34
100
AcDbEntity
  8
2
100
AcDbDimension
  2
*D6
 10
35.00000000000007
 20
75.00000000000074
 30
0.0
 11
17.49999999999985
 21
78.25000000000073
 31
0.0
 70
    32
 71
     5
 42
35.00000000000044
  3
AM_DIN
100
AcDbAlignedDimension
 13
-0.0000000000003793
 23
0.0000000000002682
 33
0.0
 14
35.00000000000007
 24
9.500000000000582
 34
0.0
 50
0.000000000000215
100
AcDbRotatedDimension
  0
LINE
  5
9539
330
6A34
100
AcDbEntity
  8
1
100
AcDbLine
 10
2.999999999999498
 20
-8.771134343416143
 30
0.0
 11
2.99999999999947
 21
-9.99999999999955
 31
0.0
  0
LINE
  5
9548
330
6A34
100
AcDbEntity
  8
1
100
AcDbLine
 10
2.999999999999926
 20
10.00000000000047
 30
0.0
 11
2.999999999999435
 21
8.771134343417609
 31
0.0
  0
LINE
  5
9550
330
6A34
100
AcDbEntity
  8
1
100
AcDbLine
 10
-0.0000000000003793
 20
10.00000000000047
 30
0.0
 11
-0.0000000000004223
 21
-9.999999999999543
 31
0.0
  0
LINE
  5
955F
330
6A34
100
AcDbEntity
  8
SK1
100
AcDbLine
 10
-0.0000000000003788
 20
10.00000000000047
 30
0.0
 11
-48.99999999999992
 21
10.0000000000005
 31
0.0
  0
LINE
  5
9560
330
6A34
100
AcDbEntity
  8
1
100
AcDbLine
 10
-0.0000000000004201
 20
-9.999999999999543
 30
0.0
 11
2.99999999999947
 21
-9.99999999999955
 31
0.0
  0
LINE
  5
9579
330
6A34
100
AcDbEntity
  8
NOCUT
100
AcDbLine
 10
-0.0000000000004201
 20
-9.999999999999543
 30
0.0
 11
2.99999999999947
 21
-9.99999999999955
 31
0.0
  0
LINE
  5
957A
330
6A34
100
AcDbEntity
  8
NOCUT
100
AcDbLine
 10
-0.0000000000004201
 20
-9.999999999999543
 30
0.0
 11
-0.000000000000381
 21
0.0000000000007349
 31
0.0
  0
LINE
  5
957E
330
6A34
100
AcDbEntity
  8
NOCUT
100
AcDbLine
 10
2.999999999999661
 20
-8.771134343416143
 30
0.0
 11
2.99999999999947
 21
-9.99999999999955
 31
0.0
  0
ENDSEC
  0
SECTION
  2
OBJECTS
  0
DICTIONARY
  5
6A22
330
0
100
AcDbDictionary
281
     1
  3
ACAD_GROUP
350
6A23
  3
ACAD_LAYOUT
350
6A2F
  3
ACAD_MLINESTYLE
350
6A2C
  3
ACAD_PLOTSETTINGS
350
6A2E
  3
ACAD_PLOTSTYLENAME
350
6A24
  3
AcDbVariableDictionary
350
6B78
  3
AcmDictionary
350
6B39
  3
AMG
350
6B22
  3
AMGSNAPSETTINGS
350
6B59
  3
ASE_INDEX_DICTIONARY
350
89F6
  3
DWGPROPS
350
95CC
  0
DICTIONARY
  5
6B62
330
6A34
100
AcDbDictionary
280
     1
281
     1
  3
ACAD_INDEX
360
6B63
  0
DICTIONARY
  5
6A23
102
{ACAD_REACTORS
330
6A22
102
}
330
6A22
100
AcDbDictionary
281
     1
  0
DICTIONARY
  5
6A2F
102
{ACAD_REACTORS
330
6A22
102
}
330
6A22
100
AcDbDictionary
281
     1
  3
Layout1
350
6A33
  3
Model
350
6A37
  0
DICTIONARY
  5
6A2C
102
{ACAD_REACTORS
330
6A22
102
}
330
6A22
100
AcDbDictionary
281
     1
  3
Standard
350
6A2D
  0
DICTIONARY
  5
6A2E
102
{ACAD_REACTORS
330
6A22
102
}
330
6A22
100
AcDbDictionary
281
     1
  0
ACDBDICTIONARYWDFLT
  5
6A24
102
{ACAD_REACTORS
330
6A22
102
}
330
6A22
100
AcDbDictionary
281
     1
  3
Normal
350
6A25
100
AcDbDictionaryWithDefault
340
6A25
  0
DICTIONARY
  5
6B78
102
{ACAD_REACTORS
330
6A22
102
}
330
6A22
100
AcDbDictionary
281
     1
  3
DIMASSOC
350
6B7A
  3
INDEXCTL
350
6B79
  0
DICTIONARY
  5
6B39
102
{ACAD_REACTORS
330
6A22
102
}
330
6A22
100
AcDbDictionary
281
     1
  3
AcmBOMDATA
350
6B3A
  3
AcmStdDictionary
350
6B3F
  0
DICTIONARY
  5
6B22
102
{ACAD_REACTORS
330
6A22
102
}
330
6A22
100
AcDbDictionary
281
     1
  3
AcMgSettings
350
6B23
  3
AMGLAYCFG
350
6B41
  0
DICTIONARY
  5
6B59
102
{ACAD_REACTORS
330
6A22
102
}
330
6A22
100
AcDbDictionary
281
     1
  3
DIMENSION
350
764F
  3
FEA
350
7650
  3
HATCH (1)
350
7651
  3
HATCH (2)
350
7652
  3
SIMPLE WELD
350
7653
  3
SYMBOLS
350
7654
  0
DICTIONARY
  5
89F6
102
{ACAD_REACTORS
330
6A22
102
}
330
6A22
100
AcDbDictionary
281
     1
  3
ASEBlockHierarchyIndexRecord
350
89F8
1001
DCO15
1040
1550951072.194
  0
XRECORD
  5
95CC
102
{ACAD_REACTORS
330
6A22
102
}
330
6A22
100
AcDbXrecord
280
     1
  1
DWGPROPS COOKIE
  2

  3

  4

  6

  7

  8

  9

300
AmdtFileType=84
301
=
302
=
303
=
304
=
305
=
306
=
307
=
308
=
309
=
 40
0.1881362268518518
 41
2453447.43007081
 42
2453754.034446689
  1

 90
        1
  0
DICTIONARY
  5
6B63
102
{ACAD_REACTORS
330
6B62
102
}
330
6B62
100
AcDbDictionary
281
     1
  3
*A1
350
6B64
  0
LAYOUT
  5
6A33
102
{ACAD_REACTORS
330
6A2F
102
}
330
6A2F
100
AcDbPlotSettings
  1

  2
HP DesignJet 220 (D/A1) by HP
  4

  6

 40
0.0
 41
0.0
 42
0.0
 43
0.0
 44
0.0
 45
0.0
 46
0.0
 47
0.0
 48
0.0
 49
0.0
140
0.0
141
0.0
142
1.0
143
1.0
 70
   688
 72
     0
 73
     0
 74
     5
  7
monochrome2.ctb
 75
    16
147
1.0
148
0.0
149
0.0
100
AcDbLayout
  1
Layout1
 70
     1
 71
     1
 10
0.0
 20
0.0
 11
420.0
 21
297.0
 12
0.0
 22
0.0
 32
0.0
 14
1.000000000000000E+20
 24
1.000000000000000E+20
 34
1.000000000000000E+20
 15
-1.000000000000000E+20
 25
-1.000000000000000E+20
 35
-1.000000000000000E+20
146
0.0
 13
0.0
 23
0.0
 33
0.0
 16
1.0
 26
0.0
 36
0.0
 17
0.0
 27
1.0
 37
0.0
 76
     0
330
6A30
  0
LAYOUT
  5
6A37
102
{ACAD_REACTORS
330
6A2F
102
}
330
6A2F
100
AcDbPlotSettings
  1

  2
HP DesignJet 220 (D/A1) by HP
  4

  6

 40
0.0
 41
0.0
 42
0.0
 43
0.0
 44
0.0
 45
0.0
 46
0.0
 47
0.0
 48
0.0
 49
0.0
140
0.0
141
0.0
142
1.0
143
1.0
 70
  1712
 72
     0
 73
     0
 74
     0
  7
monochrome2.ctb
 75
     0
147
1.0
148
0.0
149
0.0
100
AcDbLayout
  1
Model
 70
     1
 71
     0
 10
0.0
 20
0.0
 11
12.0
 21
9.0
 12
0.0
 22
0.0
 32
0.0
 14
0.0
 24
0.0
 34
0.0
 15
0.0
 25
0.0
 35
0.0
146
0.0
 13
0.0
 23
0.0
 33
0.0
 16
1.0
 26
0.0
 36
0.0
 17
0.0
 27
1.0
 37
0.0
 76
     0
330
6A34
  0
MLINESTYLE
  5
6A2D
102
{ACAD_REACTORS
330
6A2C
102
}
330
6A2C
100
AcDbMlineStyle
  2
STANDARD
 70
     0
  3

 62
   256
 51
90.0
 52
90.0
 71
     2
 49
0.5
 62
   256
  6
BYLAYER
 49
-0.5
 62
   256
  6
BYLAYER
  0
ACDBPLACEHOLDER
  5
6A25
102
{ACAD_REACTORS
330
6A24
102
}
330
6A24
  0
DICTIONARYVAR
  5
6B7A
102
{ACAD_REACTORS
330
6B78
102
}
330
6B78
100
DictionaryVariables
280
     0
  1
1
  0
DICTIONARYVAR
  5
6B79
102
{ACAD_REACTORS
330
6B78
102
}
330
6B78
100
DictionaryVariables
280
     0
  1
1
  0
ACMDATADICTIONARY
  5
6B3A
102
{ACAD_REACTORS
330
6B39
102
}
330
6B39
100
AcDbDictionary
281
     1
  3
*A1
350
6B3B
  3
*A2
350
865B
100
AcmDataDictionary
  0
DICTIONARY
  5
6B3F
102
{ACAD_REACTORS
330
6B39
102
}
330
6B39
100
AcDbDictionary
281
     1
  3
ANSI
350
6B40
  3
DIN
350
6DBB
  0
DICTIONARY
  5
6B23
102
{ACAD_REACTORS
330
6B22
102
}
330
6B22
100
AcDbDictionary
281
     1
  3
DWGSETTINGS
350
6B24
  3
FEM
350
8549
  3
Shaft
350
764E
  3
TRANSSETTINGS
350
6B25
  0
ACAMGFILTERDAT
  5
764F
102
{ACAD_REACTORS
330
6B59
102
}
330
6B59
100
AcAmgFilterDat
 70
    15
  1
DIMENSION,AMDT_*_DIM
  2
*
  3
*
  4
*
  5
*
290
     0
  0
ACAMGFILTERDAT
  5
7650
102
{ACAD_REACTORS
330
6B59
102
}
330
6B59
100
AcAmgFilterDat
 70
    15
  1
*
  2
AM_FEA-AM_*
  3
*
  4
*
  5
*
290
     1
  0
ACAMGFILTERDAT
  5
7651
102
{ACAD_REACTORS
330
6B59
102
}
330
6B59
100
AcAmgFilterDat
 70
    15
  1
HATCH
  2
*
  3
*
  4
*
  5
*
290
     1
  0
ACAMGFILTERDAT
  5
7652
102
{ACAD_REACTORS
330
6B59
102
}
330
6B59
100
AcAmgFilterDat
 70
    15
  1
LINE
  2
8,8N,*-8,*-8N,AM_8,AM_8N,*-AM_8,*-AM_8N
  3
*
  4
*
  5
INSERT,STDPART2D
290
     1
  0
ACAMGFILTERDAT
  5
7653
102
{ACAD_REACTORS
330
6B59
102
}
330
6B59
100
AcAmgFilterDat
 70
    15
  1
ARC
  2
AM_5
  3
*
  4
2
  5
INSERT
290
     0
  0
ACAMGFILTERDAT
  5
7654
102
{ACAD_REACTORS
330
6B59
102
}
330
6B59
100
AcAmgFilterDat
 70
    15
  1
ACMFCFRAME,ACMDATUMTARGET,ACMDATUMID,ACMWELDSYM,ACMSURFSYM,ACMFEATID,ACMPARTREF,ACMBALLOON,AMDTEDGESYM,AMGSCREWCALCTABLE
  2
*
  3
*
  4
*
  5
*
290
     1
  0
XRECORD
  5
89F8
102
{ACAD_REACTORS
330
89F6
102
}
330
89F6
100
AcDbXrecord
280
     1
  0
LAYER_INDEX
  5
6B64
102
{ACAD_REACTORS
330
6B63
102
}
330
6B63
100
AcDbIndex
 40
2453754.11492927
100
AcDbLayerIndex
  8
0
360
6B65
 90
        0
  8
DEFPOINTS
360
6B66
 90
        0
  8
1
360
6B67
 90
       50
  8
2
360
6B68
 90
        5
  8
4
360
6B69
 90
        5
  8
6
360
6B6A
 90
        4
  8
SK1
360
6B6B
 90
       21
  8
SK2
360
6B6C
 90
        2
  8
SK4
360
6B6D
 90
        1
  8
CUT
360
6B6E
 90
       12
  8
NOCUT
360
6B6F
 90
        6
  0
ACMDATAENTRYBLOCK
  5
6B3B
102
{ACAD_REACTORS
330
6B3A
102
}
330
6B3A
100
AcmDataEntry
100
AcmDataEntryBlock
  0
ACMDATAENTRYBLOCK
  5
865B
102
{ACAD_REACTORS
330
6B3A
102
}
330
6B3A
100
AcmDataEntry
100
AcmDataEntryBlock
  0
IDBUFFER
  5
6B65
330
0
100
AcDbIdBuffer
  0
IDBUFFER
  5
6B66
330
0
100
AcDbIdBuffer
  0
IDBUFFER
  5
6B67
330
0
100
AcDbIdBuffer
330
80E9
330
80ED
330
8947
330
8949
330
894B
330
894D
330
894F
330
8956
330
8958
330
895A
330
895C
330
89D1
330
8B52
330
8B53
330
8B54
330
8B58
330
8B59
330
8B60
330
8B61
330
8B64
330
8B65
330
8BAA
330
8BAB
330
8BAC
330
8BAD
330
8BAE
330
8BAF
330
8BB0
330
8BB1
330
8BB2
330
8BB3
330
8C4F
330
9271
330
9272
330
9273
330
9274
330
9275
330
9276
330
9278
330
9279
330
92B0
330
92B1
330
92CD
330
9489
330
948A
330
948B
330
9539
330
9548
330
9550
330
9560
  0
IDBUFFER
  5
6B68
330
0
100
AcDbIdBuffer
330
819A
330
9352
330
93C9
330
93E3
330
950F
  0
IDBUFFER
  5
6B69
330
0
100
AcDbIdBuffer
330
80EC
330
8523
330
8BD1
330
9497
330
9498
  0
IDBUFFER
  5
6B6A
330
0
100
AcDbIdBuffer
330
84D5
330
84D7
330
8892
330
8BD5
  0
IDBUFFER
  5
6B6B
330
0
100
AcDbIdBuffer
330
807A
330
807B
330
807C
330
80B1
330
80B2
330
80B3
330
80DF
330
80E0
330
80E1
330
92C2
330
92C3
330
92C4
330
92C5
330
92C6
330
92C7
330
92C8
330
92C9
330
92CA
330
92CB
330
92CE
330
955F
  0
IDBUFFER
  5
6B6C
330
0
100
AcDbIdBuffer
330
92C1
330
92F8
  0
IDBUFFER
  5
6B6D
330
0
100
AcDbIdBuffer
330
92CC
  0
IDBUFFER
  5
6B6E
330
0
100
AcDbIdBuffer
330
8A73
330
8A76
330
8A78
330
8A7A
330
8A7C
330
8A7E
330
8A80
330
8A85
330
8A87
330
8A88
330
8A8B
330
8A8D
  0
IDBUFFER
  5
6B6F
330
0
100
AcDbIdBuffer
330
957A
330
957E
330
84C9
330
84CA
330
84CB
330
9579
  0
ENDSEC
  0
EOF
