  0
SECTION
  2
HEADER
  9
$ACADVER
  1
AC1014
  9
$ACADMAINTVER
 70
     9
  9
$DWGCODEPAGE
  3
ANSI_1252
  9
$INSBASE
 10
0.0
 20
0.0
 30
0.0
  9
$EXTMIN
 10
-64.57093629170083
 20
-24.00175245362424
 30
-0.0000000349181948
  9
$EXTMAX
 10
80.48034820115299
 20
79.84267937910806
 30
0.0000000814935746
  9
$LIMMIN
 10
0.0
 20
0.0
  9
$LIMMAX
 10
210.0
 20
297.0
  9
$ORTHOMODE
 70
     0
  9
$REGENMODE
 70
     1
  9
$FILLMODE
 70
     1
  9
$QTEXTMODE
 70
     0
  9
$MIRRTEXT
 70
     1
  9
$DRAGMODE
 70
     2
  9
$LTSCALE
 40
1.0
  9
$OSMODE
 70
  2599
  9
$ATTMODE
 70
     1
  9
$TEXTSIZE
 40
2.5
  9
$TRACEWID
 40
1.0
  9
$TEXTSTYLE
  7
STANDARD
  9
$CLAYER
  8
NOCUT
  9
$CELTYPE
  6
BYLAYER
  9
$CECOLOR
 62
   256
  9
$CELTSCALE
 40
1.0
  9
$DELOBJ
 70
     1
  9
$DISPSILH
 70
     0
  9
$DIMSCALE
 40
1.0
  9
$DIMASZ
 40
2.5
  9
$DIMEXO
 40
0.0
  9
$DIMDLI
 40
10.0
  9
$DIMRND
 40
0.0
  9
$DIMDLE
 40
0.0
  9
$DIMEXE
 40
1.0
  9
$DIMTP
 40
0.1
  9
$DIMTM
 40
0.1
  9
$DIMTXT
 40
3.5
  9
$DIMCEN
 40
0.0
  9
$DIMTSZ
 40
0.0
  9
$DIMTOL
 70
     0
  9
$DIMLIM
 70
     0
  9
$DIMTIH
 70
     0
  9
$DIMTOH
 70
     0
  9
$DIMSE1
 70
     0
  9
$DIMSE2
 70
     0
  9
$DIMTAD
 70
     1
  9
$DIMZIN
 70
     8
  9
$DIMBLK
  1

  9
$DIMASO
 70
     1
  9
$DIMSHO
 70
     1
  9
$DIMPOST
  1

  9
$DIMAPOST
  1
"
  9
$DIMALT
 70
     0
  9
$DIMALTD
 70
     2
  9
$DIMALTF
 40
0.0393701
  9
$DIMLFAC
 40
1.0
  9
$DIMTOFL
 70
     1
  9
$DIMTVP
 40
0.0
  9
$DIMTIX
 70
     0
  9
$DIMSOXD
 70
     0
  9
$DIMSAH
 70
     0
  9
$DIMBLK1
  1

  9
$DIMBLK2
  1

  9
$DIMSTYLE
  2
AM_DIN
  9
$DIMCLRD
 70
   256
  9
$DIMCLRE
 70
   256
  9
$DIMCLRT
 70
     2
  9
$DIMTFAC
 40
0.71
  9
$DIMGAP
 40
1.5
  9
$DIMJUST
 70
     0
  9
$DIMSD1
 70
     0
  9
$DIMSD2
 70
     0
  9
$DIMTOLJ
 70
     1
  9
$DIMTZIN
 70
     8
  9
$DIMALTZ
 70
     8
  9
$DIMALTTZ
 70
     8
  9
$DIMFIT
 70
     5
  9
$DIMUPT
 70
     0
  9
$DIMUNIT
 70
     2
  9
$DIMDEC
 70
     2
  9
$DIMTDEC
 70
     2
  9
$DIMALTU
 70
     2
  9
$DIMALTTD
 70
     2
  9
$DIMTXSTY
  7
STANDARD
  9
$DIMAUNIT
 70
     0
  9
$LUNITS
 70
     2
  9
$LUPREC
 70
     2
  9
$SKETCHINC
 40
1.0
  9
$FILLETRAD
 40
2.5
  9
$AUNITS
 70
     0
  9
$AUPREC
 70
     0
  9
$MENU
  1
.
  9
$ELEVATION
 40
0.0
  9
$PELEVATION
 40
0.0
  9
$THICKNESS
 40
0.0
  9
$LIMCHECK
 70
     0
  9
$BLIPMODE
 70
     0
  9
$CHAMFERA
 40
2.5
  9
$CHAMFERB
 40
2.5
  9
$CHAMFERC
 40
0.0
  9
$CHAMFERD
 40
0.0
  9
$SKPOLY
 70
     0
  9
$TDCREATE
 40
2453447.430070810
  9
$TDUPDATE
 40
2453754.123154062
  9
$TDINDWG
 40
0.1830057870
  9
$TDUSRTIMER
 40
0.1829814468
  9
$USRTIMER
 70
     1
  9
$ANGBASE
 50
0.0
  9
$ANGDIR
 70
     0
  9
$PDMODE
 70
     0
  9
$PDSIZE
 40
0.0
  9
$PLINEWID
 40
0.0
  9
$COORDS
 70
     0
  9
$SPLFRAME
 70
     0
  9
$SPLINETYPE
 70
     6
  9
$SPLINESEGS
 70
     8
  9
$ATTDIA
 70
     1
  9
$ATTREQ
 70
     1
  9
$HANDLING
 70
 22529
  9
$HANDSEED
  5
922E
  9
$SURFTAB1
 70
     6
  9
$SURFTAB2
 70
     6
  9
$SURFTYPE
 70
     6
  9
$SURFU
 70
     6
  9
$SURFV
 70
     6
  9
$UCSNAME
  2

  9
$UCSORG
 10
0.0
 20
0.0
 30
0.0
  9
$UCSXDIR
 10
1.0
 20
0.0
 30
0.0
  9
$UCSYDIR
 10
0.0
 20
1.0
 30
0.0
  9
$PUCSNAME
  2

  9
$PUCSORG
 10
0.0
 20
0.0
 30
0.0
  9
$PUCSXDIR
 10
1.0
 20
0.0
 30
0.0
  9
$PUCSYDIR
 10
0.0
 20
1.0
 30
0.0
  9
$USERI1
 70
     0
  9
$USERI2
 70
     0
  9
$USERI3
 70
     0
  9
$USERI4
 70
     0
  9
$USERI5
 70
     0
  9
$USERR1
 40
0.0
  9
$USERR2
 40
0.0
  9
$USERR3
 40
0.0
  9
$USERR4
 40
0.0
  9
$USERR5
 40
0.0
  9
$WORLDVIEW
 70
     1
  9
$SHADEDGE
 70
     3
  9
$SHADEDIF
 70
    70
  9
$TILEMODE
 70
     1
  9
$MAXACTVP
 70
    64
  9
$PINSBASE
 10
0.0
 20
0.0
 30
0.0
  9
$PLIMCHECK
 70
     0
  9
$PEXTMIN
 10
1.000000000000000E+20
 20
1.000000000000000E+20
 30
1.000000000000000E+20
  9
$PEXTMAX
 10
-1.000000000000000E+20
 20
-1.000000000000000E+20
 30
-1.000000000000000E+20
  9
$PLIMMIN
 10
0.0
 20
0.0
  9
$PLIMMAX
 10
420.0
 20
297.0
  9
$UNITMODE
 70
     0
  9
$VISRETAIN
 70
     1
  9
$PLINEGEN
 70
     0
  9
$PSLTSCALE
 70
     1
  9
$TREEDEPTH
 70
  3020
  9
$PICKSTYLE
 70
     0
  9
$CMLSTYLE
  2
STANDARD
  9
$CMLJUST
 70
     0
  9
$CMLSCALE
 40
1.0
  9
$PROXYGRAPHICS
 70
     1
  9
$MEASUREMENT
 70
     1
  0
ENDSEC
  0
SECTION
  2
CLASSES
  0
CLASS
  1
ACDBDICTIONARYWDFLT
  2
AcDbDictionaryWithDefault
  3
AutoCAD 2000
 90
        0
280
     0
281
     0
  0
CLASS
  1
ACDBPLACEHOLDER
  2
AcDbPlaceHolder
  3
AutoCAD 2000
 90
        0
280
     0
281
     0
  0
CLASS
  1
LAYOUT
  2
AcDbLayout
  3
AutoCAD 2000
 90
        0
280
     0
281
     0
  0
CLASS
  1
AMGSETTINGSOBJ
  2
AmgSettingsObj
  3
"AcadM|Product Description: AutoCAD Mechanical 2000|Company: Autodesk"
 90
        0
280
     0
281
     0
  0
CLASS
  1
ACME_DOCUMENT
  2
AcMeDbDoc
  3
AcMeServices
 90
        0
280
     0
281
     0
  0
CLASS
  1
ACMESCOPE
  2
AcMeScope
  3
AcMeServices
 90
        0
280
     0
281
     0
  0
CLASS
  1
ACMECOMMANDHISTORY
  2
AcMeCommandHistory
  3
AcMeServices
 90
        0
280
     0
281
     0
  0
CLASS
  1
ACIMSYSVARMAN
  2
AcImSysVarManager
  3
AcMeServices
 90
        0
280
     0
281
     0
  0
CLASS
  1
ACIMREALSYSVAR
  2
AcImRealSysVar
  3
AcMeServices
 90
        0
280
     0
281
     0
  0
CLASS
  1
ACIMINTSYSVAR
  2
AcImIntSysVar
  3
AcMeServices
 90
        0
280
     0
281
     0
  0
CLASS
  1
ACMEDRAWINGMAN
  2
AcMeDrawingMan
  3
AcMeServices
 90
        0
280
     0
281
     0
  0
CLASS
  1
ACMEVIEW
  2
AcMeView
  3
AcMeServices
 90
        0
280
     0
281
     0
  0
CLASS
  1
ACDBENTITYCACHE
  2
AcMeEntityCache
  3
AcMeServices
 90
        0
280
     0
281
     0
  0
CLASS
  1
GSMANAGER
  2
AcMeGSManager
  3
AcMeServices
 90
        0
280
     0
281
     0
  0
CLASS
  1
AMDTINTERNALREACTOR
  2
AmdtInternalReactor
  3
AcMeServices
 90
        0
280
     0
281
     0
  0
CLASS
  1
ACMESTATEMGR
  2
AcMeStateMgr
  3
AcMeServices
 90
        0
280
     0
281
     0
  0
CLASS
  1
ACGREFMASTER
  2
AcGrefMaster
  3
AcAttribServices
 90
        0
280
     0
281
     0
  0
CLASS
  1
ACME_DATABASE
  2
AcMeDbDatabase
  3
AcMeServices
 90
        0
280
     0
281
     0
  0
CLASS
  1
ACRFINSADJUSTERMGR
  2
AcRfInsAdjusterMgr
  3
AcMeServices
 90
        0
280
     0
281
     0
  0
CLASS
  1
ACGREFACADMASTER
  2
AcGrefacadMaster
  3
AcGrefServices
 90
        0
280
     0
281
     0
  0
CLASS
  1
AMIMASTER
  2
AmiMaster
  3
AmiServices
 90
        0
280
     0
281
     0
  0
CLASS
  1
ACMDATADICTIONARY
  2
AcmDataDictionary
  3
"AcmSymBB|Product Description: AutoCAD Mechanical 2000|Company: Autodesk"
 90
        0
280
     0
281
     0
  0
CLASS
  1
ACMDATAENTRYBLOCK
  2
AcmDataEntryBlock
  3
"AcmSymBB|Product Description: AutoCAD Mechanical 2000|Company: Autodesk"
 90
        0
280
     0
281
     0
  0
CLASS
  1
ACIMSTRSYSVAR
  2
AcImStrSysVar
  3
AcMeServices
 90
        0
280
     0
281
     0
  0
CLASS
  1
ACMSTANDARDANSI
  2
AcmStandardANSI
  3
"Amdt_StdImp|Product Description: AutoCAD Mechanical 2000|Company: Autodesk"
 90
        0
280
     0
281
     0
  0
CLASS
  1
AMGOBJPROPCFG
  2
AmgObjPropCfg
  3
"AmgLay|Product Description: AutoCAD Mechanical 2000|Company: Autodesk"
 90
        1
280
     0
281
     0
  0
CLASS
  1
ACMSURFSTANDARDANSI
  2
AcmSurfTextStdANSI
  3
"Amdt_StdImp|Product Description: AutoCAD Mechanical 2000|Company: Autodesk"
 90
        0
280
     0
281
     0
  0
CLASS
  1
ACMFCFSTANDARDANSI
  2
AcmFCFStdANSI
  3
"Amdt_StdImp|Product Description: AutoCAD Mechanical 2000|Company: Autodesk"
 90
        0
280
     0
281
     0
  0
CLASS
  1
ACMWELDSTANDARDANSI
  2
AcmWeldingStdANSI
  3
"Amdt_StdImp|Product Description: AutoCAD Mechanical 2000|Company: Autodesk"
 90
        0
280
     0
281
     0
  0
CLASS
  1
ACMIDSTANDARDANSI
  2
AcmIdStdANSI
  3
"Amdt_StdImp|Product Description: AutoCAD Mechanical 2000|Company: Autodesk"
 90
        0
280
     0
281
     0
  0
CLASS
  1
ACMDATUMSTANDARDANSI
  2
AcmDatumStdANSI
  3
"Amdt_StdImp|Product Description: AutoCAD Mechanical 2000|Company: Autodesk"
 90
        0
280
     0
281
     0
  0
CLASS
  1
ACMBOMSTANDARDANSI
  2
AcmBOMStdANSI
  3
"Amdt_StdImp|Product Description: AutoCAD Mechanical 2000|Company: Autodesk"
 90
        0
280
     0
281
     0
  0
CLASS
  1
ACMDETAILSTANDARDANSI
  2
AmdtDetailSymStdANSI
  3
"Amdt_StdImp|Product Description: AutoCAD Mechanical 2000|Company: Autodesk"
 90
        0
280
     0
281
     0
  0
CLASS
  1
ACMSECTIONSTANDARDANSI
  2
AmdtSectionSymStdANSI
  3
"Amdt_StdImp|Product Description: AutoCAD Mechanical 2000|Company: Autodesk"
 90
        0
280
     0
281
     0
  0
CLASS
  1
ACMCENTERLINESTANDARDANSI
  2
AmdtCenterLineStdANSI
  3
"Amdt_StdImp|Product Description: AutoCAD Mechanical 2000|Company: Autodesk"
 90
        0
280
     0
281
     0
  0
CLASS
  1
ACMNOTESTANDARDANSI
  2
AmdtNoteStdANSI
  3
"Amdt_StdImp|Product Description: AutoCAD Mechanical 2000|Company: Autodesk"
 90
        0
280
     0
281
     0
  0
CLASS
  1
ACAMGLAYSTD
  2
AcAmgLayStd
  3
"AcAmgLayStd|Product Description: AutoCAD Mechanical 2000|Company: Autodesk"
 90
        0
280
     0
281
     0
  0
CLASS
  1
ACAMGDIMSTD
  2
AcAmgDimStd
  3
"AcAmgDimStd|Product Description: AutoCAD Mechanical 2000|Company: Autodesk"
 90
        0
280
     0
281
     0
  0
CLASS
  1
ACAMGHOLECHARTSTDANSI
  2
AcAmgHoleChartStdANSI
  3
ACMSYMBB_MODULE_NAME
 90
        0
280
     0
281
     0
  0
CLASS
  1
ACAMGTITLESTD
  2
AcAmgTitleStd
  3
"TITLEAPP"
 90
        0
280
     0
281
     0
  0
CLASS
  1
ACAMGFILTERDAT
  2
AcAmgFilterDat
  3
"AcadM|Product Description: AutoCAD Mechanical 2000|Company: Autodesk"
 90
        0
280
     0
281
     0
  0
CLASS
  1
LAYER_INDEX
  2
AcDbLayerIndex
  3
AutoCAD 2000
 90
        0
280
     0
281
     0
  0
CLASS
  1
IDBUFFER
  2
AcDbIdBuffer
  3
AutoCAD 2000
 90
        0
280
     0
281
     0
  0
CLASS
  1
DICTIONARYVAR
  2
AcDbDictionaryVar
  3
AutoCAD 2000
 90
        0
280
     0
281
     0
  0
CLASS
  1
ACMSTANDARDDIN
  2
AcmStandardDIN
  3
"Amdt_StdImp|Product Description: AutoCAD Mechanical 2000|Company: Autodesk"
 90
        0
280
     0
281
     0
  0
CLASS
  1
AMDTEDGESTANDARDDIN
  2
AmdtEdgeStdDIN
  3
"Amdt_StdImp|Product Description: AutoCAD Mechanical 2000|Company: Autodesk"
 90
        0
280
     0
281
     0
  0
CLASS
  1
ACMSURFSTANDARDDIN
  2
AcmSurfTextStdDIN
  3
"Amdt_StdImp|Product Description: AutoCAD Mechanical 2000|Company: Autodesk"
 90
        0
280
     0
281
     0
  0
CLASS
  1
ACMFCFSTANDARDDIN
  2
AcmFCFStdDIN
  3
"Amdt_StdImp|Product Description: AutoCAD Mechanical 2000|Company: Autodesk"
 90
        0
280
     0
281
     0
  0
CLASS
  1
ACMWELDSTANDARDDIN
  2
AcmWeldingStdDIN
  3
"Amdt_StdImp|Product Description: AutoCAD Mechanical 2000|Company: Autodesk"
 90
        0
280
     0
281
     0
  0
CLASS
  1
ACMIDSTANDARDDIN
  2
AcmIdStdDIN
  3
"Amdt_StdImp|Product Description: AutoCAD Mechanical 2000|Company: Autodesk"
 90
        0
280
     0
281
     0
  0
CLASS
  1
ACMDATUMSTANDARDDIN
  2
AcmDatumStdDIN
  3
"Amdt_StdImp|Product Description: AutoCAD Mechanical 2000|Company: Autodesk"
 90
        0
280
     0
281
     0
  0
CLASS
  1
ACMBOMSTANDARDDIN
  2
AcmBOMStdDIN
  3
"Amdt_StdImp|Product Description: AutoCAD Mechanical 2000|Company: Autodesk"
 90
        0
280
     0
281
     0
  0
CLASS
  1
ACMDETAILSTANDARDDIN
  2
AmdtDetailSymStdDIN
  3
"Amdt_StdImp|Product Description: AutoCAD Mechanical 2000|Company: Autodesk"
 90
        0
280
     0
281
     0
  0
CLASS
  1
ACMSECTIONSTANDARDDIN
  2
AmdtSectionSymStdDIN
  3
"Amdt_StdImp|Product Description: AutoCAD Mechanical 2000|Company: Autodesk"
 90
        0
280
     0
281
     0
  0
CLASS
  1
ACMCENTERLINESTANDARDDIN
  2
AmdtCenterLineStdDIN
  3
"Amdt_StdImp|Product Description: AutoCAD Mechanical 2000|Company: Autodesk"
 90
        0
280
     0
281
     0
  0
CLASS
  1
ACMNOTESTANDARDDIN
  2
AmdtNoteStdDIN
  3
"Amdt_StdImp|Product Description: AutoCAD Mechanical 2000|Company: Autodesk"
 90
        0
280
     0
281
     0
  0
CLASS
  1
ACAMGHOLECHARTSTDDIN
  2
AcAmgHoleChartStdDIN
  3
ACMSYMBB_MODULE_NAME
 90
        0
280
     0
281
     0
  0
CLASS
  1
AMDTFORMULAUPDATEDISPATCHER
  2
AmdtFormulaUpdateDispatcher
  3
AcMeServices
 90
        0
280
     0
281
     0
  0
CLASS
  1
ACMSURFSYM
  2
AcmSurfaceTexture
  3
"AcmSymBB|Product Description: AutoCAD Mechanical 2000|Company: Autodesk"
 90
     1023
280
     0
281
     1
  0
CLASS
  1
LONG_TRANSACTION
  2
AcDbLongTransaction
  3
AutoCAD 2000
 90
        0
280
     0
281
     0
  0
CLASS
  1
LWPOLYLINE
  2
AcDbPolyline
  3
AutoCAD 2000
 90
        0
280
     0
281
     1
  0
CLASS
  1
HATCH
  2
AcDbHatch
  3
AutoCAD 2000
 90
        0
280
     0
281
     1
  0
CLASS
  1
XRECORD
  2
AcDbXrecord
  3
AutoCAD 2000
 90
        0
280
     0
281
     0
  0
ENDSEC
  0
SECTION
  2
TABLES
  0
TABLE
  2
VPORT
  5
6A1E
330
0
100
AcDbSymbolTable
 70
     4
  0
VPORT
  5
9209
330
6A1E
100
AcDbSymbolTableRecord
100
AcDbViewportTableRecord
  2
*ACTIVE
 70
     0
 10
0.0
 20
0.0
 11
1.0
 21
1.0
 12
72.71453185414955
 22
136.4991237731878
 13
0.0
 23
0.0
 14
2.5
 24
2.5
 15
10.0
 25
10.0
 16
0.0
 26
0.0
 36
1.0
 17
0.0
 27
0.0
 37
0.0
 40
324.5883642128826
 41
1.716417910447761
 42
50.0
 43
0.0
 44
0.0
 50
0.0
 51
0.0
 71
    16
 72
 10000
 73
     1
 74
     3
 75
     0
 76
     0
 77
     0
 78
     0
  0
ENDTAB
  0
TABLE
  2
LTYPE
  5
6A1B
330
0
100
AcDbSymbolTable
 70
    16
  0
LTYPE
  5
6A29
330
6A1B
100
AcDbSymbolTableRecord
100
AcDbLinetypeTableRecord
  2
BYBLOCK
 70
     0
  3

 72
    65
 73
     0
 40
0.0
  0
LTYPE
  5
6A2A
330
6A1B
100
AcDbSymbolTableRecord
100
AcDbLinetypeTableRecord
  2
BYLAYER
 70
     0
  3

 72
    65
 73
     0
 40
0.0
  0
LTYPE
  5
6A2B
330
6A1B
100
AcDbSymbolTableRecord
100
AcDbLinetypeTableRecord
  2
CONTINUOUS
 70
     0
  3
Solid line
 72
    65
 73
     0
 40
0.0
  0
LTYPE
  5
6A39
330
6A1B
100
AcDbSymbolTableRecord
100
AcDbLinetypeTableRecord
  2
AMCONSTR
 70
     0
  3
_______________________
 72
    65
 73
     2
 40
9999.0
 49
9999.0
 74
     0
 49
0.0
 74
     0
  0
LTYPE
  5
6A43
330
6A1B
100
AcDbSymbolTableRecord
100
AcDbLinetypeTableRecord
  2
CENTER
 70
     0
  3
__ . __
 72
    65
 73
     4
 40
7.0
 49
4.0
 74
     0
 49
-1.0
 74
     0
 49
1.0
 74
     0
 49
-1.0
 74
     0
  0
LTYPE
  5
6A45
330
6A1B
100
AcDbSymbolTableRecord
100
AcDbLinetypeTableRecord
  2
PHANTOM2
 70
     0
  3
Phantom (.5x) ___ _ _ ___ _ _ ___ _ _ ___ _ _
 72
    65
 73
     6
 40
1.25
 49
0.625
 74
     0
 49
-0.125
 74
     0
 49
0.125
 74
     0
 49
-0.125
 74
     0
 49
0.125
 74
     0
 49
-0.125
 74
     0
  0
LTYPE
  5
6A46
330
6A1B
100
AcDbSymbolTableRecord
100
AcDbLinetypeTableRecord
  2
ACANSTGB
 70
     0
  3
__ . . __ . .
 72
    65
 73
     6
 40
0.35433070866
 49
0.15748031496
 74
     0
 49
-0.03937007874
 74
     0
 49
0.03937007874
 74
     0
 49
-0.03937007874
 74
     0
 49
0.03937007874
 74
     0
 49
-0.03937007874
 74
     0
  0
LTYPE
  5
6A47
330
6A1B
100
AcDbSymbolTableRecord
100
AcDbLinetypeTableRecord
  2
ACANSTGL
 70
     0
  3
_ _ _ _ _
 72
    65
 73
     2
 40
0.11811023622
 49
0.07874015748
 74
     0
 49
-0.03937007874
 74
     0
  0
LTYPE
  5
6D97
330
6A1B
100
AcDbSymbolTableRecord
100
AcDbLinetypeTableRecord
  2
ACDINWELD
 70
     0
  3
_ _ _ _ _
 72
    65
 73
     2
 40
2.0
 49
2.0
 74
     0
 49
-1.0
 74
     0
  0
LTYPE
  5
6D98
330
6A1B
100
AcDbSymbolTableRecord
100
AcDbLinetypeTableRecord
  2
ACDINTGB
 70
     0
  3
__ . . __ . .
 72
    65
 73
     6
 40
9.0
 49
4.0
 74
     0
 49
-1.0
 74
     0
 49
1.0
 74
     0
 49
-1.0
 74
     0
 49
1.0
 74
     0
 49
-1.0
 74
     0
  0
LTYPE
  5
6D99
330
6A1B
100
AcDbSymbolTableRecord
100
AcDbLinetypeTableRecord
  2
ACDINTGL
 70
     0
  3
_ _ _ _ _
 72
    65
 73
     2
 40
3.0
 49
2.0
 74
     0
 49
-1.0
 74
     0
  0
LTYPE
  5
8543
330
6A1B
100
AcDbSymbolTableRecord
100
AcDbLinetypeTableRecord
  2
AMZIGZAG
 70
     0
  3
/\/-/\/-/\/-/\/-/\/-/\/
 72
    65
 73
     2
 40
11.00009999999999
 49
0.0001
 74
     4
 75
   135
340
6A5B
 46
0.04
 50
0.0
 44
0.0
 45
0.0
 49
-11.0
 74
     0
  0
LTYPE
  5
8544
330
6A1B
100
AcDbSymbolTableRecord
100
AcDbLinetypeTableRecord
  2
AM_DIN_F_W050
 70
     0
  3
__ __ __ __ __ __ __ __ __ __ __ __ __ __ __
 72
    65
 73
     2
 40
6.25
 49
4.75
 74
     0
 49
-1.5
 74
     0
  0
LTYPE
  5
8545
330
6A1B
100
AcDbSymbolTableRecord
100
AcDbLinetypeTableRecord
  2
AM_DIN_G_W050
 70
     0
  3
____ . ____ . ____ . ____ . ____ . ____ . ____
 72
    65
 73
     4
 40
13.75
 49
9.75
 74
     0
 49
-1.5
 74
     0
 49
1.0
 74
     0
 49
-1.5
 74
     0
  0
LTYPE
  5
8546
330
6A1B
100
AcDbSymbolTableRecord
100
AcDbLinetypeTableRecord
  2
AM_DIN_K_W050
 70
     0
  3
_____ . . _____ . . _____ . . ____ .. ____
 72
    65
 73
     6
 40
16.25
 49
9.75
 74
     0
 49
-1.5
 74
     0
 49
1.0
 74
     0
 49
-1.5
 74
     0
 49
1.0
 74
     0
 49
-1.5
 74
     0
  0
LTYPE
  5
8547
330
6A1B
100
AcDbSymbolTableRecord
100
AcDbLinetypeTableRecord
  2
AM_DIN_G_W050X2
 70
     0
  3
__ . __ . __ . __ . __ . __
 72
    65
 73
     4
 40
6.875
 49
4.75
 74
     0
 49
-0.875
 74
     0
 49
0.375
 74
     0
 49
-0.875
 74
     0
  0
LTYPE
  5
8548
330
6A1B
100
AcDbSymbolTableRecord
100
AcDbLinetypeTableRecord
  2
AM_DIN_F_W050X2
 70
     0
  3
 _ _ _ _ _ _ _ _ _ _ _ _
 72
    65
 73
     2
 40
3.125
 49
2.25
 74
     0
 49
-0.875
 74
     0
  0
LTYPE
  5
8E88
330
6A1B
100
AcDbSymbolTableRecord
100
AcDbLinetypeTableRecord
  2
DASHED
 70
     0
  3
__ __ __ __ __ __ __ __ __ __ __ __ __ __ __ __
 72
    65
 73
     2
 40
19.05
 49
12.7
 74
     0
 49
-6.349999999999998
 74
     0
  0
ENDTAB
  0
TABLE
  2
LAYER
  5
6A18
330
0
100
AcDbSymbolTable
 70
    13
  0
LAYER
  5
6A26
330
6A18
100
AcDbSymbolTableRecord
100
AcDbLayerTableRecord
  2
0
 70
     0
 62
     7
  6
CONTINUOUS
  0
LAYER
  5
6A4B
330
6A18
100
AcDbSymbolTableRecord
100
AcDbLayerTableRecord
  2
DEFPOINTS
 70
     0
 62
     7
  6
CONTINUOUS
  0
LAYER
  5
6A4C
330
6A18
100
AcDbSymbolTableRecord
100
AcDbLayerTableRecord
  2
1
 70
     0
 62
     4
  6
CONTINUOUS
  0
LAYER
  5
6A4D
330
6A18
100
AcDbSymbolTableRecord
100
AcDbLayerTableRecord
  2
2
 70
     0
 62
     7
  6
CONTINUOUS
  0
LAYER
  5
6A4F
330
6A18
100
AcDbSymbolTableRecord
100
AcDbLayerTableRecord
  2
4
 70
     0
 62
     2
  6
CENTER
  0
LAYER
  5
6A50
330
6A18
100
AcDbSymbolTableRecord
100
AcDbLayerTableRecord
  2
6
 70
     0
 62
     5
  6
CONTINUOUS
  0
LAYER
  5
6A53
330
6A18
100
AcDbSymbolTableRecord
100
AcDbLayerTableRecord
  2
SK1
 70
     0
 62
     4
  6
CONTINUOUS
  0
LAYER
  5
6A54
330
6A18
100
AcDbSymbolTableRecord
100
AcDbLayerTableRecord
  2
SK2
 70
     0
 62
     7
  6
CONTINUOUS
  0
LAYER
  5
6A56
330
6A18
100
AcDbSymbolTableRecord
100
AcDbLayerTableRecord
  2
SK4
 70
     0
 62
     2
  6
CENTER
  0
LAYER
  5
6A57
330
6A18
100
AcDbSymbolTableRecord
100
AcDbLayerTableRecord
  2
CUT
 70
     0
 62
     1
  6
CONTINUOUS
  0
LAYER
  5
6A58
330
6A18
100
AcDbSymbolTableRecord
100
AcDbLayerTableRecord
  2
NOCUT
 70
     0
 62
     7
  6
CONTINUOUS
  0
LAYER
  5
8E89
330
6A18
100
AcDbSymbolTableRecord
100
AcDbLayerTableRecord
  2
SK3
 70
     0
 62
     1
  6
DASHED
  0
LAYER
  5
8E8A
330
6A18
100
AcDbSymbolTableRecord
100
AcDbLayerTableRecord
  2
SK6
 70
     0
 62
     5
  6
CONTINUOUS
  0
ENDTAB
  0
TABLE
  2
STYLE
  5
6A19
330
0
100
AcDbSymbolTable
 70
     6
  0
STYLE
  5
6A27
330
6A19
100
AcDbSymbolTableRecord
100
AcDbTextStyleTableRecord
  2
STANDARD
 70
     0
 40
0.0
 41
1.0
 50
0.0
 71
     0
 42
2.5
  3
ISOCP.SHX
  4

  0
STYLE
  5
6A5B
330
6A19
100
AcDbSymbolTableRecord
100
AcDbTextStyleTableRecord
  2

 70
     1
 40
0.0
 41
1.0
 50
0.0
 71
     0
 42
2.5
  3
ltypeshp.shx
  4

  0
STYLE
  5
6A5E
330
6A19
100
AcDbSymbolTableRecord
100
AcDbTextStyleTableRecord
  2
ACANSTS
 70
     0
 40
1.0
 41
1.0
 50
0.0
 71
     0
 42
0.2
  3
romans.shx
  4

  0
STYLE
  5
6A5F
330
6A19
100
AcDbSymbolTableRecord
100
AcDbTextStyleTableRecord
  2
ACANSGDT
 70
     0
 40
0.0
 41
1.0
 50
0.0
 71
     0
 42
0.2
  3
amgdtans.shx
  4

  0
STYLE
  5
6D9A
330
6A19
100
AcDbSymbolTableRecord
100
AcDbTextStyleTableRecord
  2
ACDINTS
 70
     0
 40
1.0
 41
1.0
 50
0.0
 71
     0
 42
2.5
  3
isocp.shx
  4

  0
STYLE
  5
6D9B
330
6A19
100
AcDbSymbolTableRecord
100
AcDbTextStyleTableRecord
  2
ACDINGDT
 70
     0
 40
0.0
 41
1.0
 50
0.0
 71
     0
 42
2.5
  3
amgdt.shx
  4

  0
ENDTAB
  0
TABLE
  2
VIEW
  5
6A1C
330
0
100
AcDbSymbolTable
 70
     6
  0
VIEW
  5
6A60
330
6A1C
100
AcDbSymbolTableRecord
100
AcDbViewTableRecord
  2
AM_VIEW1
 70
     0
 40
148.5
 10
131.508173076923
 20
222.75
 41
263.016346153846
 11
0.0
 21
0.0
 31
1.0
 12
0.0
 22
0.0
 32
0.0
 42
50.0
 43
0.0
 44
0.0
 50
0.0
 71
    16
  0
VIEW
  5
6A61
330
6A1C
100
AcDbSymbolTableRecord
100
AcDbViewTableRecord
  2
AM_VIEW2
 70
     0
 40
148.5
 10
78.4918269230769
 20
222.75
 41
263.016346153846
 11
0.0
 21
0.0
 31
1.0
 12
0.0
 22
0.0
 32
0.0
 42
50.0
 43
0.0
 44
0.0
 50
0.0
 71
    16
  0
VIEW
  5
6A62
330
6A1C
100
AcDbSymbolTableRecord
100
AcDbViewTableRecord
  2
AM_VIEW3
 70
     0
 40
148.5
 10
131.508173076923
 20
74.25
 41
263.016346153846
 11
0.0
 21
0.0
 31
1.0
 12
0.0
 22
0.0
 32
0.0
 42
50.0
 43
0.0
 44
0.0
 50
0.0
 71
    16
  0
VIEW
  5
6A63
330
6A1C
100
AcDbSymbolTableRecord
100
AcDbViewTableRecord
  2
AM_VIEW4
 70
     0
 40
148.5
 10
78.4918269230769
 20
74.25
 41
263.016346153846
 11
0.0
 21
0.0
 31
1.0
 12
0.0
 22
0.0
 32
0.0
 42
50.0
 43
0.0
 44
0.0
 50
0.0
 71
    16
  0
VIEW
  5
6A64
330
6A1C
100
AcDbSymbolTableRecord
100
AcDbViewTableRecord
  2
AM_VIEW5
 70
     0
 40
148.5
 10
105.0
 20
148.5
 41
263.016346153846
 11
0.0
 21
0.0
 31
1.0
 12
0.0
 22
0.0
 32
0.0
 42
50.0
 43
0.0
 44
0.0
 50
0.0
 71
    16
  0
VIEW
  5
6A65
330
6A1C
100
AcDbSymbolTableRecord
100
AcDbViewTableRecord
  2
AM_VIEW6
 70
     0
 40
296.9970299999999
 10
105.0
 20
148.5
 41
526.0274319807693
 11
0.0
 21
0.0
 31
1.0
 12
0.0
 22
0.0
 32
0.0
 42
50.0
 43
0.0
 44
0.0
 50
0.0
 71
    16
  0
ENDTAB
  0
TABLE
  2
UCS
  5
6A1D
330
0
100
AcDbSymbolTable
 70
     0
  0
ENDTAB
  0
TABLE
  2
APPID
  5
6A1F
330
0
100
AcDbSymbolTable
 70
    44
  0
APPID
  5
6A28
330
6A1F
100
AcDbSymbolTableRecord
100
AcDbRegAppTableRecord
  2
ACAD
 70
     0
  0
APPID
  5
6A66
330
6A1F
100
AcDbSymbolTableRecord
100
AcDbRegAppTableRecord
  2
MCAD_NO_VIS
 70
     0
  0
APPID
  5
6A67
330
6A1F
100
AcDbSymbolTableRecord
100
AcDbRegAppTableRecord
  2
ACAD_TEMP_GRAPHIC
 70
     0
  0
APPID
  5
6A68
330
6A1F
100
AcDbSymbolTableRecord
100
AcDbRegAppTableRecord
  2
ACATTRIBSERVICES
 70
     0
  0
APPID
  5
6A69
330
6A1F
100
AcDbSymbolTableRecord
100
AcDbRegAppTableRecord
  2
GENIUS_GENDIMSH_14
 70
     0
  0
APPID
  5
6A6A
330
6A1F
100
AcDbSymbolTableRecord
100
AcDbRegAppTableRecord
  2
GENIUS_GENBLLY_14
 70
     0
  0
APPID
  5
6A6B
330
6A1F
100
AcDbSymbolTableRecord
100
AcDbRegAppTableRecord
  2
GENIUS_GENTRA_14
 70
     0
  0
APPID
  5
6A6C
330
6A1F
100
AcDbSymbolTableRecord
100
AcDbRegAppTableRecord
  2
GENIUS_GENODEF_13
 70
     0
  0
APPID
  5
6A6D
330
6A1F
100
AcDbSymbolTableRecord
100
AcDbRegAppTableRecord
  2
GENIUS_GENOLIS_13
 70
     0
  0
APPID
  5
6A6E
330
6A1F
100
AcDbSymbolTableRecord
100
AcDbRegAppTableRecord
  2
GENIUS_GENOENT_13
 70
     0
  0
APPID
  5
6A6F
330
6A1F
100
AcDbSymbolTableRecord
100
AcDbRegAppTableRecord
  2
GENIUS_GENOBJ-N-TIT_13
 70
     0
  0
APPID
  5
6A70
330
6A1F
100
AcDbSymbolTableRecord
100
AcDbRegAppTableRecord
  2
GENIUS_GENTITLE_13
 70
     0
  0
APPID
  5
6A71
330
6A1F
100
AcDbSymbolTableRecord
100
AcDbRegAppTableRecord
  2
GENIUS_GENOREF_13
 70
     0
  0
APPID
  5
6A72
330
6A1F
100
AcDbSymbolTableRecord
100
AcDbRegAppTableRecord
  2
GENIUS_GENSCREG_15
 70
     0
  0
APPID
  5
6A73
330
6A1F
100
AcDbSymbolTableRecord
100
AcDbRegAppTableRecord
  2
GENIUS_GENOBJ-N-SDF_13
 70
     0
  0
APPID
  5
6A74
330
6A1F
100
AcDbSymbolTableRecord
100
AcDbRegAppTableRecord
  2
ACADIGES
 70
     0
  0
APPID
  5
6A75
330
6A1F
100
AcDbSymbolTableRecord
100
AcDbRegAppTableRecord
  2
GENIUS_GENOBJ-N-HTC_13
 70
     0
  0
APPID
  5
6A76
330
6A1F
100
AcDbSymbolTableRecord
100
AcDbRegAppTableRecord
  2
GENIUS_GENHATCH_13
 70
     0
  0
APPID
  5
6DA2
330
6A1F
100
AcDbSymbolTableRecord
100
AcDbRegAppTableRecord
  2
GENIUS_GENOBJ-N-CRS_13
 70
     0
  0
APPID
  5
6DA3
330
6A1F
100
AcDbSymbolTableRecord
100
AcDbRegAppTableRecord
  2
GENIUS_GENOBJ-N-FIL_13
 70
     0
  0
APPID
  5
6DD2
330
6A1F
100
AcDbSymbolTableRecord
100
AcDbRegAppTableRecord
  2
GENIUS_GENFIL_13
 70
     0
  0
APPID
  5
6DD3
330
6A1F
100
AcDbSymbolTableRecord
100
AcDbRegAppTableRecord
  2
GENIUS_GENOBJ-N-CHA_13
 70
     0
  0
APPID
  5
7FA8
330
6A1F
100
AcDbSymbolTableRecord
100
AcDbRegAppTableRecord
  2
GENIUS12
 70
     0
  0
APPID
  5
7FA9
330
6A1F
100
AcDbSymbolTableRecord
100
AcDbRegAppTableRecord
  2
GENIUS_GENCFG_13
 70
     0
  0
APPID
  5
7FAA
330
6A1F
100
AcDbSymbolTableRecord
100
AcDbRegAppTableRecord
  2
GENIUS_GEFCFG0_13
 70
     0
  0
APPID
  5
7FAB
330
6A1F
100
AcDbSymbolTableRecord
100
AcDbRegAppTableRecord
  2
GENIUS_GENCFG0_13
 70
     0
  0
APPID
  5
7FAC
330
6A1F
100
AcDbSymbolTableRecord
100
AcDbRegAppTableRecord
  2
GENIUS_GENCFG1_13
 70
     0
  0
APPID
  5
7FAD
330
6A1F
100
AcDbSymbolTableRecord
100
AcDbRegAppTableRecord
  2
GENIUS_GENCFG2_13
 70
     0
  0
APPID
  5
7FAE
330
6A1F
100
AcDbSymbolTableRecord
100
AcDbRegAppTableRecord
  2
GENIUS_GENCFG3_13
 70
     0
  0
APPID
  5
7FAF
330
6A1F
100
AcDbSymbolTableRecord
100
AcDbRegAppTableRecord
  2
GENIUS_GENCFG4_13
 70
     0
  0
APPID
  5
7FB0
330
6A1F
100
AcDbSymbolTableRecord
100
AcDbRegAppTableRecord
  2
GENIUS_GEVCFG0_13
 70
     0
  0
APPID
  5
7FB1
330
6A1F
100
AcDbSymbolTableRecord
100
AcDbRegAppTableRecord
  2
GENIUS_GENOBJ-F-SUF_13
 70
     0
  0
APPID
  5
7FB2
330
6A1F
100
AcDbSymbolTableRecord
100
AcDbRegAppTableRecord
  2
GENIUS_GENDIM_13
 70
     0
  0
APPID
  5
7FB3
330
6A1F
100
AcDbSymbolTableRecord
100
AcDbRegAppTableRecord
  2
GENIUS_GENDTOL_13
 70
     0
  0
APPID
  5
7FB4
330
6A1F
100
AcDbSymbolTableRecord
100
AcDbRegAppTableRecord
  2
GENIUS_GE3DTOL_13
 70
     0
  0
APPID
  5
7FB5
330
6A1F
100
AcDbSymbolTableRecord
100
AcDbRegAppTableRecord
  2
AD_DRAW
 70
     0
  0
APPID
  5
7FB6
330
6A1F
100
AcDbSymbolTableRecord
100
AcDbRegAppTableRecord
  2
ASURF_PCURVE_APPNAME
 70
     0
  0
APPID
  5
7FB7
330
6A1F
100
AcDbSymbolTableRecord
100
AcDbRegAppTableRecord
  2
AMG_3D2D_5_0
 70
     0
  0
APPID
  5
7FB8
330
6A1F
100
AcDbSymbolTableRecord
100
AcDbRegAppTableRecord
  2
DESIGNERASSEMBLIES
 70
     0
  0
APPID
  5
7FB9
330
6A1F
100
AcDbSymbolTableRecord
100
AcDbRegAppTableRecord
  2
ACADM_DIM_EDIT
 70
     0
  0
APPID
  5
7FBA
330
6A1F
100
AcDbSymbolTableRecord
100
AcDbRegAppTableRecord
  2
AMDT_DM_ADJ
 70
     0
  0
APPID
  5
85F3
330
6A1F
100
AcDbSymbolTableRecord
100
AcDbRegAppTableRecord
  2
GENIUS_GENOBJ-N-CEN_13
 70
     0
  0
APPID
  5
89F7
330
6A1F
100
AcDbSymbolTableRecord
100
AcDbRegAppTableRecord
  2
DCO15
 70
     0
  0
APPID
  5
8E8B
330
6A1F
100
AcDbSymbolTableRecord
100
AcDbRegAppTableRecord
  2
GEV_VCCNULL_SWITCH_OFF
 70
     0
  0
ENDTAB
  0
TABLE
  2
DIMSTYLE
  5
6A20
330
0
100
AcDbSymbolTable
 70
    14
  0
DIMSTYLE
105
6A77
102
{ACAD_REACTORS
330
8DA5
330
9059
330
9105
330
9182
102
}
330
6A20
100
AcDbSymbolTableRecord
100
AcDbDimStyleTableRecord
  2
AM_DIN
 70
     0
  3

  4
"
  5

  6

  7

 40
1.0
 41
2.5
 42
0.0
 43
10.0
 44
1.0
 45
0.0
 46
0.0
 47
0.1
 48
0.1
140
3.5
141
0.0
142
0.0
143
0.0393701
144
1.0
145
0.0
146
0.71
147
1.5
 71
     0
 72
     0
 73
     0
 74
     0
 75
     0
 76
     0
 77
     1
 78
     8
170
     0
171
     2
172
     1
173
     0
174
     0
175
     0
176
   256
177
   256
178
     2
270
     2
271
     2
272
     2
273
     2
274
     2
340
6A27
275
     0
280
     0
281
     0
282
     0
283
     1
284
     8
285
     8
286
     8
287
     5
288
     0
  0
DIMSTYLE
105
6A7E
330
6A20
100
AcDbSymbolTableRecord
100
AcDbDimStyleTableRecord
  2
STANDARD
 70
     0
  3

  4

  5

  6

  7

 40
1.0
 41
0.18
 42
0.0625
 43
0.38
 44
0.18
 45
0.0
 46
0.0
 47
0.0
 48
0.0
140
0.18
141
0.09
142
0.0
143
25.4
144
1.0
145
0.0
146
1.0
147
0.09
 71
     0
 72
     0
 73
     1
 74
     1
 75
     0
 76
     0
 77
     0
 78
     0
170
     0
171
     2
172
     0
173
     0
174
     0
175
     0
176
     0
177
     0
178
     0
270
     2
271
     2
272
     2
273
     2
274
     2
340
6A27
275
     0
280
     0
281
     0
282
     0
283
     1
284
     8
285
     8
286
     8
287
     5
288
     0
  0
DIMSTYLE
105
6A7F
102
{ACAD_REACTORS
330
819A
330
9088
330
905A
102
}
330
6A20
100
AcDbSymbolTableRecord
100
AcDbDimStyleTableRecord
  2
AM_ANSI
 70
     0
  3

  4
mm
  5

  6

  7

 40
1.0
 41
0.1
 42
0.05
 43
0.5
 44
0.1
 45
0.0
 46
0.0
 47
0.1
 48
0.1
140
0.12
141
0.0
142
0.0
143
25.4
144
1.0
145
0.0
146
0.71
147
0.06
 71
     0
 72
     0
 73
     1
 74
     1
 75
     0
 76
     0
 77
     0
 78
     7
170
     0
171
     2
172
     0
173
     0
174
     0
175
     0
176
   256
177
   256
178
     2
270
     2
271
     2
272
     2
273
     2
274
     2
340
6A27
275
     0
280
     0
281
     0
282
     0
283
     1
284
     8
285
     8
286
     8
287
     5
288
     0
  0
DIMSTYLE
105
6A80
330
6A20
100
AcDbSymbolTableRecord
100
AcDbDimStyleTableRecord
  2
AM_ANSI$3
 70
     0
  3

  4
mm
  5

  6

  7

 40
1.0
 41
0.1
 42
0.05
 43
0.5
 44
0.1
 45
0.0
 46
0.0
 47
0.1
 48
0.1
140
0.12
141
0.0
142
0.0
143
25.4
144
1.0
145
0.0
146
0.71
147
0.06
 71
     0
 72
     0
 73
     1
 74
     1
 75
     0
 76
     0
 77
     0
 78
     7
170
     0
171
     2
172
     0
173
     0
174
     0
175
     0
176
   256
177
   256
178
     2
270
     2
271
     2
272
     2
273
     2
274
     2
340
6A27
275
     0
280
     0
281
     0
282
     0
283
     1
284
     8
285
     8
286
     8
287
     5
288
     0
  0
DIMSTYLE
105
6A81
330
6A20
100
AcDbSymbolTableRecord
100
AcDbDimStyleTableRecord
  2
AM_ANSI$4
 70
     0
  3

  4
mm
  5

  6

  7

 40
1.0
 41
0.1
 42
0.05
 43
0.5
 44
0.1
 45
0.0
 46
0.0
 47
0.1
 48
0.1
140
0.12
141
0.0
142
0.0
143
25.4
144
1.0
145
0.0
146
0.71
147
0.06
 71
     0
 72
     0
 73
     1
 74
     1
 75
     0
 76
     0
 77
     0
 78
     7
170
     0
171
     2
172
     0
173
     0
174
     0
175
     0
176
   256
177
   256
178
     2
270
     2
271
     2
272
     2
273
     2
274
     2
340
6A27
275
     0
280
     0
281
     0
282
     0
283
     1
284
     8
285
     8
286
     8
287
     5
288
     0
  0
DIMSTYLE
105
6A82
330
6A20
100
AcDbSymbolTableRecord
100
AcDbDimStyleTableRecord
  2
AM_ANSI$7
 70
     0
  3

  4
mm
  5

  6

  7

 40
1.0
 41
0.1
 42
0.05
 43
0.5
 44
0.1
 45
0.0
 46
0.0
 47
0.1
 48
0.1
140
0.24
141
0.0
142
0.0
143
25.4
144
1.0
145
0.0
146
0.71
147
0.06
 71
     0
 72
     0
 73
     1
 74
     1
 75
     0
 76
     0
 77
     0
 78
     7
170
     0
171
     2
172
     0
173
     0
174
     0
175
     0
176
   256
177
   256
178
     2
270
     2
271
     2
272
     2
273
     2
274
     2
340
6A27
275
     0
280
     0
281
     0
282
     0
283
     1
284
     8
285
     8
286
     8
287
     5
288
     0
  0
DIMSTYLE
105
6A83
330
6A20
100
AcDbSymbolTableRecord
100
AcDbDimStyleTableRecord
  2
AM_ANSI$SF
 70
     0
  3

  4
mm
  5

  6

  7

 40
1.0
 41
0.1
 42
0.05
 43
0.5
 44
0.1
 45
0.0
 46
0.0
 47
0.1
 48
0.1
140
0.12
141
0.0
142
0.0
143
25.4
144
1.0
145
0.0
146
0.71
147
0.06
 71
     0
 72
     0
 73
     1
 74
     1
 75
     1
 76
     1
 77
     0
 78
     7
170
     0
171
     2
172
     0
173
     0
174
     0
175
     0
176
   256
177
   256
178
     2
270
     2
271
     2
272
     2
273
     2
274
     2
340
6A27
275
     0
280
     0
281
     0
282
     0
283
     1
284
     8
285
     8
286
     8
287
     5
288
     0
  0
DIMSTYLE
105
6A84
330
6A20
100
AcDbSymbolTableRecord
100
AcDbDimStyleTableRecord
  2
AM_ANSI$SH
 70
     0
  3

  4
mm
  5

  6

  7

 40
1.0
 41
0.1
 42
0.05
 43
0.5
 44
0.1
 45
0.0
 46
0.0
 47
0.1
 48
0.1
140
0.12
141
0.0
142
0.0
143
25.4
144
1.0
145
0.0
146
0.71
147
0.06
 71
     0
 72
     0
 73
     1
 74
     1
 75
     1
 76
     1
 77
     0
 78
     7
170
     0
171
     2
172
     0
173
     1
174
     0
175
     0
176
   256
177
   256
178
     2
270
     2
271
     2
272
     2
273
     2
274
     2
340
6A27
275
     0
280
     0
281
     0
282
     0
283
     1
284
     8
285
     8
286
     8
287
     5
288
     0
  0
DIMSTYLE
105
6D9C
330
6A20
100
AcDbSymbolTableRecord
100
AcDbDimStyleTableRecord
  2
AM_DIN$3
 70
     0
  3

  4
"
  5

  6

  7

 40
1.0
 41
3.5
 42
0.0
 43
10.0
 44
1.0
 45
0.0
 46
0.0
 47
0.1
 48
0.1
140
3.5
141
0.0
142
0.0
143
0.0393701
144
1.0
145
0.0
146
0.71
147
1.5
 71
     0
 72
     0
 73
     0
 74
     1
 75
     0
 76
     0
 77
     1
 78
     8
170
     0
171
     2
172
     0
173
     0
174
     0
175
     0
176
   256
177
   256
178
     2
270
     2
271
     2
272
     2
273
     2
274
     2
340
6A27
275
     0
280
     0
281
     0
282
     0
283
     0
284
     8
285
     0
286
     0
287
     0
288
     1
  0
DIMSTYLE
105
6D9D
330
6A20
100
AcDbSymbolTableRecord
100
AcDbDimStyleTableRecord
  2
AM_DIN$4
 70
     0
  3

  4
"
  5

  6

  7

 40
1.0
 41
3.5
 42
0.0
 43
10.0
 44
1.0
 45
0.0
 46
0.0
 47
0.1
 48
0.1
140
3.5
141
0.0
142
0.0
143
0.0393701
144
1.0
145
0.0
146
0.71
147
1.5
 71
     0
 72
     0
 73
     0
 74
     1
 75
     0
 76
     0
 77
     1
 78
     8
170
     0
171
     2
172
     0
173
     0
174
     0
175
     0
176
   256
177
   256
178
     2
270
     2
271
     2
272
     2
273
     2
274
     2
340
6A27
275
     0
280
     0
281
     0
282
     0
283
     0
284
     8
285
     0
286
     0
287
     0
288
     1
  0
DIMSTYLE
105
6D9E
330
6A20
100
AcDbSymbolTableRecord
100
AcDbDimStyleTableRecord
  2
AM_DIN$6
 70
     0
  3

  4
"
  5

  6

  7

 40
1.0
 41
3.5
 42
0.0
 43
0.0
 44
1.0
 45
0.0
 46
0.0
 47
0.1
 48
0.1
140
3.5
141
0.0
142
0.0
143
0.0393701
144
1.0
145
0.0
146
0.71
147
1.5
 71
     0
 72
     0
 73
     0
 74
     0
 75
     0
 76
     0
 77
     0
 78
     8
170
     0
171
     2
172
     1
173
     0
174
     0
175
     0
176
   256
177
   256
178
     2
270
     2
271
     2
272
     2
273
     2
274
     2
340
6A27
275
     0
280
     0
281
     0
282
     0
283
     0
284
     8
285
     0
286
     0
287
     3
288
     0
  0
DIMSTYLE
105
6D9F
330
6A20
100
AcDbSymbolTableRecord
100
AcDbDimStyleTableRecord
  2
AM_DIN$7
 70
     0
  3

  4
"
  5

  6

  7

 40
1.0
 41
3.5
 42
0.0
 43
10.0
 44
1.0
 45
0.0
 46
0.0
 47
0.1
 48
0.1
140
3.5
141
0.0
142
0.0
143
0.0393701
144
1.0
145
0.0
146
0.71
147
1.5
 71
     0
 72
     0
 73
     0
 74
     0
 75
     0
 76
     0
 77
     1
 78
     8
170
     0
171
     2
172
     1
173
     0
174
     0
175
     0
176
   256
177
   256
178
     2
270
     2
271
     2
272
     2
273
     2
274
     2
340
6A27
275
     0
280
     0
281
     0
282
     0
283
     0
284
     8
285
     0
286
     0
287
     3
288
     0
  0
DIMSTYLE
105
6DA0
330
6A20
100
AcDbSymbolTableRecord
100
AcDbDimStyleTableRecord
  2
AM_DIN$SF
 70
     0
  3

  4
"
  5

  6

  7

 40
1.0
 41
2.5
 42
1.0
 43
10.0
 44
1.0
 45
0.0
 46
0.0
 47
0.1
 48
0.1
140
3.5
141
0.0
142
0.0
143
0.0393701
144
1.0
145
0.0
146
0.71
147
1.5
 71
     0
 72
     0
 73
     0
 74
     0
 75
     1
 76
     1
 77
     1
 78
     8
170
     0
171
     2
172
     1
173
     0
174
     0
175
     0
176
   256
177
   256
178
     2
270
     2
271
     2
272
     3
273
     2
274
     4
340
6A27
275
     0
280
     0
281
     0
282
     0
283
     0
284
     8
285
     0
286
     0
287
     3
288
     0
  0
DIMSTYLE
105
6DA1
330
6A20
100
AcDbSymbolTableRecord
100
AcDbDimStyleTableRecord
  2
AM_DIN$SH
 70
     0
  3

  4
"
  5

  6
GENAXEH
  7

 40
1.0
 41
2.5
 42
1.0
 43
10.0
 44
1.0
 45
0.0
 46
0.0
 47
0.1
 48
0.1
140
3.5
141
0.0
142
0.0
143
0.0393701
144
2.0
145
0.0
146
0.71
147
1.5
 71
     0
 72
     0
 73
     0
 74
     0
 75
     1
 76
     1
 77
     1
 78
     8
170
     0
171
     2
172
     1
173
     1
174
     0
175
     0
176
   256
177
   256
178
     2
270
     2
271
     2
272
     3
273
     2
274
     4
340
6A27
275
     0
280
     0
281
     0
282
     0
283
     0
284
     8
285
     0
286
     0
287
     3
288
     0
  0
ENDTAB
  0
TABLE
  2
BLOCK_RECORD
  5
6A17
330
0
100
AcDbSymbolTable
 70
     8
  0
BLOCK_RECORD
  5
6A34
102
{ACAD_XDICTIONARY
360
6B62
102
}
330
6A17
100
AcDbSymbolTableRecord
100
AcDbBlockTableRecord
  2
*MODEL_SPACE
  0
BLOCK_RECORD
  5
6A30
102
{ACAD_XDICTIONARY
360
922B
102
}
330
6A17
100
AcDbSymbolTableRecord
100
AcDbBlockTableRecord
  2
*PAPER_SPACE
  0
BLOCK_RECORD
  5
6D93
330
6A17
100
AcDbSymbolTableRecord
100
AcDbBlockTableRecord
  2
GENAXEH
  0
BLOCK_RECORD
  5
819B
330
6A17
100
AcDbSymbolTableRecord
100
AcDbBlockTableRecord
  2
*D1
  0
BLOCK_RECORD
  5
8DA6
330
6A17
100
AcDbSymbolTableRecord
100
AcDbBlockTableRecord
  2
*D2
  0
BLOCK_RECORD
  5
9089
330
6A17
100
AcDbSymbolTableRecord
100
AcDbBlockTableRecord
  2
*D3
  0
BLOCK_RECORD
  5
9095
330
6A17
100
AcDbSymbolTableRecord
100
AcDbBlockTableRecord
  2
*D4
  0
BLOCK_RECORD
  5
90A1
330
6A17
100
AcDbSymbolTableRecord
100
AcDbBlockTableRecord
  2
*D5
  0
BLOCK_RECORD
  5
9106
330
6A17
100
AcDbSymbolTableRecord
100
AcDbBlockTableRecord
  2
*D6
  0
BLOCK_RECORD
  5
9183
330
6A17
100
AcDbSymbolTableRecord
100
AcDbBlockTableRecord
  2
*D7
  0
ENDTAB
  0
ENDSEC
  0
SECTION
  2
BLOCKS
  0
BLOCK
  5
6A35
330
6A34
100
AcDbEntity
  8
0
100
AcDbBlockBegin
  2
*MODEL_SPACE
 70
     0
 10
0.0
 20
0.0
 30
0.0
  3
*MODEL_SPACE
  1

  0
ENDBLK
  5
6A36
330
6A34
100
AcDbEntity
  8
0
100
AcDbBlockEnd
  0
BLOCK
  5
6A31
330
6A30
100
AcDbEntity
 67
     1
  8
0
100
AcDbBlockBegin
  2
*PAPER_SPACE
 70
     0
 10
0.0
 20
0.0
 30
0.0
  3
*PAPER_SPACE
  1

  0
ENDBLK
  5
6A32
330
6A30
100
AcDbEntity
 67
     1
  8
0
100
AcDbBlockEnd
  0
BLOCK
  5
6D95
330
6D93
100
AcDbEntity
  8
0
100
AcDbBlockBegin
  2
GENAXEH
 70
     0
 10
0.0
 20
0.0
 30
0.0
  3
GENAXEH
  1

  0
LINE
  5
6D94
330
6D93
100
AcDbEntity
  8
0
100
AcDbLine
 10
-1.0
 20
0.0
 30
0.0
 11
1.0
 21
0.0
 31
0.0
  0
ENDBLK
  5
6D96
330
6D93
100
AcDbEntity
  8
0
100
AcDbBlockEnd
  0
BLOCK
  5
81A6
330
819B
100
AcDbEntity
  8
0
100
AcDbBlockBegin
  2
*D1
 70
     1
 10
0.0
 20
0.0
 30
0.0
  3
*D1
  1

  0
LINE
  5
91EC
330
819B
100
AcDbEntity
  8
2
100
AcDbLine
 10
44.99999999999998
 20
7.999999999999923
 30
0.0
 11
67.99999999999997
 21
7.999999999999916
 31
0.0
  0
LINE
  5
91ED
330
819B
100
AcDbEntity
  8
2
100
AcDbLine
 10
44.99999999999998
 20
-8.000000000000076
 30
0.0
 11
67.99999999999997
 21
-8.000000000000081
 31
0.0
  0
LINE
  5
91EE
330
819B
100
AcDbEntity
  8
2
100
AcDbLine
 10
66.99999999999997
 20
5.499999999999916
 30
0.0
 11
66.99999999999997
 21
-5.500000000000082
 31
0.0
  0
MTEXT
  5
91EF
330
819B
100
AcDbEntity
  8
2
 62
     2
100
AcDbMText
 10
64.3226046362781
 20
0.5346872823726395
 30
0.0
 40
3.5
 41
0.0
 71
     5
 72
     1
  1
\A1;%%c16
 11
0.0000000000000001
 21
1.0
 31
0.0
1001
ACAD
1000
MTEXTBEGIN
1070
    73
1070
     1
1070
    44
1040
1.0
1070
    74
1070
     0
1000
MTEXTEND
  0
SOLID
  5
91F0
330
819B
100
AcDbEntity
  8
2
100
AcDbTrace
 10
66.5833333333333
 20
5.499999999999916
 30
0.0
 11
67.41666666666664
 21
5.499999999999916
 31
0.0
 12
66.99999999999997
 22
7.999999999999916
 32
0.0
 13
66.99999999999997
 23
7.999999999999916
 33
0.0
  0
SOLID
  5
91F1
330
819B
100
AcDbEntity
  8
2
100
AcDbTrace
 10
66.5833333333333
 20
-5.500000000000082
 30
0.0
 11
67.41666666666664
 21
-5.500000000000082
 31
0.0
 12
66.99999999999997
 22
-8.000000000000081
 32
0.0
 13
66.99999999999997
 23
-8.000000000000081
 33
0.0
  0
POINT
  5
91F2
330
819B
100
AcDbEntity
  8
DEFPOINTS
 62
     0
100
AcDbPoint
 10
44.99999999999998
 20
7.999999999999923
 30
0.0
  0
POINT
  5
91F3
330
819B
100
AcDbEntity
  8
DEFPOINTS
 62
     0
100
AcDbPoint
 10
44.99999999999998
 20
-8.000000000000076
 30
0.0
  0
POINT
  5
91F4
330
819B
100
AcDbEntity
  8
DEFPOINTS
 62
     0
100
AcDbPoint
 10
66.99999999999997
 20
-8.000000000000081
 30
0.0
  0
ENDBLK
  5
81A7
330
819B
100
AcDbEntity
  8
0
100
AcDbBlockEnd
  0
BLOCK
  5
8DB0
330
8DA6
100
AcDbEntity
  8
0
100
AcDbBlockBegin
  2
*D2
 70
     1
 10
0.0
 20
0.0
 30
0.0
  3
*D2
  1

  0
LINE
  5
91E3
330
8DA6
100
AcDbEntity
  8
2
100
AcDbLine
 10
44.99999999999997
 20
7.999999999999923
 30
0.0
 11
44.99999999999997
 21
45.99999999999979
 31
0.0
  0
LINE
  5
91E4
330
8DA6
100
AcDbEntity
  8
2
100
AcDbLine
 10
27.99999999999998
 20
7.98918581375973
 30
0.0
 11
27.99999999999998
 21
45.99999999999979
 31
0.0
  0
LINE
  5
91E5
330
8DA6
100
AcDbEntity
  8
2
100
AcDbLine
 10
42.49999999999997
 20
44.99999999999978
 30
0.0
 11
30.49999999999998
 21
44.99999999999978
 31
0.0
  0
SOLID
  5
91E6
330
8DA6
100
AcDbEntity
  8
2
100
AcDbTrace
 10
42.49999999999997
 20
45.41666666666645
 30
0.0
 11
42.49999999999997
 21
44.58333333333312
 31
0.0
 12
44.99999999999997
 22
44.99999999999978
 32
0.0
 13
44.99999999999997
 23
44.99999999999978
 33
0.0
  0
SOLID
  5
91E7
330
8DA6
100
AcDbEntity
  8
2
100
AcDbTrace
 10
30.49999999999998
 20
45.41666666666645
 30
0.0
 11
30.49999999999998
 21
44.58333333333312
 31
0.0
 12
27.99999999999998
 22
44.99999999999978
 32
0.0
 13
27.99999999999998
 23
44.99999999999978
 33
0.0
  0
MTEXT
  5
91E8
330
8DA6
100
AcDbEntity
  8
2
 62
     2
100
AcDbMText
 10
36.49999999999998
 20
48.24999999999978
 30
0.0
 40
3.5
 41
0.0
 71
     5
 72
     1
  1
\A1;17
1001
ACAD
1000
MTEXTBEGIN
1070
    73
1070
     1
1070
    44
1040
1.0
1070
    74
1070
     0
1000
MTEXTEND
  0
POINT
  5
91E9
330
8DA6
100
AcDbEntity
  8
DEFPOINTS
 62
     0
100
AcDbPoint
 10
44.99999999999997
 20
7.999999999999923
 30
0.0
  0
POINT
  5
91EA
330
8DA6
100
AcDbEntity
  8
DEFPOINTS
 62
     0
100
AcDbPoint
 10
27.99999999999998
 20
7.98918581375973
 30
0.0
  0
POINT
  5
91EB
330
8DA6
100
AcDbEntity
  8
DEFPOINTS
 62
     0
100
AcDbPoint
 10
27.99999999999998
 20
44.99999999999978
 30
0.0
  0
ENDBLK
  5
8DB1
330
8DA6
100
AcDbEntity
  8
0
100
AcDbBlockEnd
  0
BLOCK
  5
9093
330
9089
100
AcDbEntity
  8
0
100
AcDbBlockBegin
  2
*D3
 70
     1
 10
0.0
 20
0.0
 30
0.0
  3
*D3
  1

  0
LINE
  5
91B6
330
9089
100
AcDbEntity
  8
SK2
100
AcDbLine
 10
-0.0000000000000213
 20
23.99999999999998
 30
0.0
 11
-0.000000000000019
 21
61.03381914312866
 31
0.0
  0
LINE
  5
91B7
330
9089
100
AcDbEntity
  8
SK2
100
AcDbLine
 10
-35.00000000000002
 20
10.99999999999998
 30
0.0
 11
-35.00000000000002
 21
61.03381914312866
 31
0.0
  0
LINE
  5
91B8
330
9089
100
AcDbEntity
  8
SK2
100
AcDbLine
 10
-2.400000000000019
 20
60.03381914312867
 30
0.0
 11
-32.60000000000002
 21
60.03381914312867
 31
0.0
  0
SOLID
  5
91B9
330
9089
100
AcDbEntity
  8
SK2
100
AcDbTrace
 10
-2.400000000000019
 20
60.43381914312867
 30
0.0
 11
-2.400000000000019
 21
59.63381914312867
 31
0.0
 12
-0.0000000000000191
 22
60.03381914312867
 32
0.0
 13
-0.0000000000000191
 23
60.03381914312867
 33
0.0
  0
SOLID
  5
91BA
330
9089
100
AcDbEntity
  8
SK2
100
AcDbTrace
 10
-32.60000000000002
 20
60.43381914312867
 30
0.0
 11
-32.60000000000002
 21
59.63381914312867
 31
0.0
 12
-35.00000000000002
 22
60.03381914312867
 32
0.0
 13
-35.00000000000002
 23
60.03381914312867
 33
0.0
  0
MTEXT
  5
91BB
330
9089
100
AcDbEntity
  8
SK2
 62
     2
100
AcDbMText
 10
-17.50000000000002
 20
62.78381914312866
 30
0.0
 40
3.5
 41
0.0
 71
     5
 72
     1
  1
\A1;35
1001
ACAD
1000
MTEXTBEGIN
1070
    73
1070
     1
1070
    44
1040
1.0
1070
    74
1070
     0
1000
MTEXTEND
  0
POINT
  5
91BC
330
9089
100
AcDbEntity
  8
DEFPOINTS
 62
     0
100
AcDbPoint
 10
-0.0000000000000213
 20
23.99999999999998
 30
0.0
  0
POINT
  5
91BD
330
9089
100
AcDbEntity
  8
DEFPOINTS
 62
     0
100
AcDbPoint
 10
-35.00000000000002
 20
10.99999999999998
 30
0.0
  0
POINT
  5
91BE
330
9089
100
AcDbEntity
  8
DEFPOINTS
 62
     0
100
AcDbPoint
 10
-35.00000000000002
 20
60.03381914312867
 30
0.0
  0
ENDBLK
  5
9094
330
9089
100
AcDbEntity
  8
0
100
AcDbBlockEnd
  0
BLOCK
  5
909F
330
9095
100
AcDbEntity
  8
0
100
AcDbBlockBegin
  2
*D4
 70
     1
 10
0.0
 20
0.0
 30
0.0
  3
*D4
  1

  0
LINE
  5
91C8
330
9095
100
AcDbEntity
  8
SK2
100
AcDbLine
 10
-30.00000000000002
 20
12.00000000000001
 30
0.0
 11
-49.30042214622815
 21
12.00000000000001
 31
0.0
  0
LINE
  5
91C9
330
9095
100
AcDbEntity
  8
SK2
100
AcDbLine
 10
-30.00000000000002
 20
-11.99999999999998
 30
0.0
 11
-49.30042214622815
 21
-11.99999999999998
 31
0.0
  0
LINE
  5
91CA
330
9095
100
AcDbEntity
  8
SK2
100
AcDbLine
 10
-48.30042214622815
 20
9.600000000000017
 30
0.0
 11
-48.30042214622815
 21
-9.599999999999981
 31
0.0
  0
MTEXT
  5
91CB
330
9095
100
AcDbEntity
  8
SK2
 62
     2
100
AcDbMText
 10
-51.34319359390863
 20
-0.1122779170276988
 30
0.0
 40
3.5
 41
0.0
 71
     5
 72
     1
  1
\A1;%%c24
 11
0.0000000000000001
 21
1.0
 31
0.0
1001
ACAD
1000
MTEXTBEGIN
1070
    73
1070
     1
1070
    44
1040
1.0
1070
    74
1070
     0
1000
MTEXTEND
  0
SOLID
  5
91CC
330
9095
100
AcDbEntity
  8
SK2
100
AcDbTrace
 10
-48.70042214622815
 20
9.600000000000017
 30
0.0
 11
-47.90042214622815
 21
9.600000000000017
 31
0.0
 12
-48.30042214622815
 22
12.00000000000001
 32
0.0
 13
-48.30042214622815
 23
12.00000000000001
 33
0.0
  0
SOLID
  5
91CD
330
9095
100
AcDbEntity
  8
SK2
100
AcDbTrace
 10
-48.70042214622815
 20
-9.599999999999981
 30
0.0
 11
-47.90042214622815
 21
-9.599999999999981
 31
0.0
 12
-48.30042214622815
 22
-11.99999999999998
 32
0.0
 13
-48.30042214622815
 23
-11.99999999999998
 33
0.0
  0
POINT
  5
91CE
330
9095
100
AcDbEntity
  8
DEFPOINTS
 62
     0
100
AcDbPoint
 10
-30.00000000000002
 20
12.00000000000001
 30
0.0
  0
POINT
  5
91CF
330
9095
100
AcDbEntity
  8
DEFPOINTS
 62
     0
100
AcDbPoint
 10
-30.00000000000002
 20
-11.99999999999998
 30
0.0
  0
POINT
  5
91D0
330
9095
100
AcDbEntity
  8
DEFPOINTS
 62
     0
100
AcDbPoint
 10
-48.30042214622815
 20
-11.99999999999998
 30
0.0
  0
ENDBLK
  5
90A0
330
9095
100
AcDbEntity
  8
0
100
AcDbBlockEnd
  0
BLOCK
  5
90AB
330
90A1
100
AcDbEntity
  8
0
100
AcDbBlockBegin
  2
*D5
 70
     1
 10
0.0
 20
0.0
 30
0.0
  3
*D5
  1

  0
LINE
  5
91BF
330
90A1
100
AcDbEntity
  8
SK2
100
AcDbLine
 10
-0.0000000000000213
 20
23.99999999999998
 30
0.0
 11
-60.74448938991874
 21
24.0
 31
0.0
  0
LINE
  5
91C0
330
90A1
100
AcDbEntity
  8
SK2
100
AcDbLine
 10
-0.0000000000000213
 20
-24.00000000000001
 30
0.0
 11
-60.74448938991876
 21
-23.99999999999999
 31
0.0
  0
LINE
  5
91C1
330
90A1
100
AcDbEntity
  8
SK2
100
AcDbLine
 10
-59.74448938991875
 20
21.5
 30
0.0
 11
-59.74448938991876
 21
-21.49999999999999
 31
0.0
  0
SOLID
  5
91C2
330
90A1
100
AcDbEntity
  8
SK2
100
AcDbTrace
 10
-60.16115605658541
 20
21.5
 30
0.0
 11
-59.32782272325209
 21
21.5
 31
0.0
 12
-59.74448938991875
 22
24.0
 32
0.0
 13
-59.74448938991875
 23
24.0
 33
0.0
  0
SOLID
  5
91C3
330
90A1
100
AcDbEntity
  8
SK2
100
AcDbTrace
 10
-60.16115605658542
 20
-21.49999999999999
 30
0.0
 11
-59.32782272325209
 21
-21.49999999999999
 31
0.0
 12
-59.74448938991876
 22
-23.99999999999999
 32
0.0
 13
-59.74448938991876
 23
-23.99999999999999
 33
0.0
  0
MTEXT
  5
91C4
330
90A1
100
AcDbEntity
  8
SK2
 62
     2
100
AcDbMText
 10
-62.99448938991876
 20
-0.0000000000000066
 30
0.0
 40
3.5
 41
0.0
 71
     5
 72
     1
  1
\A1;%%c48
 11
0.0000000000000001
 21
1.0
 31
0.0
1001
ACAD
1000
MTEXTBEGIN
1070
    73
1070
     1
1070
    44
1040
1.0
1070
    74
1070
     0
1000
MTEXTEND
  0
POINT
  5
91C5
330
90A1
100
AcDbEntity
  8
DEFPOINTS
 62
     0
100
AcDbPoint
 10
-0.0000000000000213
 20
23.99999999999998
 30
0.0
  0
POINT
  5
91C6
330
90A1
100
AcDbEntity
  8
DEFPOINTS
 62
     0
100
AcDbPoint
 10
-0.0000000000000213
 20
-24.00000000000001
 30
0.0
  0
POINT
  5
91C7
330
90A1
100
AcDbEntity
  8
DEFPOINTS
 62
     0
100
AcDbPoint
 10
-59.74448938991876
 20
-23.99999999999999
 30
0.0
  0
ENDBLK
  5
90AC
330
90A1
100
AcDbEntity
  8
0
100
AcDbBlockEnd
  0
BLOCK
  5
9110
330
9106
100
AcDbEntity
  8
0
100
AcDbBlockBegin
  2
*D6
 70
     1
 10
0.0
 20
0.0
 30
0.0
  3
*D6
  1

  0
LINE
  5
91DA
330
9106
100
AcDbEntity
  8
2
100
AcDbLine
 10
44.99999999999997
 20
7.999999999999923
 30
0.0
 11
44.99999999999997
 21
60.99999999999993
 31
0.0
  0
LINE
  5
91DB
330
9106
100
AcDbEntity
  8
2
100
AcDbLine
 10
12.99999999999998
 20
22.99999999999998
 30
0.0
 11
12.99999999999998
 21
60.99999999999993
 31
0.0
  0
LINE
  5
91DC
330
9106
100
AcDbEntity
  8
2
100
AcDbLine
 10
42.49999999999997
 20
59.99999999999992
 30
0.0
 11
15.49999999999998
 21
59.99999999999992
 31
0.0
  0
SOLID
  5
91DD
330
9106
100
AcDbEntity
  8
2
100
AcDbTrace
 10
42.49999999999997
 20
60.41666666666659
 30
0.0
 11
42.49999999999997
 21
59.58333333333326
 31
0.0
 12
44.99999999999997
 22
59.99999999999992
 32
0.0
 13
44.99999999999997
 23
59.99999999999992
 33
0.0
  0
SOLID
  5
91DE
330
9106
100
AcDbEntity
  8
2
100
AcDbTrace
 10
15.49999999999998
 20
60.41666666666659
 30
0.0
 11
15.49999999999998
 21
59.58333333333326
 31
0.0
 12
12.99999999999998
 22
59.99999999999992
 32
0.0
 13
12.99999999999998
 23
59.99999999999992
 33
0.0
  0
MTEXT
  5
91DF
330
9106
100
AcDbEntity
  8
2
 62
     2
100
AcDbMText
 10
28.99999999999997
 20
63.2503444881889
 30
0.0
 40
3.5
 41
0.0
 71
     5
 72
     1
  1
\A1;32
1001
ACAD
1000
MTEXTBEGIN
1070
    73
1070
     1
1070
    44
1040
1.0
1070
    74
1070
     0
1000
MTEXTEND
  0
POINT
  5
91E0
330
9106
100
AcDbEntity
  8
DEFPOINTS
 62
     0
100
AcDbPoint
 10
44.99999999999997
 20
7.999999999999923
 30
0.0
  0
POINT
  5
91E1
330
9106
100
AcDbEntity
  8
DEFPOINTS
 62
     0
100
AcDbPoint
 10
12.99999999999998
 20
22.99999999999998
 30
0.0
  0
POINT
  5
91E2
330
9106
100
AcDbEntity
  8
DEFPOINTS
 62
     0
100
AcDbPoint
 10
12.99999999999998
 20
59.99999999999992
 30
0.0
  0
ENDBLK
  5
9111
330
9106
100
AcDbEntity
  8
0
100
AcDbBlockEnd
  0
BLOCK
  5
918D
330
9183
100
AcDbEntity
  8
0
100
AcDbBlockBegin
  2
*D7
 70
     1
 10
0.0
 20
0.0
 30
0.0
  3
*D7
  1

  0
LINE
  5
91D1
330
9183
100
AcDbEntity
  8
2
100
AcDbLine
 10
44.99999999999997
 20
7.999999999999923
 30
0.0
 11
44.99999999999998
 21
75.99999999999998
 31
0.0
  0
LINE
  5
91D2
330
9183
100
AcDbEntity
  8
2
100
AcDbLine
 10
-0.0000000000000213
 20
23.99999999999998
 30
0.0
 11
-0.0000000000000181
 21
75.99999999999998
 31
0.0
  0
LINE
  5
91D3
330
9183
100
AcDbEntity
  8
2
100
AcDbLine
 10
42.49999999999998
 20
74.99999999999999
 30
0.0
 11
2.499999999999981
 21
74.99999999999999
 31
0.0
  0
SOLID
  5
91D4
330
9183
100
AcDbEntity
  8
2
100
AcDbTrace
 10
42.49999999999998
 20
75.41666666666666
 30
0.0
 11
42.49999999999998
 21
74.58333333333332
 31
0.0
 12
44.99999999999998
 22
74.99999999999999
 32
0.0
 13
44.99999999999998
 23
74.99999999999999
 33
0.0
  0
SOLID
  5
91D5
330
9183
100
AcDbEntity
  8
2
100
AcDbTrace
 10
2.499999999999981
 20
75.41666666666666
 30
0.0
 11
2.499999999999981
 21
74.58333333333332
 31
0.0
 12
-0.0000000000000182
 22
74.99999999999999
 32
0.0
 13
-0.0000000000000182
 23
74.99999999999999
 33
0.0
  0
MTEXT
  5
91D6
330
9183
100
AcDbEntity
  8
2
 62
     2
100
AcDbMText
 10
22.49999999999997
 20
78.24999999999999
 30
0.0
 40
3.5
 41
0.0
 71
     5
 72
     1
  1
\A1;45
1001
ACAD
1000
MTEXTBEGIN
1070
    73
1070
     1
1070
    44
1040
1.0
1070
    74
1070
     0
1000
MTEXTEND
  0
POINT
  5
91D7
330
9183
100
AcDbEntity
  8
DEFPOINTS
 62
     0
100
AcDbPoint
 10
44.99999999999997
 20
7.999999999999923
 30
0.0
  0
POINT
  5
91D8
330
9183
100
AcDbEntity
  8
DEFPOINTS
 62
     0
100
AcDbPoint
 10
-0.0000000000000213
 20
23.99999999999998
 30
0.0
  0
POINT
  5
91D9
330
9183
100
AcDbEntity
  8
DEFPOINTS
 62
     0
100
AcDbPoint
 10
-0.0000000000000182
 20
74.99999999999999
 30
0.0
  0
ENDBLK
  5
918E
330
9183
100
AcDbEntity
  8
0
100
AcDbBlockEnd
  0
ENDSEC
  0
SECTION
  2
ENTITIES
  0
LINE
  5
80B1
330
6A34
100
AcDbEntity
  8
SK1
100
AcDbLine
 10
44.99999999999998
 20
8.463769369848742
 30
0.0
 11
44.99999999999998
 21
7.536230630151104
 31
0.0
  0
LINE
  5
80B2
330
6A34
100
AcDbEntity
  8
SK1
100
AcDbLine
 10
44.53623063015117
 20
7.999999999999923
 30
0.0
 11
45.4637693698488
 21
7.999999999999923
 31
0.0
  0
CIRCLE
  5
80B3
330
6A34
100
AcDbEntity
  8
SK1
100
AcDbCircle
 10
44.99999999999998
 20
7.999999999999923
 30
0.0
 40
0.4637693698488208
  0
LINE
  5
80BA
330
6A34
100
AcDbEntity
  8
1
100
AcDbLine
 10
28.14303323511331
 20
7.271134343416796
 30
0.0
 11
13.99999999999997
 21
7.271134343416916
 31
0.0
  0
LINE
  5
80DF
330
6A34
100
AcDbEntity
  8
SK1
100
AcDbLine
 10
44.99999999999998
 20
-8.463769369848895
 30
0.0
 11
44.99999999999998
 21
-7.536230630151257
 31
0.0
  0
LINE
  5
80E0
330
6A34
100
AcDbEntity
  8
SK1
100
AcDbLine
 10
44.53623063015117
 20
-8.000000000000074
 30
0.0
 11
45.4637693698488
 21
-8.000000000000074
 31
0.0
  0
CIRCLE
  5
80E1
330
6A34
100
AcDbEntity
  8
SK1
100
AcDbCircle
 10
44.99999999999998
 20
-8.000000000000074
 30
0.0
 40
0.4637693698488208
  0
LINE
  5
80E9
330
6A34
100
AcDbEntity
  8
1
100
AcDbLine
 10
43.9967948000838
 20
3.897769700941902
 30
0.0
 11
43.9967948000838
 21
-7.271134343417022
 31
0.0
  0
LINE
  5
80EB
330
6A34
100
AcDbEntity
  8
SK4
100
AcDbLine
 10
0.0000000000000124
 20
-0.0000000000000221
 30
0.0
 11
-36.94975141587885
 21
-0.0000000000002748
 31
0.0
  0
LINE
  5
80EC
330
6A34
100
AcDbEntity
  8
4
100
AcDbLine
 10
46.62883376006536
 20
-0.0000000000003032
 30
0.0
 11
-0.0000000000002718
 21
0.0000000000002624
 31
0.0
  0
LINE
  5
80ED
330
6A34
100
AcDbEntity
  8
1
100
AcDbLine
 10
43.9967948000838
 20
-7.271134343417022
 30
0.0
 11
13.99999999999978
 21
-7.271134343416799
 31
0.0
  0
DIMENSION
  5
819A
330
6A34
100
AcDbEntity
  8
2
100
AcDbDimension
  2
*D1
 10
66.99999999999997
 20
-8.000000000000081
 30
0.0
 11
64.3226046362781
 21
0.5346872823726395
 31
0.0
 70
   160
  1
%%c<>
 53
90.0
  3
AM_ANSI
100
AcDbAlignedDimension
 13
44.99999999999998
 23
7.999999999999923
 33
0.0
 14
44.99999999999998
 24
-8.000000000000076
 34
0.0
 50
90.0
100
AcDbRotatedDimension
1001
ACAD
1000
DSTYLE
1002
{
1070
    42
1040
0.0
1070
    44
1040
1.0
1070
    41
1040
2.5
1070
   140
1040
3.5
1070
   271
1070
     0
1002
}
  0
LINE
  5
84C9
330
6A34
100
AcDbEntity
  8
NOCUT
100
AcDbLine
 10
13.99999999999798
 20
-7.2711343434168
 30
0.0
 11
43.9967948000838
 21
-7.271134343417022
 31
0.0
  0
LINE
  5
84CA
330
6A34
100
AcDbEntity
  8
NOCUT
100
AcDbLine
 10
43.9967948000838
 20
-7.271134343417022
 30
0.0
 11
43.99679480008383
 21
-0.0000000000002748
 31
0.0
  0
LINE
  5
84CB
330
6A34
100
AcDbEntity
  8
NOCUT
100
AcDbLine
 10
43.99679480008383
 20
-0.0000000000002748
 30
0.0
 11
-0.0000000000000249
 21
-0.0000000000000376
 31
0.0
  0
TEXT
  5
84D5
330
6A34
100
AcDbEntity
  8
6
100
AcDbText
 10
73.62749217999501
 20
-9.271038326113844
 30
0.0
 40
3.5
  1
Zeff.=2
 50
90.0
100
AcDbText
  0
TEXT
  5
84D7
330
6A34
100
AcDbEntity
  8
6
100
AcDbText
 10
15.99792035203588
 20
-18.38534017548793
 30
0.0
 40
3.5
  1
22J3D016017Z4R00
100
AcDbText
  0
LINE
  5
8523
330
6A34
100
AcDbEntity
  8
4
100
AcDbLine
 10
20.83943053642767
 20
-0.000000000000046
 30
0.0
 11
29.2185195453985
 21
2.092869831649251
 31
0.0
  0
TEXT
  5
8892
330
6A34
100
AcDbEntity
  8
6
100
AcDbText
 10
48.40803804664776
 20
11.58127399791875
 30
0.0
 40
2.5
  1
AOMT060202R
100
AcDbText
  0
LINE
  5
8947
330
6A34
100
AcDbEntity
  8
1
100
AcDbLine
 10
39.04140480196149
 20
7.996082360556281
 30
0.0
 11
38.26751850344818
 21
5.303645258485554
 31
0.0
  0
ARC
  5
8949
330
6A34
100
AcDbEntity
  8
1
100
AcDbCircle
 10
39.22860575565637
 20
5.027400270037114
 30
0.0
 40
1.0
100
AcDbArc
 50
163.9637789131361
 51
180.8929251581054
1001
GENIUS_GENODEF_13
1002
{
1000
HIER
1070
     0
1002
}
1002
{
1000
MANEDIT
1070
     0
1002
}
1002
{
1000
NOSEL
1070
     0
1002
}
1002
{
1000
BEHIND
1070
     0
1002
}
1002
{
1000
OTHER
1070
     0
1002
}
1002
{
1000
REACTOR
1002
}
1001
GENIUS_GENOBJ-N-FIL_13
1002
{
1000
OWNER
1000
GEN
1002
}
  0
ARC
  5
894B
330
6A34
100
AcDbEntity
  8
1
100
AcDbCircle
 10
38.44136758443265
 20
4.202352227686128
 30
0.0
 40
0.2
100
AcDbArc
 50
180.8929251581096
 51
267.9151181052089
1001
GENIUS_GENODEF_13
1002
{
1000
HIER
1070
     0
1002
}
1002
{
1000
MANEDIT
1070
     0
1002
}
1002
{
1000
NOSEL
1070
     0
1002
}
1002
{
1000
BEHIND
1070
     0
1002
}
1002
{
1000
OTHER
1070
     0
1002
}
1002
{
1000
REACTOR
1002
}
1001
GENIUS_GENOBJ-N-FIL_13
1002
{
1000
OWNER
1000
GEN
1002
}
  0
LINE
  5
894D
330
6A34
100
AcDbEntity
  8
1
100
AcDbLine
 10
38.24139187155525
 20
4.199235457058003
 30
0.0
 11
38.22872719126904
 21
5.011816416896531
 31
0.0
  0
CIRCLE
  5
894F
330
6A34
100
AcDbEntity
  8
1
100
AcDbCircle
 10
41.62068379221629
 20
6.00117611384301
 30
0.0
 40
1.255206518985224
  0
LINE
  5
8956
330
6A34
100
AcDbEntity
  8
1
100
AcDbLine
 10
44.19996278247121
 20
4.006269867129882
 30
0.0
 11
44.97384908098449
 21
6.698706969200509
 31
0.0
  0
ARC
  5
8958
330
6A34
100
AcDbEntity
  8
1
100
AcDbCircle
 10
44.05579969463999
 20
4.047706615397155
 30
0.0
 40
0.15
100
AcDbArc
 50
269.9493100169253
 51
343.9637789131317
1001
GENIUS_GENOBJ-N-FIL_13
1002
{
1000
OWNER
1000
GEN
1002
}
1001
GENIUS_GENODEF_13
1002
{
1000
HIER
1070
     0
1002
}
1002
{
1000
MANEDIT
1070
     0
1002
}
1002
{
1000
NOSEL
1070
     0
1002
}
1002
{
1000
BEHIND
1070
     0
1002
}
1002
{
1000
OTHER
1070
     0
1002
}
1002
{
1000
REACTOR
1002
}
  0
LINE
  5
895A
330
6A34
100
AcDbEntity
  8
1
100
AcDbLine
 10
44.9999757128774
 20
7.803116770628074
 30
0.0
 11
45.01264039316363
 21
6.990535810789546
 31
0.0
  0
ARC
  5
895C
330
6A34
100
AcDbEntity
  8
1
100
AcDbCircle
 10
44.01276182877625
 20
6.974951957648935
 30
0.0
 40
1.0
100
AcDbArc
 50
343.9637789131365
 51
0.8929251581055208
1001
GENIUS_GENODEF_13
1002
{
1000
HIER
1070
     0
1002
}
1002
{
1000
MANEDIT
1070
     0
1002
}
1002
{
1000
NOSEL
1070
     0
1002
}
1002
{
1000
BEHIND
1070
     0
1002
}
1002
{
1000
OTHER
1070
     0
1002
}
1002
{
1000
REACTOR
1002
}
1001
GENIUS_GENOBJ-N-FIL_13
1002
{
1000
OWNER
1000
GEN
1002
}
  0
ARC
  5
89D1
330
6A34
100
AcDbEntity
  8
1
100
AcDbCircle
 10
44.79999999999994
 20
7.799999999999891
 30
0.0
 40
0.2
100
AcDbArc
 50
0.8929251581094899
 51
87.91511810520898
1001
GENIUS_GENODEF_13
1002
{
1000
HIER
1070
     0
1002
}
1002
{
1000
MANEDIT
1070
     0
1002
}
1002
{
1000
NOSEL
1070
     0
1002
}
1002
{
1000
BEHIND
1070
     0
1002
}
1002
{
1000
OTHER
1070
     0
1002
}
1002
{
1000
REACTOR
1002
}
1001
GENIUS_GENOBJ-N-FIL_13
1002
{
1000
OWNER
1000
GEN
1002
}
  0
ARC
  5
8A73
330
6A34
100
AcDbEntity
  8
CUT
100
AcDbCircle
 10
44.4614038820831
 20
1336.101483340225
 30
0.0
 40
1332.203838451876
100
AcDbArc
 50
269.2811834085059
 51
269.9825499587389
  0
ARC
  5
8A76
330
6A34
100
AcDbEntity
  8
CUT
100
AcDbCircle
 10
28.09426310649363
 20
-1324.099131115355
 30
0.0
 40
1332.203838454693
100
AcDbArc
 50
89.28118340850723
 51
89.98254995873828
  0
LINE
  5
8A78
330
6A34
100
AcDbEntity
  8
CUT
100
AcDbLine
 10
28.35570420611674
 20
7.996082360556281
 30
0.0
 11
27.58181790760344
 21
5.303645258485554
 31
0.0
  0
ARC
  5
8A7A
330
6A34
100
AcDbEntity
  8
CUT
100
AcDbCircle
 10
28.54290515981163
 20
5.027400270037114
 30
0.0
 40
1.0
100
AcDbArc
 50
163.9637789131361
 51
180.8929251581054
1001
GENIUS_GENODEF_13
1002
{
1000
HIER
1070
     0
1002
}
1002
{
1000
MANEDIT
1070
     0
1002
}
1002
{
1000
NOSEL
1070
     0
1002
}
1002
{
1000
BEHIND
1070
     0
1002
}
1002
{
1000
OTHER
1070
     0
1002
}
1002
{
1000
REACTOR
1002
}
1001
GENIUS_GENOBJ-N-FIL_13
1002
{
1000
OWNER
1000
GEN
1002
}
  0
ARC
  5
8A7C
330
6A34
100
AcDbEntity
  8
CUT
100
AcDbCircle
 10
27.75566698858791
 20
4.202352227686128
 30
0.0
 40
0.2
100
AcDbArc
 50
180.8929251581096
 51
267.9151181052089
1001
GENIUS_GENODEF_13
1002
{
1000
HIER
1070
     0
1002
}
1002
{
1000
MANEDIT
1070
     0
1002
}
1002
{
1000
NOSEL
1070
     0
1002
}
1002
{
1000
BEHIND
1070
     0
1002
}
1002
{
1000
OTHER
1070
     0
1002
}
1002
{
1000
REACTOR
1002
}
1001
GENIUS_GENOBJ-N-FIL_13
1002
{
1000
OWNER
1000
GEN
1002
}
  0
LINE
  5
8A7E
330
6A34
100
AcDbEntity
  8
CUT
100
AcDbLine
 10
27.5556912757105
 20
4.199235457058003
 30
0.0
 11
27.5430265954243
 21
5.011816416896531
 31
0.0
  0
ARC
  5
8A80
330
6A34
100
AcDbEntity
  8
CUT
100
AcDbCircle
 10
28.49986729394795
 20
7.954645612289036
 30
0.0
 40
0.15
100
AcDbArc
 50
89.94931001695787
 51
163.9637789131396
1001
GENIUS_GENOBJ-N-FIL_13
1002
{
1000
OWNER
1000
GEN
1002
}
1001
GENIUS_GENODEF_13
1002
{
1000
HIER
1070
     0
1002
}
1002
{
1000
MANEDIT
1070
     0
1002
}
1002
{
1000
NOSEL
1070
     0
1002
}
1002
{
1000
BEHIND
1070
     0
1002
}
1002
{
1000
OTHER
1070
     0
1002
}
1002
{
1000
REACTOR
1002
}
  0
LINE
  5
8A85
330
6A34
100
AcDbEntity
  8
CUT
100
AcDbLine
 10
44.9999757128774
 20
7.803116770628074
 30
0.0
 11
45.01264039316363
 21
6.990535810789546
 31
0.0
  0
ARC
  5
8A87
330
6A34
100
AcDbEntity
  8
CUT
100
AcDbCircle
 10
44.01276182877625
 20
6.974951957648935
 30
0.0
 40
1.0
100
AcDbArc
 50
343.9637789131365
 51
0.8929251581055208
1001
GENIUS_GENODEF_13
1002
{
1000
HIER
1070
     0
1002
}
1002
{
1000
MANEDIT
1070
     0
1002
}
1002
{
1000
NOSEL
1070
     0
1002
}
1002
{
1000
BEHIND
1070
     0
1002
}
1002
{
1000
OTHER
1070
     0
1002
}
1002
{
1000
REACTOR
1002
}
1001
GENIUS_GENOBJ-N-FIL_13
1002
{
1000
OWNER
1000
GEN
1002
}
  0
ARC
  5
8A88
330
6A34
100
AcDbEntity
  8
CUT
100
AcDbCircle
 10
44.79999999999999
 20
7.799999999999934
 30
0.0
 40
0.2
100
AcDbArc
 50
0.8929251581099983
 51
87.91511810520896
1001
GENIUS_GENODEF_13
1002
{
1000
HIER
1070
     0
1002
}
1002
{
1000
MANEDIT
1070
     0
1002
}
1002
{
1000
NOSEL
1070
     0
1002
}
1002
{
1000
BEHIND
1070
     0
1002
}
1002
{
1000
OTHER
1070
     0
1002
}
1002
{
1000
REACTOR
1002
}
1001
GENIUS_GENOBJ-N-FIL_13
1002
{
1000
OWNER
1000
GEN
1002
}
  0
ARC
  5
8A8B
330
6A34
100
AcDbEntity
  8
CUT
100
AcDbCircle
 10
44.05579969463999
 20
4.047706615397155
 30
0.0
 40
0.15
100
AcDbArc
 50
269.9493100169253
 51
343.9637789131317
1001
GENIUS_GENOBJ-N-FIL_13
1002
{
1000
OWNER
1000
GEN
1002
}
1001
GENIUS_GENODEF_13
1002
{
1000
HIER
1070
     0
1002
}
1002
{
1000
MANEDIT
1070
     0
1002
}
1002
{
1000
NOSEL
1070
     0
1002
}
1002
{
1000
BEHIND
1070
     0
1002
}
1002
{
1000
OTHER
1070
     0
1002
}
1002
{
1000
REACTOR
1002
}
  0
LINE
  5
8A8D
330
6A34
100
AcDbEntity
  8
CUT
100
AcDbLine
 10
44.19996278247121
 20
4.006269867129882
 30
0.0
 11
44.97384908098449
 21
6.698706969200509
 31
0.0
  0
ARC
  5
8B52
330
6A34
100
AcDbEntity
  8
1
100
AcDbCircle
 10
28.09426310649363
 20
1324.099131115355
 30
0.0
 40
1332.203838454693
100
AcDbArc
 50
270.0174500412617
 51
270.7188165914927
  0
ARC
  5
8B53
330
6A34
100
AcDbEntity
  8
1
100
AcDbCircle
 10
44.4614038820831
 20
-1336.101483340225
 30
0.0
 40
1332.203838451876
100
AcDbArc
 50
90.01745004126107
 51
90.01998203224859
  0
LINE
  5
8B54
330
6A34
100
AcDbEntity
  8
1
100
AcDbLine
 10
28.35570420611674
 20
-7.996082360556433
 30
0.0
 11
28.14733263926856
 21
-7.271134343416906
 31
0.0
  0
ARC
  5
8B58
330
6A34
100
AcDbEntity
  8
1
100
AcDbCircle
 10
28.49986729394795
 20
-7.954645612289189
 30
0.0
 40
0.15
100
AcDbArc
 50
196.0362210868603
 51
270.0506899830421
1001
GENIUS_GENOBJ-N-FIL_13
1002
{
1000
OWNER
1000
GEN
1002
}
1001
GENIUS_GENODEF_13
1002
{
1000
HIER
1070
     0
1002
}
1002
{
1000
MANEDIT
1070
     0
1002
}
1002
{
1000
NOSEL
1070
     0
1002
}
1002
{
1000
BEHIND
1070
     0
1002
}
1002
{
1000
OTHER
1070
     0
1002
}
1002
{
1000
REACTOR
1002
}
  0
ARC
  5
8B59
330
6A34
100
AcDbEntity
  8
1
100
AcDbCircle
 10
44.01276182877625
 20
-6.974951957649087
 30
0.0
 40
1.0
100
AcDbArc
 50
359.1070748418944
 51
16.03622108686347
1001
GENIUS_GENODEF_13
1002
{
1000
HIER
1070
     0
1002
}
1002
{
1000
MANEDIT
1070
     0
1002
}
1002
{
1000
NOSEL
1070
     0
1002
}
1002
{
1000
BEHIND
1070
     0
1002
}
1002
{
1000
OTHER
1070
     0
1002
}
1002
{
1000
REACTOR
1002
}
1001
GENIUS_GENOBJ-N-FIL_13
1002
{
1000
OWNER
1000
GEN
1002
}
  0
ARC
  5
8B60
330
6A34
100
AcDbEntity
  8
1
100
AcDbCircle
 10
44.05579969463999
 20
-4.047706615397308
 30
0.0
 40
0.15
100
AcDbArc
 50
16.03622108686825
 51
90.0506899830747
1001
GENIUS_GENOBJ-N-FIL_13
1002
{
1000
OWNER
1000
GEN
1002
}
1001
GENIUS_GENODEF_13
1002
{
1000
HIER
1070
     0
1002
}
1002
{
1000
MANEDIT
1070
     0
1002
}
1002
{
1000
NOSEL
1070
     0
1002
}
1002
{
1000
BEHIND
1070
     0
1002
}
1002
{
1000
OTHER
1070
     0
1002
}
1002
{
1000
REACTOR
1002
}
  0
LINE
  5
8B61
330
6A34
100
AcDbEntity
  8
1
100
AcDbLine
 10
44.19996278247121
 20
-4.006269867130034
 30
0.0
 11
44.97384908098449
 21
-6.698706969200662
 31
0.0
  0
LINE
  5
8B64
330
6A34
100
AcDbEntity
  8
1
100
AcDbLine
 10
44.9999757128774
 20
-7.803116770628227
 30
0.0
 11
45.01264039316363
 21
-6.990535810789699
 31
0.0
  0
ARC
  5
8B65
330
6A34
100
AcDbEntity
  8
1
100
AcDbCircle
 10
44.79999999999999
 20
-7.800000000000087
 30
0.0
 40
0.2
100
AcDbArc
 50
272.084881894791
 51
359.1070748418899
1001
GENIUS_GENODEF_13
1002
{
1000
HIER
1070
     0
1002
}
1002
{
1000
MANEDIT
1070
     0
1002
}
1002
{
1000
NOSEL
1070
     0
1002
}
1002
{
1000
BEHIND
1070
     0
1002
}
1002
{
1000
OTHER
1070
     0
1002
}
1002
{
1000
REACTOR
1002
}
1001
GENIUS_GENOBJ-N-FIL_13
1002
{
1000
OWNER
1000
GEN
1002
}
  0
LINE
  5
8BAA
330
6A34
100
AcDbEntity
  8
1
100
AcDbLine
 10
33.69640480196149
 20
7.996082360556281
 30
0.0
 11
32.92251850344818
 21
5.303645258485554
 31
0.0
  0
ARC
  5
8BAB
330
6A34
100
AcDbEntity
  8
1
100
AcDbCircle
 10
33.88360575565637
 20
5.027400270037114
 30
0.0
 40
1.0
100
AcDbArc
 50
163.9637789131361
 51
180.8929251581054
1001
GENIUS_GENODEF_13
1002
{
1000
HIER
1070
     0
1002
}
1002
{
1000
MANEDIT
1070
     0
1002
}
1002
{
1000
NOSEL
1070
     0
1002
}
1002
{
1000
BEHIND
1070
     0
1002
}
1002
{
1000
OTHER
1070
     0
1002
}
1002
{
1000
REACTOR
1002
}
1001
GENIUS_GENOBJ-N-FIL_13
1002
{
1000
OWNER
1000
GEN
1002
}
  0
ARC
  5
8BAC
330
6A34
100
AcDbEntity
  8
1
100
AcDbCircle
 10
33.09636758443265
 20
4.202352227686128
 30
0.0
 40
0.2
100
AcDbArc
 50
180.8929251581096
 51
267.9151181052089
1001
GENIUS_GENODEF_13
1002
{
1000
HIER
1070
     0
1002
}
1002
{
1000
MANEDIT
1070
     0
1002
}
1002
{
1000
NOSEL
1070
     0
1002
}
1002
{
1000
BEHIND
1070
     0
1002
}
1002
{
1000
OTHER
1070
     0
1002
}
1002
{
1000
REACTOR
1002
}
1001
GENIUS_GENOBJ-N-FIL_13
1002
{
1000
OWNER
1000
GEN
1002
}
  0
LINE
  5
8BAD
330
6A34
100
AcDbEntity
  8
1
100
AcDbLine
 10
32.89639187155525
 20
4.199235457058003
 30
0.0
 11
32.88372719126904
 21
5.011816416896531
 31
0.0
  0
CIRCLE
  5
8BAE
330
6A34
100
AcDbEntity
  8
1
100
AcDbCircle
 10
36.2756837922163
 20
6.00117611384301
 30
0.0
 40
1.255206518985224
  0
LINE
  5
8BAF
330
6A34
100
AcDbEntity
  8
1
100
AcDbLine
 10
28.35140480196148
 20
7.996082360556281
 30
0.0
 11
27.57751850344818
 21
5.303645258485554
 31
0.0
  0
ARC
  5
8BB0
330
6A34
100
AcDbEntity
  8
1
100
AcDbCircle
 10
28.53860575565636
 20
5.027400270037114
 30
0.0
 40
1.0
100
AcDbArc
 50
163.9637789131361
 51
180.8929251581054
1001
GENIUS_GENODEF_13
1002
{
1000
HIER
1070
     0
1002
}
1002
{
1000
MANEDIT
1070
     0
1002
}
1002
{
1000
NOSEL
1070
     0
1002
}
1002
{
1000
BEHIND
1070
     0
1002
}
1002
{
1000
OTHER
1070
     0
1002
}
1002
{
1000
REACTOR
1002
}
1001
GENIUS_GENOBJ-N-FIL_13
1002
{
1000
OWNER
1000
GEN
1002
}
  0
ARC
  5
8BB1
330
6A34
100
AcDbEntity
  8
1
100
AcDbCircle
 10
27.75136758443265
 20
4.202352227686128
 30
0.0
 40
0.2
100
AcDbArc
 50
180.8929251581096
 51
267.9151181052089
1001
GENIUS_GENODEF_13
1002
{
1000
HIER
1070
     0
1002
}
1002
{
1000
MANEDIT
1070
     0
1002
}
1002
{
1000
NOSEL
1070
     0
1002
}
1002
{
1000
BEHIND
1070
     0
1002
}
1002
{
1000
OTHER
1070
     0
1002
}
1002
{
1000
REACTOR
1002
}
1001
GENIUS_GENOBJ-N-FIL_13
1002
{
1000
OWNER
1000
GEN
1002
}
  0
LINE
  5
8BB2
330
6A34
100
AcDbEntity
  8
1
100
AcDbLine
 10
27.55139187155524
 20
4.199235457058003
 30
0.0
 11
27.53872719126904
 21
5.011816416896531
 31
0.0
  0
CIRCLE
  5
8BB3
330
6A34
100
AcDbEntity
  8
1
100
AcDbCircle
 10
30.93068379221629
 20
6.00117611384301
 30
0.0
 40
1.255206518985224
  0
ARC
  5
8BC5
330
6A34
100
AcDbEntity
  8
1
100
AcDbCircle
 10
60.12423622192875
 20
35.18314742525983
 30
0.0
 40
45.79213221288304
100
AcDbArc
 50
230.2035317348824
 51
247.9885000177723
  0
ARC
  5
8BC6
330
6A34
100
AcDbEntity
  8
1
100
AcDbCircle
 10
6.752490322650531
 20
-27.07074830217687
 30
0.0
 40
36.2188034492121
100
AcDbArc
 50
48.3675966942926
 51
71.47376694980768
  0
ARC
  5
8BC7
330
6A34
100
AcDbEntity
  8
1
100
AcDbCircle
 10
46.26665963383842
 20
40.71005839432498
 30
0.0
 40
42.45746000017139
100
AcDbArc
 50
243.7041250277537
 51
266.9353864314453
  0
LINE
  5
8BD1
330
6A34
100
AcDbEntity
  8
4
100
AcDbLine
 10
28.83095328513944
 20
-0.000000000000143
 30
0.0
 11
37.21004229411026
 21
2.092869831649154
 31
0.0
  0
LINE
  5
8BD2
330
6A34
100
AcDbEntity
  8
4
100
AcDbLine
 10
20.83943053642767
 20
-0.0000000000002523
 30
0.0
 11
29.21851954539848
 21
-2.092869831649643
 31
0.0
  0
LINE
  5
8BD3
330
6A34
100
AcDbEntity
  8
4
100
AcDbLine
 10
28.83095328513944
 20
-0.000000000000245
 30
0.0
 11
37.21004229411024
 21
-2.092869831649636
 31
0.0
  0
TEXT
  5
8BD5
330
6A34
100
AcDbEntity
  8
6
100
AcDbText
 10
80.65364583431644
 20
-5.104913590466699
 30
0.0
 40
3.5
  1
Z=6
 50
90.0
100
AcDbText
  0
ARC
  5
8C4F
330
6A34
100
AcDbEntity
  8
1
100
AcDbCircle
 10
28.49556788979262
 20
7.954645612288869
 30
0.0
 40
0.15
100
AcDbArc
 50
89.94931001692524
 51
163.9637789131317
1001
GENIUS_GENOBJ-N-FIL_13
1002
{
1000
OWNER
1000
GEN
1002
}
1001
GENIUS_GENODEF_13
1002
{
1000
HIER
1070
     0
1002
}
1002
{
1000
MANEDIT
1070
     0
1002
}
1002
{
1000
NOSEL
1070
     0
1002
}
1002
{
1000
BEHIND
1070
     0
1002
}
1002
{
1000
OTHER
1070
     0
1002
}
1002
{
1000
REACTOR
1002
}
  0
LINE
  5
8C50
330
6A34
100
AcDbEntity
  8
1
100
AcDbLine
 10
27.74409157964626
 20
4.002484622120973
 30
0.0
 11
43.9967948000838
 21
3.897769700941902
 31
0.0
  0
LINE
  5
8C51
330
6A34
100
AcDbEntity
  8
1
100
AcDbLine
 10
44.80727600478632
 20
7.999867605565047
 30
0.0
 11
28.49570059584067
 21
8.104645553585873
 31
0.0
  0
LINE
  5
8D93
330
6A34
100
AcDbEntity
  8
NOCUT
100
AcDbLine
 10
27.99999999999998
 20
7.98918581375973
 30
0.0
 11
27.99999999999998
 21
10.1519499315719
 31
0.0
  0
DIMENSION
  5
8DA5
330
6A34
100
AcDbEntity
  8
2
100
AcDbDimension
  2
*D2
 10
27.99999999999998
 20
44.99999999999978
 30
0.0
 11
36.49999999999998
 21
48.24999999999978
 31
0.0
 70
    32
  3
AM_DIN
100
AcDbAlignedDimension
 13
44.99999999999997
 23
7.999999999999923
 33
0.0
 14
27.99999999999998
 24
7.98918581375973
 34
0.0
 50
0.0000000000000114
100
AcDbRotatedDimension
  0
TEXT
  5
904D
330
6A34
100
AcDbEntity
  8
SK6
100
AcDbText
 10
-29.28049350239509
 20
16.49936759697438
 30
0.0
 40
2.5
  1
modular 40
100
AcDbText
  0
LINE
  5
904E
330
6A34
100
AcDbEntity
  8
NOCUT
100
AcDbLine
 10
-0.0000000000000213
 20
-23.99999999999995
 30
0.0
 11
11.99999999999997
 21
-23.99999999999995
 31
0.0
  0
LINE
  5
904F
330
6A34
100
AcDbEntity
  8
1
100
AcDbLine
 10
-0.0000000000000213
 20
-24.00000000000001
 30
0.0
 11
11.99999999999997
 21
-24.00000000000001
 31
0.0
  0
LINE
  5
9050
330
6A34
100
AcDbEntity
  8
SK4
100
AcDbLine
 10
14.52561373382193
 20
-18.00000000000001
 30
0.0
 11
-1.911625526851842
 21
-18.00000000000001
 31
0.0
  0
LINE
  5
9051
330
6A34
100
AcDbEntity
  8
SK3
 48
0.5
100
AcDbLine
 10
9.999999999999978
 20
-14.00000000000001
 30
0.0
 11
-0.0000000000000213
 21
-14.00000000000001
 31
0.0
  0
LINE
  5
9052
330
6A34
100
AcDbEntity
  8
SK3
 48
0.5
100
AcDbLine
 10
9.999999999999978
 20
-22.00000000000001
 30
0.0
 11
-0.0000000000000213
 21
-22.00000000000001
 31
0.0
  0
LINE
  5
9053
330
6A34
100
AcDbEntity
  8
SK3
 48
0.5
100
AcDbLine
 10
9.999999999999978
 20
13.99999999999998
 30
0.0
 11
-0.0000000000000213
 21
13.99999999999998
 31
0.0
  0
LINE
  5
9054
330
6A34
100
AcDbEntity
  8
SK3
 48
0.5
100
AcDbLine
 10
9.999999999999978
 20
21.99999999999998
 30
0.0
 11
-0.0000000000000213
 21
21.99999999999998
 31
0.0
  0
LINE
  5
9055
330
6A34
100
AcDbEntity
  8
SK3
 48
0.3
100
AcDbLine
 10
5.315976632393791
 20
2.999999999999987
 30
0.0
 11
-35.00000000000002
 21
3.000000000000012
 31
0.0
  0
LINE
  5
9056
330
6A34
100
AcDbEntity
  8
SK3
 48
0.3
100
AcDbLine
 10
6.501942827943118
 20
-3.0
 30
0.0
 11
-35.00000000000002
 21
-2.999999999999987
 31
0.0
  0
LINE
  5
9057
330
6A34
100
AcDbEntity
  8
SK4
100
AcDbLine
 10
13.74905218780848
 20
17.99999999999998
 30
0.0
 11
-2.817613997200645
 21
17.99999999999998
 31
0.0
  0
LINE
  5
9058
330
6A34
100
AcDbEntity
  8
1
100
AcDbLine
 10
-0.0000000000000213
 20
23.99999999999998
 30
0.0
 11
11.99999999999997
 21
23.99999999999998
 31
0.0
  0
DIMENSION
  5
9059
330
6A34
100
AcDbEntity
  8
SK2
100
AcDbDimension
  2
*D5
 10
-59.74448938991876
 20
-23.99999999999999
 30
0.0
 11
-62.99448938991876
 21
-0.0000000000000066
 31
0.0
 70
    32
  1
%%c<>
  3
AM_DIN
100
AcDbAlignedDimension
 13
-0.0000000000000213
 23
23.99999999999998
 33
0.0
 14
-0.0000000000000213
 24
-24.00000000000001
 34
0.0
 50
90.0
100
AcDbRotatedDimension
  0
DIMENSION
  5
905A
330
6A34
100
AcDbEntity
  8
SK2
100
AcDbDimension
  2
*D4
 10
-48.30042214622815
 20
-11.99999999999998
 30
0.0
 11
-51.34319359390863
 21
-0.1122779170276988
 31
0.0
 70
   160
  1
%%c<>
 53
90.0
  3
AM_ANSI
100
AcDbAlignedDimension
 13
-30.00000000000002
 23
12.00000000000001
 33
0.0
 14
-30.00000000000002
 24
-11.99999999999998
 34
0.0
 50
90.0
100
AcDbRotatedDimension
1001
ACAD
1000
DSTYLE
1002
{
1070
    41
1040
2.399999999999999
1070
    42
1040
0.0
1070
    44
1040
1.0
1070
    77
1070
     1
1070
   140
1040
3.5
1070
   147
1040
1.0
1070
   271
1070
     0
1002
}
  0
LINE
  5
905B
330
6A34
100
AcDbEntity
  8
NOCUT
100
AcDbLine
 10
-0.0000000000000249
 20
-0.0000000000000376
 30
0.0
 11
-0.0000000000000213
 21
-23.99999999999995
 31
0.0
  0
LINE
  5
905C
330
6A34
100
AcDbEntity
  8
SK1
100
AcDbLine
 10
-1.828602898698385
 20
11.99999999999998
 30
0.0
 11
-1.828602898698385
 21
-12.00000000000001
 31
0.0
  0
LINE
  5
905D
330
6A34
100
AcDbEntity
  8
SK3
 48
0.3
100
AcDbLine
 10
-13.75000000000007
 20
-11.99999999999998
 30
0.0
 11
-13.75000000000002
 21
-2.999999999999987
 31
0.0
  0
LINE
  5
905E
330
6A34
100
AcDbEntity
  8
SK3
 48
0.3
100
AcDbLine
 10
-10.25000000000002
 20
-11.99999999999998
 30
0.0
 11
-10.25000000000002
 21
-3.000000000000015
 31
0.0
  0
LINE
  5
905F
330
6A34
100
AcDbEntity
  8
SK4
100
AcDbLine
 10
-12.00000000000002
 20
-12.82925254711189
 30
0.0
 11
-12.00000000000002
 21
13.96286389869326
 31
0.0
  0
LINE
  5
9060
330
6A34
100
AcDbEntity
  8
SK1
100
AcDbLine
 10
-33.24006579232146
 20
-11.64999999999999
 30
0.0
 11
-33.24006579232146
 21
11.64999999999998
 31
0.0
  0
LINE
  5
9061
330
6A34
100
AcDbEntity
  8
SK1
100
AcDbLine
 10
-30.00000000000002
 20
-11.99999999999998
 30
0.0
 11
-30.00000000000002
 21
12.00000000000001
 31
0.0
  0
LINE
  5
9062
330
6A34
100
AcDbEntity
  8
SK1
100
AcDbLine
 10
-35.00000000000002
 20
-10.99999999999998
 30
0.0
 11
-35.00000000000002
 21
11.00000000000001
 31
0.0
  0
LINE
  5
9063
330
6A34
100
AcDbEntity
  8
1
100
AcDbLine
 10
-0.0000000000000213
 20
-24.00000000000001
 30
0.0
 11
-0.0000000000000213
 21
23.99999999999998
 31
0.0
  0
LINE
  5
9064
330
6A34
100
AcDbEntity
  8
SK1
100
AcDbLine
 10
-0.0000000000000213
 20
-11.99999999999998
 30
0.0
 11
-30.00000000000007
 21
-11.99999999999998
 31
0.0
  0
ARC
  5
9065
330
6A34
100
AcDbEntity
  8
SK1
100
AcDbCircle
 10
-34.00000000000002
 20
-11.00000000000001
 30
0.0
 40
1.0
100
AcDbArc
 50
180.0
 51
319.4583981264973
1001
GENIUS_GENODEF_13
1002
{
1000
HIER
1070
     0
1002
}
1002
{
1000
MANEDIT
1070
     0
1002
}
1002
{
1000
NOSEL
1070
     0
1002
}
1002
{
1000
BEHIND
1070
     0
1002
}
1002
{
1000
OTHER
1070
     0
1002
}
1002
{
1000
REACTOR
1002
}
1001
GENIUS_GENOBJ-N-FIL_13
1002
{
1000
OWNER
1000
GEN
1002
}
  0
LINE
  5
9066
330
6A34
100
AcDbEntity
  8
SK1
100
AcDbLine
 10
-30.00000000000002
 20
-11.99999999999998
 30
0.0
 11
-33.10000000000004
 21
-11.64999999999999
 31
0.0
  0
LINE
  5
9067
330
6A34
100
AcDbEntity
  8
SK1
100
AcDbLine
 10
-33.10000000000004
 20
-11.64999999999999
 30
0.0
 11
-33.24006579232146
 21
-11.64999999999999
 31
0.0
  0
ARC
  5
9069
330
6A34
100
AcDbEntity
  8
SK1
100
AcDbCircle
 10
-15.19095324358223
 20
3.999999999999984
 30
0.0
 40
3.497878983177713
100
AcDbArc
 50
120.9448553667911
 51
179.9999999999991
  0
ARC
  5
906A
330
6A34
100
AcDbEntity
  8
SK1
100
AcDbCircle
 10
-15.19095324358223
 20
-4.000000000000015
 30
0.0
 40
3.497878983177713
100
AcDbArc
 50
180.0
 51
239.0551446332088
  0
LINE
  5
906B
330
6A34
100
AcDbEntity
  8
SK1
100
AcDbLine
 10
-16.98960756861426
 20
7.000000000000012
 30
0.0
 11
-18.68883222675995
 21
7.000000000000012
 31
0.0
  0
LINE
  5
906C
330
6A34
100
AcDbEntity
  8
SK1
100
AcDbLine
 10
-16.98960756861426
 20
-6.999999999999987
 30
0.0
 11
-18.68883222675995
 21
-6.999999999999987
 31
0.0
  0
LINE
  5
906D
330
6A34
100
AcDbEntity
  8
SK1
100
AcDbLine
 10
-0.0000000000000213
 20
12.00000000000001
 30
0.0
 11
-30.00000000000007
 21
12.00000000000001
 31
0.0
  0
ARC
  5
906E
330
6A34
100
AcDbEntity
  8
SK1
100
AcDbCircle
 10
-34.00000000000002
 20
10.99999999999998
 30
0.0
 40
1.0
100
AcDbArc
 50
40.54160187350273
 51
180.0
1001
GENIUS_GENODEF_13
1002
{
1000
HIER
1070
     0
1002
}
1002
{
1000
MANEDIT
1070
     0
1002
}
1002
{
1000
NOSEL
1070
     0
1002
}
1002
{
1000
BEHIND
1070
     0
1002
}
1002
{
1000
OTHER
1070
     0
1002
}
1002
{
1000
REACTOR
1002
}
1001
GENIUS_GENOBJ-N-FIL_13
1002
{
1000
OWNER
1000
GEN
1002
}
  0
LINE
  5
906F
330
6A34
100
AcDbEntity
  8
SK1
100
AcDbLine
 10
-30.00000000000002
 20
12.00000000000001
 30
0.0
 11
-33.10000000000004
 21
11.65000000000001
 31
0.0
  0
LINE
  5
9070
330
6A34
100
AcDbEntity
  8
SK1
100
AcDbLine
 10
-33.10000000000004
 20
11.65000000000001
 30
0.0
 11
-33.24006579232146
 21
11.65000000000001
 31
0.0
  0
LINE
  5
9071
330
6A34
100
AcDbEntity
  8
SK1
100
AcDbLine
 10
-18.68883222675995
 20
-3.999999999999987
 30
0.0
 11
-18.68883222675995
 21
4.000000000000012
 31
0.0
  0
ARC
  5
9072
330
6A34
100
AcDbEntity
  8
SK1
100
AcDbCircle
 10
-17.0846043239517
 20
-0.000000000000016
 30
0.0
 40
7.181472492751646
100
AcDbArc
 50
102.9078848854386
 51
257.0921151145614
  0
LINE
  5
9073
330
6A34
100
AcDbEntity
  8
SK3
 48
0.3
100
AcDbLine
 10
-13.75000000000002
 20
3.000000000000012
 30
0.0
 11
-13.75000000000002
 21
12.00000000000001
 31
0.0
  0
LINE
  5
9074
330
6A34
100
AcDbEntity
  8
SK3
 48
0.3
100
AcDbLine
 10
-10.25000000000002
 20
2.999999999999984
 30
0.0
 11
-10.25000000000002
 21
12.00000000000001
 31
0.0
  0
ARC
  5
9075
330
6A34
100
AcDbEntity
  8
SK1
100
AcDbCircle
 10
-22.86946659883229
 20
-0.000000000000016
 30
0.0
 40
9.141812851685189
100
AcDbArc
 50
310.0295827564067
 51
49.97041724359328
  0
CIRCLE
  5
9076
330
6A34
100
AcDbEntity
  8
SK1
100
AcDbCircle
 10
-12.00000000000002
 20
-0.000000000000016
 30
0.0
 40
1.75
  0
LINE
  5
9077
330
6A34
100
AcDbEntity
  8
SK1
100
AcDbLine
 10
-2.086652350555043
 20
-2.086652350555048
 30
0.0
 11
2.086652350555002
 21
2.086652350554995
 31
0.0
  0
CIRCLE
  5
9078
330
6A34
100
AcDbEntity
  8
SK1
100
AcDbCircle
 10
0.0
 20
-0.0000000000000071
 30
0.0
 40
2.950972054112602
  0
LINE
  5
9079
330
6A34
100
AcDbEntity
  8
SK1
100
AcDbLine
 10
-2.086652350555024
 20
2.086652350555016
 30
0.0
 11
2.08665235055502
 21
-2.086652350555031
 31
0.0
  0
LINE
  5
907A
330
6A34
100
AcDbEntity
  8
NOCUT
100
AcDbLine
 10
12.99999999999998
 20
-22.99999999999995
 30
0.0
 11
13.00000000000007
 21
-8.271134343416473
 31
0.0
  0
LINE
  5
907B
330
6A34
100
AcDbEntity
  8
1
100
AcDbLine
 10
12.99999999999998
 20
-23.00000000000005
 30
0.0
 11
12.99999999999998
 21
22.99999999999998
 31
0.0
  0
LINE
  5
907C
330
6A34
100
AcDbEntity
  8
NOCUT
100
AcDbLine
 10
11.99999999999997
 20
-23.99999999999995
 30
0.0
 11
12.99999999999998
 21
-22.99999999999995
 31
0.0
  0
LINE
  5
907D
330
6A34
100
AcDbEntity
  8
1
100
AcDbLine
 10
11.99999999999997
 20
-24.00000000000001
 30
0.0
 11
12.99999999999998
 21
-23.00000000000001
 31
0.0
1001
GENIUS_GENFIL_13
1070
     0
1040
1.0
1040
1.0
1040
0.0
1040
0.0
1002
{
1002
}
1001
GENIUS_GENODEF_13
1002
{
1000
HIER
1070
     0
1002
}
1002
{
1000
MANEDIT
1070
     0
1002
}
1002
{
1000
NOSEL
1070
     0
1002
}
1002
{
1000
BEHIND
1070
     0
1002
}
1002
{
1000
OTHER
1070
     0
1002
}
1002
{
1000
REACTOR
1002
}
1001
GENIUS_GENOBJ-N-CHA_13
1002
{
1000
OWNER
1000
GEN
1002
}
  0
LINE
  5
907E
330
6A34
100
AcDbEntity
  8
SK3
 48
0.5
100
AcDbLine
 10
9.999999999999978
 20
-14.00000000000001
 30
0.0
 11
9.999999999999978
 21
-22.00000000000001
 31
0.0
  0
LINE
  5
907F
330
6A34
100
AcDbEntity
  8
SK3
 48
0.5
100
AcDbLine
 10
9.999999999999978
 20
-14.00000000000001
 30
0.0
 11
12.30940107675858
 21
-18.00000000000001
 31
0.0
  0
LINE
  5
9080
330
6A34
100
AcDbEntity
  8
SK3
 48
0.5
100
AcDbLine
 10
9.999999999999978
 20
-22.00000000000001
 30
0.0
 11
12.30940107675858
 21
-18.00000000000001
 31
0.0
  0
LINE
  5
9081
330
6A34
100
AcDbEntity
  8
SK3
 48
0.5
100
AcDbLine
 10
9.999999999999978
 20
13.99999999999998
 30
0.0
 11
12.30940107675858
 21
17.99999999999998
 31
0.0
  0
LINE
  5
9082
330
6A34
100
AcDbEntity
  8
SK3
 48
0.5
100
AcDbLine
 10
9.999999999999978
 20
13.99999999999998
 30
0.0
 11
9.999999999999978
 21
21.99999999999998
 31
0.0
  0
ARC
  5
9084
330
6A34
100
AcDbEntity
  8
NOCUT
100
AcDbCircle
 10
13.99999999999797
 20
-8.271134343416481
 30
0.0
 40
1.0
100
AcDbArc
 50
90.0
 51
180.0
1001
GENIUS_GENOBJ-N-FIL_13
1002
{
1000
OWNER
1000
GEN
1002
}
1001
GENIUS_GENODEF_13
1002
{
1000
HIER
1070
     0
1002
}
1002
{
1000
MANEDIT
1070
     0
1002
}
1002
{
1000
NOSEL
1070
     0
1002
}
1002
{
1000
BEHIND
1070
     0
1002
}
1002
{
1000
OTHER
1070
     0
1002
}
1002
{
1000
REACTOR
1002
}
  0
ARC
  5
9085
330
6A34
100
AcDbEntity
  8
1
100
AcDbCircle
 10
13.99999999999997
 20
8.271134343416916
 30
0.0
 40
1.0
100
AcDbArc
 50
180.0
 51
269.9999999999994
1001
GENIUS_GENOBJ-N-FIL_13
1002
{
1000
OWNER
1000
GEN
1002
}
1001
GENIUS_GENODEF_13
1002
{
1000
HIER
1070
     0
1002
}
1002
{
1000
MANEDIT
1070
     0
1002
}
1002
{
1000
NOSEL
1070
     0
1002
}
1002
{
1000
BEHIND
1070
     0
1002
}
1002
{
1000
OTHER
1070
     0
1002
}
1002
{
1000
REACTOR
1002
}
  0
LINE
  5
9086
330
6A34
100
AcDbEntity
  8
1
100
AcDbLine
 10
11.99999999999997
 20
23.99999999999998
 30
0.0
 11
12.99999999999998
 21
22.99999999999998
 31
0.0
1001
GENIUS_GENFIL_13
1070
     0
1040
1.0
1040
1.0
1040
0.0
1040
0.0
1002
{
1002
}
1001
GENIUS_GENODEF_13
1002
{
1000
HIER
1070
     0
1002
}
1002
{
1000
MANEDIT
1070
     0
1002
}
1002
{
1000
NOSEL
1070
     0
1002
}
1002
{
1000
BEHIND
1070
     0
1002
}
1002
{
1000
OTHER
1070
     0
1002
}
1002
{
1000
REACTOR
1002
}
1001
GENIUS_GENOBJ-N-CHA_13
1002
{
1000
OWNER
1000
GEN
1002
}
  0
LINE
  5
9087
330
6A34
100
AcDbEntity
  8
SK3
 48
0.5
100
AcDbLine
 10
9.999999999999978
 20
21.99999999999998
 30
0.0
 11
12.30940107675858
 21
17.99999999999998
 31
0.0
  0
DIMENSION
  5
9088
330
6A34
100
AcDbEntity
  8
SK2
100
AcDbDimension
  2
*D3
 10
-35.00000000000002
 20
60.03381914312867
 30
0.0
 11
-17.50000000000002
 21
62.78381914312866
 31
0.0
 70
    32
  3
AM_ANSI
100
AcDbAlignedDimension
 13
-0.0000000000000213
 23
23.99999999999998
 33
0.0
 14
-35.00000000000002
 24
10.99999999999998
 34
0.0
100
AcDbRotatedDimension
1001
ACAD
1000
DSTYLE
1002
{
1070
    41
1040
2.399999999999999
1070
    42
1040
0.0
1070
    44
1040
1.0
1070
    77
1070
     1
1070
   140
1040
3.5
1070
   147
1040
1.0
1070
   271
1070
     0
1002
}
  0
ARC
  5
90E9
330
6A34
100
AcDbEntity
  8
1
100
AcDbCircle
 10
13.99999999999977
 20
-8.271134343416731
 30
0.0
 40
1.0
100
AcDbArc
 50
89.99999999999912
 51
179.9999999999986
1001
GENIUS_GENOBJ-N-FIL_13
1002
{
1000
OWNER
1000
GEN
1002
}
1001
GENIUS_GENODEF_13
1002
{
1000
HIER
1070
     0
1002
}
1002
{
1000
MANEDIT
1070
     0
1002
}
1002
{
1000
NOSEL
1070
     0
1002
}
1002
{
1000
BEHIND
1070
     0
1002
}
1002
{
1000
OTHER
1070
     0
1002
}
1002
{
1000
REACTOR
1002
}
  0
DIMENSION
  5
9105
330
6A34
100
AcDbEntity
  8
2
100
AcDbDimension
  2
*D6
 10
12.99999999999998
 20
59.99999999999992
 30
0.0
 11
28.99999999999997
 21
63.2503444881889
 31
0.0
 70
    32
  3
AM_DIN
100
AcDbAlignedDimension
 13
44.99999999999997
 23
7.999999999999923
 33
0.0
 14
12.99999999999998
 24
22.99999999999998
 34
0.0
 50
0.0000000000000114
100
AcDbRotatedDimension
  0
DIMENSION
  5
9182
330
6A34
100
AcDbEntity
  8
2
100
AcDbDimension
  2
*D7
 10
-0.0000000000000182
 20
74.99999999999999
 30
0.0
 11
22.49999999999997
 21
78.24999999999999
 31
0.0
 70
    32
  3
AM_DIN
100
AcDbAlignedDimension
 13
44.99999999999997
 23
7.999999999999923
 33
0.0
 14
-0.0000000000000213
 24
23.99999999999998
 34
0.0
 50
0.0000000000000114
100
AcDbRotatedDimension
  0
ENDSEC
  0
SECTION
  2
OBJECTS
  0
DICTIONARY
  5
6A22
330
0
100
AcDbDictionary
  3
ACAD_GROUP
350
6A23
  3
ACAD_LAYOUT
350
6A2F
  3
ACAD_MLINESTYLE
350
6A2C
  3
ACAD_PLOTSETTINGS
350
6A2E
  3
ACAD_PLOTSTYLENAME
350
6A24
  3
ACDBHEADERROUNDTRIPXREC
350
920A
  3
ACDBVARIABLEDICTIONARY
350
6B78
  3
ACMDICTIONARY
350
6B39
  3
AMG
350
6B22
  3
AMGSNAPSETTINGS
350
6B59
  3
ASE_INDEX_DICTIONARY
350
89F6
  3
DWGPROPS
350
9206
  0
DICTIONARY
  5
6B62
330
6A34
100
AcDbDictionary
280
     1
  3
ACAD_INDEX
360
6B63
  3
ACAD_LAYOUTSELFREF
360
922D
  0
DICTIONARY
  5
922B
330
6A30
100
AcDbDictionary
280
     1
  3
ACAD_LAYOUTSELFREF
360
922C
  0
DICTIONARY
  5
6A23
102
{ACAD_REACTORS
330
6A22
102
}
330
6A22
100
AcDbDictionary
  0
DICTIONARY
  5
6A2F
102
{ACAD_REACTORS
330
6A22
102
}
330
6A22
100
AcDbDictionary
  0
DICTIONARY
  5
6A2C
102
{ACAD_REACTORS
330
6A22
102
}
330
6A22
100
AcDbDictionary
  3
STANDARD
350
6A2D
  0
DICTIONARY
  5
6A2E
102
{ACAD_REACTORS
330
6A22
102
}
330
6A22
100
AcDbDictionary
  0
ACDBDICTIONARYWDFLT
  5
6A24
102
{ACAD_REACTORS
330
6A22
102
}
330
6A22
100
AcDbDictionary
281
     1
  3
Normal
350
6A25
100
AcDbDictionaryWithDefault
340
6A25
  0
DICTIONARY
  5
920A
102
{ACAD_REACTORS
330
6A22
102
}
330
6A22
100
AcDbDictionary
  3
CEPSNTYPE
350
9214
  3
DIMSTYLEDATA
350
9218
  3
FINGERPRINTGUID
350
9215
  3
HYPERLINKBASE
350
920D
  3
INSUNITS
350
9213
  3
LAYOUTDICT
350
920F
  3
LWETCUNION
350
9212
  3
PLOTSETDICT
350
9210
  3
PLOTSTYLNAMDICT
350
9211
  3
PSVPSCALE
350
9217
  3
PUCSBASE
350
921B
  3
PUCSORGBACK
350
9221
  3
PUCSORGBOTTOM
350
921D
  3
PUCSORGFRONT
350
9220
  3
PUCSORGLEFT
350
921E
  3
PUCSORGRIGHT
350
921F
  3
PUCSORGTOP
350
921C
  3
PUCSORTHOREF
350
9219
  3
PUCSORTHOVIEW
350
921A
  3
STYLESHEET
350
920E
  3
TSTACKALIGN
350
920B
  3
TSTACKSIZE
350
920C
  3
UCSBASE
350
9224
  3
UCSORGBACK
350
922A
  3
UCSORGBOTTOM
350
9226
  3
UCSORGFRONT
350
9229
  3
UCSORGLEFT
350
9227
  3
UCSORGRIGHT
350
9228
  3
UCSORGTOP
350
9225
  3
UCSORTHOREF
350
9222
  3
UCSORTHOVIEW
350
9223
  3
VERSIONGUID
350
9216
  0
DICTIONARY
  5
6B78
102
{ACAD_REACTORS
330
6A22
102
}
330
6A22
100
AcDbDictionary
  3
DIMASSOC
350
6B7A
  3
INDEXCTL
350
6B79
  0
DICTIONARY
  5
6B39
102
{ACAD_REACTORS
330
6A22
102
}
330
6A22
100
AcDbDictionary
  3
ACMSTDDICTIONARY
350
6B3F
  0
DICTIONARY
  5
6B22
102
{ACAD_REACTORS
330
6A22
102
}
330
6A22
100
AcDbDictionary
  3
ACMGSETTINGS
350
6B23
  0
DICTIONARY
  5
6B59
102
{ACAD_REACTORS
330
6A22
102
}
330
6A22
100
AcDbDictionary
  0
DICTIONARY
  5
89F6
102
{ACAD_REACTORS
330
6A22
102
}
330
6A22
100
AcDbDictionary
  3
ASEBLOCKHIERARCHYINDEXRECORD
350
89F8
1001
DCO15
1040
1550954233.809999
  0
XRECORD
  5
9206
102
{ACAD_REACTORS
330
6A22
102
}
330
6A22
100
AcDbXrecord
  1
DWGPROPS COOKIE
  2

  3

  4

  6

  7

  8

  9

300
AmdtFileType=84
301
=
302
=
303
=
304
=
305
=
306
=
307
=
308
=
309
=
 40
0.1816647453703703
 41
2453447.43007081
 42
2453754.080669282
  1

 90
        1
  0
DICTIONARY
  5
6B63
102
{ACAD_REACTORS
330
6B62
102
}
330
6B62
100
AcDbDictionary
  3
*A1
350
6B64
  0
XRECORD
  5
922D
102
{ACAD_REACTORS
330
6B62
102
}
330
6B62
100
AcDbXrecord
340
6A34
  0
XRECORD
  5
922C
102
{ACAD_REACTORS
330
922B
102
}
330
922B
100
AcDbXrecord
340
6A30
  0
MLINESTYLE
  5
6A2D
102
{ACAD_REACTORS
330
6A2C
102
}
330
6A2C
100
AcDbMlineStyle
  2
STANDARD
 70
     0
  3

 62
   256
 51
90.0
 52
90.0
 71
     2
 49
0.5
 62
   256
  6
BYLAYER
 49
-0.5
 62
   256
  6
BYLAYER
  0
ACDBPLACEHOLDER
  5
6A25
102
{ACAD_REACTORS
330
6A24
102
}
330
6A24
100
AcDbPlaceHolder
280
     0
  0
XRECORD
  5
9214
102
{ACAD_REACTORS
330
920A
102
}
330
920A
100
AcDbXrecord
 90
        0
  0
XRECORD
  5
9218
102
{ACAD_REACTORS
330
920A
102
}
330
920A
100
AcDbXrecord
1000
DSTYLE
1002
{
1070
   279
 70
     2
1002
}
  0
XRECORD
  5
9215
102
{ACAD_REACTORS
330
920A
102
}
330
920A
100
AcDbXrecord
  1
{5E8163B8-4D8F-4110-B677-A6458ADDE735}
  0
XRECORD
  5
920D
102
{ACAD_REACTORS
330
920A
102
}
330
920A
100
AcDbXrecord
  1

  0
XRECORD
  5
9213
102
{ACAD_REACTORS
330
920A
102
}
330
920A
100
AcDbXrecord
 90
        4
  0
XRECORD
  5
920F
102
{ACAD_REACTORS
330
920A
102
}
330
920A
100
AcDbXrecord
340
6A2F
  0
XRECORD
  5
9212
102
{ACAD_REACTORS
330
920A
102
}
330
920A
100
AcDbXrecord
 90
    10781
  0
XRECORD
  5
9210
102
{ACAD_REACTORS
330
920A
102
}
330
920A
100
AcDbXrecord
340
6A2E
  0
XRECORD
  5
9211
102
{ACAD_REACTORS
330
920A
102
}
330
920A
100
AcDbXrecord
340
6A24
  0
XRECORD
  5
9217
102
{ACAD_REACTORS
330
920A
102
}
330
920A
100
AcDbXrecord
 40
0.0
  0
XRECORD
  5
921B
102
{ACAD_REACTORS
330
920A
102
}
330
920A
100
AcDbXrecord
340
0
  0
XRECORD
  5
9221
102
{ACAD_REACTORS
330
920A
102
}
330
920A
100
AcDbXrecord
 10
0.0
 20
0.0
 30
0.0
  0
XRECORD
  5
921D
102
{ACAD_REACTORS
330
920A
102
}
330
920A
100
AcDbXrecord
 10
0.0
 20
0.0
 30
0.0
  0
XRECORD
  5
9220
102
{ACAD_REACTORS
330
920A
102
}
330
920A
100
AcDbXrecord
 10
0.0
 20
0.0
 30
0.0
  0
XRECORD
  5
921E
102
{ACAD_REACTORS
330
920A
102
}
330
920A
100
AcDbXrecord
 10
0.0
 20
0.0
 30
0.0
  0
XRECORD
  5
921F
102
{ACAD_REACTORS
330
920A
102
}
330
920A
100
AcDbXrecord
 10
0.0
 20
0.0
 30
0.0
  0
XRECORD
  5
921C
102
{ACAD_REACTORS
330
920A
102
}
330
920A
100
AcDbXrecord
 10
0.0
 20
0.0
 30
0.0
  0
XRECORD
  5
9219
102
{ACAD_REACTORS
330
920A
102
}
330
920A
100
AcDbXrecord
340
0
  0
XRECORD
  5
921A
102
{ACAD_REACTORS
330
920A
102
}
330
920A
100
AcDbXrecord
 70
     0
  0
XRECORD
  5
920E
102
{ACAD_REACTORS
330
920A
102
}
330
920A
100
AcDbXrecord
  1

  0
XRECORD
  5
920B
102
{ACAD_REACTORS
330
920A
102
}
330
920A
100
AcDbXrecord
 90
        1
  0
XRECORD
  5
920C
102
{ACAD_REACTORS
330
920A
102
}
330
920A
100
AcDbXrecord
 90
       70
  0
XRECORD
  5
9224
102
{ACAD_REACTORS
330
920A
102
}
330
920A
100
AcDbXrecord
340
0
  0
XRECORD
  5
922A
102
{ACAD_REACTORS
330
920A
102
}
330
920A
100
AcDbXrecord
 10
0.0
 20
0.0
 30
0.0
  0
XRECORD
  5
9226
102
{ACAD_REACTORS
330
920A
102
}
330
920A
100
AcDbXrecord
 10
0.0
 20
0.0
 30
0.0
  0
XRECORD
  5
9229
102
{ACAD_REACTORS
330
920A
102
}
330
920A
100
AcDbXrecord
 10
0.0
 20
0.0
 30
0.0
  0
XRECORD
  5
9227
102
{ACAD_REACTORS
330
920A
102
}
330
920A
100
AcDbXrecord
 10
0.0
 20
0.0
 30
0.0
  0
XRECORD
  5
9228
102
{ACAD_REACTORS
330
920A
102
}
330
920A
100
AcDbXrecord
 10
0.0
 20
0.0
 30
0.0
  0
XRECORD
  5
9225
102
{ACAD_REACTORS
330
920A
102
}
330
920A
100
AcDbXrecord
 10
0.0
 20
0.0
 30
0.0
  0
XRECORD
  5
9222
102
{ACAD_REACTORS
330
920A
102
}
330
920A
100
AcDbXrecord
340
0
  0
XRECORD
  5
9223
102
{ACAD_REACTORS
330
920A
102
}
330
920A
100
AcDbXrecord
 70
     0
  0
XRECORD
  5
9216
102
{ACAD_REACTORS
330
920A
102
}
330
920A
100
AcDbXrecord
  1
{9DDFC9F2-7A07-4D92-ADFC-6EF3AAE46EAD}
  0
DICTIONARYVAR
  5
6B7A
102
{ACAD_REACTORS
330
6B78
102
}
330
6B78
100
DictionaryVariables
280
     0
  1
1
  0
DICTIONARYVAR
  5
6B79
102
{ACAD_REACTORS
330
6B78
102
}
330
6B78
100
DictionaryVariables
280
     0
  1
1
  0
DICTIONARY
  5
6B3F
102
{ACAD_REACTORS
330
6B39
102
}
330
6B39
100
AcDbDictionary
  0
DICTIONARY
  5
6B23
102
{ACAD_REACTORS
330
6B22
102
}
330
6B22
100
AcDbDictionary
  3
DWGSETTINGS
350
6B24
  0
XRECORD
  5
89F8
102
{ACAD_REACTORS
330
89F6
102
}
330
89F6
100
AcDbXrecord
  0
LAYER_INDEX
  5
6B64
102
{ACAD_REACTORS
330
6B63
102
}
330
6B63
100
AcDbIndex
 40
2453754.123154062
100
AcDbLayerIndex
  8
0
360
6B65
 90
        0
  8
DEFPOINTS
360
6B66
 90
        0
  8
1
360
6B67
 90
       46
  8
2
360
6B68
 90
        4
  8
4
360
6B69
 90
        5
  8
6
360
6B6A
 90
        4
  8
SK1
360
6B6B
 90
       29
  8
SK2
360
6B6C
 90
        3
  8
SK4
360
6B6D
 90
        4
  8
CUT
360
6B6E
 90
       12
  8
NOCUT
360
6B6F
 90
        9
  8
SK3
360
91F5
 90
       16
  8
SK6
360
91F6
 90
        1
  0
XRECORD
  5
6B24
102
{ACAD_REACTORS
330
6B23
102
}
330
6B23
100
AcDbXrecord
  1
VERSION
140
15.0
  1
PRODUCT
  2
AutoCAD Mechanical 2000
  0
IDBUFFER
  5
6B65
330
0
100
AcDbIdBuffer
  0
IDBUFFER
  5
6B66
330
0
100
AcDbIdBuffer
  0
IDBUFFER
  5
6B67
330
0
100
AcDbIdBuffer
330
907B
330
907D
330
9085
330
9086
330
90E9
330
80BA
330
80E9
330
80ED
330
8947
330
8949
330
894B
330
894D
330
894F
330
8956
330
8958
330
895A
330
895C
330
89D1
330
8B52
330
8B53
330
8B54
330
8B58
330
8B59
330
8B60
330
8B61
330
8B64
330
8B65
330
8BAA
330
8BAB
330
8BAC
330
8BAD
330
8BAE
330
8BAF
330
8BB0
330
8BB1
330
8BB2
330
8BB3
330
8BC5
330
8BC6
330
8BC7
330
8C4F
330
8C50
330
8C51
330
904F
330
9058
330
9063
  0
IDBUFFER
  5
6B68
330
0
100
AcDbIdBuffer
330
819A
330
8DA5
330
9105
330
9182
  0
IDBUFFER
  5
6B69
330
0
100
AcDbIdBuffer
330
80EC
330
8523
330
8BD1
330
8BD2
330
8BD3
  0
IDBUFFER
  5
6B6A
330
0
100
AcDbIdBuffer
330
84D5
330
84D7
330
8892
330
8BD5
  0
IDBUFFER
  5
6B6B
330
0
100
AcDbIdBuffer
330
9075
330
9076
330
9077
330
9078
330
9079
330
80B1
330
80B2
330
80B3
330
80DF
330
80E0
330
80E1
330
905C
330
9060
330
9061
330
9062
330
9064
330
9065
330
9066
330
9067
330
9069
330
906A
330
906B
330
906C
330
906D
330
906E
330
906F
330
9070
330
9071
330
9072
  0
IDBUFFER
  5
6B6C
330
0
100
AcDbIdBuffer
330
9088
330
9059
330
905A
  0
IDBUFFER
  5
6B6D
330
0
100
AcDbIdBuffer
330
905F
330
80EB
330
9050
330
9057
  0
IDBUFFER
  5
6B6E
330
0
100
AcDbIdBuffer
330
8A73
330
8A76
330
8A78
330
8A7A
330
8A7C
330
8A7E
330
8A80
330
8A85
330
8A87
330
8A88
330
8A8B
330
8A8D
  0
IDBUFFER
  5
6B6F
330
0
100
AcDbIdBuffer
330
907C
330
9084
330
84C9
330
84CA
330
84CB
330
8D93
330
904E
330
905B
330
907A
  0
IDBUFFER
  5
91F5
330
0
100
AcDbIdBuffer
330
9051
330
9052
330
9053
330
9054
330
9055
330
9056
330
905D
330
905E
330
9073
330
9074
330
907E
330
907F
330
9080
330
9081
330
9082
330
9087
  0
IDBUFFER
  5
91F6
330
0
100
AcDbIdBuffer
330
904D
  0
ENDSEC
  0
EOF
