  0
SECTION
  2
HEADER
  9
$ACADVER
  1
AC1015
  9
$ACADMAINTVER
 70
    20
  9
$DWGCODEPAGE
  3
ANSI_1252
  9
$INSBASE
 10
0.0
 20
0.0
 30
0.0
  9
$EXTMIN
 10
-86.27199118299836
 20
-40.47371796203629
 30
-0.000000000000013
  9
$EXTMAX
 10
190.8190360131204
 20
79.84846203850293
 30
0.0000000000000023
  9
$LIMMIN
 10
0.0
 20
0.0
  9
$LIMMAX
 10
210.0
 20
297.0
  9
$ORTHOMODE
 70
     0
  9
$REGENMODE
 70
     1
  9
$FILLMODE
 70
     1
  9
$QTEXTMODE
 70
     0
  9
$MIRRTEXT
 70
     1
  9
$LTSCALE
 40
1.0
  9
$ATTMODE
 70
     1
  9
$TEXTSIZE
 40
2.5
  9
$TRACEWID
 40
1.0
  9
$TEXTSTYLE
  7
STANDARD
  9
$CLAYER
  8
0
  9
$CELTYPE
  6
BYLAYER
  9
$CECOLOR
 62
   256
  9
$CELTSCALE
 40
1.0
  9
$DISPSILH
 70
     0
  9
$DIMSCALE
 40
1.0
  9
$DIMASZ
 40
2.5
  9
$DIMEXO
 40
0.0
  9
$DIMDLI
 40
10.0
  9
$DIMRND
 40
0.0
  9
$DIMDLE
 40
0.0
  9
$DIMEXE
 40
1.0
  9
$DIMTP
 40
0.1
  9
$DIMTM
 40
0.1
  9
$DIMTXT
 40
3.5
  9
$DIMCEN
 40
0.0
  9
$DIMTSZ
 40
0.0
  9
$DIMTOL
 70
     0
  9
$DIMLIM
 70
     0
  9
$DIMTIH
 70
     0
  9
$DIMTOH
 70
     0
  9
$DIMSE1
 70
     0
  9
$DIMSE2
 70
     0
  9
$DIMTAD
 70
     1
  9
$DIMZIN
 70
     8
  9
$DIMBLK
  1

  9
$DIMASO
 70
     1
  9
$DIMSHO
 70
     1
  9
$DIMPOST
  1

  9
$DIMAPOST
  1
"
  9
$DIMALT
 70
     0
  9
$DIMALTD
 70
     2
  9
$DIMALTF
 40
0.0393701
  9
$DIMLFAC
 40
1.0
  9
$DIMTOFL
 70
     1
  9
$DIMTVP
 40
0.0
  9
$DIMTIX
 70
     0
  9
$DIMSOXD
 70
     0
  9
$DIMSAH
 70
     0
  9
$DIMBLK1
  1

  9
$DIMBLK2
  1

  9
$DIMSTYLE
  2
AM_DIN
  9
$DIMCLRD
 70
   256
  9
$DIMCLRE
 70
   256
  9
$DIMCLRT
 70
     2
  9
$DIMTFAC
 40
0.71
  9
$DIMGAP
 40
1.5
  9
$DIMJUST
 70
     0
  9
$DIMSD1
 70
     0
  9
$DIMSD2
 70
     0
  9
$DIMTOLJ
 70
     1
  9
$DIMTZIN
 70
     8
  9
$DIMALTZ
 70
     8
  9
$DIMALTTZ
 70
     8
  9
$DIMUPT
 70
     0
  9
$DIMDEC
 70
     2
  9
$DIMTDEC
 70
     2
  9
$DIMALTU
 70
     2
  9
$DIMALTTD
 70
     2
  9
$DIMTXSTY
  7
STANDARD
  9
$DIMAUNIT
 70
     0
  9
$DIMADEC
 70
     0
  9
$DIMALTRND
 40
0.0
  9
$DIMAZIN
 70
     0
  9
$DIMDSEP
 70
    46
  9
$DIMATFIT
 70
     3
  9
$DIMFRAC
 70
     0
  9
$DIMLDRBLK
  1

  9
$DIMLUNIT
 70
     2
  9
$DIMLWD
 70
    -2
  9
$DIMLWE
 70
    -2
  9
$DIMTMOVE
 70
     0
  9
$LUNITS
 70
     2
  9
$LUPREC
 70
     2
  9
$SKETCHINC
 40
1.0
  9
$FILLETRAD
 40
2.0
  9
$AUNITS
 70
     0
  9
$AUPREC
 70
     0
  9
$MENU
  1
.
  9
$ELEVATION
 40
0.0
  9
$PELEVATION
 40
0.0
  9
$THICKNESS
 40
0.0
  9
$LIMCHECK
 70
     0
  9
$CHAMFERA
 40
2.0
  9
$CHAMFERB
 40
2.0
  9
$CHAMFERC
 40
0.0
  9
$CHAMFERD
 40
0.0
  9
$SKPOLY
 70
     0
  9
$TDCREATE
 40
2453447.430070810
  9
$TDUCREATE
 40
2453447.388404144
  9
$TDUPDATE
 40
2454055.341681540
  9
$TDUUPDATE
 40
2454055.300014873
  9
$TDINDWG
 40
0.4336039699
  9
$TDUSRTIMER
 40
0.4335796296
  9
$USRTIMER
 70
     1
  9
$ANGBASE
 50
0.0
  9
$ANGDIR
 70
     0
  9
$PDMODE
 70
     0
  9
$PDSIZE
 40
0.0
  9
$PLINEWID
 40
0.0
  9
$SPLFRAME
 70
     0
  9
$SPLINETYPE
 70
     6
  9
$SPLINESEGS
 70
     8
  9
$HANDSEED
  5
BD3E
  9
$SURFTAB1
 70
     6
  9
$SURFTAB2
 70
     6
  9
$SURFTYPE
 70
     6
  9
$SURFU
 70
     6
  9
$SURFV
 70
     6
  9
$UCSBASE
  2

  9
$UCSNAME
  2

  9
$UCSORG
 10
0.0
 20
0.0
 30
0.0
  9
$UCSXDIR
 10
1.0
 20
0.0
 30
0.0
  9
$UCSYDIR
 10
0.0
 20
1.0
 30
0.0
  9
$UCSORTHOREF
  2

  9
$UCSORTHOVIEW
 70
     0
  9
$UCSORGTOP
 10
0.0
 20
0.0
 30
0.0
  9
$UCSORGBOTTOM
 10
0.0
 20
0.0
 30
0.0
  9
$UCSORGLEFT
 10
0.0
 20
0.0
 30
0.0
  9
$UCSORGRIGHT
 10
0.0
 20
0.0
 30
0.0
  9
$UCSORGFRONT
 10
0.0
 20
0.0
 30
0.0
  9
$UCSORGBACK
 10
0.0
 20
0.0
 30
0.0
  9
$PUCSBASE
  2

  9
$PUCSNAME
  2

  9
$PUCSORG
 10
0.0
 20
0.0
 30
0.0
  9
$PUCSXDIR
 10
1.0
 20
0.0
 30
0.0
  9
$PUCSYDIR
 10
0.0
 20
1.0
 30
0.0
  9
$PUCSORTHOREF
  2

  9
$PUCSORTHOVIEW
 70
     0
  9
$PUCSORGTOP
 10
0.0
 20
0.0
 30
0.0
  9
$PUCSORGBOTTOM
 10
0.0
 20
0.0
 30
0.0
  9
$PUCSORGLEFT
 10
0.0
 20
0.0
 30
0.0
  9
$PUCSORGRIGHT
 10
0.0
 20
0.0
 30
0.0
  9
$PUCSORGFRONT
 10
0.0
 20
0.0
 30
0.0
  9
$PUCSORGBACK
 10
0.0
 20
0.0
 30
0.0
  9
$USERI1
 70
     0
  9
$USERI2
 70
     0
  9
$USERI3
 70
     0
  9
$USERI4
 70
     0
  9
$USERI5
 70
     0
  9
$USERR1
 40
0.0
  9
$USERR2
 40
0.0
  9
$USERR3
 40
0.0
  9
$USERR4
 40
0.0
  9
$USERR5
 40
0.0
  9
$WORLDVIEW
 70
     1
  9
$SHADEDGE
 70
     3
  9
$SHADEDIF
 70
    70
  9
$TILEMODE
 70
     1
  9
$MAXACTVP
 70
    64
  9
$PINSBASE
 10
0.0
 20
0.0
 30
0.0
  9
$PLIMCHECK
 70
     0
  9
$PEXTMIN
 10
1.000000000000000E+20
 20
1.000000000000000E+20
 30
1.000000000000000E+20
  9
$PEXTMAX
 10
-1.000000000000000E+20
 20
-1.000000000000000E+20
 30
-1.000000000000000E+20
  9
$PLIMMIN
 10
0.0
 20
0.0
  9
$PLIMMAX
 10
420.0
 20
297.0
  9
$UNITMODE
 70
     0
  9
$VISRETAIN
 70
     1
  9
$PLINEGEN
 70
     0
  9
$PSLTSCALE
 70
     1
  9
$TREEDEPTH
 70
  3020
  9
$CMLSTYLE
  2
STANDARD
  9
$CMLJUST
 70
     0
  9
$CMLSCALE
 40
1.0
  9
$PROXYGRAPHICS
 70
     1
  9
$MEASUREMENT
 70
     1
  9
$CELWEIGHT
370
    -1
  9
$ENDCAPS
280
     0
  9
$JOINSTYLE
280
     0
  9
$LWDISPLAY
290
     0
  9
$INSUNITS
 70
     4
  9
$HYPERLINKBASE
  1

  9
$STYLESHEET
  1

  9
$XEDIT
290
     1
  9
$CEPSNTYPE
380
     0
  9
$PSTYLEMODE
290
     1
  9
$FINGERPRINTGUID
  2
{5E8163B8-4D8F-4110-B677-A6458ADDE735}
  9
$VERSIONGUID
  2
{91B887A9-9430-45F7-A6B6-6F6D405C4604}
  9
$EXTNAMES
290
     1
  9
$PSVPSCALE
 40
0.0
  9
$OLESTARTUP
290
     0
  0
ENDSEC
  0
SECTION
  2
CLASSES
  0
CLASS
  1
ACDBDICTIONARYWDFLT
  2
AcDbDictionaryWithDefault
  3
ObjectDBX Classes
 90
        0
280
     0
281
     0
  0
CLASS
  1
ACDBPLACEHOLDER
  2
AcDbPlaceHolder
  3
ObjectDBX Classes
 90
        0
280
     0
281
     0
  0
CLASS
  1
LAYOUT
  2
AcDbLayout
  3
ObjectDBX Classes
 90
        0
280
     0
281
     0
  0
CLASS
  1
AMGSETTINGSOBJ
  2
AmgSettingsObj
  3
"AcadM|Product Description: AutoCAD Mechanical 2000|Company: Autodesk"
 90
    32768
280
     0
281
     0
  0
CLASS
  1
ACME_DOCUMENT
  2
AcMeDbDoc
  3
AcMeServices
 90
    32768
280
     0
281
     0
  0
CLASS
  1
ACMESCOPE
  2
AcMeScope
  3
AcMeServices
 90
    32768
280
     0
281
     0
  0
CLASS
  1
ACMECOMMANDHISTORY
  2
AcMeCommandHistory
  3
AcMeServices
 90
    32768
280
     0
281
     0
  0
CLASS
  1
ACIMSYSVARMAN
  2
AcImSysVarManager
  3
AcMeServices
 90
    32768
280
     0
281
     0
  0
CLASS
  1
ACIMREALSYSVAR
  2
AcImRealSysVar
  3
AcMeServices
 90
    32768
280
     0
281
     0
  0
CLASS
  1
ACIMINTSYSVAR
  2
AcImIntSysVar
  3
AcMeServices
 90
    32768
280
     0
281
     0
  0
CLASS
  1
ACMEDRAWINGMAN
  2
AcMeDrawingMan
  3
AcMeServices
 90
    32768
280
     0
281
     0
  0
CLASS
  1
ACMEVIEW
  2
AcMeView
  3
AcMeServices
 90
    32768
280
     0
281
     0
  0
CLASS
  1
ACDBENTITYCACHE
  2
AcMeEntityCache
  3
AcMeServices
 90
    32768
280
     0
281
     0
  0
CLASS
  1
GSMANAGER
  2
AcMeGSManager
  3
AcMeServices
 90
    32768
280
     0
281
     0
  0
CLASS
  1
AMDTINTERNALREACTOR
  2
AmdtInternalReactor
  3
AcMeServices
 90
    32768
280
     0
281
     0
  0
CLASS
  1
ACMESTATEMGR
  2
AcMeStateMgr
  3
AcMeServices
 90
    32768
280
     0
281
     0
  0
CLASS
  1
ACGREFMASTER
  2
AcGrefMaster
  3
AcAttribServices
 90
    32768
280
     0
281
     0
  0
CLASS
  1
ACME_DATABASE
  2
AcMeDbDatabase
  3
AcMeServices
 90
    32768
280
     0
281
     0
  0
CLASS
  1
ACRFINSADJUSTERMGR
  2
AcRfInsAdjusterMgr
  3
AcMeServices
 90
    32768
280
     0
281
     0
  0
CLASS
  1
ACGREFACADMASTER
  2
AcGrefacadMaster
  3
AcGrefServices
 90
    32768
280
     0
281
     0
  0
CLASS
  1
AMIMASTER
  2
AmiMaster
  3
AmiServices
 90
    32768
280
     0
281
     0
  0
CLASS
  1
ACMDATADICTIONARY
  2
AcmDataDictionary
  3
"AcmSymBB|Product Description: AutoCAD Mechanical 2000|Company: Autodesk"
 90
    32768
280
     0
281
     0
  0
CLASS
  1
ACMDATAENTRYBLOCK
  2
AcmDataEntryBlock
  3
"AcmSymBB|Product Description: AutoCAD Mechanical 2000|Company: Autodesk"
 90
    32768
280
     0
281
     0
  0
CLASS
  1
ACIMSTRSYSVAR
  2
AcImStrSysVar
  3
AcMeServices
 90
    32768
280
     0
281
     0
  0
CLASS
  1
ACMSTANDARDANSI
  2
AcmStandardANSI
  3
"Amdt_StdImp|Product Description: AutoCAD Mechanical 2000|Company: Autodesk"
 90
    32768
280
     0
281
     0
  0
CLASS
  1
AMGOBJPROPCFG
  2
AmgObjPropCfg
  3
"AmgLay|Product Description: AutoCAD Mechanical 2000|Company: Autodesk"
 90
    32769
280
     0
281
     0
  0
CLASS
  1
ACMSURFSTANDARDANSI
  2
AcmSurfTextStdANSI
  3
"Amdt_StdImp|Product Description: AutoCAD Mechanical 2000|Company: Autodesk"
 90
    32768
280
     0
281
     0
  0
CLASS
  1
ACMFCFSTANDARDANSI
  2
AcmFCFStdANSI
  3
"Amdt_StdImp|Product Description: AutoCAD Mechanical 2000|Company: Autodesk"
 90
    32768
280
     0
281
     0
  0
CLASS
  1
ACMWELDSTANDARDANSI
  2
AcmWeldingStdANSI
  3
"Amdt_StdImp|Product Description: AutoCAD Mechanical 2000|Company: Autodesk"
 90
    32768
280
     0
281
     0
  0
CLASS
  1
ACMIDSTANDARDANSI
  2
AcmIdStdANSI
  3
"Amdt_StdImp|Product Description: AutoCAD Mechanical 2000|Company: Autodesk"
 90
    32768
280
     0
281
     0
  0
CLASS
  1
ACMDATUMSTANDARDANSI
  2
AcmDatumStdANSI
  3
"Amdt_StdImp|Product Description: AutoCAD Mechanical 2000|Company: Autodesk"
 90
    32768
280
     0
281
     0
  0
CLASS
  1
ACMBOMSTANDARDANSI
  2
AcmBOMStdANSI
  3
"Amdt_StdImp|Product Description: AutoCAD Mechanical 2000|Company: Autodesk"
 90
    32768
280
     0
281
     0
  0
CLASS
  1
ACMDETAILSTANDARDANSI
  2
AmdtDetailSymStdANSI
  3
"Amdt_StdImp|Product Description: AutoCAD Mechanical 2000|Company: Autodesk"
 90
    32768
280
     0
281
     0
  0
CLASS
  1
ACMSECTIONSTANDARDANSI
  2
AmdtSectionSymStdANSI
  3
"Amdt_StdImp|Product Description: AutoCAD Mechanical 2000|Company: Autodesk"
 90
    32768
280
     0
281
     0
  0
CLASS
  1
ACMCENTERLINESTANDARDANSI
  2
AmdtCenterLineStdANSI
  3
"Amdt_StdImp|Product Description: AutoCAD Mechanical 2000|Company: Autodesk"
 90
    32768
280
     0
281
     0
  0
CLASS
  1
ACMNOTESTANDARDANSI
  2
AmdtNoteStdANSI
  3
"Amdt_StdImp|Product Description: AutoCAD Mechanical 2000|Company: Autodesk"
 90
    32768
280
     0
281
     0
  0
CLASS
  1
ACAMGLAYSTD
  2
AcAmgLayStd
  3
"AcAmgLayStd|Product Description: AutoCAD Mechanical 2000|Company: Autodesk"
 90
    32768
280
     0
281
     0
  0
CLASS
  1
ACAMGDIMSTD
  2
AcAmgDimStd
  3
"AcAmgDimStd|Product Description: AutoCAD Mechanical 2000|Company: Autodesk"
 90
    32768
280
     0
281
     0
  0
CLASS
  1
ACAMGHOLECHARTSTDANSI
  2
AcAmgHoleChartStdANSI
  3
ACMSYMBB_MODULE_NAME
 90
    32768
280
     0
281
     0
  0
CLASS
  1
ACAMGTITLESTD
  2
AcAmgTitleStd
  3
"TITLEAPP"
 90
    32768
280
     0
281
     0
  0
CLASS
  1
ACAMGFILTERDAT
  2
AcAmgFilterDat
  3
"AcadM|Product Description: AutoCAD Mechanical 2000|Company: Autodesk"
 90
    32768
280
     0
281
     0
  0
CLASS
  1
LAYER_INDEX
  2
AcDbLayerIndex
  3
ObjectDBX Classes
 90
        0
280
     0
281
     0
  0
CLASS
  1
IDBUFFER
  2
AcDbIdBuffer
  3
ObjectDBX Classes
 90
        0
280
     0
281
     0
  0
CLASS
  1
DICTIONARYVAR
  2
AcDbDictionaryVar
  3
ObjectDBX Classes
 90
        0
280
     0
281
     0
  0
CLASS
  1
ACMSTANDARDDIN
  2
AcmStandardDIN
  3
"Amdt_StdImp|Product Description: AutoCAD Mechanical 2000|Company: Autodesk"
 90
    32768
280
     0
281
     0
  0
CLASS
  1
AMDTEDGESTANDARDDIN
  2
AmdtEdgeStdDIN
  3
"Amdt_StdImp|Product Description: AutoCAD Mechanical 2000|Company: Autodesk"
 90
    32768
280
     0
281
     0
  0
CLASS
  1
ACMSURFSTANDARDDIN
  2
AcmSurfTextStdDIN
  3
"Amdt_StdImp|Product Description: AutoCAD Mechanical 2000|Company: Autodesk"
 90
    32768
280
     0
281
     0
  0
CLASS
  1
ACMFCFSTANDARDDIN
  2
AcmFCFStdDIN
  3
"Amdt_StdImp|Product Description: AutoCAD Mechanical 2000|Company: Autodesk"
 90
    32768
280
     0
281
     0
  0
CLASS
  1
ACMWELDSTANDARDDIN
  2
AcmWeldingStdDIN
  3
"Amdt_StdImp|Product Description: AutoCAD Mechanical 2000|Company: Autodesk"
 90
    32768
280
     0
281
     0
  0
CLASS
  1
ACMIDSTANDARDDIN
  2
AcmIdStdDIN
  3
"Amdt_StdImp|Product Description: AutoCAD Mechanical 2000|Company: Autodesk"
 90
    32768
280
     0
281
     0
  0
CLASS
  1
ACMDATUMSTANDARDDIN
  2
AcmDatumStdDIN
  3
"Amdt_StdImp|Product Description: AutoCAD Mechanical 2000|Company: Autodesk"
 90
    32768
280
     0
281
     0
  0
CLASS
  1
ACMBOMSTANDARDDIN
  2
AcmBOMStdDIN
  3
"Amdt_StdImp|Product Description: AutoCAD Mechanical 2000|Company: Autodesk"
 90
    32768
280
     0
281
     0
  0
CLASS
  1
ACMDETAILSTANDARDDIN
  2
AmdtDetailSymStdDIN
  3
"Amdt_StdImp|Product Description: AutoCAD Mechanical 2000|Company: Autodesk"
 90
    32768
280
     0
281
     0
  0
CLASS
  1
ACMSECTIONSTANDARDDIN
  2
AmdtSectionSymStdDIN
  3
"Amdt_StdImp|Product Description: AutoCAD Mechanical 2000|Company: Autodesk"
 90
    32768
280
     0
281
     0
  0
CLASS
  1
ACMCENTERLINESTANDARDDIN
  2
AmdtCenterLineStdDIN
  3
"Amdt_StdImp|Product Description: AutoCAD Mechanical 2000|Company: Autodesk"
 90
    32768
280
     0
281
     0
  0
CLASS
  1
ACMNOTESTANDARDDIN
  2
AmdtNoteStdDIN
  3
"Amdt_StdImp|Product Description: AutoCAD Mechanical 2000|Company: Autodesk"
 90
    32768
280
     0
281
     0
  0
CLASS
  1
ACAMGHOLECHARTSTDDIN
  2
AcAmgHoleChartStdDIN
  3
ACMSYMBB_MODULE_NAME
 90
    32768
280
     0
281
     0
  0
CLASS
  1
AMDTFORMULAUPDATEDISPATCHER
  2
AmdtFormulaUpdateDispatcher
  3
AcMeServices
 90
    32768
280
     0
281
     0
  0
CLASS
  1
ACMSURFSYM
  2
AcmSurfaceTexture
  3
"AcmSymBB|Product Description: AutoCAD Mechanical 2000|Company: Autodesk"
 90
    33791
280
     0
281
     1
  0
CLASS
  1
ACMSTANDARDBSI
  2
AcmStandardBSI
  3
"Amdt_StdImp|Product Description: AutoCAD Mechanical 2000|Company: Autodesk"
 90
    32768
280
     0
281
     0
  0
CLASS
  1
ACMSURFSTANDARDBSI
  2
AcmSurfTextStdBSI
  3
"Amdt_StdImp|Product Description: AutoCAD Mechanical 2000|Company: Autodesk"
 90
    32768
280
     0
281
     0
  0
CLASS
  1
ACMFCFSTANDARDBSI
  2
AcmFCFStdBSI
  3
"Amdt_StdImp|Product Description: AutoCAD Mechanical 2000|Company: Autodesk"
 90
    32768
280
     0
281
     0
  0
CLASS
  1
ACMWELDSTANDARDBSI
  2
AcmWeldingStdBSI
  3
"Amdt_StdImp|Product Description: AutoCAD Mechanical 2000|Company: Autodesk"
 90
    32768
280
     0
281
     0
  0
CLASS
  1
ACMIDSTANDARDBSI
  2
AcmIdStdBSI
  3
"Amdt_StdImp|Product Description: AutoCAD Mechanical 2000|Company: Autodesk"
 90
    32768
280
     0
281
     0
  0
CLASS
  1
ACMDATUMSTANDARDBSI
  2
AcmDatumStdBSI
  3
"Amdt_StdImp|Product Description: AutoCAD Mechanical 2000|Company: Autodesk"
 90
    32768
280
     0
281
     0
  0
CLASS
  1
ACMBOMSTANDARDBSI
  2
AcmBOMStdBSI
  3
"Amdt_StdImp|Product Description: AutoCAD Mechanical 2000|Company: Autodesk"
 90
    32768
280
     0
281
     0
  0
CLASS
  1
ACMDETAILSTANDARDBSI
  2
AmdtDetailSymStdBSI
  3
"Amdt_StdImp|Product Description: AutoCAD Mechanical 2000|Company: Autodesk"
 90
    32768
280
     0
281
     0
  0
CLASS
  1
ACMSECTIONSTANDARDBSI
  2
AmdtSectionSymStdBSI
  3
"Amdt_StdImp|Product Description: AutoCAD Mechanical 2000|Company: Autodesk"
 90
    32768
280
     0
281
     0
  0
CLASS
  1
ACMCENTERLINESTANDARDBSI
  2
AmdtCenterLineStdBSI
  3
"Amdt_StdImp|Product Description: AutoCAD Mechanical 2000|Company: Autodesk"
 90
    32768
280
     0
281
     0
  0
CLASS
  1
ACMTHREADLINESTANDARDBSI
  2
AmdtThreadLineStdBSI
  3
"Amdt_StdImp|Product Description: AutoCAD Mechanical 2000|Company: Autodesk"
 90
    32768
280
     0
281
     0
  0
CLASS
  1
ACMNOTESTANDARDBSI
  2
AmdtNoteStdBSI
  3
"Amdt_StdImp|Product Description: AutoCAD Mechanical 2000|Company: Autodesk"
 90
    32768
280
     0
281
     0
  0
CLASS
  1
ACMSTANDARDISO
  2
AcmStandardISO
  3
"Amdt_StdImp|Product Description: AutoCAD Mechanical 2000|Company: Autodesk"
 90
    32768
280
     0
281
     0
  0
CLASS
  1
AMDTEDGESTANDARDISO
  2
AmdtEdgeStdISO
  3
"Amdt_StdImp|Product Description: AutoCAD Mechanical 2000|Company: Autodesk"
 90
    32768
280
     0
281
     0
  0
CLASS
  1
ACMSURFSTANDARDISO
  2
AcmSurfTextStdISO
  3
"Amdt_StdImp|Product Description: AutoCAD Mechanical 2000|Company: Autodesk"
 90
    32768
280
     0
281
     0
  0
CLASS
  1
ACMFCFSTANDARDISO
  2
AcmFCFStdISO
  3
"Amdt_StdImp|Product Description: AutoCAD Mechanical 2000|Company: Autodesk"
 90
    32768
280
     0
281
     0
  0
CLASS
  1
ACMWELDSTANDARDISO
  2
AcmWeldingStdISO
  3
"Amdt_StdImp|Product Description: AutoCAD Mechanical 2000|Company: Autodesk"
 90
    32768
280
     0
281
     0
  0
CLASS
  1
ACMIDSTANDARDISO
  2
AcmIdStdISO
  3
"Amdt_StdImp|Product Description: AutoCAD Mechanical 2000|Company: Autodesk"
 90
    32768
280
     0
281
     0
  0
CLASS
  1
ACMDATUMSTANDARDISO
  2
AcmDatumStdISO
  3
"Amdt_StdImp|Product Description: AutoCAD Mechanical 2000|Company: Autodesk"
 90
    32768
280
     0
281
     0
  0
CLASS
  1
ACMBOMSTANDARDISO
  2
AcmBOMStdISO
  3
"Amdt_StdImp|Product Description: AutoCAD Mechanical 2000|Company: Autodesk"
 90
    32768
280
     0
281
     0
  0
CLASS
  1
ACMDETAILSTANDARDISO
  2
AmdtDetailSymStdISO
  3
"Amdt_StdImp|Product Description: AutoCAD Mechanical 2000|Company: Autodesk"
 90
    32768
280
     0
281
     0
  0
CLASS
  1
ACMSECTIONSTANDARDISO
  2
AmdtSectionSymStdISO
  3
"Amdt_StdImp|Product Description: AutoCAD Mechanical 2000|Company: Autodesk"
 90
    32768
280
     0
281
     0
  0
CLASS
  1
ACMCENTERLINESTANDARDISO
  2
AmdtCenterLineStdISO
  3
"Amdt_StdImp|Product Description: AutoCAD Mechanical 2000|Company: Autodesk"
 90
    32768
280
     0
281
     0
  0
CLASS
  1
ACMTHREADLINESTANDARDISO
  2
AmdtThreadLineStdISO
  3
"Amdt_StdImp|Product Description: AutoCAD Mechanical 2000|Company: Autodesk"
 90
    32768
280
     0
281
     0
  0
CLASS
  1
ACMNOTESTANDARDISO
  2
AmdtNoteStdISO
  3
"Amdt_StdImp|Product Description: AutoCAD Mechanical 2000|Company: Autodesk"
 90
    32768
280
     0
281
     0
  0
CLASS
  1
ACMSTANDARDJIS
  2
AcmStandardJIS
  3
"Amdt_StdImp|Product Description: AutoCAD Mechanical 2000|Company: Autodesk"
 90
    32768
280
     0
281
     0
  0
CLASS
  1
ACMSURFSTANDARDJIS
  2
AcmSurfTextStdJIS
  3
"Amdt_StdImp|Product Description: AutoCAD Mechanical 2000|Company: Autodesk"
 90
    32768
280
     0
281
     0
  0
CLASS
  1
ACMFCFSTANDARDJIS98
  2
AcmFCFStdJIS98
  3
"Amdt_StdImp|Product Description: AutoCAD Mechanical 2000|Company: Autodesk"
 90
    32768
280
     0
281
     0
  0
CLASS
  1
ACMWELDSTANDARDJIS
  2
AcmWeldingStdJIS
  3
"Amdt_StdImp|Product Description: AutoCAD Mechanical 2000|Company: Autodesk"
 90
    32768
280
     0
281
     0
  0
CLASS
  1
ACMIDSTANDARDJIS
  2
AcmIdStdJIS
  3
"Amdt_StdImp|Product Description: AutoCAD Mechanical 2000|Company: Autodesk"
 90
    32768
280
     0
281
     0
  0
CLASS
  1
ACMDATUMSTANDARDJIS
  2
AcmDatumStdJIS
  3
"Amdt_StdImp|Product Description: AutoCAD Mechanical 2000|Company: Autodesk"
 90
    32768
280
     0
281
     0
  0
CLASS
  1
ACMBOMSTANDARDJIS
  2
AcmBOMStdJIS
  3
"Amdt_StdImp|Product Description: AutoCAD Mechanical 2000|Company: Autodesk"
 90
    32768
280
     0
281
     0
  0
CLASS
  1
ACMDETAILSTANDARDJIS
  2
AmdtDetailSymStdJIS
  3
"Amdt_StdImp|Product Description: AutoCAD Mechanical 2000|Company: Autodesk"
 90
    32768
280
     0
281
     0
  0
CLASS
  1
ACMSECTIONSTANDARDJIS
  2
AmdtSectionSymStdJIS
  3
"Amdt_StdImp|Product Description: AutoCAD Mechanical 2000|Company: Autodesk"
 90
    32768
280
     0
281
     0
  0
CLASS
  1
ACMCENTERLINESTANDARDJIS
  2
AmdtCenterLineStdJIS
  3
"Amdt_StdImp|Product Description: AutoCAD Mechanical 2000|Company: Autodesk"
 90
    32768
280
     0
281
     0
  0
CLASS
  1
ACMTHREADLINESTANDARDJIS
  2
AmdtThreadLineStdJIS
  3
"Amdt_StdImp|Product Description: AutoCAD Mechanical 2000|Company: Autodesk"
 90
    32768
280
     0
281
     0
  0
CLASS
  1
ACMNOTESTANDARDJIS
  2
AmdtNoteStdJIS
  3
"Amdt_StdImp|Product Description: AutoCAD Mechanical 2000|Company: Autodesk"
 90
    32768
280
     0
281
     0
  0
CLASS
  1
TABLESTYLE
  2
AcDbTableStyle
  3
ObjectDBX Classes
 90
     2047
280
     0
281
     0
  0
ENDSEC
  0
SECTION
  2
TABLES
  0
TABLE
  2
VPORT
  5
6A1E
330
0
100
AcDbSymbolTable
 70
     2
  0
VPORT
  5
BD37
330
6A1E
100
AcDbSymbolTableRecord
100
AcDbViewportTableRecord
  2
*Active
 70
     0
 10
0.0
 20
0.0
 11
1.0
 21
1.0
 12
-16.09020989778707
 22
-124.5338380576631
 13
0.0
 23
0.0
 14
2.5
 24
2.5
 15
10.0
 25
10.0
 16
0.0
 26
0.0
 36
767.7808751490076
 17
68.36373231284814
 27
144.2212100958965
 37
0.0
 40
176.954369109009
 41
1.573663624511082
 42
50.0
 43
0.0
 44
0.0
 50
0.0
 51
0.0
 71
     0
 72
 10000
 73
     1
 74
     3
 75
     0
 76
     0
 77
     0
 78
     0
281
     0
 65
     1
110
0.0
120
0.0
130
0.0
111
1.0
121
0.0
131
0.0
112
0.0
122
1.0
132
0.0
 79
     0
146
0.0
  0
ENDTAB
  0
TABLE
  2
LTYPE
  5
6A1B
330
0
100
AcDbSymbolTable
 70
    24
  0
LTYPE
  5
6A29
330
6A1B
100
AcDbSymbolTableRecord
100
AcDbLinetypeTableRecord
  2
BYBLOCK
 70
     0
  3

 72
    65
 73
     0
 40
0.0
  0
LTYPE
  5
6A2A
330
6A1B
100
AcDbSymbolTableRecord
100
AcDbLinetypeTableRecord
  2
BYLAYER
 70
     0
  3

 72
    65
 73
     0
 40
0.0
  0
LTYPE
  5
6A2B
330
6A1B
100
AcDbSymbolTableRecord
100
AcDbLinetypeTableRecord
  2
CONTINUOUS
 70
     0
  3
Solid line
 72
    65
 73
     0
 40
0.0
  0
LTYPE
  5
6A39
330
6A1B
100
AcDbSymbolTableRecord
100
AcDbLinetypeTableRecord
  2
AMCONSTR
 70
     0
  3
_______________________
 72
    65
 73
     2
 40
9999.0
 49
9999.0
 74
     0
 49
0.0
 74
     0
  0
LTYPE
  5
6A43
330
6A1B
100
AcDbSymbolTableRecord
100
AcDbLinetypeTableRecord
  2
CENTER
 70
     0
  3
__ . __
 72
    65
 73
     4
 40
7.0
 49
4.0
 74
     0
 49
-1.0
 74
     0
 49
1.0
 74
     0
 49
-1.0
 74
     0
  0
LTYPE
  5
6A45
330
6A1B
100
AcDbSymbolTableRecord
100
AcDbLinetypeTableRecord
  2
PHANTOM2
 70
     0
  3
Phantom (.5x) ___ _ _ ___ _ _ ___ _ _ ___ _ _
 72
    65
 73
     6
 40
1.25
 49
0.625
 74
     0
 49
-0.125
 74
     0
 49
0.125
 74
     0
 49
-0.125
 74
     0
 49
0.125
 74
     0
 49
-0.125
 74
     0
  0
LTYPE
  5
6A46
330
6A1B
100
AcDbSymbolTableRecord
100
AcDbLinetypeTableRecord
  2
ACANSTGB
 70
     0
  3
__ . . __ . .
 72
    65
 73
     6
 40
0.35433070866
 49
0.15748031496
 74
     0
 49
-0.03937007874
 74
     0
 49
0.03937007874
 74
     0
 49
-0.03937007874
 74
     0
 49
0.03937007874
 74
     0
 49
-0.03937007874
 74
     0
  0
LTYPE
  5
6A47
330
6A1B
100
AcDbSymbolTableRecord
100
AcDbLinetypeTableRecord
  2
ACANSTGL
 70
     0
  3
_ _ _ _ _
 72
    65
 73
     2
 40
0.11811023622
 49
0.07874015748
 74
     0
 49
-0.03937007874
 74
     0
  0
LTYPE
  5
6D97
330
6A1B
100
AcDbSymbolTableRecord
100
AcDbLinetypeTableRecord
  2
ACDINWELD
 70
     0
  3
_ _ _ _ _
 72
    65
 73
     2
 40
2.0
 49
2.0
 74
     0
 49
-1.0
 74
     0
  0
LTYPE
  5
6D98
330
6A1B
100
AcDbSymbolTableRecord
100
AcDbLinetypeTableRecord
  2
ACDINTGB
 70
     0
  3
__ . . __ . .
 72
    65
 73
     6
 40
9.0
 49
4.0
 74
     0
 49
-1.0
 74
     0
 49
1.0
 74
     0
 49
-1.0
 74
     0
 49
1.0
 74
     0
 49
-1.0
 74
     0
  0
LTYPE
  5
6D99
330
6A1B
100
AcDbSymbolTableRecord
100
AcDbLinetypeTableRecord
  2
ACDINTGL
 70
     0
  3
_ _ _ _ _
 72
    65
 73
     2
 40
3.0
 49
2.0
 74
     0
 49
-1.0
 74
     0
  0
LTYPE
  5
8543
330
6A1B
100
AcDbSymbolTableRecord
100
AcDbLinetypeTableRecord
  2
AMZIGZAG
 70
     0
  3
/\/-/\/-/\/-/\/-/\/-/\/
 72
    65
 73
     2
 40
11.00009999999999
 49
0.0001
 74
     4
 75
   135
340
6A5B
 46
0.04
 50
0.0
 44
0.0
 45
0.0
 49
-11.0
 74
     0
  0
LTYPE
  5
8544
330
6A1B
100
AcDbSymbolTableRecord
100
AcDbLinetypeTableRecord
  2
AM_DIN_F_W050
 70
     0
  3
__ __ __ __ __ __ __ __ __ __ __ __ __ __ __
 72
    65
 73
     2
 40
6.25
 49
4.75
 74
     0
 49
-1.5
 74
     0
  0
LTYPE
  5
8545
330
6A1B
100
AcDbSymbolTableRecord
100
AcDbLinetypeTableRecord
  2
AM_DIN_G_W050
 70
     0
  3
____ . ____ . ____ . ____ . ____ . ____ . ____
 72
    65
 73
     4
 40
13.75
 49
9.75
 74
     0
 49
-1.5
 74
     0
 49
1.0
 74
     0
 49
-1.5
 74
     0
  0
LTYPE
  5
8546
330
6A1B
100
AcDbSymbolTableRecord
100
AcDbLinetypeTableRecord
  2
AM_DIN_K_W050
 70
     0
  3
_____ . . _____ . . _____ . . ____ .. ____
 72
    65
 73
     6
 40
16.25
 49
9.75
 74
     0
 49
-1.5
 74
     0
 49
1.0
 74
     0
 49
-1.5
 74
     0
 49
1.0
 74
     0
 49
-1.5
 74
     0
  0
LTYPE
  5
8547
330
6A1B
100
AcDbSymbolTableRecord
100
AcDbLinetypeTableRecord
  2
AM_DIN_G_W050X2
 70
     0
  3
__ . __ . __ . __ . __ . __
 72
    65
 73
     4
 40
6.875
 49
4.75
 74
     0
 49
-0.875
 74
     0
 49
0.375
 74
     0
 49
-0.875
 74
     0
  0
LTYPE
  5
8548
330
6A1B
100
AcDbSymbolTableRecord
100
AcDbLinetypeTableRecord
  2
AM_DIN_F_W050X2
 70
     0
  3
 _ _ _ _ _ _ _ _ _ _ _ _
 72
    65
 73
     2
 40
3.125
 49
2.25
 74
     0
 49
-0.875
 74
     0
  0
LTYPE
  5
8E88
330
6A1B
100
AcDbSymbolTableRecord
100
AcDbLinetypeTableRecord
  2
DASHED
 70
     0
  3
__ __ __ __ __ __ __ __ __ __ __ __ __ __ __ __
 72
    65
 73
     2
 40
19.05
 49
12.7
 74
     0
 49
-6.349999999999997
 74
     0
  0
LTYPE
  5
993E
330
6A1B
100
AcDbSymbolTableRecord
100
AcDbLinetypeTableRecord
  2
ACJISTGB
 70
     0
  3
__ . . __ . .
 72
    65
 73
     6
 40
9.0
 49
4.0
 74
     0
 49
-1.0
 74
     0
 49
1.0
 74
     0
 49
-1.0
 74
     0
 49
1.0
 74
     0
 49
-1.0
 74
     0
  0
LTYPE
  5
993F
330
6A1B
100
AcDbSymbolTableRecord
100
AcDbLinetypeTableRecord
  2
ACJISTGL
 70
     0
  3
_ _ _ _ _
 72
    65
 73
     2
 40
3.0
 49
2.0
 74
     0
 49
-1.0
 74
     0
  0
LTYPE
  5
9940
330
6A1B
100
AcDbSymbolTableRecord
100
AcDbLinetypeTableRecord
  2
ACBSIWELD
 70
     0
  3
_ _ _ _ _
 72
    65
 73
     2
 40
2.0
 49
2.0
 74
     0
 49
-1.0
 74
     0
  0
LTYPE
  5
9941
330
6A1B
100
AcDbSymbolTableRecord
100
AcDbLinetypeTableRecord
  2
ACBSITGB
 70
     0
  3
__ . . __ . .
 72
    65
 73
     6
 40
9.0
 49
4.0
 74
     0
 49
-1.0
 74
     0
 49
1.0
 74
     0
 49
-1.0
 74
     0
 49
1.0
 74
     0
 49
-1.0
 74
     0
  0
LTYPE
  5
9942
330
6A1B
100
AcDbSymbolTableRecord
100
AcDbLinetypeTableRecord
  2
ACBSITGL
 70
     0
  3
_ _ _ _ _
 72
    65
 73
     2
 40
3.0
 49
2.0
 74
     0
 49
-1.0
 74
     0
  0
LTYPE
  5
9943
330
6A1B
100
AcDbSymbolTableRecord
100
AcDbLinetypeTableRecord
  2
ACISOWELD
 70
     0
  3
_ _ _ _ _
 72
    65
 73
     2
 40
2.0
 49
2.0
 74
     0
 49
-1.0
 74
     0
  0
LTYPE
  5
9944
330
6A1B
100
AcDbSymbolTableRecord
100
AcDbLinetypeTableRecord
  2
ACISOTGB
 70
     0
  3
__ . . __ . .
 72
    65
 73
     6
 40
9.0
 49
4.0
 74
     0
 49
-1.0
 74
     0
 49
1.0
 74
     0
 49
-1.0
 74
     0
 49
1.0
 74
     0
 49
-1.0
 74
     0
  0
LTYPE
  5
9945
330
6A1B
100
AcDbSymbolTableRecord
100
AcDbLinetypeTableRecord
  2
ACISOTGL
 70
     0
  3
_ _ _ _ _
 72
    65
 73
     2
 40
3.0
 49
2.0
 74
     0
 49
-1.0
 74
     0
  0
ENDTAB
  0
TABLE
  2
LAYER
  5
6A18
330
0
100
AcDbSymbolTable
 70
    13
  0
LAYER
  5
6A26
330
6A18
100
AcDbSymbolTableRecord
100
AcDbLayerTableRecord
  2
0
 70
     0
 62
     7
  6
CONTINUOUS
370
    -3
390
6A25
  0
LAYER
  5
6A4B
330
6A18
100
AcDbSymbolTableRecord
100
AcDbLayerTableRecord
  2
DEFPOINTS
 70
     0
 62
     7
  6
CONTINUOUS
290
     0
370
    -3
390
6A25
  0
LAYER
  5
6A4C
330
6A18
100
AcDbSymbolTableRecord
100
AcDbLayerTableRecord
  2
1
 70
     0
 62
     4
  6
CONTINUOUS
370
    -3
390
6A25
  0
LAYER
  5
6A4D
330
6A18
100
AcDbSymbolTableRecord
100
AcDbLayerTableRecord
  2
2
 70
     0
 62
     7
  6
CONTINUOUS
370
    -3
390
6A25
  0
LAYER
  5
6A4F
330
6A18
100
AcDbSymbolTableRecord
100
AcDbLayerTableRecord
  2
4
 70
     0
 62
     2
  6
CENTER
370
    -3
390
6A25
  0
LAYER
  5
6A50
330
6A18
100
AcDbSymbolTableRecord
100
AcDbLayerTableRecord
  2
6
 70
     0
 62
     5
  6
CONTINUOUS
370
    -3
390
6A25
  0
LAYER
  5
6A53
330
6A18
100
AcDbSymbolTableRecord
100
AcDbLayerTableRecord
  2
SK1
 70
     0
 62
     4
  6
CONTINUOUS
370
    -3
390
6A25
  0
LAYER
  5
6A54
330
6A18
100
AcDbSymbolTableRecord
100
AcDbLayerTableRecord
  2
SK2
 70
     0
 62
     7
  6
CONTINUOUS
370
    -3
390
6A25
  0
LAYER
  5
6A56
330
6A18
100
AcDbSymbolTableRecord
100
AcDbLayerTableRecord
  2
SK4
 70
     0
 62
     2
  6
CENTER
370
    -3
390
6A25
  0
LAYER
  5
6A57
330
6A18
100
AcDbSymbolTableRecord
100
AcDbLayerTableRecord
  2
CUT
 70
     0
 62
     1
  6
CONTINUOUS
370
    -3
390
6A25
  0
LAYER
  5
6A58
330
6A18
100
AcDbSymbolTableRecord
100
AcDbLayerTableRecord
  2
NOCUT
 70
     0
 62
     7
  6
CONTINUOUS
370
    -3
390
6A25
  0
LAYER
  5
8E89
330
6A18
100
AcDbSymbolTableRecord
100
AcDbLayerTableRecord
  2
SK3
 70
     0
 62
     1
  6
DASHED
370
    -3
390
6A25
  0
LAYER
  5
8E8A
330
6A18
100
AcDbSymbolTableRecord
100
AcDbLayerTableRecord
  2
SK6
 70
     0
 62
     5
  6
CONTINUOUS
370
    -3
390
6A25
  0
ENDTAB
  0
TABLE
  2
STYLE
  5
6A19
330
0
100
AcDbSymbolTable
 70
    12
  0
STYLE
  5
6A27
330
6A19
100
AcDbSymbolTableRecord
100
AcDbTextStyleTableRecord
  2
STANDARD
 70
     0
 40
0.0
 41
1.0
 50
0.0
 71
     0
 42
2.5
  3
ISOCP.SHX
  4

  0
STYLE
  5
6A5B
330
6A19
100
AcDbSymbolTableRecord
100
AcDbTextStyleTableRecord
  2

 70
     1
 40
0.0
 41
1.0
 50
0.0
 71
     0
 42
2.5
  3
ltypeshp.shx
  4

  0
STYLE
  5
6A5E
330
6A19
100
AcDbSymbolTableRecord
100
AcDbTextStyleTableRecord
  2
ACANSTS
 70
     0
 40
1.0
 41
1.0
 50
0.0
 71
     0
 42
0.2
  3
romans.shx
  4

  0
STYLE
  5
6A5F
330
6A19
100
AcDbSymbolTableRecord
100
AcDbTextStyleTableRecord
  2
ACANSGDT
 70
     0
 40
0.0
 41
1.0
 50
0.0
 71
     0
 42
0.2
  3
amgdtans.shx
  4

  0
STYLE
  5
6D9A
330
6A19
100
AcDbSymbolTableRecord
100
AcDbTextStyleTableRecord
  2
ACDINTS
 70
     0
 40
1.0
 41
1.0
 50
0.0
 71
     0
 42
2.5
  3
isocp.shx
  4

  0
STYLE
  5
6D9B
330
6A19
100
AcDbSymbolTableRecord
100
AcDbTextStyleTableRecord
  2
ACDINGDT
 70
     0
 40
0.0
 41
1.0
 50
0.0
 71
     0
 42
2.5
  3
amgdt.shx
  4

  0
STYLE
  5
9946
330
6A19
100
AcDbSymbolTableRecord
100
AcDbTextStyleTableRecord
  2
ACJISTS
 70
     0
 40
1.0
 41
1.0
 50
0.0
 71
     0
 42
3.5
  3
isocp.shx
  4
bigfont.shx
  0
STYLE
  5
9947
330
6A19
100
AcDbSymbolTableRecord
100
AcDbTextStyleTableRecord
  2
ACJISGDT
 70
     0
 40
0.0
 41
1.0
 50
0.0
 71
     0
 42
3.5
  3
amgdt.shx
  4

  0
STYLE
  5
9948
330
6A19
100
AcDbSymbolTableRecord
100
AcDbTextStyleTableRecord
  2
ACBSITS
 70
     0
 40
1.0
 41
1.0
 50
0.0
 71
     0
 42
3.5
  3
isocp.shx
  4

  0
STYLE
  5
9949
330
6A19
100
AcDbSymbolTableRecord
100
AcDbTextStyleTableRecord
  2
ACBSIGDT
 70
     0
 40
0.0
 41
1.0
 50
0.0
 71
     0
 42
3.5
  3
amgdt.shx
  4

  0
STYLE
  5
994A
330
6A19
100
AcDbSymbolTableRecord
100
AcDbTextStyleTableRecord
  2
ACISOTS
 70
     0
 40
1.0
 41
1.0
 50
0.0
 71
     0
 42
3.5
  3
isocp.shx
  4

  0
STYLE
  5
994B
330
6A19
100
AcDbSymbolTableRecord
100
AcDbTextStyleTableRecord
  2
ACISOGDT
 70
     0
 40
0.0
 41
1.0
 50
0.0
 71
     0
 42
3.5
  3
amgdt.shx
  4

  0
ENDTAB
  0
TABLE
  2
VIEW
  5
6A1C
330
0
100
AcDbSymbolTable
 70
     6
  0
VIEW
  5
6A60
330
6A1C
100
AcDbSymbolTableRecord
100
AcDbViewTableRecord
  2
AM_VIEW1
 70
     0
 40
148.5
 10
131.508173076923
 20
222.75
 41
263.016346153846
 11
0.0
 21
0.0
 31
1.0
 12
0.0
 22
0.0
 32
0.0
 42
50.0
 43
0.0
 44
0.0
 50
0.0
 71
    16
281
     0
 72
     0
  0
VIEW
  5
6A61
330
6A1C
100
AcDbSymbolTableRecord
100
AcDbViewTableRecord
  2
AM_VIEW2
 70
     0
 40
148.5
 10
78.4918269230769
 20
222.75
 41
263.016346153846
 11
0.0
 21
0.0
 31
1.0
 12
0.0
 22
0.0
 32
0.0
 42
50.0
 43
0.0
 44
0.0
 50
0.0
 71
    16
281
     0
 72
     0
  0
VIEW
  5
6A62
330
6A1C
100
AcDbSymbolTableRecord
100
AcDbViewTableRecord
  2
AM_VIEW3
 70
     0
 40
148.5
 10
131.508173076923
 20
74.25
 41
263.016346153846
 11
0.0
 21
0.0
 31
1.0
 12
0.0
 22
0.0
 32
0.0
 42
50.0
 43
0.0
 44
0.0
 50
0.0
 71
    16
281
     0
 72
     0
  0
VIEW
  5
6A63
330
6A1C
100
AcDbSymbolTableRecord
100
AcDbViewTableRecord
  2
AM_VIEW4
 70
     0
 40
148.5
 10
78.4918269230769
 20
74.25
 41
263.016346153846
 11
0.0
 21
0.0
 31
1.0
 12
0.0
 22
0.0
 32
0.0
 42
50.0
 43
0.0
 44
0.0
 50
0.0
 71
    16
281
     0
 72
     0
  0
VIEW
  5
6A64
330
6A1C
100
AcDbSymbolTableRecord
100
AcDbViewTableRecord
  2
AM_VIEW5
 70
     0
 40
148.5
 10
105.0
 20
148.5
 41
263.016346153846
 11
0.0
 21
0.0
 31
1.0
 12
0.0
 22
0.0
 32
0.0
 42
50.0
 43
0.0
 44
0.0
 50
0.0
 71
    16
281
     0
 72
     0
  0
VIEW
  5
6A65
330
6A1C
100
AcDbSymbolTableRecord
100
AcDbViewTableRecord
  2
AM_VIEW6
 70
     0
 40
296.9970299999999
 10
105.0
 20
148.5
 41
526.0274319807693
 11
0.0
 21
0.0
 31
1.0
 12
0.0
 22
0.0
 32
0.0
 42
50.0
 43
0.0
 44
0.0
 50
0.0
 71
    16
281
     0
 72
     0
  0
ENDTAB
  0
TABLE
  2
UCS
  5
6A1D
330
0
100
AcDbSymbolTable
 70
     0
  0
ENDTAB
  0
TABLE
  2
APPID
  5
6A1F
330
0
100
AcDbSymbolTable
 70
    59
  0
APPID
  5
6A28
330
6A1F
100
AcDbSymbolTableRecord
100
AcDbRegAppTableRecord
  2
ACAD
 70
     0
  0
APPID
  5
6A66
330
6A1F
100
AcDbSymbolTableRecord
100
AcDbRegAppTableRecord
  2
MCAD_NO_VIS
 70
     0
  0
APPID
  5
6A67
330
6A1F
100
AcDbSymbolTableRecord
100
AcDbRegAppTableRecord
  2
ACAD_TEMP_GRAPHIC
 70
     0
  0
APPID
  5
6A68
330
6A1F
100
AcDbSymbolTableRecord
100
AcDbRegAppTableRecord
  2
ACATTRIBSERVICES
 70
     0
  0
APPID
  5
6A69
330
6A1F
100
AcDbSymbolTableRecord
100
AcDbRegAppTableRecord
  2
GENIUS_GENDIMSH_14
 70
     0
  0
APPID
  5
6A6A
330
6A1F
100
AcDbSymbolTableRecord
100
AcDbRegAppTableRecord
  2
GENIUS_GENBLLY_14
 70
     0
  0
APPID
  5
6A6B
330
6A1F
100
AcDbSymbolTableRecord
100
AcDbRegAppTableRecord
  2
GENIUS_GENTRA_14
 70
     0
  0
APPID
  5
6A6C
330
6A1F
100
AcDbSymbolTableRecord
100
AcDbRegAppTableRecord
  2
GENIUS_GENODEF_13
 70
     0
  0
APPID
  5
6A6D
330
6A1F
100
AcDbSymbolTableRecord
100
AcDbRegAppTableRecord
  2
GENIUS_GENOLIS_13
 70
     0
  0
APPID
  5
6A6E
330
6A1F
100
AcDbSymbolTableRecord
100
AcDbRegAppTableRecord
  2
GENIUS_GENOENT_13
 70
     0
  0
APPID
  5
6A6F
330
6A1F
100
AcDbSymbolTableRecord
100
AcDbRegAppTableRecord
  2
GENIUS_GENOBJ-N-TIT_13
 70
     0
  0
APPID
  5
6A70
330
6A1F
100
AcDbSymbolTableRecord
100
AcDbRegAppTableRecord
  2
GENIUS_GENTITLE_13
 70
     0
  0
APPID
  5
6A71
330
6A1F
100
AcDbSymbolTableRecord
100
AcDbRegAppTableRecord
  2
GENIUS_GENOREF_13
 70
     0
  0
APPID
  5
6A72
330
6A1F
100
AcDbSymbolTableRecord
100
AcDbRegAppTableRecord
  2
GENIUS_GENSCREG_15
 70
     0
  0
APPID
  5
6A73
330
6A1F
100
AcDbSymbolTableRecord
100
AcDbRegAppTableRecord
  2
GENIUS_GENOBJ-N-SDF_13
 70
     0
  0
APPID
  5
6A74
330
6A1F
100
AcDbSymbolTableRecord
100
AcDbRegAppTableRecord
  2
ACADIGES
 70
     0
  0
APPID
  5
6A75
330
6A1F
100
AcDbSymbolTableRecord
100
AcDbRegAppTableRecord
  2
GENIUS_GENOBJ-N-HTC_13
 70
     0
  0
APPID
  5
6A76
330
6A1F
100
AcDbSymbolTableRecord
100
AcDbRegAppTableRecord
  2
GENIUS_GENHATCH_13
 70
     0
  0
APPID
  5
6DA2
330
6A1F
100
AcDbSymbolTableRecord
100
AcDbRegAppTableRecord
  2
GENIUS_GENOBJ-N-CRS_13
 70
     0
  0
APPID
  5
6DA3
330
6A1F
100
AcDbSymbolTableRecord
100
AcDbRegAppTableRecord
  2
GENIUS_GENOBJ-N-FIL_13
 70
     0
  0
APPID
  5
6DD2
330
6A1F
100
AcDbSymbolTableRecord
100
AcDbRegAppTableRecord
  2
GENIUS_GENFIL_13
 70
     0
  0
APPID
  5
6DD3
330
6A1F
100
AcDbSymbolTableRecord
100
AcDbRegAppTableRecord
  2
GENIUS_GENOBJ-N-CHA_13
 70
     0
  0
APPID
  5
7FA8
330
6A1F
100
AcDbSymbolTableRecord
100
AcDbRegAppTableRecord
  2
GENIUS12
 70
     0
  0
APPID
  5
7FA9
330
6A1F
100
AcDbSymbolTableRecord
100
AcDbRegAppTableRecord
  2
GENIUS_GENCFG_13
 70
     0
  0
APPID
  5
7FAA
330
6A1F
100
AcDbSymbolTableRecord
100
AcDbRegAppTableRecord
  2
GENIUS_GEFCFG0_13
 70
     0
  0
APPID
  5
7FAB
330
6A1F
100
AcDbSymbolTableRecord
100
AcDbRegAppTableRecord
  2
GENIUS_GENCFG0_13
 70
     0
  0
APPID
  5
7FAC
330
6A1F
100
AcDbSymbolTableRecord
100
AcDbRegAppTableRecord
  2
GENIUS_GENCFG1_13
 70
     0
  0
APPID
  5
7FAD
330
6A1F
100
AcDbSymbolTableRecord
100
AcDbRegAppTableRecord
  2
GENIUS_GENCFG2_13
 70
     0
  0
APPID
  5
7FAE
330
6A1F
100
AcDbSymbolTableRecord
100
AcDbRegAppTableRecord
  2
GENIUS_GENCFG3_13
 70
     0
  0
APPID
  5
7FAF
330
6A1F
100
AcDbSymbolTableRecord
100
AcDbRegAppTableRecord
  2
GENIUS_GENCFG4_13
 70
     0
  0
APPID
  5
7FB0
330
6A1F
100
AcDbSymbolTableRecord
100
AcDbRegAppTableRecord
  2
GENIUS_GEVCFG0_13
 70
     0
  0
APPID
  5
7FB1
330
6A1F
100
AcDbSymbolTableRecord
100
AcDbRegAppTableRecord
  2
GENIUS_GENOBJ-F-SUF_13
 70
     0
  0
APPID
  5
7FB2
330
6A1F
100
AcDbSymbolTableRecord
100
AcDbRegAppTableRecord
  2
GENIUS_GENDIM_13
 70
     0
  0
APPID
  5
7FB3
330
6A1F
100
AcDbSymbolTableRecord
100
AcDbRegAppTableRecord
  2
GENIUS_GENDTOL_13
 70
     0
  0
APPID
  5
7FB4
330
6A1F
100
AcDbSymbolTableRecord
100
AcDbRegAppTableRecord
  2
GENIUS_GE3DTOL_13
 70
     0
  0
APPID
  5
7FB5
330
6A1F
100
AcDbSymbolTableRecord
100
AcDbRegAppTableRecord
  2
AD_DRAW
 70
     0
  0
APPID
  5
7FB6
330
6A1F
100
AcDbSymbolTableRecord
100
AcDbRegAppTableRecord
  2
ASURF_PCURVE_APPNAME
 70
     0
  0
APPID
  5
7FB7
330
6A1F
100
AcDbSymbolTableRecord
100
AcDbRegAppTableRecord
  2
AMG_3D2D_5_0
 70
     0
  0
APPID
  5
7FB8
330
6A1F
100
AcDbSymbolTableRecord
100
AcDbRegAppTableRecord
  2
DESIGNERASSEMBLIES
 70
     0
  0
APPID
  5
7FB9
330
6A1F
100
AcDbSymbolTableRecord
100
AcDbRegAppTableRecord
  2
ACADM_DIM_EDIT
 70
     0
  0
APPID
  5
7FBA
330
6A1F
100
AcDbSymbolTableRecord
100
AcDbRegAppTableRecord
  2
AMDT_DM_ADJ
 70
     0
  0
APPID
  5
85F3
330
6A1F
100
AcDbSymbolTableRecord
100
AcDbRegAppTableRecord
  2
GENIUS_GENOBJ-N-CEN_13
 70
     0
  0
APPID
  5
89F7
330
6A1F
100
AcDbSymbolTableRecord
100
AcDbRegAppTableRecord
  2
DCO15
 70
     0
  0
APPID
  5
8E8B
330
6A1F
100
AcDbSymbolTableRecord
100
AcDbRegAppTableRecord
  2
GEV_VCCNULL_SWITCH_OFF
 70
     0
  0
APPID
  5
9961
330
6A1F
100
AcDbSymbolTableRecord
100
AcDbRegAppTableRecord
  2
GENIUS_GE3CFG0_13
 70
     0
  0
APPID
  5
9962
330
6A1F
100
AcDbSymbolTableRecord
100
AcDbRegAppTableRecord
  2
GENIUS_GENZVEED_13
 70
     0
  0
APPID
  5
9963
330
6A1F
100
AcDbSymbolTableRecord
100
AcDbRegAppTableRecord
  2
GENIUS_GENSCREG_13
 70
     0
  0
APPID
  5
9964
330
6A1F
100
AcDbSymbolTableRecord
100
AcDbRegAppTableRecord
  2
GENIUS_GENOBJ-N-RSBK_13
 70
     0
  0
APPID
  5
9965
330
6A1F
100
AcDbSymbolTableRecord
100
AcDbRegAppTableRecord
  2
GENIUS_GENSCALE_13
 70
     0
  0
APPID
  5
9966
330
6A1F
100
AcDbSymbolTableRecord
100
AcDbRegAppTableRecord
  2
GENIUS_GENOBJ-F-TOLS_13
 70
     0
  0
APPID
  5
A076
330
6A1F
100
AcDbSymbolTableRecord
100
AcDbRegAppTableRecord
  2
GENIUS_GENOBJ-N-DIM12_13
 70
     0
  0
APPID
  5
A077
330
6A1F
100
AcDbSymbolTableRecord
100
AcDbRegAppTableRecord
  2
GENIUS_GENHINW_13
 70
     0
  0
APPID
  5
A078
330
6A1F
100
AcDbSymbolTableRecord
100
AcDbRegAppTableRecord
  2
GENIUS_GENOBJ-F-TOLL_13
 70
     0
  0
APPID
  5
A079
330
6A1F
100
AcDbSymbolTableRecord
100
AcDbRegAppTableRecord
  2
GENIUS_GEFTOLC_13
 70
     0
  0
APPID
  5
A07A
330
6A1F
100
AcDbSymbolTableRecord
100
AcDbRegAppTableRecord
  2
GENIUS_GENOBJ-F-TOL_13
 70
     0
  0
APPID
  5
A07B
330
6A1F
100
AcDbSymbolTableRecord
100
AcDbRegAppTableRecord
  2
GENIUS_GENOBJ-N-RSSYM_13
 70
     0
  0
APPID
  5
A07C
330
6A1F
100
AcDbSymbolTableRecord
100
AcDbRegAppTableRecord
  2
GENIUS_GENSYMENT_13
 70
     0
  0
APPID
  5
A07D
330
6A1F
100
AcDbSymbolTableRecord
100
AcDbRegAppTableRecord
  2
GENIUS_GENSCSYM_13
 70
     0
  0
APPID
  5
A07E
330
6A1F
100
AcDbSymbolTableRecord
100
AcDbRegAppTableRecord
  2
AD_SKETCHDIM
 70
     0
  0
ENDTAB
  0
TABLE
  2
DIMSTYLE
  5
6A20
330
0
100
AcDbSymbolTable
 70
    35
100
AcDbDimStyleTable
 71
     0
  0
DIMSTYLE
105
6A77
102
{ACAD_REACTORS
330
9AA7
330
9AA6
330
BA8A
330
BAB2
330
BAFD
330
BB48
102
}
330
6A20
100
AcDbSymbolTableRecord
100
AcDbDimStyleTableRecord
  2
AM_DIN
 70
     0
  4
"
 41
2.5
 42
0.0
 43
10.0
 44
1.0
 47
0.1
 48
0.1
 73
     0
 74
     0
 77
     1
 78
     8
140
3.5
141
0.0
143
0.0393701
146
0.71
147
1.5
172
     1
176
   256
177
   256
178
     2
271
     2
272
     2
284
     8
285
     8
286
     8
340
6A27
  0
DIMSTYLE
105
6A7E
330
6A20
100
AcDbSymbolTableRecord
100
AcDbDimStyleTableRecord
  2
STANDARD
 70
     0
271
     2
272
     2
284
     8
285
     8
286
     8
340
6A27
  0
DIMSTYLE
105
6A7F
330
6A20
100
AcDbSymbolTableRecord
100
AcDbDimStyleTableRecord
  2
AM_ANSI
 70
     0
  4
mm
 41
0.1
 42
0.05
 43
0.5
 44
0.1
 47
0.1
 48
0.1
 78
     7
140
0.12
141
0.0
146
0.71
147
0.06
176
   256
177
   256
178
     2
271
     2
272
     2
284
     8
285
     8
286
     8
340
6A27
  0
DIMSTYLE
105
6A80
330
6A20
100
AcDbSymbolTableRecord
100
AcDbDimStyleTableRecord
  2
AM_ANSI$3
 70
     0
  4
mm
 41
0.1
 42
0.05
 43
0.5
 44
0.1
 47
0.1
 48
0.1
 78
     7
140
0.12
141
0.0
146
0.71
147
0.06
176
   256
177
   256
178
     2
271
     2
272
     2
284
     8
285
     8
286
     8
340
6A27
  0
DIMSTYLE
105
6A81
330
6A20
100
AcDbSymbolTableRecord
100
AcDbDimStyleTableRecord
  2
AM_ANSI$4
 70
     0
  4
mm
 41
0.1
 42
0.05
 43
0.5
 44
0.1
 47
0.1
 48
0.1
 78
     7
140
0.12
141
0.0
146
0.71
147
0.06
176
   256
177
   256
178
     2
271
     2
272
     2
284
     8
285
     8
286
     8
340
6A27
  0
DIMSTYLE
105
6A82
330
6A20
100
AcDbSymbolTableRecord
100
AcDbDimStyleTableRecord
  2
AM_ANSI$7
 70
     0
  4
mm
 41
0.1
 42
0.05
 43
0.5
 44
0.1
 47
0.1
 48
0.1
 78
     7
140
0.24
141
0.0
146
0.71
147
0.06
176
   256
177
   256
178
     2
271
     2
272
     2
284
     8
285
     8
286
     8
340
6A27
  0
DIMSTYLE
105
6A83
330
6A20
100
AcDbSymbolTableRecord
100
AcDbDimStyleTableRecord
  2
AM_ANSI$SF
 70
     0
  4
mm
 41
0.1
 42
0.05
 43
0.5
 44
0.1
 47
0.1
 48
0.1
 75
     1
 76
     1
 78
     7
140
0.12
141
0.0
146
0.71
147
0.06
176
   256
177
   256
178
     2
271
     2
272
     2
284
     8
285
     8
286
     8
340
6A27
  0
DIMSTYLE
105
6A84
330
6A20
100
AcDbSymbolTableRecord
100
AcDbDimStyleTableRecord
  2
AM_ANSI$SH
 70
     0
  4
mm
 41
0.1
 42
0.05
 43
0.5
 44
0.1
 47
0.1
 48
0.1
 75
     1
 76
     1
 78
     7
140
0.12
141
0.0
146
0.71
147
0.06
173
     1
176
   256
177
   256
178
     2
271
     2
272
     2
284
     8
285
     8
286
     8
340
6A27
  0
DIMSTYLE
105
6D9C
330
6A20
100
AcDbSymbolTableRecord
100
AcDbDimStyleTableRecord
  2
AM_DIN$3
 70
     0
  4
"
 41
3.5
 42
0.0
 43
10.0
 44
1.0
 47
0.1
 48
0.1
 73
     0
 77
     1
 78
     8
140
3.5
141
0.0
143
0.0393701
146
0.71
147
1.5
176
   256
177
   256
178
     2
271
     2
272
     2
283
     0
284
     8
288
     1
340
6A27
  0
DIMSTYLE
105
6D9D
330
6A20
100
AcDbSymbolTableRecord
100
AcDbDimStyleTableRecord
  2
AM_DIN$4
 70
     0
  4
"
 41
3.5
 42
0.0
 43
10.0
 44
1.0
 47
0.1
 48
0.1
 73
     0
 77
     1
 78
     8
140
3.5
141
0.0
143
0.0393701
146
0.71
147
1.5
176
   256
177
   256
178
     2
271
     2
272
     2
283
     0
284
     8
288
     1
340
6A27
  0
DIMSTYLE
105
6D9E
330
6A20
100
AcDbSymbolTableRecord
100
AcDbDimStyleTableRecord
  2
AM_DIN$6
 70
     0
  4
"
 41
3.5
 42
0.0
 43
0.0
 44
1.0
 47
0.1
 48
0.1
 73
     0
 74
     0
 78
     8
140
3.5
141
0.0
143
0.0393701
146
0.71
147
1.5
172
     1
176
   256
177
   256
178
     2
271
     2
272
     2
283
     0
284
     8
340
6A27
  0
DIMSTYLE
105
6D9F
330
6A20
100
AcDbSymbolTableRecord
100
AcDbDimStyleTableRecord
  2
AM_DIN$7
 70
     0
  4
"
 41
3.5
 42
0.0
 43
10.0
 44
1.0
 47
0.1
 48
0.1
 73
     0
 74
     0
 77
     1
 78
     8
140
3.5
141
0.0
143
0.0393701
146
0.71
147
1.5
172
     1
176
   256
177
   256
178
     2
271
     2
272
     2
283
     0
284
     8
340
6A27
  0
DIMSTYLE
105
6DA0
330
6A20
100
AcDbSymbolTableRecord
100
AcDbDimStyleTableRecord
  2
AM_DIN$SF
 70
     0
  4
"
 41
2.5
 42
1.0
 43
10.0
 44
1.0
 47
0.1
 48
0.1
 73
     0
 74
     0
 75
     1
 76
     1
 77
     1
 78
     8
140
3.5
141
0.0
143
0.0393701
146
0.71
147
1.5
172
     1
176
   256
177
   256
178
     2
271
     2
272
     3
274
     4
283
     0
284
     8
340
6A27
  0
DIMSTYLE
105
6DA1
330
6A20
100
AcDbSymbolTableRecord
100
AcDbDimStyleTableRecord
  2
AM_DIN$SH
 70
     0
  4
"
 41
2.5
 42
1.0
 43
10.0
 44
1.0
 47
0.1
 48
0.1
 73
     0
 74
     0
 75
     1
 76
     1
 77
     1
 78
     8
140
3.5
141
0.0
143
0.0393701
144
2.0
146
0.71
147
1.5
172
     1
173
     1
176
   256
177
   256
178
     2
271
     2
272
     3
274
     4
283
     0
284
     8
340
6A27
341
6D93
343
6D93
  0
DIMSTYLE
105
994C
330
6A20
100
AcDbSymbolTableRecord
100
AcDbDimStyleTableRecord
  2
AM_BSI
 70
     0
  4
"
 41
4.0
 42
1.0
 43
10.0
 44
1.0
 47
0.1
 48
0.1
 73
     0
 74
     0
 77
     1
 78
     8
140
3.5
141
0.0
143
0.0393701
146
0.71
147
1.5
172
     1
176
   256
177
   256
178
     2
271
     2
272
     3
274
     4
283
     0
284
     8
340
6A27
  0
DIMSTYLE
105
994D
330
6A20
100
AcDbSymbolTableRecord
100
AcDbDimStyleTableRecord
  2
AM_BSI$3
 70
     0
  4
"
 41
4.0
 42
1.0
 43
10.0
 44
1.0
 47
0.1
 48
0.1
 73
     0
 77
     1
 78
     8
140
3.5
141
0.0
143
0.0393701
146
0.71
147
1.5
176
   256
177
   256
178
     2
271
     2
272
     3
274
     4
283
     0
284
     8
288
     1
340
6A27
  0
DIMSTYLE
105
994E
330
6A20
100
AcDbSymbolTableRecord
100
AcDbDimStyleTableRecord
  2
AM_BSI$4
 70
     0
  4
"
 41
4.0
 42
1.0
 43
10.0
 44
1.0
 47
0.1
 48
0.1
 73
     0
 77
     1
 78
     8
140
3.5
141
0.0
143
0.0393701
146
0.71
147
1.5
176
   256
177
   256
178
     2
271
     2
272
     3
274
     4
283
     0
284
     8
288
     1
340
6A27
  0
DIMSTYLE
105
994F
330
6A20
100
AcDbSymbolTableRecord
100
AcDbDimStyleTableRecord
  2
AM_BSI$6
 70
     0
  4
"
 41
4.0
 42
1.0
 43
10.0
 44
1.0
 47
0.1
 48
0.1
 73
     0
 74
     0
 78
     8
140
3.5
141
0.0
143
0.0393701
146
0.71
147
1.5
172
     1
176
   256
177
   256
178
     2
271
     2
272
     3
274
     4
283
     0
284
     8
340
6A27
  0
DIMSTYLE
105
9950
330
6A20
100
AcDbSymbolTableRecord
100
AcDbDimStyleTableRecord
  2
AM_BSI$7
 70
     0
  4
"
 41
2.5
 42
1.0
 43
10.0
 44
1.0
 47
0.1
 48
0.1
 73
     0
 74
     0
 77
     1
 78
     8
140
5.0
141
0.0
143
0.0393701
146
0.71
147
1.5
172
     1
176
   256
177
   256
178
     2
271
     2
272
     3
274
     4
283
     0
284
     8
340
6A27
  0
DIMSTYLE
105
9951
330
6A20
100
AcDbSymbolTableRecord
100
AcDbDimStyleTableRecord
  2
AM_BSI$SF
 70
     0
  4
"
 41
4.0
 42
1.0
 43
10.0
 44
1.0
 47
0.1
 48
0.1
 73
     0
 74
     0
 75
     1
 76
     1
 77
     1
 78
     8
140
3.5
141
0.0
143
0.0393701
146
0.71
147
1.5
172
     1
176
   256
177
   256
178
     2
271
     2
272
     3
274
     4
283
     0
284
     8
340
6A27
  0
DIMSTYLE
105
9952
330
6A20
100
AcDbSymbolTableRecord
100
AcDbDimStyleTableRecord
  2
AM_BSI$SH
 70
     0
  4
"
 41
4.0
 42
1.0
 43
10.0
 44
1.0
 47
0.1
 48
0.1
 73
     0
 74
     0
 75
     1
 76
     1
 77
     1
 78
     8
140
3.5
141
0.0
143
0.0393701
144
2.0
146
0.71
147
1.5
172
     1
173
     1
176
   256
177
   256
178
     2
271
     2
272
     3
274
     4
283
     0
284
     8
340
6A27
341
6D93
343
6D93
  0
DIMSTYLE
105
9953
330
6A20
100
AcDbSymbolTableRecord
100
AcDbDimStyleTableRecord
  2
AM_ISO
 70
     0
  4
"
 41
2.5
 42
1.0
 43
10.0
 44
1.0
 47
0.1
 48
0.1
 73
     0
 74
     0
 77
     1
 78
     8
140
3.5
141
0.0
143
0.0393701
146
0.71
147
1.5
172
     1
176
   256
177
   256
178
     2
271
     2
272
     3
274
     4
283
     0
284
     8
340
6A27
  0
DIMSTYLE
105
9954
330
6A20
100
AcDbSymbolTableRecord
100
AcDbDimStyleTableRecord
  2
AM_ISO$3
 70
     0
  4
"
 41
2.5
 42
1.0
 43
10.0
 44
1.0
 47
0.1
 48
0.1
 73
     0
 77
     1
 78
     8
140
3.5
141
0.0
143
0.0393701
146
0.71
147
1.5
176
   256
177
   256
178
     2
271
     2
272
     3
274
     4
283
     0
284
     8
288
     1
340
6A27
  0
DIMSTYLE
105
9955
330
6A20
100
AcDbSymbolTableRecord
100
AcDbDimStyleTableRecord
  2
AM_ISO$4
 70
     0
  4
"
 41
2.5
 42
1.0
 43
10.0
 44
1.0
 47
0.1
 48
0.1
 73
     0
 77
     1
 78
     8
140
3.5
141
0.0
143
0.0393701
146
0.71
147
1.5
176
   256
177
   256
178
     2
271
     2
272
     3
274
     4
283
     0
284
     8
288
     1
340
6A27
  0
DIMSTYLE
105
9956
330
6A20
100
AcDbSymbolTableRecord
100
AcDbDimStyleTableRecord
  2
AM_ISO$6
 70
     0
  4
"
 41
2.5
 42
1.0
 43
10.0
 44
1.0
 47
0.1
 48
0.1
 73
     0
 74
     0
 78
     8
140
3.5
141
0.0
143
0.0393701
146
0.71
147
1.5
172
     1
176
   256
177
   256
178
     2
271
     2
272
     3
274
     4
283
     0
284
     8
340
6A27
  0
DIMSTYLE
105
9957
330
6A20
100
AcDbSymbolTableRecord
100
AcDbDimStyleTableRecord
  2
AM_ISO$7
 70
     0
  4
"
 41
2.5
 42
1.0
 43
10.0
 44
1.0
 47
0.1
 48
0.1
 73
     0
 74
     0
 77
     1
 78
     8
140
5.0
141
0.0
143
0.0393701
146
0.71
147
1.5
172
     1
176
   256
177
   256
178
     2
271
     2
272
     3
274
     4
283
     0
284
     8
340
6A27
  0
DIMSTYLE
105
9958
330
6A20
100
AcDbSymbolTableRecord
100
AcDbDimStyleTableRecord
  2
AM_ISO$SF
 70
     0
  4
"
 41
2.5
 42
1.0
 43
10.0
 44
1.0
 47
0.1
 48
0.1
 73
     0
 74
     0
 75
     1
 76
     1
 77
     1
 78
     8
140
3.5
141
0.0
143
0.0393701
146
0.71
147
1.5
172
     1
176
   256
177
   256
178
     2
271
     2
272
     3
274
     4
283
     0
284
     8
340
6A27
  0
DIMSTYLE
105
9959
330
6A20
100
AcDbSymbolTableRecord
100
AcDbDimStyleTableRecord
  2
AM_ISO$SH
 70
     0
  4
"
 41
2.5
 42
1.0
 43
10.0
 44
1.0
 47
0.1
 48
0.1
 73
     0
 74
     0
 75
     1
 76
     1
 77
     1
 78
     8
140
3.5
141
0.0
143
0.0393701
144
2.0
146
0.71
147
1.5
172
     1
173
     1
176
   256
177
   256
178
     2
271
     2
272
     3
274
     4
283
     0
284
     8
340
6A27
341
6D93
343
6D93
  0
DIMSTYLE
105
995A
330
6A20
100
AcDbSymbolTableRecord
100
AcDbDimStyleTableRecord
  2
AM_JIS
 70
     0
  4
"
 41
2.5
 42
1.0
 43
10.0
 44
1.0
 47
0.1
 48
0.1
 73
     0
 74
     0
 77
     3
 78
     8
140
3.5
141
0.0
143
0.0393701
146
0.71
147
1.5
172
     1
176
   256
177
   256
178
     2
271
     2
272
     3
274
     4
283
     0
284
     8
340
6A27
341
9908
342
9908
343
9908
344
9908
  0
DIMSTYLE
105
995B
330
6A20
100
AcDbSymbolTableRecord
100
AcDbDimStyleTableRecord
  2
AM_JIS$3
 70
     0
  4
"
 41
2.5
 42
1.0
 43
10.0
 44
1.0
 47
0.1
 48
0.1
 73
     0
 77
     3
 78
     8
140
3.5
141
0.0
143
0.0393701
146
0.71
147
1.5
176
   256
177
   256
178
     2
271
     2
272
     3
274
     4
283
     0
284
     8
288
     1
340
6A27
341
9908
342
9908
343
9908
344
9908
  0
DIMSTYLE
105
995C
330
6A20
100
AcDbSymbolTableRecord
100
AcDbDimStyleTableRecord
  2
AM_JIS$4
 70
     0
  4
"
 41
2.5
 42
1.0
 43
10.0
 44
1.0
 47
0.1
 48
0.1
 73
     0
 77
     3
 78
     8
140
3.5
141
0.0
143
0.0393701
146
0.71
147
1.5
176
   256
177
   256
178
     2
271
     2
272
     3
274
     4
283
     0
284
     8
288
     1
340
6A27
341
9908
342
9908
343
9908
344
9908
  0
DIMSTYLE
105
995D
330
6A20
100
AcDbSymbolTableRecord
100
AcDbDimStyleTableRecord
  2
AM_JIS$6
 70
     0
  4
"
 41
2.5
 42
1.0
 43
10.0
 44
1.0
 47
0.1
 48
0.1
 73
     0
 74
     0
 78
     8
140
3.5
141
0.0
143
0.0393701
146
0.71
147
1.5
172
     1
176
   256
177
   256
178
     2
271
     2
272
     3
274
     4
283
     0
284
     8
340
6A27
341
9908
342
9908
343
9908
344
9908
  0
DIMSTYLE
105
995E
330
6A20
100
AcDbSymbolTableRecord
100
AcDbDimStyleTableRecord
  2
AM_JIS$7
 70
     0
  4
"
 41
2.5
 42
1.0
 43
10.0
 44
1.0
 47
0.1
 48
0.1
 73
     0
 74
     0
 77
     3
 78
     8
140
5.0
141
0.0
143
0.0393701
146
0.71
147
1.5
172
     1
176
   256
177
   256
178
     2
271
     2
272
     3
274
     4
283
     0
284
     8
340
6A27
341
9908
342
9908
343
9908
344
9908
  0
DIMSTYLE
105
995F
330
6A20
100
AcDbSymbolTableRecord
100
AcDbDimStyleTableRecord
  2
AM_JIS$SF
 70
     0
  4
"
 41
2.5
 42
1.0
 43
10.0
 44
1.0
 47
0.1
 48
0.1
 73
     0
 74
     0
 75
     1
 76
     1
 77
     3
 78
     8
140
3.5
141
0.0
143
0.0393701
146
0.71
147
1.5
172
     1
176
   256
177
   256
178
     2
271
     2
272
     3
274
     4
283
     0
284
     8
340
6A27
341
9908
342
9908
343
9908
344
9908
  0
DIMSTYLE
105
9960
330
6A20
100
AcDbSymbolTableRecord
100
AcDbDimStyleTableRecord
  2
AM_JIS$SH
 70
     0
  4
"
 41
2.5
 42
1.0
 43
10.0
 44
1.0
 47
0.1
 48
0.1
 73
     0
 74
     0
 75
     1
 76
     1
 77
     3
 78
     8
140
3.5
141
0.0
143
0.0393701
144
2.0
146
0.71
147
1.5
172
     1
173
     1
176
   256
177
   256
178
     2
271
     2
272
     3
274
     4
283
     0
284
     8
340
6A27
341
6D93
342
9908
343
6D93
344
9908
  0
ENDTAB
  0
TABLE
  2
BLOCK_RECORD
  5
6A17
330
0
100
AcDbSymbolTable
 70
     8
  0
BLOCK_RECORD
  5
6A34
102
{ACAD_XDICTIONARY
360
6B62
102
}
330
6A17
100
AcDbSymbolTableRecord
100
AcDbBlockTableRecord
  2
*MODEL_SPACE
340
BD2F
  0
BLOCK_RECORD
  5
6A30
102
{ACAD_XDICTIONARY
360
BD25
102
}
330
6A17
100
AcDbSymbolTableRecord
100
AcDbBlockTableRecord
  2
*PAPER_SPACE
340
BD30
  0
BLOCK_RECORD
  5
6D93
330
6A17
100
AcDbSymbolTableRecord
100
AcDbBlockTableRecord
  2
GENAXEH
340
0
  0
BLOCK_RECORD
  5
9908
330
6A17
100
AcDbSymbolTableRecord
100
AcDbBlockTableRecord
  2
_OPEN30
340
0
  0
BLOCK_RECORD
  5
9AD5
330
6A17
100
AcDbSymbolTableRecord
100
AcDbBlockTableRecord
  2
*D2
340
0
  0
BLOCK_RECORD
  5
9AE1
330
6A17
100
AcDbSymbolTableRecord
100
AcDbBlockTableRecord
  2
*D3
340
0
  0
BLOCK_RECORD
  5
BA8B
330
6A17
100
AcDbSymbolTableRecord
100
AcDbBlockTableRecord
  2
*D4
340
0
  0
BLOCK_RECORD
  5
BAB3
330
6A17
100
AcDbSymbolTableRecord
100
AcDbBlockTableRecord
  2
*D5
340
0
  0
BLOCK_RECORD
  5
BAFE
330
6A17
100
AcDbSymbolTableRecord
100
AcDbBlockTableRecord
  2
*D6
340
0
  0
BLOCK_RECORD
  5
BB49
330
6A17
100
AcDbSymbolTableRecord
100
AcDbBlockTableRecord
  2
*D7
340
0
  0
ENDTAB
  0
ENDSEC
  0
SECTION
  2
BLOCKS
  0
BLOCK
  5
6A35
330
6A34
100
AcDbEntity
  8
0
100
AcDbBlockBegin
  2
*MODEL_SPACE
 70
     0
 10
0.0
 20
0.0
 30
0.0
  3
*MODEL_SPACE
  1

  0
ENDBLK
  5
6A36
330
6A34
100
AcDbEntity
  8
0
100
AcDbBlockEnd
  0
BLOCK
  5
6A31
330
6A30
100
AcDbEntity
 67
     1
  8
0
100
AcDbBlockBegin
  2
*PAPER_SPACE
 70
     0
 10
0.0
 20
0.0
 30
0.0
  3
*PAPER_SPACE
  1

  0
ENDBLK
  5
6A32
330
6A30
100
AcDbEntity
 67
     1
  8
0
100
AcDbBlockEnd
  0
BLOCK
  5
6D95
330
6D93
100
AcDbEntity
  8
0
100
AcDbBlockBegin
  2
GENAXEH
 70
     0
 10
0.0
 20
0.0
 30
0.0
  3
GENAXEH
  1

  0
LINE
  5
6D94
330
6D93
100
AcDbEntity
  8
0
100
AcDbLine
 10
-1.0
 20
0.0
 30
0.0
 11
1.0
 21
0.0
 31
0.0
  0
ENDBLK
  5
6D96
330
6D93
100
AcDbEntity
  8
0
100
AcDbBlockEnd
  0
BLOCK
  5
990C
330
9908
100
AcDbEntity
  8
0
100
AcDbBlockBegin
  2
_OPEN30
 70
     0
 10
0.0
 20
0.0
 30
0.0
  3
_OPEN30
  1

  0
LINE
  5
9909
330
9908
100
AcDbEntity
  8
0
  6
ByBlock
 62
     0
100
AcDbLine
 10
-1.0
 20
0.26794919
 30
0.0
 11
0.0
 21
0.0
 31
0.0
  0
LINE
  5
990A
330
9908
100
AcDbEntity
  8
0
  6
ByBlock
 62
     0
100
AcDbLine
 10
0.0
 20
0.0
 30
0.0
 11
-1.0
 21
-0.26794919
 31
0.0
  0
LINE
  5
990B
330
9908
100
AcDbEntity
  8
0
  6
ByBlock
 62
     0
100
AcDbLine
 10
0.0
 20
0.0
 30
0.0
 11
-1.0
 21
0.0
 31
0.0
  0
ENDBLK
  5
990D
330
9908
100
AcDbEntity
  8
0
100
AcDbBlockEnd
  0
BLOCK
  5
9ADF
330
9AD5
100
AcDbEntity
  8
0
100
AcDbBlockBegin
  2
*D2
 70
     1
 10
0.0
 20
0.0
 30
0.0
  3
*D2
  1

  0
LINE
  5
A013
330
9AD5
100
AcDbEntity
  8
SK2
100
AcDbLine
 10
-40.88626023734595
 20
18.49999999999915
 30
0.0
 11
-66.52761595660748
 21
18.49999999999915
 31
0.0
  0
LINE
  5
A014
330
9AD5
100
AcDbEntity
  8
SK2
100
AcDbLine
 10
-40.88626023734595
 20
-18.50000000000084
 30
0.0
 11
-66.52761595660748
 21
-18.50000000000084
 31
0.0
  0
LINE
  5
A015
330
9AD5
100
AcDbEntity
  8
SK2
100
AcDbLine
 10
-65.52761595660746
 20
15.99999999999915
 30
0.0
 11
-65.52761595660746
 21
-16.00000000000084
 31
0.0
  0
SOLID
  5
A016
330
9AD5
100
AcDbEntity
  8
SK2
100
AcDbTrace
 10
-65.94428262327415
 20
15.99999999999915
 30
0.0
 11
-65.11094928994079
 21
15.99999999999915
 31
0.0
 12
-65.52761595660746
 22
18.49999999999915
 32
0.0
 13
-65.52761595660746
 23
18.49999999999915
 33
0.0
  0
SOLID
  5
A017
330
9AD5
100
AcDbEntity
  8
SK2
100
AcDbTrace
 10
-65.94428262327415
 20
-16.00000000000084
 30
0.0
 11
-65.11094928994079
 21
-16.00000000000084
 31
0.0
 12
-65.52761595660746
 22
-18.50000000000084
 32
0.0
 13
-65.52761595660746
 23
-18.50000000000084
 33
0.0
  0
MTEXT
  5
A018
330
9AD5
100
AcDbEntity
  8
SK2
 62
     2
100
AcDbMText
 10
-68.77761595660746
 20
-0.0000000000008518
 30
0.0
 40
3.5
 41
0.0
 71
     5
 72
     1
  1
\A1;%%c37
 11
0.0000000000000001
 21
1.0
 31
0.0
 73
     1
 44
1.0
1001
ACAD
1000
MTEXTBEGIN
1070
    73
1070
     1
1070
    44
1040
1.0
1070
    74
1070
     0
1000
MTEXTEND
  0
POINT
  5
A019
330
9AD5
100
AcDbEntity
  8
DEFPOINTS
 62
     0
100
AcDbPoint
 10
-40.88626023734595
 20
18.49999999999915
 30
0.0
  0
POINT
  5
A01A
330
9AD5
100
AcDbEntity
  8
DEFPOINTS
 62
     0
100
AcDbPoint
 10
-40.88626023734595
 20
-18.50000000000084
 30
0.0
  0
POINT
  5
A01B
330
9AD5
100
AcDbEntity
  8
DEFPOINTS
 62
     0
100
AcDbPoint
 10
-65.52761595660746
 20
-18.50000000000084
 30
0.0
  0
ENDBLK
  5
9AE0
330
9AD5
100
AcDbEntity
  8
0
100
AcDbBlockEnd
  0
BLOCK
  5
9AEB
330
9AE1
100
AcDbEntity
  8
0
100
AcDbBlockBegin
  2
*D3
 70
     1
 10
0.0
 20
0.0
 30
0.0
  3
*D3
  1

  0
LINE
  5
A00A
330
9AE1
100
AcDbEntity
  8
SK2
100
AcDbLine
 10
-0.2100966007178773
 20
38.99999999999921
 30
0.0
 11
-82.43783185346414
 21
38.99999999999923
 31
0.0
  0
LINE
  5
A00B
330
9AE1
100
AcDbEntity
  8
SK2
100
AcDbLine
 10
-0.2100966007178773
 20
-39.00000000000085
 30
0.0
 11
-82.43783185346417
 21
-39.00000000000082
 31
0.0
  0
LINE
  5
A00C
330
9AE1
100
AcDbEntity
  8
SK2
100
AcDbLine
 10
-81.43783185346412
 20
36.49999999999923
 30
0.0
 11
-81.43783185346419
 21
-36.50000000000082
 31
0.0
  0
SOLID
  5
A00D
330
9AE1
100
AcDbEntity
  8
SK2
100
AcDbTrace
 10
-81.85449852013082
 20
36.49999999999923
 30
0.0
 11
-81.02116518679748
 21
36.49999999999923
 31
0.0
 12
-81.43783185346412
 22
38.99999999999923
 32
0.0
 13
-81.43783185346412
 23
38.99999999999923
 33
0.0
  0
SOLID
  5
A00E
330
9AE1
100
AcDbEntity
  8
SK2
100
AcDbTrace
 10
-81.85449852013084
 20
-36.50000000000082
 30
0.0
 11
-81.0211651867975
 21
-36.50000000000082
 31
0.0
 12
-81.43783185346419
 22
-39.00000000000082
 32
0.0
 13
-81.43783185346419
 23
-39.00000000000082
 33
0.0
  0
MTEXT
  5
A00F
330
9AE1
100
AcDbEntity
  8
SK2
 62
     2
100
AcDbMText
 10
-84.68783185346415
 20
-0.0000000000008046
 30
0.0
 40
3.5
 41
0.0
 71
     5
 72
     1
  1
\A1;%%c78
 11
0.0000000000000001
 21
1.0
 31
0.0
 73
     1
 44
1.0
1001
ACAD
1000
MTEXTBEGIN
1070
    73
1070
     1
1070
    44
1040
1.0
1070
    74
1070
     0
1000
MTEXTEND
  0
POINT
  5
A010
330
9AE1
100
AcDbEntity
  8
DEFPOINTS
 62
     0
100
AcDbPoint
 10
-0.2100966007178773
 20
38.99999999999921
 30
0.0
  0
POINT
  5
A011
330
9AE1
100
AcDbEntity
  8
DEFPOINTS
 62
     0
100
AcDbPoint
 10
-0.2100966007178773
 20
-39.00000000000085
 30
0.0
  0
POINT
  5
A012
330
9AE1
100
AcDbEntity
  8
DEFPOINTS
 62
     0
100
AcDbPoint
 10
-81.43783185346419
 20
-39.00000000000082
 30
0.0
  0
ENDBLK
  5
9AEC
330
9AE1
100
AcDbEntity
  8
0
100
AcDbBlockEnd
  0
BLOCK
  5
BA95
330
BA8B
100
AcDbEntity
  8
0
100
AcDbBlockBegin
  2
*D4
 70
     1
 10
0.0
 20
0.0
 30
0.0
  3
*D4
  1

  0
LINE
  5
BC5C
330
BA8B
100
AcDbEntity
  8
2
100
AcDbLine
 10
137.789903399282
 20
31.49999999999917
 30
0.0
 11
137.789903399282
 21
75.99999999999917
 31
0.0
  0
LINE
  5
BC5D
330
BA8B
100
AcDbEntity
  8
2
100
AcDbLine
 10
-0.2100966007178773
 20
38.99999999999921
 30
0.0
 11
-0.210096600717875
 21
75.99999999999917
 31
0.0
  0
LINE
  5
BC5E
330
BA8B
100
AcDbEntity
  8
2
100
AcDbLine
 10
135.2899033992821
 20
74.99999999999919
 30
0.0
 11
2.289903399282124
 21
74.99999999999919
 31
0.0
  0
SOLID
  5
BC5F
330
BA8B
100
AcDbEntity
  8
2
100
AcDbTrace
 10
135.2899033992821
 20
75.41666666666585
 30
0.0
 11
135.2899033992821
 21
74.5833333333325
 31
0.0
 12
137.789903399282
 22
74.99999999999919
 32
0.0
 13
137.789903399282
 23
74.99999999999919
 33
0.0
  0
SOLID
  5
BC60
330
BA8B
100
AcDbEntity
  8
2
100
AcDbTrace
 10
2.289903399282124
 20
75.41666666666585
 30
0.0
 11
2.289903399282124
 21
74.5833333333325
 31
0.0
 12
-0.2100966007178751
 22
74.99999999999919
 32
0.0
 13
-0.2100966007178751
 23
74.99999999999919
 33
0.0
  0
MTEXT
  5
BC61
330
BA8B
100
AcDbEntity
  8
2
 62
     2
100
AcDbMText
 10
68.78990339928212
 20
78.24999999999917
 30
0.0
 40
3.5
 41
0.0
 71
     5
 72
     1
  1
\A1;138
 73
     1
 44
1.0
1001
ACAD
1000
MTEXTBEGIN
1070
    73
1070
     1
1070
    44
1040
1.0
1070
    74
1070
     0
1000
MTEXTEND
  0
POINT
  5
BC62
330
BA8B
100
AcDbEntity
  8
DEFPOINTS
 62
     0
100
AcDbPoint
 10
137.789903399282
 20
31.49999999999917
 30
0.0
  0
POINT
  5
BC63
330
BA8B
100
AcDbEntity
  8
DEFPOINTS
 62
     0
100
AcDbPoint
 10
-0.2100966007178773
 20
38.99999999999921
 30
0.0
  0
POINT
  5
BC64
330
BA8B
100
AcDbEntity
  8
DEFPOINTS
 62
     0
100
AcDbPoint
 10
-0.2100966007178751
 20
74.99999999999919
 30
0.0
  0
ENDBLK
  5
BA96
330
BA8B
100
AcDbEntity
  8
0
100
AcDbBlockEnd
  0
BLOCK
  5
BABD
330
BAB3
100
AcDbEntity
  8
0
100
AcDbBlockBegin
  2
*D5
 70
     1
 10
0.0
 20
0.0
 30
0.0
  3
*D5
  1

  0
LINE
  5
BC86
330
BAB3
100
AcDbEntity
  8
2
100
AcDbLine
 10
137.789903399282
 20
31.49999999999917
 30
0.0
 11
137.789903399282
 21
45.99999999999917
 31
0.0
  0
LINE
  5
BC87
330
BAB3
100
AcDbEntity
  8
2
100
AcDbLine
 10
25.78990339928211
 20
31.49999999999911
 30
0.0
 11
25.78990339928211
 21
45.99999999999917
 31
0.0
  0
LINE
  5
BC88
330
BAB3
100
AcDbEntity
  8
2
100
AcDbLine
 10
135.2899033992821
 20
44.99999999999917
 30
0.0
 11
28.28990339928211
 21
44.99999999999917
 31
0.0
  0
SOLID
  5
BC89
330
BAB3
100
AcDbEntity
  8
2
100
AcDbTrace
 10
135.2899033992821
 20
45.41666666666584
 30
0.0
 11
135.2899033992821
 21
44.58333333333251
 31
0.0
 12
137.789903399282
 22
44.99999999999917
 32
0.0
 13
137.789903399282
 23
44.99999999999917
 33
0.0
  0
SOLID
  5
BC8A
330
BAB3
100
AcDbEntity
  8
2
100
AcDbTrace
 10
28.28990339928211
 20
45.41666666666584
 30
0.0
 11
28.28990339928211
 21
44.58333333333251
 31
0.0
 12
25.78990339928211
 22
44.99999999999917
 32
0.0
 13
25.78990339928211
 23
44.99999999999917
 33
0.0
  0
MTEXT
  5
BC8B
330
BAB3
100
AcDbEntity
  8
2
 62
     2
100
AcDbMText
 10
81.7899033992821
 20
48.25034448818815
 30
0.0
 40
3.5
 41
0.0
 71
     5
 72
     1
  1
\A1;112
 73
     1
 44
1.0
1001
ACAD
1000
MTEXTBEGIN
1070
    73
1070
     1
1070
    44
1040
1.0
1070
    74
1070
     0
1000
MTEXTEND
  0
POINT
  5
BC8C
330
BAB3
100
AcDbEntity
  8
DEFPOINTS
 62
     0
100
AcDbPoint
 10
137.789903399282
 20
31.49999999999917
 30
0.0
  0
POINT
  5
BC8D
330
BAB3
100
AcDbEntity
  8
DEFPOINTS
 62
     0
100
AcDbPoint
 10
25.78990339928211
 20
31.49999999999911
 30
0.0
  0
POINT
  5
BC8E
330
BAB3
100
AcDbEntity
  8
DEFPOINTS
 62
     0
100
AcDbPoint
 10
25.78990339928211
 20
44.99999999999917
 30
0.0
  0
ENDBLK
  5
BABE
330
BAB3
100
AcDbEntity
  8
0
100
AcDbBlockEnd
  0
BLOCK
  5
BB08
330
BAFE
100
AcDbEntity
  8
0
100
AcDbBlockBegin
  2
*D6
 70
     1
 10
0.0
 20
0.0
 30
0.0
  3
*D6
  1

  0
LINE
  5
BC53
330
BAFE
100
AcDbEntity
  8
2
100
AcDbLine
 10
137.789903399282
 20
31.49999999999917
 30
0.0
 11
137.789903399282
 21
60.99999999999917
 31
0.0
  0
LINE
  5
BC54
330
BAFE
100
AcDbEntity
  8
2
100
AcDbLine
 10
13.78990339928212
 20
31.99143398272579
 30
0.0
 11
13.78990339928212
 21
60.99999999999917
 31
0.0
  0
LINE
  5
BC55
330
BAFE
100
AcDbEntity
  8
2
100
AcDbLine
 10
135.2899033992821
 20
59.99999999999918
 30
0.0
 11
16.28990339928212
 21
59.99999999999918
 31
0.0
  0
SOLID
  5
BC56
330
BAFE
100
AcDbEntity
  8
2
100
AcDbTrace
 10
135.2899033992821
 20
60.41666666666584
 30
0.0
 11
135.2899033992821
 21
59.58333333333251
 31
0.0
 12
137.789903399282
 22
59.99999999999918
 32
0.0
 13
137.789903399282
 23
59.99999999999918
 33
0.0
  0
SOLID
  5
BC57
330
BAFE
100
AcDbEntity
  8
2
100
AcDbTrace
 10
16.28990339928212
 20
60.41666666666584
 30
0.0
 11
16.28990339928212
 21
59.58333333333251
 31
0.0
 12
13.78990339928212
 22
59.99999999999918
 32
0.0
 13
13.78990339928212
 23
59.99999999999918
 33
0.0
  0
MTEXT
  5
BC58
330
BAFE
100
AcDbEntity
  8
2
 62
     2
100
AcDbMText
 10
75.78990339928212
 20
63.25034448818815
 30
0.0
 40
3.5
 41
0.0
 71
     5
 72
     1
  1
\A1;124
 73
     1
 44
1.0
1001
ACAD
1000
MTEXTBEGIN
1070
    73
1070
     1
1070
    44
1040
1.0
1070
    74
1070
     0
1000
MTEXTEND
  0
POINT
  5
BC59
330
BAFE
100
AcDbEntity
  8
DEFPOINTS
 62
     0
100
AcDbPoint
 10
137.789903399282
 20
31.49999999999917
 30
0.0
  0
POINT
  5
BC5A
330
BAFE
100
AcDbEntity
  8
DEFPOINTS
 62
     0
100
AcDbPoint
 10
13.78990339928212
 20
31.99143398272579
 30
0.0
  0
POINT
  5
BC5B
330
BAFE
100
AcDbEntity
  8
DEFPOINTS
 62
     0
100
AcDbPoint
 10
13.78990339928212
 20
59.99999999999918
 30
0.0
  0
ENDBLK
  5
BB09
330
BAFE
100
AcDbEntity
  8
0
100
AcDbBlockEnd
  0
BLOCK
  5
BB53
330
BB49
100
AcDbEntity
  8
0
100
AcDbBlockBegin
  2
*D7
 70
     1
 10
0.0
 20
0.0
 30
0.0
  3
*D7
  1

  0
LINE
  5
BC65
330
BB49
100
AcDbEntity
  8
2
100
AcDbLine
 10
137.789903399282
 20
31.49999999999917
 30
0.0
 11
178.0194737468089
 21
31.49999999999916
 31
0.0
  0
LINE
  5
BC66
330
BB49
100
AcDbEntity
  8
2
100
AcDbLine
 10
137.789903399282
 20
-31.50000000000082
 30
0.0
 11
178.0194737468089
 21
-31.50000000000083
 31
0.0
  0
LINE
  5
BC67
330
BB49
100
AcDbEntity
  8
2
100
AcDbLine
 10
177.019473746809
 20
28.99999999999916
 30
0.0
 11
177.019473746809
 21
-29.00000000000083
 31
0.0
  0
SOLID
  5
BC68
330
BB49
100
AcDbEntity
  8
2
100
AcDbTrace
 10
176.6028070801423
 20
28.99999999999916
 30
0.0
 11
177.4361404134756
 21
28.99999999999916
 31
0.0
 12
177.019473746809
 22
31.49999999999916
 32
0.0
 13
177.019473746809
 23
31.49999999999916
 33
0.0
  0
SOLID
  5
BC69
330
BB49
100
AcDbEntity
  8
2
100
AcDbTrace
 10
176.6028070801423
 20
-29.00000000000083
 30
0.0
 11
177.4361404134756
 21
-29.00000000000083
 31
0.0
 12
177.019473746809
 22
-31.50000000000083
 32
0.0
 13
177.019473746809
 23
-31.50000000000083
 33
0.0
  0
MTEXT
  5
BC6A
330
BB49
100
AcDbEntity
  8
2
 62
     2
100
AcDbMText
 10
173.7694737468089
 20
-0.0000000000008062
 30
0.0
 40
3.5
 41
0.0
 71
     5
 72
     1
  1
\A1;%%c63
 11
0.0000000000000001
 21
1.0
 31
0.0
 73
     1
 44
1.0
1001
ACAD
1000
MTEXTBEGIN
1070
    73
1070
     1
1070
    44
1040
1.0
1070
    74
1070
     0
1000
MTEXTEND
  0
POINT
  5
BC6B
330
BB49
100
AcDbEntity
  8
DEFPOINTS
 62
     0
100
AcDbPoint
 10
137.789903399282
 20
31.49999999999917
 30
0.0
  0
POINT
  5
BC6C
330
BB49
100
AcDbEntity
  8
DEFPOINTS
 62
     0
100
AcDbPoint
 10
137.789903399282
 20
-31.50000000000082
 30
0.0
  0
POINT
  5
BC6D
330
BB49
100
AcDbEntity
  8
DEFPOINTS
 62
     0
100
AcDbPoint
 10
177.019473746809
 20
-31.50000000000083
 30
0.0
  0
ENDBLK
  5
BB54
330
BB49
100
AcDbEntity
  8
0
100
AcDbBlockEnd
  0
ENDSEC
  0
SECTION
  2
ENTITIES
  0
LINE
  5
9077
330
6A34
100
AcDbEntity
  8
SK1
100
AcDbLine
 10
-2.296748951273333
 20
-2.086652350555438
 30
0.0
 11
1.876555749836713
 21
2.086652350554603
 31
0.0
  0
CIRCLE
  5
9078
330
6A34
100
AcDbEntity
  8
SK1
100
AcDbCircle
 10
-0.2100966007182894
 20
-0.0000000000003979
 30
0.0
 40
2.950972054112601
  0
LINE
  5
9079
330
6A34
100
AcDbEntity
  8
SK1
100
AcDbLine
 10
-2.296748951273313
 20
2.086652350554625
 30
0.0
 11
1.87655574983673
 21
-2.08665235055542
 31
0.0
  0
DIMENSION
  5
9AA6
330
6A34
100
AcDbEntity
  8
SK2
100
AcDbDimension
  2
*D3
 10
-81.43783185346419
 20
-39.00000000000082
 30
0.0
 11
-84.68783185346415
 21
-0.0000000000008046
 31
0.0
 70
    32
  1
%%c<>
 71
     5
 42
-1.0
  3
AM_DIN
100
AcDbAlignedDimension
 13
-0.2100966007178773
 23
38.99999999999921
 33
0.0
 14
-0.2100966007178773
 24
-39.00000000000085
 34
0.0
 50
90.0
100
AcDbRotatedDimension
  0
DIMENSION
  5
9AA7
330
6A34
100
AcDbEntity
  8
SK2
100
AcDbDimension
  2
*D2
 10
-65.52761595660746
 20
-18.50000000000084
 30
0.0
 11
-68.77761595660746
 21
-0.0000000000008518
 31
0.0
 70
    32
  1
%%c<>
 71
     5
 42
-1.0
  3
AM_DIN
100
AcDbAlignedDimension
 13
-40.88626023734595
 23
18.49999999999915
 33
0.0
 14
-40.88626023734595
 24
-18.50000000000084
 34
0.0
 50
89.99999999999673
100
AcDbRotatedDimension
  0
LINE
  5
9AA8
330
6A34
100
AcDbEntity
  8
SK3
 48
0.3
100
AcDbLine
 10
11.09244284443023
 20
25.98076211353256
 30
0.0
 11
9.789903399282122
 21
20.98076211353288
 31
0.0
  0
LINE
  5
9AA9
330
6A34
100
AcDbEntity
  8
SK3
 48
0.3
100
AcDbLine
 10
9.789903399282122
 20
20.98076211353288
 30
0.0
 11
9.789903399282122
 21
30.980762113533
 31
0.0
  0
LINE
  5
9AAA
330
6A34
100
AcDbEntity
  8
SK3
 48
0.3
100
AcDbLine
 10
-0.2100966007179341
 20
20.98076211353282
 30
0.0
 11
9.789903399282122
 21
20.98076211353288
 31
0.0
  0
LINE
  5
9AAB
330
6A34
100
AcDbEntity
  8
SK4
100
AcDbLine
 10
11.93350521844639
 20
25.98076211353256
 30
0.0
 11
-3.02202898544131
 21
25.98076211353288
 31
0.0
  0
LINE
  5
9AAC
330
6A34
100
AcDbEntity
  8
SK3
 48
0.3
100
AcDbLine
 10
9.789903399282122
 20
30.980762113533
 30
0.0
 11
-0.2100966007179341
 21
30.980762113533
 31
0.0
  0
LINE
  5
9AAD
330
6A34
100
AcDbEntity
  8
SK3
 48
0.3
100
AcDbLine
 10
9.789903399282122
 20
30.980762113533
 30
0.0
 11
11.09244284443023
 21
25.98076211353256
 31
0.0
  0
LINE
  5
9AAE
330
6A34
100
AcDbEntity
  8
SK3
 48
0.3
100
AcDbLine
 10
9.789903399282122
 20
-20.98076211353457
 30
0.0
 11
9.789903399282122
 21
-30.98076211353468
 31
0.0
  0
LINE
  5
9AAF
330
6A34
100
AcDbEntity
  8
SK3
 48
0.3
100
AcDbLine
 10
9.789903399282122
 20
-30.98076211353468
 30
0.0
 11
11.09244284443023
 21
-25.9807621135349
 31
0.0
  0
LINE
  5
9AB0
330
6A34
100
AcDbEntity
  8
SK3
 48
0.3
100
AcDbLine
 10
9.789903399282122
 20
-30.98076211353468
 30
0.0
 11
-0.2100966007179341
 21
-30.98076211353468
 31
0.0
  0
LINE
  5
9AB1
330
6A34
100
AcDbEntity
  8
SK3
 48
0.3
100
AcDbLine
 10
-0.2100966007179341
 20
-20.98076211353457
 30
0.0
 11
9.789903399282122
 21
-20.98076211353457
 31
0.0
  0
LINE
  5
9AB3
330
6A34
100
AcDbEntity
  8
SK3
 48
0.3
100
AcDbLine
 10
11.09244284443023
 20
-25.9807621135349
 30
0.0
 11
9.789903399282122
 21
-20.98076211353457
 31
0.0
  0
LINE
  5
9AB5
330
6A34
100
AcDbEntity
  8
1
100
AcDbLine
 10
-0.2100966007178773
 20
-39.00000000000085
 30
0.0
 11
-0.2100966007178773
 21
38.99999999999921
 31
0.0
  0
LINE
  5
9AB8
330
6A34
100
AcDbEntity
  8
SK1
100
AcDbLine
 10
-0.2100966007178773
 20
-18.5000000000001
 30
0.0
 11
-40.88626023734595
 21
-18.50000000000084
 31
0.0
  0
LINE
  5
9AB9
330
6A34
100
AcDbEntity
  8
SK1
100
AcDbLine
 10
-24.45801048508998
 20
-7.855955094493757
 30
0.0
 11
-30.3289210936535
 21
-7.855955094493757
 31
0.0
  0
LINE
  5
9ABA
330
6A34
100
AcDbEntity
  8
SK1
100
AcDbLine
 10
-40.88626023734595
 20
-18.50000000000084
 30
0.0
 11
-40.88626023734595
 21
18.49999999999938
 31
0.0
  0
ARC
  5
9ABB
330
6A34
100
AcDbEntity
  8
SK1
100
AcDbCircle
 10
-27.534910054723
 20
0.441782210968576
 30
0.0
 40
8.75550924139353
100
AcDbArc
 50
182.8922371611422
 51
251.3906104502299
  0
LINE
  5
9ABC
330
6A34
100
AcDbEntity
  8
SK1
100
AcDbLine
 10
-47.21009660071469
 20
-17.90582988179385
 30
0.0
 11
-47.21009660071469
 21
17.90582988179216
 31
0.0
  0
LINE
  5
9ABD
330
6A34
100
AcDbEntity
  8
SK1
100
AcDbLine
 10
-44.88626023734595
 20
-17.90582988179385
 30
0.0
 11
-44.88626023734595
 21
17.90582988179216
 31
0.0
  0
LINE
  5
9ABE
330
6A34
100
AcDbEntity
  8
SK1
100
AcDbLine
 10
-40.88626023734595
 20
-18.50000000000084
 30
0.0
 11
-44.88626023734595
 21
-17.90582988179385
 31
0.0
  0
ARC
  5
9ABF
330
6A34
100
AcDbEntity
  8
SK1
100
AcDbCircle
 10
-46.04817841903035
 20
-16.60478105201655
 30
0.0
 40
1.744357164801247
100
AcDbArc
 50
228.2331476390824
 51
311.7668523609175
  0
ARC
  5
9AC0
330
6A34
100
AcDbEntity
  8
SK1
100
AcDbCircle
 10
-40.92532949651543
 20
0.0722481357819973
 30
0.0
 40
18.27646032153398
100
AcDbArc
 50
334.2914752476693
 51
25.70852475232849
  0
LINE
  5
9AC1
330
6A34
100
AcDbEntity
  8
SK3
 48
0.3
100
AcDbLine
 10
-19.21009660071781
 20
18.49999999999887
 30
0.0
 11
-19.21009660071787
 21
-18.50000000000044
 31
0.0
  0
LINE
  5
9AC2
330
6A34
100
AcDbEntity
  8
SK3
 48
0.3
100
AcDbLine
 10
-15.21009660071782
 20
18.49999999999875
 30
0.0
 11
-15.21009660071793
 21
-18.50000000000039
 31
0.0
  0
LINE
  5
9AC3
330
6A34
100
AcDbEntity
  8
SK4
100
AcDbLine
 10
-17.21009660071787
 20
21.01943968152461
 30
0.0
 11
-17.21009660071787
 21
-19.81697501676324
 31
0.0
  0
ARC
  5
9AC4
330
6A34
100
AcDbEntity
  8
SK1
100
AcDbCircle
 10
-23.3934657893714
 20
-3.916091487353348
 30
0.0
 40
4.0
100
AcDbArc
 50
180.0000000000016
 51
243.4349488229198
1001
GENIUS_GENOBJ-N-FIL_13
1002
{
1000
OWNER
1000
GEN
1002
}
1001
GENIUS_GENODEF_13
1002
{
1000
HIER
1070
     0
1002
}
1002
{
1000
MANEDIT
1070
     0
1002
}
1002
{
1000
NOSEL
1070
     0
1002
}
1002
{
1000
BEHIND
1070
     0
1002
}
1002
{
1000
OTHER
1070
     0
1002
}
1002
{
1000
REACTOR
1002
}
  0
LINE
  5
9AC5
330
6A34
100
AcDbEntity
  8
SK1
100
AcDbLine
 10
-24.45801048508998
 20
-7.855955094493757
 30
0.0
 11
-25.18232017137139
 21
-7.493800251352973
 31
0.0
  0
LINE
  5
9AC6
330
6A34
100
AcDbEntity
  8
SK1
100
AcDbLine
 10
-3.117788868122106
 20
-18.5000000000001
 30
0.0
 11
-3.117788868121423
 21
18.49999999999858
 31
0.0
  0
LINE
  5
9AC7
330
6A34
100
AcDbEntity
  8
SK4
100
AcDbLine
 10
-0.2100966007178773
 20
-0.0000000000007887
 30
0.0
 11
-47.21009660071472
 21
-0.0000000000007887
 31
0.0
  0
LINE
  5
9AC8
330
6A34
100
AcDbEntity
  8
SK1
100
AcDbLine
 10
-0.2100966007178773
 20
18.49999999999841
 30
0.0
 11
-40.88626023734595
 21
18.49999999999915
 31
0.0
  0
LINE
  5
9AC9
330
6A34
100
AcDbEntity
  8
SK3
 48
0.3
100
AcDbLine
 10
-47.21009660071475
 20
-4.000000000000163
 30
0.0
 11
7.576109421015769
 21
-4.000000000000333
 31
0.0
  0
LINE
  5
9ACA
330
6A34
100
AcDbEntity
  8
SK3
 48
0.3
100
AcDbLine
 10
-47.21009660071475
 20
3.999999999999721
 30
0.0
 11
7.175681663803413
 21
3.999999999999721
 31
0.0
  0
LINE
  5
9ACB
330
6A34
100
AcDbEntity
  8
SK1
100
AcDbLine
 10
-24.45801048508981
 20
8.000451366057241
 30
0.0
 11
-30.32892109365407
 21
8.000451366057241
 31
0.0
  0
LINE
  5
9ACC
330
6A34
100
AcDbEntity
  8
SK1
100
AcDbLine
 10
-40.88626023734595
 20
18.49999999999915
 30
0.0
 11
-44.88626023734595
 21
17.90582988179216
 31
0.0
  0
ARC
  5
9ACD
330
6A34
100
AcDbEntity
  8
SK1
100
AcDbCircle
 10
-46.04817841903035
 20
16.60478105201497
 30
0.0
 40
1.744357164801247
100
AcDbArc
 50
48.23314763908244
 51
131.7668523609174
  0
ARC
  5
9ACE
330
6A34
100
AcDbEntity
  8
SK1
100
AcDbCircle
 10
-27.53491005472302
 20
-0.4417822109702671
 30
0.0
 40
8.755509241393484
100
AcDbArc
 50
108.60938954977
 51
177.107762838856
  0
LINE
  5
9ACF
330
6A34
100
AcDbEntity
  8
SK1
100
AcDbLine
 10
-27.39346578937138
 20
-3.916091487353518
 30
0.0
 11
-27.39346578937146
 21
3.916091487351912
 31
0.0
  0
CIRCLE
  5
9AD0
330
6A34
100
AcDbEntity
  8
SK1
100
AcDbCircle
 10
-17.2100966007179
 20
-0.0000000000007887
 30
0.0
 40
2.0
  0
ARC
  5
9AD1
330
6A34
100
AcDbEntity
  8
SK1
100
AcDbCircle
 10
-23.39346578937149
 20
3.916091487352082
 30
0.0
 40
4.0
100
AcDbArc
 50
116.565051177083
 51
180.0000000000016
1001
GENIUS_GENOBJ-N-FIL_13
1002
{
1000
OWNER
1000
GEN
1002
}
1001
GENIUS_GENODEF_13
1002
{
1000
HIER
1070
     0
1002
}
1002
{
1000
MANEDIT
1070
     0
1002
}
1002
{
1000
NOSEL
1070
     0
1002
}
1002
{
1000
BEHIND
1070
     0
1002
}
1002
{
1000
OTHER
1070
     0
1002
}
1002
{
1000
REACTOR
1002
}
  0
LINE
  5
9AD2
330
6A34
100
AcDbEntity
  8
SK1
100
AcDbLine
 10
-24.45801048509024
 20
7.855955094492379
 30
0.0
 11
-25.18232017137158
 21
7.493800251351538
 31
0.0
  0
TEXT
  5
9AD3
330
6A34
100
AcDbEntity
  8
SK6
100
AcDbText
 10
-37.85086444033647
 20
26.18370907458541
 30
0.0
 40
2.5
  1
modular 50
100
AcDbText
  0
LINE
  5
9AD4
330
6A34
100
AcDbEntity
  8
1
100
AcDbLine
 10
11.7900385111115
 20
38.99999999999887
 30
0.0
 11
-0.2100966007178773
 21
38.99999999999921
 31
0.0
  0
LINE
  5
9B68
330
6A34
100
AcDbEntity
  8
SK4
100
AcDbLine
 10
11.93350521845289
 20
-25.98076211354071
 30
0.0
 11
-3.022028985434818
 21
-25.98076211354455
 31
0.0
  0
LINE
  5
A8F5
330
6A34
100
AcDbEntity
  8
1
100
AcDbLine
 10
11.7900385111115
 20
-39.00000000000703
 30
0.0
 11
-0.2100966007081126
 21
-39.00000000001016
 31
0.0
  0
LINE
  5
AE36
330
6A34
100
AcDbEntity
  8
NOCUT
100
AcDbLine
 10
-0.2100966007178897
 20
-39.00000000000085
 30
0.0
 11
-0.2100966007178897
 21
0.0
 31
0.0
  0
LINE
  5
AE40
330
6A34
100
AcDbEntity
  8
NOCUT
100
AcDbLine
 10
11.79003851111128
 20
-39.00000000000704
 30
0.0
 11
-0.2100966007081126
 21
-39.00000000001017
 31
0.0
  0
LINE
  5
B2E8
330
6A34
100
AcDbEntity
  8
1
100
AcDbLine
 10
11.7900385111115
 20
38.99999999999887
 30
0.0
 11
11.7900385111115
 21
-39.00000000000703
 31
0.0
  0
TEXT
  5
B63C
330
6A34
100
AcDbEntity
  8
6
100
AcDbText
 10
141.1418971418965
 20
37.0907126353025
 30
0.0
 40
3.5
  1
BCKT130404
100
AcDbText
  0
LINE
  5
B63D
330
6A34
100
AcDbEntity
  8
NOCUT
100
AcDbLine
 10
136.7866981993658
 20
-30.77113434341757
 30
0.0
 11
136.7866981993658
 21
-0.0000000000007958
 31
0.0
  0
LINE
  5
B63E
330
6A34
100
AcDbEntity
  8
1
100
AcDbLine
 10
136.7866981993658
 20
27.01219587175591
 30
0.0
 11
136.7866981993658
 21
-30.77113434341757
 31
0.0
  0
TEXT
  5
B63F
330
6A34
100
AcDbEntity
  8
6
100
AcDbText
 10
190.843989922265
 20
-11.57642862935766
 30
0.0
 40
3.5
  1
Zeff.=3
 50
90.0
100
AcDbText
  0
LINE
  5
B647
330
6A34
100
AcDbEntity
  8
1
100
AcDbLine
 10
25.78990339928211
 20
-31.50000000000043
 30
0.0
 11
137.3899033992821
 21
-31.50000000000082
 31
0.0
  0
LINE
  5
B648
330
6A34
100
AcDbEntity
  8
1
100
AcDbLine
 10
136.7866981993658
 20
-30.77113434341757
 30
0.0
 11
14.34263331777481
 21
-30.77113434341702
 31
0.0
  0
LINE
  5
B649
330
6A34
100
AcDbEntity
  8
NOCUT
100
AcDbLine
 10
136.7866981993658
 20
-30.77113434341757
 30
0.0
 11
14.34263331777445
 21
-30.7711343434204
 31
0.0
  0
LINE
  5
B64B
330
6A34
100
AcDbEntity
  8
1
100
AcDbLine
 10
25.32788780867159
 20
-30.77113434341738
 30
0.0
 11
25.39562201164656
 21
-31.16739575182661
 31
0.0
  0
ARC
  5
B64C
330
6A34
100
AcDbEntity
  8
1
100
AcDbCircle
 10
25.78990339928211
 20
-31.10000000000058
 30
0.0
 40
0.4
100
AcDbArc
 50
189.6999999999983
 51
270.0
1001
GENIUS_GENODEF_13
1002
{
1000
HIER
1070
     0
1002
}
1002
{
1000
MANEDIT
1070
     0
1002
}
1002
{
1000
NOSEL
1070
     0
1002
}
1002
{
1000
BEHIND
1070
     0
1002
}
1002
{
1000
OTHER
1070
     0
1002
}
1002
{
1000
REACTOR
1002
}
1001
GENIUS_GENOBJ-N-FIL_13
1002
{
1000
OWNER
1000
GEN
1002
}
  0
LINE
  5
B64E
330
6A34
100
AcDbEntity
  8
1
100
AcDbLine
 10
137.789903399282
 20
-31.10000000000082
 30
0.0
 11
137.789903399282
 21
-29.50000000000085
 31
0.0
  0
LINE
  5
B64F
330
6A34
100
AcDbEntity
  8
SK1
100
AcDbLine
 10
137.3261340294332
 20
-31.50000000000082
 30
0.0
 11
138.2536727691309
 21
-31.50000000000082
 31
0.0
  0
LINE
  5
B650
330
6A34
100
AcDbEntity
  8
SK1
100
AcDbLine
 10
137.789903399282
 20
-31.96376936984964
 30
0.0
 11
137.789903399282
 21
-31.036230630152
 31
0.0
  0
LINE
  5
B651
330
6A34
100
AcDbEntity
  8
SK1
100
AcDbLine
 10
137.789903399282
 20
-31.96376936984964
 30
0.0
 11
137.789903399282
 21
-31.036230630152
 31
0.0
  0
CIRCLE
  5
B652
330
6A34
100
AcDbEntity
  8
SK1
100
AcDbCircle
 10
137.789903399282
 20
-31.50000000000082
 30
0.0
 40
0.4637693698488209
  0
ARC
  5
B653
330
6A34
100
AcDbEntity
  8
1
100
AcDbCircle
 10
137.3899033992821
 20
-31.10000000000082
 30
0.0
 40
0.4
100
AcDbArc
 50
270.0
 51
359.9999999999983
1001
GENIUS_GENOBJ-N-FIL_13
1002
{
1000
OWNER
1000
GEN
1002
}
1001
GENIUS_GENODEF_13
1002
{
1000
HIER
1070
     0
1002
}
1002
{
1000
MANEDIT
1070
     0
1002
}
1002
{
1000
NOSEL
1070
     0
1002
}
1002
{
1000
BEHIND
1070
     0
1002
}
1002
{
1000
OTHER
1070
     0
1002
}
1002
{
1000
REACTOR
1002
}
  0
LINE
  5
B654
330
6A34
100
AcDbEntity
  8
1
100
AcDbLine
 10
137.789903399282
 20
-29.50000000000082
 30
0.0
 11
137.0410132163494
 21
-28.50000000000085
 31
0.0
  0
LINE
  5
B655
330
6A34
100
AcDbEntity
  8
1
100
AcDbLine
 10
137.0410132163493
 20
-28.50000000000076
 30
0.0
 11
136.7866981993661
 21
-27.01219587175887
 31
0.0
  0
LINE
  5
B656
330
6A34
100
AcDbEntity
  8
NOCUT
100
AcDbLine
 10
-0.2100966007178897
 20
-0.0000000000007958
 30
0.0
 11
136.7866981993658
 21
-0.0000000000007958
 31
0.0
  0
LINE
  5
B658
330
6A34
100
AcDbEntity
  8
4
100
AcDbLine
 10
140.0448057179545
 20
-0.0000000000008242
 30
0.0
 11
-0.2100966007180602
 21
-0.0000000000003695
 31
0.0
  0
LINE
  5
B659
330
6A34
100
AcDbEntity
  8
1
100
AcDbLine
 10
115.7799033992821
 20
29.49999999999917
 30
0.0
 11
115.0310132163493
 21
28.49999999999917
 31
0.0
  0
LINE
  5
B65A
330
6A34
100
AcDbEntity
  8
1
100
AcDbLine
 10
102.7899033992821
 20
31.49999999999911
 30
0.0
 11
115.3799033992821
 21
31.49999999999917
 31
0.0
  0
LINE
  5
B65B
330
6A34
100
AcDbEntity
  8
1
100
AcDbLine
 10
124.7899033992821
 20
23.45999999999915
 30
0.0
 11
112.199903399282
 21
23.45999999999915
 31
0.0
  0
LINE
  5
B65C
330
6A34
100
AcDbEntity
  8
1
100
AcDbLine
 10
113.7899033992821
 20
31.49999999999911
 30
0.0
 11
126.3799033992821
 21
31.49999999999917
 31
0.0
  0
LINE
  5
B65D
330
6A34
100
AcDbEntity
  8
CUT
100
AcDbLine
 10
25.74772486149103
 20
31.49999999999917
 30
0.0
 11
137.3899033992821
 21
31.49999999999917
 31
0.0
  0
LINE
  5
B65E
330
6A34
100
AcDbEntity
  8
CUT
100
AcDbLine
 10
24.19990339928208
 20
23.45999999999909
 30
0.0
 11
135.8420819370731
 21
23.45999999999909
 31
0.0
  0
LINE
  5
B663
330
6A34
100
AcDbEntity
  8
1
100
AcDbLine
 10
102.7899033992821
 20
23.45999999999915
 30
0.0
 11
90.19990339928208
 21
23.45999999999915
 31
0.0
  0
LINE
  5
B664
330
6A34
100
AcDbEntity
  8
1
100
AcDbLine
 10
91.7899033992821
 20
31.49999999999911
 30
0.0
 11
104.3799033992821
 21
31.49999999999917
 31
0.0
  0
LINE
  5
B667
330
6A34
100
AcDbEntity
  8
1
100
AcDbLine
 10
25.2857092708805
 20
30.77113434341603
 30
0.0
 11
14.34263331777516
 21
30.77113434341603
 31
0.0
  0
LINE
  5
B669
330
6A34
100
AcDbEntity
  8
CUT
100
AcDbLine
 10
23.7999033992821
 20
25.45999999999915
 30
0.0
 11
24.54879358221487
 21
26.4599999999991
 31
0.0
  0
LINE
  5
B66C
330
6A34
100
AcDbEntity
  8
CUT
100
AcDbLine
 10
23.7999033992821
 20
23.85999999999913
 30
0.0
 11
23.7999033992821
 21
25.45999999999911
 31
0.0
  0
ARC
  5
B66D
330
6A34
100
AcDbEntity
  8
CUT
100
AcDbCircle
 10
24.19990339928208
 20
23.85999999999913
 30
0.0
 40
0.4
100
AcDbArc
 50
180.0
 51
270.0
1001
GENIUS_GENOBJ-N-FIL_13
1002
{
1000
OWNER
1000
GEN
1002
}
1001
GENIUS_GENODEF_13
1002
{
1000
HIER
1070
     0
1002
}
1002
{
1000
MANEDIT
1070
     0
1002
}
1002
{
1000
NOSEL
1070
     0
1002
}
1002
{
1000
BEHIND
1070
     0
1002
}
1002
{
1000
OTHER
1070
     0
1002
}
1002
{
1000
REACTOR
1002
}
  0
ARC
  5
B670
330
6A34
100
AcDbEntity
  8
CUT
100
AcDbCircle
 10
25.74772486149103
 20
31.09999999999919
 30
0.0
 40
0.4
100
AcDbArc
 50
90.0
 51
170.3000000000008
1001
GENIUS_GENODEF_13
1002
{
1000
HIER
1070
     0
1002
}
1002
{
1000
MANEDIT
1070
     0
1002
}
1002
{
1000
NOSEL
1070
     0
1002
}
1002
{
1000
BEHIND
1070
     0
1002
}
1002
{
1000
OTHER
1070
     0
1002
}
1002
{
1000
REACTOR
1002
}
1001
GENIUS_GENOBJ-N-FIL_13
1002
{
1000
OWNER
1000
GEN
1002
}
  0
LINE
  5
B671
330
6A34
100
AcDbEntity
  8
CUT
100
AcDbLine
 10
24.54879358221492
 20
26.45999999999921
 30
0.0
 11
25.35344347385549
 21
31.16739575182524
 31
0.0
  0
LINE
  5
B672
330
6A34
100
AcDbEntity
  8
1
100
AcDbLine
 10
104.0310132163492
 20
28.49999999999912
 30
0.0
 11
103.2263633247087
 21
23.79260424817309
 31
0.0
  0
LINE
  5
B673
330
6A34
100
AcDbEntity
  8
1
100
AcDbLine
 10
113.7899033992821
 20
23.45999999999915
 30
0.0
 11
101.199903399282
 21
23.45999999999915
 31
0.0
  0
CIRCLE
  5
B676
330
6A34
100
AcDbEntity
  8
1
100
AcDbCircle
 10
97.28990339928213
 20
27.47999999999914
 30
0.0
 40
2.749999999999976
  0
ARC
  5
B677
330
6A34
100
AcDbEntity
  8
1
100
AcDbCircle
 10
102.8320819370731
 20
23.85999999999907
 30
0.0
 40
0.4
100
AcDbArc
 50
270.0
 51
350.3000000000008
1001
GENIUS_GENODEF_13
1002
{
1000
HIER
1070
     0
1002
}
1002
{
1000
MANEDIT
1070
     0
1002
}
1002
{
1000
NOSEL
1070
     0
1002
}
1002
{
1000
BEHIND
1070
     0
1002
}
1002
{
1000
OTHER
1070
     0
1002
}
1002
{
1000
REACTOR
1002
}
1001
GENIUS_GENOBJ-N-FIL_13
1002
{
1000
OWNER
1000
GEN
1002
}
  0
CIRCLE
  5
B678
330
6A34
100
AcDbEntity
  8
1
100
AcDbCircle
 10
108.2899033992821
 20
27.47999999999914
 30
0.0
 40
2.749999999999976
  0
LINE
  5
B679
330
6A34
100
AcDbEntity
  8
1
100
AcDbLine
 10
104.7799033992821
 20
29.49999999999917
 30
0.0
 11
104.0310132163493
 21
28.49999999999917
 31
0.0
  0
ARC
  5
B67A
330
6A34
100
AcDbEntity
  8
1
100
AcDbCircle
 10
104.3799033992821
 20
31.09999999999914
 30
0.0
 40
0.4
100
AcDbArc
 50
0.0
 51
90.0
1001
GENIUS_GENOBJ-N-FIL_13
1002
{
1000
OWNER
1000
GEN
1002
}
1001
GENIUS_GENODEF_13
1002
{
1000
HIER
1070
     0
1002
}
1002
{
1000
MANEDIT
1070
     0
1002
}
1002
{
1000
NOSEL
1070
     0
1002
}
1002
{
1000
BEHIND
1070
     0
1002
}
1002
{
1000
OTHER
1070
     0
1002
}
1002
{
1000
REACTOR
1002
}
  0
LINE
  5
B67B
330
6A34
100
AcDbEntity
  8
1
100
AcDbLine
 10
104.7799033992821
 20
31.09999999999914
 30
0.0
 11
104.7799033992821
 21
29.49999999999917
 31
0.0
  0
LINE
  5
B67C
330
6A34
100
AcDbEntity
  8
1
100
AcDbLine
 10
115.0310132163492
 20
28.49999999999912
 30
0.0
 11
114.2263633247087
 21
23.79260424817309
 31
0.0
  0
ARC
  5
B67D
330
6A34
100
AcDbEntity
  8
1
100
AcDbCircle
 10
113.8320819370731
 20
23.85999999999907
 30
0.0
 40
0.4
100
AcDbArc
 50
270.0
 51
350.3000000000008
1001
GENIUS_GENODEF_13
1002
{
1000
HIER
1070
     0
1002
}
1002
{
1000
MANEDIT
1070
     0
1002
}
1002
{
1000
NOSEL
1070
     0
1002
}
1002
{
1000
BEHIND
1070
     0
1002
}
1002
{
1000
OTHER
1070
     0
1002
}
1002
{
1000
REACTOR
1002
}
1001
GENIUS_GENOBJ-N-FIL_13
1002
{
1000
OWNER
1000
GEN
1002
}
  0
LINE
  5
B67E
330
6A34
100
AcDbEntity
  8
1
100
AcDbLine
 10
124.7999033992821
 20
31.49999999999911
 30
0.0
 11
137.3899033992821
 21
31.49999999999917
 31
0.0
  0
LINE
  5
B67F
330
6A34
100
AcDbEntity
  8
1
100
AcDbLine
 10
135.799903399282
 20
23.45999999999915
 30
0.0
 11
123.209903399282
 21
23.45999999999915
 31
0.0
  0
CIRCLE
  5
B680
330
6A34
100
AcDbEntity
  8
1
100
AcDbCircle
 10
119.2899033992821
 20
27.47999999999914
 30
0.0
 40
2.749999999999976
  0
ARC
  5
B681
330
6A34
100
AcDbEntity
  8
1
100
AcDbCircle
 10
115.3799033992821
 20
31.09999999999914
 30
0.0
 40
0.4
100
AcDbArc
 50
0.0
 51
90.0
1001
GENIUS_GENOBJ-N-FIL_13
1002
{
1000
OWNER
1000
GEN
1002
}
1001
GENIUS_GENODEF_13
1002
{
1000
HIER
1070
     0
1002
}
1002
{
1000
MANEDIT
1070
     0
1002
}
1002
{
1000
NOSEL
1070
     0
1002
}
1002
{
1000
BEHIND
1070
     0
1002
}
1002
{
1000
OTHER
1070
     0
1002
}
1002
{
1000
REACTOR
1002
}
  0
LINE
  5
B682
330
6A34
100
AcDbEntity
  8
1
100
AcDbLine
 10
115.7799033992821
 20
31.09999999999914
 30
0.0
 11
115.7799033992821
 21
29.49999999999917
 31
0.0
  0
LINE
  5
B683
330
6A34
100
AcDbEntity
  8
1
100
AcDbLine
 10
126.0310132163492
 20
28.49999999999912
 30
0.0
 11
125.2263633247087
 21
23.79260424817309
 31
0.0
  0
ARC
  5
B684
330
6A34
100
AcDbEntity
  8
1
100
AcDbCircle
 10
124.8320819370731
 20
23.85999999999907
 30
0.0
 40
0.4
100
AcDbArc
 50
270.0
 51
350.3000000000008
1001
GENIUS_GENODEF_13
1002
{
1000
HIER
1070
     0
1002
}
1002
{
1000
MANEDIT
1070
     0
1002
}
1002
{
1000
NOSEL
1070
     0
1002
}
1002
{
1000
BEHIND
1070
     0
1002
}
1002
{
1000
OTHER
1070
     0
1002
}
1002
{
1000
REACTOR
1002
}
1001
GENIUS_GENOBJ-N-FIL_13
1002
{
1000
OWNER
1000
GEN
1002
}
  0
LINE
  5
B685
330
6A34
100
AcDbEntity
  8
1
100
AcDbLine
 10
126.7799033992821
 20
31.09999999999914
 30
0.0
 11
126.7799033992821
 21
29.49999999999917
 31
0.0
  0
ARC
  5
B686
330
6A34
100
AcDbEntity
  8
1
100
AcDbCircle
 10
126.3799033992821
 20
31.09999999999914
 30
0.0
 40
0.4
100
AcDbArc
 50
0.0
 51
90.0
1001
GENIUS_GENOBJ-N-FIL_13
1002
{
1000
OWNER
1000
GEN
1002
}
1001
GENIUS_GENODEF_13
1002
{
1000
HIER
1070
     0
1002
}
1002
{
1000
MANEDIT
1070
     0
1002
}
1002
{
1000
NOSEL
1070
     0
1002
}
1002
{
1000
BEHIND
1070
     0
1002
}
1002
{
1000
OTHER
1070
     0
1002
}
1002
{
1000
REACTOR
1002
}
  0
LINE
  5
B687
330
6A34
100
AcDbEntity
  8
1
100
AcDbLine
 10
126.7799033992821
 20
29.49999999999917
 30
0.0
 11
126.0310132163493
 21
28.49999999999917
 31
0.0
  0
CIRCLE
  5
B688
330
6A34
100
AcDbEntity
  8
1
100
AcDbCircle
 10
130.2999033992821
 20
27.47999999999914
 30
0.0
 40
2.749999999999976
  0
LINE
  5
B689
330
6A34
100
AcDbEntity
  8
CUT
100
AcDbLine
 10
137.0410132163492
 20
28.49999999999912
 30
0.0
 11
136.2363633247087
 21
23.79260424817309
 31
0.0
  0
LINE
  5
B68A
330
6A34
100
AcDbEntity
  8
1
100
AcDbLine
 10
137.0410132163492
 20
28.49999999999912
 30
0.0
 11
136.2363633247087
 21
23.79260424817309
 31
0.0
  0
ARC
  5
B68B
330
6A34
100
AcDbEntity
  8
CUT
100
AcDbCircle
 10
135.8420819370731
 20
23.85999999999907
 30
0.0
 40
0.4
100
AcDbArc
 50
270.0
 51
350.3000000000008
1001
GENIUS_GENODEF_13
1002
{
1000
HIER
1070
     0
1002
}
1002
{
1000
MANEDIT
1070
     0
1002
}
1002
{
1000
NOSEL
1070
     0
1002
}
1002
{
1000
BEHIND
1070
     0
1002
}
1002
{
1000
OTHER
1070
     0
1002
}
1002
{
1000
REACTOR
1002
}
1001
GENIUS_GENOBJ-N-FIL_13
1002
{
1000
OWNER
1000
GEN
1002
}
  0
ARC
  5
B68C
330
6A34
100
AcDbEntity
  8
1
100
AcDbCircle
 10
135.8420819370731
 20
23.85999999999907
 30
0.0
 40
0.4
100
AcDbArc
 50
270.0
 51
350.3000000000008
1001
GENIUS_GENODEF_13
1002
{
1000
HIER
1070
     0
1002
}
1002
{
1000
MANEDIT
1070
     0
1002
}
1002
{
1000
NOSEL
1070
     0
1002
}
1002
{
1000
BEHIND
1070
     0
1002
}
1002
{
1000
OTHER
1070
     0
1002
}
1002
{
1000
REACTOR
1002
}
1001
GENIUS_GENOBJ-N-FIL_13
1002
{
1000
OWNER
1000
GEN
1002
}
  0
ARC
  5
B68D
330
6A34
100
AcDbEntity
  8
CUT
100
AcDbCircle
 10
137.3899033992821
 20
31.09999999999914
 30
0.0
 40
0.4
100
AcDbArc
 50
0.0
 51
90.0
1001
GENIUS_GENOBJ-N-FIL_13
1002
{
1000
OWNER
1000
GEN
1002
}
1001
GENIUS_GENODEF_13
1002
{
1000
HIER
1070
     0
1002
}
1002
{
1000
MANEDIT
1070
     0
1002
}
1002
{
1000
NOSEL
1070
     0
1002
}
1002
{
1000
BEHIND
1070
     0
1002
}
1002
{
1000
OTHER
1070
     0
1002
}
1002
{
1000
REACTOR
1002
}
  0
ARC
  5
B68E
330
6A34
100
AcDbEntity
  8
1
100
AcDbCircle
 10
137.3899033992821
 20
31.09999999999914
 30
0.0
 40
0.4
100
AcDbArc
 50
0.0
 51
90.0
1001
GENIUS_GENOBJ-N-FIL_13
1002
{
1000
OWNER
1000
GEN
1002
}
1001
GENIUS_GENODEF_13
1002
{
1000
HIER
1070
     0
1002
}
1002
{
1000
MANEDIT
1070
     0
1002
}
1002
{
1000
NOSEL
1070
     0
1002
}
1002
{
1000
BEHIND
1070
     0
1002
}
1002
{
1000
OTHER
1070
     0
1002
}
1002
{
1000
REACTOR
1002
}
  0
LINE
  5
B68F
330
6A34
100
AcDbEntity
  8
CUT
100
AcDbLine
 10
137.789903399282
 20
31.09999999999914
 30
0.0
 11
137.789903399282
 21
29.49999999999917
 31
0.0
  0
LINE
  5
B690
330
6A34
100
AcDbEntity
  8
1
100
AcDbLine
 10
137.789903399282
 20
31.09999999999914
 30
0.0
 11
137.789903399282
 21
29.49999999999917
 31
0.0
  0
LINE
  5
B691
330
6A34
100
AcDbEntity
  8
SK1
100
AcDbLine
 10
137.789903399282
 20
31.96376936984799
 30
0.0
 11
137.789903399282
 21
31.03623063015036
 31
0.0
  0
LINE
  5
B692
330
6A34
100
AcDbEntity
  8
SK1
100
AcDbLine
 10
137.3261340294332
 20
31.49999999999917
 30
0.0
 11
138.2536727691309
 21
31.49999999999917
 31
0.0
  0
LINE
  5
B693
330
6A34
100
AcDbEntity
  8
SK1
100
AcDbLine
 10
137.789903399282
 20
31.96376936984799
 30
0.0
 11
137.789903399282
 21
31.03623063015036
 31
0.0
  0
CIRCLE
  5
B694
330
6A34
100
AcDbEntity
  8
SK1
100
AcDbCircle
 10
137.789903399282
 20
31.49999999999917
 30
0.0
 40
0.4637693698488209
  0
LINE
  5
B695
330
6A34
100
AcDbEntity
  8
CUT
100
AcDbLine
 10
137.789903399282
 20
29.49999999999917
 30
0.0
 11
137.0410132163493
 21
28.49999999999917
 31
0.0
  0
LINE
  5
B696
330
6A34
100
AcDbEntity
  8
1
100
AcDbLine
 10
137.789903399282
 20
29.49999999999917
 30
0.0
 11
137.0410132163493
 21
28.49999999999917
 31
0.0
  0
TEXT
  5
B697
330
6A34
100
AcDbEntity
  8
6
100
AcDbText
 10
184.6216882598668
 20
-8.52024416581365
 30
0.0
 40
3.5
  1
Z=30
 50
90.0
100
AcDbText
  0
TEXT
  5
B698
330
6A34
100
AcDbEntity
  8
6
100
AcDbText
 10
89.40643442818808
 20
-40.48445338905948
 30
0.0
 40
3.5
  1
22J3C063112Z5R00
100
AcDbText
  0
LINE
  5
B70F
330
6A34
100
AcDbEntity
  8
1
100
AcDbLine
 10
12.35024392159166
 20
32.59682285792072
 30
0.0
 11
11.7900385111115
 21
38.99999999999887
 31
0.0
  0
LINE
  5
B72A
330
6A34
100
AcDbEntity
  8
1
100
AcDbLine
 10
12.35024392159131
 20
-32.59682285792168
 30
0.0
 11
11.79003851111102
 21
-39.0000000000004
 31
0.0
  0
LINE
  5
B72B
330
6A34
100
AcDbEntity
  8
NOCUT
100
AcDbLine
 10
11.7900385111115
 20
-38.99999999999492
 30
0.0
 11
12.35024392159101
 21
-32.59682285792507
 31
0.0
  0
LINE
  5
B9A2
330
6A34
100
AcDbEntity
  8
1
100
AcDbLine
 10
80.78990339928211
 20
31.49999999999911
 30
0.0
 11
93.37990339928213
 21
31.49999999999917
 31
0.0
  0
CIRCLE
  5
B9A3
330
6A34
100
AcDbEntity
  8
1
100
AcDbCircle
 10
86.28990339928211
 20
27.47999999999914
 30
0.0
 40
2.749999999999976
  0
LINE
  5
B9A4
330
6A34
100
AcDbEntity
  8
1
100
AcDbLine
 10
91.7899033992821
 20
23.45999999999915
 30
0.0
 11
79.19990339928208
 21
23.45999999999915
 31
0.0
  0
LINE
  5
B9A6
330
6A34
100
AcDbEntity
  8
1
100
AcDbLine
 10
82.77990339928212
 20
31.09999999999914
 30
0.0
 11
82.77990339928212
 21
29.49999999999917
 31
0.0
  0
LINE
  5
B9A7
330
6A34
100
AcDbEntity
  8
1
100
AcDbLine
 10
80.78990339928211
 20
23.45999999999915
 30
0.0
 11
68.19990339928208
 21
23.45999999999915
 31
0.0
  0
CIRCLE
  5
B9AB
330
6A34
100
AcDbEntity
  8
1
100
AcDbCircle
 10
75.28990339928211
 20
27.47999999999914
 30
0.0
 40
2.749999999999976
  0
ARC
  5
B9AC
330
6A34
100
AcDbEntity
  8
1
100
AcDbCircle
 10
80.83208193707319
 20
23.85999999999907
 30
0.0
 40
0.4
100
AcDbArc
 50
270.0
 51
350.3000000000008
1001
GENIUS_GENODEF_13
1002
{
1000
HIER
1070
     0
1002
}
1002
{
1000
MANEDIT
1070
     0
1002
}
1002
{
1000
NOSEL
1070
     0
1002
}
1002
{
1000
BEHIND
1070
     0
1002
}
1002
{
1000
OTHER
1070
     0
1002
}
1002
{
1000
REACTOR
1002
}
1001
GENIUS_GENOBJ-N-FIL_13
1002
{
1000
OWNER
1000
GEN
1002
}
  0
LINE
  5
B9AD
330
6A34
100
AcDbEntity
  8
1
100
AcDbLine
 10
82.0310132163493
 20
28.49999999999912
 30
0.0
 11
81.22636332470873
 21
23.79260424817309
 31
0.0
  0
LINE
  5
B9AE
330
6A34
100
AcDbEntity
  8
1
100
AcDbLine
 10
82.77990339928212
 20
29.49999999999917
 30
0.0
 11
82.03101321634935
 21
28.49999999999917
 31
0.0
  0
LINE
  5
B9AF
330
6A34
100
AcDbEntity
  8
1
100
AcDbLine
 10
69.78990339928211
 20
31.49999999999911
 30
0.0
 11
82.37990339928215
 21
31.49999999999917
 31
0.0
  0
ARC
  5
B9B1
330
6A34
100
AcDbEntity
  8
1
100
AcDbCircle
 10
82.37990339928215
 20
31.09999999999914
 30
0.0
 40
0.4
100
AcDbArc
 50
0.0
 51
90.0
1001
GENIUS_GENOBJ-N-FIL_13
1002
{
1000
OWNER
1000
GEN
1002
}
1001
GENIUS_GENODEF_13
1002
{
1000
HIER
1070
     0
1002
}
1002
{
1000
MANEDIT
1070
     0
1002
}
1002
{
1000
NOSEL
1070
     0
1002
}
1002
{
1000
BEHIND
1070
     0
1002
}
1002
{
1000
OTHER
1070
     0
1002
}
1002
{
1000
REACTOR
1002
}
  0
LINE
  5
B9B2
330
6A34
100
AcDbEntity
  8
1
100
AcDbLine
 10
93.77990339928214
 20
31.09999999999914
 30
0.0
 11
93.77990339928214
 21
29.49999999999917
 31
0.0
  0
LINE
  5
B9B3
330
6A34
100
AcDbEntity
  8
1
100
AcDbLine
 10
104.7799033992821
 20
31.09999999999914
 30
0.0
 11
104.7799033992821
 21
29.49999999999917
 31
0.0
  0
CIRCLE
  5
B9B4
330
6A34
100
AcDbEntity
  8
1
100
AcDbCircle
 10
97.28990339928213
 20
27.47999999999914
 30
0.0
 40
2.749999999999976
  0
LINE
  5
B9B5
330
6A34
100
AcDbEntity
  8
1
100
AcDbLine
 10
102.7899033992821
 20
23.45999999999915
 30
0.0
 11
90.19990339928208
 21
23.45999999999915
 31
0.0
  0
ARC
  5
B9B6
330
6A34
100
AcDbEntity
  8
1
100
AcDbCircle
 10
91.8320819370732
 20
23.85999999999907
 30
0.0
 40
0.4
100
AcDbArc
 50
270.0
 51
350.3000000000008
1001
GENIUS_GENODEF_13
1002
{
1000
HIER
1070
     0
1002
}
1002
{
1000
MANEDIT
1070
     0
1002
}
1002
{
1000
NOSEL
1070
     0
1002
}
1002
{
1000
BEHIND
1070
     0
1002
}
1002
{
1000
OTHER
1070
     0
1002
}
1002
{
1000
REACTOR
1002
}
1001
GENIUS_GENOBJ-N-FIL_13
1002
{
1000
OWNER
1000
GEN
1002
}
  0
LINE
  5
B9B7
330
6A34
100
AcDbEntity
  8
1
100
AcDbLine
 10
93.0310132163493
 20
28.49999999999912
 30
0.0
 11
92.22636332470871
 21
23.79260424817309
 31
0.0
  0
LINE
  5
B9B8
330
6A34
100
AcDbEntity
  8
1
100
AcDbLine
 10
93.77990339928214
 20
29.49999999999917
 30
0.0
 11
93.03101321634935
 21
28.49999999999917
 31
0.0
  0
ARC
  5
B9B9
330
6A34
100
AcDbEntity
  8
1
100
AcDbCircle
 10
102.8320819370731
 20
23.85999999999907
 30
0.0
 40
0.4
100
AcDbArc
 50
270.0
 51
350.3000000000008
1001
GENIUS_GENODEF_13
1002
{
1000
HIER
1070
     0
1002
}
1002
{
1000
MANEDIT
1070
     0
1002
}
1002
{
1000
NOSEL
1070
     0
1002
}
1002
{
1000
BEHIND
1070
     0
1002
}
1002
{
1000
OTHER
1070
     0
1002
}
1002
{
1000
REACTOR
1002
}
1001
GENIUS_GENOBJ-N-FIL_13
1002
{
1000
OWNER
1000
GEN
1002
}
  0
LINE
  5
B9BA
330
6A34
100
AcDbEntity
  8
1
100
AcDbLine
 10
104.7799033992821
 20
29.49999999999917
 30
0.0
 11
104.0310132163493
 21
28.49999999999917
 31
0.0
  0
LINE
  5
B9BB
330
6A34
100
AcDbEntity
  8
1
100
AcDbLine
 10
104.0310132163492
 20
28.49999999999912
 30
0.0
 11
103.2263633247087
 21
23.79260424817309
 31
0.0
  0
LINE
  5
B9BC
330
6A34
100
AcDbEntity
  8
1
100
AcDbLine
 10
91.7899033992821
 20
31.49999999999911
 30
0.0
 11
104.3799033992821
 21
31.49999999999917
 31
0.0
  0
ARC
  5
B9BD
330
6A34
100
AcDbEntity
  8
1
100
AcDbCircle
 10
93.37990339928213
 20
31.09999999999914
 30
0.0
 40
0.4
100
AcDbArc
 50
0.0
 51
90.0
1001
GENIUS_GENOBJ-N-FIL_13
1002
{
1000
OWNER
1000
GEN
1002
}
1001
GENIUS_GENODEF_13
1002
{
1000
HIER
1070
     0
1002
}
1002
{
1000
MANEDIT
1070
     0
1002
}
1002
{
1000
NOSEL
1070
     0
1002
}
1002
{
1000
BEHIND
1070
     0
1002
}
1002
{
1000
OTHER
1070
     0
1002
}
1002
{
1000
REACTOR
1002
}
  0
ARC
  5
B9BE
330
6A34
100
AcDbEntity
  8
1
100
AcDbCircle
 10
104.3799033992821
 20
31.09999999999914
 30
0.0
 40
0.4
100
AcDbArc
 50
0.0
 51
90.0
1001
GENIUS_GENOBJ-N-FIL_13
1002
{
1000
OWNER
1000
GEN
1002
}
1001
GENIUS_GENODEF_13
1002
{
1000
HIER
1070
     0
1002
}
1002
{
1000
MANEDIT
1070
     0
1002
}
1002
{
1000
NOSEL
1070
     0
1002
}
1002
{
1000
BEHIND
1070
     0
1002
}
1002
{
1000
OTHER
1070
     0
1002
}
1002
{
1000
REACTOR
1002
}
  0
LINE
  5
B9C2
330
6A34
100
AcDbEntity
  8
4
100
AcDbLine
 10
60.19925630854872
 20
-0.0000000000044431
 30
0.0
 11
75.6620810229563
 21
16.06739223015229
 31
0.0
  0
DIMENSION
  5
BA8A
330
6A34
100
AcDbEntity
  8
2
100
AcDbDimension
  2
*D4
 10
-0.2100966007178751
 20
74.99999999999919
 30
0.0
 11
68.78990339928212
 21
78.24999999999917
 31
0.0
 70
    32
 71
     5
 42
-1.0
  3
AM_DIN
100
AcDbAlignedDimension
 13
137.789903399282
 23
31.49999999999917
 33
0.0
 14
-0.2100966007178773
 24
38.99999999999921
 34
0.0
 50
0.0000000000000114
100
AcDbRotatedDimension
  0
DIMENSION
  5
BAB2
330
6A34
100
AcDbEntity
  8
2
100
AcDbDimension
  2
*D5
 10
25.78990339928211
 20
44.99999999999917
 30
0.0
 11
81.7899033992821
 21
48.25034448818815
 31
0.0
 70
    32
 71
     5
 42
-1.0
  3
AM_DIN
100
AcDbAlignedDimension
 13
137.789903399282
 23
31.49999999999917
 33
0.0
 14
25.78990339928211
 24
31.49999999999911
 34
0.0
 50
0.0000000000000114
100
AcDbRotatedDimension
  0
DIMENSION
  5
BAFD
330
6A34
100
AcDbEntity
  8
2
100
AcDbDimension
  2
*D6
 10
13.78990339928212
 20
59.99999999999918
 30
0.0
 11
75.78990339928212
 21
63.25034448818815
 31
0.0
 70
    32
 71
     5
 42
-1.0
  3
AM_DIN
100
AcDbAlignedDimension
 13
137.789903399282
 23
31.49999999999917
 33
0.0
 14
13.78990339928212
 24
31.99143398272579
 34
0.0
 50
0.0000000000000114
100
AcDbRotatedDimension
  0
DIMENSION
  5
BB48
330
6A34
100
AcDbEntity
  8
2
100
AcDbDimension
  2
*D7
 10
177.019473746809
 20
-31.50000000000083
 30
0.0
 11
173.7694737468089
 21
-0.0000000000008062
 31
0.0
 70
    32
  1
%%c<>
 71
     5
 42
-1.0
  3
AM_DIN
100
AcDbAlignedDimension
 13
137.789903399282
 23
31.49999999999917
 33
0.0
 14
137.789903399282
 24
-31.50000000000082
 34
0.0
 50
90.00000000000005
100
AcDbRotatedDimension
  0
LINE
  5
BB7C
330
6A34
100
AcDbEntity
  8
4
100
AcDbLine
 10
60.19925630854872
 20
0.0000000000028515
 30
0.0
 11
75.6620810229563
 21
-16.06739223015388
 31
0.0
  0
LINE
  5
BB7D
330
6A34
100
AcDbEntity
  8
4
100
AcDbLine
 10
99.62671023918531
 20
-0.0000000000044431
 30
0.0
 11
115.0895349535929
 21
16.06739223015229
 31
0.0
  0
LINE
  5
BB7E
330
6A34
100
AcDbEntity
  8
4
100
AcDbLine
 10
99.62671023918531
 20
0.0000000000028515
 30
0.0
 11
115.0895349535929
 21
-16.06739223015388
 31
0.0
  0
CIRCLE
  5
BBDB
330
6A34
100
AcDbEntity
  8
1
100
AcDbCircle
 10
64.28990339928211
 20
27.47999999999914
 30
0.0
 40
2.749999999999976
  0
LINE
  5
BBDC
330
6A34
100
AcDbEntity
  8
1
100
AcDbLine
 10
58.78990339928211
 20
31.49999999999911
 30
0.0
 11
71.37990339928214
 21
31.49999999999917
 31
0.0
  0
LINE
  5
BBDD
330
6A34
100
AcDbEntity
  8
1
100
AcDbLine
 10
69.78990339928211
 20
23.45999999999915
 30
0.0
 11
57.19990339928207
 21
23.45999999999915
 31
0.0
  0
LINE
  5
BBDF
330
6A34
100
AcDbEntity
  8
1
100
AcDbLine
 10
60.03101321634929
 20
28.49999999999912
 30
0.0
 11
59.22636332470872
 21
23.79260424817309
 31
0.0
  0
LINE
  5
BBE0
330
6A34
100
AcDbEntity
  8
1
100
AcDbLine
 10
58.78990339928211
 20
23.45999999999915
 30
0.0
 11
46.19990339928206
 21
23.45999999999915
 31
0.0
  0
ARC
  5
BBE2
330
6A34
100
AcDbEntity
  8
1
100
AcDbCircle
 10
58.83208193707318
 20
23.85999999999907
 30
0.0
 40
0.4
100
AcDbArc
 50
270.0
 51
350.3000000000008
1001
GENIUS_GENODEF_13
1002
{
1000
HIER
1070
     0
1002
}
1002
{
1000
MANEDIT
1070
     0
1002
}
1002
{
1000
NOSEL
1070
     0
1002
}
1002
{
1000
BEHIND
1070
     0
1002
}
1002
{
1000
OTHER
1070
     0
1002
}
1002
{
1000
REACTOR
1002
}
1001
GENIUS_GENOBJ-N-FIL_13
1002
{
1000
OWNER
1000
GEN
1002
}
  0
LINE
  5
BBE3
330
6A34
100
AcDbEntity
  8
1
100
AcDbLine
 10
47.78990339928211
 20
31.49999999999911
 30
0.0
 11
60.37990339928214
 21
31.49999999999917
 31
0.0
  0
CIRCLE
  5
BBE7
330
6A34
100
AcDbEntity
  8
1
100
AcDbCircle
 10
53.28990339928211
 20
27.47999999999914
 30
0.0
 40
2.749999999999976
  0
LINE
  5
BBE8
330
6A34
100
AcDbEntity
  8
1
100
AcDbLine
 10
60.77990339928212
 20
31.09999999999914
 30
0.0
 11
60.77990339928212
 21
29.49999999999917
 31
0.0
  0
LINE
  5
BBE9
330
6A34
100
AcDbEntity
  8
1
100
AcDbLine
 10
60.77990339928212
 20
29.49999999999917
 30
0.0
 11
60.03101321634935
 21
28.49999999999917
 31
0.0
  0
ARC
  5
BBEA
330
6A34
100
AcDbEntity
  8
1
100
AcDbCircle
 10
60.37990339928214
 20
31.09999999999914
 30
0.0
 40
0.4
100
AcDbArc
 50
0.0
 51
90.0
1001
GENIUS_GENOBJ-N-FIL_13
1002
{
1000
OWNER
1000
GEN
1002
}
1001
GENIUS_GENODEF_13
1002
{
1000
HIER
1070
     0
1002
}
1002
{
1000
MANEDIT
1070
     0
1002
}
1002
{
1000
NOSEL
1070
     0
1002
}
1002
{
1000
BEHIND
1070
     0
1002
}
1002
{
1000
OTHER
1070
     0
1002
}
1002
{
1000
REACTOR
1002
}
  0
LINE
  5
BBEB
330
6A34
100
AcDbEntity
  8
1
100
AcDbLine
 10
71.03101321634929
 20
28.49999999999912
 30
0.0
 11
70.22636332470873
 21
23.79260424817309
 31
0.0
  0
LINE
  5
BBEC
330
6A34
100
AcDbEntity
  8
1
100
AcDbLine
 10
82.0310132163493
 20
28.49999999999912
 30
0.0
 11
81.22636332470873
 21
23.79260424817309
 31
0.0
  0
LINE
  5
BBED
330
6A34
100
AcDbEntity
  8
1
100
AcDbLine
 10
82.0310132163493
 20
28.49999999999912
 30
0.0
 11
81.22636332470873
 21
23.79260424817309
 31
0.0
  0
LINE
  5
BBEE
330
6A34
100
AcDbEntity
  8
1
100
AcDbLine
 10
80.78990339928211
 20
23.45999999999915
 30
0.0
 11
68.19990339928208
 21
23.45999999999915
 31
0.0
  0
LINE
  5
BBEF
330
6A34
100
AcDbEntity
  8
1
100
AcDbLine
 10
80.78990339928211
 20
23.45999999999915
 30
0.0
 11
68.19990339928208
 21
23.45999999999915
 31
0.0
  0
ARC
  5
BBF0
330
6A34
100
AcDbEntity
  8
1
100
AcDbCircle
 10
69.83208193707318
 20
23.85999999999907
 30
0.0
 40
0.4
100
AcDbArc
 50
270.0
 51
350.3000000000008
1001
GENIUS_GENODEF_13
1002
{
1000
HIER
1070
     0
1002
}
1002
{
1000
MANEDIT
1070
     0
1002
}
1002
{
1000
NOSEL
1070
     0
1002
}
1002
{
1000
BEHIND
1070
     0
1002
}
1002
{
1000
OTHER
1070
     0
1002
}
1002
{
1000
REACTOR
1002
}
1001
GENIUS_GENOBJ-N-FIL_13
1002
{
1000
OWNER
1000
GEN
1002
}
  0
ARC
  5
BBF1
330
6A34
100
AcDbEntity
  8
1
100
AcDbCircle
 10
80.83208193707319
 20
23.85999999999907
 30
0.0
 40
0.4
100
AcDbArc
 50
270.0
 51
350.3000000000008
1001
GENIUS_GENODEF_13
1002
{
1000
HIER
1070
     0
1002
}
1002
{
1000
MANEDIT
1070
     0
1002
}
1002
{
1000
NOSEL
1070
     0
1002
}
1002
{
1000
BEHIND
1070
     0
1002
}
1002
{
1000
OTHER
1070
     0
1002
}
1002
{
1000
REACTOR
1002
}
1001
GENIUS_GENOBJ-N-FIL_13
1002
{
1000
OWNER
1000
GEN
1002
}
  0
ARC
  5
BBF2
330
6A34
100
AcDbEntity
  8
1
100
AcDbCircle
 10
80.83208193707319
 20
23.85999999999907
 30
0.0
 40
0.4
100
AcDbArc
 50
270.0
 51
350.3000000000008
1001
GENIUS_GENODEF_13
1002
{
1000
HIER
1070
     0
1002
}
1002
{
1000
MANEDIT
1070
     0
1002
}
1002
{
1000
NOSEL
1070
     0
1002
}
1002
{
1000
BEHIND
1070
     0
1002
}
1002
{
1000
OTHER
1070
     0
1002
}
1002
{
1000
REACTOR
1002
}
1001
GENIUS_GENOBJ-N-FIL_13
1002
{
1000
OWNER
1000
GEN
1002
}
  0
CIRCLE
  5
BBF3
330
6A34
100
AcDbEntity
  8
1
100
AcDbCircle
 10
75.28990339928211
 20
27.47999999999914
 30
0.0
 40
2.749999999999976
  0
CIRCLE
  5
BBF4
330
6A34
100
AcDbEntity
  8
1
100
AcDbCircle
 10
75.28990339928211
 20
27.47999999999914
 30
0.0
 40
2.749999999999976
  0
LINE
  5
BBF5
330
6A34
100
AcDbEntity
  8
1
100
AcDbLine
 10
69.78990339928211
 20
31.49999999999911
 30
0.0
 11
82.37990339928215
 21
31.49999999999917
 31
0.0
  0
LINE
  5
BBF6
330
6A34
100
AcDbEntity
  8
1
100
AcDbLine
 10
69.78990339928211
 20
31.49999999999911
 30
0.0
 11
82.37990339928215
 21
31.49999999999917
 31
0.0
  0
LINE
  5
BBF7
330
6A34
100
AcDbEntity
  8
1
100
AcDbLine
 10
71.77990339928212
 20
31.09999999999914
 30
0.0
 11
71.77990339928212
 21
29.49999999999917
 31
0.0
  0
LINE
  5
BBF8
330
6A34
100
AcDbEntity
  8
1
100
AcDbLine
 10
71.77990339928212
 20
29.49999999999917
 30
0.0
 11
71.03101321634935
 21
28.49999999999917
 31
0.0
  0
ARC
  5
BBF9
330
6A34
100
AcDbEntity
  8
1
100
AcDbCircle
 10
71.37990339928214
 20
31.09999999999914
 30
0.0
 40
0.4
100
AcDbArc
 50
0.0
 51
90.0
1001
GENIUS_GENOBJ-N-FIL_13
1002
{
1000
OWNER
1000
GEN
1002
}
1001
GENIUS_GENODEF_13
1002
{
1000
HIER
1070
     0
1002
}
1002
{
1000
MANEDIT
1070
     0
1002
}
1002
{
1000
NOSEL
1070
     0
1002
}
1002
{
1000
BEHIND
1070
     0
1002
}
1002
{
1000
OTHER
1070
     0
1002
}
1002
{
1000
REACTOR
1002
}
  0
LINE
  5
BBFA
330
6A34
100
AcDbEntity
  8
1
100
AcDbLine
 10
82.77990339928212
 20
31.09999999999914
 30
0.0
 11
82.77990339928212
 21
29.49999999999917
 31
0.0
  0
LINE
  5
BBFB
330
6A34
100
AcDbEntity
  8
1
100
AcDbLine
 10
82.77990339928212
 20
31.09999999999914
 30
0.0
 11
82.77990339928212
 21
29.49999999999917
 31
0.0
  0
LINE
  5
BBFC
330
6A34
100
AcDbEntity
  8
1
100
AcDbLine
 10
82.77990339928212
 20
29.49999999999917
 30
0.0
 11
82.03101321634935
 21
28.49999999999917
 31
0.0
  0
LINE
  5
BBFD
330
6A34
100
AcDbEntity
  8
1
100
AcDbLine
 10
82.77990339928212
 20
29.49999999999917
 30
0.0
 11
82.03101321634935
 21
28.49999999999917
 31
0.0
  0
ARC
  5
BBFE
330
6A34
100
AcDbEntity
  8
1
100
AcDbCircle
 10
82.37990339928215
 20
31.09999999999914
 30
0.0
 40
0.4
100
AcDbArc
 50
0.0
 51
90.0
1001
GENIUS_GENOBJ-N-FIL_13
1002
{
1000
OWNER
1000
GEN
1002
}
1001
GENIUS_GENODEF_13
1002
{
1000
HIER
1070
     0
1002
}
1002
{
1000
MANEDIT
1070
     0
1002
}
1002
{
1000
NOSEL
1070
     0
1002
}
1002
{
1000
BEHIND
1070
     0
1002
}
1002
{
1000
OTHER
1070
     0
1002
}
1002
{
1000
REACTOR
1002
}
  0
ARC
  5
BBFF
330
6A34
100
AcDbEntity
  8
1
100
AcDbCircle
 10
82.37990339928215
 20
31.09999999999914
 30
0.0
 40
0.4
100
AcDbArc
 50
0.0
 51
90.0
1001
GENIUS_GENOBJ-N-FIL_13
1002
{
1000
OWNER
1000
GEN
1002
}
1001
GENIUS_GENODEF_13
1002
{
1000
HIER
1070
     0
1002
}
1002
{
1000
MANEDIT
1070
     0
1002
}
1002
{
1000
NOSEL
1070
     0
1002
}
1002
{
1000
BEHIND
1070
     0
1002
}
1002
{
1000
OTHER
1070
     0
1002
}
1002
{
1000
REACTOR
1002
}
  0
ARC
  5
BC19
330
6A34
100
AcDbEntity
  8
1
100
AcDbCircle
 10
143.1032120174912
 20
61.49546682922805
 30
0.0
 40
84.23436525473873
100
AcDbArc
 50
226.8907535805137
 51
265.69950317716
  0
ARC
  5
BC1A
330
6A34
100
AcDbEntity
  8
1
100
AcDbCircle
 10
131.1148098553624
 20
89.54504649151166
 30
0.0
 40
101.6506340280992
100
AcDbArc
 50
245.3697307187516
 51
273.198643407804
  0
ARC
  5
BC28
330
6A34
100
AcDbEntity
  8
1
100
AcDbCircle
 10
14.34263331777516
 20
32.77113434341603
 30
0.0
 40
2.0
100
AcDbArc
 50
185.0
 51
270.0
1001
GENIUS_GENOBJ-N-FIL_13
1002
{
1000
OWNER
1000
GEN
1002
}
1001
GENIUS_GENODEF_13
1002
{
1000
HIER
1070
     0
1002
}
1002
{
1000
MANEDIT
1070
     0
1002
}
1002
{
1000
NOSEL
1070
     0
1002
}
1002
{
1000
BEHIND
1070
     0
1002
}
1002
{
1000
OTHER
1070
     0
1002
}
1002
{
1000
REACTOR
1002
}
  0
ARC
  5
BC2C
330
6A34
100
AcDbEntity
  8
1
100
AcDbCircle
 10
14.3426333177748
 20
-32.77113434341702
 30
0.0
 40
2.0
100
AcDbArc
 50
89.99999999999969
 51
174.9999999999992
1001
GENIUS_GENOBJ-N-FIL_13
1002
{
1000
OWNER
1000
GEN
1002
}
1001
GENIUS_GENODEF_13
1002
{
1000
HIER
1070
     0
1002
}
1002
{
1000
MANEDIT
1070
     0
1002
}
1002
{
1000
NOSEL
1070
     0
1002
}
1002
{
1000
BEHIND
1070
     0
1002
}
1002
{
1000
OTHER
1070
     0
1002
}
1002
{
1000
REACTOR
1002
}
  0
ARC
  5
BC30
330
6A34
100
AcDbEntity
  8
NOCUT
100
AcDbCircle
 10
14.3426333177745
 20
-32.7711343434204
 30
0.0
 40
2.0
100
AcDbArc
 50
90.00000000000161
 51
174.9999999999992
1001
GENIUS_GENODEF_13
1002
{
1000
HIER
1070
     0
1002
}
1002
{
1000
MANEDIT
1070
     0
1002
}
1002
{
1000
NOSEL
1070
     0
1002
}
1002
{
1000
BEHIND
1070
     0
1002
}
1002
{
1000
OTHER
1070
     0
1002
}
1002
{
1000
REACTOR
1002
}
1001
GENIUS_GENOBJ-N-FIL_13
1002
{
1000
OWNER
1000
GEN
1002
}
  0
CIRCLE
  5
BC8F
330
6A34
100
AcDbEntity
  8
1
100
AcDbCircle
 10
42.28990339928211
 20
27.47999999999914
 30
0.0
 40
2.749999999999976
  0
LINE
  5
BC90
330
6A34
100
AcDbEntity
  8
1
100
AcDbLine
 10
36.78990339928211
 20
31.49999999999911
 30
0.0
 11
49.37990339928214
 21
31.49999999999917
 31
0.0
  0
LINE
  5
BC91
330
6A34
100
AcDbEntity
  8
1
100
AcDbLine
 10
47.78990339928211
 20
23.45999999999915
 30
0.0
 11
35.19990339928208
 21
23.45999999999915
 31
0.0
  0
LINE
  5
BC92
330
6A34
100
AcDbEntity
  8
1
100
AcDbLine
 10
23.7999033992821
 20
23.85999999999913
 30
0.0
 11
23.7999033992821
 21
25.45999999999911
 31
0.0
  0
LINE
  5
BC93
330
6A34
100
AcDbEntity
  8
1
100
AcDbLine
 10
38.03101321634929
 20
28.49999999999912
 30
0.0
 11
37.22636332470873
 21
23.79260424817309
 31
0.0
  0
LINE
  5
BC94
330
6A34
100
AcDbEntity
  8
1
100
AcDbLine
 10
36.78990339928211
 20
23.45999999999915
 30
0.0
 11
24.19990339928208
 21
23.45999999999915
 31
0.0
  0
ARC
  5
BC95
330
6A34
100
AcDbEntity
  8
1
100
AcDbCircle
 10
24.19990339928208
 20
23.85999999999913
 30
0.0
 40
0.4
100
AcDbArc
 50
180.0
 51
270.0
1001
GENIUS_GENOBJ-N-FIL_13
1002
{
1000
OWNER
1000
GEN
1002
}
1001
GENIUS_GENODEF_13
1002
{
1000
HIER
1070
     0
1002
}
1002
{
1000
MANEDIT
1070
     0
1002
}
1002
{
1000
NOSEL
1070
     0
1002
}
1002
{
1000
BEHIND
1070
     0
1002
}
1002
{
1000
OTHER
1070
     0
1002
}
1002
{
1000
REACTOR
1002
}
  0
ARC
  5
BC96
330
6A34
100
AcDbEntity
  8
1
100
AcDbCircle
 10
36.83208193707318
 20
23.85999999999907
 30
0.0
 40
0.4
100
AcDbArc
 50
270.0
 51
350.3000000000008
1001
GENIUS_GENODEF_13
1002
{
1000
HIER
1070
     0
1002
}
1002
{
1000
MANEDIT
1070
     0
1002
}
1002
{
1000
NOSEL
1070
     0
1002
}
1002
{
1000
BEHIND
1070
     0
1002
}
1002
{
1000
OTHER
1070
     0
1002
}
1002
{
1000
REACTOR
1002
}
1001
GENIUS_GENOBJ-N-FIL_13
1002
{
1000
OWNER
1000
GEN
1002
}
  0
LINE
  5
BC97
330
6A34
100
AcDbEntity
  8
1
100
AcDbLine
 10
25.78990339928211
 20
31.49999999999911
 30
0.0
 11
38.37990339928214
 21
31.49999999999917
 31
0.0
  0
LINE
  5
BC98
330
6A34
100
AcDbEntity
  8
1
100
AcDbLine
 10
24.54879358221492
 20
26.45999999999921
 30
0.0
 11
25.35344347385549
 21
31.16739575182524
 31
0.0
  0
LINE
  5
BC99
330
6A34
100
AcDbEntity
  8
1
100
AcDbLine
 10
23.7999033992821
 20
25.45999999999915
 30
0.0
 11
24.54879358221487
 21
26.4599999999991
 31
0.0
  0
ARC
  5
BC9A
330
6A34
100
AcDbEntity
  8
1
100
AcDbCircle
 10
25.74772486149103
 20
31.09999999999919
 30
0.0
 40
0.4
100
AcDbArc
 50
90.0
 51
170.3000000000008
1001
GENIUS_GENODEF_13
1002
{
1000
HIER
1070
     0
1002
}
1002
{
1000
MANEDIT
1070
     0
1002
}
1002
{
1000
NOSEL
1070
     0
1002
}
1002
{
1000
BEHIND
1070
     0
1002
}
1002
{
1000
OTHER
1070
     0
1002
}
1002
{
1000
REACTOR
1002
}
1001
GENIUS_GENOBJ-N-FIL_13
1002
{
1000
OWNER
1000
GEN
1002
}
  0
CIRCLE
  5
BC9B
330
6A34
100
AcDbEntity
  8
1
100
AcDbCircle
 10
31.28990339928211
 20
27.47999999999914
 30
0.0
 40
2.749999999999976
  0
LINE
  5
BC9C
330
6A34
100
AcDbEntity
  8
1
100
AcDbLine
 10
38.77990339928212
 20
31.09999999999914
 30
0.0
 11
38.77990339928212
 21
29.49999999999917
 31
0.0
  0
LINE
  5
BC9D
330
6A34
100
AcDbEntity
  8
1
100
AcDbLine
 10
38.77990339928212
 20
29.49999999999917
 30
0.0
 11
38.03101321634935
 21
28.49999999999917
 31
0.0
  0
ARC
  5
BC9E
330
6A34
100
AcDbEntity
  8
1
100
AcDbCircle
 10
38.37990339928214
 20
31.09999999999914
 30
0.0
 40
0.4
100
AcDbArc
 50
0.0
 51
90.0
1001
GENIUS_GENOBJ-N-FIL_13
1002
{
1000
OWNER
1000
GEN
1002
}
1001
GENIUS_GENODEF_13
1002
{
1000
HIER
1070
     0
1002
}
1002
{
1000
MANEDIT
1070
     0
1002
}
1002
{
1000
NOSEL
1070
     0
1002
}
1002
{
1000
BEHIND
1070
     0
1002
}
1002
{
1000
OTHER
1070
     0
1002
}
1002
{
1000
REACTOR
1002
}
  0
LINE
  5
BC9F
330
6A34
100
AcDbEntity
  8
1
100
AcDbLine
 10
71.03101321634929
 20
28.49999999999912
 30
0.0
 11
70.22636332470873
 21
23.79260424817309
 31
0.0
  0
LINE
  5
BCA0
330
6A34
100
AcDbEntity
  8
1
100
AcDbLine
 10
60.03101321634929
 20
28.49999999999912
 30
0.0
 11
59.22636332470872
 21
23.79260424817309
 31
0.0
  0
LINE
  5
BCA1
330
6A34
100
AcDbEntity
  8
1
100
AcDbLine
 10
49.03101321634928
 20
28.49999999999912
 30
0.0
 11
48.22636332470873
 21
23.79260424817309
 31
0.0
  0
LINE
  5
BCA2
330
6A34
100
AcDbEntity
  8
1
100
AcDbLine
 10
60.03101321634929
 20
28.49999999999912
 30
0.0
 11
59.22636332470872
 21
23.79260424817309
 31
0.0
  0
LINE
  5
BCA3
330
6A34
100
AcDbEntity
  8
1
100
AcDbLine
 10
60.03101321634929
 20
28.49999999999912
 30
0.0
 11
59.22636332470872
 21
23.79260424817309
 31
0.0
  0
LINE
  5
BCA4
330
6A34
100
AcDbEntity
  8
1
100
AcDbLine
 10
69.78990339928211
 20
23.45999999999915
 30
0.0
 11
57.19990339928207
 21
23.45999999999915
 31
0.0
  0
LINE
  5
BCA5
330
6A34
100
AcDbEntity
  8
1
100
AcDbLine
 10
58.78990339928211
 20
23.45999999999915
 30
0.0
 11
46.19990339928206
 21
23.45999999999915
 31
0.0
  0
LINE
  5
BCA6
330
6A34
100
AcDbEntity
  8
1
100
AcDbLine
 10
58.78990339928211
 20
23.45999999999915
 30
0.0
 11
46.19990339928206
 21
23.45999999999915
 31
0.0
  0
LINE
  5
BCA7
330
6A34
100
AcDbEntity
  8
1
100
AcDbLine
 10
58.78990339928211
 20
23.45999999999915
 30
0.0
 11
46.19990339928206
 21
23.45999999999915
 31
0.0
  0
ARC
  5
BCA8
330
6A34
100
AcDbEntity
  8
1
100
AcDbCircle
 10
47.83208193707318
 20
23.85999999999907
 30
0.0
 40
0.4
100
AcDbArc
 50
270.0
 51
350.3000000000008
1001
GENIUS_GENODEF_13
1002
{
1000
HIER
1070
     0
1002
}
1002
{
1000
MANEDIT
1070
     0
1002
}
1002
{
1000
NOSEL
1070
     0
1002
}
1002
{
1000
BEHIND
1070
     0
1002
}
1002
{
1000
OTHER
1070
     0
1002
}
1002
{
1000
REACTOR
1002
}
1001
GENIUS_GENOBJ-N-FIL_13
1002
{
1000
OWNER
1000
GEN
1002
}
  0
ARC
  5
BCA9
330
6A34
100
AcDbEntity
  8
1
100
AcDbCircle
 10
58.83208193707318
 20
23.85999999999907
 30
0.0
 40
0.4
100
AcDbArc
 50
270.0
 51
350.3000000000008
1001
GENIUS_GENODEF_13
1002
{
1000
HIER
1070
     0
1002
}
1002
{
1000
MANEDIT
1070
     0
1002
}
1002
{
1000
NOSEL
1070
     0
1002
}
1002
{
1000
BEHIND
1070
     0
1002
}
1002
{
1000
OTHER
1070
     0
1002
}
1002
{
1000
REACTOR
1002
}
1001
GENIUS_GENOBJ-N-FIL_13
1002
{
1000
OWNER
1000
GEN
1002
}
  0
ARC
  5
BCAA
330
6A34
100
AcDbEntity
  8
1
100
AcDbCircle
 10
58.83208193707318
 20
23.85999999999907
 30
0.0
 40
0.4
100
AcDbArc
 50
270.0
 51
350.3000000000008
1001
GENIUS_GENODEF_13
1002
{
1000
HIER
1070
     0
1002
}
1002
{
1000
MANEDIT
1070
     0
1002
}
1002
{
1000
NOSEL
1070
     0
1002
}
1002
{
1000
BEHIND
1070
     0
1002
}
1002
{
1000
OTHER
1070
     0
1002
}
1002
{
1000
REACTOR
1002
}
1001
GENIUS_GENOBJ-N-FIL_13
1002
{
1000
OWNER
1000
GEN
1002
}
  0
ARC
  5
BCAB
330
6A34
100
AcDbEntity
  8
1
100
AcDbCircle
 10
58.83208193707318
 20
23.85999999999907
 30
0.0
 40
0.4
100
AcDbArc
 50
270.0
 51
350.3000000000008
1001
GENIUS_GENODEF_13
1002
{
1000
HIER
1070
     0
1002
}
1002
{
1000
MANEDIT
1070
     0
1002
}
1002
{
1000
NOSEL
1070
     0
1002
}
1002
{
1000
BEHIND
1070
     0
1002
}
1002
{
1000
OTHER
1070
     0
1002
}
1002
{
1000
REACTOR
1002
}
1001
GENIUS_GENOBJ-N-FIL_13
1002
{
1000
OWNER
1000
GEN
1002
}
  0
ARC
  5
BCAC
330
6A34
100
AcDbEntity
  8
1
100
AcDbCircle
 10
69.83208193707318
 20
23.85999999999907
 30
0.0
 40
0.4
100
AcDbArc
 50
270.0
 51
350.3000000000008
1001
GENIUS_GENODEF_13
1002
{
1000
HIER
1070
     0
1002
}
1002
{
1000
MANEDIT
1070
     0
1002
}
1002
{
1000
NOSEL
1070
     0
1002
}
1002
{
1000
BEHIND
1070
     0
1002
}
1002
{
1000
OTHER
1070
     0
1002
}
1002
{
1000
REACTOR
1002
}
1001
GENIUS_GENOBJ-N-FIL_13
1002
{
1000
OWNER
1000
GEN
1002
}
  0
LINE
  5
BCAD
330
6A34
100
AcDbEntity
  8
1
100
AcDbLine
 10
58.78990339928211
 20
31.49999999999911
 30
0.0
 11
71.37990339928214
 21
31.49999999999917
 31
0.0
  0
CIRCLE
  5
BCAE
330
6A34
100
AcDbEntity
  8
1
100
AcDbCircle
 10
64.28990339928211
 20
27.47999999999914
 30
0.0
 40
2.749999999999976
  0
CIRCLE
  5
BCAF
330
6A34
100
AcDbEntity
  8
1
100
AcDbCircle
 10
53.28990339928211
 20
27.47999999999914
 30
0.0
 40
2.749999999999976
  0
CIRCLE
  5
BCB0
330
6A34
100
AcDbEntity
  8
1
100
AcDbCircle
 10
53.28990339928211
 20
27.47999999999914
 30
0.0
 40
2.749999999999976
  0
CIRCLE
  5
BCB1
330
6A34
100
AcDbEntity
  8
1
100
AcDbCircle
 10
53.28990339928211
 20
27.47999999999914
 30
0.0
 40
2.749999999999976
  0
LINE
  5
BCB2
330
6A34
100
AcDbEntity
  8
1
100
AcDbLine
 10
47.78990339928211
 20
31.49999999999911
 30
0.0
 11
60.37990339928214
 21
31.49999999999917
 31
0.0
  0
LINE
  5
BCB3
330
6A34
100
AcDbEntity
  8
1
100
AcDbLine
 10
47.78990339928211
 20
31.49999999999911
 30
0.0
 11
60.37990339928214
 21
31.49999999999917
 31
0.0
  0
LINE
  5
BCB4
330
6A34
100
AcDbEntity
  8
1
100
AcDbLine
 10
47.78990339928211
 20
31.49999999999911
 30
0.0
 11
60.37990339928214
 21
31.49999999999917
 31
0.0
  0
LINE
  5
BCB5
330
6A34
100
AcDbEntity
  8
1
100
AcDbLine
 10
49.77990339928211
 20
31.09999999999914
 30
0.0
 11
49.77990339928211
 21
29.49999999999917
 31
0.0
  0
LINE
  5
BCB6
330
6A34
100
AcDbEntity
  8
1
100
AcDbLine
 10
49.77990339928211
 20
29.49999999999917
 30
0.0
 11
49.03101321634935
 21
28.49999999999917
 31
0.0
  0
ARC
  5
BCB7
330
6A34
100
AcDbEntity
  8
1
100
AcDbCircle
 10
49.37990339928214
 20
31.09999999999914
 30
0.0
 40
0.4
100
AcDbArc
 50
0.0
 51
90.0
1001
GENIUS_GENOBJ-N-FIL_13
1002
{
1000
OWNER
1000
GEN
1002
}
1001
GENIUS_GENODEF_13
1002
{
1000
HIER
1070
     0
1002
}
1002
{
1000
MANEDIT
1070
     0
1002
}
1002
{
1000
NOSEL
1070
     0
1002
}
1002
{
1000
BEHIND
1070
     0
1002
}
1002
{
1000
OTHER
1070
     0
1002
}
1002
{
1000
REACTOR
1002
}
  0
LINE
  5
BCB8
330
6A34
100
AcDbEntity
  8
1
100
AcDbLine
 10
60.77990339928212
 20
31.09999999999914
 30
0.0
 11
60.77990339928212
 21
29.49999999999917
 31
0.0
  0
LINE
  5
BCB9
330
6A34
100
AcDbEntity
  8
1
100
AcDbLine
 10
60.77990339928212
 20
31.09999999999914
 30
0.0
 11
60.77990339928212
 21
29.49999999999917
 31
0.0
  0
LINE
  5
BCBA
330
6A34
100
AcDbEntity
  8
1
100
AcDbLine
 10
60.77990339928212
 20
31.09999999999914
 30
0.0
 11
60.77990339928212
 21
29.49999999999917
 31
0.0
  0
LINE
  5
BCBB
330
6A34
100
AcDbEntity
  8
1
100
AcDbLine
 10
60.77990339928212
 20
29.49999999999917
 30
0.0
 11
60.03101321634935
 21
28.49999999999917
 31
0.0
  0
LINE
  5
BCBC
330
6A34
100
AcDbEntity
  8
1
100
AcDbLine
 10
60.77990339928212
 20
29.49999999999917
 30
0.0
 11
60.03101321634935
 21
28.49999999999917
 31
0.0
  0
LINE
  5
BCBD
330
6A34
100
AcDbEntity
  8
1
100
AcDbLine
 10
60.77990339928212
 20
29.49999999999917
 30
0.0
 11
60.03101321634935
 21
28.49999999999917
 31
0.0
  0
ARC
  5
BCBE
330
6A34
100
AcDbEntity
  8
1
100
AcDbCircle
 10
60.37990339928214
 20
31.09999999999914
 30
0.0
 40
0.4
100
AcDbArc
 50
0.0
 51
90.0
1001
GENIUS_GENOBJ-N-FIL_13
1002
{
1000
OWNER
1000
GEN
1002
}
1001
GENIUS_GENODEF_13
1002
{
1000
HIER
1070
     0
1002
}
1002
{
1000
MANEDIT
1070
     0
1002
}
1002
{
1000
NOSEL
1070
     0
1002
}
1002
{
1000
BEHIND
1070
     0
1002
}
1002
{
1000
OTHER
1070
     0
1002
}
1002
{
1000
REACTOR
1002
}
  0
ARC
  5
BCBF
330
6A34
100
AcDbEntity
  8
1
100
AcDbCircle
 10
60.37990339928214
 20
31.09999999999914
 30
0.0
 40
0.4
100
AcDbArc
 50
0.0
 51
90.0
1001
GENIUS_GENOBJ-N-FIL_13
1002
{
1000
OWNER
1000
GEN
1002
}
1001
GENIUS_GENODEF_13
1002
{
1000
HIER
1070
     0
1002
}
1002
{
1000
MANEDIT
1070
     0
1002
}
1002
{
1000
NOSEL
1070
     0
1002
}
1002
{
1000
BEHIND
1070
     0
1002
}
1002
{
1000
OTHER
1070
     0
1002
}
1002
{
1000
REACTOR
1002
}
  0
ARC
  5
BCC0
330
6A34
100
AcDbEntity
  8
1
100
AcDbCircle
 10
60.37990339928214
 20
31.09999999999914
 30
0.0
 40
0.4
100
AcDbArc
 50
0.0
 51
90.0
1001
GENIUS_GENOBJ-N-FIL_13
1002
{
1000
OWNER
1000
GEN
1002
}
1001
GENIUS_GENODEF_13
1002
{
1000
HIER
1070
     0
1002
}
1002
{
1000
MANEDIT
1070
     0
1002
}
1002
{
1000
NOSEL
1070
     0
1002
}
1002
{
1000
BEHIND
1070
     0
1002
}
1002
{
1000
OTHER
1070
     0
1002
}
1002
{
1000
REACTOR
1002
}
  0
LINE
  5
BCC1
330
6A34
100
AcDbEntity
  8
1
100
AcDbLine
 10
71.77990339928212
 20
31.09999999999914
 30
0.0
 11
71.77990339928212
 21
29.49999999999917
 31
0.0
  0
LINE
  5
BCC2
330
6A34
100
AcDbEntity
  8
1
100
AcDbLine
 10
71.77990339928212
 20
29.49999999999917
 30
0.0
 11
71.03101321634935
 21
28.49999999999917
 31
0.0
  0
ARC
  5
BCC3
330
6A34
100
AcDbEntity
  8
1
100
AcDbCircle
 10
71.37990339928214
 20
31.09999999999914
 30
0.0
 40
0.4
100
AcDbArc
 50
0.0
 51
90.0
1001
GENIUS_GENOBJ-N-FIL_13
1002
{
1000
OWNER
1000
GEN
1002
}
1001
GENIUS_GENODEF_13
1002
{
1000
HIER
1070
     0
1002
}
1002
{
1000
MANEDIT
1070
     0
1002
}
1002
{
1000
NOSEL
1070
     0
1002
}
1002
{
1000
BEHIND
1070
     0
1002
}
1002
{
1000
OTHER
1070
     0
1002
}
1002
{
1000
REACTOR
1002
}
  0
ARC
  5
BCCC
330
6A34
100
AcDbEntity
  8
1
100
AcDbCircle
 10
129.2647004012954
 20
-197.4912242060991
 30
0.0
 40
214.9141775823934
100
AcDbArc
 50
87.99423764288974
 51
106.0563938797932
  0
ARC
  5
BCCD
330
6A34
100
AcDbEntity
  8
1
100
AcDbCircle
 10
18.28546133891754
 20
-98.7427893288571
 30
0.0
 40
119.469925835489
100
AcDbArc
 50
55.74162727059085
 51
79.22420970701042
  0
ARC
  5
BCD0
330
6A34
100
AcDbEntity
  8
1
100
AcDbCircle
 10
29.90997074126747
 20
-63.90741818763043
 30
0.0
 40
83.22020299929308
100
AcDbArc
 50
82.60420855223744
 51
96.93774493058469
  0
ARC
  5
BCD1
330
6A34
100
AcDbEntity
  8
1
100
AcDbCircle
 10
25.229311542207
 20
24.75675929217307
 30
0.0
 40
8.092987777157127
100
AcDbArc
 50
131.9988037428694
 51
228.4148601485624
  0
ARC
  5
BCDA
330
6A34
100
AcDbEntity
  8
1
100
AcDbCircle
 10
142.3931493679801
 20
112.9478440082753
 30
0.0
 40
150.1951176104464
100
AcDbArc
 50
228.764567937835
 51
253.1134552487723
  0
ARC
  5
BCDB
330
6A34
100
AcDbEntity
  8
1
100
AcDbCircle
 10
124.6432896147544
 20
149.4266527951351
 30
0.0
 40
183.2504172883358
100
AcDbArc
 50
240.3592716941137
 51
259.5273408143882
  0
ARC
  5
BCDC
330
6A34
100
AcDbEntity
  8
1
100
AcDbCircle
 10
30.3422156340943
 20
-18.79437360196871
 30
0.0
 40
14.7062791190534
100
AcDbArc
 50
167.7651820285021
 51
234.5278570096827
  0
ARC
  5
BCDD
330
6A34
100
AcDbEntity
  8
1
100
AcDbCircle
 10
36.24126342082375
 20
-19.31378844604866
 30
0.0
 40
20.59480628619362
100
AcDbArc
 50
69.68515030734784
 51
169.8313050297671
  0
ARC
  5
BCDE
330
6A34
100
AcDbEntity
  8
1
100
AcDbCircle
 10
28.62651812895901
 20
-28.62564187332419
 30
0.0
 40
19.53907616088138
100
AcDbArc
 50
73.99152079844544
 51
128.1526960854735
  0
ARC
  5
BCDF
330
6A34
100
AcDbEntity
  8
1
100
AcDbCircle
 10
27.64263108598326
 20
88.06572685090227
 30
0.0
 40
119.1528725659377
100
AcDbArc
 50
274.1738108000888
 51
289.196253172522
  0
LINE
  5
BCE7
330
6A34
100
AcDbEntity
  8
4
100
AcDbLine
 10
18.09416103667449
 20
-0.0000000000041874
 30
0.0
 11
33.55698575108206
 21
16.06739223015255
 31
0.0
  0
LINE
  5
BCE8
330
6A34
100
AcDbEntity
  8
4
100
AcDbLine
 10
18.09416103667449
 20
0.0000000000031072
 30
0.0
 11
33.55698575108206
 21
-16.06739223015362
 31
0.0
  0
ENDSEC
  0
SECTION
  2
OBJECTS
  0
DICTIONARY
  5
6A22
330
0
100
AcDbDictionary
281
     1
  3
ACAD_COLOR
350
BD2C
  3
ACAD_GROUP
350
6A23
  3
ACAD_LAYOUT
350
6A2F
  3
ACAD_MATERIAL
350
BD2B
  3
ACAD_MLINESTYLE
350
6A2C
  3
ACAD_PLOTSETTINGS
350
6A2E
  3
ACAD_PLOTSTYLENAME
350
6A24
  3
ACAD_TABLESTYLE
350
BD2D
  3
ACDBHEADERROUNDTRIPXREC
350
BD39
  3
ACDBVARIABLEDICTIONARY
350
6B78
  3
ACMDICTIONARY
350
6B39
  3
AMG
350
6B22
  3
AMGSNAPSETTINGS
350
6B59
  3
ASE_INDEX_DICTIONARY
350
89F6
  3
DWGPROPS
350
BD38
  0
DICTIONARY
  5
6B62
330
6A34
100
AcDbDictionary
280
     1
281
     1
  3
ACAD_INDEX
360
6B63
  3
ACAD_LAYOUTSELFREF
360
BD27
  0
DICTIONARY
  5
BD25
330
6A30
100
AcDbDictionary
280
     1
281
     1
  3
ACAD_LAYOUTSELFREF
360
BD26
  0
DICTIONARY
  5
BD2C
102
{ACAD_REACTORS
330
6A22
102
}
330
6A22
100
AcDbDictionary
281
     1
  0
DICTIONARY
  5
6A23
102
{ACAD_REACTORS
330
6A22
102
}
330
6A22
100
AcDbDictionary
281
     1
  0
DICTIONARY
  5
6A2F
102
{ACAD_REACTORS
330
6A22
102
}
330
6A22
100
AcDbDictionary
281
     1
  3
Layout1
350
BD30
  3
Model
350
BD2F
  0
DICTIONARY
  5
BD2B
102
{ACAD_REACTORS
330
6A22
102
}
330
6A22
100
AcDbDictionary
281
     1
  0
DICTIONARY
  5
6A2C
102
{ACAD_REACTORS
330
6A22
102
}
330
6A22
100
AcDbDictionary
281
     1
  3
STANDARD
350
6A2D
  0
DICTIONARY
  5
6A2E
102
{ACAD_REACTORS
330
6A22
102
}
330
6A22
100
AcDbDictionary
281
     1
  0
ACDBDICTIONARYWDFLT
  5
6A24
102
{ACAD_REACTORS
330
6A22
102
}
330
6A22
100
AcDbDictionary
281
     1
  3
Normal
350
6A25
100
AcDbDictionaryWithDefault
340
6A25
  0
DICTIONARY
  5
BD2D
102
{ACAD_REACTORS
330
6A22
102
}
330
6A22
100
AcDbDictionary
281
     1
  3
Standard
350
BD2E
  0
DICTIONARY
  5
BD39
102
{ACAD_REACTORS
330
6A22
102
}
330
6A22
100
AcDbDictionary
281
     1
  0
DICTIONARY
  5
6B78
102
{ACAD_REACTORS
330
6A22
102
}
330
6A22
100
AcDbDictionary
281
     1
  3
CTABLESTYLE
350
BD35
  3
DIMASSOC
350
6B7A
  3
INDEXCTL
350
6B79
  3
PROJECTNAME
350
BD36
  0
DICTIONARY
  5
6B39
102
{ACAD_REACTORS
330
6A22
102
}
330
6A22
100
AcDbDictionary
281
     1
  3
ACMSTDDICTIONARY
350
6B3F
  0
DICTIONARY
  5
6B22
102
{ACAD_REACTORS
330
6A22
102
}
330
6A22
100
AcDbDictionary
281
     1
  3
ACMGSETTINGS
350
6B23
  0
DICTIONARY
  5
6B59
102
{ACAD_REACTORS
330
6A22
102
}
330
6A22
100
AcDbDictionary
281
     1
  0
DICTIONARY
  5
89F6
102
{ACAD_REACTORS
330
6A22
102
}
330
6A22
100
AcDbDictionary
281
     1
  3
ASEBLOCKHIERARCHYINDEXRECORD
350
89F8
1001
DCO15
1040
1550954233.809999
  0
XRECORD
  5
BD38
102
{ACAD_REACTORS
330
6A22
102
}
330
6A22
100
AcDbXrecord
280
     1
  1
DWGPROPS COOKIE
  2

  3

  4

  6

  7

  8

  9

300
AmdtFileType=84
301
=
302
=
303
=
304
=
305
=
306
=
307
=
308
=
309
=
 40
0.4336037962962963
 41
2453447.43007081
 42
2454055.34168154
  1

 90
        1
  0
DICTIONARY
  5
6B63
102
{ACAD_REACTORS
330
6B62
102
}
330
6B62
100
AcDbDictionary
281
     1
  3
*A1
350
6B64
  0
XRECORD
  5
BD27
102
{ACAD_REACTORS
330
6B62
102
}
330
6B62
100
AcDbXrecord
280
     1
340
6A34
  0
XRECORD
  5
BD26
102
{ACAD_REACTORS
330
BD25
102
}
330
BD25
100
AcDbXrecord
280
     1
340
6A30
  0
LAYOUT
  5
BD30
102
{ACAD_XDICTIONARY
360
BD3C
102
}
102
{ACAD_REACTORS
330
6A2F
102
}
330
6A2F
100
AcDbPlotSettings
  1

  2
\\ingdom02\ITB3
  4

  6

 40
0.0
 41
0.0
 42
0.0
 43
0.0
 44
0.0
 45
0.0
 46
0.0
 47
0.0
 48
0.0
 49
0.0
140
0.0
141
0.0
142
1.0
143
1.0
 70
   688
 72
     0
 73
     0
 74
     5
  7

 75
    16
147
1.0
148
0.0
149
0.0
100
AcDbLayout
  1
Layout1
 70
     1
 71
     1
 10
0.0
 20
0.0
 11
420.0
 21
297.0
 12
0.0
 22
0.0
 32
0.0
 14
1.000000000000000E+20
 24
1.000000000000000E+20
 34
1.000000000000000E+20
 15
-1.000000000000000E+20
 25
-1.000000000000000E+20
 35
-1.000000000000000E+20
146
0.0
 13
0.0
 23
0.0
 33
0.0
 16
1.0
 26
0.0
 36
0.0
 17
0.0
 27
1.0
 37
0.0
 76
     0
330
6A30
  0
LAYOUT
  5
BD2F
102
{ACAD_XDICTIONARY
360
BD3A
102
}
102
{ACAD_REACTORS
330
6A2F
102
}
330
6A2F
100
AcDbPlotSettings
  1

  2
\\ingdom02\ITB3
  4

  6

 40
0.0
 41
0.0
 42
0.0
 43
0.0
 44
0.0
 45
0.0
 46
0.0
 47
0.0
 48
0.0
 49
0.0
140
0.0
141
0.0
142
1.0
143
1.0
 70
  1712
 72
     0
 73
     0
 74
     0
  7

 75
     0
147
1.0
148
0.0
149
0.0
100
AcDbLayout
  1
Model
 70
     1
 71
     0
 10
0.0
 20
0.0
 11
12.0
 21
9.0
 12
0.0
 22
0.0
 32
0.0
 14
0.0
 24
0.0
 34
0.0
 15
0.0
 25
0.0
 35
0.0
146
0.0
 13
0.0
 23
0.0
 33
0.0
 16
1.0
 26
0.0
 36
0.0
 17
0.0
 27
1.0
 37
0.0
 76
     0
330
6A34
  0
MLINESTYLE
  5
6A2D
102
{ACAD_REACTORS
330
6A2C
102
}
330
6A2C
100
AcDbMlineStyle
  2
STANDARD
 70
     0
  3

 62
   256
 51
90.0
 52
90.0
 71
     2
 49
0.5
 62
   256
  6
BYLAYER
 49
-0.5
 62
   256
  6
BYLAYER
  0
ACDBPLACEHOLDER
  5
6A25
102
{ACAD_REACTORS
330
6A24
102
}
330
6A24
  0
TABLESTYLE
  5
BD2E
102
{ACAD_REACTORS
330
BD2D
102
}
330
BD2D
100
AcDbTableStyle
  3
Standard
 70
     0
 71
     0
 40
1.5
 41
1.5
280
     0
281
     0
  7
STANDARD
140
4.5
170
     2
 62
     0
 63
     7
283
     0
274
    -2
284
     1
 64
     0
275
    -2
285
     1
 65
     0
276
    -2
286
     1
 66
     0
277
    -2
287
     1
 67
     0
278
    -2
288
     1
 68
     0
279
    -2
289
     1
 69
     0
  7
STANDARD
140
6.0
170
     5
 62
     0
 63
     7
283
     0
274
    -2
284
     1
 64
     0
275
    -2
285
     1
 65
     0
276
    -2
286
     1
 66
     0
277
    -2
287
     1
 67
     0
278
    -2
288
     1
 68
     0
279
    -2
289
     1
 69
     0
  7
STANDARD
140
4.5
170
     5
 62
     0
 63
     7
283
     0
274
    -2
284
     1
 64
     0
275
    -2
285
     1
 65
     0
276
    -2
286
     1
 66
     0
277
    -2
287
     1
 67
     0
278
    -2
288
     1
 68
     0
279
    -2
289
     1
 69
     0
  0
DICTIONARYVAR
  5
BD35
102
{ACAD_REACTORS
330
6B78
102
}
330
6B78
100
DictionaryVariables
280
     0
  1
STANDARD
  0
DICTIONARYVAR
  5
6B7A
102
{ACAD_REACTORS
330
6B78
102
}
330
6B78
100
DictionaryVariables
280
     0
  1
1
  0
DICTIONARYVAR
  5
6B79
102
{ACAD_REACTORS
330
6B78
102
}
330
6B78
100
DictionaryVariables
280
     0
  1
1
  0
DICTIONARYVAR
  5
BD36
102
{ACAD_REACTORS
330
6B78
102
}
330
6B78
100
DictionaryVariables
280
     0
  1

  0
DICTIONARY
  5
6B3F
102
{ACAD_REACTORS
330
6B39
102
}
330
6B39
100
AcDbDictionary
281
     1
  0
DICTIONARY
  5
6B23
102
{ACAD_REACTORS
330
6B22
102
}
330
6B22
100
AcDbDictionary
281
     1
  3
DWGSETTINGS
350
6B24
  0
XRECORD
  5
89F8
102
{ACAD_REACTORS
330
89F6
102
}
330
89F6
100
AcDbXrecord
280
     1
  0
LAYER_INDEX
  5
6B64
102
{ACAD_REACTORS
330
6B63
102
}
330
6B63
100
AcDbIndex
 40
2454055.34168154
100
AcDbLayerIndex
  8
0
360
6B65
 90
        0
  8
DEFPOINTS
360
6B66
 90
        0
  8
1
360
6B67
 90
      171
  8
2
360
6B68
 90
        4
  8
4
360
6B69
 90
        7
  8
6
360
6B6A
 90
        4
  8
SK1
360
6B6B
 90
       32
  8
SK2
360
6B6C
 90
        2
  8
SK4
360
6B6D
 90
        4
  8
CUT
360
6B6E
 90
       12
  8
NOCUT
360
6B6F
 90
        7
  8
SK3
360
91F5
 90
       14
  8
SK6
360
91F6
 90
        1
  0
DICTIONARY
  5
BD3C
330
BD30
100
AcDbDictionary
280
     1
281
     1
  3
ACAD_XREC_ROUNDTRIP
360
BD3D
  0
DICTIONARY
  5
BD3A
330
BD2F
100
AcDbDictionary
280
     1
281
     1
  3
ACAD_XREC_ROUNDTRIP
360
BD3B
  0
XRECORD
  5
6B24
102
{ACAD_REACTORS
330
6B23
102
}
330
6B23
100
AcDbXrecord
280
     1
  1
VERSION
140
15.0
  1
PRODUCT
  2
AutoCAD Mechanical 2000
  0
IDBUFFER
  5
6B65
330
0
100
AcDbIdBuffer
  0
IDBUFFER
  5
6B66
330
0
100
AcDbIdBuffer
  0
IDBUFFER
  5
6B67
330
0
100
AcDbIdBuffer
330
9AB5
330
9AD4
330
A8F5
330
B2E8
330
B63E
330
B647
330
B648
330
B64B
330
B64C
330
B64E
330
B653
330
B654
330
B655
330
B659
330
B65A
330
B65B
330
B65C
330
B663
330
B664
330
B667
330
B672
330
B673
330
B676
330
B677
330
B678
330
B679
330
B67A
330
B67B
330
B67C
330
B67D
330
B67E
330
B67F
330
B680
330
B681
330
B682
330
B683
330
B684
330
B685
330
B686
330
B687
330
B688
330
B68A
330
B68C
330
B68E
330
B690
330
B696
330
B70F
330
B72A
330
B9A2
330
B9A3
330
B9A4
330
B9A6
330
B9A7
330
B9AB
330
B9AC
330
B9AD
330
B9AE
330
B9AF
330
B9B1
330
B9B2
330
B9B3
330
B9B4
330
B9B5
330
B9B6
330
B9B7
330
B9B8
330
B9B9
330
B9BA
330
B9BB
330
B9BC
330
B9BD
330
B9BE
330
BBDB
330
BBDC
330
BBDD
330
BBDF
330
BBE0
330
BBE2
330
BBE3
330
BBE7
330
BBE8
330
BBE9
330
BBEA
330
BBEB
330
BBEC
330
BBED
330
BBEE
330
BBEF
330
BBF0
330
BBF1
330
BBF2
330
BBF3
330
BBF4
330
BBF5
330
BBF6
330
BBF7
330
BBF8
330
BBF9
330
BBFA
330
BBFB
330
BBFC
330
BBFD
330
BBFE
330
BBFF
330
BC19
330
BC1A
330
BC28
330
BC2C
330
BC8F
330
BC90
330
BC91
330
BC92
330
BC93
330
BC94
330
BC95
330
BC96
330
BC97
330
BC98
330
BC99
330
BC9A
330
BC9B
330
BC9C
330
BC9D
330
BC9E
330
BC9F
330
BCA0
330
BCA1
330
BCA2
330
BCA3
330
BCA4
330
BCA5
330
BCA6
330
BCA7
330
BCA8
330
BCA9
330
BCAA
330
BCAB
330
BCAC
330
BCAD
330
BCAE
330
BCAF
330
BCB0
330
BCB1
330
BCB2
330
BCB3
330
BCB4
330
BCB5
330
BCB6
330
BCB7
330
BCB8
330
BCB9
330
BCBA
330
BCBB
330
BCBC
330
BCBD
330
BCBE
330
BCBF
330
BCC0
330
BCC1
330
BCC2
330
BCC3
330
BCCC
330
BCCD
330
BCD0
330
BCD1
330
BCDA
330
BCDB
330
BCDC
330
BCDD
330
BCDE
330
BCDF
  0
IDBUFFER
  5
6B68
330
0
100
AcDbIdBuffer
330
BA8A
330
BAB2
330
BAFD
330
BB48
  0
IDBUFFER
  5
6B69
330
0
100
AcDbIdBuffer
330
B658
330
B9C2
330
BB7C
330
BB7D
330
BB7E
330
BCE7
330
BCE8
  0
IDBUFFER
  5
6B6A
330
0
100
AcDbIdBuffer
330
B63C
330
B63F
330
B697
330
B698
  0
IDBUFFER
  5
6B6B
330
0
100
AcDbIdBuffer
330
9077
330
9078
330
9079
330
9AB8
330
9AB9
330
9ABA
330
9ABB
330
9ABC
330
9ABD
330
9ABE
330
9ABF
330
9AC0
330
9AC4
330
9AC5
330
9AC6
330
9AC8
330
9ACB
330
9ACC
330
9ACD
330
9ACE
330
9ACF
330
9AD0
330
9AD1
330
9AD2
330
B64F
330
B650
330
B651
330
B652
330
B691
330
B692
330
B693
330
B694
  0
IDBUFFER
  5
6B6C
330
0
100
AcDbIdBuffer
330
9AA6
330
9AA7
  0
IDBUFFER
  5
6B6D
330
0
100
AcDbIdBuffer
330
9AAB
330
9AC3
330
9AC7
330
9B68
  0
IDBUFFER
  5
6B6E
330
0
100
AcDbIdBuffer
330
B65D
330
B65E
330
B669
330
B66C
330
B66D
330
B670
330
B671
330
B689
330
B68B
330
B68D
330
B68F
330
B695
  0
IDBUFFER
  5
6B6F
330
0
100
AcDbIdBuffer
330
AE36
330
AE40
330
B63D
330
B649
330
B656
330
B72B
330
BC30
  0
IDBUFFER
  5
91F5
330
0
100
AcDbIdBuffer
330
9AA8
330
9AA9
330
9AAA
330
9AAC
330
9AAD
330
9AAE
330
9AAF
330
9AB0
330
9AB1
330
9AB3
330
9AC1
330
9AC2
330
9AC9
330
9ACA
  0
IDBUFFER
  5
91F6
330
0
100
AcDbIdBuffer
330
9AD3
  0
XRECORD
  5
BD3D
102
{ACAD_REACTORS
330
BD3C
102
}
330
BD3C
100
AcDbXrecord
280
     1
102
SHADEPLOT
 70
     0
102
SHADEPLOTRESLEVEL
 70
     2
102
SHADEPLOTCUSTOMDPI
 70
   300
  0
XRECORD
  5
BD3B
102
{ACAD_REACTORS
330
BD3A
102
}
330
BD3A
100
AcDbXrecord
280
     1
102
SHADEPLOT
 70
     0
102
SHADEPLOTRESLEVEL
 70
     2
102
SHADEPLOTCUSTOMDPI
 70
   300
  0
ENDSEC
  0
EOF
