  0
SECTION
  2
HEADER
  9
$ACADVER
  1
AC1014
  9
$ACADMAINTVER
 70
     9
  9
$DWGCODEPAGE
  3
ANSI_1252
  9
$INSBASE
 10
0.0
 20
0.0
 30
0.0
  9
$EXTMIN
 10
-86.27199118299836
 20
-40.49946634217611
 30
-0.0000000000000129
  9
$EXTMAX
 10
168.8262495054601
 20
80.00295231934194
 30
0.0000000000000023
  9
$LIMMIN
 10
0.0
 20
0.0
  9
$LIMMAX
 10
210.0
 20
297.0
  9
$ORTHOMODE
 70
     0
  9
$REGENMODE
 70
     1
  9
$FILLMODE
 70
     1
  9
$QTEXTMODE
 70
     0
  9
$MIRRTEXT
 70
     1
  9
$DRAGMODE
 70
     2
  9
$LTSCALE
 40
1.0
  9
$OSMODE
 70
  2599
  9
$ATTMODE
 70
     1
  9
$TEXTSIZE
 40
2.5
  9
$TRACEWID
 40
1.0
  9
$TEXTSTYLE
  7
STANDARD
  9
$CLAYER
  8
0
  9
$CELTYPE
  6
BYLAYER
  9
$CECOLOR
 62
   256
  9
$CELTSCALE
 40
1.0
  9
$DELOBJ
 70
     1
  9
$DISPSILH
 70
     0
  9
$DIMSCALE
 40
1.0
  9
$DIMASZ
 40
2.5
  9
$DIMEXO
 40
0.0
  9
$DIMDLI
 40
10.0
  9
$DIMRND
 40
0.0
  9
$DIMDLE
 40
0.0
  9
$DIMEXE
 40
1.0
  9
$DIMTP
 40
0.1
  9
$DIMTM
 40
0.1
  9
$DIMTXT
 40
3.5
  9
$DIMCEN
 40
0.0
  9
$DIMTSZ
 40
0.0
  9
$DIMTOL
 70
     0
  9
$DIMLIM
 70
     0
  9
$DIMTIH
 70
     0
  9
$DIMTOH
 70
     0
  9
$DIMSE1
 70
     0
  9
$DIMSE2
 70
     0
  9
$DIMTAD
 70
     1
  9
$DIMZIN
 70
     8
  9
$DIMBLK
  1

  9
$DIMASO
 70
     1
  9
$DIMSHO
 70
     1
  9
$DIMPOST
  1

  9
$DIMAPOST
  1
"
  9
$DIMALT
 70
     0
  9
$DIMALTD
 70
     2
  9
$DIMALTF
 40
0.0393701
  9
$DIMLFAC
 40
1.0
  9
$DIMTOFL
 70
     1
  9
$DIMTVP
 40
0.0
  9
$DIMTIX
 70
     0
  9
$DIMSOXD
 70
     0
  9
$DIMSAH
 70
     0
  9
$DIMBLK1
  1

  9
$DIMBLK2
  1

  9
$DIMSTYLE
  2
AM_DIN
  9
$DIMCLRD
 70
   256
  9
$DIMCLRE
 70
   256
  9
$DIMCLRT
 70
     2
  9
$DIMTFAC
 40
0.71
  9
$DIMGAP
 40
1.5
  9
$DIMJUST
 70
     0
  9
$DIMSD1
 70
     0
  9
$DIMSD2
 70
     0
  9
$DIMTOLJ
 70
     1
  9
$DIMTZIN
 70
     8
  9
$DIMALTZ
 70
     8
  9
$DIMALTTZ
 70
     8
  9
$DIMFIT
 70
     5
  9
$DIMUPT
 70
     0
  9
$DIMUNIT
 70
     2
  9
$DIMDEC
 70
     2
  9
$DIMTDEC
 70
     2
  9
$DIMALTU
 70
     2
  9
$DIMALTTD
 70
     2
  9
$DIMTXSTY
  7
STANDARD
  9
$DIMAUNIT
 70
     0
  9
$LUNITS
 70
     2
  9
$LUPREC
 70
     2
  9
$SKETCHINC
 40
1.0
  9
$FILLETRAD
 40
2.0
  9
$AUNITS
 70
     0
  9
$AUPREC
 70
     0
  9
$MENU
  1
.
  9
$ELEVATION
 40
0.0
  9
$PELEVATION
 40
0.0
  9
$THICKNESS
 40
0.0
  9
$LIMCHECK
 70
     0
  9
$BLIPMODE
 70
     0
  9
$CHAMFERA
 40
2.0
  9
$CHAMFERB
 40
2.0
  9
$CHAMFERC
 40
0.0
  9
$CHAMFERD
 40
0.0
  9
$SKPOLY
 70
     0
  9
$TDCREATE
 40
2453447.430070810
  9
$TDUPDATE
 40
2453788.403363055
  9
$TDINDWG
 40
0.4280594213
  9
$TDUSRTIMER
 40
0.4280350810
  9
$USRTIMER
 70
     1
  9
$ANGBASE
 50
0.0
  9
$ANGDIR
 70
     0
  9
$PDMODE
 70
     0
  9
$PDSIZE
 40
0.0
  9
$PLINEWID
 40
0.0
  9
$COORDS
 70
     0
  9
$SPLFRAME
 70
     0
  9
$SPLINETYPE
 70
     6
  9
$SPLINESEGS
 70
     8
  9
$ATTDIA
 70
     1
  9
$ATTREQ
 70
     1
  9
$HANDLING
 70
 22529
  9
$HANDSEED
  5
BC85
  9
$SURFTAB1
 70
     6
  9
$SURFTAB2
 70
     6
  9
$SURFTYPE
 70
     6
  9
$SURFU
 70
     6
  9
$SURFV
 70
     6
  9
$UCSNAME
  2

  9
$UCSORG
 10
0.0
 20
0.0
 30
0.0
  9
$UCSXDIR
 10
1.0
 20
0.0
 30
0.0
  9
$UCSYDIR
 10
0.0
 20
1.0
 30
0.0
  9
$PUCSNAME
  2

  9
$PUCSORG
 10
0.0
 20
0.0
 30
0.0
  9
$PUCSXDIR
 10
1.0
 20
0.0
 30
0.0
  9
$PUCSYDIR
 10
0.0
 20
1.0
 30
0.0
  9
$USERI1
 70
     0
  9
$USERI2
 70
     0
  9
$USERI3
 70
     0
  9
$USERI4
 70
     0
  9
$USERI5
 70
     0
  9
$USERR1
 40
0.0
  9
$USERR2
 40
0.0
  9
$USERR3
 40
0.0
  9
$USERR4
 40
0.0
  9
$USERR5
 40
0.0
  9
$WORLDVIEW
 70
     1
  9
$SHADEDGE
 70
     3
  9
$SHADEDIF
 70
    70
  9
$TILEMODE
 70
     1
  9
$MAXACTVP
 70
    64
  9
$PINSBASE
 10
0.0
 20
0.0
 30
0.0
  9
$PLIMCHECK
 70
     0
  9
$PEXTMIN
 10
1.000000000000000E+20
 20
1.000000000000000E+20
 30
1.000000000000000E+20
  9
$PEXTMAX
 10
-1.000000000000000E+20
 20
-1.000000000000000E+20
 30
-1.000000000000000E+20
  9
$PLIMMIN
 10
0.0
 20
0.0
  9
$PLIMMAX
 10
420.0
 20
297.0
  9
$UNITMODE
 70
     0
  9
$VISRETAIN
 70
     1
  9
$PLINEGEN
 70
     0
  9
$PSLTSCALE
 70
     1
  9
$TREEDEPTH
 70
  3020
  9
$PICKSTYLE
 70
     0
  9
$CMLSTYLE
  2
STANDARD
  9
$CMLJUST
 70
     0
  9
$CMLSCALE
 40
1.0
  9
$PROXYGRAPHICS
 70
     1
  9
$MEASUREMENT
 70
     1
  0
ENDSEC
  0
SECTION
  2
CLASSES
  0
CLASS
  1
ACDBDICTIONARYWDFLT
  2
AcDbDictionaryWithDefault
  3
AutoCAD 2000
 90
        0
280
     0
281
     0
  0
CLASS
  1
ACDBPLACEHOLDER
  2
AcDbPlaceHolder
  3
AutoCAD 2000
 90
        0
280
     0
281
     0
  0
CLASS
  1
LAYOUT
  2
AcDbLayout
  3
AutoCAD 2000
 90
        0
280
     0
281
     0
  0
CLASS
  1
AMGSETTINGSOBJ
  2
AmgSettingsObj
  3
"AcadM|Product Description: AutoCAD Mechanical 2000|Company: Autodesk"
 90
        0
280
     0
281
     0
  0
CLASS
  1
ACME_DOCUMENT
  2
AcMeDbDoc
  3
AcMeServices
 90
        0
280
     0
281
     0
  0
CLASS
  1
ACMESCOPE
  2
AcMeScope
  3
AcMeServices
 90
        0
280
     0
281
     0
  0
CLASS
  1
ACMECOMMANDHISTORY
  2
AcMeCommandHistory
  3
AcMeServices
 90
        0
280
     0
281
     0
  0
CLASS
  1
ACIMSYSVARMAN
  2
AcImSysVarManager
  3
AcMeServices
 90
        0
280
     0
281
     0
  0
CLASS
  1
ACIMREALSYSVAR
  2
AcImRealSysVar
  3
AcMeServices
 90
        0
280
     0
281
     0
  0
CLASS
  1
ACIMINTSYSVAR
  2
AcImIntSysVar
  3
AcMeServices
 90
        0
280
     0
281
     0
  0
CLASS
  1
ACMEDRAWINGMAN
  2
AcMeDrawingMan
  3
AcMeServices
 90
        0
280
     0
281
     0
  0
CLASS
  1
ACMEVIEW
  2
AcMeView
  3
AcMeServices
 90
        0
280
     0
281
     0
  0
CLASS
  1
ACDBENTITYCACHE
  2
AcMeEntityCache
  3
AcMeServices
 90
        0
280
     0
281
     0
  0
CLASS
  1
GSMANAGER
  2
AcMeGSManager
  3
AcMeServices
 90
        0
280
     0
281
     0
  0
CLASS
  1
AMDTINTERNALREACTOR
  2
AmdtInternalReactor
  3
AcMeServices
 90
        0
280
     0
281
     0
  0
CLASS
  1
ACMESTATEMGR
  2
AcMeStateMgr
  3
AcMeServices
 90
        0
280
     0
281
     0
  0
CLASS
  1
ACGREFMASTER
  2
AcGrefMaster
  3
AcAttribServices
 90
        0
280
     0
281
     0
  0
CLASS
  1
ACME_DATABASE
  2
AcMeDbDatabase
  3
AcMeServices
 90
        0
280
     0
281
     0
  0
CLASS
  1
ACRFINSADJUSTERMGR
  2
AcRfInsAdjusterMgr
  3
AcMeServices
 90
        0
280
     0
281
     0
  0
CLASS
  1
ACGREFACADMASTER
  2
AcGrefacadMaster
  3
AcGrefServices
 90
        0
280
     0
281
     0
  0
CLASS
  1
AMIMASTER
  2
AmiMaster
  3
AmiServices
 90
        0
280
     0
281
     0
  0
CLASS
  1
ACMDATADICTIONARY
  2
AcmDataDictionary
  3
"AcmSymBB|Product Description: AutoCAD Mechanical 2000|Company: Autodesk"
 90
        0
280
     0
281
     0
  0
CLASS
  1
ACMDATAENTRYBLOCK
  2
AcmDataEntryBlock
  3
"AcmSymBB|Product Description: AutoCAD Mechanical 2000|Company: Autodesk"
 90
        0
280
     0
281
     0
  0
CLASS
  1
ACIMSTRSYSVAR
  2
AcImStrSysVar
  3
AcMeServices
 90
        0
280
     0
281
     0
  0
CLASS
  1
ACMSTANDARDANSI
  2
AcmStandardANSI
  3
"Amdt_StdImp|Product Description: AutoCAD Mechanical 2000|Company: Autodesk"
 90
        0
280
     0
281
     0
  0
CLASS
  1
AMGOBJPROPCFG
  2
AmgObjPropCfg
  3
"AmgLay|Product Description: AutoCAD Mechanical 2000|Company: Autodesk"
 90
        1
280
     0
281
     0
  0
CLASS
  1
ACMSURFSTANDARDANSI
  2
AcmSurfTextStdANSI
  3
"Amdt_StdImp|Product Description: AutoCAD Mechanical 2000|Company: Autodesk"
 90
        0
280
     0
281
     0
  0
CLASS
  1
ACMFCFSTANDARDANSI
  2
AcmFCFStdANSI
  3
"Amdt_StdImp|Product Description: AutoCAD Mechanical 2000|Company: Autodesk"
 90
        0
280
     0
281
     0
  0
CLASS
  1
ACMWELDSTANDARDANSI
  2
AcmWeldingStdANSI
  3
"Amdt_StdImp|Product Description: AutoCAD Mechanical 2000|Company: Autodesk"
 90
        0
280
     0
281
     0
  0
CLASS
  1
ACMIDSTANDARDANSI
  2
AcmIdStdANSI
  3
"Amdt_StdImp|Product Description: AutoCAD Mechanical 2000|Company: Autodesk"
 90
        0
280
     0
281
     0
  0
CLASS
  1
ACMDATUMSTANDARDANSI
  2
AcmDatumStdANSI
  3
"Amdt_StdImp|Product Description: AutoCAD Mechanical 2000|Company: Autodesk"
 90
        0
280
     0
281
     0
  0
CLASS
  1
ACMBOMSTANDARDANSI
  2
AcmBOMStdANSI
  3
"Amdt_StdImp|Product Description: AutoCAD Mechanical 2000|Company: Autodesk"
 90
        0
280
     0
281
     0
  0
CLASS
  1
ACMDETAILSTANDARDANSI
  2
AmdtDetailSymStdANSI
  3
"Amdt_StdImp|Product Description: AutoCAD Mechanical 2000|Company: Autodesk"
 90
        0
280
     0
281
     0
  0
CLASS
  1
ACMSECTIONSTANDARDANSI
  2
AmdtSectionSymStdANSI
  3
"Amdt_StdImp|Product Description: AutoCAD Mechanical 2000|Company: Autodesk"
 90
        0
280
     0
281
     0
  0
CLASS
  1
ACMCENTERLINESTANDARDANSI
  2
AmdtCenterLineStdANSI
  3
"Amdt_StdImp|Product Description: AutoCAD Mechanical 2000|Company: Autodesk"
 90
        0
280
     0
281
     0
  0
CLASS
  1
ACMNOTESTANDARDANSI
  2
AmdtNoteStdANSI
  3
"Amdt_StdImp|Product Description: AutoCAD Mechanical 2000|Company: Autodesk"
 90
        0
280
     0
281
     0
  0
CLASS
  1
ACAMGLAYSTD
  2
AcAmgLayStd
  3
"AcAmgLayStd|Product Description: AutoCAD Mechanical 2000|Company: Autodesk"
 90
        0
280
     0
281
     0
  0
CLASS
  1
ACAMGDIMSTD
  2
AcAmgDimStd
  3
"AcAmgDimStd|Product Description: AutoCAD Mechanical 2000|Company: Autodesk"
 90
        0
280
     0
281
     0
  0
CLASS
  1
ACAMGHOLECHARTSTDANSI
  2
AcAmgHoleChartStdANSI
  3
ACMSYMBB_MODULE_NAME
 90
        0
280
     0
281
     0
  0
CLASS
  1
ACAMGTITLESTD
  2
AcAmgTitleStd
  3
"TITLEAPP"
 90
        0
280
     0
281
     0
  0
CLASS
  1
ACAMGFILTERDAT
  2
AcAmgFilterDat
  3
"AcadM|Product Description: AutoCAD Mechanical 2000|Company: Autodesk"
 90
        0
280
     0
281
     0
  0
CLASS
  1
LAYER_INDEX
  2
AcDbLayerIndex
  3
AutoCAD 2000
 90
        0
280
     0
281
     0
  0
CLASS
  1
IDBUFFER
  2
AcDbIdBuffer
  3
AutoCAD 2000
 90
        0
280
     0
281
     0
  0
CLASS
  1
DICTIONARYVAR
  2
AcDbDictionaryVar
  3
AutoCAD 2000
 90
        0
280
     0
281
     0
  0
CLASS
  1
ACMSTANDARDDIN
  2
AcmStandardDIN
  3
"Amdt_StdImp|Product Description: AutoCAD Mechanical 2000|Company: Autodesk"
 90
        0
280
     0
281
     0
  0
CLASS
  1
AMDTEDGESTANDARDDIN
  2
AmdtEdgeStdDIN
  3
"Amdt_StdImp|Product Description: AutoCAD Mechanical 2000|Company: Autodesk"
 90
        0
280
     0
281
     0
  0
CLASS
  1
ACMSURFSTANDARDDIN
  2
AcmSurfTextStdDIN
  3
"Amdt_StdImp|Product Description: AutoCAD Mechanical 2000|Company: Autodesk"
 90
        0
280
     0
281
     0
  0
CLASS
  1
ACMFCFSTANDARDDIN
  2
AcmFCFStdDIN
  3
"Amdt_StdImp|Product Description: AutoCAD Mechanical 2000|Company: Autodesk"
 90
        0
280
     0
281
     0
  0
CLASS
  1
ACMWELDSTANDARDDIN
  2
AcmWeldingStdDIN
  3
"Amdt_StdImp|Product Description: AutoCAD Mechanical 2000|Company: Autodesk"
 90
        0
280
     0
281
     0
  0
CLASS
  1
ACMIDSTANDARDDIN
  2
AcmIdStdDIN
  3
"Amdt_StdImp|Product Description: AutoCAD Mechanical 2000|Company: Autodesk"
 90
        0
280
     0
281
     0
  0
CLASS
  1
ACMDATUMSTANDARDDIN
  2
AcmDatumStdDIN
  3
"Amdt_StdImp|Product Description: AutoCAD Mechanical 2000|Company: Autodesk"
 90
        0
280
     0
281
     0
  0
CLASS
  1
ACMBOMSTANDARDDIN
  2
AcmBOMStdDIN
  3
"Amdt_StdImp|Product Description: AutoCAD Mechanical 2000|Company: Autodesk"
 90
        0
280
     0
281
     0
  0
CLASS
  1
ACMDETAILSTANDARDDIN
  2
AmdtDetailSymStdDIN
  3
"Amdt_StdImp|Product Description: AutoCAD Mechanical 2000|Company: Autodesk"
 90
        0
280
     0
281
     0
  0
CLASS
  1
ACMSECTIONSTANDARDDIN
  2
AmdtSectionSymStdDIN
  3
"Amdt_StdImp|Product Description: AutoCAD Mechanical 2000|Company: Autodesk"
 90
        0
280
     0
281
     0
  0
CLASS
  1
ACMCENTERLINESTANDARDDIN
  2
AmdtCenterLineStdDIN
  3
"Amdt_StdImp|Product Description: AutoCAD Mechanical 2000|Company: Autodesk"
 90
        0
280
     0
281
     0
  0
CLASS
  1
ACMNOTESTANDARDDIN
  2
AmdtNoteStdDIN
  3
"Amdt_StdImp|Product Description: AutoCAD Mechanical 2000|Company: Autodesk"
 90
        0
280
     0
281
     0
  0
CLASS
  1
ACAMGHOLECHARTSTDDIN
  2
AcAmgHoleChartStdDIN
  3
ACMSYMBB_MODULE_NAME
 90
        0
280
     0
281
     0
  0
CLASS
  1
AMDTFORMULAUPDATEDISPATCHER
  2
AmdtFormulaUpdateDispatcher
  3
AcMeServices
 90
        0
280
     0
281
     0
  0
CLASS
  1
ACMSURFSYM
  2
AcmSurfaceTexture
  3
"AcmSymBB|Product Description: AutoCAD Mechanical 2000|Company: Autodesk"
 90
     1023
280
     0
281
     1
  0
CLASS
  1
ACMSTANDARDBSI
  2
AcmStandardBSI
  3
"Amdt_StdImp|Product Description: AutoCAD Mechanical 2000|Company: Autodesk"
 90
        0
280
     0
281
     0
  0
CLASS
  1
ACMSURFSTANDARDBSI
  2
AcmSurfTextStdBSI
  3
"Amdt_StdImp|Product Description: AutoCAD Mechanical 2000|Company: Autodesk"
 90
        0
280
     0
281
     0
  0
CLASS
  1
ACMFCFSTANDARDBSI
  2
AcmFCFStdBSI
  3
"Amdt_StdImp|Product Description: AutoCAD Mechanical 2000|Company: Autodesk"
 90
        0
280
     0
281
     0
  0
CLASS
  1
ACMWELDSTANDARDBSI
  2
AcmWeldingStdBSI
  3
"Amdt_StdImp|Product Description: AutoCAD Mechanical 2000|Company: Autodesk"
 90
        0
280
     0
281
     0
  0
CLASS
  1
ACMIDSTANDARDBSI
  2
AcmIdStdBSI
  3
"Amdt_StdImp|Product Description: AutoCAD Mechanical 2000|Company: Autodesk"
 90
        0
280
     0
281
     0
  0
CLASS
  1
ACMDATUMSTANDARDBSI
  2
AcmDatumStdBSI
  3
"Amdt_StdImp|Product Description: AutoCAD Mechanical 2000|Company: Autodesk"
 90
        0
280
     0
281
     0
  0
CLASS
  1
ACMBOMSTANDARDBSI
  2
AcmBOMStdBSI
  3
"Amdt_StdImp|Product Description: AutoCAD Mechanical 2000|Company: Autodesk"
 90
        0
280
     0
281
     0
  0
CLASS
  1
ACMDETAILSTANDARDBSI
  2
AmdtDetailSymStdBSI
  3
"Amdt_StdImp|Product Description: AutoCAD Mechanical 2000|Company: Autodesk"
 90
        0
280
     0
281
     0
  0
CLASS
  1
ACMSECTIONSTANDARDBSI
  2
AmdtSectionSymStdBSI
  3
"Amdt_StdImp|Product Description: AutoCAD Mechanical 2000|Company: Autodesk"
 90
        0
280
     0
281
     0
  0
CLASS
  1
ACMCENTERLINESTANDARDBSI
  2
AmdtCenterLineStdBSI
  3
"Amdt_StdImp|Product Description: AutoCAD Mechanical 2000|Company: Autodesk"
 90
        0
280
     0
281
     0
  0
CLASS
  1
ACMTHREADLINESTANDARDBSI
  2
AmdtThreadLineStdBSI
  3
"Amdt_StdImp|Product Description: AutoCAD Mechanical 2000|Company: Autodesk"
 90
        0
280
     0
281
     0
  0
CLASS
  1
ACMNOTESTANDARDBSI
  2
AmdtNoteStdBSI
  3
"Amdt_StdImp|Product Description: AutoCAD Mechanical 2000|Company: Autodesk"
 90
        0
280
     0
281
     0
  0
CLASS
  1
ACMSTANDARDISO
  2
AcmStandardISO
  3
"Amdt_StdImp|Product Description: AutoCAD Mechanical 2000|Company: Autodesk"
 90
        0
280
     0
281
     0
  0
CLASS
  1
AMDTEDGESTANDARDISO
  2
AmdtEdgeStdISO
  3
"Amdt_StdImp|Product Description: AutoCAD Mechanical 2000|Company: Autodesk"
 90
        0
280
     0
281
     0
  0
CLASS
  1
ACMSURFSTANDARDISO
  2
AcmSurfTextStdISO
  3
"Amdt_StdImp|Product Description: AutoCAD Mechanical 2000|Company: Autodesk"
 90
        0
280
     0
281
     0
  0
CLASS
  1
ACMFCFSTANDARDISO
  2
AcmFCFStdISO
  3
"Amdt_StdImp|Product Description: AutoCAD Mechanical 2000|Company: Autodesk"
 90
        0
280
     0
281
     0
  0
CLASS
  1
ACMWELDSTANDARDISO
  2
AcmWeldingStdISO
  3
"Amdt_StdImp|Product Description: AutoCAD Mechanical 2000|Company: Autodesk"
 90
        0
280
     0
281
     0
  0
CLASS
  1
ACMIDSTANDARDISO
  2
AcmIdStdISO
  3
"Amdt_StdImp|Product Description: AutoCAD Mechanical 2000|Company: Autodesk"
 90
        0
280
     0
281
     0
  0
CLASS
  1
ACMDATUMSTANDARDISO
  2
AcmDatumStdISO
  3
"Amdt_StdImp|Product Description: AutoCAD Mechanical 2000|Company: Autodesk"
 90
        0
280
     0
281
     0
  0
CLASS
  1
ACMBOMSTANDARDISO
  2
AcmBOMStdISO
  3
"Amdt_StdImp|Product Description: AutoCAD Mechanical 2000|Company: Autodesk"
 90
        0
280
     0
281
     0
  0
CLASS
  1
ACMDETAILSTANDARDISO
  2
AmdtDetailSymStdISO
  3
"Amdt_StdImp|Product Description: AutoCAD Mechanical 2000|Company: Autodesk"
 90
        0
280
     0
281
     0
  0
CLASS
  1
ACMSECTIONSTANDARDISO
  2
AmdtSectionSymStdISO
  3
"Amdt_StdImp|Product Description: AutoCAD Mechanical 2000|Company: Autodesk"
 90
        0
280
     0
281
     0
  0
CLASS
  1
ACMCENTERLINESTANDARDISO
  2
AmdtCenterLineStdISO
  3
"Amdt_StdImp|Product Description: AutoCAD Mechanical 2000|Company: Autodesk"
 90
        0
280
     0
281
     0
  0
CLASS
  1
ACMTHREADLINESTANDARDISO
  2
AmdtThreadLineStdISO
  3
"Amdt_StdImp|Product Description: AutoCAD Mechanical 2000|Company: Autodesk"
 90
        0
280
     0
281
     0
  0
CLASS
  1
ACMNOTESTANDARDISO
  2
AmdtNoteStdISO
  3
"Amdt_StdImp|Product Description: AutoCAD Mechanical 2000|Company: Autodesk"
 90
        0
280
     0
281
     0
  0
CLASS
  1
ACMSTANDARDJIS
  2
AcmStandardJIS
  3
"Amdt_StdImp|Product Description: AutoCAD Mechanical 2000|Company: Autodesk"
 90
        0
280
     0
281
     0
  0
CLASS
  1
ACMSURFSTANDARDJIS
  2
AcmSurfTextStdJIS
  3
"Amdt_StdImp|Product Description: AutoCAD Mechanical 2000|Company: Autodesk"
 90
        0
280
     0
281
     0
  0
CLASS
  1
ACMFCFSTANDARDJIS98
  2
AcmFCFStdJIS98
  3
"Amdt_StdImp|Product Description: AutoCAD Mechanical 2000|Company: Autodesk"
 90
        0
280
     0
281
     0
  0
CLASS
  1
ACMWELDSTANDARDJIS
  2
AcmWeldingStdJIS
  3
"Amdt_StdImp|Product Description: AutoCAD Mechanical 2000|Company: Autodesk"
 90
        0
280
     0
281
     0
  0
CLASS
  1
ACMIDSTANDARDJIS
  2
AcmIdStdJIS
  3
"Amdt_StdImp|Product Description: AutoCAD Mechanical 2000|Company: Autodesk"
 90
        0
280
     0
281
     0
  0
CLASS
  1
ACMDATUMSTANDARDJIS
  2
AcmDatumStdJIS
  3
"Amdt_StdImp|Product Description: AutoCAD Mechanical 2000|Company: Autodesk"
 90
        0
280
     0
281
     0
  0
CLASS
  1
ACMBOMSTANDARDJIS
  2
AcmBOMStdJIS
  3
"Amdt_StdImp|Product Description: AutoCAD Mechanical 2000|Company: Autodesk"
 90
        0
280
     0
281
     0
  0
CLASS
  1
ACMDETAILSTANDARDJIS
  2
AmdtDetailSymStdJIS
  3
"Amdt_StdImp|Product Description: AutoCAD Mechanical 2000|Company: Autodesk"
 90
        0
280
     0
281
     0
  0
CLASS
  1
ACMSECTIONSTANDARDJIS
  2
AmdtSectionSymStdJIS
  3
"Amdt_StdImp|Product Description: AutoCAD Mechanical 2000|Company: Autodesk"
 90
        0
280
     0
281
     0
  0
CLASS
  1
ACMCENTERLINESTANDARDJIS
  2
AmdtCenterLineStdJIS
  3
"Amdt_StdImp|Product Description: AutoCAD Mechanical 2000|Company: Autodesk"
 90
        0
280
     0
281
     0
  0
CLASS
  1
ACMTHREADLINESTANDARDJIS
  2
AmdtThreadLineStdJIS
  3
"Amdt_StdImp|Product Description: AutoCAD Mechanical 2000|Company: Autodesk"
 90
        0
280
     0
281
     0
  0
CLASS
  1
ACMNOTESTANDARDJIS
  2
AmdtNoteStdJIS
  3
"Amdt_StdImp|Product Description: AutoCAD Mechanical 2000|Company: Autodesk"
 90
        0
280
     0
281
     0
  0
CLASS
  1
LONG_TRANSACTION
  2
AcDbLongTransaction
  3
AutoCAD 2000
 90
        0
280
     0
281
     0
  0
CLASS
  1
LWPOLYLINE
  2
AcDbPolyline
  3
AutoCAD 2000
 90
        0
280
     0
281
     1
  0
CLASS
  1
HATCH
  2
AcDbHatch
  3
AutoCAD 2000
 90
        0
280
     0
281
     1
  0
CLASS
  1
XRECORD
  2
AcDbXrecord
  3
AutoCAD 2000
 90
        0
280
     0
281
     0
  0
ENDSEC
  0
SECTION
  2
TABLES
  0
TABLE
  2
VPORT
  5
6A1E
330
0
100
AcDbSymbolTable
 70
    10
  0
VPORT
  5
BC60
330
6A1E
100
AcDbSymbolTableRecord
100
AcDbViewportTableRecord
  2
*ACTIVE
 70
     0
 10
0.0
 20
0.0
 11
1.0
 21
1.0
 12
-6.499727904347309
 22
-15.97094326698456
 13
0.0
 23
0.0
 14
2.5
 24
2.5
 15
10.0
 25
10.0
 16
0.0
 26
0.0
 36
767.7808751490076
 17
68.36373231284814
 27
144.2212100958965
 37
0.0
 40
341.2704101001892
 41
1.716417910447761
 42
50.0
 43
0.0
 44
0.0
 50
0.0
 51
0.0
 71
     0
 72
 10000
 73
     1
 74
     3
 75
     0
 76
     0
 77
     0
 78
     0
  0
ENDTAB
  0
TABLE
  2
LTYPE
  5
6A1B
330
0
100
AcDbSymbolTable
 70
    24
  0
LTYPE
  5
6A29
330
6A1B
100
AcDbSymbolTableRecord
100
AcDbLinetypeTableRecord
  2
BYBLOCK
 70
     0
  3

 72
    65
 73
     0
 40
0.0
  0
LTYPE
  5
6A2A
330
6A1B
100
AcDbSymbolTableRecord
100
AcDbLinetypeTableRecord
  2
BYLAYER
 70
     0
  3

 72
    65
 73
     0
 40
0.0
  0
LTYPE
  5
6A2B
330
6A1B
100
AcDbSymbolTableRecord
100
AcDbLinetypeTableRecord
  2
CONTINUOUS
 70
     0
  3
Solid line
 72
    65
 73
     0
 40
0.0
  0
LTYPE
  5
6A39
330
6A1B
100
AcDbSymbolTableRecord
100
AcDbLinetypeTableRecord
  2
AMCONSTR
 70
     0
  3
_______________________
 72
    65
 73
     2
 40
9999.0
 49
9999.0
 74
     0
 49
0.0
 74
     0
  0
LTYPE
  5
6A43
330
6A1B
100
AcDbSymbolTableRecord
100
AcDbLinetypeTableRecord
  2
CENTER
 70
     0
  3
__ . __
 72
    65
 73
     4
 40
7.0
 49
4.0
 74
     0
 49
-1.0
 74
     0
 49
1.0
 74
     0
 49
-1.0
 74
     0
  0
LTYPE
  5
6A45
330
6A1B
100
AcDbSymbolTableRecord
100
AcDbLinetypeTableRecord
  2
PHANTOM2
 70
     0
  3
Phantom (.5x) ___ _ _ ___ _ _ ___ _ _ ___ _ _
 72
    65
 73
     6
 40
1.25
 49
0.625
 74
     0
 49
-0.125
 74
     0
 49
0.125
 74
     0
 49
-0.125
 74
     0
 49
0.125
 74
     0
 49
-0.125
 74
     0
  0
LTYPE
  5
6A46
330
6A1B
100
AcDbSymbolTableRecord
100
AcDbLinetypeTableRecord
  2
ACANSTGB
 70
     0
  3
__ . . __ . .
 72
    65
 73
     6
 40
0.35433070866
 49
0.15748031496
 74
     0
 49
-0.03937007874
 74
     0
 49
0.03937007874
 74
     0
 49
-0.03937007874
 74
     0
 49
0.03937007874
 74
     0
 49
-0.03937007874
 74
     0
  0
LTYPE
  5
6A47
330
6A1B
100
AcDbSymbolTableRecord
100
AcDbLinetypeTableRecord
  2
ACANSTGL
 70
     0
  3
_ _ _ _ _
 72
    65
 73
     2
 40
0.11811023622
 49
0.07874015748
 74
     0
 49
-0.03937007874
 74
     0
  0
LTYPE
  5
6D97
330
6A1B
100
AcDbSymbolTableRecord
100
AcDbLinetypeTableRecord
  2
ACDINWELD
 70
     0
  3
_ _ _ _ _
 72
    65
 73
     2
 40
2.0
 49
2.0
 74
     0
 49
-1.0
 74
     0
  0
LTYPE
  5
6D98
330
6A1B
100
AcDbSymbolTableRecord
100
AcDbLinetypeTableRecord
  2
ACDINTGB
 70
     0
  3
__ . . __ . .
 72
    65
 73
     6
 40
9.0
 49
4.0
 74
     0
 49
-1.0
 74
     0
 49
1.0
 74
     0
 49
-1.0
 74
     0
 49
1.0
 74
     0
 49
-1.0
 74
     0
  0
LTYPE
  5
6D99
330
6A1B
100
AcDbSymbolTableRecord
100
AcDbLinetypeTableRecord
  2
ACDINTGL
 70
     0
  3
_ _ _ _ _
 72
    65
 73
     2
 40
3.0
 49
2.0
 74
     0
 49
-1.0
 74
     0
  0
LTYPE
  5
8543
330
6A1B
100
AcDbSymbolTableRecord
100
AcDbLinetypeTableRecord
  2
AMZIGZAG
 70
     0
  3
/\/-/\/-/\/-/\/-/\/-/\/
 72
    65
 73
     2
 40
11.00009999999999
 49
0.0001
 74
     4
 75
   135
340
6A5B
 46
0.04
 50
0.0
 44
0.0
 45
0.0
 49
-11.0
 74
     0
  0
LTYPE
  5
8544
330
6A1B
100
AcDbSymbolTableRecord
100
AcDbLinetypeTableRecord
  2
AM_DIN_F_W050
 70
     0
  3
__ __ __ __ __ __ __ __ __ __ __ __ __ __ __
 72
    65
 73
     2
 40
6.25
 49
4.75
 74
     0
 49
-1.5
 74
     0
  0
LTYPE
  5
8545
330
6A1B
100
AcDbSymbolTableRecord
100
AcDbLinetypeTableRecord
  2
AM_DIN_G_W050
 70
     0
  3
____ . ____ . ____ . ____ . ____ . ____ . ____
 72
    65
 73
     4
 40
13.75
 49
9.75
 74
     0
 49
-1.5
 74
     0
 49
1.0
 74
     0
 49
-1.5
 74
     0
  0
LTYPE
  5
8546
330
6A1B
100
AcDbSymbolTableRecord
100
AcDbLinetypeTableRecord
  2
AM_DIN_K_W050
 70
     0
  3
_____ . . _____ . . _____ . . ____ .. ____
 72
    65
 73
     6
 40
16.25
 49
9.75
 74
     0
 49
-1.5
 74
     0
 49
1.0
 74
     0
 49
-1.5
 74
     0
 49
1.0
 74
     0
 49
-1.5
 74
     0
  0
LTYPE
  5
8547
330
6A1B
100
AcDbSymbolTableRecord
100
AcDbLinetypeTableRecord
  2
AM_DIN_G_W050X2
 70
     0
  3
__ . __ . __ . __ . __ . __
 72
    65
 73
     4
 40
6.875
 49
4.75
 74
     0
 49
-0.875
 74
     0
 49
0.375
 74
     0
 49
-0.875
 74
     0
  0
LTYPE
  5
8548
330
6A1B
100
AcDbSymbolTableRecord
100
AcDbLinetypeTableRecord
  2
AM_DIN_F_W050X2
 70
     0
  3
 _ _ _ _ _ _ _ _ _ _ _ _
 72
    65
 73
     2
 40
3.125
 49
2.25
 74
     0
 49
-0.875
 74
     0
  0
LTYPE
  5
8E88
330
6A1B
100
AcDbSymbolTableRecord
100
AcDbLinetypeTableRecord
  2
DASHED
 70
     0
  3
__ __ __ __ __ __ __ __ __ __ __ __ __ __ __ __
 72
    65
 73
     2
 40
19.05
 49
12.7
 74
     0
 49
-6.349999999999998
 74
     0
  0
LTYPE
  5
993E
330
6A1B
100
AcDbSymbolTableRecord
100
AcDbLinetypeTableRecord
  2
ACJISTGB
 70
     0
  3
__ . . __ . .
 72
    65
 73
     6
 40
9.0
 49
4.0
 74
     0
 49
-1.0
 74
     0
 49
1.0
 74
     0
 49
-1.0
 74
     0
 49
1.0
 74
     0
 49
-1.0
 74
     0
  0
LTYPE
  5
993F
330
6A1B
100
AcDbSymbolTableRecord
100
AcDbLinetypeTableRecord
  2
ACJISTGL
 70
     0
  3
_ _ _ _ _
 72
    65
 73
     2
 40
3.0
 49
2.0
 74
     0
 49
-1.0
 74
     0
  0
LTYPE
  5
9940
330
6A1B
100
AcDbSymbolTableRecord
100
AcDbLinetypeTableRecord
  2
ACBSIWELD
 70
     0
  3
_ _ _ _ _
 72
    65
 73
     2
 40
2.0
 49
2.0
 74
     0
 49
-1.0
 74
     0
  0
LTYPE
  5
9941
330
6A1B
100
AcDbSymbolTableRecord
100
AcDbLinetypeTableRecord
  2
ACBSITGB
 70
     0
  3
__ . . __ . .
 72
    65
 73
     6
 40
9.0
 49
4.0
 74
     0
 49
-1.0
 74
     0
 49
1.0
 74
     0
 49
-1.0
 74
     0
 49
1.0
 74
     0
 49
-1.0
 74
     0
  0
LTYPE
  5
9942
330
6A1B
100
AcDbSymbolTableRecord
100
AcDbLinetypeTableRecord
  2
ACBSITGL
 70
     0
  3
_ _ _ _ _
 72
    65
 73
     2
 40
3.0
 49
2.0
 74
     0
 49
-1.0
 74
     0
  0
LTYPE
  5
9943
330
6A1B
100
AcDbSymbolTableRecord
100
AcDbLinetypeTableRecord
  2
ACISOWELD
 70
     0
  3
_ _ _ _ _
 72
    65
 73
     2
 40
2.0
 49
2.0
 74
     0
 49
-1.0
 74
     0
  0
LTYPE
  5
9944
330
6A1B
100
AcDbSymbolTableRecord
100
AcDbLinetypeTableRecord
  2
ACISOTGB
 70
     0
  3
__ . . __ . .
 72
    65
 73
     6
 40
9.0
 49
4.0
 74
     0
 49
-1.0
 74
     0
 49
1.0
 74
     0
 49
-1.0
 74
     0
 49
1.0
 74
     0
 49
-1.0
 74
     0
  0
LTYPE
  5
9945
330
6A1B
100
AcDbSymbolTableRecord
100
AcDbLinetypeTableRecord
  2
ACISOTGL
 70
     0
  3
_ _ _ _ _
 72
    65
 73
     2
 40
3.0
 49
2.0
 74
     0
 49
-1.0
 74
     0
  0
ENDTAB
  0
TABLE
  2
LAYER
  5
6A18
330
0
100
AcDbSymbolTable
 70
    13
  0
LAYER
  5
6A26
330
6A18
100
AcDbSymbolTableRecord
100
AcDbLayerTableRecord
  2
0
 70
     0
 62
     7
  6
CONTINUOUS
  0
LAYER
  5
6A4B
330
6A18
100
AcDbSymbolTableRecord
100
AcDbLayerTableRecord
  2
DEFPOINTS
 70
     0
 62
     7
  6
CONTINUOUS
  0
LAYER
  5
6A4C
330
6A18
100
AcDbSymbolTableRecord
100
AcDbLayerTableRecord
  2
1
 70
     0
 62
     4
  6
CONTINUOUS
  0
LAYER
  5
6A4D
330
6A18
100
AcDbSymbolTableRecord
100
AcDbLayerTableRecord
  2
2
 70
     0
 62
     7
  6
CONTINUOUS
  0
LAYER
  5
6A4F
330
6A18
100
AcDbSymbolTableRecord
100
AcDbLayerTableRecord
  2
4
 70
     0
 62
     2
  6
CENTER
  0
LAYER
  5
6A50
330
6A18
100
AcDbSymbolTableRecord
100
AcDbLayerTableRecord
  2
6
 70
     0
 62
     5
  6
CONTINUOUS
  0
LAYER
  5
6A53
330
6A18
100
AcDbSymbolTableRecord
100
AcDbLayerTableRecord
  2
SK1
 70
     0
 62
     4
  6
CONTINUOUS
  0
LAYER
  5
6A54
330
6A18
100
AcDbSymbolTableRecord
100
AcDbLayerTableRecord
  2
SK2
 70
     0
 62
     7
  6
CONTINUOUS
  0
LAYER
  5
6A56
330
6A18
100
AcDbSymbolTableRecord
100
AcDbLayerTableRecord
  2
SK4
 70
     0
 62
     2
  6
CENTER
  0
LAYER
  5
6A57
330
6A18
100
AcDbSymbolTableRecord
100
AcDbLayerTableRecord
  2
CUT
 70
     0
 62
     1
  6
CONTINUOUS
  0
LAYER
  5
6A58
330
6A18
100
AcDbSymbolTableRecord
100
AcDbLayerTableRecord
  2
NOCUT
 70
     0
 62
     7
  6
CONTINUOUS
  0
LAYER
  5
8E89
330
6A18
100
AcDbSymbolTableRecord
100
AcDbLayerTableRecord
  2
SK3
 70
     0
 62
     1
  6
DASHED
  0
LAYER
  5
8E8A
330
6A18
100
AcDbSymbolTableRecord
100
AcDbLayerTableRecord
  2
SK6
 70
     0
 62
     5
  6
CONTINUOUS
  0
ENDTAB
  0
TABLE
  2
STYLE
  5
6A19
330
0
100
AcDbSymbolTable
 70
    12
  0
STYLE
  5
6A27
330
6A19
100
AcDbSymbolTableRecord
100
AcDbTextStyleTableRecord
  2
STANDARD
 70
     0
 40
0.0
 41
1.0
 50
0.0
 71
     0
 42
2.5
  3
ISOCP.SHX
  4

  0
STYLE
  5
6A5B
330
6A19
100
AcDbSymbolTableRecord
100
AcDbTextStyleTableRecord
  2

 70
     1
 40
0.0
 41
1.0
 50
0.0
 71
     0
 42
2.5
  3
ltypeshp.shx
  4

  0
STYLE
  5
6A5E
330
6A19
100
AcDbSymbolTableRecord
100
AcDbTextStyleTableRecord
  2
ACANSTS
 70
     0
 40
1.0
 41
1.0
 50
0.0
 71
     0
 42
0.2
  3
romans.shx
  4

  0
STYLE
  5
6A5F
330
6A19
100
AcDbSymbolTableRecord
100
AcDbTextStyleTableRecord
  2
ACANSGDT
 70
     0
 40
0.0
 41
1.0
 50
0.0
 71
     0
 42
0.2
  3
amgdtans.shx
  4

  0
STYLE
  5
6D9A
330
6A19
100
AcDbSymbolTableRecord
100
AcDbTextStyleTableRecord
  2
ACDINTS
 70
     0
 40
1.0
 41
1.0
 50
0.0
 71
     0
 42
2.5
  3
isocp.shx
  4

  0
STYLE
  5
6D9B
330
6A19
100
AcDbSymbolTableRecord
100
AcDbTextStyleTableRecord
  2
ACDINGDT
 70
     0
 40
0.0
 41
1.0
 50
0.0
 71
     0
 42
2.5
  3
amgdt.shx
  4

  0
STYLE
  5
9946
330
6A19
100
AcDbSymbolTableRecord
100
AcDbTextStyleTableRecord
  2
ACJISTS
 70
     0
 40
1.0
 41
1.0
 50
0.0
 71
     0
 42
3.5
  3
isocp.shx
  4
bigfont.shx
  0
STYLE
  5
9947
330
6A19
100
AcDbSymbolTableRecord
100
AcDbTextStyleTableRecord
  2
ACJISGDT
 70
     0
 40
0.0
 41
1.0
 50
0.0
 71
     0
 42
3.5
  3
amgdt.shx
  4

  0
STYLE
  5
9948
330
6A19
100
AcDbSymbolTableRecord
100
AcDbTextStyleTableRecord
  2
ACBSITS
 70
     0
 40
1.0
 41
1.0
 50
0.0
 71
     0
 42
3.5
  3
isocp.shx
  4

  0
STYLE
  5
9949
330
6A19
100
AcDbSymbolTableRecord
100
AcDbTextStyleTableRecord
  2
ACBSIGDT
 70
     0
 40
0.0
 41
1.0
 50
0.0
 71
     0
 42
3.5
  3
amgdt.shx
  4

  0
STYLE
  5
994A
330
6A19
100
AcDbSymbolTableRecord
100
AcDbTextStyleTableRecord
  2
ACISOTS
 70
     0
 40
1.0
 41
1.0
 50
0.0
 71
     0
 42
3.5
  3
isocp.shx
  4

  0
STYLE
  5
994B
330
6A19
100
AcDbSymbolTableRecord
100
AcDbTextStyleTableRecord
  2
ACISOGDT
 70
     0
 40
0.0
 41
1.0
 50
0.0
 71
     0
 42
3.5
  3
amgdt.shx
  4

  0
ENDTAB
  0
TABLE
  2
VIEW
  5
6A1C
330
0
100
AcDbSymbolTable
 70
     6
  0
VIEW
  5
6A60
330
6A1C
100
AcDbSymbolTableRecord
100
AcDbViewTableRecord
  2
AM_VIEW1
 70
     0
 40
148.5
 10
131.508173076923
 20
222.75
 41
263.016346153846
 11
0.0
 21
0.0
 31
1.0
 12
0.0
 22
0.0
 32
0.0
 42
50.0
 43
0.0
 44
0.0
 50
0.0
 71
    16
  0
VIEW
  5
6A61
330
6A1C
100
AcDbSymbolTableRecord
100
AcDbViewTableRecord
  2
AM_VIEW2
 70
     0
 40
148.5
 10
78.4918269230769
 20
222.75
 41
263.016346153846
 11
0.0
 21
0.0
 31
1.0
 12
0.0
 22
0.0
 32
0.0
 42
50.0
 43
0.0
 44
0.0
 50
0.0
 71
    16
  0
VIEW
  5
6A62
330
6A1C
100
AcDbSymbolTableRecord
100
AcDbViewTableRecord
  2
AM_VIEW3
 70
     0
 40
148.5
 10
131.508173076923
 20
74.25
 41
263.016346153846
 11
0.0
 21
0.0
 31
1.0
 12
0.0
 22
0.0
 32
0.0
 42
50.0
 43
0.0
 44
0.0
 50
0.0
 71
    16
  0
VIEW
  5
6A63
330
6A1C
100
AcDbSymbolTableRecord
100
AcDbViewTableRecord
  2
AM_VIEW4
 70
     0
 40
148.5
 10
78.4918269230769
 20
74.25
 41
263.016346153846
 11
0.0
 21
0.0
 31
1.0
 12
0.0
 22
0.0
 32
0.0
 42
50.0
 43
0.0
 44
0.0
 50
0.0
 71
    16
  0
VIEW
  5
6A64
330
6A1C
100
AcDbSymbolTableRecord
100
AcDbViewTableRecord
  2
AM_VIEW5
 70
     0
 40
148.5
 10
105.0
 20
148.5
 41
263.016346153846
 11
0.0
 21
0.0
 31
1.0
 12
0.0
 22
0.0
 32
0.0
 42
50.0
 43
0.0
 44
0.0
 50
0.0
 71
    16
  0
VIEW
  5
6A65
330
6A1C
100
AcDbSymbolTableRecord
100
AcDbViewTableRecord
  2
AM_VIEW6
 70
     0
 40
296.9970299999999
 10
105.0
 20
148.5
 41
526.0274319807693
 11
0.0
 21
0.0
 31
1.0
 12
0.0
 22
0.0
 32
0.0
 42
50.0
 43
0.0
 44
0.0
 50
0.0
 71
    16
  0
ENDTAB
  0
TABLE
  2
UCS
  5
6A1D
330
0
100
AcDbSymbolTable
 70
     0
  0
ENDTAB
  0
TABLE
  2
APPID
  5
6A1F
330
0
100
AcDbSymbolTable
 70
    59
  0
APPID
  5
6A28
330
6A1F
100
AcDbSymbolTableRecord
100
AcDbRegAppTableRecord
  2
ACAD
 70
     0
  0
APPID
  5
6A66
330
6A1F
100
AcDbSymbolTableRecord
100
AcDbRegAppTableRecord
  2
MCAD_NO_VIS
 70
     0
  0
APPID
  5
6A67
330
6A1F
100
AcDbSymbolTableRecord
100
AcDbRegAppTableRecord
  2
ACAD_TEMP_GRAPHIC
 70
     0
  0
APPID
  5
6A68
330
6A1F
100
AcDbSymbolTableRecord
100
AcDbRegAppTableRecord
  2
ACATTRIBSERVICES
 70
     0
  0
APPID
  5
6A69
330
6A1F
100
AcDbSymbolTableRecord
100
AcDbRegAppTableRecord
  2
GENIUS_GENDIMSH_14
 70
     0
  0
APPID
  5
6A6A
330
6A1F
100
AcDbSymbolTableRecord
100
AcDbRegAppTableRecord
  2
GENIUS_GENBLLY_14
 70
     0
  0
APPID
  5
6A6B
330
6A1F
100
AcDbSymbolTableRecord
100
AcDbRegAppTableRecord
  2
GENIUS_GENTRA_14
 70
     0
  0
APPID
  5
6A6C
330
6A1F
100
AcDbSymbolTableRecord
100
AcDbRegAppTableRecord
  2
GENIUS_GENODEF_13
 70
     0
  0
APPID
  5
6A6D
330
6A1F
100
AcDbSymbolTableRecord
100
AcDbRegAppTableRecord
  2
GENIUS_GENOLIS_13
 70
     0
  0
APPID
  5
6A6E
330
6A1F
100
AcDbSymbolTableRecord
100
AcDbRegAppTableRecord
  2
GENIUS_GENOENT_13
 70
     0
  0
APPID
  5
6A6F
330
6A1F
100
AcDbSymbolTableRecord
100
AcDbRegAppTableRecord
  2
GENIUS_GENOBJ-N-TIT_13
 70
     0
  0
APPID
  5
6A70
330
6A1F
100
AcDbSymbolTableRecord
100
AcDbRegAppTableRecord
  2
GENIUS_GENTITLE_13
 70
     0
  0
APPID
  5
6A71
330
6A1F
100
AcDbSymbolTableRecord
100
AcDbRegAppTableRecord
  2
GENIUS_GENOREF_13
 70
     0
  0
APPID
  5
6A72
330
6A1F
100
AcDbSymbolTableRecord
100
AcDbRegAppTableRecord
  2
GENIUS_GENSCREG_15
 70
     0
  0
APPID
  5
6A73
330
6A1F
100
AcDbSymbolTableRecord
100
AcDbRegAppTableRecord
  2
GENIUS_GENOBJ-N-SDF_13
 70
     0
  0
APPID
  5
6A74
330
6A1F
100
AcDbSymbolTableRecord
100
AcDbRegAppTableRecord
  2
ACADIGES
 70
     0
  0
APPID
  5
6A75
330
6A1F
100
AcDbSymbolTableRecord
100
AcDbRegAppTableRecord
  2
GENIUS_GENOBJ-N-HTC_13
 70
     0
  0
APPID
  5
6A76
330
6A1F
100
AcDbSymbolTableRecord
100
AcDbRegAppTableRecord
  2
GENIUS_GENHATCH_13
 70
     0
  0
APPID
  5
6DA2
330
6A1F
100
AcDbSymbolTableRecord
100
AcDbRegAppTableRecord
  2
GENIUS_GENOBJ-N-CRS_13
 70
     0
  0
APPID
  5
6DA3
330
6A1F
100
AcDbSymbolTableRecord
100
AcDbRegAppTableRecord
  2
GENIUS_GENOBJ-N-FIL_13
 70
     0
  0
APPID
  5
6DD2
330
6A1F
100
AcDbSymbolTableRecord
100
AcDbRegAppTableRecord
  2
GENIUS_GENFIL_13
 70
     0
  0
APPID
  5
6DD3
330
6A1F
100
AcDbSymbolTableRecord
100
AcDbRegAppTableRecord
  2
GENIUS_GENOBJ-N-CHA_13
 70
     0
  0
APPID
  5
7FA8
330
6A1F
100
AcDbSymbolTableRecord
100
AcDbRegAppTableRecord
  2
GENIUS12
 70
     0
  0
APPID
  5
7FA9
330
6A1F
100
AcDbSymbolTableRecord
100
AcDbRegAppTableRecord
  2
GENIUS_GENCFG_13
 70
     0
  0
APPID
  5
7FAA
330
6A1F
100
AcDbSymbolTableRecord
100
AcDbRegAppTableRecord
  2
GENIUS_GEFCFG0_13
 70
     0
  0
APPID
  5
7FAB
330
6A1F
100
AcDbSymbolTableRecord
100
AcDbRegAppTableRecord
  2
GENIUS_GENCFG0_13
 70
     0
  0
APPID
  5
7FAC
330
6A1F
100
AcDbSymbolTableRecord
100
AcDbRegAppTableRecord
  2
GENIUS_GENCFG1_13
 70
     0
  0
APPID
  5
7FAD
330
6A1F
100
AcDbSymbolTableRecord
100
AcDbRegAppTableRecord
  2
GENIUS_GENCFG2_13
 70
     0
  0
APPID
  5
7FAE
330
6A1F
100
AcDbSymbolTableRecord
100
AcDbRegAppTableRecord
  2
GENIUS_GENCFG3_13
 70
     0
  0
APPID
  5
7FAF
330
6A1F
100
AcDbSymbolTableRecord
100
AcDbRegAppTableRecord
  2
GENIUS_GENCFG4_13
 70
     0
  0
APPID
  5
7FB0
330
6A1F
100
AcDbSymbolTableRecord
100
AcDbRegAppTableRecord
  2
GENIUS_GEVCFG0_13
 70
     0
  0
APPID
  5
7FB1
330
6A1F
100
AcDbSymbolTableRecord
100
AcDbRegAppTableRecord
  2
GENIUS_GENOBJ-F-SUF_13
 70
     0
  0
APPID
  5
7FB2
330
6A1F
100
AcDbSymbolTableRecord
100
AcDbRegAppTableRecord
  2
GENIUS_GENDIM_13
 70
     0
  0
APPID
  5
7FB3
330
6A1F
100
AcDbSymbolTableRecord
100
AcDbRegAppTableRecord
  2
GENIUS_GENDTOL_13
 70
     0
  0
APPID
  5
7FB4
330
6A1F
100
AcDbSymbolTableRecord
100
AcDbRegAppTableRecord
  2
GENIUS_GE3DTOL_13
 70
     0
  0
APPID
  5
7FB5
330
6A1F
100
AcDbSymbolTableRecord
100
AcDbRegAppTableRecord
  2
AD_DRAW
 70
     0
  0
APPID
  5
7FB6
330
6A1F
100
AcDbSymbolTableRecord
100
AcDbRegAppTableRecord
  2
ASURF_PCURVE_APPNAME
 70
     0
  0
APPID
  5
7FB7
330
6A1F
100
AcDbSymbolTableRecord
100
AcDbRegAppTableRecord
  2
AMG_3D2D_5_0
 70
     0
  0
APPID
  5
7FB8
330
6A1F
100
AcDbSymbolTableRecord
100
AcDbRegAppTableRecord
  2
DESIGNERASSEMBLIES
 70
     0
  0
APPID
  5
7FB9
330
6A1F
100
AcDbSymbolTableRecord
100
AcDbRegAppTableRecord
  2
ACADM_DIM_EDIT
 70
     0
  0
APPID
  5
7FBA
330
6A1F
100
AcDbSymbolTableRecord
100
AcDbRegAppTableRecord
  2
AMDT_DM_ADJ
 70
     0
  0
APPID
  5
85F3
330
6A1F
100
AcDbSymbolTableRecord
100
AcDbRegAppTableRecord
  2
GENIUS_GENOBJ-N-CEN_13
 70
     0
  0
APPID
  5
89F7
330
6A1F
100
AcDbSymbolTableRecord
100
AcDbRegAppTableRecord
  2
DCO15
 70
     0
  0
APPID
  5
8E8B
330
6A1F
100
AcDbSymbolTableRecord
100
AcDbRegAppTableRecord
  2
GEV_VCCNULL_SWITCH_OFF
 70
     0
  0
APPID
  5
9961
330
6A1F
100
AcDbSymbolTableRecord
100
AcDbRegAppTableRecord
  2
GENIUS_GE3CFG0_13
 70
     0
  0
APPID
  5
9962
330
6A1F
100
AcDbSymbolTableRecord
100
AcDbRegAppTableRecord
  2
GENIUS_GENZVEED_13
 70
     0
  0
APPID
  5
9963
330
6A1F
100
AcDbSymbolTableRecord
100
AcDbRegAppTableRecord
  2
GENIUS_GENSCREG_13
 70
     0
  0
APPID
  5
9964
330
6A1F
100
AcDbSymbolTableRecord
100
AcDbRegAppTableRecord
  2
GENIUS_GENOBJ-N-RSBK_13
 70
     0
  0
APPID
  5
9965
330
6A1F
100
AcDbSymbolTableRecord
100
AcDbRegAppTableRecord
  2
GENIUS_GENSCALE_13
 70
     0
  0
APPID
  5
9966
330
6A1F
100
AcDbSymbolTableRecord
100
AcDbRegAppTableRecord
  2
GENIUS_GENOBJ-F-TOLS_13
 70
     0
  0
APPID
  5
A076
330
6A1F
100
AcDbSymbolTableRecord
100
AcDbRegAppTableRecord
  2
GENIUS_GENOBJ-N-DIM12_13
 70
     0
  0
APPID
  5
A077
330
6A1F
100
AcDbSymbolTableRecord
100
AcDbRegAppTableRecord
  2
GENIUS_GENHINW_13
 70
     0
  0
APPID
  5
A078
330
6A1F
100
AcDbSymbolTableRecord
100
AcDbRegAppTableRecord
  2
GENIUS_GENOBJ-F-TOLL_13
 70
     0
  0
APPID
  5
A079
330
6A1F
100
AcDbSymbolTableRecord
100
AcDbRegAppTableRecord
  2
GENIUS_GEFTOLC_13
 70
     0
  0
APPID
  5
A07A
330
6A1F
100
AcDbSymbolTableRecord
100
AcDbRegAppTableRecord
  2
GENIUS_GENOBJ-F-TOL_13
 70
     0
  0
APPID
  5
A07B
330
6A1F
100
AcDbSymbolTableRecord
100
AcDbRegAppTableRecord
  2
GENIUS_GENOBJ-N-RSSYM_13
 70
     0
  0
APPID
  5
A07C
330
6A1F
100
AcDbSymbolTableRecord
100
AcDbRegAppTableRecord
  2
GENIUS_GENSYMENT_13
 70
     0
  0
APPID
  5
A07D
330
6A1F
100
AcDbSymbolTableRecord
100
AcDbRegAppTableRecord
  2
GENIUS_GENSCSYM_13
 70
     0
  0
APPID
  5
A07E
330
6A1F
100
AcDbSymbolTableRecord
100
AcDbRegAppTableRecord
  2
AD_SKETCHDIM
 70
     0
  0
ENDTAB
  0
TABLE
  2
DIMSTYLE
  5
6A20
330
0
100
AcDbSymbolTable
 70
    35
  0
DIMSTYLE
105
6A77
102
{ACAD_REACTORS
330
9AA7
330
9AA6
330
BA8A
330
BAB2
330
BAFD
330
BB48
102
}
330
6A20
100
AcDbSymbolTableRecord
100
AcDbDimStyleTableRecord
  2
AM_DIN
 70
     0
  3

  4
"
  5

  6

  7

 40
1.0
 41
2.5
 42
0.0
 43
10.0
 44
1.0
 45
0.0
 46
0.0
 47
0.1
 48
0.1
140
3.5
141
0.0
142
0.0
143
0.0393701
144
1.0
145
0.0
146
0.71
147
1.5
 71
     0
 72
     0
 73
     0
 74
     0
 75
     0
 76
     0
 77
     1
 78
     8
170
     0
171
     2
172
     1
173
     0
174
     0
175
     0
176
   256
177
   256
178
     2
270
     2
271
     2
272
     2
273
     2
274
     2
340
6A27
275
     0
280
     0
281
     0
282
     0
283
     1
284
     8
285
     8
286
     8
287
     5
288
     0
  0
DIMSTYLE
105
6A7E
330
6A20
100
AcDbSymbolTableRecord
100
AcDbDimStyleTableRecord
  2
STANDARD
 70
     0
  3

  4

  5

  6

  7

 40
1.0
 41
0.18
 42
0.0625
 43
0.38
 44
0.18
 45
0.0
 46
0.0
 47
0.0
 48
0.0
140
0.18
141
0.09
142
0.0
143
25.4
144
1.0
145
0.0
146
1.0
147
0.09
 71
     0
 72
     0
 73
     1
 74
     1
 75
     0
 76
     0
 77
     0
 78
     0
170
     0
171
     2
172
     0
173
     0
174
     0
175
     0
176
     0
177
     0
178
     0
270
     2
271
     2
272
     2
273
     2
274
     2
340
6A27
275
     0
280
     0
281
     0
282
     0
283
     1
284
     8
285
     8
286
     8
287
     5
288
     0
  0
DIMSTYLE
105
6A7F
330
6A20
100
AcDbSymbolTableRecord
100
AcDbDimStyleTableRecord
  2
AM_ANSI
 70
     0
  3

  4
mm
  5

  6

  7

 40
1.0
 41
0.1
 42
0.05
 43
0.5
 44
0.1
 45
0.0
 46
0.0
 47
0.1
 48
0.1
140
0.12
141
0.0
142
0.0
143
25.4
144
1.0
145
0.0
146
0.71
147
0.06
 71
     0
 72
     0
 73
     1
 74
     1
 75
     0
 76
     0
 77
     0
 78
     7
170
     0
171
     2
172
     0
173
     0
174
     0
175
     0
176
   256
177
   256
178
     2
270
     2
271
     2
272
     2
273
     2
274
     2
340
6A27
275
     0
280
     0
281
     0
282
     0
283
     1
284
     8
285
     8
286
     8
287
     5
288
     0
  0
DIMSTYLE
105
6A80
330
6A20
100
AcDbSymbolTableRecord
100
AcDbDimStyleTableRecord
  2
AM_ANSI$3
 70
     0
  3

  4
mm
  5

  6

  7

 40
1.0
 41
0.1
 42
0.05
 43
0.5
 44
0.1
 45
0.0
 46
0.0
 47
0.1
 48
0.1
140
0.12
141
0.0
142
0.0
143
25.4
144
1.0
145
0.0
146
0.71
147
0.06
 71
     0
 72
     0
 73
     1
 74
     1
 75
     0
 76
     0
 77
     0
 78
     7
170
     0
171
     2
172
     0
173
     0
174
     0
175
     0
176
   256
177
   256
178
     2
270
     2
271
     2
272
     2
273
     2
274
     2
340
6A27
275
     0
280
     0
281
     0
282
     0
283
     1
284
     8
285
     8
286
     8
287
     5
288
     0
  0
DIMSTYLE
105
6A81
330
6A20
100
AcDbSymbolTableRecord
100
AcDbDimStyleTableRecord
  2
AM_ANSI$4
 70
     0
  3

  4
mm
  5

  6

  7

 40
1.0
 41
0.1
 42
0.05
 43
0.5
 44
0.1
 45
0.0
 46
0.0
 47
0.1
 48
0.1
140
0.12
141
0.0
142
0.0
143
25.4
144
1.0
145
0.0
146
0.71
147
0.06
 71
     0
 72
     0
 73
     1
 74
     1
 75
     0
 76
     0
 77
     0
 78
     7
170
     0
171
     2
172
     0
173
     0
174
     0
175
     0
176
   256
177
   256
178
     2
270
     2
271
     2
272
     2
273
     2
274
     2
340
6A27
275
     0
280
     0
281
     0
282
     0
283
     1
284
     8
285
     8
286
     8
287
     5
288
     0
  0
DIMSTYLE
105
6A82
330
6A20
100
AcDbSymbolTableRecord
100
AcDbDimStyleTableRecord
  2
AM_ANSI$7
 70
     0
  3

  4
mm
  5

  6

  7

 40
1.0
 41
0.1
 42
0.05
 43
0.5
 44
0.1
 45
0.0
 46
0.0
 47
0.1
 48
0.1
140
0.24
141
0.0
142
0.0
143
25.4
144
1.0
145
0.0
146
0.71
147
0.06
 71
     0
 72
     0
 73
     1
 74
     1
 75
     0
 76
     0
 77
     0
 78
     7
170
     0
171
     2
172
     0
173
     0
174
     0
175
     0
176
   256
177
   256
178
     2
270
     2
271
     2
272
     2
273
     2
274
     2
340
6A27
275
     0
280
     0
281
     0
282
     0
283
     1
284
     8
285
     8
286
     8
287
     5
288
     0
  0
DIMSTYLE
105
6A83
330
6A20
100
AcDbSymbolTableRecord
100
AcDbDimStyleTableRecord
  2
AM_ANSI$SF
 70
     0
  3

  4
mm
  5

  6

  7

 40
1.0
 41
0.1
 42
0.05
 43
0.5
 44
0.1
 45
0.0
 46
0.0
 47
0.1
 48
0.1
140
0.12
141
0.0
142
0.0
143
25.4
144
1.0
145
0.0
146
0.71
147
0.06
 71
     0
 72
     0
 73
     1
 74
     1
 75
     1
 76
     1
 77
     0
 78
     7
170
     0
171
     2
172
     0
173
     0
174
     0
175
     0
176
   256
177
   256
178
     2
270
     2
271
     2
272
     2
273
     2
274
     2
340
6A27
275
     0
280
     0
281
     0
282
     0
283
     1
284
     8
285
     8
286
     8
287
     5
288
     0
  0
DIMSTYLE
105
6A84
330
6A20
100
AcDbSymbolTableRecord
100
AcDbDimStyleTableRecord
  2
AM_ANSI$SH
 70
     0
  3

  4
mm
  5

  6

  7

 40
1.0
 41
0.1
 42
0.05
 43
0.5
 44
0.1
 45
0.0
 46
0.0
 47
0.1
 48
0.1
140
0.12
141
0.0
142
0.0
143
25.4
144
1.0
145
0.0
146
0.71
147
0.06
 71
     0
 72
     0
 73
     1
 74
     1
 75
     1
 76
     1
 77
     0
 78
     7
170
     0
171
     2
172
     0
173
     1
174
     0
175
     0
176
   256
177
   256
178
     2
270
     2
271
     2
272
     2
273
     2
274
     2
340
6A27
275
     0
280
     0
281
     0
282
     0
283
     1
284
     8
285
     8
286
     8
287
     5
288
     0
  0
DIMSTYLE
105
6D9C
330
6A20
100
AcDbSymbolTableRecord
100
AcDbDimStyleTableRecord
  2
AM_DIN$3
 70
     0
  3

  4
"
  5

  6

  7

 40
1.0
 41
3.5
 42
0.0
 43
10.0
 44
1.0
 45
0.0
 46
0.0
 47
0.1
 48
0.1
140
3.5
141
0.0
142
0.0
143
0.0393701
144
1.0
145
0.0
146
0.71
147
1.5
 71
     0
 72
     0
 73
     0
 74
     1
 75
     0
 76
     0
 77
     1
 78
     8
170
     0
171
     2
172
     0
173
     0
174
     0
175
     0
176
   256
177
   256
178
     2
270
     2
271
     2
272
     2
273
     2
274
     2
340
6A27
275
     0
280
     0
281
     0
282
     0
283
     0
284
     8
285
     0
286
     0
287
     0
288
     1
  0
DIMSTYLE
105
6D9D
330
6A20
100
AcDbSymbolTableRecord
100
AcDbDimStyleTableRecord
  2
AM_DIN$4
 70
     0
  3

  4
"
  5

  6

  7

 40
1.0
 41
3.5
 42
0.0
 43
10.0
 44
1.0
 45
0.0
 46
0.0
 47
0.1
 48
0.1
140
3.5
141
0.0
142
0.0
143
0.0393701
144
1.0
145
0.0
146
0.71
147
1.5
 71
     0
 72
     0
 73
     0
 74
     1
 75
     0
 76
     0
 77
     1
 78
     8
170
     0
171
     2
172
     0
173
     0
174
     0
175
     0
176
   256
177
   256
178
     2
270
     2
271
     2
272
     2
273
     2
274
     2
340
6A27
275
     0
280
     0
281
     0
282
     0
283
     0
284
     8
285
     0
286
     0
287
     0
288
     1
  0
DIMSTYLE
105
6D9E
330
6A20
100
AcDbSymbolTableRecord
100
AcDbDimStyleTableRecord
  2
AM_DIN$6
 70
     0
  3

  4
"
  5

  6

  7

 40
1.0
 41
3.5
 42
0.0
 43
0.0
 44
1.0
 45
0.0
 46
0.0
 47
0.1
 48
0.1
140
3.5
141
0.0
142
0.0
143
0.0393701
144
1.0
145
0.0
146
0.71
147
1.5
 71
     0
 72
     0
 73
     0
 74
     0
 75
     0
 76
     0
 77
     0
 78
     8
170
     0
171
     2
172
     1
173
     0
174
     0
175
     0
176
   256
177
   256
178
     2
270
     2
271
     2
272
     2
273
     2
274
     2
340
6A27
275
     0
280
     0
281
     0
282
     0
283
     0
284
     8
285
     0
286
     0
287
     3
288
     0
  0
DIMSTYLE
105
6D9F
330
6A20
100
AcDbSymbolTableRecord
100
AcDbDimStyleTableRecord
  2
AM_DIN$7
 70
     0
  3

  4
"
  5

  6

  7

 40
1.0
 41
3.5
 42
0.0
 43
10.0
 44
1.0
 45
0.0
 46
0.0
 47
0.1
 48
0.1
140
3.5
141
0.0
142
0.0
143
0.0393701
144
1.0
145
0.0
146
0.71
147
1.5
 71
     0
 72
     0
 73
     0
 74
     0
 75
     0
 76
     0
 77
     1
 78
     8
170
     0
171
     2
172
     1
173
     0
174
     0
175
     0
176
   256
177
   256
178
     2
270
     2
271
     2
272
     2
273
     2
274
     2
340
6A27
275
     0
280
     0
281
     0
282
     0
283
     0
284
     8
285
     0
286
     0
287
     3
288
     0
  0
DIMSTYLE
105
6DA0
330
6A20
100
AcDbSymbolTableRecord
100
AcDbDimStyleTableRecord
  2
AM_DIN$SF
 70
     0
  3

  4
"
  5

  6

  7

 40
1.0
 41
2.5
 42
1.0
 43
10.0
 44
1.0
 45
0.0
 46
0.0
 47
0.1
 48
0.1
140
3.5
141
0.0
142
0.0
143
0.0393701
144
1.0
145
0.0
146
0.71
147
1.5
 71
     0
 72
     0
 73
     0
 74
     0
 75
     1
 76
     1
 77
     1
 78
     8
170
     0
171
     2
172
     1
173
     0
174
     0
175
     0
176
   256
177
   256
178
     2
270
     2
271
     2
272
     3
273
     2
274
     4
340
6A27
275
     0
280
     0
281
     0
282
     0
283
     0
284
     8
285
     0
286
     0
287
     3
288
     0
  0
DIMSTYLE
105
6DA1
330
6A20
100
AcDbSymbolTableRecord
100
AcDbDimStyleTableRecord
  2
AM_DIN$SH
 70
     0
  3

  4
"
  5

  6
GENAXEH
  7

 40
1.0
 41
2.5
 42
1.0
 43
10.0
 44
1.0
 45
0.0
 46
0.0
 47
0.1
 48
0.1
140
3.5
141
0.0
142
0.0
143
0.0393701
144
2.0
145
0.0
146
0.71
147
1.5
 71
     0
 72
     0
 73
     0
 74
     0
 75
     1
 76
     1
 77
     1
 78
     8
170
     0
171
     2
172
     1
173
     1
174
     0
175
     0
176
   256
177
   256
178
     2
270
     2
271
     2
272
     3
273
     2
274
     4
340
6A27
275
     0
280
     0
281
     0
282
     0
283
     0
284
     8
285
     0
286
     0
287
     3
288
     0
  0
DIMSTYLE
105
994C
330
6A20
100
AcDbSymbolTableRecord
100
AcDbDimStyleTableRecord
  2
AM_BSI
 70
     0
  3

  4
"
  5

  6

  7

 40
1.0
 41
4.0
 42
1.0
 43
10.0
 44
1.0
 45
0.0
 46
0.0
 47
0.1
 48
0.1
140
3.5
141
0.0
142
0.0
143
0.0393701
144
1.0
145
0.0
146
0.71
147
1.5
 71
     0
 72
     0
 73
     0
 74
     0
 75
     0
 76
     0
 77
     1
 78
     8
170
     0
171
     2
172
     1
173
     0
174
     0
175
     0
176
   256
177
   256
178
     2
270
     2
271
     2
272
     3
273
     2
274
     4
340
6A27
275
     0
280
     0
281
     0
282
     0
283
     0
284
     8
285
     0
286
     0
287
     3
288
     0
  0
DIMSTYLE
105
994D
330
6A20
100
AcDbSymbolTableRecord
100
AcDbDimStyleTableRecord
  2
AM_BSI$3
 70
     0
  3

  4
"
  5

  6

  7

 40
1.0
 41
4.0
 42
1.0
 43
10.0
 44
1.0
 45
0.0
 46
0.0
 47
0.1
 48
0.1
140
3.5
141
0.0
142
0.0
143
0.0393701
144
1.0
145
0.0
146
0.71
147
1.5
 71
     0
 72
     0
 73
     0
 74
     1
 75
     0
 76
     0
 77
     1
 78
     8
170
     0
171
     2
172
     0
173
     0
174
     0
175
     0
176
   256
177
   256
178
     2
270
     2
271
     2
272
     3
273
     2
274
     4
340
6A27
275
     0
280
     0
281
     0
282
     0
283
     0
284
     8
285
     0
286
     0
287
     0
288
     1
  0
DIMSTYLE
105
994E
330
6A20
100
AcDbSymbolTableRecord
100
AcDbDimStyleTableRecord
  2
AM_BSI$4
 70
     0
  3

  4
"
  5

  6

  7

 40
1.0
 41
4.0
 42
1.0
 43
10.0
 44
1.0
 45
0.0
 46
0.0
 47
0.1
 48
0.1
140
3.5
141
0.0
142
0.0
143
0.0393701
144
1.0
145
0.0
146
0.71
147
1.5
 71
     0
 72
     0
 73
     0
 74
     1
 75
     0
 76
     0
 77
     1
 78
     8
170
     0
171
     2
172
     0
173
     0
174
     0
175
     0
176
   256
177
   256
178
     2
270
     2
271
     2
272
     3
273
     2
274
     4
340
6A27
275
     0
280
     0
281
     0
282
     0
283
     0
284
     8
285
     0
286
     0
287
     0
288
     1
  0
DIMSTYLE
105
994F
330
6A20
100
AcDbSymbolTableRecord
100
AcDbDimStyleTableRecord
  2
AM_BSI$6
 70
     0
  3

  4
"
  5

  6

  7

 40
1.0
 41
4.0
 42
1.0
 43
10.0
 44
1.0
 45
0.0
 46
0.0
 47
0.1
 48
0.1
140
3.5
141
0.0
142
0.0
143
0.0393701
144
1.0
145
0.0
146
0.71
147
1.5
 71
     0
 72
     0
 73
     0
 74
     0
 75
     0
 76
     0
 77
     0
 78
     8
170
     0
171
     2
172
     1
173
     0
174
     0
175
     0
176
   256
177
   256
178
     2
270
     2
271
     2
272
     3
273
     2
274
     4
340
6A27
275
     0
280
     0
281
     0
282
     0
283
     0
284
     8
285
     0
286
     0
287
     3
288
     0
  0
DIMSTYLE
105
9950
330
6A20
100
AcDbSymbolTableRecord
100
AcDbDimStyleTableRecord
  2
AM_BSI$7
 70
     0
  3

  4
"
  5

  6

  7

 40
1.0
 41
2.5
 42
1.0
 43
10.0
 44
1.0
 45
0.0
 46
0.0
 47
0.1
 48
0.1
140
5.0
141
0.0
142
0.0
143
0.0393701
144
1.0
145
0.0
146
0.71
147
1.5
 71
     0
 72
     0
 73
     0
 74
     0
 75
     0
 76
     0
 77
     1
 78
     8
170
     0
171
     2
172
     1
173
     0
174
     0
175
     0
176
   256
177
   256
178
     2
270
     2
271
     2
272
     3
273
     2
274
     4
340
6A27
275
     0
280
     0
281
     0
282
     0
283
     0
284
     8
285
     0
286
     0
287
     3
288
     0
  0
DIMSTYLE
105
9951
330
6A20
100
AcDbSymbolTableRecord
100
AcDbDimStyleTableRecord
  2
AM_BSI$SF
 70
     0
  3

  4
"
  5

  6

  7

 40
1.0
 41
4.0
 42
1.0
 43
10.0
 44
1.0
 45
0.0
 46
0.0
 47
0.1
 48
0.1
140
3.5
141
0.0
142
0.0
143
0.0393701
144
1.0
145
0.0
146
0.71
147
1.5
 71
     0
 72
     0
 73
     0
 74
     0
 75
     1
 76
     1
 77
     1
 78
     8
170
     0
171
     2
172
     1
173
     0
174
     0
175
     0
176
   256
177
   256
178
     2
270
     2
271
     2
272
     3
273
     2
274
     4
340
6A27
275
     0
280
     0
281
     0
282
     0
283
     0
284
     8
285
     0
286
     0
287
     3
288
     0
  0
DIMSTYLE
105
9952
330
6A20
100
AcDbSymbolTableRecord
100
AcDbDimStyleTableRecord
  2
AM_BSI$SH
 70
     0
  3

  4
"
  5

  6
GENAXEH
  7

 40
1.0
 41
4.0
 42
1.0
 43
10.0
 44
1.0
 45
0.0
 46
0.0
 47
0.1
 48
0.1
140
3.5
141
0.0
142
0.0
143
0.0393701
144
2.0
145
0.0
146
0.71
147
1.5
 71
     0
 72
     0
 73
     0
 74
     0
 75
     1
 76
     1
 77
     1
 78
     8
170
     0
171
     2
172
     1
173
     1
174
     0
175
     0
176
   256
177
   256
178
     2
270
     2
271
     2
272
     3
273
     2
274
     4
340
6A27
275
     0
280
     0
281
     0
282
     0
283
     0
284
     8
285
     0
286
     0
287
     3
288
     0
  0
DIMSTYLE
105
9953
330
6A20
100
AcDbSymbolTableRecord
100
AcDbDimStyleTableRecord
  2
AM_ISO
 70
     0
  3

  4
"
  5

  6

  7

 40
1.0
 41
2.5
 42
1.0
 43
10.0
 44
1.0
 45
0.0
 46
0.0
 47
0.1
 48
0.1
140
3.5
141
0.0
142
0.0
143
0.0393701
144
1.0
145
0.0
146
0.71
147
1.5
 71
     0
 72
     0
 73
     0
 74
     0
 75
     0
 76
     0
 77
     1
 78
     8
170
     0
171
     2
172
     1
173
     0
174
     0
175
     0
176
   256
177
   256
178
     2
270
     2
271
     2
272
     3
273
     2
274
     4
340
6A27
275
     0
280
     0
281
     0
282
     0
283
     0
284
     8
285
     0
286
     0
287
     3
288
     0
  0
DIMSTYLE
105
9954
330
6A20
100
AcDbSymbolTableRecord
100
AcDbDimStyleTableRecord
  2
AM_ISO$3
 70
     0
  3

  4
"
  5

  6

  7

 40
1.0
 41
2.5
 42
1.0
 43
10.0
 44
1.0
 45
0.0
 46
0.0
 47
0.1
 48
0.1
140
3.5
141
0.0
142
0.0
143
0.0393701
144
1.0
145
0.0
146
0.71
147
1.5
 71
     0
 72
     0
 73
     0
 74
     1
 75
     0
 76
     0
 77
     1
 78
     8
170
     0
171
     2
172
     0
173
     0
174
     0
175
     0
176
   256
177
   256
178
     2
270
     2
271
     2
272
     3
273
     2
274
     4
340
6A27
275
     0
280
     0
281
     0
282
     0
283
     0
284
     8
285
     0
286
     0
287
     0
288
     1
  0
DIMSTYLE
105
9955
330
6A20
100
AcDbSymbolTableRecord
100
AcDbDimStyleTableRecord
  2
AM_ISO$4
 70
     0
  3

  4
"
  5

  6

  7

 40
1.0
 41
2.5
 42
1.0
 43
10.0
 44
1.0
 45
0.0
 46
0.0
 47
0.1
 48
0.1
140
3.5
141
0.0
142
0.0
143
0.0393701
144
1.0
145
0.0
146
0.71
147
1.5
 71
     0
 72
     0
 73
     0
 74
     1
 75
     0
 76
     0
 77
     1
 78
     8
170
     0
171
     2
172
     0
173
     0
174
     0
175
     0
176
   256
177
   256
178
     2
270
     2
271
     2
272
     3
273
     2
274
     4
340
6A27
275
     0
280
     0
281
     0
282
     0
283
     0
284
     8
285
     0
286
     0
287
     0
288
     1
  0
DIMSTYLE
105
9956
330
6A20
100
AcDbSymbolTableRecord
100
AcDbDimStyleTableRecord
  2
AM_ISO$6
 70
     0
  3

  4
"
  5

  6

  7

 40
1.0
 41
2.5
 42
1.0
 43
10.0
 44
1.0
 45
0.0
 46
0.0
 47
0.1
 48
0.1
140
3.5
141
0.0
142
0.0
143
0.0393701
144
1.0
145
0.0
146
0.71
147
1.5
 71
     0
 72
     0
 73
     0
 74
     0
 75
     0
 76
     0
 77
     0
 78
     8
170
     0
171
     2
172
     1
173
     0
174
     0
175
     0
176
   256
177
   256
178
     2
270
     2
271
     2
272
     3
273
     2
274
     4
340
6A27
275
     0
280
     0
281
     0
282
     0
283
     0
284
     8
285
     0
286
     0
287
     3
288
     0
  0
DIMSTYLE
105
9957
330
6A20
100
AcDbSymbolTableRecord
100
AcDbDimStyleTableRecord
  2
AM_ISO$7
 70
     0
  3

  4
"
  5

  6

  7

 40
1.0
 41
2.5
 42
1.0
 43
10.0
 44
1.0
 45
0.0
 46
0.0
 47
0.1
 48
0.1
140
5.0
141
0.0
142
0.0
143
0.0393701
144
1.0
145
0.0
146
0.71
147
1.5
 71
     0
 72
     0
 73
     0
 74
     0
 75
     0
 76
     0
 77
     1
 78
     8
170
     0
171
     2
172
     1
173
     0
174
     0
175
     0
176
   256
177
   256
178
     2
270
     2
271
     2
272
     3
273
     2
274
     4
340
6A27
275
     0
280
     0
281
     0
282
     0
283
     0
284
     8
285
     0
286
     0
287
     3
288
     0
  0
DIMSTYLE
105
9958
330
6A20
100
AcDbSymbolTableRecord
100
AcDbDimStyleTableRecord
  2
AM_ISO$SF
 70
     0
  3

  4
"
  5

  6

  7

 40
1.0
 41
2.5
 42
1.0
 43
10.0
 44
1.0
 45
0.0
 46
0.0
 47
0.1
 48
0.1
140
3.5
141
0.0
142
0.0
143
0.0393701
144
1.0
145
0.0
146
0.71
147
1.5
 71
     0
 72
     0
 73
     0
 74
     0
 75
     1
 76
     1
 77
     1
 78
     8
170
     0
171
     2
172
     1
173
     0
174
     0
175
     0
176
   256
177
   256
178
     2
270
     2
271
     2
272
     3
273
     2
274
     4
340
6A27
275
     0
280
     0
281
     0
282
     0
283
     0
284
     8
285
     0
286
     0
287
     3
288
     0
  0
DIMSTYLE
105
9959
330
6A20
100
AcDbSymbolTableRecord
100
AcDbDimStyleTableRecord
  2
AM_ISO$SH
 70
     0
  3

  4
"
  5

  6
GENAXEH
  7

 40
1.0
 41
2.5
 42
1.0
 43
10.0
 44
1.0
 45
0.0
 46
0.0
 47
0.1
 48
0.1
140
3.5
141
0.0
142
0.0
143
0.0393701
144
2.0
145
0.0
146
0.71
147
1.5
 71
     0
 72
     0
 73
     0
 74
     0
 75
     1
 76
     1
 77
     1
 78
     8
170
     0
171
     2
172
     1
173
     1
174
     0
175
     0
176
   256
177
   256
178
     2
270
     2
271
     2
272
     3
273
     2
274
     4
340
6A27
275
     0
280
     0
281
     0
282
     0
283
     0
284
     8
285
     0
286
     0
287
     3
288
     0
  0
DIMSTYLE
105
995A
330
6A20
100
AcDbSymbolTableRecord
100
AcDbDimStyleTableRecord
  2
AM_JIS
 70
     0
  3

  4
"
  5
OPEN30
  6
OPEN30
  7
OPEN30
 40
1.0
 41
2.5
 42
1.0
 43
10.0
 44
1.0
 45
0.0
 46
0.0
 47
0.1
 48
0.1
140
3.5
141
0.0
142
0.0
143
0.0393701
144
1.0
145
0.0
146
0.71
147
1.5
 71
     0
 72
     0
 73
     0
 74
     0
 75
     0
 76
     0
 77
     3
 78
     8
170
     0
171
     2
172
     1
173
     0
174
     0
175
     0
176
   256
177
   256
178
     2
270
     2
271
     2
272
     3
273
     2
274
     4
340
6A27
275
     0
280
     0
281
     0
282
     0
283
     0
284
     8
285
     0
286
     0
287
     3
288
     0
  0
DIMSTYLE
105
995B
330
6A20
100
AcDbSymbolTableRecord
100
AcDbDimStyleTableRecord
  2
AM_JIS$3
 70
     0
  3

  4
"
  5
OPEN30
  6
OPEN30
  7
OPEN30
 40
1.0
 41
2.5
 42
1.0
 43
10.0
 44
1.0
 45
0.0
 46
0.0
 47
0.1
 48
0.1
140
3.5
141
0.0
142
0.0
143
0.0393701
144
1.0
145
0.0
146
0.71
147
1.5
 71
     0
 72
     0
 73
     0
 74
     1
 75
     0
 76
     0
 77
     3
 78
     8
170
     0
171
     2
172
     0
173
     0
174
     0
175
     0
176
   256
177
   256
178
     2
270
     2
271
     2
272
     3
273
     2
274
     4
340
6A27
275
     0
280
     0
281
     0
282
     0
283
     0
284
     8
285
     0
286
     0
287
     0
288
     1
  0
DIMSTYLE
105
995C
330
6A20
100
AcDbSymbolTableRecord
100
AcDbDimStyleTableRecord
  2
AM_JIS$4
 70
     0
  3

  4
"
  5
OPEN30
  6
OPEN30
  7
OPEN30
 40
1.0
 41
2.5
 42
1.0
 43
10.0
 44
1.0
 45
0.0
 46
0.0
 47
0.1
 48
0.1
140
3.5
141
0.0
142
0.0
143
0.0393701
144
1.0
145
0.0
146
0.71
147
1.5
 71
     0
 72
     0
 73
     0
 74
     1
 75
     0
 76
     0
 77
     3
 78
     8
170
     0
171
     2
172
     0
173
     0
174
     0
175
     0
176
   256
177
   256
178
     2
270
     2
271
     2
272
     3
273
     2
274
     4
340
6A27
275
     0
280
     0
281
     0
282
     0
283
     0
284
     8
285
     0
286
     0
287
     0
288
     1
  0
DIMSTYLE
105
995D
330
6A20
100
AcDbSymbolTableRecord
100
AcDbDimStyleTableRecord
  2
AM_JIS$6
 70
     0
  3

  4
"
  5
OPEN30
  6
OPEN30
  7
OPEN30
 40
1.0
 41
2.5
 42
1.0
 43
10.0
 44
1.0
 45
0.0
 46
0.0
 47
0.1
 48
0.1
140
3.5
141
0.0
142
0.0
143
0.0393701
144
1.0
145
0.0
146
0.71
147
1.5
 71
     0
 72
     0
 73
     0
 74
     0
 75
     0
 76
     0
 77
     0
 78
     8
170
     0
171
     2
172
     1
173
     0
174
     0
175
     0
176
   256
177
   256
178
     2
270
     2
271
     2
272
     3
273
     2
274
     4
340
6A27
275
     0
280
     0
281
     0
282
     0
283
     0
284
     8
285
     0
286
     0
287
     3
288
     0
  0
DIMSTYLE
105
995E
330
6A20
100
AcDbSymbolTableRecord
100
AcDbDimStyleTableRecord
  2
AM_JIS$7
 70
     0
  3

  4
"
  5
OPEN30
  6
OPEN30
  7
OPEN30
 40
1.0
 41
2.5
 42
1.0
 43
10.0
 44
1.0
 45
0.0
 46
0.0
 47
0.1
 48
0.1
140
5.0
141
0.0
142
0.0
143
0.0393701
144
1.0
145
0.0
146
0.71
147
1.5
 71
     0
 72
     0
 73
     0
 74
     0
 75
     0
 76
     0
 77
     3
 78
     8
170
     0
171
     2
172
     1
173
     0
174
     0
175
     0
176
   256
177
   256
178
     2
270
     2
271
     2
272
     3
273
     2
274
     4
340
6A27
275
     0
280
     0
281
     0
282
     0
283
     0
284
     8
285
     0
286
     0
287
     3
288
     0
  0
DIMSTYLE
105
995F
330
6A20
100
AcDbSymbolTableRecord
100
AcDbDimStyleTableRecord
  2
AM_JIS$SF
 70
     0
  3

  4
"
  5
OPEN30
  6
OPEN30
  7
OPEN30
 40
1.0
 41
2.5
 42
1.0
 43
10.0
 44
1.0
 45
0.0
 46
0.0
 47
0.1
 48
0.1
140
3.5
141
0.0
142
0.0
143
0.0393701
144
1.0
145
0.0
146
0.71
147
1.5
 71
     0
 72
     0
 73
     0
 74
     0
 75
     1
 76
     1
 77
     3
 78
     8
170
     0
171
     2
172
     1
173
     0
174
     0
175
     0
176
   256
177
   256
178
     2
270
     2
271
     2
272
     3
273
     2
274
     4
340
6A27
275
     0
280
     0
281
     0
282
     0
283
     0
284
     8
285
     0
286
     0
287
     3
288
     0
  0
DIMSTYLE
105
9960
330
6A20
100
AcDbSymbolTableRecord
100
AcDbDimStyleTableRecord
  2
AM_JIS$SH
 70
     0
  3

  4
"
  5
OPEN30
  6
GENAXEH
  7
OPEN30
 40
1.0
 41
2.5
 42
1.0
 43
10.0
 44
1.0
 45
0.0
 46
0.0
 47
0.1
 48
0.1
140
3.5
141
0.0
142
0.0
143
0.0393701
144
2.0
145
0.0
146
0.71
147
1.5
 71
     0
 72
     0
 73
     0
 74
     0
 75
     1
 76
     1
 77
     3
 78
     8
170
     0
171
     2
172
     1
173
     1
174
     0
175
     0
176
   256
177
   256
178
     2
270
     2
271
     2
272
     3
273
     2
274
     4
340
6A27
275
     0
280
     0
281
     0
282
     0
283
     0
284
     8
285
     0
286
     0
287
     3
288
     0
  0
ENDTAB
  0
TABLE
  2
BLOCK_RECORD
  5
6A17
330
0
100
AcDbSymbolTable
 70
     8
  0
BLOCK_RECORD
  5
6A34
102
{ACAD_XDICTIONARY
360
6B62
102
}
330
6A17
100
AcDbSymbolTableRecord
100
AcDbBlockTableRecord
  2
*MODEL_SPACE
  0
BLOCK_RECORD
  5
6A30
102
{ACAD_XDICTIONARY
360
BC82
102
}
330
6A17
100
AcDbSymbolTableRecord
100
AcDbBlockTableRecord
  2
*PAPER_SPACE
  0
BLOCK_RECORD
  5
6D93
330
6A17
100
AcDbSymbolTableRecord
100
AcDbBlockTableRecord
  2
GENAXEH
  0
BLOCK_RECORD
  5
9908
330
6A17
100
AcDbSymbolTableRecord
100
AcDbBlockTableRecord
  2
_OPEN30
  0
BLOCK_RECORD
  5
9AD5
330
6A17
100
AcDbSymbolTableRecord
100
AcDbBlockTableRecord
  2
*D2
  0
BLOCK_RECORD
  5
9AE1
330
6A17
100
AcDbSymbolTableRecord
100
AcDbBlockTableRecord
  2
*D3
  0
BLOCK_RECORD
  5
BA8B
330
6A17
100
AcDbSymbolTableRecord
100
AcDbBlockTableRecord
  2
*D4
  0
BLOCK_RECORD
  5
BAB3
330
6A17
100
AcDbSymbolTableRecord
100
AcDbBlockTableRecord
  2
*D5
  0
BLOCK_RECORD
  5
BAFE
330
6A17
100
AcDbSymbolTableRecord
100
AcDbBlockTableRecord
  2
*D6
  0
BLOCK_RECORD
  5
BB49
330
6A17
100
AcDbSymbolTableRecord
100
AcDbBlockTableRecord
  2
*D7
  0
ENDTAB
  0
ENDSEC
  0
SECTION
  2
BLOCKS
  0
BLOCK
  5
6A35
330
6A34
100
AcDbEntity
  8
0
100
AcDbBlockBegin
  2
*MODEL_SPACE
 70
     0
 10
0.0
 20
0.0
 30
0.0
  3
*MODEL_SPACE
  1

  0
ENDBLK
  5
6A36
330
6A34
100
AcDbEntity
  8
0
100
AcDbBlockEnd
  0
BLOCK
  5
6A31
330
6A30
100
AcDbEntity
 67
     1
  8
0
100
AcDbBlockBegin
  2
*PAPER_SPACE
 70
     0
 10
0.0
 20
0.0
 30
0.0
  3
*PAPER_SPACE
  1

  0
ENDBLK
  5
6A32
330
6A30
100
AcDbEntity
 67
     1
  8
0
100
AcDbBlockEnd
  0
BLOCK
  5
6D95
330
6D93
100
AcDbEntity
  8
0
100
AcDbBlockBegin
  2
GENAXEH
 70
     0
 10
0.0
 20
0.0
 30
0.0
  3
GENAXEH
  1

  0
LINE
  5
6D94
330
6D93
100
AcDbEntity
  8
0
100
AcDbLine
 10
-1.0
 20
0.0
 30
0.0
 11
1.0
 21
0.0
 31
0.0
  0
ENDBLK
  5
6D96
330
6D93
100
AcDbEntity
  8
0
100
AcDbBlockEnd
  0
BLOCK
  5
990C
330
9908
100
AcDbEntity
  8
0
100
AcDbBlockBegin
  2
_OPEN30
 70
     0
 10
0.0
 20
0.0
 30
0.0
  3
_OPEN30
  1

  0
LINE
  5
9909
330
9908
100
AcDbEntity
  8
0
  6
BYBLOCK
 62
     0
100
AcDbLine
 10
-1.0
 20
0.26794919
 30
0.0
 11
0.0
 21
0.0
 31
0.0
  0
LINE
  5
990A
330
9908
100
AcDbEntity
  8
0
  6
BYBLOCK
 62
     0
100
AcDbLine
 10
0.0
 20
0.0
 30
0.0
 11
-1.0
 21
-0.26794919
 31
0.0
  0
LINE
  5
990B
330
9908
100
AcDbEntity
  8
0
  6
BYBLOCK
 62
     0
100
AcDbLine
 10
0.0
 20
0.0
 30
0.0
 11
-1.0
 21
0.0
 31
0.0
  0
ENDBLK
  5
990D
330
9908
100
AcDbEntity
  8
0
100
AcDbBlockEnd
  0
BLOCK
  5
9ADF
330
9AD5
100
AcDbEntity
  8
0
100
AcDbBlockBegin
  2
*D2
 70
     1
 10
0.0
 20
0.0
 30
0.0
  3
*D2
  1

  0
LINE
  5
A013
330
9AD5
100
AcDbEntity
  8
SK2
100
AcDbLine
 10
-40.88626023734595
 20
18.49999999999915
 30
0.0
 11
-66.52761595660748
 21
18.49999999999915
 31
0.0
  0
LINE
  5
A014
330
9AD5
100
AcDbEntity
  8
SK2
100
AcDbLine
 10
-40.88626023734595
 20
-18.50000000000084
 30
0.0
 11
-66.52761595660748
 21
-18.50000000000084
 31
0.0
  0
LINE
  5
A015
330
9AD5
100
AcDbEntity
  8
SK2
100
AcDbLine
 10
-65.52761595660747
 20
15.99999999999915
 30
0.0
 11
-65.52761595660747
 21
-16.00000000000084
 31
0.0
  0
SOLID
  5
A016
330
9AD5
100
AcDbEntity
  8
SK2
100
AcDbTrace
 10
-65.94428262327415
 20
15.99999999999915
 30
0.0
 11
-65.1109492899408
 21
15.99999999999915
 31
0.0
 12
-65.52761595660747
 22
18.49999999999915
 32
0.0
 13
-65.52761595660747
 23
18.49999999999915
 33
0.0
  0
SOLID
  5
A017
330
9AD5
100
AcDbEntity
  8
SK2
100
AcDbTrace
 10
-65.94428262327415
 20
-16.00000000000084
 30
0.0
 11
-65.1109492899408
 21
-16.00000000000084
 31
0.0
 12
-65.52761595660747
 22
-18.50000000000084
 32
0.0
 13
-65.52761595660747
 23
-18.50000000000084
 33
0.0
  0
MTEXT
  5
A018
330
9AD5
100
AcDbEntity
  8
SK2
 62
     2
100
AcDbMText
 10
-68.77761595660747
 20
-0.0000000000008518
 30
0.0
 40
3.5
 41
0.0
 71
     5
 72
     1
  1
\A1;%%c37
 11
0.0000000000000001
 21
1.0
 31
0.0
1001
ACAD
1000
MTEXTBEGIN
1070
    73
1070
     1
1070
    44
1040
1.0
1070
    74
1070
     0
1000
MTEXTEND
  0
POINT
  5
A019
330
9AD5
100
AcDbEntity
  8
DEFPOINTS
 62
     0
100
AcDbPoint
 10
-40.88626023734595
 20
18.49999999999915
 30
0.0
  0
POINT
  5
A01A
330
9AD5
100
AcDbEntity
  8
DEFPOINTS
 62
     0
100
AcDbPoint
 10
-40.88626023734595
 20
-18.50000000000084
 30
0.0
  0
POINT
  5
A01B
330
9AD5
100
AcDbEntity
  8
DEFPOINTS
 62
     0
100
AcDbPoint
 10
-65.52761595660747
 20
-18.50000000000084
 30
0.0
  0
ENDBLK
  5
9AE0
330
9AD5
100
AcDbEntity
  8
0
100
AcDbBlockEnd
  0
BLOCK
  5
9AEB
330
9AE1
100
AcDbEntity
  8
0
100
AcDbBlockBegin
  2
*D3
 70
     1
 10
0.0
 20
0.0
 30
0.0
  3
*D3
  1

  0
LINE
  5
A00A
330
9AE1
100
AcDbEntity
  8
SK2
100
AcDbLine
 10
-0.2100966007178773
 20
38.99999999999921
 30
0.0
 11
-82.43783185346414
 21
38.99999999999923
 31
0.0
  0
LINE
  5
A00B
330
9AE1
100
AcDbEntity
  8
SK2
100
AcDbLine
 10
-0.2100966007178773
 20
-39.00000000000084
 30
0.0
 11
-82.43783185346417
 21
-39.00000000000082
 31
0.0
  0
LINE
  5
A00C
330
9AE1
100
AcDbEntity
  8
SK2
100
AcDbLine
 10
-81.43783185346414
 20
36.49999999999923
 30
0.0
 11
-81.43783185346418
 21
-36.50000000000082
 31
0.0
  0
SOLID
  5
A00D
330
9AE1
100
AcDbEntity
  8
SK2
100
AcDbTrace
 10
-81.85449852013082
 20
36.49999999999923
 30
0.0
 11
-81.02116518679748
 21
36.49999999999923
 31
0.0
 12
-81.43783185346414
 22
38.99999999999923
 32
0.0
 13
-81.43783185346414
 23
38.99999999999923
 33
0.0
  0
SOLID
  5
A00E
330
9AE1
100
AcDbEntity
  8
SK2
100
AcDbTrace
 10
-81.85449852013084
 20
-36.50000000000082
 30
0.0
 11
-81.0211651867975
 21
-36.50000000000082
 31
0.0
 12
-81.43783185346418
 22
-39.00000000000082
 32
0.0
 13
-81.43783185346418
 23
-39.00000000000082
 33
0.0
  0
MTEXT
  5
A00F
330
9AE1
100
AcDbEntity
  8
SK2
 62
     2
100
AcDbMText
 10
-84.68783185346415
 20
-0.0000000000008046
 30
0.0
 40
3.5
 41
0.0
 71
     5
 72
     1
  1
\A1;%%c78
 11
0.0000000000000001
 21
1.0
 31
0.0
1001
ACAD
1000
MTEXTBEGIN
1070
    73
1070
     1
1070
    44
1040
1.0
1070
    74
1070
     0
1000
MTEXTEND
  0
POINT
  5
A010
330
9AE1
100
AcDbEntity
  8
DEFPOINTS
 62
     0
100
AcDbPoint
 10
-0.2100966007178773
 20
38.99999999999921
 30
0.0
  0
POINT
  5
A011
330
9AE1
100
AcDbEntity
  8
DEFPOINTS
 62
     0
100
AcDbPoint
 10
-0.2100966007178773
 20
-39.00000000000084
 30
0.0
  0
POINT
  5
A012
330
9AE1
100
AcDbEntity
  8
DEFPOINTS
 62
     0
100
AcDbPoint
 10
-81.43783185346418
 20
-39.00000000000082
 30
0.0
  0
ENDBLK
  5
9AEC
330
9AE1
100
AcDbEntity
  8
0
100
AcDbBlockEnd
  0
BLOCK
  5
BA95
330
BA8B
100
AcDbEntity
  8
0
100
AcDbBlockBegin
  2
*D4
 70
     1
 10
0.0
 20
0.0
 30
0.0
  3
*D4
  1

  0
LINE
  5
BBA9
330
BA8B
100
AcDbEntity
  8
2
100
AcDbLine
 10
115.789903399282
 20
31.49999999999917
 30
0.0
 11
115.789903399282
 21
75.99999999999917
 31
0.0
  0
LINE
  5
BBAA
330
BA8B
100
AcDbEntity
  8
2
100
AcDbLine
 10
-0.2100966007178773
 20
38.99999999999921
 30
0.0
 11
-0.210096600717875
 21
75.99999999999917
 31
0.0
  0
LINE
  5
BBAB
330
BA8B
100
AcDbEntity
  8
2
100
AcDbLine
 10
113.289903399282
 20
74.99999999999918
 30
0.0
 11
2.289903399282124
 21
74.99999999999918
 31
0.0
  0
SOLID
  5
BBAC
330
BA8B
100
AcDbEntity
  8
2
100
AcDbTrace
 10
113.289903399282
 20
75.41666666666585
 30
0.0
 11
113.289903399282
 21
74.5833333333325
 31
0.0
 12
115.789903399282
 22
74.99999999999918
 32
0.0
 13
115.789903399282
 23
74.99999999999918
 33
0.0
  0
SOLID
  5
BBAD
330
BA8B
100
AcDbEntity
  8
2
100
AcDbTrace
 10
2.289903399282124
 20
75.41666666666585
 30
0.0
 11
2.289903399282124
 21
74.5833333333325
 31
0.0
 12
-0.2100966007178751
 22
74.99999999999918
 32
0.0
 13
-0.2100966007178751
 23
74.99999999999918
 33
0.0
  0
MTEXT
  5
BBAE
330
BA8B
100
AcDbEntity
  8
2
 62
     2
100
AcDbMText
 10
57.78990339928207
 20
78.24999999999917
 30
0.0
 40
3.5
 41
0.0
 71
     5
 72
     1
  1
\A1;116
1001
ACAD
1000
MTEXTBEGIN
1070
    73
1070
     1
1070
    44
1040
1.0
1070
    74
1070
     0
1000
MTEXTEND
  0
POINT
  5
BBAF
330
BA8B
100
AcDbEntity
  8
DEFPOINTS
 62
     0
100
AcDbPoint
 10
115.789903399282
 20
31.49999999999917
 30
0.0
  0
POINT
  5
BBB0
330
BA8B
100
AcDbEntity
  8
DEFPOINTS
 62
     0
100
AcDbPoint
 10
-0.2100966007178773
 20
38.99999999999921
 30
0.0
  0
POINT
  5
BBB1
330
BA8B
100
AcDbEntity
  8
DEFPOINTS
 62
     0
100
AcDbPoint
 10
-0.2100966007178751
 20
74.99999999999918
 30
0.0
  0
ENDBLK
  5
BA96
330
BA8B
100
AcDbEntity
  8
0
100
AcDbBlockEnd
  0
BLOCK
  5
BABD
330
BAB3
100
AcDbEntity
  8
0
100
AcDbBlockBegin
  2
*D5
 70
     1
 10
0.0
 20
0.0
 30
0.0
  3
*D5
  1

  0
LINE
  5
BBD2
330
BAB3
100
AcDbEntity
  8
2
100
AcDbLine
 10
115.789903399282
 20
31.49999999999917
 30
0.0
 11
115.789903399282
 21
45.99999999999917
 31
0.0
  0
LINE
  5
BBD3
330
BAB3
100
AcDbEntity
  8
2
100
AcDbLine
 10
25.78990339928202
 20
31.49999999999911
 30
0.0
 11
25.78990339928202
 21
45.99999999999917
 31
0.0
  0
LINE
  5
BBD4
330
BAB3
100
AcDbEntity
  8
2
100
AcDbLine
 10
113.289903399282
 20
44.99999999999917
 30
0.0
 11
28.28990339928202
 21
44.99999999999917
 31
0.0
  0
SOLID
  5
BBD5
330
BAB3
100
AcDbEntity
  8
2
100
AcDbTrace
 10
113.289903399282
 20
45.41666666666584
 30
0.0
 11
113.289903399282
 21
44.58333333333251
 31
0.0
 12
115.789903399282
 22
44.99999999999917
 32
0.0
 13
115.789903399282
 23
44.99999999999917
 33
0.0
  0
SOLID
  5
BBD6
330
BAB3
100
AcDbEntity
  8
2
100
AcDbTrace
 10
28.28990339928202
 20
45.41666666666584
 30
0.0
 11
28.28990339928202
 21
44.58333333333251
 31
0.0
 12
25.78990339928202
 22
44.99999999999917
 32
0.0
 13
25.78990339928202
 23
44.99999999999917
 33
0.0
  0
MTEXT
  5
BBD7
330
BAB3
100
AcDbEntity
  8
2
 62
     2
100
AcDbMText
 10
70.78990339928203
 20
48.24999999999917
 30
0.0
 40
3.5
 41
0.0
 71
     5
 72
     1
  1
\A1;90
1001
ACAD
1000
MTEXTBEGIN
1070
    73
1070
     1
1070
    44
1040
1.0
1070
    74
1070
     0
1000
MTEXTEND
  0
POINT
  5
BBD8
330
BAB3
100
AcDbEntity
  8
DEFPOINTS
 62
     0
100
AcDbPoint
 10
115.789903399282
 20
31.49999999999917
 30
0.0
  0
POINT
  5
BBD9
330
BAB3
100
AcDbEntity
  8
DEFPOINTS
 62
     0
100
AcDbPoint
 10
25.78990339928202
 20
31.49999999999911
 30
0.0
  0
POINT
  5
BBDA
330
BAB3
100
AcDbEntity
  8
DEFPOINTS
 62
     0
100
AcDbPoint
 10
25.78990339928202
 20
44.99999999999917
 30
0.0
  0
ENDBLK
  5
BABE
330
BAB3
100
AcDbEntity
  8
0
100
AcDbBlockEnd
  0
BLOCK
  5
BB08
330
BAFE
100
AcDbEntity
  8
0
100
AcDbBlockBegin
  2
*D6
 70
     1
 10
0.0
 20
0.0
 30
0.0
  3
*D6
  1

  0
LINE
  5
BB97
330
BAFE
100
AcDbEntity
  8
2
100
AcDbLine
 10
115.789903399282
 20
31.49999999999917
 30
0.0
 11
115.789903399282
 21
60.99999999999917
 31
0.0
  0
LINE
  5
BB98
330
BAFE
100
AcDbEntity
  8
2
100
AcDbLine
 10
13.78990339928212
 20
31.99143398272579
 30
0.0
 11
13.78990339928212
 21
60.99999999999917
 31
0.0
  0
LINE
  5
BB99
330
BAFE
100
AcDbEntity
  8
2
100
AcDbLine
 10
113.289903399282
 20
59.99999999999918
 30
0.0
 11
16.28990339928212
 21
59.99999999999918
 31
0.0
  0
SOLID
  5
BB9A
330
BAFE
100
AcDbEntity
  8
2
100
AcDbTrace
 10
113.289903399282
 20
60.41666666666584
 30
0.0
 11
113.289903399282
 21
59.58333333333251
 31
0.0
 12
115.789903399282
 22
59.99999999999918
 32
0.0
 13
115.789903399282
 23
59.99999999999918
 33
0.0
  0
SOLID
  5
BB9B
330
BAFE
100
AcDbEntity
  8
2
100
AcDbTrace
 10
16.28990339928212
 20
60.41666666666584
 30
0.0
 11
16.28990339928212
 21
59.58333333333251
 31
0.0
 12
13.78990339928212
 22
59.99999999999918
 32
0.0
 13
13.78990339928212
 23
59.99999999999918
 33
0.0
  0
MTEXT
  5
BB9C
330
BAFE
100
AcDbEntity
  8
2
 62
     2
100
AcDbMText
 10
64.78990339928208
 20
63.25034448818815
 30
0.0
 40
3.5
 41
0.0
 71
     5
 72
     1
  1
\A1;102
1001
ACAD
1000
MTEXTBEGIN
1070
    73
1070
     1
1070
    44
1040
1.0
1070
    74
1070
     0
1000
MTEXTEND
  0
POINT
  5
BB9D
330
BAFE
100
AcDbEntity
  8
DEFPOINTS
 62
     0
100
AcDbPoint
 10
115.789903399282
 20
31.49999999999917
 30
0.0
  0
POINT
  5
BB9E
330
BAFE
100
AcDbEntity
  8
DEFPOINTS
 62
     0
100
AcDbPoint
 10
13.78990339928212
 20
31.99143398272579
 30
0.0
  0
POINT
  5
BB9F
330
BAFE
100
AcDbEntity
  8
DEFPOINTS
 62
     0
100
AcDbPoint
 10
13.78990339928212
 20
59.99999999999918
 30
0.0
  0
ENDBLK
  5
BB09
330
BAFE
100
AcDbEntity
  8
0
100
AcDbBlockEnd
  0
BLOCK
  5
BB53
330
BB49
100
AcDbEntity
  8
0
100
AcDbBlockBegin
  2
*D7
 70
     1
 10
0.0
 20
0.0
 30
0.0
  3
*D7
  1

  0
LINE
  5
BBB2
330
BB49
100
AcDbEntity
  8
2
100
AcDbLine
 10
115.789903399282
 20
31.49999999999917
 30
0.0
 11
156.0194737468089
 21
31.49999999999916
 31
0.0
  0
LINE
  5
BBB3
330
BB49
100
AcDbEntity
  8
2
100
AcDbLine
 10
115.789903399282
 20
-31.50000000000082
 30
0.0
 11
156.0194737468089
 21
-31.50000000000083
 31
0.0
  0
LINE
  5
BBB4
330
BB49
100
AcDbEntity
  8
2
100
AcDbLine
 10
155.0194737468089
 20
28.99999999999916
 30
0.0
 11
155.0194737468089
 21
-29.00000000000083
 31
0.0
  0
SOLID
  5
BBB5
330
BB49
100
AcDbEntity
  8
2
100
AcDbTrace
 10
154.6028070801422
 20
28.99999999999916
 30
0.0
 11
155.4361404134755
 21
28.99999999999916
 31
0.0
 12
155.0194737468089
 22
31.49999999999916
 32
0.0
 13
155.0194737468089
 23
31.49999999999916
 33
0.0
  0
SOLID
  5
BBB6
330
BB49
100
AcDbEntity
  8
2
100
AcDbTrace
 10
154.6028070801422
 20
-29.00000000000083
 30
0.0
 11
155.4361404134755
 21
-29.00000000000083
 31
0.0
 12
155.0194737468089
 22
-31.50000000000083
 32
0.0
 13
155.0194737468089
 23
-31.50000000000083
 33
0.0
  0
MTEXT
  5
BBB7
330
BB49
100
AcDbEntity
  8
2
 62
     2
100
AcDbMText
 10
151.7694737468088
 20
-0.000000000000812
 30
0.0
 40
3.5
 41
0.0
 71
     5
 72
     1
  1
\A1;%%c63
 11
0.0000000000000001
 21
1.0
 31
0.0
1001
ACAD
1000
MTEXTBEGIN
1070
    73
1070
     1
1070
    44
1040
1.0
1070
    74
1070
     0
1000
MTEXTEND
  0
POINT
  5
BBB8
330
BB49
100
AcDbEntity
  8
DEFPOINTS
 62
     0
100
AcDbPoint
 10
115.789903399282
 20
31.49999999999917
 30
0.0
  0
POINT
  5
BBB9
330
BB49
100
AcDbEntity
  8
DEFPOINTS
 62
     0
100
AcDbPoint
 10
115.789903399282
 20
-31.50000000000082
 30
0.0
  0
POINT
  5
BBBA
330
BB49
100
AcDbEntity
  8
DEFPOINTS
 62
     0
100
AcDbPoint
 10
155.0194737468089
 20
-31.50000000000083
 30
0.0
  0
ENDBLK
  5
BB54
330
BB49
100
AcDbEntity
  8
0
100
AcDbBlockEnd
  0
ENDSEC
  0
SECTION
  2
ENTITIES
  0
LINE
  5
9077
330
6A34
100
AcDbEntity
  8
SK1
100
AcDbLine
 10
-2.296748951273333
 20
-2.086652350555439
 30
0.0
 11
1.876555749836713
 21
2.086652350554604
 31
0.0
  0
CIRCLE
  5
9078
330
6A34
100
AcDbEntity
  8
SK1
100
AcDbCircle
 10
-0.2100966007182894
 20
-0.0000000000003979
 30
0.0
 40
2.950972054112602
  0
LINE
  5
9079
330
6A34
100
AcDbEntity
  8
SK1
100
AcDbLine
 10
-2.296748951273313
 20
2.086652350554625
 30
0.0
 11
1.876555749836731
 21
-2.086652350555421
 31
0.0
  0
DIMENSION
  5
9AA6
330
6A34
100
AcDbEntity
  8
SK2
100
AcDbDimension
  2
*D3
 10
-81.43783185346418
 20
-39.00000000000082
 30
0.0
 11
-84.68783185346415
 21
-0.0000000000008046
 31
0.0
 70
    32
  1
%%c<>
  3
AM_DIN
100
AcDbAlignedDimension
 13
-0.2100966007178773
 23
38.99999999999921
 33
0.0
 14
-0.2100966007178773
 24
-39.00000000000084
 34
0.0
 50
90.0
100
AcDbRotatedDimension
  0
DIMENSION
  5
9AA7
330
6A34
100
AcDbEntity
  8
SK2
100
AcDbDimension
  2
*D2
 10
-65.52761595660747
 20
-18.50000000000084
 30
0.0
 11
-68.77761595660747
 21
-0.0000000000008518
 31
0.0
 70
    32
  1
%%c<>
  3
AM_DIN
100
AcDbAlignedDimension
 13
-40.88626023734595
 23
18.49999999999915
 33
0.0
 14
-40.88626023734595
 24
-18.50000000000084
 34
0.0
 50
89.99999999999674
100
AcDbRotatedDimension
  0
LINE
  5
9AA8
330
6A34
100
AcDbEntity
  8
SK3
 48
0.3
100
AcDbLine
 10
11.09244284443023
 20
25.98076211353256
 30
0.0
 11
9.789903399282122
 21
20.98076211353288
 31
0.0
  0
LINE
  5
9AA9
330
6A34
100
AcDbEntity
  8
SK3
 48
0.3
100
AcDbLine
 10
9.789903399282122
 20
20.98076211353288
 30
0.0
 11
9.789903399282122
 21
30.980762113533
 31
0.0
  0
LINE
  5
9AAA
330
6A34
100
AcDbEntity
  8
SK3
 48
0.3
100
AcDbLine
 10
-0.2100966007179341
 20
20.98076211353282
 30
0.0
 11
9.789903399282122
 21
20.98076211353288
 31
0.0
  0
LINE
  5
9AAB
330
6A34
100
AcDbEntity
  8
SK4
100
AcDbLine
 10
11.93350521844639
 20
25.98076211353256
 30
0.0
 11
-3.022028985441311
 21
25.98076211353288
 31
0.0
  0
LINE
  5
9AAC
330
6A34
100
AcDbEntity
  8
SK3
 48
0.3
100
AcDbLine
 10
9.789903399282122
 20
30.980762113533
 30
0.0
 11
-0.2100966007179341
 21
30.980762113533
 31
0.0
  0
LINE
  5
9AAD
330
6A34
100
AcDbEntity
  8
SK3
 48
0.3
100
AcDbLine
 10
9.789903399282122
 20
30.980762113533
 30
0.0
 11
11.09244284443023
 21
25.98076211353256
 31
0.0
  0
LINE
  5
9AAE
330
6A34
100
AcDbEntity
  8
SK3
 48
0.3
100
AcDbLine
 10
9.789903399282122
 20
-20.98076211353457
 30
0.0
 11
9.789903399282122
 21
-30.98076211353468
 31
0.0
  0
LINE
  5
9AAF
330
6A34
100
AcDbEntity
  8
SK3
 48
0.3
100
AcDbLine
 10
9.789903399282122
 20
-30.98076211353468
 30
0.0
 11
11.09244284443023
 21
-25.9807621135349
 31
0.0
  0
LINE
  5
9AB0
330
6A34
100
AcDbEntity
  8
SK3
 48
0.3
100
AcDbLine
 10
9.789903399282122
 20
-30.98076211353468
 30
0.0
 11
-0.2100966007179341
 21
-30.98076211353468
 31
0.0
  0
LINE
  5
9AB1
330
6A34
100
AcDbEntity
  8
SK3
 48
0.3
100
AcDbLine
 10
-0.2100966007179341
 20
-20.98076211353457
 30
0.0
 11
9.789903399282122
 21
-20.98076211353457
 31
0.0
  0
LINE
  5
9AB3
330
6A34
100
AcDbEntity
  8
SK3
 48
0.3
100
AcDbLine
 10
11.09244284443023
 20
-25.9807621135349
 30
0.0
 11
9.789903399282122
 21
-20.98076211353457
 31
0.0
  0
LINE
  5
9AB5
330
6A34
100
AcDbEntity
  8
1
100
AcDbLine
 10
-0.2100966007178773
 20
-39.00000000000084
 30
0.0
 11
-0.2100966007178773
 21
38.99999999999921
 31
0.0
  0
LINE
  5
9AB8
330
6A34
100
AcDbEntity
  8
SK1
100
AcDbLine
 10
-0.2100966007178773
 20
-18.5000000000001
 30
0.0
 11
-40.88626023734595
 21
-18.50000000000084
 31
0.0
  0
LINE
  5
9AB9
330
6A34
100
AcDbEntity
  8
SK1
100
AcDbLine
 10
-24.45801048508998
 20
-7.855955094493758
 30
0.0
 11
-30.3289210936535
 21
-7.855955094493758
 31
0.0
  0
LINE
  5
9ABA
330
6A34
100
AcDbEntity
  8
SK1
100
AcDbLine
 10
-40.88626023734595
 20
-18.50000000000084
 30
0.0
 11
-40.88626023734595
 21
18.49999999999938
 31
0.0
  0
ARC
  5
9ABB
330
6A34
100
AcDbEntity
  8
SK1
100
AcDbCircle
 10
-27.534910054723
 20
0.4417822109685759
 30
0.0
 40
8.75550924139353
100
AcDbArc
 50
182.8922371611422
 51
251.3906104502299
  0
LINE
  5
9ABC
330
6A34
100
AcDbEntity
  8
SK1
100
AcDbLine
 10
-47.21009660071469
 20
-17.90582988179385
 30
0.0
 11
-47.21009660071469
 21
17.90582988179216
 31
0.0
  0
LINE
  5
9ABD
330
6A34
100
AcDbEntity
  8
SK1
100
AcDbLine
 10
-44.88626023734595
 20
-17.90582988179385
 30
0.0
 11
-44.88626023734595
 21
17.90582988179216
 31
0.0
  0
LINE
  5
9ABE
330
6A34
100
AcDbEntity
  8
SK1
100
AcDbLine
 10
-40.88626023734595
 20
-18.50000000000084
 30
0.0
 11
-44.88626023734595
 21
-17.90582988179385
 31
0.0
  0
ARC
  5
9ABF
330
6A34
100
AcDbEntity
  8
SK1
100
AcDbCircle
 10
-46.04817841903035
 20
-16.60478105201655
 30
0.0
 40
1.744357164801248
100
AcDbArc
 50
228.2331476390824
 51
311.7668523609175
  0
ARC
  5
9AC0
330
6A34
100
AcDbEntity
  8
SK1
100
AcDbCircle
 10
-40.92532949651543
 20
0.0722481357819973
 30
0.0
 40
18.27646032153398
100
AcDbArc
 50
334.2914752476693
 51
25.70852475232848
  0
LINE
  5
9AC1
330
6A34
100
AcDbEntity
  8
SK3
 48
0.3
100
AcDbLine
 10
-19.21009660071781
 20
18.49999999999887
 30
0.0
 11
-19.21009660071787
 21
-18.50000000000044
 31
0.0
  0
LINE
  5
9AC2
330
6A34
100
AcDbEntity
  8
SK3
 48
0.3
100
AcDbLine
 10
-15.21009660071782
 20
18.49999999999875
 30
0.0
 11
-15.21009660071793
 21
-18.50000000000039
 31
0.0
  0
LINE
  5
9AC3
330
6A34
100
AcDbEntity
  8
SK4
100
AcDbLine
 10
-17.21009660071787
 20
21.01943968152461
 30
0.0
 11
-17.21009660071787
 21
-19.81697501676324
 31
0.0
  0
ARC
  5
9AC4
330
6A34
100
AcDbEntity
  8
SK1
100
AcDbCircle
 10
-23.3934657893714
 20
-3.916091487353348
 30
0.0
 40
4.0
100
AcDbArc
 50
180.0000000000016
 51
243.4349488229198
1001
GENIUS_GENOBJ-N-FIL_13
1002
{
1000
OWNER
1000
GEN
1002
}
1001
GENIUS_GENODEF_13
1002
{
1000
HIER
1070
     0
1002
}
1002
{
1000
MANEDIT
1070
     0
1002
}
1002
{
1000
NOSEL
1070
     0
1002
}
1002
{
1000
BEHIND
1070
     0
1002
}
1002
{
1000
OTHER
1070
     0
1002
}
1002
{
1000
REACTOR
1002
}
  0
LINE
  5
9AC5
330
6A34
100
AcDbEntity
  8
SK1
100
AcDbLine
 10
-24.45801048508998
 20
-7.855955094493758
 30
0.0
 11
-25.18232017137139
 21
-7.493800251352972
 31
0.0
  0
LINE
  5
9AC6
330
6A34
100
AcDbEntity
  8
SK1
100
AcDbLine
 10
-3.117788868122106
 20
-18.5000000000001
 30
0.0
 11
-3.117788868121424
 21
18.49999999999858
 31
0.0
  0
LINE
  5
9AC7
330
6A34
100
AcDbEntity
  8
SK4
100
AcDbLine
 10
-0.2100966007178773
 20
-0.0000000000007887
 30
0.0
 11
-47.21009660071472
 21
-0.0000000000007887
 31
0.0
  0
LINE
  5
9AC8
330
6A34
100
AcDbEntity
  8
SK1
100
AcDbLine
 10
-0.2100966007178773
 20
18.49999999999841
 30
0.0
 11
-40.88626023734595
 21
18.49999999999915
 31
0.0
  0
LINE
  5
9AC9
330
6A34
100
AcDbEntity
  8
SK3
 48
0.3
100
AcDbLine
 10
-47.21009660071475
 20
-4.000000000000163
 30
0.0
 11
7.57610942101577
 21
-4.000000000000333
 31
0.0
  0
LINE
  5
9ACA
330
6A34
100
AcDbEntity
  8
SK3
 48
0.3
100
AcDbLine
 10
-47.21009660071475
 20
3.999999999999722
 30
0.0
 11
7.175681663803414
 21
3.999999999999722
 31
0.0
  0
LINE
  5
9ACB
330
6A34
100
AcDbEntity
  8
SK1
100
AcDbLine
 10
-24.45801048508981
 20
8.000451366057241
 30
0.0
 11
-30.32892109365407
 21
8.000451366057241
 31
0.0
  0
LINE
  5
9ACC
330
6A34
100
AcDbEntity
  8
SK1
100
AcDbLine
 10
-40.88626023734595
 20
18.49999999999915
 30
0.0
 11
-44.88626023734595
 21
17.90582988179216
 31
0.0
  0
ARC
  5
9ACD
330
6A34
100
AcDbEntity
  8
SK1
100
AcDbCircle
 10
-46.04817841903035
 20
16.60478105201497
 30
0.0
 40
1.744357164801248
100
AcDbArc
 50
48.23314763908244
 51
131.7668523609175
  0
ARC
  5
9ACE
330
6A34
100
AcDbEntity
  8
SK1
100
AcDbCircle
 10
-27.53491005472302
 20
-0.441782210970267
 30
0.0
 40
8.755509241393484
100
AcDbArc
 50
108.60938954977
 51
177.107762838856
  0
LINE
  5
9ACF
330
6A34
100
AcDbEntity
  8
SK1
100
AcDbLine
 10
-27.39346578937137
 20
-3.916091487353519
 30
0.0
 11
-27.39346578937146
 21
3.916091487351913
 31
0.0
  0
CIRCLE
  5
9AD0
330
6A34
100
AcDbEntity
  8
SK1
100
AcDbCircle
 10
-17.2100966007179
 20
-0.0000000000007887
 30
0.0
 40
2.0
  0
ARC
  5
9AD1
330
6A34
100
AcDbEntity
  8
SK1
100
AcDbCircle
 10
-23.39346578937149
 20
3.916091487352083
 30
0.0
 40
4.0
100
AcDbArc
 50
116.565051177083
 51
180.0000000000016
1001
GENIUS_GENOBJ-N-FIL_13
1002
{
1000
OWNER
1000
GEN
1002
}
1001
GENIUS_GENODEF_13
1002
{
1000
HIER
1070
     0
1002
}
1002
{
1000
MANEDIT
1070
     0
1002
}
1002
{
1000
NOSEL
1070
     0
1002
}
1002
{
1000
BEHIND
1070
     0
1002
}
1002
{
1000
OTHER
1070
     0
1002
}
1002
{
1000
REACTOR
1002
}
  0
LINE
  5
9AD2
330
6A34
100
AcDbEntity
  8
SK1
100
AcDbLine
 10
-24.45801048509024
 20
7.855955094492379
 30
0.0
 11
-25.18232017137158
 21
7.493800251351537
 31
0.0
  0
TEXT
  5
9AD3
330
6A34
100
AcDbEntity
  8
SK6
100
AcDbText
 10
-37.85086444033648
 20
26.18370907458541
 30
0.0
 40
2.5
  1
modular 50
100
AcDbText
  0
LINE
  5
9AD4
330
6A34
100
AcDbEntity
  8
1
100
AcDbLine
 10
11.7900385111115
 20
38.99999999999886
 30
0.0
 11
-0.2100966007178773
 21
38.99999999999921
 31
0.0
  0
LINE
  5
9B68
330
6A34
100
AcDbEntity
  8
SK4
100
AcDbLine
 10
11.93350521845289
 20
-25.98076211354071
 30
0.0
 11
-3.022028985434818
 21
-25.98076211354455
 31
0.0
  0
LINE
  5
A8F5
330
6A34
100
AcDbEntity
  8
1
100
AcDbLine
 10
11.7900385111115
 20
-39.00000000000702
 30
0.0
 11
-0.2100966007081126
 21
-39.00000000001016
 31
0.0
  0
LINE
  5
AE36
330
6A34
100
AcDbEntity
  8
NOCUT
100
AcDbLine
 10
-0.2100966007178897
 20
-39.00000000000085
 30
0.0
 11
-0.2100966007178897
 21
0.0
 31
0.0
  0
LINE
  5
AE40
330
6A34
100
AcDbEntity
  8
NOCUT
100
AcDbLine
 10
11.79003851111129
 20
-39.00000000000703
 30
0.0
 11
-0.2100966007081126
 21
-39.00000000001017
 31
0.0
  0
LINE
  5
B2E8
330
6A34
100
AcDbEntity
  8
1
100
AcDbLine
 10
11.7900385111115
 20
38.99999999999886
 30
0.0
 11
11.7900385111115
 21
-39.00000000000702
 31
0.0
  0
TEXT
  5
B63C
330
6A34
100
AcDbEntity
  8
6
100
AcDbText
 10
119.1418971418964
 20
37.09071263530251
 30
0.0
 40
3.5
  1
BCKT130404
100
AcDbText
  0
LINE
  5
B63D
330
6A34
100
AcDbEntity
  8
NOCUT
100
AcDbLine
 10
114.7866981993657
 20
-30.77113434341757
 30
0.0
 11
114.7866981993657
 21
-0.0000000000007958
 31
0.0
  0
LINE
  5
B63E
330
6A34
100
AcDbEntity
  8
1
100
AcDbLine
 10
114.7866981993657
 20
27.01219587175591
 30
0.0
 11
114.7866981993657
 21
-30.77113434341757
 31
0.0
  0
TEXT
  5
B63F
330
6A34
100
AcDbEntity
  8
6
100
AcDbText
 10
168.8439899222649
 20
-11.57642862935766
 30
0.0
 40
3.5
  1
Zeff.=3
 50
90.0
100
AcDbText
  0
LINE
  5
B647
330
6A34
100
AcDbEntity
  8
1
100
AcDbLine
 10
25.78990339928202
 20
-31.50000000000043
 30
0.0
 11
115.389903399282
 21
-31.50000000000082
 31
0.0
  0
LINE
  5
B648
330
6A34
100
AcDbEntity
  8
1
100
AcDbLine
 10
114.7866981993657
 20
-30.77113434341757
 30
0.0
 11
14.34263331777481
 21
-30.77113434341702
 31
0.0
  0
LINE
  5
B649
330
6A34
100
AcDbEntity
  8
NOCUT
100
AcDbLine
 10
114.7866981993657
 20
-30.77113434341757
 30
0.0
 11
14.34263331777445
 21
-30.7711343434204
 31
0.0
  0
LINE
  5
B64B
330
6A34
100
AcDbEntity
  8
1
100
AcDbLine
 10
25.3278878086715
 20
-30.77113434341738
 30
0.0
 11
25.39562201164648
 21
-31.16739575182661
 31
0.0
  0
ARC
  5
B64C
330
6A34
100
AcDbEntity
  8
1
100
AcDbCircle
 10
25.78990339928202
 20
-31.10000000000057
 30
0.0
 40
0.4
100
AcDbArc
 50
189.6999999999983
 51
270.0
1001
GENIUS_GENODEF_13
1002
{
1000
HIER
1070
     0
1002
}
1002
{
1000
MANEDIT
1070
     0
1002
}
1002
{
1000
NOSEL
1070
     0
1002
}
1002
{
1000
BEHIND
1070
     0
1002
}
1002
{
1000
OTHER
1070
     0
1002
}
1002
{
1000
REACTOR
1002
}
1001
GENIUS_GENOBJ-N-FIL_13
1002
{
1000
OWNER
1000
GEN
1002
}
  0
LINE
  5
B64E
330
6A34
100
AcDbEntity
  8
1
100
AcDbLine
 10
115.789903399282
 20
-31.10000000000082
 30
0.0
 11
115.789903399282
 21
-29.50000000000085
 31
0.0
  0
LINE
  5
B64F
330
6A34
100
AcDbEntity
  8
SK1
100
AcDbLine
 10
115.3261340294332
 20
-31.50000000000082
 30
0.0
 11
116.2536727691308
 21
-31.50000000000082
 31
0.0
  0
LINE
  5
B650
330
6A34
100
AcDbEntity
  8
SK1
100
AcDbLine
 10
115.789903399282
 20
-31.96376936984964
 30
0.0
 11
115.789903399282
 21
-31.036230630152
 31
0.0
  0
LINE
  5
B651
330
6A34
100
AcDbEntity
  8
SK1
100
AcDbLine
 10
115.789903399282
 20
-31.96376936984964
 30
0.0
 11
115.789903399282
 21
-31.036230630152
 31
0.0
  0
CIRCLE
  5
B652
330
6A34
100
AcDbEntity
  8
SK1
100
AcDbCircle
 10
115.789903399282
 20
-31.50000000000082
 30
0.0
 40
0.4637693698488208
  0
ARC
  5
B653
330
6A34
100
AcDbEntity
  8
1
100
AcDbCircle
 10
115.389903399282
 20
-31.10000000000082
 30
0.0
 40
0.4
100
AcDbArc
 50
270.0
 51
359.9999999999983
1001
GENIUS_GENOBJ-N-FIL_13
1002
{
1000
OWNER
1000
GEN
1002
}
1001
GENIUS_GENODEF_13
1002
{
1000
HIER
1070
     0
1002
}
1002
{
1000
MANEDIT
1070
     0
1002
}
1002
{
1000
NOSEL
1070
     0
1002
}
1002
{
1000
BEHIND
1070
     0
1002
}
1002
{
1000
OTHER
1070
     0
1002
}
1002
{
1000
REACTOR
1002
}
  0
LINE
  5
B654
330
6A34
100
AcDbEntity
  8
1
100
AcDbLine
 10
115.789903399282
 20
-29.50000000000082
 30
0.0
 11
115.0410132163493
 21
-28.50000000000085
 31
0.0
  0
LINE
  5
B655
330
6A34
100
AcDbEntity
  8
1
100
AcDbLine
 10
115.0410132163492
 20
-28.50000000000076
 30
0.0
 11
114.786698199366
 21
-27.01219587175886
 31
0.0
  0
LINE
  5
B656
330
6A34
100
AcDbEntity
  8
NOCUT
100
AcDbLine
 10
-0.2100966007178897
 20
-0.0000000000007958
 30
0.0
 11
114.7866981993657
 21
-0.0000000000007958
 31
0.0
  0
LINE
  5
B658
330
6A34
100
AcDbEntity
  8
4
100
AcDbLine
 10
118.0448057179544
 20
-0.0000000000008242
 30
0.0
 11
-0.2100966007180602
 21
-0.0000000000003695
 31
0.0
  0
LINE
  5
B659
330
6A34
100
AcDbEntity
  8
1
100
AcDbLine
 10
93.77990339928203
 20
29.49999999999917
 30
0.0
 11
93.03101321634926
 21
28.49999999999917
 31
0.0
  0
LINE
  5
B65A
330
6A34
100
AcDbEntity
  8
1
100
AcDbLine
 10
80.78990339928202
 20
31.49999999999911
 30
0.0
 11
93.37990339928206
 21
31.49999999999917
 31
0.0
  0
LINE
  5
B65B
330
6A34
100
AcDbEntity
  8
1
100
AcDbLine
 10
102.789903399282
 20
23.45999999999915
 30
0.0
 11
90.19990339928199
 21
23.45999999999915
 31
0.0
  0
LINE
  5
B65C
330
6A34
100
AcDbEntity
  8
1
100
AcDbLine
 10
91.78990339928203
 20
31.49999999999911
 30
0.0
 11
104.379903399282
 21
31.49999999999917
 31
0.0
  0
LINE
  5
B65D
330
6A34
100
AcDbEntity
  8
CUT
100
AcDbLine
 10
25.74772486149095
 20
31.49999999999917
 30
0.0
 11
115.389903399282
 21
31.49999999999917
 31
0.0
  0
LINE
  5
B65E
330
6A34
100
AcDbEntity
  8
CUT
100
AcDbLine
 10
24.19990339928199
 20
23.45999999999909
 30
0.0
 11
113.8420819370731
 21
23.45999999999909
 31
0.0
  0
LINE
  5
B663
330
6A34
100
AcDbEntity
  8
1
100
AcDbLine
 10
80.78990339928202
 20
23.45999999999915
 30
0.0
 11
68.199903399282
 21
23.45999999999915
 31
0.0
  0
LINE
  5
B664
330
6A34
100
AcDbEntity
  8
1
100
AcDbLine
 10
69.78990339928202
 20
31.49999999999911
 30
0.0
 11
82.37990339928206
 21
31.49999999999917
 31
0.0
  0
LINE
  5
B667
330
6A34
100
AcDbEntity
  8
1
100
AcDbLine
 10
25.28570927088041
 20
30.77113434341603
 30
0.0
 11
14.34263331777516
 21
30.77113434341603
 31
0.0
  0
LINE
  5
B669
330
6A34
100
AcDbEntity
  8
CUT
100
AcDbLine
 10
23.79990339928201
 20
25.45999999999915
 30
0.0
 11
24.54879358221478
 21
26.4599999999991
 31
0.0
  0
LINE
  5
B66C
330
6A34
100
AcDbEntity
  8
CUT
100
AcDbLine
 10
23.79990339928201
 20
23.85999999999913
 30
0.0
 11
23.79990339928201
 21
25.4599999999991
 31
0.0
  0
ARC
  5
B66D
330
6A34
100
AcDbEntity
  8
CUT
100
AcDbCircle
 10
24.19990339928199
 20
23.85999999999913
 30
0.0
 40
0.4
100
AcDbArc
 50
180.0
 51
270.0
1001
GENIUS_GENOBJ-N-FIL_13
1002
{
1000
OWNER
1000
GEN
1002
}
1001
GENIUS_GENODEF_13
1002
{
1000
HIER
1070
     0
1002
}
1002
{
1000
MANEDIT
1070
     0
1002
}
1002
{
1000
NOSEL
1070
     0
1002
}
1002
{
1000
BEHIND
1070
     0
1002
}
1002
{
1000
OTHER
1070
     0
1002
}
1002
{
1000
REACTOR
1002
}
  0
ARC
  5
B670
330
6A34
100
AcDbEntity
  8
CUT
100
AcDbCircle
 10
25.74772486149095
 20
31.09999999999919
 30
0.0
 40
0.4
100
AcDbArc
 50
90.0
 51
170.3000000000008
1001
GENIUS_GENODEF_13
1002
{
1000
HIER
1070
     0
1002
}
1002
{
1000
MANEDIT
1070
     0
1002
}
1002
{
1000
NOSEL
1070
     0
1002
}
1002
{
1000
BEHIND
1070
     0
1002
}
1002
{
1000
OTHER
1070
     0
1002
}
1002
{
1000
REACTOR
1002
}
1001
GENIUS_GENOBJ-N-FIL_13
1002
{
1000
OWNER
1000
GEN
1002
}
  0
LINE
  5
B671
330
6A34
100
AcDbEntity
  8
CUT
100
AcDbLine
 10
24.54879358221484
 20
26.45999999999921
 30
0.0
 11
25.35344347385541
 21
31.16739575182524
 31
0.0
  0
LINE
  5
B672
330
6A34
100
AcDbEntity
  8
1
100
AcDbLine
 10
82.03101321634921
 20
28.49999999999912
 30
0.0
 11
81.22636332470865
 21
23.79260424817309
 31
0.0
  0
LINE
  5
B673
330
6A34
100
AcDbEntity
  8
1
100
AcDbLine
 10
91.78990339928203
 20
23.45999999999915
 30
0.0
 11
79.19990339928199
 21
23.45999999999915
 31
0.0
  0
CIRCLE
  5
B676
330
6A34
100
AcDbEntity
  8
1
100
AcDbCircle
 10
75.28990339928203
 20
27.47999999999914
 30
0.0
 40
2.749999999999976
  0
ARC
  5
B677
330
6A34
100
AcDbEntity
  8
1
100
AcDbCircle
 10
80.8320819370731
 20
23.85999999999907
 30
0.0
 40
0.4
100
AcDbArc
 50
270.0
 51
350.3000000000008
1001
GENIUS_GENODEF_13
1002
{
1000
HIER
1070
     0
1002
}
1002
{
1000
MANEDIT
1070
     0
1002
}
1002
{
1000
NOSEL
1070
     0
1002
}
1002
{
1000
BEHIND
1070
     0
1002
}
1002
{
1000
OTHER
1070
     0
1002
}
1002
{
1000
REACTOR
1002
}
1001
GENIUS_GENOBJ-N-FIL_13
1002
{
1000
OWNER
1000
GEN
1002
}
  0
CIRCLE
  5
B678
330
6A34
100
AcDbEntity
  8
1
100
AcDbCircle
 10
86.28990339928202
 20
27.47999999999914
 30
0.0
 40
2.749999999999976
  0
LINE
  5
B679
330
6A34
100
AcDbEntity
  8
1
100
AcDbLine
 10
82.77990339928203
 20
29.49999999999917
 30
0.0
 11
82.03101321634926
 21
28.49999999999917
 31
0.0
  0
ARC
  5
B67A
330
6A34
100
AcDbEntity
  8
1
100
AcDbCircle
 10
82.37990339928206
 20
31.09999999999914
 30
0.0
 40
0.4
100
AcDbArc
 50
0.0
 51
90.0
1001
GENIUS_GENOBJ-N-FIL_13
1002
{
1000
OWNER
1000
GEN
1002
}
1001
GENIUS_GENODEF_13
1002
{
1000
HIER
1070
     0
1002
}
1002
{
1000
MANEDIT
1070
     0
1002
}
1002
{
1000
NOSEL
1070
     0
1002
}
1002
{
1000
BEHIND
1070
     0
1002
}
1002
{
1000
OTHER
1070
     0
1002
}
1002
{
1000
REACTOR
1002
}
  0
LINE
  5
B67B
330
6A34
100
AcDbEntity
  8
1
100
AcDbLine
 10
82.77990339928203
 20
31.09999999999914
 30
0.0
 11
82.77990339928203
 21
29.49999999999917
 31
0.0
  0
LINE
  5
B67C
330
6A34
100
AcDbEntity
  8
1
100
AcDbLine
 10
93.03101321634921
 20
28.49999999999912
 30
0.0
 11
92.22636332470864
 21
23.79260424817309
 31
0.0
  0
ARC
  5
B67D
330
6A34
100
AcDbEntity
  8
1
100
AcDbCircle
 10
91.8320819370731
 20
23.85999999999907
 30
0.0
 40
0.4
100
AcDbArc
 50
270.0
 51
350.3000000000008
1001
GENIUS_GENODEF_13
1002
{
1000
HIER
1070
     0
1002
}
1002
{
1000
MANEDIT
1070
     0
1002
}
1002
{
1000
NOSEL
1070
     0
1002
}
1002
{
1000
BEHIND
1070
     0
1002
}
1002
{
1000
OTHER
1070
     0
1002
}
1002
{
1000
REACTOR
1002
}
1001
GENIUS_GENOBJ-N-FIL_13
1002
{
1000
OWNER
1000
GEN
1002
}
  0
LINE
  5
B67E
330
6A34
100
AcDbEntity
  8
1
100
AcDbLine
 10
102.799903399282
 20
31.49999999999911
 30
0.0
 11
115.389903399282
 21
31.49999999999917
 31
0.0
  0
LINE
  5
B67F
330
6A34
100
AcDbEntity
  8
1
100
AcDbLine
 10
113.799903399282
 20
23.45999999999915
 30
0.0
 11
101.2099033992819
 21
23.45999999999915
 31
0.0
  0
CIRCLE
  5
B680
330
6A34
100
AcDbEntity
  8
1
100
AcDbCircle
 10
97.28990339928202
 20
27.47999999999914
 30
0.0
 40
2.749999999999976
  0
ARC
  5
B681
330
6A34
100
AcDbEntity
  8
1
100
AcDbCircle
 10
93.37990339928206
 20
31.09999999999914
 30
0.0
 40
0.4
100
AcDbArc
 50
0.0
 51
90.0
1001
GENIUS_GENOBJ-N-FIL_13
1002
{
1000
OWNER
1000
GEN
1002
}
1001
GENIUS_GENODEF_13
1002
{
1000
HIER
1070
     0
1002
}
1002
{
1000
MANEDIT
1070
     0
1002
}
1002
{
1000
NOSEL
1070
     0
1002
}
1002
{
1000
BEHIND
1070
     0
1002
}
1002
{
1000
OTHER
1070
     0
1002
}
1002
{
1000
REACTOR
1002
}
  0
LINE
  5
B682
330
6A34
100
AcDbEntity
  8
1
100
AcDbLine
 10
93.77990339928203
 20
31.09999999999914
 30
0.0
 11
93.77990339928203
 21
29.49999999999917
 31
0.0
  0
LINE
  5
B683
330
6A34
100
AcDbEntity
  8
1
100
AcDbLine
 10
104.0310132163491
 20
28.49999999999912
 30
0.0
 11
103.2263633247086
 21
23.79260424817309
 31
0.0
  0
ARC
  5
B684
330
6A34
100
AcDbEntity
  8
1
100
AcDbCircle
 10
102.832081937073
 20
23.85999999999907
 30
0.0
 40
0.4
100
AcDbArc
 50
270.0
 51
350.3000000000008
1001
GENIUS_GENODEF_13
1002
{
1000
HIER
1070
     0
1002
}
1002
{
1000
MANEDIT
1070
     0
1002
}
1002
{
1000
NOSEL
1070
     0
1002
}
1002
{
1000
BEHIND
1070
     0
1002
}
1002
{
1000
OTHER
1070
     0
1002
}
1002
{
1000
REACTOR
1002
}
1001
GENIUS_GENOBJ-N-FIL_13
1002
{
1000
OWNER
1000
GEN
1002
}
  0
LINE
  5
B685
330
6A34
100
AcDbEntity
  8
1
100
AcDbLine
 10
104.779903399282
 20
31.09999999999914
 30
0.0
 11
104.779903399282
 21
29.49999999999917
 31
0.0
  0
ARC
  5
B686
330
6A34
100
AcDbEntity
  8
1
100
AcDbCircle
 10
104.379903399282
 20
31.09999999999914
 30
0.0
 40
0.4
100
AcDbArc
 50
0.0
 51
90.0
1001
GENIUS_GENOBJ-N-FIL_13
1002
{
1000
OWNER
1000
GEN
1002
}
1001
GENIUS_GENODEF_13
1002
{
1000
HIER
1070
     0
1002
}
1002
{
1000
MANEDIT
1070
     0
1002
}
1002
{
1000
NOSEL
1070
     0
1002
}
1002
{
1000
BEHIND
1070
     0
1002
}
1002
{
1000
OTHER
1070
     0
1002
}
1002
{
1000
REACTOR
1002
}
  0
LINE
  5
B687
330
6A34
100
AcDbEntity
  8
1
100
AcDbLine
 10
104.779903399282
 20
29.49999999999917
 30
0.0
 11
104.0310132163492
 21
28.49999999999917
 31
0.0
  0
CIRCLE
  5
B688
330
6A34
100
AcDbEntity
  8
1
100
AcDbCircle
 10
108.299903399282
 20
27.47999999999914
 30
0.0
 40
2.749999999999976
  0
LINE
  5
B689
330
6A34
100
AcDbEntity
  8
CUT
100
AcDbLine
 10
115.0410132163492
 20
28.49999999999912
 30
0.0
 11
114.2363633247086
 21
23.79260424817309
 31
0.0
  0
LINE
  5
B68A
330
6A34
100
AcDbEntity
  8
1
100
AcDbLine
 10
115.0410132163492
 20
28.49999999999912
 30
0.0
 11
114.2363633247086
 21
23.79260424817309
 31
0.0
  0
ARC
  5
B68B
330
6A34
100
AcDbEntity
  8
CUT
100
AcDbCircle
 10
113.8420819370731
 20
23.85999999999907
 30
0.0
 40
0.4
100
AcDbArc
 50
270.0
 51
350.3000000000008
1001
GENIUS_GENODEF_13
1002
{
1000
HIER
1070
     0
1002
}
1002
{
1000
MANEDIT
1070
     0
1002
}
1002
{
1000
NOSEL
1070
     0
1002
}
1002
{
1000
BEHIND
1070
     0
1002
}
1002
{
1000
OTHER
1070
     0
1002
}
1002
{
1000
REACTOR
1002
}
1001
GENIUS_GENOBJ-N-FIL_13
1002
{
1000
OWNER
1000
GEN
1002
}
  0
ARC
  5
B68C
330
6A34
100
AcDbEntity
  8
1
100
AcDbCircle
 10
113.8420819370731
 20
23.85999999999907
 30
0.0
 40
0.4
100
AcDbArc
 50
270.0
 51
350.3000000000008
1001
GENIUS_GENODEF_13
1002
{
1000
HIER
1070
     0
1002
}
1002
{
1000
MANEDIT
1070
     0
1002
}
1002
{
1000
NOSEL
1070
     0
1002
}
1002
{
1000
BEHIND
1070
     0
1002
}
1002
{
1000
OTHER
1070
     0
1002
}
1002
{
1000
REACTOR
1002
}
1001
GENIUS_GENOBJ-N-FIL_13
1002
{
1000
OWNER
1000
GEN
1002
}
  0
ARC
  5
B68D
330
6A34
100
AcDbEntity
  8
CUT
100
AcDbCircle
 10
115.389903399282
 20
31.09999999999914
 30
0.0
 40
0.4
100
AcDbArc
 50
0.0
 51
90.0
1001
GENIUS_GENOBJ-N-FIL_13
1002
{
1000
OWNER
1000
GEN
1002
}
1001
GENIUS_GENODEF_13
1002
{
1000
HIER
1070
     0
1002
}
1002
{
1000
MANEDIT
1070
     0
1002
}
1002
{
1000
NOSEL
1070
     0
1002
}
1002
{
1000
BEHIND
1070
     0
1002
}
1002
{
1000
OTHER
1070
     0
1002
}
1002
{
1000
REACTOR
1002
}
  0
ARC
  5
B68E
330
6A34
100
AcDbEntity
  8
1
100
AcDbCircle
 10
115.389903399282
 20
31.09999999999914
 30
0.0
 40
0.4
100
AcDbArc
 50
0.0
 51
90.0
1001
GENIUS_GENOBJ-N-FIL_13
1002
{
1000
OWNER
1000
GEN
1002
}
1001
GENIUS_GENODEF_13
1002
{
1000
HIER
1070
     0
1002
}
1002
{
1000
MANEDIT
1070
     0
1002
}
1002
{
1000
NOSEL
1070
     0
1002
}
1002
{
1000
BEHIND
1070
     0
1002
}
1002
{
1000
OTHER
1070
     0
1002
}
1002
{
1000
REACTOR
1002
}
  0
LINE
  5
B68F
330
6A34
100
AcDbEntity
  8
CUT
100
AcDbLine
 10
115.789903399282
 20
31.09999999999914
 30
0.0
 11
115.789903399282
 21
29.49999999999917
 31
0.0
  0
LINE
  5
B690
330
6A34
100
AcDbEntity
  8
1
100
AcDbLine
 10
115.789903399282
 20
31.09999999999914
 30
0.0
 11
115.789903399282
 21
29.49999999999917
 31
0.0
  0
LINE
  5
B691
330
6A34
100
AcDbEntity
  8
SK1
100
AcDbLine
 10
115.789903399282
 20
31.96376936984799
 30
0.0
 11
115.789903399282
 21
31.03623063015035
 31
0.0
  0
LINE
  5
B692
330
6A34
100
AcDbEntity
  8
SK1
100
AcDbLine
 10
115.3261340294332
 20
31.49999999999917
 30
0.0
 11
116.2536727691308
 21
31.49999999999917
 31
0.0
  0
LINE
  5
B693
330
6A34
100
AcDbEntity
  8
SK1
100
AcDbLine
 10
115.789903399282
 20
31.96376936984799
 30
0.0
 11
115.789903399282
 21
31.03623063015035
 31
0.0
  0
CIRCLE
  5
B694
330
6A34
100
AcDbEntity
  8
SK1
100
AcDbCircle
 10
115.789903399282
 20
31.49999999999917
 30
0.0
 40
0.4637693698488208
  0
LINE
  5
B695
330
6A34
100
AcDbEntity
  8
CUT
100
AcDbLine
 10
115.789903399282
 20
29.49999999999917
 30
0.0
 11
115.0410132163492
 21
28.49999999999917
 31
0.0
  0
LINE
  5
B696
330
6A34
100
AcDbEntity
  8
1
100
AcDbLine
 10
115.789903399282
 20
29.49999999999917
 30
0.0
 11
115.0410132163492
 21
28.49999999999917
 31
0.0
  0
TEXT
  5
B697
330
6A34
100
AcDbEntity
  8
6
100
AcDbText
 10
162.6216882598668
 20
-8.52024416581365
 30
0.0
 40
3.5
  1
Z=24
 50
90.0
100
AcDbText
  0
TEXT
  5
B698
330
6A34
100
AcDbEntity
  8
6
100
AcDbText
 10
67.40643442818799
 20
-40.48445338905949
 30
0.0
 40
3.5
  1
22J3C063090Z5R00
100
AcDbText
  0
LINE
  5
B70F
330
6A34
100
AcDbEntity
  8
1
100
AcDbLine
 10
12.35024392159166
 20
32.59682285792072
 30
0.0
 11
11.7900385111115
 21
38.99999999999886
 31
0.0
  0
LINE
  5
B72A
330
6A34
100
AcDbEntity
  8
1
100
AcDbLine
 10
12.35024392159131
 20
-32.59682285792168
 30
0.0
 11
11.79003851111102
 21
-39.0000000000004
 31
0.0
  0
LINE
  5
B72B
330
6A34
100
AcDbEntity
  8
NOCUT
100
AcDbLine
 10
11.7900385111115
 20
-38.99999999999492
 30
0.0
 11
12.35024392159101
 21
-32.59682285792507
 31
0.0
  0
LINE
  5
B9A2
330
6A34
100
AcDbEntity
  8
1
100
AcDbLine
 10
58.78990339928202
 20
31.49999999999911
 30
0.0
 11
71.37990339928205
 21
31.49999999999917
 31
0.0
  0
CIRCLE
  5
B9A3
330
6A34
100
AcDbEntity
  8
1
100
AcDbCircle
 10
64.28990339928202
 20
27.47999999999914
 30
0.0
 40
2.749999999999976
  0
LINE
  5
B9A4
330
6A34
100
AcDbEntity
  8
1
100
AcDbLine
 10
69.78990339928202
 20
23.45999999999915
 30
0.0
 11
57.19990339928199
 21
23.45999999999915
 31
0.0
  0
LINE
  5
B9A6
330
6A34
100
AcDbEntity
  8
1
100
AcDbLine
 10
60.77990339928203
 20
31.09999999999914
 30
0.0
 11
60.77990339928203
 21
29.49999999999917
 31
0.0
  0
LINE
  5
B9A7
330
6A34
100
AcDbEntity
  8
1
100
AcDbLine
 10
58.78990339928202
 20
23.45999999999915
 30
0.0
 11
46.19990339928199
 21
23.45999999999915
 31
0.0
  0
CIRCLE
  5
B9AB
330
6A34
100
AcDbEntity
  8
1
100
AcDbCircle
 10
53.28990339928203
 20
27.47999999999914
 30
0.0
 40
2.749999999999976
  0
ARC
  5
B9AC
330
6A34
100
AcDbEntity
  8
1
100
AcDbCircle
 10
58.8320819370731
 20
23.85999999999907
 30
0.0
 40
0.4
100
AcDbArc
 50
270.0
 51
350.3000000000008
1001
GENIUS_GENODEF_13
1002
{
1000
HIER
1070
     0
1002
}
1002
{
1000
MANEDIT
1070
     0
1002
}
1002
{
1000
NOSEL
1070
     0
1002
}
1002
{
1000
BEHIND
1070
     0
1002
}
1002
{
1000
OTHER
1070
     0
1002
}
1002
{
1000
REACTOR
1002
}
1001
GENIUS_GENOBJ-N-FIL_13
1002
{
1000
OWNER
1000
GEN
1002
}
  0
LINE
  5
B9AD
330
6A34
100
AcDbEntity
  8
1
100
AcDbLine
 10
60.03101321634921
 20
28.49999999999912
 30
0.0
 11
59.22636332470864
 21
23.79260424817309
 31
0.0
  0
LINE
  5
B9AE
330
6A34
100
AcDbEntity
  8
1
100
AcDbLine
 10
60.77990339928203
 20
29.49999999999917
 30
0.0
 11
60.03101321634926
 21
28.49999999999917
 31
0.0
  0
LINE
  5
B9AF
330
6A34
100
AcDbEntity
  8
1
100
AcDbLine
 10
47.78990339928202
 20
31.49999999999911
 30
0.0
 11
60.37990339928206
 21
31.49999999999917
 31
0.0
  0
ARC
  5
B9B1
330
6A34
100
AcDbEntity
  8
1
100
AcDbCircle
 10
60.37990339928206
 20
31.09999999999914
 30
0.0
 40
0.4
100
AcDbArc
 50
0.0
 51
90.0
1001
GENIUS_GENOBJ-N-FIL_13
1002
{
1000
OWNER
1000
GEN
1002
}
1001
GENIUS_GENODEF_13
1002
{
1000
HIER
1070
     0
1002
}
1002
{
1000
MANEDIT
1070
     0
1002
}
1002
{
1000
NOSEL
1070
     0
1002
}
1002
{
1000
BEHIND
1070
     0
1002
}
1002
{
1000
OTHER
1070
     0
1002
}
1002
{
1000
REACTOR
1002
}
  0
LINE
  5
B9B2
330
6A34
100
AcDbEntity
  8
1
100
AcDbLine
 10
71.77990339928204
 20
31.09999999999914
 30
0.0
 11
71.77990339928204
 21
29.49999999999917
 31
0.0
  0
LINE
  5
B9B3
330
6A34
100
AcDbEntity
  8
1
100
AcDbLine
 10
82.77990339928203
 20
31.09999999999914
 30
0.0
 11
82.77990339928203
 21
29.49999999999917
 31
0.0
  0
CIRCLE
  5
B9B4
330
6A34
100
AcDbEntity
  8
1
100
AcDbCircle
 10
75.28990339928203
 20
27.47999999999914
 30
0.0
 40
2.749999999999976
  0
LINE
  5
B9B5
330
6A34
100
AcDbEntity
  8
1
100
AcDbLine
 10
80.78990339928202
 20
23.45999999999915
 30
0.0
 11
68.199903399282
 21
23.45999999999915
 31
0.0
  0
ARC
  5
B9B6
330
6A34
100
AcDbEntity
  8
1
100
AcDbCircle
 10
69.8320819370731
 20
23.85999999999907
 30
0.0
 40
0.4
100
AcDbArc
 50
270.0
 51
350.3000000000008
1001
GENIUS_GENODEF_13
1002
{
1000
HIER
1070
     0
1002
}
1002
{
1000
MANEDIT
1070
     0
1002
}
1002
{
1000
NOSEL
1070
     0
1002
}
1002
{
1000
BEHIND
1070
     0
1002
}
1002
{
1000
OTHER
1070
     0
1002
}
1002
{
1000
REACTOR
1002
}
1001
GENIUS_GENOBJ-N-FIL_13
1002
{
1000
OWNER
1000
GEN
1002
}
  0
LINE
  5
B9B7
330
6A34
100
AcDbEntity
  8
1
100
AcDbLine
 10
71.03101321634921
 20
28.49999999999912
 30
0.0
 11
70.22636332470864
 21
23.79260424817309
 31
0.0
  0
LINE
  5
B9B8
330
6A34
100
AcDbEntity
  8
1
100
AcDbLine
 10
71.77990339928204
 20
29.49999999999917
 30
0.0
 11
71.03101321634927
 21
28.49999999999917
 31
0.0
  0
ARC
  5
B9B9
330
6A34
100
AcDbEntity
  8
1
100
AcDbCircle
 10
80.8320819370731
 20
23.85999999999907
 30
0.0
 40
0.4
100
AcDbArc
 50
270.0
 51
350.3000000000008
1001
GENIUS_GENODEF_13
1002
{
1000
HIER
1070
     0
1002
}
1002
{
1000
MANEDIT
1070
     0
1002
}
1002
{
1000
NOSEL
1070
     0
1002
}
1002
{
1000
BEHIND
1070
     0
1002
}
1002
{
1000
OTHER
1070
     0
1002
}
1002
{
1000
REACTOR
1002
}
1001
GENIUS_GENOBJ-N-FIL_13
1002
{
1000
OWNER
1000
GEN
1002
}
  0
LINE
  5
B9BA
330
6A34
100
AcDbEntity
  8
1
100
AcDbLine
 10
82.77990339928203
 20
29.49999999999917
 30
0.0
 11
82.03101321634926
 21
28.49999999999917
 31
0.0
  0
LINE
  5
B9BB
330
6A34
100
AcDbEntity
  8
1
100
AcDbLine
 10
82.03101321634921
 20
28.49999999999912
 30
0.0
 11
81.22636332470865
 21
23.79260424817309
 31
0.0
  0
LINE
  5
B9BC
330
6A34
100
AcDbEntity
  8
1
100
AcDbLine
 10
69.78990339928202
 20
31.49999999999911
 30
0.0
 11
82.37990339928206
 21
31.49999999999917
 31
0.0
  0
ARC
  5
B9BD
330
6A34
100
AcDbEntity
  8
1
100
AcDbCircle
 10
71.37990339928205
 20
31.09999999999914
 30
0.0
 40
0.4
100
AcDbArc
 50
0.0
 51
90.0
1001
GENIUS_GENOBJ-N-FIL_13
1002
{
1000
OWNER
1000
GEN
1002
}
1001
GENIUS_GENODEF_13
1002
{
1000
HIER
1070
     0
1002
}
1002
{
1000
MANEDIT
1070
     0
1002
}
1002
{
1000
NOSEL
1070
     0
1002
}
1002
{
1000
BEHIND
1070
     0
1002
}
1002
{
1000
OTHER
1070
     0
1002
}
1002
{
1000
REACTOR
1002
}
  0
ARC
  5
B9BE
330
6A34
100
AcDbEntity
  8
1
100
AcDbCircle
 10
82.37990339928206
 20
31.09999999999914
 30
0.0
 40
0.4
100
AcDbArc
 50
0.0
 51
90.0
1001
GENIUS_GENOBJ-N-FIL_13
1002
{
1000
OWNER
1000
GEN
1002
}
1001
GENIUS_GENODEF_13
1002
{
1000
HIER
1070
     0
1002
}
1002
{
1000
MANEDIT
1070
     0
1002
}
1002
{
1000
NOSEL
1070
     0
1002
}
1002
{
1000
BEHIND
1070
     0
1002
}
1002
{
1000
OTHER
1070
     0
1002
}
1002
{
1000
REACTOR
1002
}
  0
LINE
  5
B9C2
330
6A34
100
AcDbEntity
  8
4
100
AcDbLine
 10
38.19925630854864
 20
-0.0000000000044431
 30
0.0
 11
53.66208102295622
 21
16.06739223015229
 31
0.0
  0
DIMENSION
  5
BA8A
330
6A34
100
AcDbEntity
  8
2
100
AcDbDimension
  2
*D4
 10
-0.2100966007178751
 20
74.99999999999918
 30
0.0
 11
57.78990339928207
 21
78.24999999999917
 31
0.0
 70
    32
  3
AM_DIN
100
AcDbAlignedDimension
 13
115.789903399282
 23
31.49999999999917
 33
0.0
 14
-0.2100966007178773
 24
38.99999999999921
 34
0.0
 50
0.0000000000000114
100
AcDbRotatedDimension
  0
DIMENSION
  5
BAB2
330
6A34
100
AcDbEntity
  8
2
100
AcDbDimension
  2
*D5
 10
25.78990339928202
 20
44.99999999999917
 30
0.0
 11
70.78990339928203
 21
48.24999999999917
 31
0.0
 70
    32
  3
AM_DIN
100
AcDbAlignedDimension
 13
115.789903399282
 23
31.49999999999917
 33
0.0
 14
25.78990339928202
 24
31.49999999999911
 34
0.0
 50
0.0000000000000114
100
AcDbRotatedDimension
  0
DIMENSION
  5
BAFD
330
6A34
100
AcDbEntity
  8
2
100
AcDbDimension
  2
*D6
 10
13.78990339928212
 20
59.99999999999918
 30
0.0
 11
64.78990339928208
 21
63.25034448818815
 31
0.0
 70
    32
  3
AM_DIN
100
AcDbAlignedDimension
 13
115.789903399282
 23
31.49999999999917
 33
0.0
 14
13.78990339928212
 24
31.99143398272579
 34
0.0
 50
0.0000000000000114
100
AcDbRotatedDimension
  0
DIMENSION
  5
BB48
330
6A34
100
AcDbEntity
  8
2
100
AcDbDimension
  2
*D7
 10
155.0194737468089
 20
-31.50000000000083
 30
0.0
 11
151.7694737468088
 21
-0.000000000000812
 31
0.0
 70
    32
  1
%%c<>
  3
AM_DIN
100
AcDbAlignedDimension
 13
115.789903399282
 23
31.49999999999917
 33
0.0
 14
115.789903399282
 24
-31.50000000000082
 34
0.0
 50
90.00000000000003
100
AcDbRotatedDimension
  0
LINE
  5
BB7C
330
6A34
100
AcDbEntity
  8
4
100
AcDbLine
 10
38.19925630854864
 20
0.0000000000028515
 30
0.0
 11
53.66208102295622
 21
-16.06739223015388
 31
0.0
  0
LINE
  5
BB7D
330
6A34
100
AcDbEntity
  8
4
100
AcDbLine
 10
77.62671023918525
 20
-0.0000000000044431
 30
0.0
 11
93.08953495359281
 21
16.06739223015229
 31
0.0
  0
LINE
  5
BB7E
330
6A34
100
AcDbEntity
  8
4
100
AcDbLine
 10
77.62671023918525
 20
0.0000000000028515
 30
0.0
 11
93.08953495359281
 21
-16.06739223015388
 31
0.0
  0
CIRCLE
  5
BBDB
330
6A34
100
AcDbEntity
  8
1
100
AcDbCircle
 10
42.28990339928202
 20
27.47999999999914
 30
0.0
 40
2.749999999999976
  0
LINE
  5
BBDC
330
6A34
100
AcDbEntity
  8
1
100
AcDbLine
 10
36.78990339928202
 20
31.49999999999911
 30
0.0
 11
49.37990339928205
 21
31.49999999999917
 31
0.0
  0
LINE
  5
BBDD
330
6A34
100
AcDbEntity
  8
1
100
AcDbLine
 10
47.78990339928202
 20
23.45999999999915
 30
0.0
 11
35.19990339928199
 21
23.45999999999915
 31
0.0
  0
LINE
  5
BBDE
330
6A34
100
AcDbEntity
  8
1
100
AcDbLine
 10
23.79990339928201
 20
23.85999999999913
 30
0.0
 11
23.79990339928201
 21
25.4599999999991
 31
0.0
  0
LINE
  5
BBDF
330
6A34
100
AcDbEntity
  8
1
100
AcDbLine
 10
38.03101321634921
 20
28.49999999999912
 30
0.0
 11
37.22636332470864
 21
23.79260424817309
 31
0.0
  0
LINE
  5
BBE0
330
6A34
100
AcDbEntity
  8
1
100
AcDbLine
 10
36.78990339928202
 20
23.45999999999915
 30
0.0
 11
24.19990339928199
 21
23.45999999999915
 31
0.0
  0
ARC
  5
BBE1
330
6A34
100
AcDbEntity
  8
1
100
AcDbCircle
 10
24.19990339928199
 20
23.85999999999913
 30
0.0
 40
0.4
100
AcDbArc
 50
180.0
 51
270.0
1001
GENIUS_GENOBJ-N-FIL_13
1002
{
1000
OWNER
1000
GEN
1002
}
1001
GENIUS_GENODEF_13
1002
{
1000
HIER
1070
     0
1002
}
1002
{
1000
MANEDIT
1070
     0
1002
}
1002
{
1000
NOSEL
1070
     0
1002
}
1002
{
1000
BEHIND
1070
     0
1002
}
1002
{
1000
OTHER
1070
     0
1002
}
1002
{
1000
REACTOR
1002
}
  0
ARC
  5
BBE2
330
6A34
100
AcDbEntity
  8
1
100
AcDbCircle
 10
36.8320819370731
 20
23.85999999999907
 30
0.0
 40
0.4
100
AcDbArc
 50
270.0
 51
350.3000000000008
1001
GENIUS_GENODEF_13
1002
{
1000
HIER
1070
     0
1002
}
1002
{
1000
MANEDIT
1070
     0
1002
}
1002
{
1000
NOSEL
1070
     0
1002
}
1002
{
1000
BEHIND
1070
     0
1002
}
1002
{
1000
OTHER
1070
     0
1002
}
1002
{
1000
REACTOR
1002
}
1001
GENIUS_GENOBJ-N-FIL_13
1002
{
1000
OWNER
1000
GEN
1002
}
  0
LINE
  5
BBE3
330
6A34
100
AcDbEntity
  8
1
100
AcDbLine
 10
25.78990339928202
 20
31.49999999999911
 30
0.0
 11
38.37990339928206
 21
31.49999999999917
 31
0.0
  0
LINE
  5
BBE4
330
6A34
100
AcDbEntity
  8
1
100
AcDbLine
 10
24.54879358221484
 20
26.45999999999921
 30
0.0
 11
25.35344347385541
 21
31.16739575182524
 31
0.0
  0
LINE
  5
BBE5
330
6A34
100
AcDbEntity
  8
1
100
AcDbLine
 10
23.79990339928201
 20
25.45999999999915
 30
0.0
 11
24.54879358221478
 21
26.4599999999991
 31
0.0
  0
ARC
  5
BBE6
330
6A34
100
AcDbEntity
  8
1
100
AcDbCircle
 10
25.74772486149095
 20
31.09999999999919
 30
0.0
 40
0.4
100
AcDbArc
 50
90.0
 51
170.3000000000008
1001
GENIUS_GENODEF_13
1002
{
1000
HIER
1070
     0
1002
}
1002
{
1000
MANEDIT
1070
     0
1002
}
1002
{
1000
NOSEL
1070
     0
1002
}
1002
{
1000
BEHIND
1070
     0
1002
}
1002
{
1000
OTHER
1070
     0
1002
}
1002
{
1000
REACTOR
1002
}
1001
GENIUS_GENOBJ-N-FIL_13
1002
{
1000
OWNER
1000
GEN
1002
}
  0
CIRCLE
  5
BBE7
330
6A34
100
AcDbEntity
  8
1
100
AcDbCircle
 10
31.28990339928202
 20
27.47999999999914
 30
0.0
 40
2.749999999999976
  0
LINE
  5
BBE8
330
6A34
100
AcDbEntity
  8
1
100
AcDbLine
 10
38.77990339928203
 20
31.09999999999914
 30
0.0
 11
38.77990339928203
 21
29.49999999999917
 31
0.0
  0
LINE
  5
BBE9
330
6A34
100
AcDbEntity
  8
1
100
AcDbLine
 10
38.77990339928203
 20
29.49999999999917
 30
0.0
 11
38.03101321634926
 21
28.49999999999917
 31
0.0
  0
ARC
  5
BBEA
330
6A34
100
AcDbEntity
  8
1
100
AcDbCircle
 10
38.37990339928206
 20
31.09999999999914
 30
0.0
 40
0.4
100
AcDbArc
 50
0.0
 51
90.0
1001
GENIUS_GENOBJ-N-FIL_13
1002
{
1000
OWNER
1000
GEN
1002
}
1001
GENIUS_GENODEF_13
1002
{
1000
HIER
1070
     0
1002
}
1002
{
1000
MANEDIT
1070
     0
1002
}
1002
{
1000
NOSEL
1070
     0
1002
}
1002
{
1000
BEHIND
1070
     0
1002
}
1002
{
1000
OTHER
1070
     0
1002
}
1002
{
1000
REACTOR
1002
}
  0
LINE
  5
BBEB
330
6A34
100
AcDbEntity
  8
1
100
AcDbLine
 10
49.0310132163492
 20
28.49999999999912
 30
0.0
 11
48.22636332470864
 21
23.79260424817309
 31
0.0
  0
LINE
  5
BBEC
330
6A34
100
AcDbEntity
  8
1
100
AcDbLine
 10
60.03101321634921
 20
28.49999999999912
 30
0.0
 11
59.22636332470864
 21
23.79260424817309
 31
0.0
  0
LINE
  5
BBED
330
6A34
100
AcDbEntity
  8
1
100
AcDbLine
 10
60.03101321634921
 20
28.49999999999912
 30
0.0
 11
59.22636332470864
 21
23.79260424817309
 31
0.0
  0
LINE
  5
BBEE
330
6A34
100
AcDbEntity
  8
1
100
AcDbLine
 10
58.78990339928202
 20
23.45999999999915
 30
0.0
 11
46.19990339928199
 21
23.45999999999915
 31
0.0
  0
LINE
  5
BBEF
330
6A34
100
AcDbEntity
  8
1
100
AcDbLine
 10
58.78990339928202
 20
23.45999999999915
 30
0.0
 11
46.19990339928199
 21
23.45999999999915
 31
0.0
  0
ARC
  5
BBF0
330
6A34
100
AcDbEntity
  8
1
100
AcDbCircle
 10
47.83208193707309
 20
23.85999999999907
 30
0.0
 40
0.4
100
AcDbArc
 50
270.0
 51
350.3000000000008
1001
GENIUS_GENODEF_13
1002
{
1000
HIER
1070
     0
1002
}
1002
{
1000
MANEDIT
1070
     0
1002
}
1002
{
1000
NOSEL
1070
     0
1002
}
1002
{
1000
BEHIND
1070
     0
1002
}
1002
{
1000
OTHER
1070
     0
1002
}
1002
{
1000
REACTOR
1002
}
1001
GENIUS_GENOBJ-N-FIL_13
1002
{
1000
OWNER
1000
GEN
1002
}
  0
ARC
  5
BBF1
330
6A34
100
AcDbEntity
  8
1
100
AcDbCircle
 10
58.8320819370731
 20
23.85999999999907
 30
0.0
 40
0.4
100
AcDbArc
 50
270.0
 51
350.3000000000008
1001
GENIUS_GENODEF_13
1002
{
1000
HIER
1070
     0
1002
}
1002
{
1000
MANEDIT
1070
     0
1002
}
1002
{
1000
NOSEL
1070
     0
1002
}
1002
{
1000
BEHIND
1070
     0
1002
}
1002
{
1000
OTHER
1070
     0
1002
}
1002
{
1000
REACTOR
1002
}
1001
GENIUS_GENOBJ-N-FIL_13
1002
{
1000
OWNER
1000
GEN
1002
}
  0
ARC
  5
BBF2
330
6A34
100
AcDbEntity
  8
1
100
AcDbCircle
 10
58.8320819370731
 20
23.85999999999907
 30
0.0
 40
0.4
100
AcDbArc
 50
270.0
 51
350.3000000000008
1001
GENIUS_GENODEF_13
1002
{
1000
HIER
1070
     0
1002
}
1002
{
1000
MANEDIT
1070
     0
1002
}
1002
{
1000
NOSEL
1070
     0
1002
}
1002
{
1000
BEHIND
1070
     0
1002
}
1002
{
1000
OTHER
1070
     0
1002
}
1002
{
1000
REACTOR
1002
}
1001
GENIUS_GENOBJ-N-FIL_13
1002
{
1000
OWNER
1000
GEN
1002
}
  0
CIRCLE
  5
BBF3
330
6A34
100
AcDbEntity
  8
1
100
AcDbCircle
 10
53.28990339928203
 20
27.47999999999914
 30
0.0
 40
2.749999999999976
  0
CIRCLE
  5
BBF4
330
6A34
100
AcDbEntity
  8
1
100
AcDbCircle
 10
53.28990339928203
 20
27.47999999999914
 30
0.0
 40
2.749999999999976
  0
LINE
  5
BBF5
330
6A34
100
AcDbEntity
  8
1
100
AcDbLine
 10
47.78990339928202
 20
31.49999999999911
 30
0.0
 11
60.37990339928206
 21
31.49999999999917
 31
0.0
  0
LINE
  5
BBF6
330
6A34
100
AcDbEntity
  8
1
100
AcDbLine
 10
47.78990339928202
 20
31.49999999999911
 30
0.0
 11
60.37990339928206
 21
31.49999999999917
 31
0.0
  0
LINE
  5
BBF7
330
6A34
100
AcDbEntity
  8
1
100
AcDbLine
 10
49.77990339928203
 20
31.09999999999914
 30
0.0
 11
49.77990339928203
 21
29.49999999999917
 31
0.0
  0
LINE
  5
BBF8
330
6A34
100
AcDbEntity
  8
1
100
AcDbLine
 10
49.77990339928203
 20
29.49999999999917
 30
0.0
 11
49.03101321634927
 21
28.49999999999917
 31
0.0
  0
ARC
  5
BBF9
330
6A34
100
AcDbEntity
  8
1
100
AcDbCircle
 10
49.37990339928205
 20
31.09999999999914
 30
0.0
 40
0.4
100
AcDbArc
 50
0.0
 51
90.0
1001
GENIUS_GENOBJ-N-FIL_13
1002
{
1000
OWNER
1000
GEN
1002
}
1001
GENIUS_GENODEF_13
1002
{
1000
HIER
1070
     0
1002
}
1002
{
1000
MANEDIT
1070
     0
1002
}
1002
{
1000
NOSEL
1070
     0
1002
}
1002
{
1000
BEHIND
1070
     0
1002
}
1002
{
1000
OTHER
1070
     0
1002
}
1002
{
1000
REACTOR
1002
}
  0
LINE
  5
BBFA
330
6A34
100
AcDbEntity
  8
1
100
AcDbLine
 10
60.77990339928203
 20
31.09999999999914
 30
0.0
 11
60.77990339928203
 21
29.49999999999917
 31
0.0
  0
LINE
  5
BBFB
330
6A34
100
AcDbEntity
  8
1
100
AcDbLine
 10
60.77990339928203
 20
31.09999999999914
 30
0.0
 11
60.77990339928203
 21
29.49999999999917
 31
0.0
  0
LINE
  5
BBFC
330
6A34
100
AcDbEntity
  8
1
100
AcDbLine
 10
60.77990339928203
 20
29.49999999999917
 30
0.0
 11
60.03101321634926
 21
28.49999999999917
 31
0.0
  0
LINE
  5
BBFD
330
6A34
100
AcDbEntity
  8
1
100
AcDbLine
 10
60.77990339928203
 20
29.49999999999917
 30
0.0
 11
60.03101321634926
 21
28.49999999999917
 31
0.0
  0
ARC
  5
BBFE
330
6A34
100
AcDbEntity
  8
1
100
AcDbCircle
 10
60.37990339928206
 20
31.09999999999914
 30
0.0
 40
0.4
100
AcDbArc
 50
0.0
 51
90.0
1001
GENIUS_GENOBJ-N-FIL_13
1002
{
1000
OWNER
1000
GEN
1002
}
1001
GENIUS_GENODEF_13
1002
{
1000
HIER
1070
     0
1002
}
1002
{
1000
MANEDIT
1070
     0
1002
}
1002
{
1000
NOSEL
1070
     0
1002
}
1002
{
1000
BEHIND
1070
     0
1002
}
1002
{
1000
OTHER
1070
     0
1002
}
1002
{
1000
REACTOR
1002
}
  0
ARC
  5
BBFF
330
6A34
100
AcDbEntity
  8
1
100
AcDbCircle
 10
60.37990339928206
 20
31.09999999999914
 30
0.0
 40
0.4
100
AcDbArc
 50
0.0
 51
90.0
1001
GENIUS_GENOBJ-N-FIL_13
1002
{
1000
OWNER
1000
GEN
1002
}
1001
GENIUS_GENODEF_13
1002
{
1000
HIER
1070
     0
1002
}
1002
{
1000
MANEDIT
1070
     0
1002
}
1002
{
1000
NOSEL
1070
     0
1002
}
1002
{
1000
BEHIND
1070
     0
1002
}
1002
{
1000
OTHER
1070
     0
1002
}
1002
{
1000
REACTOR
1002
}
  0
ARC
  5
BC0E
330
6A34
100
AcDbEntity
  8
1
100
AcDbCircle
 10
113.4635878528228
 20
98.77084367182591
 30
0.0
 40
130.4302152189942
100
AcDbArc
 50
232.1530760470913
 51
263.3094814820616
  0
ARC
  5
BC0F
330
6A34
100
AcDbEntity
  8
1
100
AcDbCircle
 10
34.97798234602881
 20
-22.20870418240568
 30
0.0
 40
18.05080850739382
100
AcDbArc
 50
94.89530404523762
 51
208.3171421156748
  0
ARC
  5
BC10
330
6A34
100
AcDbEntity
  8
1
100
AcDbCircle
 10
23.2388178495117
 20
66.2067580988716
 30
0.0
 40
97.12276278088863
100
AcDbArc
 50
273.129830743363
 51
294.8388435404765
  0
ARC
  5
BC19
330
6A34
100
AcDbEntity
  8
1
100
AcDbCircle
 10
121.1032120174911
 20
61.49546682922805
 30
0.0
 40
84.23436525473873
100
AcDbArc
 50
226.8907535805137
 51
265.69950317716
  0
ARC
  5
BC1A
330
6A34
100
AcDbEntity
  8
1
100
AcDbCircle
 10
109.1148098553623
 20
89.54504649151166
 30
0.0
 40
101.6506340280992
100
AcDbArc
 50
245.3697307187516
 51
273.198643407804
  0
ARC
  5
BC1B
330
6A34
100
AcDbEntity
  8
1
100
AcDbCircle
 10
17.33116300772839
 20
-45.36523630588518
 30
0.0
 40
64.75407883665562
100
AcDbArc
 50
44.47333748199741
 51
79.86500712583449
  0
ARC
  5
BC1C
330
6A34
100
AcDbEntity
  8
1
100
AcDbCircle
 10
28.25751309809389
 20
28.55681995479072
 30
0.0
 40
10.1891740761984
100
AcDbArc
 50
167.4483099704021
 51
272.6342377557719
  0
ARC
  5
BC1D
330
6A34
100
AcDbEntity
  8
1
100
AcDbCircle
 10
111.6283878368345
 20
-105.8427699408456
 30
0.0
 40
124.4099328575902
100
AcDbArc
 50
88.54531473099612
 51
116.0936843269497
  0
ARC
  5
BC28
330
6A34
100
AcDbEntity
  8
1
100
AcDbCircle
 10
14.34263331777516
 20
32.77113434341603
 30
0.0
 40
2.0
100
AcDbArc
 50
185.0
 51
270.0
1001
GENIUS_GENOBJ-N-FIL_13
1002
{
1000
OWNER
1000
GEN
1002
}
1001
GENIUS_GENODEF_13
1002
{
1000
HIER
1070
     0
1002
}
1002
{
1000
MANEDIT
1070
     0
1002
}
1002
{
1000
NOSEL
1070
     0
1002
}
1002
{
1000
BEHIND
1070
     0
1002
}
1002
{
1000
OTHER
1070
     0
1002
}
1002
{
1000
REACTOR
1002
}
  0
ARC
  5
BC2C
330
6A34
100
AcDbEntity
  8
1
100
AcDbCircle
 10
14.3426333177748
 20
-32.77113434341702
 30
0.0
 40
2.0
100
AcDbArc
 50
89.99999999999969
 51
174.9999999999992
1001
GENIUS_GENOBJ-N-FIL_13
1002
{
1000
OWNER
1000
GEN
1002
}
1001
GENIUS_GENODEF_13
1002
{
1000
HIER
1070
     0
1002
}
1002
{
1000
MANEDIT
1070
     0
1002
}
1002
{
1000
NOSEL
1070
     0
1002
}
1002
{
1000
BEHIND
1070
     0
1002
}
1002
{
1000
OTHER
1070
     0
1002
}
1002
{
1000
REACTOR
1002
}
  0
ARC
  5
BC30
330
6A34
100
AcDbEntity
  8
NOCUT
100
AcDbCircle
 10
14.3426333177745
 20
-32.7711343434204
 30
0.0
 40
2.0
100
AcDbArc
 50
90.00000000000161
 51
174.9999999999992
1001
GENIUS_GENODEF_13
1002
{
1000
HIER
1070
     0
1002
}
1002
{
1000
MANEDIT
1070
     0
1002
}
1002
{
1000
NOSEL
1070
     0
1002
}
1002
{
1000
BEHIND
1070
     0
1002
}
1002
{
1000
OTHER
1070
     0
1002
}
1002
{
1000
REACTOR
1002
}
1001
GENIUS_GENOBJ-N-FIL_13
1002
{
1000
OWNER
1000
GEN
1002
}
  0
ENDSEC
  0
SECTION
  2
OBJECTS
  0
DICTIONARY
  5
6A22
330
0
100
AcDbDictionary
  3
ACAD_GROUP
350
6A23
  3
ACAD_LAYOUT
350
6A2F
  3
ACAD_MLINESTYLE
350
6A2C
  3
ACAD_PLOTSETTINGS
350
6A2E
  3
ACAD_PLOTSTYLENAME
350
6A24
  3
ACDBHEADERROUNDTRIPXREC
350
BC61
  3
ACDBVARIABLEDICTIONARY
350
6B78
  3
ACMDICTIONARY
350
6B39
  3
AMG
350
6B22
  3
AMGSNAPSETTINGS
350
6B59
  3
ASE_INDEX_DICTIONARY
350
89F6
  3
DWGPROPS
350
BC56
  0
DICTIONARY
  5
6B62
330
6A34
100
AcDbDictionary
280
     1
  3
ACAD_INDEX
360
6B63
  3
ACAD_LAYOUTSELFREF
360
BC84
  0
DICTIONARY
  5
BC82
330
6A30
100
AcDbDictionary
280
     1
  3
ACAD_LAYOUTSELFREF
360
BC83
  0
DICTIONARY
  5
6A23
102
{ACAD_REACTORS
330
6A22
102
}
330
6A22
100
AcDbDictionary
  0
DICTIONARY
  5
6A2F
102
{ACAD_REACTORS
330
6A22
102
}
330
6A22
100
AcDbDictionary
  0
DICTIONARY
  5
6A2C
102
{ACAD_REACTORS
330
6A22
102
}
330
6A22
100
AcDbDictionary
  3
STANDARD
350
6A2D
  0
DICTIONARY
  5
6A2E
102
{ACAD_REACTORS
330
6A22
102
}
330
6A22
100
AcDbDictionary
  0
ACDBDICTIONARYWDFLT
  5
6A24
102
{ACAD_REACTORS
330
6A22
102
}
330
6A22
100
AcDbDictionary
281
     1
  3
Normal
350
6A25
100
AcDbDictionaryWithDefault
340
6A25
  0
DICTIONARY
  5
BC61
102
{ACAD_REACTORS
330
6A22
102
}
330
6A22
100
AcDbDictionary
  3
CEPSNTYPE
350
BC6B
  3
DIMSTYLEDATA
350
BC6F
  3
FINGERPRINTGUID
350
BC6C
  3
HYPERLINKBASE
350
BC64
  3
INSUNITS
350
BC6A
  3
LAYOUTDICT
350
BC66
  3
LWETCUNION
350
BC69
  3
PLOTSETDICT
350
BC67
  3
PLOTSTYLNAMDICT
350
BC68
  3
PSVPSCALE
350
BC6E
  3
PUCSBASE
350
BC72
  3
PUCSORGBACK
350
BC78
  3
PUCSORGBOTTOM
350
BC74
  3
PUCSORGFRONT
350
BC77
  3
PUCSORGLEFT
350
BC75
  3
PUCSORGRIGHT
350
BC76
  3
PUCSORGTOP
350
BC73
  3
PUCSORTHOREF
350
BC70
  3
PUCSORTHOVIEW
350
BC71
  3
STYLESHEET
350
BC65
  3
TSTACKALIGN
350
BC62
  3
TSTACKSIZE
350
BC63
  3
UCSBASE
350
BC7B
  3
UCSORGBACK
350
BC81
  3
UCSORGBOTTOM
350
BC7D
  3
UCSORGFRONT
350
BC80
  3
UCSORGLEFT
350
BC7E
  3
UCSORGRIGHT
350
BC7F
  3
UCSORGTOP
350
BC7C
  3
UCSORTHOREF
350
BC79
  3
UCSORTHOVIEW
350
BC7A
  3
VERSIONGUID
350
BC6D
  0
DICTIONARY
  5
6B78
102
{ACAD_REACTORS
330
6A22
102
}
330
6A22
100
AcDbDictionary
  3
DIMASSOC
350
6B7A
  3
INDEXCTL
350
6B79
  0
DICTIONARY
  5
6B39
102
{ACAD_REACTORS
330
6A22
102
}
330
6A22
100
AcDbDictionary
  3
ACMSTDDICTIONARY
350
6B3F
  0
DICTIONARY
  5
6B22
102
{ACAD_REACTORS
330
6A22
102
}
330
6A22
100
AcDbDictionary
  3
ACMGSETTINGS
350
6B23
  0
DICTIONARY
  5
6B59
102
{ACAD_REACTORS
330
6A22
102
}
330
6A22
100
AcDbDictionary
  0
DICTIONARY
  5
89F6
102
{ACAD_REACTORS
330
6A22
102
}
330
6A22
100
AcDbDictionary
  3
ASEBLOCKHIERARCHYINDEXRECORD
350
89F8
1001
DCO15
1040
1550954233.809999
  0
XRECORD
  5
BC56
102
{ACAD_REACTORS
330
6A22
102
}
330
6A22
100
AcDbXrecord
  1
DWGPROPS COOKIE
  2

  3

  4

  6

  7

  8

  9

300
AmdtFileType=84
301
=
302
=
303
=
304
=
305
=
306
=
307
=
308
=
309
=
 40
0.4269246875000001
 41
2453447.43007081
 42
2453788.135961505
  1

 90
        1
  0
DICTIONARY
  5
6B63
102
{ACAD_REACTORS
330
6B62
102
}
330
6B62
100
AcDbDictionary
  3
*A1
350
6B64
  0
XRECORD
  5
BC84
102
{ACAD_REACTORS
330
6B62
102
}
330
6B62
100
AcDbXrecord
340
6A34
  0
XRECORD
  5
BC83
102
{ACAD_REACTORS
330
BC82
102
}
330
BC82
100
AcDbXrecord
340
6A30
  0
MLINESTYLE
  5
6A2D
102
{ACAD_REACTORS
330
6A2C
102
}
330
6A2C
100
AcDbMlineStyle
  2
STANDARD
 70
     0
  3

 62
   256
 51
90.0
 52
90.0
 71
     2
 49
0.5
 62
   256
  6
BYLAYER
 49
-0.5
 62
   256
  6
BYLAYER
  0
ACDBPLACEHOLDER
  5
6A25
102
{ACAD_REACTORS
330
6A24
102
}
330
6A24
100
AcDbPlaceHolder
280
     0
  0
XRECORD
  5
BC6B
102
{ACAD_REACTORS
330
BC61
102
}
330
BC61
100
AcDbXrecord
 90
        0
  0
XRECORD
  5
BC6F
102
{ACAD_REACTORS
330
BC61
102
}
330
BC61
100
AcDbXrecord
1000
DSTYLE
1002
{
1070
   279
 70
     2
1002
}
  0
XRECORD
  5
BC6C
102
{ACAD_REACTORS
330
BC61
102
}
330
BC61
100
AcDbXrecord
  1
{5E8163B8-4D8F-4110-B677-A6458ADDE735}
  0
XRECORD
  5
BC64
102
{ACAD_REACTORS
330
BC61
102
}
330
BC61
100
AcDbXrecord
  1

  0
XRECORD
  5
BC6A
102
{ACAD_REACTORS
330
BC61
102
}
330
BC61
100
AcDbXrecord
 90
        4
  0
XRECORD
  5
BC66
102
{ACAD_REACTORS
330
BC61
102
}
330
BC61
100
AcDbXrecord
340
6A2F
  0
XRECORD
  5
BC69
102
{ACAD_REACTORS
330
BC61
102
}
330
BC61
100
AcDbXrecord
 90
    10781
  0
XRECORD
  5
BC67
102
{ACAD_REACTORS
330
BC61
102
}
330
BC61
100
AcDbXrecord
340
6A2E
  0
XRECORD
  5
BC68
102
{ACAD_REACTORS
330
BC61
102
}
330
BC61
100
AcDbXrecord
340
6A24
  0
XRECORD
  5
BC6E
102
{ACAD_REACTORS
330
BC61
102
}
330
BC61
100
AcDbXrecord
 40
0.0
  0
XRECORD
  5
BC72
102
{ACAD_REACTORS
330
BC61
102
}
330
BC61
100
AcDbXrecord
340
0
  0
XRECORD
  5
BC78
102
{ACAD_REACTORS
330
BC61
102
}
330
BC61
100
AcDbXrecord
 10
0.0
 20
0.0
 30
0.0
  0
XRECORD
  5
BC74
102
{ACAD_REACTORS
330
BC61
102
}
330
BC61
100
AcDbXrecord
 10
0.0
 20
0.0
 30
0.0
  0
XRECORD
  5
BC77
102
{ACAD_REACTORS
330
BC61
102
}
330
BC61
100
AcDbXrecord
 10
0.0
 20
0.0
 30
0.0
  0
XRECORD
  5
BC75
102
{ACAD_REACTORS
330
BC61
102
}
330
BC61
100
AcDbXrecord
 10
0.0
 20
0.0
 30
0.0
  0
XRECORD
  5
BC76
102
{ACAD_REACTORS
330
BC61
102
}
330
BC61
100
AcDbXrecord
 10
0.0
 20
0.0
 30
0.0
  0
XRECORD
  5
BC73
102
{ACAD_REACTORS
330
BC61
102
}
330
BC61
100
AcDbXrecord
 10
0.0
 20
0.0
 30
0.0
  0
XRECORD
  5
BC70
102
{ACAD_REACTORS
330
BC61
102
}
330
BC61
100
AcDbXrecord
340
0
  0
XRECORD
  5
BC71
102
{ACAD_REACTORS
330
BC61
102
}
330
BC61
100
AcDbXrecord
 70
     0
  0
XRECORD
  5
BC65
102
{ACAD_REACTORS
330
BC61
102
}
330
BC61
100
AcDbXrecord
  1

  0
XRECORD
  5
BC62
102
{ACAD_REACTORS
330
BC61
102
}
330
BC61
100
AcDbXrecord
 90
        1
  0
XRECORD
  5
BC63
102
{ACAD_REACTORS
330
BC61
102
}
330
BC61
100
AcDbXrecord
 90
       70
  0
XRECORD
  5
BC7B
102
{ACAD_REACTORS
330
BC61
102
}
330
BC61
100
AcDbXrecord
340
0
  0
XRECORD
  5
BC81
102
{ACAD_REACTORS
330
BC61
102
}
330
BC61
100
AcDbXrecord
 10
0.0
 20
0.0
 30
0.0
  0
XRECORD
  5
BC7D
102
{ACAD_REACTORS
330
BC61
102
}
330
BC61
100
AcDbXrecord
 10
0.0
 20
0.0
 30
0.0
  0
XRECORD
  5
BC80
102
{ACAD_REACTORS
330
BC61
102
}
330
BC61
100
AcDbXrecord
 10
0.0
 20
0.0
 30
0.0
  0
XRECORD
  5
BC7E
102
{ACAD_REACTORS
330
BC61
102
}
330
BC61
100
AcDbXrecord
 10
0.0
 20
0.0
 30
0.0
  0
XRECORD
  5
BC7F
102
{ACAD_REACTORS
330
BC61
102
}
330
BC61
100
AcDbXrecord
 10
0.0
 20
0.0
 30
0.0
  0
XRECORD
  5
BC7C
102
{ACAD_REACTORS
330
BC61
102
}
330
BC61
100
AcDbXrecord
 10
0.0
 20
0.0
 30
0.0
  0
XRECORD
  5
BC79
102
{ACAD_REACTORS
330
BC61
102
}
330
BC61
100
AcDbXrecord
340
0
  0
XRECORD
  5
BC7A
102
{ACAD_REACTORS
330
BC61
102
}
330
BC61
100
AcDbXrecord
 70
     0
  0
XRECORD
  5
BC6D
102
{ACAD_REACTORS
330
BC61
102
}
330
BC61
100
AcDbXrecord
  1
{248074A4-5E1A-48E4-8E5A-761DAEC5817A}
  0
DICTIONARYVAR
  5
6B7A
102
{ACAD_REACTORS
330
6B78
102
}
330
6B78
100
DictionaryVariables
280
     0
  1
1
  0
DICTIONARYVAR
  5
6B79
102
{ACAD_REACTORS
330
6B78
102
}
330
6B78
100
DictionaryVariables
280
     0
  1
1
  0
DICTIONARY
  5
6B3F
102
{ACAD_REACTORS
330
6B39
102
}
330
6B39
100
AcDbDictionary
  0
DICTIONARY
  5
6B23
102
{ACAD_REACTORS
330
6B22
102
}
330
6B22
100
AcDbDictionary
  3
DWGSETTINGS
350
6B24
  0
XRECORD
  5
89F8
102
{ACAD_REACTORS
330
89F6
102
}
330
89F6
100
AcDbXrecord
  0
LAYER_INDEX
  5
6B64
102
{ACAD_REACTORS
330
6B63
102
}
330
6B63
100
AcDbIndex
 40
2453788.403363055
100
AcDbLayerIndex
  8
0
360
6B65
 90
        0
  8
DEFPOINTS
360
6B66
 90
        0
  8
1
360
6B67
 90
      119
  8
2
360
6B68
 90
        4
  8
4
360
6B69
 90
        5
  8
6
360
6B6A
 90
        4
  8
SK1
360
6B6B
 90
       32
  8
SK2
360
6B6C
 90
        2
  8
SK4
360
6B6D
 90
        4
  8
CUT
360
6B6E
 90
       12
  8
NOCUT
360
6B6F
 90
        7
  8
SK3
360
91F5
 90
       14
  8
SK6
360
91F6
 90
        1
  0
XRECORD
  5
6B24
102
{ACAD_REACTORS
330
6B23
102
}
330
6B23
100
AcDbXrecord
  1
VERSION
140
15.0
  1
PRODUCT
  2
AutoCAD Mechanical 2000
  0
IDBUFFER
  5
6B65
330
0
100
AcDbIdBuffer
  0
IDBUFFER
  5
6B66
330
0
100
AcDbIdBuffer
  0
IDBUFFER
  5
6B67
330
0
100
AcDbIdBuffer
330
BC0E
330
BC0F
330
BC10
330
BC19
330
BC1A
330
BC1B
330
BC1C
330
BC1D
330
BBEA
330
BBEB
330
BBEC
330
BBED
330
BBEE
330
BBEF
330
BBF0
330
BBF1
330
BBF2
330
BBF3
330
BBF4
330
BBF5
330
BBF6
330
BBF7
330
BBF8
330
BBF9
330
BBFA
330
BBFB
330
BBFC
330
BBFD
330
BBFE
330
BBFF
330
BC28
330
BC2C
330
9AB5
330
9AD4
330
A8F5
330
B2E8
330
B63E
330
B647
330
B648
330
B64B
330
B64C
330
B64E
330
B653
330
B654
330
B655
330
B659
330
B65A
330
B65B
330
B65C
330
B663
330
B664
330
B667
330
B672
330
B673
330
B676
330
B677
330
B678
330
B679
330
B67A
330
B67B
330
B67C
330
B67D
330
B67E
330
B67F
330
B680
330
B681
330
B682
330
B683
330
B684
330
B685
330
B686
330
B687
330
B688
330
B68A
330
B68C
330
B68E
330
B690
330
B696
330
B70F
330
B72A
330
B9A2
330
B9A3
330
B9A4
330
B9A6
330
B9A7
330
B9AB
330
B9AC
330
B9AD
330
B9AE
330
B9AF
330
B9B1
330
B9B2
330
B9B3
330
B9B4
330
B9B5
330
B9B6
330
B9B7
330
B9B8
330
B9B9
330
B9BA
330
B9BB
330
B9BC
330
B9BD
330
B9BE
330
BBDB
330
BBDC
330
BBDD
330
BBDE
330
BBDF
330
BBE0
330
BBE1
330
BBE2
330
BBE3
330
BBE4
330
BBE5
330
BBE6
330
BBE7
330
BBE8
330
BBE9
  0
IDBUFFER
  5
6B68
330
0
100
AcDbIdBuffer
330
BA8A
330
BAB2
330
BAFD
330
BB48
  0
IDBUFFER
  5
6B69
330
0
100
AcDbIdBuffer
330
B658
330
B9C2
330
BB7C
330
BB7D
330
BB7E
  0
IDBUFFER
  5
6B6A
330
0
100
AcDbIdBuffer
330
B63C
330
B63F
330
B697
330
B698
  0
IDBUFFER
  5
6B6B
330
0
100
AcDbIdBuffer
330
B694
330
B693
330
B692
330
B691
330
B652
330
B651
330
B650
330
B64F
330
9077
330
9078
330
9079
330
9AB8
330
9AB9
330
9ABA
330
9ABB
330
9ABC
330
9ABD
330
9ABE
330
9ABF
330
9AC0
330
9AC4
330
9AC5
330
9AC6
330
9AC8
330
9ACB
330
9ACC
330
9ACD
330
9ACE
330
9ACF
330
9AD0
330
9AD1
330
9AD2
  0
IDBUFFER
  5
6B6C
330
0
100
AcDbIdBuffer
330
9AA6
330
9AA7
  0
IDBUFFER
  5
6B6D
330
0
100
AcDbIdBuffer
330
9AAB
330
9AC3
330
9AC7
330
9B68
  0
IDBUFFER
  5
6B6E
330
0
100
AcDbIdBuffer
330
B65D
330
B65E
330
B669
330
B66C
330
B66D
330
B670
330
B671
330
B689
330
B68B
330
B68D
330
B68F
330
B695
  0
IDBUFFER
  5
6B6F
330
0
100
AcDbIdBuffer
330
AE36
330
AE40
330
B63D
330
B649
330
B656
330
B72B
330
BC30
  0
IDBUFFER
  5
91F5
330
0
100
AcDbIdBuffer
330
9AA8
330
9AA9
330
9AAA
330
9AAC
330
9AAD
330
9AAE
330
9AAF
330
9AB0
330
9AB1
330
9AB3
330
9AC1
330
9AC2
330
9AC9
330
9ACA
  0
IDBUFFER
  5
91F6
330
0
100
AcDbIdBuffer
330
9AD3
  0
ENDSEC
  0
EOF
