  0
SECTION
  2
HEADER
  9
$ACADVER
  1
AC1014
  9
$ACADMAINTVER
 70
     9
  9
$DWGCODEPAGE
  3
ANSI_1252
  9
$INSBASE
 10
0.0
 20
0.0
 30
0.0
  9
$EXTMIN
 10
-86.26747312139412
 20
-39.28961920914616
 30
-0.0000000000000053
  9
$EXTMAX
 10
111.1145771289197
 20
80.01114749507985
 30
0.0000000000000099
  9
$LIMMIN
 10
0.0
 20
0.0
  9
$LIMMAX
 10
210.0
 20
297.0
  9
$ORTHOMODE
 70
     0
  9
$REGENMODE
 70
     1
  9
$FILLMODE
 70
     1
  9
$QTEXTMODE
 70
     0
  9
$MIRRTEXT
 70
     1
  9
$DRAGMODE
 70
     2
  9
$LTSCALE
 40
1.0
  9
$OSMODE
 70
  2599
  9
$ATTMODE
 70
     1
  9
$TEXTSIZE
 40
2.5
  9
$TRACEWID
 40
1.0
  9
$TEXTSTYLE
  7
STANDARD
  9
$CLAYER
  8
0
  9
$CELTYPE
  6
BYLAYER
  9
$CECOLOR
 62
   256
  9
$CELTSCALE
 40
1.0
  9
$DELOBJ
 70
     1
  9
$DISPSILH
 70
     0
  9
$DIMSCALE
 40
1.0
  9
$DIMASZ
 40
2.5
  9
$DIMEXO
 40
0.0
  9
$DIMDLI
 40
10.0
  9
$DIMRND
 40
0.0
  9
$DIMDLE
 40
0.0
  9
$DIMEXE
 40
1.0
  9
$DIMTP
 40
0.1
  9
$DIMTM
 40
0.1
  9
$DIMTXT
 40
3.5
  9
$DIMCEN
 40
0.0
  9
$DIMTSZ
 40
0.0
  9
$DIMTOL
 70
     0
  9
$DIMLIM
 70
     0
  9
$DIMTIH
 70
     0
  9
$DIMTOH
 70
     0
  9
$DIMSE1
 70
     0
  9
$DIMSE2
 70
     0
  9
$DIMTAD
 70
     1
  9
$DIMZIN
 70
     8
  9
$DIMBLK
  1

  9
$DIMASO
 70
     1
  9
$DIMSHO
 70
     1
  9
$DIMPOST
  1

  9
$DIMAPOST
  1
"
  9
$DIMALT
 70
     0
  9
$DIMALTD
 70
     2
  9
$DIMALTF
 40
0.0393701
  9
$DIMLFAC
 40
1.0
  9
$DIMTOFL
 70
     1
  9
$DIMTVP
 40
0.0
  9
$DIMTIX
 70
     0
  9
$DIMSOXD
 70
     0
  9
$DIMSAH
 70
     0
  9
$DIMBLK1
  1

  9
$DIMBLK2
  1

  9
$DIMSTYLE
  2
AM_DIN
  9
$DIMCLRD
 70
   256
  9
$DIMCLRE
 70
   256
  9
$DIMCLRT
 70
     2
  9
$DIMTFAC
 40
0.71
  9
$DIMGAP
 40
1.5
  9
$DIMJUST
 70
     0
  9
$DIMSD1
 70
     0
  9
$DIMSD2
 70
     0
  9
$DIMTOLJ
 70
     1
  9
$DIMTZIN
 70
     8
  9
$DIMALTZ
 70
     8
  9
$DIMALTTZ
 70
     8
  9
$DIMFIT
 70
     5
  9
$DIMUPT
 70
     0
  9
$DIMUNIT
 70
     2
  9
$DIMDEC
 70
     2
  9
$DIMTDEC
 70
     2
  9
$DIMALTU
 70
     2
  9
$DIMALTTD
 70
     2
  9
$DIMTXSTY
  7
STANDARD
  9
$DIMAUNIT
 70
     0
  9
$LUNITS
 70
     2
  9
$LUPREC
 70
     2
  9
$SKETCHINC
 40
1.0
  9
$FILLETRAD
 40
2.0
  9
$AUNITS
 70
     0
  9
$AUPREC
 70
     0
  9
$MENU
  1
.
  9
$ELEVATION
 40
0.0
  9
$PELEVATION
 40
0.0
  9
$THICKNESS
 40
0.0
  9
$LIMCHECK
 70
     0
  9
$BLIPMODE
 70
     0
  9
$CHAMFERA
 40
2.0
  9
$CHAMFERB
 40
2.0
  9
$CHAMFERC
 40
0.0
  9
$CHAMFERD
 40
0.0
  9
$SKPOLY
 70
     0
  9
$TDCREATE
 40
2453447.430070810
  9
$TDUPDATE
 40
2453788.386098067
  9
$TDINDWG
 40
0.3523773495
  9
$TDUSRTIMER
 40
0.3523530093
  9
$USRTIMER
 70
     1
  9
$ANGBASE
 50
0.0
  9
$ANGDIR
 70
     0
  9
$PDMODE
 70
     0
  9
$PDSIZE
 40
0.0
  9
$PLINEWID
 40
0.0
  9
$COORDS
 70
     0
  9
$SPLFRAME
 70
     0
  9
$SPLINETYPE
 70
     6
  9
$SPLINESEGS
 70
     8
  9
$ATTDIA
 70
     1
  9
$ATTREQ
 70
     1
  9
$HANDLING
 70
 22529
  9
$HANDSEED
  5
B7E9
  9
$SURFTAB1
 70
     6
  9
$SURFTAB2
 70
     6
  9
$SURFTYPE
 70
     6
  9
$SURFU
 70
     6
  9
$SURFV
 70
     6
  9
$UCSNAME
  2

  9
$UCSORG
 10
0.0
 20
0.0
 30
0.0
  9
$UCSXDIR
 10
1.0
 20
0.0
 30
0.0
  9
$UCSYDIR
 10
0.0
 20
1.0
 30
0.0
  9
$PUCSNAME
  2

  9
$PUCSORG
 10
0.0
 20
0.0
 30
0.0
  9
$PUCSXDIR
 10
1.0
 20
0.0
 30
0.0
  9
$PUCSYDIR
 10
0.0
 20
1.0
 30
0.0
  9
$USERI1
 70
     0
  9
$USERI2
 70
     0
  9
$USERI3
 70
     0
  9
$USERI4
 70
     0
  9
$USERI5
 70
     0
  9
$USERR1
 40
0.0
  9
$USERR2
 40
0.0
  9
$USERR3
 40
0.0
  9
$USERR4
 40
0.0
  9
$USERR5
 40
0.0
  9
$WORLDVIEW
 70
     1
  9
$SHADEDGE
 70
     3
  9
$SHADEDIF
 70
    70
  9
$TILEMODE
 70
     1
  9
$MAXACTVP
 70
    64
  9
$PINSBASE
 10
0.0
 20
0.0
 30
0.0
  9
$PLIMCHECK
 70
     0
  9
$PEXTMIN
 10
1.000000000000000E+20
 20
1.000000000000000E+20
 30
1.000000000000000E+20
  9
$PEXTMAX
 10
-1.000000000000000E+20
 20
-1.000000000000000E+20
 30
-1.000000000000000E+20
  9
$PLIMMIN
 10
0.0
 20
0.0
  9
$PLIMMAX
 10
420.0
 20
297.0
  9
$UNITMODE
 70
     0
  9
$VISRETAIN
 70
     1
  9
$PLINEGEN
 70
     0
  9
$PSLTSCALE
 70
     1
  9
$TREEDEPTH
 70
  3020
  9
$PICKSTYLE
 70
     0
  9
$CMLSTYLE
  2
STANDARD
  9
$CMLJUST
 70
     0
  9
$CMLSCALE
 40
1.0
  9
$PROXYGRAPHICS
 70
     1
  9
$MEASUREMENT
 70
     1
  0
ENDSEC
  0
SECTION
  2
CLASSES
  0
CLASS
  1
ACDBDICTIONARYWDFLT
  2
AcDbDictionaryWithDefault
  3
AutoCAD 2000
 90
        0
280
     0
281
     0
  0
CLASS
  1
ACDBPLACEHOLDER
  2
AcDbPlaceHolder
  3
AutoCAD 2000
 90
        0
280
     0
281
     0
  0
CLASS
  1
LAYOUT
  2
AcDbLayout
  3
AutoCAD 2000
 90
        0
280
     0
281
     0
  0
CLASS
  1
AMGSETTINGSOBJ
  2
AmgSettingsObj
  3
"AcadM|Product Description: AutoCAD Mechanical 2000|Company: Autodesk"
 90
        0
280
     0
281
     0
  0
CLASS
  1
ACME_DOCUMENT
  2
AcMeDbDoc
  3
AcMeServices
 90
        0
280
     0
281
     0
  0
CLASS
  1
ACMESCOPE
  2
AcMeScope
  3
AcMeServices
 90
        0
280
     0
281
     0
  0
CLASS
  1
ACMECOMMANDHISTORY
  2
AcMeCommandHistory
  3
AcMeServices
 90
        0
280
     0
281
     0
  0
CLASS
  1
ACIMSYSVARMAN
  2
AcImSysVarManager
  3
AcMeServices
 90
        0
280
     0
281
     0
  0
CLASS
  1
ACIMREALSYSVAR
  2
AcImRealSysVar
  3
AcMeServices
 90
        0
280
     0
281
     0
  0
CLASS
  1
ACIMINTSYSVAR
  2
AcImIntSysVar
  3
AcMeServices
 90
        0
280
     0
281
     0
  0
CLASS
  1
ACMEDRAWINGMAN
  2
AcMeDrawingMan
  3
AcMeServices
 90
        0
280
     0
281
     0
  0
CLASS
  1
ACMEVIEW
  2
AcMeView
  3
AcMeServices
 90
        0
280
     0
281
     0
  0
CLASS
  1
ACDBENTITYCACHE
  2
AcMeEntityCache
  3
AcMeServices
 90
        0
280
     0
281
     0
  0
CLASS
  1
GSMANAGER
  2
AcMeGSManager
  3
AcMeServices
 90
        0
280
     0
281
     0
  0
CLASS
  1
AMDTINTERNALREACTOR
  2
AmdtInternalReactor
  3
AcMeServices
 90
        0
280
     0
281
     0
  0
CLASS
  1
ACMESTATEMGR
  2
AcMeStateMgr
  3
AcMeServices
 90
        0
280
     0
281
     0
  0
CLASS
  1
ACGREFMASTER
  2
AcGrefMaster
  3
AcAttribServices
 90
        0
280
     0
281
     0
  0
CLASS
  1
ACME_DATABASE
  2
AcMeDbDatabase
  3
AcMeServices
 90
        0
280
     0
281
     0
  0
CLASS
  1
ACRFINSADJUSTERMGR
  2
AcRfInsAdjusterMgr
  3
AcMeServices
 90
        0
280
     0
281
     0
  0
CLASS
  1
ACGREFACADMASTER
  2
AcGrefacadMaster
  3
AcGrefServices
 90
        0
280
     0
281
     0
  0
CLASS
  1
AMIMASTER
  2
AmiMaster
  3
AmiServices
 90
        0
280
     0
281
     0
  0
CLASS
  1
ACMDATADICTIONARY
  2
AcmDataDictionary
  3
"AcmSymBB|Product Description: AutoCAD Mechanical 2000|Company: Autodesk"
 90
        0
280
     0
281
     0
  0
CLASS
  1
ACMDATAENTRYBLOCK
  2
AcmDataEntryBlock
  3
"AcmSymBB|Product Description: AutoCAD Mechanical 2000|Company: Autodesk"
 90
        0
280
     0
281
     0
  0
CLASS
  1
ACIMSTRSYSVAR
  2
AcImStrSysVar
  3
AcMeServices
 90
        0
280
     0
281
     0
  0
CLASS
  1
ACMSTANDARDANSI
  2
AcmStandardANSI
  3
"Amdt_StdImp|Product Description: AutoCAD Mechanical 2000|Company: Autodesk"
 90
        0
280
     0
281
     0
  0
CLASS
  1
AMGOBJPROPCFG
  2
AmgObjPropCfg
  3
"AmgLay|Product Description: AutoCAD Mechanical 2000|Company: Autodesk"
 90
        1
280
     0
281
     0
  0
CLASS
  1
ACMSURFSTANDARDANSI
  2
AcmSurfTextStdANSI
  3
"Amdt_StdImp|Product Description: AutoCAD Mechanical 2000|Company: Autodesk"
 90
        0
280
     0
281
     0
  0
CLASS
  1
ACMFCFSTANDARDANSI
  2
AcmFCFStdANSI
  3
"Amdt_StdImp|Product Description: AutoCAD Mechanical 2000|Company: Autodesk"
 90
        0
280
     0
281
     0
  0
CLASS
  1
ACMWELDSTANDARDANSI
  2
AcmWeldingStdANSI
  3
"Amdt_StdImp|Product Description: AutoCAD Mechanical 2000|Company: Autodesk"
 90
        0
280
     0
281
     0
  0
CLASS
  1
ACMIDSTANDARDANSI
  2
AcmIdStdANSI
  3
"Amdt_StdImp|Product Description: AutoCAD Mechanical 2000|Company: Autodesk"
 90
        0
280
     0
281
     0
  0
CLASS
  1
ACMDATUMSTANDARDANSI
  2
AcmDatumStdANSI
  3
"Amdt_StdImp|Product Description: AutoCAD Mechanical 2000|Company: Autodesk"
 90
        0
280
     0
281
     0
  0
CLASS
  1
ACMBOMSTANDARDANSI
  2
AcmBOMStdANSI
  3
"Amdt_StdImp|Product Description: AutoCAD Mechanical 2000|Company: Autodesk"
 90
        0
280
     0
281
     0
  0
CLASS
  1
ACMDETAILSTANDARDANSI
  2
AmdtDetailSymStdANSI
  3
"Amdt_StdImp|Product Description: AutoCAD Mechanical 2000|Company: Autodesk"
 90
        0
280
     0
281
     0
  0
CLASS
  1
ACMSECTIONSTANDARDANSI
  2
AmdtSectionSymStdANSI
  3
"Amdt_StdImp|Product Description: AutoCAD Mechanical 2000|Company: Autodesk"
 90
        0
280
     0
281
     0
  0
CLASS
  1
ACMCENTERLINESTANDARDANSI
  2
AmdtCenterLineStdANSI
  3
"Amdt_StdImp|Product Description: AutoCAD Mechanical 2000|Company: Autodesk"
 90
        0
280
     0
281
     0
  0
CLASS
  1
ACMNOTESTANDARDANSI
  2
AmdtNoteStdANSI
  3
"Amdt_StdImp|Product Description: AutoCAD Mechanical 2000|Company: Autodesk"
 90
        0
280
     0
281
     0
  0
CLASS
  1
ACAMGLAYSTD
  2
AcAmgLayStd
  3
"AcAmgLayStd|Product Description: AutoCAD Mechanical 2000|Company: Autodesk"
 90
        0
280
     0
281
     0
  0
CLASS
  1
ACAMGDIMSTD
  2
AcAmgDimStd
  3
"AcAmgDimStd|Product Description: AutoCAD Mechanical 2000|Company: Autodesk"
 90
        0
280
     0
281
     0
  0
CLASS
  1
ACAMGHOLECHARTSTDANSI
  2
AcAmgHoleChartStdANSI
  3
ACMSYMBB_MODULE_NAME
 90
        0
280
     0
281
     0
  0
CLASS
  1
ACAMGTITLESTD
  2
AcAmgTitleStd
  3
"TITLEAPP"
 90
        0
280
     0
281
     0
  0
CLASS
  1
ACAMGFILTERDAT
  2
AcAmgFilterDat
  3
"AcadM|Product Description: AutoCAD Mechanical 2000|Company: Autodesk"
 90
        0
280
     0
281
     0
  0
CLASS
  1
LAYER_INDEX
  2
AcDbLayerIndex
  3
AutoCAD 2000
 90
        0
280
     0
281
     0
  0
CLASS
  1
IDBUFFER
  2
AcDbIdBuffer
  3
AutoCAD 2000
 90
        0
280
     0
281
     0
  0
CLASS
  1
DICTIONARYVAR
  2
AcDbDictionaryVar
  3
AutoCAD 2000
 90
        0
280
     0
281
     0
  0
CLASS
  1
ACMSTANDARDDIN
  2
AcmStandardDIN
  3
"Amdt_StdImp|Product Description: AutoCAD Mechanical 2000|Company: Autodesk"
 90
        0
280
     0
281
     0
  0
CLASS
  1
AMDTEDGESTANDARDDIN
  2
AmdtEdgeStdDIN
  3
"Amdt_StdImp|Product Description: AutoCAD Mechanical 2000|Company: Autodesk"
 90
        0
280
     0
281
     0
  0
CLASS
  1
ACMSURFSTANDARDDIN
  2
AcmSurfTextStdDIN
  3
"Amdt_StdImp|Product Description: AutoCAD Mechanical 2000|Company: Autodesk"
 90
        0
280
     0
281
     0
  0
CLASS
  1
ACMFCFSTANDARDDIN
  2
AcmFCFStdDIN
  3
"Amdt_StdImp|Product Description: AutoCAD Mechanical 2000|Company: Autodesk"
 90
        0
280
     0
281
     0
  0
CLASS
  1
ACMWELDSTANDARDDIN
  2
AcmWeldingStdDIN
  3
"Amdt_StdImp|Product Description: AutoCAD Mechanical 2000|Company: Autodesk"
 90
        0
280
     0
281
     0
  0
CLASS
  1
ACMIDSTANDARDDIN
  2
AcmIdStdDIN
  3
"Amdt_StdImp|Product Description: AutoCAD Mechanical 2000|Company: Autodesk"
 90
        0
280
     0
281
     0
  0
CLASS
  1
ACMDATUMSTANDARDDIN
  2
AcmDatumStdDIN
  3
"Amdt_StdImp|Product Description: AutoCAD Mechanical 2000|Company: Autodesk"
 90
        0
280
     0
281
     0
  0
CLASS
  1
ACMBOMSTANDARDDIN
  2
AcmBOMStdDIN
  3
"Amdt_StdImp|Product Description: AutoCAD Mechanical 2000|Company: Autodesk"
 90
        0
280
     0
281
     0
  0
CLASS
  1
ACMDETAILSTANDARDDIN
  2
AmdtDetailSymStdDIN
  3
"Amdt_StdImp|Product Description: AutoCAD Mechanical 2000|Company: Autodesk"
 90
        0
280
     0
281
     0
  0
CLASS
  1
ACMSECTIONSTANDARDDIN
  2
AmdtSectionSymStdDIN
  3
"Amdt_StdImp|Product Description: AutoCAD Mechanical 2000|Company: Autodesk"
 90
        0
280
     0
281
     0
  0
CLASS
  1
ACMCENTERLINESTANDARDDIN
  2
AmdtCenterLineStdDIN
  3
"Amdt_StdImp|Product Description: AutoCAD Mechanical 2000|Company: Autodesk"
 90
        0
280
     0
281
     0
  0
CLASS
  1
ACMNOTESTANDARDDIN
  2
AmdtNoteStdDIN
  3
"Amdt_StdImp|Product Description: AutoCAD Mechanical 2000|Company: Autodesk"
 90
        0
280
     0
281
     0
  0
CLASS
  1
ACAMGHOLECHARTSTDDIN
  2
AcAmgHoleChartStdDIN
  3
ACMSYMBB_MODULE_NAME
 90
        0
280
     0
281
     0
  0
CLASS
  1
AMDTFORMULAUPDATEDISPATCHER
  2
AmdtFormulaUpdateDispatcher
  3
AcMeServices
 90
        0
280
     0
281
     0
  0
CLASS
  1
ACMSURFSYM
  2
AcmSurfaceTexture
  3
"AcmSymBB|Product Description: AutoCAD Mechanical 2000|Company: Autodesk"
 90
     1023
280
     0
281
     1
  0
CLASS
  1
ACMSTANDARDBSI
  2
AcmStandardBSI
  3
"Amdt_StdImp|Product Description: AutoCAD Mechanical 2000|Company: Autodesk"
 90
        0
280
     0
281
     0
  0
CLASS
  1
ACMSURFSTANDARDBSI
  2
AcmSurfTextStdBSI
  3
"Amdt_StdImp|Product Description: AutoCAD Mechanical 2000|Company: Autodesk"
 90
        0
280
     0
281
     0
  0
CLASS
  1
ACMFCFSTANDARDBSI
  2
AcmFCFStdBSI
  3
"Amdt_StdImp|Product Description: AutoCAD Mechanical 2000|Company: Autodesk"
 90
        0
280
     0
281
     0
  0
CLASS
  1
ACMWELDSTANDARDBSI
  2
AcmWeldingStdBSI
  3
"Amdt_StdImp|Product Description: AutoCAD Mechanical 2000|Company: Autodesk"
 90
        0
280
     0
281
     0
  0
CLASS
  1
ACMIDSTANDARDBSI
  2
AcmIdStdBSI
  3
"Amdt_StdImp|Product Description: AutoCAD Mechanical 2000|Company: Autodesk"
 90
        0
280
     0
281
     0
  0
CLASS
  1
ACMDATUMSTANDARDBSI
  2
AcmDatumStdBSI
  3
"Amdt_StdImp|Product Description: AutoCAD Mechanical 2000|Company: Autodesk"
 90
        0
280
     0
281
     0
  0
CLASS
  1
ACMBOMSTANDARDBSI
  2
AcmBOMStdBSI
  3
"Amdt_StdImp|Product Description: AutoCAD Mechanical 2000|Company: Autodesk"
 90
        0
280
     0
281
     0
  0
CLASS
  1
ACMDETAILSTANDARDBSI
  2
AmdtDetailSymStdBSI
  3
"Amdt_StdImp|Product Description: AutoCAD Mechanical 2000|Company: Autodesk"
 90
        0
280
     0
281
     0
  0
CLASS
  1
ACMSECTIONSTANDARDBSI
  2
AmdtSectionSymStdBSI
  3
"Amdt_StdImp|Product Description: AutoCAD Mechanical 2000|Company: Autodesk"
 90
        0
280
     0
281
     0
  0
CLASS
  1
ACMCENTERLINESTANDARDBSI
  2
AmdtCenterLineStdBSI
  3
"Amdt_StdImp|Product Description: AutoCAD Mechanical 2000|Company: Autodesk"
 90
        0
280
     0
281
     0
  0
CLASS
  1
ACMTHREADLINESTANDARDBSI
  2
AmdtThreadLineStdBSI
  3
"Amdt_StdImp|Product Description: AutoCAD Mechanical 2000|Company: Autodesk"
 90
        0
280
     0
281
     0
  0
CLASS
  1
ACMNOTESTANDARDBSI
  2
AmdtNoteStdBSI
  3
"Amdt_StdImp|Product Description: AutoCAD Mechanical 2000|Company: Autodesk"
 90
        0
280
     0
281
     0
  0
CLASS
  1
ACMSTANDARDISO
  2
AcmStandardISO
  3
"Amdt_StdImp|Product Description: AutoCAD Mechanical 2000|Company: Autodesk"
 90
        0
280
     0
281
     0
  0
CLASS
  1
AMDTEDGESTANDARDISO
  2
AmdtEdgeStdISO
  3
"Amdt_StdImp|Product Description: AutoCAD Mechanical 2000|Company: Autodesk"
 90
        0
280
     0
281
     0
  0
CLASS
  1
ACMSURFSTANDARDISO
  2
AcmSurfTextStdISO
  3
"Amdt_StdImp|Product Description: AutoCAD Mechanical 2000|Company: Autodesk"
 90
        0
280
     0
281
     0
  0
CLASS
  1
ACMFCFSTANDARDISO
  2
AcmFCFStdISO
  3
"Amdt_StdImp|Product Description: AutoCAD Mechanical 2000|Company: Autodesk"
 90
        0
280
     0
281
     0
  0
CLASS
  1
ACMWELDSTANDARDISO
  2
AcmWeldingStdISO
  3
"Amdt_StdImp|Product Description: AutoCAD Mechanical 2000|Company: Autodesk"
 90
        0
280
     0
281
     0
  0
CLASS
  1
ACMIDSTANDARDISO
  2
AcmIdStdISO
  3
"Amdt_StdImp|Product Description: AutoCAD Mechanical 2000|Company: Autodesk"
 90
        0
280
     0
281
     0
  0
CLASS
  1
ACMDATUMSTANDARDISO
  2
AcmDatumStdISO
  3
"Amdt_StdImp|Product Description: AutoCAD Mechanical 2000|Company: Autodesk"
 90
        0
280
     0
281
     0
  0
CLASS
  1
ACMBOMSTANDARDISO
  2
AcmBOMStdISO
  3
"Amdt_StdImp|Product Description: AutoCAD Mechanical 2000|Company: Autodesk"
 90
        0
280
     0
281
     0
  0
CLASS
  1
ACMDETAILSTANDARDISO
  2
AmdtDetailSymStdISO
  3
"Amdt_StdImp|Product Description: AutoCAD Mechanical 2000|Company: Autodesk"
 90
        0
280
     0
281
     0
  0
CLASS
  1
ACMSECTIONSTANDARDISO
  2
AmdtSectionSymStdISO
  3
"Amdt_StdImp|Product Description: AutoCAD Mechanical 2000|Company: Autodesk"
 90
        0
280
     0
281
     0
  0
CLASS
  1
ACMCENTERLINESTANDARDISO
  2
AmdtCenterLineStdISO
  3
"Amdt_StdImp|Product Description: AutoCAD Mechanical 2000|Company: Autodesk"
 90
        0
280
     0
281
     0
  0
CLASS
  1
ACMTHREADLINESTANDARDISO
  2
AmdtThreadLineStdISO
  3
"Amdt_StdImp|Product Description: AutoCAD Mechanical 2000|Company: Autodesk"
 90
        0
280
     0
281
     0
  0
CLASS
  1
ACMNOTESTANDARDISO
  2
AmdtNoteStdISO
  3
"Amdt_StdImp|Product Description: AutoCAD Mechanical 2000|Company: Autodesk"
 90
        0
280
     0
281
     0
  0
CLASS
  1
ACMSTANDARDJIS
  2
AcmStandardJIS
  3
"Amdt_StdImp|Product Description: AutoCAD Mechanical 2000|Company: Autodesk"
 90
        0
280
     0
281
     0
  0
CLASS
  1
ACMSURFSTANDARDJIS
  2
AcmSurfTextStdJIS
  3
"Amdt_StdImp|Product Description: AutoCAD Mechanical 2000|Company: Autodesk"
 90
        0
280
     0
281
     0
  0
CLASS
  1
ACMFCFSTANDARDJIS98
  2
AcmFCFStdJIS98
  3
"Amdt_StdImp|Product Description: AutoCAD Mechanical 2000|Company: Autodesk"
 90
        0
280
     0
281
     0
  0
CLASS
  1
ACMWELDSTANDARDJIS
  2
AcmWeldingStdJIS
  3
"Amdt_StdImp|Product Description: AutoCAD Mechanical 2000|Company: Autodesk"
 90
        0
280
     0
281
     0
  0
CLASS
  1
ACMIDSTANDARDJIS
  2
AcmIdStdJIS
  3
"Amdt_StdImp|Product Description: AutoCAD Mechanical 2000|Company: Autodesk"
 90
        0
280
     0
281
     0
  0
CLASS
  1
ACMDATUMSTANDARDJIS
  2
AcmDatumStdJIS
  3
"Amdt_StdImp|Product Description: AutoCAD Mechanical 2000|Company: Autodesk"
 90
        0
280
     0
281
     0
  0
CLASS
  1
ACMBOMSTANDARDJIS
  2
AcmBOMStdJIS
  3
"Amdt_StdImp|Product Description: AutoCAD Mechanical 2000|Company: Autodesk"
 90
        0
280
     0
281
     0
  0
CLASS
  1
ACMDETAILSTANDARDJIS
  2
AmdtDetailSymStdJIS
  3
"Amdt_StdImp|Product Description: AutoCAD Mechanical 2000|Company: Autodesk"
 90
        0
280
     0
281
     0
  0
CLASS
  1
ACMSECTIONSTANDARDJIS
  2
AmdtSectionSymStdJIS
  3
"Amdt_StdImp|Product Description: AutoCAD Mechanical 2000|Company: Autodesk"
 90
        0
280
     0
281
     0
  0
CLASS
  1
ACMCENTERLINESTANDARDJIS
  2
AmdtCenterLineStdJIS
  3
"Amdt_StdImp|Product Description: AutoCAD Mechanical 2000|Company: Autodesk"
 90
        0
280
     0
281
     0
  0
CLASS
  1
ACMTHREADLINESTANDARDJIS
  2
AmdtThreadLineStdJIS
  3
"Amdt_StdImp|Product Description: AutoCAD Mechanical 2000|Company: Autodesk"
 90
        0
280
     0
281
     0
  0
CLASS
  1
ACMNOTESTANDARDJIS
  2
AmdtNoteStdJIS
  3
"Amdt_StdImp|Product Description: AutoCAD Mechanical 2000|Company: Autodesk"
 90
        0
280
     0
281
     0
  0
CLASS
  1
LONG_TRANSACTION
  2
AcDbLongTransaction
  3
AutoCAD 2000
 90
        0
280
     0
281
     0
  0
CLASS
  1
LWPOLYLINE
  2
AcDbPolyline
  3
AutoCAD 2000
 90
        0
280
     0
281
     1
  0
CLASS
  1
HATCH
  2
AcDbHatch
  3
AutoCAD 2000
 90
        0
280
     0
281
     1
  0
CLASS
  1
XRECORD
  2
AcDbXrecord
  3
AutoCAD 2000
 90
        0
280
     0
281
     0
  0
ENDSEC
  0
SECTION
  2
TABLES
  0
TABLE
  2
VPORT
  5
6A1E
330
0
100
AcDbSymbolTable
 70
     4
  0
VPORT
  5
B7C4
330
6A1E
100
AcDbSymbolTableRecord
100
AcDbViewportTableRecord
  2
*ACTIVE
 70
     0
 10
0.0
 20
0.0
 11
1.0
 21
1.0
 12
-6.497468873545216
 22
-15.36601970046959
 13
0.0
 23
0.0
 14
2.5
 24
2.5
 15
10.0
 25
10.0
 16
0.0
 26
0.0
 36
767.7808751490076
 17
68.36373231284814
 27
144.2212100958965
 37
0.0
 40
340.0470451220975
 41
1.716417910447761
 42
50.0
 43
0.0
 44
0.0
 50
0.0
 51
0.0
 71
     0
 72
 10000
 73
     1
 74
     3
 75
     0
 76
     0
 77
     0
 78
     0
  0
ENDTAB
  0
TABLE
  2
LTYPE
  5
6A1B
330
0
100
AcDbSymbolTable
 70
    24
  0
LTYPE
  5
6A29
330
6A1B
100
AcDbSymbolTableRecord
100
AcDbLinetypeTableRecord
  2
BYBLOCK
 70
     0
  3

 72
    65
 73
     0
 40
0.0
  0
LTYPE
  5
6A2A
330
6A1B
100
AcDbSymbolTableRecord
100
AcDbLinetypeTableRecord
  2
BYLAYER
 70
     0
  3

 72
    65
 73
     0
 40
0.0
  0
LTYPE
  5
6A2B
330
6A1B
100
AcDbSymbolTableRecord
100
AcDbLinetypeTableRecord
  2
CONTINUOUS
 70
     0
  3
Solid line
 72
    65
 73
     0
 40
0.0
  0
LTYPE
  5
6A39
330
6A1B
100
AcDbSymbolTableRecord
100
AcDbLinetypeTableRecord
  2
AMCONSTR
 70
     0
  3
_______________________
 72
    65
 73
     2
 40
9999.0
 49
9999.0
 74
     0
 49
0.0
 74
     0
  0
LTYPE
  5
6A43
330
6A1B
100
AcDbSymbolTableRecord
100
AcDbLinetypeTableRecord
  2
CENTER
 70
     0
  3
__ . __
 72
    65
 73
     4
 40
7.0
 49
4.0
 74
     0
 49
-1.0
 74
     0
 49
1.0
 74
     0
 49
-1.0
 74
     0
  0
LTYPE
  5
6A45
330
6A1B
100
AcDbSymbolTableRecord
100
AcDbLinetypeTableRecord
  2
PHANTOM2
 70
     0
  3
Phantom (.5x) ___ _ _ ___ _ _ ___ _ _ ___ _ _
 72
    65
 73
     6
 40
1.25
 49
0.625
 74
     0
 49
-0.125
 74
     0
 49
0.125
 74
     0
 49
-0.125
 74
     0
 49
0.125
 74
     0
 49
-0.125
 74
     0
  0
LTYPE
  5
6A46
330
6A1B
100
AcDbSymbolTableRecord
100
AcDbLinetypeTableRecord
  2
ACANSTGB
 70
     0
  3
__ . . __ . .
 72
    65
 73
     6
 40
0.35433070866
 49
0.15748031496
 74
     0
 49
-0.03937007874
 74
     0
 49
0.03937007874
 74
     0
 49
-0.03937007874
 74
     0
 49
0.03937007874
 74
     0
 49
-0.03937007874
 74
     0
  0
LTYPE
  5
6A47
330
6A1B
100
AcDbSymbolTableRecord
100
AcDbLinetypeTableRecord
  2
ACANSTGL
 70
     0
  3
_ _ _ _ _
 72
    65
 73
     2
 40
0.11811023622
 49
0.07874015748
 74
     0
 49
-0.03937007874
 74
     0
  0
LTYPE
  5
6D97
330
6A1B
100
AcDbSymbolTableRecord
100
AcDbLinetypeTableRecord
  2
ACDINWELD
 70
     0
  3
_ _ _ _ _
 72
    65
 73
     2
 40
2.0
 49
2.0
 74
     0
 49
-1.0
 74
     0
  0
LTYPE
  5
6D98
330
6A1B
100
AcDbSymbolTableRecord
100
AcDbLinetypeTableRecord
  2
ACDINTGB
 70
     0
  3
__ . . __ . .
 72
    65
 73
     6
 40
9.0
 49
4.0
 74
     0
 49
-1.0
 74
     0
 49
1.0
 74
     0
 49
-1.0
 74
     0
 49
1.0
 74
     0
 49
-1.0
 74
     0
  0
LTYPE
  5
6D99
330
6A1B
100
AcDbSymbolTableRecord
100
AcDbLinetypeTableRecord
  2
ACDINTGL
 70
     0
  3
_ _ _ _ _
 72
    65
 73
     2
 40
3.0
 49
2.0
 74
     0
 49
-1.0
 74
     0
  0
LTYPE
  5
8543
330
6A1B
100
AcDbSymbolTableRecord
100
AcDbLinetypeTableRecord
  2
AMZIGZAG
 70
     0
  3
/\/-/\/-/\/-/\/-/\/-/\/
 72
    65
 73
     2
 40
11.00009999999999
 49
0.0001
 74
     4
 75
   135
340
6A5B
 46
0.04
 50
0.0
 44
0.0
 45
0.0
 49
-11.0
 74
     0
  0
LTYPE
  5
8544
330
6A1B
100
AcDbSymbolTableRecord
100
AcDbLinetypeTableRecord
  2
AM_DIN_F_W050
 70
     0
  3
__ __ __ __ __ __ __ __ __ __ __ __ __ __ __
 72
    65
 73
     2
 40
6.25
 49
4.75
 74
     0
 49
-1.5
 74
     0
  0
LTYPE
  5
8545
330
6A1B
100
AcDbSymbolTableRecord
100
AcDbLinetypeTableRecord
  2
AM_DIN_G_W050
 70
     0
  3
____ . ____ . ____ . ____ . ____ . ____ . ____
 72
    65
 73
     4
 40
13.75
 49
9.75
 74
     0
 49
-1.5
 74
     0
 49
1.0
 74
     0
 49
-1.5
 74
     0
  0
LTYPE
  5
8546
330
6A1B
100
AcDbSymbolTableRecord
100
AcDbLinetypeTableRecord
  2
AM_DIN_K_W050
 70
     0
  3
_____ . . _____ . . _____ . . ____ .. ____
 72
    65
 73
     6
 40
16.25
 49
9.75
 74
     0
 49
-1.5
 74
     0
 49
1.0
 74
     0
 49
-1.5
 74
     0
 49
1.0
 74
     0
 49
-1.5
 74
     0
  0
LTYPE
  5
8547
330
6A1B
100
AcDbSymbolTableRecord
100
AcDbLinetypeTableRecord
  2
AM_DIN_G_W050X2
 70
     0
  3
__ . __ . __ . __ . __ . __
 72
    65
 73
     4
 40
6.875
 49
4.75
 74
     0
 49
-0.875
 74
     0
 49
0.375
 74
     0
 49
-0.875
 74
     0
  0
LTYPE
  5
8548
330
6A1B
100
AcDbSymbolTableRecord
100
AcDbLinetypeTableRecord
  2
AM_DIN_F_W050X2
 70
     0
  3
 _ _ _ _ _ _ _ _ _ _ _ _
 72
    65
 73
     2
 40
3.125
 49
2.25
 74
     0
 49
-0.875
 74
     0
  0
LTYPE
  5
8E88
330
6A1B
100
AcDbSymbolTableRecord
100
AcDbLinetypeTableRecord
  2
DASHED
 70
     0
  3
__ __ __ __ __ __ __ __ __ __ __ __ __ __ __ __
 72
    65
 73
     2
 40
19.05
 49
12.7
 74
     0
 49
-6.349999999999998
 74
     0
  0
LTYPE
  5
993E
330
6A1B
100
AcDbSymbolTableRecord
100
AcDbLinetypeTableRecord
  2
ACJISTGB
 70
     0
  3
__ . . __ . .
 72
    65
 73
     6
 40
9.0
 49
4.0
 74
     0
 49
-1.0
 74
     0
 49
1.0
 74
     0
 49
-1.0
 74
     0
 49
1.0
 74
     0
 49
-1.0
 74
     0
  0
LTYPE
  5
993F
330
6A1B
100
AcDbSymbolTableRecord
100
AcDbLinetypeTableRecord
  2
ACJISTGL
 70
     0
  3
_ _ _ _ _
 72
    65
 73
     2
 40
3.0
 49
2.0
 74
     0
 49
-1.0
 74
     0
  0
LTYPE
  5
9940
330
6A1B
100
AcDbSymbolTableRecord
100
AcDbLinetypeTableRecord
  2
ACBSIWELD
 70
     0
  3
_ _ _ _ _
 72
    65
 73
     2
 40
2.0
 49
2.0
 74
     0
 49
-1.0
 74
     0
  0
LTYPE
  5
9941
330
6A1B
100
AcDbSymbolTableRecord
100
AcDbLinetypeTableRecord
  2
ACBSITGB
 70
     0
  3
__ . . __ . .
 72
    65
 73
     6
 40
9.0
 49
4.0
 74
     0
 49
-1.0
 74
     0
 49
1.0
 74
     0
 49
-1.0
 74
     0
 49
1.0
 74
     0
 49
-1.0
 74
     0
  0
LTYPE
  5
9942
330
6A1B
100
AcDbSymbolTableRecord
100
AcDbLinetypeTableRecord
  2
ACBSITGL
 70
     0
  3
_ _ _ _ _
 72
    65
 73
     2
 40
3.0
 49
2.0
 74
     0
 49
-1.0
 74
     0
  0
LTYPE
  5
9943
330
6A1B
100
AcDbSymbolTableRecord
100
AcDbLinetypeTableRecord
  2
ACISOWELD
 70
     0
  3
_ _ _ _ _
 72
    65
 73
     2
 40
2.0
 49
2.0
 74
     0
 49
-1.0
 74
     0
  0
LTYPE
  5
9944
330
6A1B
100
AcDbSymbolTableRecord
100
AcDbLinetypeTableRecord
  2
ACISOTGB
 70
     0
  3
__ . . __ . .
 72
    65
 73
     6
 40
9.0
 49
4.0
 74
     0
 49
-1.0
 74
     0
 49
1.0
 74
     0
 49
-1.0
 74
     0
 49
1.0
 74
     0
 49
-1.0
 74
     0
  0
LTYPE
  5
9945
330
6A1B
100
AcDbSymbolTableRecord
100
AcDbLinetypeTableRecord
  2
ACISOTGL
 70
     0
  3
_ _ _ _ _
 72
    65
 73
     2
 40
3.0
 49
2.0
 74
     0
 49
-1.0
 74
     0
  0
ENDTAB
  0
TABLE
  2
LAYER
  5
6A18
330
0
100
AcDbSymbolTable
 70
    13
  0
LAYER
  5
6A26
330
6A18
100
AcDbSymbolTableRecord
100
AcDbLayerTableRecord
  2
0
 70
     0
 62
     7
  6
CONTINUOUS
  0
LAYER
  5
6A4B
330
6A18
100
AcDbSymbolTableRecord
100
AcDbLayerTableRecord
  2
DEFPOINTS
 70
     0
 62
     7
  6
CONTINUOUS
  0
LAYER
  5
6A4C
330
6A18
100
AcDbSymbolTableRecord
100
AcDbLayerTableRecord
  2
1
 70
     0
 62
     4
  6
CONTINUOUS
  0
LAYER
  5
6A4D
330
6A18
100
AcDbSymbolTableRecord
100
AcDbLayerTableRecord
  2
2
 70
     0
 62
     7
  6
CONTINUOUS
  0
LAYER
  5
6A4F
330
6A18
100
AcDbSymbolTableRecord
100
AcDbLayerTableRecord
  2
4
 70
     0
 62
     2
  6
CENTER
  0
LAYER
  5
6A50
330
6A18
100
AcDbSymbolTableRecord
100
AcDbLayerTableRecord
  2
6
 70
     0
 62
     5
  6
CONTINUOUS
  0
LAYER
  5
6A53
330
6A18
100
AcDbSymbolTableRecord
100
AcDbLayerTableRecord
  2
SK1
 70
     0
 62
     4
  6
CONTINUOUS
  0
LAYER
  5
6A54
330
6A18
100
AcDbSymbolTableRecord
100
AcDbLayerTableRecord
  2
SK2
 70
     0
 62
     7
  6
CONTINUOUS
  0
LAYER
  5
6A56
330
6A18
100
AcDbSymbolTableRecord
100
AcDbLayerTableRecord
  2
SK4
 70
     0
 62
     2
  6
CENTER
  0
LAYER
  5
6A57
330
6A18
100
AcDbSymbolTableRecord
100
AcDbLayerTableRecord
  2
CUT
 70
     0
 62
     1
  6
CONTINUOUS
  0
LAYER
  5
6A58
330
6A18
100
AcDbSymbolTableRecord
100
AcDbLayerTableRecord
  2
NOCUT
 70
     0
 62
     7
  6
CONTINUOUS
  0
LAYER
  5
8E89
330
6A18
100
AcDbSymbolTableRecord
100
AcDbLayerTableRecord
  2
SK3
 70
     0
 62
     1
  6
DASHED
  0
LAYER
  5
8E8A
330
6A18
100
AcDbSymbolTableRecord
100
AcDbLayerTableRecord
  2
SK6
 70
     0
 62
     5
  6
CONTINUOUS
  0
ENDTAB
  0
TABLE
  2
STYLE
  5
6A19
330
0
100
AcDbSymbolTable
 70
    12
  0
STYLE
  5
6A27
330
6A19
100
AcDbSymbolTableRecord
100
AcDbTextStyleTableRecord
  2
STANDARD
 70
     0
 40
0.0
 41
1.0
 50
0.0
 71
     0
 42
2.5
  3
ISOCP.SHX
  4

  0
STYLE
  5
6A5B
330
6A19
100
AcDbSymbolTableRecord
100
AcDbTextStyleTableRecord
  2

 70
     1
 40
0.0
 41
1.0
 50
0.0
 71
     0
 42
2.5
  3
ltypeshp.shx
  4

  0
STYLE
  5
6A5E
330
6A19
100
AcDbSymbolTableRecord
100
AcDbTextStyleTableRecord
  2
ACANSTS
 70
     0
 40
1.0
 41
1.0
 50
0.0
 71
     0
 42
0.2
  3
romans.shx
  4

  0
STYLE
  5
6A5F
330
6A19
100
AcDbSymbolTableRecord
100
AcDbTextStyleTableRecord
  2
ACANSGDT
 70
     0
 40
0.0
 41
1.0
 50
0.0
 71
     0
 42
0.2
  3
amgdtans.shx
  4

  0
STYLE
  5
6D9A
330
6A19
100
AcDbSymbolTableRecord
100
AcDbTextStyleTableRecord
  2
ACDINTS
 70
     0
 40
1.0
 41
1.0
 50
0.0
 71
     0
 42
2.5
  3
isocp.shx
  4

  0
STYLE
  5
6D9B
330
6A19
100
AcDbSymbolTableRecord
100
AcDbTextStyleTableRecord
  2
ACDINGDT
 70
     0
 40
0.0
 41
1.0
 50
0.0
 71
     0
 42
2.5
  3
amgdt.shx
  4

  0
STYLE
  5
9946
330
6A19
100
AcDbSymbolTableRecord
100
AcDbTextStyleTableRecord
  2
ACJISTS
 70
     0
 40
1.0
 41
1.0
 50
0.0
 71
     0
 42
3.5
  3
isocp.shx
  4
bigfont.shx
  0
STYLE
  5
9947
330
6A19
100
AcDbSymbolTableRecord
100
AcDbTextStyleTableRecord
  2
ACJISGDT
 70
     0
 40
0.0
 41
1.0
 50
0.0
 71
     0
 42
3.5
  3
amgdt.shx
  4

  0
STYLE
  5
9948
330
6A19
100
AcDbSymbolTableRecord
100
AcDbTextStyleTableRecord
  2
ACBSITS
 70
     0
 40
1.0
 41
1.0
 50
0.0
 71
     0
 42
3.5
  3
isocp.shx
  4

  0
STYLE
  5
9949
330
6A19
100
AcDbSymbolTableRecord
100
AcDbTextStyleTableRecord
  2
ACBSIGDT
 70
     0
 40
0.0
 41
1.0
 50
0.0
 71
     0
 42
3.5
  3
amgdt.shx
  4

  0
STYLE
  5
994A
330
6A19
100
AcDbSymbolTableRecord
100
AcDbTextStyleTableRecord
  2
ACISOTS
 70
     0
 40
1.0
 41
1.0
 50
0.0
 71
     0
 42
3.5
  3
isocp.shx
  4

  0
STYLE
  5
994B
330
6A19
100
AcDbSymbolTableRecord
100
AcDbTextStyleTableRecord
  2
ACISOGDT
 70
     0
 40
0.0
 41
1.0
 50
0.0
 71
     0
 42
3.5
  3
amgdt.shx
  4

  0
ENDTAB
  0
TABLE
  2
VIEW
  5
6A1C
330
0
100
AcDbSymbolTable
 70
     6
  0
VIEW
  5
6A60
330
6A1C
100
AcDbSymbolTableRecord
100
AcDbViewTableRecord
  2
AM_VIEW1
 70
     0
 40
148.5
 10
131.508173076923
 20
222.75
 41
263.016346153846
 11
0.0
 21
0.0
 31
1.0
 12
0.0
 22
0.0
 32
0.0
 42
50.0
 43
0.0
 44
0.0
 50
0.0
 71
    16
  0
VIEW
  5
6A61
330
6A1C
100
AcDbSymbolTableRecord
100
AcDbViewTableRecord
  2
AM_VIEW2
 70
     0
 40
148.5
 10
78.4918269230769
 20
222.75
 41
263.016346153846
 11
0.0
 21
0.0
 31
1.0
 12
0.0
 22
0.0
 32
0.0
 42
50.0
 43
0.0
 44
0.0
 50
0.0
 71
    16
  0
VIEW
  5
6A62
330
6A1C
100
AcDbSymbolTableRecord
100
AcDbViewTableRecord
  2
AM_VIEW3
 70
     0
 40
148.5
 10
131.508173076923
 20
74.25
 41
263.016346153846
 11
0.0
 21
0.0
 31
1.0
 12
0.0
 22
0.0
 32
0.0
 42
50.0
 43
0.0
 44
0.0
 50
0.0
 71
    16
  0
VIEW
  5
6A63
330
6A1C
100
AcDbSymbolTableRecord
100
AcDbViewTableRecord
  2
AM_VIEW4
 70
     0
 40
148.5
 10
78.4918269230769
 20
74.25
 41
263.016346153846
 11
0.0
 21
0.0
 31
1.0
 12
0.0
 22
0.0
 32
0.0
 42
50.0
 43
0.0
 44
0.0
 50
0.0
 71
    16
  0
VIEW
  5
6A64
330
6A1C
100
AcDbSymbolTableRecord
100
AcDbViewTableRecord
  2
AM_VIEW5
 70
     0
 40
148.5
 10
105.0
 20
148.5
 41
263.016346153846
 11
0.0
 21
0.0
 31
1.0
 12
0.0
 22
0.0
 32
0.0
 42
50.0
 43
0.0
 44
0.0
 50
0.0
 71
    16
  0
VIEW
  5
6A65
330
6A1C
100
AcDbSymbolTableRecord
100
AcDbViewTableRecord
  2
AM_VIEW6
 70
     0
 40
296.9970299999999
 10
105.0
 20
148.5
 41
526.0274319807693
 11
0.0
 21
0.0
 31
1.0
 12
0.0
 22
0.0
 32
0.0
 42
50.0
 43
0.0
 44
0.0
 50
0.0
 71
    16
  0
ENDTAB
  0
TABLE
  2
UCS
  5
6A1D
330
0
100
AcDbSymbolTable
 70
     0
  0
ENDTAB
  0
TABLE
  2
APPID
  5
6A1F
330
0
100
AcDbSymbolTable
 70
    59
  0
APPID
  5
6A28
330
6A1F
100
AcDbSymbolTableRecord
100
AcDbRegAppTableRecord
  2
ACAD
 70
     0
  0
APPID
  5
6A66
330
6A1F
100
AcDbSymbolTableRecord
100
AcDbRegAppTableRecord
  2
MCAD_NO_VIS
 70
     0
  0
APPID
  5
6A67
330
6A1F
100
AcDbSymbolTableRecord
100
AcDbRegAppTableRecord
  2
ACAD_TEMP_GRAPHIC
 70
     0
  0
APPID
  5
6A68
330
6A1F
100
AcDbSymbolTableRecord
100
AcDbRegAppTableRecord
  2
ACATTRIBSERVICES
 70
     0
  0
APPID
  5
6A69
330
6A1F
100
AcDbSymbolTableRecord
100
AcDbRegAppTableRecord
  2
GENIUS_GENDIMSH_14
 70
     0
  0
APPID
  5
6A6A
330
6A1F
100
AcDbSymbolTableRecord
100
AcDbRegAppTableRecord
  2
GENIUS_GENBLLY_14
 70
     0
  0
APPID
  5
6A6B
330
6A1F
100
AcDbSymbolTableRecord
100
AcDbRegAppTableRecord
  2
GENIUS_GENTRA_14
 70
     0
  0
APPID
  5
6A6C
330
6A1F
100
AcDbSymbolTableRecord
100
AcDbRegAppTableRecord
  2
GENIUS_GENODEF_13
 70
     0
  0
APPID
  5
6A6D
330
6A1F
100
AcDbSymbolTableRecord
100
AcDbRegAppTableRecord
  2
GENIUS_GENOLIS_13
 70
     0
  0
APPID
  5
6A6E
330
6A1F
100
AcDbSymbolTableRecord
100
AcDbRegAppTableRecord
  2
GENIUS_GENOENT_13
 70
     0
  0
APPID
  5
6A6F
330
6A1F
100
AcDbSymbolTableRecord
100
AcDbRegAppTableRecord
  2
GENIUS_GENOBJ-N-TIT_13
 70
     0
  0
APPID
  5
6A70
330
6A1F
100
AcDbSymbolTableRecord
100
AcDbRegAppTableRecord
  2
GENIUS_GENTITLE_13
 70
     0
  0
APPID
  5
6A71
330
6A1F
100
AcDbSymbolTableRecord
100
AcDbRegAppTableRecord
  2
GENIUS_GENOREF_13
 70
     0
  0
APPID
  5
6A72
330
6A1F
100
AcDbSymbolTableRecord
100
AcDbRegAppTableRecord
  2
GENIUS_GENSCREG_15
 70
     0
  0
APPID
  5
6A73
330
6A1F
100
AcDbSymbolTableRecord
100
AcDbRegAppTableRecord
  2
GENIUS_GENOBJ-N-SDF_13
 70
     0
  0
APPID
  5
6A74
330
6A1F
100
AcDbSymbolTableRecord
100
AcDbRegAppTableRecord
  2
ACADIGES
 70
     0
  0
APPID
  5
6A75
330
6A1F
100
AcDbSymbolTableRecord
100
AcDbRegAppTableRecord
  2
GENIUS_GENOBJ-N-HTC_13
 70
     0
  0
APPID
  5
6A76
330
6A1F
100
AcDbSymbolTableRecord
100
AcDbRegAppTableRecord
  2
GENIUS_GENHATCH_13
 70
     0
  0
APPID
  5
6DA2
330
6A1F
100
AcDbSymbolTableRecord
100
AcDbRegAppTableRecord
  2
GENIUS_GENOBJ-N-CRS_13
 70
     0
  0
APPID
  5
6DA3
330
6A1F
100
AcDbSymbolTableRecord
100
AcDbRegAppTableRecord
  2
GENIUS_GENOBJ-N-FIL_13
 70
     0
  0
APPID
  5
6DD2
330
6A1F
100
AcDbSymbolTableRecord
100
AcDbRegAppTableRecord
  2
GENIUS_GENFIL_13
 70
     0
  0
APPID
  5
6DD3
330
6A1F
100
AcDbSymbolTableRecord
100
AcDbRegAppTableRecord
  2
GENIUS_GENOBJ-N-CHA_13
 70
     0
  0
APPID
  5
7FA8
330
6A1F
100
AcDbSymbolTableRecord
100
AcDbRegAppTableRecord
  2
GENIUS12
 70
     0
  0
APPID
  5
7FA9
330
6A1F
100
AcDbSymbolTableRecord
100
AcDbRegAppTableRecord
  2
GENIUS_GENCFG_13
 70
     0
  0
APPID
  5
7FAA
330
6A1F
100
AcDbSymbolTableRecord
100
AcDbRegAppTableRecord
  2
GENIUS_GEFCFG0_13
 70
     0
  0
APPID
  5
7FAB
330
6A1F
100
AcDbSymbolTableRecord
100
AcDbRegAppTableRecord
  2
GENIUS_GENCFG0_13
 70
     0
  0
APPID
  5
7FAC
330
6A1F
100
AcDbSymbolTableRecord
100
AcDbRegAppTableRecord
  2
GENIUS_GENCFG1_13
 70
     0
  0
APPID
  5
7FAD
330
6A1F
100
AcDbSymbolTableRecord
100
AcDbRegAppTableRecord
  2
GENIUS_GENCFG2_13
 70
     0
  0
APPID
  5
7FAE
330
6A1F
100
AcDbSymbolTableRecord
100
AcDbRegAppTableRecord
  2
GENIUS_GENCFG3_13
 70
     0
  0
APPID
  5
7FAF
330
6A1F
100
AcDbSymbolTableRecord
100
AcDbRegAppTableRecord
  2
GENIUS_GENCFG4_13
 70
     0
  0
APPID
  5
7FB0
330
6A1F
100
AcDbSymbolTableRecord
100
AcDbRegAppTableRecord
  2
GENIUS_GEVCFG0_13
 70
     0
  0
APPID
  5
7FB1
330
6A1F
100
AcDbSymbolTableRecord
100
AcDbRegAppTableRecord
  2
GENIUS_GENOBJ-F-SUF_13
 70
     0
  0
APPID
  5
7FB2
330
6A1F
100
AcDbSymbolTableRecord
100
AcDbRegAppTableRecord
  2
GENIUS_GENDIM_13
 70
     0
  0
APPID
  5
7FB3
330
6A1F
100
AcDbSymbolTableRecord
100
AcDbRegAppTableRecord
  2
GENIUS_GENDTOL_13
 70
     0
  0
APPID
  5
7FB4
330
6A1F
100
AcDbSymbolTableRecord
100
AcDbRegAppTableRecord
  2
GENIUS_GE3DTOL_13
 70
     0
  0
APPID
  5
7FB5
330
6A1F
100
AcDbSymbolTableRecord
100
AcDbRegAppTableRecord
  2
AD_DRAW
 70
     0
  0
APPID
  5
7FB6
330
6A1F
100
AcDbSymbolTableRecord
100
AcDbRegAppTableRecord
  2
ASURF_PCURVE_APPNAME
 70
     0
  0
APPID
  5
7FB7
330
6A1F
100
AcDbSymbolTableRecord
100
AcDbRegAppTableRecord
  2
AMG_3D2D_5_0
 70
     0
  0
APPID
  5
7FB8
330
6A1F
100
AcDbSymbolTableRecord
100
AcDbRegAppTableRecord
  2
DESIGNERASSEMBLIES
 70
     0
  0
APPID
  5
7FB9
330
6A1F
100
AcDbSymbolTableRecord
100
AcDbRegAppTableRecord
  2
ACADM_DIM_EDIT
 70
     0
  0
APPID
  5
7FBA
330
6A1F
100
AcDbSymbolTableRecord
100
AcDbRegAppTableRecord
  2
AMDT_DM_ADJ
 70
     0
  0
APPID
  5
85F3
330
6A1F
100
AcDbSymbolTableRecord
100
AcDbRegAppTableRecord
  2
GENIUS_GENOBJ-N-CEN_13
 70
     0
  0
APPID
  5
89F7
330
6A1F
100
AcDbSymbolTableRecord
100
AcDbRegAppTableRecord
  2
DCO15
 70
     0
  0
APPID
  5
8E8B
330
6A1F
100
AcDbSymbolTableRecord
100
AcDbRegAppTableRecord
  2
GEV_VCCNULL_SWITCH_OFF
 70
     0
  0
APPID
  5
9961
330
6A1F
100
AcDbSymbolTableRecord
100
AcDbRegAppTableRecord
  2
GENIUS_GE3CFG0_13
 70
     0
  0
APPID
  5
9962
330
6A1F
100
AcDbSymbolTableRecord
100
AcDbRegAppTableRecord
  2
GENIUS_GENZVEED_13
 70
     0
  0
APPID
  5
9963
330
6A1F
100
AcDbSymbolTableRecord
100
AcDbRegAppTableRecord
  2
GENIUS_GENSCREG_13
 70
     0
  0
APPID
  5
9964
330
6A1F
100
AcDbSymbolTableRecord
100
AcDbRegAppTableRecord
  2
GENIUS_GENOBJ-N-RSBK_13
 70
     0
  0
APPID
  5
9965
330
6A1F
100
AcDbSymbolTableRecord
100
AcDbRegAppTableRecord
  2
GENIUS_GENSCALE_13
 70
     0
  0
APPID
  5
9966
330
6A1F
100
AcDbSymbolTableRecord
100
AcDbRegAppTableRecord
  2
GENIUS_GENOBJ-F-TOLS_13
 70
     0
  0
APPID
  5
A076
330
6A1F
100
AcDbSymbolTableRecord
100
AcDbRegAppTableRecord
  2
GENIUS_GENOBJ-N-DIM12_13
 70
     0
  0
APPID
  5
A077
330
6A1F
100
AcDbSymbolTableRecord
100
AcDbRegAppTableRecord
  2
GENIUS_GENHINW_13
 70
     0
  0
APPID
  5
A078
330
6A1F
100
AcDbSymbolTableRecord
100
AcDbRegAppTableRecord
  2
GENIUS_GENOBJ-F-TOLL_13
 70
     0
  0
APPID
  5
A079
330
6A1F
100
AcDbSymbolTableRecord
100
AcDbRegAppTableRecord
  2
GENIUS_GEFTOLC_13
 70
     0
  0
APPID
  5
A07A
330
6A1F
100
AcDbSymbolTableRecord
100
AcDbRegAppTableRecord
  2
GENIUS_GENOBJ-F-TOL_13
 70
     0
  0
APPID
  5
A07B
330
6A1F
100
AcDbSymbolTableRecord
100
AcDbRegAppTableRecord
  2
GENIUS_GENOBJ-N-RSSYM_13
 70
     0
  0
APPID
  5
A07C
330
6A1F
100
AcDbSymbolTableRecord
100
AcDbRegAppTableRecord
  2
GENIUS_GENSYMENT_13
 70
     0
  0
APPID
  5
A07D
330
6A1F
100
AcDbSymbolTableRecord
100
AcDbRegAppTableRecord
  2
GENIUS_GENSCSYM_13
 70
     0
  0
APPID
  5
A07E
330
6A1F
100
AcDbSymbolTableRecord
100
AcDbRegAppTableRecord
  2
AD_SKETCHDIM
 70
     0
  0
ENDTAB
  0
TABLE
  2
DIMSTYLE
  5
6A20
330
0
100
AcDbSymbolTable
 70
    35
  0
DIMSTYLE
105
6A77
102
{ACAD_REACTORS
330
9AA7
330
9AA6
330
B640
330
B657
330
B65F
330
B786
102
}
330
6A20
100
AcDbSymbolTableRecord
100
AcDbDimStyleTableRecord
  2
AM_DIN
 70
     0
  3

  4
"
  5

  6

  7

 40
1.0
 41
2.5
 42
0.0
 43
10.0
 44
1.0
 45
0.0
 46
0.0
 47
0.1
 48
0.1
140
3.5
141
0.0
142
0.0
143
0.0393701
144
1.0
145
0.0
146
0.71
147
1.5
 71
     0
 72
     0
 73
     0
 74
     0
 75
     0
 76
     0
 77
     1
 78
     8
170
     0
171
     2
172
     1
173
     0
174
     0
175
     0
176
   256
177
   256
178
     2
270
     2
271
     2
272
     2
273
     2
274
     2
340
6A27
275
     0
280
     0
281
     0
282
     0
283
     1
284
     8
285
     8
286
     8
287
     5
288
     0
  0
DIMSTYLE
105
6A7E
330
6A20
100
AcDbSymbolTableRecord
100
AcDbDimStyleTableRecord
  2
STANDARD
 70
     0
  3

  4

  5

  6

  7

 40
1.0
 41
0.18
 42
0.0625
 43
0.38
 44
0.18
 45
0.0
 46
0.0
 47
0.0
 48
0.0
140
0.18
141
0.09
142
0.0
143
25.4
144
1.0
145
0.0
146
1.0
147
0.09
 71
     0
 72
     0
 73
     1
 74
     1
 75
     0
 76
     0
 77
     0
 78
     0
170
     0
171
     2
172
     0
173
     0
174
     0
175
     0
176
     0
177
     0
178
     0
270
     2
271
     2
272
     2
273
     2
274
     2
340
6A27
275
     0
280
     0
281
     0
282
     0
283
     1
284
     8
285
     8
286
     8
287
     5
288
     0
  0
DIMSTYLE
105
6A7F
330
6A20
100
AcDbSymbolTableRecord
100
AcDbDimStyleTableRecord
  2
AM_ANSI
 70
     0
  3

  4
mm
  5

  6

  7

 40
1.0
 41
0.1
 42
0.05
 43
0.5
 44
0.1
 45
0.0
 46
0.0
 47
0.1
 48
0.1
140
0.12
141
0.0
142
0.0
143
25.4
144
1.0
145
0.0
146
0.71
147
0.06
 71
     0
 72
     0
 73
     1
 74
     1
 75
     0
 76
     0
 77
     0
 78
     7
170
     0
171
     2
172
     0
173
     0
174
     0
175
     0
176
   256
177
   256
178
     2
270
     2
271
     2
272
     2
273
     2
274
     2
340
6A27
275
     0
280
     0
281
     0
282
     0
283
     1
284
     8
285
     8
286
     8
287
     5
288
     0
  0
DIMSTYLE
105
6A80
330
6A20
100
AcDbSymbolTableRecord
100
AcDbDimStyleTableRecord
  2
AM_ANSI$3
 70
     0
  3

  4
mm
  5

  6

  7

 40
1.0
 41
0.1
 42
0.05
 43
0.5
 44
0.1
 45
0.0
 46
0.0
 47
0.1
 48
0.1
140
0.12
141
0.0
142
0.0
143
25.4
144
1.0
145
0.0
146
0.71
147
0.06
 71
     0
 72
     0
 73
     1
 74
     1
 75
     0
 76
     0
 77
     0
 78
     7
170
     0
171
     2
172
     0
173
     0
174
     0
175
     0
176
   256
177
   256
178
     2
270
     2
271
     2
272
     2
273
     2
274
     2
340
6A27
275
     0
280
     0
281
     0
282
     0
283
     1
284
     8
285
     8
286
     8
287
     5
288
     0
  0
DIMSTYLE
105
6A81
330
6A20
100
AcDbSymbolTableRecord
100
AcDbDimStyleTableRecord
  2
AM_ANSI$4
 70
     0
  3

  4
mm
  5

  6

  7

 40
1.0
 41
0.1
 42
0.05
 43
0.5
 44
0.1
 45
0.0
 46
0.0
 47
0.1
 48
0.1
140
0.12
141
0.0
142
0.0
143
25.4
144
1.0
145
0.0
146
0.71
147
0.06
 71
     0
 72
     0
 73
     1
 74
     1
 75
     0
 76
     0
 77
     0
 78
     7
170
     0
171
     2
172
     0
173
     0
174
     0
175
     0
176
   256
177
   256
178
     2
270
     2
271
     2
272
     2
273
     2
274
     2
340
6A27
275
     0
280
     0
281
     0
282
     0
283
     1
284
     8
285
     8
286
     8
287
     5
288
     0
  0
DIMSTYLE
105
6A82
330
6A20
100
AcDbSymbolTableRecord
100
AcDbDimStyleTableRecord
  2
AM_ANSI$7
 70
     0
  3

  4
mm
  5

  6

  7

 40
1.0
 41
0.1
 42
0.05
 43
0.5
 44
0.1
 45
0.0
 46
0.0
 47
0.1
 48
0.1
140
0.24
141
0.0
142
0.0
143
25.4
144
1.0
145
0.0
146
0.71
147
0.06
 71
     0
 72
     0
 73
     1
 74
     1
 75
     0
 76
     0
 77
     0
 78
     7
170
     0
171
     2
172
     0
173
     0
174
     0
175
     0
176
   256
177
   256
178
     2
270
     2
271
     2
272
     2
273
     2
274
     2
340
6A27
275
     0
280
     0
281
     0
282
     0
283
     1
284
     8
285
     8
286
     8
287
     5
288
     0
  0
DIMSTYLE
105
6A83
330
6A20
100
AcDbSymbolTableRecord
100
AcDbDimStyleTableRecord
  2
AM_ANSI$SF
 70
     0
  3

  4
mm
  5

  6

  7

 40
1.0
 41
0.1
 42
0.05
 43
0.5
 44
0.1
 45
0.0
 46
0.0
 47
0.1
 48
0.1
140
0.12
141
0.0
142
0.0
143
25.4
144
1.0
145
0.0
146
0.71
147
0.06
 71
     0
 72
     0
 73
     1
 74
     1
 75
     1
 76
     1
 77
     0
 78
     7
170
     0
171
     2
172
     0
173
     0
174
     0
175
     0
176
   256
177
   256
178
     2
270
     2
271
     2
272
     2
273
     2
274
     2
340
6A27
275
     0
280
     0
281
     0
282
     0
283
     1
284
     8
285
     8
286
     8
287
     5
288
     0
  0
DIMSTYLE
105
6A84
330
6A20
100
AcDbSymbolTableRecord
100
AcDbDimStyleTableRecord
  2
AM_ANSI$SH
 70
     0
  3

  4
mm
  5

  6

  7

 40
1.0
 41
0.1
 42
0.05
 43
0.5
 44
0.1
 45
0.0
 46
0.0
 47
0.1
 48
0.1
140
0.12
141
0.0
142
0.0
143
25.4
144
1.0
145
0.0
146
0.71
147
0.06
 71
     0
 72
     0
 73
     1
 74
     1
 75
     1
 76
     1
 77
     0
 78
     7
170
     0
171
     2
172
     0
173
     1
174
     0
175
     0
176
   256
177
   256
178
     2
270
     2
271
     2
272
     2
273
     2
274
     2
340
6A27
275
     0
280
     0
281
     0
282
     0
283
     1
284
     8
285
     8
286
     8
287
     5
288
     0
  0
DIMSTYLE
105
6D9C
330
6A20
100
AcDbSymbolTableRecord
100
AcDbDimStyleTableRecord
  2
AM_DIN$3
 70
     0
  3

  4
"
  5

  6

  7

 40
1.0
 41
3.5
 42
0.0
 43
10.0
 44
1.0
 45
0.0
 46
0.0
 47
0.1
 48
0.1
140
3.5
141
0.0
142
0.0
143
0.0393701
144
1.0
145
0.0
146
0.71
147
1.5
 71
     0
 72
     0
 73
     0
 74
     1
 75
     0
 76
     0
 77
     1
 78
     8
170
     0
171
     2
172
     0
173
     0
174
     0
175
     0
176
   256
177
   256
178
     2
270
     2
271
     2
272
     2
273
     2
274
     2
340
6A27
275
     0
280
     0
281
     0
282
     0
283
     0
284
     8
285
     0
286
     0
287
     0
288
     1
  0
DIMSTYLE
105
6D9D
330
6A20
100
AcDbSymbolTableRecord
100
AcDbDimStyleTableRecord
  2
AM_DIN$4
 70
     0
  3

  4
"
  5

  6

  7

 40
1.0
 41
3.5
 42
0.0
 43
10.0
 44
1.0
 45
0.0
 46
0.0
 47
0.1
 48
0.1
140
3.5
141
0.0
142
0.0
143
0.0393701
144
1.0
145
0.0
146
0.71
147
1.5
 71
     0
 72
     0
 73
     0
 74
     1
 75
     0
 76
     0
 77
     1
 78
     8
170
     0
171
     2
172
     0
173
     0
174
     0
175
     0
176
   256
177
   256
178
     2
270
     2
271
     2
272
     2
273
     2
274
     2
340
6A27
275
     0
280
     0
281
     0
282
     0
283
     0
284
     8
285
     0
286
     0
287
     0
288
     1
  0
DIMSTYLE
105
6D9E
330
6A20
100
AcDbSymbolTableRecord
100
AcDbDimStyleTableRecord
  2
AM_DIN$6
 70
     0
  3

  4
"
  5

  6

  7

 40
1.0
 41
3.5
 42
0.0
 43
0.0
 44
1.0
 45
0.0
 46
0.0
 47
0.1
 48
0.1
140
3.5
141
0.0
142
0.0
143
0.0393701
144
1.0
145
0.0
146
0.71
147
1.5
 71
     0
 72
     0
 73
     0
 74
     0
 75
     0
 76
     0
 77
     0
 78
     8
170
     0
171
     2
172
     1
173
     0
174
     0
175
     0
176
   256
177
   256
178
     2
270
     2
271
     2
272
     2
273
     2
274
     2
340
6A27
275
     0
280
     0
281
     0
282
     0
283
     0
284
     8
285
     0
286
     0
287
     3
288
     0
  0
DIMSTYLE
105
6D9F
330
6A20
100
AcDbSymbolTableRecord
100
AcDbDimStyleTableRecord
  2
AM_DIN$7
 70
     0
  3

  4
"
  5

  6

  7

 40
1.0
 41
3.5
 42
0.0
 43
10.0
 44
1.0
 45
0.0
 46
0.0
 47
0.1
 48
0.1
140
3.5
141
0.0
142
0.0
143
0.0393701
144
1.0
145
0.0
146
0.71
147
1.5
 71
     0
 72
     0
 73
     0
 74
     0
 75
     0
 76
     0
 77
     1
 78
     8
170
     0
171
     2
172
     1
173
     0
174
     0
175
     0
176
   256
177
   256
178
     2
270
     2
271
     2
272
     2
273
     2
274
     2
340
6A27
275
     0
280
     0
281
     0
282
     0
283
     0
284
     8
285
     0
286
     0
287
     3
288
     0
  0
DIMSTYLE
105
6DA0
330
6A20
100
AcDbSymbolTableRecord
100
AcDbDimStyleTableRecord
  2
AM_DIN$SF
 70
     0
  3

  4
"
  5

  6

  7

 40
1.0
 41
2.5
 42
1.0
 43
10.0
 44
1.0
 45
0.0
 46
0.0
 47
0.1
 48
0.1
140
3.5
141
0.0
142
0.0
143
0.0393701
144
1.0
145
0.0
146
0.71
147
1.5
 71
     0
 72
     0
 73
     0
 74
     0
 75
     1
 76
     1
 77
     1
 78
     8
170
     0
171
     2
172
     1
173
     0
174
     0
175
     0
176
   256
177
   256
178
     2
270
     2
271
     2
272
     3
273
     2
274
     4
340
6A27
275
     0
280
     0
281
     0
282
     0
283
     0
284
     8
285
     0
286
     0
287
     3
288
     0
  0
DIMSTYLE
105
6DA1
330
6A20
100
AcDbSymbolTableRecord
100
AcDbDimStyleTableRecord
  2
AM_DIN$SH
 70
     0
  3

  4
"
  5

  6
GENAXEH
  7

 40
1.0
 41
2.5
 42
1.0
 43
10.0
 44
1.0
 45
0.0
 46
0.0
 47
0.1
 48
0.1
140
3.5
141
0.0
142
0.0
143
0.0393701
144
2.0
145
0.0
146
0.71
147
1.5
 71
     0
 72
     0
 73
     0
 74
     0
 75
     1
 76
     1
 77
     1
 78
     8
170
     0
171
     2
172
     1
173
     1
174
     0
175
     0
176
   256
177
   256
178
     2
270
     2
271
     2
272
     3
273
     2
274
     4
340
6A27
275
     0
280
     0
281
     0
282
     0
283
     0
284
     8
285
     0
286
     0
287
     3
288
     0
  0
DIMSTYLE
105
994C
330
6A20
100
AcDbSymbolTableRecord
100
AcDbDimStyleTableRecord
  2
AM_BSI
 70
     0
  3

  4
"
  5

  6

  7

 40
1.0
 41
4.0
 42
1.0
 43
10.0
 44
1.0
 45
0.0
 46
0.0
 47
0.1
 48
0.1
140
3.5
141
0.0
142
0.0
143
0.0393701
144
1.0
145
0.0
146
0.71
147
1.5
 71
     0
 72
     0
 73
     0
 74
     0
 75
     0
 76
     0
 77
     1
 78
     8
170
     0
171
     2
172
     1
173
     0
174
     0
175
     0
176
   256
177
   256
178
     2
270
     2
271
     2
272
     3
273
     2
274
     4
340
6A27
275
     0
280
     0
281
     0
282
     0
283
     0
284
     8
285
     0
286
     0
287
     3
288
     0
  0
DIMSTYLE
105
994D
330
6A20
100
AcDbSymbolTableRecord
100
AcDbDimStyleTableRecord
  2
AM_BSI$3
 70
     0
  3

  4
"
  5

  6

  7

 40
1.0
 41
4.0
 42
1.0
 43
10.0
 44
1.0
 45
0.0
 46
0.0
 47
0.1
 48
0.1
140
3.5
141
0.0
142
0.0
143
0.0393701
144
1.0
145
0.0
146
0.71
147
1.5
 71
     0
 72
     0
 73
     0
 74
     1
 75
     0
 76
     0
 77
     1
 78
     8
170
     0
171
     2
172
     0
173
     0
174
     0
175
     0
176
   256
177
   256
178
     2
270
     2
271
     2
272
     3
273
     2
274
     4
340
6A27
275
     0
280
     0
281
     0
282
     0
283
     0
284
     8
285
     0
286
     0
287
     0
288
     1
  0
DIMSTYLE
105
994E
330
6A20
100
AcDbSymbolTableRecord
100
AcDbDimStyleTableRecord
  2
AM_BSI$4
 70
     0
  3

  4
"
  5

  6

  7

 40
1.0
 41
4.0
 42
1.0
 43
10.0
 44
1.0
 45
0.0
 46
0.0
 47
0.1
 48
0.1
140
3.5
141
0.0
142
0.0
143
0.0393701
144
1.0
145
0.0
146
0.71
147
1.5
 71
     0
 72
     0
 73
     0
 74
     1
 75
     0
 76
     0
 77
     1
 78
     8
170
     0
171
     2
172
     0
173
     0
174
     0
175
     0
176
   256
177
   256
178
     2
270
     2
271
     2
272
     3
273
     2
274
     4
340
6A27
275
     0
280
     0
281
     0
282
     0
283
     0
284
     8
285
     0
286
     0
287
     0
288
     1
  0
DIMSTYLE
105
994F
330
6A20
100
AcDbSymbolTableRecord
100
AcDbDimStyleTableRecord
  2
AM_BSI$6
 70
     0
  3

  4
"
  5

  6

  7

 40
1.0
 41
4.0
 42
1.0
 43
10.0
 44
1.0
 45
0.0
 46
0.0
 47
0.1
 48
0.1
140
3.5
141
0.0
142
0.0
143
0.0393701
144
1.0
145
0.0
146
0.71
147
1.5
 71
     0
 72
     0
 73
     0
 74
     0
 75
     0
 76
     0
 77
     0
 78
     8
170
     0
171
     2
172
     1
173
     0
174
     0
175
     0
176
   256
177
   256
178
     2
270
     2
271
     2
272
     3
273
     2
274
     4
340
6A27
275
     0
280
     0
281
     0
282
     0
283
     0
284
     8
285
     0
286
     0
287
     3
288
     0
  0
DIMSTYLE
105
9950
330
6A20
100
AcDbSymbolTableRecord
100
AcDbDimStyleTableRecord
  2
AM_BSI$7
 70
     0
  3

  4
"
  5

  6

  7

 40
1.0
 41
2.5
 42
1.0
 43
10.0
 44
1.0
 45
0.0
 46
0.0
 47
0.1
 48
0.1
140
5.0
141
0.0
142
0.0
143
0.0393701
144
1.0
145
0.0
146
0.71
147
1.5
 71
     0
 72
     0
 73
     0
 74
     0
 75
     0
 76
     0
 77
     1
 78
     8
170
     0
171
     2
172
     1
173
     0
174
     0
175
     0
176
   256
177
   256
178
     2
270
     2
271
     2
272
     3
273
     2
274
     4
340
6A27
275
     0
280
     0
281
     0
282
     0
283
     0
284
     8
285
     0
286
     0
287
     3
288
     0
  0
DIMSTYLE
105
9951
330
6A20
100
AcDbSymbolTableRecord
100
AcDbDimStyleTableRecord
  2
AM_BSI$SF
 70
     0
  3

  4
"
  5

  6

  7

 40
1.0
 41
4.0
 42
1.0
 43
10.0
 44
1.0
 45
0.0
 46
0.0
 47
0.1
 48
0.1
140
3.5
141
0.0
142
0.0
143
0.0393701
144
1.0
145
0.0
146
0.71
147
1.5
 71
     0
 72
     0
 73
     0
 74
     0
 75
     1
 76
     1
 77
     1
 78
     8
170
     0
171
     2
172
     1
173
     0
174
     0
175
     0
176
   256
177
   256
178
     2
270
     2
271
     2
272
     3
273
     2
274
     4
340
6A27
275
     0
280
     0
281
     0
282
     0
283
     0
284
     8
285
     0
286
     0
287
     3
288
     0
  0
DIMSTYLE
105
9952
330
6A20
100
AcDbSymbolTableRecord
100
AcDbDimStyleTableRecord
  2
AM_BSI$SH
 70
     0
  3

  4
"
  5

  6
GENAXEH
  7

 40
1.0
 41
4.0
 42
1.0
 43
10.0
 44
1.0
 45
0.0
 46
0.0
 47
0.1
 48
0.1
140
3.5
141
0.0
142
0.0
143
0.0393701
144
2.0
145
0.0
146
0.71
147
1.5
 71
     0
 72
     0
 73
     0
 74
     0
 75
     1
 76
     1
 77
     1
 78
     8
170
     0
171
     2
172
     1
173
     1
174
     0
175
     0
176
   256
177
   256
178
     2
270
     2
271
     2
272
     3
273
     2
274
     4
340
6A27
275
     0
280
     0
281
     0
282
     0
283
     0
284
     8
285
     0
286
     0
287
     3
288
     0
  0
DIMSTYLE
105
9953
330
6A20
100
AcDbSymbolTableRecord
100
AcDbDimStyleTableRecord
  2
AM_ISO
 70
     0
  3

  4
"
  5

  6

  7

 40
1.0
 41
2.5
 42
1.0
 43
10.0
 44
1.0
 45
0.0
 46
0.0
 47
0.1
 48
0.1
140
3.5
141
0.0
142
0.0
143
0.0393701
144
1.0
145
0.0
146
0.71
147
1.5
 71
     0
 72
     0
 73
     0
 74
     0
 75
     0
 76
     0
 77
     1
 78
     8
170
     0
171
     2
172
     1
173
     0
174
     0
175
     0
176
   256
177
   256
178
     2
270
     2
271
     2
272
     3
273
     2
274
     4
340
6A27
275
     0
280
     0
281
     0
282
     0
283
     0
284
     8
285
     0
286
     0
287
     3
288
     0
  0
DIMSTYLE
105
9954
330
6A20
100
AcDbSymbolTableRecord
100
AcDbDimStyleTableRecord
  2
AM_ISO$3
 70
     0
  3

  4
"
  5

  6

  7

 40
1.0
 41
2.5
 42
1.0
 43
10.0
 44
1.0
 45
0.0
 46
0.0
 47
0.1
 48
0.1
140
3.5
141
0.0
142
0.0
143
0.0393701
144
1.0
145
0.0
146
0.71
147
1.5
 71
     0
 72
     0
 73
     0
 74
     1
 75
     0
 76
     0
 77
     1
 78
     8
170
     0
171
     2
172
     0
173
     0
174
     0
175
     0
176
   256
177
   256
178
     2
270
     2
271
     2
272
     3
273
     2
274
     4
340
6A27
275
     0
280
     0
281
     0
282
     0
283
     0
284
     8
285
     0
286
     0
287
     0
288
     1
  0
DIMSTYLE
105
9955
330
6A20
100
AcDbSymbolTableRecord
100
AcDbDimStyleTableRecord
  2
AM_ISO$4
 70
     0
  3

  4
"
  5

  6

  7

 40
1.0
 41
2.5
 42
1.0
 43
10.0
 44
1.0
 45
0.0
 46
0.0
 47
0.1
 48
0.1
140
3.5
141
0.0
142
0.0
143
0.0393701
144
1.0
145
0.0
146
0.71
147
1.5
 71
     0
 72
     0
 73
     0
 74
     1
 75
     0
 76
     0
 77
     1
 78
     8
170
     0
171
     2
172
     0
173
     0
174
     0
175
     0
176
   256
177
   256
178
     2
270
     2
271
     2
272
     3
273
     2
274
     4
340
6A27
275
     0
280
     0
281
     0
282
     0
283
     0
284
     8
285
     0
286
     0
287
     0
288
     1
  0
DIMSTYLE
105
9956
330
6A20
100
AcDbSymbolTableRecord
100
AcDbDimStyleTableRecord
  2
AM_ISO$6
 70
     0
  3

  4
"
  5

  6

  7

 40
1.0
 41
2.5
 42
1.0
 43
10.0
 44
1.0
 45
0.0
 46
0.0
 47
0.1
 48
0.1
140
3.5
141
0.0
142
0.0
143
0.0393701
144
1.0
145
0.0
146
0.71
147
1.5
 71
     0
 72
     0
 73
     0
 74
     0
 75
     0
 76
     0
 77
     0
 78
     8
170
     0
171
     2
172
     1
173
     0
174
     0
175
     0
176
   256
177
   256
178
     2
270
     2
271
     2
272
     3
273
     2
274
     4
340
6A27
275
     0
280
     0
281
     0
282
     0
283
     0
284
     8
285
     0
286
     0
287
     3
288
     0
  0
DIMSTYLE
105
9957
330
6A20
100
AcDbSymbolTableRecord
100
AcDbDimStyleTableRecord
  2
AM_ISO$7
 70
     0
  3

  4
"
  5

  6

  7

 40
1.0
 41
2.5
 42
1.0
 43
10.0
 44
1.0
 45
0.0
 46
0.0
 47
0.1
 48
0.1
140
5.0
141
0.0
142
0.0
143
0.0393701
144
1.0
145
0.0
146
0.71
147
1.5
 71
     0
 72
     0
 73
     0
 74
     0
 75
     0
 76
     0
 77
     1
 78
     8
170
     0
171
     2
172
     1
173
     0
174
     0
175
     0
176
   256
177
   256
178
     2
270
     2
271
     2
272
     3
273
     2
274
     4
340
6A27
275
     0
280
     0
281
     0
282
     0
283
     0
284
     8
285
     0
286
     0
287
     3
288
     0
  0
DIMSTYLE
105
9958
330
6A20
100
AcDbSymbolTableRecord
100
AcDbDimStyleTableRecord
  2
AM_ISO$SF
 70
     0
  3

  4
"
  5

  6

  7

 40
1.0
 41
2.5
 42
1.0
 43
10.0
 44
1.0
 45
0.0
 46
0.0
 47
0.1
 48
0.1
140
3.5
141
0.0
142
0.0
143
0.0393701
144
1.0
145
0.0
146
0.71
147
1.5
 71
     0
 72
     0
 73
     0
 74
     0
 75
     1
 76
     1
 77
     1
 78
     8
170
     0
171
     2
172
     1
173
     0
174
     0
175
     0
176
   256
177
   256
178
     2
270
     2
271
     2
272
     3
273
     2
274
     4
340
6A27
275
     0
280
     0
281
     0
282
     0
283
     0
284
     8
285
     0
286
     0
287
     3
288
     0
  0
DIMSTYLE
105
9959
330
6A20
100
AcDbSymbolTableRecord
100
AcDbDimStyleTableRecord
  2
AM_ISO$SH
 70
     0
  3

  4
"
  5

  6
GENAXEH
  7

 40
1.0
 41
2.5
 42
1.0
 43
10.0
 44
1.0
 45
0.0
 46
0.0
 47
0.1
 48
0.1
140
3.5
141
0.0
142
0.0
143
0.0393701
144
2.0
145
0.0
146
0.71
147
1.5
 71
     0
 72
     0
 73
     0
 74
     0
 75
     1
 76
     1
 77
     1
 78
     8
170
     0
171
     2
172
     1
173
     1
174
     0
175
     0
176
   256
177
   256
178
     2
270
     2
271
     2
272
     3
273
     2
274
     4
340
6A27
275
     0
280
     0
281
     0
282
     0
283
     0
284
     8
285
     0
286
     0
287
     3
288
     0
  0
DIMSTYLE
105
995A
330
6A20
100
AcDbSymbolTableRecord
100
AcDbDimStyleTableRecord
  2
AM_JIS
 70
     0
  3

  4
"
  5
OPEN30
  6
OPEN30
  7
OPEN30
 40
1.0
 41
2.5
 42
1.0
 43
10.0
 44
1.0
 45
0.0
 46
0.0
 47
0.1
 48
0.1
140
3.5
141
0.0
142
0.0
143
0.0393701
144
1.0
145
0.0
146
0.71
147
1.5
 71
     0
 72
     0
 73
     0
 74
     0
 75
     0
 76
     0
 77
     3
 78
     8
170
     0
171
     2
172
     1
173
     0
174
     0
175
     0
176
   256
177
   256
178
     2
270
     2
271
     2
272
     3
273
     2
274
     4
340
6A27
275
     0
280
     0
281
     0
282
     0
283
     0
284
     8
285
     0
286
     0
287
     3
288
     0
  0
DIMSTYLE
105
995B
330
6A20
100
AcDbSymbolTableRecord
100
AcDbDimStyleTableRecord
  2
AM_JIS$3
 70
     0
  3

  4
"
  5
OPEN30
  6
OPEN30
  7
OPEN30
 40
1.0
 41
2.5
 42
1.0
 43
10.0
 44
1.0
 45
0.0
 46
0.0
 47
0.1
 48
0.1
140
3.5
141
0.0
142
0.0
143
0.0393701
144
1.0
145
0.0
146
0.71
147
1.5
 71
     0
 72
     0
 73
     0
 74
     1
 75
     0
 76
     0
 77
     3
 78
     8
170
     0
171
     2
172
     0
173
     0
174
     0
175
     0
176
   256
177
   256
178
     2
270
     2
271
     2
272
     3
273
     2
274
     4
340
6A27
275
     0
280
     0
281
     0
282
     0
283
     0
284
     8
285
     0
286
     0
287
     0
288
     1
  0
DIMSTYLE
105
995C
330
6A20
100
AcDbSymbolTableRecord
100
AcDbDimStyleTableRecord
  2
AM_JIS$4
 70
     0
  3

  4
"
  5
OPEN30
  6
OPEN30
  7
OPEN30
 40
1.0
 41
2.5
 42
1.0
 43
10.0
 44
1.0
 45
0.0
 46
0.0
 47
0.1
 48
0.1
140
3.5
141
0.0
142
0.0
143
0.0393701
144
1.0
145
0.0
146
0.71
147
1.5
 71
     0
 72
     0
 73
     0
 74
     1
 75
     0
 76
     0
 77
     3
 78
     8
170
     0
171
     2
172
     0
173
     0
174
     0
175
     0
176
   256
177
   256
178
     2
270
     2
271
     2
272
     3
273
     2
274
     4
340
6A27
275
     0
280
     0
281
     0
282
     0
283
     0
284
     8
285
     0
286
     0
287
     0
288
     1
  0
DIMSTYLE
105
995D
330
6A20
100
AcDbSymbolTableRecord
100
AcDbDimStyleTableRecord
  2
AM_JIS$6
 70
     0
  3

  4
"
  5
OPEN30
  6
OPEN30
  7
OPEN30
 40
1.0
 41
2.5
 42
1.0
 43
10.0
 44
1.0
 45
0.0
 46
0.0
 47
0.1
 48
0.1
140
3.5
141
0.0
142
0.0
143
0.0393701
144
1.0
145
0.0
146
0.71
147
1.5
 71
     0
 72
     0
 73
     0
 74
     0
 75
     0
 76
     0
 77
     0
 78
     8
170
     0
171
     2
172
     1
173
     0
174
     0
175
     0
176
   256
177
   256
178
     2
270
     2
271
     2
272
     3
273
     2
274
     4
340
6A27
275
     0
280
     0
281
     0
282
     0
283
     0
284
     8
285
     0
286
     0
287
     3
288
     0
  0
DIMSTYLE
105
995E
330
6A20
100
AcDbSymbolTableRecord
100
AcDbDimStyleTableRecord
  2
AM_JIS$7
 70
     0
  3

  4
"
  5
OPEN30
  6
OPEN30
  7
OPEN30
 40
1.0
 41
2.5
 42
1.0
 43
10.0
 44
1.0
 45
0.0
 46
0.0
 47
0.1
 48
0.1
140
5.0
141
0.0
142
0.0
143
0.0393701
144
1.0
145
0.0
146
0.71
147
1.5
 71
     0
 72
     0
 73
     0
 74
     0
 75
     0
 76
     0
 77
     3
 78
     8
170
     0
171
     2
172
     1
173
     0
174
     0
175
     0
176
   256
177
   256
178
     2
270
     2
271
     2
272
     3
273
     2
274
     4
340
6A27
275
     0
280
     0
281
     0
282
     0
283
     0
284
     8
285
     0
286
     0
287
     3
288
     0
  0
DIMSTYLE
105
995F
330
6A20
100
AcDbSymbolTableRecord
100
AcDbDimStyleTableRecord
  2
AM_JIS$SF
 70
     0
  3

  4
"
  5
OPEN30
  6
OPEN30
  7
OPEN30
 40
1.0
 41
2.5
 42
1.0
 43
10.0
 44
1.0
 45
0.0
 46
0.0
 47
0.1
 48
0.1
140
3.5
141
0.0
142
0.0
143
0.0393701
144
1.0
145
0.0
146
0.71
147
1.5
 71
     0
 72
     0
 73
     0
 74
     0
 75
     1
 76
     1
 77
     3
 78
     8
170
     0
171
     2
172
     1
173
     0
174
     0
175
     0
176
   256
177
   256
178
     2
270
     2
271
     2
272
     3
273
     2
274
     4
340
6A27
275
     0
280
     0
281
     0
282
     0
283
     0
284
     8
285
     0
286
     0
287
     3
288
     0
  0
DIMSTYLE
105
9960
330
6A20
100
AcDbSymbolTableRecord
100
AcDbDimStyleTableRecord
  2
AM_JIS$SH
 70
     0
  3

  4
"
  5
OPEN30
  6
GENAXEH
  7
OPEN30
 40
1.0
 41
2.5
 42
1.0
 43
10.0
 44
1.0
 45
0.0
 46
0.0
 47
0.1
 48
0.1
140
3.5
141
0.0
142
0.0
143
0.0393701
144
2.0
145
0.0
146
0.71
147
1.5
 71
     0
 72
     0
 73
     0
 74
     0
 75
     1
 76
     1
 77
     3
 78
     8
170
     0
171
     2
172
     1
173
     1
174
     0
175
     0
176
   256
177
   256
178
     2
270
     2
271
     2
272
     3
273
     2
274
     4
340
6A27
275
     0
280
     0
281
     0
282
     0
283
     0
284
     8
285
     0
286
     0
287
     3
288
     0
  0
ENDTAB
  0
TABLE
  2
BLOCK_RECORD
  5
6A17
330
0
100
AcDbSymbolTable
 70
     8
  0
BLOCK_RECORD
  5
6A34
102
{ACAD_XDICTIONARY
360
6B62
102
}
330
6A17
100
AcDbSymbolTableRecord
100
AcDbBlockTableRecord
  2
*MODEL_SPACE
  0
BLOCK_RECORD
  5
6A30
102
{ACAD_XDICTIONARY
360
B7E6
102
}
330
6A17
100
AcDbSymbolTableRecord
100
AcDbBlockTableRecord
  2
*PAPER_SPACE
  0
BLOCK_RECORD
  5
6D93
330
6A17
100
AcDbSymbolTableRecord
100
AcDbBlockTableRecord
  2
GENAXEH
  0
BLOCK_RECORD
  5
9908
330
6A17
100
AcDbSymbolTableRecord
100
AcDbBlockTableRecord
  2
_OPEN30
  0
BLOCK_RECORD
  5
9AD5
330
6A17
100
AcDbSymbolTableRecord
100
AcDbBlockTableRecord
  2
*D2
  0
BLOCK_RECORD
  5
9AE1
330
6A17
100
AcDbSymbolTableRecord
100
AcDbBlockTableRecord
  2
*D3
  0
BLOCK_RECORD
  5
B69C
330
6A17
100
AcDbSymbolTableRecord
100
AcDbBlockTableRecord
  2
*D4
  0
BLOCK_RECORD
  5
B6B4
330
6A17
100
AcDbSymbolTableRecord
100
AcDbBlockTableRecord
  2
*D5
  0
BLOCK_RECORD
  5
B6C0
330
6A17
100
AcDbSymbolTableRecord
100
AcDbBlockTableRecord
  2
*D6
  0
BLOCK_RECORD
  5
B787
330
6A17
100
AcDbSymbolTableRecord
100
AcDbBlockTableRecord
  2
*D7
  0
ENDTAB
  0
ENDSEC
  0
SECTION
  2
BLOCKS
  0
BLOCK
  5
6A35
330
6A34
100
AcDbEntity
  8
0
100
AcDbBlockBegin
  2
*MODEL_SPACE
 70
     0
 10
0.0
 20
0.0
 30
0.0
  3
*MODEL_SPACE
  1

  0
ENDBLK
  5
6A36
330
6A34
100
AcDbEntity
  8
0
100
AcDbBlockEnd
  0
BLOCK
  5
6A31
330
6A30
100
AcDbEntity
 67
     1
  8
0
100
AcDbBlockBegin
  2
*PAPER_SPACE
 70
     0
 10
0.0
 20
0.0
 30
0.0
  3
*PAPER_SPACE
  1

  0
ENDBLK
  5
6A32
330
6A30
100
AcDbEntity
 67
     1
  8
0
100
AcDbBlockEnd
  0
BLOCK
  5
6D95
330
6D93
100
AcDbEntity
  8
0
100
AcDbBlockBegin
  2
GENAXEH
 70
     0
 10
0.0
 20
0.0
 30
0.0
  3
GENAXEH
  1

  0
LINE
  5
6D94
330
6D93
100
AcDbEntity
  8
0
100
AcDbLine
 10
-1.0
 20
0.0
 30
0.0
 11
1.0
 21
0.0
 31
0.0
  0
ENDBLK
  5
6D96
330
6D93
100
AcDbEntity
  8
0
100
AcDbBlockEnd
  0
BLOCK
  5
990C
330
9908
100
AcDbEntity
  8
0
100
AcDbBlockBegin
  2
_OPEN30
 70
     0
 10
0.0
 20
0.0
 30
0.0
  3
_OPEN30
  1

  0
LINE
  5
9909
330
9908
100
AcDbEntity
  8
0
  6
BYBLOCK
 62
     0
100
AcDbLine
 10
-1.0
 20
0.26794919
 30
0.0
 11
0.0
 21
0.0
 31
0.0
  0
LINE
  5
990A
330
9908
100
AcDbEntity
  8
0
  6
BYBLOCK
 62
     0
100
AcDbLine
 10
0.0
 20
0.0
 30
0.0
 11
-1.0
 21
-0.26794919
 31
0.0
  0
LINE
  5
990B
330
9908
100
AcDbEntity
  8
0
  6
BYBLOCK
 62
     0
100
AcDbLine
 10
0.0
 20
0.0
 30
0.0
 11
-1.0
 21
0.0
 31
0.0
  0
ENDBLK
  5
990D
330
9908
100
AcDbEntity
  8
0
100
AcDbBlockEnd
  0
BLOCK
  5
9ADF
330
9AD5
100
AcDbEntity
  8
0
100
AcDbBlockBegin
  2
*D2
 70
     1
 10
0.0
 20
0.0
 30
0.0
  3
*D2
  1

  0
LINE
  5
A013
330
9AD5
100
AcDbEntity
  8
SK2
100
AcDbLine
 10
-40.88626023734595
 20
18.49999999999915
 30
0.0
 11
-66.52761595660748
 21
18.49999999999915
 31
0.0
  0
LINE
  5
A014
330
9AD5
100
AcDbEntity
  8
SK2
100
AcDbLine
 10
-40.88626023734595
 20
-18.50000000000084
 30
0.0
 11
-66.52761595660748
 21
-18.50000000000084
 31
0.0
  0
LINE
  5
A015
330
9AD5
100
AcDbEntity
  8
SK2
100
AcDbLine
 10
-65.52761595660747
 20
15.99999999999915
 30
0.0
 11
-65.52761595660747
 21
-16.00000000000084
 31
0.0
  0
SOLID
  5
A016
330
9AD5
100
AcDbEntity
  8
SK2
100
AcDbTrace
 10
-65.94428262327415
 20
15.99999999999915
 30
0.0
 11
-65.1109492899408
 21
15.99999999999915
 31
0.0
 12
-65.52761595660747
 22
18.49999999999915
 32
0.0
 13
-65.52761595660747
 23
18.49999999999915
 33
0.0
  0
SOLID
  5
A017
330
9AD5
100
AcDbEntity
  8
SK2
100
AcDbTrace
 10
-65.94428262327415
 20
-16.00000000000084
 30
0.0
 11
-65.1109492899408
 21
-16.00000000000084
 31
0.0
 12
-65.52761595660747
 22
-18.50000000000084
 32
0.0
 13
-65.52761595660747
 23
-18.50000000000084
 33
0.0
  0
MTEXT
  5
A018
330
9AD5
100
AcDbEntity
  8
SK2
 62
     2
100
AcDbMText
 10
-68.77761595660747
 20
-0.0000000000008518
 30
0.0
 40
3.5
 41
0.0
 71
     5
 72
     1
  1
\A1;%%c37
 11
0.0000000000000001
 21
1.0
 31
0.0
1001
ACAD
1000
MTEXTBEGIN
1070
    73
1070
     1
1070
    44
1040
1.0
1070
    74
1070
     0
1000
MTEXTEND
  0
POINT
  5
A019
330
9AD5
100
AcDbEntity
  8
DEFPOINTS
 62
     0
100
AcDbPoint
 10
-40.88626023734595
 20
18.49999999999915
 30
0.0
  0
POINT
  5
A01A
330
9AD5
100
AcDbEntity
  8
DEFPOINTS
 62
     0
100
AcDbPoint
 10
-40.88626023734595
 20
-18.50000000000084
 30
0.0
  0
POINT
  5
A01B
330
9AD5
100
AcDbEntity
  8
DEFPOINTS
 62
     0
100
AcDbPoint
 10
-65.52761595660747
 20
-18.50000000000084
 30
0.0
  0
ENDBLK
  5
9AE0
330
9AD5
100
AcDbEntity
  8
0
100
AcDbBlockEnd
  0
BLOCK
  5
9AEB
330
9AE1
100
AcDbEntity
  8
0
100
AcDbBlockBegin
  2
*D3
 70
     1
 10
0.0
 20
0.0
 30
0.0
  3
*D3
  1

  0
LINE
  5
A00A
330
9AE1
100
AcDbEntity
  8
SK2
100
AcDbLine
 10
-0.2100966007178773
 20
38.99999999999921
 30
0.0
 11
-82.43783185346414
 21
38.99999999999923
 31
0.0
  0
LINE
  5
A00B
330
9AE1
100
AcDbEntity
  8
SK2
100
AcDbLine
 10
-0.2100966007178773
 20
-39.00000000000084
 30
0.0
 11
-82.43783185346417
 21
-39.00000000000082
 31
0.0
  0
LINE
  5
A00C
330
9AE1
100
AcDbEntity
  8
SK2
100
AcDbLine
 10
-81.43783185346414
 20
36.49999999999923
 30
0.0
 11
-81.43783185346418
 21
-36.50000000000082
 31
0.0
  0
SOLID
  5
A00D
330
9AE1
100
AcDbEntity
  8
SK2
100
AcDbTrace
 10
-81.85449852013082
 20
36.49999999999923
 30
0.0
 11
-81.02116518679748
 21
36.49999999999923
 31
0.0
 12
-81.43783185346414
 22
38.99999999999923
 32
0.0
 13
-81.43783185346414
 23
38.99999999999923
 33
0.0
  0
SOLID
  5
A00E
330
9AE1
100
AcDbEntity
  8
SK2
100
AcDbTrace
 10
-81.85449852013084
 20
-36.50000000000082
 30
0.0
 11
-81.0211651867975
 21
-36.50000000000082
 31
0.0
 12
-81.43783185346418
 22
-39.00000000000082
 32
0.0
 13
-81.43783185346418
 23
-39.00000000000082
 33
0.0
  0
MTEXT
  5
A00F
330
9AE1
100
AcDbEntity
  8
SK2
 62
     2
100
AcDbMText
 10
-84.68783185346415
 20
-0.0000000000008046
 30
0.0
 40
3.5
 41
0.0
 71
     5
 72
     1
  1
\A1;%%c78
 11
0.0000000000000001
 21
1.0
 31
0.0
1001
ACAD
1000
MTEXTBEGIN
1070
    73
1070
     1
1070
    44
1040
1.0
1070
    74
1070
     0
1000
MTEXTEND
  0
POINT
  5
A010
330
9AE1
100
AcDbEntity
  8
DEFPOINTS
 62
     0
100
AcDbPoint
 10
-0.2100966007178773
 20
38.99999999999921
 30
0.0
  0
POINT
  5
A011
330
9AE1
100
AcDbEntity
  8
DEFPOINTS
 62
     0
100
AcDbPoint
 10
-0.2100966007178773
 20
-39.00000000000084
 30
0.0
  0
POINT
  5
A012
330
9AE1
100
AcDbEntity
  8
DEFPOINTS
 62
     0
100
AcDbPoint
 10
-81.43783185346418
 20
-39.00000000000082
 30
0.0
  0
ENDBLK
  5
9AEC
330
9AE1
100
AcDbEntity
  8
0
100
AcDbBlockEnd
  0
BLOCK
  5
B6A6
330
B69C
100
AcDbEntity
  8
0
100
AcDbBlockBegin
  2
*D4
 70
     1
 10
0.0
 20
0.0
 30
0.0
  3
*D4
  1

  0
LINE
  5
B6CC
330
B69C
100
AcDbEntity
  8
2
100
AcDbLine
 10
71.78990339928214
 20
19.9999999999992
 30
0.0
 11
100.5446992032736
 21
19.99999999999919
 31
0.0
  0
LINE
  5
B6CD
330
B69C
100
AcDbEntity
  8
2
100
AcDbLine
 10
71.78990339928214
 20
-20.00000000000081
 30
0.0
 11
100.5446992032736
 21
-20.00000000000081
 31
0.0
  0
LINE
  5
B6CE
330
B69C
100
AcDbEntity
  8
2
100
AcDbLine
 10
99.54469920327369
 20
17.49999999999919
 30
0.0
 11
99.54469920327369
 21
-17.50000000000081
 31
0.0
  0
SOLID
  5
B6CF
330
B69C
100
AcDbEntity
  8
2
100
AcDbTrace
 10
99.12803253660703
 20
17.49999999999919
 30
0.0
 11
99.96136586994037
 21
17.49999999999919
 31
0.0
 12
99.54469920327369
 22
19.99999999999919
 32
0.0
 13
99.54469920327369
 23
19.99999999999919
 33
0.0
  0
SOLID
  5
B6D0
330
B69C
100
AcDbEntity
  8
2
100
AcDbTrace
 10
99.12803253660703
 20
-17.50000000000081
 30
0.0
 11
99.96136586994037
 21
-17.50000000000081
 31
0.0
 12
99.54469920327369
 22
-20.00000000000081
 32
0.0
 13
99.54469920327369
 23
-20.00000000000081
 33
0.0
  0
MTEXT
  5
B6D1
330
B69C
100
AcDbEntity
  8
2
 62
     2
100
AcDbMText
 10
96.2946992032737
 20
-0.0000000000007944
 30
0.0
 40
3.5
 41
0.0
 71
     5
 72
     1
  1
\A1;%%c40
 11
0.0000000000000001
 21
1.0
 31
0.0
1001
ACAD
1000
MTEXTBEGIN
1070
    73
1070
     1
1070
    44
1040
1.0
1070
    74
1070
     0
1000
MTEXTEND
  0
POINT
  5
B6D2
330
B69C
100
AcDbEntity
  8
DEFPOINTS
 62
     0
100
AcDbPoint
 10
71.78990339928214
 20
19.9999999999992
 30
0.0
  0
POINT
  5
B6D3
330
B69C
100
AcDbEntity
  8
DEFPOINTS
 62
     0
100
AcDbPoint
 10
71.78990339928214
 20
-20.00000000000081
 30
0.0
  0
POINT
  5
B6D4
330
B69C
100
AcDbEntity
  8
DEFPOINTS
 62
     0
100
AcDbPoint
 10
99.54469920327369
 20
-20.00000000000081
 30
0.0
  0
ENDBLK
  5
B6A7
330
B69C
100
AcDbEntity
  8
0
100
AcDbBlockEnd
  0
BLOCK
  5
B6BE
330
B6B4
100
AcDbEntity
  8
0
100
AcDbBlockBegin
  2
*D5
 70
     1
 10
0.0
 20
0.0
 30
0.0
  3
*D5
  1

  0
LINE
  5
B6DE
330
B6B4
100
AcDbEntity
  8
2
100
AcDbLine
 10
-0.2100966007178897
 20
23.9999999999992
 30
0.0
 11
-0.2100966007178865
 21
75.99999999999946
 31
0.0
  0
LINE
  5
B6DF
330
B6B4
100
AcDbEntity
  8
2
100
AcDbLine
 10
71.78990339928214
 20
19.9999999999992
 30
0.0
 11
71.78990339928214
 21
75.99999999999946
 31
0.0
  0
LINE
  5
B6E0
330
B6B4
100
AcDbEntity
  8
2
100
AcDbLine
 10
2.289903399282113
 20
74.99999999999946
 30
0.0
 11
69.28990339928214
 21
74.99999999999946
 31
0.0
  0
SOLID
  5
B6E1
330
B6B4
100
AcDbEntity
  8
2
100
AcDbTrace
 10
2.289903399282113
 20
75.41666666666613
 30
0.0
 11
2.289903399282113
 21
74.58333333333278
 31
0.0
 12
-0.2100966007178866
 22
74.99999999999946
 32
0.0
 13
-0.2100966007178866
 23
74.99999999999946
 33
0.0
  0
SOLID
  5
B6E2
330
B6B4
100
AcDbEntity
  8
2
100
AcDbTrace
 10
69.28990339928214
 20
75.41666666666613
 30
0.0
 11
69.28990339928214
 21
74.58333333333278
 31
0.0
 12
71.78990339928214
 22
74.99999999999946
 32
0.0
 13
71.78990339928214
 23
74.99999999999946
 33
0.0
  0
MTEXT
  5
B6E3
330
B6B4
100
AcDbEntity
  8
2
 62
     2
100
AcDbMText
 10
35.78990339928212
 20
78.25034448818843
 30
0.0
 40
3.5
 41
0.0
 71
     5
 72
     1
  1
\A1;72
1001
ACAD
1000
MTEXTBEGIN
1070
    73
1070
     1
1070
    44
1040
1.0
1070
    74
1070
     0
1000
MTEXTEND
  0
POINT
  5
B6E4
330
B6B4
100
AcDbEntity
  8
DEFPOINTS
 62
     0
100
AcDbPoint
 10
-0.2100966007178897
 20
23.9999999999992
 30
0.0
  0
POINT
  5
B6E5
330
B6B4
100
AcDbEntity
  8
DEFPOINTS
 62
     0
100
AcDbPoint
 10
71.78990339928214
 20
19.9999999999992
 30
0.0
  0
POINT
  5
B6E6
330
B6B4
100
AcDbEntity
  8
DEFPOINTS
 62
     0
100
AcDbPoint
 10
71.78990339928214
 20
74.99999999999946
 30
0.0
  0
ENDBLK
  5
B6BF
330
B6B4
100
AcDbEntity
  8
0
100
AcDbBlockEnd
  0
BLOCK
  5
B6CA
330
B6C0
100
AcDbEntity
  8
0
100
AcDbBlockBegin
  2
*D6
 70
     1
 10
0.0
 20
0.0
 30
0.0
  3
*D6
  1

  0
LINE
  5
B76C
330
B6C0
100
AcDbEntity
  8
2
100
AcDbLine
 10
71.78990339928214
 20
19.9999999999992
 30
0.0
 11
71.78990339928214
 21
45.99999999999946
 31
0.0
  0
LINE
  5
B76D
330
B6C0
100
AcDbEntity
  8
2
100
AcDbLine
 10
25.78990339928214
 20
19.99999999999914
 30
0.0
 11
25.78990339928214
 21
45.99999999999946
 31
0.0
  0
LINE
  5
B76E
330
B6C0
100
AcDbEntity
  8
2
100
AcDbLine
 10
69.28990339928214
 20
44.99999999999945
 30
0.0
 11
28.28990339928214
 21
44.99999999999945
 31
0.0
  0
SOLID
  5
B76F
330
B6C0
100
AcDbEntity
  8
2
100
AcDbTrace
 10
69.28990339928214
 20
45.41666666666612
 30
0.0
 11
69.28990339928214
 21
44.58333333333279
 31
0.0
 12
71.78990339928214
 22
44.99999999999945
 32
0.0
 13
71.78990339928214
 23
44.99999999999945
 33
0.0
  0
SOLID
  5
B770
330
B6C0
100
AcDbEntity
  8
2
100
AcDbTrace
 10
28.28990339928214
 20
45.41666666666612
 30
0.0
 11
28.28990339928214
 21
44.58333333333279
 31
0.0
 12
25.78990339928214
 22
44.99999999999945
 32
0.0
 13
25.78990339928214
 23
44.99999999999945
 33
0.0
  0
MTEXT
  5
B771
330
B6C0
100
AcDbEntity
  8
2
 62
     2
100
AcDbMText
 10
48.78990339928214
 20
48.24999999999945
 30
0.0
 40
3.5
 41
0.0
 71
     5
 72
     1
  1
\A1;46
1001
ACAD
1000
MTEXTBEGIN
1070
    73
1070
     1
1070
    44
1040
1.0
1070
    74
1070
     0
1000
MTEXTEND
  0
POINT
  5
B772
330
B6C0
100
AcDbEntity
  8
DEFPOINTS
 62
     0
100
AcDbPoint
 10
71.78990339928214
 20
19.9999999999992
 30
0.0
  0
POINT
  5
B773
330
B6C0
100
AcDbEntity
  8
DEFPOINTS
 62
     0
100
AcDbPoint
 10
25.78990339928214
 20
19.99999999999914
 30
0.0
  0
POINT
  5
B774
330
B6C0
100
AcDbEntity
  8
DEFPOINTS
 62
     0
100
AcDbPoint
 10
25.78990339928214
 20
44.99999999999945
 30
0.0
  0
ENDBLK
  5
B6CB
330
B6C0
100
AcDbEntity
  8
0
100
AcDbBlockEnd
  0
BLOCK
  5
B791
330
B787
100
AcDbEntity
  8
0
100
AcDbBlockBegin
  2
*D7
 70
     1
 10
0.0
 20
0.0
 30
0.0
  3
*D7
  1

  0
LINE
  5
B7A8
330
B787
100
AcDbEntity
  8
2
100
AcDbLine
 10
71.78990339928214
 20
19.9999999999992
 30
0.0
 11
71.78990339928214
 21
60.99999999999946
 31
0.0
  0
LINE
  5
B7A9
330
B787
100
AcDbEntity
  8
2
100
AcDbLine
 10
16.78990339928212
 20
19.49934802008877
 30
0.0
 11
16.78990339928212
 21
60.99999999999946
 31
0.0
  0
LINE
  5
B7AA
330
B787
100
AcDbEntity
  8
2
100
AcDbLine
 10
69.28990339928214
 20
59.99999999999946
 30
0.0
 11
19.28990339928212
 21
59.99999999999946
 31
0.0
  0
SOLID
  5
B7AB
330
B787
100
AcDbEntity
  8
2
100
AcDbTrace
 10
69.28990339928214
 20
60.41666666666612
 30
0.0
 11
69.28990339928214
 21
59.58333333333279
 31
0.0
 12
71.78990339928214
 22
59.99999999999946
 32
0.0
 13
71.78990339928214
 23
59.99999999999946
 33
0.0
  0
SOLID
  5
B7AC
330
B787
100
AcDbEntity
  8
2
100
AcDbTrace
 10
19.28990339928212
 20
60.41666666666612
 30
0.0
 11
19.28990339928212
 21
59.58333333333279
 31
0.0
 12
16.78990339928212
 22
59.99999999999946
 32
0.0
 13
16.78990339928212
 23
59.99999999999946
 33
0.0
  0
MTEXT
  5
B7AD
330
B787
100
AcDbEntity
  8
2
 62
     2
100
AcDbMText
 10
44.28990339928213
 20
63.24999999999945
 30
0.0
 40
3.5
 41
0.0
 71
     5
 72
     1
  1
\A1;55
1001
ACAD
1000
MTEXTBEGIN
1070
    73
1070
     1
1070
    44
1040
1.0
1070
    74
1070
     0
1000
MTEXTEND
  0
POINT
  5
B7AE
330
B787
100
AcDbEntity
  8
DEFPOINTS
 62
     0
100
AcDbPoint
 10
71.78990339928214
 20
19.9999999999992
 30
0.0
  0
POINT
  5
B7AF
330
B787
100
AcDbEntity
  8
DEFPOINTS
 62
     0
100
AcDbPoint
 10
16.78990339928212
 20
19.49934802008877
 30
0.0
  0
POINT
  5
B7B0
330
B787
100
AcDbEntity
  8
DEFPOINTS
 62
     0
100
AcDbPoint
 10
16.78990339928212
 20
59.99999999999946
 30
0.0
  0
ENDBLK
  5
B792
330
B787
100
AcDbEntity
  8
0
100
AcDbBlockEnd
  0
ENDSEC
  0
SECTION
  2
ENTITIES
  0
LINE
  5
9077
330
6A34
100
AcDbEntity
  8
SK1
100
AcDbLine
 10
-2.296748951273333
 20
-2.086652350555439
 30
0.0
 11
1.876555749836713
 21
2.086652350554604
 31
0.0
  0
CIRCLE
  5
9078
330
6A34
100
AcDbEntity
  8
SK1
100
AcDbCircle
 10
-0.2100966007182894
 20
-0.0000000000003979
 30
0.0
 40
2.950972054112602
  0
LINE
  5
9079
330
6A34
100
AcDbEntity
  8
SK1
100
AcDbLine
 10
-2.296748951273313
 20
2.086652350554625
 30
0.0
 11
1.876555749836731
 21
-2.086652350555421
 31
0.0
  0
DIMENSION
  5
9AA6
330
6A34
100
AcDbEntity
  8
SK2
100
AcDbDimension
  2
*D3
 10
-81.43783185346418
 20
-39.00000000000082
 30
0.0
 11
-84.68783185346415
 21
-0.0000000000008046
 31
0.0
 70
    32
  1
%%c<>
  3
AM_DIN
100
AcDbAlignedDimension
 13
-0.2100966007178773
 23
38.99999999999921
 33
0.0
 14
-0.2100966007178773
 24
-39.00000000000084
 34
0.0
 50
90.0
100
AcDbRotatedDimension
  0
DIMENSION
  5
9AA7
330
6A34
100
AcDbEntity
  8
SK2
100
AcDbDimension
  2
*D2
 10
-65.52761595660747
 20
-18.50000000000084
 30
0.0
 11
-68.77761595660747
 21
-0.0000000000008518
 31
0.0
 70
    32
  1
%%c<>
  3
AM_DIN
100
AcDbAlignedDimension
 13
-40.88626023734595
 23
18.49999999999915
 33
0.0
 14
-40.88626023734595
 24
-18.50000000000084
 34
0.0
 50
89.99999999999674
100
AcDbRotatedDimension
  0
LINE
  5
9AA8
330
6A34
100
AcDbEntity
  8
SK3
 48
0.3
100
AcDbLine
 10
12.78990339928212
 20
25.98076211353288
 30
0.0
 11
9.789903399282122
 21
20.98076211353288
 31
0.0
  0
LINE
  5
9AA9
330
6A34
100
AcDbEntity
  8
SK3
 48
0.3
100
AcDbLine
 10
9.789903399282122
 20
20.98076211353288
 30
0.0
 11
9.789903399282122
 21
30.980762113533
 31
0.0
  0
LINE
  5
9AAA
330
6A34
100
AcDbEntity
  8
SK3
 48
0.3
100
AcDbLine
 10
-0.2100966007179341
 20
20.98076211353282
 30
0.0
 11
9.789903399282122
 21
20.98076211353288
 31
0.0
  0
LINE
  5
9AAB
330
6A34
100
AcDbEntity
  8
SK4
100
AcDbLine
 10
13.63096577329828
 20
25.98076211353288
 30
0.0
 11
-3.022028985441311
 21
25.98076211353288
 31
0.0
  0
LINE
  5
9AAC
330
6A34
100
AcDbEntity
  8
SK3
 48
0.3
100
AcDbLine
 10
9.789903399282122
 20
30.980762113533
 30
0.0
 11
-0.2100966007179341
 21
30.980762113533
 31
0.0
  0
LINE
  5
9AAD
330
6A34
100
AcDbEntity
  8
SK3
 48
0.3
100
AcDbLine
 10
9.789903399282122
 20
30.980762113533
 30
0.0
 11
12.78990339928212
 21
25.98076211353288
 31
0.0
  0
LINE
  5
9AAE
330
6A34
100
AcDbEntity
  8
SK3
 48
0.3
100
AcDbLine
 10
9.789903399282122
 20
-20.98076211353457
 30
0.0
 11
9.789903399282122
 21
-30.98076211353468
 31
0.0
  0
LINE
  5
9AAF
330
6A34
100
AcDbEntity
  8
SK3
 48
0.3
100
AcDbLine
 10
9.789903399282122
 20
-30.98076211353468
 30
0.0
 11
12.78990339928212
 21
-25.98076211353457
 31
0.0
  0
LINE
  5
9AB0
330
6A34
100
AcDbEntity
  8
SK3
 48
0.3
100
AcDbLine
 10
9.789903399282122
 20
-30.98076211353468
 30
0.0
 11
-0.2100966007179341
 21
-30.98076211353468
 31
0.0
  0
LINE
  5
9AB1
330
6A34
100
AcDbEntity
  8
SK3
 48
0.3
100
AcDbLine
 10
-0.2100966007179341
 20
-20.98076211353457
 30
0.0
 11
9.789903399282122
 21
-20.98076211353457
 31
0.0
  0
LINE
  5
9AB3
330
6A34
100
AcDbEntity
  8
SK3
 48
0.3
100
AcDbLine
 10
12.78990339928212
 20
-25.98076211353457
 30
0.0
 11
9.789903399282122
 21
-20.98076211353457
 31
0.0
  0
LINE
  5
9AB5
330
6A34
100
AcDbEntity
  8
1
100
AcDbLine
 10
-0.2100966007178773
 20
-39.00000000000084
 30
0.0
 11
-0.2100966007178773
 21
38.99999999999921
 31
0.0
  0
LINE
  5
9AB8
330
6A34
100
AcDbEntity
  8
SK1
100
AcDbLine
 10
-0.2100966007178773
 20
-18.5000000000001
 30
0.0
 11
-40.88626023734595
 21
-18.50000000000084
 31
0.0
  0
LINE
  5
9AB9
330
6A34
100
AcDbEntity
  8
SK1
100
AcDbLine
 10
-24.45801048508998
 20
-7.855955094493758
 30
0.0
 11
-30.3289210936535
 21
-7.855955094493758
 31
0.0
  0
LINE
  5
9ABA
330
6A34
100
AcDbEntity
  8
SK1
100
AcDbLine
 10
-40.88626023734595
 20
-18.50000000000084
 30
0.0
 11
-40.88626023734595
 21
18.49999999999938
 31
0.0
  0
ARC
  5
9ABB
330
6A34
100
AcDbEntity
  8
SK1
100
AcDbCircle
 10
-27.534910054723
 20
0.4417822109685759
 30
0.0
 40
8.75550924139353
100
AcDbArc
 50
182.8922371611422
 51
251.3906104502299
  0
LINE
  5
9ABC
330
6A34
100
AcDbEntity
  8
SK1
100
AcDbLine
 10
-47.21009660071469
 20
-17.90582988179385
 30
0.0
 11
-47.21009660071469
 21
17.90582988179216
 31
0.0
  0
LINE
  5
9ABD
330
6A34
100
AcDbEntity
  8
SK1
100
AcDbLine
 10
-44.88626023734595
 20
-17.90582988179385
 30
0.0
 11
-44.88626023734595
 21
17.90582988179216
 31
0.0
  0
LINE
  5
9ABE
330
6A34
100
AcDbEntity
  8
SK1
100
AcDbLine
 10
-40.88626023734595
 20
-18.50000000000084
 30
0.0
 11
-44.88626023734595
 21
-17.90582988179385
 31
0.0
  0
ARC
  5
9ABF
330
6A34
100
AcDbEntity
  8
SK1
100
AcDbCircle
 10
-46.04817841903035
 20
-16.60478105201655
 30
0.0
 40
1.744357164801248
100
AcDbArc
 50
228.2331476390824
 51
311.7668523609175
  0
ARC
  5
9AC0
330
6A34
100
AcDbEntity
  8
SK1
100
AcDbCircle
 10
-40.92532949651543
 20
0.0722481357819973
 30
0.0
 40
18.27646032153398
100
AcDbArc
 50
334.2914752476693
 51
25.70852475232848
  0
LINE
  5
9AC1
330
6A34
100
AcDbEntity
  8
SK3
 48
0.3
100
AcDbLine
 10
-19.21009660071781
 20
18.49999999999887
 30
0.0
 11
-19.21009660071787
 21
-18.50000000000044
 31
0.0
  0
LINE
  5
9AC2
330
6A34
100
AcDbEntity
  8
SK3
 48
0.3
100
AcDbLine
 10
-15.21009660071782
 20
18.49999999999875
 30
0.0
 11
-15.21009660071793
 21
-18.50000000000039
 31
0.0
  0
LINE
  5
9AC3
330
6A34
100
AcDbEntity
  8
SK4
100
AcDbLine
 10
-17.21009660071787
 20
21.01943968152461
 30
0.0
 11
-17.21009660071787
 21
-19.81697501676324
 31
0.0
  0
ARC
  5
9AC4
330
6A34
100
AcDbEntity
  8
SK1
100
AcDbCircle
 10
-23.3934657893714
 20
-3.916091487353348
 30
0.0
 40
4.0
100
AcDbArc
 50
180.0000000000016
 51
243.4349488229198
1001
GENIUS_GENOBJ-N-FIL_13
1002
{
1000
OWNER
1000
GEN
1002
}
1001
GENIUS_GENODEF_13
1002
{
1000
HIER
1070
     0
1002
}
1002
{
1000
MANEDIT
1070
     0
1002
}
1002
{
1000
NOSEL
1070
     0
1002
}
1002
{
1000
BEHIND
1070
     0
1002
}
1002
{
1000
OTHER
1070
     0
1002
}
1002
{
1000
REACTOR
1002
}
  0
LINE
  5
9AC5
330
6A34
100
AcDbEntity
  8
SK1
100
AcDbLine
 10
-24.45801048508998
 20
-7.855955094493758
 30
0.0
 11
-25.18232017137139
 21
-7.493800251352972
 31
0.0
  0
LINE
  5
9AC6
330
6A34
100
AcDbEntity
  8
SK1
100
AcDbLine
 10
-3.117788868122106
 20
-18.5000000000001
 30
0.0
 11
-3.117788868121424
 21
18.49999999999858
 31
0.0
  0
LINE
  5
9AC7
330
6A34
100
AcDbEntity
  8
SK4
100
AcDbLine
 10
-0.2100966007178773
 20
-0.0000000000007887
 30
0.0
 11
-47.21009660071472
 21
-0.0000000000007887
 31
0.0
  0
LINE
  5
9AC8
330
6A34
100
AcDbEntity
  8
SK1
100
AcDbLine
 10
-0.2100966007178773
 20
18.49999999999841
 30
0.0
 11
-40.88626023734595
 21
18.49999999999915
 31
0.0
  0
LINE
  5
9AC9
330
6A34
100
AcDbEntity
  8
SK3
 48
0.3
100
AcDbLine
 10
-47.21009660071475
 20
-4.000000000000163
 30
0.0
 11
7.57610942101577
 21
-4.000000000000333
 31
0.0
  0
LINE
  5
9ACA
330
6A34
100
AcDbEntity
  8
SK3
 48
0.3
100
AcDbLine
 10
-47.21009660071475
 20
3.999999999999722
 30
0.0
 11
7.175681663803414
 21
3.999999999999722
 31
0.0
  0
LINE
  5
9ACB
330
6A34
100
AcDbEntity
  8
SK1
100
AcDbLine
 10
-24.45801048508981
 20
8.000451366057241
 30
0.0
 11
-30.32892109365407
 21
8.000451366057241
 31
0.0
  0
LINE
  5
9ACC
330
6A34
100
AcDbEntity
  8
SK1
100
AcDbLine
 10
-40.88626023734595
 20
18.49999999999915
 30
0.0
 11
-44.88626023734595
 21
17.90582988179216
 31
0.0
  0
ARC
  5
9ACD
330
6A34
100
AcDbEntity
  8
SK1
100
AcDbCircle
 10
-46.04817841903035
 20
16.60478105201497
 30
0.0
 40
1.744357164801248
100
AcDbArc
 50
48.23314763908244
 51
131.7668523609175
  0
ARC
  5
9ACE
330
6A34
100
AcDbEntity
  8
SK1
100
AcDbCircle
 10
-27.53491005472302
 20
-0.441782210970267
 30
0.0
 40
8.755509241393484
100
AcDbArc
 50
108.60938954977
 51
177.107762838856
  0
LINE
  5
9ACF
330
6A34
100
AcDbEntity
  8
SK1
100
AcDbLine
 10
-27.39346578937137
 20
-3.916091487353519
 30
0.0
 11
-27.39346578937146
 21
3.916091487351913
 31
0.0
  0
CIRCLE
  5
9AD0
330
6A34
100
AcDbEntity
  8
SK1
100
AcDbCircle
 10
-17.2100966007179
 20
-0.0000000000007887
 30
0.0
 40
2.0
  0
ARC
  5
9AD1
330
6A34
100
AcDbEntity
  8
SK1
100
AcDbCircle
 10
-23.39346578937149
 20
3.916091487352083
 30
0.0
 40
4.0
100
AcDbArc
 50
116.565051177083
 51
180.0000000000016
1001
GENIUS_GENOBJ-N-FIL_13
1002
{
1000
OWNER
1000
GEN
1002
}
1001
GENIUS_GENODEF_13
1002
{
1000
HIER
1070
     0
1002
}
1002
{
1000
MANEDIT
1070
     0
1002
}
1002
{
1000
NOSEL
1070
     0
1002
}
1002
{
1000
BEHIND
1070
     0
1002
}
1002
{
1000
OTHER
1070
     0
1002
}
1002
{
1000
REACTOR
1002
}
  0
LINE
  5
9AD2
330
6A34
100
AcDbEntity
  8
SK1
100
AcDbLine
 10
-24.45801048509024
 20
7.855955094492379
 30
0.0
 11
-25.18232017137158
 21
7.493800251351537
 31
0.0
  0
TEXT
  5
9AD3
330
6A34
100
AcDbEntity
  8
SK6
100
AcDbText
 10
-37.85086444033648
 20
26.18370907458541
 30
0.0
 40
2.5
  1
modular 50
100
AcDbText
  0
LINE
  5
9AD4
330
6A34
100
AcDbEntity
  8
1
100
AcDbLine
 10
13.48749906596339
 20
38.99999999999918
 30
0.0
 11
-0.2100966007178773
 21
38.99999999999921
 31
0.0
  0
LINE
  5
9B68
330
6A34
100
AcDbEntity
  8
SK4
100
AcDbLine
 10
13.63096577330477
 20
-25.98076211354039
 30
0.0
 11
-3.022028985434818
 21
-25.98076211354455
 31
0.0
  0
LINE
  5
A8F5
330
6A34
100
AcDbEntity
  8
1
100
AcDbLine
 10
13.48749906596339
 20
-39.0000000000067
 30
0.0
 11
-0.2100966007081126
 21
-39.00000000001016
 31
0.0
  0
LINE
  5
AE36
330
6A34
100
AcDbEntity
  8
NOCUT
100
AcDbLine
 10
-0.2100966007178897
 20
-39.00000000000085
 30
0.0
 11
-0.2100966007178897
 21
0.0
 31
0.0
  0
LINE
  5
AE40
330
6A34
100
AcDbEntity
  8
NOCUT
100
AcDbLine
 10
13.48749906596317
 20
-39.00000000000671
 30
0.0
 11
-0.2100966007081126
 21
-39.00000000001017
 31
0.0
  0
LINE
  5
B2E8
330
6A34
100
AcDbEntity
  8
1
100
AcDbLine
 10
13.48749906596339
 20
38.99999999999918
 30
0.0
 11
13.48749906596339
 21
-39.0000000000067
 31
0.0
  0
LINE
  5
B2FD
330
6A34
100
AcDbEntity
  8
NOCUT
100
AcDbLine
 10
13.48749906596317
 20
-39.00000000000671
 30
0.0
 11
13.48749906596317
 21
-39.2711343434167
 31
0.0
  0
TEXT
  5
B63C
330
6A34
100
AcDbEntity
  8
6
100
AcDbText
 10
77.97307120151732
 20
25.22231499489322
 30
0.0
 40
3.5
  1
BCKT130404
100
AcDbText
  0
LINE
  5
B63D
330
6A34
100
AcDbEntity
  8
NOCUT
100
AcDbLine
 10
70.7866981993659
 20
-19.27113434341755
 30
0.0
 11
70.7866981993659
 21
-0.0000000000007958
 31
0.0
  0
LINE
  5
B63E
330
6A34
100
AcDbEntity
  8
1
100
AcDbLine
 10
70.7866981993659
 20
15.21968382392424
 30
0.0
 11
70.7866981993659
 21
-19.27113434341755
 31
0.0
  0
TEXT
  5
B63F
330
6A34
100
AcDbEntity
  8
6
100
AcDbText
 10
111.1640321563193
 20
-7.291926863346461
 30
0.0
 40
3.5
  1
Zeff.=2
 50
90.0
100
AcDbText
  0
DIMENSION
  5
B640
330
6A34
100
AcDbEntity
  8
2
100
AcDbDimension
  2
*D4
 10
99.54469920327369
 20
-20.00000000000081
 30
0.0
 11
96.2946992032737
 21
-0.0000000000007944
 31
0.0
 70
    32
  1
%%c<>
  3
AM_DIN
100
AcDbAlignedDimension
 13
71.78990339928214
 23
19.9999999999992
 33
0.0
 14
71.78990339928214
 24
-20.00000000000081
 34
0.0
 50
90.0
100
AcDbRotatedDimension
  0
LINE
  5
B641
330
6A34
100
AcDbEntity
  8
4
100
AcDbLine
 10
45.87155468145403
 20
0.0000000000007674
 30
0.0
 11
59.05200763920572
 21
-8.285476863911725
 31
0.0
  0
ARC
  5
B642
330
6A34
100
AcDbEntity
  8
1
100
AcDbCircle
 10
81.31806082180208
 20
63.70989511387193
 30
0.0
 40
71.63000979454299
100
AcDbArc
 50
242.8017352437848
 51
261.5454719039181
  0
ARC
  5
B643
330
6A34
100
AcDbEntity
  8
1
100
AcDbCircle
 10
86.36437498776718
 20
51.4579409223781
 30
0.0
 40
68.73334591598236
100
AcDbArc
 50
224.5475607182096
 51
256.9007068844916
  0
LINE
  5
B644
330
6A34
100
AcDbEntity
  8
4
100
AcDbLine
 10
15.66475171249385
 20
0.0000000000008242
 30
0.0
 11
28.78680062435273
 21
-8.248762998875733
 31
0.0
  0
ARC
  5
B645
330
6A34
100
AcDbEntity
  8
1
100
AcDbCircle
 10
77.80080714674335
 20
50.98723144765722
 30
0.0
 40
75.86489103531703
100
AcDbArc
 50
226.6488423251477
 51
247.8345946516951
  0
ARC
  5
B646
330
6A34
100
AcDbEntity
  8
1
100
AcDbCircle
 10
23.71030939113757
 20
-11.81227001309446
 30
0.0
 40
7.894200206144026
100
AcDbArc
 50
75.23643267397092
 51
250.8833366346973
  0
LINE
  5
B647
330
6A34
100
AcDbEntity
  8
1
100
AcDbLine
 10
25.78990339928214
 20
-20.00000000000042
 30
0.0
 11
71.38990339928216
 21
-20.00000000000081
 31
0.0
  0
LINE
  5
B648
330
6A34
100
AcDbEntity
  8
1
100
AcDbLine
 10
70.7866981993659
 20
-19.27113434341755
 30
0.0
 11
17.04621350317495
 21
-19.27113434341701
 31
0.0
  0
LINE
  5
B649
330
6A34
100
AcDbEntity
  8
NOCUT
100
AcDbLine
 10
70.7866981993659
 20
-19.27113434341755
 30
0.0
 11
17.04621350317454
 21
-19.27113434342029
 31
0.0
  0
ARC
  5
B64A
330
6A34
100
AcDbEntity
  8
1
100
AcDbCircle
 10
46.25957883078541
 20
21.36584512209171
 30
0.0
 40
40.91281715772738
100
AcDbArc
 50
235.9715303795731
 51
263.3429924511261
  0
LINE
  5
B64B
330
6A34
100
AcDbEntity
  8
1
100
AcDbLine
 10
25.32788780867162
 20
-19.27113434341737
 30
0.0
 11
25.39562201164659
 21
-19.6673957518266
 31
0.0
  0
ARC
  5
B64C
330
6A34
100
AcDbEntity
  8
1
100
AcDbCircle
 10
25.78990339928214
 20
-19.60000000000056
 30
0.0
 40
0.4
100
AcDbArc
 50
189.6999999999983
 51
270.0
1001
GENIUS_GENODEF_13
1002
{
1000
HIER
1070
     0
1002
}
1002
{
1000
MANEDIT
1070
     0
1002
}
1002
{
1000
NOSEL
1070
     0
1002
}
1002
{
1000
BEHIND
1070
     0
1002
}
1002
{
1000
OTHER
1070
     0
1002
}
1002
{
1000
REACTOR
1002
}
1001
GENIUS_GENOBJ-N-FIL_13
1002
{
1000
OWNER
1000
GEN
1002
}
  0
ARC
  5
B64D
330
6A34
100
AcDbEntity
  8
1
100
AcDbCircle
 10
21.51527156332775
 20
-15.97245151544103
 30
0.0
 40
3.898006716783119
100
AcDbArc
 50
61.67828791361541
 51
195.1598686403839
  0
LINE
  5
B64E
330
6A34
100
AcDbEntity
  8
1
100
AcDbLine
 10
71.78990339928214
 20
-19.6000000000008
 30
0.0
 11
71.78990339928219
 21
-18.00000000000084
 31
0.0
  0
LINE
  5
B64F
330
6A34
100
AcDbEntity
  8
SK1
100
AcDbLine
 10
71.32613402943332
 20
-20.00000000000081
 30
0.0
 11
72.25367276913096
 21
-20.00000000000081
 31
0.0
  0
LINE
  5
B650
330
6A34
100
AcDbEntity
  8
SK1
100
AcDbLine
 10
71.78990339928214
 20
-20.46376936984962
 30
0.0
 11
71.78990339928214
 21
-19.53623063015199
 31
0.0
  0
LINE
  5
B651
330
6A34
100
AcDbEntity
  8
SK1
100
AcDbLine
 10
71.78990339928214
 20
-20.46376936984962
 30
0.0
 11
71.78990339928214
 21
-19.53623063015199
 31
0.0
  0
CIRCLE
  5
B652
330
6A34
100
AcDbEntity
  8
SK1
100
AcDbCircle
 10
71.78990339928214
 20
-20.00000000000081
 30
0.0
 40
0.4637693698488208
  0
ARC
  5
B653
330
6A34
100
AcDbEntity
  8
1
100
AcDbCircle
 10
71.38990339928216
 20
-19.6000000000008
 30
0.0
 40
0.4
100
AcDbArc
 50
270.0
 51
359.9999999999983
1001
GENIUS_GENOBJ-N-FIL_13
1002
{
1000
OWNER
1000
GEN
1002
}
1001
GENIUS_GENODEF_13
1002
{
1000
HIER
1070
     0
1002
}
1002
{
1000
MANEDIT
1070
     0
1002
}
1002
{
1000
NOSEL
1070
     0
1002
}
1002
{
1000
BEHIND
1070
     0
1002
}
1002
{
1000
OTHER
1070
     0
1002
}
1002
{
1000
REACTOR
1002
}
  0
LINE
  5
B654
330
6A34
100
AcDbEntity
  8
1
100
AcDbLine
 10
71.78990339928219
 20
-18.00000000000081
 30
0.0
 11
71.04101321634942
 21
-17.00000000000083
 31
0.0
  0
LINE
  5
B655
330
6A34
100
AcDbEntity
  8
1
100
AcDbLine
 10
71.04101321634937
 20
-17.00000000000075
 30
0.0
 11
70.78669819936618
 21
-15.51219587175884
 31
0.0
  0
LINE
  5
B656
330
6A34
100
AcDbEntity
  8
NOCUT
100
AcDbLine
 10
-0.2100966007178897
 20
-0.0000000000007958
 30
0.0
 11
70.7866981993659
 21
-0.0000000000007958
 31
0.0
  0
DIMENSION
  5
B657
330
6A34
100
AcDbEntity
  8
2
100
AcDbDimension
  2
*D5
 10
71.78990339928214
 20
74.99999999999946
 30
0.0
 11
35.78990339928212
 21
78.25034448818843
 31
0.0
 70
    32
  3
AM_DIN
100
AcDbAlignedDimension
 13
-0.2100966007178897
 23
23.9999999999992
 33
0.0
 14
71.78990339928214
 24
19.9999999999992
 34
0.0
100
AcDbRotatedDimension
  0
LINE
  5
B658
330
6A34
100
AcDbEntity
  8
4
100
AcDbLine
 10
74.04480571795454
 20
-0.0000000000008242
 30
0.0
 11
-0.2100966007180602
 21
-0.0000000000003695
 31
0.0
  0
LINE
  5
B659
330
6A34
100
AcDbEntity
  8
1
100
AcDbLine
 10
49.77990339928215
 20
17.9999999999992
 30
0.0
 11
49.03101321634938
 21
16.9999999999992
 31
0.0
  0
LINE
  5
B65A
330
6A34
100
AcDbEntity
  8
1
100
AcDbLine
 10
36.78990339928214
 20
19.99999999999914
 30
0.0
 11
49.37990339928217
 21
19.9999999999992
 31
0.0
  0
LINE
  5
B65B
330
6A34
100
AcDbEntity
  8
1
100
AcDbLine
 10
58.78990339928214
 20
11.95999999999918
 30
0.0
 11
46.1999033992821
 21
11.95999999999918
 31
0.0
  0
LINE
  5
B65C
330
6A34
100
AcDbEntity
  8
1
100
AcDbLine
 10
47.78990339928213
 20
19.99999999999914
 30
0.0
 11
60.37990339928217
 21
19.9999999999992
 31
0.0
  0
LINE
  5
B65D
330
6A34
100
AcDbEntity
  8
CUT
100
AcDbLine
 10
25.74772486149106
 20
19.9999999999992
 30
0.0
 11
71.38990339928216
 21
19.9999999999992
 31
0.0
  0
LINE
  5
B65E
330
6A34
100
AcDbEntity
  8
CUT
100
AcDbLine
 10
24.1999033992821
 20
11.95999999999912
 30
0.0
 11
69.84208193707321
 21
11.95999999999912
 31
0.0
  0
DIMENSION
  5
B65F
330
6A34
100
AcDbEntity
  8
2
100
AcDbDimension
  2
*D6
 10
25.78990339928214
 20
44.99999999999945
 30
0.0
 11
48.78990339928214
 21
48.24999999999945
 31
0.0
 70
    32
  3
AM_DIN
100
AcDbAlignedDimension
 13
71.78990339928214
 23
19.9999999999992
 33
0.0
 14
25.78990339928214
 24
19.99999999999914
 34
0.0
100
AcDbRotatedDimension
  0
ARC
  5
B660
330
6A34
100
AcDbEntity
  8
1
100
AcDbCircle
 10
74.22013988779736
 20
-71.65938113343838
 30
0.0
 40
81.74025202646047
100
AcDbArc
 50
92.40737711306131
 51
112.5835187028886
  0
LINE
  5
B662
330
6A34
100
AcDbEntity
  8
4
100
AcDbLine
 10
45.87155468145403
 20
-0.0000000000021316
 30
0.0
 11
58.38969964881329
 21
7.869137793563368
 31
0.0
  0
LINE
  5
B663
330
6A34
100
AcDbEntity
  8
1
100
AcDbLine
 10
36.78990339928214
 20
11.95999999999918
 30
0.0
 11
24.1999033992821
 21
11.95999999999918
 31
0.0
  0
LINE
  5
B664
330
6A34
100
AcDbEntity
  8
1
100
AcDbLine
 10
25.78990339928214
 20
19.99999999999914
 30
0.0
 11
38.37990339928217
 21
19.9999999999992
 31
0.0
  0
ARC
  5
B665
330
6A34
100
AcDbEntity
  8
1
100
AcDbCircle
 10
28.98190997290652
 20
21.67604842324425
 30
0.0
 40
11.77016652118107
100
AcDbArc
 50
191.7898627640635
 51
260.3437625834259
  0
LINE
  5
B666
330
6A34
100
AcDbEntity
  8
4
100
AcDbLine
 10
15.66475171249385
 20
-0.0000000000018758
 30
0.0
 11
28.77034859209175
 21
8.238420946662813
 31
0.0
  0
LINE
  5
B667
330
6A34
100
AcDbEntity
  8
1
100
AcDbLine
 10
25.28570927088054
 20
19.27113434341606
 30
0.0
 11
17.04621350317519
 21
19.27113434341606
 31
0.0
  0
LINE
  5
B668
330
6A34
100
AcDbEntity
  8
1
100
AcDbLine
 10
23.79990339928212
 20
13.95999999999918
 30
0.0
 11
24.54879358221489
 21
14.95999999999912
 31
0.0
  0
LINE
  5
B669
330
6A34
100
AcDbEntity
  8
CUT
100
AcDbLine
 10
23.79990339928212
 20
13.95999999999918
 30
0.0
 11
24.54879358221489
 21
14.95999999999912
 31
0.0
  0
LINE
  5
B66A
330
6A34
100
AcDbEntity
  8
1
100
AcDbLine
 10
23.79990339928212
 20
12.35999999999916
 30
0.0
 11
23.79990339928212
 21
13.95999999999912
 31
0.0
  0
ARC
  5
B66B
330
6A34
100
AcDbEntity
  8
1
100
AcDbCircle
 10
24.1999033992821
 20
12.35999999999916
 30
0.0
 40
0.4
100
AcDbArc
 50
180.0
 51
270.0
1001
GENIUS_GENOBJ-N-FIL_13
1002
{
1000
OWNER
1000
GEN
1002
}
1001
GENIUS_GENODEF_13
1002
{
1000
HIER
1070
     0
1002
}
1002
{
1000
MANEDIT
1070
     0
1002
}
1002
{
1000
NOSEL
1070
     0
1002
}
1002
{
1000
BEHIND
1070
     0
1002
}
1002
{
1000
OTHER
1070
     0
1002
}
1002
{
1000
REACTOR
1002
}
  0
LINE
  5
B66C
330
6A34
100
AcDbEntity
  8
CUT
100
AcDbLine
 10
23.79990339928212
 20
12.35999999999916
 30
0.0
 11
23.79990339928212
 21
13.95999999999912
 31
0.0
  0
ARC
  5
B66D
330
6A34
100
AcDbEntity
  8
CUT
100
AcDbCircle
 10
24.1999033992821
 20
12.35999999999916
 30
0.0
 40
0.4
100
AcDbArc
 50
180.0
 51
270.0
1001
GENIUS_GENOBJ-N-FIL_13
1002
{
1000
OWNER
1000
GEN
1002
}
1001
GENIUS_GENODEF_13
1002
{
1000
HIER
1070
     0
1002
}
1002
{
1000
MANEDIT
1070
     0
1002
}
1002
{
1000
NOSEL
1070
     0
1002
}
1002
{
1000
BEHIND
1070
     0
1002
}
1002
{
1000
OTHER
1070
     0
1002
}
1002
{
1000
REACTOR
1002
}
  0
ARC
  5
B66E
330
6A34
100
AcDbEntity
  8
1
100
AcDbCircle
 10
25.74772486149106
 20
19.59999999999922
 30
0.0
 40
0.4
100
AcDbArc
 50
90.0
 51
170.3000000000008
1001
GENIUS_GENODEF_13
1002
{
1000
HIER
1070
     0
1002
}
1002
{
1000
MANEDIT
1070
     0
1002
}
1002
{
1000
NOSEL
1070
     0
1002
}
1002
{
1000
BEHIND
1070
     0
1002
}
1002
{
1000
OTHER
1070
     0
1002
}
1002
{
1000
REACTOR
1002
}
1001
GENIUS_GENOBJ-N-FIL_13
1002
{
1000
OWNER
1000
GEN
1002
}
  0
LINE
  5
B66F
330
6A34
100
AcDbEntity
  8
1
100
AcDbLine
 10
24.54879358221495
 20
14.95999999999924
 30
0.0
 11
25.35344347385552
 21
19.66739575182526
 31
0.0
  0
ARC
  5
B670
330
6A34
100
AcDbEntity
  8
CUT
100
AcDbCircle
 10
25.74772486149106
 20
19.59999999999922
 30
0.0
 40
0.4
100
AcDbArc
 50
90.0
 51
170.3000000000008
1001
GENIUS_GENODEF_13
1002
{
1000
HIER
1070
     0
1002
}
1002
{
1000
MANEDIT
1070
     0
1002
}
1002
{
1000
NOSEL
1070
     0
1002
}
1002
{
1000
BEHIND
1070
     0
1002
}
1002
{
1000
OTHER
1070
     0
1002
}
1002
{
1000
REACTOR
1002
}
1001
GENIUS_GENOBJ-N-FIL_13
1002
{
1000
OWNER
1000
GEN
1002
}
  0
LINE
  5
B671
330
6A34
100
AcDbEntity
  8
CUT
100
AcDbLine
 10
24.54879358221495
 20
14.95999999999924
 30
0.0
 11
25.35344347385552
 21
19.66739575182526
 31
0.0
  0
LINE
  5
B672
330
6A34
100
AcDbEntity
  8
1
100
AcDbLine
 10
38.03101321634932
 20
16.99999999999914
 30
0.0
 11
37.22636332470875
 21
12.29260424817312
 31
0.0
  0
LINE
  5
B673
330
6A34
100
AcDbEntity
  8
1
100
AcDbLine
 10
47.78990339928213
 20
11.95999999999918
 30
0.0
 11
35.1999033992821
 21
11.95999999999918
 31
0.0
  0
ARC
  5
B674
330
6A34
100
AcDbEntity
  8
1
100
AcDbCircle
 10
14.04057396172038
 20
-45.8288602227959
 30
0.0
 40
57.38573395850206
100
AcDbArc
 50
52.99763645912707
 51
76.94049011178204
  0
ARC
  5
B675
330
6A34
100
AcDbEntity
  8
1
100
AcDbCircle
 10
-0.300200657663936
 20
-28.27008709758517
 30
0.0
 40
49.12020862157245
100
AcDbArc
 50
39.9051264341203
 51
48.70735240043
  0
CIRCLE
  5
B676
330
6A34
100
AcDbEntity
  8
1
100
AcDbCircle
 10
31.28990339928213
 20
15.97999999999916
 30
0.0
 40
2.749999999999976
  0
ARC
  5
B677
330
6A34
100
AcDbEntity
  8
1
100
AcDbCircle
 10
36.83208193707321
 20
12.3599999999991
 30
0.0
 40
0.4
100
AcDbArc
 50
270.0
 51
350.3000000000008
1001
GENIUS_GENODEF_13
1002
{
1000
HIER
1070
     0
1002
}
1002
{
1000
MANEDIT
1070
     0
1002
}
1002
{
1000
NOSEL
1070
     0
1002
}
1002
{
1000
BEHIND
1070
     0
1002
}
1002
{
1000
OTHER
1070
     0
1002
}
1002
{
1000
REACTOR
1002
}
1001
GENIUS_GENOBJ-N-FIL_13
1002
{
1000
OWNER
1000
GEN
1002
}
  0
CIRCLE
  5
B678
330
6A34
100
AcDbEntity
  8
1
100
AcDbCircle
 10
42.28990339928214
 20
15.97999999999916
 30
0.0
 40
2.749999999999976
  0
LINE
  5
B679
330
6A34
100
AcDbEntity
  8
1
100
AcDbLine
 10
38.77990339928214
 20
17.9999999999992
 30
0.0
 11
38.03101321634938
 21
16.9999999999992
 31
0.0
  0
ARC
  5
B67A
330
6A34
100
AcDbEntity
  8
1
100
AcDbCircle
 10
38.37990339928217
 20
19.59999999999917
 30
0.0
 40
0.4
100
AcDbArc
 50
0.0
 51
90.0
1001
GENIUS_GENOBJ-N-FIL_13
1002
{
1000
OWNER
1000
GEN
1002
}
1001
GENIUS_GENODEF_13
1002
{
1000
HIER
1070
     0
1002
}
1002
{
1000
MANEDIT
1070
     0
1002
}
1002
{
1000
NOSEL
1070
     0
1002
}
1002
{
1000
BEHIND
1070
     0
1002
}
1002
{
1000
OTHER
1070
     0
1002
}
1002
{
1000
REACTOR
1002
}
  0
LINE
  5
B67B
330
6A34
100
AcDbEntity
  8
1
100
AcDbLine
 10
38.77990339928214
 20
19.59999999999917
 30
0.0
 11
38.77990339928214
 21
17.9999999999992
 31
0.0
  0
LINE
  5
B67C
330
6A34
100
AcDbEntity
  8
1
100
AcDbLine
 10
49.03101321634932
 20
16.99999999999914
 30
0.0
 11
48.22636332470875
 21
12.29260424817312
 31
0.0
  0
ARC
  5
B67D
330
6A34
100
AcDbEntity
  8
1
100
AcDbCircle
 10
47.83208193707321
 20
12.3599999999991
 30
0.0
 40
0.4
100
AcDbArc
 50
270.0
 51
350.3000000000008
1001
GENIUS_GENODEF_13
1002
{
1000
HIER
1070
     0
1002
}
1002
{
1000
MANEDIT
1070
     0
1002
}
1002
{
1000
NOSEL
1070
     0
1002
}
1002
{
1000
BEHIND
1070
     0
1002
}
1002
{
1000
OTHER
1070
     0
1002
}
1002
{
1000
REACTOR
1002
}
1001
GENIUS_GENOBJ-N-FIL_13
1002
{
1000
OWNER
1000
GEN
1002
}
  0
LINE
  5
B67E
330
6A34
100
AcDbEntity
  8
1
100
AcDbLine
 10
58.79990339928212
 20
19.99999999999914
 30
0.0
 11
71.38990339928216
 21
19.9999999999992
 31
0.0
  0
LINE
  5
B67F
330
6A34
100
AcDbEntity
  8
1
100
AcDbLine
 10
69.79990339928213
 20
11.95999999999918
 30
0.0
 11
57.2099033992821
 21
11.95999999999918
 31
0.0
  0
CIRCLE
  5
B680
330
6A34
100
AcDbEntity
  8
1
100
AcDbCircle
 10
53.28990339928214
 20
15.97999999999916
 30
0.0
 40
2.749999999999976
  0
ARC
  5
B681
330
6A34
100
AcDbEntity
  8
1
100
AcDbCircle
 10
49.37990339928217
 20
19.59999999999917
 30
0.0
 40
0.4
100
AcDbArc
 50
0.0
 51
90.0
1001
GENIUS_GENOBJ-N-FIL_13
1002
{
1000
OWNER
1000
GEN
1002
}
1001
GENIUS_GENODEF_13
1002
{
1000
HIER
1070
     0
1002
}
1002
{
1000
MANEDIT
1070
     0
1002
}
1002
{
1000
NOSEL
1070
     0
1002
}
1002
{
1000
BEHIND
1070
     0
1002
}
1002
{
1000
OTHER
1070
     0
1002
}
1002
{
1000
REACTOR
1002
}
  0
LINE
  5
B682
330
6A34
100
AcDbEntity
  8
1
100
AcDbLine
 10
49.77990339928215
 20
19.59999999999917
 30
0.0
 11
49.77990339928215
 21
17.9999999999992
 31
0.0
  0
LINE
  5
B683
330
6A34
100
AcDbEntity
  8
1
100
AcDbLine
 10
60.03101321634932
 20
16.99999999999914
 30
0.0
 11
59.22636332470876
 21
12.29260424817312
 31
0.0
  0
ARC
  5
B684
330
6A34
100
AcDbEntity
  8
1
100
AcDbCircle
 10
58.83208193707321
 20
12.3599999999991
 30
0.0
 40
0.4
100
AcDbArc
 50
270.0
 51
350.3000000000008
1001
GENIUS_GENODEF_13
1002
{
1000
HIER
1070
     0
1002
}
1002
{
1000
MANEDIT
1070
     0
1002
}
1002
{
1000
NOSEL
1070
     0
1002
}
1002
{
1000
BEHIND
1070
     0
1002
}
1002
{
1000
OTHER
1070
     0
1002
}
1002
{
1000
REACTOR
1002
}
1001
GENIUS_GENOBJ-N-FIL_13
1002
{
1000
OWNER
1000
GEN
1002
}
  0
LINE
  5
B685
330
6A34
100
AcDbEntity
  8
1
100
AcDbLine
 10
60.77990339928215
 20
19.59999999999917
 30
0.0
 11
60.77990339928215
 21
17.9999999999992
 31
0.0
  0
ARC
  5
B686
330
6A34
100
AcDbEntity
  8
1
100
AcDbCircle
 10
60.37990339928217
 20
19.59999999999917
 30
0.0
 40
0.4
100
AcDbArc
 50
0.0
 51
90.0
1001
GENIUS_GENOBJ-N-FIL_13
1002
{
1000
OWNER
1000
GEN
1002
}
1001
GENIUS_GENODEF_13
1002
{
1000
HIER
1070
     0
1002
}
1002
{
1000
MANEDIT
1070
     0
1002
}
1002
{
1000
NOSEL
1070
     0
1002
}
1002
{
1000
BEHIND
1070
     0
1002
}
1002
{
1000
OTHER
1070
     0
1002
}
1002
{
1000
REACTOR
1002
}
  0
LINE
  5
B687
330
6A34
100
AcDbEntity
  8
1
100
AcDbLine
 10
60.77990339928215
 20
17.9999999999992
 30
0.0
 11
60.03101321634938
 21
16.9999999999992
 31
0.0
  0
CIRCLE
  5
B688
330
6A34
100
AcDbEntity
  8
1
100
AcDbCircle
 10
64.29990339928213
 20
15.97999999999916
 30
0.0
 40
2.749999999999976
  0
LINE
  5
B689
330
6A34
100
AcDbEntity
  8
CUT
100
AcDbLine
 10
71.04101321634932
 20
16.99999999999914
 30
0.0
 11
70.23636332470875
 21
12.29260424817312
 31
0.0
  0
LINE
  5
B68A
330
6A34
100
AcDbEntity
  8
1
100
AcDbLine
 10
71.04101321634932
 20
16.99999999999914
 30
0.0
 11
70.23636332470875
 21
12.29260424817312
 31
0.0
  0
ARC
  5
B68B
330
6A34
100
AcDbEntity
  8
CUT
100
AcDbCircle
 10
69.84208193707321
 20
12.3599999999991
 30
0.0
 40
0.4
100
AcDbArc
 50
270.0
 51
350.3000000000008
1001
GENIUS_GENODEF_13
1002
{
1000
HIER
1070
     0
1002
}
1002
{
1000
MANEDIT
1070
     0
1002
}
1002
{
1000
NOSEL
1070
     0
1002
}
1002
{
1000
BEHIND
1070
     0
1002
}
1002
{
1000
OTHER
1070
     0
1002
}
1002
{
1000
REACTOR
1002
}
1001
GENIUS_GENOBJ-N-FIL_13
1002
{
1000
OWNER
1000
GEN
1002
}
  0
ARC
  5
B68C
330
6A34
100
AcDbEntity
  8
1
100
AcDbCircle
 10
69.84208193707321
 20
12.3599999999991
 30
0.0
 40
0.4
100
AcDbArc
 50
270.0
 51
350.3000000000008
1001
GENIUS_GENODEF_13
1002
{
1000
HIER
1070
     0
1002
}
1002
{
1000
MANEDIT
1070
     0
1002
}
1002
{
1000
NOSEL
1070
     0
1002
}
1002
{
1000
BEHIND
1070
     0
1002
}
1002
{
1000
OTHER
1070
     0
1002
}
1002
{
1000
REACTOR
1002
}
1001
GENIUS_GENOBJ-N-FIL_13
1002
{
1000
OWNER
1000
GEN
1002
}
  0
ARC
  5
B68D
330
6A34
100
AcDbEntity
  8
CUT
100
AcDbCircle
 10
71.38990339928216
 20
19.59999999999917
 30
0.0
 40
0.4
100
AcDbArc
 50
0.0
 51
90.0
1001
GENIUS_GENOBJ-N-FIL_13
1002
{
1000
OWNER
1000
GEN
1002
}
1001
GENIUS_GENODEF_13
1002
{
1000
HIER
1070
     0
1002
}
1002
{
1000
MANEDIT
1070
     0
1002
}
1002
{
1000
NOSEL
1070
     0
1002
}
1002
{
1000
BEHIND
1070
     0
1002
}
1002
{
1000
OTHER
1070
     0
1002
}
1002
{
1000
REACTOR
1002
}
  0
ARC
  5
B68E
330
6A34
100
AcDbEntity
  8
1
100
AcDbCircle
 10
71.38990339928216
 20
19.59999999999917
 30
0.0
 40
0.4
100
AcDbArc
 50
0.0
 51
90.0
1001
GENIUS_GENOBJ-N-FIL_13
1002
{
1000
OWNER
1000
GEN
1002
}
1001
GENIUS_GENODEF_13
1002
{
1000
HIER
1070
     0
1002
}
1002
{
1000
MANEDIT
1070
     0
1002
}
1002
{
1000
NOSEL
1070
     0
1002
}
1002
{
1000
BEHIND
1070
     0
1002
}
1002
{
1000
OTHER
1070
     0
1002
}
1002
{
1000
REACTOR
1002
}
  0
LINE
  5
B68F
330
6A34
100
AcDbEntity
  8
CUT
100
AcDbLine
 10
71.78990339928214
 20
19.59999999999917
 30
0.0
 11
71.78990339928214
 21
17.9999999999992
 31
0.0
  0
LINE
  5
B690
330
6A34
100
AcDbEntity
  8
1
100
AcDbLine
 10
71.78990339928214
 20
19.59999999999917
 30
0.0
 11
71.78990339928214
 21
17.9999999999992
 31
0.0
  0
LINE
  5
B691
330
6A34
100
AcDbEntity
  8
SK1
100
AcDbLine
 10
71.78990339928214
 20
20.46376936984802
 30
0.0
 11
71.78990339928214
 21
19.53623063015038
 31
0.0
  0
LINE
  5
B692
330
6A34
100
AcDbEntity
  8
SK1
100
AcDbLine
 10
71.32613402943332
 20
19.9999999999992
 30
0.0
 11
72.25367276913096
 21
19.9999999999992
 31
0.0
  0
LINE
  5
B693
330
6A34
100
AcDbEntity
  8
SK1
100
AcDbLine
 10
71.78990339928214
 20
20.46376936984802
 30
0.0
 11
71.78990339928214
 21
19.53623063015038
 31
0.0
  0
CIRCLE
  5
B694
330
6A34
100
AcDbEntity
  8
SK1
100
AcDbCircle
 10
71.78990339928214
 20
19.9999999999992
 30
0.0
 40
0.4637693698488208
  0
LINE
  5
B695
330
6A34
100
AcDbEntity
  8
CUT
100
AcDbLine
 10
71.78990339928214
 20
17.9999999999992
 30
0.0
 11
71.04101321634937
 21
16.9999999999992
 31
0.0
  0
LINE
  5
B696
330
6A34
100
AcDbEntity
  8
1
100
AcDbLine
 10
71.78990339928214
 20
17.9999999999992
 30
0.0
 11
71.04101321634937
 21
16.9999999999992
 31
0.0
  0
TEXT
  5
B697
330
6A34
100
AcDbEntity
  8
6
100
AcDbText
 10
104.9417304939211
 20
-4.235742399802447
 30
0.0
 40
3.5
  1
Z=8
 50
90.0
100
AcDbText
  0
TEXT
  5
B698
330
6A34
100
AcDbEntity
  8
6
100
AcDbText
 10
23.83935061744256
 20
-29.1851220033474
 30
0.0
 40
3.5
  1
22J3C040046Z5R00
100
AcDbText
  0
LINE
  5
B70F
330
6A34
100
AcDbEntity
  8
1
100
AcDbLine
 10
15.0538241069917
 20
21.09682285792075
 30
0.0
 11
13.48749906596339
 21
38.99999999999918
 31
0.0
  0
ARC
  5
B716
330
6A34
100
AcDbEntity
  8
1
100
AcDbCircle
 10
17.04621350317519
 20
21.27113434341607
 30
0.0
 40
2.0
100
AcDbArc
 50
185.0000000000001
 51
269.9999999999998
1001
GENIUS_GENOBJ-N-FIL_13
1002
{
1000
OWNER
1000
GEN
1002
}
1001
GENIUS_GENODEF_13
1002
{
1000
HIER
1070
     0
1002
}
1002
{
1000
MANEDIT
1070
     0
1002
}
1002
{
1000
NOSEL
1070
     0
1002
}
1002
{
1000
BEHIND
1070
     0
1002
}
1002
{
1000
OTHER
1070
     0
1002
}
1002
{
1000
REACTOR
1002
}
  0
ARC
  5
B729
330
6A34
100
AcDbEntity
  8
1
100
AcDbCircle
 10
17.04621350317493
 20
-21.27113434341702
 30
0.0
 40
2.0
100
AcDbArc
 50
89.99999999999941
 51
174.9999999999992
1001
GENIUS_GENOBJ-N-FIL_13
1002
{
1000
OWNER
1000
GEN
1002
}
1001
GENIUS_GENODEF_13
1002
{
1000
HIER
1070
     0
1002
}
1002
{
1000
MANEDIT
1070
     0
1002
}
1002
{
1000
NOSEL
1070
     0
1002
}
1002
{
1000
BEHIND
1070
     0
1002
}
1002
{
1000
OTHER
1070
     0
1002
}
1002
{
1000
REACTOR
1002
}
  0
LINE
  5
B72A
330
6A34
100
AcDbEntity
  8
1
100
AcDbLine
 10
15.05382410699144
 20
-21.09682285792167
 30
0.0
 11
13.48749906596291
 21
-39.00000000000008
 31
0.0
  0
LINE
  5
B72B
330
6A34
100
AcDbEntity
  8
NOCUT
100
AcDbLine
 10
13.48749906596339
 20
-38.9999999999946
 30
0.0
 11
15.05382410699116
 21
-21.09682285792495
 31
0.0
  0
ARC
  5
B730
330
6A34
100
AcDbEntity
  8
NOCUT
100
AcDbCircle
 10
17.04621350317465
 20
-21.27113434342029
 30
0.0
 40
2.0
100
AcDbArc
 50
90.00000000000291
 51
174.9999999999992
1001
GENIUS_GENODEF_13
1002
{
1000
HIER
1070
     0
1002
}
1002
{
1000
MANEDIT
1070
     0
1002
}
1002
{
1000
NOSEL
1070
     0
1002
}
1002
{
1000
BEHIND
1070
     0
1002
}
1002
{
1000
OTHER
1070
     0
1002
}
1002
{
1000
REACTOR
1002
}
1001
GENIUS_GENOBJ-N-FIL_13
1002
{
1000
OWNER
1000
GEN
1002
}
  0
DIMENSION
  5
B786
330
6A34
100
AcDbEntity
  8
2
100
AcDbDimension
  2
*D7
 10
16.78990339928212
 20
59.99999999999946
 30
0.0
 11
44.28990339928213
 21
63.24999999999945
 31
0.0
 70
    32
  3
AM_DIN
100
AcDbAlignedDimension
 13
71.78990339928214
 23
19.9999999999992
 33
0.0
 14
16.78990339928212
 24
19.49934802008877
 34
0.0
100
AcDbRotatedDimension
  0
ENDSEC
  0
SECTION
  2
OBJECTS
  0
DICTIONARY
  5
6A22
330
0
100
AcDbDictionary
  3
ACAD_GROUP
350
6A23
  3
ACAD_LAYOUT
350
6A2F
  3
ACAD_MLINESTYLE
350
6A2C
  3
ACAD_PLOTSETTINGS
350
6A2E
  3
ACAD_PLOTSTYLENAME
350
6A24
  3
ACDBHEADERROUNDTRIPXREC
350
B7C5
  3
ACDBVARIABLEDICTIONARY
350
6B78
  3
ACMDICTIONARY
350
6B39
  3
AMG
350
6B22
  3
AMGSNAPSETTINGS
350
6B59
  3
ASE_INDEX_DICTIONARY
350
89F6
  3
DWGPROPS
350
B7C1
  0
DICTIONARY
  5
6B62
330
6A34
100
AcDbDictionary
280
     1
  3
ACAD_INDEX
360
6B63
  3
ACAD_LAYOUTSELFREF
360
B7E8
  0
DICTIONARY
  5
B7E6
330
6A30
100
AcDbDictionary
280
     1
  3
ACAD_LAYOUTSELFREF
360
B7E7
  0
DICTIONARY
  5
6A23
102
{ACAD_REACTORS
330
6A22
102
}
330
6A22
100
AcDbDictionary
  0
DICTIONARY
  5
6A2F
102
{ACAD_REACTORS
330
6A22
102
}
330
6A22
100
AcDbDictionary
  0
DICTIONARY
  5
6A2C
102
{ACAD_REACTORS
330
6A22
102
}
330
6A22
100
AcDbDictionary
  3
STANDARD
350
6A2D
  0
DICTIONARY
  5
6A2E
102
{ACAD_REACTORS
330
6A22
102
}
330
6A22
100
AcDbDictionary
  0
ACDBDICTIONARYWDFLT
  5
6A24
102
{ACAD_REACTORS
330
6A22
102
}
330
6A22
100
AcDbDictionary
281
     1
  3
Normal
350
6A25
100
AcDbDictionaryWithDefault
340
6A25
  0
DICTIONARY
  5
B7C5
102
{ACAD_REACTORS
330
6A22
102
}
330
6A22
100
AcDbDictionary
  3
CEPSNTYPE
350
B7CF
  3
DIMSTYLEDATA
350
B7D3
  3
FINGERPRINTGUID
350
B7D0
  3
HYPERLINKBASE
350
B7C8
  3
INSUNITS
350
B7CE
  3
LAYOUTDICT
350
B7CA
  3
LWETCUNION
350
B7CD
  3
PLOTSETDICT
350
B7CB
  3
PLOTSTYLNAMDICT
350
B7CC
  3
PSVPSCALE
350
B7D2
  3
PUCSBASE
350
B7D6
  3
PUCSORGBACK
350
B7DC
  3
PUCSORGBOTTOM
350
B7D8
  3
PUCSORGFRONT
350
B7DB
  3
PUCSORGLEFT
350
B7D9
  3
PUCSORGRIGHT
350
B7DA
  3
PUCSORGTOP
350
B7D7
  3
PUCSORTHOREF
350
B7D4
  3
PUCSORTHOVIEW
350
B7D5
  3
STYLESHEET
350
B7C9
  3
TSTACKALIGN
350
B7C6
  3
TSTACKSIZE
350
B7C7
  3
UCSBASE
350
B7DF
  3
UCSORGBACK
350
B7E5
  3
UCSORGBOTTOM
350
B7E1
  3
UCSORGFRONT
350
B7E4
  3
UCSORGLEFT
350
B7E2
  3
UCSORGRIGHT
350
B7E3
  3
UCSORGTOP
350
B7E0
  3
UCSORTHOREF
350
B7DD
  3
UCSORTHOVIEW
350
B7DE
  3
VERSIONGUID
350
B7D1
  0
DICTIONARY
  5
6B78
102
{ACAD_REACTORS
330
6A22
102
}
330
6A22
100
AcDbDictionary
  3
DIMASSOC
350
6B7A
  3
INDEXCTL
350
6B79
  0
DICTIONARY
  5
6B39
102
{ACAD_REACTORS
330
6A22
102
}
330
6A22
100
AcDbDictionary
  3
ACMSTDDICTIONARY
350
6B3F
  0
DICTIONARY
  5
6B22
102
{ACAD_REACTORS
330
6A22
102
}
330
6A22
100
AcDbDictionary
  3
ACMGSETTINGS
350
6B23
  0
DICTIONARY
  5
6B59
102
{ACAD_REACTORS
330
6A22
102
}
330
6A22
100
AcDbDictionary
  0
DICTIONARY
  5
89F6
102
{ACAD_REACTORS
330
6A22
102
}
330
6A22
100
AcDbDictionary
  3
ASEBLOCKHIERARCHYINDEXRECORD
350
89F8
1001
DCO15
1040
1550954233.809999
  0
XRECORD
  5
B7C1
102
{ACAD_REACTORS
330
6A22
102
}
330
6A22
100
AcDbXrecord
  1
DWGPROPS COOKIE
  2

  3

  4

  6

  7

  8

  9

300
AmdtFileType=84
301
=
302
=
303
=
304
=
305
=
306
=
307
=
308
=
309
=
 40
0.3514303819444444
 41
2453447.43007081
 42
2453788.013729155
  1

 90
        1
  0
DICTIONARY
  5
6B63
102
{ACAD_REACTORS
330
6B62
102
}
330
6B62
100
AcDbDictionary
  3
*A1
350
6B64
  0
XRECORD
  5
B7E8
102
{ACAD_REACTORS
330
6B62
102
}
330
6B62
100
AcDbXrecord
340
6A34
  0
XRECORD
  5
B7E7
102
{ACAD_REACTORS
330
B7E6
102
}
330
B7E6
100
AcDbXrecord
340
6A30
  0
MLINESTYLE
  5
6A2D
102
{ACAD_REACTORS
330
6A2C
102
}
330
6A2C
100
AcDbMlineStyle
  2
STANDARD
 70
     0
  3

 62
   256
 51
90.0
 52
90.0
 71
     2
 49
0.5
 62
   256
  6
BYLAYER
 49
-0.5
 62
   256
  6
BYLAYER
  0
ACDBPLACEHOLDER
  5
6A25
102
{ACAD_REACTORS
330
6A24
102
}
330
6A24
100
AcDbPlaceHolder
280
     0
  0
XRECORD
  5
B7CF
102
{ACAD_REACTORS
330
B7C5
102
}
330
B7C5
100
AcDbXrecord
 90
        0
  0
XRECORD
  5
B7D3
102
{ACAD_REACTORS
330
B7C5
102
}
330
B7C5
100
AcDbXrecord
1000
DSTYLE
1002
{
1070
   279
 70
     2
1002
}
  0
XRECORD
  5
B7D0
102
{ACAD_REACTORS
330
B7C5
102
}
330
B7C5
100
AcDbXrecord
  1
{5E8163B8-4D8F-4110-B677-A6458ADDE735}
  0
XRECORD
  5
B7C8
102
{ACAD_REACTORS
330
B7C5
102
}
330
B7C5
100
AcDbXrecord
  1

  0
XRECORD
  5
B7CE
102
{ACAD_REACTORS
330
B7C5
102
}
330
B7C5
100
AcDbXrecord
 90
        4
  0
XRECORD
  5
B7CA
102
{ACAD_REACTORS
330
B7C5
102
}
330
B7C5
100
AcDbXrecord
340
6A2F
  0
XRECORD
  5
B7CD
102
{ACAD_REACTORS
330
B7C5
102
}
330
B7C5
100
AcDbXrecord
 90
    10781
  0
XRECORD
  5
B7CB
102
{ACAD_REACTORS
330
B7C5
102
}
330
B7C5
100
AcDbXrecord
340
6A2E
  0
XRECORD
  5
B7CC
102
{ACAD_REACTORS
330
B7C5
102
}
330
B7C5
100
AcDbXrecord
340
6A24
  0
XRECORD
  5
B7D2
102
{ACAD_REACTORS
330
B7C5
102
}
330
B7C5
100
AcDbXrecord
 40
0.0
  0
XRECORD
  5
B7D6
102
{ACAD_REACTORS
330
B7C5
102
}
330
B7C5
100
AcDbXrecord
340
0
  0
XRECORD
  5
B7DC
102
{ACAD_REACTORS
330
B7C5
102
}
330
B7C5
100
AcDbXrecord
 10
0.0
 20
0.0
 30
0.0
  0
XRECORD
  5
B7D8
102
{ACAD_REACTORS
330
B7C5
102
}
330
B7C5
100
AcDbXrecord
 10
0.0
 20
0.0
 30
0.0
  0
XRECORD
  5
B7DB
102
{ACAD_REACTORS
330
B7C5
102
}
330
B7C5
100
AcDbXrecord
 10
0.0
 20
0.0
 30
0.0
  0
XRECORD
  5
B7D9
102
{ACAD_REACTORS
330
B7C5
102
}
330
B7C5
100
AcDbXrecord
 10
0.0
 20
0.0
 30
0.0
  0
XRECORD
  5
B7DA
102
{ACAD_REACTORS
330
B7C5
102
}
330
B7C5
100
AcDbXrecord
 10
0.0
 20
0.0
 30
0.0
  0
XRECORD
  5
B7D7
102
{ACAD_REACTORS
330
B7C5
102
}
330
B7C5
100
AcDbXrecord
 10
0.0
 20
0.0
 30
0.0
  0
XRECORD
  5
B7D4
102
{ACAD_REACTORS
330
B7C5
102
}
330
B7C5
100
AcDbXrecord
340
0
  0
XRECORD
  5
B7D5
102
{ACAD_REACTORS
330
B7C5
102
}
330
B7C5
100
AcDbXrecord
 70
     0
  0
XRECORD
  5
B7C9
102
{ACAD_REACTORS
330
B7C5
102
}
330
B7C5
100
AcDbXrecord
  1

  0
XRECORD
  5
B7C6
102
{ACAD_REACTORS
330
B7C5
102
}
330
B7C5
100
AcDbXrecord
 90
        1
  0
XRECORD
  5
B7C7
102
{ACAD_REACTORS
330
B7C5
102
}
330
B7C5
100
AcDbXrecord
 90
       70
  0
XRECORD
  5
B7DF
102
{ACAD_REACTORS
330
B7C5
102
}
330
B7C5
100
AcDbXrecord
340
0
  0
XRECORD
  5
B7E5
102
{ACAD_REACTORS
330
B7C5
102
}
330
B7C5
100
AcDbXrecord
 10
0.0
 20
0.0
 30
0.0
  0
XRECORD
  5
B7E1
102
{ACAD_REACTORS
330
B7C5
102
}
330
B7C5
100
AcDbXrecord
 10
0.0
 20
0.0
 30
0.0
  0
XRECORD
  5
B7E4
102
{ACAD_REACTORS
330
B7C5
102
}
330
B7C5
100
AcDbXrecord
 10
0.0
 20
0.0
 30
0.0
  0
XRECORD
  5
B7E2
102
{ACAD_REACTORS
330
B7C5
102
}
330
B7C5
100
AcDbXrecord
 10
0.0
 20
0.0
 30
0.0
  0
XRECORD
  5
B7E3
102
{ACAD_REACTORS
330
B7C5
102
}
330
B7C5
100
AcDbXrecord
 10
0.0
 20
0.0
 30
0.0
  0
XRECORD
  5
B7E0
102
{ACAD_REACTORS
330
B7C5
102
}
330
B7C5
100
AcDbXrecord
 10
0.0
 20
0.0
 30
0.0
  0
XRECORD
  5
B7DD
102
{ACAD_REACTORS
330
B7C5
102
}
330
B7C5
100
AcDbXrecord
340
0
  0
XRECORD
  5
B7DE
102
{ACAD_REACTORS
330
B7C5
102
}
330
B7C5
100
AcDbXrecord
 70
     0
  0
XRECORD
  5
B7D1
102
{ACAD_REACTORS
330
B7C5
102
}
330
B7C5
100
AcDbXrecord
  1
{8E056CB2-3F1E-4F07-B69E-CD04E42FF6D3}
  0
DICTIONARYVAR
  5
6B7A
102
{ACAD_REACTORS
330
6B78
102
}
330
6B78
100
DictionaryVariables
280
     0
  1
1
  0
DICTIONARYVAR
  5
6B79
102
{ACAD_REACTORS
330
6B78
102
}
330
6B78
100
DictionaryVariables
280
     0
  1
1
  0
DICTIONARY
  5
6B3F
102
{ACAD_REACTORS
330
6B39
102
}
330
6B39
100
AcDbDictionary
  0
DICTIONARY
  5
6B23
102
{ACAD_REACTORS
330
6B22
102
}
330
6B22
100
AcDbDictionary
  3
DWGSETTINGS
350
6B24
  0
XRECORD
  5
89F8
102
{ACAD_REACTORS
330
89F6
102
}
330
89F6
100
AcDbXrecord
  0
LAYER_INDEX
  5
6B64
102
{ACAD_REACTORS
330
6B63
102
}
330
6B63
100
AcDbIndex
 40
2453788.386098067
100
AcDbLayerIndex
  8
0
360
6B65
 90
        0
  8
DEFPOINTS
360
6B66
 90
        0
  8
1
360
6B67
 90
       65
  8
2
360
6B68
 90
        4
  8
4
360
6B69
 90
        5
  8
6
360
6B6A
 90
        4
  8
SK1
360
6B6B
 90
       32
  8
SK2
360
6B6C
 90
        2
  8
SK4
360
6B6D
 90
        4
  8
CUT
360
6B6E
 90
       12
  8
NOCUT
360
6B6F
 90
        8
  8
SK3
360
91F5
 90
       14
  8
SK6
360
91F6
 90
        1
  0
XRECORD
  5
6B24
102
{ACAD_REACTORS
330
6B23
102
}
330
6B23
100
AcDbXrecord
  1
VERSION
140
15.0
  1
PRODUCT
  2
AutoCAD Mechanical 2000
  0
IDBUFFER
  5
6B65
330
0
100
AcDbIdBuffer
  0
IDBUFFER
  5
6B66
330
0
100
AcDbIdBuffer
  0
IDBUFFER
  5
6B67
330
0
100
AcDbIdBuffer
330
9AB5
330
9AD4
330
A8F5
330
B2E8
330
B63E
330
B642
330
B643
330
B645
330
B646
330
B647
330
B648
330
B64A
330
B64B
330
B64C
330
B64D
330
B64E
330
B653
330
B654
330
B655
330
B659
330
B65A
330
B65B
330
B65C
330
B660
330
B663
330
B664
330
B665
330
B667
330
B668
330
B66A
330
B66B
330
B66E
330
B66F
330
B672
330
B673
330
B674
330
B675
330
B676
330
B677
330
B678
330
B679
330
B67A
330
B67B
330
B67C
330
B67D
330
B67E
330
B67F
330
B680
330
B681
330
B682
330
B683
330
B684
330
B685
330
B686
330
B687
330
B688
330
B68A
330
B68C
330
B68E
330
B690
330
B696
330
B70F
330
B716
330
B729
330
B72A
  0
IDBUFFER
  5
6B68
330
0
100
AcDbIdBuffer
330
B786
330
B640
330
B657
330
B65F
  0
IDBUFFER
  5
6B69
330
0
100
AcDbIdBuffer
330
B641
330
B644
330
B658
330
B662
330
B666
  0
IDBUFFER
  5
6B6A
330
0
100
AcDbIdBuffer
330
B63C
330
B63F
330
B697
330
B698
  0
IDBUFFER
  5
6B6B
330
0
100
AcDbIdBuffer
330
B693
330
B694
330
9077
330
9078
330
9079
330
9AB8
330
9AB9
330
9ABA
330
9ABB
330
9ABC
330
9ABD
330
9ABE
330
9ABF
330
9AC0
330
9AC4
330
9AC5
330
9AC6
330
9AC8
330
9ACB
330
9ACC
330
9ACD
330
9ACE
330
9ACF
330
9AD0
330
9AD1
330
9AD2
330
B64F
330
B650
330
B651
330
B652
330
B691
330
B692
  0
IDBUFFER
  5
6B6C
330
0
100
AcDbIdBuffer
330
9AA6
330
9AA7
  0
IDBUFFER
  5
6B6D
330
0
100
AcDbIdBuffer
330
9AAB
330
9AC3
330
9AC7
330
9B68
  0
IDBUFFER
  5
6B6E
330
0
100
AcDbIdBuffer
330
B68B
330
B68D
330
B68F
330
B695
330
B65D
330
B65E
330
B669
330
B66C
330
B66D
330
B670
330
B671
330
B689
  0
IDBUFFER
  5
6B6F
330
0
100
AcDbIdBuffer
330
B72B
330
B730
330
AE36
330
AE40
330
B2FD
330
B63D
330
B649
330
B656
  0
IDBUFFER
  5
91F5
330
0
100
AcDbIdBuffer
330
9AA8
330
9AA9
330
9AAA
330
9AAC
330
9AAD
330
9AAE
330
9AAF
330
9AB0
330
9AB1
330
9AB3
330
9AC1
330
9AC2
330
9AC9
330
9ACA
  0
IDBUFFER
  5
91F6
330
0
100
AcDbIdBuffer
330
9AD3
  0
ENDSEC
  0
EOF
