  0
SECTION
  2
HEADER
  9
$ACADVER
  1
AC1014
  9
$ACADMAINTVER
 70
     9
  9
$DWGCODEPAGE
  3
ANSI_1252
  9
$INSBASE
 10
0.0
 20
0.0
 30
0.0
  9
$EXTMIN
 10
-64.58624675873466
 20
-24.02038584643685
 30
-0.0000000349181948
  9
$EXTMAX
 10
94.35100012431304
 20
79.83289627044872
 30
0.0000000814935746
  9
$LIMMIN
 10
0.0
 20
0.0
  9
$LIMMAX
 10
210.0
 20
297.0
  9
$ORTHOMODE
 70
     0
  9
$REGENMODE
 70
     1
  9
$FILLMODE
 70
     1
  9
$QTEXTMODE
 70
     0
  9
$MIRRTEXT
 70
     1
  9
$DRAGMODE
 70
     2
  9
$LTSCALE
 40
1.0
  9
$OSMODE
 70
  2599
  9
$ATTMODE
 70
     1
  9
$TEXTSIZE
 40
2.5
  9
$TRACEWID
 40
1.0
  9
$TEXTSTYLE
  7
STANDARD
  9
$CLAYER
  8
NOCUT
  9
$CELTYPE
  6
BYLAYER
  9
$CECOLOR
 62
   256
  9
$CELTSCALE
 40
1.0
  9
$DELOBJ
 70
     1
  9
$DISPSILH
 70
     0
  9
$DIMSCALE
 40
1.0
  9
$DIMASZ
 40
2.5
  9
$DIMEXO
 40
0.0
  9
$DIMDLI
 40
10.0
  9
$DIMRND
 40
0.0
  9
$DIMDLE
 40
0.0
  9
$DIMEXE
 40
1.0
  9
$DIMTP
 40
0.1
  9
$DIMTM
 40
0.1
  9
$DIMTXT
 40
3.5
  9
$DIMCEN
 40
0.0
  9
$DIMTSZ
 40
0.0
  9
$DIMTOL
 70
     0
  9
$DIMLIM
 70
     0
  9
$DIMTIH
 70
     0
  9
$DIMTOH
 70
     0
  9
$DIMSE1
 70
     0
  9
$DIMSE2
 70
     0
  9
$DIMTAD
 70
     1
  9
$DIMZIN
 70
     8
  9
$DIMBLK
  1

  9
$DIMASO
 70
     1
  9
$DIMSHO
 70
     1
  9
$DIMPOST
  1

  9
$DIMAPOST
  1
"
  9
$DIMALT
 70
     0
  9
$DIMALTD
 70
     2
  9
$DIMALTF
 40
0.0393701
  9
$DIMLFAC
 40
1.0
  9
$DIMTOFL
 70
     1
  9
$DIMTVP
 40
0.0
  9
$DIMTIX
 70
     0
  9
$DIMSOXD
 70
     0
  9
$DIMSAH
 70
     0
  9
$DIMBLK1
  1

  9
$DIMBLK2
  1

  9
$DIMSTYLE
  2
AM_DIN
  9
$DIMCLRD
 70
   256
  9
$DIMCLRE
 70
   256
  9
$DIMCLRT
 70
     2
  9
$DIMTFAC
 40
0.71
  9
$DIMGAP
 40
1.5
  9
$DIMJUST
 70
     0
  9
$DIMSD1
 70
     0
  9
$DIMSD2
 70
     0
  9
$DIMTOLJ
 70
     1
  9
$DIMTZIN
 70
     8
  9
$DIMALTZ
 70
     8
  9
$DIMALTTZ
 70
     8
  9
$DIMFIT
 70
     5
  9
$DIMUPT
 70
     0
  9
$DIMUNIT
 70
     2
  9
$DIMDEC
 70
     2
  9
$DIMTDEC
 70
     2
  9
$DIMALTU
 70
     2
  9
$DIMALTTD
 70
     2
  9
$DIMTXSTY
  7
STANDARD
  9
$DIMAUNIT
 70
     0
  9
$LUNITS
 70
     2
  9
$LUPREC
 70
     2
  9
$SKETCHINC
 40
1.0
  9
$FILLETRAD
 40
1.0
  9
$AUNITS
 70
     0
  9
$AUPREC
 70
     0
  9
$MENU
  1
.
  9
$ELEVATION
 40
0.0
  9
$PELEVATION
 40
0.0
  9
$THICKNESS
 40
0.0
  9
$LIMCHECK
 70
     0
  9
$BLIPMODE
 70
     0
  9
$CHAMFERA
 40
2.5
  9
$CHAMFERB
 40
2.5
  9
$CHAMFERC
 40
0.0
  9
$CHAMFERD
 40
0.0
  9
$SKPOLY
 70
     0
  9
$TDCREATE
 40
2453447.430070810
  9
$TDUPDATE
 40
2453788.380680440
  9
$TDINDWG
 40
0.2180864583
  9
$TDUSRTIMER
 40
0.2180621181
  9
$USRTIMER
 70
     1
  9
$ANGBASE
 50
0.0
  9
$ANGDIR
 70
     0
  9
$PDMODE
 70
     0
  9
$PDSIZE
 40
0.0
  9
$PLINEWID
 40
0.0
  9
$COORDS
 70
     0
  9
$SPLFRAME
 70
     0
  9
$SPLINETYPE
 70
     6
  9
$SPLINESEGS
 70
     8
  9
$ATTDIA
 70
     1
  9
$ATTREQ
 70
     1
  9
$HANDLING
 70
 22529
  9
$HANDSEED
  5
9E39
  9
$SURFTAB1
 70
     6
  9
$SURFTAB2
 70
     6
  9
$SURFTYPE
 70
     6
  9
$SURFU
 70
     6
  9
$SURFV
 70
     6
  9
$UCSNAME
  2

  9
$UCSORG
 10
0.0
 20
0.0
 30
0.0
  9
$UCSXDIR
 10
1.0
 20
0.0
 30
0.0
  9
$UCSYDIR
 10
0.0
 20
1.0
 30
0.0
  9
$PUCSNAME
  2

  9
$PUCSORG
 10
0.0
 20
0.0
 30
0.0
  9
$PUCSXDIR
 10
1.0
 20
0.0
 30
0.0
  9
$PUCSYDIR
 10
0.0
 20
1.0
 30
0.0
  9
$USERI1
 70
     0
  9
$USERI2
 70
     0
  9
$USERI3
 70
     0
  9
$USERI4
 70
     0
  9
$USERI5
 70
     0
  9
$USERR1
 40
0.0
  9
$USERR2
 40
0.0
  9
$USERR3
 40
0.0
  9
$USERR4
 40
0.0
  9
$USERR5
 40
0.0
  9
$WORLDVIEW
 70
     1
  9
$SHADEDGE
 70
     3
  9
$SHADEDIF
 70
    70
  9
$TILEMODE
 70
     1
  9
$MAXACTVP
 70
    64
  9
$PINSBASE
 10
0.0
 20
0.0
 30
0.0
  9
$PLIMCHECK
 70
     0
  9
$PEXTMIN
 10
1.000000000000000E+20
 20
1.000000000000000E+20
 30
1.000000000000000E+20
  9
$PEXTMAX
 10
-1.000000000000000E+20
 20
-1.000000000000000E+20
 30
-1.000000000000000E+20
  9
$PLIMMIN
 10
0.0
 20
0.0
  9
$PLIMMAX
 10
420.0
 20
297.0
  9
$UNITMODE
 70
     0
  9
$VISRETAIN
 70
     1
  9
$PLINEGEN
 70
     0
  9
$PSLTSCALE
 70
     1
  9
$TREEDEPTH
 70
  3020
  9
$PICKSTYLE
 70
     0
  9
$CMLSTYLE
  2
STANDARD
  9
$CMLJUST
 70
     0
  9
$CMLSCALE
 40
1.0
  9
$PROXYGRAPHICS
 70
     1
  9
$MEASUREMENT
 70
     1
  0
ENDSEC
  0
SECTION
  2
CLASSES
  0
CLASS
  1
ACDBDICTIONARYWDFLT
  2
AcDbDictionaryWithDefault
  3
AutoCAD 2000
 90
        0
280
     0
281
     0
  0
CLASS
  1
ACDBPLACEHOLDER
  2
AcDbPlaceHolder
  3
AutoCAD 2000
 90
        0
280
     0
281
     0
  0
CLASS
  1
LAYOUT
  2
AcDbLayout
  3
AutoCAD 2000
 90
        0
280
     0
281
     0
  0
CLASS
  1
AMGSETTINGSOBJ
  2
AmgSettingsObj
  3
"AcadM|Product Description: AutoCAD Mechanical 2000|Company: Autodesk"
 90
        0
280
     0
281
     0
  0
CLASS
  1
ACME_DOCUMENT
  2
AcMeDbDoc
  3
AcMeServices
 90
        0
280
     0
281
     0
  0
CLASS
  1
ACMESCOPE
  2
AcMeScope
  3
AcMeServices
 90
        0
280
     0
281
     0
  0
CLASS
  1
ACMECOMMANDHISTORY
  2
AcMeCommandHistory
  3
AcMeServices
 90
        0
280
     0
281
     0
  0
CLASS
  1
ACIMSYSVARMAN
  2
AcImSysVarManager
  3
AcMeServices
 90
        0
280
     0
281
     0
  0
CLASS
  1
ACIMREALSYSVAR
  2
AcImRealSysVar
  3
AcMeServices
 90
        0
280
     0
281
     0
  0
CLASS
  1
ACIMINTSYSVAR
  2
AcImIntSysVar
  3
AcMeServices
 90
        0
280
     0
281
     0
  0
CLASS
  1
ACMEDRAWINGMAN
  2
AcMeDrawingMan
  3
AcMeServices
 90
        0
280
     0
281
     0
  0
CLASS
  1
ACMEVIEW
  2
AcMeView
  3
AcMeServices
 90
        0
280
     0
281
     0
  0
CLASS
  1
ACDBENTITYCACHE
  2
AcMeEntityCache
  3
AcMeServices
 90
        0
280
     0
281
     0
  0
CLASS
  1
GSMANAGER
  2
AcMeGSManager
  3
AcMeServices
 90
        0
280
     0
281
     0
  0
CLASS
  1
AMDTINTERNALREACTOR
  2
AmdtInternalReactor
  3
AcMeServices
 90
        0
280
     0
281
     0
  0
CLASS
  1
ACMESTATEMGR
  2
AcMeStateMgr
  3
AcMeServices
 90
        0
280
     0
281
     0
  0
CLASS
  1
ACGREFMASTER
  2
AcGrefMaster
  3
AcAttribServices
 90
        0
280
     0
281
     0
  0
CLASS
  1
ACME_DATABASE
  2
AcMeDbDatabase
  3
AcMeServices
 90
        0
280
     0
281
     0
  0
CLASS
  1
ACRFINSADJUSTERMGR
  2
AcRfInsAdjusterMgr
  3
AcMeServices
 90
        0
280
     0
281
     0
  0
CLASS
  1
ACGREFACADMASTER
  2
AcGrefacadMaster
  3
AcGrefServices
 90
        0
280
     0
281
     0
  0
CLASS
  1
AMIMASTER
  2
AmiMaster
  3
AmiServices
 90
        0
280
     0
281
     0
  0
CLASS
  1
ACMDATADICTIONARY
  2
AcmDataDictionary
  3
"AcmSymBB|Product Description: AutoCAD Mechanical 2000|Company: Autodesk"
 90
        0
280
     0
281
     0
  0
CLASS
  1
ACMDATAENTRYBLOCK
  2
AcmDataEntryBlock
  3
"AcmSymBB|Product Description: AutoCAD Mechanical 2000|Company: Autodesk"
 90
        0
280
     0
281
     0
  0
CLASS
  1
ACIMSTRSYSVAR
  2
AcImStrSysVar
  3
AcMeServices
 90
        0
280
     0
281
     0
  0
CLASS
  1
ACMSTANDARDANSI
  2
AcmStandardANSI
  3
"Amdt_StdImp|Product Description: AutoCAD Mechanical 2000|Company: Autodesk"
 90
        0
280
     0
281
     0
  0
CLASS
  1
AMGOBJPROPCFG
  2
AmgObjPropCfg
  3
"AmgLay|Product Description: AutoCAD Mechanical 2000|Company: Autodesk"
 90
        1
280
     0
281
     0
  0
CLASS
  1
ACMSURFSTANDARDANSI
  2
AcmSurfTextStdANSI
  3
"Amdt_StdImp|Product Description: AutoCAD Mechanical 2000|Company: Autodesk"
 90
        0
280
     0
281
     0
  0
CLASS
  1
ACMFCFSTANDARDANSI
  2
AcmFCFStdANSI
  3
"Amdt_StdImp|Product Description: AutoCAD Mechanical 2000|Company: Autodesk"
 90
        0
280
     0
281
     0
  0
CLASS
  1
ACMWELDSTANDARDANSI
  2
AcmWeldingStdANSI
  3
"Amdt_StdImp|Product Description: AutoCAD Mechanical 2000|Company: Autodesk"
 90
        0
280
     0
281
     0
  0
CLASS
  1
ACMIDSTANDARDANSI
  2
AcmIdStdANSI
  3
"Amdt_StdImp|Product Description: AutoCAD Mechanical 2000|Company: Autodesk"
 90
        0
280
     0
281
     0
  0
CLASS
  1
ACMDATUMSTANDARDANSI
  2
AcmDatumStdANSI
  3
"Amdt_StdImp|Product Description: AutoCAD Mechanical 2000|Company: Autodesk"
 90
        0
280
     0
281
     0
  0
CLASS
  1
ACMBOMSTANDARDANSI
  2
AcmBOMStdANSI
  3
"Amdt_StdImp|Product Description: AutoCAD Mechanical 2000|Company: Autodesk"
 90
        0
280
     0
281
     0
  0
CLASS
  1
ACMDETAILSTANDARDANSI
  2
AmdtDetailSymStdANSI
  3
"Amdt_StdImp|Product Description: AutoCAD Mechanical 2000|Company: Autodesk"
 90
        0
280
     0
281
     0
  0
CLASS
  1
ACMSECTIONSTANDARDANSI
  2
AmdtSectionSymStdANSI
  3
"Amdt_StdImp|Product Description: AutoCAD Mechanical 2000|Company: Autodesk"
 90
        0
280
     0
281
     0
  0
CLASS
  1
ACMCENTERLINESTANDARDANSI
  2
AmdtCenterLineStdANSI
  3
"Amdt_StdImp|Product Description: AutoCAD Mechanical 2000|Company: Autodesk"
 90
        0
280
     0
281
     0
  0
CLASS
  1
ACMNOTESTANDARDANSI
  2
AmdtNoteStdANSI
  3
"Amdt_StdImp|Product Description: AutoCAD Mechanical 2000|Company: Autodesk"
 90
        0
280
     0
281
     0
  0
CLASS
  1
ACAMGLAYSTD
  2
AcAmgLayStd
  3
"AcAmgLayStd|Product Description: AutoCAD Mechanical 2000|Company: Autodesk"
 90
        0
280
     0
281
     0
  0
CLASS
  1
ACAMGDIMSTD
  2
AcAmgDimStd
  3
"AcAmgDimStd|Product Description: AutoCAD Mechanical 2000|Company: Autodesk"
 90
        0
280
     0
281
     0
  0
CLASS
  1
ACAMGHOLECHARTSTDANSI
  2
AcAmgHoleChartStdANSI
  3
ACMSYMBB_MODULE_NAME
 90
        0
280
     0
281
     0
  0
CLASS
  1
ACAMGTITLESTD
  2
AcAmgTitleStd
  3
"TITLEAPP"
 90
        0
280
     0
281
     0
  0
CLASS
  1
ACAMGFILTERDAT
  2
AcAmgFilterDat
  3
"AcadM|Product Description: AutoCAD Mechanical 2000|Company: Autodesk"
 90
        0
280
     0
281
     0
  0
CLASS
  1
LAYER_INDEX
  2
AcDbLayerIndex
  3
AutoCAD 2000
 90
        0
280
     0
281
     0
  0
CLASS
  1
IDBUFFER
  2
AcDbIdBuffer
  3
AutoCAD 2000
 90
        0
280
     0
281
     0
  0
CLASS
  1
DICTIONARYVAR
  2
AcDbDictionaryVar
  3
AutoCAD 2000
 90
        0
280
     0
281
     0
  0
CLASS
  1
ACMSTANDARDDIN
  2
AcmStandardDIN
  3
"Amdt_StdImp|Product Description: AutoCAD Mechanical 2000|Company: Autodesk"
 90
        0
280
     0
281
     0
  0
CLASS
  1
AMDTEDGESTANDARDDIN
  2
AmdtEdgeStdDIN
  3
"Amdt_StdImp|Product Description: AutoCAD Mechanical 2000|Company: Autodesk"
 90
        0
280
     0
281
     0
  0
CLASS
  1
ACMSURFSTANDARDDIN
  2
AcmSurfTextStdDIN
  3
"Amdt_StdImp|Product Description: AutoCAD Mechanical 2000|Company: Autodesk"
 90
        0
280
     0
281
     0
  0
CLASS
  1
ACMFCFSTANDARDDIN
  2
AcmFCFStdDIN
  3
"Amdt_StdImp|Product Description: AutoCAD Mechanical 2000|Company: Autodesk"
 90
        0
280
     0
281
     0
  0
CLASS
  1
ACMWELDSTANDARDDIN
  2
AcmWeldingStdDIN
  3
"Amdt_StdImp|Product Description: AutoCAD Mechanical 2000|Company: Autodesk"
 90
        0
280
     0
281
     0
  0
CLASS
  1
ACMIDSTANDARDDIN
  2
AcmIdStdDIN
  3
"Amdt_StdImp|Product Description: AutoCAD Mechanical 2000|Company: Autodesk"
 90
        0
280
     0
281
     0
  0
CLASS
  1
ACMDATUMSTANDARDDIN
  2
AcmDatumStdDIN
  3
"Amdt_StdImp|Product Description: AutoCAD Mechanical 2000|Company: Autodesk"
 90
        0
280
     0
281
     0
  0
CLASS
  1
ACMBOMSTANDARDDIN
  2
AcmBOMStdDIN
  3
"Amdt_StdImp|Product Description: AutoCAD Mechanical 2000|Company: Autodesk"
 90
        0
280
     0
281
     0
  0
CLASS
  1
ACMDETAILSTANDARDDIN
  2
AmdtDetailSymStdDIN
  3
"Amdt_StdImp|Product Description: AutoCAD Mechanical 2000|Company: Autodesk"
 90
        0
280
     0
281
     0
  0
CLASS
  1
ACMSECTIONSTANDARDDIN
  2
AmdtSectionSymStdDIN
  3
"Amdt_StdImp|Product Description: AutoCAD Mechanical 2000|Company: Autodesk"
 90
        0
280
     0
281
     0
  0
CLASS
  1
ACMCENTERLINESTANDARDDIN
  2
AmdtCenterLineStdDIN
  3
"Amdt_StdImp|Product Description: AutoCAD Mechanical 2000|Company: Autodesk"
 90
        0
280
     0
281
     0
  0
CLASS
  1
ACMNOTESTANDARDDIN
  2
AmdtNoteStdDIN
  3
"Amdt_StdImp|Product Description: AutoCAD Mechanical 2000|Company: Autodesk"
 90
        0
280
     0
281
     0
  0
CLASS
  1
ACAMGHOLECHARTSTDDIN
  2
AcAmgHoleChartStdDIN
  3
ACMSYMBB_MODULE_NAME
 90
        0
280
     0
281
     0
  0
CLASS
  1
AMDTFORMULAUPDATEDISPATCHER
  2
AmdtFormulaUpdateDispatcher
  3
AcMeServices
 90
        0
280
     0
281
     0
  0
CLASS
  1
ACMSURFSYM
  2
AcmSurfaceTexture
  3
"AcmSymBB|Product Description: AutoCAD Mechanical 2000|Company: Autodesk"
 90
     1023
280
     0
281
     1
  0
CLASS
  1
ACMSTANDARDBSI
  2
AcmStandardBSI
  3
"Amdt_StdImp|Product Description: AutoCAD Mechanical 2000|Company: Autodesk"
 90
        0
280
     0
281
     0
  0
CLASS
  1
ACMSURFSTANDARDBSI
  2
AcmSurfTextStdBSI
  3
"Amdt_StdImp|Product Description: AutoCAD Mechanical 2000|Company: Autodesk"
 90
        0
280
     0
281
     0
  0
CLASS
  1
ACMFCFSTANDARDBSI
  2
AcmFCFStdBSI
  3
"Amdt_StdImp|Product Description: AutoCAD Mechanical 2000|Company: Autodesk"
 90
        0
280
     0
281
     0
  0
CLASS
  1
ACMWELDSTANDARDBSI
  2
AcmWeldingStdBSI
  3
"Amdt_StdImp|Product Description: AutoCAD Mechanical 2000|Company: Autodesk"
 90
        0
280
     0
281
     0
  0
CLASS
  1
ACMIDSTANDARDBSI
  2
AcmIdStdBSI
  3
"Amdt_StdImp|Product Description: AutoCAD Mechanical 2000|Company: Autodesk"
 90
        0
280
     0
281
     0
  0
CLASS
  1
ACMDATUMSTANDARDBSI
  2
AcmDatumStdBSI
  3
"Amdt_StdImp|Product Description: AutoCAD Mechanical 2000|Company: Autodesk"
 90
        0
280
     0
281
     0
  0
CLASS
  1
ACMBOMSTANDARDBSI
  2
AcmBOMStdBSI
  3
"Amdt_StdImp|Product Description: AutoCAD Mechanical 2000|Company: Autodesk"
 90
        0
280
     0
281
     0
  0
CLASS
  1
ACMDETAILSTANDARDBSI
  2
AmdtDetailSymStdBSI
  3
"Amdt_StdImp|Product Description: AutoCAD Mechanical 2000|Company: Autodesk"
 90
        0
280
     0
281
     0
  0
CLASS
  1
ACMSECTIONSTANDARDBSI
  2
AmdtSectionSymStdBSI
  3
"Amdt_StdImp|Product Description: AutoCAD Mechanical 2000|Company: Autodesk"
 90
        0
280
     0
281
     0
  0
CLASS
  1
ACMCENTERLINESTANDARDBSI
  2
AmdtCenterLineStdBSI
  3
"Amdt_StdImp|Product Description: AutoCAD Mechanical 2000|Company: Autodesk"
 90
        0
280
     0
281
     0
  0
CLASS
  1
ACMTHREADLINESTANDARDBSI
  2
AmdtThreadLineStdBSI
  3
"Amdt_StdImp|Product Description: AutoCAD Mechanical 2000|Company: Autodesk"
 90
        0
280
     0
281
     0
  0
CLASS
  1
ACMNOTESTANDARDBSI
  2
AmdtNoteStdBSI
  3
"Amdt_StdImp|Product Description: AutoCAD Mechanical 2000|Company: Autodesk"
 90
        0
280
     0
281
     0
  0
CLASS
  1
ACMSTANDARDISO
  2
AcmStandardISO
  3
"Amdt_StdImp|Product Description: AutoCAD Mechanical 2000|Company: Autodesk"
 90
        0
280
     0
281
     0
  0
CLASS
  1
AMDTEDGESTANDARDISO
  2
AmdtEdgeStdISO
  3
"Amdt_StdImp|Product Description: AutoCAD Mechanical 2000|Company: Autodesk"
 90
        0
280
     0
281
     0
  0
CLASS
  1
ACMSURFSTANDARDISO
  2
AcmSurfTextStdISO
  3
"Amdt_StdImp|Product Description: AutoCAD Mechanical 2000|Company: Autodesk"
 90
        0
280
     0
281
     0
  0
CLASS
  1
ACMFCFSTANDARDISO
  2
AcmFCFStdISO
  3
"Amdt_StdImp|Product Description: AutoCAD Mechanical 2000|Company: Autodesk"
 90
        0
280
     0
281
     0
  0
CLASS
  1
ACMWELDSTANDARDISO
  2
AcmWeldingStdISO
  3
"Amdt_StdImp|Product Description: AutoCAD Mechanical 2000|Company: Autodesk"
 90
        0
280
     0
281
     0
  0
CLASS
  1
ACMIDSTANDARDISO
  2
AcmIdStdISO
  3
"Amdt_StdImp|Product Description: AutoCAD Mechanical 2000|Company: Autodesk"
 90
        0
280
     0
281
     0
  0
CLASS
  1
ACMDATUMSTANDARDISO
  2
AcmDatumStdISO
  3
"Amdt_StdImp|Product Description: AutoCAD Mechanical 2000|Company: Autodesk"
 90
        0
280
     0
281
     0
  0
CLASS
  1
ACMBOMSTANDARDISO
  2
AcmBOMStdISO
  3
"Amdt_StdImp|Product Description: AutoCAD Mechanical 2000|Company: Autodesk"
 90
        0
280
     0
281
     0
  0
CLASS
  1
ACMDETAILSTANDARDISO
  2
AmdtDetailSymStdISO
  3
"Amdt_StdImp|Product Description: AutoCAD Mechanical 2000|Company: Autodesk"
 90
        0
280
     0
281
     0
  0
CLASS
  1
ACMSECTIONSTANDARDISO
  2
AmdtSectionSymStdISO
  3
"Amdt_StdImp|Product Description: AutoCAD Mechanical 2000|Company: Autodesk"
 90
        0
280
     0
281
     0
  0
CLASS
  1
ACMCENTERLINESTANDARDISO
  2
AmdtCenterLineStdISO
  3
"Amdt_StdImp|Product Description: AutoCAD Mechanical 2000|Company: Autodesk"
 90
        0
280
     0
281
     0
  0
CLASS
  1
ACMTHREADLINESTANDARDISO
  2
AmdtThreadLineStdISO
  3
"Amdt_StdImp|Product Description: AutoCAD Mechanical 2000|Company: Autodesk"
 90
        0
280
     0
281
     0
  0
CLASS
  1
ACMNOTESTANDARDISO
  2
AmdtNoteStdISO
  3
"Amdt_StdImp|Product Description: AutoCAD Mechanical 2000|Company: Autodesk"
 90
        0
280
     0
281
     0
  0
CLASS
  1
ACMSTANDARDJIS
  2
AcmStandardJIS
  3
"Amdt_StdImp|Product Description: AutoCAD Mechanical 2000|Company: Autodesk"
 90
        0
280
     0
281
     0
  0
CLASS
  1
ACMSURFSTANDARDJIS
  2
AcmSurfTextStdJIS
  3
"Amdt_StdImp|Product Description: AutoCAD Mechanical 2000|Company: Autodesk"
 90
        0
280
     0
281
     0
  0
CLASS
  1
ACMFCFSTANDARDJIS98
  2
AcmFCFStdJIS98
  3
"Amdt_StdImp|Product Description: AutoCAD Mechanical 2000|Company: Autodesk"
 90
        0
280
     0
281
     0
  0
CLASS
  1
ACMWELDSTANDARDJIS
  2
AcmWeldingStdJIS
  3
"Amdt_StdImp|Product Description: AutoCAD Mechanical 2000|Company: Autodesk"
 90
        0
280
     0
281
     0
  0
CLASS
  1
ACMIDSTANDARDJIS
  2
AcmIdStdJIS
  3
"Amdt_StdImp|Product Description: AutoCAD Mechanical 2000|Company: Autodesk"
 90
        0
280
     0
281
     0
  0
CLASS
  1
ACMDATUMSTANDARDJIS
  2
AcmDatumStdJIS
  3
"Amdt_StdImp|Product Description: AutoCAD Mechanical 2000|Company: Autodesk"
 90
        0
280
     0
281
     0
  0
CLASS
  1
ACMBOMSTANDARDJIS
  2
AcmBOMStdJIS
  3
"Amdt_StdImp|Product Description: AutoCAD Mechanical 2000|Company: Autodesk"
 90
        0
280
     0
281
     0
  0
CLASS
  1
ACMDETAILSTANDARDJIS
  2
AmdtDetailSymStdJIS
  3
"Amdt_StdImp|Product Description: AutoCAD Mechanical 2000|Company: Autodesk"
 90
        0
280
     0
281
     0
  0
CLASS
  1
ACMSECTIONSTANDARDJIS
  2
AmdtSectionSymStdJIS
  3
"Amdt_StdImp|Product Description: AutoCAD Mechanical 2000|Company: Autodesk"
 90
        0
280
     0
281
     0
  0
CLASS
  1
ACMCENTERLINESTANDARDJIS
  2
AmdtCenterLineStdJIS
  3
"Amdt_StdImp|Product Description: AutoCAD Mechanical 2000|Company: Autodesk"
 90
        0
280
     0
281
     0
  0
CLASS
  1
ACMTHREADLINESTANDARDJIS
  2
AmdtThreadLineStdJIS
  3
"Amdt_StdImp|Product Description: AutoCAD Mechanical 2000|Company: Autodesk"
 90
        0
280
     0
281
     0
  0
CLASS
  1
ACMNOTESTANDARDJIS
  2
AmdtNoteStdJIS
  3
"Amdt_StdImp|Product Description: AutoCAD Mechanical 2000|Company: Autodesk"
 90
        0
280
     0
281
     0
  0
CLASS
  1
LONG_TRANSACTION
  2
AcDbLongTransaction
  3
AutoCAD 2000
 90
        0
280
     0
281
     0
  0
CLASS
  1
LWPOLYLINE
  2
AcDbPolyline
  3
AutoCAD 2000
 90
        0
280
     0
281
     1
  0
CLASS
  1
HATCH
  2
AcDbHatch
  3
AutoCAD 2000
 90
        0
280
     0
281
     1
  0
CLASS
  1
XRECORD
  2
AcDbXrecord
  3
AutoCAD 2000
 90
        0
280
     0
281
     0
  0
ENDSEC
  0
SECTION
  2
TABLES
  0
TABLE
  2
VPORT
  5
6A1E
330
0
100
AcDbSymbolTable
 70
     4
  0
VPORT
  5
9E14
330
6A1E
100
AcDbSymbolTableRecord
100
AcDbViewportTableRecord
  2
*ACTIVE
 70
     0
 10
0.0
 20
0.0
 11
1.0
 21
1.0
 12
4.343144307784569
 22
-7.731403019114935
 13
0.0
 23
0.0
 14
2.5
 24
2.5
 15
10.0
 25
10.0
 16
0.0
 26
0.0
 36
767.7808751490076
 17
68.36373231284814
 27
144.2212100958965
 37
0.0
 40
324.6072058000283
 41
1.716417910447761
 42
50.0
 43
0.0
 44
0.0
 50
0.0
 51
0.0
 71
     0
 72
 10000
 73
     1
 74
     3
 75
     0
 76
     0
 77
     0
 78
     0
  0
ENDTAB
  0
TABLE
  2
LTYPE
  5
6A1B
330
0
100
AcDbSymbolTable
 70
    24
  0
LTYPE
  5
6A29
330
6A1B
100
AcDbSymbolTableRecord
100
AcDbLinetypeTableRecord
  2
BYBLOCK
 70
     0
  3

 72
    65
 73
     0
 40
0.0
  0
LTYPE
  5
6A2A
330
6A1B
100
AcDbSymbolTableRecord
100
AcDbLinetypeTableRecord
  2
BYLAYER
 70
     0
  3

 72
    65
 73
     0
 40
0.0
  0
LTYPE
  5
6A2B
330
6A1B
100
AcDbSymbolTableRecord
100
AcDbLinetypeTableRecord
  2
CONTINUOUS
 70
     0
  3
Solid line
 72
    65
 73
     0
 40
0.0
  0
LTYPE
  5
6A39
330
6A1B
100
AcDbSymbolTableRecord
100
AcDbLinetypeTableRecord
  2
AMCONSTR
 70
     0
  3
_______________________
 72
    65
 73
     2
 40
9999.0
 49
9999.0
 74
     0
 49
0.0
 74
     0
  0
LTYPE
  5
6A43
330
6A1B
100
AcDbSymbolTableRecord
100
AcDbLinetypeTableRecord
  2
CENTER
 70
     0
  3
__ . __
 72
    65
 73
     4
 40
7.0
 49
4.0
 74
     0
 49
-1.0
 74
     0
 49
1.0
 74
     0
 49
-1.0
 74
     0
  0
LTYPE
  5
6A45
330
6A1B
100
AcDbSymbolTableRecord
100
AcDbLinetypeTableRecord
  2
PHANTOM2
 70
     0
  3
Phantom (.5x) ___ _ _ ___ _ _ ___ _ _ ___ _ _
 72
    65
 73
     6
 40
1.25
 49
0.625
 74
     0
 49
-0.125
 74
     0
 49
0.125
 74
     0
 49
-0.125
 74
     0
 49
0.125
 74
     0
 49
-0.125
 74
     0
  0
LTYPE
  5
6A46
330
6A1B
100
AcDbSymbolTableRecord
100
AcDbLinetypeTableRecord
  2
ACANSTGB
 70
     0
  3
__ . . __ . .
 72
    65
 73
     6
 40
0.35433070866
 49
0.15748031496
 74
     0
 49
-0.03937007874
 74
     0
 49
0.03937007874
 74
     0
 49
-0.03937007874
 74
     0
 49
0.03937007874
 74
     0
 49
-0.03937007874
 74
     0
  0
LTYPE
  5
6A47
330
6A1B
100
AcDbSymbolTableRecord
100
AcDbLinetypeTableRecord
  2
ACANSTGL
 70
     0
  3
_ _ _ _ _
 72
    65
 73
     2
 40
0.11811023622
 49
0.07874015748
 74
     0
 49
-0.03937007874
 74
     0
  0
LTYPE
  5
6D97
330
6A1B
100
AcDbSymbolTableRecord
100
AcDbLinetypeTableRecord
  2
ACDINWELD
 70
     0
  3
_ _ _ _ _
 72
    65
 73
     2
 40
2.0
 49
2.0
 74
     0
 49
-1.0
 74
     0
  0
LTYPE
  5
6D98
330
6A1B
100
AcDbSymbolTableRecord
100
AcDbLinetypeTableRecord
  2
ACDINTGB
 70
     0
  3
__ . . __ . .
 72
    65
 73
     6
 40
9.0
 49
4.0
 74
     0
 49
-1.0
 74
     0
 49
1.0
 74
     0
 49
-1.0
 74
     0
 49
1.0
 74
     0
 49
-1.0
 74
     0
  0
LTYPE
  5
6D99
330
6A1B
100
AcDbSymbolTableRecord
100
AcDbLinetypeTableRecord
  2
ACDINTGL
 70
     0
  3
_ _ _ _ _
 72
    65
 73
     2
 40
3.0
 49
2.0
 74
     0
 49
-1.0
 74
     0
  0
LTYPE
  5
8543
330
6A1B
100
AcDbSymbolTableRecord
100
AcDbLinetypeTableRecord
  2
AMZIGZAG
 70
     0
  3
/\/-/\/-/\/-/\/-/\/-/\/
 72
    65
 73
     2
 40
11.00009999999999
 49
0.0001
 74
     4
 75
   135
340
6A5B
 46
0.04
 50
0.0
 44
0.0
 45
0.0
 49
-11.0
 74
     0
  0
LTYPE
  5
8544
330
6A1B
100
AcDbSymbolTableRecord
100
AcDbLinetypeTableRecord
  2
AM_DIN_F_W050
 70
     0
  3
__ __ __ __ __ __ __ __ __ __ __ __ __ __ __
 72
    65
 73
     2
 40
6.25
 49
4.75
 74
     0
 49
-1.5
 74
     0
  0
LTYPE
  5
8545
330
6A1B
100
AcDbSymbolTableRecord
100
AcDbLinetypeTableRecord
  2
AM_DIN_G_W050
 70
     0
  3
____ . ____ . ____ . ____ . ____ . ____ . ____
 72
    65
 73
     4
 40
13.75
 49
9.75
 74
     0
 49
-1.5
 74
     0
 49
1.0
 74
     0
 49
-1.5
 74
     0
  0
LTYPE
  5
8546
330
6A1B
100
AcDbSymbolTableRecord
100
AcDbLinetypeTableRecord
  2
AM_DIN_K_W050
 70
     0
  3
_____ . . _____ . . _____ . . ____ .. ____
 72
    65
 73
     6
 40
16.25
 49
9.75
 74
     0
 49
-1.5
 74
     0
 49
1.0
 74
     0
 49
-1.5
 74
     0
 49
1.0
 74
     0
 49
-1.5
 74
     0
  0
LTYPE
  5
8547
330
6A1B
100
AcDbSymbolTableRecord
100
AcDbLinetypeTableRecord
  2
AM_DIN_G_W050X2
 70
     0
  3
__ . __ . __ . __ . __ . __
 72
    65
 73
     4
 40
6.875
 49
4.75
 74
     0
 49
-0.875
 74
     0
 49
0.375
 74
     0
 49
-0.875
 74
     0
  0
LTYPE
  5
8548
330
6A1B
100
AcDbSymbolTableRecord
100
AcDbLinetypeTableRecord
  2
AM_DIN_F_W050X2
 70
     0
  3
 _ _ _ _ _ _ _ _ _ _ _ _
 72
    65
 73
     2
 40
3.125
 49
2.25
 74
     0
 49
-0.875
 74
     0
  0
LTYPE
  5
8E88
330
6A1B
100
AcDbSymbolTableRecord
100
AcDbLinetypeTableRecord
  2
DASHED
 70
     0
  3
__ __ __ __ __ __ __ __ __ __ __ __ __ __ __ __
 72
    65
 73
     2
 40
19.05
 49
12.7
 74
     0
 49
-6.349999999999998
 74
     0
  0
LTYPE
  5
995C
330
6A1B
100
AcDbSymbolTableRecord
100
AcDbLinetypeTableRecord
  2
ACJISTGB
 70
     0
  3
__ . . __ . .
 72
    65
 73
     6
 40
9.0
 49
4.0
 74
     0
 49
-1.0
 74
     0
 49
1.0
 74
     0
 49
-1.0
 74
     0
 49
1.0
 74
     0
 49
-1.0
 74
     0
  0
LTYPE
  5
995D
330
6A1B
100
AcDbSymbolTableRecord
100
AcDbLinetypeTableRecord
  2
ACJISTGL
 70
     0
  3
_ _ _ _ _
 72
    65
 73
     2
 40
3.0
 49
2.0
 74
     0
 49
-1.0
 74
     0
  0
LTYPE
  5
995E
330
6A1B
100
AcDbSymbolTableRecord
100
AcDbLinetypeTableRecord
  2
ACBSIWELD
 70
     0
  3
_ _ _ _ _
 72
    65
 73
     2
 40
2.0
 49
2.0
 74
     0
 49
-1.0
 74
     0
  0
LTYPE
  5
995F
330
6A1B
100
AcDbSymbolTableRecord
100
AcDbLinetypeTableRecord
  2
ACBSITGB
 70
     0
  3
__ . . __ . .
 72
    65
 73
     6
 40
9.0
 49
4.0
 74
     0
 49
-1.0
 74
     0
 49
1.0
 74
     0
 49
-1.0
 74
     0
 49
1.0
 74
     0
 49
-1.0
 74
     0
  0
LTYPE
  5
9960
330
6A1B
100
AcDbSymbolTableRecord
100
AcDbLinetypeTableRecord
  2
ACBSITGL
 70
     0
  3
_ _ _ _ _
 72
    65
 73
     2
 40
3.0
 49
2.0
 74
     0
 49
-1.0
 74
     0
  0
LTYPE
  5
9961
330
6A1B
100
AcDbSymbolTableRecord
100
AcDbLinetypeTableRecord
  2
ACISOWELD
 70
     0
  3
_ _ _ _ _
 72
    65
 73
     2
 40
2.0
 49
2.0
 74
     0
 49
-1.0
 74
     0
  0
LTYPE
  5
9962
330
6A1B
100
AcDbSymbolTableRecord
100
AcDbLinetypeTableRecord
  2
ACISOTGB
 70
     0
  3
__ . . __ . .
 72
    65
 73
     6
 40
9.0
 49
4.0
 74
     0
 49
-1.0
 74
     0
 49
1.0
 74
     0
 49
-1.0
 74
     0
 49
1.0
 74
     0
 49
-1.0
 74
     0
  0
LTYPE
  5
9963
330
6A1B
100
AcDbSymbolTableRecord
100
AcDbLinetypeTableRecord
  2
ACISOTGL
 70
     0
  3
_ _ _ _ _
 72
    65
 73
     2
 40
3.0
 49
2.0
 74
     0
 49
-1.0
 74
     0
  0
ENDTAB
  0
TABLE
  2
LAYER
  5
6A18
330
0
100
AcDbSymbolTable
 70
    13
  0
LAYER
  5
6A26
330
6A18
100
AcDbSymbolTableRecord
100
AcDbLayerTableRecord
  2
0
 70
     0
 62
     7
  6
CONTINUOUS
  0
LAYER
  5
6A4B
330
6A18
100
AcDbSymbolTableRecord
100
AcDbLayerTableRecord
  2
DEFPOINTS
 70
     0
 62
     7
  6
CONTINUOUS
  0
LAYER
  5
6A4C
330
6A18
100
AcDbSymbolTableRecord
100
AcDbLayerTableRecord
  2
1
 70
     0
 62
     4
  6
CONTINUOUS
  0
LAYER
  5
6A4D
330
6A18
100
AcDbSymbolTableRecord
100
AcDbLayerTableRecord
  2
2
 70
     0
 62
     7
  6
CONTINUOUS
  0
LAYER
  5
6A4F
330
6A18
100
AcDbSymbolTableRecord
100
AcDbLayerTableRecord
  2
4
 70
     0
 62
     2
  6
CENTER
  0
LAYER
  5
6A50
330
6A18
100
AcDbSymbolTableRecord
100
AcDbLayerTableRecord
  2
6
 70
     0
 62
     5
  6
CONTINUOUS
  0
LAYER
  5
6A53
330
6A18
100
AcDbSymbolTableRecord
100
AcDbLayerTableRecord
  2
SK1
 70
     0
 62
     4
  6
CONTINUOUS
  0
LAYER
  5
6A54
330
6A18
100
AcDbSymbolTableRecord
100
AcDbLayerTableRecord
  2
SK2
 70
     0
 62
     7
  6
CONTINUOUS
  0
LAYER
  5
6A56
330
6A18
100
AcDbSymbolTableRecord
100
AcDbLayerTableRecord
  2
SK4
 70
     0
 62
     2
  6
CENTER
  0
LAYER
  5
6A57
330
6A18
100
AcDbSymbolTableRecord
100
AcDbLayerTableRecord
  2
CUT
 70
     0
 62
     1
  6
CONTINUOUS
  0
LAYER
  5
6A58
330
6A18
100
AcDbSymbolTableRecord
100
AcDbLayerTableRecord
  2
NOCUT
 70
     0
 62
     7
  6
CONTINUOUS
  0
LAYER
  5
8E89
330
6A18
100
AcDbSymbolTableRecord
100
AcDbLayerTableRecord
  2
SK3
 70
     0
 62
     1
  6
DASHED
  0
LAYER
  5
8E8A
330
6A18
100
AcDbSymbolTableRecord
100
AcDbLayerTableRecord
  2
SK6
 70
     0
 62
     5
  6
CONTINUOUS
  0
ENDTAB
  0
TABLE
  2
STYLE
  5
6A19
330
0
100
AcDbSymbolTable
 70
    12
  0
STYLE
  5
6A27
330
6A19
100
AcDbSymbolTableRecord
100
AcDbTextStyleTableRecord
  2
STANDARD
 70
     0
 40
0.0
 41
1.0
 50
0.0
 71
     0
 42
2.5
  3
ISOCP.SHX
  4

  0
STYLE
  5
6A5B
330
6A19
100
AcDbSymbolTableRecord
100
AcDbTextStyleTableRecord
  2

 70
     1
 40
0.0
 41
1.0
 50
0.0
 71
     0
 42
2.5
  3
ltypeshp.shx
  4

  0
STYLE
  5
6A5E
330
6A19
100
AcDbSymbolTableRecord
100
AcDbTextStyleTableRecord
  2
ACANSTS
 70
     0
 40
1.0
 41
1.0
 50
0.0
 71
     0
 42
0.2
  3
romans.shx
  4

  0
STYLE
  5
6A5F
330
6A19
100
AcDbSymbolTableRecord
100
AcDbTextStyleTableRecord
  2
ACANSGDT
 70
     0
 40
0.0
 41
1.0
 50
0.0
 71
     0
 42
0.2
  3
amgdtans.shx
  4

  0
STYLE
  5
6D9A
330
6A19
100
AcDbSymbolTableRecord
100
AcDbTextStyleTableRecord
  2
ACDINTS
 70
     0
 40
1.0
 41
1.0
 50
0.0
 71
     0
 42
2.5
  3
isocp.shx
  4

  0
STYLE
  5
6D9B
330
6A19
100
AcDbSymbolTableRecord
100
AcDbTextStyleTableRecord
  2
ACDINGDT
 70
     0
 40
0.0
 41
1.0
 50
0.0
 71
     0
 42
2.5
  3
amgdt.shx
  4

  0
STYLE
  5
9965
330
6A19
100
AcDbSymbolTableRecord
100
AcDbTextStyleTableRecord
  2
ACJISTS
 70
     0
 40
1.0
 41
1.0
 50
0.0
 71
     0
 42
3.5
  3
isocp.shx
  4
bigfont.shx
  0
STYLE
  5
9966
330
6A19
100
AcDbSymbolTableRecord
100
AcDbTextStyleTableRecord
  2
ACJISGDT
 70
     0
 40
0.0
 41
1.0
 50
0.0
 71
     0
 42
3.5
  3
amgdt.shx
  4

  0
STYLE
  5
9967
330
6A19
100
AcDbSymbolTableRecord
100
AcDbTextStyleTableRecord
  2
ACBSITS
 70
     0
 40
1.0
 41
1.0
 50
0.0
 71
     0
 42
3.5
  3
isocp.shx
  4

  0
STYLE
  5
9968
330
6A19
100
AcDbSymbolTableRecord
100
AcDbTextStyleTableRecord
  2
ACBSIGDT
 70
     0
 40
0.0
 41
1.0
 50
0.0
 71
     0
 42
3.5
  3
amgdt.shx
  4

  0
STYLE
  5
9969
330
6A19
100
AcDbSymbolTableRecord
100
AcDbTextStyleTableRecord
  2
ACISOTS
 70
     0
 40
1.0
 41
1.0
 50
0.0
 71
     0
 42
3.5
  3
isocp.shx
  4

  0
STYLE
  5
996A
330
6A19
100
AcDbSymbolTableRecord
100
AcDbTextStyleTableRecord
  2
ACISOGDT
 70
     0
 40
0.0
 41
1.0
 50
0.0
 71
     0
 42
3.5
  3
amgdt.shx
  4

  0
ENDTAB
  0
TABLE
  2
VIEW
  5
6A1C
330
0
100
AcDbSymbolTable
 70
     6
  0
VIEW
  5
6A60
330
6A1C
100
AcDbSymbolTableRecord
100
AcDbViewTableRecord
  2
AM_VIEW1
 70
     0
 40
148.5
 10
131.508173076923
 20
222.75
 41
263.016346153846
 11
0.0
 21
0.0
 31
1.0
 12
0.0
 22
0.0
 32
0.0
 42
50.0
 43
0.0
 44
0.0
 50
0.0
 71
    16
  0
VIEW
  5
6A61
330
6A1C
100
AcDbSymbolTableRecord
100
AcDbViewTableRecord
  2
AM_VIEW2
 70
     0
 40
148.5
 10
78.4918269230769
 20
222.75
 41
263.016346153846
 11
0.0
 21
0.0
 31
1.0
 12
0.0
 22
0.0
 32
0.0
 42
50.0
 43
0.0
 44
0.0
 50
0.0
 71
    16
  0
VIEW
  5
6A62
330
6A1C
100
AcDbSymbolTableRecord
100
AcDbViewTableRecord
  2
AM_VIEW3
 70
     0
 40
148.5
 10
131.508173076923
 20
74.25
 41
263.016346153846
 11
0.0
 21
0.0
 31
1.0
 12
0.0
 22
0.0
 32
0.0
 42
50.0
 43
0.0
 44
0.0
 50
0.0
 71
    16
  0
VIEW
  5
6A63
330
6A1C
100
AcDbSymbolTableRecord
100
AcDbViewTableRecord
  2
AM_VIEW4
 70
     0
 40
148.5
 10
78.4918269230769
 20
74.25
 41
263.016346153846
 11
0.0
 21
0.0
 31
1.0
 12
0.0
 22
0.0
 32
0.0
 42
50.0
 43
0.0
 44
0.0
 50
0.0
 71
    16
  0
VIEW
  5
6A64
330
6A1C
100
AcDbSymbolTableRecord
100
AcDbViewTableRecord
  2
AM_VIEW5
 70
     0
 40
148.5
 10
105.0
 20
148.5
 41
263.016346153846
 11
0.0
 21
0.0
 31
1.0
 12
0.0
 22
0.0
 32
0.0
 42
50.0
 43
0.0
 44
0.0
 50
0.0
 71
    16
  0
VIEW
  5
6A65
330
6A1C
100
AcDbSymbolTableRecord
100
AcDbViewTableRecord
  2
AM_VIEW6
 70
     0
 40
296.9970299999999
 10
105.0
 20
148.5
 41
526.0274319807693
 11
0.0
 21
0.0
 31
1.0
 12
0.0
 22
0.0
 32
0.0
 42
50.0
 43
0.0
 44
0.0
 50
0.0
 71
    16
  0
ENDTAB
  0
TABLE
  2
UCS
  5
6A1D
330
0
100
AcDbSymbolTable
 70
     0
  0
ENDTAB
  0
TABLE
  2
APPID
  5
6A1F
330
0
100
AcDbSymbolTable
 70
    59
  0
APPID
  5
6A28
330
6A1F
100
AcDbSymbolTableRecord
100
AcDbRegAppTableRecord
  2
ACAD
 70
     0
  0
APPID
  5
6A66
330
6A1F
100
AcDbSymbolTableRecord
100
AcDbRegAppTableRecord
  2
MCAD_NO_VIS
 70
     0
  0
APPID
  5
6A67
330
6A1F
100
AcDbSymbolTableRecord
100
AcDbRegAppTableRecord
  2
ACAD_TEMP_GRAPHIC
 70
     0
  0
APPID
  5
6A68
330
6A1F
100
AcDbSymbolTableRecord
100
AcDbRegAppTableRecord
  2
ACATTRIBSERVICES
 70
     0
  0
APPID
  5
6A69
330
6A1F
100
AcDbSymbolTableRecord
100
AcDbRegAppTableRecord
  2
GENIUS_GENDIMSH_14
 70
     0
  0
APPID
  5
6A6A
330
6A1F
100
AcDbSymbolTableRecord
100
AcDbRegAppTableRecord
  2
GENIUS_GENBLLY_14
 70
     0
  0
APPID
  5
6A6B
330
6A1F
100
AcDbSymbolTableRecord
100
AcDbRegAppTableRecord
  2
GENIUS_GENTRA_14
 70
     0
  0
APPID
  5
6A6C
330
6A1F
100
AcDbSymbolTableRecord
100
AcDbRegAppTableRecord
  2
GENIUS_GENODEF_13
 70
     0
  0
APPID
  5
6A6D
330
6A1F
100
AcDbSymbolTableRecord
100
AcDbRegAppTableRecord
  2
GENIUS_GENOLIS_13
 70
     0
  0
APPID
  5
6A6E
330
6A1F
100
AcDbSymbolTableRecord
100
AcDbRegAppTableRecord
  2
GENIUS_GENOENT_13
 70
     0
  0
APPID
  5
6A6F
330
6A1F
100
AcDbSymbolTableRecord
100
AcDbRegAppTableRecord
  2
GENIUS_GENOBJ-N-TIT_13
 70
     0
  0
APPID
  5
6A70
330
6A1F
100
AcDbSymbolTableRecord
100
AcDbRegAppTableRecord
  2
GENIUS_GENTITLE_13
 70
     0
  0
APPID
  5
6A71
330
6A1F
100
AcDbSymbolTableRecord
100
AcDbRegAppTableRecord
  2
GENIUS_GENOREF_13
 70
     0
  0
APPID
  5
6A72
330
6A1F
100
AcDbSymbolTableRecord
100
AcDbRegAppTableRecord
  2
GENIUS_GENSCREG_15
 70
     0
  0
APPID
  5
6A73
330
6A1F
100
AcDbSymbolTableRecord
100
AcDbRegAppTableRecord
  2
GENIUS_GENOBJ-N-SDF_13
 70
     0
  0
APPID
  5
6A74
330
6A1F
100
AcDbSymbolTableRecord
100
AcDbRegAppTableRecord
  2
ACADIGES
 70
     0
  0
APPID
  5
6A75
330
6A1F
100
AcDbSymbolTableRecord
100
AcDbRegAppTableRecord
  2
GENIUS_GENOBJ-N-HTC_13
 70
     0
  0
APPID
  5
6A76
330
6A1F
100
AcDbSymbolTableRecord
100
AcDbRegAppTableRecord
  2
GENIUS_GENHATCH_13
 70
     0
  0
APPID
  5
6DA2
330
6A1F
100
AcDbSymbolTableRecord
100
AcDbRegAppTableRecord
  2
GENIUS_GENOBJ-N-CRS_13
 70
     0
  0
APPID
  5
6DA3
330
6A1F
100
AcDbSymbolTableRecord
100
AcDbRegAppTableRecord
  2
GENIUS_GENOBJ-N-FIL_13
 70
     0
  0
APPID
  5
6DD2
330
6A1F
100
AcDbSymbolTableRecord
100
AcDbRegAppTableRecord
  2
GENIUS_GENFIL_13
 70
     0
  0
APPID
  5
6DD3
330
6A1F
100
AcDbSymbolTableRecord
100
AcDbRegAppTableRecord
  2
GENIUS_GENOBJ-N-CHA_13
 70
     0
  0
APPID
  5
7FA8
330
6A1F
100
AcDbSymbolTableRecord
100
AcDbRegAppTableRecord
  2
GENIUS12
 70
     0
  0
APPID
  5
7FA9
330
6A1F
100
AcDbSymbolTableRecord
100
AcDbRegAppTableRecord
  2
GENIUS_GENCFG_13
 70
     0
  0
APPID
  5
7FAA
330
6A1F
100
AcDbSymbolTableRecord
100
AcDbRegAppTableRecord
  2
GENIUS_GEFCFG0_13
 70
     0
  0
APPID
  5
7FAB
330
6A1F
100
AcDbSymbolTableRecord
100
AcDbRegAppTableRecord
  2
GENIUS_GENCFG0_13
 70
     0
  0
APPID
  5
7FAC
330
6A1F
100
AcDbSymbolTableRecord
100
AcDbRegAppTableRecord
  2
GENIUS_GENCFG1_13
 70
     0
  0
APPID
  5
7FAD
330
6A1F
100
AcDbSymbolTableRecord
100
AcDbRegAppTableRecord
  2
GENIUS_GENCFG2_13
 70
     0
  0
APPID
  5
7FAE
330
6A1F
100
AcDbSymbolTableRecord
100
AcDbRegAppTableRecord
  2
GENIUS_GENCFG3_13
 70
     0
  0
APPID
  5
7FAF
330
6A1F
100
AcDbSymbolTableRecord
100
AcDbRegAppTableRecord
  2
GENIUS_GENCFG4_13
 70
     0
  0
APPID
  5
7FB0
330
6A1F
100
AcDbSymbolTableRecord
100
AcDbRegAppTableRecord
  2
GENIUS_GEVCFG0_13
 70
     0
  0
APPID
  5
7FB1
330
6A1F
100
AcDbSymbolTableRecord
100
AcDbRegAppTableRecord
  2
GENIUS_GENOBJ-F-SUF_13
 70
     0
  0
APPID
  5
7FB2
330
6A1F
100
AcDbSymbolTableRecord
100
AcDbRegAppTableRecord
  2
GENIUS_GENDIM_13
 70
     0
  0
APPID
  5
7FB3
330
6A1F
100
AcDbSymbolTableRecord
100
AcDbRegAppTableRecord
  2
GENIUS_GENDTOL_13
 70
     0
  0
APPID
  5
7FB4
330
6A1F
100
AcDbSymbolTableRecord
100
AcDbRegAppTableRecord
  2
GENIUS_GE3DTOL_13
 70
     0
  0
APPID
  5
7FB5
330
6A1F
100
AcDbSymbolTableRecord
100
AcDbRegAppTableRecord
  2
AD_DRAW
 70
     0
  0
APPID
  5
7FB6
330
6A1F
100
AcDbSymbolTableRecord
100
AcDbRegAppTableRecord
  2
ASURF_PCURVE_APPNAME
 70
     0
  0
APPID
  5
7FB7
330
6A1F
100
AcDbSymbolTableRecord
100
AcDbRegAppTableRecord
  2
AMG_3D2D_5_0
 70
     0
  0
APPID
  5
7FB8
330
6A1F
100
AcDbSymbolTableRecord
100
AcDbRegAppTableRecord
  2
DESIGNERASSEMBLIES
 70
     0
  0
APPID
  5
7FB9
330
6A1F
100
AcDbSymbolTableRecord
100
AcDbRegAppTableRecord
  2
ACADM_DIM_EDIT
 70
     0
  0
APPID
  5
7FBA
330
6A1F
100
AcDbSymbolTableRecord
100
AcDbRegAppTableRecord
  2
AMDT_DM_ADJ
 70
     0
  0
APPID
  5
85F3
330
6A1F
100
AcDbSymbolTableRecord
100
AcDbRegAppTableRecord
  2
GENIUS_GENOBJ-N-CEN_13
 70
     0
  0
APPID
  5
89F7
330
6A1F
100
AcDbSymbolTableRecord
100
AcDbRegAppTableRecord
  2
DCO15
 70
     0
  0
APPID
  5
8E8B
330
6A1F
100
AcDbSymbolTableRecord
100
AcDbRegAppTableRecord
  2
GEV_VCCNULL_SWITCH_OFF
 70
     0
  0
APPID
  5
9980
330
6A1F
100
AcDbSymbolTableRecord
100
AcDbRegAppTableRecord
  2
GENIUS_GENOBJ-N-RSBK_13
 70
     0
  0
APPID
  5
9981
330
6A1F
100
AcDbSymbolTableRecord
100
AcDbRegAppTableRecord
  2
GENIUS_GENOBJ-N-DIM12_13
 70
     0
  0
APPID
  5
9982
330
6A1F
100
AcDbSymbolTableRecord
100
AcDbRegAppTableRecord
  2
GENIUS_GENSCALE_13
 70
     0
  0
APPID
  5
9983
330
6A1F
100
AcDbSymbolTableRecord
100
AcDbRegAppTableRecord
  2
GENIUS_GENHINW_13
 70
     0
  0
APPID
  5
9984
330
6A1F
100
AcDbSymbolTableRecord
100
AcDbRegAppTableRecord
  2
GENIUS_GENOBJ-F-TOLL_13
 70
     0
  0
APPID
  5
9985
330
6A1F
100
AcDbSymbolTableRecord
100
AcDbRegAppTableRecord
  2
GENIUS_GEFTOLC_13
 70
     0
  0
APPID
  5
9986
330
6A1F
100
AcDbSymbolTableRecord
100
AcDbRegAppTableRecord
  2
GENIUS_GENOBJ-F-TOL_13
 70
     0
  0
APPID
  5
9987
330
6A1F
100
AcDbSymbolTableRecord
100
AcDbRegAppTableRecord
  2
GENIUS_GENOBJ-N-RSSYM_13
 70
     0
  0
APPID
  5
9988
330
6A1F
100
AcDbSymbolTableRecord
100
AcDbRegAppTableRecord
  2
GENIUS_GENSYMENT_13
 70
     0
  0
APPID
  5
9989
330
6A1F
100
AcDbSymbolTableRecord
100
AcDbRegAppTableRecord
  2
GENIUS_GENSCSYM_13
 70
     0
  0
APPID
  5
998A
330
6A1F
100
AcDbSymbolTableRecord
100
AcDbRegAppTableRecord
  2
AD_SKETCHDIM
 70
     0
  0
APPID
  5
998B
330
6A1F
100
AcDbSymbolTableRecord
100
AcDbRegAppTableRecord
  2
GENIUS_GE3CFG0_13
 70
     0
  0
APPID
  5
998C
330
6A1F
100
AcDbSymbolTableRecord
100
AcDbRegAppTableRecord
  2
GENIUS_GENZVEED_13
 70
     0
  0
APPID
  5
998D
330
6A1F
100
AcDbSymbolTableRecord
100
AcDbRegAppTableRecord
  2
GENIUS_GENSCREG_13
 70
     0
  0
APPID
  5
998E
330
6A1F
100
AcDbSymbolTableRecord
100
AcDbRegAppTableRecord
  2
GENIUS_GENOBJ-F-TOLS_13
 70
     0
  0
ENDTAB
  0
TABLE
  2
DIMSTYLE
  5
6A20
330
0
100
AcDbSymbolTable
 70
    35
  0
DIMSTYLE
105
6A77
102
{ACAD_REACTORS
330
9059
330
9CED
330
9D69
330
9D91
330
9DB9
102
}
330
6A20
100
AcDbSymbolTableRecord
100
AcDbDimStyleTableRecord
  2
AM_DIN
 70
     0
  3

  4
"
  5

  6

  7

 40
1.0
 41
2.5
 42
0.0
 43
10.0
 44
1.0
 45
0.0
 46
0.0
 47
0.1
 48
0.1
140
3.5
141
0.0
142
0.0
143
0.0393701
144
1.0
145
0.0
146
0.71
147
1.5
 71
     0
 72
     0
 73
     0
 74
     0
 75
     0
 76
     0
 77
     1
 78
     8
170
     0
171
     2
172
     1
173
     0
174
     0
175
     0
176
   256
177
   256
178
     2
270
     2
271
     2
272
     2
273
     2
274
     2
340
6A27
275
     0
280
     0
281
     0
282
     0
283
     1
284
     8
285
     8
286
     8
287
     5
288
     0
  0
DIMSTYLE
105
6A7E
330
6A20
100
AcDbSymbolTableRecord
100
AcDbDimStyleTableRecord
  2
STANDARD
 70
     0
  3

  4

  5

  6

  7

 40
1.0
 41
0.18
 42
0.0625
 43
0.38
 44
0.18
 45
0.0
 46
0.0
 47
0.0
 48
0.0
140
0.18
141
0.09
142
0.0
143
25.4
144
1.0
145
0.0
146
1.0
147
0.09
 71
     0
 72
     0
 73
     1
 74
     1
 75
     0
 76
     0
 77
     0
 78
     0
170
     0
171
     2
172
     0
173
     0
174
     0
175
     0
176
     0
177
     0
178
     0
270
     2
271
     2
272
     2
273
     2
274
     2
340
6A27
275
     0
280
     0
281
     0
282
     0
283
     1
284
     8
285
     8
286
     8
287
     5
288
     0
  0
DIMSTYLE
105
6A7F
102
{ACAD_REACTORS
330
905A
102
}
330
6A20
100
AcDbSymbolTableRecord
100
AcDbDimStyleTableRecord
  2
AM_ANSI
 70
     0
  3

  4
mm
  5

  6

  7

 40
1.0
 41
0.1
 42
0.05
 43
0.5
 44
0.1
 45
0.0
 46
0.0
 47
0.1
 48
0.1
140
0.12
141
0.0
142
0.0
143
25.4
144
1.0
145
0.0
146
0.71
147
0.06
 71
     0
 72
     0
 73
     1
 74
     1
 75
     0
 76
     0
 77
     0
 78
     7
170
     0
171
     2
172
     0
173
     0
174
     0
175
     0
176
   256
177
   256
178
     2
270
     2
271
     2
272
     2
273
     2
274
     2
340
6A27
275
     0
280
     0
281
     0
282
     0
283
     1
284
     8
285
     8
286
     8
287
     5
288
     0
  0
DIMSTYLE
105
6A80
330
6A20
100
AcDbSymbolTableRecord
100
AcDbDimStyleTableRecord
  2
AM_ANSI$3
 70
     0
  3

  4
mm
  5

  6

  7

 40
1.0
 41
0.1
 42
0.05
 43
0.5
 44
0.1
 45
0.0
 46
0.0
 47
0.1
 48
0.1
140
0.12
141
0.0
142
0.0
143
25.4
144
1.0
145
0.0
146
0.71
147
0.06
 71
     0
 72
     0
 73
     1
 74
     1
 75
     0
 76
     0
 77
     0
 78
     7
170
     0
171
     2
172
     0
173
     0
174
     0
175
     0
176
   256
177
   256
178
     2
270
     2
271
     2
272
     2
273
     2
274
     2
340
6A27
275
     0
280
     0
281
     0
282
     0
283
     1
284
     8
285
     8
286
     8
287
     5
288
     0
  0
DIMSTYLE
105
6A81
330
6A20
100
AcDbSymbolTableRecord
100
AcDbDimStyleTableRecord
  2
AM_ANSI$4
 70
     0
  3

  4
mm
  5

  6

  7

 40
1.0
 41
0.1
 42
0.05
 43
0.5
 44
0.1
 45
0.0
 46
0.0
 47
0.1
 48
0.1
140
0.12
141
0.0
142
0.0
143
25.4
144
1.0
145
0.0
146
0.71
147
0.06
 71
     0
 72
     0
 73
     1
 74
     1
 75
     0
 76
     0
 77
     0
 78
     7
170
     0
171
     2
172
     0
173
     0
174
     0
175
     0
176
   256
177
   256
178
     2
270
     2
271
     2
272
     2
273
     2
274
     2
340
6A27
275
     0
280
     0
281
     0
282
     0
283
     1
284
     8
285
     8
286
     8
287
     5
288
     0
  0
DIMSTYLE
105
6A82
330
6A20
100
AcDbSymbolTableRecord
100
AcDbDimStyleTableRecord
  2
AM_ANSI$7
 70
     0
  3

  4
mm
  5

  6

  7

 40
1.0
 41
0.1
 42
0.05
 43
0.5
 44
0.1
 45
0.0
 46
0.0
 47
0.1
 48
0.1
140
0.24
141
0.0
142
0.0
143
25.4
144
1.0
145
0.0
146
0.71
147
0.06
 71
     0
 72
     0
 73
     1
 74
     1
 75
     0
 76
     0
 77
     0
 78
     7
170
     0
171
     2
172
     0
173
     0
174
     0
175
     0
176
   256
177
   256
178
     2
270
     2
271
     2
272
     2
273
     2
274
     2
340
6A27
275
     0
280
     0
281
     0
282
     0
283
     1
284
     8
285
     8
286
     8
287
     5
288
     0
  0
DIMSTYLE
105
6A83
330
6A20
100
AcDbSymbolTableRecord
100
AcDbDimStyleTableRecord
  2
AM_ANSI$SF
 70
     0
  3

  4
mm
  5

  6

  7

 40
1.0
 41
0.1
 42
0.05
 43
0.5
 44
0.1
 45
0.0
 46
0.0
 47
0.1
 48
0.1
140
0.12
141
0.0
142
0.0
143
25.4
144
1.0
145
0.0
146
0.71
147
0.06
 71
     0
 72
     0
 73
     1
 74
     1
 75
     1
 76
     1
 77
     0
 78
     7
170
     0
171
     2
172
     0
173
     0
174
     0
175
     0
176
   256
177
   256
178
     2
270
     2
271
     2
272
     2
273
     2
274
     2
340
6A27
275
     0
280
     0
281
     0
282
     0
283
     1
284
     8
285
     8
286
     8
287
     5
288
     0
  0
DIMSTYLE
105
6A84
330
6A20
100
AcDbSymbolTableRecord
100
AcDbDimStyleTableRecord
  2
AM_ANSI$SH
 70
     0
  3

  4
mm
  5

  6

  7

 40
1.0
 41
0.1
 42
0.05
 43
0.5
 44
0.1
 45
0.0
 46
0.0
 47
0.1
 48
0.1
140
0.12
141
0.0
142
0.0
143
25.4
144
1.0
145
0.0
146
0.71
147
0.06
 71
     0
 72
     0
 73
     1
 74
     1
 75
     1
 76
     1
 77
     0
 78
     7
170
     0
171
     2
172
     0
173
     1
174
     0
175
     0
176
   256
177
   256
178
     2
270
     2
271
     2
272
     2
273
     2
274
     2
340
6A27
275
     0
280
     0
281
     0
282
     0
283
     1
284
     8
285
     8
286
     8
287
     5
288
     0
  0
DIMSTYLE
105
6D9C
330
6A20
100
AcDbSymbolTableRecord
100
AcDbDimStyleTableRecord
  2
AM_DIN$3
 70
     0
  3

  4
"
  5

  6

  7

 40
1.0
 41
3.5
 42
0.0
 43
10.0
 44
1.0
 45
0.0
 46
0.0
 47
0.1
 48
0.1
140
3.5
141
0.0
142
0.0
143
0.0393701
144
1.0
145
0.0
146
0.71
147
1.5
 71
     0
 72
     0
 73
     0
 74
     1
 75
     0
 76
     0
 77
     1
 78
     8
170
     0
171
     2
172
     0
173
     0
174
     0
175
     0
176
   256
177
   256
178
     2
270
     2
271
     2
272
     2
273
     2
274
     2
340
6A27
275
     0
280
     0
281
     0
282
     0
283
     0
284
     8
285
     0
286
     0
287
     0
288
     1
  0
DIMSTYLE
105
6D9D
330
6A20
100
AcDbSymbolTableRecord
100
AcDbDimStyleTableRecord
  2
AM_DIN$4
 70
     0
  3

  4
"
  5

  6

  7

 40
1.0
 41
3.5
 42
0.0
 43
10.0
 44
1.0
 45
0.0
 46
0.0
 47
0.1
 48
0.1
140
3.5
141
0.0
142
0.0
143
0.0393701
144
1.0
145
0.0
146
0.71
147
1.5
 71
     0
 72
     0
 73
     0
 74
     1
 75
     0
 76
     0
 77
     1
 78
     8
170
     0
171
     2
172
     0
173
     0
174
     0
175
     0
176
   256
177
   256
178
     2
270
     2
271
     2
272
     2
273
     2
274
     2
340
6A27
275
     0
280
     0
281
     0
282
     0
283
     0
284
     8
285
     0
286
     0
287
     0
288
     1
  0
DIMSTYLE
105
6D9E
330
6A20
100
AcDbSymbolTableRecord
100
AcDbDimStyleTableRecord
  2
AM_DIN$6
 70
     0
  3

  4
"
  5

  6

  7

 40
1.0
 41
3.5
 42
0.0
 43
0.0
 44
1.0
 45
0.0
 46
0.0
 47
0.1
 48
0.1
140
3.5
141
0.0
142
0.0
143
0.0393701
144
1.0
145
0.0
146
0.71
147
1.5
 71
     0
 72
     0
 73
     0
 74
     0
 75
     0
 76
     0
 77
     0
 78
     8
170
     0
171
     2
172
     1
173
     0
174
     0
175
     0
176
   256
177
   256
178
     2
270
     2
271
     2
272
     2
273
     2
274
     2
340
6A27
275
     0
280
     0
281
     0
282
     0
283
     0
284
     8
285
     0
286
     0
287
     3
288
     0
  0
DIMSTYLE
105
6D9F
330
6A20
100
AcDbSymbolTableRecord
100
AcDbDimStyleTableRecord
  2
AM_DIN$7
 70
     0
  3

  4
"
  5

  6

  7

 40
1.0
 41
3.5
 42
0.0
 43
10.0
 44
1.0
 45
0.0
 46
0.0
 47
0.1
 48
0.1
140
3.5
141
0.0
142
0.0
143
0.0393701
144
1.0
145
0.0
146
0.71
147
1.5
 71
     0
 72
     0
 73
     0
 74
     0
 75
     0
 76
     0
 77
     1
 78
     8
170
     0
171
     2
172
     1
173
     0
174
     0
175
     0
176
   256
177
   256
178
     2
270
     2
271
     2
272
     2
273
     2
274
     2
340
6A27
275
     0
280
     0
281
     0
282
     0
283
     0
284
     8
285
     0
286
     0
287
     3
288
     0
  0
DIMSTYLE
105
6DA0
330
6A20
100
AcDbSymbolTableRecord
100
AcDbDimStyleTableRecord
  2
AM_DIN$SF
 70
     0
  3

  4
"
  5

  6

  7

 40
1.0
 41
2.5
 42
1.0
 43
10.0
 44
1.0
 45
0.0
 46
0.0
 47
0.1
 48
0.1
140
3.5
141
0.0
142
0.0
143
0.0393701
144
1.0
145
0.0
146
0.71
147
1.5
 71
     0
 72
     0
 73
     0
 74
     0
 75
     1
 76
     1
 77
     1
 78
     8
170
     0
171
     2
172
     1
173
     0
174
     0
175
     0
176
   256
177
   256
178
     2
270
     2
271
     2
272
     3
273
     2
274
     4
340
6A27
275
     0
280
     0
281
     0
282
     0
283
     0
284
     8
285
     0
286
     0
287
     3
288
     0
  0
DIMSTYLE
105
6DA1
330
6A20
100
AcDbSymbolTableRecord
100
AcDbDimStyleTableRecord
  2
AM_DIN$SH
 70
     0
  3

  4
"
  5

  6
GENAXEH
  7

 40
1.0
 41
2.5
 42
1.0
 43
10.0
 44
1.0
 45
0.0
 46
0.0
 47
0.1
 48
0.1
140
3.5
141
0.0
142
0.0
143
0.0393701
144
2.0
145
0.0
146
0.71
147
1.5
 71
     0
 72
     0
 73
     0
 74
     0
 75
     1
 76
     1
 77
     1
 78
     8
170
     0
171
     2
172
     1
173
     1
174
     0
175
     0
176
   256
177
   256
178
     2
270
     2
271
     2
272
     3
273
     2
274
     4
340
6A27
275
     0
280
     0
281
     0
282
     0
283
     0
284
     8
285
     0
286
     0
287
     3
288
     0
  0
DIMSTYLE
105
996B
330
6A20
100
AcDbSymbolTableRecord
100
AcDbDimStyleTableRecord
  2
AM_BSI
 70
     0
  3

  4
"
  5

  6

  7

 40
1.0
 41
4.0
 42
1.0
 43
10.0
 44
1.0
 45
0.0
 46
0.0
 47
0.1
 48
0.1
140
3.5
141
0.0
142
0.0
143
0.0393701
144
1.0
145
0.0
146
0.71
147
1.5
 71
     0
 72
     0
 73
     0
 74
     0
 75
     0
 76
     0
 77
     1
 78
     8
170
     0
171
     2
172
     1
173
     0
174
     0
175
     0
176
   256
177
   256
178
     2
270
     2
271
     2
272
     3
273
     2
274
     4
340
6A27
275
     0
280
     0
281
     0
282
     0
283
     0
284
     8
285
     0
286
     0
287
     3
288
     0
  0
DIMSTYLE
105
996C
330
6A20
100
AcDbSymbolTableRecord
100
AcDbDimStyleTableRecord
  2
AM_BSI$3
 70
     0
  3

  4
"
  5

  6

  7

 40
1.0
 41
4.0
 42
1.0
 43
10.0
 44
1.0
 45
0.0
 46
0.0
 47
0.1
 48
0.1
140
3.5
141
0.0
142
0.0
143
0.0393701
144
1.0
145
0.0
146
0.71
147
1.5
 71
     0
 72
     0
 73
     0
 74
     1
 75
     0
 76
     0
 77
     1
 78
     8
170
     0
171
     2
172
     0
173
     0
174
     0
175
     0
176
   256
177
   256
178
     2
270
     2
271
     2
272
     3
273
     2
274
     4
340
6A27
275
     0
280
     0
281
     0
282
     0
283
     0
284
     8
285
     0
286
     0
287
     0
288
     1
  0
DIMSTYLE
105
996D
330
6A20
100
AcDbSymbolTableRecord
100
AcDbDimStyleTableRecord
  2
AM_BSI$4
 70
     0
  3

  4
"
  5

  6

  7

 40
1.0
 41
4.0
 42
1.0
 43
10.0
 44
1.0
 45
0.0
 46
0.0
 47
0.1
 48
0.1
140
3.5
141
0.0
142
0.0
143
0.0393701
144
1.0
145
0.0
146
0.71
147
1.5
 71
     0
 72
     0
 73
     0
 74
     1
 75
     0
 76
     0
 77
     1
 78
     8
170
     0
171
     2
172
     0
173
     0
174
     0
175
     0
176
   256
177
   256
178
     2
270
     2
271
     2
272
     3
273
     2
274
     4
340
6A27
275
     0
280
     0
281
     0
282
     0
283
     0
284
     8
285
     0
286
     0
287
     0
288
     1
  0
DIMSTYLE
105
996E
330
6A20
100
AcDbSymbolTableRecord
100
AcDbDimStyleTableRecord
  2
AM_BSI$6
 70
     0
  3

  4
"
  5

  6

  7

 40
1.0
 41
4.0
 42
1.0
 43
10.0
 44
1.0
 45
0.0
 46
0.0
 47
0.1
 48
0.1
140
3.5
141
0.0
142
0.0
143
0.0393701
144
1.0
145
0.0
146
0.71
147
1.5
 71
     0
 72
     0
 73
     0
 74
     0
 75
     0
 76
     0
 77
     0
 78
     8
170
     0
171
     2
172
     1
173
     0
174
     0
175
     0
176
   256
177
   256
178
     2
270
     2
271
     2
272
     3
273
     2
274
     4
340
6A27
275
     0
280
     0
281
     0
282
     0
283
     0
284
     8
285
     0
286
     0
287
     3
288
     0
  0
DIMSTYLE
105
996F
330
6A20
100
AcDbSymbolTableRecord
100
AcDbDimStyleTableRecord
  2
AM_BSI$7
 70
     0
  3

  4
"
  5

  6

  7

 40
1.0
 41
2.5
 42
1.0
 43
10.0
 44
1.0
 45
0.0
 46
0.0
 47
0.1
 48
0.1
140
5.0
141
0.0
142
0.0
143
0.0393701
144
1.0
145
0.0
146
0.71
147
1.5
 71
     0
 72
     0
 73
     0
 74
     0
 75
     0
 76
     0
 77
     1
 78
     8
170
     0
171
     2
172
     1
173
     0
174
     0
175
     0
176
   256
177
   256
178
     2
270
     2
271
     2
272
     3
273
     2
274
     4
340
6A27
275
     0
280
     0
281
     0
282
     0
283
     0
284
     8
285
     0
286
     0
287
     3
288
     0
  0
DIMSTYLE
105
9970
330
6A20
100
AcDbSymbolTableRecord
100
AcDbDimStyleTableRecord
  2
AM_BSI$SF
 70
     0
  3

  4
"
  5

  6

  7

 40
1.0
 41
4.0
 42
1.0
 43
10.0
 44
1.0
 45
0.0
 46
0.0
 47
0.1
 48
0.1
140
3.5
141
0.0
142
0.0
143
0.0393701
144
1.0
145
0.0
146
0.71
147
1.5
 71
     0
 72
     0
 73
     0
 74
     0
 75
     1
 76
     1
 77
     1
 78
     8
170
     0
171
     2
172
     1
173
     0
174
     0
175
     0
176
   256
177
   256
178
     2
270
     2
271
     2
272
     3
273
     2
274
     4
340
6A27
275
     0
280
     0
281
     0
282
     0
283
     0
284
     8
285
     0
286
     0
287
     3
288
     0
  0
DIMSTYLE
105
9971
330
6A20
100
AcDbSymbolTableRecord
100
AcDbDimStyleTableRecord
  2
AM_BSI$SH
 70
     0
  3

  4
"
  5

  6
GENAXEH
  7

 40
1.0
 41
4.0
 42
1.0
 43
10.0
 44
1.0
 45
0.0
 46
0.0
 47
0.1
 48
0.1
140
3.5
141
0.0
142
0.0
143
0.0393701
144
2.0
145
0.0
146
0.71
147
1.5
 71
     0
 72
     0
 73
     0
 74
     0
 75
     1
 76
     1
 77
     1
 78
     8
170
     0
171
     2
172
     1
173
     1
174
     0
175
     0
176
   256
177
   256
178
     2
270
     2
271
     2
272
     3
273
     2
274
     4
340
6A27
275
     0
280
     0
281
     0
282
     0
283
     0
284
     8
285
     0
286
     0
287
     3
288
     0
  0
DIMSTYLE
105
9972
330
6A20
100
AcDbSymbolTableRecord
100
AcDbDimStyleTableRecord
  2
AM_ISO
 70
     0
  3

  4
"
  5

  6

  7

 40
1.0
 41
2.5
 42
1.0
 43
10.0
 44
1.0
 45
0.0
 46
0.0
 47
0.1
 48
0.1
140
3.5
141
0.0
142
0.0
143
0.0393701
144
1.0
145
0.0
146
0.71
147
1.5
 71
     0
 72
     0
 73
     0
 74
     0
 75
     0
 76
     0
 77
     1
 78
     8
170
     0
171
     2
172
     1
173
     0
174
     0
175
     0
176
   256
177
   256
178
     2
270
     2
271
     2
272
     3
273
     2
274
     4
340
6A27
275
     0
280
     0
281
     0
282
     0
283
     0
284
     8
285
     0
286
     0
287
     3
288
     0
  0
DIMSTYLE
105
9973
330
6A20
100
AcDbSymbolTableRecord
100
AcDbDimStyleTableRecord
  2
AM_ISO$3
 70
     0
  3

  4
"
  5

  6

  7

 40
1.0
 41
2.5
 42
1.0
 43
10.0
 44
1.0
 45
0.0
 46
0.0
 47
0.1
 48
0.1
140
3.5
141
0.0
142
0.0
143
0.0393701
144
1.0
145
0.0
146
0.71
147
1.5
 71
     0
 72
     0
 73
     0
 74
     1
 75
     0
 76
     0
 77
     1
 78
     8
170
     0
171
     2
172
     0
173
     0
174
     0
175
     0
176
   256
177
   256
178
     2
270
     2
271
     2
272
     3
273
     2
274
     4
340
6A27
275
     0
280
     0
281
     0
282
     0
283
     0
284
     8
285
     0
286
     0
287
     0
288
     1
  0
DIMSTYLE
105
9974
330
6A20
100
AcDbSymbolTableRecord
100
AcDbDimStyleTableRecord
  2
AM_ISO$4
 70
     0
  3

  4
"
  5

  6

  7

 40
1.0
 41
2.5
 42
1.0
 43
10.0
 44
1.0
 45
0.0
 46
0.0
 47
0.1
 48
0.1
140
3.5
141
0.0
142
0.0
143
0.0393701
144
1.0
145
0.0
146
0.71
147
1.5
 71
     0
 72
     0
 73
     0
 74
     1
 75
     0
 76
     0
 77
     1
 78
     8
170
     0
171
     2
172
     0
173
     0
174
     0
175
     0
176
   256
177
   256
178
     2
270
     2
271
     2
272
     3
273
     2
274
     4
340
6A27
275
     0
280
     0
281
     0
282
     0
283
     0
284
     8
285
     0
286
     0
287
     0
288
     1
  0
DIMSTYLE
105
9975
330
6A20
100
AcDbSymbolTableRecord
100
AcDbDimStyleTableRecord
  2
AM_ISO$6
 70
     0
  3

  4
"
  5

  6

  7

 40
1.0
 41
2.5
 42
1.0
 43
10.0
 44
1.0
 45
0.0
 46
0.0
 47
0.1
 48
0.1
140
3.5
141
0.0
142
0.0
143
0.0393701
144
1.0
145
0.0
146
0.71
147
1.5
 71
     0
 72
     0
 73
     0
 74
     0
 75
     0
 76
     0
 77
     0
 78
     8
170
     0
171
     2
172
     1
173
     0
174
     0
175
     0
176
   256
177
   256
178
     2
270
     2
271
     2
272
     3
273
     2
274
     4
340
6A27
275
     0
280
     0
281
     0
282
     0
283
     0
284
     8
285
     0
286
     0
287
     3
288
     0
  0
DIMSTYLE
105
9976
330
6A20
100
AcDbSymbolTableRecord
100
AcDbDimStyleTableRecord
  2
AM_ISO$7
 70
     0
  3

  4
"
  5

  6

  7

 40
1.0
 41
2.5
 42
1.0
 43
10.0
 44
1.0
 45
0.0
 46
0.0
 47
0.1
 48
0.1
140
5.0
141
0.0
142
0.0
143
0.0393701
144
1.0
145
0.0
146
0.71
147
1.5
 71
     0
 72
     0
 73
     0
 74
     0
 75
     0
 76
     0
 77
     1
 78
     8
170
     0
171
     2
172
     1
173
     0
174
     0
175
     0
176
   256
177
   256
178
     2
270
     2
271
     2
272
     3
273
     2
274
     4
340
6A27
275
     0
280
     0
281
     0
282
     0
283
     0
284
     8
285
     0
286
     0
287
     3
288
     0
  0
DIMSTYLE
105
9977
330
6A20
100
AcDbSymbolTableRecord
100
AcDbDimStyleTableRecord
  2
AM_ISO$SF
 70
     0
  3

  4
"
  5

  6

  7

 40
1.0
 41
2.5
 42
1.0
 43
10.0
 44
1.0
 45
0.0
 46
0.0
 47
0.1
 48
0.1
140
3.5
141
0.0
142
0.0
143
0.0393701
144
1.0
145
0.0
146
0.71
147
1.5
 71
     0
 72
     0
 73
     0
 74
     0
 75
     1
 76
     1
 77
     1
 78
     8
170
     0
171
     2
172
     1
173
     0
174
     0
175
     0
176
   256
177
   256
178
     2
270
     2
271
     2
272
     3
273
     2
274
     4
340
6A27
275
     0
280
     0
281
     0
282
     0
283
     0
284
     8
285
     0
286
     0
287
     3
288
     0
  0
DIMSTYLE
105
9978
330
6A20
100
AcDbSymbolTableRecord
100
AcDbDimStyleTableRecord
  2
AM_ISO$SH
 70
     0
  3

  4
"
  5

  6
GENAXEH
  7

 40
1.0
 41
2.5
 42
1.0
 43
10.0
 44
1.0
 45
0.0
 46
0.0
 47
0.1
 48
0.1
140
3.5
141
0.0
142
0.0
143
0.0393701
144
2.0
145
0.0
146
0.71
147
1.5
 71
     0
 72
     0
 73
     0
 74
     0
 75
     1
 76
     1
 77
     1
 78
     8
170
     0
171
     2
172
     1
173
     1
174
     0
175
     0
176
   256
177
   256
178
     2
270
     2
271
     2
272
     3
273
     2
274
     4
340
6A27
275
     0
280
     0
281
     0
282
     0
283
     0
284
     8
285
     0
286
     0
287
     3
288
     0
  0
DIMSTYLE
105
9979
330
6A20
100
AcDbSymbolTableRecord
100
AcDbDimStyleTableRecord
  2
AM_JIS
 70
     0
  3

  4
"
  5
OPEN30
  6
OPEN30
  7
OPEN30
 40
1.0
 41
2.5
 42
1.0
 43
10.0
 44
1.0
 45
0.0
 46
0.0
 47
0.1
 48
0.1
140
3.5
141
0.0
142
0.0
143
0.0393701
144
1.0
145
0.0
146
0.71
147
1.5
 71
     0
 72
     0
 73
     0
 74
     0
 75
     0
 76
     0
 77
     3
 78
     8
170
     0
171
     2
172
     1
173
     0
174
     0
175
     0
176
   256
177
   256
178
     2
270
     2
271
     2
272
     3
273
     2
274
     4
340
6A27
275
     0
280
     0
281
     0
282
     0
283
     0
284
     8
285
     0
286
     0
287
     3
288
     0
  0
DIMSTYLE
105
997A
330
6A20
100
AcDbSymbolTableRecord
100
AcDbDimStyleTableRecord
  2
AM_JIS$3
 70
     0
  3

  4
"
  5
OPEN30
  6
OPEN30
  7
OPEN30
 40
1.0
 41
2.5
 42
1.0
 43
10.0
 44
1.0
 45
0.0
 46
0.0
 47
0.1
 48
0.1
140
3.5
141
0.0
142
0.0
143
0.0393701
144
1.0
145
0.0
146
0.71
147
1.5
 71
     0
 72
     0
 73
     0
 74
     1
 75
     0
 76
     0
 77
     3
 78
     8
170
     0
171
     2
172
     0
173
     0
174
     0
175
     0
176
   256
177
   256
178
     2
270
     2
271
     2
272
     3
273
     2
274
     4
340
6A27
275
     0
280
     0
281
     0
282
     0
283
     0
284
     8
285
     0
286
     0
287
     0
288
     1
  0
DIMSTYLE
105
997B
330
6A20
100
AcDbSymbolTableRecord
100
AcDbDimStyleTableRecord
  2
AM_JIS$4
 70
     0
  3

  4
"
  5
OPEN30
  6
OPEN30
  7
OPEN30
 40
1.0
 41
2.5
 42
1.0
 43
10.0
 44
1.0
 45
0.0
 46
0.0
 47
0.1
 48
0.1
140
3.5
141
0.0
142
0.0
143
0.0393701
144
1.0
145
0.0
146
0.71
147
1.5
 71
     0
 72
     0
 73
     0
 74
     1
 75
     0
 76
     0
 77
     3
 78
     8
170
     0
171
     2
172
     0
173
     0
174
     0
175
     0
176
   256
177
   256
178
     2
270
     2
271
     2
272
     3
273
     2
274
     4
340
6A27
275
     0
280
     0
281
     0
282
     0
283
     0
284
     8
285
     0
286
     0
287
     0
288
     1
  0
DIMSTYLE
105
997C
330
6A20
100
AcDbSymbolTableRecord
100
AcDbDimStyleTableRecord
  2
AM_JIS$6
 70
     0
  3

  4
"
  5
OPEN30
  6
OPEN30
  7
OPEN30
 40
1.0
 41
2.5
 42
1.0
 43
10.0
 44
1.0
 45
0.0
 46
0.0
 47
0.1
 48
0.1
140
3.5
141
0.0
142
0.0
143
0.0393701
144
1.0
145
0.0
146
0.71
147
1.5
 71
     0
 72
     0
 73
     0
 74
     0
 75
     0
 76
     0
 77
     0
 78
     8
170
     0
171
     2
172
     1
173
     0
174
     0
175
     0
176
   256
177
   256
178
     2
270
     2
271
     2
272
     3
273
     2
274
     4
340
6A27
275
     0
280
     0
281
     0
282
     0
283
     0
284
     8
285
     0
286
     0
287
     3
288
     0
  0
DIMSTYLE
105
997D
330
6A20
100
AcDbSymbolTableRecord
100
AcDbDimStyleTableRecord
  2
AM_JIS$7
 70
     0
  3

  4
"
  5
OPEN30
  6
OPEN30
  7
OPEN30
 40
1.0
 41
2.5
 42
1.0
 43
10.0
 44
1.0
 45
0.0
 46
0.0
 47
0.1
 48
0.1
140
5.0
141
0.0
142
0.0
143
0.0393701
144
1.0
145
0.0
146
0.71
147
1.5
 71
     0
 72
     0
 73
     0
 74
     0
 75
     0
 76
     0
 77
     3
 78
     8
170
     0
171
     2
172
     1
173
     0
174
     0
175
     0
176
   256
177
   256
178
     2
270
     2
271
     2
272
     3
273
     2
274
     4
340
6A27
275
     0
280
     0
281
     0
282
     0
283
     0
284
     8
285
     0
286
     0
287
     3
288
     0
  0
DIMSTYLE
105
997E
330
6A20
100
AcDbSymbolTableRecord
100
AcDbDimStyleTableRecord
  2
AM_JIS$SF
 70
     0
  3

  4
"
  5
OPEN30
  6
OPEN30
  7
OPEN30
 40
1.0
 41
2.5
 42
1.0
 43
10.0
 44
1.0
 45
0.0
 46
0.0
 47
0.1
 48
0.1
140
3.5
141
0.0
142
0.0
143
0.0393701
144
1.0
145
0.0
146
0.71
147
1.5
 71
     0
 72
     0
 73
     0
 74
     0
 75
     1
 76
     1
 77
     3
 78
     8
170
     0
171
     2
172
     1
173
     0
174
     0
175
     0
176
   256
177
   256
178
     2
270
     2
271
     2
272
     3
273
     2
274
     4
340
6A27
275
     0
280
     0
281
     0
282
     0
283
     0
284
     8
285
     0
286
     0
287
     3
288
     0
  0
DIMSTYLE
105
997F
330
6A20
100
AcDbSymbolTableRecord
100
AcDbDimStyleTableRecord
  2
AM_JIS$SH
 70
     0
  3

  4
"
  5
OPEN30
  6
GENAXEH
  7
OPEN30
 40
1.0
 41
2.5
 42
1.0
 43
10.0
 44
1.0
 45
0.0
 46
0.0
 47
0.1
 48
0.1
140
3.5
141
0.0
142
0.0
143
0.0393701
144
2.0
145
0.0
146
0.71
147
1.5
 71
     0
 72
     0
 73
     0
 74
     0
 75
     1
 76
     1
 77
     3
 78
     8
170
     0
171
     2
172
     1
173
     1
174
     0
175
     0
176
   256
177
   256
178
     2
270
     2
271
     2
272
     3
273
     2
274
     4
340
6A27
275
     0
280
     0
281
     0
282
     0
283
     0
284
     8
285
     0
286
     0
287
     3
288
     0
  0
ENDTAB
  0
TABLE
  2
BLOCK_RECORD
  5
6A17
330
0
100
AcDbSymbolTable
 70
     8
  0
BLOCK_RECORD
  5
6A34
102
{ACAD_XDICTIONARY
360
6B62
102
}
330
6A17
100
AcDbSymbolTableRecord
100
AcDbBlockTableRecord
  2
*MODEL_SPACE
  0
BLOCK_RECORD
  5
6A30
102
{ACAD_XDICTIONARY
360
9E36
102
}
330
6A17
100
AcDbSymbolTableRecord
100
AcDbBlockTableRecord
  2
*PAPER_SPACE
  0
BLOCK_RECORD
  5
6D93
330
6A17
100
AcDbSymbolTableRecord
100
AcDbBlockTableRecord
  2
GENAXEH
  0
BLOCK_RECORD
  5
9095
330
6A17
100
AcDbSymbolTableRecord
100
AcDbBlockTableRecord
  2
*D1
  0
BLOCK_RECORD
  5
90A1
330
6A17
100
AcDbSymbolTableRecord
100
AcDbBlockTableRecord
  2
*D2
  0
BLOCK_RECORD
  5
9926
330
6A17
100
AcDbSymbolTableRecord
100
AcDbBlockTableRecord
  2
_OPEN30
  0
BLOCK_RECORD
  5
9CEE
330
6A17
100
AcDbSymbolTableRecord
100
AcDbBlockTableRecord
  2
*D4
  0
BLOCK_RECORD
  5
9D6A
330
6A17
100
AcDbSymbolTableRecord
100
AcDbBlockTableRecord
  2
*D5
  0
BLOCK_RECORD
  5
9D92
330
6A17
100
AcDbSymbolTableRecord
100
AcDbBlockTableRecord
  2
*D6
  0
BLOCK_RECORD
  5
9DBA
330
6A17
100
AcDbSymbolTableRecord
100
AcDbBlockTableRecord
  2
*D7
  0
ENDTAB
  0
ENDSEC
  0
SECTION
  2
BLOCKS
  0
BLOCK
  5
6A35
330
6A34
100
AcDbEntity
  8
0
100
AcDbBlockBegin
  2
*MODEL_SPACE
 70
     0
 10
0.0
 20
0.0
 30
0.0
  3
*MODEL_SPACE
  1

  0
ENDBLK
  5
6A36
330
6A34
100
AcDbEntity
  8
0
100
AcDbBlockEnd
  0
BLOCK
  5
6A31
330
6A30
100
AcDbEntity
 67
     1
  8
0
100
AcDbBlockBegin
  2
*PAPER_SPACE
 70
     0
 10
0.0
 20
0.0
 30
0.0
  3
*PAPER_SPACE
  1

  0
ENDBLK
  5
6A32
330
6A30
100
AcDbEntity
 67
     1
  8
0
100
AcDbBlockEnd
  0
BLOCK
  5
6D95
330
6D93
100
AcDbEntity
  8
0
100
AcDbBlockBegin
  2
GENAXEH
 70
     0
 10
0.0
 20
0.0
 30
0.0
  3
GENAXEH
  1

  0
LINE
  5
6D94
330
6D93
100
AcDbEntity
  8
0
100
AcDbLine
 10
-1.0
 20
0.0
 30
0.0
 11
1.0
 21
0.0
 31
0.0
  0
ENDBLK
  5
6D96
330
6D93
100
AcDbEntity
  8
0
100
AcDbBlockEnd
  0
BLOCK
  5
909F
330
9095
100
AcDbEntity
  8
0
100
AcDbBlockBegin
  2
*D1
 70
     1
 10
0.0
 20
0.0
 30
0.0
  3
*D1
  1

  0
LINE
  5
91C8
330
9095
100
AcDbEntity
  8
SK2
100
AcDbLine
 10
-30.00000000000002
 20
12.00000000000001
 30
0.0
 11
-49.30042214622815
 21
12.00000000000001
 31
0.0
  0
LINE
  5
91C9
330
9095
100
AcDbEntity
  8
SK2
100
AcDbLine
 10
-30.00000000000002
 20
-11.99999999999998
 30
0.0
 11
-49.30042214622815
 21
-11.99999999999998
 31
0.0
  0
LINE
  5
91CA
330
9095
100
AcDbEntity
  8
SK2
100
AcDbLine
 10
-48.30042214622815
 20
9.600000000000017
 30
0.0
 11
-48.30042214622815
 21
-9.599999999999981
 31
0.0
  0
MTEXT
  5
91CB
330
9095
100
AcDbEntity
  8
SK2
 62
     2
100
AcDbMText
 10
-51.34319359390863
 20
-0.1122779170276988
 30
0.0
 40
3.5
 41
0.0
 71
     5
 72
     1
  1
\A1;%%c24
 11
0.0000000000000001
 21
1.0
 31
0.0
1001
ACAD
1000
MTEXTBEGIN
1070
    73
1070
     1
1070
    44
1040
1.0
1070
    74
1070
     0
1000
MTEXTEND
  0
SOLID
  5
91CC
330
9095
100
AcDbEntity
  8
SK2
100
AcDbTrace
 10
-48.70042214622815
 20
9.600000000000017
 30
0.0
 11
-47.90042214622815
 21
9.600000000000017
 31
0.0
 12
-48.30042214622815
 22
12.00000000000001
 32
0.0
 13
-48.30042214622815
 23
12.00000000000001
 33
0.0
  0
SOLID
  5
91CD
330
9095
100
AcDbEntity
  8
SK2
100
AcDbTrace
 10
-48.70042214622815
 20
-9.599999999999981
 30
0.0
 11
-47.90042214622815
 21
-9.599999999999981
 31
0.0
 12
-48.30042214622815
 22
-11.99999999999998
 32
0.0
 13
-48.30042214622815
 23
-11.99999999999998
 33
0.0
  0
POINT
  5
91CE
330
9095
100
AcDbEntity
  8
DEFPOINTS
 62
     0
100
AcDbPoint
 10
-30.00000000000002
 20
12.00000000000001
 30
0.0
  0
POINT
  5
91CF
330
9095
100
AcDbEntity
  8
DEFPOINTS
 62
     0
100
AcDbPoint
 10
-30.00000000000002
 20
-11.99999999999998
 30
0.0
  0
POINT
  5
91D0
330
9095
100
AcDbEntity
  8
DEFPOINTS
 62
     0
100
AcDbPoint
 10
-48.30042214622815
 20
-11.99999999999998
 30
0.0
  0
ENDBLK
  5
90A0
330
9095
100
AcDbEntity
  8
0
100
AcDbBlockEnd
  0
BLOCK
  5
90AB
330
90A1
100
AcDbEntity
  8
0
100
AcDbBlockBegin
  2
*D2
 70
     1
 10
0.0
 20
0.0
 30
0.0
  3
*D2
  1

  0
LINE
  5
91BF
330
90A1
100
AcDbEntity
  8
SK2
100
AcDbLine
 10
-0.0000000000000213
 20
23.99999999999998
 30
0.0
 11
-60.74448938991874
 21
24.0
 31
0.0
  0
LINE
  5
91C0
330
90A1
100
AcDbEntity
  8
SK2
100
AcDbLine
 10
-0.0000000000000213
 20
-24.00000000000001
 30
0.0
 11
-60.74448938991876
 21
-23.99999999999999
 31
0.0
  0
LINE
  5
91C1
330
90A1
100
AcDbEntity
  8
SK2
100
AcDbLine
 10
-59.74448938991875
 20
21.5
 30
0.0
 11
-59.74448938991876
 21
-21.49999999999999
 31
0.0
  0
SOLID
  5
91C2
330
90A1
100
AcDbEntity
  8
SK2
100
AcDbTrace
 10
-60.16115605658541
 20
21.5
 30
0.0
 11
-59.32782272325209
 21
21.5
 31
0.0
 12
-59.74448938991875
 22
24.0
 32
0.0
 13
-59.74448938991875
 23
24.0
 33
0.0
  0
SOLID
  5
91C3
330
90A1
100
AcDbEntity
  8
SK2
100
AcDbTrace
 10
-60.16115605658542
 20
-21.49999999999999
 30
0.0
 11
-59.32782272325209
 21
-21.49999999999999
 31
0.0
 12
-59.74448938991876
 22
-23.99999999999999
 32
0.0
 13
-59.74448938991876
 23
-23.99999999999999
 33
0.0
  0
MTEXT
  5
91C4
330
90A1
100
AcDbEntity
  8
SK2
 62
     2
100
AcDbMText
 10
-62.99448938991876
 20
-0.0000000000000066
 30
0.0
 40
3.5
 41
0.0
 71
     5
 72
     1
  1
\A1;%%c48
 11
0.0000000000000001
 21
1.0
 31
0.0
1001
ACAD
1000
MTEXTBEGIN
1070
    73
1070
     1
1070
    44
1040
1.0
1070
    74
1070
     0
1000
MTEXTEND
  0
POINT
  5
91C5
330
90A1
100
AcDbEntity
  8
DEFPOINTS
 62
     0
100
AcDbPoint
 10
-0.0000000000000213
 20
23.99999999999998
 30
0.0
  0
POINT
  5
91C6
330
90A1
100
AcDbEntity
  8
DEFPOINTS
 62
     0
100
AcDbPoint
 10
-0.0000000000000213
 20
-24.00000000000001
 30
0.0
  0
POINT
  5
91C7
330
90A1
100
AcDbEntity
  8
DEFPOINTS
 62
     0
100
AcDbPoint
 10
-59.74448938991876
 20
-23.99999999999999
 30
0.0
  0
ENDBLK
  5
90AC
330
90A1
100
AcDbEntity
  8
0
100
AcDbBlockEnd
  0
BLOCK
  5
992A
330
9926
100
AcDbEntity
  8
0
100
AcDbBlockBegin
  2
_OPEN30
 70
     0
 10
0.0
 20
0.0
 30
0.0
  3
_OPEN30
  1

  0
LINE
  5
9927
330
9926
100
AcDbEntity
  8
0
  6
BYBLOCK
 62
     0
100
AcDbLine
 10
-1.0
 20
0.26794919
 30
0.0
 11
0.0
 21
0.0
 31
0.0
  0
LINE
  5
9928
330
9926
100
AcDbEntity
  8
0
  6
BYBLOCK
 62
     0
100
AcDbLine
 10
0.0
 20
0.0
 30
0.0
 11
-1.0
 21
-0.26794919
 31
0.0
  0
LINE
  5
9929
330
9926
100
AcDbEntity
  8
0
  6
BYBLOCK
 62
     0
100
AcDbLine
 10
0.0
 20
0.0
 30
0.0
 11
-1.0
 21
0.0
 31
0.0
  0
ENDBLK
  5
992B
330
9926
100
AcDbEntity
  8
0
100
AcDbBlockEnd
  0
BLOCK
  5
9CF8
330
9CEE
100
AcDbEntity
  8
0
100
AcDbBlockBegin
  2
*D4
 70
     1
 10
0.0
 20
0.0
 30
0.0
  3
*D4
  1

  0
LINE
  5
9DDA
330
9CEE
100
AcDbEntity
  8
2
100
AcDbLine
 10
54.99999999999998
 20
16.00000000000001
 30
0.0
 11
76.06231013075104
 21
16.00000000000001
 31
0.0
  0
LINE
  5
9DDB
330
9CEE
100
AcDbEntity
  8
2
100
AcDbLine
 10
54.99999999999997
 20
-15.99999999999998
 30
0.0
 11
76.06231013075104
 21
-15.99999999999998
 31
0.0
  0
LINE
  5
9DDC
330
9CEE
100
AcDbEntity
  8
2
100
AcDbLine
 10
75.06231013075105
 20
13.50000000000001
 30
0.0
 11
75.06231013075105
 21
-13.49999999999998
 31
0.0
  0
SOLID
  5
9DDD
330
9CEE
100
AcDbEntity
  8
2
100
AcDbTrace
 10
74.64564346408437
 20
13.50000000000001
 30
0.0
 11
75.47897679741772
 21
13.50000000000001
 31
0.0
 12
75.06231013075105
 22
16.00000000000001
 32
0.0
 13
75.06231013075105
 23
16.00000000000001
 33
0.0
  0
SOLID
  5
9DDE
330
9CEE
100
AcDbEntity
  8
2
100
AcDbTrace
 10
74.64564346408437
 20
-13.49999999999998
 30
0.0
 11
75.47897679741772
 21
-13.49999999999998
 31
0.0
 12
75.06231013075105
 22
-15.99999999999998
 32
0.0
 13
75.06231013075105
 23
-15.99999999999998
 33
0.0
  0
MTEXT
  5
9DDF
330
9CEE
100
AcDbEntity
  8
2
 62
     2
100
AcDbMText
 10
71.81196564256207
 20
0.0000000000000242
 30
0.0
 40
3.5
 41
0.0
 71
     5
 72
     1
  1
\A1;%%c32
 11
0.0000000000000001
 21
1.0
 31
0.0
1001
ACAD
1000
MTEXTBEGIN
1070
    73
1070
     1
1070
    44
1040
1.0
1070
    74
1070
     0
1000
MTEXTEND
  0
POINT
  5
9DE0
330
9CEE
100
AcDbEntity
  8
DEFPOINTS
 62
     0
100
AcDbPoint
 10
54.99999999999998
 20
16.00000000000001
 30
0.0
  0
POINT
  5
9DE1
330
9CEE
100
AcDbEntity
  8
DEFPOINTS
 62
     0
100
AcDbPoint
 10
54.99999999999997
 20
-15.99999999999998
 30
0.0
  0
POINT
  5
9DE2
330
9CEE
100
AcDbEntity
  8
DEFPOINTS
 62
     0
100
AcDbPoint
 10
75.06231013075105
 20
-15.99999999999998
 30
0.0
  0
ENDBLK
  5
9CF9
330
9CEE
100
AcDbEntity
  8
0
100
AcDbBlockEnd
  0
BLOCK
  5
9D74
330
9D6A
100
AcDbEntity
  8
0
100
AcDbBlockBegin
  2
*D5
 70
     1
 10
0.0
 20
0.0
 30
0.0
  3
*D5
  1

  0
LINE
  5
9DE3
330
9D6A
100
AcDbEntity
  8
2
100
AcDbLine
 10
54.99999999999998
 20
16.00000000000001
 30
0.0
 11
54.99999999999999
 21
76.00000000000001
 31
0.0
  0
LINE
  5
9DE4
330
9D6A
100
AcDbEntity
  8
2
100
AcDbLine
 10
-0.0000000000000213
 20
23.99999999999998
 30
0.0
 11
-0.0000000000000181
 21
76.00000000000001
 31
0.0
  0
LINE
  5
9DE5
330
9D6A
100
AcDbEntity
  8
2
100
AcDbLine
 10
52.49999999999999
 20
75.00000000000001
 30
0.0
 11
2.499999999999981
 21
75.00000000000001
 31
0.0
  0
SOLID
  5
9DE6
330
9D6A
100
AcDbEntity
  8
2
100
AcDbTrace
 10
52.49999999999999
 20
75.41666666666668
 30
0.0
 11
52.49999999999999
 21
74.58333333333334
 31
0.0
 12
54.99999999999999
 22
75.00000000000001
 32
0.0
 13
54.99999999999999
 23
75.00000000000001
 33
0.0
  0
SOLID
  5
9DE7
330
9D6A
100
AcDbEntity
  8
2
100
AcDbTrace
 10
2.499999999999981
 20
75.41666666666668
 30
0.0
 11
2.499999999999981
 21
74.58333333333334
 31
0.0
 12
-0.0000000000000182
 22
75.00000000000001
 32
0.0
 13
-0.0000000000000182
 23
75.00000000000001
 33
0.0
  0
MTEXT
  5
9DE8
330
9D6A
100
AcDbEntity
  8
2
 62
     2
100
AcDbMText
 10
27.49999999999998
 20
78.25000000000001
 30
0.0
 40
3.5
 41
0.0
 71
     5
 72
     1
  1
\A1;55
1001
ACAD
1000
MTEXTBEGIN
1070
    73
1070
     1
1070
    44
1040
1.0
1070
    74
1070
     0
1000
MTEXTEND
  0
POINT
  5
9DE9
330
9D6A
100
AcDbEntity
  8
DEFPOINTS
 62
     0
100
AcDbPoint
 10
54.99999999999998
 20
16.00000000000001
 30
0.0
  0
POINT
  5
9DEA
330
9D6A
100
AcDbEntity
  8
DEFPOINTS
 62
     0
100
AcDbPoint
 10
-0.0000000000000213
 20
23.99999999999998
 30
0.0
  0
POINT
  5
9DEB
330
9D6A
100
AcDbEntity
  8
DEFPOINTS
 62
     0
100
AcDbPoint
 10
-0.0000000000000182
 20
75.00000000000001
 30
0.0
  0
ENDBLK
  5
9D75
330
9D6A
100
AcDbEntity
  8
0
100
AcDbBlockEnd
  0
BLOCK
  5
9D9C
330
9D92
100
AcDbEntity
  8
0
100
AcDbBlockBegin
  2
*D6
 70
     1
 10
0.0
 20
0.0
 30
0.0
  3
*D6
  1

  0
LINE
  5
9DEC
330
9D92
100
AcDbEntity
  8
2
100
AcDbLine
 10
54.99999999999998
 20
16.00000000000001
 30
0.0
 11
54.99999999999998
 21
61.00000000000001
 31
0.0
  0
LINE
  5
9DED
330
9D92
100
AcDbEntity
  8
2
100
AcDbLine
 10
11.99999999999998
 20
15.58326356767557
 30
0.0
 11
11.99999999999999
 21
61.00000000000001
 31
0.0
  0
LINE
  5
9DEE
330
9D92
100
AcDbEntity
  8
2
100
AcDbLine
 10
52.49999999999998
 20
60.00000000000001
 30
0.0
 11
14.49999999999999
 21
60.00000000000001
 31
0.0
  0
SOLID
  5
9DEF
330
9D92
100
AcDbEntity
  8
2
100
AcDbTrace
 10
52.49999999999998
 20
60.41666666666667
 30
0.0
 11
52.49999999999998
 21
59.58333333333335
 31
0.0
 12
54.99999999999998
 22
60.00000000000001
 32
0.0
 13
54.99999999999998
 23
60.00000000000001
 33
0.0
  0
SOLID
  5
9DF0
330
9D92
100
AcDbEntity
  8
2
100
AcDbTrace
 10
14.49999999999999
 20
60.41666666666667
 30
0.0
 11
14.49999999999999
 21
59.58333333333335
 31
0.0
 12
11.99999999999999
 22
60.00000000000001
 32
0.0
 13
11.99999999999999
 23
60.00000000000001
 33
0.0
  0
MTEXT
  5
9DF1
330
9D92
100
AcDbEntity
  8
2
 62
     2
100
AcDbMText
 10
33.49999999999998
 20
63.25000000000001
 30
0.0
 40
3.5
 41
0.0
 71
     5
 72
     1
  1
\A1;43
1001
ACAD
1000
MTEXTBEGIN
1070
    73
1070
     1
1070
    44
1040
1.0
1070
    74
1070
     0
1000
MTEXTEND
  0
POINT
  5
9DF2
330
9D92
100
AcDbEntity
  8
DEFPOINTS
 62
     0
100
AcDbPoint
 10
54.99999999999998
 20
16.00000000000001
 30
0.0
  0
POINT
  5
9DF3
330
9D92
100
AcDbEntity
  8
DEFPOINTS
 62
     0
100
AcDbPoint
 10
11.99999999999998
 20
15.58326356767557
 30
0.0
  0
POINT
  5
9DF4
330
9D92
100
AcDbEntity
  8
DEFPOINTS
 62
     0
100
AcDbPoint
 10
11.99999999999999
 20
60.00000000000001
 30
0.0
  0
ENDBLK
  5
9D9D
330
9D92
100
AcDbEntity
  8
0
100
AcDbBlockEnd
  0
BLOCK
  5
9DC4
330
9DBA
100
AcDbEntity
  8
0
100
AcDbBlockBegin
  2
*D7
 70
     1
 10
0.0
 20
0.0
 30
0.0
  3
*D7
  1

  0
LINE
  5
9DF5
330
9DBA
100
AcDbEntity
  8
2
100
AcDbLine
 10
54.99999999999998
 20
16.00000000000001
 30
0.0
 11
54.99999999999998
 21
46.00000000000001
 31
0.0
  0
LINE
  5
9DF6
330
9DBA
100
AcDbEntity
  8
2
100
AcDbLine
 10
19.99999999999998
 20
16.2702791883706
 30
0.0
 11
19.99999999999998
 21
46.00000000000001
 31
0.0
  0
LINE
  5
9DF7
330
9DBA
100
AcDbEntity
  8
2
100
AcDbLine
 10
52.49999999999998
 20
45.00000000000001
 30
0.0
 11
22.49999999999997
 21
45.00000000000001
 31
0.0
  0
SOLID
  5
9DF8
330
9DBA
100
AcDbEntity
  8
2
100
AcDbTrace
 10
52.49999999999998
 20
45.41666666666667
 30
0.0
 11
52.49999999999998
 21
44.58333333333334
 31
0.0
 12
54.99999999999998
 22
45.00000000000001
 32
0.0
 13
54.99999999999998
 23
45.00000000000001
 33
0.0
  0
SOLID
  5
9DF9
330
9DBA
100
AcDbEntity
  8
2
100
AcDbTrace
 10
22.49999999999997
 20
45.41666666666667
 30
0.0
 11
22.49999999999997
 21
44.58333333333334
 31
0.0
 12
19.99999999999998
 22
45.00000000000001
 32
0.0
 13
19.99999999999998
 23
45.00000000000001
 33
0.0
  0
MTEXT
  5
9DFA
330
9DBA
100
AcDbEntity
  8
2
 62
     2
100
AcDbMText
 10
37.49999999999998
 20
48.25000000000001
 30
0.0
 40
3.5
 41
0.0
 71
     5
 72
     1
  1
\A1;35
1001
ACAD
1000
MTEXTBEGIN
1070
    73
1070
     1
1070
    44
1040
1.0
1070
    74
1070
     0
1000
MTEXTEND
  0
POINT
  5
9DFB
330
9DBA
100
AcDbEntity
  8
DEFPOINTS
 62
     0
100
AcDbPoint
 10
54.99999999999998
 20
16.00000000000001
 30
0.0
  0
POINT
  5
9DFC
330
9DBA
100
AcDbEntity
  8
DEFPOINTS
 62
     0
100
AcDbPoint
 10
19.99999999999998
 20
16.2702791883706
 30
0.0
  0
POINT
  5
9DFD
330
9DBA
100
AcDbEntity
  8
DEFPOINTS
 62
     0
100
AcDbPoint
 10
19.99999999999998
 20
45.00000000000001
 30
0.0
  0
ENDBLK
  5
9DC5
330
9DBA
100
AcDbEntity
  8
0
100
AcDbBlockEnd
  0
ENDSEC
  0
SECTION
  2
ENTITIES
  0
LINE
  5
80EB
330
6A34
100
AcDbEntity
  8
SK4
100
AcDbLine
 10
0.0000000000000124
 20
-0.0000000000000221
 30
0.0
 11
-36.94975141587885
 21
-0.0000000000002748
 31
0.0
  0
TEXT
  5
904D
330
6A34
100
AcDbEntity
  8
SK6
100
AcDbText
 10
-29.28049350239509
 20
16.49936759697438
 30
0.0
 40
2.5
  1
modular 40
100
AcDbText
  0
LINE
  5
904E
330
6A34
100
AcDbEntity
  8
NOCUT
100
AcDbLine
 10
-0.0000000000000213
 20
-23.99999999999995
 30
0.0
 11
8.999999999999985
 21
-23.99999999999995
 31
0.0
  0
LINE
  5
904F
330
6A34
100
AcDbEntity
  8
1
100
AcDbLine
 10
-0.0000000000000213
 20
-24.00000000000001
 30
0.0
 11
8.999999999999985
 21
-24.00000000000001
 31
0.0
  0
LINE
  5
9050
330
6A34
100
AcDbEntity
  8
SK4
100
AcDbLine
 10
11.52561373382194
 20
-18.00000000000001
 30
0.0
 11
-1.911625526851842
 21
-18.00000000000001
 31
0.0
  0
LINE
  5
9051
330
6A34
100
AcDbEntity
  8
SK3
 48
0.5
100
AcDbLine
 10
6.999999999999985
 20
-14.00000000000001
 30
0.0
 11
-0.0000000000000213
 21
-14.00000000000001
 31
0.0
  0
LINE
  5
9052
330
6A34
100
AcDbEntity
  8
SK3
 48
0.5
100
AcDbLine
 10
6.999999999999985
 20
-22.00000000000001
 30
0.0
 11
-0.0000000000000213
 21
-22.00000000000001
 31
0.0
  0
LINE
  5
9053
330
6A34
100
AcDbEntity
  8
SK3
 48
0.5
100
AcDbLine
 10
6.999999999999985
 20
13.99999999999998
 30
0.0
 11
-0.0000000000000213
 21
13.99999999999998
 31
0.0
  0
LINE
  5
9054
330
6A34
100
AcDbEntity
  8
SK3
 48
0.5
100
AcDbLine
 10
6.999999999999985
 20
21.99999999999998
 30
0.0
 11
-0.0000000000000213
 21
21.99999999999998
 31
0.0
  0
LINE
  5
9055
330
6A34
100
AcDbEntity
  8
SK3
 48
0.3
100
AcDbLine
 10
5.315976632393791
 20
2.999999999999987
 30
0.0
 11
-35.00000000000002
 21
3.000000000000012
 31
0.0
  0
LINE
  5
9056
330
6A34
100
AcDbEntity
  8
SK3
 48
0.3
100
AcDbLine
 10
6.501942827943118
 20
-3.0
 30
0.0
 11
-35.00000000000002
 21
-2.999999999999987
 31
0.0
  0
LINE
  5
9057
330
6A34
100
AcDbEntity
  8
SK4
100
AcDbLine
 10
10.74905218780848
 20
17.99999999999998
 30
0.0
 11
-2.817613997200645
 21
17.99999999999998
 31
0.0
  0
LINE
  5
9058
330
6A34
100
AcDbEntity
  8
1
100
AcDbLine
 10
-0.0000000000000213
 20
23.99999999999998
 30
0.0
 11
8.999999999999985
 21
23.99999999999998
 31
0.0
  0
DIMENSION
  5
9059
330
6A34
100
AcDbEntity
  8
SK2
100
AcDbDimension
  2
*D2
 10
-59.74448938991876
 20
-23.99999999999999
 30
0.0
 11
-62.99448938991876
 21
-0.0000000000000066
 31
0.0
 70
    32
  1
%%c<>
  3
AM_DIN
100
AcDbAlignedDimension
 13
-0.0000000000000213
 23
23.99999999999998
 33
0.0
 14
-0.0000000000000213
 24
-24.00000000000001
 34
0.0
 50
90.0
100
AcDbRotatedDimension
  0
DIMENSION
  5
905A
330
6A34
100
AcDbEntity
  8
SK2
100
AcDbDimension
  2
*D1
 10
-48.30042214622815
 20
-11.99999999999998
 30
0.0
 11
-51.34319359390863
 21
-0.1122779170276988
 31
0.0
 70
   160
  1
%%c<>
 53
90.0
  3
AM_ANSI
100
AcDbAlignedDimension
 13
-30.00000000000002
 23
12.00000000000001
 33
0.0
 14
-30.00000000000002
 24
-11.99999999999998
 34
0.0
 50
90.0
100
AcDbRotatedDimension
1001
ACAD
1000
DSTYLE
1002
{
1070
    41
1040
2.399999999999999
1070
    42
1040
0.0
1070
    44
1040
1.0
1070
    77
1070
     1
1070
   140
1040
3.5
1070
   147
1040
1.0
1070
   271
1070
     0
1002
}
  0
LINE
  5
905B
330
6A34
100
AcDbEntity
  8
NOCUT
100
AcDbLine
 10
-0.0000000000000249
 20
-0.0000000000000376
 30
0.0
 11
-0.0000000000000213
 21
-23.99999999999995
 31
0.0
  0
LINE
  5
905C
330
6A34
100
AcDbEntity
  8
SK1
100
AcDbLine
 10
-1.828602898698385
 20
11.99999999999998
 30
0.0
 11
-1.828602898698385
 21
-12.00000000000001
 31
0.0
  0
LINE
  5
905D
330
6A34
100
AcDbEntity
  8
SK3
 48
0.3
100
AcDbLine
 10
-13.75000000000007
 20
-11.99999999999998
 30
0.0
 11
-13.75000000000002
 21
-2.999999999999987
 31
0.0
  0
LINE
  5
905E
330
6A34
100
AcDbEntity
  8
SK3
 48
0.3
100
AcDbLine
 10
-10.25000000000002
 20
-11.99999999999998
 30
0.0
 11
-10.25000000000002
 21
-3.000000000000015
 31
0.0
  0
LINE
  5
905F
330
6A34
100
AcDbEntity
  8
SK4
100
AcDbLine
 10
-12.00000000000002
 20
-12.82925254711189
 30
0.0
 11
-12.00000000000002
 21
13.96286389869326
 31
0.0
  0
LINE
  5
9060
330
6A34
100
AcDbEntity
  8
SK1
100
AcDbLine
 10
-33.24006579232146
 20
-11.64999999999999
 30
0.0
 11
-33.24006579232146
 21
11.64999999999998
 31
0.0
  0
LINE
  5
9061
330
6A34
100
AcDbEntity
  8
SK1
100
AcDbLine
 10
-30.00000000000002
 20
-11.99999999999998
 30
0.0
 11
-30.00000000000002
 21
12.00000000000001
 31
0.0
  0
LINE
  5
9062
330
6A34
100
AcDbEntity
  8
SK1
100
AcDbLine
 10
-35.00000000000002
 20
-10.99999999999998
 30
0.0
 11
-35.00000000000002
 21
11.00000000000001
 31
0.0
  0
LINE
  5
9063
330
6A34
100
AcDbEntity
  8
1
100
AcDbLine
 10
-0.0000000000000213
 20
-24.00000000000001
 30
0.0
 11
-0.0000000000000213
 21
23.99999999999998
 31
0.0
  0
LINE
  5
9064
330
6A34
100
AcDbEntity
  8
SK1
100
AcDbLine
 10
-0.0000000000000213
 20
-11.99999999999998
 30
0.0
 11
-30.00000000000007
 21
-11.99999999999998
 31
0.0
  0
ARC
  5
9065
330
6A34
100
AcDbEntity
  8
SK1
100
AcDbCircle
 10
-34.00000000000002
 20
-11.00000000000001
 30
0.0
 40
1.0
100
AcDbArc
 50
180.0
 51
319.4583981264973
1001
GENIUS_GENODEF_13
1002
{
1000
HIER
1070
     0
1002
}
1002
{
1000
MANEDIT
1070
     0
1002
}
1002
{
1000
NOSEL
1070
     0
1002
}
1002
{
1000
BEHIND
1070
     0
1002
}
1002
{
1000
OTHER
1070
     0
1002
}
1002
{
1000
REACTOR
1002
}
1001
GENIUS_GENOBJ-N-FIL_13
1002
{
1000
OWNER
1000
GEN
1002
}
  0
LINE
  5
9066
330
6A34
100
AcDbEntity
  8
SK1
100
AcDbLine
 10
-30.00000000000002
 20
-11.99999999999998
 30
0.0
 11
-33.10000000000004
 21
-11.64999999999999
 31
0.0
  0
LINE
  5
9067
330
6A34
100
AcDbEntity
  8
SK1
100
AcDbLine
 10
-33.10000000000004
 20
-11.64999999999999
 30
0.0
 11
-33.24006579232146
 21
-11.64999999999999
 31
0.0
  0
ARC
  5
9069
330
6A34
100
AcDbEntity
  8
SK1
100
AcDbCircle
 10
-15.19095324358223
 20
3.999999999999984
 30
0.0
 40
3.497878983177713
100
AcDbArc
 50
120.9448553667911
 51
179.9999999999991
  0
ARC
  5
906A
330
6A34
100
AcDbEntity
  8
SK1
100
AcDbCircle
 10
-15.19095324358223
 20
-4.000000000000015
 30
0.0
 40
3.497878983177713
100
AcDbArc
 50
180.0
 51
239.0551446332088
  0
LINE
  5
906B
330
6A34
100
AcDbEntity
  8
SK1
100
AcDbLine
 10
-16.98960756861426
 20
7.000000000000012
 30
0.0
 11
-18.68883222675995
 21
7.000000000000012
 31
0.0
  0
LINE
  5
906C
330
6A34
100
AcDbEntity
  8
SK1
100
AcDbLine
 10
-16.98960756861426
 20
-6.999999999999987
 30
0.0
 11
-18.68883222675995
 21
-6.999999999999987
 31
0.0
  0
LINE
  5
906D
330
6A34
100
AcDbEntity
  8
SK1
100
AcDbLine
 10
-0.0000000000000213
 20
12.00000000000001
 30
0.0
 11
-30.00000000000007
 21
12.00000000000001
 31
0.0
  0
ARC
  5
906E
330
6A34
100
AcDbEntity
  8
SK1
100
AcDbCircle
 10
-34.00000000000002
 20
10.99999999999998
 30
0.0
 40
1.0
100
AcDbArc
 50
40.54160187350273
 51
180.0
1001
GENIUS_GENODEF_13
1002
{
1000
HIER
1070
     0
1002
}
1002
{
1000
MANEDIT
1070
     0
1002
}
1002
{
1000
NOSEL
1070
     0
1002
}
1002
{
1000
BEHIND
1070
     0
1002
}
1002
{
1000
OTHER
1070
     0
1002
}
1002
{
1000
REACTOR
1002
}
1001
GENIUS_GENOBJ-N-FIL_13
1002
{
1000
OWNER
1000
GEN
1002
}
  0
LINE
  5
906F
330
6A34
100
AcDbEntity
  8
SK1
100
AcDbLine
 10
-30.00000000000002
 20
12.00000000000001
 30
0.0
 11
-33.10000000000004
 21
11.65000000000001
 31
0.0
  0
LINE
  5
9070
330
6A34
100
AcDbEntity
  8
SK1
100
AcDbLine
 10
-33.10000000000004
 20
11.65000000000001
 30
0.0
 11
-33.24006579232146
 21
11.65000000000001
 31
0.0
  0
LINE
  5
9071
330
6A34
100
AcDbEntity
  8
SK1
100
AcDbLine
 10
-18.68883222675995
 20
-3.999999999999987
 30
0.0
 11
-18.68883222675995
 21
4.000000000000012
 31
0.0
  0
ARC
  5
9072
330
6A34
100
AcDbEntity
  8
SK1
100
AcDbCircle
 10
-17.0846043239517
 20
-0.000000000000016
 30
0.0
 40
7.181472492751646
100
AcDbArc
 50
102.9078848854386
 51
257.0921151145614
  0
LINE
  5
9073
330
6A34
100
AcDbEntity
  8
SK3
 48
0.3
100
AcDbLine
 10
-13.75000000000002
 20
3.000000000000012
 30
0.0
 11
-13.75000000000002
 21
12.00000000000001
 31
0.0
  0
LINE
  5
9074
330
6A34
100
AcDbEntity
  8
SK3
 48
0.3
100
AcDbLine
 10
-10.25000000000002
 20
2.999999999999984
 30
0.0
 11
-10.25000000000002
 21
12.00000000000001
 31
0.0
  0
ARC
  5
9075
330
6A34
100
AcDbEntity
  8
SK1
100
AcDbCircle
 10
-22.86946659883229
 20
-0.000000000000016
 30
0.0
 40
9.141812851685189
100
AcDbArc
 50
310.0295827564067
 51
49.97041724359328
  0
CIRCLE
  5
9076
330
6A34
100
AcDbEntity
  8
SK1
100
AcDbCircle
 10
-12.00000000000002
 20
-0.000000000000016
 30
0.0
 40
1.75
  0
LINE
  5
9077
330
6A34
100
AcDbEntity
  8
SK1
100
AcDbLine
 10
-2.086652350555043
 20
-2.086652350555048
 30
0.0
 11
2.086652350555002
 21
2.086652350554995
 31
0.0
  0
CIRCLE
  5
9078
330
6A34
100
AcDbEntity
  8
SK1
100
AcDbCircle
 10
0.0
 20
-0.0000000000000071
 30
0.0
 40
2.950972054112602
  0
LINE
  5
9079
330
6A34
100
AcDbEntity
  8
SK1
100
AcDbLine
 10
-2.086652350555024
 20
2.086652350555016
 30
0.0
 11
2.08665235055502
 21
-2.086652350555031
 31
0.0
  0
LINE
  5
907A
330
6A34
100
AcDbEntity
  8
NOCUT
100
AcDbLine
 10
9.999999999999985
 20
-22.99999999999995
 30
0.0
 11
10.00000000000002
 21
-16.27113434341975
 31
0.0
  0
LINE
  5
907B
330
6A34
100
AcDbEntity
  8
1
100
AcDbLine
 10
9.999999999999985
 20
-23.00000000000005
 30
0.0
 11
9.999999999999985
 21
22.99999999999998
 31
0.0
  0
LINE
  5
907C
330
6A34
100
AcDbEntity
  8
NOCUT
100
AcDbLine
 10
8.999999999999985
 20
-23.99999999999995
 30
0.0
 11
9.999999999999985
 21
-22.99999999999995
 31
0.0
  0
LINE
  5
907D
330
6A34
100
AcDbEntity
  8
1
100
AcDbLine
 10
8.999999999999985
 20
-24.00000000000001
 30
0.0
 11
9.999999999999985
 21
-23.00000000000001
 31
0.0
1001
GENIUS_GENFIL_13
1070
     0
1040
1.0
1040
1.0
1040
0.0
1040
0.0
1002
{
1002
}
1001
GENIUS_GENODEF_13
1002
{
1000
HIER
1070
     0
1002
}
1002
{
1000
MANEDIT
1070
     0
1002
}
1002
{
1000
NOSEL
1070
     0
1002
}
1002
{
1000
BEHIND
1070
     0
1002
}
1002
{
1000
OTHER
1070
     0
1002
}
1002
{
1000
REACTOR
1002
}
1001
GENIUS_GENOBJ-N-CHA_13
1002
{
1000
OWNER
1000
GEN
1002
}
  0
LINE
  5
907E
330
6A34
100
AcDbEntity
  8
SK3
 48
0.5
100
AcDbLine
 10
6.999999999999985
 20
-14.00000000000001
 30
0.0
 11
6.999999999999985
 21
-22.00000000000001
 31
0.0
  0
LINE
  5
907F
330
6A34
100
AcDbEntity
  8
SK3
 48
0.5
100
AcDbLine
 10
6.999999999999985
 20
-14.00000000000001
 30
0.0
 11
9.309401076758589
 21
-18.00000000000001
 31
0.0
  0
LINE
  5
9080
330
6A34
100
AcDbEntity
  8
SK3
 48
0.5
100
AcDbLine
 10
6.999999999999985
 20
-22.00000000000001
 30
0.0
 11
9.309401076758589
 21
-18.00000000000001
 31
0.0
  0
LINE
  5
9081
330
6A34
100
AcDbEntity
  8
SK3
 48
0.5
100
AcDbLine
 10
6.999999999999985
 20
13.99999999999998
 30
0.0
 11
9.309401076758589
 21
17.99999999999998
 31
0.0
  0
LINE
  5
9082
330
6A34
100
AcDbEntity
  8
SK3
 48
0.5
100
AcDbLine
 10
6.999999999999985
 20
13.99999999999998
 30
0.0
 11
6.999999999999985
 21
21.99999999999998
 31
0.0
  0
LINE
  5
9086
330
6A34
100
AcDbEntity
  8
1
100
AcDbLine
 10
8.999999999999985
 20
23.99999999999998
 30
0.0
 11
9.999999999999985
 21
22.99999999999998
 31
0.0
1001
GENIUS_GENFIL_13
1070
     0
1040
1.0
1040
1.0
1040
0.0
1040
0.0
1002
{
1002
}
1001
GENIUS_GENODEF_13
1002
{
1000
HIER
1070
     0
1002
}
1002
{
1000
MANEDIT
1070
     0
1002
}
1002
{
1000
NOSEL
1070
     0
1002
}
1002
{
1000
BEHIND
1070
     0
1002
}
1002
{
1000
OTHER
1070
     0
1002
}
1002
{
1000
REACTOR
1002
}
1001
GENIUS_GENOBJ-N-CHA_13
1002
{
1000
OWNER
1000
GEN
1002
}
  0
LINE
  5
9087
330
6A34
100
AcDbEntity
  8
SK3
 48
0.5
100
AcDbLine
 10
6.999999999999985
 20
21.99999999999998
 30
0.0
 11
9.309401076758589
 21
17.99999999999998
 31
0.0
  0
TEXT
  5
92F0
330
6A34
100
AcDbEntity
  8
6
100
AcDbText
 10
54.96548850372612
 20
-23.70566325585912
 30
0.0
 40
3.5
  1
22J3C032035Z4R00
100
AcDbText
  0
LINE
  5
949C
330
6A34
100
AcDbEntity
  8
4
100
AcDbLine
 10
57.25490231867239
 20
0.0000000000000178
 30
0.0
 11
-0.000000000000199
 21
0.0000000000003979
 31
0.0
  0
LINE
  5
97B6
330
6A34
100
AcDbEntity
  8
4
100
AcDbLine
 10
13.59764460415169
 20
-0.000000000001098
 30
0.0
 11
23.96915388940197
 21
5.656503349398974
 31
0.0
  0
LINE
  5
97B7
330
6A34
100
AcDbEntity
  8
4
100
AcDbLine
 10
13.59764460415169
 20
0.0000000000016021
 30
0.0
 11
24.74616706743812
 21
-6.081287008347118
 31
0.0
  0
LINE
  5
97D5
330
6A34
100
AcDbEntity
  8
4
100
AcDbLine
 10
39.08165128217187
 20
0.0000000000015348
 30
0.0
 11
48.97127902694085
 21
-6.216803180787479
 31
0.0
  0
LINE
  5
97D6
330
6A34
100
AcDbEntity
  8
4
100
AcDbLine
 10
39.08165128217187
 20
-0.0000000000013642
 30
0.0
 11
48.05458376582426
 21
5.640551560180483
 31
0.0
  0
TEXT
  5
980C
330
6A34
100
AcDbEntity
  8
6
100
AcDbText
 10
86.47321981304118
 20
-7.72679451166131
 30
0.0
 40
3.5
  1
Zeff.=2
 50
90.0
100
AcDbText
  0
TEXT
  5
980D
330
6A34
100
AcDbEntity
  8
6
100
AcDbText
 10
80.25091815064298
 20
-4.670610048117296
 30
0.0
 40
3.5
  1
Z=6
 50
90.0
100
AcDbText
  0
ARC
  5
983D
330
6A34
100
AcDbEntity
  8
1
100
AcDbCircle
 10
10.99999999999998
 20
16.27113434341683
 30
0.0
 40
1.0
100
AcDbArc
 50
180.0
 51
269.9999999999997
  0
ARC
  5
98DF
330
6A34
100
AcDbEntity
  8
1
100
AcDbCircle
 10
10.99999999999973
 20
-16.27113434341622
 30
0.0
 40
1.0
100
AcDbArc
 50
89.99999999999948
 51
180.0
  0
LINE
  5
98E0
330
6A34
100
AcDbEntity
  8
NOCUT
100
AcDbLine
 10
-0.0000000000000249
 20
-0.0000000000000376
 30
0.0
 11
53.99679480008373
 21
0.0000000000000462
 31
0.0
  0
ARC
  5
98EA
330
6A34
100
AcDbEntity
  8
NOCUT
100
AcDbCircle
 10
11.0
 20
-16.27113434341975
 30
0.0
 40
1.0
100
AcDbArc
 50
89.99999999999948
 51
180.0
1001
GENIUS_GENOBJ-N-FIL_13
1002
{
1000
OWNER
1000
GEN
1002
}
1001
GENIUS_GENODEF_13
1002
{
1000
HIER
1070
     0
1002
}
1002
{
1000
MANEDIT
1070
     0
1002
}
1002
{
1000
NOSEL
1070
     0
1002
}
1002
{
1000
BEHIND
1070
     0
1002
}
1002
{
1000
OTHER
1070
     0
1002
}
1002
{
1000
REACTOR
1002
}
  0
TEXT
  5
9A3E
330
6A34
100
AcDbEntity
  8
6
100
AcDbText
 10
58.82018469348712
 20
21.45193450160876
 30
0.0
 40
3.5
  1
BCKT130404
100
AcDbText
  0
LINE
  5
9A43
330
6A34
100
AcDbEntity
  8
1
100
AcDbLine
 10
19.49580587159835
 20
15.2711343434168
 30
0.0
 11
10.99999999999997
 21
15.27113434341683
 31
0.0
  0
LINE
  5
9A45
330
6A34
100
AcDbEntity
  8
CUT
100
AcDbLine
 10
18.45217853779102
 20
7.959999999999894
 30
0.0
 11
53.05217853779105
 21
7.959999999999871
 31
0.0
  0
LINE
  5
9A46
330
6A34
100
AcDbEntity
  8
CUT
100
AcDbLine
 10
19.99999999999998
 20
15.99999999999997
 30
0.0
 11
54.6
 21
15.99999999999995
 31
0.0
  0
LINE
  5
9A47
330
6A34
100
AcDbEntity
  8
1
100
AcDbLine
 10
30.99999999999997
 20
15.99999999999996
 30
0.0
 11
43.59
 21
16.00000000000001
 31
0.0
  0
LINE
  5
9A48
330
6A34
100
AcDbEntity
  8
1
100
AcDbLine
 10
51.99999999999999
 20
7.959999999999951
 30
0.0
 11
39.40999999999995
 21
7.959999999999922
 31
0.0
  0
LINE
  5
9A49
330
6A34
100
AcDbEntity
  8
1
100
AcDbLine
 10
53.00999999999996
 20
7.960000000000025
 30
0.0
 11
40.41999999999993
 21
7.959999999999997
 31
0.0
  0
LINE
  5
9A4A
330
6A34
100
AcDbEntity
  8
CUT
100
AcDbLine
 10
18.80106872072387
 20
10.95999999999998
 30
0.0
 11
19.60571861236443
 21
15.667395751826
 31
0.0
  0
LINE
  5
9A4B
330
6A34
100
AcDbEntity
  8
CUT
100
AcDbLine
 10
18.05217853779104
 20
9.959999999999922
 30
0.0
 11
18.80106872072381
 21
10.95999999999989
 31
0.0
  0
ARC
  5
9A4C
330
6A34
100
AcDbEntity
  8
CUT
100
AcDbCircle
 10
18.45217853779102
 20
8.359999999999899
 30
0.0
 40
0.4
100
AcDbArc
 50
180.0
 51
270.0
1001
GENIUS_GENOBJ-N-FIL_13
1002
{
1000
OWNER
1000
GEN
1002
}
1001
GENIUS_GENODEF_13
1002
{
1000
HIER
1070
     0
1002
}
1002
{
1000
MANEDIT
1070
     0
1002
}
1002
{
1000
NOSEL
1070
     0
1002
}
1002
{
1000
BEHIND
1070
     0
1002
}
1002
{
1000
OTHER
1070
     0
1002
}
1002
{
1000
REACTOR
1002
}
  0
LINE
  5
9A4D
330
6A34
100
AcDbEntity
  8
CUT
100
AcDbLine
 10
18.05217853779104
 20
8.359999999999928
 30
0.0
 11
18.05217853779104
 21
9.959999999999894
 31
0.0
  0
ARC
  5
9A4E
330
6A34
100
AcDbEntity
  8
CUT
100
AcDbCircle
 10
19.99999999999998
 20
15.59999999999996
 30
0.0
 40
0.4
100
AcDbArc
 50
90.0
 51
170.3000000000008
1001
GENIUS_GENODEF_13
1002
{
1000
HIER
1070
     0
1002
}
1002
{
1000
MANEDIT
1070
     0
1002
}
1002
{
1000
NOSEL
1070
     0
1002
}
1002
{
1000
BEHIND
1070
     0
1002
}
1002
{
1000
OTHER
1070
     0
1002
}
1002
{
1000
REACTOR
1002
}
1001
GENIUS_GENOBJ-N-FIL_13
1002
{
1000
OWNER
1000
GEN
1002
}
  0
CIRCLE
  5
9A4F
330
6A34
100
AcDbEntity
  8
1
100
AcDbCircle
 10
36.49999999999997
 20
11.98
 30
0.0
 40
2.749999999999976
  0
CIRCLE
  5
9A50
330
6A34
100
AcDbEntity
  8
1
100
AcDbCircle
 10
47.50999999999996
 20
11.98
 30
0.0
 40
2.749999999999976
  0
LINE
  5
9A51
330
6A34
100
AcDbEntity
  8
1
100
AcDbLine
 10
42.00999999999996
 20
15.99999999999996
 30
0.0
 11
54.59999999999999
 21
16.00000000000001
 31
0.0
  0
LINE
  5
9A52
330
6A34
100
AcDbEntity
  8
1
100
AcDbLine
 10
43.98999999999998
 20
14.00000000000001
 30
0.0
 11
43.24110981706721
 21
13.00000000000004
 31
0.0
  0
ARC
  5
9A53
330
6A34
100
AcDbEntity
  8
1
100
AcDbCircle
 10
42.04217853779105
 20
8.359999999999946
 30
0.0
 40
0.4
100
AcDbArc
 50
270.0
 51
350.3000000000008
1001
GENIUS_GENODEF_13
1002
{
1000
HIER
1070
     0
1002
}
1002
{
1000
MANEDIT
1070
     0
1002
}
1002
{
1000
NOSEL
1070
     0
1002
}
1002
{
1000
BEHIND
1070
     0
1002
}
1002
{
1000
OTHER
1070
     0
1002
}
1002
{
1000
REACTOR
1002
}
1001
GENIUS_GENOBJ-N-FIL_13
1002
{
1000
OWNER
1000
GEN
1002
}
  0
LINE
  5
9A54
330
6A34
100
AcDbEntity
  8
1
100
AcDbLine
 10
43.24110981706716
 20
12.99999999999996
 30
0.0
 11
42.43645992542659
 21
8.292604248173933
 31
0.0
  0
ARC
  5
9A55
330
6A34
100
AcDbEntity
  8
1
100
AcDbCircle
 10
43.59
 20
15.60000000000001
 30
0.0
 40
0.4
100
AcDbArc
 50
0.0
 51
90.0
1001
GENIUS_GENOBJ-N-FIL_13
1002
{
1000
OWNER
1000
GEN
1002
}
1001
GENIUS_GENODEF_13
1002
{
1000
HIER
1070
     0
1002
}
1002
{
1000
MANEDIT
1070
     0
1002
}
1002
{
1000
NOSEL
1070
     0
1002
}
1002
{
1000
BEHIND
1070
     0
1002
}
1002
{
1000
OTHER
1070
     0
1002
}
1002
{
1000
REACTOR
1002
}
  0
LINE
  5
9A56
330
6A34
100
AcDbEntity
  8
1
100
AcDbLine
 10
43.98999999999998
 20
15.60000000000001
 30
0.0
 11
43.98999999999998
 21
14.00000000000004
 31
0.0
  0
LINE
  5
9A57
330
6A34
100
AcDbEntity
  8
1
100
AcDbLine
 10
54.99999999999997
 20
14.00000000000001
 30
0.0
 11
54.2511098170672
 21
13.00000000000004
 31
0.0
  0
LINE
  5
9A58
330
6A34
100
AcDbEntity
  8
CUT
100
AcDbLine
 10
54.99999999999998
 20
13.99999999999995
 30
0.0
 11
54.25110981706721
 21
12.99999999999997
 31
0.0
  0
LINE
  5
9A59
330
6A34
100
AcDbEntity
  8
1
100
AcDbLine
 10
54.25110981706715
 20
12.99999999999996
 30
0.0
 11
53.44645992542658
 21
8.292604248173933
 31
0.0
  0
LINE
  5
9A5A
330
6A34
100
AcDbEntity
  8
CUT
100
AcDbLine
 10
54.25110981706716
 20
12.99999999999989
 30
0.0
 11
53.44645992542659
 21
8.292604248173864
 31
0.0
  0
ARC
  5
9A5B
330
6A34
100
AcDbEntity
  8
1
100
AcDbCircle
 10
53.05217853779104
 20
8.359999999999946
 30
0.0
 40
0.4
100
AcDbArc
 50
270.0
 51
350.3000000000008
1001
GENIUS_GENODEF_13
1002
{
1000
HIER
1070
     0
1002
}
1002
{
1000
MANEDIT
1070
     0
1002
}
1002
{
1000
NOSEL
1070
     0
1002
}
1002
{
1000
BEHIND
1070
     0
1002
}
1002
{
1000
OTHER
1070
     0
1002
}
1002
{
1000
REACTOR
1002
}
1001
GENIUS_GENOBJ-N-FIL_13
1002
{
1000
OWNER
1000
GEN
1002
}
  0
ARC
  5
9A5C
330
6A34
100
AcDbEntity
  8
CUT
100
AcDbCircle
 10
53.05217853779105
 20
8.359999999999876
 30
0.0
 40
0.4
100
AcDbArc
 50
270.0
 51
350.3000000000008
1001
GENIUS_GENODEF_13
1002
{
1000
HIER
1070
     0
1002
}
1002
{
1000
MANEDIT
1070
     0
1002
}
1002
{
1000
NOSEL
1070
     0
1002
}
1002
{
1000
BEHIND
1070
     0
1002
}
1002
{
1000
OTHER
1070
     0
1002
}
1002
{
1000
REACTOR
1002
}
1001
GENIUS_GENOBJ-N-FIL_13
1002
{
1000
OWNER
1000
GEN
1002
}
  0
CIRCLE
  5
9A5D
330
6A34
100
AcDbEntity
  8
SK1
100
AcDbCircle
 10
54.99999999999998
 20
16.00000000000001
 30
0.0
 40
0.4637693698488208
  0
LINE
  5
9A5E
330
6A34
100
AcDbEntity
  8
SK1
100
AcDbLine
 10
54.99999999999998
 20
16.46376936984884
 30
0.0
 11
54.99999999999998
 21
15.5362306301512
 31
0.0
  0
LINE
  5
9A5F
330
6A34
100
AcDbEntity
  8
SK1
100
AcDbLine
 10
54.53623063015116
 20
16.00000000000001
 30
0.0
 11
55.4637693698488
 21
16.00000000000001
 31
0.0
  0
LINE
  5
9A60
330
6A34
100
AcDbEntity
  8
SK1
100
AcDbLine
 10
54.99999999999998
 20
16.46376936984884
 30
0.0
 11
54.99999999999998
 21
15.5362306301512
 31
0.0
  0
LINE
  5
9A61
330
6A34
100
AcDbEntity
  8
1
100
AcDbLine
 10
54.99999999999997
 20
15.60000000000001
 30
0.0
 11
54.99999999999997
 21
14.00000000000004
 31
0.0
  0
LINE
  5
9A62
330
6A34
100
AcDbEntity
  8
CUT
100
AcDbLine
 10
54.99999999999998
 20
15.59999999999994
 30
0.0
 11
54.99999999999998
 21
13.99999999999997
 31
0.0
  0
ARC
  5
9A63
330
6A34
100
AcDbEntity
  8
1
100
AcDbCircle
 10
54.59999999999999
 20
15.60000000000001
 30
0.0
 40
0.4
100
AcDbArc
 50
0.0
 51
90.0
1001
GENIUS_GENOBJ-N-FIL_13
1002
{
1000
OWNER
1000
GEN
1002
}
1001
GENIUS_GENODEF_13
1002
{
1000
HIER
1070
     0
1002
}
1002
{
1000
MANEDIT
1070
     0
1002
}
1002
{
1000
NOSEL
1070
     0
1002
}
1002
{
1000
BEHIND
1070
     0
1002
}
1002
{
1000
OTHER
1070
     0
1002
}
1002
{
1000
REACTOR
1002
}
  0
ARC
  5
9A64
330
6A34
100
AcDbEntity
  8
CUT
100
AcDbCircle
 10
54.6
 20
15.59999999999994
 30
0.0
 40
0.4
100
AcDbArc
 50
0.0
 51
90.0
1001
GENIUS_GENOBJ-N-FIL_13
1002
{
1000
OWNER
1000
GEN
1002
}
1001
GENIUS_GENODEF_13
1002
{
1000
HIER
1070
     0
1002
}
1002
{
1000
MANEDIT
1070
     0
1002
}
1002
{
1000
NOSEL
1070
     0
1002
}
1002
{
1000
BEHIND
1070
     0
1002
}
1002
{
1000
OTHER
1070
     0
1002
}
1002
{
1000
REACTOR
1002
}
  0
LINE
  5
9A65
330
6A34
100
AcDbEntity
  8
1
100
AcDbLine
 10
53.99679480008374
 20
11.51219587175668
 30
0.0
 11
53.99679480008373
 21
-15.27113434341672
 31
0.0
  0
LINE
  5
9A76
330
6A34
100
AcDbEntity
  8
1
100
AcDbLine
 10
40.99999999999998
 20
7.959999999999951
 30
0.0
 11
28.40999999999995
 21
7.959999999999922
 31
0.0
  0
LINE
  5
9A77
330
6A34
100
AcDbEntity
  8
1
100
AcDbLine
 10
29.99999999999998
 20
15.99999999999988
 30
0.0
 11
42.59000000000002
 21
15.99999999999994
 31
0.0
  0
LINE
  5
9B21
330
6A34
100
AcDbEntity
  8
NOCUT
100
AcDbLine
 10
53.99679480008373
 20
-15.27113434341672
 30
0.0
 11
11.0
 21
-15.27113434341975
 31
0.0
  0
LINE
  5
9B22
330
6A34
100
AcDbEntity
  8
1
100
AcDbLine
 10
53.99679480008373
 20
-15.27113434341672
 30
0.0
 11
10.99999999999974
 21
-15.27113434341622
 31
0.0
  0
LINE
  5
9B23
330
6A34
100
AcDbEntity
  8
1
100
AcDbLine
 10
18.99999999999998
 20
-15.99999999999967
 30
0.0
 11
54.59999999999999
 21
-15.99999999999998
 31
0.0
  0
ARC
  5
9B24
330
6A34
100
AcDbEntity
  8
1
100
AcDbCircle
 10
18.99999999999998
 20
-15.5999999999998
 30
0.0
 40
0.4
100
AcDbArc
 50
189.6999999999983
 51
270.0
1001
GENIUS_GENODEF_13
1002
{
1000
HIER
1070
     0
1002
}
1002
{
1000
MANEDIT
1070
     0
1002
}
1002
{
1000
NOSEL
1070
     0
1002
}
1002
{
1000
BEHIND
1070
     0
1002
}
1002
{
1000
OTHER
1070
     0
1002
}
1002
{
1000
REACTOR
1002
}
1001
GENIUS_GENOBJ-N-FIL_13
1002
{
1000
OWNER
1000
GEN
1002
}
  0
LINE
  5
9B25
330
6A34
100
AcDbEntity
  8
1
100
AcDbLine
 10
18.53798440938946
 20
-15.27113434341662
 30
0.0
 11
18.60571861236444
 21
-15.66739575182585
 31
0.0
  0
LINE
  5
9B26
330
6A34
100
AcDbEntity
  8
1
100
AcDbLine
 10
54.2511098170672
 20
-12.99999999999992
 30
0.0
 11
53.99679480008401
 21
-11.51219587175802
 31
0.0
  0
LINE
  5
9B27
330
6A34
100
AcDbEntity
  8
1
100
AcDbLine
 10
55.00000000000003
 20
-13.99999999999998
 30
0.0
 11
54.25110981706726
 21
-13.00000000000001
 31
0.0
  0
ARC
  5
9B28
330
6A34
100
AcDbEntity
  8
1
100
AcDbCircle
 10
54.59999999999999
 20
-15.59999999999997
 30
0.0
 40
0.4
100
AcDbArc
 50
270.0
 51
359.9999999999992
1001
GENIUS_GENOBJ-N-FIL_13
1002
{
1000
OWNER
1000
GEN
1002
}
1001
GENIUS_GENODEF_13
1002
{
1000
HIER
1070
     0
1002
}
1002
{
1000
MANEDIT
1070
     0
1002
}
1002
{
1000
NOSEL
1070
     0
1002
}
1002
{
1000
BEHIND
1070
     0
1002
}
1002
{
1000
OTHER
1070
     0
1002
}
1002
{
1000
REACTOR
1002
}
  0
CIRCLE
  5
9B29
330
6A34
100
AcDbEntity
  8
SK1
100
AcDbCircle
 10
54.99999999999997
 20
-15.99999999999998
 30
0.0
 40
0.4637693698488208
  0
LINE
  5
9B2A
330
6A34
100
AcDbEntity
  8
SK1
100
AcDbLine
 10
54.99999999999997
 20
-16.4637693698488
 30
0.0
 11
54.99999999999997
 21
-15.53623063015116
 31
0.0
  0
LINE
  5
9B2B
330
6A34
100
AcDbEntity
  8
SK1
100
AcDbLine
 10
54.99999999999997
 20
-16.4637693698488
 30
0.0
 11
54.99999999999997
 21
-15.53623063015116
 31
0.0
  0
LINE
  5
9B2C
330
6A34
100
AcDbEntity
  8
SK1
100
AcDbLine
 10
54.53623063015115
 20
-15.99999999999998
 30
0.0
 11
55.46376936984879
 21
-15.99999999999998
 31
0.0
  0
LINE
  5
9B2D
330
6A34
100
AcDbEntity
  8
1
100
AcDbLine
 10
54.99999999999997
 20
-15.59999999999997
 30
0.0
 11
55.00000000000003
 21
-14.00000000000001
 31
0.0
  0
LINE
  5
9B62
330
6A34
100
AcDbEntity
  8
NOCUT
100
AcDbLine
 10
53.99679480008373
 20
-15.27113434341672
 30
0.0
 11
53.99679480008373
 21
0.0000000000000462
 31
0.0
  0
ARC
  5
9C02
330
6A34
100
AcDbEntity
  8
1
100
AcDbCircle
 10
19.9578214622089
 20
15.60000000000005
 30
0.0
 40
0.4
100
AcDbArc
 50
90.0
 51
170.3000000000008
1001
GENIUS_GENODEF_13
1002
{
1000
HIER
1070
     0
1002
}
1002
{
1000
MANEDIT
1070
     0
1002
}
1002
{
1000
NOSEL
1070
     0
1002
}
1002
{
1000
BEHIND
1070
     0
1002
}
1002
{
1000
OTHER
1070
     0
1002
}
1002
{
1000
REACTOR
1002
}
1001
GENIUS_GENOBJ-N-FIL_13
1002
{
1000
OWNER
1000
GEN
1002
}
  0
LINE
  5
9C03
330
6A34
100
AcDbEntity
  8
1
100
AcDbLine
 10
29.99999999999998
 20
7.959999999999951
 30
0.0
 11
18.40999999999994
 21
7.959999999999925
 31
0.0
  0
LINE
  5
9C04
330
6A34
100
AcDbEntity
  8
1
100
AcDbLine
 10
18.75889018293279
 20
10.96000000000006
 30
0.0
 11
19.56354007457336
 21
15.66739575182609
 31
0.0
  0
LINE
  5
9C05
330
6A34
100
AcDbEntity
  8
1
100
AcDbLine
 10
18.00999999999996
 20
8.360000000000013
 30
0.0
 11
18.00999999999996
 21
9.959999999999979
 31
0.0
  0
ARC
  5
9C06
330
6A34
100
AcDbEntity
  8
1
100
AcDbCircle
 10
18.40999999999994
 20
8.359999999999985
 30
0.0
 40
0.4
100
AcDbArc
 50
180.0
 51
270.0
1001
GENIUS_GENOBJ-N-FIL_13
1002
{
1000
OWNER
1000
GEN
1002
}
1001
GENIUS_GENODEF_13
1002
{
1000
HIER
1070
     0
1002
}
1002
{
1000
MANEDIT
1070
     0
1002
}
1002
{
1000
NOSEL
1070
     0
1002
}
1002
{
1000
BEHIND
1070
     0
1002
}
1002
{
1000
OTHER
1070
     0
1002
}
1002
{
1000
REACTOR
1002
}
  0
LINE
  5
9C07
330
6A34
100
AcDbEntity
  8
1
100
AcDbLine
 10
18.00999999999996
 20
9.960000000000007
 30
0.0
 11
18.75889018293273
 21
10.95999999999998
 31
0.0
  0
LINE
  5
9C08
330
6A34
100
AcDbEntity
  8
1
100
AcDbLine
 10
19.9578214622089
 20
15.99999999999989
 30
0.0
 11
31.59000000000002
 21
15.99999999999994
 31
0.0
  0
CIRCLE
  5
9C09
330
6A34
100
AcDbEntity
  8
1
100
AcDbCircle
 10
24.49999999999998
 20
11.97999999999993
 30
0.0
 40
2.749999999999976
  0
LINE
  5
9C0A
330
6A34
100
AcDbEntity
  8
1
100
AcDbLine
 10
31.24110981706717
 20
12.99999999999988
 30
0.0
 11
30.4364599254266
 21
8.292604248173859
 31
0.0
  0
ARC
  5
9C0B
330
6A34
100
AcDbEntity
  8
1
100
AcDbCircle
 10
30.04217853779106
 20
8.359999999999871
 30
0.0
 40
0.4
100
AcDbArc
 50
270.0
 51
350.3000000000008
1001
GENIUS_GENODEF_13
1002
{
1000
HIER
1070
     0
1002
}
1002
{
1000
MANEDIT
1070
     0
1002
}
1002
{
1000
NOSEL
1070
     0
1002
}
1002
{
1000
BEHIND
1070
     0
1002
}
1002
{
1000
OTHER
1070
     0
1002
}
1002
{
1000
REACTOR
1002
}
1001
GENIUS_GENOBJ-N-FIL_13
1002
{
1000
OWNER
1000
GEN
1002
}
  0
LINE
  5
9C0C
330
6A34
100
AcDbEntity
  8
1
100
AcDbLine
 10
31.98999999999999
 20
15.59999999999993
 30
0.0
 11
31.98999999999999
 21
13.99999999999997
 31
0.0
  0
ARC
  5
9C0D
330
6A34
100
AcDbEntity
  8
1
100
AcDbCircle
 10
31.59000000000002
 20
15.59999999999993
 30
0.0
 40
0.4
100
AcDbArc
 50
0.0
 51
90.0
1001
GENIUS_GENOBJ-N-FIL_13
1002
{
1000
OWNER
1000
GEN
1002
}
1001
GENIUS_GENODEF_13
1002
{
1000
HIER
1070
     0
1002
}
1002
{
1000
MANEDIT
1070
     0
1002
}
1002
{
1000
NOSEL
1070
     0
1002
}
1002
{
1000
BEHIND
1070
     0
1002
}
1002
{
1000
OTHER
1070
     0
1002
}
1002
{
1000
REACTOR
1002
}
  0
LINE
  5
9C0E
330
6A34
100
AcDbEntity
  8
1
100
AcDbLine
 10
31.98999999999999
 20
13.99999999999994
 30
0.0
 11
31.24110981706722
 21
12.99999999999997
 31
0.0
  0
DIMENSION
  5
9CED
330
6A34
100
AcDbEntity
  8
2
100
AcDbDimension
  2
*D4
 10
75.06231013075105
 20
-15.99999999999998
 30
0.0
 11
71.81196564256207
 21
0.0000000000000242
 31
0.0
 70
    32
  1
%%c<>
  3
AM_DIN
100
AcDbAlignedDimension
 13
54.99999999999998
 23
16.00000000000001
 33
0.0
 14
54.99999999999997
 24
-15.99999999999998
 34
0.0
 50
90.0
100
AcDbRotatedDimension
  0
LINE
  5
9D4B
330
6A34
100
AcDbEntity
  8
NOCUT
100
AcDbLine
 10
11.99999999999998
 20
15.58326356767557
 30
0.0
 11
11.99999999999998
 21
19.31277676137673
 31
0.0
  0
LINE
  5
9D4D
330
6A34
100
AcDbEntity
  8
NOCUT
100
AcDbLine
 10
19.99999999999998
 20
16.2702791883706
 30
0.0
 11
19.99999999999998
 21
19.28824024750335
 31
0.0
  0
DIMENSION
  5
9D69
330
6A34
100
AcDbEntity
  8
2
100
AcDbDimension
  2
*D5
 10
-0.0000000000000182
 20
75.00000000000001
 30
0.0
 11
27.49999999999998
 21
78.25000000000001
 31
0.0
 70
    32
  3
AM_DIN
100
AcDbAlignedDimension
 13
54.99999999999998
 23
16.00000000000001
 33
0.0
 14
-0.0000000000000213
 24
23.99999999999998
 34
0.0
100
AcDbRotatedDimension
  0
DIMENSION
  5
9D91
330
6A34
100
AcDbEntity
  8
2
100
AcDbDimension
  2
*D6
 10
11.99999999999999
 20
60.00000000000001
 30
0.0
 11
33.49999999999998
 21
63.25000000000001
 31
0.0
 70
    32
  3
AM_DIN
100
AcDbAlignedDimension
 13
54.99999999999998
 23
16.00000000000001
 33
0.0
 14
11.99999999999998
 24
15.58326356767557
 34
0.0
100
AcDbRotatedDimension
  0
DIMENSION
  5
9DB9
330
6A34
100
AcDbEntity
  8
2
100
AcDbDimension
  2
*D7
 10
19.99999999999998
 20
45.00000000000001
 30
0.0
 11
37.49999999999998
 21
48.25000000000001
 31
0.0
 70
    32
  3
AM_DIN
100
AcDbAlignedDimension
 13
54.99999999999998
 23
16.00000000000001
 33
0.0
 14
19.99999999999998
 24
16.2702791883706
 34
0.0
100
AcDbRotatedDimension
  0
ENDSEC
  0
SECTION
  2
OBJECTS
  0
DICTIONARY
  5
6A22
330
0
100
AcDbDictionary
  3
ACAD_GROUP
350
6A23
  3
ACAD_LAYOUT
350
6A2F
  3
ACAD_MLINESTYLE
350
6A2C
  3
ACAD_PLOTSETTINGS
350
6A2E
  3
ACAD_PLOTSTYLENAME
350
6A24
  3
ACDBHEADERROUNDTRIPXREC
350
9E15
  3
ACDBVARIABLEDICTIONARY
350
6B78
  3
ACMDICTIONARY
350
6B39
  3
AMG
350
6B22
  3
AMGSNAPSETTINGS
350
6B59
  3
ASE_INDEX_DICTIONARY
350
89F6
  3
DWGPROPS
350
9E11
  0
DICTIONARY
  5
6B62
330
6A34
100
AcDbDictionary
280
     1
  3
ACAD_INDEX
360
6B63
  3
ACAD_LAYOUTSELFREF
360
9E38
  0
DICTIONARY
  5
9E36
330
6A30
100
AcDbDictionary
280
     1
  3
ACAD_LAYOUTSELFREF
360
9E37
  0
DICTIONARY
  5
6A23
102
{ACAD_REACTORS
330
6A22
102
}
330
6A22
100
AcDbDictionary
  0
DICTIONARY
  5
6A2F
102
{ACAD_REACTORS
330
6A22
102
}
330
6A22
100
AcDbDictionary
  0
DICTIONARY
  5
6A2C
102
{ACAD_REACTORS
330
6A22
102
}
330
6A22
100
AcDbDictionary
  3
STANDARD
350
6A2D
  0
DICTIONARY
  5
6A2E
102
{ACAD_REACTORS
330
6A22
102
}
330
6A22
100
AcDbDictionary
  0
ACDBDICTIONARYWDFLT
  5
6A24
102
{ACAD_REACTORS
330
6A22
102
}
330
6A22
100
AcDbDictionary
281
     1
  3
Normal
350
6A25
100
AcDbDictionaryWithDefault
340
6A25
  0
DICTIONARY
  5
9E15
102
{ACAD_REACTORS
330
6A22
102
}
330
6A22
100
AcDbDictionary
  3
CEPSNTYPE
350
9E1F
  3
DIMSTYLEDATA
350
9E23
  3
FINGERPRINTGUID
350
9E20
  3
HYPERLINKBASE
350
9E18
  3
INSUNITS
350
9E1E
  3
LAYOUTDICT
350
9E1A
  3
LWETCUNION
350
9E1D
  3
PLOTSETDICT
350
9E1B
  3
PLOTSTYLNAMDICT
350
9E1C
  3
PSVPSCALE
350
9E22
  3
PUCSBASE
350
9E26
  3
PUCSORGBACK
350
9E2C
  3
PUCSORGBOTTOM
350
9E28
  3
PUCSORGFRONT
350
9E2B
  3
PUCSORGLEFT
350
9E29
  3
PUCSORGRIGHT
350
9E2A
  3
PUCSORGTOP
350
9E27
  3
PUCSORTHOREF
350
9E24
  3
PUCSORTHOVIEW
350
9E25
  3
STYLESHEET
350
9E19
  3
TSTACKALIGN
350
9E16
  3
TSTACKSIZE
350
9E17
  3
UCSBASE
350
9E2F
  3
UCSORGBACK
350
9E35
  3
UCSORGBOTTOM
350
9E31
  3
UCSORGFRONT
350
9E34
  3
UCSORGLEFT
350
9E32
  3
UCSORGRIGHT
350
9E33
  3
UCSORGTOP
350
9E30
  3
UCSORTHOREF
350
9E2D
  3
UCSORTHOVIEW
350
9E2E
  3
VERSIONGUID
350
9E21
  0
DICTIONARY
  5
6B78
102
{ACAD_REACTORS
330
6A22
102
}
330
6A22
100
AcDbDictionary
  3
DIMASSOC
350
6B7A
  3
INDEXCTL
350
6B79
  0
DICTIONARY
  5
6B39
102
{ACAD_REACTORS
330
6A22
102
}
330
6A22
100
AcDbDictionary
  3
ACMSTDDICTIONARY
350
6B3F
  0
DICTIONARY
  5
6B22
102
{ACAD_REACTORS
330
6A22
102
}
330
6A22
100
AcDbDictionary
  3
ACMGSETTINGS
350
6B23
  0
DICTIONARY
  5
6B59
102
{ACAD_REACTORS
330
6A22
102
}
330
6A22
100
AcDbDictionary
  0
DICTIONARY
  5
89F6
102
{ACAD_REACTORS
330
6A22
102
}
330
6A22
100
AcDbDictionary
  3
ASEBLOCKHIERARCHYINDEXRECORD
350
89F8
1001
DCO15
1040
1550954233.809999
  0
XRECORD
  5
9E11
102
{ACAD_REACTORS
330
6A22
102
}
330
6A22
100
AcDbXrecord
  1
DWGPROPS COOKIE
  2

  3

  4

  6

  7

  8

  9

300
AmdtFileType=84
301
=
302
=
303
=
304
=
305
=
306
=
307
=
308
=
309
=
 40
0.2160198263888889
 41
2453447.43007081
 42
2453788.150282222
  1

 90
        1
  0
DICTIONARY
  5
6B63
102
{ACAD_REACTORS
330
6B62
102
}
330
6B62
100
AcDbDictionary
  3
*A1
350
6B64
  0
XRECORD
  5
9E38
102
{ACAD_REACTORS
330
6B62
102
}
330
6B62
100
AcDbXrecord
340
6A34
  0
XRECORD
  5
9E37
102
{ACAD_REACTORS
330
9E36
102
}
330
9E36
100
AcDbXrecord
340
6A30
  0
MLINESTYLE
  5
6A2D
102
{ACAD_REACTORS
330
6A2C
102
}
330
6A2C
100
AcDbMlineStyle
  2
STANDARD
 70
     0
  3

 62
   256
 51
90.0
 52
90.0
 71
     2
 49
0.5
 62
   256
  6
BYLAYER
 49
-0.5
 62
   256
  6
BYLAYER
  0
ACDBPLACEHOLDER
  5
6A25
102
{ACAD_REACTORS
330
6A24
102
}
330
6A24
100
AcDbPlaceHolder
280
     0
  0
XRECORD
  5
9E1F
102
{ACAD_REACTORS
330
9E15
102
}
330
9E15
100
AcDbXrecord
 90
        0
  0
XRECORD
  5
9E23
102
{ACAD_REACTORS
330
9E15
102
}
330
9E15
100
AcDbXrecord
1000
DSTYLE
1002
{
1070
   279
 70
     2
1002
}
  0
XRECORD
  5
9E20
102
{ACAD_REACTORS
330
9E15
102
}
330
9E15
100
AcDbXrecord
  1
{5E8163B8-4D8F-4110-B677-A6458ADDE735}
  0
XRECORD
  5
9E18
102
{ACAD_REACTORS
330
9E15
102
}
330
9E15
100
AcDbXrecord
  1

  0
XRECORD
  5
9E1E
102
{ACAD_REACTORS
330
9E15
102
}
330
9E15
100
AcDbXrecord
 90
        4
  0
XRECORD
  5
9E1A
102
{ACAD_REACTORS
330
9E15
102
}
330
9E15
100
AcDbXrecord
340
6A2F
  0
XRECORD
  5
9E1D
102
{ACAD_REACTORS
330
9E15
102
}
330
9E15
100
AcDbXrecord
 90
    10781
  0
XRECORD
  5
9E1B
102
{ACAD_REACTORS
330
9E15
102
}
330
9E15
100
AcDbXrecord
340
6A2E
  0
XRECORD
  5
9E1C
102
{ACAD_REACTORS
330
9E15
102
}
330
9E15
100
AcDbXrecord
340
6A24
  0
XRECORD
  5
9E22
102
{ACAD_REACTORS
330
9E15
102
}
330
9E15
100
AcDbXrecord
 40
0.0
  0
XRECORD
  5
9E26
102
{ACAD_REACTORS
330
9E15
102
}
330
9E15
100
AcDbXrecord
340
0
  0
XRECORD
  5
9E2C
102
{ACAD_REACTORS
330
9E15
102
}
330
9E15
100
AcDbXrecord
 10
0.0
 20
0.0
 30
0.0
  0
XRECORD
  5
9E28
102
{ACAD_REACTORS
330
9E15
102
}
330
9E15
100
AcDbXrecord
 10
0.0
 20
0.0
 30
0.0
  0
XRECORD
  5
9E2B
102
{ACAD_REACTORS
330
9E15
102
}
330
9E15
100
AcDbXrecord
 10
0.0
 20
0.0
 30
0.0
  0
XRECORD
  5
9E29
102
{ACAD_REACTORS
330
9E15
102
}
330
9E15
100
AcDbXrecord
 10
0.0
 20
0.0
 30
0.0
  0
XRECORD
  5
9E2A
102
{ACAD_REACTORS
330
9E15
102
}
330
9E15
100
AcDbXrecord
 10
0.0
 20
0.0
 30
0.0
  0
XRECORD
  5
9E27
102
{ACAD_REACTORS
330
9E15
102
}
330
9E15
100
AcDbXrecord
 10
0.0
 20
0.0
 30
0.0
  0
XRECORD
  5
9E24
102
{ACAD_REACTORS
330
9E15
102
}
330
9E15
100
AcDbXrecord
340
0
  0
XRECORD
  5
9E25
102
{ACAD_REACTORS
330
9E15
102
}
330
9E15
100
AcDbXrecord
 70
     0
  0
XRECORD
  5
9E19
102
{ACAD_REACTORS
330
9E15
102
}
330
9E15
100
AcDbXrecord
  1

  0
XRECORD
  5
9E16
102
{ACAD_REACTORS
330
9E15
102
}
330
9E15
100
AcDbXrecord
 90
        1
  0
XRECORD
  5
9E17
102
{ACAD_REACTORS
330
9E15
102
}
330
9E15
100
AcDbXrecord
 90
       70
  0
XRECORD
  5
9E2F
102
{ACAD_REACTORS
330
9E15
102
}
330
9E15
100
AcDbXrecord
340
0
  0
XRECORD
  5
9E35
102
{ACAD_REACTORS
330
9E15
102
}
330
9E15
100
AcDbXrecord
 10
0.0
 20
0.0
 30
0.0
  0
XRECORD
  5
9E31
102
{ACAD_REACTORS
330
9E15
102
}
330
9E15
100
AcDbXrecord
 10
0.0
 20
0.0
 30
0.0
  0
XRECORD
  5
9E34
102
{ACAD_REACTORS
330
9E15
102
}
330
9E15
100
AcDbXrecord
 10
0.0
 20
0.0
 30
0.0
  0
XRECORD
  5
9E32
102
{ACAD_REACTORS
330
9E15
102
}
330
9E15
100
AcDbXrecord
 10
0.0
 20
0.0
 30
0.0
  0
XRECORD
  5
9E33
102
{ACAD_REACTORS
330
9E15
102
}
330
9E15
100
AcDbXrecord
 10
0.0
 20
0.0
 30
0.0
  0
XRECORD
  5
9E30
102
{ACAD_REACTORS
330
9E15
102
}
330
9E15
100
AcDbXrecord
 10
0.0
 20
0.0
 30
0.0
  0
XRECORD
  5
9E2D
102
{ACAD_REACTORS
330
9E15
102
}
330
9E15
100
AcDbXrecord
340
0
  0
XRECORD
  5
9E2E
102
{ACAD_REACTORS
330
9E15
102
}
330
9E15
100
AcDbXrecord
 70
     0
  0
XRECORD
  5
9E21
102
{ACAD_REACTORS
330
9E15
102
}
330
9E15
100
AcDbXrecord
  1
{991AD115-D1A3-4AFA-87A5-81AFE3B2FA07}
  0
DICTIONARYVAR
  5
6B7A
102
{ACAD_REACTORS
330
6B78
102
}
330
6B78
100
DictionaryVariables
280
     0
  1
1
  0
DICTIONARYVAR
  5
6B79
102
{ACAD_REACTORS
330
6B78
102
}
330
6B78
100
DictionaryVariables
280
     0
  1
1
  0
DICTIONARY
  5
6B3F
102
{ACAD_REACTORS
330
6B39
102
}
330
6B39
100
AcDbDictionary
  0
DICTIONARY
  5
6B23
102
{ACAD_REACTORS
330
6B22
102
}
330
6B22
100
AcDbDictionary
  3
DWGSETTINGS
350
6B24
  0
XRECORD
  5
89F8
102
{ACAD_REACTORS
330
89F6
102
}
330
89F6
100
AcDbXrecord
  0
LAYER_INDEX
  5
6B64
102
{ACAD_REACTORS
330
6B63
102
}
330
6B63
100
AcDbIndex
 40
2453788.38068044
100
AcDbLayerIndex
  8
0
360
6B65
 90
        0
  8
DEFPOINTS
360
6B66
 90
        0
  8
1
360
6B67
 90
       49
  8
2
360
6B68
 90
        4
  8
4
360
6B69
 90
        5
  8
6
360
6B6A
 90
        4
  8
SK1
360
6B6B
 90
       31
  8
SK2
360
6B6C
 90
        2
  8
SK4
360
6B6D
 90
        4
  8
CUT
360
6B6E
 90
       12
  8
NOCUT
360
6B6F
 90
       10
  8
SK3
360
91F5
 90
       16
  8
SK6
360
91F6
 90
        1
  0
XRECORD
  5
6B24
102
{ACAD_REACTORS
330
6B23
102
}
330
6B23
100
AcDbXrecord
  1
VERSION
140
15.0
  1
PRODUCT
  2
AutoCAD Mechanical 2000
  0
IDBUFFER
  5
6B65
330
0
100
AcDbIdBuffer
  0
IDBUFFER
  5
6B66
330
0
100
AcDbIdBuffer
  0
IDBUFFER
  5
6B67
330
0
100
AcDbIdBuffer
330
904F
330
9058
330
9063
330
907B
330
907D
330
9086
330
983D
330
98DF
330
9A43
330
9A47
330
9A48
330
9A49
330
9A4F
330
9A50
330
9A51
330
9A52
330
9A53
330
9A54
330
9A55
330
9A56
330
9A57
330
9A59
330
9A5B
330
9A61
330
9A63
330
9A65
330
9A76
330
9A77
330
9B22
330
9B23
330
9B24
330
9B25
330
9B26
330
9B27
330
9B28
330
9B2D
330
9C02
330
9C03
330
9C04
330
9C05
330
9C06
330
9C07
330
9C08
330
9C09
330
9C0A
330
9C0B
330
9C0C
330
9C0D
330
9C0E
  0
IDBUFFER
  5
6B68
330
0
100
AcDbIdBuffer
330
9CED
330
9D69
330
9D91
330
9DB9
  0
IDBUFFER
  5
6B69
330
0
100
AcDbIdBuffer
330
949C
330
97B6
330
97B7
330
97D5
330
97D6
  0
IDBUFFER
  5
6B6A
330
0
100
AcDbIdBuffer
330
92F0
330
980C
330
980D
330
9A3E
  0
IDBUFFER
  5
6B6B
330
0
100
AcDbIdBuffer
330
905C
330
9060
330
9061
330
9062
330
9064
330
9065
330
9066
330
9067
330
9069
330
906A
330
906B
330
906C
330
906D
330
906E
330
906F
330
9070
330
9071
330
9072
330
9075
330
9076
330
9077
330
9078
330
9079
330
9A5D
330
9A5E
330
9A5F
330
9A60
330
9B29
330
9B2A
330
9B2B
330
9B2C
  0
IDBUFFER
  5
6B6C
330
0
100
AcDbIdBuffer
330
9059
330
905A
  0
IDBUFFER
  5
6B6D
330
0
100
AcDbIdBuffer
330
80EB
330
9050
330
9057
330
905F
  0
IDBUFFER
  5
6B6E
330
0
100
AcDbIdBuffer
330
9A45
330
9A46
330
9A4A
330
9A4B
330
9A4C
330
9A4D
330
9A4E
330
9A58
330
9A5A
330
9A5C
330
9A62
330
9A64
  0
IDBUFFER
  5
6B6F
330
0
100
AcDbIdBuffer
330
9D4B
330
9D4D
330
904E
330
905B
330
907A
330
907C
330
98E0
330
98EA
330
9B21
330
9B62
  0
IDBUFFER
  5
91F5
330
0
100
AcDbIdBuffer
330
9051
330
9052
330
9053
330
9054
330
9055
330
9056
330
905D
330
905E
330
9073
330
9074
330
907E
330
907F
330
9080
330
9081
330
9082
330
9087
  0
IDBUFFER
  5
91F6
330
0
100
AcDbIdBuffer
330
904D
  0
ENDSEC
  0
EOF
