  0
SECTION
  2
HEADER
  9
$ACADVER
  1
AC1015
  9
$ACADMAINTVER
 70
    20
  9
$DWGCODEPAGE
  3
ANSI_1252
  9
$INSBASE
 10
0.0
 20
0.0
 30
0.0
  9
$EXTMIN
 10
-180.0852758446815
 20
-361.6974463392694
 30
0.0
  9
$EXTMAX
 10
361.0386635581405
 20
88.7606238173471
 30
0.0
  9
$LIMMIN
 10
0.0
 20
0.0
  9
$LIMMAX
 10
420.0
 20
297.0
  9
$ORTHOMODE
 70
     1
  9
$REGENMODE
 70
     1
  9
$FILLMODE
 70
     1
  9
$QTEXTMODE
 70
     0
  9
$MIRRTEXT
 70
     0
  9
$LTSCALE
 40
23.1
  9
$ATTMODE
 70
     1
  9
$TEXTSIZE
 40
3.5
  9
$TRACEWID
 40
0.05
  9
$TEXTSTYLE
  7
STANDARD
  9
$CLAYER
  8
0
  9
$CELTYPE
  6
BYLAYER
  9
$CECOLOR
 62
   256
  9
$CELTSCALE
 40
1.0
  9
$DISPSILH
 70
     0
  9
$DIMSCALE
 40
1.0
  9
$DIMASZ
 40
4.57
  9
$DIMEXO
 40
0.0625
  9
$DIMDLI
 40
0.38
  9
$DIMRND
 40
0.0
  9
$DIMDLE
 40
0.0
  9
$DIMEXE
 40
0.18
  9
$DIMTP
 40
0.01
  9
$DIMTM
 40
0.01
  9
$DIMTXT
 40
3.5
  9
$DIMCEN
 40
0.09
  9
$DIMTSZ
 40
0.0
  9
$DIMTOL
 70
     0
  9
$DIMLIM
 70
     0
  9
$DIMTIH
 70
     0
  9
$DIMTOH
 70
     0
  9
$DIMSE1
 70
     0
  9
$DIMSE2
 70
     0
  9
$DIMTAD
 70
     1
  9
$DIMZIN
 70
     8
  9
$DIMBLK
  1

  9
$DIMASO
 70
     1
  9
$DIMSHO
 70
     1
  9
$DIMPOST
  1

  9
$DIMAPOST
  1

  9
$DIMALT
 70
     0
  9
$DIMALTD
 70
     2
  9
$DIMALTF
 40
25.4
  9
$DIMLFAC
 40
1.0
  9
$DIMTOFL
 70
     0
  9
$DIMTVP
 40
0.0
  9
$DIMTIX
 70
     0
  9
$DIMSOXD
 70
     0
  9
$DIMSAH
 70
     0
  9
$DIMBLK1
  1

  9
$DIMBLK2
  1

  9
$DIMSTYLE
  2
STANDARD
  9
$DIMCLRD
 70
     0
  9
$DIMCLRE
 70
     0
  9
$DIMCLRT
 70
     0
  9
$DIMTFAC
 40
1.0
  9
$DIMGAP
 40
0.09
  9
$DIMJUST
 70
     0
  9
$DIMSD1
 70
     0
  9
$DIMSD2
 70
     0
  9
$DIMTOLJ
 70
     1
  9
$DIMTZIN
 70
     8
  9
$DIMALTZ
 70
     0
  9
$DIMALTTZ
 70
     0
  9
$DIMUPT
 70
     0
  9
$DIMDEC
 70
     3
  9
$DIMTDEC
 70
     3
  9
$DIMALTU
 70
     2
  9
$DIMALTTD
 70
     2
  9
$DIMTXSTY
  7
STANDARD
  9
$DIMAUNIT
 70
     0
  9
$DIMADEC
 70
     0
  9
$DIMALTRND
 40
0.0
  9
$DIMAZIN
 70
     0
  9
$DIMDSEP
 70
    46
  9
$DIMATFIT
 70
     0
  9
$DIMFRAC
 70
     0
  9
$DIMLDRBLK
  1

  9
$DIMLUNIT
 70
     2
  9
$DIMLWD
 70
    -2
  9
$DIMLWE
 70
    -2
  9
$DIMTMOVE
 70
     0
  9
$LUNITS
 70
     2
  9
$LUPREC
 70
     4
  9
$SKETCHINC
 40
0.1
  9
$FILLETRAD
 40
8.0
  9
$AUNITS
 70
     0
  9
$AUPREC
 70
     0
  9
$MENU
  1
.
  9
$ELEVATION
 40
0.0
  9
$PELEVATION
 40
0.0
  9
$THICKNESS
 40
0.0
  9
$LIMCHECK
 70
     0
  9
$CHAMFERA
 40
0.0
  9
$CHAMFERB
 40
0.0
  9
$CHAMFERC
 40
0.0
  9
$CHAMFERD
 40
0.0
  9
$SKPOLY
 70
     0
  9
$TDCREATE
 40
2457401.478519410
  9
$TDUCREATE
 40
2457401.436852743
  9
$TDUPDATE
 40
2457401.492634190
  9
$TDUUPDATE
 40
2457401.450967523
  9
$TDINDWG
 40
0.0141162616
  9
$TDUSRTIMER
 40
0.0141159838
  9
$USRTIMER
 70
     1
  9
$ANGBASE
 50
0.0
  9
$ANGDIR
 70
     0
  9
$PDMODE
 70
     3
  9
$PDSIZE
 40
0.3125
  9
$PLINEWID
 40
0.0
  9
$SPLFRAME
 70
     0
  9
$SPLINETYPE
 70
     6
  9
$SPLINESEGS
 70
     8
  9
$HANDSEED
  5
21281
  9
$SURFTAB1
 70
     6
  9
$SURFTAB2
 70
     6
  9
$SURFTYPE
 70
     6
  9
$SURFU
 70
     6
  9
$SURFV
 70
     6
  9
$UCSBASE
  2

  9
$UCSNAME
  2

  9
$UCSORG
 10
0.0
 20
0.0
 30
0.0
  9
$UCSXDIR
 10
1.0
 20
0.0
 30
0.0
  9
$UCSYDIR
 10
0.0
 20
1.0
 30
0.0
  9
$UCSORTHOREF
  2

  9
$UCSORTHOVIEW
 70
     0
  9
$UCSORGTOP
 10
0.0
 20
0.0
 30
0.0
  9
$UCSORGBOTTOM
 10
0.0
 20
0.0
 30
0.0
  9
$UCSORGLEFT
 10
0.0
 20
0.0
 30
0.0
  9
$UCSORGRIGHT
 10
0.0
 20
0.0
 30
0.0
  9
$UCSORGFRONT
 10
0.0
 20
0.0
 30
0.0
  9
$UCSORGBACK
 10
0.0
 20
0.0
 30
0.0
  9
$PUCSBASE
  2

  9
$PUCSNAME
  2

  9
$PUCSORG
 10
0.0
 20
0.0
 30
0.0
  9
$PUCSXDIR
 10
1.0
 20
0.0
 30
0.0
  9
$PUCSYDIR
 10
0.0
 20
1.0
 30
0.0
  9
$PUCSORTHOREF
  2

  9
$PUCSORTHOVIEW
 70
     0
  9
$PUCSORGTOP
 10
0.0
 20
0.0
 30
0.0
  9
$PUCSORGBOTTOM
 10
0.0
 20
0.0
 30
0.0
  9
$PUCSORGLEFT
 10
0.0
 20
0.0
 30
0.0
  9
$PUCSORGRIGHT
 10
0.0
 20
0.0
 30
0.0
  9
$PUCSORGFRONT
 10
0.0
 20
0.0
 30
0.0
  9
$PUCSORGBACK
 10
0.0
 20
0.0
 30
0.0
  9
$USERI1
 70
     0
  9
$USERI2
 70
     0
  9
$USERI3
 70
     0
  9
$USERI4
 70
     0
  9
$USERI5
 70
     0
  9
$USERR1
 40
0.0
  9
$USERR2
 40
0.0
  9
$USERR3
 40
0.0
  9
$USERR4
 40
0.0
  9
$USERR5
 40
0.0
  9
$WORLDVIEW
 70
     1
  9
$SHADEDGE
 70
     3
  9
$SHADEDIF
 70
    70
  9
$TILEMODE
 70
     1
  9
$MAXACTVP
 70
    64
  9
$PINSBASE
 10
0.0
 20
0.0
 30
0.0
  9
$PLIMCHECK
 70
     0
  9
$PEXTMIN
 10
28.69141678810127
 20
19.6363175392151
 30
0.0
  9
$PEXTMAX
 10
258.2227510929107
 20
176.7268578529358
 30
0.0
  9
$PLIMMIN
 10
-5.027069091796875
 20
-6.805083274841307
  9
$PLIMMAX
 10
291.9412536621094
 20
203.1682443618775
  9
$UNITMODE
 70
     0
  9
$VISRETAIN
 70
     1
  9
$PLINEGEN
 70
     0
  9
$PSLTSCALE
 70
     1
  9
$TREEDEPTH
 70
  3020
  9
$CMLSTYLE
  2
STANDARD
  9
$CMLJUST
 70
     0
  9
$CMLSCALE
 40
1.0
  9
$PROXYGRAPHICS
 70
     1
  9
$MEASUREMENT
 70
     1
  9
$CELWEIGHT
370
    -1
  9
$ENDCAPS
280
     0
  9
$JOINSTYLE
280
     0
  9
$LWDISPLAY
290
     0
  9
$INSUNITS
 70
     0
  9
$HYPERLINKBASE
  1

  9
$STYLESHEET
  1
A1-A2.CTB
  9
$XEDIT
290
     1
  9
$CEPSNTYPE
380
     0
  9
$PSTYLEMODE
290
     1
  9
$FINGERPRINTGUID
  2
{365D0452-3F51-41D1-83A5-9E2EC737E28F}
  9
$VERSIONGUID
  2
{92475A3A-5515-41DB-BA27-905882D30170}
  9
$EXTNAMES
290
     1
  9
$PSVPSCALE
 40
0.0
  9
$OLESTARTUP
290
     0
  0
ENDSEC
  0
SECTION
  2
CLASSES
  0
CLASS
  1
ACDBDICTIONARYWDFLT
  2
AcDbDictionaryWithDefault
  3
ObjectDBX Classes
 90
        0
280
     0
281
     0
  0
CLASS
  1
MATERIAL
  2
AcDbMaterial
  3
ObjectDBX Classes
 90
     1153
280
     0
281
     0
  0
CLASS
  1
VISUALSTYLE
  2
AcDbVisualStyle
  3
ObjectDBX Classes
 90
     4095
280
     0
281
     0
  0
CLASS
  1
TABLESTYLE
  2
AcDbTableStyle
  3
ObjectDBX Classes
 90
     4095
280
     0
281
     0
  0
CLASS
  1
SORTENTSTABLE
  2
AcDbSortentsTable
  3
ObjectDBX Classes
 90
        0
280
     0
281
     0
  0
CLASS
  1
DICTIONARYVAR
  2
AcDbDictionaryVar
  3
ObjectDBX Classes
 90
        0
280
     0
281
     0
  0
CLASS
  1
EXACXREFPANELOBJECT
  2
ExAcXREFPanelObject
  3
EXAC_ESW
 90
    33793
280
     1
281
     0
  0
CLASS
  1
NPOCOLLECTION
  2
AcDbImpNonPersistentObjectsCollection
  3
ObjectDBX Classes
 90
    33921
280
     1
281
     0
  0
CLASS
  1
ACDBPLACEHOLDER
  2
AcDbPlaceHolder
  3
ObjectDBX Classes
 90
        0
280
     0
281
     0
  0
CLASS
  1
LAYOUT
  2
AcDbLayout
  3
ObjectDBX Classes
 90
        0
280
     0
281
     0
  0
CLASS
  1
SCALE
  2
AcDbScale
  3
ObjectDBX Classes
 90
     1153
280
     0
281
     0
  0
CLASS
  1
MLEADERSTYLE
  2
AcDbMLeaderStyle
  3
ACDB_MLEADERSTYLE_CLASS
 90
     4095
280
     0
281
     0
  0
CLASS
  1
ACDBSECTIONVIEWSTYLE
  2
AcDbSectionViewStyle
  3
ObjectDBX Classes
 90
     1025
280
     0
281
     0
  0
CLASS
  1
ACDBDETAILVIEWSTYLE
  2
AcDbDetailViewStyle
  3
ObjectDBX Classes
 90
     1025
280
     0
281
     0
  0
CLASS
  1
CELLSTYLEMAP
  2
AcDbCellStyleMap
  3
ObjectDBX Classes
 90
     1152
280
     0
281
     0
  0
CLASS
  1
ACAD_EVALUATION_GRAPH
  2
AcDbEvalGraph
  3
ObjectDBX Classes
 90
    33921
280
     0
281
     0
  0
CLASS
  1
ACAECUSTOBJ
  2
AcAeEditorObj
  3
AcAeEditorObj
 90
    33792
280
     0
281
     0
  0
CLASS
  1
ACDB_DYNAMICBLOCKPURGEPREVENTER_VERSION
  2
AcDbDynamicBlockPurgePreventer
  3
ObjectDBX Classes
 90
    33921
280
     0
281
     0
  0
CLASS
  1
FIELD
  2
AcDbField
  3
ObjectDBX Classes
 90
     1152
280
     0
281
     0
  0
CLASS
  1
FIELDLIST
  2
AcDbFieldList
  3
ObjectDBX Classes
 90
     1152
280
     0
281
     0
  0
ENDSEC
  0
SECTION
  2
TABLES
  0
TABLE
  2
VPORT
  5
8
330
0
100
AcDbSymbolTable
 70
     1
  0
VPORT
  5
1F4
330
8
100
AcDbSymbolTableRecord
100
AcDbViewportTableRecord
  2
*ACTIVE
 70
     0
 10
0.0
 20
0.0
 11
1.0
 21
1.0
 12
23.0243414662167
 22
13.44277714065158
 13
0.0
 23
0.0
 14
1.0
 24
1.0
 15
0.0
 25
0.0
 16
0.0
 26
0.0
 36
1.0
 17
0.0
 27
0.0
 37
0.0
 40
230.0651538543017
 41
2.124153498871331
 42
50.0
 43
0.0
 44
0.0
 50
0.0
 51
0.0
 71
     0
 72
  2000
 73
     1
 74
     1
 75
     0
 76
     0
 77
     0
 78
     0
281
     0
 65
     1
110
0.0
120
0.0
130
0.0
111
1.0
121
0.0
131
0.0
112
0.0
122
1.0
132
0.0
 79
     0
146
0.0
1001
ACAD_NAV_VCDISPLAY
1070
     3
  0
ENDTAB
  0
TABLE
  2
LTYPE
  5
5
330
0
100
AcDbSymbolTable
 70
     7
  0
LTYPE
  5
14
330
5
100
AcDbSymbolTableRecord
100
AcDbLinetypeTableRecord
  2
BYBLOCK
 70
     0
  3

 72
    65
 73
     0
 40
0.0
  0
LTYPE
  5
15
330
5
100
AcDbSymbolTableRecord
100
AcDbLinetypeTableRecord
  2
BYLAYER
 70
     0
  3

 72
    65
 73
     0
 40
0.0
  0
LTYPE
  5
16
330
5
100
AcDbSymbolTableRecord
100
AcDbLinetypeTableRecord
  2
CONTINUOUS
 70
     0
  3
Solid line
 72
    65
 73
     0
 40
0.0
  0
LTYPE
  5
9C48
330
5
100
AcDbSymbolTableRecord
100
AcDbLinetypeTableRecord
  2
CENTER
 70
     0
  3
____ _ ____ _ ____ _ ____ _ ____ _ ____ _ ____
 72
    65
 73
     4
 40
0.6
 49
0.375
 74
     0
 49
-0.075
 74
     0
 49
0.075
 74
     0
 49
-0.075
 74
     0
  0
LTYPE
  5
20A82
330
5
100
AcDbSymbolTableRecord
100
AcDbLinetypeTableRecord
  2
HIDDEN
 70
     0
  3
- - - - - - - - - - - - - - - - - - - -
 72
    65
 73
     2
 40
0.2
 49
0.1
 74
     0
 49
-0.1
 74
     0
  0
ENDTAB
  0
TABLE
  2
LAYER
  5
2
102
{ACAD_XDICTIONARY
360
422A
102
}
330
0
100
AcDbSymbolTable
 70
    18
  0
LAYER
  5
10
102
{ACAD_XDICTIONARY
360
1B2F5
102
}
330
2
100
AcDbSymbolTableRecord
100
AcDbLayerTableRecord
  2
0
 70
     0
 62
     7
  6
CONTINUOUS
370
    -3
390
318A
  0
LAYER
  5
3F8C
102
{ACAD_XDICTIONARY
360
1B2F7
102
}
330
2
100
AcDbSymbolTableRecord
100
AcDbLayerTableRecord
  2
1
 70
     0
 62
     4
  6
BYBLOCK
370
    50
390
318A
  0
LAYER
  5
3FA7
330
2
100
AcDbSymbolTableRecord
100
AcDbLayerTableRecord
  2
Defpoints
 70
     0
 62
     7
  6
CONTINUOUS
290
     0
370
    -3
390
318A
  0
LAYER
  5
9C4A
102
{ACAD_XDICTIONARY
360
1B2F9
102
}
330
2
100
AcDbSymbolTableRecord
100
AcDbLayerTableRecord
  2
2
 70
     0
 62
     7
  6
BYBLOCK
370
    25
390
318A
  0
LAYER
  5
9C4B
102
{ACAD_XDICTIONARY
360
1B2FB
102
}
330
2
100
AcDbSymbolTableRecord
100
AcDbLayerTableRecord
  2
4
 70
     0
 62
     2
  6
CENTER
370
    25
390
318A
  0
LAYER
  5
9C4D
102
{ACAD_XDICTIONARY
360
1B2FD
102
}
330
2
100
AcDbSymbolTableRecord
100
AcDbLayerTableRecord
  2
CUT
 70
     0
 62
     1
  6
BYBLOCK
370
    25
390
318A
  0
LAYER
  5
9C4E
102
{ACAD_XDICTIONARY
360
1B2FF
102
}
330
2
100
AcDbSymbolTableRecord
100
AcDbLayerTableRecord
  2
NOCUT
 70
     0
 62
     7
  6
BYBLOCK
370
    25
390
318A
  0
LAYER
  5
9C4F
102
{ACAD_XDICTIONARY
360
1B301
102
}
330
2
100
AcDbSymbolTableRecord
100
AcDbLayerTableRecord
  2
SK2
 70
     0
 62
     7
  6
BYBLOCK
370
    25
390
318A
  0
LAYER
  5
9C50
102
{ACAD_XDICTIONARY
360
1B303
102
}
330
2
100
AcDbSymbolTableRecord
100
AcDbLayerTableRecord
  2
SK1
 70
     0
 62
     4
  6
BYBLOCK
370
    50
390
318A
  0
LAYER
  5
9C51
102
{ACAD_XDICTIONARY
360
1B305
102
}
330
2
100
AcDbSymbolTableRecord
100
AcDbLayerTableRecord
  2
SK4
 70
     0
 62
     2
  6
CENTER
370
    25
390
318A
  0
LAYER
  5
13335
102
{ACAD_XDICTIONARY
360
1B307
102
}
330
2
100
AcDbSymbolTableRecord
100
AcDbLayerTableRecord
  2
INFTOTAL
 70
     0
 62
     9
  6
BYBLOCK
370
    18
390
318A
1001
AcAecLayerStandard
1000

1000

  0
LAYER
  5
20A83
102
{ACAD_XDICTIONARY
360
20A84
102
}
330
2
100
AcDbSymbolTableRecord
100
AcDbLayerTableRecord
  2
3
 70
     0
 62
     1
  6
HIDDEN
370
    -3
390
318A
1001
AcAecLayerStandard
1000

1000

1001
AcCmTransparency
1071
        0
  0
LAYER
  5
20A91
102
{ACAD_XDICTIONARY
360
21066
102
}
330
2
100
AcDbSymbolTableRecord
100
AcDbLayerTableRecord
  2
SK3
 70
     0
 62
     1
  6
HIDDEN
370
    -3
390
318A
1001
AcAecLayerStandard
1000

1000

1001
AcCmTransparency
1071
        0
  0
LAYER
  5
20AE0
102
{ACAD_XDICTIONARY
360
20AE1
102
}
330
2
100
AcDbSymbolTableRecord
100
AcDbLayerTableRecord
  2
SKVIEW63
 70
     0
 62
     5
  6
CONTINUOUS
370
    35
390
318A
  0
ENDTAB
  0
TABLE
  2
STYLE
  5
3
330
0
100
AcDbSymbolTable
 70
     3
  0
STYLE
  5
11
330
3
100
AcDbSymbolTableRecord
100
AcDbTextStyleTableRecord
  2
STANDARD
 70
     0
 40
3.5
 41
0.8
 50
0.0
 71
     0
 42
3.5
  3
monos.ttf
  4

1001
ACAD
1000
Monospac821 BT
1071
       49
  0
STYLE
  5
1686F
330
3
100
AcDbSymbolTableRecord
100
AcDbTextStyleTableRecord
  2
BMG_Text
 70
     0
 40
3.5
 41
1.0
 50
0.0
 71
     0
 42
0.2
  3
monos.ttf
  4

1001
ACAD
1000
Monospac821 BT
1071
       49
  0
ENDTAB
  0
TABLE
  2
VIEW
  5
6
330
0
100
AcDbSymbolTable
 70
     0
  0
ENDTAB
  0
TABLE
  2
UCS
  5
7
330
0
100
AcDbSymbolTable
 70
     0
  0
ENDTAB
  0
TABLE
  2
APPID
  5
9
330
0
100
AcDbSymbolTable
 70
    17
  0
APPID
  5
23B
330
9
100
AcDbSymbolTableRecord
100
AcDbRegAppTableRecord
  2
ACAD
 70
     0
  0
APPID
  5
3395
330
9
100
AcDbSymbolTableRecord
100
AcDbRegAppTableRecord
  2
ACAD_EXEMPT_FROM_CAD_STANDARDS
 70
     0
  0
APPID
  5
4229
330
9
100
AcDbSymbolTableRecord
100
AcDbRegAppTableRecord
  2
AcAecLayerStandard
 70
     0
  0
APPID
  5
9A1B
330
9
100
AcDbSymbolTableRecord
100
AcDbRegAppTableRecord
  2
ACAD_PSEXT
 70
     0
  0
APPID
  5
1B313
330
9
100
AcDbSymbolTableRecord
100
AcDbRegAppTableRecord
  2
ACAD_NAV_VCDISPLAY
 70
     0
  0
APPID
  5
1B355
330
9
100
AcDbSymbolTableRecord
100
AcDbRegAppTableRecord
  2
ACAD_MLEADERVER
 70
     0
  0
APPID
  5
1EC7F
330
9
100
AcDbSymbolTableRecord
100
AcDbRegAppTableRecord
  2
ACAUTHENVIRON
 70
     0
  0
APPID
  5
1EC82
330
9
100
AcDbSymbolTableRecord
100
AcDbRegAppTableRecord
  2
AcDbDynamicBlockTrueName
 70
     0
  0
APPID
  5
1EC83
330
9
100
AcDbSymbolTableRecord
100
AcDbRegAppTableRecord
  2
AcDbDynamicBlockGUID
 70
     0
  0
APPID
  5
20A85
330
9
100
AcDbSymbolTableRecord
100
AcDbRegAppTableRecord
  2
AcCmTransparency
 70
     0
  0
APPID
  5
20AE2
330
9
100
AcDbSymbolTableRecord
100
AcDbRegAppTableRecord
  2
ACAD_DSTYLE_DIMRADIAL_EXTENSION
 70
     0
  0
APPID
  5
20CB0
330
9
100
AcDbSymbolTableRecord
100
AcDbRegAppTableRecord
  2
AcadAnnotative
 70
     0
  0
APPID
  5
20D38
330
9
100
AcDbSymbolTableRecord
100
AcDbRegAppTableRecord
  2
ACAD_DSTYLE_DIMJAG
 70
     0
  0
APPID
  5
20D39
330
9
100
AcDbSymbolTableRecord
100
AcDbRegAppTableRecord
  2
ACAD_DSTYLE_DIMBREAK
 70
     0
  0
APPID
  5
20D3A
330
9
100
AcDbSymbolTableRecord
100
AcDbRegAppTableRecord
  2
ACAD_DSTYLE_DIMTALN
 70
     0
  0
APPID
  5
20D3B
330
9
100
AcDbSymbolTableRecord
100
AcDbRegAppTableRecord
  2
ACAD_DSTYLE_DIMJOGGED_JOGANGLE_SYMBOL
 70
     0
  0
APPID
  5
21280
330
9
100
AcDbSymbolTableRecord
100
AcDbRegAppTableRecord
  2
ACAD_DSTYLE_DIMEXT_LENGTH
 70
     0
  0
ENDTAB
  0
TABLE
  2
DIMSTYLE
  5
A
330
0
100
AcDbSymbolTable
 70
     4
100
AcDbDimStyleTable
 71
     1
340
243
  0
DIMSTYLE
105
243
102
{ACAD_REACTORS
330
20FB7
330
20FBA
330
20FBB
330
20FBC
330
20FB9
330
20FB8
102
}
330
A
100
AcDbSymbolTableRecord
100
AcDbDimStyleTableRecord
  2
STANDARD
 70
     0
 41
4.57
 47
0.01
 48
0.01
 73
     0
 74
     0
 77
     1
 78
     8
140
3.5
271
     3
272
     3
284
     8
289
     0
340
11
  0
DIMSTYLE
105
20D37
102
{ACAD_REACTORS
330
20E75
330
20FBD
102
}
330
A
100
AcDbSymbolTableRecord
100
AcDbDimStyleTableRecord
  2
DIAMETER
 70
     0
 41
2.5
 42
0.0
 43
3.75
 44
1.25
 73
     0
 74
     0
 76
     1
 77
     1
 78
     8
 79
     2
140
3.5
141
0.0
143
0.039370078
147
0.625
171
     3
173
     1
179
     2
271
     2
272
     2
274
     3
283
     0
284
     8
340
11
344
20CDE
1001
ACAD_DSTYLE_DIMJAG
1070
   388
1040
1.5
1001
ACAD_DSTYLE_DIMTALN
1070
   392
1070
     0
1001
ACAD_DSTYLE_DIMEXT_LENGTH
1070
   378
1040
1.25
1001
ACAD_DSTYLE_DIMJOGGED_JOGANGLE_SYMBOL
1070
   384
1040
1.570796326794896
  0
ENDTAB
  0
TABLE
  2
BLOCK_RECORD
  5
1
330
0
100
AcDbSymbolTable
 70
    34
  0
BLOCK_RECORD
  5
1F
102
{ACAD_XDICTIONARY
360
339C
102
}
330
1
100
AcDbSymbolTableRecord
100
AcDbBlockTableRecord
  2
*MODEL_SPACE
340
31A6
  0
BLOCK_RECORD
  5
1B
330
1
100
AcDbSymbolTableRecord
100
AcDbBlockTableRecord
  2
*PAPER_SPACE
340
31A7
  0
BLOCK_RECORD
  5
1B3D7
102
{ACAD_XDICTIONARY
360
1DE81
102
}
330
1
100
AcDbSymbolTableRecord
100
AcDbBlockTableRecord
  2
cero_point
340
0
310
28000000200000002000000001002000000000000010000001000000010000000000000000000000302821FF302821FF302821FF302821FF302821FF302821FF302821FF302821FF302821FF302821FF302821FF302821FF302821FF302821FF302821FF302821FF302821FF302821FF302821FF302821FF302821FF302821
310
FF302821FF302821FF302821FF302821FF302821FF302821FF302821FF302821FF302821FF302821FF302821FF302821FF302821FF302821FF302821FF302821FF302821FF302821FF302821FF302821FF302821FF302821FF302821FF302821FF302821FFFFFF00FFFFFF00FFFFFF00FF302821FF302821FF302821FF3028
310
21FF302821FF302821FF302821FF302821FF302821FF302821FF302821FF302821FF302821FF302821FF302821FF302821FF302821FF302821FF302821FF302821FF302821FF302821FF302821FF302821FFFFFF00FFFFFF00FFFFFF00FFFFFF00FFFFFF00FFFFFF00FFFFFF00FF302821FFFFFF00FFFFFF00FFFFFF00FF30
310
2821FF302821FF302821FF302821FF302821FF302821FF302821FF302821FF302821FF302821FF302821FF302821FF302821FF302821FF302821FF302821FF302821FF302821FF302821FFFFFF00FFFFFF00FFFFFF00FFFFFF00FFFFFF00FFFFFF00FFFFFF00FFFFFF00FFFFFF00FF302821FF302821FF302821FF302821FF
310
FFFF00FFFFFF00FF302821FF302821FF302821FF302821FF302821FF302821FF302821FF302821FF302821FF302821FF302821FF302821FF302821FF302821FF302821FF302821FFFFFF00FFFFFF00FFFFFF00FFFFFF00FFFFFF00FFFFFF00FFFFFF00FFFFFF00FFFFFF00FFFFFF00FF302821FF302821FF302821FF302821
310
FF302821FF302821FFFFFF00FFFFFF00FF302821FF302821FF302821FF302821FF302821FF302821FF302821FF302821FF302821FF302821FF302821FF302821FF302821FFFFFF00FFFFFF00FFFFFF00FFFFFF00FFFFFF00FFFFFF00FFFFFF00FFFFFF00FFFFFF00FFFFFF00FFFFFF00FF302821FF302821FF302821FF3028
310
21FF302821FF302821FF302821FF302821FFFFFF00FF302821FF302821FF302821FF302821FF302821FF302821FF302821FF302821FF302821FF302821FF302821FFFFFF00FFFFFF00FFFFFF00FFFFFF00FFFFFF00FFFFFF00FFFFFF00FFFFFF00FFFFFF00FFFFFF00FFFFFF00FFFFFF00FF302821FF302821FF302821FF30
310
2821FF302821FF302821FF302821FF302821FF302821FFFFFF00FF302821FF302821FF302821FF302821FF302821FF302821FF302821FF302821FF302821FFFFFF00FFFFFF00FFFFFF00FFFFFF00FFFFFF00FFFFFF00FFFFFF00FFFFFF00FFFFFF00FFFFFF00FFFFFF00FFFFFF00FFFFFF00FF302821FF302821FF302821FF
310
302821FF302821FF302821FF302821FF302821FF302821FF302821FFFFFF00FF302821FF302821FF302821FF302821FF302821FF302821FF302821FFFFFF00FFFFFF00FFFFFF00FFFFFF00FFFFFF00FFFFFF00FFFFFF00FFFFFF00FFFFFF00FFFFFF00FFFFFF00FFFFFF00FFFFFF00FFFFFF00FF302821FF302821FF302821
310
FF302821FF302821FF302821FF302821FF302821FF302821FF302821FFFFFF00FF302821FF302821FF302821FF302821FF302821FF302821FF302821FFFFFF00FFFFFF00FFFFFF00FFFFFF00FFFFFF00FFFFFF00FFFFFF00FFFFFF00FFFFFF00FFFFFF00FFFFFF00FFFFFF00FFFFFF00FFFFFF00FF302821FF302821FF3028
310
21FF302821FF302821FF302821FF302821FF302821FF302821FF302821FF302821FFFFFF00FF302821FF302821FF302821FF302821FF302821FFFFFF00FFFFFF00FFFFFF00FFFFFF00FFFFFF00FFFFFF00FFFFFF00FFFFFF00FFFFFF00FFFFFF00FFFFFF00FFFFFF00FFFFFF00FFFFFF00FFFFFF00FF302821FF302821FF30
310
2821FF302821FF302821FF302821FF302821FF302821FF302821FF302821FF302821FF302821FFFFFF00FF302821FF302821FF302821FF302821FFFFFF00FFFFFF00FFFFFF00FFFFFF00FFFFFF00FFFFFF00FFFFFF00FFFFFF00FFFFFF00FFFFFF00FFFFFF00FFFFFF00FFFFFF00FFFFFF00FFFFFF00FF302821FF302821FF
310
302821FF302821FF302821FF302821FF302821FF302821FF302821FF302821FF302821FF302821FFFFFF00FF302821FF302821FF302821FF302821FFFFFF00FFFFFF00FFFFFF00FFFFFF00FFFFFF00FFFFFF00FFFFFF00FFFFFF00FFFFFF00FFFFFF00FFFFFF00FFFFFF00FFFFFF00FFFFFF00FFFFFF00FF302821FF302821
310
FF302821FF302821FF302821FF302821FF302821FF302821FF302821FF302821FF302821FF302821FFFFFF00FF302821FF302821FF302821FF302821FFFFFF00FFFFFF00FFFFFF00FFFFFF00FFFFFF00FFFFFF00FFFFFF00FFFFFF00FFFFFF00FFFFFF00FFFFFF00FFFFFF00FFFFFF00FFFFFF00FFFFFF00FF302821FF3028
310
21FF302821FF302821FF302821FF302821FF302821FF302821FF302821FF302821FF302821FF302821FFFFFF00FF302821FF302821FF302821FFFFFF00FFFFFF00FFFFFF00FFFFFF00FFFFFF00FFFFFF00FFFFFF00FFFFFF00FFFFFF00FFFFFF00FFFFFF00FFFFFF00FFFFFF00FFFFFF00FFFFFF00FFFFFF00FF302821FF30
310
2821FF302821FF302821FF302821FF302821FF302821FF302821FF302821FF302821FF302821FF302821FF302821FFFFFF00FF302821FF302821FFFFFF00FFFFFF00FFFFFF00FFFFFF00FFFFFF00FFFFFF00FFFFFF00FFFFFF00FFFFFF00FFFFFF00FFFFFF00FFFFFF00FFFFFF00FFFFFF00FFFFFF00FFFFFF00FFFFFF00FF
310
FFFF00FFFFFF00FFFFFF00FFFFFF00FFFFFF00FFFFFF00FFFFFF00FFFFFF00FFFFFF00FFFFFF00FFFFFF00FFFFFF00FFFFFF00FF302821FF302821FFFFFF00FF302821FF302821FF302821FF302821FF302821FF302821FF302821FF302821FF302821FF302821FF302821FF302821FF302821FF302821FFFFFF00FFFFFF00
310
FFFFFF00FFFFFF00FFFFFF00FFFFFF00FFFFFF00FFFFFF00FFFFFF00FFFFFF00FFFFFF00FFFFFF00FFFFFF00FFFFFF00FFFFFF00FF302821FF302821FFFFFF00FF302821FF302821FF302821FF302821FF302821FF302821FF302821FF302821FF302821FF302821FF302821FF302821FF302821FF302821FFFFFF00FFFFFF
310
00FFFFFF00FFFFFF00FFFFFF00FFFFFF00FFFFFF00FFFFFF00FFFFFF00FFFFFF00FFFFFF00FFFFFF00FFFFFF00FFFFFF00FF302821FF302821FF302821FF302821FFFFFF00FF302821FF302821FF302821FF302821FF302821FF302821FF302821FF302821FF302821FF302821FF302821FF302821FF302821FFFFFF00FFFF
310
FF00FFFFFF00FFFFFF00FFFFFF00FFFFFF00FFFFFF00FFFFFF00FFFFFF00FFFFFF00FFFFFF00FFFFFF00FFFFFF00FFFFFF00FF302821FF302821FF302821FF302821FFFFFF00FF302821FF302821FF302821FF302821FF302821FF302821FF302821FF302821FF302821FF302821FF302821FF302821FF302821FFFFFF00FF
310
FFFF00FFFFFF00FFFFFF00FFFFFF00FFFFFF00FFFFFF00FFFFFF00FFFFFF00FFFFFF00FFFFFF00FFFFFF00FFFFFF00FFFFFF00FF302821FF302821FF302821FF302821FFFFFF00FF302821FF302821FF302821FF302821FF302821FF302821FF302821FF302821FF302821FF302821FF302821FF302821FF302821FFFFFF00
310
FFFFFF00FFFFFF00FFFFFF00FFFFFF00FFFFFF00FFFFFF00FFFFFF00FFFFFF00FFFFFF00FFFFFF00FFFFFF00FFFFFF00FFFFFF00FF302821FF302821FF302821FF302821FF302821FFFFFF00FF302821FF302821FF302821FF302821FF302821FF302821FF302821FF302821FF302821FF302821FF302821FF302821FFFFFF
310
00FFFFFF00FFFFFF00FFFFFF00FFFFFF00FFFFFF00FFFFFF00FFFFFF00FFFFFF00FFFFFF00FFFFFF00FFFFFF00FFFFFF00FFFFFF00FF302821FF302821FF302821FF302821FF302821FFFFFF00FF302821FF302821FF302821FF302821FF302821FF302821FF302821FF302821FF302821FF302821FF302821FF302821FFFF
310
FF00FFFFFF00FFFFFF00FFFFFF00FFFFFF00FFFFFF00FFFFFF00FFFFFF00FFFFFF00FFFFFF00FFFFFF00FFFFFF00FFFFFF00FF302821FF302821FF302821FF302821FF302821FF302821FF302821FFFFFF00FF302821FF302821FF302821FF302821FF302821FF302821FF302821FF302821FF302821FF302821FF302821FF
310
FFFF00FFFFFF00FFFFFF00FFFFFF00FFFFFF00FFFFFF00FFFFFF00FFFFFF00FFFFFF00FFFFFF00FFFFFF00FFFFFF00FFFFFF00FF302821FF302821FF302821FF302821FF302821FF302821FF302821FFFFFF00FF302821FF302821FF302821FF302821FF302821FF302821FF302821FF302821FF302821FF302821FF302821
310
FFFFFF00FFFFFF00FFFFFF00FFFFFF00FFFFFF00FFFFFF00FFFFFF00FFFFFF00FFFFFF00FFFFFF00FFFFFF00FFFFFF00FF302821FF302821FF302821FF302821FF302821FF302821FF302821FF302821FF302821FFFFFF00FF302821FF302821FF302821FF302821FF302821FF302821FF302821FF302821FF302821FF3028
310
21FFFFFF00FFFFFF00FFFFFF00FFFFFF00FFFFFF00FFFFFF00FFFFFF00FFFFFF00FFFFFF00FFFFFF00FFFFFF00FF302821FF302821FF302821FF302821FF302821FF302821FF302821FF302821FF302821FF302821FF302821FFFFFF00FF302821FF302821FF302821FF302821FF302821FF302821FF302821FF302821FF30
310
2821FFFFFF00FFFFFF00FFFFFF00FFFFFF00FFFFFF00FFFFFF00FFFFFF00FFFFFF00FFFFFF00FFFFFF00FF302821FF302821FF302821FF302821FF302821FF302821FF302821FF302821FF302821FF302821FF302821FF302821FF302821FFFFFF00FF302821FF302821FF302821FF302821FF302821FF302821FF302821FF
310
302821FFFFFF00FFFFFF00FFFFFF00FFFFFF00FFFFFF00FFFFFF00FFFFFF00FFFFFF00FFFFFF00FF302821FF302821FF302821FF302821FF302821FF302821FF302821FF302821FF302821FF302821FF302821FF302821FF302821FF302821FF302821FFFFFF00FFFFFF00FF302821FF302821FF302821FF302821FF302821
310
FF302821FFFFFF00FFFFFF00FFFFFF00FFFFFF00FFFFFF00FFFFFF00FFFFFF00FFFFFF00FF302821FF302821FF302821FF302821FF302821FF302821FF302821FF302821FF302821FF302821FF302821FF302821FF302821FF302821FF302821FF302821FF302821FF302821FFFFFF00FFFFFF00FFFFFF00FFFFFF00FFFFFF
310
00FF302821FFFFFF00FFFFFF00FFFFFF00FFFFFF00FFFFFF00FFFFFF00FF302821FF302821FF302821FF302821FF302821FF302821FF302821FF302821FF302821FF302821FF302821FF302821FF302821FF302821FF302821FF302821FF302821FF302821FF302821FF302821FF302821FF302821FF302821FF302821FF30
310
2821FFFFFF00FFFFFF00FFFFFF00FF302821FF302821FF302821FF302821FF302821FF302821FF302821FF302821FF302821FF302821FF302821FF302821FF302821FF302821FF302821FF302821FF302821FF302821FF302821FF302821FF302821FF302821FF302821FF302821FF302821FF302821FF302821FF302821FF
310
302821FF302821FF302821FF302821FF302821FF302821FF302821FF302821FF302821FF302821FF302821FF302821FF302821FF302821FF302821FF302821FF302821FF302821FF
102
{BLKREFS
331
20A18
102
}
  0
BLOCK_RECORD
  5
20CA5
102
{ACAD_XDICTIONARY
360
20CA6
102
}
330
1
100
AcDbSymbolTableRecord
100
AcDbBlockTableRecord
  2
Name
340
0
310
28000000200000002000000001002000000000000010000001000000010000000000000000000000302821FF302821FF302821FF302821FF302821FF302821FF302821FF302821FF302821FF302821FF302821FF302821FF302821FF302821FF302821FF302821FF302821FF302821FF302821FF302821FF302821FF302821
310
FF302821FF302821FF302821FF302821FF302821FF302821FF302821FF302821FF302821FF302821FF302821FF302821FF302821FF302821FF302821FF302821FF302821FF302821FF302821FF302821FF302821FF302821FF302821FF302821FF302821FF302821FF302821FF302821FF302821FF302821FF302821FF3028
310
21FF302821FF302821FF302821FF302821FF302821FF302821FF302821FF302821FF302821FF302821FF302821FF302821FF302821FF302821FF302821FF302821FF302821FF302821FF302821FF302821FF302821FF302821FF302821FF302821FF302821FF302821FF302821FF302821FF302821FF302821FF302821FF30
310
2821FF302821FF302821FF302821FF302821FF302821FF302821FF302821FF302821FF302821FF302821FF302821FF302821FF302821FF302821FF302821FF302821FF302821FF302821FF302821FF302821FF302821FF302821FF302821FF302821FF302821FF302821FF302821FF302821FF302821FF302821FF302821FF
310
302821FF302821FF302821FF302821FF302821FF302821FF302821FF302821FF302821FF302821FF302821FF302821FF302821FF302821FF302821FF302821FF302821FF302821FF302821FF302821FF302821FF302821FF302821FF302821FF302821FF302821FF302821FF302821FF302821FF302821FF302821FF302821
310
FF302821FF302821FF302821FF302821FF302821FF302821FF302821FF302821FF302821FF302821FF302821FF302821FF302821FF302821FF302821FF302821FF302821FF302821FF302821FF302821FF302821FF302821FF302821FF302821FF302821FF302821FF302821FF302821FF302821FF302821FF302821FF3028
310
21FF302821FF302821FF302821FF302821FF302821FF302821FF302821FF302821FF302821FF302821FF302821FF302821FF302821FF302821FF302821FF302821FF302821FF302821FF302821FF302821FF302821FF302821FF302821FF302821FF302821FF302821FF302821FF302821FF302821FF302821FF302821FF30
310
2821FF302821FF302821FF302821FF302821FF302821FF302821FF302821FF302821FF302821FF302821FF302821FF302821FF302821FF302821FF302821FF302821FF302821FF302821FF302821FF302821FF302821FF302821FF302821FF302821FF302821FF302821FF302821FF302821FF302821FF302821FF302821FF
310
302821FF302821FF302821FF302821FF302821FF302821FF302821FF302821FF302821FF302821FF302821FF302821FF302821FF302821FF302821FF302821FF302821FF302821FF302821FF302821FF302821FF302821FF302821FF302821FF302821FF302821FF302821FF302821FF302821FF302821FF302821FF302821
310
FF302821FF302821FF302821FF302821FF302821FF302821FF302821FF302821FF302821FF302821FF302821FF302821FF302821FF302821FF302821FF302821FF302821FF302821FF302821FF302821FF302821FF302821FF302821FF302821FF302821FF302821FF302821FF302821FF302821FF302821FF302821FF3028
310
21FF302821FF302821FF302821FF302821FF302821FF302821FF302821FF302821FF302821FF302821FF302821FF302821FF302821FF302821FFFF0000FFFF0000FF302821FF302821FFFF0000FFFF0000FFFF0000FFFF0000FFFF0000FF302821FF302821FF302821FF302821FFFF0000FFFF0000FFFF0000FFFF0000FFFF
310
0000FFFF0000FFFF0000FFFF0000FF302821FFFF0000FFFF0000FFFF0000FFFF0000FFFF0000FFFF0000FF302821FF302821FF302821FF302821FFFF0000FFFF0000FF302821FF302821FFFF0000FFFF0000FFFF0000FFFF0000FFFF0000FF302821FF302821FF302821FF302821FFFF0000FFFF0000FFFF0000FFFF0000FF
310
FF0000FFFF0000FFFF0000FFFF0000FF302821FFFF0000FFFF0000FFFF0000FFFF0000FFFF0000FFFF0000FF302821FF302821FF302821FF302821FFFF0000FFFF0000FF302821FFFF0000FFFF0000FFFF0000FFFF0000FFFF0000FFFF0000FF302821FF302821FF302821FFFF0000FFFF0000FFFF0000FFFF0000FFFF0000
310
FFFF0000FFFF0000FFFF0000FFFF0000FF302821FFFF0000FFFF0000FFFF0000FFFF0000FFFF0000FFFF0000FF302821FF302821FF302821FF302821FFFF0000FFFF0000FF302821FFFF0000FFFF0000FFFF0000FFFF0000FFFF0000FFFF0000FFFF0000FFFF0000FFFF0000FFFF0000FFFF0000FFFF0000FFFF0000FFFF00
310
00FFFF0000FFFF0000FFFF0000FFFF0000FF302821FFFF0000FFFF0000FF302821FF302821FF302821FF302821FF302821FF302821FF302821FF302821FFFF0000FFFF0000FF302821FFFF0000FFFF0000FFFF0000FFFF0000FFFF0000FFFF0000FFFF0000FFFF0000FFFF0000FFFF0000FFFF0000FFFF0000FFFF0000FFFF
310
0000FFFF0000FFFF0000FFFF0000FFFF0000FF302821FFFF0000FFFF0000FF302821FF302821FF302821FF302821FF302821FF302821FF302821FF302821FFFF0000FFFF0000FFFF0000FFFF0000FFFF0000FFFF0000FFFF0000FFFF0000FFFF0000FFFF0000FFFF0000FFFF0000FFFF0000FF302821FFFF0000FFFF0000FF
310
FF0000FF302821FFFF0000FFFF0000FFFF0000FF302821FFFF0000FFFF0000FFFF0000FFFF0000FFFF0000FF302821FF302821FF302821FF302821FF302821FFFF0000FFFF0000FFFF0000FFFF0000FFFF0000FFFF0000FFFF0000FF302821FFFF0000FFFF0000FF302821FFFF0000FFFF0000FF302821FFFF0000FFFF0000
310
FFFF0000FF302821FFFF0000FFFF0000FFFF0000FF302821FFFF0000FFFF0000FFFF0000FFFF0000FFFF0000FF302821FF302821FF302821FF302821FF302821FFFF0000FFFF0000FFFF0000FFFF0000FF302821FFFF0000FFFF0000FF302821FFFF0000FFFF0000FFFF0000FFFF0000FFFF0000FF302821FFFF0000FFFF00
310
00FFFF0000FF302821FFFF0000FFFF0000FFFF0000FF302821FFFF0000FFFF0000FFFF0000FFFF0000FFFF0000FF302821FF302821FF302821FF302821FF302821FFFF0000FFFF0000FFFF0000FFFF0000FF302821FFFF0000FFFF0000FF302821FFFF0000FFFF0000FFFF0000FFFF0000FFFF0000FF302821FFFF0000FFFF
310
0000FFFF0000FF302821FF302821FFFF0000FFFF0000FF302821FFFF0000FFFF0000FF302821FF302821FF302821FF302821FF302821FF302821FF302821FF302821FFFF0000FFFF0000FFFF0000FF302821FF302821FFFF0000FFFF0000FF302821FF302821FFFF0000FFFF0000FFFF0000FF302821FF302821FFFF0000FF
310
FF0000FF302821FF302821FF302821FFFF0000FFFF0000FF302821FFFF0000FFFF0000FFFF0000FFFF0000FFFF0000FF302821FF302821FF302821FF302821FF302821FFFF0000FFFF0000FFFF0000FF302821FF302821FFFF0000FFFF0000FF302821FF302821FFFF0000FFFF0000FFFF0000FF302821FF302821FFFF0000
310
FFFF0000FF302821FF302821FF302821FFFF0000FFFF0000FF302821FFFF0000FFFF0000FFFF0000FFFF0000FFFF0000FF302821FF302821FF302821FF302821FF302821FF302821FF302821FF302821FF302821FF302821FF302821FF302821FF302821FF302821FF302821FF302821FF302821FF302821FF302821FF3028
310
21FF302821FF302821FF302821FF302821FF302821FF302821FF302821FF302821FF302821FF302821FF302821FF302821FF302821FF302821FF302821FF302821FF302821FF302821FF302821FF302821FF302821FF302821FF302821FF302821FF302821FF302821FF302821FF302821FF302821FF302821FF302821FF30
310
2821FF302821FF302821FF302821FF302821FF302821FF302821FF302821FF302821FF302821FF302821FF302821FF302821FF302821FF302821FF302821FF302821FF302821FF302821FF302821FF302821FF302821FF302821FF302821FF302821FF302821FF302821FF302821FF302821FF302821FF302821FF302821FF
310
302821FF302821FF302821FF302821FF302821FF302821FF302821FF302821FF302821FF302821FF302821FF302821FF302821FF302821FF302821FF302821FF302821FF302821FF302821FF302821FF302821FF302821FF302821FF302821FF302821FF302821FF302821FF302821FF302821FF302821FF302821FF302821
310
FF302821FF302821FF302821FF302821FF302821FF302821FF302821FF302821FF302821FF302821FF302821FF302821FF302821FF302821FF302821FF302821FF302821FF302821FF302821FF302821FF302821FF302821FF302821FF302821FF302821FF302821FF302821FF302821FF302821FF302821FF302821FF3028
310
21FF302821FF302821FF302821FF302821FF302821FF302821FF302821FF302821FF302821FF302821FF302821FF302821FF302821FF302821FF302821FF302821FF302821FF302821FF302821FF302821FF302821FF302821FF302821FF302821FF302821FF302821FF302821FF302821FF302821FF302821FF302821FF30
310
2821FF302821FF302821FF302821FF302821FF302821FF302821FF302821FF302821FF302821FF302821FF302821FF302821FF302821FF302821FF302821FF302821FF302821FF302821FF302821FF302821FF302821FF302821FF302821FF302821FF302821FF302821FF302821FF302821FF302821FF302821FF302821FF
310
302821FF302821FF302821FF302821FF302821FF302821FF302821FF302821FF302821FF302821FF302821FF302821FF302821FF302821FF302821FF302821FF302821FF302821FF302821FF302821FF302821FF302821FF302821FF302821FF302821FF302821FF302821FF302821FF302821FF302821FF302821FF302821
310
FF302821FF302821FF302821FF302821FF302821FF302821FF302821FF302821FF302821FF302821FF302821FF302821FF302821FF302821FF302821FF302821FF302821FF302821FF302821FF302821FF302821FF302821FF302821FF302821FF302821FF302821FF302821FF302821FF302821FF302821FF302821FF3028
310
21FF302821FF302821FF302821FF302821FF302821FF302821FF302821FF302821FF302821FF302821FF302821FF302821FF302821FF302821FF302821FF302821FF302821FF302821FF302821FF302821FF302821FF302821FF302821FF302821FF302821FF302821FF302821FF302821FF302821FF302821FF302821FF30
310
2821FF302821FF302821FF302821FF302821FF302821FF302821FF302821FF302821FF302821FF302821FF302821FF302821FF302821FF302821FF302821FF302821FF302821FF302821FF302821FF302821FF302821FF302821FF302821FF302821FF302821FF302821FF302821FF302821FF302821FF302821FF302821FF
310
302821FF302821FF302821FF302821FF302821FF302821FF302821FF302821FF302821FF302821FF302821FF302821FF302821FF302821FF302821FF302821FF302821FF302821FF
102
{BLKREFS
331
20FBE
102
}
1001
AcDbDynamicBlockGUID
1000
{15A9DAFA-FD13-4556-B9B1-5A71F15CF06E}
  0
BLOCK_RECORD
  5
20CDE
330
1
100
AcDbSymbolTableRecord
100
AcDbBlockTableRecord
  2
_None
340
0
  0
BLOCK_RECORD
  5
20FC7
330
1
100
AcDbSymbolTableRecord
100
AcDbBlockTableRecord
  2
*D26
340
0
  0
BLOCK_RECORD
  5
20FD3
330
1
100
AcDbSymbolTableRecord
100
AcDbBlockTableRecord
  2
*D27
340
0
  0
BLOCK_RECORD
  5
20FDF
330
1
100
AcDbSymbolTableRecord
100
AcDbBlockTableRecord
  2
*D28
340
0
  0
BLOCK_RECORD
  5
20FEB
330
1
100
AcDbSymbolTableRecord
100
AcDbBlockTableRecord
  2
*D29
340
0
  0
BLOCK_RECORD
  5
20FF7
330
1
100
AcDbSymbolTableRecord
100
AcDbBlockTableRecord
  2
*D30
340
0
  0
BLOCK_RECORD
  5
21003
330
1
100
AcDbSymbolTableRecord
100
AcDbBlockTableRecord
  2
*D31
340
0
  0
BLOCK_RECORD
  5
21010
330
1
100
AcDbSymbolTableRecord
100
AcDbBlockTableRecord
  2
*D32
340
0
  0
ENDTAB
  0
ENDSEC
  0
SECTION
  2
BLOCKS
  0
BLOCK
  5
20
330
1F
100
AcDbEntity
  8
0
100
AcDbBlockBegin
  2
*MODEL_SPACE
 70
     0
 10
0.0
 20
0.0
 30
0.0
  3
*MODEL_SPACE
  1

  0
ENDBLK
  5
21
330
1F
100
AcDbEntity
  8
0
100
AcDbBlockEnd
  0
BLOCK
  5
1C
330
1B
100
AcDbEntity
 67
     1
  8
0
100
AcDbBlockBegin
  2
*PAPER_SPACE
 70
     0
 10
0.0
 20
0.0
 30
0.0
  3
*PAPER_SPACE
  1

  0
ENDBLK
  5
1D
330
1B
100
AcDbEntity
 67
     1
  8
0
100
AcDbBlockEnd
  0
BLOCK
  5
1B3D8
330
1B3D7
100
AcDbEntity
  8
0
100
AcDbBlockBegin
  2
cero_point
 70
     0
 10
0.0
 20
0.0
 30
0.0
  3
cero_point
  1

  0
HATCH
  5
1B3DA
330
1B3D7
100
AcDbEntity
  8
1
  6
ByBlock
370
    50
100
AcDbHatch
 10
0.0
 20
0.0
 30
0.0
210
0.0
220
0.0
230
1.0
  2
SOLID
 70
     1
 71
     0
 91
        2
 92
        7
 72
     1
 73
     1
 93
        3
 10
-0.0000000000001137
 20
0.0
 42
0.0
 10
-2.950972054112752
 20
0.0
 42
0.4142135623730968
 10
-0.0000000000001137
 20
-2.950972054112583
 42
0.0
 97
        0
 92
        7
 72
     1
 73
     1
 93
        3
 10
-0.0000000000001137
 20
2.950972054112638
 42
0.0
 10
-0.0000000000001137
 20
0.0
 42
0.0
 10
2.950972054112526
 20
0.0
 42
0.4142135623730966
 97
        0
 75
     0
 76
     1
 47
0.1190009775223266
 98
        2
 10
-0.7445530588121301
 20
-0.9212244733764125
 10
1.279464601852737
 20
1.696796923046345
  0
LWPOLYLINE
  5
1B3DB
330
1B3D7
100
AcDbEntity
  8
1
  6
ByBlock
370
    50
100
AcDbPolyline
 90
        3
 70
     1
 43
0.0
 10
-0.0000000000001137
 20
0.0
 10
2.950972054112526
 20
0.0
 42
0.4142135623730966
 10
-0.0000000000001137
 20
2.950972054112638
  0
LINE
  5
1B3DC
330
1B3D7
100
AcDbEntity
  8
1
  6
ByBlock
370
    50
100
AcDbLine
 10
-0.0000000000001137
 20
-2.950972054112583
 30
0.0
 11
-0.0000000000001137
 21
2.950972054112638
 31
0.0
  0
LWPOLYLINE
  5
1B3DD
330
1B3D7
100
AcDbEntity
  8
1
  6
ByBlock
370
    50
100
AcDbPolyline
 90
        3
 70
     1
 43
0.0
 10
-0.0000000000001137
 20
-2.950972054112583
 10
-0.0000000000001137
 20
0.0
 10
-2.950972054112752
 20
0.0
 42
0.4142135623730966
  0
LINE
  5
1B3DE
330
1B3D7
100
AcDbEntity
  8
1
  6
ByBlock
370
    50
100
AcDbLine
 10
2.950972054112638
 20
0.0
 30
0.0
 11
-2.950972054112638
 21
0.0
 31
0.0
  0
CIRCLE
  5
1B3DF
330
1B3D7
100
AcDbEntity
  8
1
  6
ByBlock
370
    50
100
AcDbCircle
 10
-0.0000000000001137
 20
0.0
 30
0.0
 40
2.950972054112601
  0
ENDBLK
  5
1B3D9
330
1B3D7
100
AcDbEntity
  8
0
100
AcDbBlockEnd
  0
BLOCK
  5
20CA7
330
20CA5
100
AcDbEntity
  8
0
100
AcDbBlockBegin
  2
Name
 70
     2
 10
0.0
 20
0.0
 30
0.0
  3
Name
  1

  0
ATTDEF
  5
20CA8
102
{ACAD_XDICTIONARY
360
20CA9
102
}
330
20CA5
100
AcDbEntity
  8
SKVIEW63
100
AcDbText
 10
0.0905073844082551
 20
0.0474757964751689
 30
0.0
 40
3.5
  1
1TW8Q016060T3R01
 41
0.8
  7
BMG_Text
100
AcDbAttributeDefinition
  3
identisch mit Dateiname
  2
NAME
 70
     4
  0
ENDBLK
  5
20CAD
330
20CA5
100
AcDbEntity
  8
0
100
AcDbBlockEnd
  0
BLOCK
  5
20CDF
330
20CDE
100
AcDbEntity
  8
0
100
AcDbBlockBegin
  2
_None
 70
     0
 10
0.0
 20
0.0
 30
0.0
  3
_None
  1

  0
ENDBLK
  5
20CE0
330
20CDE
100
AcDbEntity
  8
0
100
AcDbBlockEnd
  0
BLOCK
  5
20FC8
330
20FC7
100
AcDbEntity
  8
0
100
AcDbBlockBegin
  2
*D26
 70
     1
 10
0.0
 20
0.0
 30
0.0
  3
*D26
  1

  0
LINE
  5
210C3
330
20FC7
100
AcDbEntity
  8
SK2
 62
     0
370
    -2
100
AcDbLine
 10
-126.0625000000001
 20
10.0
 30
0.0
 11
-147.0061110973396
 21
10.0
 31
0.0
  0
LINE
  5
210C4
330
20FC7
100
AcDbEntity
  8
SK2
 62
     0
370
    -2
100
AcDbLine
 10
-126.0625000000001
 20
-10.0
 30
0.0
 11
-147.0061110973396
 21
-9.999999999999994
 31
0.0
  0
LINE
  5
210C5
330
20FC7
100
AcDbEntity
  8
SK2
 62
     0
370
    -2
100
AcDbLine
 10
-146.8261110973396
 20
5.430000000000005
 30
0.0
 11
-146.8261110973396
 21
-5.429999999999993
 31
0.0
  0
SOLID
  5
210C6
330
20FC7
100
AcDbEntity
  8
SK2
 62
     0
100
AcDbTrace
 10
-147.5877777640062
 20
5.430000000000005
 30
0.0
 11
-146.0644444306729
 21
5.430000000000005
 31
0.0
 12
-146.8261110973396
 22
10.0
 32
0.0
 13
-146.8261110973396
 23
10.0
 33
0.0
  0
SOLID
  5
210C7
330
20FC7
100
AcDbEntity
  8
SK2
 62
     0
100
AcDbTrace
 10
-147.5877777640062
 20
-5.429999999999993
 30
0.0
 11
-146.0644444306729
 21
-5.429999999999993
 31
0.0
 12
-146.8261110973396
 22
-9.999999999999994
 32
0.0
 13
-146.8261110973396
 23
-9.999999999999994
 33
0.0
  0
MTEXT
  5
210C8
330
20FC7
100
AcDbEntity
  8
SK2
 62
     0
100
AcDbMText
 10
-148.779252348218
 20
-0.0000000000000174
 30
0.0
 40
3.5
 41
0.0
 71
     5
 72
     1
  1
\A1;%%C20
 11
0.0000000000000001
 21
1.0
 31
0.0
 73
     1
 44
1.0
1001
ACAD
1000
MTEXTBEGIN
1070
    73
1070
     1
1070
    44
1040
1.0
1070
    74
1070
     0
1000
MTEXTEND
  0
POINT
  5
210C9
330
20FC7
100
AcDbEntity
  8
Defpoints
 62
     0
100
AcDbPoint
 10
-126.0000000000001
 20
10.0
 30
0.0
  0
POINT
  5
210CA
330
20FC7
100
AcDbEntity
  8
Defpoints
 62
     0
100
AcDbPoint
 10
-126.0000000000001
 20
-10.0
 30
0.0
  0
POINT
  5
210CB
330
20FC7
100
AcDbEntity
  8
Defpoints
 62
     0
100
AcDbPoint
 10
-146.8261110973396
 20
-9.999999999999994
 30
0.0
  0
ENDBLK
  5
20FC9
330
20FC7
100
AcDbEntity
  8
0
100
AcDbBlockEnd
  0
BLOCK
  5
20FD4
330
20FD3
100
AcDbEntity
  8
0
100
AcDbBlockBegin
  2
*D27
 70
     1
 10
0.0
 20
0.0
 30
0.0
  3
*D27
  1

  0
LINE
  5
21153
330
20FD3
100
AcDbEntity
  8
2
 62
     0
370
    -2
100
AcDbLine
 10
-130.0000000000001
 20
-8.9375
 30
0.0
 11
-130.0000000000001
 21
-30.61363949641918
 31
0.0
  0
LINE
  5
21154
330
20FD3
100
AcDbEntity
  8
2
 62
     0
370
    -2
100
AcDbLine
 10
69.9854183915561
 20
-0.0625
 30
0.0
 11
69.9854183915561
 21
-30.61363949641918
 31
0.0
  0
LINE
  5
21155
330
20FD3
100
AcDbEntity
  8
2
 62
     0
370
    -2
100
AcDbLine
 10
-125.4300000000001
 20
-30.43363949641918
 30
0.0
 11
65.4154183915561
 21
-30.43363949641918
 31
0.0
  0
SOLID
  5
21156
330
20FD3
100
AcDbEntity
  8
2
 62
     0
100
AcDbTrace
 10
-125.4300000000001
 20
-29.67197282975252
 30
0.0
 11
-125.4300000000001
 21
-31.19530616308585
 31
0.0
 12
-130.0000000000001
 22
-30.43363949641918
 32
0.0
 13
-130.0000000000001
 23
-30.43363949641918
 33
0.0
  0
SOLID
  5
21157
330
20FD3
100
AcDbEntity
  8
2
 62
     0
100
AcDbTrace
 10
65.4154183915561
 20
-29.67197282975252
 30
0.0
 11
65.4154183915561
 21
-31.19530616308585
 31
0.0
 12
69.9854183915561
 22
-30.43363949641918
 32
0.0
 13
69.9854183915561
 23
-30.43363949641918
 33
0.0
  0
MTEXT
  5
21158
330
20FD3
100
AcDbEntity
  8
2
 62
     0
100
AcDbMText
 10
-30.00729080422201
 20
-28.53214968615917
 30
0.0
 40
3.5
 41
0.0
 71
     5
 72
     1
  1
\A1;200
 73
     1
 44
1.0
1001
ACAD
1000
MTEXTBEGIN
1070
    73
1070
     1
1070
    44
1040
1.0
1070
    74
1070
     0
1000
MTEXTEND
  0
POINT
  5
21159
330
20FD3
100
AcDbEntity
  8
Defpoints
 62
     0
100
AcDbPoint
 10
-130.0000000000001
 20
-8.875
 30
0.0
  0
POINT
  5
2115A
330
20FD3
100
AcDbEntity
  8
Defpoints
 62
     0
100
AcDbPoint
 10
69.9854183915561
 20
0.0
 30
0.0
  0
POINT
  5
2115B
330
20FD3
100
AcDbEntity
  8
Defpoints
 62
     0
100
AcDbPoint
 10
69.9854183915561
 20
-30.43363949641918
 30
0.0
  0
ENDBLK
  5
20FD5
330
20FD3
100
AcDbEntity
  8
0
100
AcDbBlockEnd
  0
BLOCK
  5
20FE0
330
20FDF
100
AcDbEntity
  8
0
100
AcDbBlockBegin
  2
*D28
 70
     1
 10
0.0
 20
0.0
 30
0.0
  3
*D28
  1

  0
LINE
  5
2114A
330
20FDF
100
AcDbEntity
  8
2
 62
     0
370
    -2
100
AcDbLine
 10
10.01161789028276
 20
12.03914204571919
 30
0.0
 11
10.01161789028276
 21
53.36921749266775
 31
0.0
  0
LINE
  5
2114B
330
20FDF
100
AcDbEntity
  8
2
 62
     0
370
    -2
100
AcDbLine
 10
69.9999252680426
 20
8.062522886214537
 30
0.0
 11
69.9999252680426
 21
53.36921749266775
 31
0.0
  0
LINE
  5
2114C
330
20FDF
100
AcDbEntity
  8
2
 62
     0
370
    -2
100
AcDbLine
 10
14.58161789028276
 20
53.18921749266775
 30
0.0
 11
65.42992526804261
 21
53.18921749266775
 31
0.0
  0
SOLID
  5
2114D
330
20FDF
100
AcDbEntity
  8
2
 62
     0
100
AcDbTrace
 10
14.58161789028276
 20
53.95088415933442
 30
0.0
 11
14.58161789028276
 21
52.42755082600108
 31
0.0
 12
10.01161789028276
 22
53.18921749266775
 32
0.0
 13
10.01161789028276
 23
53.18921749266775
 33
0.0
  0
SOLID
  5
2114E
330
20FDF
100
AcDbEntity
  8
2
 62
     0
100
AcDbTrace
 10
65.42992526804261
 20
53.95088415933442
 30
0.0
 11
65.42992526804261
 21
52.42755082600108
 31
0.0
 12
69.9999252680426
 22
53.18921749266775
 32
0.0
 13
69.9999252680426
 23
53.18921749266775
 33
0.0
  0
MTEXT
  5
2114F
330
20FDF
100
AcDbEntity
  8
2
 62
     0
100
AcDbMText
 10
40.00577157916269
 20
55.09070730292776
 30
0.0
 40
3.5
 41
0.0
 71
     5
 72
     1
  1
\A1;60
 73
     1
 44
1.0
1001
ACAD
1000
MTEXTBEGIN
1070
    73
1070
     1
1070
    44
1040
1.0
1070
    74
1070
     0
1000
MTEXTEND
  0
POINT
  5
21150
330
20FDF
100
AcDbEntity
  8
Defpoints
 62
     0
100
AcDbPoint
 10
10.01161789028276
 20
11.97664204571919
 30
0.0
  0
POINT
  5
21151
330
20FDF
100
AcDbEntity
  8
Defpoints
 62
     0
100
AcDbPoint
 10
69.9999252680426
 20
8.000022886214537
 30
0.0
  0
POINT
  5
21152
330
20FDF
100
AcDbEntity
  8
Defpoints
 62
     0
100
AcDbPoint
 10
69.9999252680426
 20
53.18921749266775
 30
0.0
  0
ENDBLK
  5
20FE1
330
20FDF
100
AcDbEntity
  8
0
100
AcDbBlockEnd
  0
BLOCK
  5
20FEC
330
20FEB
100
AcDbEntity
  8
0
100
AcDbBlockBegin
  2
*D29
 70
     1
 10
0.0
 20
0.0
 30
0.0
  3
*D29
  1

  0
LINE
  5
21226
330
20FEB
100
AcDbEntity
  8
2
 62
     0
370
    -2
100
AcDbLine
 10
23.55210676354682
 20
10.06078462397482
 30
0.0
 11
23.55210676354682
 21
40.39475618692028
 31
0.0
  0
LINE
  5
21227
330
20FEB
100
AcDbEntity
  8
2
 62
     0
370
    -2
100
AcDbLine
 10
69.9999252680426
 20
8.062522886214537
 30
0.0
 11
69.9999252680426
 21
40.39475618692028
 31
0.0
  0
LINE
  5
21228
330
20FEB
100
AcDbEntity
  8
2
 62
     0
370
    -2
100
AcDbLine
 10
28.12210676354682
 20
40.21475618692028
 30
0.0
 11
65.42992526804261
 21
40.21475618692028
 31
0.0
  0
SOLID
  5
21229
330
20FEB
100
AcDbEntity
  8
2
 62
     0
100
AcDbTrace
 10
28.12210676354682
 20
40.97642285358695
 30
0.0
 11
28.12210676354682
 21
39.45308952025362
 31
0.0
 12
23.55210676354682
 22
40.21475618692028
 32
0.0
 13
23.55210676354682
 23
40.21475618692028
 33
0.0
  0
SOLID
  5
2122A
330
20FEB
100
AcDbEntity
  8
2
 62
     0
100
AcDbTrace
 10
65.42992526804261
 20
40.97642285358695
 30
0.0
 11
65.42992526804261
 21
39.45308952025362
 31
0.0
 12
69.9999252680426
 22
40.21475618692028
 32
0.0
 13
69.9999252680426
 23
40.21475618692028
 33
0.0
  0
MTEXT
  5
2122B
330
20FEB
100
AcDbEntity
  8
2
 62
     0
100
AcDbMText
 10
46.77601601579471
 20
42.1162459971803
 30
0.0
 40
3.5
 41
0.0
 71
     5
 72
     1
  1
\A1;46.45
 73
     1
 44
1.0
1001
ACAD
1000
MTEXTBEGIN
1070
    73
1070
     1
1070
    44
1040
1.0
1070
    74
1070
     0
1000
MTEXTEND
  0
POINT
  5
2122C
330
20FEB
100
AcDbEntity
  8
Defpoints
 62
     0
100
AcDbPoint
 10
23.55210676354682
 20
9.998284623974825
 30
0.0
  0
POINT
  5
2122D
330
20FEB
100
AcDbEntity
  8
Defpoints
 62
     0
100
AcDbPoint
 10
69.9999252680426
 20
8.000022886214537
 30
0.0
  0
POINT
  5
2122E
330
20FEB
100
AcDbEntity
  8
Defpoints
 62
     0
100
AcDbPoint
 10
69.9999252680426
 20
40.21475618692028
 30
0.0
  0
ENDBLK
  5
20FED
330
20FEB
100
AcDbEntity
  8
0
100
AcDbBlockEnd
  0
BLOCK
  5
20FF8
330
20FF7
100
AcDbEntity
  8
0
100
AcDbBlockBegin
  2
*D30
 70
     1
 10
0.0
 20
0.0
 30
0.0
  3
*D30
  1

  0
LINE
  5
21141
330
20FF7
100
AcDbEntity
  8
2
 62
     0
370
    -2
100
AcDbLine
 10
35.01507885807177
 20
9.457642775217379
 30
0.0
 11
35.01507885807177
 21
28.33679503077775
 31
0.0
  0
LINE
  5
21142
330
20FF7
100
AcDbEntity
  8
2
 62
     0
370
    -2
100
AcDbLine
 10
69.9999252680426
 20
8.062522886214537
 30
0.0
 11
69.9999252680426
 21
28.33679503077775
 31
0.0
  0
LINE
  5
21143
330
20FF7
100
AcDbEntity
  8
2
 62
     0
370
    -2
100
AcDbLine
 10
39.58507885807178
 20
28.15679503077774
 30
0.0
 11
65.42992526804261
 21
28.15679503077774
 31
0.0
  0
SOLID
  5
21144
330
20FF7
100
AcDbEntity
  8
2
 62
     0
100
AcDbTrace
 10
39.58507885807178
 20
28.91846169744441
 30
0.0
 11
39.58507885807178
 21
27.39512836411108
 31
0.0
 12
35.01507885807177
 22
28.15679503077774
 32
0.0
 13
35.01507885807177
 23
28.15679503077774
 33
0.0
  0
SOLID
  5
21145
330
20FF7
100
AcDbEntity
  8
2
 62
     0
100
AcDbTrace
 10
65.42992526804261
 20
28.91846169744441
 30
0.0
 11
65.42992526804261
 21
27.39512836411108
 31
0.0
 12
69.9999252680426
 22
28.15679503077774
 32
0.0
 13
69.9999252680426
 23
28.15679503077774
 33
0.0
  0
MTEXT
  5
21146
330
20FF7
100
AcDbEntity
  8
2
 62
     0
100
AcDbMText
 10
52.50750206305719
 20
30.05828484103776
 30
0.0
 40
3.5
 41
0.0
 71
     5
 72
     1
  1
\A1;35
 73
     1
 44
1.0
1001
ACAD
1000
MTEXTBEGIN
1070
    73
1070
     1
1070
    44
1040
1.0
1070
    74
1070
     0
1000
MTEXTEND
  0
POINT
  5
21147
330
20FF7
100
AcDbEntity
  8
Defpoints
 62
     0
100
AcDbPoint
 10
35.01507885807177
 20
9.395142775217379
 30
0.0
  0
POINT
  5
21148
330
20FF7
100
AcDbEntity
  8
Defpoints
 62
     0
100
AcDbPoint
 10
69.9999252680426
 20
8.000022886214537
 30
0.0
  0
POINT
  5
21149
330
20FF7
100
AcDbEntity
  8
Defpoints
 62
     0
100
AcDbPoint
 10
69.9999252680426
 20
28.15679503077774
 30
0.0
  0
ENDBLK
  5
20FF9
330
20FF7
100
AcDbEntity
  8
0
100
AcDbBlockEnd
  0
BLOCK
  5
21004
330
21003
100
AcDbEntity
  8
0
100
AcDbBlockBegin
  2
*D31
 70
     1
 10
0.0
 20
0.0
 30
0.0
  3
*D31
  1

  0
LINE
  5
21175
330
21003
100
AcDbEntity
  8
2
 62
     0
370
    -2
100
AcDbLine
 10
58.14759695327336
 20
9.971815146096275
 30
0.0
 11
58.14759695327336
 21
19.26824284470694
 31
0.0
  0
LINE
  5
21176
330
21003
100
AcDbEntity
  8
2
 62
     0
370
    -2
100
AcDbLine
 10
69.9999252680426
 20
8.062522886214537
 30
0.0
 11
69.9999252680426
 21
19.26824284470694
 31
0.0
  0
LINE
  5
21177
330
21003
100
AcDbEntity
  8
2
 62
     0
370
    -2
100
AcDbLine
 10
53.57759695327336
 20
19.08824284470694
 30
0.0
 11
49.00759695327336
 21
19.08824284470694
 31
0.0
  0
LINE
  5
21178
330
21003
100
AcDbEntity
  8
2
 62
     0
370
    -2
100
AcDbLine
 10
74.5699252680426
 20
19.08824284470694
 30
0.0
 11
98.45555422095898
 21
19.08824284470694
 31
0.0
  0
LINE
  5
21179
330
21003
100
AcDbEntity
  8
2
 62
     0
370
    -2
100
AcDbLine
 10
58.14759695327336
 20
19.08824284470694
 30
0.0
 11
69.9999252680426
 21
19.08824284470694
 31
0.0
  0
SOLID
  5
2117A
330
21003
100
AcDbEntity
  8
2
 62
     0
100
AcDbTrace
 10
53.57759695327336
 20
19.8499095113736
 30
0.0
 11
53.57759695327336
 21
18.32657617804027
 31
0.0
 12
58.14759695327336
 22
19.08824284470694
 32
0.0
 13
58.14759695327336
 23
19.08824284470694
 33
0.0
  0
SOLID
  5
2117B
330
21003
100
AcDbEntity
  8
2
 62
     0
100
AcDbTrace
 10
74.5699252680426
 20
19.8499095113736
 30
0.0
 11
74.5699252680426
 21
18.32657617804027
 31
0.0
 12
69.9999252680426
 22
19.08824284470694
 32
0.0
 13
69.9999252680426
 23
19.08824284470694
 33
0.0
  0
MTEXT
  5
2117C
330
21003
100
AcDbEntity
  8
2
 62
     0
100
AcDbMText
 10
88.79773974450079
 20
21.46320419396906
 30
0.0
 40
3.5
 41
0.0
 71
     5
 72
     1
  1
\A1;Ap 11.83
 73
     1
 44
1.0
1001
ACAD
1000
MTEXTBEGIN
1070
    73
1070
     1
1070
    44
1040
1.0
1070
    74
1070
     0
1000
MTEXTEND
  0
POINT
  5
2117D
330
21003
100
AcDbEntity
  8
Defpoints
 62
     0
100
AcDbPoint
 10
58.14759695327336
 20
9.909315146096275
 30
0.0
  0
POINT
  5
2117E
330
21003
100
AcDbEntity
  8
Defpoints
 62
     0
100
AcDbPoint
 10
69.9999252680426
 20
8.000022886214537
 30
0.0
  0
POINT
  5
2117F
330
21003
100
AcDbEntity
  8
Defpoints
 62
     0
100
AcDbPoint
 10
69.9999252680426
 20
19.08824284470694
 30
0.0
  0
ENDBLK
  5
21005
330
21003
100
AcDbEntity
  8
0
100
AcDbBlockEnd
  0
BLOCK
  5
21011
330
21010
100
AcDbEntity
  8
0
100
AcDbBlockBegin
  2
*D32
 70
     1
 10
0.0
 20
0.0
 30
0.0
  3
*D32
  1

  0
LINE
  5
210FA
330
21010
100
AcDbEntity
  8
2
 62
     0
370
    -2
100
AcDbLine
 10
64.01765933151716
 20
-8.001736458745654
 30
0.0
 11
85.66671632441602
 21
-8.001736458745661
 31
0.0
  0
LINE
  5
210FB
330
21010
100
AcDbEntity
  8
2
 62
     0
370
    -2
100
AcDbLine
 10
84.41671632441602
 20
-5.50173645874566
 30
0.0
 11
84.41671632441602
 21
-0.000000000000003
 31
0.0
  0
LINE
  5
210FC
330
21010
100
AcDbEntity
  8
2
 62
     0
370
    -2
100
AcDbLine
 10
84.41671632441602
 20
-0.000000000000003
 30
0.0
 11
84.41671632441602
 21
10.6978566408995
 31
0.0
  0
SOLID
  5
210FD
330
21010
100
AcDbEntity
  8
2
 62
     0
100
AcDbTrace
 10
84.00004965774936
 20
-5.50173645874566
 30
0.0
 11
84.8333829910827
 21
-5.50173645874566
 31
0.0
 12
84.41671632441602
 22
-8.001736458745661
 32
0.0
 13
84.41671632441602
 23
-8.001736458745661
 33
0.0
  0
MTEXT
  5
210FE
330
21010
100
AcDbEntity
  8
2
 62
     0
100
AcDbMText
 10
81.9285750735376
 20
6.598928320449764
 30
0.0
 40
3.5
 41
0.0
 71
     5
 72
     1
  1
%%C16
 11
0.0000000000000001
 21
1.0
 31
0.0
 73
     1
 44
1.0
1001
ACAD
1000
MTEXTBEGIN
1070
    73
1070
     1
1070
    44
1040
1.0
1070
    74
1070
     0
1000
MTEXTEND
  0
POINT
  5
210FF
330
21010
100
AcDbEntity
  8
Defpoints
 62
     0
100
AcDbPoint
 10
64.01765933151716
 20
-8.001736458745654
 30
0.0
  0
POINT
  5
21100
330
21010
100
AcDbEntity
  8
Defpoints
 62
     0
100
AcDbPoint
 10
73.91300999999993
 20
0.0
 30
0.0
  0
POINT
  5
21101
330
21010
100
AcDbEntity
  8
Defpoints
 62
     0
100
AcDbPoint
 10
84.41671632441602
 20
-0.000000000000003
 30
0.0
  0
ENDBLK
  5
21012
330
21010
100
AcDbEntity
  8
0
100
AcDbBlockEnd
  0
ENDSEC
  0
SECTION
  2
ENTITIES
  0
INSERT
  5
20A18
330
1F
100
AcDbEntity
  8
2
100
AcDbBlockReference
  2
cero_point
 10
0.0
 20
0.0
 30
0.0
  0
LINE
  5
20E85
330
1F
100
AcDbEntity
  8
INFTOTAL
100
AcDbLine
 10
-180.0852758446815
 20
63.29086032969076
 30
0.0
 11
-130.0852758446814
 21
63.29086032969073
 31
0.0
  0
LINE
  5
20E86
330
1F
100
AcDbEntity
  8
INFTOTAL
100
AcDbLine
 10
117.2471902629047
 20
-15.5799082386733
 30
0.0
 11
117.2471902629047
 21
-65.57990823867328
 31
0.0
  0
LINE
  5
20E87
330
1F
100
AcDbEntity
  8
INFTOTAL
100
AcDbLine
 10
117.2471902629047
 20
-65.57990823867328
 30
0.0
 11
67.2471902629049
 21
-65.57990823867328
 31
0.0
  0
LINE
  5
20E88
330
1F
100
AcDbEntity
  8
INFTOTAL
100
AcDbLine
 10
-180.0852758446815
 20
13.29086032969079
 30
0.0
 11
-180.0852758446815
 21
63.29086032969076
 31
0.0
  0
LINE
  5
20E89
330
1F
100
AcDbEntity
  8
SK4
100
AcDbLine
 10
-134.668625
 20
0.0
 30
0.0
 11
-0.0000000000001137
 21
0.0
 31
0.0
  0
LINE
  5
20E8A
330
1F
100
AcDbEntity
  8
4
100
AcDbLine
 10
-0.0000000000001137
 20
0.0
 30
0.0
 11
73.91300999999993
 21
0.0
 31
0.0
  0
POINT
  5
20E8B
330
1F
100
AcDbEntity
  8
1
100
AcDbPoint
 10
34.99999999999989
 20
7.400000000000005
 30
0.0
  0
POINT
  5
20E8C
330
1F
100
AcDbEntity
  8
1
100
AcDbPoint
 10
23.55248599999987
 20
7.999939000000011
 30
0.0
  0
ELLIPSE
  5
20E8F
330
1F
100
AcDbEntity
  8
3
100
AcDbEllipse
 10
58.35872799999987
 20
1.421198000000003
 30
0.0
 11
-0.2637273725469029
 21
0.7021024661468634
 31
0.0
210
0.0
220
0.0
230
0.9999999999999998
 40
0.5207380000000002
 41
3.240908501478024
 42
6.283188975053841
  0
ELLIPSE
  5
20E90
330
1F
100
AcDbEntity
  8
3
100
AcDbEllipse
 10
57.69547499999982
 20
-0.9082530000000019
 30
0.0
 11
-0.1734400132694858
 21
-0.7296701732954971
 31
0.0
210
0.0
220
0.0
230
1.0
 40
0.327681
 41
5.972314990095304
 42
6.227197150774714
  0
ELLIPSE
  5
20E91
330
1F
100
AcDbEntity
  8
3
100
AcDbEllipse
 10
57.69547499999982
 20
-0.9082530000000019
 30
0.0
 11
-0.1734400132694858
 21
-0.7296701732954971
 31
0.0
210
0.0
220
0.0
230
1.0
 40
0.327681
 41
3.452463474232392
 42
5.972314990095304
  0
ELLIPSE
  5
20E92
330
1F
100
AcDbEntity
  8
3
100
AcDbEllipse
 10
57.69547499999982
 20
-0.9082530000000019
 30
0.0
 11
0.1734400132694854
 21
0.7296701732954971
 31
0.0
210
0.0
220
0.0
230
0.9999999999999998
 40
0.327681
 41
3.085604497184923
 42
3.141592595869833
  0
LINE
  5
20E93
330
1F
100
AcDbEntity
  8
3
100
AcDbLine
 10
55.52470499999987
 20
-1.163165000000006
 30
0.0
 11
57.52203499999985
 21
-1.637923999999998
 31
0.0
  0
LINE
  5
20E94
330
1F
100
AcDbEntity
  8
3
100
AcDbLine
 10
55.77948199999986
 20
0.3168600000000055
 30
0.0
 11
55.76628699999986
 21
0.3212039999999945
 31
0.0
  0
SPLINE
  5
20E95
330
1F
100
AcDbEntity
  8
3
100
AcDbSpline
210
0.0
220
0.0
230
1.0
 70
     8
 71
     5
 72
    18
 73
    12
 74
     0
 42
0.000000001
 43
0.0000000001
 40
0.0
 40
0.0
 40
0.0
 40
0.0
 40
0.0
 40
0.0
 40
0.7489988559580988
 40
0.7489988559580988
 40
0.7489988559580988
 40
1.946865871629196
 40
1.946865871629196
 40
1.946865871629196
 40
2.343436709519294
 40
2.343436709519294
 40
2.343436709519294
 40
2.343436709519294
 40
2.343436709519294
 40
2.343436709519294
 10
55.7662868143447
 20
0.3212041108913723
 30
0.0
 10
55.73573859431769
 20
0.3284675998062738
 30
0.0
 10
55.70611581485422
 20
0.3190903130058587
 30
0.0
 10
55.67812210044093
 20
0.2919958129357667
 30
0.0
 10
55.61049838084858
 20
0.1816982013487802
 30
0.0
 10
55.55755330599112
 20
-0.0111689912407513
 30
0.0
 10
55.53057619950902
 20
-0.1503625089637381
 30
0.0
 10
55.50222967760277
 20
-0.3460784677367314
 30
0.0
 10
55.4843427902822
 20
-0.5450041781413973
 30
0.0
 10
55.48056162911848
 20
-0.5943857043350534
 30
0.0
 10
55.47748574502588
 20
-0.6432983279913458
 30
0.0
 10
55.4751653333667
 20
-0.6913175091211059
 30
0.0
  0
SPLINE
  5
20E96
330
1F
100
AcDbEntity
  8
3
100
AcDbSpline
210
0.0
220
0.0
230
1.0
 70
     8
 71
     5
 72
    15
 73
     9
 74
     0
 42
0.000000001
 43
0.0000000001
 40
0.0
 40
0.0
 40
0.0
 40
0.0
 40
0.0
 40
0.0
 40
0.4946766820832389
 40
0.4946766820832389
 40
0.4946766820832389
 40
1.142690864319389
 40
1.142690864319389
 40
1.142690864319389
 40
1.142690864319389
 40
1.142690864319389
 40
1.142690864319389
 10
55.5184132131335
 20
-1.160461773298038
 30
0.0
 10
55.50745578569951
 20
-1.153525735847523
 30
0.0
 10
55.49784805526764
 20
-1.137162520129137
 30
0.0
 10
55.48990878976724
 20
-1.111170794210565
 30
0.0
 10
55.47556164372832
 20
-1.032164194772363
 30
0.0
 10
55.47006529229594
 20
-0.9185359653649527
 30
0.0
 10
55.46959916704605
 20
-0.8458620134986318
 30
0.0
 10
55.47137367871108
 20
-0.7697829619945651
 30
0.0
 10
55.4751653333667
 20
-0.6913175091211059
 30
0.0
  0
SPLINE
  5
20E97
330
1F
100
AcDbEntity
  8
3
100
AcDbSpline
210
0.0
220
0.0
230
1.0
 70
     8
 71
     5
 72
    18
 73
    12
 74
     0
 42
0.000000001
 43
0.0000000001
 40
0.0
 40
0.0
 40
0.0
 40
0.0
 40
0.0
 40
0.0
 40
0.4557662227643962
 40
0.4557662227643962
 40
0.4557662227643962
 40
0.9013619400068971
 40
0.9013619400068971
 40
0.9013619400068971
 40
1.121317476201389
 40
1.121317476201389
 40
1.121317476201389
 40
1.121317476201389
 40
1.121317476201389
 40
1.121317476201389
 10
55.90992590170123
 20
-0.2264457328921168
 30
0.0
 10
55.94442748437348
 20
-0.191831002621214
 30
0.0
 10
55.97451256213293
 20
-0.1538755181478422
 30
0.0
 10
55.99847381277465
 20
-0.1122643087997517
 30
0.0
 10
56.02651082441235
 20
-0.0257066701115463
 30
0.0
 10
56.01351498407609
 20
0.0618318301966099
 30
0.0
 10
55.99635889056258
 20
0.1023440832337599
 30
0.0
 10
55.96021179913646
 20
0.1569883515304298
 30
0.0
 10
55.91232435874946
 20
0.2034455509342763
 30
0.0
 10
55.89540727734692
 20
0.2179460159359223
 30
0.0
 10
55.87769325488006
 20
0.231550190824521
 30
0.0
 10
55.85924329690794
 20
0.2443603189404655
 30
0.0
  0
ARC
  5
20E98
330
1F
100
AcDbEntity
  8
3
100
AcDbCircle
 10
55.67993399999989
 20
0.1297030000000063
 30
0.0
 40
0.212393
100
AcDbArc
 50
32.59608400000062
 51
61.99162700000223
  0
LINE
  5
20E99
330
1F
100
AcDbEntity
  8
3
100
AcDbLine
 10
55.51841299999989
 20
-1.160461999999995
 30
0.0
 11
55.52470499999987
 21
-1.163165000000006
 31
0.0
  0
SPLINE
  5
20E9A
330
1F
100
AcDbEntity
  8
3
100
AcDbSpline
210
0.0
220
0.0
230
1.0
 70
     8
 71
     5
 72
    15
 73
     9
 74
     0
 42
0.000000001
 43
0.0000000001
 40
0.0
 40
0.0
 40
0.0
 40
0.0
 40
0.0
 40
0.0
 40
0.5104152431110327
 40
0.5104152431110327
 40
0.5104152431110327
 40
0.9917806369270072
 40
0.9917806369270072
 40
0.9917806369270072
 40
0.9917806369270072
 40
0.9917806369270072
 40
0.9917806369270072
 10
55.52470535180396
 20
-1.163165330840527
 30
0.0
 10
55.53661265007168
 20
-1.165995387483292
 30
0.0
 10
55.5498549725491
 20
-1.158920105060985
 30
0.0
 10
55.56411132093052
 20
-1.142490527656747
 30
0.0
 10
55.59303665569564
 20
-1.096231392193061
 30
0.0
 10
55.62381257490506
 20
-1.027383426300389
 30
0.0
 10
55.63913949312649
 20
-0.9896255520344396
 30
0.0
 10
55.65461845228679
 20
-0.9489293863733934
 30
0.0
 10
55.67032215842795
 20
-0.9057832392756353
 30
0.0
  0
SPLINE
  5
20E9B
330
1F
100
AcDbEntity
  8
3
100
AcDbSpline
210
0.0
220
0.0
230
1.0
 70
     8
 71
     5
 72
    15
 73
     9
 74
     0
 42
0.000000001
 43
0.0000000001
 40
0.0
 40
0.0
 40
0.0
 40
0.0
 40
0.0
 40
0.0
 40
1.072928900909085
 40
1.072928900909085
 40
1.072928900909085
 40
1.352248686046036
 40
1.352248686046036
 40
1.352248686046036
 40
1.352248686046036
 40
1.352248686046036
 40
1.352248686046036
 10
55.67032215842795
 20
-0.9057832392756353
 30
0.0
 10
55.70532459189468
 20
-0.8096135752766002
 30
0.0
 10
55.74144355394508
 20
-0.7012741568157992
 30
0.0
 10
55.7766515828356
 20
-0.5941639706920228
 30
0.0
 10
55.82488004119415
 20
-0.4512971195913167
 30
0.0
 10
55.87729224964704
 20
-0.3101821331312067
 30
0.0
 10
55.88720559191244
 20
-0.2840510271326906
 30
0.0
 10
55.89858325468566
 20
-0.2548199526252119
 30
0.0
 10
55.90992187154205
 20
-0.2264486178063549
 30
0.0
  0
ARC
  5
20E9C
330
1F
100
AcDbEntity
  8
3
100
AcDbCircle
 10
55.64177399999988
 20
-0.101419000000007
 30
0.0
 40
0.295322
100
AcDbArc
 50
310.9999059999989
 51
335.0016160000014
  0
LINE
  5
20E9D
330
1F
100
AcDbEntity
  8
3
100
AcDbLine
 10
55.83519299999983
 20
-0.323921999999996
 30
0.0
 11
55.81308099999984
 21
-0.3361759999999947
 31
0.0
  0
SPLINE
  5
20E9E
330
1F
100
AcDbEntity
  8
3
100
AcDbSpline
210
0.0
220
0.0
230
1.0
 70
     8
 71
     5
 72
    18
 73
    12
 74
     0
 42
0.000000001
 43
0.0000000001
 40
0.0
 40
0.0
 40
0.0
 40
0.0
 40
0.0
 40
0.0
 40
0.8068832440465051
 40
0.8068832440465051
 40
0.8068832440465051
 40
2.081874911367948
 40
2.081874911367948
 40
2.081874911367948
 40
2.5120102725871
 40
2.5120102725871
 40
2.5120102725871
 40
2.5120102725871
 40
2.5120102725871
 40
2.5120102725871
 10
55.81308121590694
 20
-0.3361755640703876
 30
0.0
 10
55.78586308621715
 20
-0.346400790735288
 30
0.0
 10
55.75785785682012
 20
-0.3418402346782159
 30
0.0
 10
55.73017498400912
 20
-0.3196084952259213
 30
0.0
 10
55.6610170553754
 20
-0.2222311339994576
 30
0.0
 10
55.60049523096603
 20
-0.0376460736901549
 30
0.0
 10
55.56783029572449
 20
0.0991748120030707
 30
0.0
 10
55.53127045199232
 20
0.299727470031911
 30
0.0
 10
55.50624293458406
 20
0.5100066364540084
 30
0.0
 10
55.50071831939533
 20
0.5633110296453481
 30
0.0
 10
55.49605863104904
 20
0.6163944626298985
 30
0.0
 10
55.4923481136787
 20
0.6686840313280129
 30
0.0
  0
SPLINE
  5
20E9F
330
1F
100
AcDbEntity
  8
3
100
AcDbSpline
210
0.0
220
0.0
230
1.0
 70
     8
 71
     5
 72
    15
 73
     9
 74
     0
 42
0.000000001
 43
0.0000000001
 40
0.0
 40
0.0
 40
0.0
 40
0.0
 40
0.0
 40
0.0
 40
0.8266554703169481
 40
0.8266554703169481
 40
0.8266554703169481
 40
1.127026772803819
 40
1.127026772803819
 40
1.127026772803819
 40
1.127026772803819
 40
1.127026772803819
 40
1.127026772803819
 10
55.4923481136787
 20
0.6686840313280129
 30
0.0
 10
55.48521705736823
 20
0.7691767178216793
 30
0.0
 10
55.48159163451038
 20
0.8667352258624987
 30
0.0
 10
55.48210161210659
 20
0.9597314197482802
 30
0.0
 10
55.48988004161765
 20
1.061567998710216
 30
0.0
 10
55.50600972954646
 20
1.122884262916684
 30
0.0
 10
55.51091934580449
 20
1.136208348643975
 30
0.0
 10
55.51627899380156
 20
1.146145132890382
 30
0.0
 10
55.5220663131808
 20
1.152894174484032
 30
0.0
  0
SPLINE
  5
20EA0
330
1F
100
AcDbEntity
  8
3
100
AcDbSpline
210
0.0
220
0.0
230
1.0
 70
     8
 71
     5
 72
    15
 73
     9
 74
     0
 42
0.000000001
 43
0.0000000001
 40
0.0
 40
0.0
 40
0.0
 40
0.0
 40
0.0
 40
0.0
 40
1.151913925288718
 40
1.151913925288718
 40
1.151913925288718
 40
1.631709320532143
 40
1.631709320532143
 40
1.631709320532143
 40
1.631709320532143
 40
1.631709320532143
 40
1.631709320532143
 10
55.85924428319163
 20
0.244359566463558
 30
0.0
 10
55.82610191785073
 20
0.3444733977755021
 30
0.0
 10
55.79245897283328
 20
0.4593060886145679
 30
0.0
 10
55.76022963561888
 20
0.5803804942326139
 30
0.0
 10
55.71613408529327
 20
0.744620801586521
 30
0.0
 10
55.67256983445554
 20
0.8906621335044206
 30
0.0
 10
55.65975630169311
 20
0.9316290153484914
 30
0.0
 10
55.64700884568186
 20
0.9698317696319236
 30
0.0
 10
55.63433429000145
 20
1.004651770607978
 30
0.0
  0
SPLINE
  5
20EA1
330
1F
100
AcDbEntity
  8
3
100
AcDbSpline
210
0.0
220
0.0
230
1.0
 70
     8
 71
     5
 72
    15
 73
     9
 74
     0
 42
0.000000001
 43
0.0000000001
 40
0.0
 40
0.0
 40
0.0
 40
0.0
 40
0.0
 40
0.0
 40
0.7180895074605727
 40
0.7180895074605727
 40
0.7180895074605727
 40
0.8213490854956518
 40
0.8213490854956518
 40
0.8213490854956518
 40
0.8213490854956518
 40
0.8213490854956518
 40
0.8213490854956518
 10
55.63433429000145
 20
1.004651770607978
 30
0.0
 10
55.61536481773021
 20
1.056765395704346
 30
0.0
 10
55.59655869655831
 20
1.101300783317981
 30
0.0
 10
55.57790316160605
 20
1.136225700732353
 30
0.0
 10
55.5575159762808
 20
1.160096925155556
 30
0.0
 10
55.53926405633712
 20
1.162164495919753
 30
0.0
 10
55.53700361194524
 20
1.162071662315028
 30
0.0
 10
55.53478469535758
 20
1.16161922685552
 30
0.0
 10
55.5326078441787
 20
1.160801793443695
 30
0.0
  0
LINE
  5
20EA2
330
1F
100
AcDbEntity
  8
3
100
AcDbLine
 10
55.53260799999987
 20
1.160802000000003
 30
0.0
 11
55.52206599999988
 21
1.152893999999989
 31
0.0
  0
ELLIPSE
  5
20EA3
330
1F
100
AcDbEntity
  8
3
100
AcDbEllipse
 10
58.35872799999987
 20
1.421198000000003
 30
0.0
 11
0.2637273725469031
 21
-0.7021024661468635
 31
0.0
210
0.0
220
0.0
230
1.0
 40
0.5207380000000002
 41
3.709652238749865
 42
5.715123309777932
  0
ARC
  5
20EA4
330
1F
100
AcDbEntity
  8
3
100
AcDbCircle
 10
58.88734599999986
 20
1.619760999999996
 30
0.0
 40
1.0
100
AcDbArc
 50
121.4200539999993
 51
161.3740910000003
  0
LINE
  5
20EA5
330
1F
100
AcDbEntity
  8
3
100
AcDbLine
 10
55.53260799999987
 20
1.160802000000003
 30
0.0
 11
58.09499899999986
 21
2.1233
 31
0.0
  0
LINE
  5
20EA6
330
1F
100
AcDbEntity
  8
3
100
AcDbLine
 10
55.81308099999984
 20
-0.3361759999999947
 30
0.0
 11
58.62245599999983
 21
0.7190959999999933
 31
0.0
  0
LINE
  5
20EA7
330
1F
100
AcDbEntity
  8
3
100
AcDbLine
 10
55.76628699999986
 20
0.3212039999999945
 30
0.0
 11
57.8689149999999
 21
-0.1785830000000033
 31
0.0
  0
ELLIPSE
  5
20EA8
330
1F
100
AcDbEntity
  8
3
100
AcDbEllipse
 10
57.69547499999982
 20
-0.9082530000000019
 30
0.0
 11
0.1734400132694854
 21
0.7296701732954971
 31
0.0
210
0.0
220
0.0
230
0.9999999999999998
 40
0.327681
 41
3.141592595869833
 42
6.227197150774712
  0
ARC
  5
20EA9
330
1F
100
AcDbEntity
  8
3
100
AcDbCircle
 10
58.30345499999987
 20
-1.052768
 30
0.0
 40
1.0
100
AcDbArc
 50
212.1945880000005
 51
246.9110990000013
  0
ARC
  5
20EAA
330
1F
100
AcDbEntity
  8
3
100
AcDbCircle
 10
58.30345499999987
 20
-1.052768
 30
0.0
 40
1.0
100
AcDbArc
 50
76.6291260000021
 51
121.0636749999986
  0
SPLINE
  5
20EAB
330
1F
100
AcDbEntity
  8
3
100
AcDbSpline
210
0.0
220
0.0
230
1.0
 70
     8
 71
     5
 72
    27
 73
    21
 74
     0
 42
0.000000001
 43
0.0000000001
 40
0.0
 40
0.0
 40
0.0
 40
0.0
 40
0.0
 40
0.0
 40
0.1716513869573719
 40
0.1716513869573719
 40
0.1716513869573719
 40
0.4557881513184336
 40
0.4557881513184336
 40
0.4557881513184336
 40
0.5664790028984255
 40
0.5664790028984255
 40
0.5664790028984255
 40
0.6766256068960035
 40
0.6766256068960035
 40
0.6766256068960035
 40
1.174781615885652
 40
1.174781615885652
 40
1.174781615885652
 40
1.673761209467736
 40
1.673761209467736
 40
1.673761209467736
 40
1.673761209467736
 40
1.673761209467736
 40
1.673761209467736
 10
58.28925147322706
 20
-1.814919347159346
 30
0.0
 10
58.27369327726524
 20
-1.80293987711714
 30
0.0
 10
58.25860344450183
 20
-1.790442850323799
 30
0.0
 10
58.24404897219437
 20
-1.777346600107151
 30
0.0
 10
58.20740549498783
 20
-1.741006078252141
 30
0.0
 10
58.17738486827852
 20
-1.700082238633441
 30
0.0
 10
58.16218011003314
 20
-1.672657084377789
 30
0.0
 10
58.14868135721593
 20
-1.632329420702987
 30
0.0
 10
58.14680891038881
 20
-1.591301638527696
 30
0.0
 10
58.14722369297697
 20
-1.579849854637487
 30
0.0
 10
58.14990637565376
 20
-1.557236726048657
 30
0.0
 10
58.15602249603279
 20
-1.535254857247565
 30
0.0
 10
58.15987756417337
 20
-1.524512961792595
 30
0.0
 10
58.18490714383694
 20
-1.46719890459822
 30
0.0
 10
58.22951939241625
 20
-1.418147991643749
 30
0.0
 10
58.27255269297842
 20
-1.384104925014852
 30
0.0
 10
58.36441772432306
 20
-1.325550469208906
 30
0.0
 10
58.46660010421619
 20
-1.281969880098856
 30
0.0
 10
58.51939627916443
 20
-1.263179959126333
 30
0.0
 10
58.5730776735831
 20
-1.247282962636859
 30
0.0
 10
58.62760610413761
 20
-1.234078499806884
 30
0.0
  0
ARC
  5
20EAC
330
1F
100
AcDbEntity
  8
3
100
AcDbCircle
 10
58.96839899999986
 20
-2.645438999999996
 30
0.0
 40
1.451926
100
AcDbArc
 50
95.47269399999924
 51
103.5750099999987
  0
ARC
  5
20EAD
330
1F
100
AcDbEntity
  8
3
100
AcDbCircle
 10
58.30348199999986
 20
-1.052683999999999
 30
0.0
 40
1.000087999999997
100
AcDbArc
 50
246.9115589999987
 51
256.6287299999984
  0
ELLIPSE
  5
20EAE
330
1F
100
AcDbEntity
  8
3
100
AcDbEllipse
 10
58.35872799999987
 20
1.421198000000003
 30
0.0
 11
0.2637273725469031
 21
-0.7021024661468635
 31
0.0
210
0.0
220
0.0
230
1.0
 40
0.5207380000000002
 41
5.715123309777932
 42
6.283188975053837
  0
ELLIPSE
  5
20EAF
330
1F
100
AcDbEntity
  8
3
100
AcDbEllipse
 10
58.35872799999987
 20
1.421198000000003
 30
0.0
 11
0.2637273725469031
 21
-0.7021024661468635
 31
0.0
210
0.0
220
0.0
230
1.0
 40
0.5207380000000002
 41
0.0000036678742533
 42
0.0993158478882298
  0
ELLIPSE
  5
20EB0
330
1F
100
AcDbEntity
  8
3
100
AcDbEllipse
 10
58.35872799999987
 20
1.421198000000003
 30
0.0
 11
0.2637273725469031
 21
-0.7021024661468635
 31
0.0
210
0.0
220
0.0
230
1.0
 40
0.5207380000000002
 41
3.240908501478024
 42
3.709652238749865
  0
ELLIPSE
  5
20EB1
330
1F
100
AcDbEntity
  8
3
100
AcDbEllipse
 10
58.35872799999987
 20
1.421198000000003
 30
0.0
 11
-0.2637273725469029
 21
0.7021024661468634
 31
0.0
210
0.0
220
0.0
230
0.9999999999999998
 40
0.5207380000000002
 41
0.0000036678742549
 42
0.0993158478882309
  0
ARC
  5
20EB2
330
1F
100
AcDbEntity
  8
3
100
AcDbCircle
 10
58.88741699999986
 20
1.619612000000003
 30
0.0
 40
1.000163999999997
100
AcDbArc
 50
110.588385999999
 51
121.4191029999996
  0
LINE
  5
20EB3
330
1F
100
AcDbEntity
  8
3
100
AcDbLine
 10
58.53570699999989
 20
2.555897000000001
 30
0.0
 11
58.58427699999987
 21
2.574141000000011
 31
0.0
  0
LINE
  5
20EB4
330
1F
100
AcDbEntity
  8
3
100
AcDbLine
 10
58.57792699999982
 20
2.562899999999999
 30
0.0
 11
58.60081899999989
 21
2.561435000000003
 31
0.0
  0
ARC
  5
20EB5
330
1F
100
AcDbEntity
  8
3
100
AcDbCircle
 10
58.58308299999987
 20
2.563591000000002
 30
0.0
 40
0.010025
100
AcDbArc
 50
83.54256400000004
 51
172.1179119999999
  0
LINE
  5
20EB6
330
1F
100
AcDbEntity
  8
3
100
AcDbLine
 10
58.57367299999982
 20
2.564893999999995
 30
0.0
 11
58.57792699999982
 21
2.562899999999999
 31
0.0
  0
ELLIPSE
  5
20EB7
330
1F
100
AcDbEntity
  8
3
100
AcDbEllipse
 10
59.63837399999988
 20
-1.370056000000005
 30
0.0
 11
1.847014770368798
 21
-0.5045282309567411
 31
0.0
210
0.0
220
0.0
230
1.0
 40
0.521516
 41
4.045565391441443
 42
4.720167112709731
  0
LINE
  5
20EB8
330
1F
100
AcDbEntity
  8
3
100
AcDbLine
 10
58.07220099999989
 20
-2.025661999999996
 30
0.0
 11
59.49348499999985
 21
-2.363496000000012
 31
0.0
  0
ELLIPSE
  5
20EB9
330
1F
100
AcDbEntity
  8
3
100
AcDbEllipse
 10
58.18697999999989
 20
-1.025082000000011
 30
0.0
 11
3.153907707592191
 21
0.2531757600438834
 31
0.0
210
0.0
220
0.0
230
1.0
 40
0.07285
 41
4.913613833995728
 42
6.504261081966344
  0
LINE
  5
20EBA
330
1F
100
AcDbEntity
  8
3
100
AcDbLine
 10
58.53470799999985
 20
-0.0798740000000038
 30
0.0
 11
61.26008299999984
 21
-0.7276859999999914
 31
0.0
  0
ELLIPSE
  5
20EBB
330
1F
100
AcDbEntity
  8
3
100
AcDbEllipse
 10
59.63835899999986
 20
-1.370070000000012
 30
0.0
 11
1.846994820232563
 21
-0.5045304020531986
 31
0.0
210
0.0
220
0.0
230
1.0
 40
0.521512
 41
4.776162468439386
 42
6.963750556326582
  0
SPLINE
  5
20EBC
330
1F
100
AcDbEntity
  8
3
100
AcDbSpline
210
0.0
220
0.0
230
1.0
 70
     8
 71
     5
 72
    18
 73
    12
 74
     0
 42
0.000000001
 43
0.0000000001
 40
0.0
 40
0.0
 40
0.0
 40
0.0
 40
0.0
 40
0.0
 40
0.3769385855191779
 40
0.3769385855191779
 40
0.3769385855191779
 40
1.150335203735994
 40
1.150335203735994
 40
1.150335203735994
 40
1.265657636136813
 40
1.265657636136813
 40
1.265657636136813
 40
1.265657636136813
 40
1.265657636136813
 40
1.265657636136813
 10
61.0584539434206
 20
-0.7061574143814795
 30
0.0
 10
61.03825853164295
 20
-0.7104530048834335
 30
0.0
 10
61.02457952375965
 20
-0.7197967234441621
 30
0.0
 10
61.01878599530158
 20
-0.7352998314161426
 30
0.0
 10
61.01805847997593
 20
-0.7972582311373913
 30
0.0
 10
61.05952309162069
 20
-0.8943633861243114
 30
0.0
 10
61.09622600061306
 20
-0.965269366542202
 30
0.0
 10
61.14931826709858
 20
-1.04794542270271
 30
0.0
 10
61.21342893975128
 20
-1.126234908812378
 30
0.0
 10
61.22193081932329
 20
-1.136307736512577
 30
0.0
 10
61.23059862314324
 20
-1.146263985292165
 30
0.0
 10
61.23943822028246
 20
-1.156104284498127
 30
0.0
  0
ARC
  5
20EBD
330
1F
100
AcDbEntity
  8
3
100
AcDbCircle
 10
61.08885199999986
 20
-0.9019430000000028
 30
0.0
 40
0.198261
100
AcDbArc
 50
81.75035900000054
 51
98.82529899999887
  0
LINE
  5
20EBE
330
1F
100
AcDbEntity
  8
3
100
AcDbLine
 10
61.21557199999983
 20
-0.7187169999999981
 30
0.0
 11
61.11731999999983
 21
-0.7055900000000009
 31
0.0
  0
LINE
  5
20EBF
330
1F
100
AcDbEntity
  8
3
100
AcDbLine
 10
61.21557199999983
 20
-0.7187169999999981
 30
0.0
 11
61.26008399999989
 21
-0.7276870000000031
 31
0.0
  0
LINE
  5
20EC0
330
1F
100
AcDbEntity
  8
3
100
AcDbLine
 10
59.2389839999999
 20
0.6836250000000064
 30
0.0
 11
62.32355399999983
 21
1.842266999999992
 31
0.0
  0
ARC
  5
20EC1
330
1F
100
AcDbEntity
  8
3
100
AcDbCircle
 10
58.88734599999986
 20
1.619760999999996
 30
0.0
 40
1.0
100
AcDbArc
 50
239.8007230000005
 51
290.587552999999
  0
SPLINE
  5
20EC2
330
1F
100
AcDbEntity
  8
3
100
AcDbSpline
210
0.0
220
0.0
230
1.0
 70
     8
 71
     5
 72
    21
 73
    15
 74
     0
 42
0.000000001
 43
0.0000000001
 40
0.0
 40
0.0
 40
0.0
 40
0.0
 40
0.0
 40
0.0
 40
0.6368730363009371
 40
0.6368730363009371
 40
0.6368730363009371
 40
1.348587988517307
 40
1.348587988517307
 40
1.348587988517307
 40
2.81171461577175
 40
2.81171461577175
 40
2.81171461577175
 40
3.540600152726411
 40
3.540600152726411
 40
3.540600152726411
 40
3.540600152726411
 40
3.540600152726411
 40
3.540600152726411
 10
58.58427707801235
 20
2.574140667483774
 30
0.0
 10
58.60716508375674
 20
2.582738746337696
 30
0.0
 10
58.65770044419656
 20
2.591992439539765
 30
0.0
 10
58.7239260511397
 20
2.595164260844882
 30
0.0
 10
58.85962659154194
 20
2.594054262727283
 30
0.0
 10
59.00644831166437
 20
2.576797432473497
 30
0.0
 10
59.08481614104601
 20
2.5635231305762
 30
0.0
 10
59.32466141488612
 20
2.511330845446124
 30
0.0
 10
59.56300402770915
 20
2.42688597498541
 30
0.0
 10
59.71758431139455
 20
2.359266365889141
 30
0.0
 10
59.94523034316393
 20
2.250157606769803
 30
0.0
 10
60.16824092808673
 20
2.154160551652537
 30
0.0
 10
60.24223499354736
 20
2.124909751493646
 30
0.0
 10
60.31605887403327
 20
2.099887277120387
 30
0.0
 10
60.3899430909513
 20
2.080205353242646
 30
0.0
  0
ELLIPSE
  5
20EC3
330
1F
100
AcDbEntity
  8
3
100
AcDbEllipse
 10
60.42396799999989
 20
2.196954999999988
 30
0.0
 11
1.913151998204782
 21
-0.34335792015641
 31
0.0
210
0.0
220
0.0
230
1.0
 40
0.064589
 41
6.175062896859206
 42
9.128203277276783
  0
ELLIPSE
  5
20EC4
330
1F
100
AcDbEntity
  8
3
100
AcDbEllipse
 10
60.42396399999984
 20
2.196954999999988
 30
0.0
 11
1.913155342763657
 21
-0.343358718186643
 31
0.0
210
0.0
220
0.0
230
1.0
 40
0.064589
 41
4.76140810507748
 42
6.075779575739008
  0
ARC
  5
20EC5
330
1F
100
AcDbEntity
  8
3
100
AcDbCircle
 10
60.71599899999984
 20
3.295757999999992
 30
0.0
 40
1.258513999999999
100
AcDbArc
 50
254.984610999999
 51
259.9119210000021
  0
LINE
  5
20EC6
330
1F
100
AcDbEntity
  8
3
100
AcDbLine
 10
62.29155099999985
 20
1.835509999999999
 30
0.0
 11
62.32355399999983
 21
1.842266999999992
 31
0.0
  0
LINE
  5
20EC7
330
1F
100
AcDbEntity
  8
1
100
AcDbLine
 10
60.14991399999991
 20
-7.559285999999985
 30
0.0
 11
59.94263999999986
 21
-7.354151999999999
 31
0.0
  0
LINE
  5
20EC8
330
1F
100
AcDbEntity
  8
1
100
AcDbLine
 10
59.93696399999987
 20
-7.302750000000003
 30
0.0
 11
59.94263999999986
 21
-7.354151999999999
 31
0.0
  0
ARC
  5
20EC9
330
1F
100
AcDbEntity
  8
1
100
AcDbCircle
 10
61.37927899999988
 20
-6.299531000000001
 30
0.0
 40
1.760334
100
AcDbArc
 50
225.6995090000008
 51
238.8391729999987
  0
ARC
  5
20ECA
330
1F
100
AcDbEntity
  8
1
100
AcDbCircle
 10
69.02929499999988
 20
-0.1344119999999975
 30
0.0
 40
0.9655249999999997
100
AcDbArc
 50
359.0749300000006
 51
13.33447099999911
  0
ARC
  5
20ECB
330
1F
100
AcDbEntity
  8
1
100
AcDbCircle
 10
62.29832799999991
 20
-0.0527759999999944
 30
0.0
 40
7.696960999999999
100
AcDbArc
 50
352.0808110000005
 51
359.2762490000006
  0
LINE
  5
20ECC
330
1F
100
AcDbEntity
  8
1
100
AcDbLine
 10
59.94263999999986
 20
-7.354151999999999
 30
0.0
 11
61.4116009999999
 21
-7.362152000000008
 31
0.0
  0
ELLIPSE
  5
20ECD
330
1F
100
AcDbEntity
  8
1
100
AcDbEllipse
 10
61.45147999999989
 20
0.2914680000000089
 30
0.0
 11
0.0000000000000005
 21
7.653728485107422
 31
0.0
210
0.0
220
0.0
230
1.0
 40
0.9781479999999998
 41
3.136265793047273
 42
4.558206811559916
  0
ARC
  5
20ECE
330
1F
100
AcDbEntity
  8
1
100
AcDbCircle
 10
60.69488999999987
 20
-7.295224999999987
 30
0.0
 40
0.5582189999999999
100
AcDbArc
 50
246.0799670000014
 51
266.7743960000012
  0
LINE
  5
20ECF
330
1F
100
AcDbEntity
  8
1
100
AcDbLine
 10
61.85593999999986
 20
-7.858417000000002
 30
0.0
 11
60.6635169999999
 21
-7.851922999999999
 31
0.0
  0
SPLINE
  5
20ED0
330
1F
100
AcDbEntity
  8
1
100
AcDbSpline
210
0.0
220
0.0
230
1.0
 70
     8
 71
     5
 72
    57
 73
    51
 74
     0
 42
0.000000001
 43
0.0000000001
 40
0.0
 40
0.0
 40
0.0
 40
0.0
 40
0.0
 40
0.0
 40
2.915089604090498
 40
2.915089604090498
 40
2.915089604090498
 40
3.401811353275296
 40
3.401811353275296
 40
3.401811353275296
 40
3.888533102460093
 40
3.888533102460093
 40
3.888533102460093
 40
4.375581507994737
 40
4.375581507994737
 40
4.375581507994737
 40
4.862629913529382
 40
4.862629913529382
 40
4.862629913529382
 40
5.836672718856647
 40
5.836672718856647
 40
5.836672718856647
 40
6.810722744596167
 40
6.810722744596167
 40
6.810722744596167
 40
7.78477277033569
 40
7.78477277033569
 40
7.78477277033569
 40
8.760597525300994
 40
8.760597525300994
 40
8.760597525300994
 40
9.736422280266296
 40
9.736422280266296
 40
9.736422280266296
 40
10.71254371702999
 40
10.71254371702999
 40
10.71254371702999
 40
11.68866515379368
 40
11.68866515379368
 40
11.68866515379368
 40
13.6408953780715
 40
13.6408953780715
 40
13.6408953780715
 40
15.5946307752932
 40
15.5946307752932
 40
15.5946307752932
 40
17.55019046885829
 40
17.55019046885829
 40
17.55019046885829
 40
19.45842813294061
 40
19.45842813294061
 40
19.45842813294061
 40
19.45842813294061
 40
19.45842813294061
 40
19.45842813294061
 10
69.92189343044663
 20
-1.113210476038233
 30
0.0
 10
69.87543398919803
 20
-1.44736785326836
 30
0.0
 10
69.81071505474324
 20
-1.779137286222351
 30
0.0
 10
69.72779013213614
 20
-2.107770749508034
 30
0.0
 10
69.61068703597845
 20
-2.484295442864521
 30
0.0
 10
69.47012731722356
 20
-2.852315293691987
 30
0.0
 10
69.44953728848952
 20
-2.904793278700935
 30
0.0
 10
69.40740754727812
 20
-3.009371879370064
 30
0.0
 10
69.36339105378635
 20
-3.113166626281497
 30
0.0
 10
69.34123323043849
 20
-3.164134780624067
 30
0.0
 10
69.29531771777402
 20
-3.267200161940678
 30
0.0
 10
69.24752748461168
 20
-3.369444962765612
 30
0.0
 10
69.22315916738694
 20
-3.42036988972643
 30
0.0
 10
69.17351831731554
 20
-3.521738226360355
 30
0.0
 10
69.12206431064584
 20
-3.622157632014449
 30
0.0
 10
69.09565485637575
 20
-3.672564394626306
 30
0.0
 10
69.01575698532179
 20
-3.821746630045339
 30
0.0
 10
68.93184901662971
 20
-3.968677117170841
 30
0.0
 10
68.87418248092405
 20
-4.065537566076841
 30
0.0
 10
68.75533445117651
 20
-4.257196683310013
 30
0.0
 10
68.62932418851136
 20
-4.444862953643649
 30
0.0
 10
68.56448122901361
 20
-4.537742136130901
 30
0.0
 10
68.43158708649991
 20
-4.720910503561952
 30
0.0
 10
68.29205985060355
 20
-4.899223954148595
 30
0.0
 10
68.22062806154758
 20
-4.987174004461991
 30
0.0
 10
68.07448556776677
 20
-5.160573926025818
 30
0.0
 10
67.92210983161186
 20
-5.328580951207328
 30
0.0
 10
67.84430583610356
 20
-5.411290505560742
 30
0.0
 10
67.68582375531781
 20
-5.573744623487385
 30
0.0
 10
67.52158152019598
 20
-5.73030469813051
 30
0.0
 10
67.43849928732704
 20
-5.806679167996662
 30
0.0
 10
67.26857970241008
 20
-5.957295956378402
 30
0.0
 10
67.09314815712303
 20
-6.101781825646867
 30
0.0
 10
67.00407040090943
 20
-6.172472359535902
 30
0.0
 10
66.8234286527549
 20
-6.310561476420758
 30
0.0
 10
66.63791901479811
 20
-6.442007630682439
 30
0.0
 10
66.5443575689822
 20
-6.505793331772167
 30
0.0
 10
66.25927593058356
 20
-6.692709328706797
 30
0.0
 10
65.96419670253766
 20
-6.864107245086131
 30
0.0
 10
65.76318948166454
 20
-6.97136412464053
 30
0.0
 10
65.35392240825917
 20
-7.171193667422727
 30
0.0
 10
64.93091238628386
 20
-7.341406812401032
 30
0.0
 10
64.71592886712778
 20
-7.419099055929336
 30
0.0
 10
64.28099438456865
 20
-7.558945746551188
 30
0.0
 10
63.83707310935273
 20
-7.667665010699295
 30
0.0
 10
63.61285692127109
 20
-7.714251657744341
 30
0.0
 10
63.16711904840014
 20
-7.790617372860822
 30
0.0
 10
62.71682885284673
 20
-7.836131859281778
 30
0.0
 10
62.49356305709909
 20
-7.851091939190524
 30
0.0
 10
62.26988023944596
 20
-7.858531886279166
 30
0.0
 10
62.04616396775112
 20
-7.858532589025827
 30
0.0
  0
LINE
  5
20ED1
330
1F
100
AcDbEntity
  8
1
100
AcDbLine
 10
69.61744399999986
 20
0.3685279999999977
 30
0.0
 11
69.61829099999988
 21
0.3679490000000101
 31
0.0
  0
ARC
  5
20ED2
330
1F
100
AcDbEntity
  8
1
100
AcDbCircle
 10
67.88909899999987
 20
-2.158578000000005
 30
0.0
 40
3.061611999999998
100
AcDbArc
 50
47.21258100000171
 51
55.61056600000025
  0
ELLIPSE
  5
20ED3
330
1F
100
AcDbEntity
  8
1
100
AcDbEllipse
 10
68.3565759999999
 20
-0.1066659999999899
 30
0.0
 11
1.502141952514648
 21
-0.0332279391586781
 31
0.0
210
0.0
220
0.0
230
1.0
 40
0.5321130000000001
 41
6.270537797175972
 42
6.959792501061976
  0
LINE
  5
20ED4
330
1F
100
AcDbEntity
  8
1
100
AcDbLine
 10
61.85593999999986
 20
-7.858417000000002
 30
0.0
 11
61.89863899999989
 21
-7.858532999999994
 31
0.0
  0
ELLIPSE
  5
20ED5
330
1F
100
AcDbEntity
  8
1
100
AcDbEllipse
 10
61.89840599999991
 20
0.2914680000000089
 30
0.0
 11
0.0000000000000005
 21
8.150000572204588
 31
0.0
210
0.0
220
0.0
230
1.0
 40
0.9781479999999998
 41
3.141621927295831
 42
4.650269105982996
  0
LINE
  5
20ED6
330
1F
100
AcDbEntity
  8
1
100
AcDbLine
 10
69.85493299999991
 20
-0.2144830000000013
 30
0.0
 11
69.85837499999991
 21
-0.1500000000000057
 31
0.0
  0
ELLIPSE
  5
20ED7
330
1F
100
AcDbEntity
  8
1
100
AcDbEllipse
 10
69.52751699999987
 20
-0.1066659999999899
 30
0.0
 11
-0.9065690040588378
 21
0.7238889336586
 31
0.0
210
0.0
220
0.0
230
0.9999999999999998
 40
0.375664
 41
4.908658012028233
 42
5.627011521646329
  0
SPLINE
  5
20ED8
330
1F
100
AcDbEntity
  8
1
100
AcDbSpline
210
0.0
220
0.0
230
1.0
 70
     8
 71
     5
 72
    18
 73
    12
 74
     0
 42
0.000000001
 43
0.0000000001
 40
0.2083196494534153
 40
0.2083196494534153
 40
0.2083196494534153
 40
0.2083196494534153
 40
0.2083196494534153
 40
0.2083196494534153
 40
0.5293669009033142
 40
0.5293669009033142
 40
0.5293669009033142
 40
0.8002063177064977
 40
0.8002063177064977
 40
0.8002063177064977
 40
1.336402320002074
 40
1.336402320002074
 40
1.336402320002074
 40
1.336402320002074
 40
1.336402320002074
 40
1.336402320002074
 10
69.01382060012497
 20
0.6019664192346284
 30
0.0
 10
69.00971473471315
 20
0.5552817828437071
 30
0.0
 10
69.00560582775824
 20
0.5081846000632595
 30
0.0
 10
69.00157356199315
 20
0.4613696663483325
 30
0.0
 10
68.99453888704517
 20
0.3780154646497067
 30
0.0
 10
68.98781342671168
 20
0.2946076235440103
 30
0.0
 10
68.98480814806828
 20
0.2564283228269062
 30
0.0
 10
68.97604018828729
 20
0.1426369833070566
 30
0.0
 10
68.96750241997961
 20
0.0288099143729426
 30
0.0
 10
68.96267466934109
 20
-0.0337146208721606
 30
0.0
 10
68.95592978231241
 20
-0.1091600537214674
 30
0.0
 10
68.94873277938256
 20
-0.1845088908073364
 30
0.0
  0
SPLINE
  5
20ED9
330
1F
100
AcDbEntity
  8
1
100
AcDbSpline
210
0.0
220
0.0
230
1.0
 70
     8
 71
     5
 72
    21
 73
    15
 74
     0
 42
0.000000001
 43
0.0000000001
 40
0.0
 40
0.0
 40
0.0
 40
0.0
 40
0.0
 40
0.0
 40
0.6220884454741431
 40
0.6220884454741431
 40
0.6220884454741431
 40
0.8713149809152106
 40
0.8713149809152106
 40
0.8713149809152106
 40
1.120695039794563
 40
1.120695039794563
 40
1.120695039794563
 40
1.245087179463512
 40
1.245087179463512
 40
1.245087179463512
 40
1.245087179463512
 40
1.245087179463512
 40
1.245087179463512
 10
68.94873277938256
 20
-0.1845088908073364
 30
0.0
 10
68.94202680705593
 20
-0.2547168956214705
 30
0.0
 10
68.93412253440306
 20
-0.3247816739946074
 30
0.0
 10
68.92525566775572
 20
-0.3947300136446472
 30
0.0
 10
68.91169682430529
 20
-0.4925256538978715
 30
0.0
 10
68.89668959968844
 20
-0.5901103370404997
 30
0.0
 10
68.89224246709222
 20
-0.6181967420602917
 30
0.0
 10
68.88305877537942
 20
-0.6747171650302733
 30
0.0
 10
68.87375284570771
 20
-0.7306664591656613
 30
0.0
 10
68.86914132170904
 20
-0.7584439673663042
 30
0.0
 10
68.86230423318403
 20
-0.8002777338809323
 30
0.0
 10
68.85567625388461
 20
-0.8421434012501833
 30
0.0
 10
68.85349694378579
 20
-0.8560801997707017
 30
0.0
 10
68.85134618855301
 20
-0.8700209196178718
 30
0.0
 10
68.849225107015
 20
-0.8839657093436983
 30
0.0
  0
LINE
  5
20EDA
330
1F
100
AcDbEntity
  8
1
100
AcDbLine
 10
68.66739899999988
 20
-0.5485539999999958
 30
0.0
 11
68.82141199999989
 21
-0.1282759999999996
 31
0.0
  0
SPLINE
  5
20EDB
330
1F
100
AcDbEntity
  8
1
100
AcDbSpline
210
0.0
220
0.0
230
1.0
 70
     8
 71
     5
 72
    18
 73
    12
 74
     0
 42
0.000000001
 43
0.0000000001
 40
0.0
 40
0.0
 40
0.0
 40
0.0
 40
0.0
 40
0.0
 40
0.5703570948903167
 40
0.5703570948903167
 40
0.5703570948903167
 40
0.8769971585333763
 40
0.8769971585333763
 40
0.8769971585333763
 40
1.063432141863783
 40
1.063432141863783
 40
1.063432141863783
 40
1.063432141863783
 40
1.063432141863783
 40
1.063432141863783
 10
68.41055187839145
 20
0.4491877274946035
 30
0.0
 10
68.49012968394839
 20
0.4080618762780262
 30
0.0
 10
68.56714826023534
 20
0.3619089126003985
 30
0.0
 10
68.64021395735716
 20
0.3103527459723523
 30
0.0
 10
68.74126081515237
 20
0.2217271509864815
 30
0.0
 10
68.80796184985161
 20
0.1171140883327553
 30
0.0
 10
68.82598905556853
 20
0.0784495445085725
 30
0.0
 10
68.8433271860672
 20
0.013754336635003
 30
0.0
 10
68.84095151759334
 20
-0.0527779871191569
 30
0.0
 10
68.83704690612382
 20
-0.0784652068055607
 30
0.0
 10
68.83045064929831
 20
-0.1035135876140032
 30
0.0
 10
68.82141212935914
 20
-0.1282759715271311
 30
0.0
  0
ARC
  5
20EDC
330
1F
100
AcDbEntity
  8
1
100
AcDbCircle
 10
67.01527499999986
 20
-7.621213000000011
 30
0.0
 40
8.488457999999999
100
AcDbArc
 50
77.77235500000038
 51
79.93864300000026
  0
ARC
  5
20EDD
330
1F
100
AcDbEntity
  8
1
100
AcDbCircle
 10
68.64558399999987
 20
-0.1015179999999987
 30
0.0
 40
0.794046
100
AcDbArc
 50
62.37033999999877
 51
77.82138600000156
  0
ARC
  5
20EDE
330
1F
100
AcDbEntity
  8
1
100
AcDbCircle
 10
68.58422499999988
 20
-1.076351999999985
 30
0.0
 40
1.731833
100
AcDbArc
 50
56.57131800000119
 51
75.64241000000027
  0
LINE
  5
20EDF
330
1F
100
AcDbEntity
  8
1
100
AcDbLine
 10
61.89863899999989
 20
-7.858532999999994
 30
0.0
 11
62.04616399999986
 21
-7.858532999999994
 31
0.0
  0
ELLIPSE
  5
20EE0
330
1F
100
AcDbEntity
  8
1
100
AcDbEllipse
 10
63.72144099999991
 20
-3.400473000000005
 30
0.0
 11
-0.0000000000000002
 21
-1.25
 31
0.0
210
0.0
220
0.0
230
1.0
 40
0.9781479999999998
 41
3.14159265358979
 42
6.28318530717958
  0
ELLIPSE
  5
20EE1
330
1F
100
AcDbEntity
  8
1
100
AcDbEllipse
 10
63.72144099999991
 20
-3.400473000000005
 30
0.0
 11
-0.0000000000000002
 21
-1.25
 31
0.0
210
0.0
220
0.0
230
1.0
 40
0.9781479999999998
 41
1.570796326794894
 42
3.14159265358979
  0
ELLIPSE
  5
20EE2
330
1F
100
AcDbEntity
  8
1
100
AcDbEllipse
 10
63.72144099999991
 20
-3.400473000000005
 30
0.0
 11
-0.0000000000000002
 21
-1.25
 31
0.0
210
0.0
220
0.0
230
1.0
 40
0.9781479999999998
 41
6.28318530717958
 42
7.853981633974481
  0
ELLIPSE
  5
20EE3
330
1F
100
AcDbEntity
  8
1
100
AcDbEllipse
 10
63.66442299999988
 20
-3.400473000000005
 30
0.0
 11
-0.0000000000000001
 21
-0.7749999761581421
 31
0.0
210
0.0
220
0.0
230
1.0
 40
0.9781479999999998
 41
1.570796326794894
 42
7.853981633974477
  0
LINE
  5
20EE4
330
1F
100
AcDbEntity
  8
1
100
AcDbLine
 10
63.72144199999991
 20
-2.150473000000005
 30
0.0
 11
63.74810999999988
 21
-2.150473000000005
 31
0.0
  0
LINE
  5
20EE5
330
1F
100
AcDbEntity
  8
1
100
AcDbLine
 10
63.72144199999991
 20
-4.650473000000005
 30
0.0
 11
63.75887399999988
 21
-4.650473000000005
 31
0.0
  0
LINE
  5
20EE6
330
1F
100
AcDbEntity
  8
1
100
AcDbLine
 10
57.56888399999991
 20
5.233227999999996
 30
0.0
 11
57.63998099999986
 21
5.265241000000003
 31
0.0
  0
LINE
  5
20EE7
330
1F
100
AcDbEntity
  8
1
100
AcDbLine
 10
58.35332699999987
 20
6.004665999999986
 30
0.0
 11
57.63998099999986
 21
5.265241000000003
 31
0.0
  0
LINE
  5
20EE8
330
1F
100
AcDbEntity
  8
1
100
AcDbLine
 10
57.68969099999987
 20
7.496258000000011
 30
0.0
 11
57.6022099999999
 21
7.35862800000001
 31
0.0
  0
SPLINE
  5
20EE9
330
1F
100
AcDbEntity
  8
1
100
AcDbSpline
210
0.0
220
0.0
230
1.0
 70
     8
 71
     5
 72
    36
 73
    30
 74
     0
 42
0.000000001
 43
0.0000000001
 40
0.0
 40
0.0
 40
0.0
 40
0.0
 40
0.0
 40
0.0
 40
0.0915261863417369
 40
0.0915261863417369
 40
0.0915261863417369
 40
0.1830523726834739
 40
0.1830523726834739
 40
0.1830523726834739
 40
0.5219530192032567
 40
0.5219530192032567
 40
0.5219530192032567
 40
1.058102055431932
 40
1.058102055431932
 40
1.058102055431932
 40
1.255062527582474
 40
1.255062527582474
 40
1.255062527582474
 40
1.447702212506377
 40
1.447702212506377
 40
1.447702212506377
 40
1.622261268804308
 40
1.622261268804308
 40
1.622261268804308
 40
1.699740270316141
 40
1.699740270316141
 40
1.699740270316141
 40
1.777219271827974
 40
1.777219271827974
 40
1.777219271827974
 40
1.777219271827974
 40
1.777219271827974
 40
1.777219271827974
 10
58.00203173075146
 20
7.381931916632936
 30
0.0
 10
58.00430962045783
 20
7.36927744189353
 30
0.0
 10
58.00677240862921
 20
7.356406333294387
 30
0.0
 10
58.00942491864344
 20
7.343288812634455
 30
0.0
 10
58.01504373597243
 20
7.316848906098414
 30
0.0
 10
58.02129229008039
 20
7.289882842169078
 30
0.0
 10
58.02457516192106
 20
7.276247516263566
 30
0.0
 10
58.04059605500572
 20
7.211981484340753
 30
0.0
 10
58.05936260500584
 20
7.146466332004933
 30
0.0
 10
58.07533575557198
 20
7.095002995564499
 30
0.0
 10
58.1182997909321
 20
6.964498829351526
 30
0.0
 10
58.16464825986805
 20
6.839802243294542
 30
0.0
 10
58.19345112861731
 20
6.766097810425208
 30
0.0
 10
58.23291401330891
 20
6.669053565154769
 30
0.0
 10
58.27179224158391
 20
6.577343681426924
 30
0.0
 10
58.28218181870039
 20
6.553084194717285
 30
0.0
 10
58.30255310452594
 20
6.505941020343072
 30
0.0
 10
58.32246869572987
 20
6.460527225718408
 30
0.0
 10
58.33218825667376
 20
6.438492555441882
 30
0.0
 10
58.35034283498777
 20
6.397499991086533
 30
0.0
 10
58.36755779365716
 20
6.358681219751389
 30
0.0
 10
58.37545611167036
 20
6.340827411867138
 30
0.0
 10
58.38636872523074
 20
6.315990532791204
 30
0.0
 10
58.39611452650871
 20
6.293232202649221
 30
0.0
 10
58.39899420981857
 20
6.286431456732287
 30
0.0
 10
58.40442208974696
 20
6.273416036946912
 30
0.0
 10
58.40910125216044
 20
6.261677526694853
 30
0.0
 10
58.41124206143343
 20
6.256124864082664
 30
0.0
 10
58.41309174662814
 20
6.251086424503853
 30
0.0
 10
58.4146256784586
 20
6.246588778715675
 30
0.0
  0
LINE
  5
20EEA
330
1F
100
AcDbEntity
  8
1
100
AcDbLine
 10
58.00203399999986
 20
7.381974000000013
 30
0.0
 11
57.98146699999989
 21
7.496258000000011
 31
0.0
  0
ELLIPSE
  5
20EEB
330
1F
100
AcDbEntity
  8
1
100
AcDbEllipse
 10
58.17922399999986
 20
6.180217999999996
 30
0.0
 11
0.0
 21
-0.25
 31
0.0
210
0.0
220
0.0
230
1.0
 40
0.9781479999999998
 41
0.7923036273153487
 42
1.803643244691789
  0
LINE
  5
20EEC
330
1F
100
AcDbEntity
  8
1
100
AcDbLine
 10
58.41462599999989
 20
6.246589
 30
0.0
 11
58.41716099999991
 21
6.237905000000012
 31
0.0
  0
ELLIPSE
  5
20EED
330
1F
100
AcDbEntity
  8
1
100
AcDbEllipse
 10
61.96341099999989
 20
-0.393162999999987
 30
0.0
 11
-0.0000000000000015
 21
-8.199992179870605
 31
0.0
210
0.0
220
0.0
230
1.0
 40
0.9781479999999994
 41
3.141553610504934
 42
3.159999837278332
  0
ARC
  5
20EEE
330
1F
100
AcDbEntity
  8
1
100
AcDbCircle
 10
58.35563699999989
 20
7.044466999999997
 30
0.0
 40
0.805047
100
AcDbArc
 50
127.803012999999
 51
145.8462569999984
  0
LINE
  5
20EEF
330
1F
100
AcDbEntity
  8
1
100
AcDbLine
 10
61.8157789999999
 20
7.805440000000004
 30
0.0
 11
58.07089499999989
 21
7.734959000000003
 31
0.0
  0
ARC
  5
20EF0
330
1F
100
AcDbEntity
  8
1
100
AcDbCircle
 10
58.11361299999987
 20
7.154112999999995
 30
0.0
 40
0.5831210000000003
100
AcDbArc
 50
94.2062219999986
 51
115.5352659999983
  0
LINE
  5
20EF1
330
1F
100
AcDbEntity
  8
1
100
AcDbLine
 10
57.63998099999986
 20
5.265241000000003
 30
0.0
 11
58.55744299999987
 21
4.092365999999998
 31
0.0
  0
ELLIPSE
  5
20EF2
330
1F
100
AcDbEntity
  8
1
100
AcDbEllipse
 10
64.40422799999987
 20
8.87255300000001
 30
0.0
 11
-0.0000000000000014
 21
-7.653728485107422
 31
0.0
210
0.0
220
0.0
230
1.0
 40
0.9781479999999998
 41
5.386952696360503
 42
5.665911001161299
  0
ARC
  5
20EF3
330
1F
100
AcDbEntity
  8
1
100
AcDbCircle
 10
58.27685799999989
 20
7.548754000000002
 30
0.0
 40
0.30003
100
AcDbArc
 50
173.7254720000006
 51
190.0772060000001
  0
ARC
  5
20EF4
330
1F
100
AcDbEntity
  8
1
100
AcDbCircle
 10
58.28843099999989
 20
7.572486999999995
 30
0.0
 40
0.309951
100
AcDbArc
 50
159.5493949999997
 51
178.3251090000003
  0
LINE
  5
20EF5
330
1F
100
AcDbEntity
  8
1
100
AcDbLine
 10
57.9980129999999
 20
7.680785000000014
 30
0.0
 11
57.86200499999989
 21
7.680785000000014
 31
0.0
  0
LINE
  5
20EF6
330
1F
100
AcDbEntity
  8
1
100
AcDbLine
 10
62.00960799999984
 20
7.655260999999995
 30
0.0
 11
62.00945799999988
 21
7.455261000000007
 31
0.0
  0
LINE
  5
20EF7
330
1F
100
AcDbEntity
  8
1
100
AcDbLine
 10
62.00960799999984
 20
7.655260999999995
 30
0.0
 11
57.97861599999987
 21
7.581546000000003
 31
0.0
  0
ARC
  5
20EF8
330
1F
100
AcDbEntity
  8
1
100
AcDbCircle
 10
164.1090979999999
 20
7.791954000000004
 30
0.0
 40
102.10039
100
AcDbArc
 50
180.1889429999995
 51
180.8340700000007
  0
LINE
  5
20EF9
330
1F
100
AcDbEntity
  8
1
100
AcDbLine
 10
68.99185599999987
 20
2.598760999999996
 30
0.0
 11
69.09321799999986
 21
2.712517999999988
 31
0.0
  0
LINE
  5
20EFA
330
1F
100
AcDbEntity
  8
1
100
AcDbLine
 10
69.36175899999989
 20
3.071777999999994
 30
0.0
 11
68.91841599999986
 21
2.753170000000011
 31
0.0
  0
LINE
  5
20EFB
330
1F
100
AcDbEntity
  8
1
100
AcDbLine
 10
68.04224799999985
 20
2.518826999999987
 30
0.0
 11
68.07711099999989
 21
2.531500999999991
 31
0.0
  0
LINE
  5
20EFC
330
1F
100
AcDbEntity
  8
1
100
AcDbLine
 10
68.07711099999989
 20
2.531500999999991
 30
0.0
 11
68.19790699999987
 21
2.575482999999991
 31
0.0
  0
LINE
  5
20EFD
330
1F
100
AcDbEntity
  8
1
100
AcDbLine
 10
68.19790699999987
 20
2.575482999999991
 30
0.0
 11
68.70029299999988
 21
2.75833399999999
 31
0.0
  0
SPLINE
  5
20EFE
330
1F
100
AcDbEntity
  8
1
100
AcDbSpline
210
0.0
220
0.0
230
1.0
 70
     8
 71
     5
 72
    21
 73
    15
 74
     0
 42
0.000000001
 43
0.0000000001
 40
0.0
 40
0.0
 40
0.0
 40
0.0
 40
0.0
 40
0.0
 40
0.6860254956412116
 40
0.6860254956412116
 40
0.6860254956412116
 40
1.226018089267771
 40
1.226018089267771
 40
1.226018089267771
 40
1.5512564156197
 40
1.5512564156197
 40
1.5512564156197
 40
1.696125761354442
 40
1.696125761354442
 40
1.696125761354442
 40
1.696125761354442
 40
1.696125761354442
 40
1.696125761354442
 10
68.75224483406299
 20
3.899002823908944
 30
0.0
 10
68.79474270304609
 20
3.813344465003495
 30
0.0
 10
68.83062157495629
 20
3.717641604469207
 30
0.0
 10
68.86160629841476
 20
3.613578646733031
 30
0.0
 10
68.90509601832366
 20
3.425725117367306
 30
0.0
 10
68.9224208562843
 20
3.234632729692691
 30
0.0
 10
68.92388315965376
 20
3.150506004279236
 30
0.0
 10
68.91254210960863
 20
3.019594088363135
 30
0.0
 10
68.86902980817774
 20
2.906131060253187
 30
0.0
 10
68.84725848499897
 20
2.86692184275202
 30
0.0
 10
68.80675087835652
 20
2.818292086934917
 30
0.0
 10
68.75458566387909
 20
2.783006801753856
 30
0.0
 10
68.73726712170349
 20
2.7733750476539
 30
0.0
 10
68.71919196367298
 20
2.765205191619799
 30
0.0
 10
68.70029301822416
 20
2.758333655549051
 30
0.0
  0
ARC
  5
20EFF
330
1F
100
AcDbEntity
  8
1
100
AcDbCircle
 10
62.45659199999988
 20
0.2041289999999947
 30
0.0
 40
7.499839999999997
100
AcDbArc
 50
24.15071499999915
 51
30.39759600000068
  0
ARC
  5
20F00
330
1F
100
AcDbEntity
  8
1
100
AcDbCircle
 10
68.52348099999989
 20
2.924029999999987
 30
0.0
 40
0.8511840000000001
100
AcDbArc
 50
9.995777999999479
 51
24.17505999999939
  0
LINE
  5
20F01
330
1F
100
AcDbEntity
  8
1
100
AcDbLine
 10
62.00960799999984
 20
7.655260999999995
 30
0.0
 11
62.0097209999999
 21
7.805261000000001
 31
0.0
  0
LINE
  5
20F02
330
1F
100
AcDbEntity
  8
1
100
AcDbLine
 10
58.16670099999988
 20
7.734959000000003
 30
0.0
 11
62.0097209999999
 21
7.805261000000001
 31
0.0
  0
ARC
  5
20F03
330
1F
100
AcDbEntity
  8
1
100
AcDbCircle
 10
58.17270599999989
 20
7.426667000000009
 30
0.0
 40
0.308362
100
AcDbArc
 50
91.1158640000009
 51
124.5066290000016
  0
SPLINE
  5
20F04
330
1F
100
AcDbEntity
  8
1
100
AcDbSpline
210
0.0
220
0.0
230
1.0
 70
     8
 71
     5
 72
    33
 73
    27
 74
     0
 42
0.000000001
 43
0.0000000001
 40
0.0
 40
0.0
 40
0.0
 40
0.0
 40
0.0
 40
0.0
 40
2.306507331339318
 40
2.306507331339318
 40
2.306507331339318
 40
5.776432549568848
 40
5.776432549568848
 40
5.776432549568848
 40
6.935016936719396
 40
6.935016936719396
 40
6.935016936719396
 40
8.09385127139962
 40
8.09385127139962
 40
8.09385127139962
 40
10.41629439247415
 40
10.41629439247415
 40
10.41629439247415
 40
10.70383501971301
 40
10.70383501971301
 40
10.70383501971301
 40
10.99137564695186
 40
10.99137564695186
 40
10.99137564695186
 40
11.56643286209315
 40
11.56643286209315
 40
11.56643286209315
 40
11.56643286209315
 40
11.56643286209315
 40
11.56643286209315
 10
68.75221772069017
 20
3.899000734973441
 30
0.0
 10
68.60929134251961
 20
4.186947109908686
 30
0.0
 10
68.4448656884528
 20
4.464654913105306
 30
0.0
 10
68.26070199049593
 20
4.729471332632726
 30
0.0
 10
67.7470826154709
 20
5.353849706205636
 30
0.0
 10
67.14818566210976
 20
5.899301325347011
 30
0.0
 10
66.76518342460707
 20
6.199073196890083
 30
0.0
 10
66.22121738793566
 20
6.557406007600292
 30
0.0
 10
65.64356752920497
 20
6.854864438916592
 30
0.0
 10
65.49691831907887
 20
6.925488664835768
 30
0.0
 10
65.20029478759397
 20
7.058780158852613
 30
0.0
 10
64.8967209663121
 20
7.176313118761129
 30
0.0
 10
64.74310446464215
 20
7.231170443803932
 30
0.0
 10
64.27767841903488
 20
7.383653443595363
 30
0.0
 10
63.8004700818314
 20
7.499270471353923
 30
0.0
 10
63.47756392277972
 20
7.559735393564579
 30
0.0
 10
63.11187185184929
 20
7.608783009392823
 30
0.0
 10
62.7444787155921
 20
7.636530964115422
 30
0.0
 10
62.70398348431593
 20
7.639329480598888
 30
0.0
 10
62.6229714737629
 20
7.644409107257018
 30
0.0
 10
62.54191710519569
 20
7.648457314633333
 30
0.0
 10
62.50147058538385
 20
7.650233509212654
 30
0.0
 10
62.37932185249121
 20
7.654705637492071
 30
0.0
 10
62.25527057038061
 20
7.656757107225217
 30
0.0
 10
62.17190828612615
 20
7.657168462936539
 30
0.0
 10
62.09078385008075
 20
7.656766630922021
 30
0.0
 10
62.00960826860188
 20
7.655261046771215
 30
0.0
  0
ARC
  5
20F05
330
1F
100
AcDbEntity
  8
1
100
AcDbCircle
 10
66.5413759999999
 20
4.901352000000002
 30
0.0
 40
3.361912
100
AcDbArc
 50
319.3952820000008
 51
327.0286449999996
  0
LINE
  5
20F06
330
1F
100
AcDbEntity
  8
1
100
AcDbLine
 10
62.01945399999988
 20
7.805440000000004
 30
0.0
 11
62.17158399999988
 21
7.806828999999993
 31
0.0
  0
SPLINE
  5
20F07
330
1F
100
AcDbEntity
  8
1
100
AcDbSpline
210
0.0
220
0.0
230
1.0
 70
     8
 71
     5
 72
    30
 73
    24
 74
     0
 42
0.000000001
 43
0.0000000001
 40
0.0
 40
0.0
 40
0.0
 40
0.0
 40
0.0
 40
0.0
 40
0.7268581726398661
 40
0.7268581726398661
 40
0.7268581726398661
 40
1.438956055475435
 40
1.438956055475435
 40
1.438956055475435
 40
2.858014717039176
 40
2.858014717039176
 40
2.858014717039176
 40
5.692346659014632
 40
5.692346659014632
 40
5.692346659014632
 40
8.52160553657859
 40
8.52160553657859
 40
8.52160553657859
 40
11.34436792781811
 40
11.34436792781811
 40
11.34436792781811
 40
14.13504597403207
 40
14.13504597403207
 40
14.13504597403207
 40
14.13504597403207
 40
14.13504597403207
 40
14.13504597403207
 10
62.17158436074839
 20
7.806828741612292
 30
0.0
 10
62.25642805633078
 20
7.806820365648718
 30
0.0
 10
62.34181494714608
 20
7.805718650556713
 30
0.0
 10
62.41847079842177
 20
7.803739808399825
 30
0.0
 10
62.58514416742127
 20
7.797416070905029
 30
0.0
 10
62.75165211516508
 20
7.786829084442047
 30
0.0
 10
62.83392009951228
 20
7.780547847724363
 30
0.0
 10
63.07973838143863
 20
7.758635102281289
 30
0.0
 10
63.32420065736863
 20
7.727413201598068
 30
0.0
 10
63.48637846458808
 20
7.7024882645876
 30
0.0
 10
63.96988297577753
 20
7.615482168290071
 30
0.0
 10
64.44561053698163
 20
7.491520878888593
 30
0.0
 10
64.75758452139792
 20
7.392712273454606
 30
0.0
 10
65.36873191625858
 20
7.163682832157917
 30
0.0
 10
65.95170494288805
 20
6.872986014250187
 30
0.0
 10
66.23500286083777
 20
6.712737771670845
 30
0.0
 10
66.78296860170445
 20
6.363546021553219
 30
0.0
 10
67.29028126090316
 20
5.959694944221752
 30
0.0
 10
67.5332060335744
 20
5.744445866650551
 30
0.0
 10
67.99110573486626
 20
5.293446092050174
 30
0.0
 10
68.39891119681158
 20
4.79736595878569
 30
0.0
 10
68.5888439190819
 20
4.539909602165607
 30
0.0
 10
68.76445078851077
 20
4.273625781386556
 30
0.0
 10
68.92547455192005
 20
3.999033321758417
 30
0.0
  0
LINE
  5
20F08
330
1F
100
AcDbEntity
  8
1
100
AcDbLine
 10
62.0097209999999
 20
7.805261000000001
 30
0.0
 11
62.01945399999988
 21
7.805440000000004
 31
0.0
  0
ARC
  5
20F09
330
1F
100
AcDbEntity
  8
1
100
AcDbCircle
 10
63.4230619999999
 20
4.163675000000012
 30
0.0
 40
1.864404999999999
100
AcDbArc
 50
226.0274820000012
 51
255.3416940000002
  0
SPLINE
  5
20F0A
330
1F
100
AcDbEntity
  8
1
100
AcDbSpline
210
0.0
220
0.0
230
1.0
 70
     8
 71
     3
 72
    67
 73
    63
 74
     0
 42
0.000000001
 43
0.0000000001
 40
0.0
 40
0.0
 40
0.0
 40
0.0
 40
0.064803262048037
 40
0.1296599927277969
 40
0.1945736848094689
 40
0.2595432432901392
 40
0.3245657288911916
 40
0.3896423763644446
 40
0.4547713512850998
 40
0.5199516321109803
 40
0.5851798480686328
 40
0.6504557485951621
 40
0.7157767530606508
 40
0.7811406694436487
 40
0.8647647925767635
 40
0.9484493530554759
 40
1.042958834429817
 40
1.108494470152957
 40
1.174055119604106
 40
1.239637407474465
 40
1.305237741861274
 40
1.370852616838116
 40
1.436478261874139
 40
1.502111023061164
 40
1.567747150315768
 40
1.633382873972865
 40
1.69901443338262
 40
1.764638079617219
 40
1.830250170015044
 40
1.895846945041819
 40
1.96142491622873
 40
2.026980508807576
 40
2.092510364791702
 40
2.173081040619918
 40
2.263725661051021
 40
2.354298856486087
 40
2.419653886319298
 40
2.484965472498905
 40
2.550231480898891
 40
2.615449361879844
 40
2.680618957422729
 40
2.745736900472553
 40
2.810802234377674
 40
2.875813175814058
 40
2.940771021951373
 40
3.005672878785007
 40
3.070518943453933
 40
3.135308633502198
 40
3.200042284411531
 40
3.264722938537985
 40
3.329346143871423
 40
3.393917802903056
 40
3.458434528893793
 40
3.522902131701215
 40
3.587318122461117
 40
3.651688362994583
 40
3.716010268405873
 40
3.780290622278286
 40
3.844528884400752
 40
3.908730632254235
 40
3.992059419133331
 40
4.075337758105033
 40
4.075337758105033
 40
4.075337758105033
 40
4.075337758105033
 10
62.12851210166348
 20
2.821841800933754
 30
0.0
 10
62.11294180139566
 20
2.836817272241034
 30
0.0
 10
62.08230346686548
 20
2.867310729087733
 30
0.0
 10
62.03791254558194
 20
2.914615130757937
 30
0.0
 10
61.99512337614965
 20
2.9634458016601
 30
0.0
 10
61.95398533806434
 20
3.013747007963246
 30
0.0
 10
61.91454713000087
 20
3.065459952122694
 30
0.0
 10
61.87685521402625
 20
3.118524380886725
 30
0.0
 10
61.84095361499828
 20
3.172879100432481
 30
0.0
 10
61.80688499555412
 20
3.228460308912303
 30
0.0
 10
61.77468943724552
 20
3.285203365497551
 30
0.0
 10
61.74440501670733
 20
3.343041884348451
 30
0.0
 10
61.71606719591881
 20
3.401909054768509
 30
0.0
 10
61.68726086659791
 20
3.467293821694028
 30
0.0
 10
61.65872418998481
 20
3.539437578767802
 30
0.0
 10
61.63012793370012
 20
3.62191917824677
 30
0.0
 10
61.60703569278843
 20
3.699847214760751
 30
0.0
 10
61.58863401631885
 20
3.772776130919453
 30
0.0
 10
61.57472854387112
 20
3.836856813586905
 30
0.0
 10
61.56297075365523
 20
3.901387639883722
 30
0.0
 10
61.55337442494055
 20
3.96629347556356
 30
0.0
 10
61.54595098215168
 20
4.031498090049069
 30
0.0
 10
61.54070921547855
 20
4.09692508926426
 30
0.0
 10
61.53765534558113
 20
4.162497732457126
 30
0.0
 10
61.53679299324875
 20
4.228139144242106
 30
0.0
 10
61.53812318226113
 20
4.293772341696865
 30
0.0
 10
61.54164433390326
 20
4.359320351041503
 30
0.0
 10
61.54735227292127
 20
4.424706327232172
 30
0.0
 10
61.55524022760506
 20
4.489853584034023
 30
0.0
 10
61.56529885042522
 20
4.5546857775565
 30
0.0
 10
61.57751619526209
 20
4.619126843288086
 30
0.0
 10
61.59187784083878
 20
4.683101467697241
 30
0.0
 10
61.60963053840936
 20
4.751396626024273
 30
0.0
 10
61.63232966445588
 20
4.827000310124134
 30
0.0
 10
61.66107322490581
 20
4.909426582204901
 30
0.0
 10
61.69172745975493
 20
4.985720635907028
 30
0.0
 10
61.72194925098358
 20
5.053004497130274
 30
0.0
 10
61.75070542180794
 20
5.111658030014496
 30
0.0
 10
61.78140072188677
 20
5.169268339608009
 30
0.0
 10
61.81399924744937
 20
5.22576897020167
 30
0.0
 10
61.84846244071633
 20
5.281093806395602
 30
0.0
 10
61.88474976742577
 20
5.335178524986957
 30
0.0
 10
61.92281810260443
 20
5.38795963756948
 30
0.0
 10
61.96262300771116
 20
5.43937630764185
 30
0.0
 10
62.00411754245073
 20
5.489368586000608
 30
0.0
 10
62.04725306720104
 20
5.537878543443724
 30
0.0
 10
62.09197844019223
 20
5.584849384870523
 30
0.0
 10
62.1382412297981
 20
5.63022676706808
 30
0.0
 10
62.18598775932623
 20
5.673958700270645
 30
0.0
 10
62.23516157389457
 20
5.715994036351617
 30
0.0
 10
62.28570575660421
 20
5.756284717149867
 30
0.0
 10
62.33755997155867
 20
5.794783241056762
 30
0.0
 10
62.39066490919168
 20
5.831446136737866
 30
0.0
 10
62.44495738500205
 20
5.866230306436676
 30
0.0
 10
62.50037524000754
 20
5.899096421227142
 30
0.0
 10
62.5568524603944
 20
5.930005808883407
 30
0.0
 10
62.61432434962734
 20
5.958923530973237
 30
0.0
 10
62.67272289237912
 20
5.985815832937532
 30
0.0
 10
62.73198182306924
 20
6.010652508407048
 30
0.0
 10
62.79800436516513
 20
6.035667898897941
 30
0.0
 10
62.87100745766969
 20
6.060042826756415
 30
0.0
 10
62.92443961335056
 20
6.075238592141374
 30
0.0
 10
62.95130972154982
 20
6.082227483106606
 30
0.0
  0
LINE
  5
20F0B
330
1F
100
AcDbEntity
  8
1
100
AcDbLine
 10
61.9637239999999
 20
7.806828999999993
 30
0.0
 11
62.17158399999988
 21
7.806828999999993
 31
0.0
  0
ELLIPSE
  5
20F0C
330
1F
100
AcDbEntity
  8
1
100
AcDbEllipse
 10
63.43268799999987
 20
4.221204
 30
0.0
 11
-0.0000000000000002
 21
-1.299999952316284
 31
0.0
210
0.0
220
0.0
230
1.0
 40
0.978148
 41
4.712388980384688
 42
10.99557428756427
  0
ELLIPSE
  5
20F0D
330
1F
100
AcDbEntity
  8
1
100
AcDbEllipse
 10
63.94042399999989
 20
5.120275999999989
 30
0.0
 11
-0.0000000000000001
 21
-0.4000000059604645
 31
0.0
210
0.0
220
0.0
230
1.0
 40
0.978148
 41
4.652876833491073
 42
6.282917771612226
  0
ELLIPSE
  5
20F0E
330
1F
100
AcDbEntity
  8
1
100
AcDbEllipse
 10
63.94042399999989
 20
5.120275999999989
 30
0.0
 11
-0.0000000000000001
 21
-0.4000000059604645
 31
0.0
210
0.0
220
0.0
230
1.0
 40
0.978148
 41
6.282917771612226
 42
6.866296229671492
  0
ELLIPSE
  5
20F0F
330
1F
100
AcDbEntity
  8
1
100
AcDbEllipse
 10
64.22049099999987
 20
4.686204000000003
 30
0.0
 11
0.0
 21
-0.119999997317791
 31
0.0
210
0.0
220
0.0
230
1.0
 40
0.9781479999999998
 41
0.4640866287046812
 42
3.141714745645288
  0
ELLIPSE
  5
20F10
330
1F
100
AcDbEntity
  8
1
100
AcDbEllipse
 10
64.22049099999987
 20
4.686204000000003
 30
0.0
 11
0.0
 21
-0.119999997317791
 31
0.0
210
0.0
220
0.0
230
1.0
 40
0.9781479999999998
 41
3.141714745645288
 42
3.724703576081703
  0
ELLIPSE
  5
20F11
330
1F
100
AcDbEntity
  8
1
100
AcDbEllipse
 10
64.44816099999991
 20
4.221204
 30
0.0
 11
-0.0000000000000001
 21
-0.4000000059604645
 31
0.0
210
0.0
220
0.0
230
1.0
 40
0.978148
 41
3.605679282294472
 42
5.819098678474897
  0
ELLIPSE
  5
20F12
330
1F
100
AcDbEntity
  8
1
100
AcDbEllipse
 10
64.22049099999987
 20
3.756203999999996
 30
0.0
 11
0.0
 21
-0.119999997317791
 31
0.0
210
0.0
220
0.0
230
1.0
 40
0.9781479999999998
 41
5.700074384687668
 42
6.283063215618851
  0
ELLIPSE
  5
20F13
330
1F
100
AcDbEntity
  8
1
100
AcDbEllipse
 10
64.22049099999987
 20
3.756203999999996
 30
0.0
 11
0.0
 21
-0.119999997317791
 31
0.0
210
0.0
220
0.0
230
1.0
 40
0.9781479999999998
 41
6.283063215618851
 42
8.960691332064692
  0
ELLIPSE
  5
20F14
330
1F
100
AcDbEntity
  8
1
100
AcDbEllipse
 10
63.94042399999989
 20
3.322133000000007
 30
0.0
 11
-0.0000000000000001
 21
-0.4000000059604645
 31
0.0
210
0.0
220
0.0
230
1.0
 40
0.978148
 41
2.55848173109788
 42
3.141860189103646
  0
ELLIPSE
  5
20F15
330
1F
100
AcDbEntity
  8
1
100
AcDbEllipse
 10
63.94042399999989
 20
3.322133000000007
 30
0.0
 11
-0.0000000000000001
 21
-0.4000000059604645
 31
0.0
210
0.0
220
0.0
230
1.0
 40
0.978148
 41
3.141860189103646
 42
4.771901127278298
  0
ELLIPSE
  5
20F16
330
1F
100
AcDbEntity
  8
1
100
AcDbEllipse
 10
63.43268799999987
 20
3.291203999999993
 30
0.0
 11
0.0
 21
-0.119999997317791
 31
0.0
210
0.0
220
0.0
230
1.0
 40
0.9781479999999998
 41
4.652876833491068
 42
6.283185307179584
  0
ELLIPSE
  5
20F17
330
1F
100
AcDbEntity
  8
1
100
AcDbEllipse
 10
63.43268799999987
 20
3.291203999999993
 30
0.0
 11
0.0
 21
-0.119999997317791
 31
0.0
210
0.0
220
0.0
230
1.0
 40
0.9781479999999998
 41
6.283185307179584
 42
7.913493780868092
  0
ELLIPSE
  5
20F18
330
1F
100
AcDbEntity
  8
1
100
AcDbEllipse
 10
62.9249519999999
 20
3.322133000000007
 30
0.0
 11
-0.0000000000000001
 21
-0.4000000059604645
 31
0.0
210
0.0
220
0.0
230
1.0
 40
0.978148
 41
1.511284179901277
 42
3.141325118022432
  0
ELLIPSE
  5
20F19
330
1F
100
AcDbEntity
  8
1
100
AcDbEllipse
 10
62.9249519999999
 20
3.322133000000007
 30
0.0
 11
-0.0000000000000001
 21
-0.4000000059604645
 31
0.0
210
0.0
220
0.0
230
1.0
 40
0.978148
 41
3.141325118022432
 42
3.7247035760817
  0
ELLIPSE
  5
20F1A
330
1F
100
AcDbEntity
  8
1
100
AcDbEllipse
 10
62.64488399999987
 20
3.756203999999996
 30
0.0
 11
0.0
 21
-0.119999997317791
 31
0.0
210
0.0
220
0.0
230
1.0
 40
0.9781479999999998
 41
3.605679282294471
 42
6.283307399235089
  0
ELLIPSE
  5
20F1B
330
1F
100
AcDbEntity
  8
1
100
AcDbEllipse
 10
62.64488399999987
 20
3.756203999999996
 30
0.0
 11
0.0
 21
-0.119999997317791
 31
0.0
210
0.0
220
0.0
230
1.0
 40
0.9781479999999998
 41
0.0001220920555028
 42
0.5831109224919026
  0
ELLIPSE
  5
20F1C
330
1F
100
AcDbEntity
  8
1
100
AcDbEllipse
 10
62.41721499999989
 20
4.221204
 30
0.0
 11
-0.0000000000000001
 21
-0.4000000059604645
 31
0.0
210
0.0
220
0.0
230
1.0
 40
0.978148
 41
0.4640866287046815
 42
2.677506024885106
  0
ELLIPSE
  5
20F1D
330
1F
100
AcDbEntity
  8
1
100
AcDbEllipse
 10
62.64488399999987
 20
4.686204000000003
 30
0.0
 11
0.0
 21
-0.119999997317791
 31
0.0
210
0.0
220
0.0
230
1.0
 40
0.9781479999999998
 41
2.55848173109788
 42
3.141470562029069
  0
ELLIPSE
  5
20F1E
330
1F
100
AcDbEntity
  8
1
100
AcDbEllipse
 10
62.64488399999987
 20
4.686204000000003
 30
0.0
 11
0.0
 21
-0.119999997317791
 31
0.0
210
0.0
220
0.0
230
1.0
 40
0.9781479999999998
 41
3.141470562029069
 42
5.819098678474896
  0
ELLIPSE
  5
20F1F
330
1F
100
AcDbEntity
  8
1
100
AcDbEllipse
 10
62.9249519999999
 20
5.120275999999989
 30
0.0
 11
-0.0000000000000001
 21
-0.4000000059604645
 31
0.0
210
0.0
220
0.0
230
1.0
 40
0.978148
 41
5.70007438468767
 42
6.28345284269344
  0
ELLIPSE
  5
20F20
330
1F
100
AcDbEntity
  8
1
100
AcDbEllipse
 10
62.9249519999999
 20
5.120275999999989
 30
0.0
 11
-0.0000000000000001
 21
-0.4000000059604645
 31
0.0
210
0.0
220
0.0
230
1.0
 40
0.978148
 41
0.0002675355138538
 42
1.630308473688508
  0
ELLIPSE
  5
20F21
330
1F
100
AcDbEntity
  8
1
100
AcDbEllipse
 10
63.43268799999987
 20
5.151205000000004
 30
0.0
 11
0.0
 21
-0.119999997317791
 31
0.0
210
0.0
220
0.0
230
1.0
 40
0.9781479999999998
 41
1.511284179901281
 42
3.14159265358979
  0
ELLIPSE
  5
20F22
330
1F
100
AcDbEntity
  8
1
100
AcDbEllipse
 10
63.43268799999987
 20
5.151205000000004
 30
0.0
 11
0.0
 21
-0.119999997317791
 31
0.0
210
0.0
220
0.0
230
1.0
 40
0.9781479999999998
 41
3.14159265358979
 42
4.7719011272783
  0
ELLIPSE
  5
20F23
330
1F
100
AcDbEntity
  8
1
100
AcDbEllipse
 10
63.40761899999989
 20
4.221204
 30
0.0
 11
-0.0000000000000003
 21
-1.75
 31
0.0
210
0.0
220
0.0
230
1.0
 40
0.9781479999999998
 41
3.14159265358979
 42
6.283185307179584
  0
ELLIPSE
  5
20F24
330
1F
100
AcDbEntity
  8
1
100
AcDbEllipse
 10
63.40761899999989
 20
4.221204
 30
0.0
 11
-0.0000000000000003
 21
-1.75
 31
0.0
210
0.0
220
0.0
230
1.0
 40
0.9781479999999998
 41
6.283185307179584
 42
7.853981633974482
  0
ELLIPSE
  5
20F25
330
1F
100
AcDbEntity
  8
1
100
AcDbEllipse
 10
63.40761899999989
 20
4.221204
 30
0.0
 11
-0.0000000000000003
 21
-1.75
 31
0.0
210
0.0
220
0.0
230
1.0
 40
0.9781479999999998
 41
1.570796326794894
 42
3.14159265358979
  0
ELLIPSE
  5
20F26
330
1F
100
AcDbEntity
  8
1
100
AcDbEllipse
 10
63.30794099999991
 20
4.221204
 30
0.0
 11
-0.0000000000000003
 21
-1.75
 31
0.0
210
0.0
220
0.0
230
1.0
 40
0.9781479999999998
 41
3.141592653589792
 42
6.283185307179584
  0
ELLIPSE
  5
20F27
330
1F
100
AcDbEntity
  8
1
100
AcDbEllipse
 10
63.72211699999991
 20
5.120275999999989
 30
0.0
 11
-0.0000000000000001
 21
-0.4000000059604645
 31
0.0
210
0.0
220
0.0
230
1.0
 40
0.978148
 41
4.652876833491073
 42
6.282917771612226
  0
ELLIPSE
  5
20F28
330
1F
100
AcDbEntity
  8
1
100
AcDbEllipse
 10
63.21438099999989
 20
5.151205000000004
 30
0.0
 11
0.0
 21
-0.119999997317791
 31
0.0
210
0.0
220
0.0
230
1.0
 40
0.9781479999999998
 41
1.511284179901274
 42
1.947393000857444
  0
ELLIPSE
  5
20F29
330
1F
100
AcDbEntity
  8
1
100
AcDbEllipse
 10
62.70664499999987
 20
5.120275999999989
 30
0.0
 11
-0.0000000000000001
 21
-0.4000000059604645
 31
0.0
210
0.0
220
0.0
230
1.0
 40
0.978148
 41
5.866836767095326
 42
6.28345284269344
  0
ELLIPSE
  5
20F2A
330
1F
100
AcDbEntity
  8
1
100
AcDbEllipse
 10
62.70664499999987
 20
3.322133000000007
 30
0.0
 11
-0.0000000000000001
 21
-0.4000000059604645
 31
0.0
210
0.0
220
0.0
230
1.0
 40
0.978148
 41
3.141325118022432
 42
3.557943370931713
  0
ELLIPSE
  5
20F2B
330
1F
100
AcDbEntity
  8
1
100
AcDbEllipse
 10
63.21438099999989
 20
3.291203999999993
 30
0.0
 11
0.0
 21
-0.119999997317791
 31
0.0
210
0.0
220
0.0
230
1.0
 40
0.9781479999999998
 41
1.194192899863157
 42
1.630308473688504
  0
ELLIPSE
  5
20F2C
330
1F
100
AcDbEntity
  8
1
100
AcDbEllipse
 10
63.72211699999991
 20
3.322133000000007
 30
0.0
 11
-0.0000000000000001
 21
-0.4000000059604645
 31
0.0
210
0.0
220
0.0
230
1.0
 40
0.978148
 41
3.141860189103646
 42
4.771901127278298
  0
ELLIPSE
  5
20F2D
330
1F
100
AcDbEntity
  8
1
100
AcDbEllipse
 10
64.00218399999989
 20
3.756203999999996
 30
0.0
 11
0.0
 21
-0.119999997317791
 31
0.0
210
0.0
220
0.0
230
1.0
 40
0.9781479999999998
 41
0.9654966145590767
 42
2.677506024885103
  0
ELLIPSE
  5
20F2E
330
1F
100
AcDbEntity
  8
1
100
AcDbEllipse
 10
64.22985299999988
 20
4.221204
 30
0.0
 11
-0.0000000000000001
 21
-0.4000000059604645
 31
0.0
210
0.0
220
0.0
230
1.0
 40
0.978148
 41
3.605679282294471
 42
5.819098678474901
  0
ELLIPSE
  5
20F2F
330
1F
100
AcDbEntity
  8
1
100
AcDbEllipse
 10
64.00218399999989
 20
4.686204000000003
 30
0.0
 11
0.0
 21
-0.119999997317791
 31
0.0
210
0.0
220
0.0
230
1.0
 40
0.9781479999999998
 41
0.4640866287046841
 42
2.176084353244428
  0
LINE
  5
20F30
330
1F
100
AcDbEntity
  8
1
100
AcDbLine
 10
63.30794099999991
 20
2.471204
 30
0.0
 11
63.40761899999989
 21
2.471204
 31
0.0
  0
LINE
  5
20F31
330
1F
100
AcDbEntity
  8
1
100
AcDbLine
 10
63.30794099999991
 20
5.971204
 30
0.0
 11
63.40761899999989
 21
5.971204
 31
0.0
  0
LINE
  5
20F32
330
1F
100
AcDbEntity
  8
1
100
AcDbLine
 10
63.72201199999989
 20
4.720276000000012
 30
0.0
 11
63.94031999999987
 21
4.720276000000012
 31
0.0
  0
LINE
  5
20F33
330
1F
100
AcDbEntity
  8
1
100
AcDbLine
 10
63.72201199999989
 20
3.722131999999987
 30
0.0
 11
63.94031999999987
 21
3.722131999999987
 31
0.0
  0
LINE
  5
20F34
330
1F
100
AcDbEntity
  8
1
100
AcDbLine
 10
62.70674899999988
 20
3.722131999999987
 30
0.0
 11
62.92505599999987
 21
3.722131999999987
 31
0.0
  0
LINE
  5
20F35
330
1F
100
AcDbEntity
  8
1
100
AcDbLine
 10
62.70674899999988
 20
4.720276000000012
 30
0.0
 11
62.92505599999987
 21
4.720276000000012
 31
0.0
  0
LINE
  5
20F36
330
1F
100
AcDbEntity
  8
SK1
100
AcDbLine
 10
-130.0000000000001
 20
8.875
 30
0.0
 11
-130.0000000000001
 21
-8.875
 31
0.0
  0
LINE
  5
20F37
330
1F
100
AcDbEntity
  8
SK1
100
AcDbLine
 10
-126.0000000000001
 20
10.0
 30
0.0
 11
-126.0000000000001
 21
-10.0
 31
0.0
  0
LINE
  5
20F38
330
1F
100
AcDbEntity
  8
1
100
AcDbLine
 10
9.999999999999886
 20
10.0
 30
0.0
 11
9.999999999999886
 21
-10.0
 31
0.0
  0
ARC
  5
20F39
330
1F
100
AcDbEntity
  8
1
100
AcDbCircle
 10
62.02929099999988
 20
-0.008197999999993
 30
0.0
 40
6.840971999999998
100
AcDbArc
 50
338.2482180000001
 51
347.0561579999998
  0
ARC
  5
20F3A
330
1F
100
AcDbEntity
  8
1
100
AcDbCircle
 10
64.38360099999989
 20
-0.0862979999999993
 30
0.0
 40
4.551387999999998
100
AcDbArc
 50
331.4935760000006
 51
341.3662919999981
  0
SPLINE
  5
20F3B
330
1F
100
AcDbEntity
  8
1
100
AcDbSpline
210
0.0
220
0.0
230
1.0
 70
     8
 71
     5
 72
    15
 73
     9
 74
     0
 42
0.000000001
 43
0.0000000001
 40
0.0
 40
0.0
 40
0.0
 40
0.0
 40
0.0
 40
0.0
 40
1.766546220748128
 40
1.766546220748128
 40
1.766546220748128
 40
2.901546282166962
 40
2.901546282166962
 40
2.901546282166962
 40
2.901546282166962
 40
2.901546282166962
 40
2.901546282166962
 10
63.15405506443949
 20
-5.892428361021472
 30
0.0
 10
62.95370861600651
 20
-5.929219717961927
 30
0.0
 10
62.74960670652825
 20
-5.938287157171743
 30
0.0
 10
62.55100327541765
 20
-5.916347343178756
 30
0.0
 10
62.24309852735735
 20
-5.837436059332247
 30
0.0
 10
61.96863834223575
 20
-5.700143056765341
 30
0.0
 10
61.86619655898709
 20
-5.638340467274019
 30
0.0
 10
61.7696516299954
 20
-5.570282135742331
 30
0.0
 10
61.67804555427062
 20
-5.49635334845513
 30
0.0
  0
SPLINE
  5
20F3C
330
1F
100
AcDbEntity
  8
1
100
AcDbSpline
210
0.0
220
0.0
230
1.0
 70
     8
 71
     5
 72
    24
 73
    18
 74
     0
 42
0.000000001
 43
0.0000000001
 40
0.0
 40
0.0
 40
0.0
 40
0.0
 40
0.0
 40
0.0
 40
1.123211560883865
 40
1.123211560883865
 40
1.123211560883865
 40
3.434600668393116
 40
3.434600668393116
 40
3.434600668393116
 40
7.003083461743096
 40
7.003083461743096
 40
7.003083461743096
 40
9.406303398929251
 40
9.406303398929251
 40
9.406303398929251
 40
11.85016077183521
 40
11.85016077183521
 40
11.85016077183521
 40
11.85016077183521
 40
11.85016077183521
 40
11.85016077183521
 10
68.38316879593816
 20
-2.258466995035064
 30
0.0
 10
68.33174018963865
 20
-2.352977465199415
 30
0.0
 10
68.27725653079136
 20
-2.448138649204935
 30
0.0
 10
68.21945998792307
 20
-2.544097498710101
 30
0.0
 10
68.0338440081905
 20
-2.837335596853165
 30
0.0
 10
67.82127745297367
 20
-3.128198778706064
 30
0.0
 10
67.66481674066216
 20
-3.323055267232632
 30
0.0
 10
67.24224207251672
 20
-3.802445347642276
 30
0.0
 10
66.75391251781332
 20
-4.244066774586315
 30
0.0
 10
66.43710246200481
 20
-4.493222635610692
 30
0.0
 10
65.87544774367706
 20
-4.876434390930882
 30
0.0
 10
65.27176891704795
 20
-5.196845903278358
 30
0.0
 10
65.02252289048334
 20
-5.315315220213449
 30
0.0
 10
64.50993372366912
 20
-5.531989000130522
 30
0.0
 10
63.97852236076238
 20
-5.703654566363553
 30
0.0
 10
63.70605383370014
 20
-5.778642878076738
 30
0.0
 10
63.43124495817085
 20
-5.841525575371235
 30
0.0
 10
63.15405506443801
 20
-5.892428361022666
 30
0.0
  0
SPLINE
  5
20F3D
330
1F
100
AcDbEntity
  8
1
100
AcDbSpline
210
0.0
220
0.0
230
1.0
 70
     8
 71
     5
 72
    24
 73
    18
 74
     0
 42
0.000000001
 43
0.0000000001
 40
0.0
 40
0.0
 40
0.0
 40
0.0
 40
0.0
 40
0.0
 40
2.248280049628792
 40
2.248280049628792
 40
2.248280049628792
 40
3.645453074173818
 40
3.645453074173818
 40
3.645453074173818
 40
6.216242395440771
 40
6.216242395440771
 40
6.216242395440771
 40
9.789965534067148
 40
9.789965534067148
 40
9.789965534067148
 40
12.69748875975184
 40
12.69748875975184
 40
12.69748875975184
 40
12.69748875975184
 40
12.69748875975184
 40
12.69748875975184
 10
68.38316879595436
 20
-2.543367236920886
 30
0.0
 10
68.28451500776401
 20
-2.79056132166599
 30
0.0
 10
68.17048216140517
 20
-3.043469681411693
 30
0.0
 10
68.04017764324328
 20
-3.299411759926982
 30
0.0
 10
67.80234312616716
 20
-3.713889294418919
 30
0.0
 10
67.52387010907177
 20
-4.119066865477407
 30
0.0
 10
67.41134315842152
 20
-4.272288793047778
 30
0.0
 10
67.07608902180362
 20
-4.699750710628507
 30
0.0
 10
66.69830814976609
 20
-5.101610637876802
 30
0.0
 10
66.43718202202467
 20
-5.348341536838944
 30
0.0
 10
65.77873485995707
 20
-5.900535250313595
 30
0.0
 10
65.04667834204099
 20
-6.356195557963019
 30
0.0
 10
64.60028377237057
 20
-6.585058419823127
 30
0.0
 10
63.7614431332247
 20
-6.930841398665364
 30
0.0
 10
62.88348112779306
 20
-7.146914658332917
 30
0.0
 10
62.48407435099443
 20
-7.217066263505529
 30
0.0
 10
62.08148748312289
 20
-7.260103947089788
 30
0.0
 10
61.67804555423288
 20
-7.276003031210109
 30
0.0
  0
ARC
  5
20F3E
330
1F
100
AcDbEntity
  8
1
100
AcDbCircle
 10
59.55025099999989
 20
-7.35592600000001
 30
0.0
 40
0.038432
100
AcDbArc
 50
235.007590000001
 51
268.9085620000005
  0
SPLINE
  5
20F3F
330
1F
100
AcDbEntity
  8
1
100
AcDbSpline
210
0.0
220
0.0
230
1.0
 70
     8
 71
     5
 72
    18
 73
    12
 74
     0
 42
0.000000001
 43
0.0000000001
 40
0.0
 40
0.0
 40
0.0
 40
0.0
 40
0.0
 40
0.0
 40
0.6625062711924024
 40
0.6625062711924024
 40
0.6625062711924024
 40
2.527036516212501
 40
2.527036516212501
 40
2.527036516212501
 40
3.73149877327989
 40
3.73149877327989
 40
3.73149877327989
 40
3.73149877327989
 40
3.73149877327989
 40
3.73149877327989
 10
59.52833088639414
 20
-7.38724061981216
 30
0.0
 10
59.52444774274425
 20
-7.381753544698398
 30
0.0
 10
59.53442121976355
 20
-7.374745910883945
 30
0.0
 10
59.55833432967574
 20
-7.36641501998784
 30
0.0
 10
59.69057391397433
 20
-7.332342017473166
 30
0.0
 10
59.94615211696919
 20
-7.29596027177709
 30
0.0
 10
60.15255245341996
 20
-7.277661919249624
 30
0.0
 10
60.50424735249356
 20
-7.260904855285701
 30
0.0
 10
60.85992067297292
 20
-7.266197863249459
 30
0.0
 10
60.9980085249187
 20
-7.271638123228285
 30
0.0
 10
61.13312685256881
 20
-7.2803371879628
 30
0.0
 10
61.26055049245997
 20
-7.291897375403436
 30
0.0
  0
ARC
  5
20F40
330
1F
100
AcDbEntity
  8
1
100
AcDbCircle
 10
67.11972199999991
 20
-6.99572599999999
 30
0.0
 40
7.871382999999998
100
AcDbArc
 50
77.43794599999839
 51
79.84871899999849
  0
ARC
  5
20F41
330
1F
100
AcDbEntity
  8
1
100
AcDbCircle
 10
67.40573299999988
 20
-7.788904999999999
 30
0.0
 40
8.646557000000001
100
AcDbArc
 50
78.96667700000023
 51
82.5468040000006
  0
ARC
  5
20F42
330
1F
100
AcDbEntity
  8
1
100
AcDbCircle
 10
68.78566799999987
 20
0.6880020000000116
 30
0.0
 40
0.256755
100
AcDbArc
 50
78.57646399999857
 51
121.6653719999985
  0
LINE
  5
20F43
330
1F
100
AcDbEntity
  8
1
100
AcDbLine
 10
68.83651499999991
 20
0.939641999999992
 30
0.0
 11
68.85735599999986
 21
0.934629000000001
 31
0.0
  0
SPLINE
  5
20F44
330
1F
100
AcDbEntity
  8
1
100
AcDbSpline
210
0.0
220
0.0
230
1.0
 70
     8
 71
     5
 72
    15
 73
     9
 74
     0
 42
0.000000001
 43
0.0000000001
 40
0.0
 40
0.0
 40
0.0
 40
0.0
 40
0.0
 40
0.0
 40
0.637369717506589
 40
0.637369717506589
 40
0.637369717506589
 40
0.9134037110478832
 40
0.9134037110478832
 40
0.9134037110478832
 40
0.9134037110478832
 40
0.9134037110478832
 40
0.9134037110478832
 10
68.85735665382395
 20
0.9346290016493696
 30
0.0
 10
68.89134850116613
 20
0.9241277670591614
 30
0.0
 10
68.92659395497457
 20
0.9030460975253902
 30
0.0
 10
68.95972917084492
 20
0.8705340801807892
 30
0.0
 10
69.00161692209128
 20
0.8144178934801971
 30
0.0
 10
69.03480044532876
 20
0.7534960317229605
 30
0.0
 10
69.04405523702433
 20
0.7349104898992494
 30
0.0
 10
69.05259735840195
 20
0.7163404353859733
 30
0.0
 10
69.06051065046927
 20
0.6978307300676079
 30
0.0
  0
ARC
  5
20F45
330
1F
100
AcDbEntity
  8
1
100
AcDbCircle
 10
68.83727499999986
 20
0.6002100000000042
 30
0.0
 40
0.358761
100
AcDbArc
 50
121.3199009999993
 51
139.3110060000016
  0
LINE
  5
20F46
330
1F
100
AcDbEntity
  8
1
100
AcDbLine
 10
68.5464629999999
 20
0.8114359999999862
 30
0.0
 11
68.56518799999986
 21
0.8341499999999939
 31
0.0
  0
LINE
  5
20F47
330
1F
100
AcDbEntity
  8
1
100
AcDbLine
 10
68.52794999999986
 20
0.7858170000000087
 30
0.0
 11
68.5464629999999
 21
0.8114359999999862
 31
0.0
  0
LINE
  5
20F48
330
1F
100
AcDbEntity
  8
1
100
AcDbLine
 10
68.52256399999987
 20
0.7776949999999943
 30
0.0
 11
68.52794999999986
 21
0.7858170000000087
 31
0.0
  0
SPLINE
  5
20F49
330
1F
100
AcDbEntity
  8
1
100
AcDbSpline
210
0.0
220
0.0
230
1.0
 70
     8
 71
     5
 72
    18
 73
    12
 74
     0
 42
0.000000001
 43
0.0000000001
 40
0.0
 40
0.0
 40
0.0
 40
0.0
 40
0.0
 40
0.0
 40
0.8161819707817294
 40
0.8161819707817294
 40
0.8161819707817294
 40
2.238430358654418
 40
2.238430358654418
 40
2.238430358654418
 40
2.815875238238609
 40
2.815875238238609
 40
2.815875238238609
 40
2.815875238238609
 40
2.815875238238609
 40
2.815875238238609
 10
68.52256383879688
 20
0.7776952613266986
 30
0.0
 10
68.49832001633394
 20
0.7405053809772824
 30
0.0
 10
68.47691626458038
 20
0.6993775030852874
 30
0.0
 10
68.45674397565801
 20
0.6518404874588555
 30
0.0
 10
68.40937450042691
 20
0.5034955045571792
 30
0.0
 10
68.39111159175445
 20
0.3132921442304735
 30
0.0
 10
68.39818704113674
 20
0.1841751639599351
 30
0.0
 10
68.42847975282348
 20
0.0110350194211151
 30
0.0
 10
68.48646966632776
 20
-0.1467096211318051
 30
0.0
 10
68.50548239632257
 20
-0.1906860675295547
 30
0.0
 10
68.5265885790879
 20
-0.2325199945839813
 30
0.0
 10
68.54974272432679
 20
-0.2719101693062953
 30
0.0
  0
ARC
  5
20F4A
330
1F
100
AcDbEntity
  8
1
100
AcDbCircle
 10
59.65411799999987
 20
-6.369519999999994
 30
0.0
 40
1.030595999999997
100
AcDbArc
 50
264.1733950000012
 51
271.5100510000003
  0
LINE
  5
20F4B
330
1F
100
AcDbEntity
  8
1
100
AcDbLine
 10
59.68128299999989
 20
-7.400000000000005
 30
0.0
 11
59.98429999999991
 21
-7.395379999999988
 31
0.0
  0
ARC
  5
20F4C
330
1F
100
AcDbEntity
  8
1
100
AcDbCircle
 10
60.71862599999986
 20
-0.0012169999999969
 30
0.0
 40
8.124966
100
AcDbArc
 50
349.0788910000002
 51
353.6903010000007
  0
LINE
  5
20F4D
330
1F
100
AcDbEntity
  8
1
100
AcDbLine
 10
61.67804599999988
 20
-7.276003000000002
 30
0.0
 11
61.26055099999991
 21
-7.291897000000005
 31
0.0
  0
LINE
  5
20F4E
330
1F
100
AcDbEntity
  8
1
100
AcDbLine
 10
69.08398799999986
 20
0.6317559999999958
 30
0.0
 11
68.8317229999999
 21
0.6872239999999863
 31
0.0
  0
LINE
  5
20F4F
330
1F
100
AcDbEntity
  8
1
100
AcDbLine
 10
69.06051099999991
 20
0.6978310000000079
 30
0.0
 11
69.08398799999986
 21
0.6317559999999958
 31
0.0
  0
ARC
  5
20F50
330
1F
100
AcDbEntity
  8
1
100
AcDbCircle
 10
62.4686759999999
 20
-3.022348999999991
 30
0.0
 40
6.674125
100
AcDbArc
 50
18.59467100000116
 51
24.33702400000127
  0
LINE
  5
20F51
330
1F
100
AcDbEntity
  8
1
100
AcDbLine
 10
64.73483999999991
 20
-4.156333999999986
 30
0.0
 11
64.77688599999988
 21
-4.092764999999985
 31
0.0
  0
ELLIPSE
  5
20F52
330
1F
100
AcDbEntity
  8
1
100
AcDbEllipse
 10
63.75885199999988
 20
-3.400462000000004
 30
0.0
 11
0.0000000000000054
 21
1.25
 31
0.0
210
0.0
220
0.0
230
1.0
 40
0.9781479999999998
 41
4.125416836459446
 42
4.704899697986726
  0
SPLINE
  5
20F53
330
1F
100
AcDbEntity
  8
1
100
AcDbSpline
210
0.0
220
0.0
230
1.0
 70
     8
 71
     5
 72
    15
 73
     9
 74
     0
 42
0.000000001
 43
0.0000000001
 40
0.0
 40
0.0
 40
0.0
 40
0.0
 40
0.0
 40
0.0
 40
1.257876185587014
 40
1.257876185587014
 40
1.257876185587014
 40
1.397288929984934
 40
1.397288929984934
 40
1.397288929984934
 40
1.397288929984934
 40
1.397288929984934
 40
1.397288929984934
 10
64.7285393121104
 20
-2.657972253088843
 30
0.0
 10
64.81314486759936
 20
-2.775117447577144
 30
0.0
 10
64.88323657027087
 20
-2.904340670544172
 30
0.0
 10
64.93641519837194
 20
-3.041632182377441
 30
0.0
 10
64.97317907469761
 20
-3.200336139513069
 30
0.0
 10
64.98095419516028
 20
-3.361521044035441
 30
0.0
 10
64.98143652556388
 20
-3.377626393701916
 30
0.0
 10
64.98162055724811
 20
-3.393725970632061
 30
0.0
 10
64.98150263043527
 20
-3.409823522777259
 30
0.0
  0
ELLIPSE
  5
20F54
330
1F
100
AcDbEntity
  8
1
100
AcDbEllipse
 10
63.74492499999991
 20
-3.400462000000004
 30
0.0
 11
0.0000000000000054
 21
1.25
 31
0.0
210
0.0
220
0.0
230
1.0
 40
0.9781479999999998
 41
5.348400806780008
 42
6.287344523359682
  0
ARC
  5
20F55
330
1F
100
AcDbEntity
  8
1
100
AcDbCircle
 10
63.82936799999987
 20
-3.505105000000014
 30
0.0
 40
1.115430999999998
100
AcDbArc
 50
302.9159869999986
 51
324.2757209999994
  0
ELLIPSE
  5
20F56
330
1F
100
AcDbEntity
  8
1
100
AcDbEllipse
 10
63.75885199999988
 20
-3.400462000000004
 30
0.0
 11
0.0000000000000054
 21
1.25
 31
0.0
210
0.0
220
0.0
230
1.0
 40
0.9781479999999998
 41
3.141726762559813
 42
3.728103655788818
  0
SPLINE
  5
20F57
330
1F
100
AcDbEntity
  8
1
100
AcDbSpline
210
0.0
220
0.0
230
1.0
 70
     8
 71
     5
 72
    15
 73
     9
 74
     0
 42
0.000000001
 43
0.0000000001
 40
0.0
 40
0.0
 40
0.0
 40
0.0
 40
0.0
 40
0.0
 40
0.682204790924609
 40
0.682204790924609
 40
0.682204790924609
 40
1.673120845282983
 40
1.673120845282983
 40
1.673120845282983
 40
1.673120845282983
 40
1.673120845282983
 40
1.673120845282983
 10
65.1472837361776
 20
-3.639364712625024
 30
0.0
 10
65.19296311538671
 20
-3.577536441118894
 30
0.0
 10
65.22397663704225
 20
-3.50693339148853
 30
0.0
 10
65.24058299987007
 20
-3.433712309366711
 30
0.0
 10
65.25522201998438
 20
-3.257885570037643
 30
0.0
 10
65.21622537521409
 20
-3.08986947466073
 30
0.0
 10
65.17965445241429
 20
-2.995851391489395
 30
0.0
 10
65.13135842432013
 20
-2.907271982862056
 30
0.0
 10
65.0723969133088
 20
-2.825633651896794
 30
0.0
  0
ARC
  5
20F58
330
1F
100
AcDbEntity
  8
1
100
AcDbCircle
 10
64.2621269999999
 20
-3.410831000000001
 30
0.0
 40
0.9994959999999998
100
AcDbArc
 50
35.83777399999775
 51
42.69658300000112
  0
ARC
  5
20F59
330
1F
100
AcDbEntity
  8
1
100
AcDbCircle
 10
60.3139349999999
 20
-0.0688639999999907
 30
0.0
 40
6.009135999999998
100
AcDbArc
 50
317.961511000001
 51
323.5459039999988
  0
ARC
  5
20F5A
330
1F
100
AcDbEntity
  8
1
100
AcDbCircle
 10
60.37140899999986
 20
-0.1265649999999994
 30
0.0
 40
5.927591999999997
100
AcDbArc
 50
304.3257839999984
 51
313.2850979999988
  0
SPLINE
  5
20F5B
330
1F
100
AcDbEntity
  8
1
100
AcDbSpline
210
0.0
220
0.0
230
1.0
 70
     8
 71
     5
 72
    15
 73
     9
 74
     0
 42
0.000000001
 43
0.0000000001
 40
0.0
 40
0.0
 40
0.0
 40
0.0
 40
0.0
 40
0.0
 40
0.3160131166450901
 40
0.3160131166450901
 40
0.3160131166450901
 40
1.03975513145392
 40
1.03975513145392
 40
1.03975513145392
 40
1.03975513145392
 40
1.03975513145392
 40
1.03975513145392
 10
63.71396092149399
 20
-5.021829972534987
 30
0.0
 10
63.68421839296201
 20
-5.04213220105359
 30
0.0
 10
63.65193132632481
 20
-5.059393123765147
 30
0.0
 10
63.61729702923873
 20
-5.073445702904052
 30
0.0
 10
63.50188045367497
 20
-5.107950754194661
 30
0.0
 10
63.38129729962452
 20
-5.108840292907444
 30
0.0
 10
63.30062212672368
 20
-5.095926149532886
 30
0.0
 10
63.22488159594036
 20
-5.073414961665775
 30
0.0
 10
63.15405506443659
 20
-5.042745577600015
 30
0.0
  0
ARC
  5
20F5C
330
1F
100
AcDbEntity
  8
1
100
AcDbCircle
 10
63.4887369999999
 20
-4.268977000000006
 30
0.0
 40
0.843032
100
AcDbArc
 50
223.5767509999994
 51
246.6098019999996
  0
SPLINE
  5
20F5D
330
1F
100
AcDbEntity
  8
1
100
AcDbSpline
210
0.0
220
0.0
230
1.0
 70
     8
 71
     5
 72
    21
 73
    15
 74
     0
 42
0.000000001
 43
0.0000000001
 40
0.0
 40
0.0
 40
0.0
 40
0.0
 40
0.0
 40
0.0
 40
1.73264681830224
 40
1.73264681830224
 40
1.73264681830224
 40
3.456869849327821
 40
3.456869849327821
 40
3.456869849327821
 40
5.131923347592271
 40
5.131923347592271
 40
5.131923347592271
 40
5.639861220135497
 40
5.639861220135497
 40
5.639861220135497
 40
5.639861220135497
 40
5.639861220135497
 40
5.639861220135497
 10
63.15405506443949
 20
-1.923395444782386
 30
0.0
 10
62.95808086739407
 20
-1.956285492115256
 30
0.0
 10
62.76650247071376
 20
-2.018875160650623
 30
0.0
 10
62.58538750550105
 20
-2.111859077231031
 30
0.0
 10
62.26333061000002
 20
-2.355927189514972
 30
0.0
 10
62.04878364218024
 20
-2.692275334028295
 30
0.0
 10
61.97657693859634
 20
-2.875929911610541
 30
0.0
 10
61.90613336616724
 20
-3.249360698356753
 30
0.0
 10
61.96351623590323
 20
-3.61248806096151
 30
0.0
 10
62.01952533878125
 20
-3.782444869152698
 30
0.0
 10
62.12104194945277
 20
-3.987968886322107
 30
0.0
 10
62.25432727619585
 20
-4.17113869595326
 30
0.0
 10
62.28700719347102
 20
-4.212564026020913
 30
0.0
 10
62.32118257129968
 20
-4.252657047863095
 30
0.0
 10
62.35682662691153
 20
-4.291449712340039
 30
0.0
  0
ARC
  5
20F5E
330
1F
100
AcDbEntity
  8
1
100
AcDbCircle
 10
63.43040699999988
 20
-3.578627000000011
 30
0.0
 40
1.678154
100
AcDbArc
 50
89.95222800000155
 51
99.4784740000016
  0
ARC
  5
20F5F
330
1F
100
AcDbEntity
  8
1
100
AcDbCircle
 10
63.41534399999989
 20
-3.758601999999996
 30
0.0
 40
1.858933
100
AcDbArc
 50
42.21330799999783
 51
89.49241199999988
  0
LINE
  5
20F60
330
1F
100
AcDbEntity
  8
1
100
AcDbLine
 10
64.7922969999999
 20
-2.509474000000011
 30
0.0
 11
64.99671199999989
 21
-2.733057000000002
 31
0.0
  0
ARC
  5
20F61
330
1F
100
AcDbEntity
  8
1
100
AcDbCircle
 10
98.3473019999999
 20
28.76275999999999
 30
0.0
 40
48.866084
100
AcDbArc
 50
222.5648470000004
 51
223.460665000001
  0
ARC
  5
20F62
330
1F
100
AcDbEntity
  8
1
100
AcDbCircle
 10
58.1574789999999
 20
15.262147
 30
0.0
 40
7.918883
100
AcDbArc
 50
263.1957530000003
 51
265.9974350000009
  0
ARC
  5
20F63
330
1F
100
AcDbEntity
  8
1
100
AcDbCircle
 10
58.08461099999988
 20
14.52204800000001
 30
0.0
 40
7.175474
100
AcDbArc
 50
263.1572379999997
 51
266.0517939999988
  0
ELLIPSE
  5
20F64
330
1F
100
AcDbEntity
  8
1
100
AcDbEllipse
 10
59.50502799999987
 20
0.0110889999999984
 30
0.0
 11
2.167681932449339
 21
-7.37662839889526
 31
0.0
210
0.0
220
0.0
230
1.0
 40
0.196453
 41
2.740885184680424
 42
2.984618403114076
  0
ARC
  5
20F65
330
1F
100
AcDbEntity
  8
1
100
AcDbCircle
 10
70.9714459999999
 20
-202.349754
 30
0.0
 40
209.716172
100
AcDbArc
 50
93.52579700000129
 51
94.52276899999928
  0
SPLINE
  5
20F66
330
1F
100
AcDbEntity
  8
1
100
AcDbSpline
210
0.0
220
0.0
230
1.0
 70
     8
 71
     5
 72
    18
 73
    12
 74
     0
 42
0.000000001
 43
0.0000000001
 40
0.0
 40
0.0
 40
0.0
 40
0.0
 40
0.0
 40
0.0
 40
1.018696342499251
 40
1.018696342499251
 40
1.018696342499251
 40
1.583388299857363
 40
1.583388299857363
 40
1.583388299857363
 40
1.934452507909452
 40
1.934452507909452
 40
1.934452507909452
 40
1.934452507909452
 40
1.934452507909452
 40
1.934452507909452
 10
54.43422510247632
 20
6.713357280020233
 30
0.0
 10
54.31808123228359
 20
6.704155940528039
 30
0.0
 10
54.20433957063682
 20
6.68706393479735
 30
0.0
 10
54.09382515869452
 20
6.660610629165518
 30
0.0
 10
53.94472250781518
 20
6.601014811253463
 30
0.0
 10
53.85383266665508
 20
6.513600810671249
 30
0.0
 10
53.83084446004045
 20
6.479216299427065
 30
0.0
 10
53.81079695499181
 20
6.419571831766887
 30
0.0
 10
53.81721875145541
 20
6.357278123965841
 30
0.0
 10
53.82349487012731
 20
6.333092451814053
 30
0.0
 10
53.83313159254413
 20
6.309259627119359
 30
0.0
 10
53.84581991444225
 20
6.285751660565523
 30
0.0
  0
ARC
  5
20F67
330
1F
100
AcDbEntity
  8
1
100
AcDbCircle
 10
54.25132699999989
 20
6.518898000000007
 30
0.0
 40
0.467945
100
AcDbArc
 50
209.8967190000002
 51
229.4040390000006
  0
SPLINE
  5
20F68
330
1F
100
AcDbEntity
  8
1
100
AcDbSpline
210
0.0
220
0.0
230
1.0
 70
     8
 71
     5
 72
    15
 73
     9
 74
     0
 42
0.000000001
 43
0.0000000001
 40
0.0
 40
0.0
 40
0.0
 40
0.0
 40
0.0
 40
0.0
 40
6.997131843329027
 40
6.997131843329027
 40
6.997131843329027
 40
11.95061921308865
 40
11.95061921308865
 40
11.95061921308865
 40
11.95061921308865
 40
11.95061921308865
 40
11.95061921308865
 10
53.9466964088582
 20
6.16342810383827
 30
0.0
 10
54.41936244216737
 20
5.739671103110254
 30
0.0
 10
54.9374244256619
 20
5.261452202197858
 30
0.0
 10
55.50561264082791
 20
4.769888956550744
 30
0.0
 10
56.58527716855292
 20
3.967569364556084
 30
0.0
 10
57.81967848555098
 20
3.324393451659403
 30
0.0
 10
58.35543553789057
 20
3.095795287649735
 30
0.0
 10
58.9104445342167
 20
2.912786490774379
 30
0.0
 10
59.47826561451887
 20
2.780219458322335
 30
0.0
  0
LINE
  5
20F69
330
1F
100
AcDbEntity
  8
1
100
AcDbLine
 10
59.47826599999991
 20
2.780218999999988
 30
0.0
 11
59.58569399999987
 21
2.755133
 31
0.0
  0
SPLINE
  5
20F6A
330
1F
100
AcDbEntity
  8
1
100
AcDbSpline
210
0.0
220
0.0
230
1.0
 70
     8
 71
     5
 72
    21
 73
    15
 74
     0
 42
0.000000001
 43
0.0000000001
 40
0.0
 40
0.0
 40
0.0
 40
0.0
 40
0.0
 40
0.0
 40
6.440581397758532
 40
6.440581397758532
 40
6.440581397758532
 40
11.4585061693434
 40
11.4585061693434
 40
11.4585061693434
 40
14.84427205993587
 40
14.84427205993587
 40
14.84427205993587
 40
16.52158830012059
 40
16.52158830012059
 40
16.52158830012059
 40
16.52158830012059
 40
16.52158830012059
 40
16.52158830012059
 10
61.67804555427062
 20
-5.49635334845513
 30
0.0
 10
61.17802170116767
 20
-5.092819447651237
 30
0.0
 10
60.71075231571547
 20
-4.627961408386909
 30
0.0
 10
60.28512863147921
 20
-4.097442000535494
 30
0.0
 10
59.63294307054662
 20
-3.036196732164938
 30
0.0
 10
59.21928699190653
 20
-1.802867270944346
 30
0.0
 10
59.09163149355975
 20
-1.235148173171751
 30
0.0
 10
58.97987242319681
 20
-0.2580239611216086
 30
0.0
 10
59.03945370179809
 20
0.7212651368961929
 30
0.0
 10
59.09133212180234
 20
1.111751568417389
 30
0.0
 10
59.2086423135467
 20
1.683657160631128
 30
0.0
 10
59.38087955950897
 20
2.230815676077952
 30
0.0
 10
59.44380741177912
 20
2.409219307911257
 30
0.0
 10
59.51214327678281
 20
2.583976675361753
 30
0.0
 10
59.58569400197678
 20
2.755132898020065
 30
0.0
  0
LINE
  5
20F6B
330
1F
100
AcDbEntity
  8
1
100
AcDbLine
 10
59.58569399999987
 20
2.755133
 30
0.0
 11
63.15405499999991
 21
1.842729999999988
 31
0.0
  0
LINE
  5
20F6C
330
1F
100
AcDbEntity
  8
1
100
AcDbLine
 10
63.8283669999999
 20
1.666395999999991
 30
0.0
 11
63.15405499999991
 21
1.842729999999988
 31
0.0
  0
ARC
  5
20F6D
330
1F
100
AcDbEntity
  8
1
100
AcDbCircle
 10
65.84803799999986
 20
7.098515999999989
 30
0.0
 40
5.651432999999999
100
AcDbArc
 50
291.1684149999994
 51
297.634829999999
  0
SPLINE
  5
20F6E
330
1F
100
AcDbEntity
  8
1
100
AcDbSpline
210
0.0
220
0.0
230
1.0
 70
     8
 71
     5
 72
    15
 73
     9
 74
     0
 42
0.000000001
 43
0.0000000001
 40
0.0
 40
0.0
 40
0.0
 40
0.0
 40
0.0
 40
0.0
 40
4.668569241752345
 40
4.668569241752345
 40
4.668569241752345
 40
8.019632534013405
 40
8.019632534013405
 40
8.019632534013405
 40
8.019632534013405
 40
8.019632534013405
 40
8.019632534013405
 10
67.88883575378389
 20
1.828409934621902
 30
0.0
 10
67.53552449912518
 20
1.691395131981209
 30
0.0
 10
67.13082311326792
 20
1.567764971728848
 30
0.0
 10
66.68089239738424
 20
1.47400120458613
 30
0.0
 10
65.85126827402922
 20
1.387093787325198
 30
0.0
 10
64.9615788581412
 20
1.441415294392726
 30
0.0
 10
64.58393299543974
 20
1.490592727667404
 30
0.0
 10
64.20492404331435
 20
1.566113154973436
 30
0.0
 10
63.82836692328749
 20
1.666395561012649
 30
0.0
  0
ARC
  5
20F6F
330
1F
100
AcDbEntity
  8
1
100
AcDbCircle
 10
64.27750099999986
 20
0.0434970000000021
 30
0.0
 40
4.665639999999998
100
AcDbArc
 50
11.01082300000036
 51
26.04195699999891
  0
ARC
  5
20F70
330
1F
100
AcDbEntity
  8
1
100
AcDbCircle
 10
67.03159799999986
 20
4.908413999999993
 30
0.0
 40
3.161741
100
AcDbArc
 50
297.042406
 51
308.3137390000016
  0
SPLINE
  5
20F71
330
1F
100
AcDbEntity
  8
1
100
AcDbSpline
210
0.0
220
0.0
230
1.0
 70
     8
 71
     5
 72
    15
 73
     9
 74
     0
 42
0.000000001
 43
0.0000000001
 40
0.0
 40
0.0
 40
0.0
 40
0.0
 40
0.0
 40
0.0
 40
1.962575509920475
 40
1.962575509920475
 40
1.962575509920475
 40
2.039307364051647
 40
2.039307364051647
 40
2.039307364051647
 40
2.039307364051647
 40
2.039307364051647
 40
2.039307364051647
 10
68.99118639145223
 20
2.428367946082261
 30
0.0
 10
69.00664370080727
 20
2.441844350249056
 30
0.0
 10
69.00656737751444
 20
2.481182490500316
 30
0.0
 10
68.9957258625862
 20
2.538366489727309
 30
0.0
 10
68.97035035799234
 20
2.625374586311806
 30
0.0
 10
68.91738935849213
 20
2.758927252454157
 30
0.0
 10
68.91535670528674
 20
2.764019603019221
 30
0.0
 10
68.91328385663661
 20
2.769179015778945
 30
0.0
 10
68.91116996300849
 20
2.774406753869982
 30
0.0
  0
ARC
  5
20F72
330
1F
100
AcDbEntity
  8
1
100
AcDbCircle
 10
68.86235399999987
 20
2.721919000000013
 30
0.0
 40
0.07168
100
AcDbArc
 50
23.28960399999995
 51
47.07577300000054
  0
ARC
  5
20F73
330
1F
100
AcDbEntity
  8
1
100
AcDbCircle
 10
64.43179499999991
 20
8.530006000000014
 30
0.0
 40
7.290113
100
AcDbArc
 50
283.3171100000013
 51
306.3176730000016
  0
ARC
  5
20F74
330
1F
100
AcDbEntity
  8
1
100
AcDbCircle
 10
58.23456099999987
 20
3.832566000000014
 30
0.0
 40
0.462887
100
AcDbArc
 50
284.369865000001
 51
294.6936109999988
  0
LINE
  5
20F75
330
1F
100
AcDbEntity
  8
1
100
AcDbLine
 10
58.60190399999988
 20
3.493118000000009
 30
0.0
 11
58.42793199999988
 21
3.412023000000004
 31
0.0
  0
LINE
  5
20F76
330
1F
100
AcDbEntity
  8
1
100
AcDbLine
 10
58.62516799999986
 20
3.43498199999999
 30
0.0
 11
58.60190399999988
 21
3.493118000000009
 31
0.0
  0
ARC
  5
20F77
330
1F
100
AcDbEntity
  8
1
100
AcDbCircle
 10
60.15814599999988
 20
4.102712999999994
 30
0.0
 40
1.672576999999999
100
AcDbArc
 50
203.5368380000001
 51
225.3552639999985
  0
LINE
  5
20F78
330
1F
100
AcDbEntity
  8
1
100
AcDbLine
 10
57.1500529999999
 20
4.604309999999998
 30
0.0
 11
58.14667899999989
 21
3.580632000000008
 31
0.0
  0
LINE
  5
20F79
330
1F
100
AcDbEntity
  8
1
100
AcDbLine
 10
58.14667899999989
 20
3.580632000000008
 30
0.0
 11
58.31382899999988
 21
3.410558000000008
 31
0.0
  0
ARC
  5
20F7A
330
1F
100
AcDbEntity
  8
1
100
AcDbCircle
 10
57.26045499999987
 20
4.708026999999987
 30
0.0
 40
0.151797
100
AcDbArc
 50
134.5189439999991
 51
223.2117870000015
  0
LINE
  5
20F7B
330
1F
100
AcDbEntity
  8
1
100
AcDbLine
 10
58.31703799999991
 20
5.984550000000012
 30
0.0
 11
57.15385099999986
 21
4.816437000000007
 31
0.0
  0
LINE
  5
20F7C
330
1F
100
AcDbEntity
  8
1
100
AcDbLine
 10
58.07433299999991
 20
6.969490000000007
 30
0.0
 11
58.31703799999991
 21
5.984550000000012
 31
0.0
  0
LINE
  5
20F7D
330
1F
100
AcDbEntity
  8
1
100
AcDbLine
 10
68.91116899999985
 20
2.774405999999999
 30
0.0
 11
68.74962699999986
 21
2.655788999999998
 31
0.0
  0
ARC
  5
20F7E
330
1F
100
AcDbEntity
  8
1
100
AcDbCircle
 10
58.41604499999988
 20
3.513722999999998
 30
0.0
 40
0.146421
100
AcDbArc
 50
270.2995590000014
 51
316.0305829999977
  0
ARC
  5
20F7F
330
1F
100
AcDbEntity
  8
1
100
AcDbCircle
 10
58.41726199999988
 20
3.512590999999986
 30
0.0
 40
0.145264
100
AcDbArc
 50
224.6094329999988
 51
269.8215800000008
  0
LINE
  5
20F80
330
1F
100
AcDbEntity
  8
1
100
AcDbLine
 10
58.60190399999988
 20
3.493118000000009
 30
0.0
 11
58.56102799999991
 21
3.452067999999997
 31
0.0
  0
LINE
  5
20F81
330
1F
100
AcDbEntity
  8
1
100
AcDbLine
 10
58.56120299999986
 20
3.452244000000007
 30
0.0
 11
58.5214709999999
 21
3.412023000000004
 31
0.0
  0
ARC
  5
20F82
330
1F
100
AcDbEntity
  8
SK1
100
AcDbCircle
 10
-129.0000000000001
 20
8.875
 30
0.0
 40
1.0
100
AcDbArc
 50
90.0
 51
180.0
  0
ARC
  5
20F83
330
1F
100
AcDbEntity
  8
SK1
100
AcDbCircle
 10
-129.0000000000001
 20
-8.875
 30
0.0
 40
1.0
100
AcDbArc
 50
180.0
 51
270.0
  0
LINE
  5
20F84
330
1F
100
AcDbEntity
  8
SK1
100
AcDbLine
 10
-126.0000000000001
 20
9.875
 30
0.0
 11
-129.0000000000001
 21
9.875
 31
0.0
  0
LINE
  5
20F85
330
1F
100
AcDbEntity
  8
SK1
100
AcDbLine
 10
-126.0000000000001
 20
-9.875
 30
0.0
 11
-129.0000000000001
 21
-9.875
 31
0.0
  0
LINE
  5
20F86
330
1F
100
AcDbEntity
  8
1
100
AcDbLine
 10
9.999999999999886
 20
10.0
 30
0.0
 11
-0.0000000000001137
 21
10.0
 31
0.0
  0
LINE
  5
20F87
330
1F
100
AcDbEntity
  8
SK1
100
AcDbLine
 10
-0.0000000000001137
 20
10.0
 30
0.0
 11
-126.0000000000001
 21
10.0
 31
0.0
  0
LINE
  5
20F88
330
1F
100
AcDbEntity
  8
1
100
AcDbLine
 10
9.999999999999886
 20
-10.0
 30
0.0
 11
-0.0000000000001137
 21
-10.0
 31
0.0
  0
LINE
  5
20F89
330
1F
100
AcDbEntity
  8
SK1
100
AcDbLine
 10
-0.0000000000001137
 20
-10.0
 30
0.0
 11
-126.0000000000001
 21
-10.0
 31
0.0
  0
ARC
  5
20F8A
330
1F
100
AcDbEntity
  8
1
100
AcDbCircle
 10
15.35857099999987
 20
18.44308699999999
 30
0.0
 40
10.0
100
AcDbArc
 50
237.5979460000007
 51
267.0000000000009
  0
ARC
  5
20F8B
330
1F
100
AcDbEntity
  8
1
100
AcDbCircle
 10
15.35857099999987
 20
-18.44308699999999
 30
0.0
 40
10.0
100
AcDbArc
 50
92.9999999999991
 51
122.4020539999993
  0
LINE
  5
20F8C
330
1F
100
AcDbEntity
  8
1
100
AcDbLine
 10
34.21549899999991
 20
7.441113999999998
 30
0.0
 11
14.8352109999999
 21
8.456792000000007
 31
0.0
  0
LINE
  5
20F8D
330
1F
100
AcDbEntity
  8
1
100
AcDbLine
 10
34.21549899999991
 20
-7.441113999999998
 30
0.0
 11
14.8352109999999
 21
-8.456792000000007
 31
0.0
  0
ARC
  5
20F8E
330
1F
100
AcDbEntity
  8
1
100
AcDbCircle
 10
35.78557799999988
 20
37.40000000000001
 30
0.0
 40
30.0
100
AcDbArc
 50
267.0000000000009
 51
270.0
  0
ARC
  5
20F8F
330
1F
100
AcDbEntity
  8
1
100
AcDbCircle
 10
35.78557799999988
 20
-37.40000000000001
 30
0.0
 40
30.0
100
AcDbArc
 50
90.0
 51
92.9999999999991
  0
LINE
  5
20F90
330
1F
100
AcDbEntity
  8
1
100
AcDbLine
 10
57.21123699999987
 20
7.400000000000005
 30
0.0
 11
35.78557799999988
 21
7.400000000000005
 31
0.0
  0
LINE
  5
20F91
330
1F
100
AcDbEntity
  8
1
100
AcDbLine
 10
59.68128299999989
 20
-7.400000000000005
 30
0.0
 11
35.78557799999988
 21
-7.400000000000005
 31
0.0
  0
ARC
  5
20F92
330
1F
100
AcDbEntity
  8
1
100
AcDbCircle
 10
62.59998599999988
 20
-0.0000080000000082
 30
0.0
 40
6.900014999999998
100
AcDbArc
 50
3.770193000000296
 51
23.48998400000057
  0
POINT
  5
20F93
330
1F
100
AcDbEntity
  8
1
100
AcDbPoint
 10
61.99999999999988
 20
-8.0
 30
0.0
  0
POINT
  5
20F94
330
1F
100
AcDbEntity
  8
1
100
AcDbPoint
 10
62.0001739999999
 20
7.999939000000011
 30
0.0
  0
POINT
  5
20F95
330
1F
100
AcDbEntity
  8
1
100
AcDbPoint
 10
69.99999999999989
 20
7.999939000000011
 30
0.0
  0
POINT
  5
20F96
330
1F
100
AcDbEntity
  8
1
100
AcDbPoint
 10
69.99999999999989
 20
-7.99996200000001
 30
0.0
  0
LINE
  5
20F97
330
1F
100
AcDbEntity
  8
3
100
AcDbLine
 10
-128.0000000000001
 20
2.0
 30
0.0
 11
-128.0000000000001
 21
-0.9588509999999956
 31
0.0
  0
LINE
  5
20F98
330
1F
100
AcDbEntity
  8
3
100
AcDbLine
 10
55.27205999999984
 20
0.9588509999999956
 30
0.0
 11
55.27205999999984
 21
-2.0
 31
0.0
  0
LINE
  5
20F99
330
1F
100
AcDbEntity
  8
3
100
AcDbLine
 10
55.27205999999984
 20
2.0
 30
0.0
 11
55.27205999999984
 21
-0.9588509999999956
 31
0.0
  0
LINE
  5
20F9A
330
1F
100
AcDbEntity
  8
3
100
AcDbLine
 10
-128.0000000000001
 20
0.9588509999999956
 30
0.0
 11
-128.0000000000001
 21
-2.0
 31
0.0
  0
LINE
  5
20F9B
330
1F
100
AcDbEntity
  8
3
100
AcDbLine
 10
-128.0000000000001
 20
2.0
 30
0.0
 11
-130.0000000000001
 21
3.154701000000002
 31
0.0
  0
LINE
  5
20FA3
330
1F
100
AcDbEntity
  8
3
100
AcDbLine
 10
55.99999999999983
 20
0.0
 30
0.0
 11
55.27205999999984
 21
-2.0
 31
0.0
  0
LINE
  5
20FA4
330
1F
100
AcDbEntity
  8
3
100
AcDbLine
 10
55.99999999999983
 20
0.0
 30
0.0
 11
55.27205999999984
 21
2.0
 31
0.0
  0
LINE
  5
20FA5
330
1F
100
AcDbEntity
  8
3
100
AcDbLine
 10
55.27205999999984
 20
-2.0
 30
0.0
 11
-0.0000000000001137
 21
-2.0
 31
0.0
  0
LINE
  5
20FA6
330
1F
100
AcDbEntity
  8
SK3
100
AcDbLine
 10
-0.0000000000001137
 20
-2.0
 30
0.0
 11
-128.0000000000001
 21
-2.0
 31
0.0
  0
LINE
  5
20FA7
330
1F
100
AcDbEntity
  8
3
100
AcDbLine
 10
55.27205999999984
 20
2.0
 30
0.0
 11
-0.0000000000001137
 21
2.0
 31
0.0
  0
LINE
  5
20FA8
330
1F
100
AcDbEntity
  8
SK3
100
AcDbLine
 10
-0.0000000000001137
 20
2.0
 30
0.0
 11
-128.0000000000001
 21
2.0
 31
0.0
  0
LINE
  5
20FA9
330
1F
100
AcDbEntity
  8
3
100
AcDbLine
 10
-128.0000000000001
 20
-2.0
 30
0.0
 11
-130.0000000000001
 21
-3.154701000000002
 31
0.0
  0
POINT
  5
20FB2
330
1F
100
AcDbEntity
  8
1
100
AcDbPoint
 10
9.999999999999886
 20
12.0
 30
0.0
  0
POINT
  5
20FB3
330
1F
100
AcDbEntity
  8
1
100
AcDbPoint
 10
23.55248599999987
 20
9.999939000000011
 30
0.0
  0
POINT
  5
20FB4
330
1F
100
AcDbEntity
  8
1
100
AcDbPoint
 10
34.99999999999989
 20
9.400000000000005
 30
0.0
  0
POINT
  5
20FB5
330
1F
100
AcDbEntity
  8
1
100
AcDbPoint
 10
58.16670099999988
 20
9.734959000000003
 30
0.0
  0
POINT
  5
20FB6
330
1F
100
AcDbEntity
  8
1
100
AcDbPoint
 10
63.99999999999988
 20
-8.0
 30
0.0
  0
DIMENSION
  5
20FB7
330
1F
100
AcDbEntity
  8
SK2
100
AcDbDimension
  2
*D26
 10
-146.8261110973396
 20
-9.999999999999994
 30
0.0
 11
-148.779252348218
 21
-0.0000000000000174
 31
0.0
 70
    32
  1
%%C<>
 71
     5
 42
20.0
  3
STANDARD
100
AcDbAlignedDimension
 13
-126.0000000000001
 23
10.0
 33
0.0
 14
-126.0000000000001
 24
-10.0
 34
0.0
 50
90.0
100
AcDbRotatedDimension
  0
DIMENSION
  5
20FB8
330
1F
100
AcDbEntity
  8
2
100
AcDbDimension
  2
*D27
 10
69.9854183915561
 20
-30.43363949641918
 30
0.0
 11
-30.00729080422201
 21
-28.53214968615917
 31
0.0
 70
    32
 71
     5
 42
199.9854183915562
  3
STANDARD
100
AcDbAlignedDimension
 13
-130.0000000000001
 23
-8.875
 33
0.0
 14
69.9854183915561
 24
0.0
 34
0.0
100
AcDbRotatedDimension
1001
ACAD
1000
DSTYLE
1002
{
1070
   271
1070
     0
1002
}
  0
DIMENSION
  5
20FB9
330
1F
100
AcDbEntity
  8
2
100
AcDbDimension
  2
*D28
 10
69.9999252680426
 20
53.18921749266775
 30
0.0
 11
40.00577157916269
 21
55.09070730292776
 31
0.0
 70
    32
 71
     5
 42
59.98830737775984
  3
STANDARD
100
AcDbAlignedDimension
 13
10.01161789028276
 23
11.97664204571919
 33
0.0
 14
69.9999252680426
 24
8.000022886214537
 34
0.0
100
AcDbRotatedDimension
1001
ACAD
1000
DSTYLE
1002
{
1070
   271
1070
     0
1002
}
  0
DIMENSION
  5
20FBA
330
1F
100
AcDbEntity
  8
2
100
AcDbDimension
  2
*D29
 10
69.9999252680426
 20
40.21475618692028
 30
0.0
 11
46.77601601579471
 21
42.1162459971803
 31
0.0
 70
    32
  1
46.45
 71
     5
 42
46.44781850449578
  3
STANDARD
100
AcDbAlignedDimension
 13
23.55210676354682
 23
9.998284623974825
 33
0.0
 14
69.9999252680426
 24
8.000022886214537
 34
0.0
100
AcDbRotatedDimension
1001
ACAD
1000
DSTYLE
1002
{
1070
   271
1070
     1
1002
}
  0
DIMENSION
  5
20FBB
330
1F
100
AcDbEntity
  8
2
100
AcDbDimension
  2
*D30
 10
69.9999252680426
 20
28.15679503077774
 30
0.0
 11
52.50750206305719
 21
30.05828484103776
 31
0.0
 70
    32
 71
     5
 42
34.98484640997083
  3
STANDARD
100
AcDbAlignedDimension
 13
35.01507885807177
 23
9.395142775217379
 33
0.0
 14
69.9999252680426
 24
8.000022886214537
 34
0.0
100
AcDbRotatedDimension
1001
ACAD
1000
DSTYLE
1002
{
1070
   271
1070
     0
1002
}
  0
DIMENSION
  5
20FBC
330
1F
100
AcDbEntity
  8
2
100
AcDbDimension
  2
*D31
 10
69.9999252680426
 20
19.08824284470694
 30
0.0
 11
88.79773974450079
 21
21.46320419396906
 31
0.0
 70
    32
  1
Ap 11.83
 71
     5
 42
11.85232831476924
  3
STANDARD
100
AcDbAlignedDimension
 13
58.14759695327336
 23
9.909315146096275
 33
0.0
 14
69.9999252680426
 24
8.000022886214537
 34
0.0
100
AcDbRotatedDimension
1001
ACAD
1000
DSTYLE
1002
{
1070
   172
1070
     1
1002
}
  0
DIMENSION
  5
20FBD
330
1F
100
AcDbEntity
  8
2
100
AcDbDimension
  2
*D32
 10
84.41671632441602
 20
-0.000000000000003
 30
0.0
 11
81.9285750735376
 21
6.598928320449764
 31
0.0
 70
    32
  1
%%C16
 71
     5
 42
8.001736458745655
  3
DIAMETER
100
AcDbAlignedDimension
 13
64.01765933151716
 23
-8.001736458745654
 33
0.0
 14
73.91300999999993
 24
0.0
 34
0.0
 50
90.0
100
AcDbRotatedDimension
  0
INSERT
  5
20FBE
330
1F
100
AcDbEntity
  8
0
100
AcDbBlockReference
 66
     1
  2
Name
 10
-53.94361422377676
 20
-48.28640234354543
 30
0.0
  0
ATTRIB
  5
20FBF
102
{ACAD_XDICTIONARY
360
20FC0
102
}
330
20FBE
100
AcDbEntity
  8
SKVIEW63
100
AcDbText
 10
-53.8531068393685
 20
-48.23892654707026
 30
0.0
 40
3.5
  1
1TW8Q016060T3R01
 41
0.8
  7
BMG_Text
100
AcDbAttribute
  2
NAME
 70
     0
  0
SEQEND
  5
20FC4
330
20FBE
100
AcDbEntity
  8
0
  0
LWPOLYLINE
  5
2111C
330
1F
100
AcDbEntity
  8
CUT
100
AcDbPolyline
 90
        4
 70
     1
 43
0.0
 10
69.98669584767952
 20
0.0029762707967933
 42
0.4142121711309893
 10
61.98669584776979
 20
8.002938270796789
 10
58.15669556525325
 20
8.002938270796789
 10
58.15669556525325
 20
0.0029762707967933
  0
LWPOLYLINE
  5
21132
330
1F
100
AcDbEntity
  8
NOCUT
100
AcDbPolyline
 90
        9
 70
     0
 43
0.0
 10
14.83521143757055
 20
8.456791652454244
 42
-0.12899915823585
 10
10.00000011678561
 20
10.0
 10
-0.0000000000000995
 20
10.0
 10
-0.0000000000000995
 20
0.0
 10
69.49999999999987
 20
0.0
 42
0.4237483478985491
 10
61.67804599999984
 20
7.400000000000005
 10
35.78557799999977
 20
7.400000000000002
 42
-0.0130802663277489
 10
34.21675147183778
 20
7.441048360723048
 10
14.83521099999986
 20
8.456792000000007
  0
VIEWPORT
  5
9C00
102
{ACAD_XDICTIONARY
360
2125E
102
}
330
1B
100
AcDbEntity
 67
     1
  8
0
100
AcDbViewport
 10
108.2280559557949
 20
71.69854161746989
 30
0.0
 40
251.8950231529317
 41
201.8884082081047
 68
     1
 69
     1
 12
108.2280559557949
 22
71.69854161746989
 13
0.0
 23
0.0
 14
10.0
 24
10.0
 15
10.0
 25
10.0
 16
0.0
 26
0.0
 36
1.0
 17
0.0
 27
0.0
 37
0.0
 42
50.0
 43
0.0
 44
0.0
 45
201.8884082081047
 50
0.0
 51
0.0
 72
   100
 90
   557088
  1

281
     0
 71
     1
 74
     0
110
0.0
120
0.0
130
0.0
111
1.0
121
0.0
131
0.0
112
0.0
122
1.0
132
0.0
 79
     0
146
0.0
  0
VIEWPORT
  5
9C02
102
{ACAD_XDICTIONARY
360
21260
102
}
330
1B
100
AcDbEntity
 67
     1
  8
1
100
AcDbViewport
 10
143.457083940506
 20
98.18158769607544
 30
0.0
 40
229.5313343048095
 41
157.0905403137207
 68
     2
 69
     2
 12
-44.37697124786255
 22
-35.12342998133886
 13
0.0
 23
0.0
 14
10.0
 24
10.0
 15
10.0
 25
10.0
 16
0.0
 26
0.0
 36
1.0
 17
0.0
 27
0.0
 37
0.0
 42
50.0
 43
0.0
 44
0.0
 45
300.3886240724386
 50
0.0
 51
0.0
 72
   100
 90
   557088
  1

281
     0
 71
     1
 74
     0
110
0.0
120
0.0
130
0.0
111
1.0
121
0.0
131
0.0
112
0.0
122
1.0
132
0.0
 79
     0
146
0.0
  0
ENDSEC
  0
SECTION
  2
OBJECTS
  0
DICTIONARY
  5
3182
330
0
100
AcDbDictionary
281
     1
  3
ACAD_CIP_PREVIOUS_PRODUCT_INFO
350
1B2F4
  3
ACAD_COLOR
350
31A0
  3
ACAD_DETAILVIEWSTYLE
350
1B2F0
  3
ACAD_FIELDLIST
350
20CBF
  3
ACAD_GROUP
350
3183
  3
ACAD_LAYOUT
350
31A5
  3
ACAD_MATERIAL
350
318B
  3
ACAD_MLEADERSTYLE
350
1B221
  3
ACAD_MLINESTYLE
350
3184
  3
ACAD_PLOTSETTINGS
350
31A4
  3
ACAD_PLOTSTYLENAME
350
3189
  3
ACAD_SCALELIST
350
1B1FC
  3
ACAD_SECTIONVIEWSTYLE
350
1B2EE
  3
ACAD_TABLESTYLE
350
31A1
  3
ACAD_VISUALSTYLE
350
318F
  3
ACDB_RECOMPOSE_DATA
350
21230
  3
AcDbVariableDictionary
350
33A3
  3
AcDsDecomposeData
350
21237
  3
AEC_PROPERTY_SET_DEFS
350
20E83
  3
DWGPROPS
350
21231
  0
DICTIONARY
  5
422A
330
2
100
AcDbDictionary
280
     1
281
     1
  3
ACAD_LAYERFILTERS
360
1B063
  3
ACAD_LAYERSTATES
360
9A1C
  3
ACLYDICTIONARY
360
1B062
  0
DICTIONARY
  5
1B2F5
330
10
100
AcDbDictionary
280
     1
281
     1
  3
ADSK_XREC_LAYER_RECONCILED
360
2105A
  0
DICTIONARY
  5
1B2F7
330
3F8C
100
AcDbDictionary
280
     1
281
     1
  3
ADSK_XREC_LAYER_RECONCILED
360
2105B
  0
DICTIONARY
  5
1B2F9
330
9C4A
100
AcDbDictionary
280
     1
281
     1
  3
ADSK_XREC_LAYER_RECONCILED
360
2105C
  0
DICTIONARY
  5
1B2FB
330
9C4B
100
AcDbDictionary
280
     1
281
     1
  3
ADSK_XREC_LAYER_RECONCILED
360
2105D
  0
DICTIONARY
  5
1B2FD
330
9C4D
100
AcDbDictionary
280
     1
281
     1
  3
ADSK_XREC_LAYER_RECONCILED
360
2105E
  0
DICTIONARY
  5
1B2FF
330
9C4E
100
AcDbDictionary
280
     1
281
     1
  3
ADSK_XREC_LAYER_RECONCILED
360
2105F
  0
DICTIONARY
  5
1B301
330
9C4F
100
AcDbDictionary
280
     1
281
     1
  3
ADSK_XREC_LAYER_RECONCILED
360
21060
  0
DICTIONARY
  5
1B303
330
9C50
100
AcDbDictionary
280
     1
281
     1
  3
ADSK_XREC_LAYER_RECONCILED
360
21061
  0
DICTIONARY
  5
1B305
330
9C51
100
AcDbDictionary
280
     1
281
     1
  3
ADSK_XREC_LAYER_RECONCILED
360
21062
  0
DICTIONARY
  5
1B307
330
13335
100
AcDbDictionary
280
     1
281
     1
  3
ADSK_XREC_LAYER_RECONCILED
360
21063
  0
DICTIONARY
  5
20A84
330
20A83
100
AcDbDictionary
280
     1
281
     1
  3
ADSK_XREC_LAYER_RECONCILED
360
21065
  0
DICTIONARY
  5
21066
330
20A91
100
AcDbDictionary
280
     1
281
     1
  3
ADSK_XREC_LAYER_RECONCILED
360
21067
  0
DICTIONARY
  5
20AE1
330
20AE0
100
AcDbDictionary
280
     1
281
     1
  3
ADSK_XREC_LAYER_RECONCILED
360
2106E
  0
DICTIONARY
  5
339C
330
1F
100
AcDbDictionary
280
     1
281
     1
  3
ACAD_SORTENTS
360
339D
  0
DICTIONARY
  5
1DE81
330
1B3D7
100
AcDbDictionary
280
     1
281
     1
  3
AcDbBlockTableRecordData
360
21278
  0
DICTIONARY
  5
20CA6
330
20CA5
100
AcDbDictionary
280
     1
281
     1
  3
AcDbBlockTableRecordData
360
2127C
  0
DICTIONARY
  5
20CA9
330
20CA8
100
AcDbDictionary
280
     1
281
     1
  3
ACAD_FIELD
360
20CAA
  0
DICTIONARY
  5
20FC0
330
20FBF
100
AcDbDictionary
280
     1
281
     1
  3
ACAD_FIELD
360
20FC1
  0
DICTIONARY
  5
2125E
330
9C00
100
AcDbDictionary
280
     1
281
     1
  3
ACAD_XREC_ROUNDTRIP
360
2125F
  0
DICTIONARY
  5
21260
330
9C02
100
AcDbDictionary
280
     1
281
     1
  3
ACAD_XREC_ROUNDTRIP
360
21261
  0
XRECORD
  5
1B2F4
102
{ACAD_REACTORS
330
3182
102
}
330
3182
100
AcDbXrecord
280
     1
300
ACDLT
300
2015
300
ACDLT_F_S
  0
DICTIONARY
  5
31A0
102
{ACAD_REACTORS
330
3182
102
}
330
3182
100
AcDbDictionary
281
     1
  0
DICTIONARY
  5
1B2F0
102
{ACAD_REACTORS
330
3182
102
}
330
3182
100
AcDbDictionary
281
     1
  3
Imperial24
350
20CB3
  3
Metric50
350
1B2F1
  0
FIELDLIST
  5
20CBF
102
{ACAD_REACTORS
330
3182
102
}
330
3182
100
AcDbIdSet
 90
       10
330
20FC2
330
20FC3
330
20E7A
330
20E7B
330
20CAB
330
20CAC
330
20CBA
330
20CBB
330
20CC6
330
20CC7
100
AcDbFieldList
  0
DICTIONARY
  5
3183
102
{ACAD_REACTORS
330
3182
102
}
330
3182
100
AcDbDictionary
281
     1
  0
DICTIONARY
  5
31A5
102
{ACAD_REACTORS
330
3182
102
}
330
3182
100
AcDbDictionary
281
     1
  3
Layout1
350
31A7
  3
Model
350
31A6
  0
DICTIONARY
  5
318B
102
{ACAD_REACTORS
330
3182
102
}
330
3182
100
AcDbDictionary
281
     1
  3
ByBlock
350
318D
  3
ByLayer
350
318C
  3
Global
350
318E
  0
DICTIONARY
  5
1B221
102
{ACAD_REACTORS
330
3182
102
}
330
3182
100
AcDbDictionary
281
     1
  3
Standard
350
1B2ED
  0
DICTIONARY
  5
3184
102
{ACAD_REACTORS
330
3182
102
}
330
3182
100
AcDbDictionary
281
     1
  3
STANDARD
350
3185
  0
DICTIONARY
  5
31A4
102
{ACAD_REACTORS
330
3182
102
}
330
3182
100
AcDbDictionary
281
     1
  0
ACDBDICTIONARYWDFLT
  5
3189
102
{ACAD_REACTORS
330
3182
102
}
330
3182
100
AcDbDictionary
281
     1
  3
Normal
350
318A
100
AcDbDictionaryWithDefault
340
318A
  0
DICTIONARY
  5
1B1FC
102
{ACAD_REACTORS
330
3182
102
}
330
3182
100
AcDbDictionary
281
     1
  3
A0
350
1B1FD
  3
A1
350
1B1FE
  3
A2
350
1B1FF
  3
A3
350
1B200
  3
A4
350
1B201
  3
A5
350
1B202
  3
A6
350
1B203
  3
A7
350
1B204
  3
A8
350
1B205
  3
A9
350
1B206
  3
B0
350
1B207
  3
B1
350
1B208
  3
B2
350
1B209
  3
B3
350
1B20A
  3
B4
350
1B20B
  3
B5
350
1B20C
  3
B6
350
1B20D
  3
B7
350
1B20E
  3
B8
350
1B20F
  3
B9
350
1B210
  3
C0
350
1B211
  3
C1
350
1B212
  3
C2
350
1B213
  3
C3
350
1B214
  3
C4
350
1B215
  3
C5
350
1B216
  3
C6
350
1B217
  3
C7
350
1B218
  3
C8
350
1B219
  3
C9
350
1B21A
  3
D0
350
1B21B
  3
D1
350
1B21C
  3
D2
350
1B21D
  0
DICTIONARY
  5
1B2EE
102
{ACAD_REACTORS
330
3182
102
}
330
3182
100
AcDbDictionary
281
     1
  3
Imperial24
350
20CB1
  3
Metric50
350
1B2EF
  0
DICTIONARY
  5
31A1
102
{ACAD_REACTORS
330
3182
102
}
330
3182
100
AcDbDictionary
281
     1
  3
Standard
350
31A2
  0
DICTIONARY
  5
318F
102
{ACAD_REACTORS
330
3182
102
}
330
3182
100
AcDbDictionary
281
     1
  3
2dWireframe
350
3195
  3
3D Hidden
350
3197
  3
3dWireframe
350
3196
  3
Basic
350
3194
  3
Brighten
350
319B
  3
ColorChange
350
319F
  3
Conceptual
350
3198
  3
Dim
350
319A
  3
EdgeColorOff
350
1B2EC
  3
Facepattern
350
319E
  3
Flat
350
3190
  3
FlatWithEdges
350
3191
  3
Gouraud
350
3192
  3
GouraudWithEdges
350
3193
  3
Hidden
350
1B2E4
  3
JitterOff
350
1B2EA
  3
Linepattern
350
319D
  3
OverhangOff
350
1B2EB
  3
Realistic
350
3199
  3
Shaded
350
1B2E9
  3
Shaded with edges
350
1B2E8
  3
Shades of Gray
350
1B2E5
  3
Sketchy
350
1B2E6
  3
Thicken
350
319C
  3
Wireframe
350
1B2E3
  3
X-Ray
350
1B2E7
  0
XRECORD
  5
21230
102
{ACAD_REACTORS
330
3182
102
}
330
3182
100
AcDbXrecord
280
     1
 90
        1
330
31A2
  0
DICTIONARY
  5
33A3
102
{ACAD_REACTORS
330
3182
102
}
330
3182
100
AcDbDictionary
281
     1
  3
CANNOSCALE
350
1B222
  3
CMLEADERSTYLE
350
1B30F
  3
CTABLESTYLE
350
33A4
  3
CVIEWDETAILSTYLE
350
1B310
  3
CVIEWSECTIONSTYLE
350
1B311
  3
DIMASSOC
350
9BE8
  3
INDEXCTL
350
9BE7
  3
LAYEREVAL
350
20993
  3
LAYERNOTIFY
350
20994
  3
LIGHTINGUNITS
350
20992
  3
MSLTSCALE
350
20991
  3
SORTENTS
350
9BE6
  3
XCLIPFRAME
350
1FAAB
  0
DICTIONARY
  5
21237
102
{ACAD_REACTORS
330
3182
102
}
330
3182
100
AcDbDictionary
281
     1
  3
AcDsRecords
350
21239
  3
AcDsSchemas
350
21238
1001
ACAD
1070
     2
  0
DICTIONARY
  5
20E83
102
{ACAD_REACTORS
330
3182
102
}
330
3182
100
AcDbDictionary
281
     1
  0
XRECORD
  5
21231
102
{ACAD_REACTORS
330
3182
102
}
330
3182
100
AcDbXrecord
280
     1
  1
DWGPROPS COOKIE
  2

  3

  4

  6

  7

  8
bendera
  9

300
=
301
=
302
=
303
=
304
=
305
=
306
=
307
=
308
=
309
=
 40
0.0141151388888889
 41
2457401.47851941
 42
2457401.49263419
  1

 90
        0
  0
DICTIONARY
  5
1B063
102
{ACAD_REACTORS
330
422A
102
}
330
422A
100
AcDbDictionary
281
     1
  0
DICTIONARY
  5
9A1C
102
{ACAD_REACTORS
330
422A
102
}
330
422A
100
AcDbDictionary
281
     1
  0
DICTIONARY
  5
1B062
102
{ACAD_REACTORS
330
422A
102
}
330
422A
100
AcDbDictionary
281
     1
1001
ACAD
1000
<All
  0
XRECORD
  5
2105A
102
{ACAD_REACTORS
330
1B2F5
102
}
330
1B2F5
100
AcDbXrecord
280
     1
290
     1
  0
XRECORD
  5
2105B
102
{ACAD_REACTORS
330
1B2F7
102
}
330
1B2F7
100
AcDbXrecord
280
     1
290
     1
  0
XRECORD
  5
2105C
102
{ACAD_REACTORS
330
1B2F9
102
}
330
1B2F9
100
AcDbXrecord
280
     1
290
     1
  0
XRECORD
  5
2105D
102
{ACAD_REACTORS
330
1B2FB
102
}
330
1B2FB
100
AcDbXrecord
280
     1
290
     1
  0
XRECORD
  5
2105E
102
{ACAD_REACTORS
330
1B2FD
102
}
330
1B2FD
100
AcDbXrecord
280
     1
290
     1
  0
XRECORD
  5
2105F
102
{ACAD_REACTORS
330
1B2FF
102
}
330
1B2FF
100
AcDbXrecord
280
     1
290
     1
  0
XRECORD
  5
21060
102
{ACAD_REACTORS
330
1B301
102
}
330
1B301
100
AcDbXrecord
280
     1
290
     1
  0
XRECORD
  5
21061
102
{ACAD_REACTORS
330
1B303
102
}
330
1B303
100
AcDbXrecord
280
     1
290
     1
  0
XRECORD
  5
21062
102
{ACAD_REACTORS
330
1B305
102
}
330
1B305
100
AcDbXrecord
280
     1
290
     1
  0
XRECORD
  5
21063
102
{ACAD_REACTORS
330
1B307
102
}
330
1B307
100
AcDbXrecord
280
     1
290
     1
  0
XRECORD
  5
21065
102
{ACAD_REACTORS
330
20A84
102
}
330
20A84
100
AcDbXrecord
280
     1
290
     1
  0
XRECORD
  5
21067
102
{ACAD_REACTORS
330
21066
102
}
330
21066
100
AcDbXrecord
280
     1
290
     1
  0
XRECORD
  5
2106E
102
{ACAD_REACTORS
330
20AE1
102
}
330
20AE1
100
AcDbXrecord
280
     1
290
     1
  0
SORTENTSTABLE
  5
339D
102
{ACAD_REACTORS
330
339C
102
}
330
339C
100
AcDbSortentsTable
330
1F
331
21132
  5
21125
331
2111C
  5
2113A
331
20A18
  5
20A18
331
20FBE
  5
21139
331
20FBD
  5
21138
331
20FBC
  5
21137
331
20FBB
  5
21136
331
20FBA
  5
21135
331
20FB9
  5
21134
331
20FB8
  5
21133
331
20FB7
  5
21132
331
20FB6
  5
21131
331
20FB5
  5
21130
331
20FB4
  5
2112F
331
20FB3
  5
2112E
331
20FB2
  5
2112D
331
20EB7
  5
20EB9
331
20EB6
  5
20EB8
331
20EA7
  5
20EA9
331
20EB5
  5
20EB7
331
20EA6
  5
20EA8
331
20E97
  5
20E99
331
20EB4
  5
20EB6
331
20EA5
  5
20EA7
331
20E96
  5
20E98
331
20E87
  5
20E87
331
20EB3
  5
20EB5
331
20EA4
  5
20EA6
331
20E95
  5
20E97
331
20E86
  5
20E86
331
20EB2
  5
20EB4
331
20EA3
  5
20EA5
331
20E94
  5
20E96
331
20E85
  5
20E85
331
20EB1
  5
20EB3
331
20EA2
  5
20EA4
331
20E93
  5
20E95
331
20EBF
  5
20EC1
331
20EB0
  5
20EB2
331
20EA1
  5
20EA3
331
20E92
  5
20E94
331
20EBE
  5
20EC0
331
20EAF
  5
20EB1
331
20EA0
  5
20EA2
331
20E91
  5
20E93
331
20EBD
  5
20EBF
331
20EAE
  5
20EB0
331
20E9F
  5
20EA1
331
20E90
  5
20E92
331
20EBC
  5
20EBE
331
20EAD
  5
20EAF
331
20E9E
  5
20EA0
331
20E8F
  5
20E91
331
20EBB
  5
20EBD
331
20EAC
  5
20EAE
331
20E9D
  5
20E9F
331
20EBA
  5
20EBC
331
20EAB
  5
20EAD
331
20E9C
  5
20E9E
331
20EB9
  5
20EBB
331
20EAA
  5
20EAC
331
20E9B
  5
20E9D
331
20E8C
  5
20E8C
331
20EB8
  5
20EBA
331
20EA9
  5
20EAB
331
20E9A
  5
20E9C
331
20E8B
  5
20E8B
331
20EA8
  5
20EAA
331
20E99
  5
20E9B
331
20E8A
  5
20E8A
331
20E98
  5
20E9A
331
20E89
  5
20E89
331
20E88
  5
20E88
331
20F2F
  5
20F31
331
20F2E
  5
20F30
331
20F1F
  5
20F21
331
20F2D
  5
20F2F
331
20F1E
  5
20F20
331
20F0F
  5
20F11
331
20F2C
  5
20F2E
331
20F1D
  5
20F1F
331
20F0E
  5
20F10
331
20EFF
  5
20F01
331
20F2B
  5
20F2D
331
20F1C
  5
20F1E
331
20F0D
  5
20F0F
331
20EFE
  5
20F00
331
20EEF
  5
20EF1
331
20F2A
  5
20F2C
331
20F1B
  5
20F1D
331
20F0C
  5
20F0E
331
20EFD
  5
20EFF
331
20EEE
  5
20EF0
331
20EDF
  5
20EE1
331
20F29
  5
20F2B
331
20F1A
  5
20F1C
331
20F0B
  5
20F0D
331
20EFC
  5
20EFE
331
20EED
  5
20EEF
331
20EDE
  5
20EE0
331
20ECF
  5
20ED1
331
20F37
  5
20F39
331
20F28
  5
20F2A
331
20F19
  5
20F1B
331
20F0A
  5
20F0C
331
20EFB
  5
20EFD
331
20EEC
  5
20EEE
331
20EDD
  5
20EDF
331
20ECE
  5
20ED0
331
20F36
  5
20F38
331
20F27
  5
20F29
331
20F18
  5
20F1A
331
20F09
  5
20F0B
331
20EFA
  5
20EFC
331
20EEB
  5
20EED
331
20EDC
  5
20EDE
331
20FA7
  5
2112A
331
20ECD
  5
20ECF
331
20F35
  5
20F37
331
20F26
  5
20F28
331
20F17
  5
20F19
331
20F08
  5
20F0A
331
20EF9
  5
20EFB
331
20EEA
  5
20EEC
331
20EDB
  5
20EDD
331
20FA6
  5
21129
331
20ECC
  5
20ECE
331
20F97
  5
20F99
331
20F34
  5
20F36
331
20F25
  5
20F27
331
20F16
  5
20F18
331
20F07
  5
20F09
331
20EF8
  5
20EFA
331
20EE9
  5
20EEB
331
20EDA
  5
20EDC
331
20FA5
  5
21128
331
20ECB
  5
20ECD
331
20F96
  5
20F98
331
20F87
  5
20F89
331
20F33
  5
20F35
331
20F24
  5
20F26
331
20F15
  5
20F17
331
20F06
  5
20F08
331
20EF7
  5
20EF9
331
20EE8
  5
20EEA
331
20ED9
  5
20EDB
331
20FA4
  5
21127
331
20ECA
  5
20ECC
331
20F95
  5
20F97
331
20F77
  5
20F79
331
20F86
  5
20F88
331
20F32
  5
20F34
331
20F23
  5
20F25
331
20F14
  5
20F16
331
20F05
  5
20F07
331
20EF6
  5
20EF8
331
20EE7
  5
20EE9
331
20ED8
  5
20EDA
331
20FA3
  5
21126
331
20EC9
  5
20ECB
331
20F94
  5
20F96
331
20F76
  5
20F78
331
20F67
  5
20F69
331
20F85
  5
20F87
331
20F31
  5
20F33
331
20F22
  5
20F24
331
20F13
  5
20F15
331
20F04
  5
20F06
331
20EF5
  5
20EF7
331
20EE6
  5
20EE8
331
20ED7
  5
20ED9
331
20F93
  5
20F95
331
20EC8
  5
20ECA
331
20F84
  5
20F86
331
20F66
  5
20F68
331
20F57
  5
20F59
331
20F75
  5
20F77
331
20F30
  5
20F32
331
20F21
  5
20F23
331
20F12
  5
20F14
331
20F03
  5
20F05
331
20EF4
  5
20EF6
331
20EE5
  5
20EE7
331
20ED6
  5
20ED8
331
20F92
  5
20F94
331
20EC7
  5
20EC9
331
20F83
  5
20F85
331
20F65
  5
20F67
331
20F56
  5
20F58
331
20F47
  5
20F49
331
20F74
  5
20F76
331
20F20
  5
20F22
331
20F11
  5
20F13
331
20F02
  5
20F04
331
20EF3
  5
20EF5
331
20EE4
  5
20EE6
331
20ED5
  5
20ED7
331
20F91
  5
20F93
331
20EC6
  5
20EC8
331
20F82
  5
20F84
331
20F64
  5
20F66
331
20F55
  5
20F57
331
20F46
  5
20F48
331
20F73
  5
20F75
331
20F10
  5
20F12
331
20F01
  5
20F03
331
20EF2
  5
20EF4
331
20EE3
  5
20EE5
331
20ED4
  5
20ED6
331
20F90
  5
20F92
331
20EC5
  5
20EC7
331
20F81
  5
20F83
331
20F63
  5
20F65
331
20F54
  5
20F56
331
20F45
  5
20F47
331
20F72
  5
20F74
331
20F00
  5
20F02
331
20EF1
  5
20EF3
331
20EE2
  5
20EE4
331
20ED3
  5
20ED5
331
20F8F
  5
20F91
331
20EC4
  5
20EC6
331
20F80
  5
20F82
331
20F62
  5
20F64
331
20F53
  5
20F55
331
20F44
  5
20F46
331
20F71
  5
20F73
331
20EF0
  5
20EF2
331
20EE1
  5
20EE3
331
20ED2
  5
20ED4
331
20F8E
  5
20F90
331
20EC3
  5
20EC5
331
20F7F
  5
20F81
331
20F61
  5
20F63
331
20F52
  5
20F54
331
20F43
  5
20F45
331
20F70
  5
20F72
331
20EE0
  5
20EE2
331
20ED1
  5
20ED3
331
20F8D
  5
20F8F
331
20EC2
  5
20EC4
331
20F7E
  5
20F80
331
20F60
  5
20F62
331
20F51
  5
20F53
331
20F42
  5
20F44
331
20F6F
  5
20F71
331
20ED0
  5
20ED2
331
20F9B
  5
20FA4
331
20EC1
  5
20EC3
331
20F8C
  5
20F8E
331
20F6E
  5
20F70
331
20F5F
  5
20F61
331
20F50
  5
20F52
331
20F41
  5
20F43
331
20F7D
  5
20F7F
331
20FA9
  5
2112C
331
20EC0
  5
20EC2
331
20F9A
  5
20FA3
331
20F8B
  5
20F8D
331
20F7C
  5
20F7E
331
20F6D
  5
20F6F
331
20F5E
  5
20F60
331
20F4F
  5
20F51
331
20F40
  5
20F42
331
20FA8
  5
2112B
331
20F99
  5
20F9B
331
20F8A
  5
20F8C
331
20F7B
  5
20F7D
331
20F6C
  5
20F6E
331
20F5D
  5
20F5F
331
20F4E
  5
20F50
331
20F3F
  5
20F41
331
20F98
  5
20F9A
331
20F89
  5
20F8B
331
20F7A
  5
20F7C
331
20F6B
  5
20F6D
331
20F5C
  5
20F5E
331
20F4D
  5
20F4F
331
20F3E
  5
20F40
331
20F88
  5
20F8A
331
20F79
  5
20F7B
331
20F6A
  5
20F6C
331
20F5B
  5
20F5D
331
20F4C
  5
20F4E
331
20F3D
  5
20F3F
331
20F78
  5
20F7A
331
20F69
  5
20F6B
331
20F5A
  5
20F5C
331
20F4B
  5
20F4D
331
20F3C
  5
20F3E
331
20F68
  5
20F6A
331
20F59
  5
20F5B
331
20F4A
  5
20F4C
331
20F3B
  5
20F3D
331
20F58
  5
20F5A
331
20F49
  5
20F4B
331
20F3A
  5
20F3C
331
20F48
  5
20F4A
331
20F39
  5
20F3B
331
20F38
  5
20F3A
  0
DICTIONARY
  5
21278
102
{ACAD_REACTORS
330
1DE81
102
}
330
1DE81
100
AcDbDictionary
280
     1
281
     1
  3
Edit
360
21279
  0
DICTIONARY
  5
2127C
102
{ACAD_REACTORS
330
20CA6
102
}
330
20CA6
100
AcDbDictionary
280
     1
281
     1
  3
Edit
360
2127D
  0
DICTIONARY
  5
20CAA
102
{ACAD_REACTORS
330
20CA9
102
}
330
20CA9
100
AcDbDictionary
280
     1
281
     1
  3
TEXT
360
20CAB
  0
DICTIONARY
  5
20FC1
102
{ACAD_REACTORS
330
20FC0
102
}
330
20FC0
100
AcDbDictionary
280
     1
281
     1
  3
TEXT
360
20FC2
  0
XRECORD
  5
2125F
102
{ACAD_REACTORS
330
2125E
102
}
330
2125E
100
AcDbXrecord
280
     1
102
SHADEPLOT
 70
     0
  0
XRECORD
  5
21261
102
{ACAD_REACTORS
330
21260
102
}
330
21260
100
AcDbXrecord
280
     1
102
SHADEPLOT
 70
     0
  0
ACDBDETAILVIEWSTYLE
  5
20CB3
102
{ACAD_XDICTIONARY
360
20CB4
102
}
102
{ACAD_REACTORS
330
1B2F0
102
}
330
1B2F0
100
AcDbModelDocViewStyle
 70
     0
  3
Imperial24
290
     0
100
AcDbDetailViewStyle
 70
     0
 71
     0
 90
        3
 71
     1
340
11
 40
0.24
340
0
 40
0.24
300

 40
0.36
280
     3
 71
     2
340
16
 90
       25
 71
     3
340
11
 40
0.24
 90
        1
 40
0.75
 90
        1
300
%<\AcVar ViewType \f "%tc1">% %<\AcVar ViewDetailId>%\PVARIA %<\AcVar ViewScale \f "%sn">%
 71
     4
340
16
 90
       25
340
16
 90
       25
280
     0
  0
ACDBDETAILVIEWSTYLE
  5
1B2F1
102
{ACAD_XDICTIONARY
360
2098E
102
}
102
{ACAD_REACTORS
330
1B2F0
102
}
330
1B2F0
100
AcDbModelDocViewStyle
 70
     0
  3
Metric50
290
     0
100
AcDbDetailViewStyle
 70
     0
 71
     0
 90
        3
 71
     1
340
11
 40
5.0
340
0
 40
5.0
300

 40
0.0
280
     1
 71
     2
340
16
 90
       25
 71
     3
340
11
 40
5.0
 90
        0
 40
15.0
 90
        1
300
%<\AcVar ViewDetailId>% (%<\AcVar ViewScale \f "%sn">%)
 71
     4
340
16
 90
       25
340
16
 90
       25
280
     0
  0
LAYOUT
  5
31A7
102
{ACAD_XDICTIONARY
360
9C07
102
}
102
{ACAD_REACTORS
330
31A5
102
}
330
31A5
100
AcDbPlotSettings
  1

  2
\\ingdc01\ITB3
  4
A4
  6

 40
6.805083274841307
 41
5.027085781097412
 42
6.805068969726562
 43
5.027069091796875
 44
209.9733276367186
 45
296.9683227539062
 46
0.0
 47
0.0
 48
0.0
 49
0.0
140
0.0
141
0.0
142
1.0
143
1.0
 70
   688
 72
     1
 73
     1
 74
     5
  7

 75
    16
147
1.0
148
0.0
149
0.0
100
AcDbLayout
  1
Layout1
 70
     1
 71
     1
 10
-5.027069091796875
 20
-6.805083274841307
 11
291.9412536621094
 21
203.1682443618775
 12
0.0
 22
0.0
 32
0.0
 14
28.69141678810127
 24
19.6363175392151
 34
0.0
 15
258.2227510929107
 25
176.7268578529358
 35
0.0
146
0.0
 13
0.0
 23
0.0
 33
0.0
 16
1.0
 26
0.0
 36
0.0
 17
0.0
 27
1.0
 37
0.0
 76
     0
330
1B
331
9C00
1001
ACAD_PSEXT
1000
\\ingdc01\ITB3
1000
HP LaserJet 5000 Series PCL
1000
TB
1000

1070
     0
  0
LAYOUT
  5
31A6
102
{ACAD_XDICTIONARY
360
2125B
102
}
102
{ACAD_REACTORS
330
31A5
102
}
330
31A5
100
AcDbPlotSettings
  1

  2
\\ingdc01\ITB3
  4
A4
  6

 40
6.805083274841307
 41
5.027085781097412
 42
6.805068969726562
 43
5.027069091796875
 44
209.9733276367186
 45
296.9683227539062
 46
0.0
 47
0.0
 48
0.0
 49
0.0
140
0.0
141
0.0
142
1.0
143
1.500313223655698
 70
 11952
 72
     1
 73
     1
 74
     0
  7

 75
     0
147
0.6665274852163048
148
239.0155119930048
149
102.2558208723354
100
AcDbLayout
  1
Model
 70
     1
 71
     0
 10
0.0
 20
0.0
 11
12.0
 21
9.0
 12
0.0
 22
0.0
 32
0.0
 14
0.0
 24
0.0
 34
0.0
 15
0.0
 25
0.0
 35
0.0
146
0.0
 13
0.0
 23
0.0
 33
0.0
 16
1.0
 26
0.0
 36
0.0
 17
0.0
 27
1.0
 37
0.0
 76
     0
330
1F
331
1F4
1001
ACAD_PSEXT
1000
\\ingdc01\ITB3
1000
HP LaserJet 5000 Series PCL
1000
TB
1000

1070
     0
  0
MATERIAL
  5
318D
102
{ACAD_XDICTIONARY
360
1B22B
102
}
102
{ACAD_REACTORS
330
318B
102
}
330
318B
100
AcDbMaterial
  1
ByBlock
  0
MATERIAL
  5
318C
102
{ACAD_XDICTIONARY
360
1B22D
102
}
102
{ACAD_REACTORS
330
318B
102
}
330
318B
100
AcDbMaterial
  1
ByLayer
  0
MATERIAL
  5
318E
102
{ACAD_XDICTIONARY
360
1B22F
102
}
102
{ACAD_REACTORS
330
318B
102
}
330
318B
100
AcDbMaterial
  1
Global
  0
MLEADERSTYLE
  5
1B2ED
102
{ACAD_REACTORS
330
1B221
102
}
330
1B221
100
AcDbMLeaderStyle
170
     2
171
     1
172
     0
 90
        2
 40
0.0
 41
0.0
173
     1
 91
-1056964608
340
14
 92
       -2
290
     1
 42
2.0
291
     1
 43
0.36
  3
Standard
 44
4.0
300

342
11
174
     1
178
     6
175
     1
176
     0
 93
-1056964608
 45
4.0
292
     0
297
     0
 46
4.0
 94
-1056964608
 47
1.0
 49
1.0
140
1.0
293
     1
141
0.0
294
     1
177
     0
142
1.0
295
     0
296
     0
143
0.125
1001
ACAD_MLEADERVER
1070
     2
  0
MLINESTYLE
  5
3185
102
{ACAD_REACTORS
330
3184
102
}
330
3184
100
AcDbMlineStyle
  2
STANDARD
 70
     0
  3

 62
   256
 51
90.0
 52
90.0
 71
     2
 49
0.5
 62
   256
  6
BYLAYER
 49
-0.5
 62
   256
  6
BYLAYER
  0
ACDBPLACEHOLDER
  5
318A
102
{ACAD_REACTORS
330
3189
102
}
330
3189
  0
SCALE
  5
1B1FD
102
{ACAD_REACTORS
330
1B1FC
102
}
330
1B1FC
100
AcDbScale
 70
     0
300
1:1
140
1.0
141
1.0
290
     1
1001
ACAD
1000
AcRTDxfName
1000
SCALE
  0
SCALE
  5
1B1FE
102
{ACAD_REACTORS
330
1B1FC
102
}
330
1B1FC
100
AcDbScale
 70
     0
300
1:2
140
1.0
141
2.0
290
     0
1001
ACAD
1000
AcRTDxfName
1000
SCALE
  0
SCALE
  5
1B1FF
102
{ACAD_REACTORS
330
1B1FC
102
}
330
1B1FC
100
AcDbScale
 70
     0
300
1:4
140
1.0
141
4.0
290
     0
1001
ACAD
1000
AcRTDxfName
1000
SCALE
  0
SCALE
  5
1B200
102
{ACAD_REACTORS
330
1B1FC
102
}
330
1B1FC
100
AcDbScale
 70
     0
300
1:5
140
1.0
141
5.0
290
     0
1001
ACAD
1000
AcRTDxfName
1000
SCALE
  0
SCALE
  5
1B201
102
{ACAD_REACTORS
330
1B1FC
102
}
330
1B1FC
100
AcDbScale
 70
     0
300
1:8
140
1.0
141
8.0
290
     0
1001
ACAD
1000
AcRTDxfName
1000
SCALE
  0
SCALE
  5
1B202
102
{ACAD_REACTORS
330
1B1FC
102
}
330
1B1FC
100
AcDbScale
 70
     0
300
1:10
140
1.0
141
10.0
290
     0
1001
ACAD
1000
AcRTDxfName
1000
SCALE
  0
SCALE
  5
1B203
102
{ACAD_REACTORS
330
1B1FC
102
}
330
1B1FC
100
AcDbScale
 70
     0
300
1:16
140
1.0
141
16.0
290
     0
1001
ACAD
1000
AcRTDxfName
1000
SCALE
  0
SCALE
  5
1B204
102
{ACAD_REACTORS
330
1B1FC
102
}
330
1B1FC
100
AcDbScale
 70
     0
300
1:20
140
1.0
141
20.0
290
     0
1001
ACAD
1000
AcRTDxfName
1000
SCALE
  0
SCALE
  5
1B205
102
{ACAD_REACTORS
330
1B1FC
102
}
330
1B1FC
100
AcDbScale
 70
     0
300
1:30
140
1.0
141
30.0
290
     0
1001
ACAD
1000
AcRTDxfName
1000
SCALE
  0
SCALE
  5
1B206
102
{ACAD_REACTORS
330
1B1FC
102
}
330
1B1FC
100
AcDbScale
 70
     0
300
1:40
140
1.0
141
40.0
290
     0
1001
ACAD
1000
AcRTDxfName
1000
SCALE
  0
SCALE
  5
1B207
102
{ACAD_REACTORS
330
1B1FC
102
}
330
1B1FC
100
AcDbScale
 70
     0
300
1:50
140
1.0
141
50.0
290
     0
1001
ACAD
1000
AcRTDxfName
1000
SCALE
  0
SCALE
  5
1B208
102
{ACAD_REACTORS
330
1B1FC
102
}
330
1B1FC
100
AcDbScale
 70
     0
300
1:100
140
1.0
141
100.0
290
     0
1001
ACAD
1000
AcRTDxfName
1000
SCALE
  0
SCALE
  5
1B209
102
{ACAD_REACTORS
330
1B1FC
102
}
330
1B1FC
100
AcDbScale
 70
     0
300
2:1
140
2.0
141
1.0
290
     0
1001
ACAD
1000
AcRTDxfName
1000
SCALE
  0
SCALE
  5
1B20A
102
{ACAD_REACTORS
330
1B1FC
102
}
330
1B1FC
100
AcDbScale
 70
     0
300
4:1
140
4.0
141
1.0
290
     0
1001
ACAD
1000
AcRTDxfName
1000
SCALE
  0
SCALE
  5
1B20B
102
{ACAD_REACTORS
330
1B1FC
102
}
330
1B1FC
100
AcDbScale
 70
     0
300
8:1
140
8.0
141
1.0
290
     0
1001
ACAD
1000
AcRTDxfName
1000
SCALE
  0
SCALE
  5
1B20C
102
{ACAD_REACTORS
330
1B1FC
102
}
330
1B1FC
100
AcDbScale
 70
     0
300
10:1
140
10.0
141
1.0
290
     0
1001
ACAD
1000
AcRTDxfName
1000
SCALE
  0
SCALE
  5
1B20D
102
{ACAD_REACTORS
330
1B1FC
102
}
330
1B1FC
100
AcDbScale
 70
     0
300
100:1
140
100.0
141
1.0
290
     0
1001
ACAD
1000
AcRTDxfName
1000
SCALE
  0
SCALE
  5
1B20E
102
{ACAD_REACTORS
330
1B1FC
102
}
330
1B1FC
100
AcDbScale
 70
     0
300
1/128" = 1'-0"
140
0.0078125
141
12.0
290
     0
1001
ACAD
1000
AcRTDxfName
1000
SCALE
  0
SCALE
  5
1B20F
102
{ACAD_REACTORS
330
1B1FC
102
}
330
1B1FC
100
AcDbScale
 70
     0
300
1/64" = 1'-0"
140
0.015625
141
12.0
290
     0
1001
ACAD
1000
AcRTDxfName
1000
SCALE
  0
SCALE
  5
1B210
102
{ACAD_REACTORS
330
1B1FC
102
}
330
1B1FC
100
AcDbScale
 70
     0
300
1/32" = 1'-0"
140
0.03125
141
12.0
290
     0
1001
ACAD
1000
AcRTDxfName
1000
SCALE
  0
SCALE
  5
1B211
102
{ACAD_REACTORS
330
1B1FC
102
}
330
1B1FC
100
AcDbScale
 70
     0
300
1/16" = 1'-0"
140
0.0625
141
12.0
290
     0
1001
ACAD
1000
AcRTDxfName
1000
SCALE
  0
SCALE
  5
1B212
102
{ACAD_REACTORS
330
1B1FC
102
}
330
1B1FC
100
AcDbScale
 70
     0
300
3/32" = 1'-0"
140
0.09375
141
12.0
290
     0
1001
ACAD
1000
AcRTDxfName
1000
SCALE
  0
SCALE
  5
1B213
102
{ACAD_REACTORS
330
1B1FC
102
}
330
1B1FC
100
AcDbScale
 70
     0
300
1/8" = 1'-0"
140
0.125
141
12.0
290
     0
1001
ACAD
1000
AcRTDxfName
1000
SCALE
  0
SCALE
  5
1B214
102
{ACAD_REACTORS
330
1B1FC
102
}
330
1B1FC
100
AcDbScale
 70
     0
300
3/16" = 1'-0"
140
0.1875
141
12.0
290
     0
1001
ACAD
1000
AcRTDxfName
1000
SCALE
  0
SCALE
  5
1B215
102
{ACAD_REACTORS
330
1B1FC
102
}
330
1B1FC
100
AcDbScale
 70
     0
300
1/4" = 1'-0"
140
0.25
141
12.0
290
     0
1001
ACAD
1000
AcRTDxfName
1000
SCALE
  0
SCALE
  5
1B216
102
{ACAD_REACTORS
330
1B1FC
102
}
330
1B1FC
100
AcDbScale
 70
     0
300
3/8" = 1'-0"
140
0.375
141
12.0
290
     0
1001
ACAD
1000
AcRTDxfName
1000
SCALE
  0
SCALE
  5
1B217
102
{ACAD_REACTORS
330
1B1FC
102
}
330
1B1FC
100
AcDbScale
 70
     0
300
1/2" = 1'-0"
140
0.5
141
12.0
290
     0
1001
ACAD
1000
AcRTDxfName
1000
SCALE
  0
SCALE
  5
1B218
102
{ACAD_REACTORS
330
1B1FC
102
}
330
1B1FC
100
AcDbScale
 70
     0
300
3/4" = 1'-0"
140
0.75
141
12.0
290
     0
1001
ACAD
1000
AcRTDxfName
1000
SCALE
  0
SCALE
  5
1B219
102
{ACAD_REACTORS
330
1B1FC
102
}
330
1B1FC
100
AcDbScale
 70
     0
300
1" = 1'-0"
140
1.0
141
12.0
290
     0
1001
ACAD
1000
AcRTDxfName
1000
SCALE
  0
SCALE
  5
1B21A
102
{ACAD_REACTORS
330
1B1FC
102
}
330
1B1FC
100
AcDbScale
 70
     0
300
1-1/2" = 1'-0"
140
1.5
141
12.0
290
     0
1001
ACAD
1000
AcRTDxfName
1000
SCALE
  0
SCALE
  5
1B21B
102
{ACAD_REACTORS
330
1B1FC
102
}
330
1B1FC
100
AcDbScale
 70
     0
300
3" = 1'-0"
140
3.0
141
12.0
290
     0
1001
ACAD
1000
AcRTDxfName
1000
SCALE
  0
SCALE
  5
1B21C
102
{ACAD_REACTORS
330
1B1FC
102
}
330
1B1FC
100
AcDbScale
 70
     0
300
6" = 1'-0"
140
6.0
141
12.0
290
     0
1001
ACAD
1000
AcRTDxfName
1000
SCALE
  0
SCALE
  5
1B21D
102
{ACAD_REACTORS
330
1B1FC
102
}
330
1B1FC
100
AcDbScale
 70
     0
300
1'-0" = 1'-0"
140
12.0
141
12.0
290
     0
1001
ACAD
1000
AcRTDxfName
1000
SCALE
  0
ACDBSECTIONVIEWSTYLE
  5
20CB1
102
{ACAD_XDICTIONARY
360
20CB2
102
}
102
{ACAD_REACTORS
330
1B2EE
102
}
330
1B2EE
100
AcDbModelDocViewStyle
 70
     0
  3
Imperial24
290
     0
100
AcDbSectionViewStyle
 70
     0
 71
     0
 90
       78
 71
     1
340
11
 40
0.24
340
0
340
0
 40
0.24
300
I, O, Q, S, X, Z
 40
0.48
 90
        3
 40
0.18
 90
        1
 71
     2
340
16
 90
       25
340
16
 90
       50
 40
0.24
 40
0.0
 40
0.24
 71
     3
340
11
 40
0.24
 90
        1
 40
0.75
 90
        1
300
%<\AcVar ViewType \f "%tc1">% %<\AcVar ViewSectionStartId>%-%<\AcVar ViewSectionEndId>%\PVARIA %<\AcVar ViewScale \f "%sn">%
 71
     4
300
ANSI31
 40
1.0
 90
        0
290
     0
290
     0
 90
        6
 40
0.0
 40
1.570796326794896
 40
0.2617993877991494
 40
1.308996938995747
 40
-0.2617993877991494
 40
1.832595714594046
  0
ACDBSECTIONVIEWSTYLE
  5
1B2EF
102
{ACAD_XDICTIONARY
360
2098C
102
}
102
{ACAD_REACTORS
330
1B2EE
102
}
330
1B2EE
100
AcDbModelDocViewStyle
 70
     0
  3
Metric50
290
     0
100
AcDbSectionViewStyle
 70
     0
 71
     0
 90
      102
 71
     1
340
11
 40
5.0
340
0
340
0
 40
5.0
300
I, O, Q, S, X, Z
 40
10.0
 90
        0
 40
2.5
 90
        0
 71
     2
340
16
 90
       25
340
16
 90
       50
 40
5.0
 40
2.5
 40
5.0
 71
     3
340
11
 40
5.0
 90
        0
 40
15.0
 90
        1
300
%<\AcVar ViewSectionStartId>%-%<\AcVar ViewSectionEndId>% (%<\AcVar ViewScale \f "%sn">%)
 71
     4
300
ANSI31
 40
1.0
 90
        0
290
     0
290
     0
 90
        6
 40
0.0
 40
1.570796326794896
 40
0.2617993877991494
 40
1.308996938995747
 40
-0.2617993877991494
 40
1.832595714594044
  0
TABLESTYLE
  5
31A2
102
{ACAD_XDICTIONARY
360
1B314
102
}
102
{ACAD_REACTORS
330
31A1
102
}
330
31A1
100
AcDbTableStyle
  3
Standard
 70
     0
 71
     0
 40
1.5
 41
1.5
280
     0
281
     0
  7
STANDARD
140
4.5
170
     2
 62
     0
 63
     7
283
     0
274
    -2
284
     1
 64
     0
275
    -2
285
     1
 65
     0
276
    -2
286
     1
 66
     0
277
    -2
287
     1
 67
     0
278
    -2
288
     1
 68
     0
279
    -2
289
     1
 69
     0
  7
STANDARD
140
6.0
170
     5
 62
     0
 63
     7
283
     0
274
    -2
284
     1
 64
     0
275
    -2
285
     1
 65
     0
276
    -2
286
     1
 66
     0
277
    -2
287
     1
 67
     0
278
    -2
288
     1
 68
     0
279
    -2
289
     1
 69
     0
  7
STANDARD
140
4.5
170
     5
 62
     0
 63
     7
283
     0
274
    -2
284
     1
 64
     0
275
    -2
285
     1
 65
     0
276
    -2
286
     1
 66
     0
277
    -2
287
     1
 67
     0
278
    -2
288
     1
 68
     0
279
    -2
289
     1
 69
     0
  0
VISUALSTYLE
  5
3195
102
{ACAD_XDICTIONARY
360
21244
102
}
102
{ACAD_REACTORS
330
318F
102
}
330
318F
100
AcDbVisualStyle
  2

 70
     4
 71
     0
 72
     2
 73
     0
 90
        0
 40
-0.6
 41
-30.0
 62
     5
 63
     7
 74
     1
 91
        4
 64
     7
 65
   257
 75
     1
175
     1
 42
1.0
 92
        0
 66
   257
 43
1.0
 76
     1
 77
     6
 78
     2
 67
     7
 79
     5
170
     0
171
     0
290
     0
174
     0
 93
        1
 44
0.0
173
     0
291
     0
 45
0.0
1001
ACAD
1000
AcDbSavedByObjectVersion
1070
     0
  0
VISUALSTYLE
  5
3197
102
{ACAD_XDICTIONARY
360
21248
102
}
102
{ACAD_REACTORS
330
318F
102
}
330
318F
100
AcDbVisualStyle
  2

 70
     6
 71
     1
 72
     2
 73
     2
 90
        0
 40
-0.6
 41
-30.0
 62
     5
 63
     7
 74
     2
 91
        2
 64
     7
 65
   257
 75
     2
175
     1
 42
40.0
 92
        0
 66
   257
 43
1.0
 76
     1
 77
     6
 78
     2
 67
     7
 79
     3
170
     0
171
     0
290
     0
174
     0
 93
        1
 44
0.0
173
     0
291
     0
 45
0.0
1001
ACAD
1000
AcDbSavedByObjectVersion
1070
     0
  0
VISUALSTYLE
  5
3196
102
{ACAD_XDICTIONARY
360
21246
102
}
102
{ACAD_REACTORS
330
318F
102
}
330
318F
100
AcDbVisualStyle
  2

 70
     5
 71
     0
 72
     2
 73
     0
 90
        0
 40
-0.6
 41
-30.0
 62
     5
 63
     7
 74
     1
 91
        4
 64
     7
 65
   257
 75
     1
175
     1
 42
1.0
 92
        0
 66
   257
 43
1.0
 76
     1
 77
     6
 78
     2
 67
     7
 79
     5
170
     0
171
     0
290
     0
174
     0
 93
        1
 44
0.0
173
     0
291
     0
 45
0.0
1001
ACAD
1000
AcDbSavedByObjectVersion
1070
     0
  0
VISUALSTYLE
  5
3194
102
{ACAD_XDICTIONARY
360
21242
102
}
102
{ACAD_REACTORS
330
318F
102
}
330
318F
100
AcDbVisualStyle
  2

 70
     7
 71
     1
 72
     0
 73
     1
 90
        0
 40
-0.6
 41
-30.0
 62
     5
 63
     7
 74
     0
 91
        4
 64
     7
 65
   257
 75
     1
175
     1
 42
1.0
 92
        8
 66
     7
 43
1.0
 76
     1
 77
     6
 78
     2
 67
     7
 79
     5
170
     0
171
     0
290
     0
174
     0
 93
        1
 44
0.0
173
     0
291
     1
 45
0.0
1001
ACAD
1000
AcDbSavedByObjectVersion
1070
     0
  0
VISUALSTYLE
  5
319B
102
{ACAD_XDICTIONARY
360
21250
102
}
102
{ACAD_REACTORS
330
318F
102
}
330
318F
100
AcDbVisualStyle
  2

 70
    12
 71
     2
 72
     2
 73
     0
 90
        0
 40
-0.6
 41
-30.0
 62
     5
 63
     7
 74
     1
 91
        4
 64
     7
 65
   257
 75
     1
175
     1
 42
1.0
 92
        8
 66
     7
 43
1.0
 76
     1
 77
     6
 78
     2
 67
     7
 79
     5
170
     0
171
     0
290
     0
174
     0
 93
        1
 44
50.0
173
     0
291
     1
 45
0.0
1001
ACAD
1000
AcDbSavedByObjectVersion
1070
     0
  0
VISUALSTYLE
  5
319F
102
{ACAD_XDICTIONARY
360
21258
102
}
102
{ACAD_REACTORS
330
318F
102
}
330
318F
100
AcDbVisualStyle
  2

 70
    16
 71
     2
 72
     2
 73
     3
 90
        0
 40
-0.6
 41
-30.0
 62
     5
 63
     8
 74
     1
 91
        4
 64
     7
 65
   257
 75
     1
175
     1
 42
1.0
 92
        8
 66
     8
 43
1.0
 76
     1
 77
     6
 78
     2
 67
     7
 79
     5
170
     0
171
     0
290
     0
174
     0
 93
        1
 44
0.0
173
     0
291
     1
 45
0.0
1001
ACAD
1000
AcDbSavedByObjectVersion
1070
     0
  0
VISUALSTYLE
  5
3198
102
{ACAD_XDICTIONARY
360
2124A
102
}
102
{ACAD_REACTORS
330
318F
102
}
330
318F
100
AcDbVisualStyle
  2

 70
     9
 71
     3
 72
     2
 73
     0
 90
        0
 40
-0.6
 41
-30.0
 62
     5
 63
     7
 74
     2
 91
        2
 64
     7
 65
   257
 75
     1
175
     1
 42
40.0
 92
        8
 66
     7
 43
1.0
 76
     1
 77
     6
 78
     2
 67
     7
 79
     3
170
     0
171
     0
290
     0
174
     0
 93
        1
 44
0.0
173
     0
291
     0
 45
0.0
1001
ACAD
1000
AcDbSavedByObjectVersion
1070
     0
  0
VISUALSTYLE
  5
319A
102
{ACAD_XDICTIONARY
360
2124E
102
}
102
{ACAD_REACTORS
330
318F
102
}
330
318F
100
AcDbVisualStyle
  2

 70
    11
 71
     2
 72
     2
 73
     0
 90
        0
 40
-0.6
 41
-30.0
 62
     5
 63
     7
 74
     1
 91
        4
 64
     7
 65
   257
 75
     1
175
     1
 42
1.0
 92
        8
 66
     7
 43
1.0
 76
     1
 77
     6
 78
     2
 67
     7
 79
     5
170
     0
171
     0
290
     0
174
     0
 93
        1
 44
-50.0
173
     0
291
     1
 45
0.0
1001
ACAD
1000
AcDbSavedByObjectVersion
1070
     0
  0
VISUALSTYLE
  5
1B2EC
102
{ACAD_XDICTIONARY
360
21274
102
}
102
{ACAD_REACTORS
330
318F
102
}
330
318F
100
AcDbVisualStyle
  2

 70
    22
 71
     2
 72
     2
 73
     0
 90
        0
 40
-0.6
 41
-30.0
 62
     5
 63
     7
 74
     1
 91
        4
 64
     7
 65
   257
 75
     1
175
     1
 42
1.0
 92
        8
 66
     7
 43
1.0
 76
     1
 77
     6
 78
     2
 67
     7
 79
     5
170
     0
171
     0
290
     0
174
     0
 93
        1
 44
0.0
173
     0
291
     1
 45
0.0
1001
ACAD
1000
AcDbSavedByObjectVersion
1070
     0
  0
VISUALSTYLE
  5
319E
102
{ACAD_XDICTIONARY
360
21256
102
}
102
{ACAD_REACTORS
330
318F
102
}
330
318F
100
AcDbVisualStyle
  2

 70
    15
 71
     2
 72
     2
 73
     0
 90
        0
 40
-0.6
 41
-30.0
 62
     5
 63
     7
 74
     1
 91
        4
 64
     7
 65
   257
 75
     1
175
     1
 42
1.0
 92
        8
 66
     7
 43
1.0
 76
     1
 77
     6
 78
     2
 67
     7
 79
     5
170
     0
171
     0
290
     0
174
     0
 93
        1
 44
0.0
173
     0
291
     1
 45
0.0
1001
ACAD
1000
AcDbSavedByObjectVersion
1070
     0
  0
VISUALSTYLE
  5
3190
102
{ACAD_XDICTIONARY
360
2123A
102
}
102
{ACAD_REACTORS
330
318F
102
}
330
318F
100
AcDbVisualStyle
  2

 70
     0
 71
     2
 72
     1
 73
     1
 90
        2
 40
-0.6
 41
30.0
 62
     5
 63
     7
 74
     0
 91
        4
 64
     7
 65
   257
 75
     1
175
     1
 42
1.0
 92
        8
 66
     7
 43
1.0
 76
     1
 77
     6
 78
     2
 67
     7
 79
     5
170
     0
171
     0
290
     0
174
     0
 93
       13
 44
0.0
173
     0
291
     1
 45
0.0
1001
ACAD
1000
AcDbSavedByObjectVersion
1070
     0
  0
VISUALSTYLE
  5
3191
102
{ACAD_XDICTIONARY
360
2123C
102
}
102
{ACAD_REACTORS
330
318F
102
}
330
318F
100
AcDbVisualStyle
  2

 70
     1
 71
     2
 72
     1
 73
     1
 90
        2
 40
-0.6
 41
30.0
 62
     5
 63
     7
 74
     1
 91
        4
 64
     7
 65
   257
 75
     1
175
     1
 42
1.0
 92
        0
 66
   257
 43
1.0
 76
     1
 77
     6
 78
     2
 67
     7
 79
     5
170
     0
171
     0
290
     0
174
     0
 93
       13
 44
0.0
173
     0
291
     1
 45
0.0
1001
ACAD
1000
AcDbSavedByObjectVersion
1070
     0
  0
VISUALSTYLE
  5
3192
102
{ACAD_XDICTIONARY
360
2123E
102
}
102
{ACAD_REACTORS
330
318F
102
}
330
318F
100
AcDbVisualStyle
  2

 70
     2
 71
     2
 72
     2
 73
     1
 90
        2
 40
-0.6
 41
30.0
 62
     5
 63
     7
 74
     0
 91
        4
 64
     7
 65
   257
 75
     1
175
     1
 42
1.0
 92
        0
 66
     7
 43
1.0
 76
     1
 77
     6
 78
     2
 67
     7
 79
     5
170
     0
171
     0
290
     0
174
     0
 93
       13
 44
0.0
173
     0
291
     1
 45
0.0
1001
ACAD
1000
AcDbSavedByObjectVersion
1070
     0
  0
VISUALSTYLE
  5
3193
102
{ACAD_XDICTIONARY
360
21240
102
}
102
{ACAD_REACTORS
330
318F
102
}
330
318F
100
AcDbVisualStyle
  2

 70
     3
 71
     2
 72
     2
 73
     1
 90
        2
 40
-0.6
 41
30.0
 62
     5
 63
     7
 74
     1
 91
        4
 64
     7
 65
   257
 75
     1
175
     1
 42
1.0
 92
        0
 66
   257
 43
1.0
 76
     1
 77
     6
 78
     2
 67
     7
 79
     5
170
     0
171
     0
290
     0
174
     0
 93
       13
 44
0.0
173
     0
291
     1
 45
0.0
1001
ACAD
1000
AcDbSavedByObjectVersion
1070
     0
  0
VISUALSTYLE
  5
1B2E4
102
{ACAD_XDICTIONARY
360
21264
102
}
102
{ACAD_REACTORS
330
318F
102
}
330
318F
100
AcDbVisualStyle
  2

 70
     6
 71
     1
 72
     2
 73
     2
 90
        0
 40
-0.6
 41
-30.0
 62
     5
 63
     7
 74
     2
 91
        2
 64
     7
 65
   257
 75
     2
175
     1
 42
40.0
 92
        0
 66
   257
 43
1.0
 76
     1
 77
     6
 78
     2
 67
     7
 79
     3
170
     0
171
     0
290
     0
174
     0
 93
        1
 44
0.0
173
     0
291
     0
 45
0.0
1001
ACAD
1000
AcDbSavedByObjectVersion
1070
     0
  0
VISUALSTYLE
  5
1B2EA
102
{ACAD_XDICTIONARY
360
21270
102
}
102
{ACAD_REACTORS
330
318F
102
}
330
318F
100
AcDbVisualStyle
  2

 70
    20
 71
     2
 72
     2
 73
     0
 90
        0
 40
-0.6
 41
-30.0
 62
     5
 63
     7
 74
     1
 91
        4
 64
     7
 65
   257
 75
     1
175
     1
 42
1.0
 92
       10
 66
     7
 43
1.0
 76
     1
 77
     6
 78
     2
 67
     7
 79
     5
170
     0
171
     0
290
     0
174
     0
 93
        1
 44
0.0
173
     0
291
     1
 45
0.0
1001
ACAD
1000
AcDbSavedByObjectVersion
1070
     0
  0
VISUALSTYLE
  5
319D
102
{ACAD_XDICTIONARY
360
21254
102
}
102
{ACAD_REACTORS
330
318F
102
}
330
318F
100
AcDbVisualStyle
  2

 70
    14
 71
     2
 72
     2
 73
     0
 90
        0
 40
-0.6
 41
-30.0
 62
     5
 63
     7
 74
     1
 91
        4
 64
     7
 65
   257
 75
     7
175
     7
 42
1.0
 92
        8
 66
     7
 43
1.0
 76
     1
 77
     6
 78
     2
 67
     7
 79
     5
170
     0
171
     0
290
     0
174
     0
 93
        1
 44
0.0
173
     0
291
     1
 45
0.0
1001
ACAD
1000
AcDbSavedByObjectVersion
1070
     0
  0
VISUALSTYLE
  5
1B2EB
102
{ACAD_XDICTIONARY
360
21272
102
}
102
{ACAD_REACTORS
330
318F
102
}
330
318F
100
AcDbVisualStyle
  2

 70
    21
 71
     2
 72
     2
 73
     0
 90
        0
 40
-0.6
 41
-30.0
 62
     5
 63
     7
 74
     1
 91
        4
 64
     7
 65
   257
 75
     1
175
     1
 42
1.0
 92
        9
 66
     7
 43
1.0
 76
     1
 77
     6
 78
     2
 67
     7
 79
     5
170
     0
171
     0
290
     0
174
     0
 93
        1
 44
0.0
173
     0
291
     1
 45
0.0
1001
ACAD
1000
AcDbSavedByObjectVersion
1070
     0
  0
VISUALSTYLE
  5
3199
102
{ACAD_XDICTIONARY
360
2124C
102
}
102
{ACAD_REACTORS
330
318F
102
}
330
318F
100
AcDbVisualStyle
  2

 70
     8
 71
     2
 72
     2
 73
     0
 90
        0
 40
-0.6
 41
-30.0
 62
     5
 63
     7
 74
     1
 91
        0
 64
     7
 65
   257
 75
     1
175
     1
 42
1.0
 92
        8
 66
     8
 43
1.0
 76
     1
 77
     6
 78
     2
 67
     7
 79
     5
170
     0
171
     0
290
     0
174
     0
 93
       13
 44
0.0
173
     0
291
     0
 45
0.0
1001
ACAD
1000
AcDbSavedByObjectVersion
1070
     0
  0
VISUALSTYLE
  5
1B2E9
102
{ACAD_XDICTIONARY
360
2126E
102
}
102
{ACAD_REACTORS
330
318F
102
}
330
318F
100
AcDbVisualStyle
  2

 70
    27
 71
     2
 72
     2
 73
     1
 90
        2
 40
-0.6
 41
30.0
 62
     5
 63
     7
 74
     0
 91
        4
 64
     7
 65
   257
 75
     1
175
     1
 42
1.0
 92
        8
 66
   257
 43
1.0
 76
     1
 77
     6
 78
     2
 67
     8
 79
     3
170
     0
171
     0
290
     0
174
     0
 93
        5
 44
0.0
173
     0
291
     0
 45
0.0
1001
ACAD
1000
AcDbSavedByObjectVersion
1070
     0
  0
VISUALSTYLE
  5
1B2E8
102
{ACAD_XDICTIONARY
360
2126C
102
}
102
{ACAD_REACTORS
330
318F
102
}
330
318F
100
AcDbVisualStyle
  2

 70
    26
 71
     2
 72
     2
 73
     1
 90
        2
 40
-0.6
 41
30.0
 62
     5
 63
     7
 74
     1
 91
       10
 64
     7
 65
   257
 75
     2
175
     1
 42
1.0
 92
        8
 66
   257
 43
1.0
 76
     1
 77
     6
 78
     2
 67
     7
 79
     3
170
     0
171
     0
290
     0
174
     0
 93
        5
 44
0.0
173
     0
291
     0
 45
0.0
1001
ACAD
1000
AcDbSavedByObjectVersion
1070
     0
  0
VISUALSTYLE
  5
1B2E5
102
{ACAD_XDICTIONARY
360
21266
102
}
102
{ACAD_REACTORS
330
318F
102
}
330
318F
100
AcDbVisualStyle
  2

 70
    23
 71
     2
 72
     2
 73
     3
 90
        0
 40
-0.6
 41
-30.0
 62
     5
 63
     7
 74
     2
 91
        2
 64
     7
 65
     7
 75
     1
175
     1
 42
40.0
 92
        8
 66
     7
 43
1.0
 76
     1
 77
     6
 78
     2
 67
     7
 79
     3
170
     0
171
     0
290
     0
174
     0
 93
        1
 44
0.0
173
     0
291
     0
 45
0.0
1001
ACAD
1000
AcDbSavedByObjectVersion
1070
     0
  0
VISUALSTYLE
  5
1B2E6
102
{ACAD_XDICTIONARY
360
21268
102
}
102
{ACAD_REACTORS
330
318F
102
}
330
318F
100
AcDbVisualStyle
  2

 70
    24
 71
     1
 72
     2
 73
     2
 90
        0
 40
-0.6
 41
-30.0
 62
     5
 63
     7
 74
     2
 91
        2
 64
     7
 65
     7
 75
     1
175
     1
 42
40.0
 92
       11
 66
     7
 43
1.0
 76
     1
 77
     6
 78
     2
 67
     7
 79
     6
170
     0
171
     0
290
     0
174
     0
 93
        1
 44
0.0
173
     0
291
     0
 45
0.0
1001
ACAD
1000
AcDbSavedByObjectVersion
1070
     0
  0
VISUALSTYLE
  5
319C
102
{ACAD_XDICTIONARY
360
21252
102
}
102
{ACAD_REACTORS
330
318F
102
}
330
318F
100
AcDbVisualStyle
  2

 70
    13
 71
     2
 72
     2
 73
     0
 90
        0
 40
-0.6
 41
-30.0
 62
     5
 63
     7
 74
     1
 91
        4
 64
     7
 65
   257
 75
     1
175
     1
 42
1.0
 92
       12
 66
     7
 43
1.0
 76
     1
 77
     6
 78
     2
 67
     7
 79
     5
170
     0
171
     0
290
     0
174
     0
 93
        1
 44
0.0
173
     0
291
     1
 45
0.0
1001
ACAD
1000
AcDbSavedByObjectVersion
1070
     0
  0
VISUALSTYLE
  5
1B2E3
102
{ACAD_XDICTIONARY
360
21262
102
}
102
{ACAD_REACTORS
330
318F
102
}
330
318F
100
AcDbVisualStyle
  2

 70
     5
 71
     0
 72
     2
 73
     0
 90
        0
 40
-0.6
 41
-30.0
 62
     5
 63
     7
 74
     1
 91
        4
 64
     7
 65
   257
 75
     1
175
     1
 42
1.0
 92
        0
 66
   257
 43
1.0
 76
     1
 77
     6
 78
     2
 67
     7
 79
     3
170
     0
171
     0
290
     0
174
     0
 93
        1
 44
0.0
173
     0
291
     0
 45
0.0
1001
ACAD
1000
AcDbSavedByObjectVersion
1070
     0
  0
VISUALSTYLE
  5
1B2E7
102
{ACAD_XDICTIONARY
360
2126A
102
}
102
{ACAD_REACTORS
330
318F
102
}
330
318F
100
AcDbVisualStyle
  2

 70
    25
 71
     2
 72
     2
 73
     1
 90
        1
 40
0.5
 41
-30.0
 62
     5
 63
     7
 74
     1
 91
        0
 64
     7
 65
   257
 75
     1
175
     1
 42
1.0
 92
        8
 66
     7
 43
1.0
 76
     1
 77
     6
 78
     2
 67
     7
 79
     3
170
     0
171
     0
290
     0
174
     0
 93
       13
 44
0.0
173
     0
291
     0
 45
0.0
1001
ACAD
1000
AcDbSavedByObjectVersion
1070
     0
  0
DICTIONARYVAR
  5
1B222
102
{ACAD_REACTORS
330
33A3
102
}
330
33A3
100
DictionaryVariables
280
     0
  1
1:1
  0
DICTIONARYVAR
  5
1B30F
102
{ACAD_REACTORS
330
33A3
102
}
330
33A3
100
DictionaryVariables
280
     0
  1
STANDARD
  0
DICTIONARYVAR
  5
33A4
102
{ACAD_REACTORS
330
33A3
102
}
330
33A3
100
DictionaryVariables
280
     0
  1
STANDARD
  0
DICTIONARYVAR
  5
1B310
102
{ACAD_REACTORS
330
33A3
102
}
330
33A3
100
DictionaryVariables
280
     0
  1
Metric50
  0
DICTIONARYVAR
  5
1B311
102
{ACAD_REACTORS
330
33A3
102
}
330
33A3
100
DictionaryVariables
280
     0
  1
Metric50
  0
DICTIONARYVAR
  5
9BE8
102
{ACAD_REACTORS
330
33A3
102
}
330
33A3
100
DictionaryVariables
280
     0
  1
1
  0
DICTIONARYVAR
  5
9BE7
102
{ACAD_REACTORS
330
33A3
102
}
330
33A3
100
DictionaryVariables
280
     0
  1
0
  0
DICTIONARYVAR
  5
20993
102
{ACAD_REACTORS
330
33A3
102
}
330
33A3
100
DictionaryVariables
280
     0
  1
1
  0
DICTIONARYVAR
  5
20994
102
{ACAD_REACTORS
330
33A3
102
}
330
33A3
100
DictionaryVariables
280
     0
  1
15
  0
DICTIONARYVAR
  5
20992
102
{ACAD_REACTORS
330
33A3
102
}
330
33A3
100
DictionaryVariables
280
     0
  1
0
  0
DICTIONARYVAR
  5
20991
102
{ACAD_REACTORS
330
33A3
102
}
330
33A3
100
DictionaryVariables
280
     0
  1
0
  0
DICTIONARYVAR
  5
9BE6
102
{ACAD_REACTORS
330
33A3
102
}
330
33A3
100
DictionaryVariables
280
     0
  1
127
  0
DICTIONARYVAR
  5
1FAAB
102
{ACAD_REACTORS
330
33A3
102
}
330
33A3
100
DictionaryVariables
280
     0
  1
2
  0
DICTIONARY
  5
21239
102
{ACAD_REACTORS
330
21237
102
}
330
21237
100
AcDbDictionary
281
     1
  0
DICTIONARY
  5
21238
102
{ACAD_REACTORS
330
21237
102
}
330
21237
100
AcDbDictionary
281
     1
  3
8796087257760
350
21232
  3
8796087257776
350
21233
  3
8796087257792
350
21234
  3
8796087257808
350
21235
  3
8796087257824
350
21236
  0
XRECORD
  5
21279
102
{ACAD_REACTORS
330
21278
102
}
330
21278
100
AcDbXrecord
280
     1
1070
     0
1070
     1
1070
     1
  0
XRECORD
  5
2127D
102
{ACAD_REACTORS
330
2127C
102
}
330
2127C
100
AcDbXrecord
280
     1
1070
     0
1070
     1
1070
     1
  0
FIELD
  5
20CAB
102
{ACAD_REACTORS
330
20CAA
102
}
330
20CAA
100
AcDbField
  1
_text
  2
%<\_FldIdx 0>%
 90
        1
360
20CAC
 97
        0
  4

 91
       63
 92
        0
 94
        9
 95
        2
 96
        0
300

 93
        2
  6
ACFD_FIELDTEXT_ATTDEF
 90
        1
 91
        1
  6
ACFD_FIELDTEXT_CHECKSUM
 90
        2
140
7993.0
  7
ACFD_FIELD_VALUE
 90
        0
 91
        0
301

 98
        0
  0
FIELD
  5
20FC2
102
{ACAD_REACTORS
330
20FC1
102
}
330
20FC1
100
AcDbField
  1
_text
  2
%<\_FldIdx 0>%
 90
        1
360
20FC3
 97
        0
  4

 91
       63
 92
        0
 94
        9
 95
        2
 96
        0
300

 93
        1
  6
ACFD_FIELDTEXT_CHECKSUM
 90
        2
140
7993.0
  7
ACFD_FIELD_VALUE
 90
        0
 91
        0
301

 98
        0
  0
DICTIONARY
  5
20CB4
330
20CB3
100
AcDbDictionary
280
     1
281
     1
  3
ACAD_XREC_ROUNDTRIP
360
2127F
  0
DICTIONARY
  5
2098E
330
1B2F1
100
AcDbDictionary
280
     1
281
     1
  3
ACAD_XREC_ROUNDTRIP
360
21277
  0
DICTIONARY
  5
9C07
330
31A7
100
AcDbDictionary
280
     1
281
     1
  3
ACAD_XREC_ROUNDTRIP
360
2125D
  0
DICTIONARY
  5
2125B
330
31A6
100
AcDbDictionary
280
     1
281
     1
  3
ACAD_XREC_ROUNDTRIP
360
2125C
  0
DICTIONARY
  5
1B22B
330
318D
100
AcDbDictionary
280
     1
281
     1
  3
ACAD_XREC_ROUNDTRIP
360
1B22C
  0
DICTIONARY
  5
1B22D
330
318C
100
AcDbDictionary
280
     1
281
     1
  3
ACAD_XREC_ROUNDTRIP
360
1B22E
  0
DICTIONARY
  5
1B22F
330
318E
100
AcDbDictionary
280
     1
281
     1
  3
ACAD_XREC_ROUNDTRIP
360
1B230
  0
DICTIONARY
  5
20CB2
330
20CB1
100
AcDbDictionary
280
     1
281
     1
  3
ACAD_XREC_ROUNDTRIP
360
2127E
  0
DICTIONARY
  5
2098C
330
1B2EF
100
AcDbDictionary
280
     1
281
     1
  3
ACAD_XREC_ROUNDTRIP
360
21276
  0
DICTIONARY
  5
1B314
330
31A2
100
AcDbDictionary
280
     1
281
     1
  3
ACAD_ROUNDTRIP_2008_TABLESTYLE_CELLSTYLEMAP
360
2122F
  3
ACAD_XREC_ROUNDTRIP
360
2125A
  0
DICTIONARY
  5
21244
330
3195
100
AcDbDictionary
280
     1
281
     1
  3
ACAD_XREC_ROUNDTRIP
360
21245
  0
DICTIONARY
  5
21248
330
3197
100
AcDbDictionary
280
     1
281
     1
  3
ACAD_XREC_ROUNDTRIP
360
21249
  0
DICTIONARY
  5
21246
330
3196
100
AcDbDictionary
280
     1
281
     1
  3
ACAD_XREC_ROUNDTRIP
360
21247
  0
DICTIONARY
  5
21242
330
3194
100
AcDbDictionary
280
     1
281
     1
  3
ACAD_XREC_ROUNDTRIP
360
21243
  0
DICTIONARY
  5
21250
330
319B
100
AcDbDictionary
280
     1
281
     1
  3
ACAD_XREC_ROUNDTRIP
360
21251
  0
DICTIONARY
  5
21258
330
319F
100
AcDbDictionary
280
     1
281
     1
  3
ACAD_XREC_ROUNDTRIP
360
21259
  0
DICTIONARY
  5
2124A
330
3198
100
AcDbDictionary
280
     1
281
     1
  3
ACAD_XREC_ROUNDTRIP
360
2124B
  0
DICTIONARY
  5
2124E
330
319A
100
AcDbDictionary
280
     1
281
     1
  3
ACAD_XREC_ROUNDTRIP
360
2124F
  0
DICTIONARY
  5
21274
330
1B2EC
100
AcDbDictionary
280
     1
281
     1
  3
ACAD_XREC_ROUNDTRIP
360
21275
  0
DICTIONARY
  5
21256
330
319E
100
AcDbDictionary
280
     1
281
     1
  3
ACAD_XREC_ROUNDTRIP
360
21257
  0
DICTIONARY
  5
2123A
330
3190
100
AcDbDictionary
280
     1
281
     1
  3
ACAD_XREC_ROUNDTRIP
360
2123B
  0
DICTIONARY
  5
2123C
330
3191
100
AcDbDictionary
280
     1
281
     1
  3
ACAD_XREC_ROUNDTRIP
360
2123D
  0
DICTIONARY
  5
2123E
330
3192
100
AcDbDictionary
280
     1
281
     1
  3
ACAD_XREC_ROUNDTRIP
360
2123F
  0
DICTIONARY
  5
21240
330
3193
100
AcDbDictionary
280
     1
281
     1
  3
ACAD_XREC_ROUNDTRIP
360
21241
  0
DICTIONARY
  5
21264
330
1B2E4
100
AcDbDictionary
280
     1
281
     1
  3
ACAD_XREC_ROUNDTRIP
360
21265
  0
DICTIONARY
  5
21270
330
1B2EA
100
AcDbDictionary
280
     1
281
     1
  3
ACAD_XREC_ROUNDTRIP
360
21271
  0
DICTIONARY
  5
21254
330
319D
100
AcDbDictionary
280
     1
281
     1
  3
ACAD_XREC_ROUNDTRIP
360
21255
  0
DICTIONARY
  5
21272
330
1B2EB
100
AcDbDictionary
280
     1
281
     1
  3
ACAD_XREC_ROUNDTRIP
360
21273
  0
DICTIONARY
  5
2124C
330
3199
100
AcDbDictionary
280
     1
281
     1
  3
ACAD_XREC_ROUNDTRIP
360
2124D
  0
DICTIONARY
  5
2126E
330
1B2E9
100
AcDbDictionary
280
     1
281
     1
  3
ACAD_XREC_ROUNDTRIP
360
2126F
  0
DICTIONARY
  5
2126C
330
1B2E8
100
AcDbDictionary
280
     1
281
     1
  3
ACAD_XREC_ROUNDTRIP
360
2126D
  0
DICTIONARY
  5
21266
330
1B2E5
100
AcDbDictionary
280
     1
281
     1
  3
ACAD_XREC_ROUNDTRIP
360
21267
  0
DICTIONARY
  5
21268
330
1B2E6
100
AcDbDictionary
280
     1
281
     1
  3
ACAD_XREC_ROUNDTRIP
360
21269
  0
DICTIONARY
  5
21252
330
319C
100
AcDbDictionary
280
     1
281
     1
  3
ACAD_XREC_ROUNDTRIP
360
21253
  0
DICTIONARY
  5
21262
330
1B2E3
100
AcDbDictionary
280
     1
281
     1
  3
ACAD_XREC_ROUNDTRIP
360
21263
  0
DICTIONARY
  5
2126A
330
1B2E7
100
AcDbDictionary
280
     1
281
     1
  3
ACAD_XREC_ROUNDTRIP
360
2126B
  0
XRECORD
  5
21232
102
{ACAD_REACTORS
330
21238
102
}
330
21238
100
AcDbXrecord
280
     1
  1
AcDb_Thumbnail_Schema
102
{ATTRRECORD
341
21233
  2
AcDbDs::TreatedAsObjectData
280
     1
291
     1
102
ATTRRECORD}
102
{ATTRRECORD
341
21234
  2
AcDbDs::Legacy
280
     1
291
     1
102
ATTRRECORD}
  2
AcDbDs::ID
280
    10
 91
        8
102
{ATTRRECORD
341
21235
  2
AcDs:Indexable
280
     1
291
     1
102
ATTRRECORD}
102
{ATTRRECORD
341
21236
  2
AcDbDs::HandleAttribute
280
     7
282
     1
102
ATTRRECORD}
  2
Thumbnail_Data
280
    15
 91
        0
  0
XRECORD
  5
21233
102
{ACAD_REACTORS
330
21238
102
}
330
21238
100
AcDbXrecord
280
     1
  1
AcDbDs::TreatedAsObjectDataSchema
  2
AcDbDs::TreatedAsObjectData
280
     1
 91
        0
  0
XRECORD
  5
21234
102
{ACAD_REACTORS
330
21238
102
}
330
21238
100
AcDbXrecord
280
     1
  1
AcDbDs::LegacySchema
  2
AcDbDs::Legacy
280
     1
 91
        0
  0
XRECORD
  5
21235
102
{ACAD_REACTORS
330
21238
102
}
330
21238
100
AcDbXrecord
280
     1
  1
AcDbDs::IndexedPropertySchema
  2
AcDs:Indexable
280
     1
 91
        0
  0
XRECORD
  5
21236
102
{ACAD_REACTORS
330
21238
102
}
330
21238
100
AcDbXrecord
280
     1
  1
AcDbDs::HandleAttributeSchema
  2
AcDbDs::HandleAttribute
280
     7
 91
        1
284
     1
  0
FIELD
  5
20CAC
330
20CAB
100
AcDbField
  1
AcVar
  2
\AcVar Filename \f "%tc1%fn2"
 90
        0
 97
        0
  4
%tc1%fn2
 91
       63
 92
        0
 94
       59
 95
        2
 96
        0
300

 93
        1
  6
Variable
 90
        4
  1
Filename
  7
ACFD_FIELD_VALUE
 90
        4
  1
S:\BenderA\DXF_CIM\1TW\1TW8Q016060T3R01.dxf
301
1TW8Q016060T3R01
 98
       16
  0
FIELD
  5
20FC3
330
20FC2
100
AcDbField
  1
AcVar
  2
\AcVar Filename \f "%tc1%fn2"
 90
        0
 97
        0
  4
%tc1%fn2
 91
       63
 92
        0
 94
       59
 95
        2
 96
        0
300

 93
        1
  6
Variable
 90
        4
  1
Filename
  7
ACFD_FIELD_VALUE
 90
        4
  1
S:\BenderA\DXF_CIM\1TW\1TW8Q016060T3R01.dxf
301
1TW8Q016060T3R01
 98
       16
  0
XRECORD
  5
2127F
102
{ACAD_REACTORS
330
20CB4
102
}
330
20CB4
100
AcDbXrecord
280
     1
102
DISPLAYNAME
  1
Imperial24
102
FLAGS
 90
        0
  0
XRECORD
  5
21277
102
{ACAD_REACTORS
330
2098E
102
}
330
2098E
100
AcDbXrecord
280
     1
102
DISPLAYNAME
  1
Metric50
102
FLAGS
 90
        0
  0
XRECORD
  5
2125D
102
{ACAD_REACTORS
330
9C07
102
}
330
9C07
100
AcDbXrecord
280
     1
102
SHADEPLOT
 70
     0
102
SHADEPLOTRESLEVEL
 70
     2
102
SHADEPLOTCUSTOMDPI
 70
   300
  0
XRECORD
  5
2125C
102
{ACAD_REACTORS
330
2125B
102
}
330
2125B
100
AcDbXrecord
280
     1
102
SHADEPLOT
 70
     0
102
SHADEPLOTRESLEVEL
 70
     2
102
SHADEPLOTCUSTOMDPI
 70
   300
  0
XRECORD
  5
1B22C
102
{ACAD_REACTORS
330
1B22B
102
}
330
1B22B
100
AcDbXrecord
280
     1
102
MATERIAL
148
0.0
149
0.0
149
0.0
 93
        0
 94
      127
282
     0
 72
     1
 77
     1
171
     1
175
     1
179
     1
273
     0
  0
XRECORD
  5
1B22E
102
{ACAD_REACTORS
330
1B22D
102
}
330
1B22D
100
AcDbXrecord
280
     1
102
MATERIAL
148
0.0
149
0.0
149
0.0
 93
        0
 94
      127
282
     0
 72
     1
 77
     1
171
     1
175
     1
179
     1
273
     0
  0
XRECORD
  5
1B230
102
{ACAD_REACTORS
330
1B22F
102
}
330
1B22F
100
AcDbXrecord
280
     1
102
MATERIAL
148
0.0
149
0.0
149
0.0
 93
        0
 94
      127
282
     0
 72
     1
 77
     1
171
     1
175
     1
179
     1
273
     0
  0
XRECORD
  5
2127E
102
{ACAD_REACTORS
330
20CB2
102
}
330
20CB2
100
AcDbXrecord
280
     1
102
DISPLAYNAME
  1
Imperial24
102
FLAGS
 90
        0
  0
XRECORD
  5
21276
102
{ACAD_REACTORS
330
2098C
102
}
330
2098C
100
AcDbXrecord
280
     1
102
DISPLAYNAME
  1
Metric50
102
FLAGS
 90
        0
  0
CELLSTYLEMAP
  5
2122F
102
{ACAD_REACTORS
330
1B314
102
}
330
1B314
100
AcDbCellStyleMap
 90
        3
300
CELLSTYLE
  1
TABLEFORMAT_BEGIN
 90
        5
170
     1
 91
        0
 92
    32768
 62
   257
 93
        1
300
CONTENTFORMAT
  1
CONTENTFORMAT_BEGIN
 90
        0
 91
        0
 92
        4
 93
        0
300

 40
0.0
140
1.0
 94
        5
 62
     0
340
11
144
6.0
309
CONTENTFORMAT_END
171
     1
301
MARGIN
  1
CELLMARGIN_BEGIN
 40
1.5
 40
1.5
 40
1.5
 40
1.5
 40
0.18
 40
0.18
309
CELLMARGIN_END
 94
        6
 95
        1
302
GRIDFORMAT
  1
GRIDFORMAT_BEGIN
 90
        0
 91
        1
 62
     0
 92
       -2
340
0
 93
        0
 40
0.045
309
GRIDFORMAT_END
 95
        2
302
GRIDFORMAT
  1
GRIDFORMAT_BEGIN
 90
        0
 91
        1
 62
     0
 92
       -2
340
0
 93
        0
 40
0.045
309
GRIDFORMAT_END
 95
        4
302
GRIDFORMAT
  1
GRIDFORMAT_BEGIN
 90
        0
 91
        1
 62
     0
 92
       -2
340
0
 93
        0
 40
0.045
309
GRIDFORMAT_END
 95
        8
302
GRIDFORMAT
  1
GRIDFORMAT_BEGIN
 90
        0
 91
        1
 62
     0
 92
       -2
340
0
 93
        0
 40
0.045
309
GRIDFORMAT_END
 95
       16
302
GRIDFORMAT
  1
GRIDFORMAT_BEGIN
 90
        0
 91
        1
 62
     0
 92
       -2
340
0
 93
        0
 40
0.045
309
GRIDFORMAT_END
 95
       32
302
GRIDFORMAT
  1
GRIDFORMAT_BEGIN
 90
        0
 91
        1
 62
     0
 92
       -2
340
0
 93
        0
 40
0.045
309
GRIDFORMAT_END
309
TABLEFORMAT_END
  1
CELLSTYLE_BEGIN
 90
        1
 91
        1
300
_TITLE
309
CELLSTYLE_END
300
CELLSTYLE
  1
TABLEFORMAT_BEGIN
 90
        5
170
     1
 91
        0
 92
        0
 62
   257
 93
        1
300
CONTENTFORMAT
  1
CONTENTFORMAT_BEGIN
 90
        0
 91
        0
 92
        4
 93
        0
300

 40
0.0
140
1.0
 94
        5
 62
     0
340
11
144
4.5
309
CONTENTFORMAT_END
171
     1
301
MARGIN
  1
CELLMARGIN_BEGIN
 40
1.5
 40
1.5
 40
1.5
 40
1.5
 40
0.18
 40
0.18
309
CELLMARGIN_END
 94
        6
 95
        1
302
GRIDFORMAT
  1
GRIDFORMAT_BEGIN
 90
        0
 91
        1
 62
     0
 92
       -2
340
0
 93
        0
 40
0.045
309
GRIDFORMAT_END
 95
        2
302
GRIDFORMAT
  1
GRIDFORMAT_BEGIN
 90
        0
 91
        1
 62
     0
 92
       -2
340
0
 93
        0
 40
0.045
309
GRIDFORMAT_END
 95
        4
302
GRIDFORMAT
  1
GRIDFORMAT_BEGIN
 90
        0
 91
        1
 62
     0
 92
       -2
340
0
 93
        0
 40
0.045
309
GRIDFORMAT_END
 95
        8
302
GRIDFORMAT
  1
GRIDFORMAT_BEGIN
 90
        0
 91
        1
 62
     0
 92
       -2
340
0
 93
        0
 40
0.045
309
GRIDFORMAT_END
 95
       16
302
GRIDFORMAT
  1
GRIDFORMAT_BEGIN
 90
        0
 91
        1
 62
     0
 92
       -2
340
0
 93
        0
 40
0.045
309
GRIDFORMAT_END
 95
       32
302
GRIDFORMAT
  1
GRIDFORMAT_BEGIN
 90
        0
 91
        1
 62
     0
 92
       -2
340
0
 93
        0
 40
0.045
309
GRIDFORMAT_END
309
TABLEFORMAT_END
  1
CELLSTYLE_BEGIN
 90
        2
 91
        1
300
_HEADER
309
CELLSTYLE_END
300
CELLSTYLE
  1
TABLEFORMAT_BEGIN
 90
        5
170
     1
 91
        0
 92
        0
 62
   257
 93
        1
300
CONTENTFORMAT
  1
CONTENTFORMAT_BEGIN
 90
        0
 91
        0
 92
        4
 93
        0
300

 40
0.0
140
1.0
 94
        2
 62
     0
340
11
144
4.5
309
CONTENTFORMAT_END
171
     1
301
MARGIN
  1
CELLMARGIN_BEGIN
 40
1.5
 40
1.5
 40
1.5
 40
1.5
 40
0.18
 40
0.18
309
CELLMARGIN_END
 94
        6
 95
        1
302
GRIDFORMAT
  1
GRIDFORMAT_BEGIN
 90
        0
 91
        1
 62
     0
 92
       -2
340
0
 93
        0
 40
0.045
309
GRIDFORMAT_END
 95
        2
302
GRIDFORMAT
  1
GRIDFORMAT_BEGIN
 90
        0
 91
        1
 62
     0
 92
       -2
340
0
 93
        0
 40
0.045
309
GRIDFORMAT_END
 95
        4
302
GRIDFORMAT
  1
GRIDFORMAT_BEGIN
 90
        0
 91
        1
 62
     0
 92
       -2
340
0
 93
        0
 40
0.045
309
GRIDFORMAT_END
 95
        8
302
GRIDFORMAT
  1
GRIDFORMAT_BEGIN
 90
        0
 91
        1
 62
     0
 92
       -2
340
0
 93
        0
 40
0.045
309
GRIDFORMAT_END
 95
       16
302
GRIDFORMAT
  1
GRIDFORMAT_BEGIN
 90
        0
 91
        1
 62
     0
 92
       -2
340
0
 93
        0
 40
0.045
309
GRIDFORMAT_END
 95
       32
302
GRIDFORMAT
  1
GRIDFORMAT_BEGIN
 90
        0
 91
        1
 62
     0
 92
       -2
340
0
 93
        0
 40
0.045
309
GRIDFORMAT_END
309
TABLEFORMAT_END
  1
CELLSTYLE_BEGIN
 90
        3
 91
        2
300
_DATA
309
CELLSTYLE_END
  0
XRECORD
  5
2125A
102
{ACAD_REACTORS
330
1B314
102
}
330
1B314
100
AcDbXrecord
280
     1
102
ACAD_ROUNDTRIP_PRE2007_TABLESTYLE
 90
        4
 91
        0
  1

 92
        4
 93
        0
  2

 94
        4
 95
        0
  3

  0
XRECORD
  5
21245
102
{ACAD_REACTORS
330
21244
102
}
330
21244
100
AcDbXrecord
280
     1
102
RTVSPost2010Prop28
280
     1
102
RTVSPost2010PropOp28
 70
     1
102
RTVSPost2010Prop29
280
     1
102
RTVSPost2010PropOp29
 70
     1
102
RTVSPost2010Prop30
280
     0
102
RTVSPost2010PropOp30
 70
     1
102
RTVSPost2010Prop31
280
     0
102
RTVSPost2010PropOp31
 70
     1
102
RTVSPost2010Prop32
280
     0
102
RTVSPost2010PropOp32
 70
     1
102
RTVSPost2010Prop33
280
     0
102
RTVSPost2010PropOp33
 70
     1
102
RTVSPost2010Prop34
280
     0
102
RTVSPost2010PropOp34
 70
     1
102
RTVSPost2010Prop35
280
     0
102
RTVSPost2010PropOp35
 70
     1
102
RTVSPost2010Prop36
280
     0
102
RTVSPost2010PropOp36
 70
     1
102
RTVSPost2010Prop37
 90
       50
102
RTVSPost2010PropOp37
 70
     1
102
RTVSPost2010Prop38
140
0.0
102
RTVSPost2010PropOp38
 70
     1
102
RTVSPost2010Prop39
140
1.0
102
RTVSPost2010PropOp39
 70
     1
102
RTVSPost2010Prop40
 90
        0
102
RTVSPost2010PropOp40
 70
     1
102
RTVSPost2010Prop41ColorIndex
 90
       18
102
RTVSPost2010Prop41ColorRGB
 90
        0
102
RTVSPost2010PropOp41
 70
     1
102
RTVSPost2010Prop42
 90
       50
102
RTVSPost2010PropOp42
 70
     1
102
RTVSPost2010Prop43
 90
        3
102
RTVSPost2010PropOp43
 70
     1
102
RTVSPost2010Prop44ColorIndex
 90
        5
102
RTVSPost2010Prop44ColorRGB
 90
      255
102
RTVSPost2010PropOp44
 70
     1
102
RTVSPost2010Prop45
280
     0
102
RTVSPost2010PropOp45
 70
     1
102
RTVSPost2010Prop46
 90
       50
102
RTVSPost2010PropOp46
 70
     1
102
RTVSPost2010Prop47
 90
       50
102
RTVSPost2010PropOp47
 70
     1
102
RTVSPost2010Prop48
 90
       50
102
RTVSPost2010PropOp48
 70
     1
102
RTVSPost2010Prop49
280
     0
102
RTVSPost2010PropOp49
 70
     1
102
RTVSPost2010Prop50
 90
       50
102
RTVSPost2010PropOp50
 70
     1
102
RTVSPost2010Prop51ColorIndex
 90
      256
102
RTVSPost2010Prop51ColorRGB
 90
-16777216
102
RTVSPost2010PropOp51
 70
     0
102
RTVSPost2010Prop52
140
1.0
102
RTVSPost2010PropOp52
 70
     0
102
RTVSPost2010Prop53
 90
        2
102
RTVSPost2010PropOp53
 70
     1
102
RTVSPost2010Prop54
  1
strokes_ogs.tif
102
RTVSPost2010PropOp54
 70
     1
102
RTVSPost2010Prop55
280
     0
102
RTVSPost2010PropOp55
 70
     1
102
RTVSPost2010Prop56
140
1.0
102
RTVSPost2010PropOp56
 70
     1
102
RTVSPost2010Prop57
140
1.0
102
RTVSPost2010PropOp57
 70
     1
102
RTVSPropertyOp0
 70
     1
102
RTVSPropertyOp1
 70
     1
102
RTVSPropertyOp2
 70
     1
102
RTVSPropertyOp3
 70
     1
102
RTVSPropertyOp4
 70
     1
102
RTVSPropertyOp5
 70
     1
102
RTVSPropertyOp6
 70
     1
102
RTVSPropertyOp7
 70
     1
102
RTVSPropertyOp8
 70
     1
102
RTVSPropertyOp9
 70
     1
102
RTVSPropertyOp10
 70
     1
102
RTVSPropertyOp11
 70
     1
102
RTVSPropertyOp12
 70
     1
102
RTVSPropertyOp13
 70
     1
102
RTVSPropertyOp14
 70
     1
102
RTVSPropertyOp15
 70
     1
102
RTVSPropertyOp16
 70
     1
102
RTVSPropertyOp17
 70
     1
102
RTVSPropertyOp18
 70
     1
102
RTVSPropertyOp19
 70
     1
102
RTVSPropertyOp20
 70
     1
102
RTVSPropertyOp21
 70
     1
102
RTVSPropertyOp22
 70
     1
102
RTVSPropertyOp23
 70
     1
102
RTVSPropertyOp24
 70
     1
102
RTVSPropertyOp25
 70
     1
102
RTVSPropertyOp26
 70
     1
102
RTVSPropertyOp27
 70
     1
102
RTVSPropertyOp28
 70
     1
102
RTVSPropertyOp29
 70
     1
102
RTVSPropertyOp30
 70
     1
102
RTVSPropertyOp31
 70
     1
102
RTVSPropertyOp32
 70
     1
102
RTVSPropertyOp33
 70
     1
102
RTVSPropertyOp34
 70
     1
102
RTVSPropertyOp35
 70
     1
102
RTVSPropertyOp36
 70
     1
102
RTVSPropertyOp37
 70
     1
102
RTVSPropertyOp38
 70
     1
102
RTVSPropertyOp39
 70
     1
102
RTVSPropertyOp40
 70
     1
102
RTVSPropertyOp41
 70
     1
102
RTVSPropertyOp42
 70
     1
102
RTVSPropertyOp43
 70
     1
102
RTVSPropertyOp44
 70
     1
102
RTVSPropertyOp45
 70
     1
102
RTVSPropertyOp46
 70
     1
102
RTVSPropertyOp47
 70
     1
102
RTVSPropertyOp48
 70
     1
102
RTVSPropertyOp49
 70
     1
102
RTVSPropertyOp50
 70
     1
102
RTVSPropertyOp51
 70
     0
102
RTVSPropertyOp52
 70
     0
102
RTVSPropertyOp53
 70
     1
102
RTVSPropertyOp54
 70
     1
102
RTVSPropertyOp55
 70
     1
102
RTVSPropertyOp56
 70
     1
102
RTVSPropertyOp57
 70
     1
102
RTVSPropertyOp58
 70
     1
102
RTVSPropertyOp59
 70
     1
102
RTVSPropertyOp60
 70
     1
102
RTVSPropertyOp61
 70
     1
102
RTVSPropertyOp62
 70
     1
  0
XRECORD
  5
21249
102
{ACAD_REACTORS
330
21248
102
}
330
21248
100
AcDbXrecord
280
     1
102
RTVSPost2010Prop28
280
     0
102
RTVSPost2010PropOp28
 70
     1
102
RTVSPost2010Prop29
280
     1
102
RTVSPost2010PropOp29
 70
     1
102
RTVSPost2010Prop30
280
     1
102
RTVSPost2010PropOp30
 70
     1
102
RTVSPost2010Prop31
280
     0
102
RTVSPost2010PropOp31
 70
     1
102
RTVSPost2010Prop32
280
     0
102
RTVSPost2010PropOp32
 70
     1
102
RTVSPost2010Prop33
280
     0
102
RTVSPost2010PropOp33
 70
     1
102
RTVSPost2010Prop34
280
     0
102
RTVSPost2010PropOp34
 70
     1
102
RTVSPost2010Prop35
280
     0
102
RTVSPost2010PropOp35
 70
     1
102
RTVSPost2010Prop36
280
     0
102
RTVSPost2010PropOp36
 70
     1
102
RTVSPost2010Prop37
 90
       50
102
RTVSPost2010PropOp37
 70
     1
102
RTVSPost2010Prop38
140
0.0
102
RTVSPost2010PropOp38
 70
     1
102
RTVSPost2010Prop39
140
1.0
102
RTVSPost2010PropOp39
 70
     1
102
RTVSPost2010Prop40
 90
        0
102
RTVSPost2010PropOp40
 70
     1
102
RTVSPost2010Prop41ColorIndex
 90
       18
102
RTVSPost2010Prop41ColorRGB
 90
        0
102
RTVSPost2010PropOp41
 70
     1
102
RTVSPost2010Prop42
 90
       50
102
RTVSPost2010PropOp42
 70
     1
102
RTVSPost2010Prop43
 90
        3
102
RTVSPost2010PropOp43
 70
     1
102
RTVSPost2010Prop44ColorIndex
 90
        5
102
RTVSPost2010Prop44ColorRGB
 90
      255
102
RTVSPost2010PropOp44
 70
     1
102
RTVSPost2010Prop45
280
     0
102
RTVSPost2010PropOp45
 70
     1
102
RTVSPost2010Prop46
 90
       50
102
RTVSPost2010PropOp46
 70
     1
102
RTVSPost2010Prop47
 90
       50
102
RTVSPost2010PropOp47
 70
     1
102
RTVSPost2010Prop48
 90
       50
102
RTVSPost2010PropOp48
 70
     1
102
RTVSPost2010Prop49
280
     0
102
RTVSPost2010PropOp49
 70
     1
102
RTVSPost2010Prop50
 90
       50
102
RTVSPost2010PropOp50
 70
     1
102
RTVSPost2010Prop51ColorIndex
 90
      256
102
RTVSPost2010Prop51ColorRGB
 90
-16777216
102
RTVSPost2010PropOp51
 70
     0
102
RTVSPost2010Prop52
140
1.0
102
RTVSPost2010PropOp52
 70
     0
102
RTVSPost2010Prop53
 90
        2
102
RTVSPost2010PropOp53
 70
     1
102
RTVSPost2010Prop54
  1
strokes_ogs.tif
102
RTVSPost2010PropOp54
 70
     1
102
RTVSPost2010Prop55
280
     0
102
RTVSPost2010PropOp55
 70
     1
102
RTVSPost2010Prop56
140
1.0
102
RTVSPost2010PropOp56
 70
     1
102
RTVSPost2010Prop57
140
1.0
102
RTVSPost2010PropOp57
 70
     1
102
RTVSPropertyOp0
 70
     1
102
RTVSPropertyOp1
 70
     1
102
RTVSPropertyOp2
 70
     1
102
RTVSPropertyOp3
 70
     1
102
RTVSPropertyOp4
 70
     1
102
RTVSPropertyOp5
 70
     1
102
RTVSPropertyOp6
 70
     1
102
RTVSPropertyOp7
 70
     1
102
RTVSPropertyOp8
 70
     1
102
RTVSPropertyOp9
 70
     1
102
RTVSPropertyOp10
 70
     1
102
RTVSPropertyOp11
 70
     1
102
RTVSPropertyOp12
 70
     1
102
RTVSPropertyOp13
 70
     1
102
RTVSPropertyOp14
 70
     1
102
RTVSPropertyOp15
 70
     1
102
RTVSPropertyOp16
 70
     1
102
RTVSPropertyOp17
 70
     1
102
RTVSPropertyOp18
 70
     1
102
RTVSPropertyOp19
 70
     1
102
RTVSPropertyOp20
 70
     1
102
RTVSPropertyOp21
 70
     1
102
RTVSPropertyOp22
 70
     1
102
RTVSPropertyOp23
 70
     1
102
RTVSPropertyOp24
 70
     1
102
RTVSPropertyOp25
 70
     1
102
RTVSPropertyOp26
 70
     1
102
RTVSPropertyOp27
 70
     1
102
RTVSPropertyOp28
 70
     1
102
RTVSPropertyOp29
 70
     1
102
RTVSPropertyOp30
 70
     1
102
RTVSPropertyOp31
 70
     1
102
RTVSPropertyOp32
 70
     1
102
RTVSPropertyOp33
 70
     1
102
RTVSPropertyOp34
 70
     1
102
RTVSPropertyOp35
 70
     1
102
RTVSPropertyOp36
 70
     1
102
RTVSPropertyOp37
 70
     1
102
RTVSPropertyOp38
 70
     1
102
RTVSPropertyOp39
 70
     1
102
RTVSPropertyOp40
 70
     1
102
RTVSPropertyOp41
 70
     1
102
RTVSPropertyOp42
 70
     1
102
RTVSPropertyOp43
 70
     1
102
RTVSPropertyOp44
 70
     1
102
RTVSPropertyOp45
 70
     1
102
RTVSPropertyOp46
 70
     1
102
RTVSPropertyOp47
 70
     1
102
RTVSPropertyOp48
 70
     1
102
RTVSPropertyOp49
 70
     1
102
RTVSPropertyOp50
 70
     1
102
RTVSPropertyOp51
 70
     0
102
RTVSPropertyOp52
 70
     0
102
RTVSPropertyOp53
 70
     1
102
RTVSPropertyOp54
 70
     1
102
RTVSPropertyOp55
 70
     1
102
RTVSPropertyOp56
 70
     1
102
RTVSPropertyOp57
 70
     1
102
RTVSPropertyOp58
 70
     1
102
RTVSPropertyOp59
 70
     1
102
RTVSPropertyOp60
 70
     1
102
RTVSPropertyOp61
 70
     1
102
RTVSPropertyOp62
 70
     1
  0
XRECORD
  5
21247
102
{ACAD_REACTORS
330
21246
102
}
330
21246
100
AcDbXrecord
280
     1
102
RTVSPost2010Prop28
280
     0
102
RTVSPost2010PropOp28
 70
     1
102
RTVSPost2010Prop29
280
     1
102
RTVSPost2010PropOp29
 70
     1
102
RTVSPost2010Prop30
280
     1
102
RTVSPost2010PropOp30
 70
     1
102
RTVSPost2010Prop31
280
     0
102
RTVSPost2010PropOp31
 70
     1
102
RTVSPost2010Prop32
280
     0
102
RTVSPost2010PropOp32
 70
     1
102
RTVSPost2010Prop33
280
     0
102
RTVSPost2010PropOp33
 70
     1
102
RTVSPost2010Prop34
280
     0
102
RTVSPost2010PropOp34
 70
     1
102
RTVSPost2010Prop35
280
     0
102
RTVSPost2010PropOp35
 70
     1
102
RTVSPost2010Prop36
280
     0
102
RTVSPost2010PropOp36
 70
     1
102
RTVSPost2010Prop37
 90
       50
102
RTVSPost2010PropOp37
 70
     1
102
RTVSPost2010Prop38
140
0.0
102
RTVSPost2010PropOp38
 70
     1
102
RTVSPost2010Prop39
140
1.0
102
RTVSPost2010PropOp39
 70
     1
102
RTVSPost2010Prop40
 90
        0
102
RTVSPost2010PropOp40
 70
     1
102
RTVSPost2010Prop41ColorIndex
 90
       18
102
RTVSPost2010Prop41ColorRGB
 90
        0
102
RTVSPost2010PropOp41
 70
     1
102
RTVSPost2010Prop42
 90
       50
102
RTVSPost2010PropOp42
 70
     1
102
RTVSPost2010Prop43
 90
        3
102
RTVSPost2010PropOp43
 70
     1
102
RTVSPost2010Prop44ColorIndex
 90
        5
102
RTVSPost2010Prop44ColorRGB
 90
      255
102
RTVSPost2010PropOp44
 70
     1
102
RTVSPost2010Prop45
280
     0
102
RTVSPost2010PropOp45
 70
     1
102
RTVSPost2010Prop46
 90
       50
102
RTVSPost2010PropOp46
 70
     1
102
RTVSPost2010Prop47
 90
       50
102
RTVSPost2010PropOp47
 70
     1
102
RTVSPost2010Prop48
 90
       50
102
RTVSPost2010PropOp48
 70
     1
102
RTVSPost2010Prop49
280
     0
102
RTVSPost2010PropOp49
 70
     1
102
RTVSPost2010Prop50
 90
       50
102
RTVSPost2010PropOp50
 70
     1
102
RTVSPost2010Prop51ColorIndex
 90
      256
102
RTVSPost2010Prop51ColorRGB
 90
-16777216
102
RTVSPost2010PropOp51
 70
     0
102
RTVSPost2010Prop52
140
1.0
102
RTVSPost2010PropOp52
 70
     0
102
RTVSPost2010Prop53
 90
        2
102
RTVSPost2010PropOp53
 70
     1
102
RTVSPost2010Prop54
  1
strokes_ogs.tif
102
RTVSPost2010PropOp54
 70
     1
102
RTVSPost2010Prop55
280
     0
102
RTVSPost2010PropOp55
 70
     1
102
RTVSPost2010Prop56
140
1.0
102
RTVSPost2010PropOp56
 70
     1
102
RTVSPost2010Prop57
140
1.0
102
RTVSPost2010PropOp57
 70
     1
102
RTVSPropertyOp0
 70
     1
102
RTVSPropertyOp1
 70
     1
102
RTVSPropertyOp2
 70
     1
102
RTVSPropertyOp3
 70
     1
102
RTVSPropertyOp4
 70
     1
102
RTVSPropertyOp5
 70
     1
102
RTVSPropertyOp6
 70
     1
102
RTVSPropertyOp7
 70
     1
102
RTVSPropertyOp8
 70
     1
102
RTVSPropertyOp9
 70
     1
102
RTVSPropertyOp10
 70
     1
102
RTVSPropertyOp11
 70
     1
102
RTVSPropertyOp12
 70
     1
102
RTVSPropertyOp13
 70
     1
102
RTVSPropertyOp14
 70
     1
102
RTVSPropertyOp15
 70
     1
102
RTVSPropertyOp16
 70
     1
102
RTVSPropertyOp17
 70
     1
102
RTVSPropertyOp18
 70
     1
102
RTVSPropertyOp19
 70
     1
102
RTVSPropertyOp20
 70
     1
102
RTVSPropertyOp21
 70
     1
102
RTVSPropertyOp22
 70
     1
102
RTVSPropertyOp23
 70
     1
102
RTVSPropertyOp24
 70
     1
102
RTVSPropertyOp25
 70
     1
102
RTVSPropertyOp26
 70
     1
102
RTVSPropertyOp27
 70
     1
102
RTVSPropertyOp28
 70
     1
102
RTVSPropertyOp29
 70
     1
102
RTVSPropertyOp30
 70
     1
102
RTVSPropertyOp31
 70
     1
102
RTVSPropertyOp32
 70
     1
102
RTVSPropertyOp33
 70
     1
102
RTVSPropertyOp34
 70
     1
102
RTVSPropertyOp35
 70
     1
102
RTVSPropertyOp36
 70
     1
102
RTVSPropertyOp37
 70
     1
102
RTVSPropertyOp38
 70
     1
102
RTVSPropertyOp39
 70
     1
102
RTVSPropertyOp40
 70
     1
102
RTVSPropertyOp41
 70
     1
102
RTVSPropertyOp42
 70
     1
102
RTVSPropertyOp43
 70
     1
102
RTVSPropertyOp44
 70
     1
102
RTVSPropertyOp45
 70
     1
102
RTVSPropertyOp46
 70
     1
102
RTVSPropertyOp47
 70
     1
102
RTVSPropertyOp48
 70
     1
102
RTVSPropertyOp49
 70
     1
102
RTVSPropertyOp50
 70
     1
102
RTVSPropertyOp51
 70
     0
102
RTVSPropertyOp52
 70
     0
102
RTVSPropertyOp53
 70
     1
102
RTVSPropertyOp54
 70
     1
102
RTVSPropertyOp55
 70
     1
102
RTVSPropertyOp56
 70
     1
102
RTVSPropertyOp57
 70
     1
102
RTVSPropertyOp58
 70
     1
102
RTVSPropertyOp59
 70
     1
102
RTVSPropertyOp60
 70
     1
102
RTVSPropertyOp61
 70
     1
102
RTVSPropertyOp62
 70
     1
  0
XRECORD
  5
21243
102
{ACAD_REACTORS
330
21242
102
}
330
21242
100
AcDbXrecord
280
     1
102
RTVSPost2010Prop28
280
     0
102
RTVSPost2010PropOp28
 70
     1
102
RTVSPost2010Prop29
280
     1
102
RTVSPost2010PropOp29
 70
     1
102
RTVSPost2010Prop30
280
     1
102
RTVSPost2010PropOp30
 70
     1
102
RTVSPost2010Prop31
280
     0
102
RTVSPost2010PropOp31
 70
     1
102
RTVSPost2010Prop32
280
     0
102
RTVSPost2010PropOp32
 70
     1
102
RTVSPost2010Prop33
280
     0
102
RTVSPost2010PropOp33
 70
     1
102
RTVSPost2010Prop34
280
     0
102
RTVSPost2010PropOp34
 70
     1
102
RTVSPost2010Prop35
280
     0
102
RTVSPost2010PropOp35
 70
     1
102
RTVSPost2010Prop36
280
     0
102
RTVSPost2010PropOp36
 70
     1
102
RTVSPost2010Prop37
 90
       50
102
RTVSPost2010PropOp37
 70
     1
102
RTVSPost2010Prop38
140
0.0
102
RTVSPost2010PropOp38
 70
     1
102
RTVSPost2010Prop39
140
1.0
102
RTVSPost2010PropOp39
 70
     1
102
RTVSPost2010Prop40
 90
        0
102
RTVSPost2010PropOp40
 70
     1
102
RTVSPost2010Prop41ColorIndex
 90
       18
102
RTVSPost2010Prop41ColorRGB
 90
        0
102
RTVSPost2010PropOp41
 70
     1
102
RTVSPost2010Prop42
 90
       50
102
RTVSPost2010PropOp42
 70
     1
102
RTVSPost2010Prop43
 90
        3
102
RTVSPost2010PropOp43
 70
     1
102
RTVSPost2010Prop44ColorIndex
 90
        5
102
RTVSPost2010Prop44ColorRGB
 90
      255
102
RTVSPost2010PropOp44
 70
     1
102
RTVSPost2010Prop45
280
     0
102
RTVSPost2010PropOp45
 70
     1
102
RTVSPost2010Prop46
 90
       50
102
RTVSPost2010PropOp46
 70
     1
102
RTVSPost2010Prop47
 90
       50
102
RTVSPost2010PropOp47
 70
     1
102
RTVSPost2010Prop48
 90
       50
102
RTVSPost2010PropOp48
 70
     1
102
RTVSPost2010Prop49
280
     0
102
RTVSPost2010PropOp49
 70
     1
102
RTVSPost2010Prop50
 90
       50
102
RTVSPost2010PropOp50
 70
     1
102
RTVSPost2010Prop51ColorIndex
 90
      256
102
RTVSPost2010Prop51ColorRGB
 90
-16777216
102
RTVSPost2010PropOp51
 70
     0
102
RTVSPost2010Prop52
140
1.0
102
RTVSPost2010PropOp52
 70
     0
102
RTVSPost2010Prop53
 90
        2
102
RTVSPost2010PropOp53
 70
     1
102
RTVSPost2010Prop54
  1
strokes_ogs.tif
102
RTVSPost2010PropOp54
 70
     1
102
RTVSPost2010Prop55
280
     0
102
RTVSPost2010PropOp55
 70
     1
102
RTVSPost2010Prop56
140
1.0
102
RTVSPost2010PropOp56
 70
     1
102
RTVSPost2010Prop57
140
1.0
102
RTVSPost2010PropOp57
 70
     1
102
RTVSPropertyOp0
 70
     1
102
RTVSPropertyOp1
 70
     1
102
RTVSPropertyOp2
 70
     1
102
RTVSPropertyOp3
 70
     1
102
RTVSPropertyOp4
 70
     1
102
RTVSPropertyOp5
 70
     1
102
RTVSPropertyOp6
 70
     1
102
RTVSPropertyOp7
 70
     1
102
RTVSPropertyOp8
 70
     1
102
RTVSPropertyOp9
 70
     1
102
RTVSPropertyOp10
 70
     1
102
RTVSPropertyOp11
 70
     1
102
RTVSPropertyOp12
 70
     1
102
RTVSPropertyOp13
 70
     1
102
RTVSPropertyOp14
 70
     1
102
RTVSPropertyOp15
 70
     1
102
RTVSPropertyOp16
 70
     1
102
RTVSPropertyOp17
 70
     1
102
RTVSPropertyOp18
 70
     1
102
RTVSPropertyOp19
 70
     1
102
RTVSPropertyOp20
 70
     1
102
RTVSPropertyOp21
 70
     1
102
RTVSPropertyOp22
 70
     1
102
RTVSPropertyOp23
 70
     1
102
RTVSPropertyOp24
 70
     1
102
RTVSPropertyOp25
 70
     1
102
RTVSPropertyOp26
 70
     1
102
RTVSPropertyOp27
 70
     1
102
RTVSPropertyOp28
 70
     1
102
RTVSPropertyOp29
 70
     1
102
RTVSPropertyOp30
 70
     1
102
RTVSPropertyOp31
 70
     1
102
RTVSPropertyOp32
 70
     1
102
RTVSPropertyOp33
 70
     1
102
RTVSPropertyOp34
 70
     1
102
RTVSPropertyOp35
 70
     1
102
RTVSPropertyOp36
 70
     1
102
RTVSPropertyOp37
 70
     1
102
RTVSPropertyOp38
 70
     1
102
RTVSPropertyOp39
 70
     1
102
RTVSPropertyOp40
 70
     1
102
RTVSPropertyOp41
 70
     1
102
RTVSPropertyOp42
 70
     1
102
RTVSPropertyOp43
 70
     1
102
RTVSPropertyOp44
 70
     1
102
RTVSPropertyOp45
 70
     1
102
RTVSPropertyOp46
 70
     1
102
RTVSPropertyOp47
 70
     1
102
RTVSPropertyOp48
 70
     1
102
RTVSPropertyOp49
 70
     1
102
RTVSPropertyOp50
 70
     1
102
RTVSPropertyOp51
 70
     0
102
RTVSPropertyOp52
 70
     0
102
RTVSPropertyOp53
 70
     1
102
RTVSPropertyOp54
 70
     1
102
RTVSPropertyOp55
 70
     1
102
RTVSPropertyOp56
 70
     1
102
RTVSPropertyOp57
 70
     1
102
RTVSPropertyOp58
 70
     1
102
RTVSPropertyOp59
 70
     1
102
RTVSPropertyOp60
 70
     1
102
RTVSPropertyOp61
 70
     1
102
RTVSPropertyOp62
 70
     1
  0
XRECORD
  5
21251
102
{ACAD_REACTORS
330
21250
102
}
330
21250
100
AcDbXrecord
280
     1
102
RTVSPost2010Prop28
280
     0
102
RTVSPost2010PropOp28
 70
     1
102
RTVSPost2010Prop29
280
     1
102
RTVSPost2010PropOp29
 70
     1
102
RTVSPost2010Prop30
280
     1
102
RTVSPost2010PropOp30
 70
     1
102
RTVSPost2010Prop31
280
     0
102
RTVSPost2010PropOp31
 70
     1
102
RTVSPost2010Prop32
280
     0
102
RTVSPost2010PropOp32
 70
     1
102
RTVSPost2010Prop33
280
     0
102
RTVSPost2010PropOp33
 70
     1
102
RTVSPost2010Prop34
280
     0
102
RTVSPost2010PropOp34
 70
     1
102
RTVSPost2010Prop35
280
     0
102
RTVSPost2010PropOp35
 70
     1
102
RTVSPost2010Prop36
280
     0
102
RTVSPost2010PropOp36
 70
     1
102
RTVSPost2010Prop37
 90
       50
102
RTVSPost2010PropOp37
 70
     1
102
RTVSPost2010Prop38
140
0.0
102
RTVSPost2010PropOp38
 70
     1
102
RTVSPost2010Prop39
140
1.0
102
RTVSPost2010PropOp39
 70
     1
102
RTVSPost2010Prop40
 90
        0
102
RTVSPost2010PropOp40
 70
     1
102
RTVSPost2010Prop41ColorIndex
 90
       18
102
RTVSPost2010Prop41ColorRGB
 90
        0
102
RTVSPost2010PropOp41
 70
     1
102
RTVSPost2010Prop42
 90
       50
102
RTVSPost2010PropOp42
 70
     1
102
RTVSPost2010Prop43
 90
        3
102
RTVSPost2010PropOp43
 70
     1
102
RTVSPost2010Prop44ColorIndex
 90
        5
102
RTVSPost2010Prop44ColorRGB
 90
      255
102
RTVSPost2010PropOp44
 70
     1
102
RTVSPost2010Prop45
280
     0
102
RTVSPost2010PropOp45
 70
     1
102
RTVSPost2010Prop46
 90
       50
102
RTVSPost2010PropOp46
 70
     1
102
RTVSPost2010Prop47
 90
       50
102
RTVSPost2010PropOp47
 70
     1
102
RTVSPost2010Prop48
 90
       50
102
RTVSPost2010PropOp48
 70
     1
102
RTVSPost2010Prop49
280
     0
102
RTVSPost2010PropOp49
 70
     1
102
RTVSPost2010Prop50
 90
       50
102
RTVSPost2010PropOp50
 70
     1
102
RTVSPost2010Prop51ColorIndex
 90
      256
102
RTVSPost2010Prop51ColorRGB
 90
-16777216
102
RTVSPost2010PropOp51
 70
     0
102
RTVSPost2010Prop52
140
1.0
102
RTVSPost2010PropOp52
 70
     0
102
RTVSPost2010Prop53
 90
        2
102
RTVSPost2010PropOp53
 70
     1
102
RTVSPost2010Prop54
  1
strokes_ogs.tif
102
RTVSPost2010PropOp54
 70
     1
102
RTVSPost2010Prop55
280
     0
102
RTVSPost2010PropOp55
 70
     1
102
RTVSPost2010Prop56
140
1.0
102
RTVSPost2010PropOp56
 70
     1
102
RTVSPost2010Prop57
140
1.0
102
RTVSPost2010PropOp57
 70
     1
102
RTVSPropertyOp0
 70
     1
102
RTVSPropertyOp1
 70
     1
102
RTVSPropertyOp2
 70
     1
102
RTVSPropertyOp3
 70
     1
102
RTVSPropertyOp4
 70
     1
102
RTVSPropertyOp5
 70
     1
102
RTVSPropertyOp6
 70
     1
102
RTVSPropertyOp7
 70
     1
102
RTVSPropertyOp8
 70
     1
102
RTVSPropertyOp9
 70
     1
102
RTVSPropertyOp10
 70
     1
102
RTVSPropertyOp11
 70
     1
102
RTVSPropertyOp12
 70
     1
102
RTVSPropertyOp13
 70
     1
102
RTVSPropertyOp14
 70
     1
102
RTVSPropertyOp15
 70
     1
102
RTVSPropertyOp16
 70
     1
102
RTVSPropertyOp17
 70
     1
102
RTVSPropertyOp18
 70
     1
102
RTVSPropertyOp19
 70
     1
102
RTVSPropertyOp20
 70
     1
102
RTVSPropertyOp21
 70
     1
102
RTVSPropertyOp22
 70
     1
102
RTVSPropertyOp23
 70
     1
102
RTVSPropertyOp24
 70
     1
102
RTVSPropertyOp25
 70
     1
102
RTVSPropertyOp26
 70
     1
102
RTVSPropertyOp27
 70
     1
102
RTVSPropertyOp28
 70
     1
102
RTVSPropertyOp29
 70
     1
102
RTVSPropertyOp30
 70
     1
102
RTVSPropertyOp31
 70
     1
102
RTVSPropertyOp32
 70
     1
102
RTVSPropertyOp33
 70
     1
102
RTVSPropertyOp34
 70
     1
102
RTVSPropertyOp35
 70
     1
102
RTVSPropertyOp36
 70
     1
102
RTVSPropertyOp37
 70
     1
102
RTVSPropertyOp38
 70
     1
102
RTVSPropertyOp39
 70
     1
102
RTVSPropertyOp40
 70
     1
102
RTVSPropertyOp41
 70
     1
102
RTVSPropertyOp42
 70
     1
102
RTVSPropertyOp43
 70
     1
102
RTVSPropertyOp44
 70
     1
102
RTVSPropertyOp45
 70
     1
102
RTVSPropertyOp46
 70
     1
102
RTVSPropertyOp47
 70
     1
102
RTVSPropertyOp48
 70
     1
102
RTVSPropertyOp49
 70
     1
102
RTVSPropertyOp50
 70
     1
102
RTVSPropertyOp51
 70
     0
102
RTVSPropertyOp52
 70
     0
102
RTVSPropertyOp53
 70
     1
102
RTVSPropertyOp54
 70
     1
102
RTVSPropertyOp55
 70
     1
102
RTVSPropertyOp56
 70
     1
102
RTVSPropertyOp57
 70
     1
102
RTVSPropertyOp58
 70
     1
102
RTVSPropertyOp59
 70
     1
102
RTVSPropertyOp60
 70
     1
102
RTVSPropertyOp61
 70
     1
102
RTVSPropertyOp62
 70
     1
  0
XRECORD
  5
21259
102
{ACAD_REACTORS
330
21258
102
}
330
21258
100
AcDbXrecord
280
     1
102
RTVSPost2010Prop28
280
     0
102
RTVSPost2010PropOp28
 70
     1
102
RTVSPost2010Prop29
280
     1
102
RTVSPost2010PropOp29
 70
     1
102
RTVSPost2010Prop30
280
     1
102
RTVSPost2010PropOp30
 70
     1
102
RTVSPost2010Prop31
280
     0
102
RTVSPost2010PropOp31
 70
     1
102
RTVSPost2010Prop32
280
     0
102
RTVSPost2010PropOp32
 70
     1
102
RTVSPost2010Prop33
280
     0
102
RTVSPost2010PropOp33
 70
     1
102
RTVSPost2010Prop34
280
     0
102
RTVSPost2010PropOp34
 70
     1
102
RTVSPost2010Prop35
280
     0
102
RTVSPost2010PropOp35
 70
     1
102
RTVSPost2010Prop36
280
     0
102
RTVSPost2010PropOp36
 70
     1
102
RTVSPost2010Prop37
 90
       50
102
RTVSPost2010PropOp37
 70
     1
102
RTVSPost2010Prop38
140
0.0
102
RTVSPost2010PropOp38
 70
     1
102
RTVSPost2010Prop39
140
1.0
102
RTVSPost2010PropOp39
 70
     1
102
RTVSPost2010Prop40
 90
        0
102
RTVSPost2010PropOp40
 70
     1
102
RTVSPost2010Prop41ColorIndex
 90
       18
102
RTVSPost2010Prop41ColorRGB
 90
        0
102
RTVSPost2010PropOp41
 70
     1
102
RTVSPost2010Prop42
 90
       50
102
RTVSPost2010PropOp42
 70
     1
102
RTVSPost2010Prop43
 90
        3
102
RTVSPost2010PropOp43
 70
     1
102
RTVSPost2010Prop44ColorIndex
 90
        5
102
RTVSPost2010Prop44ColorRGB
 90
      255
102
RTVSPost2010PropOp44
 70
     1
102
RTVSPost2010Prop45
280
     0
102
RTVSPost2010PropOp45
 70
     1
102
RTVSPost2010Prop46
 90
       50
102
RTVSPost2010PropOp46
 70
     1
102
RTVSPost2010Prop47
 90
       50
102
RTVSPost2010PropOp47
 70
     1
102
RTVSPost2010Prop48
 90
       50
102
RTVSPost2010PropOp48
 70
     1
102
RTVSPost2010Prop49
280
     0
102
RTVSPost2010PropOp49
 70
     1
102
RTVSPost2010Prop50
 90
       50
102
RTVSPost2010PropOp50
 70
     1
102
RTVSPost2010Prop51ColorIndex
 90
      256
102
RTVSPost2010Prop51ColorRGB
 90
-16777216
102
RTVSPost2010PropOp51
 70
     0
102
RTVSPost2010Prop52
140
1.0
102
RTVSPost2010PropOp52
 70
     0
102
RTVSPost2010Prop53
 90
        2
102
RTVSPost2010PropOp53
 70
     1
102
RTVSPost2010Prop54
  1
strokes_ogs.tif
102
RTVSPost2010PropOp54
 70
     1
102
RTVSPost2010Prop55
280
     0
102
RTVSPost2010PropOp55
 70
     1
102
RTVSPost2010Prop56
140
1.0
102
RTVSPost2010PropOp56
 70
     1
102
RTVSPost2010Prop57
140
1.0
102
RTVSPost2010PropOp57
 70
     1
102
RTVSPropertyOp0
 70
     1
102
RTVSPropertyOp1
 70
     1
102
RTVSPropertyOp2
 70
     1
102
RTVSPropertyOp3
 70
     1
102
RTVSPropertyOp4
 70
     1
102
RTVSPropertyOp5
 70
     1
102
RTVSPropertyOp6
 70
     1
102
RTVSPropertyOp7
 70
     1
102
RTVSPropertyOp8
 70
     1
102
RTVSPropertyOp9
 70
     1
102
RTVSPropertyOp10
 70
     1
102
RTVSPropertyOp11
 70
     1
102
RTVSPropertyOp12
 70
     1
102
RTVSPropertyOp13
 70
     1
102
RTVSPropertyOp14
 70
     1
102
RTVSPropertyOp15
 70
     1
102
RTVSPropertyOp16
 70
     1
102
RTVSPropertyOp17
 70
     1
102
RTVSPropertyOp18
 70
     1
102
RTVSPropertyOp19
 70
     1
102
RTVSPropertyOp20
 70
     1
102
RTVSPropertyOp21
 70
     1
102
RTVSPropertyOp22
 70
     1
102
RTVSPropertyOp23
 70
     1
102
RTVSPropertyOp24
 70
     1
102
RTVSPropertyOp25
 70
     1
102
RTVSPropertyOp26
 70
     1
102
RTVSPropertyOp27
 70
     1
102
RTVSPropertyOp28
 70
     1
102
RTVSPropertyOp29
 70
     1
102
RTVSPropertyOp30
 70
     1
102
RTVSPropertyOp31
 70
     1
102
RTVSPropertyOp32
 70
     1
102
RTVSPropertyOp33
 70
     1
102
RTVSPropertyOp34
 70
     1
102
RTVSPropertyOp35
 70
     1
102
RTVSPropertyOp36
 70
     1
102
RTVSPropertyOp37
 70
     1
102
RTVSPropertyOp38
 70
     1
102
RTVSPropertyOp39
 70
     1
102
RTVSPropertyOp40
 70
     1
102
RTVSPropertyOp41
 70
     1
102
RTVSPropertyOp42
 70
     1
102
RTVSPropertyOp43
 70
     1
102
RTVSPropertyOp44
 70
     1
102
RTVSPropertyOp45
 70
     1
102
RTVSPropertyOp46
 70
     1
102
RTVSPropertyOp47
 70
     1
102
RTVSPropertyOp48
 70
     1
102
RTVSPropertyOp49
 70
     1
102
RTVSPropertyOp50
 70
     1
102
RTVSPropertyOp51
 70
     0
102
RTVSPropertyOp52
 70
     0
102
RTVSPropertyOp53
 70
     1
102
RTVSPropertyOp54
 70
     1
102
RTVSPropertyOp55
 70
     1
102
RTVSPropertyOp56
 70
     1
102
RTVSPropertyOp57
 70
     1
102
RTVSPropertyOp58
 70
     1
102
RTVSPropertyOp59
 70
     1
102
RTVSPropertyOp60
 70
     1
102
RTVSPropertyOp61
 70
     1
102
RTVSPropertyOp62
 70
     1
  0
XRECORD
  5
2124B
102
{ACAD_REACTORS
330
2124A
102
}
330
2124A
100
AcDbXrecord
280
     1
102
RTVSPost2010Prop28
280
     0
102
RTVSPost2010PropOp28
 70
     1
102
RTVSPost2010Prop29
280
     1
102
RTVSPost2010PropOp29
 70
     1
102
RTVSPost2010Prop30
280
     1
102
RTVSPost2010PropOp30
 70
     1
102
RTVSPost2010Prop31
280
     0
102
RTVSPost2010PropOp31
 70
     1
102
RTVSPost2010Prop32
280
     0
102
RTVSPost2010PropOp32
 70
     1
102
RTVSPost2010Prop33
280
     0
102
RTVSPost2010PropOp33
 70
     1
102
RTVSPost2010Prop34
280
     0
102
RTVSPost2010PropOp34
 70
     1
102
RTVSPost2010Prop35
280
     0
102
RTVSPost2010PropOp35
 70
     1
102
RTVSPost2010Prop36
280
     0
102
RTVSPost2010PropOp36
 70
     1
102
RTVSPost2010Prop37
 90
       50
102
RTVSPost2010PropOp37
 70
     1
102
RTVSPost2010Prop38
140
0.0
102
RTVSPost2010PropOp38
 70
     1
102
RTVSPost2010Prop39
140
1.0
102
RTVSPost2010PropOp39
 70
     1
102
RTVSPost2010Prop40
 90
        0
102
RTVSPost2010PropOp40
 70
     1
102
RTVSPost2010Prop41ColorIndex
 90
       18
102
RTVSPost2010Prop41ColorRGB
 90
        0
102
RTVSPost2010PropOp41
 70
     1
102
RTVSPost2010Prop42
 90
       50
102
RTVSPost2010PropOp42
 70
     1
102
RTVSPost2010Prop43
 90
        3
102
RTVSPost2010PropOp43
 70
     1
102
RTVSPost2010Prop44ColorIndex
 90
        5
102
RTVSPost2010Prop44ColorRGB
 90
      255
102
RTVSPost2010PropOp44
 70
     1
102
RTVSPost2010Prop45
280
     0
102
RTVSPost2010PropOp45
 70
     1
102
RTVSPost2010Prop46
 90
       50
102
RTVSPost2010PropOp46
 70
     1
102
RTVSPost2010Prop47
 90
       50
102
RTVSPost2010PropOp47
 70
     1
102
RTVSPost2010Prop48
 90
       50
102
RTVSPost2010PropOp48
 70
     1
102
RTVSPost2010Prop49
280
     0
102
RTVSPost2010PropOp49
 70
     1
102
RTVSPost2010Prop50
 90
       50
102
RTVSPost2010PropOp50
 70
     1
102
RTVSPost2010Prop51ColorIndex
 90
      256
102
RTVSPost2010Prop51ColorRGB
 90
-16777216
102
RTVSPost2010PropOp51
 70
     0
102
RTVSPost2010Prop52
140
1.0
102
RTVSPost2010PropOp52
 70
     0
102
RTVSPost2010Prop53
 90
        2
102
RTVSPost2010PropOp53
 70
     1
102
RTVSPost2010Prop54
  1
strokes_ogs.tif
102
RTVSPost2010PropOp54
 70
     1
102
RTVSPost2010Prop55
280
     0
102
RTVSPost2010PropOp55
 70
     1
102
RTVSPost2010Prop56
140
1.0
102
RTVSPost2010PropOp56
 70
     1
102
RTVSPost2010Prop57
140
1.0
102
RTVSPost2010PropOp57
 70
     1
102
RTVSPropertyOp0
 70
     1
102
RTVSPropertyOp1
 70
     1
102
RTVSPropertyOp2
 70
     1
102
RTVSPropertyOp3
 70
     1
102
RTVSPropertyOp4
 70
     1
102
RTVSPropertyOp5
 70
     1
102
RTVSPropertyOp6
 70
     1
102
RTVSPropertyOp7
 70
     1
102
RTVSPropertyOp8
 70
     1
102
RTVSPropertyOp9
 70
     1
102
RTVSPropertyOp10
 70
     1
102
RTVSPropertyOp11
 70
     1
102
RTVSPropertyOp12
 70
     1
102
RTVSPropertyOp13
 70
     1
102
RTVSPropertyOp14
 70
     1
102
RTVSPropertyOp15
 70
     1
102
RTVSPropertyOp16
 70
     1
102
RTVSPropertyOp17
 70
     1
102
RTVSPropertyOp18
 70
     1
102
RTVSPropertyOp19
 70
     1
102
RTVSPropertyOp20
 70
     1
102
RTVSPropertyOp21
 70
     1
102
RTVSPropertyOp22
 70
     1
102
RTVSPropertyOp23
 70
     1
102
RTVSPropertyOp24
 70
     1
102
RTVSPropertyOp25
 70
     1
102
RTVSPropertyOp26
 70
     1
102
RTVSPropertyOp27
 70
     1
102
RTVSPropertyOp28
 70
     1
102
RTVSPropertyOp29
 70
     1
102
RTVSPropertyOp30
 70
     1
102
RTVSPropertyOp31
 70
     1
102
RTVSPropertyOp32
 70
     1
102
RTVSPropertyOp33
 70
     1
102
RTVSPropertyOp34
 70
     1
102
RTVSPropertyOp35
 70
     1
102
RTVSPropertyOp36
 70
     1
102
RTVSPropertyOp37
 70
     1
102
RTVSPropertyOp38
 70
     1
102
RTVSPropertyOp39
 70
     1
102
RTVSPropertyOp40
 70
     1
102
RTVSPropertyOp41
 70
     1
102
RTVSPropertyOp42
 70
     1
102
RTVSPropertyOp43
 70
     1
102
RTVSPropertyOp44
 70
     1
102
RTVSPropertyOp45
 70
     1
102
RTVSPropertyOp46
 70
     1
102
RTVSPropertyOp47
 70
     1
102
RTVSPropertyOp48
 70
     1
102
RTVSPropertyOp49
 70
     1
102
RTVSPropertyOp50
 70
     1
102
RTVSPropertyOp51
 70
     0
102
RTVSPropertyOp52
 70
     0
102
RTVSPropertyOp53
 70
     1
102
RTVSPropertyOp54
 70
     1
102
RTVSPropertyOp55
 70
     1
102
RTVSPropertyOp56
 70
     1
102
RTVSPropertyOp57
 70
     1
102
RTVSPropertyOp58
 70
     1
102
RTVSPropertyOp59
 70
     1
102
RTVSPropertyOp60
 70
     1
102
RTVSPropertyOp61
 70
     1
102
RTVSPropertyOp62
 70
     1
  0
XRECORD
  5
2124F
102
{ACAD_REACTORS
330
2124E
102
}
330
2124E
100
AcDbXrecord
280
     1
102
RTVSPost2010Prop28
280
     0
102
RTVSPost2010PropOp28
 70
     1
102
RTVSPost2010Prop29
280
     1
102
RTVSPost2010PropOp29
 70
     1
102
RTVSPost2010Prop30
280
     1
102
RTVSPost2010PropOp30
 70
     1
102
RTVSPost2010Prop31
280
     0
102
RTVSPost2010PropOp31
 70
     1
102
RTVSPost2010Prop32
280
     0
102
RTVSPost2010PropOp32
 70
     1
102
RTVSPost2010Prop33
280
     0
102
RTVSPost2010PropOp33
 70
     1
102
RTVSPost2010Prop34
280
     0
102
RTVSPost2010PropOp34
 70
     1
102
RTVSPost2010Prop35
280
     0
102
RTVSPost2010PropOp35
 70
     1
102
RTVSPost2010Prop36
280
     0
102
RTVSPost2010PropOp36
 70
     1
102
RTVSPost2010Prop37
 90
       50
102
RTVSPost2010PropOp37
 70
     1
102
RTVSPost2010Prop38
140
0.0
102
RTVSPost2010PropOp38
 70
     1
102
RTVSPost2010Prop39
140
1.0
102
RTVSPost2010PropOp39
 70
     1
102
RTVSPost2010Prop40
 90
        0
102
RTVSPost2010PropOp40
 70
     1
102
RTVSPost2010Prop41ColorIndex
 90
       18
102
RTVSPost2010Prop41ColorRGB
 90
        0
102
RTVSPost2010PropOp41
 70
     1
102
RTVSPost2010Prop42
 90
       50
102
RTVSPost2010PropOp42
 70
     1
102
RTVSPost2010Prop43
 90
        3
102
RTVSPost2010PropOp43
 70
     1
102
RTVSPost2010Prop44ColorIndex
 90
        5
102
RTVSPost2010Prop44ColorRGB
 90
      255
102
RTVSPost2010PropOp44
 70
     1
102
RTVSPost2010Prop45
280
     0
102
RTVSPost2010PropOp45
 70
     1
102
RTVSPost2010Prop46
 90
       50
102
RTVSPost2010PropOp46
 70
     1
102
RTVSPost2010Prop47
 90
       50
102
RTVSPost2010PropOp47
 70
     1
102
RTVSPost2010Prop48
 90
       50
102
RTVSPost2010PropOp48
 70
     1
102
RTVSPost2010Prop49
280
     0
102
RTVSPost2010PropOp49
 70
     1
102
RTVSPost2010Prop50
 90
       50
102
RTVSPost2010PropOp50
 70
     1
102
RTVSPost2010Prop51ColorIndex
 90
      256
102
RTVSPost2010Prop51ColorRGB
 90
-16777216
102
RTVSPost2010PropOp51
 70
     0
102
RTVSPost2010Prop52
140
1.0
102
RTVSPost2010PropOp52
 70
     0
102
RTVSPost2010Prop53
 90
        2
102
RTVSPost2010PropOp53
 70
     1
102
RTVSPost2010Prop54
  1
strokes_ogs.tif
102
RTVSPost2010PropOp54
 70
     1
102
RTVSPost2010Prop55
280
     0
102
RTVSPost2010PropOp55
 70
     1
102
RTVSPost2010Prop56
140
1.0
102
RTVSPost2010PropOp56
 70
     1
102
RTVSPost2010Prop57
140
1.0
102
RTVSPost2010PropOp57
 70
     1
102
RTVSPropertyOp0
 70
     1
102
RTVSPropertyOp1
 70
     1
102
RTVSPropertyOp2
 70
     1
102
RTVSPropertyOp3
 70
     1
102
RTVSPropertyOp4
 70
     1
102
RTVSPropertyOp5
 70
     1
102
RTVSPropertyOp6
 70
     1
102
RTVSPropertyOp7
 70
     1
102
RTVSPropertyOp8
 70
     1
102
RTVSPropertyOp9
 70
     1
102
RTVSPropertyOp10
 70
     1
102
RTVSPropertyOp11
 70
     1
102
RTVSPropertyOp12
 70
     1
102
RTVSPropertyOp13
 70
     1
102
RTVSPropertyOp14
 70
     1
102
RTVSPropertyOp15
 70
     1
102
RTVSPropertyOp16
 70
     1
102
RTVSPropertyOp17
 70
     1
102
RTVSPropertyOp18
 70
     1
102
RTVSPropertyOp19
 70
     1
102
RTVSPropertyOp20
 70
     1
102
RTVSPropertyOp21
 70
     1
102
RTVSPropertyOp22
 70
     1
102
RTVSPropertyOp23
 70
     1
102
RTVSPropertyOp24
 70
     1
102
RTVSPropertyOp25
 70
     1
102
RTVSPropertyOp26
 70
     1
102
RTVSPropertyOp27
 70
     1
102
RTVSPropertyOp28
 70
     1
102
RTVSPropertyOp29
 70
     1
102
RTVSPropertyOp30
 70
     1
102
RTVSPropertyOp31
 70
     1
102
RTVSPropertyOp32
 70
     1
102
RTVSPropertyOp33
 70
     1
102
RTVSPropertyOp34
 70
     1
102
RTVSPropertyOp35
 70
     1
102
RTVSPropertyOp36
 70
     1
102
RTVSPropertyOp37
 70
     1
102
RTVSPropertyOp38
 70
     1
102
RTVSPropertyOp39
 70
     1
102
RTVSPropertyOp40
 70
     1
102
RTVSPropertyOp41
 70
     1
102
RTVSPropertyOp42
 70
     1
102
RTVSPropertyOp43
 70
     1
102
RTVSPropertyOp44
 70
     1
102
RTVSPropertyOp45
 70
     1
102
RTVSPropertyOp46
 70
     1
102
RTVSPropertyOp47
 70
     1
102
RTVSPropertyOp48
 70
     1
102
RTVSPropertyOp49
 70
     1
102
RTVSPropertyOp50
 70
     1
102
RTVSPropertyOp51
 70
     0
102
RTVSPropertyOp52
 70
     0
102
RTVSPropertyOp53
 70
     1
102
RTVSPropertyOp54
 70
     1
102
RTVSPropertyOp55
 70
     1
102
RTVSPropertyOp56
 70
     1
102
RTVSPropertyOp57
 70
     1
102
RTVSPropertyOp58
 70
     1
102
RTVSPropertyOp59
 70
     1
102
RTVSPropertyOp60
 70
     1
102
RTVSPropertyOp61
 70
     1
102
RTVSPropertyOp62
 70
     1
  0
XRECORD
  5
21275
102
{ACAD_REACTORS
330
21274
102
}
330
21274
100
AcDbXrecord
280
     1
102
RTVSPost2010Prop28
280
     0
102
RTVSPost2010PropOp28
 70
     1
102
RTVSPost2010Prop29
280
     1
102
RTVSPost2010PropOp29
 70
     1
102
RTVSPost2010Prop30
280
     1
102
RTVSPost2010PropOp30
 70
     1
102
RTVSPost2010Prop31
280
     0
102
RTVSPost2010PropOp31
 70
     1
102
RTVSPost2010Prop32
280
     0
102
RTVSPost2010PropOp32
 70
     1
102
RTVSPost2010Prop33
280
     0
102
RTVSPost2010PropOp33
 70
     1
102
RTVSPost2010Prop34
280
     0
102
RTVSPost2010PropOp34
 70
     1
102
RTVSPost2010Prop35
280
     0
102
RTVSPost2010PropOp35
 70
     1
102
RTVSPost2010Prop36
280
     0
102
RTVSPost2010PropOp36
 70
     1
102
RTVSPost2010Prop37
 90
       50
102
RTVSPost2010PropOp37
 70
     0
102
RTVSPost2010Prop38
140
0.0
102
RTVSPost2010PropOp38
 70
     0
102
RTVSPost2010Prop39
140
1.0
102
RTVSPost2010PropOp39
 70
     0
102
RTVSPost2010Prop40
 90
        0
102
RTVSPost2010PropOp40
 70
     0
102
RTVSPost2010Prop41ColorIndex
 90
       18
102
RTVSPost2010Prop41ColorRGB
 90
        0
102
RTVSPost2010PropOp41
 70
     0
102
RTVSPost2010Prop42
 90
       50
102
RTVSPost2010PropOp42
 70
     0
102
RTVSPost2010Prop43
 90
        3
102
RTVSPost2010PropOp43
 70
     0
102
RTVSPost2010Prop44ColorIndex
 90
        5
102
RTVSPost2010Prop44ColorRGB
 90
      255
102
RTVSPost2010PropOp44
 70
     0
102
RTVSPost2010Prop45
280
     0
102
RTVSPost2010PropOp45
 70
     1
102
RTVSPost2010Prop46
 90
       50
102
RTVSPost2010PropOp46
 70
     0
102
RTVSPost2010Prop47
 90
       50
102
RTVSPost2010PropOp47
 70
     0
102
RTVSPost2010Prop48
 90
       50
102
RTVSPost2010PropOp48
 70
     0
102
RTVSPost2010Prop49
280
     0
102
RTVSPost2010PropOp49
 70
     1
102
RTVSPost2010Prop50
 90
       50
102
RTVSPost2010PropOp50
 70
     0
102
RTVSPost2010Prop51ColorIndex
 90
      256
102
RTVSPost2010Prop51ColorRGB
 90
-16777216
102
RTVSPost2010PropOp51
 70
     0
102
RTVSPost2010Prop52
140
1.0
102
RTVSPost2010PropOp52
 70
     0
102
RTVSPost2010Prop53
 90
        2
102
RTVSPost2010PropOp53
 70
     0
102
RTVSPost2010Prop54
  1
strokes_ogs.tif
102
RTVSPost2010PropOp54
 70
     0
102
RTVSPost2010Prop55
280
     0
102
RTVSPost2010PropOp55
 70
     1
102
RTVSPost2010Prop56
140
1.0
102
RTVSPost2010PropOp56
 70
     0
102
RTVSPost2010Prop57
140
1.0
102
RTVSPost2010PropOp57
 70
     0
102
RTVSPropertyOp0
 70
     0
102
RTVSPropertyOp1
 70
     0
102
RTVSPropertyOp2
 70
     0
102
RTVSPropertyOp3
 70
     0
102
RTVSPropertyOp4
 70
     0
102
RTVSPropertyOp5
 70
     0
102
RTVSPropertyOp6
 70
     0
102
RTVSPropertyOp7
 70
     0
102
RTVSPropertyOp8
 70
     0
102
RTVSPropertyOp9
 70
     0
102
RTVSPropertyOp10
 70
     0
102
RTVSPropertyOp11
 70
     0
102
RTVSPropertyOp12
 70
     0
102
RTVSPropertyOp13
 70
     0
102
RTVSPropertyOp14
 70
     2
102
RTVSPropertyOp15
 70
     0
102
RTVSPropertyOp16
 70
     0
102
RTVSPropertyOp17
 70
     0
102
RTVSPropertyOp18
 70
     0
102
RTVSPropertyOp19
 70
     0
102
RTVSPropertyOp20
 70
     0
102
RTVSPropertyOp21
 70
     0
102
RTVSPropertyOp22
 70
     0
102
RTVSPropertyOp23
 70
     0
102
RTVSPropertyOp24
 70
     0
102
RTVSPropertyOp25
 70
     0
102
RTVSPropertyOp26
 70
     0
102
RTVSPropertyOp27
 70
     0
102
RTVSPropertyOp28
 70
     1
102
RTVSPropertyOp29
 70
     1
102
RTVSPropertyOp30
 70
     1
102
RTVSPropertyOp31
 70
     1
102
RTVSPropertyOp32
 70
     1
102
RTVSPropertyOp33
 70
     1
102
RTVSPropertyOp34
 70
     1
102
RTVSPropertyOp35
 70
     1
102
RTVSPropertyOp36
 70
     1
102
RTVSPropertyOp37
 70
     0
102
RTVSPropertyOp38
 70
     0
102
RTVSPropertyOp39
 70
     0
102
RTVSPropertyOp40
 70
     0
102
RTVSPropertyOp41
 70
     0
102
RTVSPropertyOp42
 70
     0
102
RTVSPropertyOp43
 70
     0
102
RTVSPropertyOp44
 70
     0
102
RTVSPropertyOp45
 70
     1
102
RTVSPropertyOp46
 70
     0
102
RTVSPropertyOp47
 70
     0
102
RTVSPropertyOp48
 70
     0
102
RTVSPropertyOp49
 70
     1
102
RTVSPropertyOp50
 70
     0
102
RTVSPropertyOp51
 70
     0
102
RTVSPropertyOp52
 70
     0
102
RTVSPropertyOp53
 70
     0
102
RTVSPropertyOp54
 70
     0
102
RTVSPropertyOp55
 70
     1
102
RTVSPropertyOp56
 70
     0
102
RTVSPropertyOp57
 70
     0
102
RTVSPropertyOp58
 70
     1
102
RTVSPropertyOp59
 70
     1
102
RTVSPropertyOp60
 70
     1
102
RTVSPropertyOp61
 70
     1
102
RTVSPropertyOp62
 70
     1
  0
XRECORD
  5
21257
102
{ACAD_REACTORS
330
21256
102
}
330
21256
100
AcDbXrecord
280
     1
102
RTVSPost2010Prop28
280
     0
102
RTVSPost2010PropOp28
 70
     1
102
RTVSPost2010Prop29
280
     1
102
RTVSPost2010PropOp29
 70
     1
102
RTVSPost2010Prop30
280
     1
102
RTVSPost2010PropOp30
 70
     1
102
RTVSPost2010Prop31
280
     0
102
RTVSPost2010PropOp31
 70
     1
102
RTVSPost2010Prop32
280
     0
102
RTVSPost2010PropOp32
 70
     1
102
RTVSPost2010Prop33
280
     0
102
RTVSPost2010PropOp33
 70
     1
102
RTVSPost2010Prop34
280
     0
102
RTVSPost2010PropOp34
 70
     1
102
RTVSPost2010Prop35
280
     0
102
RTVSPost2010PropOp35
 70
     1
102
RTVSPost2010Prop36
280
     0
102
RTVSPost2010PropOp36
 70
     1
102
RTVSPost2010Prop37
 90
       50
102
RTVSPost2010PropOp37
 70
     1
102
RTVSPost2010Prop38
140
0.0
102
RTVSPost2010PropOp38
 70
     1
102
RTVSPost2010Prop39
140
1.0
102
RTVSPost2010PropOp39
 70
     1
102
RTVSPost2010Prop40
 90
        0
102
RTVSPost2010PropOp40
 70
     1
102
RTVSPost2010Prop41ColorIndex
 90
       18
102
RTVSPost2010Prop41ColorRGB
 90
        0
102
RTVSPost2010PropOp41
 70
     1
102
RTVSPost2010Prop42
 90
       50
102
RTVSPost2010PropOp42
 70
     1
102
RTVSPost2010Prop43
 90
        3
102
RTVSPost2010PropOp43
 70
     1
102
RTVSPost2010Prop44ColorIndex
 90
        5
102
RTVSPost2010Prop44ColorRGB
 90
      255
102
RTVSPost2010PropOp44
 70
     1
102
RTVSPost2010Prop45
280
     0
102
RTVSPost2010PropOp45
 70
     1
102
RTVSPost2010Prop46
 90
       50
102
RTVSPost2010PropOp46
 70
     1
102
RTVSPost2010Prop47
 90
       50
102
RTVSPost2010PropOp47
 70
     1
102
RTVSPost2010Prop48
 90
       50
102
RTVSPost2010PropOp48
 70
     1
102
RTVSPost2010Prop49
280
     0
102
RTVSPost2010PropOp49
 70
     1
102
RTVSPost2010Prop50
 90
       50
102
RTVSPost2010PropOp50
 70
     1
102
RTVSPost2010Prop51ColorIndex
 90
      256
102
RTVSPost2010Prop51ColorRGB
 90
-16777216
102
RTVSPost2010PropOp51
 70
     0
102
RTVSPost2010Prop52
140
1.0
102
RTVSPost2010PropOp52
 70
     0
102
RTVSPost2010Prop53
 90
        2
102
RTVSPost2010PropOp53
 70
     1
102
RTVSPost2010Prop54
  1
strokes_ogs.tif
102
RTVSPost2010PropOp54
 70
     1
102
RTVSPost2010Prop55
280
     0
102
RTVSPost2010PropOp55
 70
     1
102
RTVSPost2010Prop56
140
1.0
102
RTVSPost2010PropOp56
 70
     1
102
RTVSPost2010Prop57
140
1.0
102
RTVSPost2010PropOp57
 70
     1
102
RTVSPropertyOp0
 70
     1
102
RTVSPropertyOp1
 70
     1
102
RTVSPropertyOp2
 70
     1
102
RTVSPropertyOp3
 70
     1
102
RTVSPropertyOp4
 70
     1
102
RTVSPropertyOp5
 70
     1
102
RTVSPropertyOp6
 70
     1
102
RTVSPropertyOp7
 70
     1
102
RTVSPropertyOp8
 70
     1
102
RTVSPropertyOp9
 70
     1
102
RTVSPropertyOp10
 70
     1
102
RTVSPropertyOp11
 70
     1
102
RTVSPropertyOp12
 70
     1
102
RTVSPropertyOp13
 70
     1
102
RTVSPropertyOp14
 70
     1
102
RTVSPropertyOp15
 70
     1
102
RTVSPropertyOp16
 70
     1
102
RTVSPropertyOp17
 70
     1
102
RTVSPropertyOp18
 70
     1
102
RTVSPropertyOp19
 70
     1
102
RTVSPropertyOp20
 70
     1
102
RTVSPropertyOp21
 70
     1
102
RTVSPropertyOp22
 70
     1
102
RTVSPropertyOp23
 70
     1
102
RTVSPropertyOp24
 70
     1
102
RTVSPropertyOp25
 70
     1
102
RTVSPropertyOp26
 70
     1
102
RTVSPropertyOp27
 70
     1
102
RTVSPropertyOp28
 70
     1
102
RTVSPropertyOp29
 70
     1
102
RTVSPropertyOp30
 70
     1
102
RTVSPropertyOp31
 70
     1
102
RTVSPropertyOp32
 70
     1
102
RTVSPropertyOp33
 70
     1
102
RTVSPropertyOp34
 70
     1
102
RTVSPropertyOp35
 70
     1
102
RTVSPropertyOp36
 70
     1
102
RTVSPropertyOp37
 70
     1
102
RTVSPropertyOp38
 70
     1
102
RTVSPropertyOp39
 70
     1
102
RTVSPropertyOp40
 70
     1
102
RTVSPropertyOp41
 70
     1
102
RTVSPropertyOp42
 70
     1
102
RTVSPropertyOp43
 70
     1
102
RTVSPropertyOp44
 70
     1
102
RTVSPropertyOp45
 70
     1
102
RTVSPropertyOp46
 70
     1
102
RTVSPropertyOp47
 70
     1
102
RTVSPropertyOp48
 70
     1
102
RTVSPropertyOp49
 70
     1
102
RTVSPropertyOp50
 70
     1
102
RTVSPropertyOp51
 70
     0
102
RTVSPropertyOp52
 70
     0
102
RTVSPropertyOp53
 70
     1
102
RTVSPropertyOp54
 70
     1
102
RTVSPropertyOp55
 70
     1
102
RTVSPropertyOp56
 70
     1
102
RTVSPropertyOp57
 70
     1
102
RTVSPropertyOp58
 70
     1
102
RTVSPropertyOp59
 70
     1
102
RTVSPropertyOp60
 70
     1
102
RTVSPropertyOp61
 70
     1
102
RTVSPropertyOp62
 70
     1
  0
XRECORD
  5
2123B
102
{ACAD_REACTORS
330
2123A
102
}
330
2123A
100
AcDbXrecord
280
     1
102
RTVSPost2010Prop28
280
     0
102
RTVSPost2010PropOp28
 70
     1
102
RTVSPost2010Prop29
280
     1
102
RTVSPost2010PropOp29
 70
     1
102
RTVSPost2010Prop30
280
     1
102
RTVSPost2010PropOp30
 70
     1
102
RTVSPost2010Prop31
280
     0
102
RTVSPost2010PropOp31
 70
     1
102
RTVSPost2010Prop32
280
     0
102
RTVSPost2010PropOp32
 70
     1
102
RTVSPost2010Prop33
280
     0
102
RTVSPost2010PropOp33
 70
     1
102
RTVSPost2010Prop34
280
     0
102
RTVSPost2010PropOp34
 70
     1
102
RTVSPost2010Prop35
280
     0
102
RTVSPost2010PropOp35
 70
     1
102
RTVSPost2010Prop36
280
     0
102
RTVSPost2010PropOp36
 70
     1
102
RTVSPost2010Prop37
 90
       50
102
RTVSPost2010PropOp37
 70
     1
102
RTVSPost2010Prop38
140
0.0
102
RTVSPost2010PropOp38
 70
     1
102
RTVSPost2010Prop39
140
1.0
102
RTVSPost2010PropOp39
 70
     1
102
RTVSPost2010Prop40
 90
        0
102
RTVSPost2010PropOp40
 70
     1
102
RTVSPost2010Prop41ColorIndex
 90
       18
102
RTVSPost2010Prop41ColorRGB
 90
        0
102
RTVSPost2010PropOp41
 70
     1
102
RTVSPost2010Prop42
 90
       50
102
RTVSPost2010PropOp42
 70
     1
102
RTVSPost2010Prop43
 90
        3
102
RTVSPost2010PropOp43
 70
     1
102
RTVSPost2010Prop44ColorIndex
 90
        5
102
RTVSPost2010Prop44ColorRGB
 90
      255
102
RTVSPost2010PropOp44
 70
     1
102
RTVSPost2010Prop45
280
     0
102
RTVSPost2010PropOp45
 70
     1
102
RTVSPost2010Prop46
 90
       50
102
RTVSPost2010PropOp46
 70
     1
102
RTVSPost2010Prop47
 90
       50
102
RTVSPost2010PropOp47
 70
     1
102
RTVSPost2010Prop48
 90
       50
102
RTVSPost2010PropOp48
 70
     1
102
RTVSPost2010Prop49
280
     0
102
RTVSPost2010PropOp49
 70
     1
102
RTVSPost2010Prop50
 90
       50
102
RTVSPost2010PropOp50
 70
     1
102
RTVSPost2010Prop51ColorIndex
 90
      256
102
RTVSPost2010Prop51ColorRGB
 90
-16777216
102
RTVSPost2010PropOp51
 70
     0
102
RTVSPost2010Prop52
140
1.0
102
RTVSPost2010PropOp52
 70
     0
102
RTVSPost2010Prop53
 90
        2
102
RTVSPost2010PropOp53
 70
     1
102
RTVSPost2010Prop54
  1
strokes_ogs.tif
102
RTVSPost2010PropOp54
 70
     1
102
RTVSPost2010Prop55
280
     0
102
RTVSPost2010PropOp55
 70
     1
102
RTVSPost2010Prop56
140
1.0
102
RTVSPost2010PropOp56
 70
     1
102
RTVSPost2010Prop57
140
1.0
102
RTVSPost2010PropOp57
 70
     1
102
RTVSPropertyOp0
 70
     1
102
RTVSPropertyOp1
 70
     1
102
RTVSPropertyOp2
 70
     1
102
RTVSPropertyOp3
 70
     1
102
RTVSPropertyOp4
 70
     1
102
RTVSPropertyOp5
 70
     1
102
RTVSPropertyOp6
 70
     1
102
RTVSPropertyOp7
 70
     1
102
RTVSPropertyOp8
 70
     1
102
RTVSPropertyOp9
 70
     1
102
RTVSPropertyOp10
 70
     1
102
RTVSPropertyOp11
 70
     1
102
RTVSPropertyOp12
 70
     1
102
RTVSPropertyOp13
 70
     1
102
RTVSPropertyOp14
 70
     1
102
RTVSPropertyOp15
 70
     1
102
RTVSPropertyOp16
 70
     1
102
RTVSPropertyOp17
 70
     1
102
RTVSPropertyOp18
 70
     1
102
RTVSPropertyOp19
 70
     1
102
RTVSPropertyOp20
 70
     1
102
RTVSPropertyOp21
 70
     1
102
RTVSPropertyOp22
 70
     1
102
RTVSPropertyOp23
 70
     1
102
RTVSPropertyOp24
 70
     1
102
RTVSPropertyOp25
 70
     1
102
RTVSPropertyOp26
 70
     1
102
RTVSPropertyOp27
 70
     1
102
RTVSPropertyOp28
 70
     1
102
RTVSPropertyOp29
 70
     1
102
RTVSPropertyOp30
 70
     1
102
RTVSPropertyOp31
 70
     1
102
RTVSPropertyOp32
 70
     1
102
RTVSPropertyOp33
 70
     1
102
RTVSPropertyOp34
 70
     1
102
RTVSPropertyOp35
 70
     1
102
RTVSPropertyOp36
 70
     1
102
RTVSPropertyOp37
 70
     1
102
RTVSPropertyOp38
 70
     1
102
RTVSPropertyOp39
 70
     1
102
RTVSPropertyOp40
 70
     1
102
RTVSPropertyOp41
 70
     1
102
RTVSPropertyOp42
 70
     1
102
RTVSPropertyOp43
 70
     1
102
RTVSPropertyOp44
 70
     1
102
RTVSPropertyOp45
 70
     1
102
RTVSPropertyOp46
 70
     1
102
RTVSPropertyOp47
 70
     1
102
RTVSPropertyOp48
 70
     1
102
RTVSPropertyOp49
 70
     1
102
RTVSPropertyOp50
 70
     1
102
RTVSPropertyOp51
 70
     0
102
RTVSPropertyOp52
 70
     0
102
RTVSPropertyOp53
 70
     1
102
RTVSPropertyOp54
 70
     1
102
RTVSPropertyOp55
 70
     1
102
RTVSPropertyOp56
 70
     1
102
RTVSPropertyOp57
 70
     1
102
RTVSPropertyOp58
 70
     1
102
RTVSPropertyOp59
 70
     1
102
RTVSPropertyOp60
 70
     1
102
RTVSPropertyOp61
 70
     1
102
RTVSPropertyOp62
 70
     1
  0
XRECORD
  5
2123D
102
{ACAD_REACTORS
330
2123C
102
}
330
2123C
100
AcDbXrecord
280
     1
102
RTVSPost2010Prop28
280
     0
102
RTVSPost2010PropOp28
 70
     1
102
RTVSPost2010Prop29
280
     1
102
RTVSPost2010PropOp29
 70
     1
102
RTVSPost2010Prop30
280
     1
102
RTVSPost2010PropOp30
 70
     1
102
RTVSPost2010Prop31
280
     0
102
RTVSPost2010PropOp31
 70
     1
102
RTVSPost2010Prop32
280
     0
102
RTVSPost2010PropOp32
 70
     1
102
RTVSPost2010Prop33
280
     0
102
RTVSPost2010PropOp33
 70
     1
102
RTVSPost2010Prop34
280
     0
102
RTVSPost2010PropOp34
 70
     1
102
RTVSPost2010Prop35
280
     0
102
RTVSPost2010PropOp35
 70
     1
102
RTVSPost2010Prop36
280
     0
102
RTVSPost2010PropOp36
 70
     1
102
RTVSPost2010Prop37
 90
       50
102
RTVSPost2010PropOp37
 70
     1
102
RTVSPost2010Prop38
140
0.0
102
RTVSPost2010PropOp38
 70
     1
102
RTVSPost2010Prop39
140
1.0
102
RTVSPost2010PropOp39
 70
     1
102
RTVSPost2010Prop40
 90
        0
102
RTVSPost2010PropOp40
 70
     1
102
RTVSPost2010Prop41ColorIndex
 90
       18
102
RTVSPost2010Prop41ColorRGB
 90
        0
102
RTVSPost2010PropOp41
 70
     1
102
RTVSPost2010Prop42
 90
       50
102
RTVSPost2010PropOp42
 70
     1
102
RTVSPost2010Prop43
 90
        3
102
RTVSPost2010PropOp43
 70
     1
102
RTVSPost2010Prop44ColorIndex
 90
        5
102
RTVSPost2010Prop44ColorRGB
 90
      255
102
RTVSPost2010PropOp44
 70
     1
102
RTVSPost2010Prop45
280
     0
102
RTVSPost2010PropOp45
 70
     1
102
RTVSPost2010Prop46
 90
       50
102
RTVSPost2010PropOp46
 70
     1
102
RTVSPost2010Prop47
 90
       50
102
RTVSPost2010PropOp47
 70
     1
102
RTVSPost2010Prop48
 90
       50
102
RTVSPost2010PropOp48
 70
     1
102
RTVSPost2010Prop49
280
     0
102
RTVSPost2010PropOp49
 70
     1
102
RTVSPost2010Prop50
 90
       50
102
RTVSPost2010PropOp50
 70
     1
102
RTVSPost2010Prop51ColorIndex
 90
      256
102
RTVSPost2010Prop51ColorRGB
 90
-16777216
102
RTVSPost2010PropOp51
 70
     0
102
RTVSPost2010Prop52
140
1.0
102
RTVSPost2010PropOp52
 70
     0
102
RTVSPost2010Prop53
 90
        2
102
RTVSPost2010PropOp53
 70
     1
102
RTVSPost2010Prop54
  1
strokes_ogs.tif
102
RTVSPost2010PropOp54
 70
     1
102
RTVSPost2010Prop55
280
     0
102
RTVSPost2010PropOp55
 70
     1
102
RTVSPost2010Prop56
140
1.0
102
RTVSPost2010PropOp56
 70
     1
102
RTVSPost2010Prop57
140
1.0
102
RTVSPost2010PropOp57
 70
     1
102
RTVSPropertyOp0
 70
     1
102
RTVSPropertyOp1
 70
     1
102
RTVSPropertyOp2
 70
     1
102
RTVSPropertyOp3
 70
     1
102
RTVSPropertyOp4
 70
     1
102
RTVSPropertyOp5
 70
     1
102
RTVSPropertyOp6
 70
     1
102
RTVSPropertyOp7
 70
     1
102
RTVSPropertyOp8
 70
     1
102
RTVSPropertyOp9
 70
     1
102
RTVSPropertyOp10
 70
     1
102
RTVSPropertyOp11
 70
     1
102
RTVSPropertyOp12
 70
     1
102
RTVSPropertyOp13
 70
     1
102
RTVSPropertyOp14
 70
     1
102
RTVSPropertyOp15
 70
     1
102
RTVSPropertyOp16
 70
     1
102
RTVSPropertyOp17
 70
     1
102
RTVSPropertyOp18
 70
     1
102
RTVSPropertyOp19
 70
     1
102
RTVSPropertyOp20
 70
     1
102
RTVSPropertyOp21
 70
     1
102
RTVSPropertyOp22
 70
     1
102
RTVSPropertyOp23
 70
     1
102
RTVSPropertyOp24
 70
     1
102
RTVSPropertyOp25
 70
     1
102
RTVSPropertyOp26
 70
     1
102
RTVSPropertyOp27
 70
     1
102
RTVSPropertyOp28
 70
     1
102
RTVSPropertyOp29
 70
     1
102
RTVSPropertyOp30
 70
     1
102
RTVSPropertyOp31
 70
     1
102
RTVSPropertyOp32
 70
     1
102
RTVSPropertyOp33
 70
     1
102
RTVSPropertyOp34
 70
     1
102
RTVSPropertyOp35
 70
     1
102
RTVSPropertyOp36
 70
     1
102
RTVSPropertyOp37
 70
     1
102
RTVSPropertyOp38
 70
     1
102
RTVSPropertyOp39
 70
     1
102
RTVSPropertyOp40
 70
     1
102
RTVSPropertyOp41
 70
     1
102
RTVSPropertyOp42
 70
     1
102
RTVSPropertyOp43
 70
     1
102
RTVSPropertyOp44
 70
     1
102
RTVSPropertyOp45
 70
     1
102
RTVSPropertyOp46
 70
     1
102
RTVSPropertyOp47
 70
     1
102
RTVSPropertyOp48
 70
     1
102
RTVSPropertyOp49
 70
     1
102
RTVSPropertyOp50
 70
     1
102
RTVSPropertyOp51
 70
     0
102
RTVSPropertyOp52
 70
     0
102
RTVSPropertyOp53
 70
     1
102
RTVSPropertyOp54
 70
     1
102
RTVSPropertyOp55
 70
     1
102
RTVSPropertyOp56
 70
     1
102
RTVSPropertyOp57
 70
     1
102
RTVSPropertyOp58
 70
     1
102
RTVSPropertyOp59
 70
     1
102
RTVSPropertyOp60
 70
     1
102
RTVSPropertyOp61
 70
     1
102
RTVSPropertyOp62
 70
     1
  0
XRECORD
  5
2123F
102
{ACAD_REACTORS
330
2123E
102
}
330
2123E
100
AcDbXrecord
280
     1
102
RTVSPost2010Prop28
280
     0
102
RTVSPost2010PropOp28
 70
     1
102
RTVSPost2010Prop29
280
     1
102
RTVSPost2010PropOp29
 70
     1
102
RTVSPost2010Prop30
280
     1
102
RTVSPost2010PropOp30
 70
     1
102
RTVSPost2010Prop31
280
     0
102
RTVSPost2010PropOp31
 70
     1
102
RTVSPost2010Prop32
280
     0
102
RTVSPost2010PropOp32
 70
     1
102
RTVSPost2010Prop33
280
     0
102
RTVSPost2010PropOp33
 70
     1
102
RTVSPost2010Prop34
280
     0
102
RTVSPost2010PropOp34
 70
     1
102
RTVSPost2010Prop35
280
     0
102
RTVSPost2010PropOp35
 70
     1
102
RTVSPost2010Prop36
280
     0
102
RTVSPost2010PropOp36
 70
     1
102
RTVSPost2010Prop37
 90
       50
102
RTVSPost2010PropOp37
 70
     1
102
RTVSPost2010Prop38
140
0.0
102
RTVSPost2010PropOp38
 70
     1
102
RTVSPost2010Prop39
140
1.0
102
RTVSPost2010PropOp39
 70
     1
102
RTVSPost2010Prop40
 90
        0
102
RTVSPost2010PropOp40
 70
     1
102
RTVSPost2010Prop41ColorIndex
 90
       18
102
RTVSPost2010Prop41ColorRGB
 90
        0
102
RTVSPost2010PropOp41
 70
     1
102
RTVSPost2010Prop42
 90
       50
102
RTVSPost2010PropOp42
 70
     1
102
RTVSPost2010Prop43
 90
        3
102
RTVSPost2010PropOp43
 70
     1
102
RTVSPost2010Prop44ColorIndex
 90
        5
102
RTVSPost2010Prop44ColorRGB
 90
      255
102
RTVSPost2010PropOp44
 70
     1
102
RTVSPost2010Prop45
280
     0
102
RTVSPost2010PropOp45
 70
     1
102
RTVSPost2010Prop46
 90
       50
102
RTVSPost2010PropOp46
 70
     1
102
RTVSPost2010Prop47
 90
       50
102
RTVSPost2010PropOp47
 70
     1
102
RTVSPost2010Prop48
 90
       50
102
RTVSPost2010PropOp48
 70
     1
102
RTVSPost2010Prop49
280
     0
102
RTVSPost2010PropOp49
 70
     1
102
RTVSPost2010Prop50
 90
       50
102
RTVSPost2010PropOp50
 70
     1
102
RTVSPost2010Prop51ColorIndex
 90
      256
102
RTVSPost2010Prop51ColorRGB
 90
-16777216
102
RTVSPost2010PropOp51
 70
     0
102
RTVSPost2010Prop52
140
1.0
102
RTVSPost2010PropOp52
 70
     0
102
RTVSPost2010Prop53
 90
        2
102
RTVSPost2010PropOp53
 70
     1
102
RTVSPost2010Prop54
  1
strokes_ogs.tif
102
RTVSPost2010PropOp54
 70
     1
102
RTVSPost2010Prop55
280
     0
102
RTVSPost2010PropOp55
 70
     1
102
RTVSPost2010Prop56
140
1.0
102
RTVSPost2010PropOp56
 70
     1
102
RTVSPost2010Prop57
140
1.0
102
RTVSPost2010PropOp57
 70
     1
102
RTVSPropertyOp0
 70
     1
102
RTVSPropertyOp1
 70
     1
102
RTVSPropertyOp2
 70
     1
102
RTVSPropertyOp3
 70
     1
102
RTVSPropertyOp4
 70
     1
102
RTVSPropertyOp5
 70
     1
102
RTVSPropertyOp6
 70
     1
102
RTVSPropertyOp7
 70
     1
102
RTVSPropertyOp8
 70
     1
102
RTVSPropertyOp9
 70
     1
102
RTVSPropertyOp10
 70
     1
102
RTVSPropertyOp11
 70
     1
102
RTVSPropertyOp12
 70
     1
102
RTVSPropertyOp13
 70
     1
102
RTVSPropertyOp14
 70
     1
102
RTVSPropertyOp15
 70
     1
102
RTVSPropertyOp16
 70
     1
102
RTVSPropertyOp17
 70
     1
102
RTVSPropertyOp18
 70
     1
102
RTVSPropertyOp19
 70
     1
102
RTVSPropertyOp20
 70
     1
102
RTVSPropertyOp21
 70
     1
102
RTVSPropertyOp22
 70
     1
102
RTVSPropertyOp23
 70
     1
102
RTVSPropertyOp24
 70
     1
102
RTVSPropertyOp25
 70
     1
102
RTVSPropertyOp26
 70
     1
102
RTVSPropertyOp27
 70
     1
102
RTVSPropertyOp28
 70
     1
102
RTVSPropertyOp29
 70
     1
102
RTVSPropertyOp30
 70
     1
102
RTVSPropertyOp31
 70
     1
102
RTVSPropertyOp32
 70
     1
102
RTVSPropertyOp33
 70
     1
102
RTVSPropertyOp34
 70
     1
102
RTVSPropertyOp35
 70
     1
102
RTVSPropertyOp36
 70
     1
102
RTVSPropertyOp37
 70
     1
102
RTVSPropertyOp38
 70
     1
102
RTVSPropertyOp39
 70
     1
102
RTVSPropertyOp40
 70
     1
102
RTVSPropertyOp41
 70
     1
102
RTVSPropertyOp42
 70
     1
102
RTVSPropertyOp43
 70
     1
102
RTVSPropertyOp44
 70
     1
102
RTVSPropertyOp45
 70
     1
102
RTVSPropertyOp46
 70
     1
102
RTVSPropertyOp47
 70
     1
102
RTVSPropertyOp48
 70
     1
102
RTVSPropertyOp49
 70
     1
102
RTVSPropertyOp50
 70
     1
102
RTVSPropertyOp51
 70
     0
102
RTVSPropertyOp52
 70
     0
102
RTVSPropertyOp53
 70
     1
102
RTVSPropertyOp54
 70
     1
102
RTVSPropertyOp55
 70
     1
102
RTVSPropertyOp56
 70
     1
102
RTVSPropertyOp57
 70
     1
102
RTVSPropertyOp58
 70
     1
102
RTVSPropertyOp59
 70
     1
102
RTVSPropertyOp60
 70
     1
102
RTVSPropertyOp61
 70
     1
102
RTVSPropertyOp62
 70
     1
  0
XRECORD
  5
21241
102
{ACAD_REACTORS
330
21240
102
}
330
21240
100
AcDbXrecord
280
     1
102
RTVSPost2010Prop28
280
     0
102
RTVSPost2010PropOp28
 70
     1
102
RTVSPost2010Prop29
280
     1
102
RTVSPost2010PropOp29
 70
     1
102
RTVSPost2010Prop30
280
     1
102
RTVSPost2010PropOp30
 70
     1
102
RTVSPost2010Prop31
280
     0
102
RTVSPost2010PropOp31
 70
     1
102
RTVSPost2010Prop32
280
     0
102
RTVSPost2010PropOp32
 70
     1
102
RTVSPost2010Prop33
280
     0
102
RTVSPost2010PropOp33
 70
     1
102
RTVSPost2010Prop34
280
     0
102
RTVSPost2010PropOp34
 70
     1
102
RTVSPost2010Prop35
280
     0
102
RTVSPost2010PropOp35
 70
     1
102
RTVSPost2010Prop36
280
     0
102
RTVSPost2010PropOp36
 70
     1
102
RTVSPost2010Prop37
 90
       50
102
RTVSPost2010PropOp37
 70
     1
102
RTVSPost2010Prop38
140
0.0
102
RTVSPost2010PropOp38
 70
     1
102
RTVSPost2010Prop39
140
1.0
102
RTVSPost2010PropOp39
 70
     1
102
RTVSPost2010Prop40
 90
        0
102
RTVSPost2010PropOp40
 70
     1
102
RTVSPost2010Prop41ColorIndex
 90
       18
102
RTVSPost2010Prop41ColorRGB
 90
        0
102
RTVSPost2010PropOp41
 70
     1
102
RTVSPost2010Prop42
 90
       50
102
RTVSPost2010PropOp42
 70
     1
102
RTVSPost2010Prop43
 90
        3
102
RTVSPost2010PropOp43
 70
     1
102
RTVSPost2010Prop44ColorIndex
 90
        5
102
RTVSPost2010Prop44ColorRGB
 90
      255
102
RTVSPost2010PropOp44
 70
     1
102
RTVSPost2010Prop45
280
     0
102
RTVSPost2010PropOp45
 70
     1
102
RTVSPost2010Prop46
 90
       50
102
RTVSPost2010PropOp46
 70
     1
102
RTVSPost2010Prop47
 90
       50
102
RTVSPost2010PropOp47
 70
     1
102
RTVSPost2010Prop48
 90
       50
102
RTVSPost2010PropOp48
 70
     1
102
RTVSPost2010Prop49
280
     0
102
RTVSPost2010PropOp49
 70
     1
102
RTVSPost2010Prop50
 90
       50
102
RTVSPost2010PropOp50
 70
     1
102
RTVSPost2010Prop51ColorIndex
 90
      256
102
RTVSPost2010Prop51ColorRGB
 90
-16777216
102
RTVSPost2010PropOp51
 70
     0
102
RTVSPost2010Prop52
140
1.0
102
RTVSPost2010PropOp52
 70
     0
102
RTVSPost2010Prop53
 90
        2
102
RTVSPost2010PropOp53
 70
     1
102
RTVSPost2010Prop54
  1
strokes_ogs.tif
102
RTVSPost2010PropOp54
 70
     1
102
RTVSPost2010Prop55
280
     0
102
RTVSPost2010PropOp55
 70
     1
102
RTVSPost2010Prop56
140
1.0
102
RTVSPost2010PropOp56
 70
     1
102
RTVSPost2010Prop57
140
1.0
102
RTVSPost2010PropOp57
 70
     1
102
RTVSPropertyOp0
 70
     1
102
RTVSPropertyOp1
 70
     1
102
RTVSPropertyOp2
 70
     1
102
RTVSPropertyOp3
 70
     1
102
RTVSPropertyOp4
 70
     1
102
RTVSPropertyOp5
 70
     1
102
RTVSPropertyOp6
 70
     1
102
RTVSPropertyOp7
 70
     1
102
RTVSPropertyOp8
 70
     1
102
RTVSPropertyOp9
 70
     1
102
RTVSPropertyOp10
 70
     1
102
RTVSPropertyOp11
 70
     1
102
RTVSPropertyOp12
 70
     1
102
RTVSPropertyOp13
 70
     1
102
RTVSPropertyOp14
 70
     1
102
RTVSPropertyOp15
 70
     1
102
RTVSPropertyOp16
 70
     1
102
RTVSPropertyOp17
 70
     1
102
RTVSPropertyOp18
 70
     1
102
RTVSPropertyOp19
 70
     1
102
RTVSPropertyOp20
 70
     1
102
RTVSPropertyOp21
 70
     1
102
RTVSPropertyOp22
 70
     1
102
RTVSPropertyOp23
 70
     1
102
RTVSPropertyOp24
 70
     1
102
RTVSPropertyOp25
 70
     1
102
RTVSPropertyOp26
 70
     1
102
RTVSPropertyOp27
 70
     1
102
RTVSPropertyOp28
 70
     1
102
RTVSPropertyOp29
 70
     1
102
RTVSPropertyOp30
 70
     1
102
RTVSPropertyOp31
 70
     1
102
RTVSPropertyOp32
 70
     1
102
RTVSPropertyOp33
 70
     1
102
RTVSPropertyOp34
 70
     1
102
RTVSPropertyOp35
 70
     1
102
RTVSPropertyOp36
 70
     1
102
RTVSPropertyOp37
 70
     1
102
RTVSPropertyOp38
 70
     1
102
RTVSPropertyOp39
 70
     1
102
RTVSPropertyOp40
 70
     1
102
RTVSPropertyOp41
 70
     1
102
RTVSPropertyOp42
 70
     1
102
RTVSPropertyOp43
 70
     1
102
RTVSPropertyOp44
 70
     1
102
RTVSPropertyOp45
 70
     1
102
RTVSPropertyOp46
 70
     1
102
RTVSPropertyOp47
 70
     1
102
RTVSPropertyOp48
 70
     1
102
RTVSPropertyOp49
 70
     1
102
RTVSPropertyOp50
 70
     1
102
RTVSPropertyOp51
 70
     0
102
RTVSPropertyOp52
 70
     0
102
RTVSPropertyOp53
 70
     1
102
RTVSPropertyOp54
 70
     1
102
RTVSPropertyOp55
 70
     1
102
RTVSPropertyOp56
 70
     1
102
RTVSPropertyOp57
 70
     1
102
RTVSPropertyOp58
 70
     1
102
RTVSPropertyOp59
 70
     1
102
RTVSPropertyOp60
 70
     1
102
RTVSPropertyOp61
 70
     1
102
RTVSPropertyOp62
 70
     1
  0
XRECORD
  5
21265
102
{ACAD_REACTORS
330
21264
102
}
330
21264
100
AcDbXrecord
280
     1
102
RTVSPost2010Prop28
280
     0
102
RTVSPost2010PropOp28
 70
     1
102
RTVSPost2010Prop29
280
     1
102
RTVSPost2010PropOp29
 70
     1
102
RTVSPost2010Prop30
280
     1
102
RTVSPost2010PropOp30
 70
     1
102
RTVSPost2010Prop31
280
     0
102
RTVSPost2010PropOp31
 70
     1
102
RTVSPost2010Prop32
280
     0
102
RTVSPost2010PropOp32
 70
     1
102
RTVSPost2010Prop33
280
     0
102
RTVSPost2010PropOp33
 70
     1
102
RTVSPost2010Prop34
280
     0
102
RTVSPost2010PropOp34
 70
     1
102
RTVSPost2010Prop35
280
     0
102
RTVSPost2010PropOp35
 70
     1
102
RTVSPost2010Prop36
280
     0
102
RTVSPost2010PropOp36
 70
     1
102
RTVSPost2010Prop37
 90
       50
102
RTVSPost2010PropOp37
 70
     1
102
RTVSPost2010Prop38
140
0.0
102
RTVSPost2010PropOp38
 70
     1
102
RTVSPost2010Prop39
140
1.0
102
RTVSPost2010PropOp39
 70
     1
102
RTVSPost2010Prop40
 90
        0
102
RTVSPost2010PropOp40
 70
     1
102
RTVSPost2010Prop41ColorIndex
 90
       18
102
RTVSPost2010Prop41ColorRGB
 90
        0
102
RTVSPost2010PropOp41
 70
     1
102
RTVSPost2010Prop42
 90
       50
102
RTVSPost2010PropOp42
 70
     1
102
RTVSPost2010Prop43
 90
        3
102
RTVSPost2010PropOp43
 70
     1
102
RTVSPost2010Prop44ColorIndex
 90
        5
102
RTVSPost2010Prop44ColorRGB
 90
      255
102
RTVSPost2010PropOp44
 70
     1
102
RTVSPost2010Prop45
280
     0
102
RTVSPost2010PropOp45
 70
     1
102
RTVSPost2010Prop46
 90
       50
102
RTVSPost2010PropOp46
 70
     1
102
RTVSPost2010Prop47
 90
       50
102
RTVSPost2010PropOp47
 70
     1
102
RTVSPost2010Prop48
 90
       50
102
RTVSPost2010PropOp48
 70
     1
102
RTVSPost2010Prop49
280
     0
102
RTVSPost2010PropOp49
 70
     1
102
RTVSPost2010Prop50
 90
       50
102
RTVSPost2010PropOp50
 70
     1
102
RTVSPost2010Prop51ColorIndex
 90
      256
102
RTVSPost2010Prop51ColorRGB
 90
-16777216
102
RTVSPost2010PropOp51
 70
     0
102
RTVSPost2010Prop52
140
1.0
102
RTVSPost2010PropOp52
 70
     0
102
RTVSPost2010Prop53
 90
        2
102
RTVSPost2010PropOp53
 70
     1
102
RTVSPost2010Prop54
  1
strokes_ogs.tif
102
RTVSPost2010PropOp54
 70
     1
102
RTVSPost2010Prop55
280
     0
102
RTVSPost2010PropOp55
 70
     1
102
RTVSPost2010Prop56
140
1.0
102
RTVSPost2010PropOp56
 70
     1
102
RTVSPost2010Prop57
140
1.0
102
RTVSPost2010PropOp57
 70
     1
102
RTVSPropertyOp0
 70
     1
102
RTVSPropertyOp1
 70
     1
102
RTVSPropertyOp2
 70
     1
102
RTVSPropertyOp3
 70
     1
102
RTVSPropertyOp4
 70
     1
102
RTVSPropertyOp5
 70
     1
102
RTVSPropertyOp6
 70
     1
102
RTVSPropertyOp7
 70
     1
102
RTVSPropertyOp8
 70
     1
102
RTVSPropertyOp9
 70
     1
102
RTVSPropertyOp10
 70
     1
102
RTVSPropertyOp11
 70
     1
102
RTVSPropertyOp12
 70
     1
102
RTVSPropertyOp13
 70
     1
102
RTVSPropertyOp14
 70
     1
102
RTVSPropertyOp15
 70
     1
102
RTVSPropertyOp16
 70
     1
102
RTVSPropertyOp17
 70
     1
102
RTVSPropertyOp18
 70
     1
102
RTVSPropertyOp19
 70
     1
102
RTVSPropertyOp20
 70
     1
102
RTVSPropertyOp21
 70
     1
102
RTVSPropertyOp22
 70
     1
102
RTVSPropertyOp23
 70
     1
102
RTVSPropertyOp24
 70
     1
102
RTVSPropertyOp25
 70
     1
102
RTVSPropertyOp26
 70
     1
102
RTVSPropertyOp27
 70
     1
102
RTVSPropertyOp28
 70
     1
102
RTVSPropertyOp29
 70
     1
102
RTVSPropertyOp30
 70
     1
102
RTVSPropertyOp31
 70
     1
102
RTVSPropertyOp32
 70
     1
102
RTVSPropertyOp33
 70
     1
102
RTVSPropertyOp34
 70
     1
102
RTVSPropertyOp35
 70
     1
102
RTVSPropertyOp36
 70
     1
102
RTVSPropertyOp37
 70
     1
102
RTVSPropertyOp38
 70
     1
102
RTVSPropertyOp39
 70
     1
102
RTVSPropertyOp40
 70
     1
102
RTVSPropertyOp41
 70
     1
102
RTVSPropertyOp42
 70
     1
102
RTVSPropertyOp43
 70
     1
102
RTVSPropertyOp44
 70
     1
102
RTVSPropertyOp45
 70
     1
102
RTVSPropertyOp46
 70
     1
102
RTVSPropertyOp47
 70
     1
102
RTVSPropertyOp48
 70
     1
102
RTVSPropertyOp49
 70
     1
102
RTVSPropertyOp50
 70
     1
102
RTVSPropertyOp51
 70
     0
102
RTVSPropertyOp52
 70
     0
102
RTVSPropertyOp53
 70
     1
102
RTVSPropertyOp54
 70
     1
102
RTVSPropertyOp55
 70
     1
102
RTVSPropertyOp56
 70
     1
102
RTVSPropertyOp57
 70
     1
102
RTVSPropertyOp58
 70
     1
102
RTVSPropertyOp59
 70
     1
102
RTVSPropertyOp60
 70
     1
102
RTVSPropertyOp61
 70
     1
102
RTVSPropertyOp62
 70
     1
  0
XRECORD
  5
21271
102
{ACAD_REACTORS
330
21270
102
}
330
21270
100
AcDbXrecord
280
     1
102
RTVSPost2010Prop28
280
     0
102
RTVSPost2010PropOp28
 70
     1
102
RTVSPost2010Prop29
280
     1
102
RTVSPost2010PropOp29
 70
     1
102
RTVSPost2010Prop30
280
     1
102
RTVSPost2010PropOp30
 70
     1
102
RTVSPost2010Prop31
280
     0
102
RTVSPost2010PropOp31
 70
     1
102
RTVSPost2010Prop32
280
     0
102
RTVSPost2010PropOp32
 70
     1
102
RTVSPost2010Prop33
280
     0
102
RTVSPost2010PropOp33
 70
     1
102
RTVSPost2010Prop34
280
     0
102
RTVSPost2010PropOp34
 70
     1
102
RTVSPost2010Prop35
280
     0
102
RTVSPost2010PropOp35
 70
     1
102
RTVSPost2010Prop36
280
     0
102
RTVSPost2010PropOp36
 70
     1
102
RTVSPost2010Prop37
 90
       50
102
RTVSPost2010PropOp37
 70
     0
102
RTVSPost2010Prop38
140
0.0
102
RTVSPost2010PropOp38
 70
     0
102
RTVSPost2010Prop39
140
1.0
102
RTVSPost2010PropOp39
 70
     0
102
RTVSPost2010Prop40
 90
        0
102
RTVSPost2010PropOp40
 70
     0
102
RTVSPost2010Prop41ColorIndex
 90
       18
102
RTVSPost2010Prop41ColorRGB
 90
        0
102
RTVSPost2010PropOp41
 70
     0
102
RTVSPost2010Prop42
 90
       50
102
RTVSPost2010PropOp42
 70
     0
102
RTVSPost2010Prop43
 90
        3
102
RTVSPost2010PropOp43
 70
     0
102
RTVSPost2010Prop44ColorIndex
 90
        5
102
RTVSPost2010Prop44ColorRGB
 90
      255
102
RTVSPost2010PropOp44
 70
     0
102
RTVSPost2010Prop45
280
     0
102
RTVSPost2010PropOp45
 70
     1
102
RTVSPost2010Prop46
 90
       50
102
RTVSPost2010PropOp46
 70
     0
102
RTVSPost2010Prop47
 90
       50
102
RTVSPost2010PropOp47
 70
     0
102
RTVSPost2010Prop48
 90
       50
102
RTVSPost2010PropOp48
 70
     0
102
RTVSPost2010Prop49
280
     0
102
RTVSPost2010PropOp49
 70
     1
102
RTVSPost2010Prop50
 90
       50
102
RTVSPost2010PropOp50
 70
     0
102
RTVSPost2010Prop51ColorIndex
 90
      256
102
RTVSPost2010Prop51ColorRGB
 90
-16777216
102
RTVSPost2010PropOp51
 70
     0
102
RTVSPost2010Prop52
140
1.0
102
RTVSPost2010PropOp52
 70
     0
102
RTVSPost2010Prop53
 90
        2
102
RTVSPost2010PropOp53
 70
     0
102
RTVSPost2010Prop54
  1
strokes_ogs.tif
102
RTVSPost2010PropOp54
 70
     0
102
RTVSPost2010Prop55
280
     0
102
RTVSPost2010PropOp55
 70
     1
102
RTVSPost2010Prop56
140
1.0
102
RTVSPost2010PropOp56
 70
     0
102
RTVSPost2010Prop57
140
1.0
102
RTVSPost2010PropOp57
 70
     0
102
RTVSPropertyOp0
 70
     0
102
RTVSPropertyOp1
 70
     0
102
RTVSPropertyOp2
 70
     0
102
RTVSPropertyOp3
 70
     0
102
RTVSPropertyOp4
 70
     0
102
RTVSPropertyOp5
 70
     0
102
RTVSPropertyOp6
 70
     0
102
RTVSPropertyOp7
 70
     0
102
RTVSPropertyOp8
 70
     0
102
RTVSPropertyOp9
 70
     0
102
RTVSPropertyOp10
 70
     0
102
RTVSPropertyOp11
 70
     0
102
RTVSPropertyOp12
 70
     0
102
RTVSPropertyOp13
 70
     0
102
RTVSPropertyOp14
 70
     2
102
RTVSPropertyOp15
 70
     0
102
RTVSPropertyOp16
 70
     0
102
RTVSPropertyOp17
 70
     0
102
RTVSPropertyOp18
 70
     0
102
RTVSPropertyOp19
 70
     0
102
RTVSPropertyOp20
 70
     0
102
RTVSPropertyOp21
 70
     0
102
RTVSPropertyOp22
 70
     0
102
RTVSPropertyOp23
 70
     0
102
RTVSPropertyOp24
 70
     0
102
RTVSPropertyOp25
 70
     0
102
RTVSPropertyOp26
 70
     0
102
RTVSPropertyOp27
 70
     0
102
RTVSPropertyOp28
 70
     1
102
RTVSPropertyOp29
 70
     1
102
RTVSPropertyOp30
 70
     1
102
RTVSPropertyOp31
 70
     1
102
RTVSPropertyOp32
 70
     1
102
RTVSPropertyOp33
 70
     1
102
RTVSPropertyOp34
 70
     1
102
RTVSPropertyOp35
 70
     1
102
RTVSPropertyOp36
 70
     1
102
RTVSPropertyOp37
 70
     0
102
RTVSPropertyOp38
 70
     0
102
RTVSPropertyOp39
 70
     0
102
RTVSPropertyOp40
 70
     0
102
RTVSPropertyOp41
 70
     0
102
RTVSPropertyOp42
 70
     0
102
RTVSPropertyOp43
 70
     0
102
RTVSPropertyOp44
 70
     0
102
RTVSPropertyOp45
 70
     1
102
RTVSPropertyOp46
 70
     0
102
RTVSPropertyOp47
 70
     0
102
RTVSPropertyOp48
 70
     0
102
RTVSPropertyOp49
 70
     1
102
RTVSPropertyOp50
 70
     0
102
RTVSPropertyOp51
 70
     0
102
RTVSPropertyOp52
 70
     0
102
RTVSPropertyOp53
 70
     0
102
RTVSPropertyOp54
 70
     0
102
RTVSPropertyOp55
 70
     1
102
RTVSPropertyOp56
 70
     0
102
RTVSPropertyOp57
 70
     0
102
RTVSPropertyOp58
 70
     1
102
RTVSPropertyOp59
 70
     1
102
RTVSPropertyOp60
 70
     1
102
RTVSPropertyOp61
 70
     1
102
RTVSPropertyOp62
 70
     1
  0
XRECORD
  5
21255
102
{ACAD_REACTORS
330
21254
102
}
330
21254
100
AcDbXrecord
280
     1
102
RTVSPost2010Prop28
280
     0
102
RTVSPost2010PropOp28
 70
     1
102
RTVSPost2010Prop29
280
     1
102
RTVSPost2010PropOp29
 70
     1
102
RTVSPost2010Prop30
280
     1
102
RTVSPost2010PropOp30
 70
     1
102
RTVSPost2010Prop31
280
     0
102
RTVSPost2010PropOp31
 70
     1
102
RTVSPost2010Prop32
280
     0
102
RTVSPost2010PropOp32
 70
     1
102
RTVSPost2010Prop33
280
     0
102
RTVSPost2010PropOp33
 70
     1
102
RTVSPost2010Prop34
280
     0
102
RTVSPost2010PropOp34
 70
     1
102
RTVSPost2010Prop35
280
     0
102
RTVSPost2010PropOp35
 70
     1
102
RTVSPost2010Prop36
280
     0
102
RTVSPost2010PropOp36
 70
     1
102
RTVSPost2010Prop37
 90
       50
102
RTVSPost2010PropOp37
 70
     1
102
RTVSPost2010Prop38
140
0.0
102
RTVSPost2010PropOp38
 70
     1
102
RTVSPost2010Prop39
140
1.0
102
RTVSPost2010PropOp39
 70
     1
102
RTVSPost2010Prop40
 90
        0
102
RTVSPost2010PropOp40
 70
     1
102
RTVSPost2010Prop41ColorIndex
 90
       18
102
RTVSPost2010Prop41ColorRGB
 90
        0
102
RTVSPost2010PropOp41
 70
     1
102
RTVSPost2010Prop42
 90
       50
102
RTVSPost2010PropOp42
 70
     1
102
RTVSPost2010Prop43
 90
        3
102
RTVSPost2010PropOp43
 70
     1
102
RTVSPost2010Prop44ColorIndex
 90
        5
102
RTVSPost2010Prop44ColorRGB
 90
      255
102
RTVSPost2010PropOp44
 70
     1
102
RTVSPost2010Prop45
280
     0
102
RTVSPost2010PropOp45
 70
     1
102
RTVSPost2010Prop46
 90
       50
102
RTVSPost2010PropOp46
 70
     1
102
RTVSPost2010Prop47
 90
       50
102
RTVSPost2010PropOp47
 70
     1
102
RTVSPost2010Prop48
 90
       50
102
RTVSPost2010PropOp48
 70
     1
102
RTVSPost2010Prop49
280
     0
102
RTVSPost2010PropOp49
 70
     1
102
RTVSPost2010Prop50
 90
       50
102
RTVSPost2010PropOp50
 70
     1
102
RTVSPost2010Prop51ColorIndex
 90
      256
102
RTVSPost2010Prop51ColorRGB
 90
-16777216
102
RTVSPost2010PropOp51
 70
     0
102
RTVSPost2010Prop52
140
1.0
102
RTVSPost2010PropOp52
 70
     0
102
RTVSPost2010Prop53
 90
        2
102
RTVSPost2010PropOp53
 70
     1
102
RTVSPost2010Prop54
  1
strokes_ogs.tif
102
RTVSPost2010PropOp54
 70
     1
102
RTVSPost2010Prop55
280
     0
102
RTVSPost2010PropOp55
 70
     1
102
RTVSPost2010Prop56
140
1.0
102
RTVSPost2010PropOp56
 70
     1
102
RTVSPost2010Prop57
140
1.0
102
RTVSPost2010PropOp57
 70
     1
102
RTVSPropertyOp0
 70
     1
102
RTVSPropertyOp1
 70
     1
102
RTVSPropertyOp2
 70
     1
102
RTVSPropertyOp3
 70
     1
102
RTVSPropertyOp4
 70
     1
102
RTVSPropertyOp5
 70
     1
102
RTVSPropertyOp6
 70
     1
102
RTVSPropertyOp7
 70
     1
102
RTVSPropertyOp8
 70
     1
102
RTVSPropertyOp9
 70
     1
102
RTVSPropertyOp10
 70
     1
102
RTVSPropertyOp11
 70
     1
102
RTVSPropertyOp12
 70
     1
102
RTVSPropertyOp13
 70
     1
102
RTVSPropertyOp14
 70
     1
102
RTVSPropertyOp15
 70
     1
102
RTVSPropertyOp16
 70
     1
102
RTVSPropertyOp17
 70
     1
102
RTVSPropertyOp18
 70
     1
102
RTVSPropertyOp19
 70
     1
102
RTVSPropertyOp20
 70
     1
102
RTVSPropertyOp21
 70
     1
102
RTVSPropertyOp22
 70
     1
102
RTVSPropertyOp23
 70
     1
102
RTVSPropertyOp24
 70
     1
102
RTVSPropertyOp25
 70
     1
102
RTVSPropertyOp26
 70
     1
102
RTVSPropertyOp27
 70
     1
102
RTVSPropertyOp28
 70
     1
102
RTVSPropertyOp29
 70
     1
102
RTVSPropertyOp30
 70
     1
102
RTVSPropertyOp31
 70
     1
102
RTVSPropertyOp32
 70
     1
102
RTVSPropertyOp33
 70
     1
102
RTVSPropertyOp34
 70
     1
102
RTVSPropertyOp35
 70
     1
102
RTVSPropertyOp36
 70
     1
102
RTVSPropertyOp37
 70
     1
102
RTVSPropertyOp38
 70
     1
102
RTVSPropertyOp39
 70
     1
102
RTVSPropertyOp40
 70
     1
102
RTVSPropertyOp41
 70
     1
102
RTVSPropertyOp42
 70
     1
102
RTVSPropertyOp43
 70
     1
102
RTVSPropertyOp44
 70
     1
102
RTVSPropertyOp45
 70
     1
102
RTVSPropertyOp46
 70
     1
102
RTVSPropertyOp47
 70
     1
102
RTVSPropertyOp48
 70
     1
102
RTVSPropertyOp49
 70
     1
102
RTVSPropertyOp50
 70
     1
102
RTVSPropertyOp51
 70
     0
102
RTVSPropertyOp52
 70
     0
102
RTVSPropertyOp53
 70
     1
102
RTVSPropertyOp54
 70
     1
102
RTVSPropertyOp55
 70
     1
102
RTVSPropertyOp56
 70
     1
102
RTVSPropertyOp57
 70
     1
102
RTVSPropertyOp58
 70
     1
102
RTVSPropertyOp59
 70
     1
102
RTVSPropertyOp60
 70
     1
102
RTVSPropertyOp61
 70
     1
102
RTVSPropertyOp62
 70
     1
  0
XRECORD
  5
21273
102
{ACAD_REACTORS
330
21272
102
}
330
21272
100
AcDbXrecord
280
     1
102
RTVSPost2010Prop28
280
     0
102
RTVSPost2010PropOp28
 70
     1
102
RTVSPost2010Prop29
280
     1
102
RTVSPost2010PropOp29
 70
     1
102
RTVSPost2010Prop30
280
     1
102
RTVSPost2010PropOp30
 70
     1
102
RTVSPost2010Prop31
280
     0
102
RTVSPost2010PropOp31
 70
     1
102
RTVSPost2010Prop32
280
     0
102
RTVSPost2010PropOp32
 70
     1
102
RTVSPost2010Prop33
280
     0
102
RTVSPost2010PropOp33
 70
     1
102
RTVSPost2010Prop34
280
     0
102
RTVSPost2010PropOp34
 70
     1
102
RTVSPost2010Prop35
280
     0
102
RTVSPost2010PropOp35
 70
     1
102
RTVSPost2010Prop36
280
     0
102
RTVSPost2010PropOp36
 70
     1
102
RTVSPost2010Prop37
 90
       50
102
RTVSPost2010PropOp37
 70
     0
102
RTVSPost2010Prop38
140
0.0
102
RTVSPost2010PropOp38
 70
     0
102
RTVSPost2010Prop39
140
1.0
102
RTVSPost2010PropOp39
 70
     0
102
RTVSPost2010Prop40
 90
        0
102
RTVSPost2010PropOp40
 70
     0
102
RTVSPost2010Prop41ColorIndex
 90
       18
102
RTVSPost2010Prop41ColorRGB
 90
        0
102
RTVSPost2010PropOp41
 70
     0
102
RTVSPost2010Prop42
 90
       50
102
RTVSPost2010PropOp42
 70
     0
102
RTVSPost2010Prop43
 90
        3
102
RTVSPost2010PropOp43
 70
     0
102
RTVSPost2010Prop44ColorIndex
 90
        5
102
RTVSPost2010Prop44ColorRGB
 90
      255
102
RTVSPost2010PropOp44
 70
     0
102
RTVSPost2010Prop45
280
     0
102
RTVSPost2010PropOp45
 70
     1
102
RTVSPost2010Prop46
 90
       50
102
RTVSPost2010PropOp46
 70
     0
102
RTVSPost2010Prop47
 90
       50
102
RTVSPost2010PropOp47
 70
     0
102
RTVSPost2010Prop48
 90
       50
102
RTVSPost2010PropOp48
 70
     0
102
RTVSPost2010Prop49
280
     0
102
RTVSPost2010PropOp49
 70
     1
102
RTVSPost2010Prop50
 90
       50
102
RTVSPost2010PropOp50
 70
     0
102
RTVSPost2010Prop51ColorIndex
 90
      256
102
RTVSPost2010Prop51ColorRGB
 90
-16777216
102
RTVSPost2010PropOp51
 70
     0
102
RTVSPost2010Prop52
140
1.0
102
RTVSPost2010PropOp52
 70
     0
102
RTVSPost2010Prop53
 90
        2
102
RTVSPost2010PropOp53
 70
     0
102
RTVSPost2010Prop54
  1
strokes_ogs.tif
102
RTVSPost2010PropOp54
 70
     0
102
RTVSPost2010Prop55
280
     0
102
RTVSPost2010PropOp55
 70
     1
102
RTVSPost2010Prop56
140
1.0
102
RTVSPost2010PropOp56
 70
     0
102
RTVSPost2010Prop57
140
1.0
102
RTVSPost2010PropOp57
 70
     0
102
RTVSPropertyOp0
 70
     0
102
RTVSPropertyOp1
 70
     0
102
RTVSPropertyOp2
 70
     0
102
RTVSPropertyOp3
 70
     0
102
RTVSPropertyOp4
 70
     0
102
RTVSPropertyOp5
 70
     0
102
RTVSPropertyOp6
 70
     0
102
RTVSPropertyOp7
 70
     0
102
RTVSPropertyOp8
 70
     0
102
RTVSPropertyOp9
 70
     0
102
RTVSPropertyOp10
 70
     0
102
RTVSPropertyOp11
 70
     0
102
RTVSPropertyOp12
 70
     0
102
RTVSPropertyOp13
 70
     0
102
RTVSPropertyOp14
 70
     2
102
RTVSPropertyOp15
 70
     0
102
RTVSPropertyOp16
 70
     0
102
RTVSPropertyOp17
 70
     0
102
RTVSPropertyOp18
 70
     0
102
RTVSPropertyOp19
 70
     0
102
RTVSPropertyOp20
 70
     0
102
RTVSPropertyOp21
 70
     0
102
RTVSPropertyOp22
 70
     0
102
RTVSPropertyOp23
 70
     0
102
RTVSPropertyOp24
 70
     0
102
RTVSPropertyOp25
 70
     0
102
RTVSPropertyOp26
 70
     0
102
RTVSPropertyOp27
 70
     0
102
RTVSPropertyOp28
 70
     1
102
RTVSPropertyOp29
 70
     1
102
RTVSPropertyOp30
 70
     1
102
RTVSPropertyOp31
 70
     1
102
RTVSPropertyOp32
 70
     1
102
RTVSPropertyOp33
 70
     1
102
RTVSPropertyOp34
 70
     1
102
RTVSPropertyOp35
 70
     1
102
RTVSPropertyOp36
 70
     1
102
RTVSPropertyOp37
 70
     0
102
RTVSPropertyOp38
 70
     0
102
RTVSPropertyOp39
 70
     0
102
RTVSPropertyOp40
 70
     0
102
RTVSPropertyOp41
 70
     0
102
RTVSPropertyOp42
 70
     0
102
RTVSPropertyOp43
 70
     0
102
RTVSPropertyOp44
 70
     0
102
RTVSPropertyOp45
 70
     1
102
RTVSPropertyOp46
 70
     0
102
RTVSPropertyOp47
 70
     0
102
RTVSPropertyOp48
 70
     0
102
RTVSPropertyOp49
 70
     1
102
RTVSPropertyOp50
 70
     0
102
RTVSPropertyOp51
 70
     0
102
RTVSPropertyOp52
 70
     0
102
RTVSPropertyOp53
 70
     0
102
RTVSPropertyOp54
 70
     0
102
RTVSPropertyOp55
 70
     1
102
RTVSPropertyOp56
 70
     0
102
RTVSPropertyOp57
 70
     0
102
RTVSPropertyOp58
 70
     1
102
RTVSPropertyOp59
 70
     1
102
RTVSPropertyOp60
 70
     1
102
RTVSPropertyOp61
 70
     1
102
RTVSPropertyOp62
 70
     1
  0
XRECORD
  5
2124D
102
{ACAD_REACTORS
330
2124C
102
}
330
2124C
100
AcDbXrecord
280
     1
102
RTVSPost2010Prop28
280
     0
102
RTVSPost2010PropOp28
 70
     1
102
RTVSPost2010Prop29
280
     1
102
RTVSPost2010PropOp29
 70
     1
102
RTVSPost2010Prop30
280
     1
102
RTVSPost2010PropOp30
 70
     1
102
RTVSPost2010Prop31
280
     0
102
RTVSPost2010PropOp31
 70
     1
102
RTVSPost2010Prop32
280
     0
102
RTVSPost2010PropOp32
 70
     1
102
RTVSPost2010Prop33
280
     0
102
RTVSPost2010PropOp33
 70
     1
102
RTVSPost2010Prop34
280
     0
102
RTVSPost2010PropOp34
 70
     1
102
RTVSPost2010Prop35
280
     0
102
RTVSPost2010PropOp35
 70
     1
102
RTVSPost2010Prop36
280
     0
102
RTVSPost2010PropOp36
 70
     1
102
RTVSPost2010Prop37
 90
       50
102
RTVSPost2010PropOp37
 70
     1
102
RTVSPost2010Prop38
140
0.0
102
RTVSPost2010PropOp38
 70
     1
102
RTVSPost2010Prop39
140
1.0
102
RTVSPost2010PropOp39
 70
     1
102
RTVSPost2010Prop40
 90
        0
102
RTVSPost2010PropOp40
 70
     1
102
RTVSPost2010Prop41ColorIndex
 90
       18
102
RTVSPost2010Prop41ColorRGB
 90
        0
102
RTVSPost2010PropOp41
 70
     1
102
RTVSPost2010Prop42
 90
       50
102
RTVSPost2010PropOp42
 70
     1
102
RTVSPost2010Prop43
 90
        3
102
RTVSPost2010PropOp43
 70
     1
102
RTVSPost2010Prop44ColorIndex
 90
        5
102
RTVSPost2010Prop44ColorRGB
 90
      255
102
RTVSPost2010PropOp44
 70
     1
102
RTVSPost2010Prop45
280
     0
102
RTVSPost2010PropOp45
 70
     1
102
RTVSPost2010Prop46
 90
       50
102
RTVSPost2010PropOp46
 70
     1
102
RTVSPost2010Prop47
 90
       50
102
RTVSPost2010PropOp47
 70
     1
102
RTVSPost2010Prop48
 90
       50
102
RTVSPost2010PropOp48
 70
     1
102
RTVSPost2010Prop49
280
     0
102
RTVSPost2010PropOp49
 70
     1
102
RTVSPost2010Prop50
 90
       50
102
RTVSPost2010PropOp50
 70
     1
102
RTVSPost2010Prop51ColorIndex
 90
      256
102
RTVSPost2010Prop51ColorRGB
 90
-16777216
102
RTVSPost2010PropOp51
 70
     0
102
RTVSPost2010Prop52
140
1.0
102
RTVSPost2010PropOp52
 70
     0
102
RTVSPost2010Prop53
 90
        2
102
RTVSPost2010PropOp53
 70
     1
102
RTVSPost2010Prop54
  1
strokes_ogs.tif
102
RTVSPost2010PropOp54
 70
     1
102
RTVSPost2010Prop55
280
     0
102
RTVSPost2010PropOp55
 70
     1
102
RTVSPost2010Prop56
140
1.0
102
RTVSPost2010PropOp56
 70
     1
102
RTVSPost2010Prop57
140
1.0
102
RTVSPost2010PropOp57
 70
     1
102
RTVSPropertyOp0
 70
     1
102
RTVSPropertyOp1
 70
     1
102
RTVSPropertyOp2
 70
     1
102
RTVSPropertyOp3
 70
     1
102
RTVSPropertyOp4
 70
     1
102
RTVSPropertyOp5
 70
     1
102
RTVSPropertyOp6
 70
     1
102
RTVSPropertyOp7
 70
     1
102
RTVSPropertyOp8
 70
     1
102
RTVSPropertyOp9
 70
     1
102
RTVSPropertyOp10
 70
     1
102
RTVSPropertyOp11
 70
     1
102
RTVSPropertyOp12
 70
     1
102
RTVSPropertyOp13
 70
     1
102
RTVSPropertyOp14
 70
     1
102
RTVSPropertyOp15
 70
     1
102
RTVSPropertyOp16
 70
     1
102
RTVSPropertyOp17
 70
     1
102
RTVSPropertyOp18
 70
     1
102
RTVSPropertyOp19
 70
     1
102
RTVSPropertyOp20
 70
     1
102
RTVSPropertyOp21
 70
     1
102
RTVSPropertyOp22
 70
     1
102
RTVSPropertyOp23
 70
     1
102
RTVSPropertyOp24
 70
     1
102
RTVSPropertyOp25
 70
     1
102
RTVSPropertyOp26
 70
     1
102
RTVSPropertyOp27
 70
     1
102
RTVSPropertyOp28
 70
     1
102
RTVSPropertyOp29
 70
     1
102
RTVSPropertyOp30
 70
     1
102
RTVSPropertyOp31
 70
     1
102
RTVSPropertyOp32
 70
     1
102
RTVSPropertyOp33
 70
     1
102
RTVSPropertyOp34
 70
     1
102
RTVSPropertyOp35
 70
     1
102
RTVSPropertyOp36
 70
     1
102
RTVSPropertyOp37
 70
     1
102
RTVSPropertyOp38
 70
     1
102
RTVSPropertyOp39
 70
     1
102
RTVSPropertyOp40
 70
     1
102
RTVSPropertyOp41
 70
     1
102
RTVSPropertyOp42
 70
     1
102
RTVSPropertyOp43
 70
     1
102
RTVSPropertyOp44
 70
     1
102
RTVSPropertyOp45
 70
     1
102
RTVSPropertyOp46
 70
     1
102
RTVSPropertyOp47
 70
     1
102
RTVSPropertyOp48
 70
     1
102
RTVSPropertyOp49
 70
     1
102
RTVSPropertyOp50
 70
     1
102
RTVSPropertyOp51
 70
     0
102
RTVSPropertyOp52
 70
     0
102
RTVSPropertyOp53
 70
     1
102
RTVSPropertyOp54
 70
     1
102
RTVSPropertyOp55
 70
     1
102
RTVSPropertyOp56
 70
     1
102
RTVSPropertyOp57
 70
     1
102
RTVSPropertyOp58
 70
     1
102
RTVSPropertyOp59
 70
     1
102
RTVSPropertyOp60
 70
     1
102
RTVSPropertyOp61
 70
     1
102
RTVSPropertyOp62
 70
     1
  0
XRECORD
  5
2126F
102
{ACAD_REACTORS
330
2126E
102
}
330
2126E
100
AcDbXrecord
280
     1
102
RTVSPost2010Prop28
280
     0
102
RTVSPost2010PropOp28
 70
     1
102
RTVSPost2010Prop29
280
     1
102
RTVSPost2010PropOp29
 70
     1
102
RTVSPost2010Prop30
280
     1
102
RTVSPost2010PropOp30
 70
     1
102
RTVSPost2010Prop31
280
     0
102
RTVSPost2010PropOp31
 70
     1
102
RTVSPost2010Prop32
280
     0
102
RTVSPost2010PropOp32
 70
     1
102
RTVSPost2010Prop33
280
     0
102
RTVSPost2010PropOp33
 70
     1
102
RTVSPost2010Prop34
280
     0
102
RTVSPost2010PropOp34
 70
     1
102
RTVSPost2010Prop35
280
     0
102
RTVSPost2010PropOp35
 70
     1
102
RTVSPost2010Prop36
280
     0
102
RTVSPost2010PropOp36
 70
     1
102
RTVSPost2010Prop37
 90
       50
102
RTVSPost2010PropOp37
 70
     1
102
RTVSPost2010Prop38
140
0.0
102
RTVSPost2010PropOp38
 70
     1
102
RTVSPost2010Prop39
140
1.0
102
RTVSPost2010PropOp39
 70
     1
102
RTVSPost2010Prop40
 90
        0
102
RTVSPost2010PropOp40
 70
     1
102
RTVSPost2010Prop41ColorIndex
 90
       18
102
RTVSPost2010Prop41ColorRGB
 90
        0
102
RTVSPost2010PropOp41
 70
     1
102
RTVSPost2010Prop42
 90
       50
102
RTVSPost2010PropOp42
 70
     1
102
RTVSPost2010Prop43
 90
        3
102
RTVSPost2010PropOp43
 70
     1
102
RTVSPost2010Prop44ColorIndex
 90
        5
102
RTVSPost2010Prop44ColorRGB
 90
      255
102
RTVSPost2010PropOp44
 70
     1
102
RTVSPost2010Prop45
280
     0
102
RTVSPost2010PropOp45
 70
     1
102
RTVSPost2010Prop46
 90
       50
102
RTVSPost2010PropOp46
 70
     1
102
RTVSPost2010Prop47
 90
       50
102
RTVSPost2010PropOp47
 70
     1
102
RTVSPost2010Prop48
 90
       50
102
RTVSPost2010PropOp48
 70
     1
102
RTVSPost2010Prop49
280
     0
102
RTVSPost2010PropOp49
 70
     1
102
RTVSPost2010Prop50
 90
       50
102
RTVSPost2010PropOp50
 70
     1
102
RTVSPost2010Prop51ColorIndex
 90
      256
102
RTVSPost2010Prop51ColorRGB
 90
-16777216
102
RTVSPost2010PropOp51
 70
     0
102
RTVSPost2010Prop52
140
1.0
102
RTVSPost2010PropOp52
 70
     0
102
RTVSPost2010Prop53
 90
        2
102
RTVSPost2010PropOp53
 70
     1
102
RTVSPost2010Prop54
  1
strokes_ogs.tif
102
RTVSPost2010PropOp54
 70
     1
102
RTVSPost2010Prop55
280
     0
102
RTVSPost2010PropOp55
 70
     1
102
RTVSPost2010Prop56
140
1.0
102
RTVSPost2010PropOp56
 70
     1
102
RTVSPost2010Prop57
140
1.0
102
RTVSPost2010PropOp57
 70
     1
102
RTVSPropertyOp0
 70
     1
102
RTVSPropertyOp1
 70
     1
102
RTVSPropertyOp2
 70
     1
102
RTVSPropertyOp3
 70
     1
102
RTVSPropertyOp4
 70
     1
102
RTVSPropertyOp5
 70
     1
102
RTVSPropertyOp6
 70
     1
102
RTVSPropertyOp7
 70
     1
102
RTVSPropertyOp8
 70
     1
102
RTVSPropertyOp9
 70
     1
102
RTVSPropertyOp10
 70
     1
102
RTVSPropertyOp11
 70
     1
102
RTVSPropertyOp12
 70
     1
102
RTVSPropertyOp13
 70
     1
102
RTVSPropertyOp14
 70
     1
102
RTVSPropertyOp15
 70
     1
102
RTVSPropertyOp16
 70
     1
102
RTVSPropertyOp17
 70
     1
102
RTVSPropertyOp18
 70
     1
102
RTVSPropertyOp19
 70
     1
102
RTVSPropertyOp20
 70
     1
102
RTVSPropertyOp21
 70
     1
102
RTVSPropertyOp22
 70
     1
102
RTVSPropertyOp23
 70
     1
102
RTVSPropertyOp24
 70
     1
102
RTVSPropertyOp25
 70
     1
102
RTVSPropertyOp26
 70
     1
102
RTVSPropertyOp27
 70
     1
102
RTVSPropertyOp28
 70
     1
102
RTVSPropertyOp29
 70
     1
102
RTVSPropertyOp30
 70
     1
102
RTVSPropertyOp31
 70
     1
102
RTVSPropertyOp32
 70
     1
102
RTVSPropertyOp33
 70
     1
102
RTVSPropertyOp34
 70
     1
102
RTVSPropertyOp35
 70
     1
102
RTVSPropertyOp36
 70
     1
102
RTVSPropertyOp37
 70
     1
102
RTVSPropertyOp38
 70
     1
102
RTVSPropertyOp39
 70
     1
102
RTVSPropertyOp40
 70
     1
102
RTVSPropertyOp41
 70
     1
102
RTVSPropertyOp42
 70
     1
102
RTVSPropertyOp43
 70
     1
102
RTVSPropertyOp44
 70
     1
102
RTVSPropertyOp45
 70
     1
102
RTVSPropertyOp46
 70
     1
102
RTVSPropertyOp47
 70
     1
102
RTVSPropertyOp48
 70
     1
102
RTVSPropertyOp49
 70
     1
102
RTVSPropertyOp50
 70
     1
102
RTVSPropertyOp51
 70
     0
102
RTVSPropertyOp52
 70
     0
102
RTVSPropertyOp53
 70
     1
102
RTVSPropertyOp54
 70
     1
102
RTVSPropertyOp55
 70
     1
102
RTVSPropertyOp56
 70
     1
102
RTVSPropertyOp57
 70
     1
102
RTVSPropertyOp58
 70
     1
102
RTVSPropertyOp59
 70
     1
102
RTVSPropertyOp60
 70
     1
102
RTVSPropertyOp61
 70
     1
102
RTVSPropertyOp62
 70
     1
  0
XRECORD
  5
2126D
102
{ACAD_REACTORS
330
2126C
102
}
330
2126C
100
AcDbXrecord
280
     1
102
RTVSPost2010Prop28
280
     0
102
RTVSPost2010PropOp28
 70
     1
102
RTVSPost2010Prop29
280
     1
102
RTVSPost2010PropOp29
 70
     1
102
RTVSPost2010Prop30
280
     1
102
RTVSPost2010PropOp30
 70
     1
102
RTVSPost2010Prop31
280
     0
102
RTVSPost2010PropOp31
 70
     1
102
RTVSPost2010Prop32
280
     0
102
RTVSPost2010PropOp32
 70
     1
102
RTVSPost2010Prop33
280
     0
102
RTVSPost2010PropOp33
 70
     1
102
RTVSPost2010Prop34
280
     0
102
RTVSPost2010PropOp34
 70
     1
102
RTVSPost2010Prop35
280
     0
102
RTVSPost2010PropOp35
 70
     1
102
RTVSPost2010Prop36
280
     0
102
RTVSPost2010PropOp36
 70
     1
102
RTVSPost2010Prop37
 90
       50
102
RTVSPost2010PropOp37
 70
     1
102
RTVSPost2010Prop38
140
0.0
102
RTVSPost2010PropOp38
 70
     1
102
RTVSPost2010Prop39
140
1.0
102
RTVSPost2010PropOp39
 70
     1
102
RTVSPost2010Prop40
 90
        0
102
RTVSPost2010PropOp40
 70
     1
102
RTVSPost2010Prop41ColorIndex
 90
       18
102
RTVSPost2010Prop41ColorRGB
 90
        0
102
RTVSPost2010PropOp41
 70
     1
102
RTVSPost2010Prop42
 90
       50
102
RTVSPost2010PropOp42
 70
     1
102
RTVSPost2010Prop43
 90
        3
102
RTVSPost2010PropOp43
 70
     1
102
RTVSPost2010Prop44ColorIndex
 90
        5
102
RTVSPost2010Prop44ColorRGB
 90
      255
102
RTVSPost2010PropOp44
 70
     1
102
RTVSPost2010Prop45
280
     0
102
RTVSPost2010PropOp45
 70
     1
102
RTVSPost2010Prop46
 90
       50
102
RTVSPost2010PropOp46
 70
     1
102
RTVSPost2010Prop47
 90
       50
102
RTVSPost2010PropOp47
 70
     1
102
RTVSPost2010Prop48
 90
       50
102
RTVSPost2010PropOp48
 70
     1
102
RTVSPost2010Prop49
280
     0
102
RTVSPost2010PropOp49
 70
     1
102
RTVSPost2010Prop50
 90
       50
102
RTVSPost2010PropOp50
 70
     1
102
RTVSPost2010Prop51ColorIndex
 90
      256
102
RTVSPost2010Prop51ColorRGB
 90
-16777216
102
RTVSPost2010PropOp51
 70
     0
102
RTVSPost2010Prop52
140
1.0
102
RTVSPost2010PropOp52
 70
     0
102
RTVSPost2010Prop53
 90
        2
102
RTVSPost2010PropOp53
 70
     1
102
RTVSPost2010Prop54
  1
strokes_ogs.tif
102
RTVSPost2010PropOp54
 70
     1
102
RTVSPost2010Prop55
280
     0
102
RTVSPost2010PropOp55
 70
     1
102
RTVSPost2010Prop56
140
1.0
102
RTVSPost2010PropOp56
 70
     1
102
RTVSPost2010Prop57
140
1.0
102
RTVSPost2010PropOp57
 70
     1
102
RTVSPropertyOp0
 70
     1
102
RTVSPropertyOp1
 70
     1
102
RTVSPropertyOp2
 70
     1
102
RTVSPropertyOp3
 70
     1
102
RTVSPropertyOp4
 70
     1
102
RTVSPropertyOp5
 70
     1
102
RTVSPropertyOp6
 70
     1
102
RTVSPropertyOp7
 70
     1
102
RTVSPropertyOp8
 70
     1
102
RTVSPropertyOp9
 70
     1
102
RTVSPropertyOp10
 70
     1
102
RTVSPropertyOp11
 70
     1
102
RTVSPropertyOp12
 70
     1
102
RTVSPropertyOp13
 70
     1
102
RTVSPropertyOp14
 70
     1
102
RTVSPropertyOp15
 70
     1
102
RTVSPropertyOp16
 70
     1
102
RTVSPropertyOp17
 70
     1
102
RTVSPropertyOp18
 70
     1
102
RTVSPropertyOp19
 70
     1
102
RTVSPropertyOp20
 70
     1
102
RTVSPropertyOp21
 70
     1
102
RTVSPropertyOp22
 70
     1
102
RTVSPropertyOp23
 70
     1
102
RTVSPropertyOp24
 70
     1
102
RTVSPropertyOp25
 70
     1
102
RTVSPropertyOp26
 70
     1
102
RTVSPropertyOp27
 70
     1
102
RTVSPropertyOp28
 70
     1
102
RTVSPropertyOp29
 70
     1
102
RTVSPropertyOp30
 70
     1
102
RTVSPropertyOp31
 70
     1
102
RTVSPropertyOp32
 70
     1
102
RTVSPropertyOp33
 70
     1
102
RTVSPropertyOp34
 70
     1
102
RTVSPropertyOp35
 70
     1
102
RTVSPropertyOp36
 70
     1
102
RTVSPropertyOp37
 70
     1
102
RTVSPropertyOp38
 70
     1
102
RTVSPropertyOp39
 70
     1
102
RTVSPropertyOp40
 70
     1
102
RTVSPropertyOp41
 70
     1
102
RTVSPropertyOp42
 70
     1
102
RTVSPropertyOp43
 70
     1
102
RTVSPropertyOp44
 70
     1
102
RTVSPropertyOp45
 70
     1
102
RTVSPropertyOp46
 70
     1
102
RTVSPropertyOp47
 70
     1
102
RTVSPropertyOp48
 70
     1
102
RTVSPropertyOp49
 70
     1
102
RTVSPropertyOp50
 70
     1
102
RTVSPropertyOp51
 70
     0
102
RTVSPropertyOp52
 70
     0
102
RTVSPropertyOp53
 70
     1
102
RTVSPropertyOp54
 70
     1
102
RTVSPropertyOp55
 70
     1
102
RTVSPropertyOp56
 70
     1
102
RTVSPropertyOp57
 70
     1
102
RTVSPropertyOp58
 70
     1
102
RTVSPropertyOp59
 70
     1
102
RTVSPropertyOp60
 70
     1
102
RTVSPropertyOp61
 70
     1
102
RTVSPropertyOp62
 70
     1
  0
XRECORD
  5
21267
102
{ACAD_REACTORS
330
21266
102
}
330
21266
100
AcDbXrecord
280
     1
102
RTVSPost2010Prop28
280
     0
102
RTVSPost2010PropOp28
 70
     1
102
RTVSPost2010Prop29
280
     1
102
RTVSPost2010PropOp29
 70
     1
102
RTVSPost2010Prop30
280
     1
102
RTVSPost2010PropOp30
 70
     1
102
RTVSPost2010Prop31
280
     0
102
RTVSPost2010PropOp31
 70
     1
102
RTVSPost2010Prop32
280
     0
102
RTVSPost2010PropOp32
 70
     1
102
RTVSPost2010Prop33
280
     0
102
RTVSPost2010PropOp33
 70
     1
102
RTVSPost2010Prop34
280
     0
102
RTVSPost2010PropOp34
 70
     1
102
RTVSPost2010Prop35
280
     0
102
RTVSPost2010PropOp35
 70
     1
102
RTVSPost2010Prop36
280
     0
102
RTVSPost2010PropOp36
 70
     1
102
RTVSPost2010Prop37
 90
       50
102
RTVSPost2010PropOp37
 70
     1
102
RTVSPost2010Prop38
140
0.0
102
RTVSPost2010PropOp38
 70
     1
102
RTVSPost2010Prop39
140
1.0
102
RTVSPost2010PropOp39
 70
     1
102
RTVSPost2010Prop40
 90
        0
102
RTVSPost2010PropOp40
 70
     1
102
RTVSPost2010Prop41ColorIndex
 90
       18
102
RTVSPost2010Prop41ColorRGB
 90
        0
102
RTVSPost2010PropOp41
 70
     1
102
RTVSPost2010Prop42
 90
       50
102
RTVSPost2010PropOp42
 70
     1
102
RTVSPost2010Prop43
 90
        3
102
RTVSPost2010PropOp43
 70
     1
102
RTVSPost2010Prop44ColorIndex
 90
        5
102
RTVSPost2010Prop44ColorRGB
 90
      255
102
RTVSPost2010PropOp44
 70
     1
102
RTVSPost2010Prop45
280
     0
102
RTVSPost2010PropOp45
 70
     1
102
RTVSPost2010Prop46
 90
       50
102
RTVSPost2010PropOp46
 70
     1
102
RTVSPost2010Prop47
 90
       50
102
RTVSPost2010PropOp47
 70
     1
102
RTVSPost2010Prop48
 90
       50
102
RTVSPost2010PropOp48
 70
     1
102
RTVSPost2010Prop49
280
     0
102
RTVSPost2010PropOp49
 70
     1
102
RTVSPost2010Prop50
 90
       50
102
RTVSPost2010PropOp50
 70
     1
102
RTVSPost2010Prop51ColorIndex
 90
      256
102
RTVSPost2010Prop51ColorRGB
 90
-16777216
102
RTVSPost2010PropOp51
 70
     0
102
RTVSPost2010Prop52
140
1.0
102
RTVSPost2010PropOp52
 70
     0
102
RTVSPost2010Prop53
 90
        2
102
RTVSPost2010PropOp53
 70
     1
102
RTVSPost2010Prop54
  1
strokes_ogs.tif
102
RTVSPost2010PropOp54
 70
     1
102
RTVSPost2010Prop55
280
     0
102
RTVSPost2010PropOp55
 70
     1
102
RTVSPost2010Prop56
140
1.0
102
RTVSPost2010PropOp56
 70
     1
102
RTVSPost2010Prop57
140
1.0
102
RTVSPost2010PropOp57
 70
     1
102
RTVSPropertyOp0
 70
     1
102
RTVSPropertyOp1
 70
     1
102
RTVSPropertyOp2
 70
     1
102
RTVSPropertyOp3
 70
     1
102
RTVSPropertyOp4
 70
     1
102
RTVSPropertyOp5
 70
     1
102
RTVSPropertyOp6
 70
     1
102
RTVSPropertyOp7
 70
     1
102
RTVSPropertyOp8
 70
     1
102
RTVSPropertyOp9
 70
     1
102
RTVSPropertyOp10
 70
     1
102
RTVSPropertyOp11
 70
     1
102
RTVSPropertyOp12
 70
     1
102
RTVSPropertyOp13
 70
     1
102
RTVSPropertyOp14
 70
     1
102
RTVSPropertyOp15
 70
     1
102
RTVSPropertyOp16
 70
     1
102
RTVSPropertyOp17
 70
     1
102
RTVSPropertyOp18
 70
     1
102
RTVSPropertyOp19
 70
     1
102
RTVSPropertyOp20
 70
     1
102
RTVSPropertyOp21
 70
     1
102
RTVSPropertyOp22
 70
     1
102
RTVSPropertyOp23
 70
     1
102
RTVSPropertyOp24
 70
     1
102
RTVSPropertyOp25
 70
     1
102
RTVSPropertyOp26
 70
     1
102
RTVSPropertyOp27
 70
     1
102
RTVSPropertyOp28
 70
     1
102
RTVSPropertyOp29
 70
     1
102
RTVSPropertyOp30
 70
     1
102
RTVSPropertyOp31
 70
     1
102
RTVSPropertyOp32
 70
     1
102
RTVSPropertyOp33
 70
     1
102
RTVSPropertyOp34
 70
     1
102
RTVSPropertyOp35
 70
     1
102
RTVSPropertyOp36
 70
     1
102
RTVSPropertyOp37
 70
     1
102
RTVSPropertyOp38
 70
     1
102
RTVSPropertyOp39
 70
     1
102
RTVSPropertyOp40
 70
     1
102
RTVSPropertyOp41
 70
     1
102
RTVSPropertyOp42
 70
     1
102
RTVSPropertyOp43
 70
     1
102
RTVSPropertyOp44
 70
     1
102
RTVSPropertyOp45
 70
     1
102
RTVSPropertyOp46
 70
     1
102
RTVSPropertyOp47
 70
     1
102
RTVSPropertyOp48
 70
     1
102
RTVSPropertyOp49
 70
     1
102
RTVSPropertyOp50
 70
     1
102
RTVSPropertyOp51
 70
     0
102
RTVSPropertyOp52
 70
     0
102
RTVSPropertyOp53
 70
     1
102
RTVSPropertyOp54
 70
     1
102
RTVSPropertyOp55
 70
     1
102
RTVSPropertyOp56
 70
     1
102
RTVSPropertyOp57
 70
     1
102
RTVSPropertyOp58
 70
     1
102
RTVSPropertyOp59
 70
     1
102
RTVSPropertyOp60
 70
     1
102
RTVSPropertyOp61
 70
     1
102
RTVSPropertyOp62
 70
     1
  0
XRECORD
  5
21269
102
{ACAD_REACTORS
330
21268
102
}
330
21268
100
AcDbXrecord
280
     1
102
RTVSPost2010Prop28
280
     0
102
RTVSPost2010PropOp28
 70
     1
102
RTVSPost2010Prop29
280
     1
102
RTVSPost2010PropOp29
 70
     1
102
RTVSPost2010Prop30
280
     1
102
RTVSPost2010PropOp30
 70
     1
102
RTVSPost2010Prop31
280
     0
102
RTVSPost2010PropOp31
 70
     1
102
RTVSPost2010Prop32
280
     0
102
RTVSPost2010PropOp32
 70
     1
102
RTVSPost2010Prop33
280
     0
102
RTVSPost2010PropOp33
 70
     1
102
RTVSPost2010Prop34
280
     0
102
RTVSPost2010PropOp34
 70
     1
102
RTVSPost2010Prop35
280
     0
102
RTVSPost2010PropOp35
 70
     1
102
RTVSPost2010Prop36
280
     0
102
RTVSPost2010PropOp36
 70
     1
102
RTVSPost2010Prop37
 90
       50
102
RTVSPost2010PropOp37
 70
     1
102
RTVSPost2010Prop38
140
0.0
102
RTVSPost2010PropOp38
 70
     1
102
RTVSPost2010Prop39
140
1.0
102
RTVSPost2010PropOp39
 70
     1
102
RTVSPost2010Prop40
 90
        0
102
RTVSPost2010PropOp40
 70
     1
102
RTVSPost2010Prop41ColorIndex
 90
       18
102
RTVSPost2010Prop41ColorRGB
 90
        0
102
RTVSPost2010PropOp41
 70
     1
102
RTVSPost2010Prop42
 90
       50
102
RTVSPost2010PropOp42
 70
     1
102
RTVSPost2010Prop43
 90
        3
102
RTVSPost2010PropOp43
 70
     1
102
RTVSPost2010Prop44ColorIndex
 90
        5
102
RTVSPost2010Prop44ColorRGB
 90
      255
102
RTVSPost2010PropOp44
 70
     1
102
RTVSPost2010Prop45
280
     0
102
RTVSPost2010PropOp45
 70
     1
102
RTVSPost2010Prop46
 90
       50
102
RTVSPost2010PropOp46
 70
     1
102
RTVSPost2010Prop47
 90
       50
102
RTVSPost2010PropOp47
 70
     1
102
RTVSPost2010Prop48
 90
       50
102
RTVSPost2010PropOp48
 70
     1
102
RTVSPost2010Prop49
280
     0
102
RTVSPost2010PropOp49
 70
     1
102
RTVSPost2010Prop50
 90
       50
102
RTVSPost2010PropOp50
 70
     1
102
RTVSPost2010Prop51ColorIndex
 90
      256
102
RTVSPost2010Prop51ColorRGB
 90
-16777216
102
RTVSPost2010PropOp51
 70
     0
102
RTVSPost2010Prop52
140
1.0
102
RTVSPost2010PropOp52
 70
     0
102
RTVSPost2010Prop53
 90
        2
102
RTVSPost2010PropOp53
 70
     1
102
RTVSPost2010Prop54
  1
strokes_ogs.tif
102
RTVSPost2010PropOp54
 70
     1
102
RTVSPost2010Prop55
280
     0
102
RTVSPost2010PropOp55
 70
     1
102
RTVSPost2010Prop56
140
1.0
102
RTVSPost2010PropOp56
 70
     1
102
RTVSPost2010Prop57
140
1.0
102
RTVSPost2010PropOp57
 70
     1
102
RTVSPropertyOp0
 70
     1
102
RTVSPropertyOp1
 70
     1
102
RTVSPropertyOp2
 70
     1
102
RTVSPropertyOp3
 70
     1
102
RTVSPropertyOp4
 70
     1
102
RTVSPropertyOp5
 70
     1
102
RTVSPropertyOp6
 70
     1
102
RTVSPropertyOp7
 70
     1
102
RTVSPropertyOp8
 70
     1
102
RTVSPropertyOp9
 70
     1
102
RTVSPropertyOp10
 70
     1
102
RTVSPropertyOp11
 70
     1
102
RTVSPropertyOp12
 70
     1
102
RTVSPropertyOp13
 70
     1
102
RTVSPropertyOp14
 70
     1
102
RTVSPropertyOp15
 70
     1
102
RTVSPropertyOp16
 70
     1
102
RTVSPropertyOp17
 70
     1
102
RTVSPropertyOp18
 70
     1
102
RTVSPropertyOp19
 70
     1
102
RTVSPropertyOp20
 70
     1
102
RTVSPropertyOp21
 70
     1
102
RTVSPropertyOp22
 70
     1
102
RTVSPropertyOp23
 70
     1
102
RTVSPropertyOp24
 70
     1
102
RTVSPropertyOp25
 70
     1
102
RTVSPropertyOp26
 70
     1
102
RTVSPropertyOp27
 70
     1
102
RTVSPropertyOp28
 70
     1
102
RTVSPropertyOp29
 70
     1
102
RTVSPropertyOp30
 70
     1
102
RTVSPropertyOp31
 70
     1
102
RTVSPropertyOp32
 70
     1
102
RTVSPropertyOp33
 70
     1
102
RTVSPropertyOp34
 70
     1
102
RTVSPropertyOp35
 70
     1
102
RTVSPropertyOp36
 70
     1
102
RTVSPropertyOp37
 70
     1
102
RTVSPropertyOp38
 70
     1
102
RTVSPropertyOp39
 70
     1
102
RTVSPropertyOp40
 70
     1
102
RTVSPropertyOp41
 70
     1
102
RTVSPropertyOp42
 70
     1
102
RTVSPropertyOp43
 70
     1
102
RTVSPropertyOp44
 70
     1
102
RTVSPropertyOp45
 70
     1
102
RTVSPropertyOp46
 70
     1
102
RTVSPropertyOp47
 70
     1
102
RTVSPropertyOp48
 70
     1
102
RTVSPropertyOp49
 70
     1
102
RTVSPropertyOp50
 70
     1
102
RTVSPropertyOp51
 70
     0
102
RTVSPropertyOp52
 70
     0
102
RTVSPropertyOp53
 70
     1
102
RTVSPropertyOp54
 70
     1
102
RTVSPropertyOp55
 70
     1
102
RTVSPropertyOp56
 70
     1
102
RTVSPropertyOp57
 70
     1
102
RTVSPropertyOp58
 70
     1
102
RTVSPropertyOp59
 70
     1
102
RTVSPropertyOp60
 70
     1
102
RTVSPropertyOp61
 70
     1
102
RTVSPropertyOp62
 70
     1
  0
XRECORD
  5
21253
102
{ACAD_REACTORS
330
21252
102
}
330
21252
100
AcDbXrecord
280
     1
102
RTVSPost2010Prop28
280
     0
102
RTVSPost2010PropOp28
 70
     1
102
RTVSPost2010Prop29
280
     1
102
RTVSPost2010PropOp29
 70
     1
102
RTVSPost2010Prop30
280
     1
102
RTVSPost2010PropOp30
 70
     1
102
RTVSPost2010Prop31
280
     0
102
RTVSPost2010PropOp31
 70
     1
102
RTVSPost2010Prop32
280
     0
102
RTVSPost2010PropOp32
 70
     1
102
RTVSPost2010Prop33
280
     0
102
RTVSPost2010PropOp33
 70
     1
102
RTVSPost2010Prop34
280
     0
102
RTVSPost2010PropOp34
 70
     1
102
RTVSPost2010Prop35
280
     0
102
RTVSPost2010PropOp35
 70
     1
102
RTVSPost2010Prop36
280
     0
102
RTVSPost2010PropOp36
 70
     1
102
RTVSPost2010Prop37
 90
       50
102
RTVSPost2010PropOp37
 70
     1
102
RTVSPost2010Prop38
140
0.0
102
RTVSPost2010PropOp38
 70
     1
102
RTVSPost2010Prop39
140
1.0
102
RTVSPost2010PropOp39
 70
     1
102
RTVSPost2010Prop40
 90
        0
102
RTVSPost2010PropOp40
 70
     1
102
RTVSPost2010Prop41ColorIndex
 90
       18
102
RTVSPost2010Prop41ColorRGB
 90
        0
102
RTVSPost2010PropOp41
 70
     1
102
RTVSPost2010Prop42
 90
       50
102
RTVSPost2010PropOp42
 70
     1
102
RTVSPost2010Prop43
 90
        3
102
RTVSPost2010PropOp43
 70
     1
102
RTVSPost2010Prop44ColorIndex
 90
        5
102
RTVSPost2010Prop44ColorRGB
 90
      255
102
RTVSPost2010PropOp44
 70
     1
102
RTVSPost2010Prop45
280
     0
102
RTVSPost2010PropOp45
 70
     1
102
RTVSPost2010Prop46
 90
       50
102
RTVSPost2010PropOp46
 70
     1
102
RTVSPost2010Prop47
 90
       50
102
RTVSPost2010PropOp47
 70
     1
102
RTVSPost2010Prop48
 90
       50
102
RTVSPost2010PropOp48
 70
     1
102
RTVSPost2010Prop49
280
     0
102
RTVSPost2010PropOp49
 70
     1
102
RTVSPost2010Prop50
 90
       50
102
RTVSPost2010PropOp50
 70
     1
102
RTVSPost2010Prop51ColorIndex
 90
      256
102
RTVSPost2010Prop51ColorRGB
 90
-16777216
102
RTVSPost2010PropOp51
 70
     0
102
RTVSPost2010Prop52
140
1.0
102
RTVSPost2010PropOp52
 70
     0
102
RTVSPost2010Prop53
 90
        2
102
RTVSPost2010PropOp53
 70
     1
102
RTVSPost2010Prop54
  1
strokes_ogs.tif
102
RTVSPost2010PropOp54
 70
     1
102
RTVSPost2010Prop55
280
     0
102
RTVSPost2010PropOp55
 70
     1
102
RTVSPost2010Prop56
140
1.0
102
RTVSPost2010PropOp56
 70
     1
102
RTVSPost2010Prop57
140
1.0
102
RTVSPost2010PropOp57
 70
     1
102
RTVSPropertyOp0
 70
     1
102
RTVSPropertyOp1
 70
     1
102
RTVSPropertyOp2
 70
     1
102
RTVSPropertyOp3
 70
     1
102
RTVSPropertyOp4
 70
     1
102
RTVSPropertyOp5
 70
     1
102
RTVSPropertyOp6
 70
     1
102
RTVSPropertyOp7
 70
     1
102
RTVSPropertyOp8
 70
     1
102
RTVSPropertyOp9
 70
     1
102
RTVSPropertyOp10
 70
     1
102
RTVSPropertyOp11
 70
     1
102
RTVSPropertyOp12
 70
     1
102
RTVSPropertyOp13
 70
     1
102
RTVSPropertyOp14
 70
     1
102
RTVSPropertyOp15
 70
     1
102
RTVSPropertyOp16
 70
     1
102
RTVSPropertyOp17
 70
     1
102
RTVSPropertyOp18
 70
     1
102
RTVSPropertyOp19
 70
     1
102
RTVSPropertyOp20
 70
     1
102
RTVSPropertyOp21
 70
     1
102
RTVSPropertyOp22
 70
     1
102
RTVSPropertyOp23
 70
     1
102
RTVSPropertyOp24
 70
     1
102
RTVSPropertyOp25
 70
     1
102
RTVSPropertyOp26
 70
     1
102
RTVSPropertyOp27
 70
     1
102
RTVSPropertyOp28
 70
     1
102
RTVSPropertyOp29
 70
     1
102
RTVSPropertyOp30
 70
     1
102
RTVSPropertyOp31
 70
     1
102
RTVSPropertyOp32
 70
     1
102
RTVSPropertyOp33
 70
     1
102
RTVSPropertyOp34
 70
     1
102
RTVSPropertyOp35
 70
     1
102
RTVSPropertyOp36
 70
     1
102
RTVSPropertyOp37
 70
     1
102
RTVSPropertyOp38
 70
     1
102
RTVSPropertyOp39
 70
     1
102
RTVSPropertyOp40
 70
     1
102
RTVSPropertyOp41
 70
     1
102
RTVSPropertyOp42
 70
     1
102
RTVSPropertyOp43
 70
     1
102
RTVSPropertyOp44
 70
     1
102
RTVSPropertyOp45
 70
     1
102
RTVSPropertyOp46
 70
     1
102
RTVSPropertyOp47
 70
     1
102
RTVSPropertyOp48
 70
     1
102
RTVSPropertyOp49
 70
     1
102
RTVSPropertyOp50
 70
     1
102
RTVSPropertyOp51
 70
     0
102
RTVSPropertyOp52
 70
     0
102
RTVSPropertyOp53
 70
     1
102
RTVSPropertyOp54
 70
     1
102
RTVSPropertyOp55
 70
     1
102
RTVSPropertyOp56
 70
     1
102
RTVSPropertyOp57
 70
     1
102
RTVSPropertyOp58
 70
     1
102
RTVSPropertyOp59
 70
     1
102
RTVSPropertyOp60
 70
     1
102
RTVSPropertyOp61
 70
     1
102
RTVSPropertyOp62
 70
     1
  0
XRECORD
  5
21263
102
{ACAD_REACTORS
330
21262
102
}
330
21262
100
AcDbXrecord
280
     1
102
RTVSPost2010Prop28
280
     0
102
RTVSPost2010PropOp28
 70
     1
102
RTVSPost2010Prop29
280
     1
102
RTVSPost2010PropOp29
 70
     1
102
RTVSPost2010Prop30
280
     1
102
RTVSPost2010PropOp30
 70
     1
102
RTVSPost2010Prop31
280
     0
102
RTVSPost2010PropOp31
 70
     1
102
RTVSPost2010Prop32
280
     0
102
RTVSPost2010PropOp32
 70
     1
102
RTVSPost2010Prop33
280
     0
102
RTVSPost2010PropOp33
 70
     1
102
RTVSPost2010Prop34
280
     0
102
RTVSPost2010PropOp34
 70
     1
102
RTVSPost2010Prop35
280
     0
102
RTVSPost2010PropOp35
 70
     1
102
RTVSPost2010Prop36
280
     0
102
RTVSPost2010PropOp36
 70
     1
102
RTVSPost2010Prop37
 90
       50
102
RTVSPost2010PropOp37
 70
     1
102
RTVSPost2010Prop38
140
0.0
102
RTVSPost2010PropOp38
 70
     1
102
RTVSPost2010Prop39
140
1.0
102
RTVSPost2010PropOp39
 70
     1
102
RTVSPost2010Prop40
 90
        0
102
RTVSPost2010PropOp40
 70
     1
102
RTVSPost2010Prop41ColorIndex
 90
       18
102
RTVSPost2010Prop41ColorRGB
 90
        0
102
RTVSPost2010PropOp41
 70
     1
102
RTVSPost2010Prop42
 90
       50
102
RTVSPost2010PropOp42
 70
     1
102
RTVSPost2010Prop43
 90
        3
102
RTVSPost2010PropOp43
 70
     1
102
RTVSPost2010Prop44ColorIndex
 90
        5
102
RTVSPost2010Prop44ColorRGB
 90
      255
102
RTVSPost2010PropOp44
 70
     1
102
RTVSPost2010Prop45
280
     0
102
RTVSPost2010PropOp45
 70
     1
102
RTVSPost2010Prop46
 90
       50
102
RTVSPost2010PropOp46
 70
     1
102
RTVSPost2010Prop47
 90
       50
102
RTVSPost2010PropOp47
 70
     1
102
RTVSPost2010Prop48
 90
       50
102
RTVSPost2010PropOp48
 70
     1
102
RTVSPost2010Prop49
280
     0
102
RTVSPost2010PropOp49
 70
     1
102
RTVSPost2010Prop50
 90
       50
102
RTVSPost2010PropOp50
 70
     1
102
RTVSPost2010Prop51ColorIndex
 90
      256
102
RTVSPost2010Prop51ColorRGB
 90
-16777216
102
RTVSPost2010PropOp51
 70
     0
102
RTVSPost2010Prop52
140
1.0
102
RTVSPost2010PropOp52
 70
     0
102
RTVSPost2010Prop53
 90
        2
102
RTVSPost2010PropOp53
 70
     1
102
RTVSPost2010Prop54
  1
strokes_ogs.tif
102
RTVSPost2010PropOp54
 70
     1
102
RTVSPost2010Prop55
280
     0
102
RTVSPost2010PropOp55
 70
     1
102
RTVSPost2010Prop56
140
1.0
102
RTVSPost2010PropOp56
 70
     1
102
RTVSPost2010Prop57
140
1.0
102
RTVSPost2010PropOp57
 70
     1
102
RTVSPropertyOp0
 70
     1
102
RTVSPropertyOp1
 70
     1
102
RTVSPropertyOp2
 70
     1
102
RTVSPropertyOp3
 70
     1
102
RTVSPropertyOp4
 70
     1
102
RTVSPropertyOp5
 70
     1
102
RTVSPropertyOp6
 70
     1
102
RTVSPropertyOp7
 70
     1
102
RTVSPropertyOp8
 70
     1
102
RTVSPropertyOp9
 70
     1
102
RTVSPropertyOp10
 70
     1
102
RTVSPropertyOp11
 70
     1
102
RTVSPropertyOp12
 70
     1
102
RTVSPropertyOp13
 70
     1
102
RTVSPropertyOp14
 70
     1
102
RTVSPropertyOp15
 70
     1
102
RTVSPropertyOp16
 70
     1
102
RTVSPropertyOp17
 70
     1
102
RTVSPropertyOp18
 70
     1
102
RTVSPropertyOp19
 70
     1
102
RTVSPropertyOp20
 70
     1
102
RTVSPropertyOp21
 70
     1
102
RTVSPropertyOp22
 70
     1
102
RTVSPropertyOp23
 70
     1
102
RTVSPropertyOp24
 70
     1
102
RTVSPropertyOp25
 70
     1
102
RTVSPropertyOp26
 70
     1
102
RTVSPropertyOp27
 70
     1
102
RTVSPropertyOp28
 70
     1
102
RTVSPropertyOp29
 70
     1
102
RTVSPropertyOp30
 70
     1
102
RTVSPropertyOp31
 70
     1
102
RTVSPropertyOp32
 70
     1
102
RTVSPropertyOp33
 70
     1
102
RTVSPropertyOp34
 70
     1
102
RTVSPropertyOp35
 70
     1
102
RTVSPropertyOp36
 70
     1
102
RTVSPropertyOp37
 70
     1
102
RTVSPropertyOp38
 70
     1
102
RTVSPropertyOp39
 70
     1
102
RTVSPropertyOp40
 70
     1
102
RTVSPropertyOp41
 70
     1
102
RTVSPropertyOp42
 70
     1
102
RTVSPropertyOp43
 70
     1
102
RTVSPropertyOp44
 70
     1
102
RTVSPropertyOp45
 70
     1
102
RTVSPropertyOp46
 70
     1
102
RTVSPropertyOp47
 70
     1
102
RTVSPropertyOp48
 70
     1
102
RTVSPropertyOp49
 70
     1
102
RTVSPropertyOp50
 70
     1
102
RTVSPropertyOp51
 70
     0
102
RTVSPropertyOp52
 70
     0
102
RTVSPropertyOp53
 70
     1
102
RTVSPropertyOp54
 70
     1
102
RTVSPropertyOp55
 70
     1
102
RTVSPropertyOp56
 70
     1
102
RTVSPropertyOp57
 70
     1
102
RTVSPropertyOp58
 70
     1
102
RTVSPropertyOp59
 70
     1
102
RTVSPropertyOp60
 70
     1
102
RTVSPropertyOp61
 70
     1
102
RTVSPropertyOp62
 70
     1
  0
XRECORD
  5
2126B
102
{ACAD_REACTORS
330
2126A
102
}
330
2126A
100
AcDbXrecord
280
     1
102
RTVSPost2010Prop28
280
     0
102
RTVSPost2010PropOp28
 70
     1
102
RTVSPost2010Prop29
280
     1
102
RTVSPost2010PropOp29
 70
     1
102
RTVSPost2010Prop30
280
     1
102
RTVSPost2010PropOp30
 70
     1
102
RTVSPost2010Prop31
280
     0
102
RTVSPost2010PropOp31
 70
     1
102
RTVSPost2010Prop32
280
     0
102
RTVSPost2010PropOp32
 70
     1
102
RTVSPost2010Prop33
280
     0
102
RTVSPost2010PropOp33
 70
     1
102
RTVSPost2010Prop34
280
     0
102
RTVSPost2010PropOp34
 70
     1
102
RTVSPost2010Prop35
280
     0
102
RTVSPost2010PropOp35
 70
     1
102
RTVSPost2010Prop36
280
     0
102
RTVSPost2010PropOp36
 70
     1
102
RTVSPost2010Prop37
 90
       50
102
RTVSPost2010PropOp37
 70
     1
102
RTVSPost2010Prop38
140
0.0
102
RTVSPost2010PropOp38
 70
     1
102
RTVSPost2010Prop39
140
1.0
102
RTVSPost2010PropOp39
 70
     1
102
RTVSPost2010Prop40
 90
        0
102
RTVSPost2010PropOp40
 70
     1
102
RTVSPost2010Prop41ColorIndex
 90
       18
102
RTVSPost2010Prop41ColorRGB
 90
        0
102
RTVSPost2010PropOp41
 70
     1
102
RTVSPost2010Prop42
 90
       50
102
RTVSPost2010PropOp42
 70
     1
102
RTVSPost2010Prop43
 90
        3
102
RTVSPost2010PropOp43
 70
     1
102
RTVSPost2010Prop44ColorIndex
 90
        5
102
RTVSPost2010Prop44ColorRGB
 90
      255
102
RTVSPost2010PropOp44
 70
     1
102
RTVSPost2010Prop45
280
     0
102
RTVSPost2010PropOp45
 70
     1
102
RTVSPost2010Prop46
 90
       50
102
RTVSPost2010PropOp46
 70
     1
102
RTVSPost2010Prop47
 90
       50
102
RTVSPost2010PropOp47
 70
     1
102
RTVSPost2010Prop48
 90
       50
102
RTVSPost2010PropOp48
 70
     1
102
RTVSPost2010Prop49
280
     0
102
RTVSPost2010PropOp49
 70
     1
102
RTVSPost2010Prop50
 90
       50
102
RTVSPost2010PropOp50
 70
     1
102
RTVSPost2010Prop51ColorIndex
 90
      256
102
RTVSPost2010Prop51ColorRGB
 90
-16777216
102
RTVSPost2010PropOp51
 70
     0
102
RTVSPost2010Prop52
140
1.0
102
RTVSPost2010PropOp52
 70
     0
102
RTVSPost2010Prop53
 90
        2
102
RTVSPost2010PropOp53
 70
     1
102
RTVSPost2010Prop54
  1
strokes_ogs.tif
102
RTVSPost2010PropOp54
 70
     1
102
RTVSPost2010Prop55
280
     0
102
RTVSPost2010PropOp55
 70
     1
102
RTVSPost2010Prop56
140
1.0
102
RTVSPost2010PropOp56
 70
     1
102
RTVSPost2010Prop57
140
1.0
102
RTVSPost2010PropOp57
 70
     1
102
RTVSPropertyOp0
 70
     1
102
RTVSPropertyOp1
 70
     1
102
RTVSPropertyOp2
 70
     1
102
RTVSPropertyOp3
 70
     1
102
RTVSPropertyOp4
 70
     1
102
RTVSPropertyOp5
 70
     1
102
RTVSPropertyOp6
 70
     1
102
RTVSPropertyOp7
 70
     1
102
RTVSPropertyOp8
 70
     1
102
RTVSPropertyOp9
 70
     1
102
RTVSPropertyOp10
 70
     1
102
RTVSPropertyOp11
 70
     1
102
RTVSPropertyOp12
 70
     1
102
RTVSPropertyOp13
 70
     1
102
RTVSPropertyOp14
 70
     1
102
RTVSPropertyOp15
 70
     1
102
RTVSPropertyOp16
 70
     1
102
RTVSPropertyOp17
 70
     1
102
RTVSPropertyOp18
 70
     1
102
RTVSPropertyOp19
 70
     1
102
RTVSPropertyOp20
 70
     1
102
RTVSPropertyOp21
 70
     1
102
RTVSPropertyOp22
 70
     1
102
RTVSPropertyOp23
 70
     1
102
RTVSPropertyOp24
 70
     1
102
RTVSPropertyOp25
 70
     1
102
RTVSPropertyOp26
 70
     1
102
RTVSPropertyOp27
 70
     1
102
RTVSPropertyOp28
 70
     1
102
RTVSPropertyOp29
 70
     1
102
RTVSPropertyOp30
 70
     1
102
RTVSPropertyOp31
 70
     1
102
RTVSPropertyOp32
 70
     1
102
RTVSPropertyOp33
 70
     1
102
RTVSPropertyOp34
 70
     1
102
RTVSPropertyOp35
 70
     1
102
RTVSPropertyOp36
 70
     1
102
RTVSPropertyOp37
 70
     1
102
RTVSPropertyOp38
 70
     1
102
RTVSPropertyOp39
 70
     1
102
RTVSPropertyOp40
 70
     1
102
RTVSPropertyOp41
 70
     1
102
RTVSPropertyOp42
 70
     1
102
RTVSPropertyOp43
 70
     1
102
RTVSPropertyOp44
 70
     1
102
RTVSPropertyOp45
 70
     1
102
RTVSPropertyOp46
 70
     1
102
RTVSPropertyOp47
 70
     1
102
RTVSPropertyOp48
 70
     1
102
RTVSPropertyOp49
 70
     1
102
RTVSPropertyOp50
 70
     1
102
RTVSPropertyOp51
 70
     0
102
RTVSPropertyOp52
 70
     0
102
RTVSPropertyOp53
 70
     1
102
RTVSPropertyOp54
 70
     1
102
RTVSPropertyOp55
 70
     1
102
RTVSPropertyOp56
 70
     1
102
RTVSPropertyOp57
 70
     1
102
RTVSPropertyOp58
 70
     1
102
RTVSPropertyOp59
 70
     1
102
RTVSPropertyOp60
 70
     1
102
RTVSPropertyOp61
 70
     1
102
RTVSPropertyOp62
 70
     1
  0
ENDSEC
  0
EOF
