  0
SECTION
  2
HEADER
  9
$ACADVER
  1
AC1015
  9
$ACADMAINTVER
 70
    20
  9
$DWGCODEPAGE
  3
ANSI_1252
  9
$INSBASE
 10
0.0
 20
0.0
 30
0.0
  9
$EXTMIN
 10
-126.9144206627865
 20
-361.6974463392694
 30
0.0
  9
$EXTMAX
 10
349.9853946110524
 20
53.31183068252409
 30
0.0
  9
$LIMMIN
 10
0.0
 20
0.0
  9
$LIMMAX
 10
420.0
 20
297.0
  9
$ORTHOMODE
 70
     0
  9
$REGENMODE
 70
     1
  9
$FILLMODE
 70
     1
  9
$QTEXTMODE
 70
     0
  9
$MIRRTEXT
 70
     0
  9
$LTSCALE
 40
23.1
  9
$ATTMODE
 70
     1
  9
$TEXTSIZE
 40
3.5
  9
$TRACEWID
 40
0.05
  9
$TEXTSTYLE
  7
STANDARD
  9
$CLAYER
  8
2
  9
$CELTYPE
  6
BYLAYER
  9
$CECOLOR
 62
   256
  9
$CELTSCALE
 40
1.0
  9
$DISPSILH
 70
     0
  9
$DIMSCALE
 40
1.0
  9
$DIMASZ
 40
4.57
  9
$DIMEXO
 40
0.0625
  9
$DIMDLI
 40
0.38
  9
$DIMRND
 40
0.0
  9
$DIMDLE
 40
0.0
  9
$DIMEXE
 40
0.18
  9
$DIMTP
 40
0.01
  9
$DIMTM
 40
0.01
  9
$DIMTXT
 40
3.5
  9
$DIMCEN
 40
0.09
  9
$DIMTSZ
 40
0.0
  9
$DIMTOL
 70
     0
  9
$DIMLIM
 70
     0
  9
$DIMTIH
 70
     0
  9
$DIMTOH
 70
     0
  9
$DIMSE1
 70
     0
  9
$DIMSE2
 70
     0
  9
$DIMTAD
 70
     1
  9
$DIMZIN
 70
     8
  9
$DIMBLK
  1

  9
$DIMASO
 70
     1
  9
$DIMSHO
 70
     1
  9
$DIMPOST
  1

  9
$DIMAPOST
  1

  9
$DIMALT
 70
     0
  9
$DIMALTD
 70
     2
  9
$DIMALTF
 40
25.4
  9
$DIMLFAC
 40
1.0
  9
$DIMTOFL
 70
     0
  9
$DIMTVP
 40
0.0
  9
$DIMTIX
 70
     0
  9
$DIMSOXD
 70
     0
  9
$DIMSAH
 70
     0
  9
$DIMBLK1
  1

  9
$DIMBLK2
  1

  9
$DIMSTYLE
  2
STANDARD
  9
$DIMCLRD
 70
     0
  9
$DIMCLRE
 70
     0
  9
$DIMCLRT
 70
     0
  9
$DIMTFAC
 40
1.0
  9
$DIMGAP
 40
0.09
  9
$DIMJUST
 70
     0
  9
$DIMSD1
 70
     0
  9
$DIMSD2
 70
     0
  9
$DIMTOLJ
 70
     1
  9
$DIMTZIN
 70
     8
  9
$DIMALTZ
 70
     0
  9
$DIMALTTZ
 70
     0
  9
$DIMUPT
 70
     0
  9
$DIMDEC
 70
     3
  9
$DIMTDEC
 70
     3
  9
$DIMALTU
 70
     2
  9
$DIMALTTD
 70
     2
  9
$DIMTXSTY
  7
STANDARD
  9
$DIMAUNIT
 70
     0
  9
$DIMADEC
 70
     0
  9
$DIMALTRND
 40
0.0
  9
$DIMAZIN
 70
     0
  9
$DIMDSEP
 70
    46
  9
$DIMATFIT
 70
     0
  9
$DIMFRAC
 70
     0
  9
$DIMLDRBLK
  1

  9
$DIMLUNIT
 70
     2
  9
$DIMLWD
 70
    -2
  9
$DIMLWE
 70
    -2
  9
$DIMTMOVE
 70
     0
  9
$LUNITS
 70
     2
  9
$LUPREC
 70
     4
  9
$SKETCHINC
 40
0.1
  9
$FILLETRAD
 40
0.0
  9
$AUNITS
 70
     0
  9
$AUPREC
 70
     0
  9
$MENU
  1
.
  9
$ELEVATION
 40
0.0
  9
$PELEVATION
 40
0.0
  9
$THICKNESS
 40
0.0
  9
$LIMCHECK
 70
     0
  9
$CHAMFERA
 40
0.0
  9
$CHAMFERB
 40
0.0
  9
$CHAMFERC
 40
0.0
  9
$CHAMFERD
 40
0.0
  9
$SKPOLY
 70
     0
  9
$TDCREATE
 40
2457394.646746019
  9
$TDUCREATE
 40
2457394.605079352
  9
$TDUPDATE
 40
2457394.655893646
  9
$TDUUPDATE
 40
2457394.614226979
  9
$TDINDWG
 40
0.0091500116
  9
$TDUSRTIMER
 40
0.0091489815
  9
$USRTIMER
 70
     1
  9
$ANGBASE
 50
0.0
  9
$ANGDIR
 70
     0
  9
$PDMODE
 70
     3
  9
$PDSIZE
 40
0.3125
  9
$PLINEWID
 40
0.0
  9
$SPLFRAME
 70
     0
  9
$SPLINETYPE
 70
     6
  9
$SPLINESEGS
 70
     8
  9
$HANDSEED
  5
21327
  9
$SURFTAB1
 70
     6
  9
$SURFTAB2
 70
     6
  9
$SURFTYPE
 70
     6
  9
$SURFU
 70
     6
  9
$SURFV
 70
     6
  9
$UCSBASE
  2

  9
$UCSNAME
  2

  9
$UCSORG
 10
0.0
 20
0.0
 30
0.0
  9
$UCSXDIR
 10
1.0
 20
0.0
 30
0.0
  9
$UCSYDIR
 10
0.0
 20
1.0
 30
0.0
  9
$UCSORTHOREF
  2

  9
$UCSORTHOVIEW
 70
     0
  9
$UCSORGTOP
 10
0.0
 20
0.0
 30
0.0
  9
$UCSORGBOTTOM
 10
0.0
 20
0.0
 30
0.0
  9
$UCSORGLEFT
 10
0.0
 20
0.0
 30
0.0
  9
$UCSORGRIGHT
 10
0.0
 20
0.0
 30
0.0
  9
$UCSORGFRONT
 10
0.0
 20
0.0
 30
0.0
  9
$UCSORGBACK
 10
0.0
 20
0.0
 30
0.0
  9
$PUCSBASE
  2

  9
$PUCSNAME
  2

  9
$PUCSORG
 10
0.0
 20
0.0
 30
0.0
  9
$PUCSXDIR
 10
1.0
 20
0.0
 30
0.0
  9
$PUCSYDIR
 10
0.0
 20
1.0
 30
0.0
  9
$PUCSORTHOREF
  2

  9
$PUCSORTHOVIEW
 70
     0
  9
$PUCSORGTOP
 10
0.0
 20
0.0
 30
0.0
  9
$PUCSORGBOTTOM
 10
0.0
 20
0.0
 30
0.0
  9
$PUCSORGLEFT
 10
0.0
 20
0.0
 30
0.0
  9
$PUCSORGRIGHT
 10
0.0
 20
0.0
 30
0.0
  9
$PUCSORGFRONT
 10
0.0
 20
0.0
 30
0.0
  9
$PUCSORGBACK
 10
0.0
 20
0.0
 30
0.0
  9
$USERI1
 70
     0
  9
$USERI2
 70
     0
  9
$USERI3
 70
     0
  9
$USERI4
 70
     0
  9
$USERI5
 70
     0
  9
$USERR1
 40
0.0
  9
$USERR2
 40
0.0
  9
$USERR3
 40
0.0
  9
$USERR4
 40
0.0
  9
$USERR5
 40
0.0
  9
$WORLDVIEW
 70
     1
  9
$SHADEDGE
 70
     3
  9
$SHADEDIF
 70
    70
  9
$TILEMODE
 70
     1
  9
$MAXACTVP
 70
    64
  9
$PINSBASE
 10
0.0
 20
0.0
 30
0.0
  9
$PLIMCHECK
 70
     0
  9
$PEXTMIN
 10
28.69141678810127
 20
19.6363175392151
 30
0.0
  9
$PEXTMAX
 10
258.2227510929107
 20
176.7268578529358
 30
0.0
  9
$PLIMMIN
 10
-5.027069091796875
 20
-6.805083274841307
  9
$PLIMMAX
 10
291.9412536621094
 20
203.1682443618775
  9
$UNITMODE
 70
     0
  9
$VISRETAIN
 70
     1
  9
$PLINEGEN
 70
     0
  9
$PSLTSCALE
 70
     1
  9
$TREEDEPTH
 70
  3020
  9
$CMLSTYLE
  2
STANDARD
  9
$CMLJUST
 70
     0
  9
$CMLSCALE
 40
1.0
  9
$PROXYGRAPHICS
 70
     1
  9
$MEASUREMENT
 70
     1
  9
$CELWEIGHT
370
    -1
  9
$ENDCAPS
280
     0
  9
$JOINSTYLE
280
     0
  9
$LWDISPLAY
290
     0
  9
$INSUNITS
 70
     0
  9
$HYPERLINKBASE
  1

  9
$STYLESHEET
  1
A1-A2.CTB
  9
$XEDIT
290
     1
  9
$CEPSNTYPE
380
     0
  9
$PSTYLEMODE
290
     1
  9
$FINGERPRINTGUID
  2
{8931FD44-994A-4A85-9C76-7B2053965FF2}
  9
$VERSIONGUID
  2
{063B67A1-4759-4CC6-93A5-74F74BD401D7}
  9
$EXTNAMES
290
     1
  9
$PSVPSCALE
 40
0.0
  9
$OLESTARTUP
290
     0
  0
ENDSEC
  0
SECTION
  2
CLASSES
  0
CLASS
  1
ACDBDICTIONARYWDFLT
  2
AcDbDictionaryWithDefault
  3
ObjectDBX Classes
 90
        0
280
     0
281
     0
  0
CLASS
  1
MATERIAL
  2
AcDbMaterial
  3
ObjectDBX Classes
 90
     1153
280
     0
281
     0
  0
CLASS
  1
VISUALSTYLE
  2
AcDbVisualStyle
  3
ObjectDBX Classes
 90
     4095
280
     0
281
     0
  0
CLASS
  1
TABLESTYLE
  2
AcDbTableStyle
  3
ObjectDBX Classes
 90
     4095
280
     0
281
     0
  0
CLASS
  1
SORTENTSTABLE
  2
AcDbSortentsTable
  3
ObjectDBX Classes
 90
        0
280
     0
281
     0
  0
CLASS
  1
DICTIONARYVAR
  2
AcDbDictionaryVar
  3
ObjectDBX Classes
 90
        0
280
     0
281
     0
  0
CLASS
  1
EXACXREFPANELOBJECT
  2
ExAcXREFPanelObject
  3
EXAC_ESW
 90
    33793
280
     1
281
     0
  0
CLASS
  1
NPOCOLLECTION
  2
AcDbImpNonPersistentObjectsCollection
  3
ObjectDBX Classes
 90
    33921
280
     1
281
     0
  0
CLASS
  1
ACDBPLACEHOLDER
  2
AcDbPlaceHolder
  3
ObjectDBX Classes
 90
        0
280
     0
281
     0
  0
CLASS
  1
LAYOUT
  2
AcDbLayout
  3
ObjectDBX Classes
 90
        0
280
     0
281
     0
  0
CLASS
  1
SCALE
  2
AcDbScale
  3
ObjectDBX Classes
 90
     1153
280
     0
281
     0
  0
CLASS
  1
MLEADERSTYLE
  2
AcDbMLeaderStyle
  3
ACDB_MLEADERSTYLE_CLASS
 90
     4095
280
     0
281
     0
  0
CLASS
  1
ACDBSECTIONVIEWSTYLE
  2
AcDbSectionViewStyle
  3
ObjectDBX Classes
 90
     1025
280
     0
281
     0
  0
CLASS
  1
ACDBDETAILVIEWSTYLE
  2
AcDbDetailViewStyle
  3
ObjectDBX Classes
 90
     1025
280
     0
281
     0
  0
CLASS
  1
CELLSTYLEMAP
  2
AcDbCellStyleMap
  3
ObjectDBX Classes
 90
     1152
280
     0
281
     0
  0
CLASS
  1
ACAD_EVALUATION_GRAPH
  2
AcDbEvalGraph
  3
ObjectDBX Classes
 90
    33921
280
     0
281
     0
  0
CLASS
  1
ACAECUSTOBJ
  2
AcAeEditorObj
  3
AcAeEditorObj
 90
    33792
280
     0
281
     0
  0
CLASS
  1
ACDB_DYNAMICBLOCKPURGEPREVENTER_VERSION
  2
AcDbDynamicBlockPurgePreventer
  3
ObjectDBX Classes
 90
    33921
280
     0
281
     0
  0
CLASS
  1
FIELD
  2
AcDbField
  3
ObjectDBX Classes
 90
     1152
280
     0
281
     0
  0
CLASS
  1
FIELDLIST
  2
AcDbFieldList
  3
ObjectDBX Classes
 90
     1152
280
     0
281
     0
  0
ENDSEC
  0
SECTION
  2
TABLES
  0
TABLE
  2
VPORT
  5
8
330
0
100
AcDbSymbolTable
 70
     1
  0
VPORT
  5
1F4
330
8
100
AcDbSymbolTableRecord
100
AcDbViewportTableRecord
  2
*ACTIVE
 70
     0
 10
0.0
 20
0.0
 11
1.0
 21
1.0
 12
-4.865652079601886
 22
3.919732942707568
 13
0.0
 23
0.0
 14
1.0
 24
1.0
 15
0.0
 25
0.0
 16
0.0
 26
0.0
 36
1.0
 17
0.0
 27
0.0
 37
0.0
 40
147.7129560915532
 41
1.765765765765765
 42
50.0
 43
0.0
 44
0.0
 50
0.0
 51
0.0
 71
     0
 72
  2000
 73
     1
 74
     1
 75
     0
 76
     0
 77
     0
 78
     0
281
     0
 65
     1
110
0.0
120
0.0
130
0.0
111
1.0
121
0.0
131
0.0
112
0.0
122
1.0
132
0.0
 79
     0
146
0.0
1001
ACAD_NAV_VCDISPLAY
1070
     3
  0
ENDTAB
  0
TABLE
  2
LTYPE
  5
5
330
0
100
AcDbSymbolTable
 70
     8
  0
LTYPE
  5
14
330
5
100
AcDbSymbolTableRecord
100
AcDbLinetypeTableRecord
  2
BYBLOCK
 70
     0
  3

 72
    65
 73
     0
 40
0.0
  0
LTYPE
  5
15
330
5
100
AcDbSymbolTableRecord
100
AcDbLinetypeTableRecord
  2
BYLAYER
 70
     0
  3

 72
    65
 73
     0
 40
0.0
  0
LTYPE
  5
16
330
5
100
AcDbSymbolTableRecord
100
AcDbLinetypeTableRecord
  2
CONTINUOUS
 70
     0
  3
Solid line
 72
    65
 73
     0
 40
0.0
  0
LTYPE
  5
9C48
330
5
100
AcDbSymbolTableRecord
100
AcDbLinetypeTableRecord
  2
CENTER
 70
     0
  3
____ _ ____ _ ____ _ ____ _ ____ _ ____ _ ____
 72
    65
 73
     4
 40
0.6
 49
0.375
 74
     0
 49
-0.075
 74
     0
 49
0.075
 74
     0
 49
-0.075
 74
     0
  0
LTYPE
  5
20A82
330
5
100
AcDbSymbolTableRecord
100
AcDbLinetypeTableRecord
  2
HIDDEN
 70
     0
  3
- - - - - - - - - - - - - - - - - - - -
 72
    65
 73
     2
 40
0.2
 49
0.1
 74
     0
 49
-0.1
 74
     0
  0
ENDTAB
  0
TABLE
  2
LAYER
  5
2
102
{ACAD_XDICTIONARY
360
422A
102
}
330
0
100
AcDbSymbolTable
 70
    19
  0
LAYER
  5
10
102
{ACAD_XDICTIONARY
360
1B2F5
102
}
330
2
100
AcDbSymbolTableRecord
100
AcDbLayerTableRecord
  2
0
 70
     0
 62
     7
  6
CONTINUOUS
370
    -3
390
318A
  0
LAYER
  5
3F8C
102
{ACAD_XDICTIONARY
360
1B2F7
102
}
330
2
100
AcDbSymbolTableRecord
100
AcDbLayerTableRecord
  2
1
 70
     0
 62
     4
  6
BYBLOCK
370
    50
390
318A
  0
LAYER
  5
3FA7
330
2
100
AcDbSymbolTableRecord
100
AcDbLayerTableRecord
  2
Defpoints
 70
     0
 62
     7
  6
CONTINUOUS
290
     0
370
    -3
390
318A
  0
LAYER
  5
9C4A
102
{ACAD_XDICTIONARY
360
1B2F9
102
}
330
2
100
AcDbSymbolTableRecord
100
AcDbLayerTableRecord
  2
2
 70
     0
 62
     7
  6
BYBLOCK
370
    25
390
318A
  0
LAYER
  5
9C4D
102
{ACAD_XDICTIONARY
360
1B2FD
102
}
330
2
100
AcDbSymbolTableRecord
100
AcDbLayerTableRecord
  2
CUT
 70
     0
 62
     1
  6
BYBLOCK
370
    25
390
318A
  0
LAYER
  5
9C4E
102
{ACAD_XDICTIONARY
360
1B2FF
102
}
330
2
100
AcDbSymbolTableRecord
100
AcDbLayerTableRecord
  2
NOCUT
 70
     0
 62
     7
  6
BYBLOCK
370
    25
390
318A
  0
LAYER
  5
9C4F
102
{ACAD_XDICTIONARY
360
1B301
102
}
330
2
100
AcDbSymbolTableRecord
100
AcDbLayerTableRecord
  2
SK2
 70
     0
 62
     7
  6
BYBLOCK
370
    25
390
318A
  0
LAYER
  5
9C50
102
{ACAD_XDICTIONARY
360
1B303
102
}
330
2
100
AcDbSymbolTableRecord
100
AcDbLayerTableRecord
  2
SK1
 70
     0
 62
     4
  6
BYBLOCK
370
    50
390
318A
  0
LAYER
  5
9C51
102
{ACAD_XDICTIONARY
360
1B305
102
}
330
2
100
AcDbSymbolTableRecord
100
AcDbLayerTableRecord
  2
SK4
 70
     0
 62
     2
  6
CENTER
370
    25
390
318A
  0
LAYER
  5
13335
102
{ACAD_XDICTIONARY
360
1B307
102
}
330
2
100
AcDbSymbolTableRecord
100
AcDbLayerTableRecord
  2
INFTOTAL
 70
     0
 62
     9
  6
BYBLOCK
370
    18
390
318A
1001
AcAecLayerStandard
1000

1000

  0
LAYER
  5
20A83
102
{ACAD_XDICTIONARY
360
20A84
102
}
330
2
100
AcDbSymbolTableRecord
100
AcDbLayerTableRecord
  2
3
 70
     0
 62
     1
  6
HIDDEN
370
    -3
390
318A
1001
AcAecLayerStandard
1000

1000

1001
AcCmTransparency
1071
        0
  0
LAYER
  5
20A91
102
{ACAD_XDICTIONARY
360
210A0
102
}
330
2
100
AcDbSymbolTableRecord
100
AcDbLayerTableRecord
  2
SK3
 70
     0
 62
     1
  6
HIDDEN
370
    -3
390
318A
1001
AcAecLayerStandard
1000

1000

1001
AcCmTransparency
1071
        0
  0
LAYER
  5
20AE0
102
{ACAD_XDICTIONARY
360
20AE1
102
}
330
2
100
AcDbSymbolTableRecord
100
AcDbLayerTableRecord
  2
SKVIEW63
 70
     0
 62
     5
  6
CONTINUOUS
370
    35
390
318A
  0
ENDTAB
  0
TABLE
  2
STYLE
  5
3
330
0
100
AcDbSymbolTable
 70
     3
  0
STYLE
  5
11
330
3
100
AcDbSymbolTableRecord
100
AcDbTextStyleTableRecord
  2
STANDARD
 70
     0
 40
3.5
 41
0.8
 50
0.0
 71
     0
 42
3.5
  3
monos.ttf
  4

1001
ACAD
1000
Monospac821 BT
1071
       49
  0
STYLE
  5
1686F
330
3
100
AcDbSymbolTableRecord
100
AcDbTextStyleTableRecord
  2
BMG_Text
 70
     0
 40
3.5
 41
1.0
 50
0.0
 71
     0
 42
0.2
  3
monos.ttf
  4

1001
ACAD
1000
Monospac821 BT
1071
       49
  0
ENDTAB
  0
TABLE
  2
VIEW
  5
6
330
0
100
AcDbSymbolTable
 70
     0
  0
ENDTAB
  0
TABLE
  2
UCS
  5
7
330
0
100
AcDbSymbolTable
 70
     0
  0
ENDTAB
  0
TABLE
  2
APPID
  5
9
330
0
100
AcDbSymbolTable
 70
    18
  0
APPID
  5
23B
330
9
100
AcDbSymbolTableRecord
100
AcDbRegAppTableRecord
  2
ACAD
 70
     0
  0
APPID
  5
3395
330
9
100
AcDbSymbolTableRecord
100
AcDbRegAppTableRecord
  2
ACAD_EXEMPT_FROM_CAD_STANDARDS
 70
     0
  0
APPID
  5
4229
330
9
100
AcDbSymbolTableRecord
100
AcDbRegAppTableRecord
  2
AcAecLayerStandard
 70
     0
  0
APPID
  5
9A1B
330
9
100
AcDbSymbolTableRecord
100
AcDbRegAppTableRecord
  2
ACAD_PSEXT
 70
     0
  0
APPID
  5
1B313
330
9
100
AcDbSymbolTableRecord
100
AcDbRegAppTableRecord
  2
ACAD_NAV_VCDISPLAY
 70
     0
  0
APPID
  5
1B355
330
9
100
AcDbSymbolTableRecord
100
AcDbRegAppTableRecord
  2
ACAD_MLEADERVER
 70
     0
  0
APPID
  5
1EC7F
330
9
100
AcDbSymbolTableRecord
100
AcDbRegAppTableRecord
  2
ACAUTHENVIRON
 70
     0
  0
APPID
  5
1EC82
330
9
100
AcDbSymbolTableRecord
100
AcDbRegAppTableRecord
  2
AcDbDynamicBlockTrueName
 70
     0
  0
APPID
  5
1EC83
330
9
100
AcDbSymbolTableRecord
100
AcDbRegAppTableRecord
  2
AcDbDynamicBlockGUID
 70
     0
  0
APPID
  5
20A85
330
9
100
AcDbSymbolTableRecord
100
AcDbRegAppTableRecord
  2
AcCmTransparency
 70
     0
  0
APPID
  5
20AE2
330
9
100
AcDbSymbolTableRecord
100
AcDbRegAppTableRecord
  2
ACAD_DSTYLE_DIMRADIAL_EXTENSION
 70
     0
  0
APPID
  5
20CB0
330
9
100
AcDbSymbolTableRecord
100
AcDbRegAppTableRecord
  2
AcadAnnotative
 70
     0
  0
APPID
  5
20D40
330
9
100
AcDbSymbolTableRecord
100
AcDbRegAppTableRecord
  2
ACAD_DSTYLE_DIMJAG
 70
     0
  0
APPID
  5
20D41
330
9
100
AcDbSymbolTableRecord
100
AcDbRegAppTableRecord
  2
ACAD_DSTYLE_DIMBREAK
 70
     0
  0
APPID
  5
20D42
330
9
100
AcDbSymbolTableRecord
100
AcDbRegAppTableRecord
  2
ACAD_DSTYLE_DIMTALN
 70
     0
  0
APPID
  5
20D43
330
9
100
AcDbSymbolTableRecord
100
AcDbRegAppTableRecord
  2
ACAD_DSTYLE_DIMJOGGED_JOGANGLE_SYMBOL
 70
     0
  0
APPID
  5
2110E
330
9
100
AcDbSymbolTableRecord
100
AcDbRegAppTableRecord
  2
AcadAnnoMonitorAlertIconDisabled
 70
     0
  0
APPID
  5
21319
330
9
100
AcDbSymbolTableRecord
100
AcDbRegAppTableRecord
  2
ACAD_DSTYLE_DIMFLIPARROW_WHICH_SYMBOL
 70
     0
  0
ENDTAB
  0
TABLE
  2
DIMSTYLE
  5
A
330
0
100
AcDbSymbolTable
 70
     5
100
AcDbDimStyleTable
 71
     1
340
243
  0
DIMSTYLE
105
243
102
{ACAD_REACTORS
330
20FB3
330
20FB4
330
20FB5
330
20FBB
330
21123
330
2118A
330
211B4
102
}
330
A
100
AcDbSymbolTableRecord
100
AcDbDimStyleTableRecord
  2
STANDARD
 70
     0
 41
4.57
 47
0.01
 48
0.01
 73
     0
 74
     0
 77
     1
 78
     8
140
3.5
271
     3
272
     3
284
     8
289
     0
340
11
  0
ENDTAB
  0
TABLE
  2
BLOCK_RECORD
  5
1
330
0
100
AcDbSymbolTable
 70
    38
  0
BLOCK_RECORD
  5
1F
102
{ACAD_XDICTIONARY
360
339C
102
}
330
1
100
AcDbSymbolTableRecord
100
AcDbBlockTableRecord
  2
*MODEL_SPACE
340
31A6
  0
BLOCK_RECORD
  5
1B
330
1
100
AcDbSymbolTableRecord
100
AcDbBlockTableRecord
  2
*PAPER_SPACE
340
31A7
  0
BLOCK_RECORD
  5
1B3D7
102
{ACAD_XDICTIONARY
360
1DE81
102
}
330
1
100
AcDbSymbolTableRecord
100
AcDbBlockTableRecord
  2
cero_point
340
0
310
28000000200000002000000001002000000000000010000001000000010000000000000000000000302821FF302821FF302821FF302821FF302821FF302821FF302821FF302821FF302821FF302821FF302821FF302821FF302821FF302821FF302821FF302821FF302821FF302821FF302821FF302821FF302821FF302821
310
FF302821FF302821FF302821FF302821FF302821FF302821FF302821FF302821FF302821FF302821FF302821FF302821FF302821FF302821FF302821FF302821FF302821FF302821FF302821FF302821FF302821FF302821FF302821FF302821FF302821FFFFFF00FFFFFF00FFFFFF00FF302821FF302821FF302821FF3028
310
21FF302821FF302821FF302821FF302821FF302821FF302821FF302821FF302821FF302821FF302821FF302821FF302821FF302821FF302821FF302821FF302821FF302821FF302821FF302821FF302821FFFFFF00FFFFFF00FFFFFF00FFFFFF00FFFFFF00FFFFFF00FFFFFF00FF302821FFFFFF00FFFFFF00FFFFFF00FF30
310
2821FF302821FF302821FF302821FF302821FF302821FF302821FF302821FF302821FF302821FF302821FF302821FF302821FF302821FF302821FF302821FF302821FF302821FF302821FFFFFF00FFFFFF00FFFFFF00FFFFFF00FFFFFF00FFFFFF00FFFFFF00FFFFFF00FFFFFF00FF302821FF302821FF302821FF302821FF
310
FFFF00FFFFFF00FF302821FF302821FF302821FF302821FF302821FF302821FF302821FF302821FF302821FF302821FF302821FF302821FF302821FF302821FF302821FF302821FFFFFF00FFFFFF00FFFFFF00FFFFFF00FFFFFF00FFFFFF00FFFFFF00FFFFFF00FFFFFF00FFFFFF00FF302821FF302821FF302821FF302821
310
FF302821FF302821FFFFFF00FFFFFF00FF302821FF302821FF302821FF302821FF302821FF302821FF302821FF302821FF302821FF302821FF302821FF302821FF302821FFFFFF00FFFFFF00FFFFFF00FFFFFF00FFFFFF00FFFFFF00FFFFFF00FFFFFF00FFFFFF00FFFFFF00FFFFFF00FF302821FF302821FF302821FF3028
310
21FF302821FF302821FF302821FF302821FFFFFF00FF302821FF302821FF302821FF302821FF302821FF302821FF302821FF302821FF302821FF302821FF302821FFFFFF00FFFFFF00FFFFFF00FFFFFF00FFFFFF00FFFFFF00FFFFFF00FFFFFF00FFFFFF00FFFFFF00FFFFFF00FFFFFF00FF302821FF302821FF302821FF30
310
2821FF302821FF302821FF302821FF302821FF302821FFFFFF00FF302821FF302821FF302821FF302821FF302821FF302821FF302821FF302821FF302821FFFFFF00FFFFFF00FFFFFF00FFFFFF00FFFFFF00FFFFFF00FFFFFF00FFFFFF00FFFFFF00FFFFFF00FFFFFF00FFFFFF00FFFFFF00FF302821FF302821FF302821FF
310
302821FF302821FF302821FF302821FF302821FF302821FF302821FFFFFF00FF302821FF302821FF302821FF302821FF302821FF302821FF302821FFFFFF00FFFFFF00FFFFFF00FFFFFF00FFFFFF00FFFFFF00FFFFFF00FFFFFF00FFFFFF00FFFFFF00FFFFFF00FFFFFF00FFFFFF00FFFFFF00FF302821FF302821FF302821
310
FF302821FF302821FF302821FF302821FF302821FF302821FF302821FFFFFF00FF302821FF302821FF302821FF302821FF302821FF302821FF302821FFFFFF00FFFFFF00FFFFFF00FFFFFF00FFFFFF00FFFFFF00FFFFFF00FFFFFF00FFFFFF00FFFFFF00FFFFFF00FFFFFF00FFFFFF00FFFFFF00FF302821FF302821FF3028
310
21FF302821FF302821FF302821FF302821FF302821FF302821FF302821FF302821FFFFFF00FF302821FF302821FF302821FF302821FF302821FFFFFF00FFFFFF00FFFFFF00FFFFFF00FFFFFF00FFFFFF00FFFFFF00FFFFFF00FFFFFF00FFFFFF00FFFFFF00FFFFFF00FFFFFF00FFFFFF00FFFFFF00FF302821FF302821FF30
310
2821FF302821FF302821FF302821FF302821FF302821FF302821FF302821FF302821FF302821FFFFFF00FF302821FF302821FF302821FF302821FFFFFF00FFFFFF00FFFFFF00FFFFFF00FFFFFF00FFFFFF00FFFFFF00FFFFFF00FFFFFF00FFFFFF00FFFFFF00FFFFFF00FFFFFF00FFFFFF00FFFFFF00FF302821FF302821FF
310
302821FF302821FF302821FF302821FF302821FF302821FF302821FF302821FF302821FF302821FFFFFF00FF302821FF302821FF302821FF302821FFFFFF00FFFFFF00FFFFFF00FFFFFF00FFFFFF00FFFFFF00FFFFFF00FFFFFF00FFFFFF00FFFFFF00FFFFFF00FFFFFF00FFFFFF00FFFFFF00FFFFFF00FF302821FF302821
310
FF302821FF302821FF302821FF302821FF302821FF302821FF302821FF302821FF302821FF302821FFFFFF00FF302821FF302821FF302821FF302821FFFFFF00FFFFFF00FFFFFF00FFFFFF00FFFFFF00FFFFFF00FFFFFF00FFFFFF00FFFFFF00FFFFFF00FFFFFF00FFFFFF00FFFFFF00FFFFFF00FFFFFF00FF302821FF3028
310
21FF302821FF302821FF302821FF302821FF302821FF302821FF302821FF302821FF302821FF302821FFFFFF00FF302821FF302821FF302821FFFFFF00FFFFFF00FFFFFF00FFFFFF00FFFFFF00FFFFFF00FFFFFF00FFFFFF00FFFFFF00FFFFFF00FFFFFF00FFFFFF00FFFFFF00FFFFFF00FFFFFF00FFFFFF00FF302821FF30
310
2821FF302821FF302821FF302821FF302821FF302821FF302821FF302821FF302821FF302821FF302821FF302821FFFFFF00FF302821FF302821FFFFFF00FFFFFF00FFFFFF00FFFFFF00FFFFFF00FFFFFF00FFFFFF00FFFFFF00FFFFFF00FFFFFF00FFFFFF00FFFFFF00FFFFFF00FFFFFF00FFFFFF00FFFFFF00FFFFFF00FF
310
FFFF00FFFFFF00FFFFFF00FFFFFF00FFFFFF00FFFFFF00FFFFFF00FFFFFF00FFFFFF00FFFFFF00FFFFFF00FFFFFF00FFFFFF00FF302821FF302821FFFFFF00FF302821FF302821FF302821FF302821FF302821FF302821FF302821FF302821FF302821FF302821FF302821FF302821FF302821FF302821FFFFFF00FFFFFF00
310
FFFFFF00FFFFFF00FFFFFF00FFFFFF00FFFFFF00FFFFFF00FFFFFF00FFFFFF00FFFFFF00FFFFFF00FFFFFF00FFFFFF00FFFFFF00FF302821FF302821FFFFFF00FF302821FF302821FF302821FF302821FF302821FF302821FF302821FF302821FF302821FF302821FF302821FF302821FF302821FF302821FFFFFF00FFFFFF
310
00FFFFFF00FFFFFF00FFFFFF00FFFFFF00FFFFFF00FFFFFF00FFFFFF00FFFFFF00FFFFFF00FFFFFF00FFFFFF00FFFFFF00FF302821FF302821FF302821FF302821FFFFFF00FF302821FF302821FF302821FF302821FF302821FF302821FF302821FF302821FF302821FF302821FF302821FF302821FF302821FFFFFF00FFFF
310
FF00FFFFFF00FFFFFF00FFFFFF00FFFFFF00FFFFFF00FFFFFF00FFFFFF00FFFFFF00FFFFFF00FFFFFF00FFFFFF00FFFFFF00FF302821FF302821FF302821FF302821FFFFFF00FF302821FF302821FF302821FF302821FF302821FF302821FF302821FF302821FF302821FF302821FF302821FF302821FF302821FFFFFF00FF
310
FFFF00FFFFFF00FFFFFF00FFFFFF00FFFFFF00FFFFFF00FFFFFF00FFFFFF00FFFFFF00FFFFFF00FFFFFF00FFFFFF00FFFFFF00FF302821FF302821FF302821FF302821FFFFFF00FF302821FF302821FF302821FF302821FF302821FF302821FF302821FF302821FF302821FF302821FF302821FF302821FF302821FFFFFF00
310
FFFFFF00FFFFFF00FFFFFF00FFFFFF00FFFFFF00FFFFFF00FFFFFF00FFFFFF00FFFFFF00FFFFFF00FFFFFF00FFFFFF00FFFFFF00FF302821FF302821FF302821FF302821FF302821FFFFFF00FF302821FF302821FF302821FF302821FF302821FF302821FF302821FF302821FF302821FF302821FF302821FF302821FFFFFF
310
00FFFFFF00FFFFFF00FFFFFF00FFFFFF00FFFFFF00FFFFFF00FFFFFF00FFFFFF00FFFFFF00FFFFFF00FFFFFF00FFFFFF00FFFFFF00FF302821FF302821FF302821FF302821FF302821FFFFFF00FF302821FF302821FF302821FF302821FF302821FF302821FF302821FF302821FF302821FF302821FF302821FF302821FFFF
310
FF00FFFFFF00FFFFFF00FFFFFF00FFFFFF00FFFFFF00FFFFFF00FFFFFF00FFFFFF00FFFFFF00FFFFFF00FFFFFF00FFFFFF00FF302821FF302821FF302821FF302821FF302821FF302821FF302821FFFFFF00FF302821FF302821FF302821FF302821FF302821FF302821FF302821FF302821FF302821FF302821FF302821FF
310
FFFF00FFFFFF00FFFFFF00FFFFFF00FFFFFF00FFFFFF00FFFFFF00FFFFFF00FFFFFF00FFFFFF00FFFFFF00FFFFFF00FFFFFF00FF302821FF302821FF302821FF302821FF302821FF302821FF302821FFFFFF00FF302821FF302821FF302821FF302821FF302821FF302821FF302821FF302821FF302821FF302821FF302821
310
FFFFFF00FFFFFF00FFFFFF00FFFFFF00FFFFFF00FFFFFF00FFFFFF00FFFFFF00FFFFFF00FFFFFF00FFFFFF00FFFFFF00FF302821FF302821FF302821FF302821FF302821FF302821FF302821FF302821FF302821FFFFFF00FF302821FF302821FF302821FF302821FF302821FF302821FF302821FF302821FF302821FF3028
310
21FFFFFF00FFFFFF00FFFFFF00FFFFFF00FFFFFF00FFFFFF00FFFFFF00FFFFFF00FFFFFF00FFFFFF00FFFFFF00FF302821FF302821FF302821FF302821FF302821FF302821FF302821FF302821FF302821FF302821FF302821FFFFFF00FF302821FF302821FF302821FF302821FF302821FF302821FF302821FF302821FF30
310
2821FFFFFF00FFFFFF00FFFFFF00FFFFFF00FFFFFF00FFFFFF00FFFFFF00FFFFFF00FFFFFF00FFFFFF00FF302821FF302821FF302821FF302821FF302821FF302821FF302821FF302821FF302821FF302821FF302821FF302821FF302821FFFFFF00FF302821FF302821FF302821FF302821FF302821FF302821FF302821FF
310
302821FFFFFF00FFFFFF00FFFFFF00FFFFFF00FFFFFF00FFFFFF00FFFFFF00FFFFFF00FFFFFF00FF302821FF302821FF302821FF302821FF302821FF302821FF302821FF302821FF302821FF302821FF302821FF302821FF302821FF302821FF302821FFFFFF00FFFFFF00FF302821FF302821FF302821FF302821FF302821
310
FF302821FFFFFF00FFFFFF00FFFFFF00FFFFFF00FFFFFF00FFFFFF00FFFFFF00FFFFFF00FF302821FF302821FF302821FF302821FF302821FF302821FF302821FF302821FF302821FF302821FF302821FF302821FF302821FF302821FF302821FF302821FF302821FF302821FFFFFF00FFFFFF00FFFFFF00FFFFFF00FFFFFF
310
00FF302821FFFFFF00FFFFFF00FFFFFF00FFFFFF00FFFFFF00FFFFFF00FF302821FF302821FF302821FF302821FF302821FF302821FF302821FF302821FF302821FF302821FF302821FF302821FF302821FF302821FF302821FF302821FF302821FF302821FF302821FF302821FF302821FF302821FF302821FF302821FF30
310
2821FFFFFF00FFFFFF00FFFFFF00FF302821FF302821FF302821FF302821FF302821FF302821FF302821FF302821FF302821FF302821FF302821FF302821FF302821FF302821FF302821FF302821FF302821FF302821FF302821FF302821FF302821FF302821FF302821FF302821FF302821FF302821FF302821FF302821FF
310
302821FF302821FF302821FF302821FF302821FF302821FF302821FF302821FF302821FF302821FF302821FF302821FF302821FF302821FF302821FF302821FF302821FF302821FF
102
{BLKREFS
331
20A18
102
}
  0
BLOCK_RECORD
  5
20CA5
102
{ACAD_XDICTIONARY
360
20CA6
102
}
330
1
100
AcDbSymbolTableRecord
100
AcDbBlockTableRecord
  2
Name
340
0
310
28000000200000002000000001002000000000000010000001000000010000000000000000000000302821FF302821FF302821FF302821FF302821FF302821FF302821FF302821FF302821FF302821FF302821FF302821FF302821FF302821FF302821FF302821FF302821FF302821FF302821FF302821FF302821FF302821
310
FF302821FF302821FF302821FF302821FF302821FF302821FF302821FF302821FF302821FF302821FF302821FF302821FF302821FF302821FF302821FF302821FF302821FF302821FF302821FF302821FF302821FF302821FF302821FF302821FF302821FF302821FF302821FF302821FF302821FF302821FF302821FF3028
310
21FF302821FF302821FF302821FF302821FF302821FF302821FF302821FF302821FF302821FF302821FF302821FF302821FF302821FF302821FF302821FF302821FF302821FF302821FF302821FF302821FF302821FF302821FF302821FF302821FF302821FF302821FF302821FF302821FF302821FF302821FF302821FF30
310
2821FF302821FF302821FF302821FF302821FF302821FF302821FF302821FF302821FF302821FF302821FF302821FF302821FF302821FF302821FF302821FF302821FF302821FF302821FF302821FF302821FF302821FF302821FF302821FF302821FF302821FF302821FF302821FF302821FF302821FF302821FF302821FF
310
302821FF302821FF302821FF302821FF302821FF302821FF302821FF302821FF302821FF302821FF302821FF302821FF302821FF302821FF302821FF302821FF302821FF302821FF302821FF302821FF302821FF302821FF302821FF302821FF302821FF302821FF302821FF302821FF302821FF302821FF302821FF302821
310
FF302821FF302821FF302821FF302821FF302821FF302821FF302821FF302821FF302821FF302821FF302821FF302821FF302821FF302821FF302821FF302821FF302821FF302821FF302821FF302821FF302821FF302821FF302821FF302821FF302821FF302821FF302821FF302821FF302821FF302821FF302821FF3028
310
21FF302821FF302821FF302821FF302821FF302821FF302821FF302821FF302821FF302821FF302821FF302821FF302821FF302821FF302821FF302821FF302821FF302821FF302821FF302821FF302821FF302821FF302821FF302821FF302821FF302821FF302821FF302821FF302821FF302821FF302821FF302821FF30
310
2821FF302821FF302821FF302821FF302821FF302821FF302821FF302821FF302821FF302821FF302821FF302821FF302821FF302821FF302821FF302821FF302821FF302821FF302821FF302821FF302821FF302821FF302821FF302821FF302821FF302821FF302821FF302821FF302821FF302821FF302821FF302821FF
310
302821FF302821FF302821FF302821FF302821FF302821FF302821FF302821FF302821FF302821FF302821FF302821FF302821FF302821FF302821FF302821FF302821FF302821FF302821FF302821FF302821FF302821FF302821FF302821FF302821FF302821FF302821FF302821FF302821FF302821FF302821FF302821
310
FF302821FF302821FF302821FF302821FF302821FF302821FF302821FF302821FF302821FF302821FF302821FF302821FF302821FF302821FF302821FF302821FF302821FF302821FF302821FF302821FF302821FF302821FF302821FF302821FF302821FF302821FF302821FF302821FF302821FF302821FF302821FF3028
310
21FF302821FF302821FF302821FF302821FF302821FF302821FF302821FF302821FF302821FF302821FF302821FF302821FF302821FF302821FFFF0000FFFF0000FF302821FF302821FFFF0000FFFF0000FFFF0000FFFF0000FFFF0000FF302821FF302821FF302821FF302821FFFF0000FFFF0000FFFF0000FFFF0000FFFF
310
0000FFFF0000FFFF0000FFFF0000FF302821FFFF0000FFFF0000FFFF0000FFFF0000FFFF0000FFFF0000FF302821FF302821FF302821FF302821FFFF0000FFFF0000FF302821FF302821FFFF0000FFFF0000FFFF0000FFFF0000FFFF0000FF302821FF302821FF302821FF302821FFFF0000FFFF0000FFFF0000FFFF0000FF
310
FF0000FFFF0000FFFF0000FFFF0000FF302821FFFF0000FFFF0000FFFF0000FFFF0000FFFF0000FFFF0000FF302821FF302821FF302821FF302821FFFF0000FFFF0000FF302821FFFF0000FFFF0000FFFF0000FFFF0000FFFF0000FFFF0000FF302821FF302821FF302821FFFF0000FFFF0000FFFF0000FFFF0000FFFF0000
310
FFFF0000FFFF0000FFFF0000FFFF0000FF302821FFFF0000FFFF0000FFFF0000FFFF0000FFFF0000FFFF0000FF302821FF302821FF302821FF302821FFFF0000FFFF0000FF302821FFFF0000FFFF0000FFFF0000FFFF0000FFFF0000FFFF0000FFFF0000FFFF0000FFFF0000FFFF0000FFFF0000FFFF0000FFFF0000FFFF00
310
00FFFF0000FFFF0000FFFF0000FFFF0000FF302821FFFF0000FFFF0000FF302821FF302821FF302821FF302821FF302821FF302821FF302821FF302821FFFF0000FFFF0000FF302821FFFF0000FFFF0000FFFF0000FFFF0000FFFF0000FFFF0000FFFF0000FFFF0000FFFF0000FFFF0000FFFF0000FFFF0000FFFF0000FFFF
310
0000FFFF0000FFFF0000FFFF0000FFFF0000FF302821FFFF0000FFFF0000FF302821FF302821FF302821FF302821FF302821FF302821FF302821FF302821FFFF0000FFFF0000FFFF0000FFFF0000FFFF0000FFFF0000FFFF0000FFFF0000FFFF0000FFFF0000FFFF0000FFFF0000FFFF0000FF302821FFFF0000FFFF0000FF
310
FF0000FF302821FFFF0000FFFF0000FFFF0000FF302821FFFF0000FFFF0000FFFF0000FFFF0000FFFF0000FF302821FF302821FF302821FF302821FF302821FFFF0000FFFF0000FFFF0000FFFF0000FFFF0000FFFF0000FFFF0000FF302821FFFF0000FFFF0000FF302821FFFF0000FFFF0000FF302821FFFF0000FFFF0000
310
FFFF0000FF302821FFFF0000FFFF0000FFFF0000FF302821FFFF0000FFFF0000FFFF0000FFFF0000FFFF0000FF302821FF302821FF302821FF302821FF302821FFFF0000FFFF0000FFFF0000FFFF0000FF302821FFFF0000FFFF0000FF302821FFFF0000FFFF0000FFFF0000FFFF0000FFFF0000FF302821FFFF0000FFFF00
310
00FFFF0000FF302821FFFF0000FFFF0000FFFF0000FF302821FFFF0000FFFF0000FFFF0000FFFF0000FFFF0000FF302821FF302821FF302821FF302821FF302821FFFF0000FFFF0000FFFF0000FFFF0000FF302821FFFF0000FFFF0000FF302821FFFF0000FFFF0000FFFF0000FFFF0000FFFF0000FF302821FFFF0000FFFF
310
0000FFFF0000FF302821FF302821FFFF0000FFFF0000FF302821FFFF0000FFFF0000FF302821FF302821FF302821FF302821FF302821FF302821FF302821FF302821FFFF0000FFFF0000FFFF0000FF302821FF302821FFFF0000FFFF0000FF302821FF302821FFFF0000FFFF0000FFFF0000FF302821FF302821FFFF0000FF
310
FF0000FF302821FF302821FF302821FFFF0000FFFF0000FF302821FFFF0000FFFF0000FFFF0000FFFF0000FFFF0000FF302821FF302821FF302821FF302821FF302821FFFF0000FFFF0000FFFF0000FF302821FF302821FFFF0000FFFF0000FF302821FF302821FFFF0000FFFF0000FFFF0000FF302821FF302821FFFF0000
310
FFFF0000FF302821FF302821FF302821FFFF0000FFFF0000FF302821FFFF0000FFFF0000FFFF0000FFFF0000FFFF0000FF302821FF302821FF302821FF302821FF302821FF302821FF302821FF302821FF302821FF302821FF302821FF302821FF302821FF302821FF302821FF302821FF302821FF302821FF302821FF3028
310
21FF302821FF302821FF302821FF302821FF302821FF302821FF302821FF302821FF302821FF302821FF302821FF302821FF302821FF302821FF302821FF302821FF302821FF302821FF302821FF302821FF302821FF302821FF302821FF302821FF302821FF302821FF302821FF302821FF302821FF302821FF302821FF30
310
2821FF302821FF302821FF302821FF302821FF302821FF302821FF302821FF302821FF302821FF302821FF302821FF302821FF302821FF302821FF302821FF302821FF302821FF302821FF302821FF302821FF302821FF302821FF302821FF302821FF302821FF302821FF302821FF302821FF302821FF302821FF302821FF
310
302821FF302821FF302821FF302821FF302821FF302821FF302821FF302821FF302821FF302821FF302821FF302821FF302821FF302821FF302821FF302821FF302821FF302821FF302821FF302821FF302821FF302821FF302821FF302821FF302821FF302821FF302821FF302821FF302821FF302821FF302821FF302821
310
FF302821FF302821FF302821FF302821FF302821FF302821FF302821FF302821FF302821FF302821FF302821FF302821FF302821FF302821FF302821FF302821FF302821FF302821FF302821FF302821FF302821FF302821FF302821FF302821FF302821FF302821FF302821FF302821FF302821FF302821FF302821FF3028
310
21FF302821FF302821FF302821FF302821FF302821FF302821FF302821FF302821FF302821FF302821FF302821FF302821FF302821FF302821FF302821FF302821FF302821FF302821FF302821FF302821FF302821FF302821FF302821FF302821FF302821FF302821FF302821FF302821FF302821FF302821FF302821FF30
310
2821FF302821FF302821FF302821FF302821FF302821FF302821FF302821FF302821FF302821FF302821FF302821FF302821FF302821FF302821FF302821FF302821FF302821FF302821FF302821FF302821FF302821FF302821FF302821FF302821FF302821FF302821FF302821FF302821FF302821FF302821FF302821FF
310
302821FF302821FF302821FF302821FF302821FF302821FF302821FF302821FF302821FF302821FF302821FF302821FF302821FF302821FF302821FF302821FF302821FF302821FF302821FF302821FF302821FF302821FF302821FF302821FF302821FF302821FF302821FF302821FF302821FF302821FF302821FF302821
310
FF302821FF302821FF302821FF302821FF302821FF302821FF302821FF302821FF302821FF302821FF302821FF302821FF302821FF302821FF302821FF302821FF302821FF302821FF302821FF302821FF302821FF302821FF302821FF302821FF302821FF302821FF302821FF302821FF302821FF302821FF302821FF3028
310
21FF302821FF302821FF302821FF302821FF302821FF302821FF302821FF302821FF302821FF302821FF302821FF302821FF302821FF302821FF302821FF302821FF302821FF302821FF302821FF302821FF302821FF302821FF302821FF302821FF302821FF302821FF302821FF302821FF302821FF302821FF302821FF30
310
2821FF302821FF302821FF302821FF302821FF302821FF302821FF302821FF302821FF302821FF302821FF302821FF302821FF302821FF302821FF302821FF302821FF302821FF302821FF302821FF302821FF302821FF302821FF302821FF302821FF302821FF302821FF302821FF302821FF302821FF302821FF302821FF
310
302821FF302821FF302821FF302821FF302821FF302821FF302821FF302821FF302821FF302821FF302821FF302821FF302821FF302821FF302821FF302821FF302821FF302821FF
102
{BLKREFS
331
20FBE
102
}
1001
AcDbDynamicBlockGUID
1000
{15A9DAFA-FD13-4556-B9B1-5A71F15CF06E}
  0
BLOCK_RECORD
  5
20FC5
330
1
100
AcDbSymbolTableRecord
100
AcDbBlockTableRecord
  2
*D27
340
0
  0
BLOCK_RECORD
  5
20FD1
330
1
100
AcDbSymbolTableRecord
100
AcDbBlockTableRecord
  2
*D28
340
0
  0
BLOCK_RECORD
  5
20FDD
330
1
100
AcDbSymbolTableRecord
100
AcDbBlockTableRecord
  2
*D29
340
0
  0
BLOCK_RECORD
  5
20FF5
330
1
100
AcDbSymbolTableRecord
100
AcDbBlockTableRecord
  2
*D31
340
0
  0
BLOCK_RECORD
  5
21124
330
1
100
AcDbSymbolTableRecord
100
AcDbBlockTableRecord
  2
*D35
340
0
  0
BLOCK_RECORD
  5
2118B
330
1
100
AcDbSymbolTableRecord
100
AcDbBlockTableRecord
  2
*D36
340
0
  0
BLOCK_RECORD
  5
211B5
330
1
100
AcDbSymbolTableRecord
100
AcDbBlockTableRecord
  2
*D37
340
0
  0
ENDTAB
  0
ENDSEC
  0
SECTION
  2
BLOCKS
  0
BLOCK
  5
20
330
1F
100
AcDbEntity
  8
0
100
AcDbBlockBegin
  2
*MODEL_SPACE
 70
     0
 10
0.0
 20
0.0
 30
0.0
  3
*MODEL_SPACE
  1

  0
ENDBLK
  5
21
330
1F
100
AcDbEntity
  8
0
100
AcDbBlockEnd
  0
BLOCK
  5
1C
330
1B
100
AcDbEntity
 67
     1
  8
0
100
AcDbBlockBegin
  2
*PAPER_SPACE
 70
     0
 10
0.0
 20
0.0
 30
0.0
  3
*PAPER_SPACE
  1

  0
ENDBLK
  5
1D
330
1B
100
AcDbEntity
 67
     1
  8
0
100
AcDbBlockEnd
  0
BLOCK
  5
1B3D8
330
1B3D7
100
AcDbEntity
  8
0
100
AcDbBlockBegin
  2
cero_point
 70
     0
 10
0.0
 20
0.0
 30
0.0
  3
cero_point
  1

  0
HATCH
  5
1B3DA
330
1B3D7
100
AcDbEntity
  8
1
  6
ByBlock
370
    50
100
AcDbHatch
 10
0.0
 20
0.0
 30
0.0
210
0.0
220
0.0
230
1.0
  2
SOLID
 70
     1
 71
     0
 91
        2
 92
        7
 72
     1
 73
     1
 93
        3
 10
-0.0000000000001137
 20
0.0
 42
0.0
 10
-2.950972054112752
 20
0.0
 42
0.4142135623730968
 10
-0.0000000000001137
 20
-2.950972054112583
 42
0.0
 97
        0
 92
        7
 72
     1
 73
     1
 93
        3
 10
-0.0000000000001137
 20
2.950972054112638
 42
0.0
 10
-0.0000000000001137
 20
0.0
 42
0.0
 10
2.950972054112526
 20
0.0
 42
0.4142135623730966
 97
        0
 75
     0
 76
     1
 47
0.1190009775223266
 98
        2
 10
-0.7445530588121301
 20
-0.9212244733764125
 10
1.279464601852737
 20
1.696796923046345
  0
LWPOLYLINE
  5
1B3DB
330
1B3D7
100
AcDbEntity
  8
1
  6
ByBlock
370
    50
100
AcDbPolyline
 90
        3
 70
     1
 43
0.0
 10
-0.0000000000001137
 20
0.0
 10
2.950972054112526
 20
0.0
 42
0.4142135623730966
 10
-0.0000000000001137
 20
2.950972054112638
  0
LINE
  5
1B3DC
330
1B3D7
100
AcDbEntity
  8
1
  6
ByBlock
370
    50
100
AcDbLine
 10
-0.0000000000001137
 20
-2.950972054112583
 30
0.0
 11
-0.0000000000001137
 21
2.950972054112638
 31
0.0
  0
LWPOLYLINE
  5
1B3DD
330
1B3D7
100
AcDbEntity
  8
1
  6
ByBlock
370
    50
100
AcDbPolyline
 90
        3
 70
     1
 43
0.0
 10
-0.0000000000001137
 20
-2.950972054112583
 10
-0.0000000000001137
 20
0.0
 10
-2.950972054112752
 20
0.0
 42
0.4142135623730966
  0
LINE
  5
1B3DE
330
1B3D7
100
AcDbEntity
  8
1
  6
ByBlock
370
    50
100
AcDbLine
 10
2.950972054112638
 20
0.0
 30
0.0
 11
-2.950972054112638
 21
0.0
 31
0.0
  0
CIRCLE
  5
1B3DF
330
1B3D7
100
AcDbEntity
  8
1
  6
ByBlock
370
    50
100
AcDbCircle
 10
-0.0000000000001137
 20
0.0
 30
0.0
 40
2.950972054112601
  0
ENDBLK
  5
1B3D9
330
1B3D7
100
AcDbEntity
  8
0
100
AcDbBlockEnd
  0
BLOCK
  5
20CA7
330
20CA5
100
AcDbEntity
  8
0
100
AcDbBlockBegin
  2
Name
 70
     2
 10
0.0
 20
0.0
 30
0.0
  3
Name
  1

  0
ATTDEF
  5
20CA8
102
{ACAD_XDICTIONARY
360
20CA9
102
}
330
20CA5
100
AcDbEntity
  8
SKVIEW63
100
AcDbText
 10
0.0905073844082551
 20
0.0474757964751689
 30
0.0
 40
3.5
  1
1TW8Q016060T3R00
 41
0.8
  7
BMG_Text
100
AcDbAttributeDefinition
  3
identisch mit Dateiname
  2
NAME
 70
     4
  0
ENDBLK
  5
20CAD
330
20CA5
100
AcDbEntity
  8
0
100
AcDbBlockEnd
  0
BLOCK
  5
20FC6
330
20FC5
100
AcDbEntity
  8
0
100
AcDbBlockBegin
  2
*D27
 70
     1
 10
0.0
 20
0.0
 30
0.0
  3
*D27
  1

  0
LINE
  5
21056
330
20FC5
100
AcDbEntity
  8
SK2
 62
     0
370
    -2
100
AcDbLine
 10
-56.06250000000014
 20
10.0
 30
0.0
 11
-74.2952079854694
 21
10.0
 31
0.0
  0
LINE
  5
21057
330
20FC5
100
AcDbEntity
  8
SK2
 62
     0
370
    -2
100
AcDbLine
 10
-56.06250000000014
 20
-10.0
 30
0.0
 11
-74.2952079854694
 21
-9.999999999999994
 31
0.0
  0
LINE
  5
21058
330
20FC5
100
AcDbEntity
  8
SK2
 62
     0
370
    -2
100
AcDbLine
 10
-74.1152079854694
 20
5.430000000000005
 30
0.0
 11
-74.1152079854694
 21
-5.429999999999993
 31
0.0
  0
SOLID
  5
21059
330
20FC5
100
AcDbEntity
  8
SK2
 62
     0
100
AcDbTrace
 10
-74.87687465213607
 20
5.430000000000005
 30
0.0
 11
-73.35354131880272
 21
5.430000000000005
 31
0.0
 12
-74.1152079854694
 22
10.0
 32
0.0
 13
-74.1152079854694
 23
10.0
 33
0.0
  0
SOLID
  5
2105A
330
20FC5
100
AcDbEntity
  8
SK2
 62
     0
100
AcDbTrace
 10
-74.87687465213607
 20
-5.429999999999993
 30
0.0
 11
-73.35354131880272
 21
-5.429999999999994
 31
0.0
 12
-74.1152079854694
 22
-9.999999999999994
 32
0.0
 13
-74.1152079854694
 23
-9.999999999999994
 33
0.0
  0
MTEXT
  5
2105B
330
20FC5
100
AcDbEntity
  8
SK2
 62
     0
100
AcDbMText
 10
-76.06834923634782
 20
-0.0000000000000059
 30
0.0
 40
3.5
 41
0.0
 71
     5
 72
     1
  1
\A1;%%C20
 11
0.0000000000000001
 21
1.0
 31
0.0
 73
     1
 44
1.0
1001
ACAD
1000
MTEXTBEGIN
1070
    73
1070
     1
1070
    44
1040
1.0
1070
    74
1070
     0
1000
MTEXTEND
  0
POINT
  5
2105C
330
20FC5
100
AcDbEntity
  8
Defpoints
 62
     0
100
AcDbPoint
 10
-56.00000000000014
 20
10.0
 30
0.0
  0
POINT
  5
2105D
330
20FC5
100
AcDbEntity
  8
Defpoints
 62
     0
100
AcDbPoint
 10
-56.00000000000014
 20
-10.0
 30
0.0
  0
POINT
  5
2105E
330
20FC5
100
AcDbEntity
  8
Defpoints
 62
     0
100
AcDbPoint
 10
-74.1152079854694
 20
-9.999999999999994
 30
0.0
  0
ENDBLK
  5
20FC7
330
20FC5
100
AcDbEntity
  8
0
100
AcDbBlockEnd
  0
BLOCK
  5
20FD2
330
20FD1
100
AcDbEntity
  8
0
100
AcDbBlockBegin
  2
*D28
 70
     1
 10
0.0
 20
0.0
 30
0.0
  3
*D28
  1

  0
LINE
  5
211E3
330
20FD1
100
AcDbEntity
  8
SK2
 62
     0
370
    -2
100
AcDbLine
 10
-60.00000000000014
 20
-8.9375
 30
0.0
 11
-60.00000000000014
 21
-37.0762272410177
 31
0.0
  0
LINE
  5
211E4
330
20FD1
100
AcDbEntity
  8
SK2
 62
     0
370
    -2
100
AcDbLine
 10
70.00136534065529
 20
-0.068663137851118
 30
0.0
 11
70.00136534065529
 21
-37.0762272410177
 31
0.0
  0
LINE
  5
211E5
330
20FD1
100
AcDbEntity
  8
SK2
 62
     0
370
    -2
100
AcDbLine
 10
-55.43000000000014
 20
-36.8962272410177
 30
0.0
 11
65.4313653406553
 21
-36.8962272410177
 31
0.0
  0
SOLID
  5
211E6
330
20FD1
100
AcDbEntity
  8
SK2
 62
     0
100
AcDbTrace
 10
-55.43000000000014
 20
-36.13456057435103
 30
0.0
 11
-55.43000000000014
 21
-37.65789390768437
 31
0.0
 12
-60.00000000000014
 22
-36.8962272410177
 32
0.0
 13
-60.00000000000014
 23
-36.8962272410177
 33
0.0
  0
SOLID
  5
211E7
330
20FD1
100
AcDbEntity
  8
SK2
 62
     0
100
AcDbTrace
 10
65.4313653406553
 20
-36.13456057435103
 30
0.0
 11
65.4313653406553
 21
-37.65789390768437
 31
0.0
 12
70.00136534065529
 22
-36.8962272410177
 32
0.0
 13
70.00136534065529
 23
-36.8962272410177
 33
0.0
  0
MTEXT
  5
211E8
330
20FD1
100
AcDbEntity
  8
SK2
 62
     0
100
AcDbMText
 10
5.000682670327581
 20
-34.99473743075768
 30
0.0
 40
3.5
 41
0.0
 71
     5
 72
     1
  1
\A1;130
 73
     1
 44
1.0
1001
ACAD
1000
MTEXTBEGIN
1070
    73
1070
     1
1070
    44
1040
1.0
1070
    74
1070
     0
1000
MTEXTEND
  0
POINT
  5
211E9
330
20FD1
100
AcDbEntity
  8
Defpoints
 62
     0
100
AcDbPoint
 10
-60.00000000000014
 20
-8.875
 30
0.0
  0
POINT
  5
211EA
330
20FD1
100
AcDbEntity
  8
Defpoints
 62
     0
100
AcDbPoint
 10
70.00136534065529
 20
-0.006163137851118
 30
0.0
  0
POINT
  5
211EB
330
20FD1
100
AcDbEntity
  8
Defpoints
 62
     0
100
AcDbPoint
 10
70.00136534065529
 20
-36.8962272410177
 30
0.0
  0
ENDBLK
  5
20FD3
330
20FD1
100
AcDbEntity
  8
0
100
AcDbBlockEnd
  0
BLOCK
  5
20FDE
330
20FDD
100
AcDbEntity
  8
0
100
AcDbBlockBegin
  2
*D29
 70
     1
 10
0.0
 20
0.0
 30
0.0
  3
*D29
  1

  0
LINE
  5
2115D
330
20FDD
100
AcDbEntity
  8
2
 62
     0
370
    -2
100
AcDbLine
 10
10.00000037000461
 20
10.06249983928961
 30
0.0
 11
10.00000037000461
 21
40.28967935499639
 31
0.0
  0
LINE
  5
2115E
330
20FDD
100
AcDbEntity
  8
2
 62
     0
370
    -2
100
AcDbLine
 10
70.00791013120625
 20
8.066339184100058
 30
0.0
 11
70.00791013120625
 21
40.28967935499639
 31
0.0
  0
LINE
  5
2115F
330
20FDD
100
AcDbEntity
  8
2
 62
     0
370
    -2
100
AcDbLine
 10
14.57000037000461
 20
40.10967935499638
 30
0.0
 11
65.43791013120625
 21
40.10967935499638
 31
0.0
  0
SOLID
  5
21160
330
20FDD
100
AcDbEntity
  8
2
 62
     0
100
AcDbTrace
 10
14.57000037000461
 20
40.87134602166305
 30
0.0
 11
14.57000037000461
 21
39.34801268832972
 31
0.0
 12
10.00000037000461
 22
40.10967935499638
 32
0.0
 13
10.00000037000461
 23
40.10967935499638
 33
0.0
  0
SOLID
  5
21161
330
20FDD
100
AcDbEntity
  8
2
 62
     0
100
AcDbTrace
 10
65.43791013120625
 20
40.87134602166305
 30
0.0
 11
65.43791013120625
 21
39.34801268832972
 31
0.0
 12
70.00791013120625
 22
40.10967935499638
 32
0.0
 13
70.00791013120625
 23
40.10967935499638
 33
0.0
  0
MTEXT
  5
21162
330
20FDD
100
AcDbEntity
  8
2
 62
     0
100
AcDbMText
 10
40.00395525060543
 20
42.01116916525641
 30
0.0
 40
3.5
 41
0.0
 71
     5
 72
     1
  1
\A1;60
 73
     1
 44
1.0
1001
ACAD
1000
MTEXTBEGIN
1070
    73
1070
     1
1070
    44
1040
1.0
1070
    74
1070
     0
1000
MTEXTEND
  0
POINT
  5
21163
330
20FDD
100
AcDbEntity
  8
Defpoints
 62
     0
100
AcDbPoint
 10
10.00000037000461
 20
9.999999839289614
 30
0.0
  0
POINT
  5
21164
330
20FDD
100
AcDbEntity
  8
Defpoints
 62
     0
100
AcDbPoint
 10
70.00791013120625
 20
8.003839184100058
 30
0.0
  0
POINT
  5
21165
330
20FDD
100
AcDbEntity
  8
Defpoints
 62
     0
100
AcDbPoint
 10
70.00791013120625
 20
40.10967935499638
 30
0.0
  0
ENDBLK
  5
20FDF
330
20FDD
100
AcDbEntity
  8
0
100
AcDbBlockEnd
  0
BLOCK
  5
20FF6
330
20FF5
100
AcDbEntity
  8
0
100
AcDbBlockBegin
  2
*D31
 70
     1
 10
0.0
 20
0.0
 30
0.0
  3
*D31
  1

  0
LINE
  5
21181
330
20FF5
100
AcDbEntity
  8
2
 62
     0
370
    -2
100
AcDbLine
 10
35.03998865010738
 20
9.457828106170438
 30
0.0
 11
35.03998865010738
 21
21.35248534979183
 31
0.0
  0
LINE
  5
21182
330
20FF5
100
AcDbEntity
  8
2
 62
     0
370
    -2
100
AcDbLine
 10
70.00791013120625
 20
8.066339184100058
 30
0.0
 11
70.00791013120625
 21
21.35248534979183
 31
0.0
  0
LINE
  5
21183
330
20FF5
100
AcDbEntity
  8
2
 62
     0
370
    -2
100
AcDbLine
 10
39.60998865010738
 20
21.17248534979183
 30
0.0
 11
65.43791013120625
 21
21.17248534979183
 31
0.0
  0
SOLID
  5
21184
330
20FF5
100
AcDbEntity
  8
2
 62
     0
100
AcDbTrace
 10
39.60998865010738
 20
21.9341520164585
 30
0.0
 11
39.60998865010738
 21
20.41081868312516
 31
0.0
 12
35.03998865010738
 22
21.17248534979183
 32
0.0
 13
35.03998865010738
 23
21.17248534979183
 33
0.0
  0
SOLID
  5
21185
330
20FF5
100
AcDbEntity
  8
2
 62
     0
100
AcDbTrace
 10
65.43791013120625
 20
21.9341520164585
 30
0.0
 11
65.43791013120625
 21
20.41081868312516
 31
0.0
 12
70.00791013120625
 22
21.17248534979183
 32
0.0
 13
70.00791013120625
 23
21.17248534979183
 33
0.0
  0
MTEXT
  5
21186
330
20FF5
100
AcDbEntity
  8
2
 62
     0
100
AcDbMText
 10
52.52394939065681
 20
23.07397516005184
 30
0.0
 40
3.5
 41
0.0
 71
     5
 72
     1
  1
\A1;35
 73
     1
 44
1.0
1001
ACAD
1000
MTEXTBEGIN
1070
    73
1070
     1
1070
    44
1040
1.0
1070
    74
1070
     0
1000
MTEXTEND
  0
POINT
  5
21187
330
20FF5
100
AcDbEntity
  8
Defpoints
 62
     0
100
AcDbPoint
 10
35.03998865010738
 20
9.395328106170438
 30
0.0
  0
POINT
  5
21188
330
20FF5
100
AcDbEntity
  8
Defpoints
 62
     0
100
AcDbPoint
 10
70.00791013120625
 20
8.003839184100058
 30
0.0
  0
POINT
  5
21189
330
20FF5
100
AcDbEntity
  8
Defpoints
 62
     0
100
AcDbPoint
 10
70.00791013120625
 20
21.17248534979183
 30
0.0
  0
ENDBLK
  5
20FF7
330
20FF5
100
AcDbEntity
  8
0
100
AcDbBlockEnd
  0
BLOCK
  5
21125
330
21124
100
AcDbEntity
  8
0
100
AcDbBlockBegin
  2
*D35
 70
     1
 10
0.0
 20
0.0
 30
0.0
  3
*D35
  1

  0
LINE
  5
21257
330
21124
100
AcDbEntity
  8
2
 62
     0
370
    -2
100
AcDbLine
 10
62.04152892723368
 20
-8.002334398091306
 30
0.0
 11
96.71713938481156
 21
-8.002334398091315
 31
0.0
  0
LINE
  5
21258
330
21124
100
AcDbEntity
  8
2
 62
     0
370
    -2
100
AcDbLine
 10
62.06770505917359
 20
7.993798940191808
 30
0.0
 11
96.71713938481156
 21
7.993798940191799
 31
0.0
  0
LINE
  5
21259
330
21124
100
AcDbEntity
  8
2
 62
     0
370
    -2
100
AcDbLine
 10
96.53713938481155
 20
-3.432334398091315
 30
0.0
 11
96.53713938481155
 21
3.423798940191799
 31
0.0
  0
SOLID
  5
2125A
330
21124
100
AcDbEntity
  8
2
 62
     0
100
AcDbTrace
 10
95.77547271814488
 20
-3.432334398091315
 30
0.0
 11
97.29880605147823
 21
-3.432334398091315
 31
0.0
 12
96.53713938481155
 22
-8.002334398091315
 32
0.0
 13
96.53713938481155
 23
-8.002334398091315
 33
0.0
  0
SOLID
  5
2125B
330
21124
100
AcDbEntity
  8
2
 62
     0
100
AcDbTrace
 10
95.77547271814488
 20
3.423798940191799
 30
0.0
 11
97.29880605147823
 21
3.423798940191799
 31
0.0
 12
96.53713938481155
 22
7.993798940191799
 32
0.0
 13
96.53713938481155
 23
7.993798940191799
 33
0.0
  0
MTEXT
  5
2125C
330
21124
100
AcDbEntity
  8
2
 62
     0
100
AcDbMText
 10
94.58399813393311
 20
-0.0042677289497423
 30
0.0
 40
3.5
 41
0.0
 71
     5
 72
     1
  1
\A1;%%C16
 11
0.0000000000000001
 21
1.0
 31
0.0
 73
     1
 44
1.0
1001
ACAD
1000
MTEXTBEGIN
1070
    73
1070
     1
1070
    44
1040
1.0
1070
    74
1070
     0
1000
MTEXTEND
  0
POINT
  5
2125D
330
21124
100
AcDbEntity
  8
Defpoints
 62
     0
100
AcDbPoint
 10
61.97902892723369
 20
-8.002334398091306
 30
0.0
  0
POINT
  5
2125E
330
21124
100
AcDbEntity
  8
Defpoints
 62
     0
100
AcDbPoint
 10
62.00520505917359
 20
7.993798940191808
 30
0.0
  0
POINT
  5
2125F
330
21124
100
AcDbEntity
  8
Defpoints
 62
     0
100
AcDbPoint
 10
96.53713938481155
 20
7.993798940191799
 30
0.0
  0
ENDBLK
  5
21126
330
21124
100
AcDbEntity
  8
0
100
AcDbBlockEnd
  0
BLOCK
  5
2118C
330
2118B
100
AcDbEntity
  8
0
100
AcDbBlockBegin
  2
*D36
 70
     1
 10
0.0
 20
0.0
 30
0.0
  3
*D36
  1

  0
LINE
  5
2124E
330
2118B
100
AcDbEntity
  8
2
 62
     0
370
    -2
100
AcDbLine
 10
23.55248999999989
 20
8.062439000000011
 30
0.0
 11
23.55248999999989
 21
31.07416384804463
 31
0.0
  0
LINE
  5
2124F
330
2118B
100
AcDbEntity
  8
2
 62
     0
370
    -2
100
AcDbLine
 10
70.00136505917351
 20
8.056298940191808
 30
0.0
 11
70.00136505917351
 21
31.07416384804463
 31
0.0
  0
LINE
  5
21250
330
2118B
100
AcDbEntity
  8
2
 62
     0
370
    -2
100
AcDbLine
 10
28.12248999999989
 20
30.89416384804463
 30
0.0
 11
65.43136505917352
 21
30.89416384804463
 31
0.0
  0
SOLID
  5
21251
330
2118B
100
AcDbEntity
  8
2
 62
     0
100
AcDbTrace
 10
28.12248999999989
 20
31.65583051471129
 30
0.0
 11
28.12248999999989
 21
30.13249718137796
 31
0.0
 12
23.55248999999989
 22
30.89416384804463
 32
0.0
 13
23.55248999999989
 23
30.89416384804463
 33
0.0
  0
SOLID
  5
21252
330
2118B
100
AcDbEntity
  8
2
 62
     0
100
AcDbTrace
 10
65.43136505917352
 20
31.65583051471129
 30
0.0
 11
65.43136505917352
 21
30.13249718137796
 31
0.0
 12
70.00136505917351
 22
30.89416384804463
 32
0.0
 13
70.00136505917351
 23
30.89416384804463
 33
0.0
  0
MTEXT
  5
21253
330
2118B
100
AcDbEntity
  8
2
 62
     0
100
AcDbMText
 10
46.7769275295867
 20
32.79565365830464
 30
0.0
 40
3.5
 41
0.0
 71
     5
 72
     1
  1
\A1;46
 73
     1
 44
1.0
1001
ACAD
1000
MTEXTBEGIN
1070
    73
1070
     1
1070
    44
1040
1.0
1070
    74
1070
     0
1000
MTEXTEND
  0
POINT
  5
21254
330
2118B
100
AcDbEntity
  8
Defpoints
 62
     0
100
AcDbPoint
 10
23.55248999999989
 20
7.999939000000011
 30
0.0
  0
POINT
  5
21255
330
2118B
100
AcDbEntity
  8
Defpoints
 62
     0
100
AcDbPoint
 10
70.00136505917351
 20
7.993798940191808
 30
0.0
  0
POINT
  5
21256
330
2118B
100
AcDbEntity
  8
Defpoints
 62
     0
100
AcDbPoint
 10
70.00136505917351
 20
30.89416384804463
 30
0.0
  0
ENDBLK
  5
2118D
330
2118B
100
AcDbEntity
  8
0
100
AcDbBlockEnd
  0
BLOCK
  5
211B6
330
211B5
100
AcDbEntity
  8
0
100
AcDbBlockBegin
  2
*D37
 70
     1
 10
0.0
 20
0.0
 30
0.0
  3
*D37
  1

  0
LINE
  5
2131A
330
211B5
100
AcDbEntity
  8
2
 62
     0
370
    -2
100
AcDbLine
 10
58.1894410147263
 20
9.663525686773709
 30
0.0
 11
58.1894410147263
 21
13.81921248004544
 31
0.0
  0
LINE
  5
2131B
330
211B5
100
AcDbEntity
  8
2
 62
     0
370
    -2
100
AcDbLine
 10
70.00791013120625
 20
8.066339184100058
 30
0.0
 11
70.00791013120625
 21
13.81921248004544
 31
0.0
  0
LINE
  5
2131C
330
211B5
100
AcDbEntity
  8
2
 62
     0
370
    -2
100
AcDbLine
 10
62.7594410147263
 20
13.63921248004544
 30
0.0
 11
65.43791013120625
 21
13.63921248004544
 31
0.0
  0
SOLID
  5
2131D
330
211B5
100
AcDbEntity
  8
2
 62
     0
100
AcDbTrace
 10
53.6194410147263
 20
14.40087914671211
 30
0.0
 11
53.6194410147263
 21
12.87754581337878
 31
0.0
 12
58.1894410147263
 22
13.63921248004544
 32
0.0
 13
58.1894410147263
 23
13.63921248004544
 33
0.0
  0
LINE
  5
2131E
330
211B5
100
AcDbEntity
  8
2
 62
     0
370
    -2
100
AcDbLine
 10
53.6194410147263
 20
13.63921248004544
 30
0.0
 11
49.04944101472629
 21
13.63921248004544
 31
0.0
  0
LINE
  5
2131F
330
211B5
100
AcDbEntity
  8
2
 62
     0
370
    -2
100
AcDbLine
 10
58.1894410147263
 20
13.63921248004544
 30
0.0
 11
62.7594410147263
 21
13.63921248004544
 31
0.0
  0
SOLID
  5
21320
330
211B5
100
AcDbEntity
  8
2
 62
     0
100
AcDbTrace
 10
74.57791013120623
 20
14.40087914671211
 30
0.0
 11
74.57791013120623
 21
12.87754581337878
 31
0.0
 12
70.00791013120625
 22
13.63921248004544
 32
0.0
 13
70.00791013120625
 23
13.63921248004544
 33
0.0
  0
LINE
  5
21321
330
211B5
100
AcDbEntity
  8
2
 62
     0
370
    -2
100
AcDbLine
 10
74.57791013120623
 20
13.63921248004544
 30
0.0
 11
79.14791013120623
 21
13.63921248004544
 31
0.0
  0
LINE
  5
21322
330
211B5
100
AcDbEntity
  8
2
 62
     0
370
    -2
100
AcDbLine
 10
70.00791013120625
 20
13.63921248004544
 30
0.0
 11
65.43791013120625
 21
13.63921248004544
 31
0.0
  0
MTEXT
  5
21323
330
211B5
100
AcDbEntity
  8
2
 62
     0
100
AcDbMText
 10
64.09867557296627
 20
15.54070229030546
 30
0.0
 40
3.5
 41
0.0
 71
     5
 72
     1
  1
\A1;11.8
 73
     1
 44
1.0
  0
POINT
  5
21324
330
211B5
100
AcDbEntity
  8
Defpoints
 62
     0
100
AcDbPoint
 10
58.1894410147263
 20
9.601025686773709
 30
0.0
  0
POINT
  5
21325
330
211B5
100
AcDbEntity
  8
Defpoints
 62
     0
100
AcDbPoint
 10
70.00791013120625
 20
8.003839184100058
 30
0.0
  0
POINT
  5
21326
330
211B5
100
AcDbEntity
  8
Defpoints
 62
     0
100
AcDbPoint
 10
70.00791013120625
 20
13.63921248004544
 30
0.0
  0
ENDBLK
  5
211B7
330
211B5
100
AcDbEntity
  8
0
100
AcDbBlockEnd
  0
ENDSEC
  0
SECTION
  2
ENTITIES
  0
INSERT
  5
20A18
330
1F
100
AcDbEntity
  8
2
100
AcDbBlockReference
  2
cero_point
 10
0.0
 20
0.0
 30
0.0
  0
LINE
  5
20E88
330
1F
100
AcDbEntity
  8
INFTOTAL
100
AcDbLine
 10
-96.28550281759363
 20
53.31183068252409
 30
0.0
 11
-46.28550281759359
 21
53.31183068252406
 31
0.0
  0
LINE
  5
20E89
330
1F
100
AcDbEntity
  8
INFTOTAL
100
AcDbLine
 10
111.6950853208309
 20
-24.29525002207051
 30
0.0
 11
111.6950853208309
 21
-74.29525002207049
 31
0.0
  0
LINE
  5
20E8A
330
1F
100
AcDbEntity
  8
INFTOTAL
100
AcDbLine
 10
111.6950853208309
 20
-74.29525002207049
 30
0.0
 11
61.69508532083103
 21
-74.29525002207049
 31
0.0
  0
LINE
  5
20E8B
330
1F
100
AcDbEntity
  8
INFTOTAL
100
AcDbLine
 10
-96.28550281759363
 20
3.311830682524117
 30
0.0
 11
-96.28550281759363
 21
53.31183068252409
 31
0.0
  0
LINE
  5
20E8C
330
1F
100
AcDbEntity
  8
SK4
100
AcDbLine
 10
-65.46458500000014
 20
0.0
 30
0.0
 11
-0.0000000000001137
 21
0.0
 31
0.0
  0
LINE
  5
20E8F
330
1F
100
AcDbEntity
  8
NOCUT
100
AcDbLine
 10
-0.0000000000001137
 20
0.0
 30
0.0
 11
69.49999999999988
 21
0.0
 31
0.0
  0
LINE
  5
20E90
330
1F
100
AcDbEntity
  8
NOCUT
100
AcDbLine
 10
-0.0000000000001137
 20
10.0
 30
0.0
 11
-0.0000000000001137
 21
0.0
 31
0.0
  0
LINE
  5
20E91
330
1F
100
AcDbEntity
  8
3
100
AcDbLine
 10
55.77948199999991
 20
0.3168589999999938
 30
0.0
 11
55.76628699999986
 21
0.3212039999999945
 31
0.0
  0
SPLINE
  5
20E92
330
1F
100
AcDbEntity
  8
3
100
AcDbSpline
210
0.0
220
0.0
230
1.0
 70
     8
 71
     5
 72
    18
 73
    12
 74
     0
 42
0.000000001
 43
0.0000000001
 40
0.0
 40
0.0
 40
0.0
 40
0.0
 40
0.0
 40
0.0
 40
0.7489988559563744
 40
0.7489988559563744
 40
0.7489988559563744
 40
1.946865871619938
 40
1.946865871619938
 40
1.946865871619938
 40
2.343436709510845
 40
2.343436709510845
 40
2.343436709510845
 40
2.343436709510845
 40
2.343436709510845
 40
2.343436709510845
 10
55.76628681979878
 20
0.3212037712364548
 30
0.0
 10
55.73573859977194
 20
0.3284672601513137
 30
0.0
 10
55.70611582030835
 20
0.3190899733506427
 30
0.0
 10
55.67812210589472
 20
0.2919954732801244
 30
0.0
 10
55.61049838630328
 20
0.1816978616947438
 30
0.0
 10
55.55755331144599
 20
-0.0111693308930256
 30
0.0
 10
55.53057620496275
 20
-0.150362848619892
 30
0.0
 10
55.50222968305689
 20
-0.3460788073921179
 30
0.0
 10
55.48434279573632
 20
-0.5450045177959737
 30
0.0
 10
55.4805616345726
 20
-0.5943860439897577
 30
0.0
 10
55.47748575047996
 20
-0.6432986676461639
 30
0.0
 10
55.47516533882077
 20
-0.6913178487760377
 30
0.0
  0
SPLINE
  5
20E93
330
1F
100
AcDbEntity
  8
3
100
AcDbSpline
210
0.0
220
0.0
230
1.0
 70
     8
 71
     5
 72
    15
 73
     9
 74
     0
 42
0.000000001
 43
0.0000000001
 40
0.0
 40
0.0
 40
0.0
 40
0.0
 40
0.0
 40
0.0
 40
0.4946766820869152
 40
0.4946766820869152
 40
0.4946766820869152
 40
1.142690864328235
 40
1.142690864328235
 40
1.142690864328235
 40
1.142690864328235
 40
1.142690864328235
 40
1.142690864328235
 10
55.51841321858763
 20
-1.16046211295297
 30
0.0
 10
55.50745579115352
 20
-1.153526075502398
 30
0.0
 10
55.49784806072159
 20
-1.137162859783813
 30
0.0
 10
55.48990879522142
 20
-1.1111711338649
 30
0.0
 10
55.47556164918285
 20
-1.032164534427849
 30
0.0
 10
55.47006529775018
 20
-0.9185363050216466
 30
0.0
 10
55.46959917250018
 20
-0.8458623531547289
 30
0.0
 10
55.47137368416509
 20
-0.7697833016501079
 30
0.0
 10
55.47516533882077
 20
-0.6913178487760377
 30
0.0
  0
SPLINE
  5
20E94
330
1F
100
AcDbEntity
  8
3
100
AcDbSpline
210
0.0
220
0.0
230
1.0
 70
     8
 71
     5
 72
    18
 73
    12
 74
     0
 42
0.000000001
 43
0.0000000001
 40
0.0
 40
0.0
 40
0.0
 40
0.0
 40
0.0
 40
0.0
 40
0.4557662227740675
 40
0.4557662227740675
 40
0.4557662227740675
 40
0.9013619400171956
 40
0.9013619400171956
 40
0.9013619400171956
 40
1.121317476213961
 40
1.121317476213961
 40
1.121317476213961
 40
1.121317476213961
 40
1.121317476213961
 40
1.121317476213961
 10
55.90992590715519
 20
-0.2264460725473754
 30
0.0
 10
55.94442748982777
 20
-0.1918313422762878
 30
0.0
 10
55.97451256758711
 20
-0.1538758578030581
 30
0.0
 10
55.99847381822695
 20
-0.1122646484594156
 30
0.0
 10
56.02651082986631
 20
-0.0257070097702865
 30
0.0
 10
56.01351498953119
 20
0.0618314905388502
 30
0.0
 10
55.99635889601706
 20
0.1023437435780323
 30
0.0
 10
55.96021180459121
 20
0.1569880118749154
 30
0.0
 10
55.91232436420404
 20
0.2034452112789609
 30
0.0
 10
55.89540728280145
 20
0.2179456762807348
 30
0.0
 10
55.87769326033435
 20
0.2315498511694614
 30
0.0
 10
55.85924330236207
 20
0.2443599792855338
 30
0.0
  0
ARC
  5
20E95
330
1F
100
AcDbEntity
  8
3
100
AcDbCircle
 10
55.67993399999989
 20
0.1297029999999921
 30
0.0
 40
0.212393
100
AcDbArc
 50
32.59608400000062
 51
61.99162700000041
  0
LINE
  5
20E96
330
1F
100
AcDbEntity
  8
3
100
AcDbLine
 10
55.51841299999989
 20
-1.160462000000009
 30
0.0
 11
55.52470499999992
 21
-1.163166000000003
 31
0.0
  0
SPLINE
  5
20E97
330
1F
100
AcDbEntity
  8
3
100
AcDbSpline
210
0.0
220
0.0
230
1.0
 70
     8
 71
     5
 72
    15
 73
     9
 74
     0
 42
0.000000001
 43
0.0000000001
 40
0.0
 40
0.0
 40
0.0
 40
0.0
 40
0.0
 40
0.0
 40
0.5104152431108707
 40
0.5104152431108707
 40
0.5104152431108707
 40
0.9917806369268539
 40
0.9917806369268539
 40
0.9917806369268539
 40
0.9917806369268539
 40
0.9917806369268539
 40
0.9917806369268539
 10
55.52470535725802
 20
-1.163165670495459
 30
0.0
 10
55.5366126555258
 20
-1.165995727138223
 30
0.0
 10
55.54985497800328
 20
-1.158920444715747
 30
0.0
 10
55.56411132638453
 20
-1.142490867311678
 30
0.0
 10
55.59303666114977
 20
-1.096231731848064
 30
0.0
 10
55.62381258035919
 20
-1.02738376595542
 30
0.0
 10
55.63913949858061
 20
-0.9896258916894424
 30
0.0
 10
55.65461845774092
 20
-0.9489297260283535
 30
0.0
 10
55.67032216388202
 20
-0.9057835789305528
 30
0.0
  0
SPLINE
  5
20E98
330
1F
100
AcDbEntity
  8
3
100
AcDbSpline
210
0.0
220
0.0
230
1.0
 70
     8
 71
     5
 72
    15
 73
     9
 74
     0
 42
0.000000001
 43
0.0000000001
 40
0.0
 40
0.0
 40
0.0
 40
0.0
 40
0.0
 40
0.0
 40
1.072928900780854
 40
1.072928900780854
 40
1.072928900780854
 40
1.352248684618374
 40
1.352248684618374
 40
1.352248684618374
 40
1.352248684618374
 40
1.352248684618374
 40
1.352248684618374
 10
55.67032216388202
 20
-0.9057835789305528
 30
0.0
 10
55.70532459734471
 20
-0.8096139149429006
 30
0.0
 10
55.74144355939075
 20
-0.7012744964967937
 30
0.0
 10
55.77665158829905
 20
-0.5941643103196839
 30
0.0
 10
55.82488004660678
 20
-0.4512974593701387
 30
0.0
 10
55.87729225500044
 20
-0.3101824730573099
 30
0.0
 10
55.88720559747248
 20
-0.2840513665156408
 30
0.0
 10
55.89858326019253
 20
-0.2548202921481817
 30
0.0
 10
55.90992187699618
 20
-0.2264489574613009
 30
0.0
  0
ARC
  5
20E99
330
1F
100
AcDbEntity
  8
3
100
AcDbCircle
 10
55.64177399999988
 20
-0.101419000000007
 30
0.0
 40
0.295322
100
AcDbArc
 50
310.9999060000009
 51
335.0016160000011
  0
LINE
  5
20E9A
330
1F
100
AcDbEntity
  8
3
100
AcDbLine
 10
55.83519299999989
 20
-0.3239220000000103
 30
0.0
 11
55.8130809999999
 21
-0.3361760000000089
 31
0.0
  0
SPLINE
  5
20E9B
330
1F
100
AcDbEntity
  8
3
100
AcDbSpline
210
0.0
220
0.0
230
1.0
 70
     8
 71
     5
 72
    18
 73
    12
 74
     0
 42
0.000000001
 43
0.0000000001
 40
0.0
 40
0.0
 40
0.0
 40
0.0
 40
0.0
 40
0.0
 40
0.8068832440491295
 40
0.8068832440491295
 40
0.8068832440491295
 40
2.081874911370781
 40
2.081874911370781
 40
2.081874911370781
 40
2.512010272589943
 40
2.512010272589943
 40
2.512010272589943
 40
2.512010272589943
 40
2.512010272589943
 40
2.512010272589943
 10
55.81308122136102
 20
-0.3361759037253051
 30
0.0
 10
55.78586309167121
 20
-0.3464011303902623
 30
0.0
 10
55.75785786227408
 20
-0.3418405743331192
 30
0.0
 10
55.73017498946348
 20
-0.3196088348811656
 30
0.0
 10
55.66101706082946
 20
-0.2222314736541762
 30
0.0
 10
55.60049523641993
 20
-0.0376464133444614
 30
0.0
 10
55.56783030117912
 20
0.0991744723483237
 30
0.0
 10
55.53127045744634
 20
0.2997271303770219
 30
0.0
 10
55.50624294003824
 20
0.5100062967991477
 30
0.0
 10
55.50071832484945
 20
0.5633106899904022
 30
0.0
 10
55.49605863650317
 20
0.6163941229749668
 30
0.0
 10
55.49234811913277
 20
0.6686836916730954
 30
0.0
  0
SPLINE
  5
20E9C
330
1F
100
AcDbEntity
  8
3
100
AcDbSpline
210
0.0
220
0.0
230
1.0
 70
     8
 71
     5
 72
    15
 73
     9
 74
     0
 42
0.000000001
 43
0.0000000001
 40
0.0
 40
0.0
 40
0.0
 40
0.0
 40
0.0
 40
0.0
 40
0.8266554703152419
 40
0.8266554703152419
 40
0.8266554703152419
 40
1.127026772802613
 40
1.127026772802613
 40
1.127026772802613
 40
1.127026772802613
 40
1.127026772802613
 40
1.127026772802613
 10
55.49234811913277
 20
0.6686836916730954
 30
0.0
 10
55.48521706282236
 20
0.7691763781665202
 30
0.0
 10
55.48159163996451
 20
0.8667348862071975
 30
0.0
 10
55.4821016175606
 20
0.9597310800946843
 30
0.0
 10
55.48988004707206
 20
1.061567659056279
 30
0.0
 10
55.50600973500064
 20
1.122883923261866
 30
0.0
 10
55.51091935125857
 20
1.136208008989072
 30
0.0
 10
55.51627899925563
 20
1.146144793235421
 30
0.0
 10
55.52206631863493
 20
1.1528938348291
 30
0.0
  0
SPLINE
  5
20E9D
330
1F
100
AcDbEntity
  8
3
100
AcDbSpline
210
0.0
220
0.0
230
1.0
 70
     8
 71
     5
 72
    15
 73
     9
 74
     0
 42
0.000000001
 43
0.0000000001
 40
0.0
 40
0.0
 40
0.0
 40
0.0
 40
0.0
 40
0.0
 40
1.15191392635801
 40
1.15191392635801
 40
1.15191392635801
 40
1.631709321601128
 40
1.631709321601128
 40
1.631709321601128
 40
1.631709321601128
 40
1.631709321601128
 40
1.631709321601128
 10
55.85924428864576
 20
0.2443592268086405
 30
0.0
 10
55.826101923274
 20
0.3444730582136515
 30
0.0
 10
55.79245897822506
 20
0.459305749172188
 30
0.0
 10
55.76022964113076
 20
0.5803801543626293
 30
0.0
 10
55.71613409077588
 20
0.7446204618361208
 30
0.0
 10
55.67256983990972
 20
0.8906617938496026
 30
0.0
 10
55.65975630714729
 20
0.9316286756936165
 30
0.0
 10
55.64700885113603
 20
0.9698314299769776
 30
0.0
 10
55.63433429545558
 20
1.004651430953003
 30
0.0
  0
SPLINE
  5
20E9E
330
1F
100
AcDbEntity
  8
3
100
AcDbSpline
210
0.0
220
0.0
230
1.0
 70
     8
 71
     5
 72
    15
 73
     9
 74
     0
 42
0.000000001
 43
0.0000000001
 40
0.0
 40
0.0
 40
0.0
 40
0.0
 40
0.0
 40
0.0
 40
0.7180895074660297
 40
0.7180895074660297
 40
0.7180895074660297
 40
0.8213490855014065
 40
0.8213490855014065
 40
0.8213490855014065
 40
0.8213490855014065
 40
0.8213490855014065
 40
0.8213490855014065
 10
55.63433429545558
 20
1.004651430953003
 30
0.0
 10
55.61536482318428
 20
1.056765056049727
 30
0.0
 10
55.59655870201215
 20
1.101300443663632
 30
0.0
 10
55.57790316706036
 20
1.136225361077208
 30
0.0
 10
55.55751598173504
 20
1.160096585500625
 30
0.0
 10
55.5392640617913
 20
1.162164156264807
 30
0.0
 10
55.53700361739936
 20
1.162071322660111
 30
0.0
 10
55.53478470081171
 20
1.161618887200603
 30
0.0
 10
55.53260784963282
 20
1.160801453788764
 30
0.0
  0
LINE
  5
20E9F
330
1F
100
AcDbEntity
  8
3
100
AcDbLine
 10
55.53260799999987
 20
1.160800999999992
 30
0.0
 11
55.52206599999988
 21
1.152893999999989
 31
0.0
  0
LINE
  5
20EA0
330
1F
100
AcDbEntity
  8
3
100
AcDbLine
 10
55.53260799999987
 20
1.160800999999992
 30
0.0
 11
58.09499899999991
 21
2.1233
 31
0.0
  0
LINE
  5
20EA1
330
1F
100
AcDbEntity
  8
3
100
AcDbLine
 10
55.8130809999999
 20
-0.3361760000000089
 30
0.0
 11
58.62245599999988
 21
0.7190959999999933
 31
0.0
  0
LINE
  5
20EA2
330
1F
100
AcDbEntity
  8
3
100
AcDbLine
 10
55.76628699999986
 20
0.3212039999999945
 30
0.0
 11
57.8689149999999
 21
-0.1785840000000149
 31
0.0
  0
LINE
  5
20EA3
330
1F
100
AcDbEntity
  8
3
100
AcDbLine
 10
55.52470499999992
 20
-1.163166000000003
 30
0.0
 11
57.5220349999999
 21
-1.637923999999998
 31
0.0
  0
SPLINE
  5
20EA4
330
1F
100
AcDbEntity
  8
3
100
AcDbSpline
210
0.0
220
0.0
230
1.0
 70
     8
 71
     5
 72
    27
 73
    21
 74
     0
 42
0.000000001
 43
0.0000000001
 40
0.0
 40
0.0
 40
0.0
 40
0.0
 40
0.0
 40
0.0
 40
0.1716513869573719
 40
0.1716513869573719
 40
0.1716513869573719
 40
0.4557881513184336
 40
0.4557881513184336
 40
0.4557881513184336
 40
0.5664790028984255
 40
0.5664790028984255
 40
0.5664790028984255
 40
0.6766256068960035
 40
0.6766256068960035
 40
0.6766256068960035
 40
1.174781615885652
 40
1.174781615885652
 40
1.174781615885652
 40
1.673761209467736
 40
1.673761209467736
 40
1.673761209467736
 40
1.673761209467736
 40
1.673761209467736
 40
1.673761209467736
 10
58.28925147868114
 20
-1.814919686814278
 30
0.0
 10
58.27369328271936
 20
-1.802940216772057
 30
0.0
 10
58.25860344995589
 20
-1.790443189978731
 30
0.0
 10
58.2440489776485
 20
-1.777346939762068
 30
0.0
 10
58.20740550044201
 20
-1.741006417907073
 30
0.0
 10
58.1773848737327
 20
-1.700082578288359
 30
0.0
 10
58.16218011548733
 20
-1.672657424032706
 30
0.0
 10
58.14868136267006
 20
-1.632329760357905
 30
0.0
 10
58.14680891584294
 20
-1.591301978182627
 30
0.0
 10
58.1472236984311
 20
-1.579850194292404
 30
0.0
 10
58.14990638110794
 20
-1.557237065703588
 30
0.0
 10
58.15602250148697
 20
-1.535255196902511
 30
0.0
 10
58.1598775696275
 20
-1.524513301447512
 30
0.0
 10
58.18490714929101
 20
-1.467199244253151
 30
0.0
 10
58.22951939787038
 20
-1.418148331298681
 30
0.0
 10
58.27255269843249
 20
-1.384105264669798
 30
0.0
 10
58.36441772977713
 20
-1.325550808863852
 30
0.0
 10
58.46660010967031
 20
-1.281970219753773
 30
0.0
 10
58.51939628461849
 20
-1.263180298781264
 30
0.0
 10
58.57307767903728
 20
-1.247283302291791
 30
0.0
 10
58.62760610959174
 20
-1.234078839461801
 30
0.0
  0
ARC
  5
20EA5
330
1F
100
AcDbEntity
  8
3
100
AcDbCircle
 10
58.96839899999992
 20
-2.645438999999996
 30
0.0
 40
1.451926
100
AcDbArc
 50
95.47269399999924
 51
103.5750100000003
  0
LINE
  5
20EA6
330
1F
100
AcDbEntity
  8
3
100
AcDbLine
 10
58.83542199999988
 20
-1.199605000000005
 30
0.0
 11
58.82992599999989
 21
-1.200130000000001
 31
0.0
  0
ELLIPSE
  5
20EA7
330
1F
100
AcDbEntity
  8
3
100
AcDbEllipse
 10
57.69547499999987
 20
-0.9082540000000136
 30
0.0
 11
-0.1734400132694858
 21
-0.7296701732954971
 31
0.0
210
0.0
220
0.0
230
1.0
 40
0.327681
 41
5.972314990095304
 42
6.227197150774714
  0
ELLIPSE
  5
20EA8
330
1F
100
AcDbEntity
  8
3
100
AcDbEllipse
 10
57.69547499999987
 20
-0.9082540000000136
 30
0.0
 11
-0.1734400132694858
 21
-0.7296701732954971
 31
0.0
210
0.0
220
0.0
230
1.0
 40
0.327681
 41
3.141592595869833
 42
3.452463474232392
  0
ELLIPSE
  5
20EA9
330
1F
100
AcDbEntity
  8
3
100
AcDbEllipse
 10
57.69547499999987
 20
-0.9082540000000136
 30
0.0
 11
-0.1734400132694858
 21
-0.7296701732954971
 31
0.0
210
0.0
220
0.0
230
1.0
 40
0.327681
 41
3.085604497184923
 42
3.141592595869833
  0
ELLIPSE
  5
20EAA
330
1F
100
AcDbEntity
  8
3
100
AcDbEllipse
 10
57.69547499999987
 20
-0.9082540000000136
 30
0.0
 11
0.1734400132694854
 21
0.7296701732954971
 31
0.0
210
0.0
220
0.0
230
0.9999999999999998
 40
0.327681
 41
3.085604497184923
 42
3.141592595869833
  0
ARC
  5
20EAB
330
1F
100
AcDbEntity
  8
3
100
AcDbCircle
 10
58.30345499999992
 20
-1.052768000000014
 30
0.0
 40
1.0
100
AcDbArc
 50
212.1945880000009
 51
246.9110989999995
  0
ARC
  5
20EAC
330
1F
100
AcDbEntity
  8
3
100
AcDbCircle
 10
58.30345499999992
 20
-1.052768000000014
 30
0.0
 40
1.0
100
AcDbArc
 50
76.62912600000042
 51
121.0636750000005
  0
ARC
  5
20EAD
330
1F
100
AcDbEntity
  8
3
100
AcDbCircle
 10
58.30348199999992
 20
-1.052684000000013
 30
0.0
 40
1.000087999999997
100
AcDbArc
 50
246.9115590000004
 51
256.6287300000001
  0
ELLIPSE
  5
20EAE
330
1F
100
AcDbEntity
  8
3
100
AcDbEllipse
 10
57.69547499999987
 20
-0.9082540000000136
 30
0.0
 11
-0.1734400132694858
 21
-0.7296701732954971
 31
0.0
210
0.0
220
0.0
230
1.0
 40
0.327681
 41
3.452463474232392
 42
5.972314990095304
  0
ELLIPSE
  5
20EAF
330
1F
100
AcDbEntity
  8
3
100
AcDbEllipse
 10
57.69547499999987
 20
-0.9082540000000136
 30
0.0
 11
0.1734400132694854
 21
0.7296701732954971
 31
0.0
210
0.0
220
0.0
230
0.9999999999999998
 40
0.327681
 41
3.141592595869833
 42
6.227197150774712
  0
ARC
  5
20EB0
330
1F
100
AcDbEntity
  8
3
100
AcDbCircle
 10
58.88734599999986
 20
1.619759999999999
 30
0.0
 40
1.0
100
AcDbArc
 50
121.4200539999993
 51
161.3740910000011
  0
ELLIPSE
  5
20EB1
330
1F
100
AcDbEntity
  8
3
100
AcDbEllipse
 10
58.35872799999993
 20
1.421197999999989
 30
0.0
 11
0.2637273725469031
 21
-0.7021024661468635
 31
0.0
210
0.0
220
0.0
230
1.0
 40
0.5207380000000002
 41
3.240908501478024
 42
3.709652238749865
  0
ELLIPSE
  5
20EB2
330
1F
100
AcDbEntity
  8
3
100
AcDbEllipse
 10
58.35872799999993
 20
1.421197999999989
 30
0.0
 11
-0.2637273725469029
 21
0.7021024661468634
 31
0.0
210
0.0
220
0.0
230
0.9999999999999998
 40
0.5207380000000002
 41
0.0000036678742549
 42
0.0993158478882309
  0
ELLIPSE
  5
20EB3
330
1F
100
AcDbEntity
  8
3
100
AcDbEllipse
 10
58.35872799999993
 20
1.421197999999989
 30
0.0
 11
-0.2637273725469029
 21
0.7021024661468634
 31
0.0
210
0.0
220
0.0
230
0.9999999999999998
 40
0.5207380000000002
 41
3.240908501478024
 42
6.283188975053841
  0
ELLIPSE
  5
20EB4
330
1F
100
AcDbEntity
  8
3
100
AcDbEllipse
 10
58.35872799999993
 20
1.421197999999989
 30
0.0
 11
0.2637273725469031
 21
-0.7021024661468635
 31
0.0
210
0.0
220
0.0
230
1.0
 40
0.5207380000000002
 41
3.709652238749865
 42
5.715123309777932
  0
ELLIPSE
  5
20EB5
330
1F
100
AcDbEntity
  8
3
100
AcDbEllipse
 10
58.35872799999993
 20
1.421197999999989
 30
0.0
 11
0.2637273725469031
 21
-0.7021024661468635
 31
0.0
210
0.0
220
0.0
230
1.0
 40
0.5207380000000002
 41
5.715123309777932
 42
6.283188975053837
  0
ELLIPSE
  5
20EB6
330
1F
100
AcDbEntity
  8
3
100
AcDbEllipse
 10
58.35872799999993
 20
1.421197999999989
 30
0.0
 11
0.2637273725469031
 21
-0.7021024661468635
 31
0.0
210
0.0
220
0.0
230
1.0
 40
0.5207380000000002
 41
0.0000036678742533
 42
0.0993158478882298
  0
ARC
  5
20EB7
330
1F
100
AcDbEntity
  8
3
100
AcDbCircle
 10
58.88741699999991
 20
1.619611999999989
 30
0.0
 40
1.000163999999997
100
AcDbArc
 50
110.5883860000008
 51
121.4191029999994
  0
LINE
  5
20EB8
330
1F
100
AcDbEntity
  8
3
100
AcDbLine
 10
58.57367299999987
 20
2.564892999999983
 30
0.0
 11
58.57792699999987
 21
2.562899999999999
 31
0.0
  0
LINE
  5
20EB9
330
1F
100
AcDbEntity
  8
3
100
AcDbLine
 10
58.57792699999987
 20
2.562899999999999
 30
0.0
 11
58.60081899999994
 21
2.561434999999988
 31
0.0
  0
ARC
  5
20EBA
330
1F
100
AcDbEntity
  8
3
100
AcDbCircle
 10
58.58308299999987
 20
2.563590999999988
 30
0.0
 40
0.010025
100
AcDbArc
 50
83.54256400000004
 51
172.1179120000007
  0
LINE
  5
20EBB
330
1F
100
AcDbEntity
  8
3
100
AcDbLine
 10
58.53570699999989
 20
2.555895999999989
 30
0.0
 11
58.58427699999987
 21
2.574139999999999
 31
0.0
  0
LINE
  5
20EBC
330
1F
100
AcDbEntity
  8
3
100
AcDbLine
 10
58.07220099999989
 20
-2.025662000000011
 30
0.0
 11
59.49348499999991
 21
-2.363496000000012
 31
0.0
  0
ELLIPSE
  5
20EBD
330
1F
100
AcDbEntity
  8
3
100
AcDbEllipse
 10
59.63837399999988
 20
-1.370056000000005
 30
0.0
 11
1.847014770368798
 21
-0.504528230956741
 31
0.0
210
0.0
220
0.0
230
1.0
 40
0.521516
 41
4.045565391441443
 42
4.720167112709731
  0
ELLIPSE
  5
20EBE
330
1F
100
AcDbEntity
  8
3
100
AcDbEllipse
 10
58.18697999999989
 20
-1.025083000000009
 30
0.0
 11
3.153907707592191
 21
0.2531757600438834
 31
0.0
210
0.0
220
0.0
230
1.0
 40
0.07285
 41
4.913613833995728
 42
6.504261081966344
  0
LINE
  5
20EBF
330
1F
100
AcDbEntity
  8
3
100
AcDbLine
 10
58.53470799999991
 20
-0.0798750000000013
 30
0.0
 11
61.26008299999989
 21
-0.7276870000000031
 31
0.0
  0
SPLINE
  5
20EC0
330
1F
100
AcDbEntity
  8
3
100
AcDbSpline
210
0.0
220
0.0
230
1.0
 70
     8
 71
     5
 72
    18
 73
    12
 74
     0
 42
0.000000001
 43
0.0000000001
 40
0.0
 40
0.0
 40
0.0
 40
0.0
 40
0.0
 40
0.0
 40
0.3769385855191779
 40
0.3769385855191779
 40
0.3769385855191779
 40
1.150335203735994
 40
1.150335203735994
 40
1.150335203735994
 40
1.265657636136813
 40
1.265657636136813
 40
1.265657636136813
 40
1.265657636136813
 40
1.265657636136813
 40
1.265657636136813
 10
61.05845394887473
 20
-0.7061577540364113
 30
0.0
 10
61.03825853709707
 20
-0.7104533445383652
 30
0.0
 10
61.0245795292139
 20
-0.719797063099108
 30
0.0
 10
61.01878600075576
 20
-0.7353001710710743
 30
0.0
 10
61.01805848543006
 20
-0.797258570792323
 30
0.0
 10
61.05952309707475
 20
-0.8943637257792289
 30
0.0
 10
61.09622600606718
 20
-0.9652697061971338
 30
0.0
 10
61.1493182725527
 20
-1.047945762357642
 30
0.0
 10
61.21342894520541
 20
-1.126235248467295
 30
0.0
 10
61.22193082477742
 20
-1.136308076167509
 30
0.0
 10
61.23059862859737
 20
-1.146264324947097
 30
0.0
 10
61.23943822573664
 20
-1.156104624153059
 30
0.0
  0
ELLIPSE
  5
20EC1
330
1F
100
AcDbEntity
  8
3
100
AcDbEllipse
 10
59.63835899999992
 20
-1.370070000000012
 30
0.0
 11
1.846994820232563
 21
-0.5045304020531986
 31
0.0
210
0.0
220
0.0
230
1.0
 40
0.521512
 41
4.776162468439386
 42
6.963750556326582
  0
ARC
  5
20EC2
330
1F
100
AcDbEntity
  8
3
100
AcDbCircle
 10
61.08885199999986
 20
-0.9019430000000028
 30
0.0
 40
0.198261
100
AcDbArc
 50
81.7503589999989
 51
98.82529900000058
  0
LINE
  5
20EC3
330
1F
100
AcDbEntity
  8
3
100
AcDbLine
 10
61.2155719999999
 20
-0.7187170000000123
 30
0.0
 11
61.11731999999989
 21
-0.7055910000000126
 31
0.0
  0
LINE
  5
20EC4
330
1F
100
AcDbEntity
  8
3
100
AcDbLine
 10
59.2389839999999
 20
0.6836239999999947
 30
0.0
 11
62.32355399999988
 21
1.842266999999992
 31
0.0
  0
ARC
  5
20EC5
330
1F
100
AcDbEntity
  8
3
100
AcDbCircle
 10
58.88734599999986
 20
1.619759999999999
 30
0.0
 40
1.0
100
AcDbArc
 50
239.8007230000005
 51
290.587552999999
  0
SPLINE
  5
20EC6
330
1F
100
AcDbEntity
  8
3
100
AcDbSpline
210
0.0
220
0.0
230
1.0
 70
     8
 71
     5
 72
    21
 73
    15
 74
     0
 42
0.000000001
 43
0.0000000001
 40
0.0
 40
0.0
 40
0.0
 40
0.0
 40
0.0
 40
0.0
 40
0.6368730363009371
 40
0.6368730363009371
 40
0.6368730363009371
 40
1.348587988517307
 40
1.348587988517307
 40
1.348587988517307
 40
2.81171461577175
 40
2.81171461577175
 40
2.81171461577175
 40
3.540600152726411
 40
3.540600152726411
 40
3.540600152726411
 40
3.540600152726411
 40
3.540600152726411
 40
3.540600152726411
 10
58.58427708346647
 20
2.574140327828843
 30
0.0
 10
58.60716508921086
 20
2.582738406682778
 30
0.0
 10
58.65770044965069
 20
2.591992099884834
 30
0.0
 10
58.72392605659388
 20
2.59516392118995
 30
0.0
 10
58.85962659699607
 20
2.594053923072351
 30
0.0
 10
59.0064483171185
 20
2.576797092818566
 30
0.0
 10
59.0848161465002
 20
2.563522790921268
 30
0.0
 10
59.3246614203403
 20
2.511330505791192
 30
0.0
 10
59.56300403316333
 20
2.426885635330492
 30
0.0
 10
59.71758431684873
 20
2.359266026234209
 30
0.0
 10
59.94523034861811
 20
2.250157267114886
 30
0.0
 10
60.16824093354085
 20
2.154160211997606
 30
0.0
 10
60.24223499900148
 20
2.124909411838729
 30
0.0
 10
60.3160588794874
 20
2.099886937465456
 30
0.0
 10
60.38994309640543
 20
2.080205013587701
 30
0.0
  0
ELLIPSE
  5
20EC7
330
1F
100
AcDbEntity
  8
3
100
AcDbEllipse
 10
60.42396799999989
 20
2.19695399999999
 30
0.0
 11
1.913151998204782
 21
-0.34335792015641
 31
0.0
210
0.0
220
0.0
230
1.0
 40
0.064589
 41
6.175062896859206
 42
9.128203277276783
  0
ELLIPSE
  5
20EC8
330
1F
100
AcDbEntity
  8
3
100
AcDbEllipse
 10
60.4239639999999
 20
2.196954999999988
 30
0.0
 11
1.913155342763657
 21
-0.343358718186643
 31
0.0
210
0.0
220
0.0
230
1.0
 40
0.064589
 41
4.76140810507748
 42
6.075779575739008
  0
ARC
  5
20EC9
330
1F
100
AcDbEntity
  8
3
100
AcDbCircle
 10
60.7159989999999
 20
3.295756999999994
 30
0.0
 40
1.258513999999999
100
AcDbArc
 50
254.9846110000007
 51
259.9119210000004
  0
LINE
  5
20ECA
330
1F
100
AcDbEntity
  8
1
100
AcDbLine
 10
60.14991399999985
 20
-7.559285999999985
 30
0.0
 11
59.94263999999986
 21
-7.354151999999999
 31
0.0
  0
LINE
  5
20ECB
330
1F
100
AcDbEntity
  8
1
100
AcDbLine
 10
59.93696399999987
 20
-7.302750000000003
 30
0.0
 11
59.94263999999986
 21
-7.354151999999999
 31
0.0
  0
ARC
  5
20ECC
330
1F
100
AcDbEntity
  8
1
100
AcDbCircle
 10
61.37927899999988
 20
-6.299531000000001
 30
0.0
 40
1.760334
100
AcDbArc
 50
225.6995090000008
 51
238.8391729999987
  0
ARC
  5
20ECD
330
1F
100
AcDbEntity
  8
1
100
AcDbCircle
 10
69.02929499999982
 20
-0.1344119999999975
 30
0.0
 40
0.9655249999999997
100
AcDbArc
 50
359.0749300000006
 51
13.3344709999999
  0
ARC
  5
20ECE
330
1F
100
AcDbEntity
  8
1
100
AcDbCircle
 10
62.29832799999986
 20
-0.0527759999999944
 30
0.0
 40
7.696960999999999
100
AcDbArc
 50
352.0808110000005
 51
359.2762490000006
  0
LINE
  5
20ECF
330
1F
100
AcDbEntity
  8
1
100
AcDbLine
 10
59.94263999999986
 20
-7.354151999999999
 30
0.0
 11
61.4116009999999
 21
-7.362152000000008
 31
0.0
  0
ELLIPSE
  5
20ED0
330
1F
100
AcDbEntity
  8
1
100
AcDbEllipse
 10
61.45147999999983
 20
0.2914680000000089
 30
0.0
 11
0.0000000000000005
 21
7.653728485107422
 31
0.0
210
0.0
220
0.0
230
1.0
 40
0.9781479999999998
 41
3.136265793047273
 42
4.558206811559916
  0
ARC
  5
20ED1
330
1F
100
AcDbEntity
  8
1
100
AcDbCircle
 10
60.69488999999987
 20
-7.295224999999987
 30
0.0
 40
0.5582189999999999
100
AcDbArc
 50
246.0799670000014
 51
266.7743960000012
  0
LINE
  5
20ED2
330
1F
100
AcDbEntity
  8
1
100
AcDbLine
 10
61.8559399999998
 20
-7.858417000000002
 30
0.0
 11
60.66351699999984
 21
-7.851922999999999
 31
0.0
  0
SPLINE
  5
20ED3
330
1F
100
AcDbEntity
  8
1
100
AcDbSpline
210
0.0
220
0.0
230
1.0
 70
     8
 71
     5
 72
    57
 73
    51
 74
     0
 42
0.000000001
 43
0.0000000001
 40
0.0
 40
0.0
 40
0.0
 40
0.0
 40
0.0
 40
0.0
 40
2.915089604090498
 40
2.915089604090498
 40
2.915089604090498
 40
3.401811353275296
 40
3.401811353275296
 40
3.401811353275296
 40
3.888533102460093
 40
3.888533102460093
 40
3.888533102460093
 40
4.375581507994737
 40
4.375581507994737
 40
4.375581507994737
 40
4.862629913529382
 40
4.862629913529382
 40
4.862629913529382
 40
5.836672718856647
 40
5.836672718856647
 40
5.836672718856647
 40
6.810722744596167
 40
6.810722744596167
 40
6.810722744596167
 40
7.78477277033569
 40
7.78477277033569
 40
7.78477277033569
 40
8.760597525300994
 40
8.760597525300994
 40
8.760597525300994
 40
9.736422280266296
 40
9.736422280266296
 40
9.736422280266296
 40
10.71254371702999
 40
10.71254371702999
 40
10.71254371702999
 40
11.68866515379368
 40
11.68866515379368
 40
11.68866515379368
 40
13.6408953780715
 40
13.6408953780715
 40
13.6408953780715
 40
15.5946307752932
 40
15.5946307752932
 40
15.5946307752932
 40
17.55019046885829
 40
17.55019046885829
 40
17.55019046885829
 40
19.45842813294061
 40
19.45842813294061
 40
19.45842813294061
 40
19.45842813294061
 40
19.45842813294061
 40
19.45842813294061
 10
69.92189343044663
 20
-1.113210476038233
 30
0.0
 10
69.87543398919797
 20
-1.44736785326836
 30
0.0
 10
69.81071505474318
 20
-1.779137286222351
 30
0.0
 10
69.72779013213608
 20
-2.107770749508034
 30
0.0
 10
69.61068703597845
 20
-2.484295442864521
 30
0.0
 10
69.4701273172235
 20
-2.852315293691987
 30
0.0
 10
69.44953728848952
 20
-2.904793278700935
 30
0.0
 10
69.40740754727812
 20
-3.009371879370064
 30
0.0
 10
69.36339105378635
 20
-3.113166626281497
 30
0.0
 10
69.34123323043843
 20
-3.164134780624067
 30
0.0
 10
69.29531771777397
 20
-3.267200161940678
 30
0.0
 10
69.24752748461163
 20
-3.369444962765612
 30
0.0
 10
69.22315916738694
 20
-3.42036988972643
 30
0.0
 10
69.17351831731548
 20
-3.521738226360355
 30
0.0
 10
69.12206431064584
 20
-3.622157632014449
 30
0.0
 10
69.09565485637575
 20
-3.672564394626306
 30
0.0
 10
69.01575698532179
 20
-3.821746630045339
 30
0.0
 10
68.93184901662971
 20
-3.968677117170841
 30
0.0
 10
68.87418248092399
 20
-4.065537566076841
 30
0.0
 10
68.75533445117651
 20
-4.257196683310013
 30
0.0
 10
68.6293241885113
 20
-4.444862953643649
 30
0.0
 10
68.56448122901361
 20
-4.537742136130901
 30
0.0
 10
68.43158708649991
 20
-4.720910503561952
 30
0.0
 10
68.29205985060349
 20
-4.899223954148595
 30
0.0
 10
68.22062806154758
 20
-4.987174004461991
 30
0.0
 10
68.07448556776671
 20
-5.160573926025818
 30
0.0
 10
67.9221098316118
 20
-5.328580951207328
 30
0.0
 10
67.84430583610356
 20
-5.411290505560742
 30
0.0
 10
67.68582375531775
 20
-5.573744623487385
 30
0.0
 10
67.52158152019593
 20
-5.73030469813051
 30
0.0
 10
67.43849928732697
 20
-5.806679167996662
 30
0.0
 10
67.26857970241008
 20
-5.957295956378402
 30
0.0
 10
67.09314815712298
 20
-6.101781825646867
 30
0.0
 10
67.00407040090943
 20
-6.172472359535902
 30
0.0
 10
66.82342865275484
 20
-6.310561476420758
 30
0.0
 10
66.63791901479806
 20
-6.442007630682439
 30
0.0
 10
66.54435756898215
 20
-6.505793331772167
 30
0.0
 10
66.25927593058349
 20
-6.692709328706797
 30
0.0
 10
65.9641967025376
 20
-6.864107245086131
 30
0.0
 10
65.76318948166454
 20
-6.97136412464053
 30
0.0
 10
65.35392240825911
 20
-7.171193667422727
 30
0.0
 10
64.9309123862838
 20
-7.341406812401032
 30
0.0
 10
64.71592886712778
 20
-7.419099055929336
 30
0.0
 10
64.28099438456865
 20
-7.558945746551188
 30
0.0
 10
63.83707310935267
 20
-7.667665010699295
 30
0.0
 10
63.61285692127103
 20
-7.714251657744341
 30
0.0
 10
63.16711904840008
 20
-7.790617372860822
 30
0.0
 10
62.71682885284673
 20
-7.836131859281778
 30
0.0
 10
62.49356305709909
 20
-7.851091939190524
 30
0.0
 10
62.26988023944591
 20
-7.858531886279166
 30
0.0
 10
62.04616396775112
 20
-7.858532589025827
 30
0.0
  0
LINE
  5
20ED4
330
1F
100
AcDbEntity
  8
1
100
AcDbLine
 10
69.61744399999986
 20
0.3685279999999977
 30
0.0
 11
69.61829099999988
 21
0.3679490000000101
 31
0.0
  0
ARC
  5
20ED5
330
1F
100
AcDbEntity
  8
1
100
AcDbCircle
 10
67.88909899999987
 20
-2.158578000000005
 30
0.0
 40
3.061611999999998
100
AcDbArc
 50
47.21258100000171
 51
55.61056600000013
  0
ELLIPSE
  5
20ED6
330
1F
100
AcDbEntity
  8
1
100
AcDbEllipse
 10
68.3565759999999
 20
-0.1066659999999899
 30
0.0
 11
1.502141952514648
 21
-0.0332279391586781
 31
0.0
210
0.0
220
0.0
230
1.0
 40
0.5321130000000001
 41
6.270537797175972
 42
6.959792501061976
  0
LINE
  5
20ED7
330
1F
100
AcDbEntity
  8
1
100
AcDbLine
 10
61.8559399999998
 20
-7.858417000000002
 30
0.0
 11
61.89863899999989
 21
-7.858532999999994
 31
0.0
  0
ELLIPSE
  5
20ED8
330
1F
100
AcDbEntity
  8
1
100
AcDbEllipse
 10
61.89840599999991
 20
0.2914680000000089
 30
0.0
 11
0.0000000000000005
 21
8.150000572204588
 31
0.0
210
0.0
220
0.0
230
1.0
 40
0.9781479999999998
 41
3.141621927295831
 42
4.650269105982996
  0
LINE
  5
20ED9
330
1F
100
AcDbEntity
  8
1
100
AcDbLine
 10
69.85493299999984
 20
-0.2144830000000013
 30
0.0
 11
69.85837499999991
 21
-0.1500000000000057
 31
0.0
  0
ELLIPSE
  5
20EDA
330
1F
100
AcDbEntity
  8
1
100
AcDbEllipse
 10
69.52751699999987
 20
-0.1066659999999899
 30
0.0
 11
-0.9065690040588378
 21
0.7238889336586
 31
0.0
210
0.0
220
0.0
230
0.9999999999999998
 40
0.375664
 41
4.908658012028233
 42
5.627011521646329
  0
SPLINE
  5
20EDB
330
1F
100
AcDbEntity
  8
1
100
AcDbSpline
210
0.0
220
0.0
230
1.0
 70
     8
 71
     5
 72
    18
 73
    12
 74
     0
 42
0.000000001
 43
0.0000000001
 40
0.2083196494534153
 40
0.2083196494534153
 40
0.2083196494534153
 40
0.2083196494534153
 40
0.2083196494534153
 40
0.2083196494534153
 40
0.5293669009033142
 40
0.5293669009033142
 40
0.5293669009033142
 40
0.8002063177064977
 40
0.8002063177064977
 40
0.8002063177064977
 40
1.336402320002074
 40
1.336402320002074
 40
1.336402320002074
 40
1.336402320002074
 40
1.336402320002074
 40
1.336402320002074
 10
69.01382060012491
 20
0.6019664192346284
 30
0.0
 10
69.00971473471315
 20
0.5552817828437071
 30
0.0
 10
69.00560582775824
 20
0.5081846000632595
 30
0.0
 10
69.00157356199315
 20
0.4613696663483325
 30
0.0
 10
68.99453888704511
 20
0.3780154646497067
 30
0.0
 10
68.98781342671168
 20
0.2946076235440103
 30
0.0
 10
68.98480814806828
 20
0.2564283228269062
 30
0.0
 10
68.97604018828724
 20
0.1426369833070566
 30
0.0
 10
68.96750241997961
 20
0.0288099143729426
 30
0.0
 10
68.96267466934102
 20
-0.0337146208721606
 30
0.0
 10
68.95592978231241
 20
-0.1091600537214674
 30
0.0
 10
68.94873277938256
 20
-0.1845088908073364
 30
0.0
  0
SPLINE
  5
20EDC
330
1F
100
AcDbEntity
  8
1
100
AcDbSpline
210
0.0
220
0.0
230
1.0
 70
     8
 71
     5
 72
    21
 73
    15
 74
     0
 42
0.000000001
 43
0.0000000001
 40
0.0
 40
0.0
 40
0.0
 40
0.0
 40
0.0
 40
0.0
 40
0.6220884454741431
 40
0.6220884454741431
 40
0.6220884454741431
 40
0.8713149809152106
 40
0.8713149809152106
 40
0.8713149809152106
 40
1.120695039794563
 40
1.120695039794563
 40
1.120695039794563
 40
1.245087179463512
 40
1.245087179463512
 40
1.245087179463512
 40
1.245087179463512
 40
1.245087179463512
 40
1.245087179463512
 10
68.94873277938256
 20
-0.1845088908073364
 30
0.0
 10
68.94202680705586
 20
-0.2547168956214705
 30
0.0
 10
68.93412253440306
 20
-0.3247816739946074
 30
0.0
 10
68.92525566775572
 20
-0.3947300136446472
 30
0.0
 10
68.91169682430529
 20
-0.4925256538978715
 30
0.0
 10
68.89668959968844
 20
-0.5901103370404997
 30
0.0
 10
68.89224246709216
 20
-0.6181967420602917
 30
0.0
 10
68.88305877537937
 20
-0.6747171650302733
 30
0.0
 10
68.87375284570765
 20
-0.7306664591656613
 30
0.0
 10
68.86914132170898
 20
-0.7584439673663042
 30
0.0
 10
68.86230423318398
 20
-0.8002777338809323
 30
0.0
 10
68.85567625388455
 20
-0.8421434012501833
 30
0.0
 10
68.85349694378579
 20
-0.8560801997707017
 30
0.0
 10
68.85134618855295
 20
-0.8700209196178718
 30
0.0
 10
68.849225107015
 20
-0.8839657093436983
 30
0.0
  0
LINE
  5
20EDD
330
1F
100
AcDbEntity
  8
1
100
AcDbLine
 10
68.66739899999982
 20
-0.5485539999999958
 30
0.0
 11
68.82141199999989
 21
-0.1282759999999996
 31
0.0
  0
SPLINE
  5
20EDE
330
1F
100
AcDbEntity
  8
1
100
AcDbSpline
210
0.0
220
0.0
230
1.0
 70
     8
 71
     5
 72
    18
 73
    12
 74
     0
 42
0.000000001
 43
0.0000000001
 40
0.0
 40
0.0
 40
0.0
 40
0.0
 40
0.0
 40
0.0
 40
0.5703570948903167
 40
0.5703570948903167
 40
0.5703570948903167
 40
0.8769971585333763
 40
0.8769971585333763
 40
0.8769971585333763
 40
1.063432141863783
 40
1.063432141863783
 40
1.063432141863783
 40
1.063432141863783
 40
1.063432141863783
 40
1.063432141863783
 10
68.4105518783914
 20
0.4491877274946035
 30
0.0
 10
68.49012968394834
 20
0.4080618762780262
 30
0.0
 10
68.56714826023528
 20
0.3619089126003985
 30
0.0
 10
68.64021395735711
 20
0.3103527459723523
 30
0.0
 10
68.74126081515237
 20
0.2217271509864815
 30
0.0
 10
68.80796184985155
 20
0.1171140883327553
 30
0.0
 10
68.82598905556847
 20
0.0784495445085725
 30
0.0
 10
68.8433271860672
 20
0.013754336635003
 30
0.0
 10
68.84095151759334
 20
-0.0527779871191569
 30
0.0
 10
68.83704690612375
 20
-0.0784652068055607
 30
0.0
 10
68.83045064929831
 20
-0.1035135876140032
 30
0.0
 10
68.82141212935914
 20
-0.1282759715271311
 30
0.0
  0
ARC
  5
20EDF
330
1F
100
AcDbEntity
  8
1
100
AcDbCircle
 10
67.0152749999998
 20
-7.621213000000011
 30
0.0
 40
8.488457999999999
100
AcDbArc
 50
77.77235500000038
 51
79.93864300000026
  0
ARC
  5
20EE0
330
1F
100
AcDbEntity
  8
1
100
AcDbCircle
 10
68.64558399999987
 20
-0.1015179999999987
 30
0.0
 40
0.794046
100
AcDbArc
 50
62.37033999999877
 51
77.82138600000156
  0
ARC
  5
20EE1
330
1F
100
AcDbEntity
  8
1
100
AcDbCircle
 10
68.58422499999983
 20
-1.076351999999985
 30
0.0
 40
1.731833
100
AcDbArc
 50
56.57131800000108
 51
75.64241000000027
  0
LINE
  5
20EE2
330
1F
100
AcDbEntity
  8
1
100
AcDbLine
 10
61.89863899999989
 20
-7.858532999999994
 30
0.0
 11
62.04616399999986
 21
-7.858532999999994
 31
0.0
  0
ELLIPSE
  5
20EE3
330
1F
100
AcDbEntity
  8
1
100
AcDbEllipse
 10
63.72144099999991
 20
-3.400473000000005
 30
0.0
 11
-0.0000000000000002
 21
-1.25
 31
0.0
210
0.0
220
0.0
230
1.0
 40
0.9781479999999998
 41
3.14159265358979
 42
6.28318530717958
  0
ELLIPSE
  5
20EE4
330
1F
100
AcDbEntity
  8
1
100
AcDbEllipse
 10
63.72144099999991
 20
-3.400473000000005
 30
0.0
 11
-0.0000000000000002
 21
-1.25
 31
0.0
210
0.0
220
0.0
230
1.0
 40
0.9781479999999998
 41
1.570796326794894
 42
3.14159265358979
  0
ELLIPSE
  5
20EE5
330
1F
100
AcDbEntity
  8
1
100
AcDbEllipse
 10
63.72144099999991
 20
-3.400473000000005
 30
0.0
 11
-0.0000000000000002
 21
-1.25
 31
0.0
210
0.0
220
0.0
230
1.0
 40
0.9781479999999998
 41
6.28318530717958
 42
7.853981633974481
  0
ELLIPSE
  5
20EE6
330
1F
100
AcDbEntity
  8
1
100
AcDbEllipse
 10
63.66442299999983
 20
-3.400473000000005
 30
0.0
 11
-0.0000000000000001
 21
-0.7749999761581421
 31
0.0
210
0.0
220
0.0
230
1.0
 40
0.9781479999999998
 41
1.570796326794894
 42
7.853981633974477
  0
LINE
  5
20EE7
330
1F
100
AcDbEntity
  8
1
100
AcDbLine
 10
63.72144199999991
 20
-2.150473000000005
 30
0.0
 11
63.74810999999988
 21
-2.150473000000005
 31
0.0
  0
LINE
  5
20EE8
330
1F
100
AcDbEntity
  8
1
100
AcDbLine
 10
63.72144199999991
 20
-4.650473000000005
 30
0.0
 11
63.75887399999988
 21
-4.650473000000005
 31
0.0
  0
LINE
  5
20EE9
330
1F
100
AcDbEntity
  8
1
100
AcDbLine
 10
57.56888399999991
 20
5.233227999999996
 30
0.0
 11
57.6399809999998
 21
5.265241000000003
 31
0.0
  0
LINE
  5
20EEA
330
1F
100
AcDbEntity
  8
1
100
AcDbLine
 10
58.3533269999998
 20
6.004665999999986
 30
0.0
 11
57.6399809999998
 21
5.265241000000003
 31
0.0
  0
LINE
  5
20EEB
330
1F
100
AcDbEntity
  8
1
100
AcDbLine
 10
57.68969099999981
 20
7.496258000000011
 30
0.0
 11
57.60220999999984
 21
7.35862800000001
 31
0.0
  0
SPLINE
  5
20EEC
330
1F
100
AcDbEntity
  8
1
100
AcDbSpline
210
0.0
220
0.0
230
1.0
 70
     8
 71
     5
 72
    36
 73
    30
 74
     0
 42
0.000000001
 43
0.0000000001
 40
0.0
 40
0.0
 40
0.0
 40
0.0
 40
0.0
 40
0.0
 40
0.0915261863417369
 40
0.0915261863417369
 40
0.0915261863417369
 40
0.1830523726834739
 40
0.1830523726834739
 40
0.1830523726834739
 40
0.5219530192032567
 40
0.5219530192032567
 40
0.5219530192032567
 40
1.058102055431932
 40
1.058102055431932
 40
1.058102055431932
 40
1.255062527582474
 40
1.255062527582474
 40
1.255062527582474
 40
1.447702212506377
 40
1.447702212506377
 40
1.447702212506377
 40
1.622261268804308
 40
1.622261268804308
 40
1.622261268804308
 40
1.699740270316141
 40
1.699740270316141
 40
1.699740270316141
 40
1.777219271827974
 40
1.777219271827974
 40
1.777219271827974
 40
1.777219271827974
 40
1.777219271827974
 40
1.777219271827974
 10
58.00203173075141
 20
7.381931916632936
 30
0.0
 10
58.00430962045777
 20
7.36927744189353
 30
0.0
 10
58.00677240862921
 20
7.356406333294387
 30
0.0
 10
58.00942491864339
 20
7.343288812634455
 30
0.0
 10
58.01504373597243
 20
7.316848906098414
 30
0.0
 10
58.02129229008039
 20
7.289882842169078
 30
0.0
 10
58.02457516192101
 20
7.276247516263566
 30
0.0
 10
58.04059605500566
 20
7.211981484340753
 30
0.0
 10
58.05936260500584
 20
7.146466332004933
 30
0.0
 10
58.07533575557193
 20
7.095002995564499
 30
0.0
 10
58.11829979093204
 20
6.964498829351526
 30
0.0
 10
58.16464825986805
 20
6.839802243294542
 30
0.0
 10
58.19345112861731
 20
6.766097810425208
 30
0.0
 10
58.23291401330891
 20
6.669053565154769
 30
0.0
 10
58.27179224158385
 20
6.577343681426924
 30
0.0
 10
58.28218181870034
 20
6.553084194717285
 30
0.0
 10
58.30255310452594
 20
6.505941020343072
 30
0.0
 10
58.32246869572987
 20
6.460527225718408
 30
0.0
 10
58.3321882566737
 20
6.438492555441882
 30
0.0
 10
58.35034283498771
 20
6.397499991086533
 30
0.0
 10
58.36755779365716
 20
6.358681219751389
 30
0.0
 10
58.37545611167036
 20
6.340827411867138
 30
0.0
 10
58.38636872523068
 20
6.315990532791204
 30
0.0
 10
58.39611452650865
 20
6.293232202649221
 30
0.0
 10
58.39899420981851
 20
6.286431456732287
 30
0.0
 10
58.4044220897469
 20
6.273416036946912
 30
0.0
 10
58.40910125216038
 20
6.261677526694853
 30
0.0
 10
58.41124206143343
 20
6.256124864082664
 30
0.0
 10
58.41309174662808
 20
6.251086424503853
 30
0.0
 10
58.4146256784586
 20
6.246588778715675
 30
0.0
  0
LINE
  5
20EED
330
1F
100
AcDbEntity
  8
1
100
AcDbLine
 10
58.00203399999986
 20
7.381974000000013
 30
0.0
 11
57.98146699999984
 21
7.496258000000011
 31
0.0
  0
ELLIPSE
  5
20EEE
330
1F
100
AcDbEntity
  8
1
100
AcDbEllipse
 10
58.17922399999986
 20
6.180217999999996
 30
0.0
 11
0.0
 21
-0.25
 31
0.0
210
0.0
220
0.0
230
1.0
 40
0.9781479999999998
 41
0.7923036273153487
 42
1.803643244691789
  0
LINE
  5
20EEF
330
1F
100
AcDbEntity
  8
1
100
AcDbLine
 10
58.41462599999989
 20
6.246589
 30
0.0
 11
58.41716099999985
 21
6.237905000000012
 31
0.0
  0
ELLIPSE
  5
20EF0
330
1F
100
AcDbEntity
  8
1
100
AcDbEllipse
 10
61.96341099999983
 20
-0.393162999999987
 30
0.0
 11
-0.0000000000000015
 21
-8.199992179870605
 31
0.0
210
0.0
220
0.0
230
1.0
 40
0.9781479999999994
 41
3.141553610504934
 42
3.159999837278332
  0
ARC
  5
20EF1
330
1F
100
AcDbEntity
  8
1
100
AcDbCircle
 10
58.35563699999989
 20
7.044466999999997
 30
0.0
 40
0.805047
100
AcDbArc
 50
127.803012999999
 51
145.8462569999984
  0
LINE
  5
20EF2
330
1F
100
AcDbEntity
  8
1
100
AcDbLine
 10
61.8157789999999
 20
7.805440000000004
 30
0.0
 11
58.07089499999984
 21
7.734959000000003
 31
0.0
  0
ARC
  5
20EF3
330
1F
100
AcDbEntity
  8
1
100
AcDbCircle
 10
58.11361299999987
 20
7.154112999999995
 30
0.0
 40
0.5831210000000003
100
AcDbArc
 50
94.2062219999986
 51
115.5352659999983
  0
LINE
  5
20EF4
330
1F
100
AcDbEntity
  8
1
100
AcDbLine
 10
57.6399809999998
 20
5.265241000000003
 30
0.0
 11
58.5574429999998
 21
4.092365999999998
 31
0.0
  0
ELLIPSE
  5
20EF5
330
1F
100
AcDbEntity
  8
1
100
AcDbEllipse
 10
64.40422799999987
 20
8.87255300000001
 30
0.0
 11
-0.0000000000000014
 21
-7.653728485107422
 31
0.0
210
0.0
220
0.0
230
1.0
 40
0.9781479999999998
 41
5.386952696360503
 42
5.665911001161299
  0
ARC
  5
20EF6
330
1F
100
AcDbEntity
  8
1
100
AcDbCircle
 10
58.27685799999983
 20
7.548754000000002
 30
0.0
 40
0.30003
100
AcDbArc
 50
173.7254720000006
 51
190.0772060000001
  0
ARC
  5
20EF7
330
1F
100
AcDbEntity
  8
1
100
AcDbCircle
 10
58.28843099999983
 20
7.572486999999995
 30
0.0
 40
0.309951
100
AcDbArc
 50
159.5493949999997
 51
178.3251090000003
  0
LINE
  5
20EF8
330
1F
100
AcDbEntity
  8
1
100
AcDbLine
 10
57.9980129999999
 20
7.680785000000014
 30
0.0
 11
57.86200499999984
 21
7.680785000000014
 31
0.0
  0
LINE
  5
20EF9
330
1F
100
AcDbEntity
  8
1
100
AcDbLine
 10
62.00960799999984
 20
7.655260999999995
 30
0.0
 11
62.00945799999982
 21
7.455261000000007
 31
0.0
  0
LINE
  5
20EFA
330
1F
100
AcDbEntity
  8
1
100
AcDbLine
 10
62.00960799999984
 20
7.655260999999995
 30
0.0
 11
57.97861599999987
 21
7.581546000000003
 31
0.0
  0
ARC
  5
20EFB
330
1F
100
AcDbEntity
  8
1
100
AcDbCircle
 10
164.1090979999999
 20
7.791954000000004
 30
0.0
 40
102.10039
100
AcDbArc
 50
180.1889429999995
 51
180.8340700000007
  0
LINE
  5
20EFC
330
1F
100
AcDbEntity
  8
1
100
AcDbLine
 10
68.99185599999987
 20
2.598760999999996
 30
0.0
 11
69.09321799999986
 21
2.712517999999988
 31
0.0
  0
LINE
  5
20EFD
330
1F
100
AcDbEntity
  8
1
100
AcDbLine
 10
69.36175899999989
 20
3.071777999999994
 30
0.0
 11
68.91841599999986
 21
2.753170000000011
 31
0.0
  0
LINE
  5
20EFE
330
1F
100
AcDbEntity
  8
1
100
AcDbLine
 10
68.0422479999998
 20
2.518826999999987
 30
0.0
 11
68.07711099999983
 21
2.531500999999991
 31
0.0
  0
LINE
  5
20EFF
330
1F
100
AcDbEntity
  8
1
100
AcDbLine
 10
68.07711099999983
 20
2.531500999999991
 30
0.0
 11
68.19790699999987
 21
2.575482999999991
 31
0.0
  0
LINE
  5
20F00
330
1F
100
AcDbEntity
  8
1
100
AcDbLine
 10
68.19790699999987
 20
2.575482999999991
 30
0.0
 11
68.70029299999988
 21
2.75833399999999
 31
0.0
  0
SPLINE
  5
20F01
330
1F
100
AcDbEntity
  8
1
100
AcDbSpline
210
0.0
220
0.0
230
1.0
 70
     8
 71
     5
 72
    21
 73
    15
 74
     0
 42
0.000000001
 43
0.0000000001
 40
0.0
 40
0.0
 40
0.0
 40
0.0
 40
0.0
 40
0.0
 40
0.6860254956412116
 40
0.6860254956412116
 40
0.6860254956412116
 40
1.226018089267771
 40
1.226018089267771
 40
1.226018089267771
 40
1.5512564156197
 40
1.5512564156197
 40
1.5512564156197
 40
1.696125761354442
 40
1.696125761354442
 40
1.696125761354442
 40
1.696125761354442
 40
1.696125761354442
 40
1.696125761354442
 10
68.75224483406293
 20
3.899002823908944
 30
0.0
 10
68.79474270304604
 20
3.813344465003495
 30
0.0
 10
68.83062157495624
 20
3.717641604469207
 30
0.0
 10
68.86160629841469
 20
3.613578646733031
 30
0.0
 10
68.90509601832366
 20
3.425725117367306
 30
0.0
 10
68.92242085628424
 20
3.234632729692691
 30
0.0
 10
68.92388315965376
 20
3.150506004279236
 30
0.0
 10
68.91254210960858
 20
3.019594088363135
 30
0.0
 10
68.86902980817774
 20
2.906131060253187
 30
0.0
 10
68.84725848499897
 20
2.86692184275202
 30
0.0
 10
68.80675087835652
 20
2.818292086934917
 30
0.0
 10
68.75458566387909
 20
2.783006801753856
 30
0.0
 10
68.73726712170344
 20
2.7733750476539
 30
0.0
 10
68.71919196367298
 20
2.765205191619799
 30
0.0
 10
68.7002930182241
 20
2.758333655549051
 30
0.0
  0
ARC
  5
20F02
330
1F
100
AcDbEntity
  8
1
100
AcDbCircle
 10
62.45659199999988
 20
0.2041289999999947
 30
0.0
 40
7.499839999999997
100
AcDbArc
 50
24.15071499999915
 51
30.39759600000033
  0
ARC
  5
20F03
330
1F
100
AcDbEntity
  8
1
100
AcDbCircle
 10
68.52348099999983
 20
2.924029999999987
 30
0.0
 40
0.8511840000000001
100
AcDbArc
 50
9.995777999999479
 51
24.17505999999994
  0
LINE
  5
20F04
330
1F
100
AcDbEntity
  8
1
100
AcDbLine
 10
62.00960799999984
 20
7.655260999999995
 30
0.0
 11
62.00972099999984
 21
7.805261000000001
 31
0.0
  0
LINE
  5
20F05
330
1F
100
AcDbEntity
  8
1
100
AcDbLine
 10
58.16670099999988
 20
7.734959000000003
 30
0.0
 11
62.00972099999984
 21
7.805261000000001
 31
0.0
  0
ARC
  5
20F06
330
1F
100
AcDbEntity
  8
1
100
AcDbCircle
 10
58.17270599999983
 20
7.426667000000009
 30
0.0
 40
0.308362
100
AcDbArc
 50
91.1158640000009
 51
124.5066290000016
  0
SPLINE
  5
20F07
330
1F
100
AcDbEntity
  8
1
100
AcDbSpline
210
0.0
220
0.0
230
1.0
 70
     8
 71
     5
 72
    33
 73
    27
 74
     0
 42
0.000000001
 43
0.0000000001
 40
0.0
 40
0.0
 40
0.0
 40
0.0
 40
0.0
 40
0.0
 40
2.306507331339318
 40
2.306507331339318
 40
2.306507331339318
 40
5.776432549568848
 40
5.776432549568848
 40
5.776432549568848
 40
6.935016936719396
 40
6.935016936719396
 40
6.935016936719396
 40
8.09385127139962
 40
8.09385127139962
 40
8.09385127139962
 40
10.41629439247415
 40
10.41629439247415
 40
10.41629439247415
 40
10.70383501971301
 40
10.70383501971301
 40
10.70383501971301
 40
10.99137564695186
 40
10.99137564695186
 40
10.99137564695186
 40
11.56643286209315
 40
11.56643286209315
 40
11.56643286209315
 40
11.56643286209315
 40
11.56643286209315
 40
11.56643286209315
 10
68.75221772069017
 20
3.899000734973441
 30
0.0
 10
68.60929134251955
 20
4.186947109908686
 30
0.0
 10
68.44486568845275
 20
4.464654913105306
 30
0.0
 10
68.26070199049593
 20
4.729471332632726
 30
0.0
 10
67.74708261547084
 20
5.353849706205636
 30
0.0
 10
67.14818566210976
 20
5.899301325347011
 30
0.0
 10
66.76518342460702
 20
6.199073196890083
 30
0.0
 10
66.22121738793566
 20
6.557406007600292
 30
0.0
 10
65.64356752920497
 20
6.854864438916592
 30
0.0
 10
65.49691831907887
 20
6.925488664835768
 30
0.0
 10
65.20029478759397
 20
7.058780158852613
 30
0.0
 10
64.89672096631204
 20
7.176313118761129
 30
0.0
 10
64.7431044646421
 20
7.231170443803932
 30
0.0
 10
64.27767841903483
 20
7.383653443595363
 30
0.0
 10
63.80047008183135
 20
7.499270471353923
 30
0.0
 10
63.47756392277972
 20
7.559735393564579
 30
0.0
 10
63.11187185184929
 20
7.608783009392823
 30
0.0
 10
62.7444787155921
 20
7.636530964115422
 30
0.0
 10
62.70398348431593
 20
7.639329480598888
 30
0.0
 10
62.62297147376284
 20
7.644409107257018
 30
0.0
 10
62.54191710519569
 20
7.648457314633333
 30
0.0
 10
62.5014705853838
 20
7.650233509212654
 30
0.0
 10
62.37932185249121
 20
7.654705637492071
 30
0.0
 10
62.25527057038061
 20
7.656757107225217
 30
0.0
 10
62.17190828612615
 20
7.657168462936539
 30
0.0
 10
62.09078385008069
 20
7.656766630922021
 30
0.0
 10
62.00960826860182
 20
7.655261046771215
 30
0.0
  0
ARC
  5
20F08
330
1F
100
AcDbEntity
  8
1
100
AcDbCircle
 10
66.5413759999999
 20
4.901352000000002
 30
0.0
 40
3.361912
100
AcDbArc
 50
319.3952819999996
 51
327.0286449999996
  0
LINE
  5
20F09
330
1F
100
AcDbEntity
  8
1
100
AcDbLine
 10
62.01945399999988
 20
7.805440000000004
 30
0.0
 11
62.17158399999982
 21
7.806828999999993
 31
0.0
  0
SPLINE
  5
20F0A
330
1F
100
AcDbEntity
  8
1
100
AcDbSpline
210
0.0
220
0.0
230
1.0
 70
     8
 71
     5
 72
    30
 73
    24
 74
     0
 42
0.000000001
 43
0.0000000001
 40
0.0
 40
0.0
 40
0.0
 40
0.0
 40
0.0
 40
0.0
 40
0.7268581726398661
 40
0.7268581726398661
 40
0.7268581726398661
 40
1.438956055475435
 40
1.438956055475435
 40
1.438956055475435
 40
2.858014717039176
 40
2.858014717039176
 40
2.858014717039176
 40
5.692346659014632
 40
5.692346659014632
 40
5.692346659014632
 40
8.52160553657859
 40
8.52160553657859
 40
8.52160553657859
 40
11.34436792781811
 40
11.34436792781811
 40
11.34436792781811
 40
14.13504597403207
 40
14.13504597403207
 40
14.13504597403207
 40
14.13504597403207
 40
14.13504597403207
 40
14.13504597403207
 10
62.17158436074839
 20
7.806828741612292
 30
0.0
 10
62.25642805633071
 20
7.806820365648718
 30
0.0
 10
62.34181494714602
 20
7.805718650556713
 30
0.0
 10
62.41847079842171
 20
7.803739808399825
 30
0.0
 10
62.58514416742127
 20
7.797416070905029
 30
0.0
 10
62.75165211516503
 20
7.786829084442047
 30
0.0
 10
62.83392009951228
 20
7.780547847724363
 30
0.0
 10
63.07973838143857
 20
7.758635102281289
 30
0.0
 10
63.32420065736858
 20
7.727413201598068
 30
0.0
 10
63.48637846458803
 20
7.7024882645876
 30
0.0
 10
63.96988297577746
 20
7.615482168290071
 30
0.0
 10
64.44561053698158
 20
7.491520878888593
 30
0.0
 10
64.75758452139792
 20
7.392712273454606
 30
0.0
 10
65.36873191625852
 20
7.163682832157917
 30
0.0
 10
65.951704942888
 20
6.872986014250187
 30
0.0
 10
66.23500286083777
 20
6.712737771670845
 30
0.0
 10
66.7829686017044
 20
6.363546021553219
 30
0.0
 10
67.29028126090316
 20
5.959694944221752
 30
0.0
 10
67.53320603357434
 20
5.744445866650551
 30
0.0
 10
67.99110573486621
 20
5.293446092050174
 30
0.0
 10
68.39891119681152
 20
4.79736595878569
 30
0.0
 10
68.5888439190819
 20
4.539909602165607
 30
0.0
 10
68.76445078851077
 20
4.273625781386556
 30
0.0
 10
68.92547455192005
 20
3.999033321758417
 30
0.0
  0
LINE
  5
20F0B
330
1F
100
AcDbEntity
  8
1
100
AcDbLine
 10
62.00972099999984
 20
7.805261000000001
 30
0.0
 11
62.01945399999988
 21
7.805440000000004
 31
0.0
  0
ARC
  5
20F0C
330
1F
100
AcDbEntity
  8
1
100
AcDbCircle
 10
63.42306199999985
 20
4.163675000000012
 30
0.0
 40
1.864404999999999
100
AcDbArc
 50
226.0274820000012
 51
255.3416940000002
  0
SPLINE
  5
20F0D
330
1F
100
AcDbEntity
  8
1
100
AcDbSpline
210
0.0
220
0.0
230
1.0
 70
     8
 71
     3
 72
    67
 73
    63
 74
     0
 42
0.000000001
 43
0.0000000001
 40
0.0
 40
0.0
 40
0.0
 40
0.0
 40
0.064803262048037
 40
0.1296599927277969
 40
0.1945736848094689
 40
0.2595432432901392
 40
0.3245657288911916
 40
0.3896423763644446
 40
0.4547713512850998
 40
0.5199516321109803
 40
0.5851798480686328
 40
0.6504557485951621
 40
0.7157767530606508
 40
0.7811406694436487
 40
0.8647647925767635
 40
0.9484493530554759
 40
1.042958834429817
 40
1.108494470152957
 40
1.174055119604106
 40
1.239637407474465
 40
1.305237741861274
 40
1.370852616838116
 40
1.436478261874139
 40
1.502111023061164
 40
1.567747150315768
 40
1.633382873972865
 40
1.69901443338262
 40
1.764638079617219
 40
1.830250170015044
 40
1.895846945041819
 40
1.96142491622873
 40
2.026980508807576
 40
2.092510364791702
 40
2.173081040619918
 40
2.263725661051021
 40
2.354298856486087
 40
2.419653886319298
 40
2.484965472498905
 40
2.550231480898891
 40
2.615449361879844
 40
2.680618957422729
 40
2.745736900472553
 40
2.810802234377674
 40
2.875813175814058
 40
2.940771021951373
 40
3.005672878785007
 40
3.070518943453933
 40
3.135308633502198
 40
3.200042284411531
 40
3.264722938537985
 40
3.329346143871423
 40
3.393917802903056
 40
3.458434528893793
 40
3.522902131701215
 40
3.587318122461117
 40
3.651688362994583
 40
3.716010268405873
 40
3.780290622278286
 40
3.844528884400752
 40
3.908730632254235
 40
3.992059419133331
 40
4.075337758105033
 40
4.075337758105033
 40
4.075337758105033
 40
4.075337758105033
 10
62.12851210166343
 20
2.821841800933754
 30
0.0
 10
62.11294180139566
 20
2.836817272241034
 30
0.0
 10
62.08230346686548
 20
2.867310729087733
 30
0.0
 10
62.03791254558189
 20
2.914615130757937
 30
0.0
 10
61.99512337614959
 20
2.9634458016601
 30
0.0
 10
61.95398533806429
 20
3.013747007963246
 30
0.0
 10
61.91454713000087
 20
3.065459952122694
 30
0.0
 10
61.87685521402625
 20
3.118524380886725
 30
0.0
 10
61.84095361499828
 20
3.172879100432481
 30
0.0
 10
61.80688499555407
 20
3.228460308912303
 30
0.0
 10
61.77468943724545
 20
3.285203365497551
 30
0.0
 10
61.74440501670733
 20
3.343041884348451
 30
0.0
 10
61.71606719591875
 20
3.401909054768509
 30
0.0
 10
61.68726086659785
 20
3.467293821694028
 30
0.0
 10
61.65872418998481
 20
3.539437578767802
 30
0.0
 10
61.63012793370012
 20
3.62191917824677
 30
0.0
 10
61.60703569278837
 20
3.699847214760751
 30
0.0
 10
61.58863401631879
 20
3.772776130919453
 30
0.0
 10
61.57472854387106
 20
3.836856813586905
 30
0.0
 10
61.56297075365523
 20
3.901387639883722
 30
0.0
 10
61.55337442494055
 20
3.96629347556356
 30
0.0
 10
61.54595098215168
 20
4.031498090049069
 30
0.0
 10
61.5407092154785
 20
4.09692508926426
 30
0.0
 10
61.53765534558113
 20
4.162497732457126
 30
0.0
 10
61.53679299324875
 20
4.228139144242106
 30
0.0
 10
61.53812318226107
 20
4.293772341696865
 30
0.0
 10
61.54164433390326
 20
4.359320351041503
 30
0.0
 10
61.54735227292121
 20
4.424706327232172
 30
0.0
 10
61.55524022760506
 20
4.489853584034023
 30
0.0
 10
61.56529885042516
 20
4.5546857775565
 30
0.0
 10
61.57751619526209
 20
4.619126843288086
 30
0.0
 10
61.59187784083872
 20
4.683101467697241
 30
0.0
 10
61.6096305384093
 20
4.751396626024273
 30
0.0
 10
61.63232966445582
 20
4.827000310124134
 30
0.0
 10
61.66107322490574
 20
4.909426582204901
 30
0.0
 10
61.69172745975493
 20
4.985720635907028
 30
0.0
 10
61.72194925098352
 20
5.053004497130274
 30
0.0
 10
61.75070542180788
 20
5.111658030014496
 30
0.0
 10
61.78140072188671
 20
5.169268339608009
 30
0.0
 10
61.81399924744937
 20
5.22576897020167
 30
0.0
 10
61.84846244071628
 20
5.281093806395602
 30
0.0
 10
61.88474976742577
 20
5.335178524986957
 30
0.0
 10
61.92281810260443
 20
5.38795963756948
 30
0.0
 10
61.96262300771116
 20
5.43937630764185
 30
0.0
 10
62.00411754245067
 20
5.489368586000608
 30
0.0
 10
62.04725306720104
 20
5.537878543443724
 30
0.0
 10
62.09197844019218
 20
5.584849384870523
 30
0.0
 10
62.13824122979804
 20
5.63022676706808
 30
0.0
 10
62.18598775932616
 20
5.673958700270645
 30
0.0
 10
62.23516157389451
 20
5.715994036351617
 30
0.0
 10
62.28570575660421
 20
5.756284717149867
 30
0.0
 10
62.33755997155867
 20
5.794783241056762
 30
0.0
 10
62.39066490919163
 20
5.831446136737866
 30
0.0
 10
62.444957385002
 20
5.866230306436676
 30
0.0
 10
62.50037524000754
 20
5.899096421227142
 30
0.0
 10
62.55685246039433
 20
5.930005808883407
 30
0.0
 10
62.61432434962728
 20
5.958923530973237
 30
0.0
 10
62.67272289237905
 20
5.985815832937532
 30
0.0
 10
62.73198182306919
 20
6.010652508407048
 30
0.0
 10
62.79800436516507
 20
6.035667898897941
 30
0.0
 10
62.87100745766963
 20
6.060042826756415
 30
0.0
 10
62.9244396133505
 20
6.075238592141374
 30
0.0
 10
62.95130972154982
 20
6.082227483106606
 30
0.0
  0
LINE
  5
20F0E
330
1F
100
AcDbEntity
  8
1
100
AcDbLine
 10
61.96372399999984
 20
7.806828999999993
 30
0.0
 11
62.17158399999982
 21
7.806828999999993
 31
0.0
  0
ELLIPSE
  5
20F0F
330
1F
100
AcDbEntity
  8
1
100
AcDbEllipse
 10
63.43268799999987
 20
4.221204
 30
0.0
 11
-0.0000000000000002
 21
-1.299999952316284
 31
0.0
210
0.0
220
0.0
230
1.0
 40
0.978148
 41
4.712388980384688
 42
10.99557428756427
  0
ELLIPSE
  5
20F10
330
1F
100
AcDbEntity
  8
1
100
AcDbEllipse
 10
63.94042399999989
 20
5.120275999999989
 30
0.0
 11
-0.0000000000000001
 21
-0.4000000059604645
 31
0.0
210
0.0
220
0.0
230
1.0
 40
0.978148
 41
4.652876833491073
 42
6.282917771612226
  0
ELLIPSE
  5
20F11
330
1F
100
AcDbEntity
  8
1
100
AcDbEllipse
 10
63.94042399999989
 20
5.120275999999989
 30
0.0
 11
-0.0000000000000001
 21
-0.4000000059604645
 31
0.0
210
0.0
220
0.0
230
1.0
 40
0.978148
 41
6.282917771612226
 42
6.866296229671492
  0
ELLIPSE
  5
20F12
330
1F
100
AcDbEntity
  8
1
100
AcDbEllipse
 10
64.22049099999981
 20
4.686204000000003
 30
0.0
 11
0.0
 21
-0.119999997317791
 31
0.0
210
0.0
220
0.0
230
1.0
 40
0.9781479999999998
 41
0.4640866287046812
 42
3.141714745645288
  0
ELLIPSE
  5
20F13
330
1F
100
AcDbEntity
  8
1
100
AcDbEllipse
 10
64.22049099999981
 20
4.686204000000003
 30
0.0
 11
0.0
 21
-0.119999997317791
 31
0.0
210
0.0
220
0.0
230
1.0
 40
0.9781479999999998
 41
3.141714745645288
 42
3.724703576081703
  0
ELLIPSE
  5
20F14
330
1F
100
AcDbEntity
  8
1
100
AcDbEllipse
 10
64.44816099999991
 20
4.221204
 30
0.0
 11
-0.0000000000000001
 21
-0.4000000059604645
 31
0.0
210
0.0
220
0.0
230
1.0
 40
0.978148
 41
3.605679282294472
 42
5.819098678474897
  0
ELLIPSE
  5
20F15
330
1F
100
AcDbEntity
  8
1
100
AcDbEllipse
 10
64.22049099999981
 20
3.756203999999996
 30
0.0
 11
0.0
 21
-0.119999997317791
 31
0.0
210
0.0
220
0.0
230
1.0
 40
0.9781479999999998
 41
5.700074384687668
 42
6.283063215618851
  0
ELLIPSE
  5
20F16
330
1F
100
AcDbEntity
  8
1
100
AcDbEllipse
 10
64.22049099999981
 20
3.756203999999996
 30
0.0
 11
0.0
 21
-0.119999997317791
 31
0.0
210
0.0
220
0.0
230
1.0
 40
0.9781479999999998
 41
6.283063215618851
 42
8.960691332064692
  0
ELLIPSE
  5
20F17
330
1F
100
AcDbEntity
  8
1
100
AcDbEllipse
 10
63.94042399999989
 20
3.322133000000007
 30
0.0
 11
-0.0000000000000001
 21
-0.4000000059604645
 31
0.0
210
0.0
220
0.0
230
1.0
 40
0.978148
 41
2.55848173109788
 42
3.141860189103646
  0
ELLIPSE
  5
20F18
330
1F
100
AcDbEntity
  8
1
100
AcDbEllipse
 10
63.94042399999989
 20
3.322133000000007
 30
0.0
 11
-0.0000000000000001
 21
-0.4000000059604645
 31
0.0
210
0.0
220
0.0
230
1.0
 40
0.978148
 41
3.141860189103646
 42
4.771901127278298
  0
ELLIPSE
  5
20F19
330
1F
100
AcDbEntity
  8
1
100
AcDbEllipse
 10
63.43268799999987
 20
3.291203999999993
 30
0.0
 11
0.0
 21
-0.119999997317791
 31
0.0
210
0.0
220
0.0
230
1.0
 40
0.9781479999999998
 41
4.652876833491068
 42
6.283185307179584
  0
ELLIPSE
  5
20F1A
330
1F
100
AcDbEntity
  8
1
100
AcDbEllipse
 10
63.43268799999987
 20
3.291203999999993
 30
0.0
 11
0.0
 21
-0.119999997317791
 31
0.0
210
0.0
220
0.0
230
1.0
 40
0.9781479999999998
 41
6.283185307179584
 42
7.913493780868092
  0
ELLIPSE
  5
20F1B
330
1F
100
AcDbEntity
  8
1
100
AcDbEllipse
 10
62.92495199999985
 20
3.322133000000007
 30
0.0
 11
-0.0000000000000001
 21
-0.4000000059604645
 31
0.0
210
0.0
220
0.0
230
1.0
 40
0.978148
 41
1.511284179901277
 42
3.141325118022432
  0
ELLIPSE
  5
20F1C
330
1F
100
AcDbEntity
  8
1
100
AcDbEllipse
 10
62.92495199999985
 20
3.322133000000007
 30
0.0
 11
-0.0000000000000001
 21
-0.4000000059604645
 31
0.0
210
0.0
220
0.0
230
1.0
 40
0.978148
 41
3.141325118022432
 42
3.7247035760817
  0
ELLIPSE
  5
20F1D
330
1F
100
AcDbEntity
  8
1
100
AcDbEllipse
 10
62.64488399999982
 20
3.756203999999996
 30
0.0
 11
0.0
 21
-0.119999997317791
 31
0.0
210
0.0
220
0.0
230
1.0
 40
0.9781479999999998
 41
3.605679282294471
 42
6.283307399235089
  0
ELLIPSE
  5
20F1E
330
1F
100
AcDbEntity
  8
1
100
AcDbEllipse
 10
62.64488399999982
 20
3.756203999999996
 30
0.0
 11
0.0
 21
-0.119999997317791
 31
0.0
210
0.0
220
0.0
230
1.0
 40
0.9781479999999998
 41
0.0001220920555028
 42
0.5831109224919026
  0
ELLIPSE
  5
20F1F
330
1F
100
AcDbEntity
  8
1
100
AcDbEllipse
 10
62.41721499999982
 20
4.221204
 30
0.0
 11
-0.0000000000000001
 21
-0.4000000059604645
 31
0.0
210
0.0
220
0.0
230
1.0
 40
0.978148
 41
0.4640866287046815
 42
2.677506024885106
  0
ELLIPSE
  5
20F20
330
1F
100
AcDbEntity
  8
1
100
AcDbEllipse
 10
62.64488399999982
 20
4.686204000000003
 30
0.0
 11
0.0
 21
-0.119999997317791
 31
0.0
210
0.0
220
0.0
230
1.0
 40
0.9781479999999998
 41
2.55848173109788
 42
3.141470562029069
  0
ELLIPSE
  5
20F21
330
1F
100
AcDbEntity
  8
1
100
AcDbEllipse
 10
62.64488399999982
 20
4.686204000000003
 30
0.0
 11
0.0
 21
-0.119999997317791
 31
0.0
210
0.0
220
0.0
230
1.0
 40
0.9781479999999998
 41
3.141470562029069
 42
5.819098678474896
  0
ELLIPSE
  5
20F22
330
1F
100
AcDbEntity
  8
1
100
AcDbEllipse
 10
62.92495199999985
 20
5.120275999999989
 30
0.0
 11
-0.0000000000000001
 21
-0.4000000059604645
 31
0.0
210
0.0
220
0.0
230
1.0
 40
0.978148
 41
5.70007438468767
 42
6.28345284269344
  0
ELLIPSE
  5
20F23
330
1F
100
AcDbEntity
  8
1
100
AcDbEllipse
 10
62.92495199999985
 20
5.120275999999989
 30
0.0
 11
-0.0000000000000001
 21
-0.4000000059604645
 31
0.0
210
0.0
220
0.0
230
1.0
 40
0.978148
 41
0.0002675355138538
 42
1.630308473688508
  0
ELLIPSE
  5
20F24
330
1F
100
AcDbEntity
  8
1
100
AcDbEllipse
 10
63.43268799999987
 20
5.151205000000004
 30
0.0
 11
0.0
 21
-0.119999997317791
 31
0.0
210
0.0
220
0.0
230
1.0
 40
0.9781479999999998
 41
1.511284179901281
 42
3.14159265358979
  0
ELLIPSE
  5
20F25
330
1F
100
AcDbEntity
  8
1
100
AcDbEllipse
 10
63.43268799999987
 20
5.151205000000004
 30
0.0
 11
0.0
 21
-0.119999997317791
 31
0.0
210
0.0
220
0.0
230
1.0
 40
0.9781479999999998
 41
3.14159265358979
 42
4.7719011272783
  0
ELLIPSE
  5
20F26
330
1F
100
AcDbEntity
  8
1
100
AcDbEllipse
 10
63.40761899999984
 20
4.221204
 30
0.0
 11
-0.0000000000000003
 21
-1.75
 31
0.0
210
0.0
220
0.0
230
1.0
 40
0.9781479999999998
 41
3.14159265358979
 42
6.283185307179584
  0
ELLIPSE
  5
20F27
330
1F
100
AcDbEntity
  8
1
100
AcDbEllipse
 10
63.40761899999984
 20
4.221204
 30
0.0
 11
-0.0000000000000003
 21
-1.75
 31
0.0
210
0.0
220
0.0
230
1.0
 40
0.9781479999999998
 41
6.283185307179584
 42
7.853981633974482
  0
ELLIPSE
  5
20F28
330
1F
100
AcDbEntity
  8
1
100
AcDbEllipse
 10
63.40761899999984
 20
4.221204
 30
0.0
 11
-0.0000000000000003
 21
-1.75
 31
0.0
210
0.0
220
0.0
230
1.0
 40
0.9781479999999998
 41
1.570796326794894
 42
3.14159265358979
  0
ELLIPSE
  5
20F29
330
1F
100
AcDbEntity
  8
1
100
AcDbEllipse
 10
63.30794099999991
 20
4.221204
 30
0.0
 11
-0.0000000000000003
 21
-1.75
 31
0.0
210
0.0
220
0.0
230
1.0
 40
0.9781479999999998
 41
3.141592653589792
 42
6.283185307179584
  0
ELLIPSE
  5
20F2A
330
1F
100
AcDbEntity
  8
1
100
AcDbEllipse
 10
63.72211699999991
 20
5.120275999999989
 30
0.0
 11
-0.0000000000000001
 21
-0.4000000059604645
 31
0.0
210
0.0
220
0.0
230
1.0
 40
0.978148
 41
4.652876833491073
 42
6.282917771612226
  0
ELLIPSE
  5
20F2B
330
1F
100
AcDbEntity
  8
1
100
AcDbEllipse
 10
63.21438099999989
 20
5.151205000000004
 30
0.0
 11
0.0
 21
-0.119999997317791
 31
0.0
210
0.0
220
0.0
230
1.0
 40
0.9781479999999998
 41
1.511284179901274
 42
1.947393000857444
  0
ELLIPSE
  5
20F2C
330
1F
100
AcDbEntity
  8
1
100
AcDbEllipse
 10
62.70664499999987
 20
5.120275999999989
 30
0.0
 11
-0.0000000000000001
 21
-0.4000000059604645
 31
0.0
210
0.0
220
0.0
230
1.0
 40
0.978148
 41
5.866836767095326
 42
6.28345284269344
  0
ELLIPSE
  5
20F2D
330
1F
100
AcDbEntity
  8
1
100
AcDbEllipse
 10
62.70664499999987
 20
3.322133000000007
 30
0.0
 11
-0.0000000000000001
 21
-0.4000000059604645
 31
0.0
210
0.0
220
0.0
230
1.0
 40
0.978148
 41
3.141325118022432
 42
3.557943370931713
  0
ELLIPSE
  5
20F2E
330
1F
100
AcDbEntity
  8
1
100
AcDbEllipse
 10
63.21438099999989
 20
3.291203999999993
 30
0.0
 11
0.0
 21
-0.119999997317791
 31
0.0
210
0.0
220
0.0
230
1.0
 40
0.9781479999999998
 41
1.194192899863157
 42
1.630308473688504
  0
ELLIPSE
  5
20F2F
330
1F
100
AcDbEntity
  8
1
100
AcDbEllipse
 10
63.72211699999991
 20
3.322133000000007
 30
0.0
 11
-0.0000000000000001
 21
-0.4000000059604645
 31
0.0
210
0.0
220
0.0
230
1.0
 40
0.978148
 41
3.141860189103646
 42
4.771901127278298
  0
ELLIPSE
  5
20F30
330
1F
100
AcDbEntity
  8
1
100
AcDbEllipse
 10
64.00218399999983
 20
3.756203999999996
 30
0.0
 11
0.0
 21
-0.119999997317791
 31
0.0
210
0.0
220
0.0
230
1.0
 40
0.9781479999999998
 41
0.9654966145590767
 42
2.677506024885103
  0
ELLIPSE
  5
20F31
330
1F
100
AcDbEntity
  8
1
100
AcDbEllipse
 10
64.22985299999988
 20
4.221204
 30
0.0
 11
-0.0000000000000001
 21
-0.4000000059604645
 31
0.0
210
0.0
220
0.0
230
1.0
 40
0.978148
 41
3.605679282294471
 42
5.819098678474901
  0
ELLIPSE
  5
20F32
330
1F
100
AcDbEntity
  8
1
100
AcDbEllipse
 10
64.00218399999983
 20
4.686204000000003
 30
0.0
 11
0.0
 21
-0.119999997317791
 31
0.0
210
0.0
220
0.0
230
1.0
 40
0.9781479999999998
 41
0.4640866287046841
 42
2.176084353244428
  0
LINE
  5
20F33
330
1F
100
AcDbEntity
  8
1
100
AcDbLine
 10
63.30794099999991
 20
2.471204
 30
0.0
 11
63.40761899999984
 21
2.471204
 31
0.0
  0
LINE
  5
20F34
330
1F
100
AcDbEntity
  8
1
100
AcDbLine
 10
63.30794099999991
 20
5.971204
 30
0.0
 11
63.40761899999984
 21
5.971204
 31
0.0
  0
LINE
  5
20F35
330
1F
100
AcDbEntity
  8
1
100
AcDbLine
 10
63.72201199999984
 20
4.720276000000012
 30
0.0
 11
63.94031999999981
 21
4.720276000000012
 31
0.0
  0
LINE
  5
20F36
330
1F
100
AcDbEntity
  8
1
100
AcDbLine
 10
63.72201199999984
 20
3.722131999999987
 30
0.0
 11
63.94031999999981
 21
3.722131999999987
 31
0.0
  0
LINE
  5
20F37
330
1F
100
AcDbEntity
  8
1
100
AcDbLine
 10
62.70674899999983
 20
3.722131999999987
 30
0.0
 11
62.92505599999981
 21
3.722131999999987
 31
0.0
  0
LINE
  5
20F38
330
1F
100
AcDbEntity
  8
1
100
AcDbLine
 10
62.70674899999983
 20
4.720276000000012
 30
0.0
 11
62.92505599999981
 21
4.720276000000012
 31
0.0
  0
LINE
  5
20F39
330
1F
100
AcDbEntity
  8
SK1
100
AcDbLine
 10
-60.00000000000014
 20
8.875
 30
0.0
 11
-60.00000000000014
 21
-8.875
 31
0.0
  0
LINE
  5
20F3A
330
1F
100
AcDbEntity
  8
SK1
100
AcDbLine
 10
-56.00000000000014
 20
10.0
 30
0.0
 11
-56.00000000000014
 21
-10.0
 31
0.0
  0
LINE
  5
20F3B
330
1F
100
AcDbEntity
  8
1
100
AcDbLine
 10
9.999999999999857
 20
10.0
 30
0.0
 11
9.999999999999857
 21
-10.0
 31
0.0
  0
ARC
  5
20F3C
330
1F
100
AcDbEntity
  8
1
100
AcDbCircle
 10
62.02929099999983
 20
-0.008197999999993
 30
0.0
 40
6.840971999999998
100
AcDbArc
 50
338.2482180000001
 51
347.0561579999998
  0
ARC
  5
20F3D
330
1F
100
AcDbEntity
  8
1
100
AcDbCircle
 10
64.38360099999989
 20
-0.0862979999999993
 30
0.0
 40
4.551387999999998
100
AcDbArc
 50
331.4935760000001
 51
341.3662919999997
  0
SPLINE
  5
20F3E
330
1F
100
AcDbEntity
  8
1
100
AcDbSpline
210
0.0
220
0.0
230
1.0
 70
     8
 71
     5
 72
    15
 73
     9
 74
     0
 42
0.000000001
 43
0.0000000001
 40
0.0
 40
0.0
 40
0.0
 40
0.0
 40
0.0
 40
0.0
 40
1.766546220748128
 40
1.766546220748128
 40
1.766546220748128
 40
2.901546282166962
 40
2.901546282166962
 40
2.901546282166962
 40
2.901546282166962
 40
2.901546282166962
 40
2.901546282166962
 10
63.15405506443949
 20
-5.892428361021472
 30
0.0
 10
62.95370861600645
 20
-5.929219717961927
 30
0.0
 10
62.7496067065282
 20
-5.938287157171743
 30
0.0
 10
62.5510032754176
 20
-5.916347343178756
 30
0.0
 10
62.24309852735735
 20
-5.837436059332247
 30
0.0
 10
61.96863834223575
 20
-5.700143056765341
 30
0.0
 10
61.86619655898704
 20
-5.638340467274019
 30
0.0
 10
61.76965162999533
 20
-5.570282135742331
 30
0.0
 10
61.67804555427062
 20
-5.49635334845513
 30
0.0
  0
SPLINE
  5
20F3F
330
1F
100
AcDbEntity
  8
1
100
AcDbSpline
210
0.0
220
0.0
230
1.0
 70
     8
 71
     5
 72
    24
 73
    18
 74
     0
 42
0.000000001
 43
0.0000000001
 40
0.0
 40
0.0
 40
0.0
 40
0.0
 40
0.0
 40
0.0
 40
1.123211560883865
 40
1.123211560883865
 40
1.123211560883865
 40
3.434600668393116
 40
3.434600668393116
 40
3.434600668393116
 40
7.003083461743096
 40
7.003083461743096
 40
7.003083461743096
 40
9.406303398929251
 40
9.406303398929251
 40
9.406303398929251
 40
11.85016077183521
 40
11.85016077183521
 40
11.85016077183521
 40
11.85016077183521
 40
11.85016077183521
 40
11.85016077183521
 10
68.3831687959381
 20
-2.258466995035064
 30
0.0
 10
68.33174018963859
 20
-2.352977465199415
 30
0.0
 10
68.27725653079131
 20
-2.448138649204935
 30
0.0
 10
68.21945998792301
 20
-2.544097498710101
 30
0.0
 10
68.0338440081905
 20
-2.837335596853165
 30
0.0
 10
67.82127745297362
 20
-3.128198778706064
 30
0.0
 10
67.6648167406621
 20
-3.323055267232632
 30
0.0
 10
67.24224207251666
 20
-3.802445347642276
 30
0.0
 10
66.75391251781326
 20
-4.244066774586315
 30
0.0
 10
66.43710246200476
 20
-4.493222635610692
 30
0.0
 10
65.875447743677
 20
-4.876434390930882
 30
0.0
 10
65.27176891704789
 20
-5.196845903278358
 30
0.0
 10
65.02252289048328
 20
-5.315315220213449
 30
0.0
 10
64.50993372366906
 20
-5.531989000130522
 30
0.0
 10
63.97852236076232
 20
-5.703654566363553
 30
0.0
 10
63.70605383370014
 20
-5.778642878076738
 30
0.0
 10
63.43124495817085
 20
-5.841525575371235
 30
0.0
 10
63.15405506443801
 20
-5.892428361022666
 30
0.0
  0
SPLINE
  5
20F40
330
1F
100
AcDbEntity
  8
1
100
AcDbSpline
210
0.0
220
0.0
230
1.0
 70
     8
 71
     5
 72
    24
 73
    18
 74
     0
 42
0.000000001
 43
0.0000000001
 40
0.0
 40
0.0
 40
0.0
 40
0.0
 40
0.0
 40
0.0
 40
2.248280049628792
 40
2.248280049628792
 40
2.248280049628792
 40
3.645453074173818
 40
3.645453074173818
 40
3.645453074173818
 40
6.216242395440771
 40
6.216242395440771
 40
6.216242395440771
 40
9.789965534067148
 40
9.789965534067148
 40
9.789965534067148
 40
12.69748875975184
 40
12.69748875975184
 40
12.69748875975184
 40
12.69748875975184
 40
12.69748875975184
 40
12.69748875975184
 10
68.38316879595436
 20
-2.543367236920886
 30
0.0
 10
68.28451500776395
 20
-2.79056132166599
 30
0.0
 10
68.17048216140517
 20
-3.043469681411693
 30
0.0
 10
68.04017764324328
 20
-3.299411759926982
 30
0.0
 10
67.8023431261671
 20
-3.713889294418919
 30
0.0
 10
67.5238701090717
 20
-4.119066865477407
 30
0.0
 10
67.41134315842145
 20
-4.272288793047778
 30
0.0
 10
67.07608902180357
 20
-4.699750710628507
 30
0.0
 10
66.69830814976603
 20
-5.101610637876802
 30
0.0
 10
66.43718202202461
 20
-5.348341536838944
 30
0.0
 10
65.77873485995701
 20
-5.900535250313595
 30
0.0
 10
65.04667834204099
 20
-6.356195557963019
 30
0.0
 10
64.60028377237051
 20
-6.585058419823127
 30
0.0
 10
63.7614431332247
 20
-6.930841398665364
 30
0.0
 10
62.883481127793
 20
-7.146914658332917
 30
0.0
 10
62.48407435099443
 20
-7.217066263505529
 30
0.0
 10
62.08148748312282
 20
-7.260103947089788
 30
0.0
 10
61.67804555423288
 20
-7.276003031210109
 30
0.0
  0
ARC
  5
20F41
330
1F
100
AcDbEntity
  8
1
100
AcDbCircle
 10
59.55025099999989
 20
-7.35592600000001
 30
0.0
 40
0.038432
100
AcDbArc
 50
235.007590000001
 51
268.9085620000005
  0
SPLINE
  5
20F42
330
1F
100
AcDbEntity
  8
1
100
AcDbSpline
210
0.0
220
0.0
230
1.0
 70
     8
 71
     5
 72
    18
 73
    12
 74
     0
 42
0.000000001
 43
0.0000000001
 40
0.0
 40
0.0
 40
0.0
 40
0.0
 40
0.0
 40
0.0
 40
0.6625062711924024
 40
0.6625062711924024
 40
0.6625062711924024
 40
2.527036516212501
 40
2.527036516212501
 40
2.527036516212501
 40
3.73149877327989
 40
3.73149877327989
 40
3.73149877327989
 40
3.73149877327989
 40
3.73149877327989
 40
3.73149877327989
 10
59.52833088639408
 20
-7.38724061981216
 30
0.0
 10
59.5244477427442
 20
-7.381753544698398
 30
0.0
 10
59.53442121976355
 20
-7.374745910883945
 30
0.0
 10
59.55833432967574
 20
-7.36641501998784
 30
0.0
 10
59.69057391397427
 20
-7.332342017473166
 30
0.0
 10
59.94615211696919
 20
-7.29596027177709
 30
0.0
 10
60.15255245341996
 20
-7.277661919249624
 30
0.0
 10
60.5042473524935
 20
-7.260904855285701
 30
0.0
 10
60.85992067297286
 20
-7.266197863249459
 30
0.0
 10
60.99800852491864
 20
-7.271638123228285
 30
0.0
 10
61.13312685256881
 20
-7.2803371879628
 30
0.0
 10
61.26055049245997
 20
-7.291897375403436
 30
0.0
  0
ARC
  5
20F43
330
1F
100
AcDbEntity
  8
1
100
AcDbCircle
 10
67.11972199999991
 20
-6.99572599999999
 30
0.0
 40
7.871382999999998
100
AcDbArc
 50
77.43794599999834
 51
79.84871899999849
  0
ARC
  5
20F44
330
1F
100
AcDbEntity
  8
1
100
AcDbCircle
 10
67.40573299999983
 20
-7.788904999999999
 30
0.0
 40
8.646557000000001
100
AcDbArc
 50
78.96667700000023
 51
82.5468040000006
  0
ARC
  5
20F45
330
1F
100
AcDbEntity
  8
1
100
AcDbCircle
 10
68.78566799999987
 20
0.6880020000000116
 30
0.0
 40
0.256755
100
AcDbArc
 50
78.57646399999852
 51
121.6653719999985
  0
LINE
  5
20F46
330
1F
100
AcDbEntity
  8
1
100
AcDbLine
 10
68.83651499999984
 20
0.939641999999992
 30
0.0
 11
68.85735599999986
 21
0.934629000000001
 31
0.0
  0
SPLINE
  5
20F47
330
1F
100
AcDbEntity
  8
1
100
AcDbSpline
210
0.0
220
0.0
230
1.0
 70
     8
 71
     5
 72
    15
 73
     9
 74
     0
 42
0.000000001
 43
0.0000000001
 40
0.0
 40
0.0
 40
0.0
 40
0.0
 40
0.0
 40
0.0
 40
0.637369717506589
 40
0.637369717506589
 40
0.637369717506589
 40
0.9134037110478832
 40
0.9134037110478832
 40
0.9134037110478832
 40
0.9134037110478832
 40
0.9134037110478832
 40
0.9134037110478832
 10
68.8573566538239
 20
0.9346290016493696
 30
0.0
 10
68.89134850116613
 20
0.9241277670591614
 30
0.0
 10
68.92659395497457
 20
0.9030460975253902
 30
0.0
 10
68.95972917084487
 20
0.8705340801807892
 30
0.0
 10
69.00161692209121
 20
0.8144178934801971
 30
0.0
 10
69.03480044532876
 20
0.7534960317229605
 30
0.0
 10
69.04405523702428
 20
0.7349104898992494
 30
0.0
 10
69.05259735840195
 20
0.7163404353859733
 30
0.0
 10
69.06051065046927
 20
0.6978307300676079
 30
0.0
  0
ARC
  5
20F48
330
1F
100
AcDbEntity
  8
1
100
AcDbCircle
 10
68.83727499999986
 20
0.6002100000000042
 30
0.0
 40
0.358761
100
AcDbArc
 50
121.3199009999993
 51
139.3110060000016
  0
LINE
  5
20F49
330
1F
100
AcDbEntity
  8
1
100
AcDbLine
 10
68.54646299999984
 20
0.8114359999999862
 30
0.0
 11
68.56518799999981
 21
0.8341499999999939
 31
0.0
  0
LINE
  5
20F4A
330
1F
100
AcDbEntity
  8
1
100
AcDbLine
 10
68.5279499999998
 20
0.7858170000000087
 30
0.0
 11
68.54646299999984
 21
0.8114359999999862
 31
0.0
  0
LINE
  5
20F4B
330
1F
100
AcDbEntity
  8
1
100
AcDbLine
 10
68.52256399999987
 20
0.7776949999999943
 30
0.0
 11
68.5279499999998
 21
0.7858170000000087
 31
0.0
  0
SPLINE
  5
20F4C
330
1F
100
AcDbEntity
  8
1
100
AcDbSpline
210
0.0
220
0.0
230
1.0
 70
     8
 71
     5
 72
    18
 73
    12
 74
     0
 42
0.000000001
 43
0.0000000001
 40
0.0
 40
0.0
 40
0.0
 40
0.0
 40
0.0
 40
0.0
 40
0.8161819707817294
 40
0.8161819707817294
 40
0.8161819707817294
 40
2.238430358654418
 40
2.238430358654418
 40
2.238430358654418
 40
2.815875238238609
 40
2.815875238238609
 40
2.815875238238609
 40
2.815875238238609
 40
2.815875238238609
 40
2.815875238238609
 10
68.52256383879683
 20
0.7776952613266986
 30
0.0
 10
68.49832001633387
 20
0.7405053809772824
 30
0.0
 10
68.47691626458038
 20
0.6993775030852874
 30
0.0
 10
68.45674397565801
 20
0.6518404874588555
 30
0.0
 10
68.40937450042691
 20
0.5034955045571792
 30
0.0
 10
68.39111159175445
 20
0.3132921442304735
 30
0.0
 10
68.39818704113667
 20
0.1841751639599351
 30
0.0
 10
68.42847975282348
 20
0.0110350194211151
 30
0.0
 10
68.4864696663277
 20
-0.1467096211318051
 30
0.0
 10
68.50548239632257
 20
-0.1906860675295547
 30
0.0
 10
68.52658857908784
 20
-0.2325199945839813
 30
0.0
 10
68.54974272432679
 20
-0.2719101693062953
 30
0.0
  0
ARC
  5
20F4D
330
1F
100
AcDbEntity
  8
1
100
AcDbCircle
 10
59.65411799999981
 20
-6.369519999999994
 30
0.0
 40
1.030595999999997
100
AcDbArc
 50
264.1733950000012
 51
271.5100510000003
  0
LINE
  5
20F4E
330
1F
100
AcDbEntity
  8
1
100
AcDbLine
 10
59.68128299999989
 20
-7.400000000000005
 30
0.0
 11
59.98429999999984
 21
-7.395379999999988
 31
0.0
  0
ARC
  5
20F4F
330
1F
100
AcDbEntity
  8
1
100
AcDbCircle
 10
60.71862599999986
 20
-0.0012169999999969
 30
0.0
 40
8.124966
100
AcDbArc
 50
349.0788910000002
 51
353.6903010000007
  0
LINE
  5
20F50
330
1F
100
AcDbEntity
  8
1
100
AcDbLine
 10
61.67804599999988
 20
-7.276003000000002
 30
0.0
 11
61.26055099999985
 21
-7.291897000000005
 31
0.0
  0
LINE
  5
20F51
330
1F
100
AcDbEntity
  8
1
100
AcDbLine
 10
69.08398799999986
 20
0.6317559999999958
 30
0.0
 11
68.8317229999999
 21
0.6872239999999863
 31
0.0
  0
LINE
  5
20F52
330
1F
100
AcDbEntity
  8
1
100
AcDbLine
 10
69.06051099999991
 20
0.6978310000000079
 30
0.0
 11
69.08398799999986
 21
0.6317559999999958
 31
0.0
  0
ARC
  5
20F53
330
1F
100
AcDbEntity
  8
1
100
AcDbCircle
 10
62.46867599999984
 20
-3.022348999999991
 30
0.0
 40
6.674125
100
AcDbArc
 50
18.5946710000002
 51
24.33702400000053
  0
LINE
  5
20F54
330
1F
100
AcDbEntity
  8
1
100
AcDbLine
 10
64.73483999999984
 20
-4.156333999999986
 30
0.0
 11
64.77688599999988
 21
-4.092764999999985
 31
0.0
  0
ELLIPSE
  5
20F55
330
1F
100
AcDbEntity
  8
1
100
AcDbEllipse
 10
63.75885199999982
 20
-3.400462000000004
 30
0.0
 11
0.0000000000000054
 21
1.25
 31
0.0
210
0.0
220
0.0
230
1.0
 40
0.9781479999999998
 41
4.125416836459446
 42
4.704899697986726
  0
SPLINE
  5
20F56
330
1F
100
AcDbEntity
  8
1
100
AcDbSpline
210
0.0
220
0.0
230
1.0
 70
     8
 71
     5
 72
    15
 73
     9
 74
     0
 42
0.000000001
 43
0.0000000001
 40
0.0
 40
0.0
 40
0.0
 40
0.0
 40
0.0
 40
0.0
 40
1.257876185587014
 40
1.257876185587014
 40
1.257876185587014
 40
1.397288929984934
 40
1.397288929984934
 40
1.397288929984934
 40
1.397288929984934
 40
1.397288929984934
 40
1.397288929984934
 10
64.72853931211034
 20
-2.657972253088843
 30
0.0
 10
64.81314486759936
 20
-2.775117447577144
 30
0.0
 10
64.88323657027081
 20
-2.904340670544172
 30
0.0
 10
64.93641519837194
 20
-3.041632182377441
 30
0.0
 10
64.97317907469761
 20
-3.200336139513069
 30
0.0
 10
64.98095419516028
 20
-3.361521044035441
 30
0.0
 10
64.98143652556382
 20
-3.377626393701916
 30
0.0
 10
64.98162055724811
 20
-3.393725970632061
 30
0.0
 10
64.98150263043521
 20
-3.409823522777259
 30
0.0
  0
ELLIPSE
  5
20F57
330
1F
100
AcDbEntity
  8
1
100
AcDbEllipse
 10
63.74492499999985
 20
-3.400462000000004
 30
0.0
 11
0.0000000000000054
 21
1.25
 31
0.0
210
0.0
220
0.0
230
1.0
 40
0.9781479999999998
 41
5.348400806780008
 42
6.287344523359682
  0
ARC
  5
20F58
330
1F
100
AcDbEntity
  8
1
100
AcDbCircle
 10
63.82936799999981
 20
-3.505105000000014
 30
0.0
 40
1.115430999999998
100
AcDbArc
 50
302.9159869999984
 51
324.2757209999994
  0
ELLIPSE
  5
20F59
330
1F
100
AcDbEntity
  8
1
100
AcDbEllipse
 10
63.75885199999982
 20
-3.400462000000004
 30
0.0
 11
0.0000000000000054
 21
1.25
 31
0.0
210
0.0
220
0.0
230
1.0
 40
0.9781479999999998
 41
3.141726762559813
 42
3.728103655788818
  0
SPLINE
  5
20F5A
330
1F
100
AcDbEntity
  8
1
100
AcDbSpline
210
0.0
220
0.0
230
1.0
 70
     8
 71
     5
 72
    15
 73
     9
 74
     0
 42
0.000000001
 43
0.0000000001
 40
0.0
 40
0.0
 40
0.0
 40
0.0
 40
0.0
 40
0.0
 40
0.682204790924609
 40
0.682204790924609
 40
0.682204790924609
 40
1.673120845282983
 40
1.673120845282983
 40
1.673120845282983
 40
1.673120845282983
 40
1.673120845282983
 40
1.673120845282983
 10
65.14728373617754
 20
-3.639364712625024
 30
0.0
 10
65.19296311538664
 20
-3.577536441118894
 30
0.0
 10
65.22397663704225
 20
-3.50693339148853
 30
0.0
 10
65.24058299987001
 20
-3.433712309366711
 30
0.0
 10
65.25522201998433
 20
-3.257885570037643
 30
0.0
 10
65.21622537521409
 20
-3.08986947466073
 30
0.0
 10
65.17965445241429
 20
-2.995851391489395
 30
0.0
 10
65.13135842432006
 20
-2.907271982862056
 30
0.0
 10
65.0723969133088
 20
-2.825633651896794
 30
0.0
  0
ARC
  5
20F5B
330
1F
100
AcDbEntity
  8
1
100
AcDbCircle
 10
64.26212699999985
 20
-3.410831000000001
 30
0.0
 40
0.9994959999999998
100
AcDbArc
 50
35.83777399999775
 51
42.69658300000112
  0
ARC
  5
20F5C
330
1F
100
AcDbEntity
  8
1
100
AcDbCircle
 10
60.3139349999999
 20
-0.0688639999999907
 30
0.0
 40
6.009135999999998
100
AcDbArc
 50
317.961511000001
 51
323.5459039999989
  0
ARC
  5
20F5D
330
1F
100
AcDbEntity
  8
1
100
AcDbCircle
 10
60.37140899999986
 20
-0.1265649999999994
 30
0.0
 40
5.927591999999997
100
AcDbArc
 50
304.3257839999984
 51
313.2850980000004
  0
SPLINE
  5
20F5E
330
1F
100
AcDbEntity
  8
1
100
AcDbSpline
210
0.0
220
0.0
230
1.0
 70
     8
 71
     5
 72
    15
 73
     9
 74
     0
 42
0.000000001
 43
0.0000000001
 40
0.0
 40
0.0
 40
0.0
 40
0.0
 40
0.0
 40
0.0
 40
0.3160131166450901
 40
0.3160131166450901
 40
0.3160131166450901
 40
1.03975513145392
 40
1.03975513145392
 40
1.03975513145392
 40
1.03975513145392
 40
1.03975513145392
 40
1.03975513145392
 10
63.71396092149393
 20
-5.021829972534987
 30
0.0
 10
63.68421839296195
 20
-5.04213220105359
 30
0.0
 10
63.65193132632476
 20
-5.059393123765147
 30
0.0
 10
63.61729702923867
 20
-5.073445702904052
 30
0.0
 10
63.50188045367497
 20
-5.107950754194661
 30
0.0
 10
63.38129729962452
 20
-5.108840292907444
 30
0.0
 10
63.30062212672363
 20
-5.095926149532886
 30
0.0
 10
63.22488159594036
 20
-5.073414961665775
 30
0.0
 10
63.15405506443653
 20
-5.042745577600015
 30
0.0
  0
ARC
  5
20F5F
330
1F
100
AcDbEntity
  8
1
100
AcDbCircle
 10
63.4887369999999
 20
-4.268977000000006
 30
0.0
 40
0.843032
100
AcDbArc
 50
223.5767509999994
 51
246.6098019999996
  0
SPLINE
  5
20F60
330
1F
100
AcDbEntity
  8
1
100
AcDbSpline
210
0.0
220
0.0
230
1.0
 70
     8
 71
     5
 72
    21
 73
    15
 74
     0
 42
0.000000001
 43
0.0000000001
 40
0.0
 40
0.0
 40
0.0
 40
0.0
 40
0.0
 40
0.0
 40
1.73264681830224
 40
1.73264681830224
 40
1.73264681830224
 40
3.456869849327821
 40
3.456869849327821
 40
3.456869849327821
 40
5.131923347592271
 40
5.131923347592271
 40
5.131923347592271
 40
5.639861220135497
 40
5.639861220135497
 40
5.639861220135497
 40
5.639861220135497
 40
5.639861220135497
 40
5.639861220135497
 10
63.15405506443949
 20
-1.923395444782386
 30
0.0
 10
62.95808086739407
 20
-1.956285492115256
 30
0.0
 10
62.7665024707137
 20
-2.018875160650623
 30
0.0
 10
62.58538750550099
 20
-2.111859077231031
 30
0.0
 10
62.26333061000002
 20
-2.355927189514972
 30
0.0
 10
62.04878364218018
 20
-2.692275334028295
 30
0.0
 10
61.97657693859628
 20
-2.875929911610541
 30
0.0
 10
61.90613336616718
 20
-3.249360698356753
 30
0.0
 10
61.96351623590317
 20
-3.61248806096151
 30
0.0
 10
62.01952533878125
 20
-3.782444869152698
 30
0.0
 10
62.12104194945277
 20
-3.987968886322107
 30
0.0
 10
62.2543272761958
 20
-4.17113869595326
 30
0.0
 10
62.28700719347097
 20
-4.212564026020913
 30
0.0
 10
62.32118257129968
 20
-4.252657047863095
 30
0.0
 10
62.35682662691147
 20
-4.291449712340039
 30
0.0
  0
ARC
  5
20F61
330
1F
100
AcDbEntity
  8
1
100
AcDbCircle
 10
63.43040699999983
 20
-3.578627000000011
 30
0.0
 40
1.678154
100
AcDbArc
 50
89.95222800000155
 51
99.4784740000016
  0
ARC
  5
20F62
330
1F
100
AcDbEntity
  8
1
100
AcDbCircle
 10
63.41534399999983
 20
-3.758601999999996
 30
0.0
 40
1.858933
100
AcDbArc
 50
42.21330799999783
 51
89.49241199999988
  0
LINE
  5
20F63
330
1F
100
AcDbEntity
  8
1
100
AcDbLine
 10
64.79229699999985
 20
-2.509474000000011
 30
0.0
 11
64.99671199999989
 21
-2.733057000000002
 31
0.0
  0
ARC
  5
20F64
330
1F
100
AcDbEntity
  8
1
100
AcDbCircle
 10
98.3473019999999
 20
28.76275999999999
 30
0.0
 40
48.866084
100
AcDbArc
 50
222.5648470000004
 51
223.460665000001
  0
ARC
  5
20F65
330
1F
100
AcDbEntity
  8
1
100
AcDbCircle
 10
58.15747899999985
 20
15.262147
 30
0.0
 40
7.918883
100
AcDbArc
 50
263.1957530000003
 51
265.9974350000009
  0
ARC
  5
20F66
330
1F
100
AcDbEntity
  8
1
100
AcDbCircle
 10
58.08461099999988
 20
14.52204800000001
 30
0.0
 40
7.175474
100
AcDbArc
 50
263.1572379999997
 51
266.0517939999988
  0
ELLIPSE
  5
20F67
330
1F
100
AcDbEntity
  8
1
100
AcDbEllipse
 10
59.50502799999981
 20
0.0110889999999984
 30
0.0
 11
2.167681932449339
 21
-7.37662839889526
 31
0.0
210
0.0
220
0.0
230
1.0
 40
0.196453
 41
2.740885184680424
 42
2.984618403114076
  0
ARC
  5
20F68
330
1F
100
AcDbEntity
  8
1
100
AcDbCircle
 10
70.9714459999999
 20
-202.349754
 30
0.0
 40
209.716172
100
AcDbArc
 50
93.52579700000129
 51
94.52276899999928
  0
SPLINE
  5
20F69
330
1F
100
AcDbEntity
  8
1
100
AcDbSpline
210
0.0
220
0.0
230
1.0
 70
     8
 71
     5
 72
    18
 73
    12
 74
     0
 42
0.000000001
 43
0.0000000001
 40
0.0
 40
0.0
 40
0.0
 40
0.0
 40
0.0
 40
0.0
 40
1.018696342499251
 40
1.018696342499251
 40
1.018696342499251
 40
1.583388299857363
 40
1.583388299857363
 40
1.583388299857363
 40
1.934452507909452
 40
1.934452507909452
 40
1.934452507909452
 40
1.934452507909452
 40
1.934452507909452
 40
1.934452507909452
 10
54.43422510247626
 20
6.713357280020233
 30
0.0
 10
54.31808123228359
 20
6.704155940528039
 30
0.0
 10
54.20433957063676
 20
6.68706393479735
 30
0.0
 10
54.09382515869447
 20
6.660610629165518
 30
0.0
 10
53.94472250781518
 20
6.601014811253463
 30
0.0
 10
53.85383266665508
 20
6.513600810671249
 30
0.0
 10
53.83084446004045
 20
6.479216299427065
 30
0.0
 10
53.81079695499181
 20
6.419571831766887
 30
0.0
 10
53.81721875145536
 20
6.357278123965841
 30
0.0
 10
53.82349487012726
 20
6.333092451814053
 30
0.0
 10
53.83313159254408
 20
6.309259627119359
 30
0.0
 10
53.84581991444225
 20
6.285751660565523
 30
0.0
  0
ARC
  5
20F6A
330
1F
100
AcDbEntity
  8
1
100
AcDbCircle
 10
54.25132699999983
 20
6.518898000000007
 30
0.0
 40
0.467945
100
AcDbArc
 50
209.8967189999997
 51
229.4040390000006
  0
SPLINE
  5
20F6B
330
1F
100
AcDbEntity
  8
1
100
AcDbSpline
210
0.0
220
0.0
230
1.0
 70
     8
 71
     5
 72
    15
 73
     9
 74
     0
 42
0.000000001
 43
0.0000000001
 40
0.0
 40
0.0
 40
0.0
 40
0.0
 40
0.0
 40
0.0
 40
6.997131843329027
 40
6.997131843329027
 40
6.997131843329027
 40
11.95061921308865
 40
11.95061921308865
 40
11.95061921308865
 40
11.95061921308865
 40
11.95061921308865
 40
11.95061921308865
 10
53.9466964088582
 20
6.16342810383827
 30
0.0
 10
54.41936244216731
 20
5.739671103110254
 30
0.0
 10
54.93742442566184
 20
5.261452202197858
 30
0.0
 10
55.50561264082785
 20
4.769888956550744
 30
0.0
 10
56.58527716855286
 20
3.967569364556084
 30
0.0
 10
57.81967848555098
 20
3.324393451659403
 30
0.0
 10
58.35543553789051
 20
3.095795287649735
 30
0.0
 10
58.9104445342167
 20
2.912786490774379
 30
0.0
 10
59.47826561451882
 20
2.780219458322335
 30
0.0
  0
LINE
  5
20F6C
330
1F
100
AcDbEntity
  8
1
100
AcDbLine
 10
59.47826599999984
 20
2.780218999999988
 30
0.0
 11
59.58569399999987
 21
2.755133
 31
0.0
  0
SPLINE
  5
20F6D
330
1F
100
AcDbEntity
  8
1
100
AcDbSpline
210
0.0
220
0.0
230
1.0
 70
     8
 71
     5
 72
    21
 73
    15
 74
     0
 42
0.000000001
 43
0.0000000001
 40
0.0
 40
0.0
 40
0.0
 40
0.0
 40
0.0
 40
0.0
 40
6.440581397758532
 40
6.440581397758532
 40
6.440581397758532
 40
11.4585061693434
 40
11.4585061693434
 40
11.4585061693434
 40
14.84427205993587
 40
14.84427205993587
 40
14.84427205993587
 40
16.52158830012059
 40
16.52158830012059
 40
16.52158830012059
 40
16.52158830012059
 40
16.52158830012059
 40
16.52158830012059
 10
61.67804555427062
 20
-5.49635334845513
 30
0.0
 10
61.1780217011676
 20
-5.092819447651237
 30
0.0
 10
60.71075231571547
 20
-4.627961408386909
 30
0.0
 10
60.28512863147921
 20
-4.097442000535494
 30
0.0
 10
59.63294307054662
 20
-3.036196732164938
 30
0.0
 10
59.21928699190653
 20
-1.802867270944346
 30
0.0
 10
59.0916314935597
 20
-1.235148173171751
 30
0.0
 10
58.97987242319675
 20
-0.2580239611216086
 30
0.0
 10
59.03945370179804
 20
0.7212651368961929
 30
0.0
 10
59.09133212180234
 20
1.111751568417389
 30
0.0
 10
59.20864231354665
 20
1.683657160631128
 30
0.0
 10
59.38087955950891
 20
2.230815676077952
 30
0.0
 10
59.44380741177906
 20
2.409219307911257
 30
0.0
 10
59.51214327678281
 20
2.583976675361753
 30
0.0
 10
59.58569400197678
 20
2.755132898020065
 30
0.0
  0
LINE
  5
20F6E
330
1F
100
AcDbEntity
  8
1
100
AcDbLine
 10
59.58569399999987
 20
2.755133
 30
0.0
 11
63.15405499999986
 21
1.842729999999988
 31
0.0
  0
LINE
  5
20F6F
330
1F
100
AcDbEntity
  8
1
100
AcDbLine
 10
63.82836699999984
 20
1.666395999999991
 30
0.0
 11
63.15405499999986
 21
1.842729999999988
 31
0.0
  0
ARC
  5
20F70
330
1F
100
AcDbEntity
  8
1
100
AcDbCircle
 10
65.84803799999986
 20
7.098515999999989
 30
0.0
 40
5.651432999999999
100
AcDbArc
 50
291.1684149999994
 51
297.634829999999
  0
SPLINE
  5
20F71
330
1F
100
AcDbEntity
  8
1
100
AcDbSpline
210
0.0
220
0.0
230
1.0
 70
     8
 71
     5
 72
    15
 73
     9
 74
     0
 42
0.000000001
 43
0.0000000001
 40
0.0
 40
0.0
 40
0.0
 40
0.0
 40
0.0
 40
0.0
 40
4.668569241752345
 40
4.668569241752345
 40
4.668569241752345
 40
8.019632534013405
 40
8.019632534013405
 40
8.019632534013405
 40
8.019632534013405
 40
8.019632534013405
 40
8.019632534013405
 10
67.88883575378384
 20
1.828409934621902
 30
0.0
 10
67.53552449912513
 20
1.691395131981209
 30
0.0
 10
67.13082311326786
 20
1.567764971728848
 30
0.0
 10
66.68089239738424
 20
1.47400120458613
 30
0.0
 10
65.85126827402916
 20
1.387093787325198
 30
0.0
 10
64.96157885814113
 20
1.441415294392726
 30
0.0
 10
64.58393299543968
 20
1.490592727667404
 30
0.0
 10
64.20492404331435
 20
1.566113154973436
 30
0.0
 10
63.82836692328749
 20
1.666395561012649
 30
0.0
  0
ARC
  5
20F72
330
1F
100
AcDbEntity
  8
1
100
AcDbCircle
 10
64.2775009999998
 20
0.0434970000000021
 30
0.0
 40
4.665639999999998
100
AcDbArc
 50
11.01082300000036
 51
26.04195699999964
  0
ARC
  5
20F73
330
1F
100
AcDbEntity
  8
1
100
AcDbCircle
 10
67.0315979999998
 20
4.908413999999993
 30
0.0
 40
3.161741
100
AcDbArc
 50
297.0424059999999
 51
308.3137390000016
  0
SPLINE
  5
20F74
330
1F
100
AcDbEntity
  8
1
100
AcDbSpline
210
0.0
220
0.0
230
1.0
 70
     8
 71
     5
 72
    15
 73
     9
 74
     0
 42
0.000000001
 43
0.0000000001
 40
0.0
 40
0.0
 40
0.0
 40
0.0
 40
0.0
 40
0.0
 40
1.962575509920475
 40
1.962575509920475
 40
1.962575509920475
 40
2.039307364051647
 40
2.039307364051647
 40
2.039307364051647
 40
2.039307364051647
 40
2.039307364051647
 40
2.039307364051647
 10
68.99118639145218
 20
2.428367946082261
 30
0.0
 10
69.00664370080722
 20
2.441844350249056
 30
0.0
 10
69.00656737751444
 20
2.481182490500316
 30
0.0
 10
68.99572586258614
 20
2.538366489727309
 30
0.0
 10
68.97035035799229
 20
2.625374586311806
 30
0.0
 10
68.91738935849208
 20
2.758927252454157
 30
0.0
 10
68.91535670528668
 20
2.764019603019221
 30
0.0
 10
68.91328385663655
 20
2.769179015778945
 30
0.0
 10
68.91116996300843
 20
2.774406753869982
 30
0.0
  0
ARC
  5
20F75
330
1F
100
AcDbEntity
  8
1
100
AcDbCircle
 10
68.86235399999987
 20
2.721919000000013
 30
0.0
 40
0.07168
100
AcDbArc
 50
23.28960399999995
 51
47.07577300000054
  0
ARC
  5
20F76
330
1F
100
AcDbEntity
  8
1
100
AcDbCircle
 10
64.43179499999985
 20
8.530006000000014
 30
0.0
 40
7.290113
100
AcDbArc
 50
283.3171100000013
 51
306.3176730000016
  0
ARC
  5
20F77
330
1F
100
AcDbEntity
  8
1
100
AcDbCircle
 10
58.23456099999987
 20
3.832566000000014
 30
0.0
 40
0.462887
100
AcDbArc
 50
284.369865000001
 51
294.6936109999988
  0
LINE
  5
20F78
330
1F
100
AcDbEntity
  8
1
100
AcDbLine
 10
58.60190399999988
 20
3.493118000000009
 30
0.0
 11
58.42793199999983
 21
3.412023000000004
 31
0.0
  0
LINE
  5
20F79
330
1F
100
AcDbEntity
  8
1
100
AcDbLine
 10
58.6251679999998
 20
3.43498199999999
 30
0.0
 11
58.60190399999988
 21
3.493118000000009
 31
0.0
  0
ARC
  5
20F7A
330
1F
100
AcDbEntity
  8
1
100
AcDbCircle
 10
60.15814599999988
 20
4.102712999999994
 30
0.0
 40
1.672576999999999
100
AcDbArc
 50
203.5368379999994
 51
225.3552639999985
  0
LINE
  5
20F7B
330
1F
100
AcDbEntity
  8
1
100
AcDbLine
 10
57.15005299999984
 20
4.604309999999998
 30
0.0
 11
58.14667899999983
 21
3.580632000000008
 31
0.0
  0
LINE
  5
20F7C
330
1F
100
AcDbEntity
  8
1
100
AcDbLine
 10
58.14667899999983
 20
3.580632000000008
 30
0.0
 11
58.31382899999983
 21
3.410558000000008
 31
0.0
  0
ARC
  5
20F7D
330
1F
100
AcDbEntity
  8
1
100
AcDbCircle
 10
57.26045499999987
 20
4.708026999999987
 30
0.0
 40
0.151797
100
AcDbArc
 50
134.5189439999991
 51
223.2117870000015
  0
LINE
  5
20F7E
330
1F
100
AcDbEntity
  8
1
100
AcDbLine
 10
58.31703799999991
 20
5.984550000000012
 30
0.0
 11
57.15385099999981
 21
4.816437000000007
 31
0.0
  0
LINE
  5
20F7F
330
1F
100
AcDbEntity
  8
1
100
AcDbLine
 10
58.07433299999991
 20
6.969490000000007
 30
0.0
 11
58.31703799999991
 21
5.984550000000012
 31
0.0
  0
LINE
  5
20F80
330
1F
100
AcDbEntity
  8
1
100
AcDbLine
 10
68.9111689999998
 20
2.774405999999999
 30
0.0
 11
68.7496269999998
 21
2.655788999999998
 31
0.0
  0
ARC
  5
20F81
330
1F
100
AcDbEntity
  8
1
100
AcDbCircle
 10
58.41604499999982
 20
3.513722999999998
 30
0.0
 40
0.146421
100
AcDbArc
 50
270.2995590000014
 51
316.0305829999979
  0
ARC
  5
20F82
330
1F
100
AcDbEntity
  8
1
100
AcDbCircle
 10
58.41726199999982
 20
3.512590999999986
 30
0.0
 40
0.145264
100
AcDbArc
 50
224.6094329999988
 51
269.8215800000008
  0
LINE
  5
20F83
330
1F
100
AcDbEntity
  8
1
100
AcDbLine
 10
58.60190399999988
 20
3.493118000000009
 30
0.0
 11
58.56102799999985
 21
3.452067999999997
 31
0.0
  0
LINE
  5
20F84
330
1F
100
AcDbEntity
  8
1
100
AcDbLine
 10
58.56120299999986
 20
3.452244000000007
 30
0.0
 11
58.5214709999999
 21
3.412023000000004
 31
0.0
  0
ARC
  5
20F85
330
1F
100
AcDbEntity
  8
SK1
100
AcDbCircle
 10
-59.00000000000014
 20
8.875
 30
0.0
 40
1.0
100
AcDbArc
 50
90.0
 51
180.0
  0
ARC
  5
20F86
330
1F
100
AcDbEntity
  8
SK1
100
AcDbCircle
 10
-59.00000000000014
 20
-8.875
 30
0.0
 40
1.0
100
AcDbArc
 50
180.0
 51
270.0
  0
LINE
  5
20F87
330
1F
100
AcDbEntity
  8
SK1
100
AcDbLine
 10
-56.00000000000014
 20
9.875
 30
0.0
 11
-59.00000000000014
 21
9.875
 31
0.0
  0
LINE
  5
20F88
330
1F
100
AcDbEntity
  8
SK1
100
AcDbLine
 10
-56.00000000000014
 20
-9.875
 30
0.0
 11
-59.00000000000014
 21
-9.875
 31
0.0
  0
LINE
  5
20F89
330
1F
100
AcDbEntity
  8
1
100
AcDbLine
 10
9.999999999999857
 20
10.0
 30
0.0
 11
-0.0000000000001421
 21
10.0
 31
0.0
  0
LINE
  5
20F8A
330
1F
100
AcDbEntity
  8
SK1
100
AcDbLine
 10
-0.0000000000001137
 20
10.0
 30
0.0
 11
-56.00000000000014
 21
10.0
 31
0.0
  0
LINE
  5
20F8B
330
1F
100
AcDbEntity
  8
1
100
AcDbLine
 10
9.999999999999857
 20
-10.0
 30
0.0
 11
-0.0000000000001421
 21
-10.0
 31
0.0
  0
LINE
  5
20F8C
330
1F
100
AcDbEntity
  8
SK1
100
AcDbLine
 10
-0.0000000000001421
 20
-10.0
 30
0.0
 11
-56.00000000000014
 21
-10.0
 31
0.0
  0
ARC
  5
20F8D
330
1F
100
AcDbEntity
  8
1
100
AcDbCircle
 10
15.35857099999984
 20
18.44308699999999
 30
0.0
 40
10.0
100
AcDbArc
 50
237.5979460000007
 51
267.0000000000009
  0
ARC
  5
20F8E
330
1F
100
AcDbEntity
  8
1
100
AcDbCircle
 10
15.35857099999984
 20
-18.44308699999999
 30
0.0
 40
10.0
100
AcDbArc
 50
92.9999999999991
 51
122.4020539999993
  0
LINE
  5
20F8F
330
1F
100
AcDbEntity
  8
1
100
AcDbLine
 10
34.21549899999988
 20
7.441113999999998
 30
0.0
 11
14.83521099999987
 21
8.456792000000007
 31
0.0
  0
LINE
  5
20F90
330
1F
100
AcDbEntity
  8
1
100
AcDbLine
 10
34.21549899999988
 20
-7.441113999999998
 30
0.0
 11
14.83521099999987
 21
-8.456792000000007
 31
0.0
  0
ARC
  5
20F91
330
1F
100
AcDbEntity
  8
1
100
AcDbCircle
 10
35.78557799999984
 20
37.40000000000001
 30
0.0
 40
30.0
100
AcDbArc
 50
267.0000000000009
 51
270.0
  0
ARC
  5
20F92
330
1F
100
AcDbEntity
  8
1
100
AcDbCircle
 10
35.78557799999984
 20
-37.40000000000001
 30
0.0
 40
30.0
100
AcDbArc
 50
90.0
 51
92.9999999999991
  0
LINE
  5
20F93
330
1F
100
AcDbEntity
  8
1
100
AcDbLine
 10
57.21123699999987
 20
7.400000000000005
 30
0.0
 11
35.78557799999984
 21
7.400000000000005
 31
0.0
  0
LINE
  5
20F94
330
1F
100
AcDbEntity
  8
1
100
AcDbLine
 10
59.68128299999989
 20
-7.400000000000005
 30
0.0
 11
35.78557799999984
 21
-7.400000000000005
 31
0.0
  0
ARC
  5
20F95
330
1F
100
AcDbEntity
  8
1
100
AcDbCircle
 10
62.59998599999983
 20
-0.0000080000000082
 30
0.0
 40
6.900014999999998
100
AcDbArc
 50
3.770193000000296
 51
23.48998400000001
  0
POINT
  5
20F96
330
1F
100
AcDbEntity
  8
1
100
AcDbPoint
 10
62.00202799999988
 20
7.999937999999986
 30
0.0
  0
POINT
  5
20F99
330
1F
100
AcDbEntity
  8
1
100
AcDbPoint
 10
69.99999999999989
 20
7.999939000000011
 30
0.0
  0
LINE
  5
20F9A
330
1F
100
AcDbEntity
  8
SK3
100
AcDbLine
 10
-58.00000000000011
 20
2.0
 30
0.0
 11
-58.00000000000011
 21
-0.9588509999999956
 31
0.0
  0
LINE
  5
20F9B
330
1F
100
AcDbEntity
  8
3
100
AcDbLine
 10
55.27205999999989
 20
0.9588509999999956
 30
0.0
 11
55.27205999999989
 21
-2.0
 31
0.0
  0
LINE
  5
20F9C
330
1F
100
AcDbEntity
  8
3
100
AcDbLine
 10
55.27205999999989
 20
2.0
 30
0.0
 11
55.27205999999989
 21
-0.9588509999999956
 31
0.0
  0
LINE
  5
20F9D
330
1F
100
AcDbEntity
  8
SK3
100
AcDbLine
 10
-58.00000000000011
 20
0.9588509999999956
 30
0.0
 11
-58.00000000000011
 21
-2.0
 31
0.0
  0
LINE
  5
20F9E
330
1F
100
AcDbEntity
  8
SK3
100
AcDbLine
 10
-58.00000000000011
 20
2.0
 30
0.0
 11
-60.00000000000011
 21
3.154701000000002
 31
0.0
  0
LINE
  5
20F9F
330
1F
100
AcDbEntity
  8
NOCUT
100
AcDbLine
 10
9.999999999999886
 20
10.0
 30
0.0
 11
-0.0000000000001137
 21
10.0
 31
0.0
  0
ARC
  5
20FA0
330
1F
100
AcDbEntity
  8
NOCUT
100
AcDbCircle
 10
15.35857099999987
 20
18.44308699999999
 30
0.0
 40
10.0
100
AcDbArc
 50
237.5979460000007
 51
267.0000000000009
  0
LINE
  5
20FA1
330
1F
100
AcDbEntity
  8
NOCUT
100
AcDbLine
 10
34.21549899999991
 20
7.441113999999998
 30
0.0
 11
14.8352109999999
 21
8.456791999999992
 31
0.0
  0
ARC
  5
20FA2
330
1F
100
AcDbEntity
  8
NOCUT
100
AcDbCircle
 10
35.78557799999988
 20
37.39999999999999
 30
0.0
 40
30.0
100
AcDbArc
 50
267.0000000000009
 51
270.0
  0
LINE
  5
20FA3
330
1F
100
AcDbEntity
  8
NOCUT
100
AcDbLine
 10
61.67804599999988
 20
7.400000000000005
 30
0.0
 11
35.78557799999988
 21
7.400000000000005
 31
0.0
  0
ARC
  5
20FA4
330
1F
100
AcDbEntity
  8
NOCUT
100
AcDbCircle
 10
61.67804599999988
 20
-0.5999999999999944
 30
0.0
 40
8.0
100
AcDbArc
 50
33.05573099999861
 51
90.0
  0
ARC
  5
20FA5
330
1F
100
AcDbEntity
  8
NOCUT
100
AcDbCircle
 10
62.5999999999999
 20
0.0
 30
0.0
 40
6.9
100
AcDbArc
 50
0.0
 51
33.05573099999861
  0
LINE
  5
20FA6
330
1F
100
AcDbEntity
  8
3
100
AcDbLine
 10
55.99999999999988
 20
0.0
 30
0.0
 11
55.27205999999989
 21
-2.0
 31
0.0
  0
LINE
  5
20FA7
330
1F
100
AcDbEntity
  8
3
100
AcDbLine
 10
55.99999999999988
 20
0.0
 30
0.0
 11
55.27205999999989
 21
2.0
 31
0.0
  0
LINE
  5
20FA8
330
1F
100
AcDbEntity
  8
3
100
AcDbLine
 10
55.27205999999989
 20
-2.0
 30
0.0
 11
-0.0000000000001137
 21
-2.0
 31
0.0
  0
LINE
  5
20FA9
330
1F
100
AcDbEntity
  8
3
100
AcDbLine
 10
55.27205999999989
 20
2.0
 30
0.0
 11
-0.0000000000001137
 21
2.0
 31
0.0
  0
LINE
  5
20FAA
330
1F
100
AcDbEntity
  8
SK3
100
AcDbLine
 10
-58.00000000000011
 20
-2.0
 30
0.0
 11
-60.00000000000011
 21
-3.154701000000002
 31
0.0
  0
LINE
  5
20FAB
330
1F
100
AcDbEntity
  8
CUT
100
AcDbLine
 10
62.00520505917359
 20
7.993798940191808
 30
0.0
 11
58.17136505917358
 21
7.993798940191808
 31
0.0
  0
LINE
  5
20FAC
330
1F
100
AcDbEntity
  8
CUT
100
AcDbLine
 10
58.17136505917358
 20
7.993798940191808
 30
0.0
 11
58.17136505917358
 21
-0.0061630598081877
 31
0.0
  0
LINE
  5
20FAD
330
1F
100
AcDbEntity
  8
CUT
100
AcDbLine
 10
58.17136505917358
 20
-0.0061630598081877
 30
0.0
 11
70.00136505917351
 21
-0.0061630598081877
 31
0.0
  0
ARC
  5
20FAE
330
1F
100
AcDbEntity
  8
CUT
100
AcDbCircle
 10
65.56829605917357
 20
0.0526199401918177
 30
0.0
 40
4.433459
100
AcDbArc
 50
359.2402949999999
 51
2.889346000000057
  0
LINE
  5
20FAF
330
1F
100
AcDbEntity
  8
CUT
100
AcDbLine
 10
69.99605105917351
 20
0.2853849401918182
 30
0.0
 11
69.99611905917356
 21
0.2760979401918178
 31
0.0
  0
ARC
  5
20FB0
330
1F
100
AcDbEntity
  8
CUT
100
AcDbCircle
 10
62.01132105917349
 20
-0.0050520598081931
 30
0.0
 40
7.989958999999998
100
AcDbArc
 50
2.083154999999769
 51
8.013961000000389
  0
ARC
  5
20FB1
330
1F
100
AcDbEntity
  8
CUT
100
AcDbCircle
 10
62.00136205917352
 20
-0.0061880598081814
 30
0.0
 40
7.999983
100
AcDbArc
 50
8.012077999999869
 51
89.97247900000074
  0
POINT
  5
20FB2
330
1F
100
AcDbEntity
  8
CUT
100
AcDbPoint
 10
70.00136505917351
 20
7.993798940191808
 30
0.0
  0
DIMENSION
  5
20FB3
330
1F
100
AcDbEntity
  8
SK2
100
AcDbDimension
  2
*D27
 10
-74.1152079854694
 20
-9.999999999999994
 30
0.0
 11
-76.06834923634782
 21
-0.0000000000000059
 31
0.0
 70
    32
  1
%%C<>
 71
     5
 42
20.0
  3
STANDARD
100
AcDbAlignedDimension
 13
-56.00000000000014
 23
10.0
 33
0.0
 14
-56.00000000000014
 24
-10.0
 34
0.0
 50
90.0
100
AcDbRotatedDimension
  0
DIMENSION
  5
20FB4
330
1F
100
AcDbEntity
  8
SK2
100
AcDbDimension
  2
*D28
 10
70.00136534065529
 20
-36.8962272410177
 30
0.0
 11
5.000682670327581
 21
-34.99473743075768
 31
0.0
 70
    32
 71
     5
 42
130.0013653406554
  3
STANDARD
100
AcDbAlignedDimension
 13
-60.00000000000014
 23
-8.875
 33
0.0
 14
70.00136534065529
 24
-0.006163137851118
 34
0.0
100
AcDbRotatedDimension
1001
ACAD
1000
DSTYLE
1002
{
1070
   271
1070
     0
1002
}
  0
DIMENSION
  5
20FB5
330
1F
100
AcDbEntity
  8
2
100
AcDbDimension
  2
*D29
 10
70.00791013120625
 20
40.10967935499638
 30
0.0
 11
40.00395525060543
 21
42.01116916525641
 31
0.0
 70
    32
 71
     5
 42
60.00790976120163
  3
STANDARD
100
AcDbAlignedDimension
 13
10.00000037000461
 23
9.999999839289614
 33
0.0
 14
70.00791013120625
 24
8.003839184100058
 34
0.0
100
AcDbRotatedDimension
1001
ACAD
1000
DSTYLE
1002
{
1070
   271
1070
     0
1002
}
  0
DIMENSION
  5
20FBB
330
1F
100
AcDbEntity
  8
2
100
AcDbDimension
  2
*D31
 10
70.00791013120625
 20
21.17248534979183
 30
0.0
 11
52.52394939065681
 21
23.07397516005184
 31
0.0
 70
    32
 71
     5
 42
34.96792148109887
  3
STANDARD
100
AcDbAlignedDimension
 13
35.03998865010738
 23
9.395328106170438
 33
0.0
 14
70.00791013120625
 24
8.003839184100058
 34
0.0
100
AcDbRotatedDimension
1001
ACAD
1000
DSTYLE
1002
{
1070
   271
1070
     0
1002
}
  0
INSERT
  5
20FBE
330
1F
100
AcDbEntity
  8
0
100
AcDbBlockReference
 66
     1
  2
Name
 10
-21.57084594505932
 20
-60.79638572321858
 30
0.0
  0
ATTRIB
  5
20FBF
102
{ACAD_XDICTIONARY
360
20FC0
102
}
330
20FBE
100
AcDbEntity
  8
SKVIEW63
100
AcDbText
 10
-21.48033856065106
 20
-60.7489099267434
 30
0.0
 40
3.5
  1
1TW8Q016060T3R00
 41
0.8
  7
BMG_Text
100
AcDbAttribute
  2
NAME
 70
     0
  0
SEQEND
  5
20FC4
330
20FBE
100
AcDbEntity
  8
0
  0
DIMENSION
  5
21123
330
1F
100
AcDbEntity
  8
2
100
AcDbDimension
  2
*D35
 10
96.53713938481155
 20
7.993798940191799
 30
0.0
 11
94.58399813393311
 21
-0.0042677289497423
 31
0.0
 70
    32
  1
%%C<>
 71
     5
 42
15.99613333828311
  3
STANDARD
100
AcDbAlignedDimension
 13
61.97902892723369
 23
-8.002334398091306
 33
0.0
 14
62.00520505917359
 24
7.993798940191808
 34
0.0
 50
90.0
100
AcDbRotatedDimension
1001
ACAD
1000
DSTYLE
1002
{
1070
   271
1070
     0
1002
}
  0
DIMENSION
  5
2118A
330
1F
100
AcDbEntity
  8
2
100
AcDbDimension
  2
*D36
 10
70.00136505917351
 20
30.89416384804463
 30
0.0
 11
46.7769275295867
 21
32.79565365830464
 31
0.0
 70
    32
 71
     5
 42
46.44887505917361
  3
STANDARD
100
AcDbAlignedDimension
 13
23.55248999999989
 23
7.999939000000011
 33
0.0
 14
70.00136505917351
 24
7.993798940191808
 34
0.0
100
AcDbRotatedDimension
1001
ACAD
1000
DSTYLE
1002
{
1070
   271
1070
     0
1002
}
  0
DIMENSION
  5
211B4
330
1F
100
AcDbEntity
  8
2
100
AcDbDimension
  2
*D37
 10
70.00791013120625
 20
13.63921248004544
 30
0.0
 11
64.09867557296627
 21
15.54070229030546
 31
0.0
 70
    32
 71
     5
 42
11.81846911647994
  3
STANDARD
100
AcDbAlignedDimension
 13
58.1894410147263
 23
9.601025686773709
 33
0.0
 14
70.00791013120625
 24
8.003839184100058
 34
0.0
100
AcDbRotatedDimension
1001
ACAD
1000
DSTYLE
1002
{
1070
   271
1070
     1
1002
}
1001
ACAD_DSTYLE_DIMFLIPARROW_WHICH_SYMBOL
1070
   386
1070
     3
  0
LINE
  5
21261
330
1F
100
AcDbEntity
  8
SK3
100
AcDbLine
 10
-0.0000000000001137
 20
-2.0
 30
0.0
 11
-58.00000000000011
 21
-2.0
 31
0.0
  0
LINE
  5
21262
330
1F
100
AcDbEntity
  8
SK3
100
AcDbLine
 10
-0.0000000000001137
 20
2.0
 30
0.0
 11
-58.00000000000011
 21
2.0
 31
0.0
  0
LINE
  5
21263
330
1F
100
AcDbEntity
  8
SK4
100
AcDbLine
 10
-0.0000000000001499
 20
0.0
 30
0.0
 11
73.81190499999985
 21
0.0
 31
0.0
  0
VIEWPORT
  5
9C00
102
{ACAD_XDICTIONARY
360
212F7
102
}
330
1B
100
AcDbEntity
 67
     1
  8
0
100
AcDbViewport
 10
108.2280559557949
 20
71.69854161746989
 30
0.0
 40
251.8950231529317
 41
201.8884082081047
 68
     1
 69
     1
 12
108.2280559557949
 22
71.69854161746989
 13
0.0
 23
0.0
 14
10.0
 24
10.0
 15
10.0
 25
10.0
 16
0.0
 26
0.0
 36
1.0
 17
0.0
 27
0.0
 37
0.0
 42
50.0
 43
0.0
 44
0.0
 45
201.8884082081047
 50
0.0
 51
0.0
 72
   100
 90
   557088
  1

281
     0
 71
     1
 74
     0
110
0.0
120
0.0
130
0.0
111
1.0
121
0.0
131
0.0
112
0.0
122
1.0
132
0.0
 79
     0
146
0.0
  0
VIEWPORT
  5
9C02
102
{ACAD_XDICTIONARY
360
212F9
102
}
330
1B
100
AcDbEntity
 67
     1
  8
1
100
AcDbViewport
 10
143.457083940506
 20
98.18158769607544
 30
0.0
 40
229.5313343048095
 41
157.0905403137207
 68
     2
 69
     2
 12
-44.37697124786255
 22
-35.12342998133886
 13
0.0
 23
0.0
 14
10.0
 24
10.0
 15
10.0
 25
10.0
 16
0.0
 26
0.0
 36
1.0
 17
0.0
 27
0.0
 37
0.0
 42
50.0
 43
0.0
 44
0.0
 45
300.3886240724386
 50
0.0
 51
0.0
 72
   100
 90
   557088
  1

281
     0
 71
     1
 74
     0
110
0.0
120
0.0
130
0.0
111
1.0
121
0.0
131
0.0
112
0.0
122
1.0
132
0.0
 79
     0
146
0.0
  0
ENDSEC
  0
SECTION
  2
OBJECTS
  0
DICTIONARY
  5
3182
330
0
100
AcDbDictionary
281
     1
  3
ACAD_CIP_PREVIOUS_PRODUCT_INFO
350
1B2F4
  3
ACAD_COLOR
350
31A0
  3
ACAD_DETAILVIEWSTYLE
350
1B2F0
  3
ACAD_FIELDLIST
350
20CBF
  3
ACAD_GROUP
350
3183
  3
ACAD_LAYOUT
350
31A5
  3
ACAD_MATERIAL
350
318B
  3
ACAD_MLEADERSTYLE
350
1B221
  3
ACAD_MLINESTYLE
350
3184
  3
ACAD_PLOTSETTINGS
350
31A4
  3
ACAD_PLOTSTYLENAME
350
3189
  3
ACAD_SCALELIST
350
1B1FC
  3
ACAD_SECTIONVIEWSTYLE
350
1B2EE
  3
ACAD_TABLESTYLE
350
31A1
  3
ACAD_VISUALSTYLE
350
318F
  3
ACDB_RECOMPOSE_DATA
350
212C9
  3
AcDbVariableDictionary
350
33A3
  3
AcDsDecomposeData
350
212D0
  3
AEC_PROPERTY_SET_DEFS
350
20E86
  3
DWGPROPS
350
212CA
  0
DICTIONARY
  5
422A
330
2
100
AcDbDictionary
280
     1
281
     1
  3
ACAD_LAYERFILTERS
360
1B063
  3
ACAD_LAYERSTATES
360
9A1C
  3
ACLYDICTIONARY
360
1B062
  0
DICTIONARY
  5
1B2F5
330
10
100
AcDbDictionary
280
     1
281
     1
  3
ADSK_XREC_LAYER_RECONCILED
360
21094
  0
DICTIONARY
  5
1B2F7
330
3F8C
100
AcDbDictionary
280
     1
281
     1
  3
ADSK_XREC_LAYER_RECONCILED
360
21095
  0
DICTIONARY
  5
1B2F9
330
9C4A
100
AcDbDictionary
280
     1
281
     1
  3
ADSK_XREC_LAYER_RECONCILED
360
21096
  0
DICTIONARY
  5
1B2FD
330
9C4D
100
AcDbDictionary
280
     1
281
     1
  3
ADSK_XREC_LAYER_RECONCILED
360
21098
  0
DICTIONARY
  5
1B2FF
330
9C4E
100
AcDbDictionary
280
     1
281
     1
  3
ADSK_XREC_LAYER_RECONCILED
360
21099
  0
DICTIONARY
  5
1B301
330
9C4F
100
AcDbDictionary
280
     1
281
     1
  3
ADSK_XREC_LAYER_RECONCILED
360
2109A
  0
DICTIONARY
  5
1B303
330
9C50
100
AcDbDictionary
280
     1
281
     1
  3
ADSK_XREC_LAYER_RECONCILED
360
2109B
  0
DICTIONARY
  5
1B305
330
9C51
100
AcDbDictionary
280
     1
281
     1
  3
ADSK_XREC_LAYER_RECONCILED
360
2109C
  0
DICTIONARY
  5
1B307
330
13335
100
AcDbDictionary
280
     1
281
     1
  3
ADSK_XREC_LAYER_RECONCILED
360
2109D
  0
DICTIONARY
  5
20A84
330
20A83
100
AcDbDictionary
280
     1
281
     1
  3
ADSK_XREC_LAYER_RECONCILED
360
2109F
  0
DICTIONARY
  5
210A0
330
20A91
100
AcDbDictionary
280
     1
281
     1
  3
ADSK_XREC_LAYER_RECONCILED
360
210A1
  0
DICTIONARY
  5
20AE1
330
20AE0
100
AcDbDictionary
280
     1
281
     1
  3
ADSK_XREC_LAYER_RECONCILED
360
210A8
  0
DICTIONARY
  5
339C
330
1F
100
AcDbDictionary
280
     1
281
     1
  3
ACAD_SORTENTS
360
339D
  0
DICTIONARY
  5
1DE81
330
1B3D7
100
AcDbDictionary
280
     1
281
     1
  3
AcDbBlockTableRecordData
360
21311
  0
DICTIONARY
  5
20CA6
330
20CA5
100
AcDbDictionary
280
     1
281
     1
  3
AcDbBlockTableRecordData
360
21315
  0
DICTIONARY
  5
20CA9
330
20CA8
100
AcDbDictionary
280
     1
281
     1
  3
ACAD_FIELD
360
20CAA
  0
DICTIONARY
  5
20FC0
330
20FBF
100
AcDbDictionary
280
     1
281
     1
  3
ACAD_FIELD
360
20FC1
  0
DICTIONARY
  5
212F7
330
9C00
100
AcDbDictionary
280
     1
281
     1
  3
ACAD_XREC_ROUNDTRIP
360
212F8
  0
DICTIONARY
  5
212F9
330
9C02
100
AcDbDictionary
280
     1
281
     1
  3
ACAD_XREC_ROUNDTRIP
360
212FA
  0
XRECORD
  5
1B2F4
102
{ACAD_REACTORS
330
3182
102
}
330
3182
100
AcDbXrecord
280
     1
300
ACDLT
300
2015
300
ACDLT_F_S
  0
DICTIONARY
  5
31A0
102
{ACAD_REACTORS
330
3182
102
}
330
3182
100
AcDbDictionary
281
     1
  0
DICTIONARY
  5
1B2F0
102
{ACAD_REACTORS
330
3182
102
}
330
3182
100
AcDbDictionary
281
     1
  3
Imperial24
350
20CB3
  3
Metric50
350
1B2F1
  0
FIELDLIST
  5
20CBF
102
{ACAD_REACTORS
330
3182
102
}
330
3182
100
AcDbIdSet
 90
       10
330
20CAB
330
20CAC
330
20CBA
330
20CBB
330
20CC6
330
20CC7
330
20FC2
330
20FC3
330
20E7F
330
20E80
100
AcDbFieldList
  0
DICTIONARY
  5
3183
102
{ACAD_REACTORS
330
3182
102
}
330
3182
100
AcDbDictionary
281
     1
  0
DICTIONARY
  5
31A5
102
{ACAD_REACTORS
330
3182
102
}
330
3182
100
AcDbDictionary
281
     1
  3
Layout1
350
31A7
  3
Model
350
31A6
  0
DICTIONARY
  5
318B
102
{ACAD_REACTORS
330
3182
102
}
330
3182
100
AcDbDictionary
281
     1
  3
ByBlock
350
318D
  3
ByLayer
350
318C
  3
Global
350
318E
  0
DICTIONARY
  5
1B221
102
{ACAD_REACTORS
330
3182
102
}
330
3182
100
AcDbDictionary
281
     1
  3
Standard
350
1B2ED
  0
DICTIONARY
  5
3184
102
{ACAD_REACTORS
330
3182
102
}
330
3182
100
AcDbDictionary
281
     1
  3
STANDARD
350
3185
  0
DICTIONARY
  5
31A4
102
{ACAD_REACTORS
330
3182
102
}
330
3182
100
AcDbDictionary
281
     1
  0
ACDBDICTIONARYWDFLT
  5
3189
102
{ACAD_REACTORS
330
3182
102
}
330
3182
100
AcDbDictionary
281
     1
  3
Normal
350
318A
100
AcDbDictionaryWithDefault
340
318A
  0
DICTIONARY
  5
1B1FC
102
{ACAD_REACTORS
330
3182
102
}
330
3182
100
AcDbDictionary
281
     1
  3
A0
350
1B1FD
  3
A1
350
1B1FE
  3
A2
350
1B1FF
  3
A3
350
1B200
  3
A4
350
1B201
  3
A5
350
1B202
  3
A6
350
1B203
  3
A7
350
1B204
  3
A8
350
1B205
  3
A9
350
1B206
  3
B0
350
1B207
  3
B1
350
1B208
  3
B2
350
1B209
  3
B3
350
1B20A
  3
B4
350
1B20B
  3
B5
350
1B20C
  3
B6
350
1B20D
  3
B7
350
1B20E
  3
B8
350
1B20F
  3
B9
350
1B210
  3
C0
350
1B211
  3
C1
350
1B212
  3
C2
350
1B213
  3
C3
350
1B214
  3
C4
350
1B215
  3
C5
350
1B216
  3
C6
350
1B217
  3
C7
350
1B218
  3
C8
350
1B219
  3
C9
350
1B21A
  3
D0
350
1B21B
  3
D1
350
1B21C
  3
D2
350
1B21D
  0
DICTIONARY
  5
1B2EE
102
{ACAD_REACTORS
330
3182
102
}
330
3182
100
AcDbDictionary
281
     1
  3
Imperial24
350
20CB1
  3
Metric50
350
1B2EF
  0
DICTIONARY
  5
31A1
102
{ACAD_REACTORS
330
3182
102
}
330
3182
100
AcDbDictionary
281
     1
  3
Standard
350
31A2
  0
DICTIONARY
  5
318F
102
{ACAD_REACTORS
330
3182
102
}
330
3182
100
AcDbDictionary
281
     1
  3
2dWireframe
350
3195
  3
3D Hidden
350
3197
  3
3dWireframe
350
3196
  3
Basic
350
3194
  3
Brighten
350
319B
  3
ColorChange
350
319F
  3
Conceptual
350
3198
  3
Dim
350
319A
  3
EdgeColorOff
350
1B2EC
  3
Facepattern
350
319E
  3
Flat
350
3190
  3
FlatWithEdges
350
3191
  3
Gouraud
350
3192
  3
GouraudWithEdges
350
3193
  3
Hidden
350
1B2E4
  3
JitterOff
350
1B2EA
  3
Linepattern
350
319D
  3
OverhangOff
350
1B2EB
  3
Realistic
350
3199
  3
Shaded
350
1B2E9
  3
Shaded with edges
350
1B2E8
  3
Shades of Gray
350
1B2E5
  3
Sketchy
350
1B2E6
  3
Thicken
350
319C
  3
Wireframe
350
1B2E3
  3
X-Ray
350
1B2E7
  0
XRECORD
  5
212C9
102
{ACAD_REACTORS
330
3182
102
}
330
3182
100
AcDbXrecord
280
     1
 90
        1
330
31A2
  0
DICTIONARY
  5
33A3
102
{ACAD_REACTORS
330
3182
102
}
330
3182
100
AcDbDictionary
281
     1
  3
CANNOSCALE
350
1B222
  3
CMLEADERSTYLE
350
1B30F
  3
CTABLESTYLE
350
33A4
  3
CVIEWDETAILSTYLE
350
1B310
  3
CVIEWSECTIONSTYLE
350
1B311
  3
DIMASSOC
350
9BE8
  3
INDEXCTL
350
9BE7
  3
LAYEREVAL
350
20993
  3
LAYERNOTIFY
350
20994
  3
LIGHTINGUNITS
350
20992
  3
MSLTSCALE
350
20991
  3
SORTENTS
350
9BE6
  3
XCLIPFRAME
350
1FAAB
  0
DICTIONARY
  5
212D0
102
{ACAD_REACTORS
330
3182
102
}
330
3182
100
AcDbDictionary
281
     1
  3
AcDsRecords
350
212D2
  3
AcDsSchemas
350
212D1
1001
ACAD
1070
     2
  0
DICTIONARY
  5
20E86
102
{ACAD_REACTORS
330
3182
102
}
330
3182
100
AcDbDictionary
281
     1
  0
XRECORD
  5
212CA
102
{ACAD_REACTORS
330
3182
102
}
330
3182
100
AcDbXrecord
280
     1
  1
DWGPROPS COOKIE
  2

  3

  4

  6

  7

  8
bendera
  9

300
=
301
=
302
=
303
=
304
=
305
=
306
=
307
=
308
=
309
=
 40
0.0091487847222222
 41
2457394.646746019
 42
2457394.655893646
  1

 90
        0
  0
DICTIONARY
  5
1B063
102
{ACAD_REACTORS
330
422A
102
}
330
422A
100
AcDbDictionary
281
     1
  0
DICTIONARY
  5
9A1C
102
{ACAD_REACTORS
330
422A
102
}
330
422A
100
AcDbDictionary
281
     1
  0
DICTIONARY
  5
1B062
102
{ACAD_REACTORS
330
422A
102
}
330
422A
100
AcDbDictionary
281
     1
1001
ACAD
1000
<All
  0
XRECORD
  5
21094
102
{ACAD_REACTORS
330
1B2F5
102
}
330
1B2F5
100
AcDbXrecord
280
     1
290
     1
  0
XRECORD
  5
21095
102
{ACAD_REACTORS
330
1B2F7
102
}
330
1B2F7
100
AcDbXrecord
280
     1
290
     1
  0
XRECORD
  5
21096
102
{ACAD_REACTORS
330
1B2F9
102
}
330
1B2F9
100
AcDbXrecord
280
     1
290
     1
  0
XRECORD
  5
21098
102
{ACAD_REACTORS
330
1B2FD
102
}
330
1B2FD
100
AcDbXrecord
280
     1
290
     1
  0
XRECORD
  5
21099
102
{ACAD_REACTORS
330
1B2FF
102
}
330
1B2FF
100
AcDbXrecord
280
     1
290
     1
  0
XRECORD
  5
2109A
102
{ACAD_REACTORS
330
1B301
102
}
330
1B301
100
AcDbXrecord
280
     1
290
     1
  0
XRECORD
  5
2109B
102
{ACAD_REACTORS
330
1B303
102
}
330
1B303
100
AcDbXrecord
280
     1
290
     1
  0
XRECORD
  5
2109C
102
{ACAD_REACTORS
330
1B305
102
}
330
1B305
100
AcDbXrecord
280
     1
290
     1
  0
XRECORD
  5
2109D
102
{ACAD_REACTORS
330
1B307
102
}
330
1B307
100
AcDbXrecord
280
     1
290
     1
  0
XRECORD
  5
2109F
102
{ACAD_REACTORS
330
20A84
102
}
330
20A84
100
AcDbXrecord
280
     1
290
     1
  0
XRECORD
  5
210A1
102
{ACAD_REACTORS
330
210A0
102
}
330
210A0
100
AcDbXrecord
280
     1
290
     1
  0
XRECORD
  5
210A8
102
{ACAD_REACTORS
330
20AE1
102
}
330
20AE1
100
AcDbXrecord
280
     1
290
     1
  0
SORTENTSTABLE
  5
339D
102
{ACAD_REACTORS
330
339C
102
}
330
339C
100
AcDbSortentsTable
330
1F
331
20FBE
  5
211B4
331
20EB7
  5
20EB8
331
20EB6
  5
20EB7
331
20EA7
  5
20EA8
331
20FBB
  5
2118A
331
20EB5
  5
20EB6
331
20EA6
  5
20EA7
331
20E97
  5
20E98
331
20EB4
  5
20EB5
331
20EA5
  5
20EA6
331
20E96
  5
20E97
331
20EB3
  5
20EB4
331
20EA4
  5
20EA5
331
20E95
  5
20E96
331
20EB2
  5
20EB3
331
20EA3
  5
20EA4
331
20E94
  5
20E95
331
20EB1
  5
20EB2
331
20EA2
  5
20EA3
331
20E93
  5
20E94
331
20EBF
  5
20EC0
331
20EB0
  5
20EB1
331
20EA1
  5
20EA2
331
20E92
  5
20E93
331
20FB5
  5
20FB8
331
20EBE
  5
20EBF
331
20EAF
  5
20EB0
331
20EA0
  5
20EA1
331
20E91
  5
20E92
331
20A18
  5
20A18
331
20FB4
  5
20FB7
331
20EBD
  5
20EBE
331
20EAE
  5
20EAF
331
20E9F
  5
20EA0
331
20E90
  5
20E91
331
20FB3
  5
20FB6
331
20EBC
  5
20EBD
331
20EAD
  5
20EAE
331
20E9E
  5
20E9F
331
20E8F
  5
20E90
331
20FB2
  5
20FB5
331
20EBB
  5
20EBC
331
20EAC
  5
20EAD
331
20E9D
  5
20E9E
331
20FB1
  5
20FB4
331
20EBA
  5
20EBB
331
20EAB
  5
20EAC
331
20E9C
  5
20E9D
331
20FB0
  5
20FB3
331
20EB9
  5
20EBA
331
20EAA
  5
20EAB
331
20E9B
  5
20E9C
331
20E8C
  5
20E8C
331
20EB8
  5
20EB9
331
20EA9
  5
20EAA
331
20E9A
  5
20E9B
331
20E8B
  5
20E8B
331
20EA8
  5
20EA9
331
20E99
  5
20E9A
331
20E8A
  5
20E8A
331
20E98
  5
20E99
331
20E89
  5
20E89
331
20E88
  5
20E88
331
21123
  5
21260
331
2118A
  5
21261
331
21263
  5
20E8D
331
21262
  5
20FAC
331
211B4
  5
21262
331
21261
  5
20FAA
331
20F2F
  5
20F30
331
20F2E
  5
20F2F
331
20F1F
  5
20F20
331
20F2D
  5
20F2E
331
20F1E
  5
20F1F
331
20F0F
  5
20F10
331
20F2C
  5
20F2D
331
20F1D
  5
20F1E
331
20F0E
  5
20F0F
331
20EFF
  5
20F00
331
20F2B
  5
20F2C
331
20F1C
  5
20F1D
331
20F0D
  5
20F0E
331
20EFE
  5
20EFF
331
20EEF
  5
20EF0
331
20F2A
  5
20F2B
331
20F1B
  5
20F1C
331
20F0C
  5
20F0D
331
20EFD
  5
20EFE
331
20EEE
  5
20EEF
331
20EDF
  5
20EE0
331
20F29
  5
20F2A
331
20F1A
  5
20F1B
331
20F0B
  5
20F0C
331
20EFC
  5
20EFD
331
20EED
  5
20EEE
331
20EDE
  5
20EDF
331
20ECF
  5
20ED0
331
20F37
  5
20F38
331
20F28
  5
20F29
331
20F19
  5
20F1A
331
20F0A
  5
20F0B
331
20EFB
  5
20EFC
331
20EEC
  5
20EED
331
20EDD
  5
20EDE
331
20ECE
  5
20ECF
331
20F36
  5
20F37
331
20F27
  5
20F28
331
20F18
  5
20F19
331
20F09
  5
20F0A
331
20EFA
  5
20EFB
331
20EEB
  5
20EEC
331
20EDC
  5
20EDD
331
20FA7
  5
20FA8
331
20ECD
  5
20ECE
331
20F35
  5
20F36
331
20F26
  5
20F27
331
20F17
  5
20F18
331
20F08
  5
20F09
331
20EF9
  5
20EFA
331
20EEA
  5
20EEB
331
20EDB
  5
20EDC
331
20FA6
  5
20FA7
331
20ECC
  5
20ECD
331
20F34
  5
20F35
331
20F25
  5
20F26
331
20F16
  5
20F17
331
20F07
  5
20F08
331
20EF8
  5
20EF9
331
20EE9
  5
20EEA
331
20EDA
  5
20EDB
331
20FA5
  5
20FA6
331
20ECB
  5
20ECC
331
20F87
  5
20F88
331
20F96
  5
20F97
331
20F33
  5
20F34
331
20F24
  5
20F25
331
20F15
  5
20F16
331
20F06
  5
20F07
331
20EF7
  5
20EF8
331
20EE8
  5
20EE9
331
20ED9
  5
20EDA
331
20FA4
  5
20FA5
331
20ECA
  5
20ECB
331
20F86
  5
20F87
331
20F77
  5
20F78
331
20F95
  5
20F96
331
20F32
  5
20F33
331
20F23
  5
20F24
331
20F14
  5
20F15
331
20F05
  5
20F06
331
20EF6
  5
20EF7
331
20EE7
  5
20EE8
331
20ED8
  5
20ED9
331
20FA3
  5
20FA4
331
20EC9
  5
20ECA
331
20F85
  5
20F86
331
20F76
  5
20F77
331
20F67
  5
20F68
331
20F94
  5
20F95
331
20F31
  5
20F32
331
20F22
  5
20F23
331
20F13
  5
20F14
331
20F04
  5
20F05
331
20EF5
  5
20EF6
331
20EE6
  5
20EE7
331
20ED7
  5
20ED8
331
20FA2
  5
20FA3
331
20EC8
  5
20EC9
331
20F84
  5
20F85
331
20F75
  5
20F76
331
20F66
  5
20F67
331
20F57
  5
20F58
331
20F93
  5
20F94
331
20F30
  5
20F31
331
20F21
  5
20F22
331
20F12
  5
20F13
331
20F03
  5
20F04
331
20EF4
  5
20EF5
331
20EE5
  5
20EE6
331
20ED6
  5
20ED7
331
20FA1
  5
20FA2
331
20EC7
  5
20EC8
331
20F83
  5
20F84
331
20F74
  5
20F75
331
20F65
  5
20F66
331
20F56
  5
20F57
331
20F47
  5
20F48
331
20F92
  5
20F93
331
20F20
  5
20F21
331
20F11
  5
20F12
331
20F02
  5
20F03
331
20EF3
  5
20EF4
331
20EE4
  5
20EE5
331
20ED5
  5
20ED6
331
20FAF
  5
20FB2
331
20EC6
  5
20EC7
331
20F91
  5
20F92
331
20F82
  5
20F83
331
20F73
  5
20F74
331
20F64
  5
20F65
331
20F55
  5
20F56
331
20F46
  5
20F47
331
20FA0
  5
20FA1
331
20F10
  5
20F11
331
20F01
  5
20F02
331
20EF2
  5
20EF3
331
20EE3
  5
20EE4
331
20ED4
  5
20ED5
331
20FAE
  5
20FB1
331
20EC5
  5
20EC6
331
20F90
  5
20F91
331
20F81
  5
20F82
331
20F72
  5
20F73
331
20F63
  5
20F64
331
20F54
  5
20F55
331
20F45
  5
20F46
331
20F9F
  5
20FA0
331
20F00
  5
20F01
331
20EF1
  5
20EF2
331
20EE2
  5
20EE3
331
20ED3
  5
20ED4
331
20FAD
  5
20FB0
331
20EC4
  5
20EC5
331
20F8F
  5
20F90
331
20F80
  5
20F81
331
20F71
  5
20F72
331
20F62
  5
20F63
331
20F53
  5
20F54
331
20F44
  5
20F45
331
20F9E
  5
20F9F
331
20EF0
  5
20EF1
331
20EE1
  5
20EE2
331
20ED2
  5
20ED3
331
20FAC
  5
20FAF
331
20EC3
  5
20EC4
331
20F8E
  5
20F8F
331
20F7F
  5
20F80
331
20F70
  5
20F71
331
20F61
  5
20F62
331
20F52
  5
20F53
331
20F43
  5
20F44
331
20F9D
  5
20F9E
331
20EE0
  5
20EE1
331
20ED1
  5
20ED2
331
20FAB
  5
20FAE
331
20EC2
  5
20EC3
331
20F8D
  5
20F8E
331
20F7E
  5
20F7F
331
20F6F
  5
20F70
331
20F60
  5
20F61
331
20F51
  5
20F52
331
20F42
  5
20F43
331
20F9C
  5
20F9D
331
20ED0
  5
20ED1
331
20FAA
  5
20FAD
331
20EC1
  5
20EC2
331
20F8C
  5
20F8D
331
20F7D
  5
20F7E
331
20F6E
  5
20F6F
331
20F5F
  5
20F60
331
20F50
  5
20F51
331
20F41
  5
20F42
331
20F9B
  5
20F9C
331
20FA9
  5
20FAB
331
20EC0
  5
20EC1
331
20F9A
  5
20F9B
331
20F8B
  5
20F8C
331
20F7C
  5
20F7D
331
20F6D
  5
20F6E
331
20F5E
  5
20F5F
331
20F4F
  5
20F50
331
20F40
  5
20F41
331
20FA8
  5
20FA9
331
20F99
  5
20F9A
331
20F8A
  5
20F8B
331
20F7B
  5
20F7C
331
20F6C
  5
20F6D
331
20F5D
  5
20F5E
331
20F4E
  5
20F4F
331
20F3F
  5
20F40
331
20F89
  5
20F8A
331
20F7A
  5
20F7B
331
20F6B
  5
20F6C
331
20F5C
  5
20F5D
331
20F4D
  5
20F4E
331
20F3E
  5
20F3F
331
20F88
  5
20F89
331
20F79
  5
20F7A
331
20F6A
  5
20F6B
331
20F5B
  5
20F5C
331
20F4C
  5
20F4D
331
20F3D
  5
20F3E
331
20F78
  5
20F79
331
20F69
  5
20F6A
331
20F5A
  5
20F5B
331
20F4B
  5
20F4C
331
20F3C
  5
20F3D
331
20F68
  5
20F69
331
20F59
  5
20F5A
331
20F4A
  5
20F4B
331
20F3B
  5
20F3C
331
20F58
  5
20F59
331
20F49
  5
20F4A
331
20F3A
  5
20F3B
331
20F48
  5
20F49
331
20F39
  5
20F3A
331
20F38
  5
20F39
  0
DICTIONARY
  5
21311
102
{ACAD_REACTORS
330
1DE81
102
}
330
1DE81
100
AcDbDictionary
280
     1
281
     1
  3
Edit
360
21312
  0
DICTIONARY
  5
21315
102
{ACAD_REACTORS
330
20CA6
102
}
330
20CA6
100
AcDbDictionary
280
     1
281
     1
  3
Edit
360
21316
  0
DICTIONARY
  5
20CAA
102
{ACAD_REACTORS
330
20CA9
102
}
330
20CA9
100
AcDbDictionary
280
     1
281
     1
  3
TEXT
360
20CAB
  0
DICTIONARY
  5
20FC1
102
{ACAD_REACTORS
330
20FC0
102
}
330
20FC0
100
AcDbDictionary
280
     1
281
     1
  3
TEXT
360
20FC2
  0
XRECORD
  5
212F8
102
{ACAD_REACTORS
330
212F7
102
}
330
212F7
100
AcDbXrecord
280
     1
102
SHADEPLOT
 70
     0
  0
XRECORD
  5
212FA
102
{ACAD_REACTORS
330
212F9
102
}
330
212F9
100
AcDbXrecord
280
     1
102
SHADEPLOT
 70
     0
  0
ACDBDETAILVIEWSTYLE
  5
20CB3
102
{ACAD_XDICTIONARY
360
20CB4
102
}
102
{ACAD_REACTORS
330
1B2F0
102
}
330
1B2F0
100
AcDbModelDocViewStyle
 70
     0
  3
Imperial24
290
     0
100
AcDbDetailViewStyle
 70
     0
 71
     0
 90
        3
 71
     1
340
11
 40
0.24
340
0
 40
0.24
300

 40
0.36
280
     3
 71
     2
340
16
 90
       25
 71
     3
340
11
 40
0.24
 90
        1
 40
0.75
 90
        1
300
%<\AcVar ViewType \f "%tc1">% %<\AcVar ViewDetailId>%\PVARIA %<\AcVar ViewScale \f "%sn">%
 71
     4
340
16
 90
       25
340
16
 90
       25
280
     0
  0
ACDBDETAILVIEWSTYLE
  5
1B2F1
102
{ACAD_XDICTIONARY
360
2098E
102
}
102
{ACAD_REACTORS
330
1B2F0
102
}
330
1B2F0
100
AcDbModelDocViewStyle
 70
     0
  3
Metric50
290
     0
100
AcDbDetailViewStyle
 70
     0
 71
     0
 90
        3
 71
     1
340
11
 40
5.0
340
0
 40
5.0
300

 40
0.0
280
     1
 71
     2
340
16
 90
       25
 71
     3
340
11
 40
5.0
 90
        0
 40
15.0
 90
        1
300
%<\AcVar ViewDetailId>% (%<\AcVar ViewScale \f "%sn">%)
 71
     4
340
16
 90
       25
340
16
 90
       25
280
     0
  0
LAYOUT
  5
31A7
102
{ACAD_XDICTIONARY
360
9C07
102
}
102
{ACAD_REACTORS
330
31A5
102
}
330
31A5
100
AcDbPlotSettings
  1

  2
\\ingdc01\ITB3
  4
A4
  6

 40
6.805083274841307
 41
5.027085781097412
 42
6.805068969726562
 43
5.027069091796875
 44
209.9733276367186
 45
296.9683227539062
 46
0.0
 47
0.0
 48
0.0
 49
0.0
140
0.0
141
0.0
142
1.0
143
1.0
 70
   688
 72
     1
 73
     1
 74
     5
  7

 75
    16
147
1.0
148
0.0
149
0.0
100
AcDbLayout
  1
Layout1
 70
     1
 71
     1
 10
-5.027069091796875
 20
-6.805083274841307
 11
291.9412536621094
 21
203.1682443618775
 12
0.0
 22
0.0
 32
0.0
 14
28.69141678810127
 24
19.6363175392151
 34
0.0
 15
258.2227510929107
 25
176.7268578529358
 35
0.0
146
0.0
 13
0.0
 23
0.0
 33
0.0
 16
1.0
 26
0.0
 36
0.0
 17
0.0
 27
1.0
 37
0.0
 76
     0
330
1B
331
9C00
1001
ACAD_PSEXT
1000
\\ingdc01\ITB3
1000
HP LaserJet 5000 Series PCL
1000
TB
1000

1070
     0
  0
LAYOUT
  5
31A6
102
{ACAD_XDICTIONARY
360
212F4
102
}
102
{ACAD_REACTORS
330
31A5
102
}
330
31A5
100
AcDbPlotSettings
  1

  2
\\ingdc01\ITB3
  4
A4
  6

 40
6.805083274841307
 41
5.027085781097412
 42
6.805068969726562
 43
5.027069091796875
 44
209.9733276367186
 45
296.9683227539062
 46
0.0
 47
0.0
 48
0.0
 49
0.0
140
0.0
141
0.0
142
1.0
143
1.500313223655698
 70
 11952
 72
     1
 73
     1
 74
     0
  7

 75
     0
147
0.6665274852163048
148
239.0155119930048
149
102.2558208723354
100
AcDbLayout
  1
Model
 70
     1
 71
     0
 10
0.0
 20
0.0
 11
12.0
 21
9.0
 12
0.0
 22
0.0
 32
0.0
 14
0.0
 24
0.0
 34
0.0
 15
0.0
 25
0.0
 35
0.0
146
0.0
 13
0.0
 23
0.0
 33
0.0
 16
1.0
 26
0.0
 36
0.0
 17
0.0
 27
1.0
 37
0.0
 76
     0
330
1F
331
1F4
1001
ACAD_PSEXT
1000
\\ingdc01\ITB3
1000
HP LaserJet 5000 Series PCL
1000
TB
1000

1070
     0
  0
MATERIAL
  5
318D
102
{ACAD_XDICTIONARY
360
1B22B
102
}
102
{ACAD_REACTORS
330
318B
102
}
330
318B
100
AcDbMaterial
  1
ByBlock
  0
MATERIAL
  5
318C
102
{ACAD_XDICTIONARY
360
1B22D
102
}
102
{ACAD_REACTORS
330
318B
102
}
330
318B
100
AcDbMaterial
  1
ByLayer
  0
MATERIAL
  5
318E
102
{ACAD_XDICTIONARY
360
1B22F
102
}
102
{ACAD_REACTORS
330
318B
102
}
330
318B
100
AcDbMaterial
  1
Global
  0
MLEADERSTYLE
  5
1B2ED
102
{ACAD_REACTORS
330
1B221
102
}
330
1B221
100
AcDbMLeaderStyle
170
     2
171
     1
172
     0
 90
        2
 40
0.0
 41
0.0
173
     1
 91
-1056964608
340
14
 92
       -2
290
     1
 42
2.0
291
     1
 43
0.36
  3
Standard
 44
4.0
300

342
11
174
     1
178
     6
175
     1
176
     0
 93
-1056964608
 45
4.0
292
     0
297
     0
 46
4.0
 94
-1056964608
 47
1.0
 49
1.0
140
1.0
293
     1
141
0.0
294
     1
177
     0
142
1.0
295
     0
296
     0
143
0.125
1001
ACAD_MLEADERVER
1070
     2
  0
MLINESTYLE
  5
3185
102
{ACAD_REACTORS
330
3184
102
}
330
3184
100
AcDbMlineStyle
  2
STANDARD
 70
     0
  3

 62
   256
 51
90.0
 52
90.0
 71
     2
 49
0.5
 62
   256
  6
BYLAYER
 49
-0.5
 62
   256
  6
BYLAYER
  0
ACDBPLACEHOLDER
  5
318A
102
{ACAD_REACTORS
330
3189
102
}
330
3189
  0
SCALE
  5
1B1FD
102
{ACAD_REACTORS
330
1B1FC
102
}
330
1B1FC
100
AcDbScale
 70
     0
300
1:1
140
1.0
141
1.0
290
     1
1001
ACAD
1000
AcRTDxfName
1000
SCALE
  0
SCALE
  5
1B1FE
102
{ACAD_REACTORS
330
1B1FC
102
}
330
1B1FC
100
AcDbScale
 70
     0
300
1:2
140
1.0
141
2.0
290
     0
1001
ACAD
1000
AcRTDxfName
1000
SCALE
  0
SCALE
  5
1B1FF
102
{ACAD_REACTORS
330
1B1FC
102
}
330
1B1FC
100
AcDbScale
 70
     0
300
1:4
140
1.0
141
4.0
290
     0
1001
ACAD
1000
AcRTDxfName
1000
SCALE
  0
SCALE
  5
1B200
102
{ACAD_REACTORS
330
1B1FC
102
}
330
1B1FC
100
AcDbScale
 70
     0
300
1:5
140
1.0
141
5.0
290
     0
1001
ACAD
1000
AcRTDxfName
1000
SCALE
  0
SCALE
  5
1B201
102
{ACAD_REACTORS
330
1B1FC
102
}
330
1B1FC
100
AcDbScale
 70
     0
300
1:8
140
1.0
141
8.0
290
     0
1001
ACAD
1000
AcRTDxfName
1000
SCALE
  0
SCALE
  5
1B202
102
{ACAD_REACTORS
330
1B1FC
102
}
330
1B1FC
100
AcDbScale
 70
     0
300
1:10
140
1.0
141
10.0
290
     0
1001
ACAD
1000
AcRTDxfName
1000
SCALE
  0
SCALE
  5
1B203
102
{ACAD_REACTORS
330
1B1FC
102
}
330
1B1FC
100
AcDbScale
 70
     0
300
1:16
140
1.0
141
16.0
290
     0
1001
ACAD
1000
AcRTDxfName
1000
SCALE
  0
SCALE
  5
1B204
102
{ACAD_REACTORS
330
1B1FC
102
}
330
1B1FC
100
AcDbScale
 70
     0
300
1:20
140
1.0
141
20.0
290
     0
1001
ACAD
1000
AcRTDxfName
1000
SCALE
  0
SCALE
  5
1B205
102
{ACAD_REACTORS
330
1B1FC
102
}
330
1B1FC
100
AcDbScale
 70
     0
300
1:30
140
1.0
141
30.0
290
     0
1001
ACAD
1000
AcRTDxfName
1000
SCALE
  0
SCALE
  5
1B206
102
{ACAD_REACTORS
330
1B1FC
102
}
330
1B1FC
100
AcDbScale
 70
     0
300
1:40
140
1.0
141
40.0
290
     0
1001
ACAD
1000
AcRTDxfName
1000
SCALE
  0
SCALE
  5
1B207
102
{ACAD_REACTORS
330
1B1FC
102
}
330
1B1FC
100
AcDbScale
 70
     0
300
1:50
140
1.0
141
50.0
290
     0
1001
ACAD
1000
AcRTDxfName
1000
SCALE
  0
SCALE
  5
1B208
102
{ACAD_REACTORS
330
1B1FC
102
}
330
1B1FC
100
AcDbScale
 70
     0
300
1:100
140
1.0
141
100.0
290
     0
1001
ACAD
1000
AcRTDxfName
1000
SCALE
  0
SCALE
  5
1B209
102
{ACAD_REACTORS
330
1B1FC
102
}
330
1B1FC
100
AcDbScale
 70
     0
300
2:1
140
2.0
141
1.0
290
     0
1001
ACAD
1000
AcRTDxfName
1000
SCALE
  0
SCALE
  5
1B20A
102
{ACAD_REACTORS
330
1B1FC
102
}
330
1B1FC
100
AcDbScale
 70
     0
300
4:1
140
4.0
141
1.0
290
     0
1001
ACAD
1000
AcRTDxfName
1000
SCALE
  0
SCALE
  5
1B20B
102
{ACAD_REACTORS
330
1B1FC
102
}
330
1B1FC
100
AcDbScale
 70
     0
300
8:1
140
8.0
141
1.0
290
     0
1001
ACAD
1000
AcRTDxfName
1000
SCALE
  0
SCALE
  5
1B20C
102
{ACAD_REACTORS
330
1B1FC
102
}
330
1B1FC
100
AcDbScale
 70
     0
300
10:1
140
10.0
141
1.0
290
     0
1001
ACAD
1000
AcRTDxfName
1000
SCALE
  0
SCALE
  5
1B20D
102
{ACAD_REACTORS
330
1B1FC
102
}
330
1B1FC
100
AcDbScale
 70
     0
300
100:1
140
100.0
141
1.0
290
     0
1001
ACAD
1000
AcRTDxfName
1000
SCALE
  0
SCALE
  5
1B20E
102
{ACAD_REACTORS
330
1B1FC
102
}
330
1B1FC
100
AcDbScale
 70
     0
300
1/128" = 1'-0"
140
0.0078125
141
12.0
290
     0
1001
ACAD
1000
AcRTDxfName
1000
SCALE
  0
SCALE
  5
1B20F
102
{ACAD_REACTORS
330
1B1FC
102
}
330
1B1FC
100
AcDbScale
 70
     0
300
1/64" = 1'-0"
140
0.015625
141
12.0
290
     0
1001
ACAD
1000
AcRTDxfName
1000
SCALE
  0
SCALE
  5
1B210
102
{ACAD_REACTORS
330
1B1FC
102
}
330
1B1FC
100
AcDbScale
 70
     0
300
1/32" = 1'-0"
140
0.03125
141
12.0
290
     0
1001
ACAD
1000
AcRTDxfName
1000
SCALE
  0
SCALE
  5
1B211
102
{ACAD_REACTORS
330
1B1FC
102
}
330
1B1FC
100
AcDbScale
 70
     0
300
1/16" = 1'-0"
140
0.0625
141
12.0
290
     0
1001
ACAD
1000
AcRTDxfName
1000
SCALE
  0
SCALE
  5
1B212
102
{ACAD_REACTORS
330
1B1FC
102
}
330
1B1FC
100
AcDbScale
 70
     0
300
3/32" = 1'-0"
140
0.09375
141
12.0
290
     0
1001
ACAD
1000
AcRTDxfName
1000
SCALE
  0
SCALE
  5
1B213
102
{ACAD_REACTORS
330
1B1FC
102
}
330
1B1FC
100
AcDbScale
 70
     0
300
1/8" = 1'-0"
140
0.125
141
12.0
290
     0
1001
ACAD
1000
AcRTDxfName
1000
SCALE
  0
SCALE
  5
1B214
102
{ACAD_REACTORS
330
1B1FC
102
}
330
1B1FC
100
AcDbScale
 70
     0
300
3/16" = 1'-0"
140
0.1875
141
12.0
290
     0
1001
ACAD
1000
AcRTDxfName
1000
SCALE
  0
SCALE
  5
1B215
102
{ACAD_REACTORS
330
1B1FC
102
}
330
1B1FC
100
AcDbScale
 70
     0
300
1/4" = 1'-0"
140
0.25
141
12.0
290
     0
1001
ACAD
1000
AcRTDxfName
1000
SCALE
  0
SCALE
  5
1B216
102
{ACAD_REACTORS
330
1B1FC
102
}
330
1B1FC
100
AcDbScale
 70
     0
300
3/8" = 1'-0"
140
0.375
141
12.0
290
     0
1001
ACAD
1000
AcRTDxfName
1000
SCALE
  0
SCALE
  5
1B217
102
{ACAD_REACTORS
330
1B1FC
102
}
330
1B1FC
100
AcDbScale
 70
     0
300
1/2" = 1'-0"
140
0.5
141
12.0
290
     0
1001
ACAD
1000
AcRTDxfName
1000
SCALE
  0
SCALE
  5
1B218
102
{ACAD_REACTORS
330
1B1FC
102
}
330
1B1FC
100
AcDbScale
 70
     0
300
3/4" = 1'-0"
140
0.75
141
12.0
290
     0
1001
ACAD
1000
AcRTDxfName
1000
SCALE
  0
SCALE
  5
1B219
102
{ACAD_REACTORS
330
1B1FC
102
}
330
1B1FC
100
AcDbScale
 70
     0
300
1" = 1'-0"
140
1.0
141
12.0
290
     0
1001
ACAD
1000
AcRTDxfName
1000
SCALE
  0
SCALE
  5
1B21A
102
{ACAD_REACTORS
330
1B1FC
102
}
330
1B1FC
100
AcDbScale
 70
     0
300
1-1/2" = 1'-0"
140
1.5
141
12.0
290
     0
1001
ACAD
1000
AcRTDxfName
1000
SCALE
  0
SCALE
  5
1B21B
102
{ACAD_REACTORS
330
1B1FC
102
}
330
1B1FC
100
AcDbScale
 70
     0
300
3" = 1'-0"
140
3.0
141
12.0
290
     0
1001
ACAD
1000
AcRTDxfName
1000
SCALE
  0
SCALE
  5
1B21C
102
{ACAD_REACTORS
330
1B1FC
102
}
330
1B1FC
100
AcDbScale
 70
     0
300
6" = 1'-0"
140
6.0
141
12.0
290
     0
1001
ACAD
1000
AcRTDxfName
1000
SCALE
  0
SCALE
  5
1B21D
102
{ACAD_REACTORS
330
1B1FC
102
}
330
1B1FC
100
AcDbScale
 70
     0
300
1'-0" = 1'-0"
140
12.0
141
12.0
290
     0
1001
ACAD
1000
AcRTDxfName
1000
SCALE
  0
ACDBSECTIONVIEWSTYLE
  5
20CB1
102
{ACAD_XDICTIONARY
360
20CB2
102
}
102
{ACAD_REACTORS
330
1B2EE
102
}
330
1B2EE
100
AcDbModelDocViewStyle
 70
     0
  3
Imperial24
290
     0
100
AcDbSectionViewStyle
 70
     0
 71
     0
 90
       78
 71
     1
340
11
 40
0.24
340
0
340
0
 40
0.24
300
I, O, Q, S, X, Z
 40
0.48
 90
        3
 40
0.18
 90
        1
 71
     2
340
16
 90
       25
340
16
 90
       50
 40
0.24
 40
0.0
 40
0.24
 71
     3
340
11
 40
0.24
 90
        1
 40
0.75
 90
        1
300
%<\AcVar ViewType \f "%tc1">% %<\AcVar ViewSectionStartId>%-%<\AcVar ViewSectionEndId>%\PVARIA %<\AcVar ViewScale \f "%sn">%
 71
     4
300
ANSI31
 40
1.0
 90
        0
290
     0
290
     0
 90
        6
 40
0.0
 40
1.570796326794896
 40
0.2617993877991494
 40
1.308996938995747
 40
-0.2617993877991494
 40
1.832595714594046
  0
ACDBSECTIONVIEWSTYLE
  5
1B2EF
102
{ACAD_XDICTIONARY
360
2098C
102
}
102
{ACAD_REACTORS
330
1B2EE
102
}
330
1B2EE
100
AcDbModelDocViewStyle
 70
     0
  3
Metric50
290
     0
100
AcDbSectionViewStyle
 70
     0
 71
     0
 90
      102
 71
     1
340
11
 40
5.0
340
0
340
0
 40
5.0
300
I, O, Q, S, X, Z
 40
10.0
 90
        0
 40
2.5
 90
        0
 71
     2
340
16
 90
       25
340
16
 90
       50
 40
5.0
 40
2.5
 40
5.0
 71
     3
340
11
 40
5.0
 90
        0
 40
15.0
 90
        1
300
%<\AcVar ViewSectionStartId>%-%<\AcVar ViewSectionEndId>% (%<\AcVar ViewScale \f "%sn">%)
 71
     4
300
ANSI31
 40
1.0
 90
        0
290
     0
290
     0
 90
        6
 40
0.0
 40
1.570796326794896
 40
0.2617993877991494
 40
1.308996938995747
 40
-0.2617993877991494
 40
1.832595714594044
  0
TABLESTYLE
  5
31A2
102
{ACAD_XDICTIONARY
360
1B314
102
}
102
{ACAD_REACTORS
330
31A1
102
}
330
31A1
100
AcDbTableStyle
  3
Standard
 70
     0
 71
     0
 40
1.5
 41
1.5
280
     0
281
     0
  7
STANDARD
140
4.5
170
     2
 62
     0
 63
     7
283
     0
274
    -2
284
     1
 64
     0
275
    -2
285
     1
 65
     0
276
    -2
286
     1
 66
     0
277
    -2
287
     1
 67
     0
278
    -2
288
     1
 68
     0
279
    -2
289
     1
 69
     0
  7
STANDARD
140
6.0
170
     5
 62
     0
 63
     7
283
     0
274
    -2
284
     1
 64
     0
275
    -2
285
     1
 65
     0
276
    -2
286
     1
 66
     0
277
    -2
287
     1
 67
     0
278
    -2
288
     1
 68
     0
279
    -2
289
     1
 69
     0
  7
STANDARD
140
4.5
170
     5
 62
     0
 63
     7
283
     0
274
    -2
284
     1
 64
     0
275
    -2
285
     1
 65
     0
276
    -2
286
     1
 66
     0
277
    -2
287
     1
 67
     0
278
    -2
288
     1
 68
     0
279
    -2
289
     1
 69
     0
  0
VISUALSTYLE
  5
3195
102
{ACAD_XDICTIONARY
360
212DD
102
}
102
{ACAD_REACTORS
330
318F
102
}
330
318F
100
AcDbVisualStyle
  2

 70
     4
 71
     0
 72
     2
 73
     0
 90
        0
 40
-0.6
 41
-30.0
 62
     5
 63
     7
 74
     1
 91
        4
 64
     7
 65
   257
 75
     1
175
     1
 42
1.0
 92
        0
 66
   257
 43
1.0
 76
     1
 77
     6
 78
     2
 67
     7
 79
     5
170
     0
171
     0
290
     0
174
     0
 93
        1
 44
0.0
173
     0
291
     0
 45
0.0
1001
ACAD
1000
AcDbSavedByObjectVersion
1070
     0
  0
VISUALSTYLE
  5
3197
102
{ACAD_XDICTIONARY
360
212E1
102
}
102
{ACAD_REACTORS
330
318F
102
}
330
318F
100
AcDbVisualStyle
  2

 70
     6
 71
     1
 72
     2
 73
     2
 90
        0
 40
-0.6
 41
-30.0
 62
     5
 63
     7
 74
     2
 91
        2
 64
     7
 65
   257
 75
     2
175
     1
 42
40.0
 92
        0
 66
   257
 43
1.0
 76
     1
 77
     6
 78
     2
 67
     7
 79
     3
170
     0
171
     0
290
     0
174
     0
 93
        1
 44
0.0
173
     0
291
     0
 45
0.0
1001
ACAD
1000
AcDbSavedByObjectVersion
1070
     0
  0
VISUALSTYLE
  5
3196
102
{ACAD_XDICTIONARY
360
212DF
102
}
102
{ACAD_REACTORS
330
318F
102
}
330
318F
100
AcDbVisualStyle
  2

 70
     5
 71
     0
 72
     2
 73
     0
 90
        0
 40
-0.6
 41
-30.0
 62
     5
 63
     7
 74
     1
 91
        4
 64
     7
 65
   257
 75
     1
175
     1
 42
1.0
 92
        0
 66
   257
 43
1.0
 76
     1
 77
     6
 78
     2
 67
     7
 79
     5
170
     0
171
     0
290
     0
174
     0
 93
        1
 44
0.0
173
     0
291
     0
 45
0.0
1001
ACAD
1000
AcDbSavedByObjectVersion
1070
     0
  0
VISUALSTYLE
  5
3194
102
{ACAD_XDICTIONARY
360
212DB
102
}
102
{ACAD_REACTORS
330
318F
102
}
330
318F
100
AcDbVisualStyle
  2

 70
     7
 71
     1
 72
     0
 73
     1
 90
        0
 40
-0.6
 41
-30.0
 62
     5
 63
     7
 74
     0
 91
        4
 64
     7
 65
   257
 75
     1
175
     1
 42
1.0
 92
        8
 66
     7
 43
1.0
 76
     1
 77
     6
 78
     2
 67
     7
 79
     5
170
     0
171
     0
290
     0
174
     0
 93
        1
 44
0.0
173
     0
291
     1
 45
0.0
1001
ACAD
1000
AcDbSavedByObjectVersion
1070
     0
  0
VISUALSTYLE
  5
319B
102
{ACAD_XDICTIONARY
360
212E9
102
}
102
{ACAD_REACTORS
330
318F
102
}
330
318F
100
AcDbVisualStyle
  2

 70
    12
 71
     2
 72
     2
 73
     0
 90
        0
 40
-0.6
 41
-30.0
 62
     5
 63
     7
 74
     1
 91
        4
 64
     7
 65
   257
 75
     1
175
     1
 42
1.0
 92
        8
 66
     7
 43
1.0
 76
     1
 77
     6
 78
     2
 67
     7
 79
     5
170
     0
171
     0
290
     0
174
     0
 93
        1
 44
50.0
173
     0
291
     1
 45
0.0
1001
ACAD
1000
AcDbSavedByObjectVersion
1070
     0
  0
VISUALSTYLE
  5
319F
102
{ACAD_XDICTIONARY
360
212F1
102
}
102
{ACAD_REACTORS
330
318F
102
}
330
318F
100
AcDbVisualStyle
  2

 70
    16
 71
     2
 72
     2
 73
     3
 90
        0
 40
-0.6
 41
-30.0
 62
     5
 63
     8
 74
     1
 91
        4
 64
     7
 65
   257
 75
     1
175
     1
 42
1.0
 92
        8
 66
     8
 43
1.0
 76
     1
 77
     6
 78
     2
 67
     7
 79
     5
170
     0
171
     0
290
     0
174
     0
 93
        1
 44
0.0
173
     0
291
     1
 45
0.0
1001
ACAD
1000
AcDbSavedByObjectVersion
1070
     0
  0
VISUALSTYLE
  5
3198
102
{ACAD_XDICTIONARY
360
212E3
102
}
102
{ACAD_REACTORS
330
318F
102
}
330
318F
100
AcDbVisualStyle
  2

 70
     9
 71
     3
 72
     2
 73
     0
 90
        0
 40
-0.6
 41
-30.0
 62
     5
 63
     7
 74
     2
 91
        2
 64
     7
 65
   257
 75
     1
175
     1
 42
40.0
 92
        8
 66
     7
 43
1.0
 76
     1
 77
     6
 78
     2
 67
     7
 79
     3
170
     0
171
     0
290
     0
174
     0
 93
        1
 44
0.0
173
     0
291
     0
 45
0.0
1001
ACAD
1000
AcDbSavedByObjectVersion
1070
     0
  0
VISUALSTYLE
  5
319A
102
{ACAD_XDICTIONARY
360
212E7
102
}
102
{ACAD_REACTORS
330
318F
102
}
330
318F
100
AcDbVisualStyle
  2

 70
    11
 71
     2
 72
     2
 73
     0
 90
        0
 40
-0.6
 41
-30.0
 62
     5
 63
     7
 74
     1
 91
        4
 64
     7
 65
   257
 75
     1
175
     1
 42
1.0
 92
        8
 66
     7
 43
1.0
 76
     1
 77
     6
 78
     2
 67
     7
 79
     5
170
     0
171
     0
290
     0
174
     0
 93
        1
 44
-50.0
173
     0
291
     1
 45
0.0
1001
ACAD
1000
AcDbSavedByObjectVersion
1070
     0
  0
VISUALSTYLE
  5
1B2EC
102
{ACAD_XDICTIONARY
360
2130D
102
}
102
{ACAD_REACTORS
330
318F
102
}
330
318F
100
AcDbVisualStyle
  2

 70
    22
 71
     2
 72
     2
 73
     0
 90
        0
 40
-0.6
 41
-30.0
 62
     5
 63
     7
 74
     1
 91
        4
 64
     7
 65
   257
 75
     1
175
     1
 42
1.0
 92
        8
 66
     7
 43
1.0
 76
     1
 77
     6
 78
     2
 67
     7
 79
     5
170
     0
171
     0
290
     0
174
     0
 93
        1
 44
0.0
173
     0
291
     1
 45
0.0
1001
ACAD
1000
AcDbSavedByObjectVersion
1070
     0
  0
VISUALSTYLE
  5
319E
102
{ACAD_XDICTIONARY
360
212EF
102
}
102
{ACAD_REACTORS
330
318F
102
}
330
318F
100
AcDbVisualStyle
  2

 70
    15
 71
     2
 72
     2
 73
     0
 90
        0
 40
-0.6
 41
-30.0
 62
     5
 63
     7
 74
     1
 91
        4
 64
     7
 65
   257
 75
     1
175
     1
 42
1.0
 92
        8
 66
     7
 43
1.0
 76
     1
 77
     6
 78
     2
 67
     7
 79
     5
170
     0
171
     0
290
     0
174
     0
 93
        1
 44
0.0
173
     0
291
     1
 45
0.0
1001
ACAD
1000
AcDbSavedByObjectVersion
1070
     0
  0
VISUALSTYLE
  5
3190
102
{ACAD_XDICTIONARY
360
212D3
102
}
102
{ACAD_REACTORS
330
318F
102
}
330
318F
100
AcDbVisualStyle
  2

 70
     0
 71
     2
 72
     1
 73
     1
 90
        2
 40
-0.6
 41
30.0
 62
     5
 63
     7
 74
     0
 91
        4
 64
     7
 65
   257
 75
     1
175
     1
 42
1.0
 92
        8
 66
     7
 43
1.0
 76
     1
 77
     6
 78
     2
 67
     7
 79
     5
170
     0
171
     0
290
     0
174
     0
 93
       13
 44
0.0
173
     0
291
     1
 45
0.0
1001
ACAD
1000
AcDbSavedByObjectVersion
1070
     0
  0
VISUALSTYLE
  5
3191
102
{ACAD_XDICTIONARY
360
212D5
102
}
102
{ACAD_REACTORS
330
318F
102
}
330
318F
100
AcDbVisualStyle
  2

 70
     1
 71
     2
 72
     1
 73
     1
 90
        2
 40
-0.6
 41
30.0
 62
     5
 63
     7
 74
     1
 91
        4
 64
     7
 65
   257
 75
     1
175
     1
 42
1.0
 92
        0
 66
   257
 43
1.0
 76
     1
 77
     6
 78
     2
 67
     7
 79
     5
170
     0
171
     0
290
     0
174
     0
 93
       13
 44
0.0
173
     0
291
     1
 45
0.0
1001
ACAD
1000
AcDbSavedByObjectVersion
1070
     0
  0
VISUALSTYLE
  5
3192
102
{ACAD_XDICTIONARY
360
212D7
102
}
102
{ACAD_REACTORS
330
318F
102
}
330
318F
100
AcDbVisualStyle
  2

 70
     2
 71
     2
 72
     2
 73
     1
 90
        2
 40
-0.6
 41
30.0
 62
     5
 63
     7
 74
     0
 91
        4
 64
     7
 65
   257
 75
     1
175
     1
 42
1.0
 92
        0
 66
     7
 43
1.0
 76
     1
 77
     6
 78
     2
 67
     7
 79
     5
170
     0
171
     0
290
     0
174
     0
 93
       13
 44
0.0
173
     0
291
     1
 45
0.0
1001
ACAD
1000
AcDbSavedByObjectVersion
1070
     0
  0
VISUALSTYLE
  5
3193
102
{ACAD_XDICTIONARY
360
212D9
102
}
102
{ACAD_REACTORS
330
318F
102
}
330
318F
100
AcDbVisualStyle
  2

 70
     3
 71
     2
 72
     2
 73
     1
 90
        2
 40
-0.6
 41
30.0
 62
     5
 63
     7
 74
     1
 91
        4
 64
     7
 65
   257
 75
     1
175
     1
 42
1.0
 92
        0
 66
   257
 43
1.0
 76
     1
 77
     6
 78
     2
 67
     7
 79
     5
170
     0
171
     0
290
     0
174
     0
 93
       13
 44
0.0
173
     0
291
     1
 45
0.0
1001
ACAD
1000
AcDbSavedByObjectVersion
1070
     0
  0
VISUALSTYLE
  5
1B2E4
102
{ACAD_XDICTIONARY
360
212FD
102
}
102
{ACAD_REACTORS
330
318F
102
}
330
318F
100
AcDbVisualStyle
  2

 70
     6
 71
     1
 72
     2
 73
     2
 90
        0
 40
-0.6
 41
-30.0
 62
     5
 63
     7
 74
     2
 91
        2
 64
     7
 65
   257
 75
     2
175
     1
 42
40.0
 92
        0
 66
   257
 43
1.0
 76
     1
 77
     6
 78
     2
 67
     7
 79
     3
170
     0
171
     0
290
     0
174
     0
 93
        1
 44
0.0
173
     0
291
     0
 45
0.0
1001
ACAD
1000
AcDbSavedByObjectVersion
1070
     0
  0
VISUALSTYLE
  5
1B2EA
102
{ACAD_XDICTIONARY
360
21309
102
}
102
{ACAD_REACTORS
330
318F
102
}
330
318F
100
AcDbVisualStyle
  2

 70
    20
 71
     2
 72
     2
 73
     0
 90
        0
 40
-0.6
 41
-30.0
 62
     5
 63
     7
 74
     1
 91
        4
 64
     7
 65
   257
 75
     1
175
     1
 42
1.0
 92
       10
 66
     7
 43
1.0
 76
     1
 77
     6
 78
     2
 67
     7
 79
     5
170
     0
171
     0
290
     0
174
     0
 93
        1
 44
0.0
173
     0
291
     1
 45
0.0
1001
ACAD
1000
AcDbSavedByObjectVersion
1070
     0
  0
VISUALSTYLE
  5
319D
102
{ACAD_XDICTIONARY
360
212ED
102
}
102
{ACAD_REACTORS
330
318F
102
}
330
318F
100
AcDbVisualStyle
  2

 70
    14
 71
     2
 72
     2
 73
     0
 90
        0
 40
-0.6
 41
-30.0
 62
     5
 63
     7
 74
     1
 91
        4
 64
     7
 65
   257
 75
     7
175
     7
 42
1.0
 92
        8
 66
     7
 43
1.0
 76
     1
 77
     6
 78
     2
 67
     7
 79
     5
170
     0
171
     0
290
     0
174
     0
 93
        1
 44
0.0
173
     0
291
     1
 45
0.0
1001
ACAD
1000
AcDbSavedByObjectVersion
1070
     0
  0
VISUALSTYLE
  5
1B2EB
102
{ACAD_XDICTIONARY
360
2130B
102
}
102
{ACAD_REACTORS
330
318F
102
}
330
318F
100
AcDbVisualStyle
  2

 70
    21
 71
     2
 72
     2
 73
     0
 90
        0
 40
-0.6
 41
-30.0
 62
     5
 63
     7
 74
     1
 91
        4
 64
     7
 65
   257
 75
     1
175
     1
 42
1.0
 92
        9
 66
     7
 43
1.0
 76
     1
 77
     6
 78
     2
 67
     7
 79
     5
170
     0
171
     0
290
     0
174
     0
 93
        1
 44
0.0
173
     0
291
     1
 45
0.0
1001
ACAD
1000
AcDbSavedByObjectVersion
1070
     0
  0
VISUALSTYLE
  5
3199
102
{ACAD_XDICTIONARY
360
212E5
102
}
102
{ACAD_REACTORS
330
318F
102
}
330
318F
100
AcDbVisualStyle
  2

 70
     8
 71
     2
 72
     2
 73
     0
 90
        0
 40
-0.6
 41
-30.0
 62
     5
 63
     7
 74
     1
 91
        0
 64
     7
 65
   257
 75
     1
175
     1
 42
1.0
 92
        8
 66
     8
 43
1.0
 76
     1
 77
     6
 78
     2
 67
     7
 79
     5
170
     0
171
     0
290
     0
174
     0
 93
       13
 44
0.0
173
     0
291
     0
 45
0.0
1001
ACAD
1000
AcDbSavedByObjectVersion
1070
     0
  0
VISUALSTYLE
  5
1B2E9
102
{ACAD_XDICTIONARY
360
21307
102
}
102
{ACAD_REACTORS
330
318F
102
}
330
318F
100
AcDbVisualStyle
  2

 70
    27
 71
     2
 72
     2
 73
     1
 90
        2
 40
-0.6
 41
30.0
 62
     5
 63
     7
 74
     0
 91
        4
 64
     7
 65
   257
 75
     1
175
     1
 42
1.0
 92
        8
 66
   257
 43
1.0
 76
     1
 77
     6
 78
     2
 67
     8
 79
     3
170
     0
171
     0
290
     0
174
     0
 93
        5
 44
0.0
173
     0
291
     0
 45
0.0
1001
ACAD
1000
AcDbSavedByObjectVersion
1070
     0
  0
VISUALSTYLE
  5
1B2E8
102
{ACAD_XDICTIONARY
360
21305
102
}
102
{ACAD_REACTORS
330
318F
102
}
330
318F
100
AcDbVisualStyle
  2

 70
    26
 71
     2
 72
     2
 73
     1
 90
        2
 40
-0.6
 41
30.0
 62
     5
 63
     7
 74
     1
 91
       10
 64
     7
 65
   257
 75
     2
175
     1
 42
1.0
 92
        8
 66
   257
 43
1.0
 76
     1
 77
     6
 78
     2
 67
     7
 79
     3
170
     0
171
     0
290
     0
174
     0
 93
        5
 44
0.0
173
     0
291
     0
 45
0.0
1001
ACAD
1000
AcDbSavedByObjectVersion
1070
     0
  0
VISUALSTYLE
  5
1B2E5
102
{ACAD_XDICTIONARY
360
212FF
102
}
102
{ACAD_REACTORS
330
318F
102
}
330
318F
100
AcDbVisualStyle
  2

 70
    23
 71
     2
 72
     2
 73
     3
 90
        0
 40
-0.6
 41
-30.0
 62
     5
 63
     7
 74
     2
 91
        2
 64
     7
 65
     7
 75
     1
175
     1
 42
40.0
 92
        8
 66
     7
 43
1.0
 76
     1
 77
     6
 78
     2
 67
     7
 79
     3
170
     0
171
     0
290
     0
174
     0
 93
        1
 44
0.0
173
     0
291
     0
 45
0.0
1001
ACAD
1000
AcDbSavedByObjectVersion
1070
     0
  0
VISUALSTYLE
  5
1B2E6
102
{ACAD_XDICTIONARY
360
21301
102
}
102
{ACAD_REACTORS
330
318F
102
}
330
318F
100
AcDbVisualStyle
  2

 70
    24
 71
     1
 72
     2
 73
     2
 90
        0
 40
-0.6
 41
-30.0
 62
     5
 63
     7
 74
     2
 91
        2
 64
     7
 65
     7
 75
     1
175
     1
 42
40.0
 92
       11
 66
     7
 43
1.0
 76
     1
 77
     6
 78
     2
 67
     7
 79
     6
170
     0
171
     0
290
     0
174
     0
 93
        1
 44
0.0
173
     0
291
     0
 45
0.0
1001
ACAD
1000
AcDbSavedByObjectVersion
1070
     0
  0
VISUALSTYLE
  5
319C
102
{ACAD_XDICTIONARY
360
212EB
102
}
102
{ACAD_REACTORS
330
318F
102
}
330
318F
100
AcDbVisualStyle
  2

 70
    13
 71
     2
 72
     2
 73
     0
 90
        0
 40
-0.6
 41
-30.0
 62
     5
 63
     7
 74
     1
 91
        4
 64
     7
 65
   257
 75
     1
175
     1
 42
1.0
 92
       12
 66
     7
 43
1.0
 76
     1
 77
     6
 78
     2
 67
     7
 79
     5
170
     0
171
     0
290
     0
174
     0
 93
        1
 44
0.0
173
     0
291
     1
 45
0.0
1001
ACAD
1000
AcDbSavedByObjectVersion
1070
     0
  0
VISUALSTYLE
  5
1B2E3
102
{ACAD_XDICTIONARY
360
212FB
102
}
102
{ACAD_REACTORS
330
318F
102
}
330
318F
100
AcDbVisualStyle
  2

 70
     5
 71
     0
 72
     2
 73
     0
 90
        0
 40
-0.6
 41
-30.0
 62
     5
 63
     7
 74
     1
 91
        4
 64
     7
 65
   257
 75
     1
175
     1
 42
1.0
 92
        0
 66
   257
 43
1.0
 76
     1
 77
     6
 78
     2
 67
     7
 79
     3
170
     0
171
     0
290
     0
174
     0
 93
        1
 44
0.0
173
     0
291
     0
 45
0.0
1001
ACAD
1000
AcDbSavedByObjectVersion
1070
     0
  0
VISUALSTYLE
  5
1B2E7
102
{ACAD_XDICTIONARY
360
21303
102
}
102
{ACAD_REACTORS
330
318F
102
}
330
318F
100
AcDbVisualStyle
  2

 70
    25
 71
     2
 72
     2
 73
     1
 90
        1
 40
0.5
 41
-30.0
 62
     5
 63
     7
 74
     1
 91
        0
 64
     7
 65
   257
 75
     1
175
     1
 42
1.0
 92
        8
 66
     7
 43
1.0
 76
     1
 77
     6
 78
     2
 67
     7
 79
     3
170
     0
171
     0
290
     0
174
     0
 93
       13
 44
0.0
173
     0
291
     0
 45
0.0
1001
ACAD
1000
AcDbSavedByObjectVersion
1070
     0
  0
DICTIONARYVAR
  5
1B222
102
{ACAD_REACTORS
330
33A3
102
}
330
33A3
100
DictionaryVariables
280
     0
  1
1:1
  0
DICTIONARYVAR
  5
1B30F
102
{ACAD_REACTORS
330
33A3
102
}
330
33A3
100
DictionaryVariables
280
     0
  1
STANDARD
  0
DICTIONARYVAR
  5
33A4
102
{ACAD_REACTORS
330
33A3
102
}
330
33A3
100
DictionaryVariables
280
     0
  1
STANDARD
  0
DICTIONARYVAR
  5
1B310
102
{ACAD_REACTORS
330
33A3
102
}
330
33A3
100
DictionaryVariables
280
     0
  1
Metric50
  0
DICTIONARYVAR
  5
1B311
102
{ACAD_REACTORS
330
33A3
102
}
330
33A3
100
DictionaryVariables
280
     0
  1
Metric50
  0
DICTIONARYVAR
  5
9BE8
102
{ACAD_REACTORS
330
33A3
102
}
330
33A3
100
DictionaryVariables
280
     0
  1
1
  0
DICTIONARYVAR
  5
9BE7
102
{ACAD_REACTORS
330
33A3
102
}
330
33A3
100
DictionaryVariables
280
     0
  1
0
  0
DICTIONARYVAR
  5
20993
102
{ACAD_REACTORS
330
33A3
102
}
330
33A3
100
DictionaryVariables
280
     0
  1
1
  0
DICTIONARYVAR
  5
20994
102
{ACAD_REACTORS
330
33A3
102
}
330
33A3
100
DictionaryVariables
280
     0
  1
15
  0
DICTIONARYVAR
  5
20992
102
{ACAD_REACTORS
330
33A3
102
}
330
33A3
100
DictionaryVariables
280
     0
  1
0
  0
DICTIONARYVAR
  5
20991
102
{ACAD_REACTORS
330
33A3
102
}
330
33A3
100
DictionaryVariables
280
     0
  1
0
  0
DICTIONARYVAR
  5
9BE6
102
{ACAD_REACTORS
330
33A3
102
}
330
33A3
100
DictionaryVariables
280
     0
  1
127
  0
DICTIONARYVAR
  5
1FAAB
102
{ACAD_REACTORS
330
33A3
102
}
330
33A3
100
DictionaryVariables
280
     0
  1
2
  0
DICTIONARY
  5
212D2
102
{ACAD_REACTORS
330
212D0
102
}
330
212D0
100
AcDbDictionary
281
     1
  0
DICTIONARY
  5
212D1
102
{ACAD_REACTORS
330
212D0
102
}
330
212D0
100
AcDbDictionary
281
     1
  3
8796087104688
350
212CB
  3
8796087104704
350
212CC
  3
8796087104720
350
212CD
  3
8796087104736
350
212CE
  3
8796087104752
350
212CF
  0
XRECORD
  5
21312
102
{ACAD_REACTORS
330
21311
102
}
330
21311
100
AcDbXrecord
280
     1
1070
     0
1070
     1
1070
     1
  0
XRECORD
  5
21316
102
{ACAD_REACTORS
330
21315
102
}
330
21315
100
AcDbXrecord
280
     1
1070
     0
1070
     1
1070
     1
  0
FIELD
  5
20CAB
102
{ACAD_REACTORS
330
20CAA
102
}
330
20CAA
100
AcDbField
  1
_text
  2
%<\_FldIdx 0>%
 90
        1
360
20CAC
 97
        0
  4

 91
       63
 92
        0
 94
        9
 95
        2
 96
        0
300

 93
        2
  6
ACFD_FIELDTEXT_ATTDEF
 90
        1
 91
        1
  6
ACFD_FIELDTEXT_CHECKSUM
 90
        2
140
7977.0
  7
ACFD_FIELD_VALUE
 90
        0
 91
        0
301

 98
        0
  0
FIELD
  5
20FC2
102
{ACAD_REACTORS
330
20FC1
102
}
330
20FC1
100
AcDbField
  1
_text
  2
%<\_FldIdx 0>%
 90
        1
360
20FC3
 97
        0
  4

 91
       63
 92
        0
 94
        9
 95
        2
 96
        0
300

 93
        1
  6
ACFD_FIELDTEXT_CHECKSUM
 90
        2
140
7977.0
  7
ACFD_FIELD_VALUE
 90
        0
 91
        0
301

 98
        0
  0
DICTIONARY
  5
20CB4
330
20CB3
100
AcDbDictionary
280
     1
281
     1
  3
ACAD_XREC_ROUNDTRIP
360
21318
  0
DICTIONARY
  5
2098E
330
1B2F1
100
AcDbDictionary
280
     1
281
     1
  3
ACAD_XREC_ROUNDTRIP
360
21310
  0
DICTIONARY
  5
9C07
330
31A7
100
AcDbDictionary
280
     1
281
     1
  3
ACAD_XREC_ROUNDTRIP
360
212F6
  0
DICTIONARY
  5
212F4
330
31A6
100
AcDbDictionary
280
     1
281
     1
  3
ACAD_XREC_ROUNDTRIP
360
212F5
  0
DICTIONARY
  5
1B22B
330
318D
100
AcDbDictionary
280
     1
281
     1
  3
ACAD_XREC_ROUNDTRIP
360
1B22C
  0
DICTIONARY
  5
1B22D
330
318C
100
AcDbDictionary
280
     1
281
     1
  3
ACAD_XREC_ROUNDTRIP
360
1B22E
  0
DICTIONARY
  5
1B22F
330
318E
100
AcDbDictionary
280
     1
281
     1
  3
ACAD_XREC_ROUNDTRIP
360
1B230
  0
DICTIONARY
  5
20CB2
330
20CB1
100
AcDbDictionary
280
     1
281
     1
  3
ACAD_XREC_ROUNDTRIP
360
21317
  0
DICTIONARY
  5
2098C
330
1B2EF
100
AcDbDictionary
280
     1
281
     1
  3
ACAD_XREC_ROUNDTRIP
360
2130F
  0
DICTIONARY
  5
1B314
330
31A2
100
AcDbDictionary
280
     1
281
     1
  3
ACAD_ROUNDTRIP_2008_TABLESTYLE_CELLSTYLEMAP
360
212C8
  3
ACAD_XREC_ROUNDTRIP
360
212F3
  0
DICTIONARY
  5
212DD
330
3195
100
AcDbDictionary
280
     1
281
     1
  3
ACAD_XREC_ROUNDTRIP
360
212DE
  0
DICTIONARY
  5
212E1
330
3197
100
AcDbDictionary
280
     1
281
     1
  3
ACAD_XREC_ROUNDTRIP
360
212E2
  0
DICTIONARY
  5
212DF
330
3196
100
AcDbDictionary
280
     1
281
     1
  3
ACAD_XREC_ROUNDTRIP
360
212E0
  0
DICTIONARY
  5
212DB
330
3194
100
AcDbDictionary
280
     1
281
     1
  3
ACAD_XREC_ROUNDTRIP
360
212DC
  0
DICTIONARY
  5
212E9
330
319B
100
AcDbDictionary
280
     1
281
     1
  3
ACAD_XREC_ROUNDTRIP
360
212EA
  0
DICTIONARY
  5
212F1
330
319F
100
AcDbDictionary
280
     1
281
     1
  3
ACAD_XREC_ROUNDTRIP
360
212F2
  0
DICTIONARY
  5
212E3
330
3198
100
AcDbDictionary
280
     1
281
     1
  3
ACAD_XREC_ROUNDTRIP
360
212E4
  0
DICTIONARY
  5
212E7
330
319A
100
AcDbDictionary
280
     1
281
     1
  3
ACAD_XREC_ROUNDTRIP
360
212E8
  0
DICTIONARY
  5
2130D
330
1B2EC
100
AcDbDictionary
280
     1
281
     1
  3
ACAD_XREC_ROUNDTRIP
360
2130E
  0
DICTIONARY
  5
212EF
330
319E
100
AcDbDictionary
280
     1
281
     1
  3
ACAD_XREC_ROUNDTRIP
360
212F0
  0
DICTIONARY
  5
212D3
330
3190
100
AcDbDictionary
280
     1
281
     1
  3
ACAD_XREC_ROUNDTRIP
360
212D4
  0
DICTIONARY
  5
212D5
330
3191
100
AcDbDictionary
280
     1
281
     1
  3
ACAD_XREC_ROUNDTRIP
360
212D6
  0
DICTIONARY
  5
212D7
330
3192
100
AcDbDictionary
280
     1
281
     1
  3
ACAD_XREC_ROUNDTRIP
360
212D8
  0
DICTIONARY
  5
212D9
330
3193
100
AcDbDictionary
280
     1
281
     1
  3
ACAD_XREC_ROUNDTRIP
360
212DA
  0
DICTIONARY
  5
212FD
330
1B2E4
100
AcDbDictionary
280
     1
281
     1
  3
ACAD_XREC_ROUNDTRIP
360
212FE
  0
DICTIONARY
  5
21309
330
1B2EA
100
AcDbDictionary
280
     1
281
     1
  3
ACAD_XREC_ROUNDTRIP
360
2130A
  0
DICTIONARY
  5
212ED
330
319D
100
AcDbDictionary
280
     1
281
     1
  3
ACAD_XREC_ROUNDTRIP
360
212EE
  0
DICTIONARY
  5
2130B
330
1B2EB
100
AcDbDictionary
280
     1
281
     1
  3
ACAD_XREC_ROUNDTRIP
360
2130C
  0
DICTIONARY
  5
212E5
330
3199
100
AcDbDictionary
280
     1
281
     1
  3
ACAD_XREC_ROUNDTRIP
360
212E6
  0
DICTIONARY
  5
21307
330
1B2E9
100
AcDbDictionary
280
     1
281
     1
  3
ACAD_XREC_ROUNDTRIP
360
21308
  0
DICTIONARY
  5
21305
330
1B2E8
100
AcDbDictionary
280
     1
281
     1
  3
ACAD_XREC_ROUNDTRIP
360
21306
  0
DICTIONARY
  5
212FF
330
1B2E5
100
AcDbDictionary
280
     1
281
     1
  3
ACAD_XREC_ROUNDTRIP
360
21300
  0
DICTIONARY
  5
21301
330
1B2E6
100
AcDbDictionary
280
     1
281
     1
  3
ACAD_XREC_ROUNDTRIP
360
21302
  0
DICTIONARY
  5
212EB
330
319C
100
AcDbDictionary
280
     1
281
     1
  3
ACAD_XREC_ROUNDTRIP
360
212EC
  0
DICTIONARY
  5
212FB
330
1B2E3
100
AcDbDictionary
280
     1
281
     1
  3
ACAD_XREC_ROUNDTRIP
360
212FC
  0
DICTIONARY
  5
21303
330
1B2E7
100
AcDbDictionary
280
     1
281
     1
  3
ACAD_XREC_ROUNDTRIP
360
21304
  0
XRECORD
  5
212CB
102
{ACAD_REACTORS
330
212D1
102
}
330
212D1
100
AcDbXrecord
280
     1
  1
AcDb_Thumbnail_Schema
102
{ATTRRECORD
341
212CC
  2
AcDbDs::TreatedAsObjectData
280
     1
291
     1
102
ATTRRECORD}
102
{ATTRRECORD
341
212CD
  2
AcDbDs::Legacy
280
     1
291
     1
102
ATTRRECORD}
  2
AcDbDs::ID
280
    10
 91
        8
102
{ATTRRECORD
341
212CE
  2
AcDs:Indexable
280
     1
291
     1
102
ATTRRECORD}
102
{ATTRRECORD
341
212CF
  2
AcDbDs::HandleAttribute
280
     7
282
     1
102
ATTRRECORD}
  2
Thumbnail_Data
280
    15
 91
        0
  0
XRECORD
  5
212CC
102
{ACAD_REACTORS
330
212D1
102
}
330
212D1
100
AcDbXrecord
280
     1
  1
AcDbDs::TreatedAsObjectDataSchema
  2
AcDbDs::TreatedAsObjectData
280
     1
 91
        0
  0
XRECORD
  5
212CD
102
{ACAD_REACTORS
330
212D1
102
}
330
212D1
100
AcDbXrecord
280
     1
  1
AcDbDs::LegacySchema
  2
AcDbDs::Legacy
280
     1
 91
        0
  0
XRECORD
  5
212CE
102
{ACAD_REACTORS
330
212D1
102
}
330
212D1
100
AcDbXrecord
280
     1
  1
AcDbDs::IndexedPropertySchema
  2
AcDs:Indexable
280
     1
 91
        0
  0
XRECORD
  5
212CF
102
{ACAD_REACTORS
330
212D1
102
}
330
212D1
100
AcDbXrecord
280
     1
  1
AcDbDs::HandleAttributeSchema
  2
AcDbDs::HandleAttribute
280
     7
 91
        1
284
     1
  0
FIELD
  5
20CAC
330
20CAB
100
AcDbField
  1
AcVar
  2
\AcVar Filename \f "%tc1%fn2"
 90
        0
 97
        0
  4
%tc1%fn2
 91
       63
 92
        0
 94
       59
 95
        2
 96
        0
300

 93
        1
  6
Variable
 90
        4
  1
Filename
  7
ACFD_FIELD_VALUE
 90
        4
  1
S:\BenderA\DXF_CIM\1TW\1TW8Q016060T3R00.dxf
301
1TW8Q016060T3R00
 98
       16
  0
FIELD
  5
20FC3
330
20FC2
100
AcDbField
  1
AcVar
  2
\AcVar Filename \f "%tc1%fn2"
 90
        0
 97
        0
  4
%tc1%fn2
 91
       63
 92
        0
 94
       59
 95
        2
 96
        0
300

 93
        1
  6
Variable
 90
        4
  1
Filename
  7
ACFD_FIELD_VALUE
 90
        4
  1
S:\BenderA\DXF_CIM\1TW\1TW8Q016060T3R00.dxf
301
1TW8Q016060T3R00
 98
       16
  0
XRECORD
  5
21318
102
{ACAD_REACTORS
330
20CB4
102
}
330
20CB4
100
AcDbXrecord
280
     1
102
DISPLAYNAME
  1
Imperial24
102
FLAGS
 90
        0
  0
XRECORD
  5
21310
102
{ACAD_REACTORS
330
2098E
102
}
330
2098E
100
AcDbXrecord
280
     1
102
DISPLAYNAME
  1
Metric50
102
FLAGS
 90
        0
  0
XRECORD
  5
212F6
102
{ACAD_REACTORS
330
9C07
102
}
330
9C07
100
AcDbXrecord
280
     1
102
SHADEPLOT
 70
     0
102
SHADEPLOTRESLEVEL
 70
     2
102
SHADEPLOTCUSTOMDPI
 70
   300
  0
XRECORD
  5
212F5
102
{ACAD_REACTORS
330
212F4
102
}
330
212F4
100
AcDbXrecord
280
     1
102
SHADEPLOT
 70
     0
102
SHADEPLOTRESLEVEL
 70
     2
102
SHADEPLOTCUSTOMDPI
 70
   300
  0
XRECORD
  5
1B22C
102
{ACAD_REACTORS
330
1B22B
102
}
330
1B22B
100
AcDbXrecord
280
     1
102
MATERIAL
148
0.0
149
0.0
149
0.0
 93
        0
 94
      127
282
     0
 72
     1
 77
     1
171
     1
175
     1
179
     1
273
     0
  0
XRECORD
  5
1B22E
102
{ACAD_REACTORS
330
1B22D
102
}
330
1B22D
100
AcDbXrecord
280
     1
102
MATERIAL
148
0.0
149
0.0
149
0.0
 93
        0
 94
      127
282
     0
 72
     1
 77
     1
171
     1
175
     1
179
     1
273
     0
  0
XRECORD
  5
1B230
102
{ACAD_REACTORS
330
1B22F
102
}
330
1B22F
100
AcDbXrecord
280
     1
102
MATERIAL
148
0.0
149
0.0
149
0.0
 93
        0
 94
      127
282
     0
 72
     1
 77
     1
171
     1
175
     1
179
     1
273
     0
  0
XRECORD
  5
21317
102
{ACAD_REACTORS
330
20CB2
102
}
330
20CB2
100
AcDbXrecord
280
     1
102
DISPLAYNAME
  1
Imperial24
102
FLAGS
 90
        0
  0
XRECORD
  5
2130F
102
{ACAD_REACTORS
330
2098C
102
}
330
2098C
100
AcDbXrecord
280
     1
102
DISPLAYNAME
  1
Metric50
102
FLAGS
 90
        0
  0
CELLSTYLEMAP
  5
212C8
102
{ACAD_REACTORS
330
1B314
102
}
330
1B314
100
AcDbCellStyleMap
 90
        3
300
CELLSTYLE
  1
TABLEFORMAT_BEGIN
 90
        5
170
     1
 91
        0
 92
    32768
 62
   257
 93
        1
300
CONTENTFORMAT
  1
CONTENTFORMAT_BEGIN
 90
        0
 91
        0
 92
        4
 93
        0
300

 40
0.0
140
1.0
 94
        5
 62
     0
340
11
144
6.0
309
CONTENTFORMAT_END
171
     1
301
MARGIN
  1
CELLMARGIN_BEGIN
 40
1.5
 40
1.5
 40
1.5
 40
1.5
 40
0.18
 40
0.18
309
CELLMARGIN_END
 94
        6
 95
        1
302
GRIDFORMAT
  1
GRIDFORMAT_BEGIN
 90
        0
 91
        1
 62
     0
 92
       -2
340
0
 93
        0
 40
0.045
309
GRIDFORMAT_END
 95
        2
302
GRIDFORMAT
  1
GRIDFORMAT_BEGIN
 90
        0
 91
        1
 62
     0
 92
       -2
340
0
 93
        0
 40
0.045
309
GRIDFORMAT_END
 95
        4
302
GRIDFORMAT
  1
GRIDFORMAT_BEGIN
 90
        0
 91
        1
 62
     0
 92
       -2
340
0
 93
        0
 40
0.045
309
GRIDFORMAT_END
 95
        8
302
GRIDFORMAT
  1
GRIDFORMAT_BEGIN
 90
        0
 91
        1
 62
     0
 92
       -2
340
0
 93
        0
 40
0.045
309
GRIDFORMAT_END
 95
       16
302
GRIDFORMAT
  1
GRIDFORMAT_BEGIN
 90
        0
 91
        1
 62
     0
 92
       -2
340
0
 93
        0
 40
0.045
309
GRIDFORMAT_END
 95
       32
302
GRIDFORMAT
  1
GRIDFORMAT_BEGIN
 90
        0
 91
        1
 62
     0
 92
       -2
340
0
 93
        0
 40
0.045
309
GRIDFORMAT_END
309
TABLEFORMAT_END
  1
CELLSTYLE_BEGIN
 90
        1
 91
        1
300
_TITLE
309
CELLSTYLE_END
300
CELLSTYLE
  1
TABLEFORMAT_BEGIN
 90
        5
170
     1
 91
        0
 92
        0
 62
   257
 93
        1
300
CONTENTFORMAT
  1
CONTENTFORMAT_BEGIN
 90
        0
 91
        0
 92
        4
 93
        0
300

 40
0.0
140
1.0
 94
        5
 62
     0
340
11
144
4.5
309
CONTENTFORMAT_END
171
     1
301
MARGIN
  1
CELLMARGIN_BEGIN
 40
1.5
 40
1.5
 40
1.5
 40
1.5
 40
0.18
 40
0.18
309
CELLMARGIN_END
 94
        6
 95
        1
302
GRIDFORMAT
  1
GRIDFORMAT_BEGIN
 90
        0
 91
        1
 62
     0
 92
       -2
340
0
 93
        0
 40
0.045
309
GRIDFORMAT_END
 95
        2
302
GRIDFORMAT
  1
GRIDFORMAT_BEGIN
 90
        0
 91
        1
 62
     0
 92
       -2
340
0
 93
        0
 40
0.045
309
GRIDFORMAT_END
 95
        4
302
GRIDFORMAT
  1
GRIDFORMAT_BEGIN
 90
        0
 91
        1
 62
     0
 92
       -2
340
0
 93
        0
 40
0.045
309
GRIDFORMAT_END
 95
        8
302
GRIDFORMAT
  1
GRIDFORMAT_BEGIN
 90
        0
 91
        1
 62
     0
 92
       -2
340
0
 93
        0
 40
0.045
309
GRIDFORMAT_END
 95
       16
302
GRIDFORMAT
  1
GRIDFORMAT_BEGIN
 90
        0
 91
        1
 62
     0
 92
       -2
340
0
 93
        0
 40
0.045
309
GRIDFORMAT_END
 95
       32
302
GRIDFORMAT
  1
GRIDFORMAT_BEGIN
 90
        0
 91
        1
 62
     0
 92
       -2
340
0
 93
        0
 40
0.045
309
GRIDFORMAT_END
309
TABLEFORMAT_END
  1
CELLSTYLE_BEGIN
 90
        2
 91
        1
300
_HEADER
309
CELLSTYLE_END
300
CELLSTYLE
  1
TABLEFORMAT_BEGIN
 90
        5
170
     1
 91
        0
 92
        0
 62
   257
 93
        1
300
CONTENTFORMAT
  1
CONTENTFORMAT_BEGIN
 90
        0
 91
        0
 92
        4
 93
        0
300

 40
0.0
140
1.0
 94
        2
 62
     0
340
11
144
4.5
309
CONTENTFORMAT_END
171
     1
301
MARGIN
  1
CELLMARGIN_BEGIN
 40
1.5
 40
1.5
 40
1.5
 40
1.5
 40
0.18
 40
0.18
309
CELLMARGIN_END
 94
        6
 95
        1
302
GRIDFORMAT
  1
GRIDFORMAT_BEGIN
 90
        0
 91
        1
 62
     0
 92
       -2
340
0
 93
        0
 40
0.045
309
GRIDFORMAT_END
 95
        2
302
GRIDFORMAT
  1
GRIDFORMAT_BEGIN
 90
        0
 91
        1
 62
     0
 92
       -2
340
0
 93
        0
 40
0.045
309
GRIDFORMAT_END
 95
        4
302
GRIDFORMAT
  1
GRIDFORMAT_BEGIN
 90
        0
 91
        1
 62
     0
 92
       -2
340
0
 93
        0
 40
0.045
309
GRIDFORMAT_END
 95
        8
302
GRIDFORMAT
  1
GRIDFORMAT_BEGIN
 90
        0
 91
        1
 62
     0
 92
       -2
340
0
 93
        0
 40
0.045
309
GRIDFORMAT_END
 95
       16
302
GRIDFORMAT
  1
GRIDFORMAT_BEGIN
 90
        0
 91
        1
 62
     0
 92
       -2
340
0
 93
        0
 40
0.045
309
GRIDFORMAT_END
 95
       32
302
GRIDFORMAT
  1
GRIDFORMAT_BEGIN
 90
        0
 91
        1
 62
     0
 92
       -2
340
0
 93
        0
 40
0.045
309
GRIDFORMAT_END
309
TABLEFORMAT_END
  1
CELLSTYLE_BEGIN
 90
        3
 91
        2
300
_DATA
309
CELLSTYLE_END
  0
XRECORD
  5
212F3
102
{ACAD_REACTORS
330
1B314
102
}
330
1B314
100
AcDbXrecord
280
     1
102
ACAD_ROUNDTRIP_PRE2007_TABLESTYLE
 90
        4
 91
        0
  1

 92
        4
 93
        0
  2

 94
        4
 95
        0
  3

  0
XRECORD
  5
212DE
102
{ACAD_REACTORS
330
212DD
102
}
330
212DD
100
AcDbXrecord
280
     1
102
RTVSPost2010Prop28
280
     1
102
RTVSPost2010PropOp28
 70
     1
102
RTVSPost2010Prop29
280
     1
102
RTVSPost2010PropOp29
 70
     1
102
RTVSPost2010Prop30
280
     0
102
RTVSPost2010PropOp30
 70
     1
102
RTVSPost2010Prop31
280
     0
102
RTVSPost2010PropOp31
 70
     1
102
RTVSPost2010Prop32
280
     0
102
RTVSPost2010PropOp32
 70
     1
102
RTVSPost2010Prop33
280
     0
102
RTVSPost2010PropOp33
 70
     1
102
RTVSPost2010Prop34
280
     0
102
RTVSPost2010PropOp34
 70
     1
102
RTVSPost2010Prop35
280
     0
102
RTVSPost2010PropOp35
 70
     1
102
RTVSPost2010Prop36
280
     0
102
RTVSPost2010PropOp36
 70
     1
102
RTVSPost2010Prop37
 90
       50
102
RTVSPost2010PropOp37
 70
     1
102
RTVSPost2010Prop38
140
0.0
102
RTVSPost2010PropOp38
 70
     1
102
RTVSPost2010Prop39
140
1.0
102
RTVSPost2010PropOp39
 70
     1
102
RTVSPost2010Prop40
 90
        0
102
RTVSPost2010PropOp40
 70
     1
102
RTVSPost2010Prop41ColorIndex
 90
       18
102
RTVSPost2010Prop41ColorRGB
 90
        0
102
RTVSPost2010PropOp41
 70
     1
102
RTVSPost2010Prop42
 90
       50
102
RTVSPost2010PropOp42
 70
     1
102
RTVSPost2010Prop43
 90
        3
102
RTVSPost2010PropOp43
 70
     1
102
RTVSPost2010Prop44ColorIndex
 90
        5
102
RTVSPost2010Prop44ColorRGB
 90
      255
102
RTVSPost2010PropOp44
 70
     1
102
RTVSPost2010Prop45
280
     0
102
RTVSPost2010PropOp45
 70
     1
102
RTVSPost2010Prop46
 90
       50
102
RTVSPost2010PropOp46
 70
     1
102
RTVSPost2010Prop47
 90
       50
102
RTVSPost2010PropOp47
 70
     1
102
RTVSPost2010Prop48
 90
       50
102
RTVSPost2010PropOp48
 70
     1
102
RTVSPost2010Prop49
280
     0
102
RTVSPost2010PropOp49
 70
     1
102
RTVSPost2010Prop50
 90
       50
102
RTVSPost2010PropOp50
 70
     1
102
RTVSPost2010Prop51ColorIndex
 90
      256
102
RTVSPost2010Prop51ColorRGB
 90
-16777216
102
RTVSPost2010PropOp51
 70
     0
102
RTVSPost2010Prop52
140
1.0
102
RTVSPost2010PropOp52
 70
     0
102
RTVSPost2010Prop53
 90
        2
102
RTVSPost2010PropOp53
 70
     1
102
RTVSPost2010Prop54
  1
strokes_ogs.tif
102
RTVSPost2010PropOp54
 70
     1
102
RTVSPost2010Prop55
280
     0
102
RTVSPost2010PropOp55
 70
     1
102
RTVSPost2010Prop56
140
1.0
102
RTVSPost2010PropOp56
 70
     1
102
RTVSPost2010Prop57
140
1.0
102
RTVSPost2010PropOp57
 70
     1
102
RTVSPropertyOp0
 70
     1
102
RTVSPropertyOp1
 70
     1
102
RTVSPropertyOp2
 70
     1
102
RTVSPropertyOp3
 70
     1
102
RTVSPropertyOp4
 70
     1
102
RTVSPropertyOp5
 70
     1
102
RTVSPropertyOp6
 70
     1
102
RTVSPropertyOp7
 70
     1
102
RTVSPropertyOp8
 70
     1
102
RTVSPropertyOp9
 70
     1
102
RTVSPropertyOp10
 70
     1
102
RTVSPropertyOp11
 70
     1
102
RTVSPropertyOp12
 70
     1
102
RTVSPropertyOp13
 70
     1
102
RTVSPropertyOp14
 70
     1
102
RTVSPropertyOp15
 70
     1
102
RTVSPropertyOp16
 70
     1
102
RTVSPropertyOp17
 70
     1
102
RTVSPropertyOp18
 70
     1
102
RTVSPropertyOp19
 70
     1
102
RTVSPropertyOp20
 70
     1
102
RTVSPropertyOp21
 70
     1
102
RTVSPropertyOp22
 70
     1
102
RTVSPropertyOp23
 70
     1
102
RTVSPropertyOp24
 70
     1
102
RTVSPropertyOp25
 70
     1
102
RTVSPropertyOp26
 70
     1
102
RTVSPropertyOp27
 70
     1
102
RTVSPropertyOp28
 70
     1
102
RTVSPropertyOp29
 70
     1
102
RTVSPropertyOp30
 70
     1
102
RTVSPropertyOp31
 70
     1
102
RTVSPropertyOp32
 70
     1
102
RTVSPropertyOp33
 70
     1
102
RTVSPropertyOp34
 70
     1
102
RTVSPropertyOp35
 70
     1
102
RTVSPropertyOp36
 70
     1
102
RTVSPropertyOp37
 70
     1
102
RTVSPropertyOp38
 70
     1
102
RTVSPropertyOp39
 70
     1
102
RTVSPropertyOp40
 70
     1
102
RTVSPropertyOp41
 70
     1
102
RTVSPropertyOp42
 70
     1
102
RTVSPropertyOp43
 70
     1
102
RTVSPropertyOp44
 70
     1
102
RTVSPropertyOp45
 70
     1
102
RTVSPropertyOp46
 70
     1
102
RTVSPropertyOp47
 70
     1
102
RTVSPropertyOp48
 70
     1
102
RTVSPropertyOp49
 70
     1
102
RTVSPropertyOp50
 70
     1
102
RTVSPropertyOp51
 70
     0
102
RTVSPropertyOp52
 70
     0
102
RTVSPropertyOp53
 70
     1
102
RTVSPropertyOp54
 70
     1
102
RTVSPropertyOp55
 70
     1
102
RTVSPropertyOp56
 70
     1
102
RTVSPropertyOp57
 70
     1
102
RTVSPropertyOp58
 70
     1
102
RTVSPropertyOp59
 70
     1
102
RTVSPropertyOp60
 70
     1
102
RTVSPropertyOp61
 70
     1
102
RTVSPropertyOp62
 70
     1
  0
XRECORD
  5
212E2
102
{ACAD_REACTORS
330
212E1
102
}
330
212E1
100
AcDbXrecord
280
     1
102
RTVSPost2010Prop28
280
     0
102
RTVSPost2010PropOp28
 70
     1
102
RTVSPost2010Prop29
280
     1
102
RTVSPost2010PropOp29
 70
     1
102
RTVSPost2010Prop30
280
     1
102
RTVSPost2010PropOp30
 70
     1
102
RTVSPost2010Prop31
280
     0
102
RTVSPost2010PropOp31
 70
     1
102
RTVSPost2010Prop32
280
     0
102
RTVSPost2010PropOp32
 70
     1
102
RTVSPost2010Prop33
280
     0
102
RTVSPost2010PropOp33
 70
     1
102
RTVSPost2010Prop34
280
     0
102
RTVSPost2010PropOp34
 70
     1
102
RTVSPost2010Prop35
280
     0
102
RTVSPost2010PropOp35
 70
     1
102
RTVSPost2010Prop36
280
     0
102
RTVSPost2010PropOp36
 70
     1
102
RTVSPost2010Prop37
 90
       50
102
RTVSPost2010PropOp37
 70
     1
102
RTVSPost2010Prop38
140
0.0
102
RTVSPost2010PropOp38
 70
     1
102
RTVSPost2010Prop39
140
1.0
102
RTVSPost2010PropOp39
 70
     1
102
RTVSPost2010Prop40
 90
        0
102
RTVSPost2010PropOp40
 70
     1
102
RTVSPost2010Prop41ColorIndex
 90
       18
102
RTVSPost2010Prop41ColorRGB
 90
        0
102
RTVSPost2010PropOp41
 70
     1
102
RTVSPost2010Prop42
 90
       50
102
RTVSPost2010PropOp42
 70
     1
102
RTVSPost2010Prop43
 90
        3
102
RTVSPost2010PropOp43
 70
     1
102
RTVSPost2010Prop44ColorIndex
 90
        5
102
RTVSPost2010Prop44ColorRGB
 90
      255
102
RTVSPost2010PropOp44
 70
     1
102
RTVSPost2010Prop45
280
     0
102
RTVSPost2010PropOp45
 70
     1
102
RTVSPost2010Prop46
 90
       50
102
RTVSPost2010PropOp46
 70
     1
102
RTVSPost2010Prop47
 90
       50
102
RTVSPost2010PropOp47
 70
     1
102
RTVSPost2010Prop48
 90
       50
102
RTVSPost2010PropOp48
 70
     1
102
RTVSPost2010Prop49
280
     0
102
RTVSPost2010PropOp49
 70
     1
102
RTVSPost2010Prop50
 90
       50
102
RTVSPost2010PropOp50
 70
     1
102
RTVSPost2010Prop51ColorIndex
 90
      256
102
RTVSPost2010Prop51ColorRGB
 90
-16777216
102
RTVSPost2010PropOp51
 70
     0
102
RTVSPost2010Prop52
140
1.0
102
RTVSPost2010PropOp52
 70
     0
102
RTVSPost2010Prop53
 90
        2
102
RTVSPost2010PropOp53
 70
     1
102
RTVSPost2010Prop54
  1
strokes_ogs.tif
102
RTVSPost2010PropOp54
 70
     1
102
RTVSPost2010Prop55
280
     0
102
RTVSPost2010PropOp55
 70
     1
102
RTVSPost2010Prop56
140
1.0
102
RTVSPost2010PropOp56
 70
     1
102
RTVSPost2010Prop57
140
1.0
102
RTVSPost2010PropOp57
 70
     1
102
RTVSPropertyOp0
 70
     1
102
RTVSPropertyOp1
 70
     1
102
RTVSPropertyOp2
 70
     1
102
RTVSPropertyOp3
 70
     1
102
RTVSPropertyOp4
 70
     1
102
RTVSPropertyOp5
 70
     1
102
RTVSPropertyOp6
 70
     1
102
RTVSPropertyOp7
 70
     1
102
RTVSPropertyOp8
 70
     1
102
RTVSPropertyOp9
 70
     1
102
RTVSPropertyOp10
 70
     1
102
RTVSPropertyOp11
 70
     1
102
RTVSPropertyOp12
 70
     1
102
RTVSPropertyOp13
 70
     1
102
RTVSPropertyOp14
 70
     1
102
RTVSPropertyOp15
 70
     1
102
RTVSPropertyOp16
 70
     1
102
RTVSPropertyOp17
 70
     1
102
RTVSPropertyOp18
 70
     1
102
RTVSPropertyOp19
 70
     1
102
RTVSPropertyOp20
 70
     1
102
RTVSPropertyOp21
 70
     1
102
RTVSPropertyOp22
 70
     1
102
RTVSPropertyOp23
 70
     1
102
RTVSPropertyOp24
 70
     1
102
RTVSPropertyOp25
 70
     1
102
RTVSPropertyOp26
 70
     1
102
RTVSPropertyOp27
 70
     1
102
RTVSPropertyOp28
 70
     1
102
RTVSPropertyOp29
 70
     1
102
RTVSPropertyOp30
 70
     1
102
RTVSPropertyOp31
 70
     1
102
RTVSPropertyOp32
 70
     1
102
RTVSPropertyOp33
 70
     1
102
RTVSPropertyOp34
 70
     1
102
RTVSPropertyOp35
 70
     1
102
RTVSPropertyOp36
 70
     1
102
RTVSPropertyOp37
 70
     1
102
RTVSPropertyOp38
 70
     1
102
RTVSPropertyOp39
 70
     1
102
RTVSPropertyOp40
 70
     1
102
RTVSPropertyOp41
 70
     1
102
RTVSPropertyOp42
 70
     1
102
RTVSPropertyOp43
 70
     1
102
RTVSPropertyOp44
 70
     1
102
RTVSPropertyOp45
 70
     1
102
RTVSPropertyOp46
 70
     1
102
RTVSPropertyOp47
 70
     1
102
RTVSPropertyOp48
 70
     1
102
RTVSPropertyOp49
 70
     1
102
RTVSPropertyOp50
 70
     1
102
RTVSPropertyOp51
 70
     0
102
RTVSPropertyOp52
 70
     0
102
RTVSPropertyOp53
 70
     1
102
RTVSPropertyOp54
 70
     1
102
RTVSPropertyOp55
 70
     1
102
RTVSPropertyOp56
 70
     1
102
RTVSPropertyOp57
 70
     1
102
RTVSPropertyOp58
 70
     1
102
RTVSPropertyOp59
 70
     1
102
RTVSPropertyOp60
 70
     1
102
RTVSPropertyOp61
 70
     1
102
RTVSPropertyOp62
 70
     1
  0
XRECORD
  5
212E0
102
{ACAD_REACTORS
330
212DF
102
}
330
212DF
100
AcDbXrecord
280
     1
102
RTVSPost2010Prop28
280
     0
102
RTVSPost2010PropOp28
 70
     1
102
RTVSPost2010Prop29
280
     1
102
RTVSPost2010PropOp29
 70
     1
102
RTVSPost2010Prop30
280
     1
102
RTVSPost2010PropOp30
 70
     1
102
RTVSPost2010Prop31
280
     0
102
RTVSPost2010PropOp31
 70
     1
102
RTVSPost2010Prop32
280
     0
102
RTVSPost2010PropOp32
 70
     1
102
RTVSPost2010Prop33
280
     0
102
RTVSPost2010PropOp33
 70
     1
102
RTVSPost2010Prop34
280
     0
102
RTVSPost2010PropOp34
 70
     1
102
RTVSPost2010Prop35
280
     0
102
RTVSPost2010PropOp35
 70
     1
102
RTVSPost2010Prop36
280
     0
102
RTVSPost2010PropOp36
 70
     1
102
RTVSPost2010Prop37
 90
       50
102
RTVSPost2010PropOp37
 70
     1
102
RTVSPost2010Prop38
140
0.0
102
RTVSPost2010PropOp38
 70
     1
102
RTVSPost2010Prop39
140
1.0
102
RTVSPost2010PropOp39
 70
     1
102
RTVSPost2010Prop40
 90
        0
102
RTVSPost2010PropOp40
 70
     1
102
RTVSPost2010Prop41ColorIndex
 90
       18
102
RTVSPost2010Prop41ColorRGB
 90
        0
102
RTVSPost2010PropOp41
 70
     1
102
RTVSPost2010Prop42
 90
       50
102
RTVSPost2010PropOp42
 70
     1
102
RTVSPost2010Prop43
 90
        3
102
RTVSPost2010PropOp43
 70
     1
102
RTVSPost2010Prop44ColorIndex
 90
        5
102
RTVSPost2010Prop44ColorRGB
 90
      255
102
RTVSPost2010PropOp44
 70
     1
102
RTVSPost2010Prop45
280
     0
102
RTVSPost2010PropOp45
 70
     1
102
RTVSPost2010Prop46
 90
       50
102
RTVSPost2010PropOp46
 70
     1
102
RTVSPost2010Prop47
 90
       50
102
RTVSPost2010PropOp47
 70
     1
102
RTVSPost2010Prop48
 90
       50
102
RTVSPost2010PropOp48
 70
     1
102
RTVSPost2010Prop49
280
     0
102
RTVSPost2010PropOp49
 70
     1
102
RTVSPost2010Prop50
 90
       50
102
RTVSPost2010PropOp50
 70
     1
102
RTVSPost2010Prop51ColorIndex
 90
      256
102
RTVSPost2010Prop51ColorRGB
 90
-16777216
102
RTVSPost2010PropOp51
 70
     0
102
RTVSPost2010Prop52
140
1.0
102
RTVSPost2010PropOp52
 70
     0
102
RTVSPost2010Prop53
 90
        2
102
RTVSPost2010PropOp53
 70
     1
102
RTVSPost2010Prop54
  1
strokes_ogs.tif
102
RTVSPost2010PropOp54
 70
     1
102
RTVSPost2010Prop55
280
     0
102
RTVSPost2010PropOp55
 70
     1
102
RTVSPost2010Prop56
140
1.0
102
RTVSPost2010PropOp56
 70
     1
102
RTVSPost2010Prop57
140
1.0
102
RTVSPost2010PropOp57
 70
     1
102
RTVSPropertyOp0
 70
     1
102
RTVSPropertyOp1
 70
     1
102
RTVSPropertyOp2
 70
     1
102
RTVSPropertyOp3
 70
     1
102
RTVSPropertyOp4
 70
     1
102
RTVSPropertyOp5
 70
     1
102
RTVSPropertyOp6
 70
     1
102
RTVSPropertyOp7
 70
     1
102
RTVSPropertyOp8
 70
     1
102
RTVSPropertyOp9
 70
     1
102
RTVSPropertyOp10
 70
     1
102
RTVSPropertyOp11
 70
     1
102
RTVSPropertyOp12
 70
     1
102
RTVSPropertyOp13
 70
     1
102
RTVSPropertyOp14
 70
     1
102
RTVSPropertyOp15
 70
     1
102
RTVSPropertyOp16
 70
     1
102
RTVSPropertyOp17
 70
     1
102
RTVSPropertyOp18
 70
     1
102
RTVSPropertyOp19
 70
     1
102
RTVSPropertyOp20
 70
     1
102
RTVSPropertyOp21
 70
     1
102
RTVSPropertyOp22
 70
     1
102
RTVSPropertyOp23
 70
     1
102
RTVSPropertyOp24
 70
     1
102
RTVSPropertyOp25
 70
     1
102
RTVSPropertyOp26
 70
     1
102
RTVSPropertyOp27
 70
     1
102
RTVSPropertyOp28
 70
     1
102
RTVSPropertyOp29
 70
     1
102
RTVSPropertyOp30
 70
     1
102
RTVSPropertyOp31
 70
     1
102
RTVSPropertyOp32
 70
     1
102
RTVSPropertyOp33
 70
     1
102
RTVSPropertyOp34
 70
     1
102
RTVSPropertyOp35
 70
     1
102
RTVSPropertyOp36
 70
     1
102
RTVSPropertyOp37
 70
     1
102
RTVSPropertyOp38
 70
     1
102
RTVSPropertyOp39
 70
     1
102
RTVSPropertyOp40
 70
     1
102
RTVSPropertyOp41
 70
     1
102
RTVSPropertyOp42
 70
     1
102
RTVSPropertyOp43
 70
     1
102
RTVSPropertyOp44
 70
     1
102
RTVSPropertyOp45
 70
     1
102
RTVSPropertyOp46
 70
     1
102
RTVSPropertyOp47
 70
     1
102
RTVSPropertyOp48
 70
     1
102
RTVSPropertyOp49
 70
     1
102
RTVSPropertyOp50
 70
     1
102
RTVSPropertyOp51
 70
     0
102
RTVSPropertyOp52
 70
     0
102
RTVSPropertyOp53
 70
     1
102
RTVSPropertyOp54
 70
     1
102
RTVSPropertyOp55
 70
     1
102
RTVSPropertyOp56
 70
     1
102
RTVSPropertyOp57
 70
     1
102
RTVSPropertyOp58
 70
     1
102
RTVSPropertyOp59
 70
     1
102
RTVSPropertyOp60
 70
     1
102
RTVSPropertyOp61
 70
     1
102
RTVSPropertyOp62
 70
     1
  0
XRECORD
  5
212DC
102
{ACAD_REACTORS
330
212DB
102
}
330
212DB
100
AcDbXrecord
280
     1
102
RTVSPost2010Prop28
280
     0
102
RTVSPost2010PropOp28
 70
     1
102
RTVSPost2010Prop29
280
     1
102
RTVSPost2010PropOp29
 70
     1
102
RTVSPost2010Prop30
280
     1
102
RTVSPost2010PropOp30
 70
     1
102
RTVSPost2010Prop31
280
     0
102
RTVSPost2010PropOp31
 70
     1
102
RTVSPost2010Prop32
280
     0
102
RTVSPost2010PropOp32
 70
     1
102
RTVSPost2010Prop33
280
     0
102
RTVSPost2010PropOp33
 70
     1
102
RTVSPost2010Prop34
280
     0
102
RTVSPost2010PropOp34
 70
     1
102
RTVSPost2010Prop35
280
     0
102
RTVSPost2010PropOp35
 70
     1
102
RTVSPost2010Prop36
280
     0
102
RTVSPost2010PropOp36
 70
     1
102
RTVSPost2010Prop37
 90
       50
102
RTVSPost2010PropOp37
 70
     1
102
RTVSPost2010Prop38
140
0.0
102
RTVSPost2010PropOp38
 70
     1
102
RTVSPost2010Prop39
140
1.0
102
RTVSPost2010PropOp39
 70
     1
102
RTVSPost2010Prop40
 90
        0
102
RTVSPost2010PropOp40
 70
     1
102
RTVSPost2010Prop41ColorIndex
 90
       18
102
RTVSPost2010Prop41ColorRGB
 90
        0
102
RTVSPost2010PropOp41
 70
     1
102
RTVSPost2010Prop42
 90
       50
102
RTVSPost2010PropOp42
 70
     1
102
RTVSPost2010Prop43
 90
        3
102
RTVSPost2010PropOp43
 70
     1
102
RTVSPost2010Prop44ColorIndex
 90
        5
102
RTVSPost2010Prop44ColorRGB
 90
      255
102
RTVSPost2010PropOp44
 70
     1
102
RTVSPost2010Prop45
280
     0
102
RTVSPost2010PropOp45
 70
     1
102
RTVSPost2010Prop46
 90
       50
102
RTVSPost2010PropOp46
 70
     1
102
RTVSPost2010Prop47
 90
       50
102
RTVSPost2010PropOp47
 70
     1
102
RTVSPost2010Prop48
 90
       50
102
RTVSPost2010PropOp48
 70
     1
102
RTVSPost2010Prop49
280
     0
102
RTVSPost2010PropOp49
 70
     1
102
RTVSPost2010Prop50
 90
       50
102
RTVSPost2010PropOp50
 70
     1
102
RTVSPost2010Prop51ColorIndex
 90
      256
102
RTVSPost2010Prop51ColorRGB
 90
-16777216
102
RTVSPost2010PropOp51
 70
     0
102
RTVSPost2010Prop52
140
1.0
102
RTVSPost2010PropOp52
 70
     0
102
RTVSPost2010Prop53
 90
        2
102
RTVSPost2010PropOp53
 70
     1
102
RTVSPost2010Prop54
  1
strokes_ogs.tif
102
RTVSPost2010PropOp54
 70
     1
102
RTVSPost2010Prop55
280
     0
102
RTVSPost2010PropOp55
 70
     1
102
RTVSPost2010Prop56
140
1.0
102
RTVSPost2010PropOp56
 70
     1
102
RTVSPost2010Prop57
140
1.0
102
RTVSPost2010PropOp57
 70
     1
102
RTVSPropertyOp0
 70
     1
102
RTVSPropertyOp1
 70
     1
102
RTVSPropertyOp2
 70
     1
102
RTVSPropertyOp3
 70
     1
102
RTVSPropertyOp4
 70
     1
102
RTVSPropertyOp5
 70
     1
102
RTVSPropertyOp6
 70
     1
102
RTVSPropertyOp7
 70
     1
102
RTVSPropertyOp8
 70
     1
102
RTVSPropertyOp9
 70
     1
102
RTVSPropertyOp10
 70
     1
102
RTVSPropertyOp11
 70
     1
102
RTVSPropertyOp12
 70
     1
102
RTVSPropertyOp13
 70
     1
102
RTVSPropertyOp14
 70
     1
102
RTVSPropertyOp15
 70
     1
102
RTVSPropertyOp16
 70
     1
102
RTVSPropertyOp17
 70
     1
102
RTVSPropertyOp18
 70
     1
102
RTVSPropertyOp19
 70
     1
102
RTVSPropertyOp20
 70
     1
102
RTVSPropertyOp21
 70
     1
102
RTVSPropertyOp22
 70
     1
102
RTVSPropertyOp23
 70
     1
102
RTVSPropertyOp24
 70
     1
102
RTVSPropertyOp25
 70
     1
102
RTVSPropertyOp26
 70
     1
102
RTVSPropertyOp27
 70
     1
102
RTVSPropertyOp28
 70
     1
102
RTVSPropertyOp29
 70
     1
102
RTVSPropertyOp30
 70
     1
102
RTVSPropertyOp31
 70
     1
102
RTVSPropertyOp32
 70
     1
102
RTVSPropertyOp33
 70
     1
102
RTVSPropertyOp34
 70
     1
102
RTVSPropertyOp35
 70
     1
102
RTVSPropertyOp36
 70
     1
102
RTVSPropertyOp37
 70
     1
102
RTVSPropertyOp38
 70
     1
102
RTVSPropertyOp39
 70
     1
102
RTVSPropertyOp40
 70
     1
102
RTVSPropertyOp41
 70
     1
102
RTVSPropertyOp42
 70
     1
102
RTVSPropertyOp43
 70
     1
102
RTVSPropertyOp44
 70
     1
102
RTVSPropertyOp45
 70
     1
102
RTVSPropertyOp46
 70
     1
102
RTVSPropertyOp47
 70
     1
102
RTVSPropertyOp48
 70
     1
102
RTVSPropertyOp49
 70
     1
102
RTVSPropertyOp50
 70
     1
102
RTVSPropertyOp51
 70
     0
102
RTVSPropertyOp52
 70
     0
102
RTVSPropertyOp53
 70
     1
102
RTVSPropertyOp54
 70
     1
102
RTVSPropertyOp55
 70
     1
102
RTVSPropertyOp56
 70
     1
102
RTVSPropertyOp57
 70
     1
102
RTVSPropertyOp58
 70
     1
102
RTVSPropertyOp59
 70
     1
102
RTVSPropertyOp60
 70
     1
102
RTVSPropertyOp61
 70
     1
102
RTVSPropertyOp62
 70
     1
  0
XRECORD
  5
212EA
102
{ACAD_REACTORS
330
212E9
102
}
330
212E9
100
AcDbXrecord
280
     1
102
RTVSPost2010Prop28
280
     0
102
RTVSPost2010PropOp28
 70
     1
102
RTVSPost2010Prop29
280
     1
102
RTVSPost2010PropOp29
 70
     1
102
RTVSPost2010Prop30
280
     1
102
RTVSPost2010PropOp30
 70
     1
102
RTVSPost2010Prop31
280
     0
102
RTVSPost2010PropOp31
 70
     1
102
RTVSPost2010Prop32
280
     0
102
RTVSPost2010PropOp32
 70
     1
102
RTVSPost2010Prop33
280
     0
102
RTVSPost2010PropOp33
 70
     1
102
RTVSPost2010Prop34
280
     0
102
RTVSPost2010PropOp34
 70
     1
102
RTVSPost2010Prop35
280
     0
102
RTVSPost2010PropOp35
 70
     1
102
RTVSPost2010Prop36
280
     0
102
RTVSPost2010PropOp36
 70
     1
102
RTVSPost2010Prop37
 90
       50
102
RTVSPost2010PropOp37
 70
     1
102
RTVSPost2010Prop38
140
0.0
102
RTVSPost2010PropOp38
 70
     1
102
RTVSPost2010Prop39
140
1.0
102
RTVSPost2010PropOp39
 70
     1
102
RTVSPost2010Prop40
 90
        0
102
RTVSPost2010PropOp40
 70
     1
102
RTVSPost2010Prop41ColorIndex
 90
       18
102
RTVSPost2010Prop41ColorRGB
 90
        0
102
RTVSPost2010PropOp41
 70
     1
102
RTVSPost2010Prop42
 90
       50
102
RTVSPost2010PropOp42
 70
     1
102
RTVSPost2010Prop43
 90
        3
102
RTVSPost2010PropOp43
 70
     1
102
RTVSPost2010Prop44ColorIndex
 90
        5
102
RTVSPost2010Prop44ColorRGB
 90
      255
102
RTVSPost2010PropOp44
 70
     1
102
RTVSPost2010Prop45
280
     0
102
RTVSPost2010PropOp45
 70
     1
102
RTVSPost2010Prop46
 90
       50
102
RTVSPost2010PropOp46
 70
     1
102
RTVSPost2010Prop47
 90
       50
102
RTVSPost2010PropOp47
 70
     1
102
RTVSPost2010Prop48
 90
       50
102
RTVSPost2010PropOp48
 70
     1
102
RTVSPost2010Prop49
280
     0
102
RTVSPost2010PropOp49
 70
     1
102
RTVSPost2010Prop50
 90
       50
102
RTVSPost2010PropOp50
 70
     1
102
RTVSPost2010Prop51ColorIndex
 90
      256
102
RTVSPost2010Prop51ColorRGB
 90
-16777216
102
RTVSPost2010PropOp51
 70
     0
102
RTVSPost2010Prop52
140
1.0
102
RTVSPost2010PropOp52
 70
     0
102
RTVSPost2010Prop53
 90
        2
102
RTVSPost2010PropOp53
 70
     1
102
RTVSPost2010Prop54
  1
strokes_ogs.tif
102
RTVSPost2010PropOp54
 70
     1
102
RTVSPost2010Prop55
280
     0
102
RTVSPost2010PropOp55
 70
     1
102
RTVSPost2010Prop56
140
1.0
102
RTVSPost2010PropOp56
 70
     1
102
RTVSPost2010Prop57
140
1.0
102
RTVSPost2010PropOp57
 70
     1
102
RTVSPropertyOp0
 70
     1
102
RTVSPropertyOp1
 70
     1
102
RTVSPropertyOp2
 70
     1
102
RTVSPropertyOp3
 70
     1
102
RTVSPropertyOp4
 70
     1
102
RTVSPropertyOp5
 70
     1
102
RTVSPropertyOp6
 70
     1
102
RTVSPropertyOp7
 70
     1
102
RTVSPropertyOp8
 70
     1
102
RTVSPropertyOp9
 70
     1
102
RTVSPropertyOp10
 70
     1
102
RTVSPropertyOp11
 70
     1
102
RTVSPropertyOp12
 70
     1
102
RTVSPropertyOp13
 70
     1
102
RTVSPropertyOp14
 70
     1
102
RTVSPropertyOp15
 70
     1
102
RTVSPropertyOp16
 70
     1
102
RTVSPropertyOp17
 70
     1
102
RTVSPropertyOp18
 70
     1
102
RTVSPropertyOp19
 70
     1
102
RTVSPropertyOp20
 70
     1
102
RTVSPropertyOp21
 70
     1
102
RTVSPropertyOp22
 70
     1
102
RTVSPropertyOp23
 70
     1
102
RTVSPropertyOp24
 70
     1
102
RTVSPropertyOp25
 70
     1
102
RTVSPropertyOp26
 70
     1
102
RTVSPropertyOp27
 70
     1
102
RTVSPropertyOp28
 70
     1
102
RTVSPropertyOp29
 70
     1
102
RTVSPropertyOp30
 70
     1
102
RTVSPropertyOp31
 70
     1
102
RTVSPropertyOp32
 70
     1
102
RTVSPropertyOp33
 70
     1
102
RTVSPropertyOp34
 70
     1
102
RTVSPropertyOp35
 70
     1
102
RTVSPropertyOp36
 70
     1
102
RTVSPropertyOp37
 70
     1
102
RTVSPropertyOp38
 70
     1
102
RTVSPropertyOp39
 70
     1
102
RTVSPropertyOp40
 70
     1
102
RTVSPropertyOp41
 70
     1
102
RTVSPropertyOp42
 70
     1
102
RTVSPropertyOp43
 70
     1
102
RTVSPropertyOp44
 70
     1
102
RTVSPropertyOp45
 70
     1
102
RTVSPropertyOp46
 70
     1
102
RTVSPropertyOp47
 70
     1
102
RTVSPropertyOp48
 70
     1
102
RTVSPropertyOp49
 70
     1
102
RTVSPropertyOp50
 70
     1
102
RTVSPropertyOp51
 70
     0
102
RTVSPropertyOp52
 70
     0
102
RTVSPropertyOp53
 70
     1
102
RTVSPropertyOp54
 70
     1
102
RTVSPropertyOp55
 70
     1
102
RTVSPropertyOp56
 70
     1
102
RTVSPropertyOp57
 70
     1
102
RTVSPropertyOp58
 70
     1
102
RTVSPropertyOp59
 70
     1
102
RTVSPropertyOp60
 70
     1
102
RTVSPropertyOp61
 70
     1
102
RTVSPropertyOp62
 70
     1
  0
XRECORD
  5
212F2
102
{ACAD_REACTORS
330
212F1
102
}
330
212F1
100
AcDbXrecord
280
     1
102
RTVSPost2010Prop28
280
     0
102
RTVSPost2010PropOp28
 70
     1
102
RTVSPost2010Prop29
280
     1
102
RTVSPost2010PropOp29
 70
     1
102
RTVSPost2010Prop30
280
     1
102
RTVSPost2010PropOp30
 70
     1
102
RTVSPost2010Prop31
280
     0
102
RTVSPost2010PropOp31
 70
     1
102
RTVSPost2010Prop32
280
     0
102
RTVSPost2010PropOp32
 70
     1
102
RTVSPost2010Prop33
280
     0
102
RTVSPost2010PropOp33
 70
     1
102
RTVSPost2010Prop34
280
     0
102
RTVSPost2010PropOp34
 70
     1
102
RTVSPost2010Prop35
280
     0
102
RTVSPost2010PropOp35
 70
     1
102
RTVSPost2010Prop36
280
     0
102
RTVSPost2010PropOp36
 70
     1
102
RTVSPost2010Prop37
 90
       50
102
RTVSPost2010PropOp37
 70
     1
102
RTVSPost2010Prop38
140
0.0
102
RTVSPost2010PropOp38
 70
     1
102
RTVSPost2010Prop39
140
1.0
102
RTVSPost2010PropOp39
 70
     1
102
RTVSPost2010Prop40
 90
        0
102
RTVSPost2010PropOp40
 70
     1
102
RTVSPost2010Prop41ColorIndex
 90
       18
102
RTVSPost2010Prop41ColorRGB
 90
        0
102
RTVSPost2010PropOp41
 70
     1
102
RTVSPost2010Prop42
 90
       50
102
RTVSPost2010PropOp42
 70
     1
102
RTVSPost2010Prop43
 90
        3
102
RTVSPost2010PropOp43
 70
     1
102
RTVSPost2010Prop44ColorIndex
 90
        5
102
RTVSPost2010Prop44ColorRGB
 90
      255
102
RTVSPost2010PropOp44
 70
     1
102
RTVSPost2010Prop45
280
     0
102
RTVSPost2010PropOp45
 70
     1
102
RTVSPost2010Prop46
 90
       50
102
RTVSPost2010PropOp46
 70
     1
102
RTVSPost2010Prop47
 90
       50
102
RTVSPost2010PropOp47
 70
     1
102
RTVSPost2010Prop48
 90
       50
102
RTVSPost2010PropOp48
 70
     1
102
RTVSPost2010Prop49
280
     0
102
RTVSPost2010PropOp49
 70
     1
102
RTVSPost2010Prop50
 90
       50
102
RTVSPost2010PropOp50
 70
     1
102
RTVSPost2010Prop51ColorIndex
 90
      256
102
RTVSPost2010Prop51ColorRGB
 90
-16777216
102
RTVSPost2010PropOp51
 70
     0
102
RTVSPost2010Prop52
140
1.0
102
RTVSPost2010PropOp52
 70
     0
102
RTVSPost2010Prop53
 90
        2
102
RTVSPost2010PropOp53
 70
     1
102
RTVSPost2010Prop54
  1
strokes_ogs.tif
102
RTVSPost2010PropOp54
 70
     1
102
RTVSPost2010Prop55
280
     0
102
RTVSPost2010PropOp55
 70
     1
102
RTVSPost2010Prop56
140
1.0
102
RTVSPost2010PropOp56
 70
     1
102
RTVSPost2010Prop57
140
1.0
102
RTVSPost2010PropOp57
 70
     1
102
RTVSPropertyOp0
 70
     1
102
RTVSPropertyOp1
 70
     1
102
RTVSPropertyOp2
 70
     1
102
RTVSPropertyOp3
 70
     1
102
RTVSPropertyOp4
 70
     1
102
RTVSPropertyOp5
 70
     1
102
RTVSPropertyOp6
 70
     1
102
RTVSPropertyOp7
 70
     1
102
RTVSPropertyOp8
 70
     1
102
RTVSPropertyOp9
 70
     1
102
RTVSPropertyOp10
 70
     1
102
RTVSPropertyOp11
 70
     1
102
RTVSPropertyOp12
 70
     1
102
RTVSPropertyOp13
 70
     1
102
RTVSPropertyOp14
 70
     1
102
RTVSPropertyOp15
 70
     1
102
RTVSPropertyOp16
 70
     1
102
RTVSPropertyOp17
 70
     1
102
RTVSPropertyOp18
 70
     1
102
RTVSPropertyOp19
 70
     1
102
RTVSPropertyOp20
 70
     1
102
RTVSPropertyOp21
 70
     1
102
RTVSPropertyOp22
 70
     1
102
RTVSPropertyOp23
 70
     1
102
RTVSPropertyOp24
 70
     1
102
RTVSPropertyOp25
 70
     1
102
RTVSPropertyOp26
 70
     1
102
RTVSPropertyOp27
 70
     1
102
RTVSPropertyOp28
 70
     1
102
RTVSPropertyOp29
 70
     1
102
RTVSPropertyOp30
 70
     1
102
RTVSPropertyOp31
 70
     1
102
RTVSPropertyOp32
 70
     1
102
RTVSPropertyOp33
 70
     1
102
RTVSPropertyOp34
 70
     1
102
RTVSPropertyOp35
 70
     1
102
RTVSPropertyOp36
 70
     1
102
RTVSPropertyOp37
 70
     1
102
RTVSPropertyOp38
 70
     1
102
RTVSPropertyOp39
 70
     1
102
RTVSPropertyOp40
 70
     1
102
RTVSPropertyOp41
 70
     1
102
RTVSPropertyOp42
 70
     1
102
RTVSPropertyOp43
 70
     1
102
RTVSPropertyOp44
 70
     1
102
RTVSPropertyOp45
 70
     1
102
RTVSPropertyOp46
 70
     1
102
RTVSPropertyOp47
 70
     1
102
RTVSPropertyOp48
 70
     1
102
RTVSPropertyOp49
 70
     1
102
RTVSPropertyOp50
 70
     1
102
RTVSPropertyOp51
 70
     0
102
RTVSPropertyOp52
 70
     0
102
RTVSPropertyOp53
 70
     1
102
RTVSPropertyOp54
 70
     1
102
RTVSPropertyOp55
 70
     1
102
RTVSPropertyOp56
 70
     1
102
RTVSPropertyOp57
 70
     1
102
RTVSPropertyOp58
 70
     1
102
RTVSPropertyOp59
 70
     1
102
RTVSPropertyOp60
 70
     1
102
RTVSPropertyOp61
 70
     1
102
RTVSPropertyOp62
 70
     1
  0
XRECORD
  5
212E4
102
{ACAD_REACTORS
330
212E3
102
}
330
212E3
100
AcDbXrecord
280
     1
102
RTVSPost2010Prop28
280
     0
102
RTVSPost2010PropOp28
 70
     1
102
RTVSPost2010Prop29
280
     1
102
RTVSPost2010PropOp29
 70
     1
102
RTVSPost2010Prop30
280
     1
102
RTVSPost2010PropOp30
 70
     1
102
RTVSPost2010Prop31
280
     0
102
RTVSPost2010PropOp31
 70
     1
102
RTVSPost2010Prop32
280
     0
102
RTVSPost2010PropOp32
 70
     1
102
RTVSPost2010Prop33
280
     0
102
RTVSPost2010PropOp33
 70
     1
102
RTVSPost2010Prop34
280
     0
102
RTVSPost2010PropOp34
 70
     1
102
RTVSPost2010Prop35
280
     0
102
RTVSPost2010PropOp35
 70
     1
102
RTVSPost2010Prop36
280
     0
102
RTVSPost2010PropOp36
 70
     1
102
RTVSPost2010Prop37
 90
       50
102
RTVSPost2010PropOp37
 70
     1
102
RTVSPost2010Prop38
140
0.0
102
RTVSPost2010PropOp38
 70
     1
102
RTVSPost2010Prop39
140
1.0
102
RTVSPost2010PropOp39
 70
     1
102
RTVSPost2010Prop40
 90
        0
102
RTVSPost2010PropOp40
 70
     1
102
RTVSPost2010Prop41ColorIndex
 90
       18
102
RTVSPost2010Prop41ColorRGB
 90
        0
102
RTVSPost2010PropOp41
 70
     1
102
RTVSPost2010Prop42
 90
       50
102
RTVSPost2010PropOp42
 70
     1
102
RTVSPost2010Prop43
 90
        3
102
RTVSPost2010PropOp43
 70
     1
102
RTVSPost2010Prop44ColorIndex
 90
        5
102
RTVSPost2010Prop44ColorRGB
 90
      255
102
RTVSPost2010PropOp44
 70
     1
102
RTVSPost2010Prop45
280
     0
102
RTVSPost2010PropOp45
 70
     1
102
RTVSPost2010Prop46
 90
       50
102
RTVSPost2010PropOp46
 70
     1
102
RTVSPost2010Prop47
 90
       50
102
RTVSPost2010PropOp47
 70
     1
102
RTVSPost2010Prop48
 90
       50
102
RTVSPost2010PropOp48
 70
     1
102
RTVSPost2010Prop49
280
     0
102
RTVSPost2010PropOp49
 70
     1
102
RTVSPost2010Prop50
 90
       50
102
RTVSPost2010PropOp50
 70
     1
102
RTVSPost2010Prop51ColorIndex
 90
      256
102
RTVSPost2010Prop51ColorRGB
 90
-16777216
102
RTVSPost2010PropOp51
 70
     0
102
RTVSPost2010Prop52
140
1.0
102
RTVSPost2010PropOp52
 70
     0
102
RTVSPost2010Prop53
 90
        2
102
RTVSPost2010PropOp53
 70
     1
102
RTVSPost2010Prop54
  1
strokes_ogs.tif
102
RTVSPost2010PropOp54
 70
     1
102
RTVSPost2010Prop55
280
     0
102
RTVSPost2010PropOp55
 70
     1
102
RTVSPost2010Prop56
140
1.0
102
RTVSPost2010PropOp56
 70
     1
102
RTVSPost2010Prop57
140
1.0
102
RTVSPost2010PropOp57
 70
     1
102
RTVSPropertyOp0
 70
     1
102
RTVSPropertyOp1
 70
     1
102
RTVSPropertyOp2
 70
     1
102
RTVSPropertyOp3
 70
     1
102
RTVSPropertyOp4
 70
     1
102
RTVSPropertyOp5
 70
     1
102
RTVSPropertyOp6
 70
     1
102
RTVSPropertyOp7
 70
     1
102
RTVSPropertyOp8
 70
     1
102
RTVSPropertyOp9
 70
     1
102
RTVSPropertyOp10
 70
     1
102
RTVSPropertyOp11
 70
     1
102
RTVSPropertyOp12
 70
     1
102
RTVSPropertyOp13
 70
     1
102
RTVSPropertyOp14
 70
     1
102
RTVSPropertyOp15
 70
     1
102
RTVSPropertyOp16
 70
     1
102
RTVSPropertyOp17
 70
     1
102
RTVSPropertyOp18
 70
     1
102
RTVSPropertyOp19
 70
     1
102
RTVSPropertyOp20
 70
     1
102
RTVSPropertyOp21
 70
     1
102
RTVSPropertyOp22
 70
     1
102
RTVSPropertyOp23
 70
     1
102
RTVSPropertyOp24
 70
     1
102
RTVSPropertyOp25
 70
     1
102
RTVSPropertyOp26
 70
     1
102
RTVSPropertyOp27
 70
     1
102
RTVSPropertyOp28
 70
     1
102
RTVSPropertyOp29
 70
     1
102
RTVSPropertyOp30
 70
     1
102
RTVSPropertyOp31
 70
     1
102
RTVSPropertyOp32
 70
     1
102
RTVSPropertyOp33
 70
     1
102
RTVSPropertyOp34
 70
     1
102
RTVSPropertyOp35
 70
     1
102
RTVSPropertyOp36
 70
     1
102
RTVSPropertyOp37
 70
     1
102
RTVSPropertyOp38
 70
     1
102
RTVSPropertyOp39
 70
     1
102
RTVSPropertyOp40
 70
     1
102
RTVSPropertyOp41
 70
     1
102
RTVSPropertyOp42
 70
     1
102
RTVSPropertyOp43
 70
     1
102
RTVSPropertyOp44
 70
     1
102
RTVSPropertyOp45
 70
     1
102
RTVSPropertyOp46
 70
     1
102
RTVSPropertyOp47
 70
     1
102
RTVSPropertyOp48
 70
     1
102
RTVSPropertyOp49
 70
     1
102
RTVSPropertyOp50
 70
     1
102
RTVSPropertyOp51
 70
     0
102
RTVSPropertyOp52
 70
     0
102
RTVSPropertyOp53
 70
     1
102
RTVSPropertyOp54
 70
     1
102
RTVSPropertyOp55
 70
     1
102
RTVSPropertyOp56
 70
     1
102
RTVSPropertyOp57
 70
     1
102
RTVSPropertyOp58
 70
     1
102
RTVSPropertyOp59
 70
     1
102
RTVSPropertyOp60
 70
     1
102
RTVSPropertyOp61
 70
     1
102
RTVSPropertyOp62
 70
     1
  0
XRECORD
  5
212E8
102
{ACAD_REACTORS
330
212E7
102
}
330
212E7
100
AcDbXrecord
280
     1
102
RTVSPost2010Prop28
280
     0
102
RTVSPost2010PropOp28
 70
     1
102
RTVSPost2010Prop29
280
     1
102
RTVSPost2010PropOp29
 70
     1
102
RTVSPost2010Prop30
280
     1
102
RTVSPost2010PropOp30
 70
     1
102
RTVSPost2010Prop31
280
     0
102
RTVSPost2010PropOp31
 70
     1
102
RTVSPost2010Prop32
280
     0
102
RTVSPost2010PropOp32
 70
     1
102
RTVSPost2010Prop33
280
     0
102
RTVSPost2010PropOp33
 70
     1
102
RTVSPost2010Prop34
280
     0
102
RTVSPost2010PropOp34
 70
     1
102
RTVSPost2010Prop35
280
     0
102
RTVSPost2010PropOp35
 70
     1
102
RTVSPost2010Prop36
280
     0
102
RTVSPost2010PropOp36
 70
     1
102
RTVSPost2010Prop37
 90
       50
102
RTVSPost2010PropOp37
 70
     1
102
RTVSPost2010Prop38
140
0.0
102
RTVSPost2010PropOp38
 70
     1
102
RTVSPost2010Prop39
140
1.0
102
RTVSPost2010PropOp39
 70
     1
102
RTVSPost2010Prop40
 90
        0
102
RTVSPost2010PropOp40
 70
     1
102
RTVSPost2010Prop41ColorIndex
 90
       18
102
RTVSPost2010Prop41ColorRGB
 90
        0
102
RTVSPost2010PropOp41
 70
     1
102
RTVSPost2010Prop42
 90
       50
102
RTVSPost2010PropOp42
 70
     1
102
RTVSPost2010Prop43
 90
        3
102
RTVSPost2010PropOp43
 70
     1
102
RTVSPost2010Prop44ColorIndex
 90
        5
102
RTVSPost2010Prop44ColorRGB
 90
      255
102
RTVSPost2010PropOp44
 70
     1
102
RTVSPost2010Prop45
280
     0
102
RTVSPost2010PropOp45
 70
     1
102
RTVSPost2010Prop46
 90
       50
102
RTVSPost2010PropOp46
 70
     1
102
RTVSPost2010Prop47
 90
       50
102
RTVSPost2010PropOp47
 70
     1
102
RTVSPost2010Prop48
 90
       50
102
RTVSPost2010PropOp48
 70
     1
102
RTVSPost2010Prop49
280
     0
102
RTVSPost2010PropOp49
 70
     1
102
RTVSPost2010Prop50
 90
       50
102
RTVSPost2010PropOp50
 70
     1
102
RTVSPost2010Prop51ColorIndex
 90
      256
102
RTVSPost2010Prop51ColorRGB
 90
-16777216
102
RTVSPost2010PropOp51
 70
     0
102
RTVSPost2010Prop52
140
1.0
102
RTVSPost2010PropOp52
 70
     0
102
RTVSPost2010Prop53
 90
        2
102
RTVSPost2010PropOp53
 70
     1
102
RTVSPost2010Prop54
  1
strokes_ogs.tif
102
RTVSPost2010PropOp54
 70
     1
102
RTVSPost2010Prop55
280
     0
102
RTVSPost2010PropOp55
 70
     1
102
RTVSPost2010Prop56
140
1.0
102
RTVSPost2010PropOp56
 70
     1
102
RTVSPost2010Prop57
140
1.0
102
RTVSPost2010PropOp57
 70
     1
102
RTVSPropertyOp0
 70
     1
102
RTVSPropertyOp1
 70
     1
102
RTVSPropertyOp2
 70
     1
102
RTVSPropertyOp3
 70
     1
102
RTVSPropertyOp4
 70
     1
102
RTVSPropertyOp5
 70
     1
102
RTVSPropertyOp6
 70
     1
102
RTVSPropertyOp7
 70
     1
102
RTVSPropertyOp8
 70
     1
102
RTVSPropertyOp9
 70
     1
102
RTVSPropertyOp10
 70
     1
102
RTVSPropertyOp11
 70
     1
102
RTVSPropertyOp12
 70
     1
102
RTVSPropertyOp13
 70
     1
102
RTVSPropertyOp14
 70
     1
102
RTVSPropertyOp15
 70
     1
102
RTVSPropertyOp16
 70
     1
102
RTVSPropertyOp17
 70
     1
102
RTVSPropertyOp18
 70
     1
102
RTVSPropertyOp19
 70
     1
102
RTVSPropertyOp20
 70
     1
102
RTVSPropertyOp21
 70
     1
102
RTVSPropertyOp22
 70
     1
102
RTVSPropertyOp23
 70
     1
102
RTVSPropertyOp24
 70
     1
102
RTVSPropertyOp25
 70
     1
102
RTVSPropertyOp26
 70
     1
102
RTVSPropertyOp27
 70
     1
102
RTVSPropertyOp28
 70
     1
102
RTVSPropertyOp29
 70
     1
102
RTVSPropertyOp30
 70
     1
102
RTVSPropertyOp31
 70
     1
102
RTVSPropertyOp32
 70
     1
102
RTVSPropertyOp33
 70
     1
102
RTVSPropertyOp34
 70
     1
102
RTVSPropertyOp35
 70
     1
102
RTVSPropertyOp36
 70
     1
102
RTVSPropertyOp37
 70
     1
102
RTVSPropertyOp38
 70
     1
102
RTVSPropertyOp39
 70
     1
102
RTVSPropertyOp40
 70
     1
102
RTVSPropertyOp41
 70
     1
102
RTVSPropertyOp42
 70
     1
102
RTVSPropertyOp43
 70
     1
102
RTVSPropertyOp44
 70
     1
102
RTVSPropertyOp45
 70
     1
102
RTVSPropertyOp46
 70
     1
102
RTVSPropertyOp47
 70
     1
102
RTVSPropertyOp48
 70
     1
102
RTVSPropertyOp49
 70
     1
102
RTVSPropertyOp50
 70
     1
102
RTVSPropertyOp51
 70
     0
102
RTVSPropertyOp52
 70
     0
102
RTVSPropertyOp53
 70
     1
102
RTVSPropertyOp54
 70
     1
102
RTVSPropertyOp55
 70
     1
102
RTVSPropertyOp56
 70
     1
102
RTVSPropertyOp57
 70
     1
102
RTVSPropertyOp58
 70
     1
102
RTVSPropertyOp59
 70
     1
102
RTVSPropertyOp60
 70
     1
102
RTVSPropertyOp61
 70
     1
102
RTVSPropertyOp62
 70
     1
  0
XRECORD
  5
2130E
102
{ACAD_REACTORS
330
2130D
102
}
330
2130D
100
AcDbXrecord
280
     1
102
RTVSPost2010Prop28
280
     0
102
RTVSPost2010PropOp28
 70
     1
102
RTVSPost2010Prop29
280
     1
102
RTVSPost2010PropOp29
 70
     1
102
RTVSPost2010Prop30
280
     1
102
RTVSPost2010PropOp30
 70
     1
102
RTVSPost2010Prop31
280
     0
102
RTVSPost2010PropOp31
 70
     1
102
RTVSPost2010Prop32
280
     0
102
RTVSPost2010PropOp32
 70
     1
102
RTVSPost2010Prop33
280
     0
102
RTVSPost2010PropOp33
 70
     1
102
RTVSPost2010Prop34
280
     0
102
RTVSPost2010PropOp34
 70
     1
102
RTVSPost2010Prop35
280
     0
102
RTVSPost2010PropOp35
 70
     1
102
RTVSPost2010Prop36
280
     0
102
RTVSPost2010PropOp36
 70
     1
102
RTVSPost2010Prop37
 90
       50
102
RTVSPost2010PropOp37
 70
     0
102
RTVSPost2010Prop38
140
0.0
102
RTVSPost2010PropOp38
 70
     0
102
RTVSPost2010Prop39
140
1.0
102
RTVSPost2010PropOp39
 70
     0
102
RTVSPost2010Prop40
 90
        0
102
RTVSPost2010PropOp40
 70
     0
102
RTVSPost2010Prop41ColorIndex
 90
       18
102
RTVSPost2010Prop41ColorRGB
 90
        0
102
RTVSPost2010PropOp41
 70
     0
102
RTVSPost2010Prop42
 90
       50
102
RTVSPost2010PropOp42
 70
     0
102
RTVSPost2010Prop43
 90
        3
102
RTVSPost2010PropOp43
 70
     0
102
RTVSPost2010Prop44ColorIndex
 90
        5
102
RTVSPost2010Prop44ColorRGB
 90
      255
102
RTVSPost2010PropOp44
 70
     0
102
RTVSPost2010Prop45
280
     0
102
RTVSPost2010PropOp45
 70
     1
102
RTVSPost2010Prop46
 90
       50
102
RTVSPost2010PropOp46
 70
     0
102
RTVSPost2010Prop47
 90
       50
102
RTVSPost2010PropOp47
 70
     0
102
RTVSPost2010Prop48
 90
       50
102
RTVSPost2010PropOp48
 70
     0
102
RTVSPost2010Prop49
280
     0
102
RTVSPost2010PropOp49
 70
     1
102
RTVSPost2010Prop50
 90
       50
102
RTVSPost2010PropOp50
 70
     0
102
RTVSPost2010Prop51ColorIndex
 90
      256
102
RTVSPost2010Prop51ColorRGB
 90
-16777216
102
RTVSPost2010PropOp51
 70
     0
102
RTVSPost2010Prop52
140
1.0
102
RTVSPost2010PropOp52
 70
     0
102
RTVSPost2010Prop53
 90
        2
102
RTVSPost2010PropOp53
 70
     0
102
RTVSPost2010Prop54
  1
strokes_ogs.tif
102
RTVSPost2010PropOp54
 70
     0
102
RTVSPost2010Prop55
280
     0
102
RTVSPost2010PropOp55
 70
     1
102
RTVSPost2010Prop56
140
1.0
102
RTVSPost2010PropOp56
 70
     0
102
RTVSPost2010Prop57
140
1.0
102
RTVSPost2010PropOp57
 70
     0
102
RTVSPropertyOp0
 70
     0
102
RTVSPropertyOp1
 70
     0
102
RTVSPropertyOp2
 70
     0
102
RTVSPropertyOp3
 70
     0
102
RTVSPropertyOp4
 70
     0
102
RTVSPropertyOp5
 70
     0
102
RTVSPropertyOp6
 70
     0
102
RTVSPropertyOp7
 70
     0
102
RTVSPropertyOp8
 70
     0
102
RTVSPropertyOp9
 70
     0
102
RTVSPropertyOp10
 70
     0
102
RTVSPropertyOp11
 70
     0
102
RTVSPropertyOp12
 70
     0
102
RTVSPropertyOp13
 70
     0
102
RTVSPropertyOp14
 70
     2
102
RTVSPropertyOp15
 70
     0
102
RTVSPropertyOp16
 70
     0
102
RTVSPropertyOp17
 70
     0
102
RTVSPropertyOp18
 70
     0
102
RTVSPropertyOp19
 70
     0
102
RTVSPropertyOp20
 70
     0
102
RTVSPropertyOp21
 70
     0
102
RTVSPropertyOp22
 70
     0
102
RTVSPropertyOp23
 70
     0
102
RTVSPropertyOp24
 70
     0
102
RTVSPropertyOp25
 70
     0
102
RTVSPropertyOp26
 70
     0
102
RTVSPropertyOp27
 70
     0
102
RTVSPropertyOp28
 70
     1
102
RTVSPropertyOp29
 70
     1
102
RTVSPropertyOp30
 70
     1
102
RTVSPropertyOp31
 70
     1
102
RTVSPropertyOp32
 70
     1
102
RTVSPropertyOp33
 70
     1
102
RTVSPropertyOp34
 70
     1
102
RTVSPropertyOp35
 70
     1
102
RTVSPropertyOp36
 70
     1
102
RTVSPropertyOp37
 70
     0
102
RTVSPropertyOp38
 70
     0
102
RTVSPropertyOp39
 70
     0
102
RTVSPropertyOp40
 70
     0
102
RTVSPropertyOp41
 70
     0
102
RTVSPropertyOp42
 70
     0
102
RTVSPropertyOp43
 70
     0
102
RTVSPropertyOp44
 70
     0
102
RTVSPropertyOp45
 70
     1
102
RTVSPropertyOp46
 70
     0
102
RTVSPropertyOp47
 70
     0
102
RTVSPropertyOp48
 70
     0
102
RTVSPropertyOp49
 70
     1
102
RTVSPropertyOp50
 70
     0
102
RTVSPropertyOp51
 70
     0
102
RTVSPropertyOp52
 70
     0
102
RTVSPropertyOp53
 70
     0
102
RTVSPropertyOp54
 70
     0
102
RTVSPropertyOp55
 70
     1
102
RTVSPropertyOp56
 70
     0
102
RTVSPropertyOp57
 70
     0
102
RTVSPropertyOp58
 70
     1
102
RTVSPropertyOp59
 70
     1
102
RTVSPropertyOp60
 70
     1
102
RTVSPropertyOp61
 70
     1
102
RTVSPropertyOp62
 70
     1
  0
XRECORD
  5
212F0
102
{ACAD_REACTORS
330
212EF
102
}
330
212EF
100
AcDbXrecord
280
     1
102
RTVSPost2010Prop28
280
     0
102
RTVSPost2010PropOp28
 70
     1
102
RTVSPost2010Prop29
280
     1
102
RTVSPost2010PropOp29
 70
     1
102
RTVSPost2010Prop30
280
     1
102
RTVSPost2010PropOp30
 70
     1
102
RTVSPost2010Prop31
280
     0
102
RTVSPost2010PropOp31
 70
     1
102
RTVSPost2010Prop32
280
     0
102
RTVSPost2010PropOp32
 70
     1
102
RTVSPost2010Prop33
280
     0
102
RTVSPost2010PropOp33
 70
     1
102
RTVSPost2010Prop34
280
     0
102
RTVSPost2010PropOp34
 70
     1
102
RTVSPost2010Prop35
280
     0
102
RTVSPost2010PropOp35
 70
     1
102
RTVSPost2010Prop36
280
     0
102
RTVSPost2010PropOp36
 70
     1
102
RTVSPost2010Prop37
 90
       50
102
RTVSPost2010PropOp37
 70
     1
102
RTVSPost2010Prop38
140
0.0
102
RTVSPost2010PropOp38
 70
     1
102
RTVSPost2010Prop39
140
1.0
102
RTVSPost2010PropOp39
 70
     1
102
RTVSPost2010Prop40
 90
        0
102
RTVSPost2010PropOp40
 70
     1
102
RTVSPost2010Prop41ColorIndex
 90
       18
102
RTVSPost2010Prop41ColorRGB
 90
        0
102
RTVSPost2010PropOp41
 70
     1
102
RTVSPost2010Prop42
 90
       50
102
RTVSPost2010PropOp42
 70
     1
102
RTVSPost2010Prop43
 90
        3
102
RTVSPost2010PropOp43
 70
     1
102
RTVSPost2010Prop44ColorIndex
 90
        5
102
RTVSPost2010Prop44ColorRGB
 90
      255
102
RTVSPost2010PropOp44
 70
     1
102
RTVSPost2010Prop45
280
     0
102
RTVSPost2010PropOp45
 70
     1
102
RTVSPost2010Prop46
 90
       50
102
RTVSPost2010PropOp46
 70
     1
102
RTVSPost2010Prop47
 90
       50
102
RTVSPost2010PropOp47
 70
     1
102
RTVSPost2010Prop48
 90
       50
102
RTVSPost2010PropOp48
 70
     1
102
RTVSPost2010Prop49
280
     0
102
RTVSPost2010PropOp49
 70
     1
102
RTVSPost2010Prop50
 90
       50
102
RTVSPost2010PropOp50
 70
     1
102
RTVSPost2010Prop51ColorIndex
 90
      256
102
RTVSPost2010Prop51ColorRGB
 90
-16777216
102
RTVSPost2010PropOp51
 70
     0
102
RTVSPost2010Prop52
140
1.0
102
RTVSPost2010PropOp52
 70
     0
102
RTVSPost2010Prop53
 90
        2
102
RTVSPost2010PropOp53
 70
     1
102
RTVSPost2010Prop54
  1
strokes_ogs.tif
102
RTVSPost2010PropOp54
 70
     1
102
RTVSPost2010Prop55
280
     0
102
RTVSPost2010PropOp55
 70
     1
102
RTVSPost2010Prop56
140
1.0
102
RTVSPost2010PropOp56
 70
     1
102
RTVSPost2010Prop57
140
1.0
102
RTVSPost2010PropOp57
 70
     1
102
RTVSPropertyOp0
 70
     1
102
RTVSPropertyOp1
 70
     1
102
RTVSPropertyOp2
 70
     1
102
RTVSPropertyOp3
 70
     1
102
RTVSPropertyOp4
 70
     1
102
RTVSPropertyOp5
 70
     1
102
RTVSPropertyOp6
 70
     1
102
RTVSPropertyOp7
 70
     1
102
RTVSPropertyOp8
 70
     1
102
RTVSPropertyOp9
 70
     1
102
RTVSPropertyOp10
 70
     1
102
RTVSPropertyOp11
 70
     1
102
RTVSPropertyOp12
 70
     1
102
RTVSPropertyOp13
 70
     1
102
RTVSPropertyOp14
 70
     1
102
RTVSPropertyOp15
 70
     1
102
RTVSPropertyOp16
 70
     1
102
RTVSPropertyOp17
 70
     1
102
RTVSPropertyOp18
 70
     1
102
RTVSPropertyOp19
 70
     1
102
RTVSPropertyOp20
 70
     1
102
RTVSPropertyOp21
 70
     1
102
RTVSPropertyOp22
 70
     1
102
RTVSPropertyOp23
 70
     1
102
RTVSPropertyOp24
 70
     1
102
RTVSPropertyOp25
 70
     1
102
RTVSPropertyOp26
 70
     1
102
RTVSPropertyOp27
 70
     1
102
RTVSPropertyOp28
 70
     1
102
RTVSPropertyOp29
 70
     1
102
RTVSPropertyOp30
 70
     1
102
RTVSPropertyOp31
 70
     1
102
RTVSPropertyOp32
 70
     1
102
RTVSPropertyOp33
 70
     1
102
RTVSPropertyOp34
 70
     1
102
RTVSPropertyOp35
 70
     1
102
RTVSPropertyOp36
 70
     1
102
RTVSPropertyOp37
 70
     1
102
RTVSPropertyOp38
 70
     1
102
RTVSPropertyOp39
 70
     1
102
RTVSPropertyOp40
 70
     1
102
RTVSPropertyOp41
 70
     1
102
RTVSPropertyOp42
 70
     1
102
RTVSPropertyOp43
 70
     1
102
RTVSPropertyOp44
 70
     1
102
RTVSPropertyOp45
 70
     1
102
RTVSPropertyOp46
 70
     1
102
RTVSPropertyOp47
 70
     1
102
RTVSPropertyOp48
 70
     1
102
RTVSPropertyOp49
 70
     1
102
RTVSPropertyOp50
 70
     1
102
RTVSPropertyOp51
 70
     0
102
RTVSPropertyOp52
 70
     0
102
RTVSPropertyOp53
 70
     1
102
RTVSPropertyOp54
 70
     1
102
RTVSPropertyOp55
 70
     1
102
RTVSPropertyOp56
 70
     1
102
RTVSPropertyOp57
 70
     1
102
RTVSPropertyOp58
 70
     1
102
RTVSPropertyOp59
 70
     1
102
RTVSPropertyOp60
 70
     1
102
RTVSPropertyOp61
 70
     1
102
RTVSPropertyOp62
 70
     1
  0
XRECORD
  5
212D4
102
{ACAD_REACTORS
330
212D3
102
}
330
212D3
100
AcDbXrecord
280
     1
102
RTVSPost2010Prop28
280
     0
102
RTVSPost2010PropOp28
 70
     1
102
RTVSPost2010Prop29
280
     1
102
RTVSPost2010PropOp29
 70
     1
102
RTVSPost2010Prop30
280
     1
102
RTVSPost2010PropOp30
 70
     1
102
RTVSPost2010Prop31
280
     0
102
RTVSPost2010PropOp31
 70
     1
102
RTVSPost2010Prop32
280
     0
102
RTVSPost2010PropOp32
 70
     1
102
RTVSPost2010Prop33
280
     0
102
RTVSPost2010PropOp33
 70
     1
102
RTVSPost2010Prop34
280
     0
102
RTVSPost2010PropOp34
 70
     1
102
RTVSPost2010Prop35
280
     0
102
RTVSPost2010PropOp35
 70
     1
102
RTVSPost2010Prop36
280
     0
102
RTVSPost2010PropOp36
 70
     1
102
RTVSPost2010Prop37
 90
       50
102
RTVSPost2010PropOp37
 70
     1
102
RTVSPost2010Prop38
140
0.0
102
RTVSPost2010PropOp38
 70
     1
102
RTVSPost2010Prop39
140
1.0
102
RTVSPost2010PropOp39
 70
     1
102
RTVSPost2010Prop40
 90
        0
102
RTVSPost2010PropOp40
 70
     1
102
RTVSPost2010Prop41ColorIndex
 90
       18
102
RTVSPost2010Prop41ColorRGB
 90
        0
102
RTVSPost2010PropOp41
 70
     1
102
RTVSPost2010Prop42
 90
       50
102
RTVSPost2010PropOp42
 70
     1
102
RTVSPost2010Prop43
 90
        3
102
RTVSPost2010PropOp43
 70
     1
102
RTVSPost2010Prop44ColorIndex
 90
        5
102
RTVSPost2010Prop44ColorRGB
 90
      255
102
RTVSPost2010PropOp44
 70
     1
102
RTVSPost2010Prop45
280
     0
102
RTVSPost2010PropOp45
 70
     1
102
RTVSPost2010Prop46
 90
       50
102
RTVSPost2010PropOp46
 70
     1
102
RTVSPost2010Prop47
 90
       50
102
RTVSPost2010PropOp47
 70
     1
102
RTVSPost2010Prop48
 90
       50
102
RTVSPost2010PropOp48
 70
     1
102
RTVSPost2010Prop49
280
     0
102
RTVSPost2010PropOp49
 70
     1
102
RTVSPost2010Prop50
 90
       50
102
RTVSPost2010PropOp50
 70
     1
102
RTVSPost2010Prop51ColorIndex
 90
      256
102
RTVSPost2010Prop51ColorRGB
 90
-16777216
102
RTVSPost2010PropOp51
 70
     0
102
RTVSPost2010Prop52
140
1.0
102
RTVSPost2010PropOp52
 70
     0
102
RTVSPost2010Prop53
 90
        2
102
RTVSPost2010PropOp53
 70
     1
102
RTVSPost2010Prop54
  1
strokes_ogs.tif
102
RTVSPost2010PropOp54
 70
     1
102
RTVSPost2010Prop55
280
     0
102
RTVSPost2010PropOp55
 70
     1
102
RTVSPost2010Prop56
140
1.0
102
RTVSPost2010PropOp56
 70
     1
102
RTVSPost2010Prop57
140
1.0
102
RTVSPost2010PropOp57
 70
     1
102
RTVSPropertyOp0
 70
     1
102
RTVSPropertyOp1
 70
     1
102
RTVSPropertyOp2
 70
     1
102
RTVSPropertyOp3
 70
     1
102
RTVSPropertyOp4
 70
     1
102
RTVSPropertyOp5
 70
     1
102
RTVSPropertyOp6
 70
     1
102
RTVSPropertyOp7
 70
     1
102
RTVSPropertyOp8
 70
     1
102
RTVSPropertyOp9
 70
     1
102
RTVSPropertyOp10
 70
     1
102
RTVSPropertyOp11
 70
     1
102
RTVSPropertyOp12
 70
     1
102
RTVSPropertyOp13
 70
     1
102
RTVSPropertyOp14
 70
     1
102
RTVSPropertyOp15
 70
     1
102
RTVSPropertyOp16
 70
     1
102
RTVSPropertyOp17
 70
     1
102
RTVSPropertyOp18
 70
     1
102
RTVSPropertyOp19
 70
     1
102
RTVSPropertyOp20
 70
     1
102
RTVSPropertyOp21
 70
     1
102
RTVSPropertyOp22
 70
     1
102
RTVSPropertyOp23
 70
     1
102
RTVSPropertyOp24
 70
     1
102
RTVSPropertyOp25
 70
     1
102
RTVSPropertyOp26
 70
     1
102
RTVSPropertyOp27
 70
     1
102
RTVSPropertyOp28
 70
     1
102
RTVSPropertyOp29
 70
     1
102
RTVSPropertyOp30
 70
     1
102
RTVSPropertyOp31
 70
     1
102
RTVSPropertyOp32
 70
     1
102
RTVSPropertyOp33
 70
     1
102
RTVSPropertyOp34
 70
     1
102
RTVSPropertyOp35
 70
     1
102
RTVSPropertyOp36
 70
     1
102
RTVSPropertyOp37
 70
     1
102
RTVSPropertyOp38
 70
     1
102
RTVSPropertyOp39
 70
     1
102
RTVSPropertyOp40
 70
     1
102
RTVSPropertyOp41
 70
     1
102
RTVSPropertyOp42
 70
     1
102
RTVSPropertyOp43
 70
     1
102
RTVSPropertyOp44
 70
     1
102
RTVSPropertyOp45
 70
     1
102
RTVSPropertyOp46
 70
     1
102
RTVSPropertyOp47
 70
     1
102
RTVSPropertyOp48
 70
     1
102
RTVSPropertyOp49
 70
     1
102
RTVSPropertyOp50
 70
     1
102
RTVSPropertyOp51
 70
     0
102
RTVSPropertyOp52
 70
     0
102
RTVSPropertyOp53
 70
     1
102
RTVSPropertyOp54
 70
     1
102
RTVSPropertyOp55
 70
     1
102
RTVSPropertyOp56
 70
     1
102
RTVSPropertyOp57
 70
     1
102
RTVSPropertyOp58
 70
     1
102
RTVSPropertyOp59
 70
     1
102
RTVSPropertyOp60
 70
     1
102
RTVSPropertyOp61
 70
     1
102
RTVSPropertyOp62
 70
     1
  0
XRECORD
  5
212D6
102
{ACAD_REACTORS
330
212D5
102
}
330
212D5
100
AcDbXrecord
280
     1
102
RTVSPost2010Prop28
280
     0
102
RTVSPost2010PropOp28
 70
     1
102
RTVSPost2010Prop29
280
     1
102
RTVSPost2010PropOp29
 70
     1
102
RTVSPost2010Prop30
280
     1
102
RTVSPost2010PropOp30
 70
     1
102
RTVSPost2010Prop31
280
     0
102
RTVSPost2010PropOp31
 70
     1
102
RTVSPost2010Prop32
280
     0
102
RTVSPost2010PropOp32
 70
     1
102
RTVSPost2010Prop33
280
     0
102
RTVSPost2010PropOp33
 70
     1
102
RTVSPost2010Prop34
280
     0
102
RTVSPost2010PropOp34
 70
     1
102
RTVSPost2010Prop35
280
     0
102
RTVSPost2010PropOp35
 70
     1
102
RTVSPost2010Prop36
280
     0
102
RTVSPost2010PropOp36
 70
     1
102
RTVSPost2010Prop37
 90
       50
102
RTVSPost2010PropOp37
 70
     1
102
RTVSPost2010Prop38
140
0.0
102
RTVSPost2010PropOp38
 70
     1
102
RTVSPost2010Prop39
140
1.0
102
RTVSPost2010PropOp39
 70
     1
102
RTVSPost2010Prop40
 90
        0
102
RTVSPost2010PropOp40
 70
     1
102
RTVSPost2010Prop41ColorIndex
 90
       18
102
RTVSPost2010Prop41ColorRGB
 90
        0
102
RTVSPost2010PropOp41
 70
     1
102
RTVSPost2010Prop42
 90
       50
102
RTVSPost2010PropOp42
 70
     1
102
RTVSPost2010Prop43
 90
        3
102
RTVSPost2010PropOp43
 70
     1
102
RTVSPost2010Prop44ColorIndex
 90
        5
102
RTVSPost2010Prop44ColorRGB
 90
      255
102
RTVSPost2010PropOp44
 70
     1
102
RTVSPost2010Prop45
280
     0
102
RTVSPost2010PropOp45
 70
     1
102
RTVSPost2010Prop46
 90
       50
102
RTVSPost2010PropOp46
 70
     1
102
RTVSPost2010Prop47
 90
       50
102
RTVSPost2010PropOp47
 70
     1
102
RTVSPost2010Prop48
 90
       50
102
RTVSPost2010PropOp48
 70
     1
102
RTVSPost2010Prop49
280
     0
102
RTVSPost2010PropOp49
 70
     1
102
RTVSPost2010Prop50
 90
       50
102
RTVSPost2010PropOp50
 70
     1
102
RTVSPost2010Prop51ColorIndex
 90
      256
102
RTVSPost2010Prop51ColorRGB
 90
-16777216
102
RTVSPost2010PropOp51
 70
     0
102
RTVSPost2010Prop52
140
1.0
102
RTVSPost2010PropOp52
 70
     0
102
RTVSPost2010Prop53
 90
        2
102
RTVSPost2010PropOp53
 70
     1
102
RTVSPost2010Prop54
  1
strokes_ogs.tif
102
RTVSPost2010PropOp54
 70
     1
102
RTVSPost2010Prop55
280
     0
102
RTVSPost2010PropOp55
 70
     1
102
RTVSPost2010Prop56
140
1.0
102
RTVSPost2010PropOp56
 70
     1
102
RTVSPost2010Prop57
140
1.0
102
RTVSPost2010PropOp57
 70
     1
102
RTVSPropertyOp0
 70
     1
102
RTVSPropertyOp1
 70
     1
102
RTVSPropertyOp2
 70
     1
102
RTVSPropertyOp3
 70
     1
102
RTVSPropertyOp4
 70
     1
102
RTVSPropertyOp5
 70
     1
102
RTVSPropertyOp6
 70
     1
102
RTVSPropertyOp7
 70
     1
102
RTVSPropertyOp8
 70
     1
102
RTVSPropertyOp9
 70
     1
102
RTVSPropertyOp10
 70
     1
102
RTVSPropertyOp11
 70
     1
102
RTVSPropertyOp12
 70
     1
102
RTVSPropertyOp13
 70
     1
102
RTVSPropertyOp14
 70
     1
102
RTVSPropertyOp15
 70
     1
102
RTVSPropertyOp16
 70
     1
102
RTVSPropertyOp17
 70
     1
102
RTVSPropertyOp18
 70
     1
102
RTVSPropertyOp19
 70
     1
102
RTVSPropertyOp20
 70
     1
102
RTVSPropertyOp21
 70
     1
102
RTVSPropertyOp22
 70
     1
102
RTVSPropertyOp23
 70
     1
102
RTVSPropertyOp24
 70
     1
102
RTVSPropertyOp25
 70
     1
102
RTVSPropertyOp26
 70
     1
102
RTVSPropertyOp27
 70
     1
102
RTVSPropertyOp28
 70
     1
102
RTVSPropertyOp29
 70
     1
102
RTVSPropertyOp30
 70
     1
102
RTVSPropertyOp31
 70
     1
102
RTVSPropertyOp32
 70
     1
102
RTVSPropertyOp33
 70
     1
102
RTVSPropertyOp34
 70
     1
102
RTVSPropertyOp35
 70
     1
102
RTVSPropertyOp36
 70
     1
102
RTVSPropertyOp37
 70
     1
102
RTVSPropertyOp38
 70
     1
102
RTVSPropertyOp39
 70
     1
102
RTVSPropertyOp40
 70
     1
102
RTVSPropertyOp41
 70
     1
102
RTVSPropertyOp42
 70
     1
102
RTVSPropertyOp43
 70
     1
102
RTVSPropertyOp44
 70
     1
102
RTVSPropertyOp45
 70
     1
102
RTVSPropertyOp46
 70
     1
102
RTVSPropertyOp47
 70
     1
102
RTVSPropertyOp48
 70
     1
102
RTVSPropertyOp49
 70
     1
102
RTVSPropertyOp50
 70
     1
102
RTVSPropertyOp51
 70
     0
102
RTVSPropertyOp52
 70
     0
102
RTVSPropertyOp53
 70
     1
102
RTVSPropertyOp54
 70
     1
102
RTVSPropertyOp55
 70
     1
102
RTVSPropertyOp56
 70
     1
102
RTVSPropertyOp57
 70
     1
102
RTVSPropertyOp58
 70
     1
102
RTVSPropertyOp59
 70
     1
102
RTVSPropertyOp60
 70
     1
102
RTVSPropertyOp61
 70
     1
102
RTVSPropertyOp62
 70
     1
  0
XRECORD
  5
212D8
102
{ACAD_REACTORS
330
212D7
102
}
330
212D7
100
AcDbXrecord
280
     1
102
RTVSPost2010Prop28
280
     0
102
RTVSPost2010PropOp28
 70
     1
102
RTVSPost2010Prop29
280
     1
102
RTVSPost2010PropOp29
 70
     1
102
RTVSPost2010Prop30
280
     1
102
RTVSPost2010PropOp30
 70
     1
102
RTVSPost2010Prop31
280
     0
102
RTVSPost2010PropOp31
 70
     1
102
RTVSPost2010Prop32
280
     0
102
RTVSPost2010PropOp32
 70
     1
102
RTVSPost2010Prop33
280
     0
102
RTVSPost2010PropOp33
 70
     1
102
RTVSPost2010Prop34
280
     0
102
RTVSPost2010PropOp34
 70
     1
102
RTVSPost2010Prop35
280
     0
102
RTVSPost2010PropOp35
 70
     1
102
RTVSPost2010Prop36
280
     0
102
RTVSPost2010PropOp36
 70
     1
102
RTVSPost2010Prop37
 90
       50
102
RTVSPost2010PropOp37
 70
     1
102
RTVSPost2010Prop38
140
0.0
102
RTVSPost2010PropOp38
 70
     1
102
RTVSPost2010Prop39
140
1.0
102
RTVSPost2010PropOp39
 70
     1
102
RTVSPost2010Prop40
 90
        0
102
RTVSPost2010PropOp40
 70
     1
102
RTVSPost2010Prop41ColorIndex
 90
       18
102
RTVSPost2010Prop41ColorRGB
 90
        0
102
RTVSPost2010PropOp41
 70
     1
102
RTVSPost2010Prop42
 90
       50
102
RTVSPost2010PropOp42
 70
     1
102
RTVSPost2010Prop43
 90
        3
102
RTVSPost2010PropOp43
 70
     1
102
RTVSPost2010Prop44ColorIndex
 90
        5
102
RTVSPost2010Prop44ColorRGB
 90
      255
102
RTVSPost2010PropOp44
 70
     1
102
RTVSPost2010Prop45
280
     0
102
RTVSPost2010PropOp45
 70
     1
102
RTVSPost2010Prop46
 90
       50
102
RTVSPost2010PropOp46
 70
     1
102
RTVSPost2010Prop47
 90
       50
102
RTVSPost2010PropOp47
 70
     1
102
RTVSPost2010Prop48
 90
       50
102
RTVSPost2010PropOp48
 70
     1
102
RTVSPost2010Prop49
280
     0
102
RTVSPost2010PropOp49
 70
     1
102
RTVSPost2010Prop50
 90
       50
102
RTVSPost2010PropOp50
 70
     1
102
RTVSPost2010Prop51ColorIndex
 90
      256
102
RTVSPost2010Prop51ColorRGB
 90
-16777216
102
RTVSPost2010PropOp51
 70
     0
102
RTVSPost2010Prop52
140
1.0
102
RTVSPost2010PropOp52
 70
     0
102
RTVSPost2010Prop53
 90
        2
102
RTVSPost2010PropOp53
 70
     1
102
RTVSPost2010Prop54
  1
strokes_ogs.tif
102
RTVSPost2010PropOp54
 70
     1
102
RTVSPost2010Prop55
280
     0
102
RTVSPost2010PropOp55
 70
     1
102
RTVSPost2010Prop56
140
1.0
102
RTVSPost2010PropOp56
 70
     1
102
RTVSPost2010Prop57
140
1.0
102
RTVSPost2010PropOp57
 70
     1
102
RTVSPropertyOp0
 70
     1
102
RTVSPropertyOp1
 70
     1
102
RTVSPropertyOp2
 70
     1
102
RTVSPropertyOp3
 70
     1
102
RTVSPropertyOp4
 70
     1
102
RTVSPropertyOp5
 70
     1
102
RTVSPropertyOp6
 70
     1
102
RTVSPropertyOp7
 70
     1
102
RTVSPropertyOp8
 70
     1
102
RTVSPropertyOp9
 70
     1
102
RTVSPropertyOp10
 70
     1
102
RTVSPropertyOp11
 70
     1
102
RTVSPropertyOp12
 70
     1
102
RTVSPropertyOp13
 70
     1
102
RTVSPropertyOp14
 70
     1
102
RTVSPropertyOp15
 70
     1
102
RTVSPropertyOp16
 70
     1
102
RTVSPropertyOp17
 70
     1
102
RTVSPropertyOp18
 70
     1
102
RTVSPropertyOp19
 70
     1
102
RTVSPropertyOp20
 70
     1
102
RTVSPropertyOp21
 70
     1
102
RTVSPropertyOp22
 70
     1
102
RTVSPropertyOp23
 70
     1
102
RTVSPropertyOp24
 70
     1
102
RTVSPropertyOp25
 70
     1
102
RTVSPropertyOp26
 70
     1
102
RTVSPropertyOp27
 70
     1
102
RTVSPropertyOp28
 70
     1
102
RTVSPropertyOp29
 70
     1
102
RTVSPropertyOp30
 70
     1
102
RTVSPropertyOp31
 70
     1
102
RTVSPropertyOp32
 70
     1
102
RTVSPropertyOp33
 70
     1
102
RTVSPropertyOp34
 70
     1
102
RTVSPropertyOp35
 70
     1
102
RTVSPropertyOp36
 70
     1
102
RTVSPropertyOp37
 70
     1
102
RTVSPropertyOp38
 70
     1
102
RTVSPropertyOp39
 70
     1
102
RTVSPropertyOp40
 70
     1
102
RTVSPropertyOp41
 70
     1
102
RTVSPropertyOp42
 70
     1
102
RTVSPropertyOp43
 70
     1
102
RTVSPropertyOp44
 70
     1
102
RTVSPropertyOp45
 70
     1
102
RTVSPropertyOp46
 70
     1
102
RTVSPropertyOp47
 70
     1
102
RTVSPropertyOp48
 70
     1
102
RTVSPropertyOp49
 70
     1
102
RTVSPropertyOp50
 70
     1
102
RTVSPropertyOp51
 70
     0
102
RTVSPropertyOp52
 70
     0
102
RTVSPropertyOp53
 70
     1
102
RTVSPropertyOp54
 70
     1
102
RTVSPropertyOp55
 70
     1
102
RTVSPropertyOp56
 70
     1
102
RTVSPropertyOp57
 70
     1
102
RTVSPropertyOp58
 70
     1
102
RTVSPropertyOp59
 70
     1
102
RTVSPropertyOp60
 70
     1
102
RTVSPropertyOp61
 70
     1
102
RTVSPropertyOp62
 70
     1
  0
XRECORD
  5
212DA
102
{ACAD_REACTORS
330
212D9
102
}
330
212D9
100
AcDbXrecord
280
     1
102
RTVSPost2010Prop28
280
     0
102
RTVSPost2010PropOp28
 70
     1
102
RTVSPost2010Prop29
280
     1
102
RTVSPost2010PropOp29
 70
     1
102
RTVSPost2010Prop30
280
     1
102
RTVSPost2010PropOp30
 70
     1
102
RTVSPost2010Prop31
280
     0
102
RTVSPost2010PropOp31
 70
     1
102
RTVSPost2010Prop32
280
     0
102
RTVSPost2010PropOp32
 70
     1
102
RTVSPost2010Prop33
280
     0
102
RTVSPost2010PropOp33
 70
     1
102
RTVSPost2010Prop34
280
     0
102
RTVSPost2010PropOp34
 70
     1
102
RTVSPost2010Prop35
280
     0
102
RTVSPost2010PropOp35
 70
     1
102
RTVSPost2010Prop36
280
     0
102
RTVSPost2010PropOp36
 70
     1
102
RTVSPost2010Prop37
 90
       50
102
RTVSPost2010PropOp37
 70
     1
102
RTVSPost2010Prop38
140
0.0
102
RTVSPost2010PropOp38
 70
     1
102
RTVSPost2010Prop39
140
1.0
102
RTVSPost2010PropOp39
 70
     1
102
RTVSPost2010Prop40
 90
        0
102
RTVSPost2010PropOp40
 70
     1
102
RTVSPost2010Prop41ColorIndex
 90
       18
102
RTVSPost2010Prop41ColorRGB
 90
        0
102
RTVSPost2010PropOp41
 70
     1
102
RTVSPost2010Prop42
 90
       50
102
RTVSPost2010PropOp42
 70
     1
102
RTVSPost2010Prop43
 90
        3
102
RTVSPost2010PropOp43
 70
     1
102
RTVSPost2010Prop44ColorIndex
 90
        5
102
RTVSPost2010Prop44ColorRGB
 90
      255
102
RTVSPost2010PropOp44
 70
     1
102
RTVSPost2010Prop45
280
     0
102
RTVSPost2010PropOp45
 70
     1
102
RTVSPost2010Prop46
 90
       50
102
RTVSPost2010PropOp46
 70
     1
102
RTVSPost2010Prop47
 90
       50
102
RTVSPost2010PropOp47
 70
     1
102
RTVSPost2010Prop48
 90
       50
102
RTVSPost2010PropOp48
 70
     1
102
RTVSPost2010Prop49
280
     0
102
RTVSPost2010PropOp49
 70
     1
102
RTVSPost2010Prop50
 90
       50
102
RTVSPost2010PropOp50
 70
     1
102
RTVSPost2010Prop51ColorIndex
 90
      256
102
RTVSPost2010Prop51ColorRGB
 90
-16777216
102
RTVSPost2010PropOp51
 70
     0
102
RTVSPost2010Prop52
140
1.0
102
RTVSPost2010PropOp52
 70
     0
102
RTVSPost2010Prop53
 90
        2
102
RTVSPost2010PropOp53
 70
     1
102
RTVSPost2010Prop54
  1
strokes_ogs.tif
102
RTVSPost2010PropOp54
 70
     1
102
RTVSPost2010Prop55
280
     0
102
RTVSPost2010PropOp55
 70
     1
102
RTVSPost2010Prop56
140
1.0
102
RTVSPost2010PropOp56
 70
     1
102
RTVSPost2010Prop57
140
1.0
102
RTVSPost2010PropOp57
 70
     1
102
RTVSPropertyOp0
 70
     1
102
RTVSPropertyOp1
 70
     1
102
RTVSPropertyOp2
 70
     1
102
RTVSPropertyOp3
 70
     1
102
RTVSPropertyOp4
 70
     1
102
RTVSPropertyOp5
 70
     1
102
RTVSPropertyOp6
 70
     1
102
RTVSPropertyOp7
 70
     1
102
RTVSPropertyOp8
 70
     1
102
RTVSPropertyOp9
 70
     1
102
RTVSPropertyOp10
 70
     1
102
RTVSPropertyOp11
 70
     1
102
RTVSPropertyOp12
 70
     1
102
RTVSPropertyOp13
 70
     1
102
RTVSPropertyOp14
 70
     1
102
RTVSPropertyOp15
 70
     1
102
RTVSPropertyOp16
 70
     1
102
RTVSPropertyOp17
 70
     1
102
RTVSPropertyOp18
 70
     1
102
RTVSPropertyOp19
 70
     1
102
RTVSPropertyOp20
 70
     1
102
RTVSPropertyOp21
 70
     1
102
RTVSPropertyOp22
 70
     1
102
RTVSPropertyOp23
 70
     1
102
RTVSPropertyOp24
 70
     1
102
RTVSPropertyOp25
 70
     1
102
RTVSPropertyOp26
 70
     1
102
RTVSPropertyOp27
 70
     1
102
RTVSPropertyOp28
 70
     1
102
RTVSPropertyOp29
 70
     1
102
RTVSPropertyOp30
 70
     1
102
RTVSPropertyOp31
 70
     1
102
RTVSPropertyOp32
 70
     1
102
RTVSPropertyOp33
 70
     1
102
RTVSPropertyOp34
 70
     1
102
RTVSPropertyOp35
 70
     1
102
RTVSPropertyOp36
 70
     1
102
RTVSPropertyOp37
 70
     1
102
RTVSPropertyOp38
 70
     1
102
RTVSPropertyOp39
 70
     1
102
RTVSPropertyOp40
 70
     1
102
RTVSPropertyOp41
 70
     1
102
RTVSPropertyOp42
 70
     1
102
RTVSPropertyOp43
 70
     1
102
RTVSPropertyOp44
 70
     1
102
RTVSPropertyOp45
 70
     1
102
RTVSPropertyOp46
 70
     1
102
RTVSPropertyOp47
 70
     1
102
RTVSPropertyOp48
 70
     1
102
RTVSPropertyOp49
 70
     1
102
RTVSPropertyOp50
 70
     1
102
RTVSPropertyOp51
 70
     0
102
RTVSPropertyOp52
 70
     0
102
RTVSPropertyOp53
 70
     1
102
RTVSPropertyOp54
 70
     1
102
RTVSPropertyOp55
 70
     1
102
RTVSPropertyOp56
 70
     1
102
RTVSPropertyOp57
 70
     1
102
RTVSPropertyOp58
 70
     1
102
RTVSPropertyOp59
 70
     1
102
RTVSPropertyOp60
 70
     1
102
RTVSPropertyOp61
 70
     1
102
RTVSPropertyOp62
 70
     1
  0
XRECORD
  5
212FE
102
{ACAD_REACTORS
330
212FD
102
}
330
212FD
100
AcDbXrecord
280
     1
102
RTVSPost2010Prop28
280
     0
102
RTVSPost2010PropOp28
 70
     1
102
RTVSPost2010Prop29
280
     1
102
RTVSPost2010PropOp29
 70
     1
102
RTVSPost2010Prop30
280
     1
102
RTVSPost2010PropOp30
 70
     1
102
RTVSPost2010Prop31
280
     0
102
RTVSPost2010PropOp31
 70
     1
102
RTVSPost2010Prop32
280
     0
102
RTVSPost2010PropOp32
 70
     1
102
RTVSPost2010Prop33
280
     0
102
RTVSPost2010PropOp33
 70
     1
102
RTVSPost2010Prop34
280
     0
102
RTVSPost2010PropOp34
 70
     1
102
RTVSPost2010Prop35
280
     0
102
RTVSPost2010PropOp35
 70
     1
102
RTVSPost2010Prop36
280
     0
102
RTVSPost2010PropOp36
 70
     1
102
RTVSPost2010Prop37
 90
       50
102
RTVSPost2010PropOp37
 70
     1
102
RTVSPost2010Prop38
140
0.0
102
RTVSPost2010PropOp38
 70
     1
102
RTVSPost2010Prop39
140
1.0
102
RTVSPost2010PropOp39
 70
     1
102
RTVSPost2010Prop40
 90
        0
102
RTVSPost2010PropOp40
 70
     1
102
RTVSPost2010Prop41ColorIndex
 90
       18
102
RTVSPost2010Prop41ColorRGB
 90
        0
102
RTVSPost2010PropOp41
 70
     1
102
RTVSPost2010Prop42
 90
       50
102
RTVSPost2010PropOp42
 70
     1
102
RTVSPost2010Prop43
 90
        3
102
RTVSPost2010PropOp43
 70
     1
102
RTVSPost2010Prop44ColorIndex
 90
        5
102
RTVSPost2010Prop44ColorRGB
 90
      255
102
RTVSPost2010PropOp44
 70
     1
102
RTVSPost2010Prop45
280
     0
102
RTVSPost2010PropOp45
 70
     1
102
RTVSPost2010Prop46
 90
       50
102
RTVSPost2010PropOp46
 70
     1
102
RTVSPost2010Prop47
 90
       50
102
RTVSPost2010PropOp47
 70
     1
102
RTVSPost2010Prop48
 90
       50
102
RTVSPost2010PropOp48
 70
     1
102
RTVSPost2010Prop49
280
     0
102
RTVSPost2010PropOp49
 70
     1
102
RTVSPost2010Prop50
 90
       50
102
RTVSPost2010PropOp50
 70
     1
102
RTVSPost2010Prop51ColorIndex
 90
      256
102
RTVSPost2010Prop51ColorRGB
 90
-16777216
102
RTVSPost2010PropOp51
 70
     0
102
RTVSPost2010Prop52
140
1.0
102
RTVSPost2010PropOp52
 70
     0
102
RTVSPost2010Prop53
 90
        2
102
RTVSPost2010PropOp53
 70
     1
102
RTVSPost2010Prop54
  1
strokes_ogs.tif
102
RTVSPost2010PropOp54
 70
     1
102
RTVSPost2010Prop55
280
     0
102
RTVSPost2010PropOp55
 70
     1
102
RTVSPost2010Prop56
140
1.0
102
RTVSPost2010PropOp56
 70
     1
102
RTVSPost2010Prop57
140
1.0
102
RTVSPost2010PropOp57
 70
     1
102
RTVSPropertyOp0
 70
     1
102
RTVSPropertyOp1
 70
     1
102
RTVSPropertyOp2
 70
     1
102
RTVSPropertyOp3
 70
     1
102
RTVSPropertyOp4
 70
     1
102
RTVSPropertyOp5
 70
     1
102
RTVSPropertyOp6
 70
     1
102
RTVSPropertyOp7
 70
     1
102
RTVSPropertyOp8
 70
     1
102
RTVSPropertyOp9
 70
     1
102
RTVSPropertyOp10
 70
     1
102
RTVSPropertyOp11
 70
     1
102
RTVSPropertyOp12
 70
     1
102
RTVSPropertyOp13
 70
     1
102
RTVSPropertyOp14
 70
     1
102
RTVSPropertyOp15
 70
     1
102
RTVSPropertyOp16
 70
     1
102
RTVSPropertyOp17
 70
     1
102
RTVSPropertyOp18
 70
     1
102
RTVSPropertyOp19
 70
     1
102
RTVSPropertyOp20
 70
     1
102
RTVSPropertyOp21
 70
     1
102
RTVSPropertyOp22
 70
     1
102
RTVSPropertyOp23
 70
     1
102
RTVSPropertyOp24
 70
     1
102
RTVSPropertyOp25
 70
     1
102
RTVSPropertyOp26
 70
     1
102
RTVSPropertyOp27
 70
     1
102
RTVSPropertyOp28
 70
     1
102
RTVSPropertyOp29
 70
     1
102
RTVSPropertyOp30
 70
     1
102
RTVSPropertyOp31
 70
     1
102
RTVSPropertyOp32
 70
     1
102
RTVSPropertyOp33
 70
     1
102
RTVSPropertyOp34
 70
     1
102
RTVSPropertyOp35
 70
     1
102
RTVSPropertyOp36
 70
     1
102
RTVSPropertyOp37
 70
     1
102
RTVSPropertyOp38
 70
     1
102
RTVSPropertyOp39
 70
     1
102
RTVSPropertyOp40
 70
     1
102
RTVSPropertyOp41
 70
     1
102
RTVSPropertyOp42
 70
     1
102
RTVSPropertyOp43
 70
     1
102
RTVSPropertyOp44
 70
     1
102
RTVSPropertyOp45
 70
     1
102
RTVSPropertyOp46
 70
     1
102
RTVSPropertyOp47
 70
     1
102
RTVSPropertyOp48
 70
     1
102
RTVSPropertyOp49
 70
     1
102
RTVSPropertyOp50
 70
     1
102
RTVSPropertyOp51
 70
     0
102
RTVSPropertyOp52
 70
     0
102
RTVSPropertyOp53
 70
     1
102
RTVSPropertyOp54
 70
     1
102
RTVSPropertyOp55
 70
     1
102
RTVSPropertyOp56
 70
     1
102
RTVSPropertyOp57
 70
     1
102
RTVSPropertyOp58
 70
     1
102
RTVSPropertyOp59
 70
     1
102
RTVSPropertyOp60
 70
     1
102
RTVSPropertyOp61
 70
     1
102
RTVSPropertyOp62
 70
     1
  0
XRECORD
  5
2130A
102
{ACAD_REACTORS
330
21309
102
}
330
21309
100
AcDbXrecord
280
     1
102
RTVSPost2010Prop28
280
     0
102
RTVSPost2010PropOp28
 70
     1
102
RTVSPost2010Prop29
280
     1
102
RTVSPost2010PropOp29
 70
     1
102
RTVSPost2010Prop30
280
     1
102
RTVSPost2010PropOp30
 70
     1
102
RTVSPost2010Prop31
280
     0
102
RTVSPost2010PropOp31
 70
     1
102
RTVSPost2010Prop32
280
     0
102
RTVSPost2010PropOp32
 70
     1
102
RTVSPost2010Prop33
280
     0
102
RTVSPost2010PropOp33
 70
     1
102
RTVSPost2010Prop34
280
     0
102
RTVSPost2010PropOp34
 70
     1
102
RTVSPost2010Prop35
280
     0
102
RTVSPost2010PropOp35
 70
     1
102
RTVSPost2010Prop36
280
     0
102
RTVSPost2010PropOp36
 70
     1
102
RTVSPost2010Prop37
 90
       50
102
RTVSPost2010PropOp37
 70
     0
102
RTVSPost2010Prop38
140
0.0
102
RTVSPost2010PropOp38
 70
     0
102
RTVSPost2010Prop39
140
1.0
102
RTVSPost2010PropOp39
 70
     0
102
RTVSPost2010Prop40
 90
        0
102
RTVSPost2010PropOp40
 70
     0
102
RTVSPost2010Prop41ColorIndex
 90
       18
102
RTVSPost2010Prop41ColorRGB
 90
        0
102
RTVSPost2010PropOp41
 70
     0
102
RTVSPost2010Prop42
 90
       50
102
RTVSPost2010PropOp42
 70
     0
102
RTVSPost2010Prop43
 90
        3
102
RTVSPost2010PropOp43
 70
     0
102
RTVSPost2010Prop44ColorIndex
 90
        5
102
RTVSPost2010Prop44ColorRGB
 90
      255
102
RTVSPost2010PropOp44
 70
     0
102
RTVSPost2010Prop45
280
     0
102
RTVSPost2010PropOp45
 70
     1
102
RTVSPost2010Prop46
 90
       50
102
RTVSPost2010PropOp46
 70
     0
102
RTVSPost2010Prop47
 90
       50
102
RTVSPost2010PropOp47
 70
     0
102
RTVSPost2010Prop48
 90
       50
102
RTVSPost2010PropOp48
 70
     0
102
RTVSPost2010Prop49
280
     0
102
RTVSPost2010PropOp49
 70
     1
102
RTVSPost2010Prop50
 90
       50
102
RTVSPost2010PropOp50
 70
     0
102
RTVSPost2010Prop51ColorIndex
 90
      256
102
RTVSPost2010Prop51ColorRGB
 90
-16777216
102
RTVSPost2010PropOp51
 70
     0
102
RTVSPost2010Prop52
140
1.0
102
RTVSPost2010PropOp52
 70
     0
102
RTVSPost2010Prop53
 90
        2
102
RTVSPost2010PropOp53
 70
     0
102
RTVSPost2010Prop54
  1
strokes_ogs.tif
102
RTVSPost2010PropOp54
 70
     0
102
RTVSPost2010Prop55
280
     0
102
RTVSPost2010PropOp55
 70
     1
102
RTVSPost2010Prop56
140
1.0
102
RTVSPost2010PropOp56
 70
     0
102
RTVSPost2010Prop57
140
1.0
102
RTVSPost2010PropOp57
 70
     0
102
RTVSPropertyOp0
 70
     0
102
RTVSPropertyOp1
 70
     0
102
RTVSPropertyOp2
 70
     0
102
RTVSPropertyOp3
 70
     0
102
RTVSPropertyOp4
 70
     0
102
RTVSPropertyOp5
 70
     0
102
RTVSPropertyOp6
 70
     0
102
RTVSPropertyOp7
 70
     0
102
RTVSPropertyOp8
 70
     0
102
RTVSPropertyOp9
 70
     0
102
RTVSPropertyOp10
 70
     0
102
RTVSPropertyOp11
 70
     0
102
RTVSPropertyOp12
 70
     0
102
RTVSPropertyOp13
 70
     0
102
RTVSPropertyOp14
 70
     2
102
RTVSPropertyOp15
 70
     0
102
RTVSPropertyOp16
 70
     0
102
RTVSPropertyOp17
 70
     0
102
RTVSPropertyOp18
 70
     0
102
RTVSPropertyOp19
 70
     0
102
RTVSPropertyOp20
 70
     0
102
RTVSPropertyOp21
 70
     0
102
RTVSPropertyOp22
 70
     0
102
RTVSPropertyOp23
 70
     0
102
RTVSPropertyOp24
 70
     0
102
RTVSPropertyOp25
 70
     0
102
RTVSPropertyOp26
 70
     0
102
RTVSPropertyOp27
 70
     0
102
RTVSPropertyOp28
 70
     1
102
RTVSPropertyOp29
 70
     1
102
RTVSPropertyOp30
 70
     1
102
RTVSPropertyOp31
 70
     1
102
RTVSPropertyOp32
 70
     1
102
RTVSPropertyOp33
 70
     1
102
RTVSPropertyOp34
 70
     1
102
RTVSPropertyOp35
 70
     1
102
RTVSPropertyOp36
 70
     1
102
RTVSPropertyOp37
 70
     0
102
RTVSPropertyOp38
 70
     0
102
RTVSPropertyOp39
 70
     0
102
RTVSPropertyOp40
 70
     0
102
RTVSPropertyOp41
 70
     0
102
RTVSPropertyOp42
 70
     0
102
RTVSPropertyOp43
 70
     0
102
RTVSPropertyOp44
 70
     0
102
RTVSPropertyOp45
 70
     1
102
RTVSPropertyOp46
 70
     0
102
RTVSPropertyOp47
 70
     0
102
RTVSPropertyOp48
 70
     0
102
RTVSPropertyOp49
 70
     1
102
RTVSPropertyOp50
 70
     0
102
RTVSPropertyOp51
 70
     0
102
RTVSPropertyOp52
 70
     0
102
RTVSPropertyOp53
 70
     0
102
RTVSPropertyOp54
 70
     0
102
RTVSPropertyOp55
 70
     1
102
RTVSPropertyOp56
 70
     0
102
RTVSPropertyOp57
 70
     0
102
RTVSPropertyOp58
 70
     1
102
RTVSPropertyOp59
 70
     1
102
RTVSPropertyOp60
 70
     1
102
RTVSPropertyOp61
 70
     1
102
RTVSPropertyOp62
 70
     1
  0
XRECORD
  5
212EE
102
{ACAD_REACTORS
330
212ED
102
}
330
212ED
100
AcDbXrecord
280
     1
102
RTVSPost2010Prop28
280
     0
102
RTVSPost2010PropOp28
 70
     1
102
RTVSPost2010Prop29
280
     1
102
RTVSPost2010PropOp29
 70
     1
102
RTVSPost2010Prop30
280
     1
102
RTVSPost2010PropOp30
 70
     1
102
RTVSPost2010Prop31
280
     0
102
RTVSPost2010PropOp31
 70
     1
102
RTVSPost2010Prop32
280
     0
102
RTVSPost2010PropOp32
 70
     1
102
RTVSPost2010Prop33
280
     0
102
RTVSPost2010PropOp33
 70
     1
102
RTVSPost2010Prop34
280
     0
102
RTVSPost2010PropOp34
 70
     1
102
RTVSPost2010Prop35
280
     0
102
RTVSPost2010PropOp35
 70
     1
102
RTVSPost2010Prop36
280
     0
102
RTVSPost2010PropOp36
 70
     1
102
RTVSPost2010Prop37
 90
       50
102
RTVSPost2010PropOp37
 70
     1
102
RTVSPost2010Prop38
140
0.0
102
RTVSPost2010PropOp38
 70
     1
102
RTVSPost2010Prop39
140
1.0
102
RTVSPost2010PropOp39
 70
     1
102
RTVSPost2010Prop40
 90
        0
102
RTVSPost2010PropOp40
 70
     1
102
RTVSPost2010Prop41ColorIndex
 90
       18
102
RTVSPost2010Prop41ColorRGB
 90
        0
102
RTVSPost2010PropOp41
 70
     1
102
RTVSPost2010Prop42
 90
       50
102
RTVSPost2010PropOp42
 70
     1
102
RTVSPost2010Prop43
 90
        3
102
RTVSPost2010PropOp43
 70
     1
102
RTVSPost2010Prop44ColorIndex
 90
        5
102
RTVSPost2010Prop44ColorRGB
 90
      255
102
RTVSPost2010PropOp44
 70
     1
102
RTVSPost2010Prop45
280
     0
102
RTVSPost2010PropOp45
 70
     1
102
RTVSPost2010Prop46
 90
       50
102
RTVSPost2010PropOp46
 70
     1
102
RTVSPost2010Prop47
 90
       50
102
RTVSPost2010PropOp47
 70
     1
102
RTVSPost2010Prop48
 90
       50
102
RTVSPost2010PropOp48
 70
     1
102
RTVSPost2010Prop49
280
     0
102
RTVSPost2010PropOp49
 70
     1
102
RTVSPost2010Prop50
 90
       50
102
RTVSPost2010PropOp50
 70
     1
102
RTVSPost2010Prop51ColorIndex
 90
      256
102
RTVSPost2010Prop51ColorRGB
 90
-16777216
102
RTVSPost2010PropOp51
 70
     0
102
RTVSPost2010Prop52
140
1.0
102
RTVSPost2010PropOp52
 70
     0
102
RTVSPost2010Prop53
 90
        2
102
RTVSPost2010PropOp53
 70
     1
102
RTVSPost2010Prop54
  1
strokes_ogs.tif
102
RTVSPost2010PropOp54
 70
     1
102
RTVSPost2010Prop55
280
     0
102
RTVSPost2010PropOp55
 70
     1
102
RTVSPost2010Prop56
140
1.0
102
RTVSPost2010PropOp56
 70
     1
102
RTVSPost2010Prop57
140
1.0
102
RTVSPost2010PropOp57
 70
     1
102
RTVSPropertyOp0
 70
     1
102
RTVSPropertyOp1
 70
     1
102
RTVSPropertyOp2
 70
     1
102
RTVSPropertyOp3
 70
     1
102
RTVSPropertyOp4
 70
     1
102
RTVSPropertyOp5
 70
     1
102
RTVSPropertyOp6
 70
     1
102
RTVSPropertyOp7
 70
     1
102
RTVSPropertyOp8
 70
     1
102
RTVSPropertyOp9
 70
     1
102
RTVSPropertyOp10
 70
     1
102
RTVSPropertyOp11
 70
     1
102
RTVSPropertyOp12
 70
     1
102
RTVSPropertyOp13
 70
     1
102
RTVSPropertyOp14
 70
     1
102
RTVSPropertyOp15
 70
     1
102
RTVSPropertyOp16
 70
     1
102
RTVSPropertyOp17
 70
     1
102
RTVSPropertyOp18
 70
     1
102
RTVSPropertyOp19
 70
     1
102
RTVSPropertyOp20
 70
     1
102
RTVSPropertyOp21
 70
     1
102
RTVSPropertyOp22
 70
     1
102
RTVSPropertyOp23
 70
     1
102
RTVSPropertyOp24
 70
     1
102
RTVSPropertyOp25
 70
     1
102
RTVSPropertyOp26
 70
     1
102
RTVSPropertyOp27
 70
     1
102
RTVSPropertyOp28
 70
     1
102
RTVSPropertyOp29
 70
     1
102
RTVSPropertyOp30
 70
     1
102
RTVSPropertyOp31
 70
     1
102
RTVSPropertyOp32
 70
     1
102
RTVSPropertyOp33
 70
     1
102
RTVSPropertyOp34
 70
     1
102
RTVSPropertyOp35
 70
     1
102
RTVSPropertyOp36
 70
     1
102
RTVSPropertyOp37
 70
     1
102
RTVSPropertyOp38
 70
     1
102
RTVSPropertyOp39
 70
     1
102
RTVSPropertyOp40
 70
     1
102
RTVSPropertyOp41
 70
     1
102
RTVSPropertyOp42
 70
     1
102
RTVSPropertyOp43
 70
     1
102
RTVSPropertyOp44
 70
     1
102
RTVSPropertyOp45
 70
     1
102
RTVSPropertyOp46
 70
     1
102
RTVSPropertyOp47
 70
     1
102
RTVSPropertyOp48
 70
     1
102
RTVSPropertyOp49
 70
     1
102
RTVSPropertyOp50
 70
     1
102
RTVSPropertyOp51
 70
     0
102
RTVSPropertyOp52
 70
     0
102
RTVSPropertyOp53
 70
     1
102
RTVSPropertyOp54
 70
     1
102
RTVSPropertyOp55
 70
     1
102
RTVSPropertyOp56
 70
     1
102
RTVSPropertyOp57
 70
     1
102
RTVSPropertyOp58
 70
     1
102
RTVSPropertyOp59
 70
     1
102
RTVSPropertyOp60
 70
     1
102
RTVSPropertyOp61
 70
     1
102
RTVSPropertyOp62
 70
     1
  0
XRECORD
  5
2130C
102
{ACAD_REACTORS
330
2130B
102
}
330
2130B
100
AcDbXrecord
280
     1
102
RTVSPost2010Prop28
280
     0
102
RTVSPost2010PropOp28
 70
     1
102
RTVSPost2010Prop29
280
     1
102
RTVSPost2010PropOp29
 70
     1
102
RTVSPost2010Prop30
280
     1
102
RTVSPost2010PropOp30
 70
     1
102
RTVSPost2010Prop31
280
     0
102
RTVSPost2010PropOp31
 70
     1
102
RTVSPost2010Prop32
280
     0
102
RTVSPost2010PropOp32
 70
     1
102
RTVSPost2010Prop33
280
     0
102
RTVSPost2010PropOp33
 70
     1
102
RTVSPost2010Prop34
280
     0
102
RTVSPost2010PropOp34
 70
     1
102
RTVSPost2010Prop35
280
     0
102
RTVSPost2010PropOp35
 70
     1
102
RTVSPost2010Prop36
280
     0
102
RTVSPost2010PropOp36
 70
     1
102
RTVSPost2010Prop37
 90
       50
102
RTVSPost2010PropOp37
 70
     0
102
RTVSPost2010Prop38
140
0.0
102
RTVSPost2010PropOp38
 70
     0
102
RTVSPost2010Prop39
140
1.0
102
RTVSPost2010PropOp39
 70
     0
102
RTVSPost2010Prop40
 90
        0
102
RTVSPost2010PropOp40
 70
     0
102
RTVSPost2010Prop41ColorIndex
 90
       18
102
RTVSPost2010Prop41ColorRGB
 90
        0
102
RTVSPost2010PropOp41
 70
     0
102
RTVSPost2010Prop42
 90
       50
102
RTVSPost2010PropOp42
 70
     0
102
RTVSPost2010Prop43
 90
        3
102
RTVSPost2010PropOp43
 70
     0
102
RTVSPost2010Prop44ColorIndex
 90
        5
102
RTVSPost2010Prop44ColorRGB
 90
      255
102
RTVSPost2010PropOp44
 70
     0
102
RTVSPost2010Prop45
280
     0
102
RTVSPost2010PropOp45
 70
     1
102
RTVSPost2010Prop46
 90
       50
102
RTVSPost2010PropOp46
 70
     0
102
RTVSPost2010Prop47
 90
       50
102
RTVSPost2010PropOp47
 70
     0
102
RTVSPost2010Prop48
 90
       50
102
RTVSPost2010PropOp48
 70
     0
102
RTVSPost2010Prop49
280
     0
102
RTVSPost2010PropOp49
 70
     1
102
RTVSPost2010Prop50
 90
       50
102
RTVSPost2010PropOp50
 70
     0
102
RTVSPost2010Prop51ColorIndex
 90
      256
102
RTVSPost2010Prop51ColorRGB
 90
-16777216
102
RTVSPost2010PropOp51
 70
     0
102
RTVSPost2010Prop52
140
1.0
102
RTVSPost2010PropOp52
 70
     0
102
RTVSPost2010Prop53
 90
        2
102
RTVSPost2010PropOp53
 70
     0
102
RTVSPost2010Prop54
  1
strokes_ogs.tif
102
RTVSPost2010PropOp54
 70
     0
102
RTVSPost2010Prop55
280
     0
102
RTVSPost2010PropOp55
 70
     1
102
RTVSPost2010Prop56
140
1.0
102
RTVSPost2010PropOp56
 70
     0
102
RTVSPost2010Prop57
140
1.0
102
RTVSPost2010PropOp57
 70
     0
102
RTVSPropertyOp0
 70
     0
102
RTVSPropertyOp1
 70
     0
102
RTVSPropertyOp2
 70
     0
102
RTVSPropertyOp3
 70
     0
102
RTVSPropertyOp4
 70
     0
102
RTVSPropertyOp5
 70
     0
102
RTVSPropertyOp6
 70
     0
102
RTVSPropertyOp7
 70
     0
102
RTVSPropertyOp8
 70
     0
102
RTVSPropertyOp9
 70
     0
102
RTVSPropertyOp10
 70
     0
102
RTVSPropertyOp11
 70
     0
102
RTVSPropertyOp12
 70
     0
102
RTVSPropertyOp13
 70
     0
102
RTVSPropertyOp14
 70
     2
102
RTVSPropertyOp15
 70
     0
102
RTVSPropertyOp16
 70
     0
102
RTVSPropertyOp17
 70
     0
102
RTVSPropertyOp18
 70
     0
102
RTVSPropertyOp19
 70
     0
102
RTVSPropertyOp20
 70
     0
102
RTVSPropertyOp21
 70
     0
102
RTVSPropertyOp22
 70
     0
102
RTVSPropertyOp23
 70
     0
102
RTVSPropertyOp24
 70
     0
102
RTVSPropertyOp25
 70
     0
102
RTVSPropertyOp26
 70
     0
102
RTVSPropertyOp27
 70
     0
102
RTVSPropertyOp28
 70
     1
102
RTVSPropertyOp29
 70
     1
102
RTVSPropertyOp30
 70
     1
102
RTVSPropertyOp31
 70
     1
102
RTVSPropertyOp32
 70
     1
102
RTVSPropertyOp33
 70
     1
102
RTVSPropertyOp34
 70
     1
102
RTVSPropertyOp35
 70
     1
102
RTVSPropertyOp36
 70
     1
102
RTVSPropertyOp37
 70
     0
102
RTVSPropertyOp38
 70
     0
102
RTVSPropertyOp39
 70
     0
102
RTVSPropertyOp40
 70
     0
102
RTVSPropertyOp41
 70
     0
102
RTVSPropertyOp42
 70
     0
102
RTVSPropertyOp43
 70
     0
102
RTVSPropertyOp44
 70
     0
102
RTVSPropertyOp45
 70
     1
102
RTVSPropertyOp46
 70
     0
102
RTVSPropertyOp47
 70
     0
102
RTVSPropertyOp48
 70
     0
102
RTVSPropertyOp49
 70
     1
102
RTVSPropertyOp50
 70
     0
102
RTVSPropertyOp51
 70
     0
102
RTVSPropertyOp52
 70
     0
102
RTVSPropertyOp53
 70
     0
102
RTVSPropertyOp54
 70
     0
102
RTVSPropertyOp55
 70
     1
102
RTVSPropertyOp56
 70
     0
102
RTVSPropertyOp57
 70
     0
102
RTVSPropertyOp58
 70
     1
102
RTVSPropertyOp59
 70
     1
102
RTVSPropertyOp60
 70
     1
102
RTVSPropertyOp61
 70
     1
102
RTVSPropertyOp62
 70
     1
  0
XRECORD
  5
212E6
102
{ACAD_REACTORS
330
212E5
102
}
330
212E5
100
AcDbXrecord
280
     1
102
RTVSPost2010Prop28
280
     0
102
RTVSPost2010PropOp28
 70
     1
102
RTVSPost2010Prop29
280
     1
102
RTVSPost2010PropOp29
 70
     1
102
RTVSPost2010Prop30
280
     1
102
RTVSPost2010PropOp30
 70
     1
102
RTVSPost2010Prop31
280
     0
102
RTVSPost2010PropOp31
 70
     1
102
RTVSPost2010Prop32
280
     0
102
RTVSPost2010PropOp32
 70
     1
102
RTVSPost2010Prop33
280
     0
102
RTVSPost2010PropOp33
 70
     1
102
RTVSPost2010Prop34
280
     0
102
RTVSPost2010PropOp34
 70
     1
102
RTVSPost2010Prop35
280
     0
102
RTVSPost2010PropOp35
 70
     1
102
RTVSPost2010Prop36
280
     0
102
RTVSPost2010PropOp36
 70
     1
102
RTVSPost2010Prop37
 90
       50
102
RTVSPost2010PropOp37
 70
     1
102
RTVSPost2010Prop38
140
0.0
102
RTVSPost2010PropOp38
 70
     1
102
RTVSPost2010Prop39
140
1.0
102
RTVSPost2010PropOp39
 70
     1
102
RTVSPost2010Prop40
 90
        0
102
RTVSPost2010PropOp40
 70
     1
102
RTVSPost2010Prop41ColorIndex
 90
       18
102
RTVSPost2010Prop41ColorRGB
 90
        0
102
RTVSPost2010PropOp41
 70
     1
102
RTVSPost2010Prop42
 90
       50
102
RTVSPost2010PropOp42
 70
     1
102
RTVSPost2010Prop43
 90
        3
102
RTVSPost2010PropOp43
 70
     1
102
RTVSPost2010Prop44ColorIndex
 90
        5
102
RTVSPost2010Prop44ColorRGB
 90
      255
102
RTVSPost2010PropOp44
 70
     1
102
RTVSPost2010Prop45
280
     0
102
RTVSPost2010PropOp45
 70
     1
102
RTVSPost2010Prop46
 90
       50
102
RTVSPost2010PropOp46
 70
     1
102
RTVSPost2010Prop47
 90
       50
102
RTVSPost2010PropOp47
 70
     1
102
RTVSPost2010Prop48
 90
       50
102
RTVSPost2010PropOp48
 70
     1
102
RTVSPost2010Prop49
280
     0
102
RTVSPost2010PropOp49
 70
     1
102
RTVSPost2010Prop50
 90
       50
102
RTVSPost2010PropOp50
 70
     1
102
RTVSPost2010Prop51ColorIndex
 90
      256
102
RTVSPost2010Prop51ColorRGB
 90
-16777216
102
RTVSPost2010PropOp51
 70
     0
102
RTVSPost2010Prop52
140
1.0
102
RTVSPost2010PropOp52
 70
     0
102
RTVSPost2010Prop53
 90
        2
102
RTVSPost2010PropOp53
 70
     1
102
RTVSPost2010Prop54
  1
strokes_ogs.tif
102
RTVSPost2010PropOp54
 70
     1
102
RTVSPost2010Prop55
280
     0
102
RTVSPost2010PropOp55
 70
     1
102
RTVSPost2010Prop56
140
1.0
102
RTVSPost2010PropOp56
 70
     1
102
RTVSPost2010Prop57
140
1.0
102
RTVSPost2010PropOp57
 70
     1
102
RTVSPropertyOp0
 70
     1
102
RTVSPropertyOp1
 70
     1
102
RTVSPropertyOp2
 70
     1
102
RTVSPropertyOp3
 70
     1
102
RTVSPropertyOp4
 70
     1
102
RTVSPropertyOp5
 70
     1
102
RTVSPropertyOp6
 70
     1
102
RTVSPropertyOp7
 70
     1
102
RTVSPropertyOp8
 70
     1
102
RTVSPropertyOp9
 70
     1
102
RTVSPropertyOp10
 70
     1
102
RTVSPropertyOp11
 70
     1
102
RTVSPropertyOp12
 70
     1
102
RTVSPropertyOp13
 70
     1
102
RTVSPropertyOp14
 70
     1
102
RTVSPropertyOp15
 70
     1
102
RTVSPropertyOp16
 70
     1
102
RTVSPropertyOp17
 70
     1
102
RTVSPropertyOp18
 70
     1
102
RTVSPropertyOp19
 70
     1
102
RTVSPropertyOp20
 70
     1
102
RTVSPropertyOp21
 70
     1
102
RTVSPropertyOp22
 70
     1
102
RTVSPropertyOp23
 70
     1
102
RTVSPropertyOp24
 70
     1
102
RTVSPropertyOp25
 70
     1
102
RTVSPropertyOp26
 70
     1
102
RTVSPropertyOp27
 70
     1
102
RTVSPropertyOp28
 70
     1
102
RTVSPropertyOp29
 70
     1
102
RTVSPropertyOp30
 70
     1
102
RTVSPropertyOp31
 70
     1
102
RTVSPropertyOp32
 70
     1
102
RTVSPropertyOp33
 70
     1
102
RTVSPropertyOp34
 70
     1
102
RTVSPropertyOp35
 70
     1
102
RTVSPropertyOp36
 70
     1
102
RTVSPropertyOp37
 70
     1
102
RTVSPropertyOp38
 70
     1
102
RTVSPropertyOp39
 70
     1
102
RTVSPropertyOp40
 70
     1
102
RTVSPropertyOp41
 70
     1
102
RTVSPropertyOp42
 70
     1
102
RTVSPropertyOp43
 70
     1
102
RTVSPropertyOp44
 70
     1
102
RTVSPropertyOp45
 70
     1
102
RTVSPropertyOp46
 70
     1
102
RTVSPropertyOp47
 70
     1
102
RTVSPropertyOp48
 70
     1
102
RTVSPropertyOp49
 70
     1
102
RTVSPropertyOp50
 70
     1
102
RTVSPropertyOp51
 70
     0
102
RTVSPropertyOp52
 70
     0
102
RTVSPropertyOp53
 70
     1
102
RTVSPropertyOp54
 70
     1
102
RTVSPropertyOp55
 70
     1
102
RTVSPropertyOp56
 70
     1
102
RTVSPropertyOp57
 70
     1
102
RTVSPropertyOp58
 70
     1
102
RTVSPropertyOp59
 70
     1
102
RTVSPropertyOp60
 70
     1
102
RTVSPropertyOp61
 70
     1
102
RTVSPropertyOp62
 70
     1
  0
XRECORD
  5
21308
102
{ACAD_REACTORS
330
21307
102
}
330
21307
100
AcDbXrecord
280
     1
102
RTVSPost2010Prop28
280
     0
102
RTVSPost2010PropOp28
 70
     1
102
RTVSPost2010Prop29
280
     1
102
RTVSPost2010PropOp29
 70
     1
102
RTVSPost2010Prop30
280
     1
102
RTVSPost2010PropOp30
 70
     1
102
RTVSPost2010Prop31
280
     0
102
RTVSPost2010PropOp31
 70
     1
102
RTVSPost2010Prop32
280
     0
102
RTVSPost2010PropOp32
 70
     1
102
RTVSPost2010Prop33
280
     0
102
RTVSPost2010PropOp33
 70
     1
102
RTVSPost2010Prop34
280
     0
102
RTVSPost2010PropOp34
 70
     1
102
RTVSPost2010Prop35
280
     0
102
RTVSPost2010PropOp35
 70
     1
102
RTVSPost2010Prop36
280
     0
102
RTVSPost2010PropOp36
 70
     1
102
RTVSPost2010Prop37
 90
       50
102
RTVSPost2010PropOp37
 70
     1
102
RTVSPost2010Prop38
140
0.0
102
RTVSPost2010PropOp38
 70
     1
102
RTVSPost2010Prop39
140
1.0
102
RTVSPost2010PropOp39
 70
     1
102
RTVSPost2010Prop40
 90
        0
102
RTVSPost2010PropOp40
 70
     1
102
RTVSPost2010Prop41ColorIndex
 90
       18
102
RTVSPost2010Prop41ColorRGB
 90
        0
102
RTVSPost2010PropOp41
 70
     1
102
RTVSPost2010Prop42
 90
       50
102
RTVSPost2010PropOp42
 70
     1
102
RTVSPost2010Prop43
 90
        3
102
RTVSPost2010PropOp43
 70
     1
102
RTVSPost2010Prop44ColorIndex
 90
        5
102
RTVSPost2010Prop44ColorRGB
 90
      255
102
RTVSPost2010PropOp44
 70
     1
102
RTVSPost2010Prop45
280
     0
102
RTVSPost2010PropOp45
 70
     1
102
RTVSPost2010Prop46
 90
       50
102
RTVSPost2010PropOp46
 70
     1
102
RTVSPost2010Prop47
 90
       50
102
RTVSPost2010PropOp47
 70
     1
102
RTVSPost2010Prop48
 90
       50
102
RTVSPost2010PropOp48
 70
     1
102
RTVSPost2010Prop49
280
     0
102
RTVSPost2010PropOp49
 70
     1
102
RTVSPost2010Prop50
 90
       50
102
RTVSPost2010PropOp50
 70
     1
102
RTVSPost2010Prop51ColorIndex
 90
      256
102
RTVSPost2010Prop51ColorRGB
 90
-16777216
102
RTVSPost2010PropOp51
 70
     0
102
RTVSPost2010Prop52
140
1.0
102
RTVSPost2010PropOp52
 70
     0
102
RTVSPost2010Prop53
 90
        2
102
RTVSPost2010PropOp53
 70
     1
102
RTVSPost2010Prop54
  1
strokes_ogs.tif
102
RTVSPost2010PropOp54
 70
     1
102
RTVSPost2010Prop55
280
     0
102
RTVSPost2010PropOp55
 70
     1
102
RTVSPost2010Prop56
140
1.0
102
RTVSPost2010PropOp56
 70
     1
102
RTVSPost2010Prop57
140
1.0
102
RTVSPost2010PropOp57
 70
     1
102
RTVSPropertyOp0
 70
     1
102
RTVSPropertyOp1
 70
     1
102
RTVSPropertyOp2
 70
     1
102
RTVSPropertyOp3
 70
     1
102
RTVSPropertyOp4
 70
     1
102
RTVSPropertyOp5
 70
     1
102
RTVSPropertyOp6
 70
     1
102
RTVSPropertyOp7
 70
     1
102
RTVSPropertyOp8
 70
     1
102
RTVSPropertyOp9
 70
     1
102
RTVSPropertyOp10
 70
     1
102
RTVSPropertyOp11
 70
     1
102
RTVSPropertyOp12
 70
     1
102
RTVSPropertyOp13
 70
     1
102
RTVSPropertyOp14
 70
     1
102
RTVSPropertyOp15
 70
     1
102
RTVSPropertyOp16
 70
     1
102
RTVSPropertyOp17
 70
     1
102
RTVSPropertyOp18
 70
     1
102
RTVSPropertyOp19
 70
     1
102
RTVSPropertyOp20
 70
     1
102
RTVSPropertyOp21
 70
     1
102
RTVSPropertyOp22
 70
     1
102
RTVSPropertyOp23
 70
     1
102
RTVSPropertyOp24
 70
     1
102
RTVSPropertyOp25
 70
     1
102
RTVSPropertyOp26
 70
     1
102
RTVSPropertyOp27
 70
     1
102
RTVSPropertyOp28
 70
     1
102
RTVSPropertyOp29
 70
     1
102
RTVSPropertyOp30
 70
     1
102
RTVSPropertyOp31
 70
     1
102
RTVSPropertyOp32
 70
     1
102
RTVSPropertyOp33
 70
     1
102
RTVSPropertyOp34
 70
     1
102
RTVSPropertyOp35
 70
     1
102
RTVSPropertyOp36
 70
     1
102
RTVSPropertyOp37
 70
     1
102
RTVSPropertyOp38
 70
     1
102
RTVSPropertyOp39
 70
     1
102
RTVSPropertyOp40
 70
     1
102
RTVSPropertyOp41
 70
     1
102
RTVSPropertyOp42
 70
     1
102
RTVSPropertyOp43
 70
     1
102
RTVSPropertyOp44
 70
     1
102
RTVSPropertyOp45
 70
     1
102
RTVSPropertyOp46
 70
     1
102
RTVSPropertyOp47
 70
     1
102
RTVSPropertyOp48
 70
     1
102
RTVSPropertyOp49
 70
     1
102
RTVSPropertyOp50
 70
     1
102
RTVSPropertyOp51
 70
     0
102
RTVSPropertyOp52
 70
     0
102
RTVSPropertyOp53
 70
     1
102
RTVSPropertyOp54
 70
     1
102
RTVSPropertyOp55
 70
     1
102
RTVSPropertyOp56
 70
     1
102
RTVSPropertyOp57
 70
     1
102
RTVSPropertyOp58
 70
     1
102
RTVSPropertyOp59
 70
     1
102
RTVSPropertyOp60
 70
     1
102
RTVSPropertyOp61
 70
     1
102
RTVSPropertyOp62
 70
     1
  0
XRECORD
  5
21306
102
{ACAD_REACTORS
330
21305
102
}
330
21305
100
AcDbXrecord
280
     1
102
RTVSPost2010Prop28
280
     0
102
RTVSPost2010PropOp28
 70
     1
102
RTVSPost2010Prop29
280
     1
102
RTVSPost2010PropOp29
 70
     1
102
RTVSPost2010Prop30
280
     1
102
RTVSPost2010PropOp30
 70
     1
102
RTVSPost2010Prop31
280
     0
102
RTVSPost2010PropOp31
 70
     1
102
RTVSPost2010Prop32
280
     0
102
RTVSPost2010PropOp32
 70
     1
102
RTVSPost2010Prop33
280
     0
102
RTVSPost2010PropOp33
 70
     1
102
RTVSPost2010Prop34
280
     0
102
RTVSPost2010PropOp34
 70
     1
102
RTVSPost2010Prop35
280
     0
102
RTVSPost2010PropOp35
 70
     1
102
RTVSPost2010Prop36
280
     0
102
RTVSPost2010PropOp36
 70
     1
102
RTVSPost2010Prop37
 90
       50
102
RTVSPost2010PropOp37
 70
     1
102
RTVSPost2010Prop38
140
0.0
102
RTVSPost2010PropOp38
 70
     1
102
RTVSPost2010Prop39
140
1.0
102
RTVSPost2010PropOp39
 70
     1
102
RTVSPost2010Prop40
 90
        0
102
RTVSPost2010PropOp40
 70
     1
102
RTVSPost2010Prop41ColorIndex
 90
       18
102
RTVSPost2010Prop41ColorRGB
 90
        0
102
RTVSPost2010PropOp41
 70
     1
102
RTVSPost2010Prop42
 90
       50
102
RTVSPost2010PropOp42
 70
     1
102
RTVSPost2010Prop43
 90
        3
102
RTVSPost2010PropOp43
 70
     1
102
RTVSPost2010Prop44ColorIndex
 90
        5
102
RTVSPost2010Prop44ColorRGB
 90
      255
102
RTVSPost2010PropOp44
 70
     1
102
RTVSPost2010Prop45
280
     0
102
RTVSPost2010PropOp45
 70
     1
102
RTVSPost2010Prop46
 90
       50
102
RTVSPost2010PropOp46
 70
     1
102
RTVSPost2010Prop47
 90
       50
102
RTVSPost2010PropOp47
 70
     1
102
RTVSPost2010Prop48
 90
       50
102
RTVSPost2010PropOp48
 70
     1
102
RTVSPost2010Prop49
280
     0
102
RTVSPost2010PropOp49
 70
     1
102
RTVSPost2010Prop50
 90
       50
102
RTVSPost2010PropOp50
 70
     1
102
RTVSPost2010Prop51ColorIndex
 90
      256
102
RTVSPost2010Prop51ColorRGB
 90
-16777216
102
RTVSPost2010PropOp51
 70
     0
102
RTVSPost2010Prop52
140
1.0
102
RTVSPost2010PropOp52
 70
     0
102
RTVSPost2010Prop53
 90
        2
102
RTVSPost2010PropOp53
 70
     1
102
RTVSPost2010Prop54
  1
strokes_ogs.tif
102
RTVSPost2010PropOp54
 70
     1
102
RTVSPost2010Prop55
280
     0
102
RTVSPost2010PropOp55
 70
     1
102
RTVSPost2010Prop56
140
1.0
102
RTVSPost2010PropOp56
 70
     1
102
RTVSPost2010Prop57
140
1.0
102
RTVSPost2010PropOp57
 70
     1
102
RTVSPropertyOp0
 70
     1
102
RTVSPropertyOp1
 70
     1
102
RTVSPropertyOp2
 70
     1
102
RTVSPropertyOp3
 70
     1
102
RTVSPropertyOp4
 70
     1
102
RTVSPropertyOp5
 70
     1
102
RTVSPropertyOp6
 70
     1
102
RTVSPropertyOp7
 70
     1
102
RTVSPropertyOp8
 70
     1
102
RTVSPropertyOp9
 70
     1
102
RTVSPropertyOp10
 70
     1
102
RTVSPropertyOp11
 70
     1
102
RTVSPropertyOp12
 70
     1
102
RTVSPropertyOp13
 70
     1
102
RTVSPropertyOp14
 70
     1
102
RTVSPropertyOp15
 70
     1
102
RTVSPropertyOp16
 70
     1
102
RTVSPropertyOp17
 70
     1
102
RTVSPropertyOp18
 70
     1
102
RTVSPropertyOp19
 70
     1
102
RTVSPropertyOp20
 70
     1
102
RTVSPropertyOp21
 70
     1
102
RTVSPropertyOp22
 70
     1
102
RTVSPropertyOp23
 70
     1
102
RTVSPropertyOp24
 70
     1
102
RTVSPropertyOp25
 70
     1
102
RTVSPropertyOp26
 70
     1
102
RTVSPropertyOp27
 70
     1
102
RTVSPropertyOp28
 70
     1
102
RTVSPropertyOp29
 70
     1
102
RTVSPropertyOp30
 70
     1
102
RTVSPropertyOp31
 70
     1
102
RTVSPropertyOp32
 70
     1
102
RTVSPropertyOp33
 70
     1
102
RTVSPropertyOp34
 70
     1
102
RTVSPropertyOp35
 70
     1
102
RTVSPropertyOp36
 70
     1
102
RTVSPropertyOp37
 70
     1
102
RTVSPropertyOp38
 70
     1
102
RTVSPropertyOp39
 70
     1
102
RTVSPropertyOp40
 70
     1
102
RTVSPropertyOp41
 70
     1
102
RTVSPropertyOp42
 70
     1
102
RTVSPropertyOp43
 70
     1
102
RTVSPropertyOp44
 70
     1
102
RTVSPropertyOp45
 70
     1
102
RTVSPropertyOp46
 70
     1
102
RTVSPropertyOp47
 70
     1
102
RTVSPropertyOp48
 70
     1
102
RTVSPropertyOp49
 70
     1
102
RTVSPropertyOp50
 70
     1
102
RTVSPropertyOp51
 70
     0
102
RTVSPropertyOp52
 70
     0
102
RTVSPropertyOp53
 70
     1
102
RTVSPropertyOp54
 70
     1
102
RTVSPropertyOp55
 70
     1
102
RTVSPropertyOp56
 70
     1
102
RTVSPropertyOp57
 70
     1
102
RTVSPropertyOp58
 70
     1
102
RTVSPropertyOp59
 70
     1
102
RTVSPropertyOp60
 70
     1
102
RTVSPropertyOp61
 70
     1
102
RTVSPropertyOp62
 70
     1
  0
XRECORD
  5
21300
102
{ACAD_REACTORS
330
212FF
102
}
330
212FF
100
AcDbXrecord
280
     1
102
RTVSPost2010Prop28
280
     0
102
RTVSPost2010PropOp28
 70
     1
102
RTVSPost2010Prop29
280
     1
102
RTVSPost2010PropOp29
 70
     1
102
RTVSPost2010Prop30
280
     1
102
RTVSPost2010PropOp30
 70
     1
102
RTVSPost2010Prop31
280
     0
102
RTVSPost2010PropOp31
 70
     1
102
RTVSPost2010Prop32
280
     0
102
RTVSPost2010PropOp32
 70
     1
102
RTVSPost2010Prop33
280
     0
102
RTVSPost2010PropOp33
 70
     1
102
RTVSPost2010Prop34
280
     0
102
RTVSPost2010PropOp34
 70
     1
102
RTVSPost2010Prop35
280
     0
102
RTVSPost2010PropOp35
 70
     1
102
RTVSPost2010Prop36
280
     0
102
RTVSPost2010PropOp36
 70
     1
102
RTVSPost2010Prop37
 90
       50
102
RTVSPost2010PropOp37
 70
     1
102
RTVSPost2010Prop38
140
0.0
102
RTVSPost2010PropOp38
 70
     1
102
RTVSPost2010Prop39
140
1.0
102
RTVSPost2010PropOp39
 70
     1
102
RTVSPost2010Prop40
 90
        0
102
RTVSPost2010PropOp40
 70
     1
102
RTVSPost2010Prop41ColorIndex
 90
       18
102
RTVSPost2010Prop41ColorRGB
 90
        0
102
RTVSPost2010PropOp41
 70
     1
102
RTVSPost2010Prop42
 90
       50
102
RTVSPost2010PropOp42
 70
     1
102
RTVSPost2010Prop43
 90
        3
102
RTVSPost2010PropOp43
 70
     1
102
RTVSPost2010Prop44ColorIndex
 90
        5
102
RTVSPost2010Prop44ColorRGB
 90
      255
102
RTVSPost2010PropOp44
 70
     1
102
RTVSPost2010Prop45
280
     0
102
RTVSPost2010PropOp45
 70
     1
102
RTVSPost2010Prop46
 90
       50
102
RTVSPost2010PropOp46
 70
     1
102
RTVSPost2010Prop47
 90
       50
102
RTVSPost2010PropOp47
 70
     1
102
RTVSPost2010Prop48
 90
       50
102
RTVSPost2010PropOp48
 70
     1
102
RTVSPost2010Prop49
280
     0
102
RTVSPost2010PropOp49
 70
     1
102
RTVSPost2010Prop50
 90
       50
102
RTVSPost2010PropOp50
 70
     1
102
RTVSPost2010Prop51ColorIndex
 90
      256
102
RTVSPost2010Prop51ColorRGB
 90
-16777216
102
RTVSPost2010PropOp51
 70
     0
102
RTVSPost2010Prop52
140
1.0
102
RTVSPost2010PropOp52
 70
     0
102
RTVSPost2010Prop53
 90
        2
102
RTVSPost2010PropOp53
 70
     1
102
RTVSPost2010Prop54
  1
strokes_ogs.tif
102
RTVSPost2010PropOp54
 70
     1
102
RTVSPost2010Prop55
280
     0
102
RTVSPost2010PropOp55
 70
     1
102
RTVSPost2010Prop56
140
1.0
102
RTVSPost2010PropOp56
 70
     1
102
RTVSPost2010Prop57
140
1.0
102
RTVSPost2010PropOp57
 70
     1
102
RTVSPropertyOp0
 70
     1
102
RTVSPropertyOp1
 70
     1
102
RTVSPropertyOp2
 70
     1
102
RTVSPropertyOp3
 70
     1
102
RTVSPropertyOp4
 70
     1
102
RTVSPropertyOp5
 70
     1
102
RTVSPropertyOp6
 70
     1
102
RTVSPropertyOp7
 70
     1
102
RTVSPropertyOp8
 70
     1
102
RTVSPropertyOp9
 70
     1
102
RTVSPropertyOp10
 70
     1
102
RTVSPropertyOp11
 70
     1
102
RTVSPropertyOp12
 70
     1
102
RTVSPropertyOp13
 70
     1
102
RTVSPropertyOp14
 70
     1
102
RTVSPropertyOp15
 70
     1
102
RTVSPropertyOp16
 70
     1
102
RTVSPropertyOp17
 70
     1
102
RTVSPropertyOp18
 70
     1
102
RTVSPropertyOp19
 70
     1
102
RTVSPropertyOp20
 70
     1
102
RTVSPropertyOp21
 70
     1
102
RTVSPropertyOp22
 70
     1
102
RTVSPropertyOp23
 70
     1
102
RTVSPropertyOp24
 70
     1
102
RTVSPropertyOp25
 70
     1
102
RTVSPropertyOp26
 70
     1
102
RTVSPropertyOp27
 70
     1
102
RTVSPropertyOp28
 70
     1
102
RTVSPropertyOp29
 70
     1
102
RTVSPropertyOp30
 70
     1
102
RTVSPropertyOp31
 70
     1
102
RTVSPropertyOp32
 70
     1
102
RTVSPropertyOp33
 70
     1
102
RTVSPropertyOp34
 70
     1
102
RTVSPropertyOp35
 70
     1
102
RTVSPropertyOp36
 70
     1
102
RTVSPropertyOp37
 70
     1
102
RTVSPropertyOp38
 70
     1
102
RTVSPropertyOp39
 70
     1
102
RTVSPropertyOp40
 70
     1
102
RTVSPropertyOp41
 70
     1
102
RTVSPropertyOp42
 70
     1
102
RTVSPropertyOp43
 70
     1
102
RTVSPropertyOp44
 70
     1
102
RTVSPropertyOp45
 70
     1
102
RTVSPropertyOp46
 70
     1
102
RTVSPropertyOp47
 70
     1
102
RTVSPropertyOp48
 70
     1
102
RTVSPropertyOp49
 70
     1
102
RTVSPropertyOp50
 70
     1
102
RTVSPropertyOp51
 70
     0
102
RTVSPropertyOp52
 70
     0
102
RTVSPropertyOp53
 70
     1
102
RTVSPropertyOp54
 70
     1
102
RTVSPropertyOp55
 70
     1
102
RTVSPropertyOp56
 70
     1
102
RTVSPropertyOp57
 70
     1
102
RTVSPropertyOp58
 70
     1
102
RTVSPropertyOp59
 70
     1
102
RTVSPropertyOp60
 70
     1
102
RTVSPropertyOp61
 70
     1
102
RTVSPropertyOp62
 70
     1
  0
XRECORD
  5
21302
102
{ACAD_REACTORS
330
21301
102
}
330
21301
100
AcDbXrecord
280
     1
102
RTVSPost2010Prop28
280
     0
102
RTVSPost2010PropOp28
 70
     1
102
RTVSPost2010Prop29
280
     1
102
RTVSPost2010PropOp29
 70
     1
102
RTVSPost2010Prop30
280
     1
102
RTVSPost2010PropOp30
 70
     1
102
RTVSPost2010Prop31
280
     0
102
RTVSPost2010PropOp31
 70
     1
102
RTVSPost2010Prop32
280
     0
102
RTVSPost2010PropOp32
 70
     1
102
RTVSPost2010Prop33
280
     0
102
RTVSPost2010PropOp33
 70
     1
102
RTVSPost2010Prop34
280
     0
102
RTVSPost2010PropOp34
 70
     1
102
RTVSPost2010Prop35
280
     0
102
RTVSPost2010PropOp35
 70
     1
102
RTVSPost2010Prop36
280
     0
102
RTVSPost2010PropOp36
 70
     1
102
RTVSPost2010Prop37
 90
       50
102
RTVSPost2010PropOp37
 70
     1
102
RTVSPost2010Prop38
140
0.0
102
RTVSPost2010PropOp38
 70
     1
102
RTVSPost2010Prop39
140
1.0
102
RTVSPost2010PropOp39
 70
     1
102
RTVSPost2010Prop40
 90
        0
102
RTVSPost2010PropOp40
 70
     1
102
RTVSPost2010Prop41ColorIndex
 90
       18
102
RTVSPost2010Prop41ColorRGB
 90
        0
102
RTVSPost2010PropOp41
 70
     1
102
RTVSPost2010Prop42
 90
       50
102
RTVSPost2010PropOp42
 70
     1
102
RTVSPost2010Prop43
 90
        3
102
RTVSPost2010PropOp43
 70
     1
102
RTVSPost2010Prop44ColorIndex
 90
        5
102
RTVSPost2010Prop44ColorRGB
 90
      255
102
RTVSPost2010PropOp44
 70
     1
102
RTVSPost2010Prop45
280
     0
102
RTVSPost2010PropOp45
 70
     1
102
RTVSPost2010Prop46
 90
       50
102
RTVSPost2010PropOp46
 70
     1
102
RTVSPost2010Prop47
 90
       50
102
RTVSPost2010PropOp47
 70
     1
102
RTVSPost2010Prop48
 90
       50
102
RTVSPost2010PropOp48
 70
     1
102
RTVSPost2010Prop49
280
     0
102
RTVSPost2010PropOp49
 70
     1
102
RTVSPost2010Prop50
 90
       50
102
RTVSPost2010PropOp50
 70
     1
102
RTVSPost2010Prop51ColorIndex
 90
      256
102
RTVSPost2010Prop51ColorRGB
 90
-16777216
102
RTVSPost2010PropOp51
 70
     0
102
RTVSPost2010Prop52
140
1.0
102
RTVSPost2010PropOp52
 70
     0
102
RTVSPost2010Prop53
 90
        2
102
RTVSPost2010PropOp53
 70
     1
102
RTVSPost2010Prop54
  1
strokes_ogs.tif
102
RTVSPost2010PropOp54
 70
     1
102
RTVSPost2010Prop55
280
     0
102
RTVSPost2010PropOp55
 70
     1
102
RTVSPost2010Prop56
140
1.0
102
RTVSPost2010PropOp56
 70
     1
102
RTVSPost2010Prop57
140
1.0
102
RTVSPost2010PropOp57
 70
     1
102
RTVSPropertyOp0
 70
     1
102
RTVSPropertyOp1
 70
     1
102
RTVSPropertyOp2
 70
     1
102
RTVSPropertyOp3
 70
     1
102
RTVSPropertyOp4
 70
     1
102
RTVSPropertyOp5
 70
     1
102
RTVSPropertyOp6
 70
     1
102
RTVSPropertyOp7
 70
     1
102
RTVSPropertyOp8
 70
     1
102
RTVSPropertyOp9
 70
     1
102
RTVSPropertyOp10
 70
     1
102
RTVSPropertyOp11
 70
     1
102
RTVSPropertyOp12
 70
     1
102
RTVSPropertyOp13
 70
     1
102
RTVSPropertyOp14
 70
     1
102
RTVSPropertyOp15
 70
     1
102
RTVSPropertyOp16
 70
     1
102
RTVSPropertyOp17
 70
     1
102
RTVSPropertyOp18
 70
     1
102
RTVSPropertyOp19
 70
     1
102
RTVSPropertyOp20
 70
     1
102
RTVSPropertyOp21
 70
     1
102
RTVSPropertyOp22
 70
     1
102
RTVSPropertyOp23
 70
     1
102
RTVSPropertyOp24
 70
     1
102
RTVSPropertyOp25
 70
     1
102
RTVSPropertyOp26
 70
     1
102
RTVSPropertyOp27
 70
     1
102
RTVSPropertyOp28
 70
     1
102
RTVSPropertyOp29
 70
     1
102
RTVSPropertyOp30
 70
     1
102
RTVSPropertyOp31
 70
     1
102
RTVSPropertyOp32
 70
     1
102
RTVSPropertyOp33
 70
     1
102
RTVSPropertyOp34
 70
     1
102
RTVSPropertyOp35
 70
     1
102
RTVSPropertyOp36
 70
     1
102
RTVSPropertyOp37
 70
     1
102
RTVSPropertyOp38
 70
     1
102
RTVSPropertyOp39
 70
     1
102
RTVSPropertyOp40
 70
     1
102
RTVSPropertyOp41
 70
     1
102
RTVSPropertyOp42
 70
     1
102
RTVSPropertyOp43
 70
     1
102
RTVSPropertyOp44
 70
     1
102
RTVSPropertyOp45
 70
     1
102
RTVSPropertyOp46
 70
     1
102
RTVSPropertyOp47
 70
     1
102
RTVSPropertyOp48
 70
     1
102
RTVSPropertyOp49
 70
     1
102
RTVSPropertyOp50
 70
     1
102
RTVSPropertyOp51
 70
     0
102
RTVSPropertyOp52
 70
     0
102
RTVSPropertyOp53
 70
     1
102
RTVSPropertyOp54
 70
     1
102
RTVSPropertyOp55
 70
     1
102
RTVSPropertyOp56
 70
     1
102
RTVSPropertyOp57
 70
     1
102
RTVSPropertyOp58
 70
     1
102
RTVSPropertyOp59
 70
     1
102
RTVSPropertyOp60
 70
     1
102
RTVSPropertyOp61
 70
     1
102
RTVSPropertyOp62
 70
     1
  0
XRECORD
  5
212EC
102
{ACAD_REACTORS
330
212EB
102
}
330
212EB
100
AcDbXrecord
280
     1
102
RTVSPost2010Prop28
280
     0
102
RTVSPost2010PropOp28
 70
     1
102
RTVSPost2010Prop29
280
     1
102
RTVSPost2010PropOp29
 70
     1
102
RTVSPost2010Prop30
280
     1
102
RTVSPost2010PropOp30
 70
     1
102
RTVSPost2010Prop31
280
     0
102
RTVSPost2010PropOp31
 70
     1
102
RTVSPost2010Prop32
280
     0
102
RTVSPost2010PropOp32
 70
     1
102
RTVSPost2010Prop33
280
     0
102
RTVSPost2010PropOp33
 70
     1
102
RTVSPost2010Prop34
280
     0
102
RTVSPost2010PropOp34
 70
     1
102
RTVSPost2010Prop35
280
     0
102
RTVSPost2010PropOp35
 70
     1
102
RTVSPost2010Prop36
280
     0
102
RTVSPost2010PropOp36
 70
     1
102
RTVSPost2010Prop37
 90
       50
102
RTVSPost2010PropOp37
 70
     1
102
RTVSPost2010Prop38
140
0.0
102
RTVSPost2010PropOp38
 70
     1
102
RTVSPost2010Prop39
140
1.0
102
RTVSPost2010PropOp39
 70
     1
102
RTVSPost2010Prop40
 90
        0
102
RTVSPost2010PropOp40
 70
     1
102
RTVSPost2010Prop41ColorIndex
 90
       18
102
RTVSPost2010Prop41ColorRGB
 90
        0
102
RTVSPost2010PropOp41
 70
     1
102
RTVSPost2010Prop42
 90
       50
102
RTVSPost2010PropOp42
 70
     1
102
RTVSPost2010Prop43
 90
        3
102
RTVSPost2010PropOp43
 70
     1
102
RTVSPost2010Prop44ColorIndex
 90
        5
102
RTVSPost2010Prop44ColorRGB
 90
      255
102
RTVSPost2010PropOp44
 70
     1
102
RTVSPost2010Prop45
280
     0
102
RTVSPost2010PropOp45
 70
     1
102
RTVSPost2010Prop46
 90
       50
102
RTVSPost2010PropOp46
 70
     1
102
RTVSPost2010Prop47
 90
       50
102
RTVSPost2010PropOp47
 70
     1
102
RTVSPost2010Prop48
 90
       50
102
RTVSPost2010PropOp48
 70
     1
102
RTVSPost2010Prop49
280
     0
102
RTVSPost2010PropOp49
 70
     1
102
RTVSPost2010Prop50
 90
       50
102
RTVSPost2010PropOp50
 70
     1
102
RTVSPost2010Prop51ColorIndex
 90
      256
102
RTVSPost2010Prop51ColorRGB
 90
-16777216
102
RTVSPost2010PropOp51
 70
     0
102
RTVSPost2010Prop52
140
1.0
102
RTVSPost2010PropOp52
 70
     0
102
RTVSPost2010Prop53
 90
        2
102
RTVSPost2010PropOp53
 70
     1
102
RTVSPost2010Prop54
  1
strokes_ogs.tif
102
RTVSPost2010PropOp54
 70
     1
102
RTVSPost2010Prop55
280
     0
102
RTVSPost2010PropOp55
 70
     1
102
RTVSPost2010Prop56
140
1.0
102
RTVSPost2010PropOp56
 70
     1
102
RTVSPost2010Prop57
140
1.0
102
RTVSPost2010PropOp57
 70
     1
102
RTVSPropertyOp0
 70
     1
102
RTVSPropertyOp1
 70
     1
102
RTVSPropertyOp2
 70
     1
102
RTVSPropertyOp3
 70
     1
102
RTVSPropertyOp4
 70
     1
102
RTVSPropertyOp5
 70
     1
102
RTVSPropertyOp6
 70
     1
102
RTVSPropertyOp7
 70
     1
102
RTVSPropertyOp8
 70
     1
102
RTVSPropertyOp9
 70
     1
102
RTVSPropertyOp10
 70
     1
102
RTVSPropertyOp11
 70
     1
102
RTVSPropertyOp12
 70
     1
102
RTVSPropertyOp13
 70
     1
102
RTVSPropertyOp14
 70
     1
102
RTVSPropertyOp15
 70
     1
102
RTVSPropertyOp16
 70
     1
102
RTVSPropertyOp17
 70
     1
102
RTVSPropertyOp18
 70
     1
102
RTVSPropertyOp19
 70
     1
102
RTVSPropertyOp20
 70
     1
102
RTVSPropertyOp21
 70
     1
102
RTVSPropertyOp22
 70
     1
102
RTVSPropertyOp23
 70
     1
102
RTVSPropertyOp24
 70
     1
102
RTVSPropertyOp25
 70
     1
102
RTVSPropertyOp26
 70
     1
102
RTVSPropertyOp27
 70
     1
102
RTVSPropertyOp28
 70
     1
102
RTVSPropertyOp29
 70
     1
102
RTVSPropertyOp30
 70
     1
102
RTVSPropertyOp31
 70
     1
102
RTVSPropertyOp32
 70
     1
102
RTVSPropertyOp33
 70
     1
102
RTVSPropertyOp34
 70
     1
102
RTVSPropertyOp35
 70
     1
102
RTVSPropertyOp36
 70
     1
102
RTVSPropertyOp37
 70
     1
102
RTVSPropertyOp38
 70
     1
102
RTVSPropertyOp39
 70
     1
102
RTVSPropertyOp40
 70
     1
102
RTVSPropertyOp41
 70
     1
102
RTVSPropertyOp42
 70
     1
102
RTVSPropertyOp43
 70
     1
102
RTVSPropertyOp44
 70
     1
102
RTVSPropertyOp45
 70
     1
102
RTVSPropertyOp46
 70
     1
102
RTVSPropertyOp47
 70
     1
102
RTVSPropertyOp48
 70
     1
102
RTVSPropertyOp49
 70
     1
102
RTVSPropertyOp50
 70
     1
102
RTVSPropertyOp51
 70
     0
102
RTVSPropertyOp52
 70
     0
102
RTVSPropertyOp53
 70
     1
102
RTVSPropertyOp54
 70
     1
102
RTVSPropertyOp55
 70
     1
102
RTVSPropertyOp56
 70
     1
102
RTVSPropertyOp57
 70
     1
102
RTVSPropertyOp58
 70
     1
102
RTVSPropertyOp59
 70
     1
102
RTVSPropertyOp60
 70
     1
102
RTVSPropertyOp61
 70
     1
102
RTVSPropertyOp62
 70
     1
  0
XRECORD
  5
212FC
102
{ACAD_REACTORS
330
212FB
102
}
330
212FB
100
AcDbXrecord
280
     1
102
RTVSPost2010Prop28
280
     0
102
RTVSPost2010PropOp28
 70
     1
102
RTVSPost2010Prop29
280
     1
102
RTVSPost2010PropOp29
 70
     1
102
RTVSPost2010Prop30
280
     1
102
RTVSPost2010PropOp30
 70
     1
102
RTVSPost2010Prop31
280
     0
102
RTVSPost2010PropOp31
 70
     1
102
RTVSPost2010Prop32
280
     0
102
RTVSPost2010PropOp32
 70
     1
102
RTVSPost2010Prop33
280
     0
102
RTVSPost2010PropOp33
 70
     1
102
RTVSPost2010Prop34
280
     0
102
RTVSPost2010PropOp34
 70
     1
102
RTVSPost2010Prop35
280
     0
102
RTVSPost2010PropOp35
 70
     1
102
RTVSPost2010Prop36
280
     0
102
RTVSPost2010PropOp36
 70
     1
102
RTVSPost2010Prop37
 90
       50
102
RTVSPost2010PropOp37
 70
     1
102
RTVSPost2010Prop38
140
0.0
102
RTVSPost2010PropOp38
 70
     1
102
RTVSPost2010Prop39
140
1.0
102
RTVSPost2010PropOp39
 70
     1
102
RTVSPost2010Prop40
 90
        0
102
RTVSPost2010PropOp40
 70
     1
102
RTVSPost2010Prop41ColorIndex
 90
       18
102
RTVSPost2010Prop41ColorRGB
 90
        0
102
RTVSPost2010PropOp41
 70
     1
102
RTVSPost2010Prop42
 90
       50
102
RTVSPost2010PropOp42
 70
     1
102
RTVSPost2010Prop43
 90
        3
102
RTVSPost2010PropOp43
 70
     1
102
RTVSPost2010Prop44ColorIndex
 90
        5
102
RTVSPost2010Prop44ColorRGB
 90
      255
102
RTVSPost2010PropOp44
 70
     1
102
RTVSPost2010Prop45
280
     0
102
RTVSPost2010PropOp45
 70
     1
102
RTVSPost2010Prop46
 90
       50
102
RTVSPost2010PropOp46
 70
     1
102
RTVSPost2010Prop47
 90
       50
102
RTVSPost2010PropOp47
 70
     1
102
RTVSPost2010Prop48
 90
       50
102
RTVSPost2010PropOp48
 70
     1
102
RTVSPost2010Prop49
280
     0
102
RTVSPost2010PropOp49
 70
     1
102
RTVSPost2010Prop50
 90
       50
102
RTVSPost2010PropOp50
 70
     1
102
RTVSPost2010Prop51ColorIndex
 90
      256
102
RTVSPost2010Prop51ColorRGB
 90
-16777216
102
RTVSPost2010PropOp51
 70
     0
102
RTVSPost2010Prop52
140
1.0
102
RTVSPost2010PropOp52
 70
     0
102
RTVSPost2010Prop53
 90
        2
102
RTVSPost2010PropOp53
 70
     1
102
RTVSPost2010Prop54
  1
strokes_ogs.tif
102
RTVSPost2010PropOp54
 70
     1
102
RTVSPost2010Prop55
280
     0
102
RTVSPost2010PropOp55
 70
     1
102
RTVSPost2010Prop56
140
1.0
102
RTVSPost2010PropOp56
 70
     1
102
RTVSPost2010Prop57
140
1.0
102
RTVSPost2010PropOp57
 70
     1
102
RTVSPropertyOp0
 70
     1
102
RTVSPropertyOp1
 70
     1
102
RTVSPropertyOp2
 70
     1
102
RTVSPropertyOp3
 70
     1
102
RTVSPropertyOp4
 70
     1
102
RTVSPropertyOp5
 70
     1
102
RTVSPropertyOp6
 70
     1
102
RTVSPropertyOp7
 70
     1
102
RTVSPropertyOp8
 70
     1
102
RTVSPropertyOp9
 70
     1
102
RTVSPropertyOp10
 70
     1
102
RTVSPropertyOp11
 70
     1
102
RTVSPropertyOp12
 70
     1
102
RTVSPropertyOp13
 70
     1
102
RTVSPropertyOp14
 70
     1
102
RTVSPropertyOp15
 70
     1
102
RTVSPropertyOp16
 70
     1
102
RTVSPropertyOp17
 70
     1
102
RTVSPropertyOp18
 70
     1
102
RTVSPropertyOp19
 70
     1
102
RTVSPropertyOp20
 70
     1
102
RTVSPropertyOp21
 70
     1
102
RTVSPropertyOp22
 70
     1
102
RTVSPropertyOp23
 70
     1
102
RTVSPropertyOp24
 70
     1
102
RTVSPropertyOp25
 70
     1
102
RTVSPropertyOp26
 70
     1
102
RTVSPropertyOp27
 70
     1
102
RTVSPropertyOp28
 70
     1
102
RTVSPropertyOp29
 70
     1
102
RTVSPropertyOp30
 70
     1
102
RTVSPropertyOp31
 70
     1
102
RTVSPropertyOp32
 70
     1
102
RTVSPropertyOp33
 70
     1
102
RTVSPropertyOp34
 70
     1
102
RTVSPropertyOp35
 70
     1
102
RTVSPropertyOp36
 70
     1
102
RTVSPropertyOp37
 70
     1
102
RTVSPropertyOp38
 70
     1
102
RTVSPropertyOp39
 70
     1
102
RTVSPropertyOp40
 70
     1
102
RTVSPropertyOp41
 70
     1
102
RTVSPropertyOp42
 70
     1
102
RTVSPropertyOp43
 70
     1
102
RTVSPropertyOp44
 70
     1
102
RTVSPropertyOp45
 70
     1
102
RTVSPropertyOp46
 70
     1
102
RTVSPropertyOp47
 70
     1
102
RTVSPropertyOp48
 70
     1
102
RTVSPropertyOp49
 70
     1
102
RTVSPropertyOp50
 70
     1
102
RTVSPropertyOp51
 70
     0
102
RTVSPropertyOp52
 70
     0
102
RTVSPropertyOp53
 70
     1
102
RTVSPropertyOp54
 70
     1
102
RTVSPropertyOp55
 70
     1
102
RTVSPropertyOp56
 70
     1
102
RTVSPropertyOp57
 70
     1
102
RTVSPropertyOp58
 70
     1
102
RTVSPropertyOp59
 70
     1
102
RTVSPropertyOp60
 70
     1
102
RTVSPropertyOp61
 70
     1
102
RTVSPropertyOp62
 70
     1
  0
XRECORD
  5
21304
102
{ACAD_REACTORS
330
21303
102
}
330
21303
100
AcDbXrecord
280
     1
102
RTVSPost2010Prop28
280
     0
102
RTVSPost2010PropOp28
 70
     1
102
RTVSPost2010Prop29
280
     1
102
RTVSPost2010PropOp29
 70
     1
102
RTVSPost2010Prop30
280
     1
102
RTVSPost2010PropOp30
 70
     1
102
RTVSPost2010Prop31
280
     0
102
RTVSPost2010PropOp31
 70
     1
102
RTVSPost2010Prop32
280
     0
102
RTVSPost2010PropOp32
 70
     1
102
RTVSPost2010Prop33
280
     0
102
RTVSPost2010PropOp33
 70
     1
102
RTVSPost2010Prop34
280
     0
102
RTVSPost2010PropOp34
 70
     1
102
RTVSPost2010Prop35
280
     0
102
RTVSPost2010PropOp35
 70
     1
102
RTVSPost2010Prop36
280
     0
102
RTVSPost2010PropOp36
 70
     1
102
RTVSPost2010Prop37
 90
       50
102
RTVSPost2010PropOp37
 70
     1
102
RTVSPost2010Prop38
140
0.0
102
RTVSPost2010PropOp38
 70
     1
102
RTVSPost2010Prop39
140
1.0
102
RTVSPost2010PropOp39
 70
     1
102
RTVSPost2010Prop40
 90
        0
102
RTVSPost2010PropOp40
 70
     1
102
RTVSPost2010Prop41ColorIndex
 90
       18
102
RTVSPost2010Prop41ColorRGB
 90
        0
102
RTVSPost2010PropOp41
 70
     1
102
RTVSPost2010Prop42
 90
       50
102
RTVSPost2010PropOp42
 70
     1
102
RTVSPost2010Prop43
 90
        3
102
RTVSPost2010PropOp43
 70
     1
102
RTVSPost2010Prop44ColorIndex
 90
        5
102
RTVSPost2010Prop44ColorRGB
 90
      255
102
RTVSPost2010PropOp44
 70
     1
102
RTVSPost2010Prop45
280
     0
102
RTVSPost2010PropOp45
 70
     1
102
RTVSPost2010Prop46
 90
       50
102
RTVSPost2010PropOp46
 70
     1
102
RTVSPost2010Prop47
 90
       50
102
RTVSPost2010PropOp47
 70
     1
102
RTVSPost2010Prop48
 90
       50
102
RTVSPost2010PropOp48
 70
     1
102
RTVSPost2010Prop49
280
     0
102
RTVSPost2010PropOp49
 70
     1
102
RTVSPost2010Prop50
 90
       50
102
RTVSPost2010PropOp50
 70
     1
102
RTVSPost2010Prop51ColorIndex
 90
      256
102
RTVSPost2010Prop51ColorRGB
 90
-16777216
102
RTVSPost2010PropOp51
 70
     0
102
RTVSPost2010Prop52
140
1.0
102
RTVSPost2010PropOp52
 70
     0
102
RTVSPost2010Prop53
 90
        2
102
RTVSPost2010PropOp53
 70
     1
102
RTVSPost2010Prop54
  1
strokes_ogs.tif
102
RTVSPost2010PropOp54
 70
     1
102
RTVSPost2010Prop55
280
     0
102
RTVSPost2010PropOp55
 70
     1
102
RTVSPost2010Prop56
140
1.0
102
RTVSPost2010PropOp56
 70
     1
102
RTVSPost2010Prop57
140
1.0
102
RTVSPost2010PropOp57
 70
     1
102
RTVSPropertyOp0
 70
     1
102
RTVSPropertyOp1
 70
     1
102
RTVSPropertyOp2
 70
     1
102
RTVSPropertyOp3
 70
     1
102
RTVSPropertyOp4
 70
     1
102
RTVSPropertyOp5
 70
     1
102
RTVSPropertyOp6
 70
     1
102
RTVSPropertyOp7
 70
     1
102
RTVSPropertyOp8
 70
     1
102
RTVSPropertyOp9
 70
     1
102
RTVSPropertyOp10
 70
     1
102
RTVSPropertyOp11
 70
     1
102
RTVSPropertyOp12
 70
     1
102
RTVSPropertyOp13
 70
     1
102
RTVSPropertyOp14
 70
     1
102
RTVSPropertyOp15
 70
     1
102
RTVSPropertyOp16
 70
     1
102
RTVSPropertyOp17
 70
     1
102
RTVSPropertyOp18
 70
     1
102
RTVSPropertyOp19
 70
     1
102
RTVSPropertyOp20
 70
     1
102
RTVSPropertyOp21
 70
     1
102
RTVSPropertyOp22
 70
     1
102
RTVSPropertyOp23
 70
     1
102
RTVSPropertyOp24
 70
     1
102
RTVSPropertyOp25
 70
     1
102
RTVSPropertyOp26
 70
     1
102
RTVSPropertyOp27
 70
     1
102
RTVSPropertyOp28
 70
     1
102
RTVSPropertyOp29
 70
     1
102
RTVSPropertyOp30
 70
     1
102
RTVSPropertyOp31
 70
     1
102
RTVSPropertyOp32
 70
     1
102
RTVSPropertyOp33
 70
     1
102
RTVSPropertyOp34
 70
     1
102
RTVSPropertyOp35
 70
     1
102
RTVSPropertyOp36
 70
     1
102
RTVSPropertyOp37
 70
     1
102
RTVSPropertyOp38
 70
     1
102
RTVSPropertyOp39
 70
     1
102
RTVSPropertyOp40
 70
     1
102
RTVSPropertyOp41
 70
     1
102
RTVSPropertyOp42
 70
     1
102
RTVSPropertyOp43
 70
     1
102
RTVSPropertyOp44
 70
     1
102
RTVSPropertyOp45
 70
     1
102
RTVSPropertyOp46
 70
     1
102
RTVSPropertyOp47
 70
     1
102
RTVSPropertyOp48
 70
     1
102
RTVSPropertyOp49
 70
     1
102
RTVSPropertyOp50
 70
     1
102
RTVSPropertyOp51
 70
     0
102
RTVSPropertyOp52
 70
     0
102
RTVSPropertyOp53
 70
     1
102
RTVSPropertyOp54
 70
     1
102
RTVSPropertyOp55
 70
     1
102
RTVSPropertyOp56
 70
     1
102
RTVSPropertyOp57
 70
     1
102
RTVSPropertyOp58
 70
     1
102
RTVSPropertyOp59
 70
     1
102
RTVSPropertyOp60
 70
     1
102
RTVSPropertyOp61
 70
     1
102
RTVSPropertyOp62
 70
     1
  0
ENDSEC
  0
EOF
