  0
SECTION
  2
HEADER
  9
$ACADVER
  1
AC1015
  9
$ACADMAINTVER
 70
    20
  9
$DWGCODEPAGE
  3
ANSI_1252
  9
$INSBASE
 10
0.0
 20
0.0
 30
0.0
  9
$EXTMIN
 10
-103.0121554883242
 20
-65.58408479861793
 30
-0.0000000000112498
  9
$EXTMAX
 10
117.2837119896924
 20
57.52176854676486
 30
0.0000000000002956
  9
$LIMMIN
 10
0.0
 20
0.0
  9
$LIMMAX
 10
420.0
 20
297.0
  9
$ORTHOMODE
 70
     0
  9
$REGENMODE
 70
     1
  9
$FILLMODE
 70
     1
  9
$QTEXTMODE
 70
     0
  9
$MIRRTEXT
 70
     0
  9
$LTSCALE
 40
23.1
  9
$ATTMODE
 70
     1
  9
$TEXTSIZE
 40
3.5
  9
$TRACEWID
 40
0.05
  9
$TEXTSTYLE
  7
STANDARD
  9
$CLAYER
  8
0
  9
$CELTYPE
  6
BYLAYER
  9
$CECOLOR
 62
   256
  9
$CELTSCALE
 40
1.0
  9
$DISPSILH
 70
     0
  9
$DIMSCALE
 40
1.0
  9
$DIMASZ
 40
4.57
  9
$DIMEXO
 40
0.0625
  9
$DIMDLI
 40
0.38
  9
$DIMRND
 40
0.0
  9
$DIMDLE
 40
0.0
  9
$DIMEXE
 40
0.18
  9
$DIMTP
 40
0.01
  9
$DIMTM
 40
0.01
  9
$DIMTXT
 40
3.5
  9
$DIMCEN
 40
0.09
  9
$DIMTSZ
 40
0.0
  9
$DIMTOL
 70
     0
  9
$DIMLIM
 70
     0
  9
$DIMTIH
 70
     0
  9
$DIMTOH
 70
     0
  9
$DIMSE1
 70
     0
  9
$DIMSE2
 70
     0
  9
$DIMTAD
 70
     1
  9
$DIMZIN
 70
     8
  9
$DIMBLK
  1

  9
$DIMASO
 70
     1
  9
$DIMSHO
 70
     1
  9
$DIMPOST
  1

  9
$DIMAPOST
  1

  9
$DIMALT
 70
     0
  9
$DIMALTD
 70
     2
  9
$DIMALTF
 40
25.4
  9
$DIMLFAC
 40
1.0
  9
$DIMTOFL
 70
     0
  9
$DIMTVP
 40
0.0
  9
$DIMTIX
 70
     0
  9
$DIMSOXD
 70
     0
  9
$DIMSAH
 70
     0
  9
$DIMBLK1
  1

  9
$DIMBLK2
  1

  9
$DIMSTYLE
  2
STANDARD
  9
$DIMCLRD
 70
     0
  9
$DIMCLRE
 70
     0
  9
$DIMCLRT
 70
     0
  9
$DIMTFAC
 40
1.0
  9
$DIMGAP
 40
0.09
  9
$DIMJUST
 70
     0
  9
$DIMSD1
 70
     0
  9
$DIMSD2
 70
     0
  9
$DIMTOLJ
 70
     1
  9
$DIMTZIN
 70
     8
  9
$DIMALTZ
 70
     0
  9
$DIMALTTZ
 70
     0
  9
$DIMUPT
 70
     0
  9
$DIMDEC
 70
     3
  9
$DIMTDEC
 70
     3
  9
$DIMALTU
 70
     2
  9
$DIMALTTD
 70
     2
  9
$DIMTXSTY
  7
STANDARD
  9
$DIMAUNIT
 70
     0
  9
$DIMADEC
 70
     0
  9
$DIMALTRND
 40
0.0
  9
$DIMAZIN
 70
     0
  9
$DIMDSEP
 70
    46
  9
$DIMATFIT
 70
     0
  9
$DIMFRAC
 70
     0
  9
$DIMLDRBLK
  1

  9
$DIMLUNIT
 70
     2
  9
$DIMLWD
 70
    -2
  9
$DIMLWE
 70
    -2
  9
$DIMTMOVE
 70
     0
  9
$LUNITS
 70
     2
  9
$LUPREC
 70
     4
  9
$SKETCHINC
 40
0.1
  9
$FILLETRAD
 40
0.0
  9
$AUNITS
 70
     0
  9
$AUPREC
 70
     0
  9
$MENU
  1
.
  9
$ELEVATION
 40
0.0
  9
$PELEVATION
 40
0.0
  9
$THICKNESS
 40
0.0
  9
$LIMCHECK
 70
     0
  9
$CHAMFERA
 40
0.0
  9
$CHAMFERB
 40
0.0
  9
$CHAMFERC
 40
0.0
  9
$CHAMFERD
 40
0.0
  9
$SKPOLY
 70
     0
  9
$TDCREATE
 40
2457366.477918172
  9
$TDUCREATE
 40
2457366.436251505
  9
$TDUPDATE
 40
2457780.543603657
  9
$TDUUPDATE
 40
2457780.501936991
  9
$TDINDWG
 40
0.0041973727
  9
$TDUSRTIMER
 40
0.0041960880
  9
$USRTIMER
 70
     1
  9
$ANGBASE
 50
0.0
  9
$ANGDIR
 70
     0
  9
$PDMODE
 70
     3
  9
$PDSIZE
 40
0.3125
  9
$PLINEWID
 40
0.0
  9
$SPLFRAME
 70
     0
  9
$SPLINETYPE
 70
     6
  9
$SPLINESEGS
 70
     8
  9
$HANDSEED
  5
2123C
  9
$SURFTAB1
 70
     6
  9
$SURFTAB2
 70
     6
  9
$SURFTYPE
 70
     6
  9
$SURFU
 70
     6
  9
$SURFV
 70
     6
  9
$UCSBASE
  2

  9
$UCSNAME
  2

  9
$UCSORG
 10
0.0
 20
0.0
 30
0.0
  9
$UCSXDIR
 10
1.0
 20
0.0
 30
0.0
  9
$UCSYDIR
 10
0.0
 20
1.0
 30
0.0
  9
$UCSORTHOREF
  2

  9
$UCSORTHOVIEW
 70
     0
  9
$UCSORGTOP
 10
0.0
 20
0.0
 30
0.0
  9
$UCSORGBOTTOM
 10
0.0
 20
0.0
 30
0.0
  9
$UCSORGLEFT
 10
0.0
 20
0.0
 30
0.0
  9
$UCSORGRIGHT
 10
0.0
 20
0.0
 30
0.0
  9
$UCSORGFRONT
 10
0.0
 20
0.0
 30
0.0
  9
$UCSORGBACK
 10
0.0
 20
0.0
 30
0.0
  9
$PUCSBASE
  2

  9
$PUCSNAME
  2

  9
$PUCSORG
 10
0.0
 20
0.0
 30
0.0
  9
$PUCSXDIR
 10
1.0
 20
0.0
 30
0.0
  9
$PUCSYDIR
 10
0.0
 20
1.0
 30
0.0
  9
$PUCSORTHOREF
  2

  9
$PUCSORTHOVIEW
 70
     0
  9
$PUCSORGTOP
 10
0.0
 20
0.0
 30
0.0
  9
$PUCSORGBOTTOM
 10
0.0
 20
0.0
 30
0.0
  9
$PUCSORGLEFT
 10
0.0
 20
0.0
 30
0.0
  9
$PUCSORGRIGHT
 10
0.0
 20
0.0
 30
0.0
  9
$PUCSORGFRONT
 10
0.0
 20
0.0
 30
0.0
  9
$PUCSORGBACK
 10
0.0
 20
0.0
 30
0.0
  9
$USERI1
 70
     0
  9
$USERI2
 70
     0
  9
$USERI3
 70
     0
  9
$USERI4
 70
     0
  9
$USERI5
 70
     0
  9
$USERR1
 40
0.0
  9
$USERR2
 40
0.0
  9
$USERR3
 40
0.0
  9
$USERR4
 40
0.0
  9
$USERR5
 40
0.0
  9
$WORLDVIEW
 70
     1
  9
$SHADEDGE
 70
     3
  9
$SHADEDIF
 70
    70
  9
$TILEMODE
 70
     1
  9
$MAXACTVP
 70
    64
  9
$PINSBASE
 10
0.0
 20
0.0
 30
0.0
  9
$PLIMCHECK
 70
     0
  9
$PEXTMIN
 10
28.69141678810127
 20
19.6363175392151
 30
0.0
  9
$PEXTMAX
 10
258.2227510929107
 20
176.7268578529358
 30
0.0
  9
$PLIMMIN
 10
-5.027069091796875
 20
-6.805083274841307
  9
$PLIMMAX
 10
291.9412536621094
 20
203.1682443618775
  9
$UNITMODE
 70
     0
  9
$VISRETAIN
 70
     1
  9
$PLINEGEN
 70
     0
  9
$PSLTSCALE
 70
     1
  9
$TREEDEPTH
 70
  3020
  9
$CMLSTYLE
  2
STANDARD
  9
$CMLJUST
 70
     0
  9
$CMLSCALE
 40
1.0
  9
$PROXYGRAPHICS
 70
     1
  9
$MEASUREMENT
 70
     1
  9
$CELWEIGHT
370
    -1
  9
$ENDCAPS
280
     0
  9
$JOINSTYLE
280
     0
  9
$LWDISPLAY
290
     0
  9
$INSUNITS
 70
     0
  9
$HYPERLINKBASE
  1

  9
$STYLESHEET
  1
A1-A2.CTB
  9
$XEDIT
290
     1
  9
$CEPSNTYPE
380
     0
  9
$PSTYLEMODE
290
     1
  9
$FINGERPRINTGUID
  2
{BB41FDDA-7EE9-4E2E-B38B-711FF532F34D}
  9
$VERSIONGUID
  2
{1A7F7422-FEC1-4A43-8B84-8A00D0E3620F}
  9
$EXTNAMES
290
     1
  9
$PSVPSCALE
 40
0.0
  9
$OLESTARTUP
290
     0
  0
ENDSEC
  0
SECTION
  2
CLASSES
  0
CLASS
  1
ACDBDICTIONARYWDFLT
  2
AcDbDictionaryWithDefault
  3
ObjectDBX Classes
 90
        0
280
     0
281
     0
  0
CLASS
  1
MATERIAL
  2
AcDbMaterial
  3
ObjectDBX Classes
 90
     1153
280
     0
281
     0
  0
CLASS
  1
VISUALSTYLE
  2
AcDbVisualStyle
  3
ObjectDBX Classes
 90
     4095
280
     0
281
     0
  0
CLASS
  1
TABLESTYLE
  2
AcDbTableStyle
  3
ObjectDBX Classes
 90
     4095
280
     0
281
     0
  0
CLASS
  1
SORTENTSTABLE
  2
AcDbSortentsTable
  3
ObjectDBX Classes
 90
        0
280
     0
281
     0
  0
CLASS
  1
DICTIONARYVAR
  2
AcDbDictionaryVar
  3
ObjectDBX Classes
 90
        0
280
     0
281
     0
  0
CLASS
  1
EXACXREFPANELOBJECT
  2
ExAcXREFPanelObject
  3
EXAC_ESW
 90
    33793
280
     1
281
     0
  0
CLASS
  1
NPOCOLLECTION
  2
AcDbImpNonPersistentObjectsCollection
  3
ObjectDBX Classes
 90
    33921
280
     1
281
     0
  0
CLASS
  1
ACDBPLACEHOLDER
  2
AcDbPlaceHolder
  3
ObjectDBX Classes
 90
        0
280
     0
281
     0
  0
CLASS
  1
LAYOUT
  2
AcDbLayout
  3
ObjectDBX Classes
 90
        0
280
     0
281
     0
  0
CLASS
  1
SCALE
  2
AcDbScale
  3
ObjectDBX Classes
 90
     1153
280
     0
281
     0
  0
CLASS
  1
MLEADERSTYLE
  2
AcDbMLeaderStyle
  3
ACDB_MLEADERSTYLE_CLASS
 90
     4095
280
     0
281
     0
  0
CLASS
  1
ACDBSECTIONVIEWSTYLE
  2
AcDbSectionViewStyle
  3
ObjectDBX Classes
 90
     1025
280
     0
281
     0
  0
CLASS
  1
ACDBDETAILVIEWSTYLE
  2
AcDbDetailViewStyle
  3
ObjectDBX Classes
 90
     1025
280
     0
281
     0
  0
CLASS
  1
CELLSTYLEMAP
  2
AcDbCellStyleMap
  3
ObjectDBX Classes
 90
     1152
280
     0
281
     0
  0
CLASS
  1
ACAD_EVALUATION_GRAPH
  2
AcDbEvalGraph
  3
ObjectDBX Classes
 90
    33921
280
     0
281
     0
  0
CLASS
  1
ACAECUSTOBJ
  2
AcAeEditorObj
  3
AcAeEditorObj
 90
    33792
280
     0
281
     0
  0
CLASS
  1
ACDB_DYNAMICBLOCKPURGEPREVENTER_VERSION
  2
AcDbDynamicBlockPurgePreventer
  3
ObjectDBX Classes
 90
    33921
280
     0
281
     0
  0
CLASS
  1
FIELD
  2
AcDbField
  3
ObjectDBX Classes
 90
    33920
280
     0
281
     0
  0
CLASS
  1
FIELDLIST
  2
AcDbFieldList
  3
ObjectDBX Classes
 90
     1152
280
     0
281
     0
  0
ENDSEC
  0
SECTION
  2
TABLES
  0
TABLE
  2
VPORT
  5
8
330
0
100
AcDbSymbolTable
 70
     1
  0
VPORT
  5
1F4
330
8
100
AcDbSymbolTableRecord
100
AcDbViewportTableRecord
  2
*ACTIVE
 70
     0
 10
0.0
 20
0.0
 11
1.0
 21
1.0
 12
7.135778250684083
 22
-4.031158125926538
 13
0.0
 23
0.0
 14
1.0
 24
1.0
 15
0.0
 25
0.0
 16
0.0
 26
0.0
 36
1.0
 17
0.0
 27
0.0
 37
0.0
 40
124.1610463740575
 41
2.336194563662374
 42
50.0
 43
0.0
 44
0.0
 50
0.0
 51
0.0
 71
     0
 72
  2000
 73
     1
 74
     1
 75
     0
 76
     0
 77
     0
 78
     0
281
     0
 65
     1
110
0.0
120
0.0
130
0.0
111
1.0
121
0.0
131
0.0
112
0.0
122
1.0
132
0.0
 79
     0
146
0.0
1001
ACAD_NAV_VCDISPLAY
1070
     3
  0
ENDTAB
  0
TABLE
  2
LTYPE
  5
5
330
0
100
AcDbSymbolTable
 70
     3
  0
LTYPE
  5
14
330
5
100
AcDbSymbolTableRecord
100
AcDbLinetypeTableRecord
  2
BYBLOCK
 70
     0
  3

 72
    65
 73
     0
 40
0.0
  0
LTYPE
  5
15
330
5
100
AcDbSymbolTableRecord
100
AcDbLinetypeTableRecord
  2
BYLAYER
 70
     0
  3

 72
    65
 73
     0
 40
0.0
  0
LTYPE
  5
16
330
5
100
AcDbSymbolTableRecord
100
AcDbLinetypeTableRecord
  2
CONTINUOUS
 70
     0
  3
Solid line
 72
    65
 73
     0
 40
0.0
  0
LTYPE
  5
9C48
330
5
100
AcDbSymbolTableRecord
100
AcDbLinetypeTableRecord
  2
CENTER
 70
     0
  3
____ _ ____ _ ____ _ ____ _ ____ _ ____ _ ____
 72
    65
 73
     4
 40
0.6
 49
0.375
 74
     0
 49
-0.075
 74
     0
 49
0.075
 74
     0
 49
-0.075
 74
     0
  0
LTYPE
  5
20A82
330
5
100
AcDbSymbolTableRecord
100
AcDbLinetypeTableRecord
  2
HIDDEN
 70
     0
  3
- - - - - - - - - - - - - - - - - - - -
 72
    65
 73
     2
 40
0.2
 49
0.1
 74
     0
 49
-0.1
 74
     0
  0
ENDTAB
  0
TABLE
  2
LAYER
  5
2
102
{ACAD_XDICTIONARY
360
422A
102
}
330
0
100
AcDbSymbolTable
 70
    13
  0
LAYER
  5
10
102
{ACAD_XDICTIONARY
360
1B2F5
102
}
330
2
100
AcDbSymbolTableRecord
100
AcDbLayerTableRecord
  2
0
 70
     0
 62
     7
  6
CONTINUOUS
370
    -3
390
318A
  0
LAYER
  5
3F8C
102
{ACAD_XDICTIONARY
360
1B2F7
102
}
330
2
100
AcDbSymbolTableRecord
100
AcDbLayerTableRecord
  2
1
 70
     0
 62
     4
  6
BYBLOCK
370
    50
390
318A
  0
LAYER
  5
3FA7
330
2
100
AcDbSymbolTableRecord
100
AcDbLayerTableRecord
  2
Defpoints
 70
     0
 62
     7
  6
CONTINUOUS
290
     0
370
    -3
390
318A
  0
LAYER
  5
9C4A
102
{ACAD_XDICTIONARY
360
1B2F9
102
}
330
2
100
AcDbSymbolTableRecord
100
AcDbLayerTableRecord
  2
2
 70
     0
 62
     7
  6
BYBLOCK
370
    25
390
318A
  0
LAYER
  5
9C4B
102
{ACAD_XDICTIONARY
360
1B2FB
102
}
330
2
100
AcDbSymbolTableRecord
100
AcDbLayerTableRecord
  2
4
 70
     0
 62
     2
  6
CENTER
370
    25
390
318A
  0
LAYER
  5
9C4D
102
{ACAD_XDICTIONARY
360
1B2FD
102
}
330
2
100
AcDbSymbolTableRecord
100
AcDbLayerTableRecord
  2
CUT
 70
     0
 62
     1
  6
BYBLOCK
370
    25
390
318A
  0
LAYER
  5
9C4E
102
{ACAD_XDICTIONARY
360
1B2FF
102
}
330
2
100
AcDbSymbolTableRecord
100
AcDbLayerTableRecord
  2
NOCUT
 70
     0
 62
     7
  6
BYBLOCK
370
    25
390
318A
  0
LAYER
  5
9C4F
102
{ACAD_XDICTIONARY
360
1B301
102
}
330
2
100
AcDbSymbolTableRecord
100
AcDbLayerTableRecord
  2
SK2
 70
     0
 62
     7
  6
BYBLOCK
370
    25
390
318A
  0
LAYER
  5
9C50
102
{ACAD_XDICTIONARY
360
1B303
102
}
330
2
100
AcDbSymbolTableRecord
100
AcDbLayerTableRecord
  2
SK1
 70
     0
 62
     4
  6
BYBLOCK
370
    50
390
318A
  0
LAYER
  5
9C51
102
{ACAD_XDICTIONARY
360
1B305
102
}
330
2
100
AcDbSymbolTableRecord
100
AcDbLayerTableRecord
  2
SK4
 70
     0
 62
     2
  6
CENTER
370
    25
390
318A
  0
LAYER
  5
13335
102
{ACAD_XDICTIONARY
360
1B307
102
}
330
2
100
AcDbSymbolTableRecord
100
AcDbLayerTableRecord
  2
INFTOTAL
 70
     0
 62
     9
  6
BYBLOCK
370
    18
390
318A
1001
AcAecLayerStandard
1000

1000

  0
LAYER
  5
1686E
102
{ACAD_XDICTIONARY
360
1B309
102
}
330
2
100
AcDbSymbolTableRecord
100
AcDbLayerTableRecord
  2
SK6
 70
     0
 62
     5
  6
BYBLOCK
370
    -3
390
318A
  0
LAYER
  5
20A91
102
{ACAD_XDICTIONARY
360
20CEA
102
}
330
2
100
AcDbSymbolTableRecord
100
AcDbLayerTableRecord
  2
SK3
 70
     0
 62
     1
  6
HIDDEN
370
    -3
390
318A
1001
AcAecLayerStandard
1000

1000

1001
AcCmTransparency
1071
        0
  0
ENDTAB
  0
TABLE
  2
STYLE
  5
3
330
0
100
AcDbSymbolTable
 70
     1
  0
STYLE
  5
11
330
3
100
AcDbSymbolTableRecord
100
AcDbTextStyleTableRecord
  2
STANDARD
 70
     0
 40
3.5
 41
0.8
 50
0.0
 71
     0
 42
3.5
  3
monos.ttf
  4

1001
ACAD
1000
Monospac821 BT
1071
       49
  0
ENDTAB
  0
TABLE
  2
VIEW
  5
6
330
0
100
AcDbSymbolTable
 70
     0
  0
ENDTAB
  0
TABLE
  2
UCS
  5
7
330
0
100
AcDbSymbolTable
 70
     0
  0
ENDTAB
  0
TABLE
  2
APPID
  5
9
330
0
100
AcDbSymbolTable
 70
    17
  0
APPID
  5
23B
330
9
100
AcDbSymbolTableRecord
100
AcDbRegAppTableRecord
  2
ACAD
 70
     0
  0
APPID
  5
3395
330
9
100
AcDbSymbolTableRecord
100
AcDbRegAppTableRecord
  2
ACAD_EXEMPT_FROM_CAD_STANDARDS
 70
     0
  0
APPID
  5
4229
330
9
100
AcDbSymbolTableRecord
100
AcDbRegAppTableRecord
  2
AcAecLayerStandard
 70
     0
  0
APPID
  5
9A1B
330
9
100
AcDbSymbolTableRecord
100
AcDbRegAppTableRecord
  2
ACAD_PSEXT
 70
     0
  0
APPID
  5
1B313
330
9
100
AcDbSymbolTableRecord
100
AcDbRegAppTableRecord
  2
ACAD_NAV_VCDISPLAY
 70
     0
  0
APPID
  5
1B355
330
9
100
AcDbSymbolTableRecord
100
AcDbRegAppTableRecord
  2
ACAD_MLEADERVER
 70
     0
  0
APPID
  5
1EC7F
330
9
100
AcDbSymbolTableRecord
100
AcDbRegAppTableRecord
  2
ACAUTHENVIRON
 70
     0
  0
APPID
  5
1EC82
330
9
100
AcDbSymbolTableRecord
100
AcDbRegAppTableRecord
  2
AcDbDynamicBlockTrueName
 70
     0
  0
APPID
  5
1EC83
330
9
100
AcDbSymbolTableRecord
100
AcDbRegAppTableRecord
  2
AcDbDynamicBlockGUID
 70
     0
  0
APPID
  5
20A85
330
9
100
AcDbSymbolTableRecord
100
AcDbRegAppTableRecord
  2
AcCmTransparency
 70
     0
  0
APPID
  5
20AE2
330
9
100
AcDbSymbolTableRecord
100
AcDbRegAppTableRecord
  2
ACAD_DSTYLE_DIMRADIAL_EXTENSION
 70
     0
  0
APPID
  5
20CB0
330
9
100
AcDbSymbolTableRecord
100
AcDbRegAppTableRecord
  2
AcadAnnotative
 70
     0
  0
APPID
  5
20DB3
330
9
100
AcDbSymbolTableRecord
100
AcDbRegAppTableRecord
  2
ACAD_DSTYLE_DIMJAG
 70
     0
  0
APPID
  5
20DB4
330
9
100
AcDbSymbolTableRecord
100
AcDbRegAppTableRecord
  2
ACAD_DSTYLE_DIMBREAK
 70
     0
  0
APPID
  5
20DB5
330
9
100
AcDbSymbolTableRecord
100
AcDbRegAppTableRecord
  2
ACAD_DSTYLE_DIMTALN
 70
     0
  0
APPID
  5
20DB6
330
9
100
AcDbSymbolTableRecord
100
AcDbRegAppTableRecord
  2
ACAD_DSTYLE_DIMJOGGED_JOGANGLE_SYMBOL
 70
     0
  0
APPID
  5
2116B
330
9
100
AcDbSymbolTableRecord
100
AcDbRegAppTableRecord
  2
ACAD_DSTYLE_DIMEXT_LENGTH
 70
     0
  0
ENDTAB
  0
TABLE
  2
DIMSTYLE
  5
A
330
0
100
AcDbSymbolTable
 70
     2
100
AcDbDimStyleTable
 71
     1
340
243
  0
DIMSTYLE
105
243
102
{ACAD_REACTORS
330
21023
330
21024
330
21025
330
21028
102
}
330
A
100
AcDbSymbolTableRecord
100
AcDbDimStyleTableRecord
  2
STANDARD
 70
     0
 41
4.57
 47
0.01
 48
0.01
 73
     0
 74
     0
 77
     1
 78
     8
140
3.5
271
     3
272
     3
284
     8
289
     0
340
11
  0
DIMSTYLE
105
20DB1
102
{ACAD_REACTORS
330
21029
102
}
330
A
100
AcDbSymbolTableRecord
100
AcDbDimStyleTableRecord
  2
DIAMETER
 70
     0
 41
2.5
 42
0.0
 43
3.75
 44
1.25
 73
     0
 74
     0
 76
     1
 77
     1
 78
     8
 79
     2
140
3.5
141
0.0
143
0.039370078
147
0.625
171
     3
173
     1
179
     2
271
     2
272
     2
274
     3
283
     0
284
     8
340
11
344
20D4F
1001
ACAD_DSTYLE_DIMJAG
1070
   388
1040
1.5
1001
ACAD_DSTYLE_DIMTALN
1070
   392
1070
     0
1001
ACAD_DSTYLE_DIMEXT_LENGTH
1070
   378
1040
1.25
1001
ACAD_DSTYLE_DIMJOGGED_JOGANGLE_SYMBOL
1070
   384
1040
1.570796326794896
  0
ENDTAB
  0
TABLE
  2
BLOCK_RECORD
  5
1
330
0
100
AcDbSymbolTable
 70
     7
  0
BLOCK_RECORD
  5
1F
102
{ACAD_XDICTIONARY
360
339C
102
}
330
1
100
AcDbSymbolTableRecord
100
AcDbBlockTableRecord
  2
*MODEL_SPACE
340
31A6
  0
BLOCK_RECORD
  5
1B
330
1
100
AcDbSymbolTableRecord
100
AcDbBlockTableRecord
  2
*PAPER_SPACE
340
31A7
  0
BLOCK_RECORD
  5
1B3D7
102
{ACAD_XDICTIONARY
360
1DE81
102
}
330
1
100
AcDbSymbolTableRecord
100
AcDbBlockTableRecord
  2
cero_point
340
0
310
28000000200000002000000001002000000000000010000001000000010000000000000000000000302821FF302821FF302821FF302821FF302821FF302821FF302821FF302821FF302821FF302821FF302821FF302821FF302821FF302821FF302821FF302821FF302821FF302821FF302821FF302821FF302821FF302821
310
FF302821FF302821FF302821FF302821FF302821FF302821FF302821FF302821FF302821FF302821FF302821FF302821FF302821FF302821FF302821FF302821FF302821FF302821FF302821FF302821FF302821FF302821FF302821FF302821FF302821FFFFFF00FFFFFF00FFFFFF00FF302821FF302821FF302821FF3028
310
21FF302821FF302821FF302821FF302821FF302821FF302821FF302821FF302821FF302821FF302821FF302821FF302821FF302821FF302821FF302821FF302821FF302821FF302821FF302821FF302821FFFFFF00FFFFFF00FFFFFF00FFFFFF00FFFFFF00FFFFFF00FFFFFF00FF302821FFFFFF00FFFFFF00FFFFFF00FF30
310
2821FF302821FF302821FF302821FF302821FF302821FF302821FF302821FF302821FF302821FF302821FF302821FF302821FF302821FF302821FF302821FF302821FF302821FF302821FFFFFF00FFFFFF00FFFFFF00FFFFFF00FFFFFF00FFFFFF00FFFFFF00FFFFFF00FFFFFF00FF302821FF302821FF302821FF302821FF
310
FFFF00FFFFFF00FF302821FF302821FF302821FF302821FF302821FF302821FF302821FF302821FF302821FF302821FF302821FF302821FF302821FF302821FF302821FF302821FFFFFF00FFFFFF00FFFFFF00FFFFFF00FFFFFF00FFFFFF00FFFFFF00FFFFFF00FFFFFF00FFFFFF00FF302821FF302821FF302821FF302821
310
FF302821FF302821FFFFFF00FFFFFF00FF302821FF302821FF302821FF302821FF302821FF302821FF302821FF302821FF302821FF302821FF302821FF302821FF302821FFFFFF00FFFFFF00FFFFFF00FFFFFF00FFFFFF00FFFFFF00FFFFFF00FFFFFF00FFFFFF00FFFFFF00FFFFFF00FF302821FF302821FF302821FF3028
310
21FF302821FF302821FF302821FF302821FFFFFF00FF302821FF302821FF302821FF302821FF302821FF302821FF302821FF302821FF302821FF302821FF302821FFFFFF00FFFFFF00FFFFFF00FFFFFF00FFFFFF00FFFFFF00FFFFFF00FFFFFF00FFFFFF00FFFFFF00FFFFFF00FFFFFF00FF302821FF302821FF302821FF30
310
2821FF302821FF302821FF302821FF302821FF302821FFFFFF00FF302821FF302821FF302821FF302821FF302821FF302821FF302821FF302821FF302821FFFFFF00FFFFFF00FFFFFF00FFFFFF00FFFFFF00FFFFFF00FFFFFF00FFFFFF00FFFFFF00FFFFFF00FFFFFF00FFFFFF00FFFFFF00FF302821FF302821FF302821FF
310
302821FF302821FF302821FF302821FF302821FF302821FF302821FFFFFF00FF302821FF302821FF302821FF302821FF302821FF302821FF302821FFFFFF00FFFFFF00FFFFFF00FFFFFF00FFFFFF00FFFFFF00FFFFFF00FFFFFF00FFFFFF00FFFFFF00FFFFFF00FFFFFF00FFFFFF00FFFFFF00FF302821FF302821FF302821
310
FF302821FF302821FF302821FF302821FF302821FF302821FF302821FFFFFF00FF302821FF302821FF302821FF302821FF302821FF302821FF302821FFFFFF00FFFFFF00FFFFFF00FFFFFF00FFFFFF00FFFFFF00FFFFFF00FFFFFF00FFFFFF00FFFFFF00FFFFFF00FFFFFF00FFFFFF00FFFFFF00FF302821FF302821FF3028
310
21FF302821FF302821FF302821FF302821FF302821FF302821FF302821FF302821FFFFFF00FF302821FF302821FF302821FF302821FF302821FFFFFF00FFFFFF00FFFFFF00FFFFFF00FFFFFF00FFFFFF00FFFFFF00FFFFFF00FFFFFF00FFFFFF00FFFFFF00FFFFFF00FFFFFF00FFFFFF00FFFFFF00FF302821FF302821FF30
310
2821FF302821FF302821FF302821FF302821FF302821FF302821FF302821FF302821FF302821FFFFFF00FF302821FF302821FF302821FF302821FFFFFF00FFFFFF00FFFFFF00FFFFFF00FFFFFF00FFFFFF00FFFFFF00FFFFFF00FFFFFF00FFFFFF00FFFFFF00FFFFFF00FFFFFF00FFFFFF00FFFFFF00FF302821FF302821FF
310
302821FF302821FF302821FF302821FF302821FF302821FF302821FF302821FF302821FF302821FFFFFF00FF302821FF302821FF302821FF302821FFFFFF00FFFFFF00FFFFFF00FFFFFF00FFFFFF00FFFFFF00FFFFFF00FFFFFF00FFFFFF00FFFFFF00FFFFFF00FFFFFF00FFFFFF00FFFFFF00FFFFFF00FF302821FF302821
310
FF302821FF302821FF302821FF302821FF302821FF302821FF302821FF302821FF302821FF302821FFFFFF00FF302821FF302821FF302821FF302821FFFFFF00FFFFFF00FFFFFF00FFFFFF00FFFFFF00FFFFFF00FFFFFF00FFFFFF00FFFFFF00FFFFFF00FFFFFF00FFFFFF00FFFFFF00FFFFFF00FFFFFF00FF302821FF3028
310
21FF302821FF302821FF302821FF302821FF302821FF302821FF302821FF302821FF302821FF302821FFFFFF00FF302821FF302821FF302821FFFFFF00FFFFFF00FFFFFF00FFFFFF00FFFFFF00FFFFFF00FFFFFF00FFFFFF00FFFFFF00FFFFFF00FFFFFF00FFFFFF00FFFFFF00FFFFFF00FFFFFF00FFFFFF00FF302821FF30
310
2821FF302821FF302821FF302821FF302821FF302821FF302821FF302821FF302821FF302821FF302821FF302821FFFFFF00FF302821FF302821FFFFFF00FFFFFF00FFFFFF00FFFFFF00FFFFFF00FFFFFF00FFFFFF00FFFFFF00FFFFFF00FFFFFF00FFFFFF00FFFFFF00FFFFFF00FFFFFF00FFFFFF00FFFFFF00FFFFFF00FF
310
FFFF00FFFFFF00FFFFFF00FFFFFF00FFFFFF00FFFFFF00FFFFFF00FFFFFF00FFFFFF00FFFFFF00FFFFFF00FFFFFF00FFFFFF00FF302821FF302821FFFFFF00FF302821FF302821FF302821FF302821FF302821FF302821FF302821FF302821FF302821FF302821FF302821FF302821FF302821FF302821FFFFFF00FFFFFF00
310
FFFFFF00FFFFFF00FFFFFF00FFFFFF00FFFFFF00FFFFFF00FFFFFF00FFFFFF00FFFFFF00FFFFFF00FFFFFF00FFFFFF00FFFFFF00FF302821FF302821FFFFFF00FF302821FF302821FF302821FF302821FF302821FF302821FF302821FF302821FF302821FF302821FF302821FF302821FF302821FF302821FFFFFF00FFFFFF
310
00FFFFFF00FFFFFF00FFFFFF00FFFFFF00FFFFFF00FFFFFF00FFFFFF00FFFFFF00FFFFFF00FFFFFF00FFFFFF00FFFFFF00FF302821FF302821FF302821FF302821FFFFFF00FF302821FF302821FF302821FF302821FF302821FF302821FF302821FF302821FF302821FF302821FF302821FF302821FF302821FFFFFF00FFFF
310
FF00FFFFFF00FFFFFF00FFFFFF00FFFFFF00FFFFFF00FFFFFF00FFFFFF00FFFFFF00FFFFFF00FFFFFF00FFFFFF00FFFFFF00FF302821FF302821FF302821FF302821FFFFFF00FF302821FF302821FF302821FF302821FF302821FF302821FF302821FF302821FF302821FF302821FF302821FF302821FF302821FFFFFF00FF
310
FFFF00FFFFFF00FFFFFF00FFFFFF00FFFFFF00FFFFFF00FFFFFF00FFFFFF00FFFFFF00FFFFFF00FFFFFF00FFFFFF00FFFFFF00FF302821FF302821FF302821FF302821FFFFFF00FF302821FF302821FF302821FF302821FF302821FF302821FF302821FF302821FF302821FF302821FF302821FF302821FF302821FFFFFF00
310
FFFFFF00FFFFFF00FFFFFF00FFFFFF00FFFFFF00FFFFFF00FFFFFF00FFFFFF00FFFFFF00FFFFFF00FFFFFF00FFFFFF00FFFFFF00FF302821FF302821FF302821FF302821FF302821FFFFFF00FF302821FF302821FF302821FF302821FF302821FF302821FF302821FF302821FF302821FF302821FF302821FF302821FFFFFF
310
00FFFFFF00FFFFFF00FFFFFF00FFFFFF00FFFFFF00FFFFFF00FFFFFF00FFFFFF00FFFFFF00FFFFFF00FFFFFF00FFFFFF00FFFFFF00FF302821FF302821FF302821FF302821FF302821FFFFFF00FF302821FF302821FF302821FF302821FF302821FF302821FF302821FF302821FF302821FF302821FF302821FF302821FFFF
310
FF00FFFFFF00FFFFFF00FFFFFF00FFFFFF00FFFFFF00FFFFFF00FFFFFF00FFFFFF00FFFFFF00FFFFFF00FFFFFF00FFFFFF00FF302821FF302821FF302821FF302821FF302821FF302821FF302821FFFFFF00FF302821FF302821FF302821FF302821FF302821FF302821FF302821FF302821FF302821FF302821FF302821FF
310
FFFF00FFFFFF00FFFFFF00FFFFFF00FFFFFF00FFFFFF00FFFFFF00FFFFFF00FFFFFF00FFFFFF00FFFFFF00FFFFFF00FFFFFF00FF302821FF302821FF302821FF302821FF302821FF302821FF302821FFFFFF00FF302821FF302821FF302821FF302821FF302821FF302821FF302821FF302821FF302821FF302821FF302821
310
FFFFFF00FFFFFF00FFFFFF00FFFFFF00FFFFFF00FFFFFF00FFFFFF00FFFFFF00FFFFFF00FFFFFF00FFFFFF00FFFFFF00FF302821FF302821FF302821FF302821FF302821FF302821FF302821FF302821FF302821FFFFFF00FF302821FF302821FF302821FF302821FF302821FF302821FF302821FF302821FF302821FF3028
310
21FFFFFF00FFFFFF00FFFFFF00FFFFFF00FFFFFF00FFFFFF00FFFFFF00FFFFFF00FFFFFF00FFFFFF00FFFFFF00FF302821FF302821FF302821FF302821FF302821FF302821FF302821FF302821FF302821FF302821FF302821FFFFFF00FF302821FF302821FF302821FF302821FF302821FF302821FF302821FF302821FF30
310
2821FFFFFF00FFFFFF00FFFFFF00FFFFFF00FFFFFF00FFFFFF00FFFFFF00FFFFFF00FFFFFF00FFFFFF00FF302821FF302821FF302821FF302821FF302821FF302821FF302821FF302821FF302821FF302821FF302821FF302821FF302821FFFFFF00FF302821FF302821FF302821FF302821FF302821FF302821FF302821FF
310
302821FFFFFF00FFFFFF00FFFFFF00FFFFFF00FFFFFF00FFFFFF00FFFFFF00FFFFFF00FFFFFF00FF302821FF302821FF302821FF302821FF302821FF302821FF302821FF302821FF302821FF302821FF302821FF302821FF302821FF302821FF302821FFFFFF00FFFFFF00FF302821FF302821FF302821FF302821FF302821
310
FF302821FFFFFF00FFFFFF00FFFFFF00FFFFFF00FFFFFF00FFFFFF00FFFFFF00FFFFFF00FF302821FF302821FF302821FF302821FF302821FF302821FF302821FF302821FF302821FF302821FF302821FF302821FF302821FF302821FF302821FF302821FF302821FF302821FFFFFF00FFFFFF00FFFFFF00FFFFFF00FFFFFF
310
00FF302821FFFFFF00FFFFFF00FFFFFF00FFFFFF00FFFFFF00FFFFFF00FF302821FF302821FF302821FF302821FF302821FF302821FF302821FF302821FF302821FF302821FF302821FF302821FF302821FF302821FF302821FF302821FF302821FF302821FF302821FF302821FF302821FF302821FF302821FF302821FF30
310
2821FFFFFF00FFFFFF00FFFFFF00FF302821FF302821FF302821FF302821FF302821FF302821FF302821FF302821FF302821FF302821FF302821FF302821FF302821FF302821FF302821FF302821FF302821FF302821FF302821FF302821FF302821FF302821FF302821FF302821FF302821FF302821FF302821FF302821FF
310
302821FF302821FF302821FF302821FF302821FF302821FF302821FF302821FF302821FF302821FF302821FF302821FF302821FF302821FF302821FF302821FF302821FF302821FF
102
{BLKREFS
331
20A18
102
}
  0
BLOCK_RECORD
  5
20D4F
330
1
100
AcDbSymbolTableRecord
100
AcDbBlockTableRecord
  2
_None
340
0
  0
BLOCK_RECORD
  5
2102A
330
1
100
AcDbSymbolTableRecord
100
AcDbBlockTableRecord
  2
*D2
340
0
  0
BLOCK_RECORD
  5
21036
330
1
100
AcDbSymbolTableRecord
100
AcDbBlockTableRecord
  2
*D3
340
0
  0
BLOCK_RECORD
  5
21042
330
1
100
AcDbSymbolTableRecord
100
AcDbBlockTableRecord
  2
*D4
340
0
  0
BLOCK_RECORD
  5
21066
330
1
100
AcDbSymbolTableRecord
100
AcDbBlockTableRecord
  2
*D5
340
0
  0
BLOCK_RECORD
  5
21073
330
1
100
AcDbSymbolTableRecord
100
AcDbBlockTableRecord
  2
*D6
340
0
  0
ENDTAB
  0
ENDSEC
  0
SECTION
  2
BLOCKS
  0
BLOCK
  5
20
330
1F
100
AcDbEntity
  8
0
100
AcDbBlockBegin
  2
*MODEL_SPACE
 70
     0
 10
0.0
 20
0.0
 30
0.0
  3
*MODEL_SPACE
  1

  0
ENDBLK
  5
21
330
1F
100
AcDbEntity
  8
0
100
AcDbBlockEnd
  0
BLOCK
  5
1C
330
1B
100
AcDbEntity
 67
     1
  8
0
100
AcDbBlockBegin
  2
*PAPER_SPACE
 70
     0
 10
0.0
 20
0.0
 30
0.0
  3
*PAPER_SPACE
  1

  0
ENDBLK
  5
1D
330
1B
100
AcDbEntity
 67
     1
  8
0
100
AcDbBlockEnd
  0
BLOCK
  5
1B3D8
330
1B3D7
100
AcDbEntity
  8
0
100
AcDbBlockBegin
  2
cero_point
 70
     0
 10
0.0
 20
0.0
 30
0.0
  3
cero_point
  1

  0
HATCH
  5
1B3DA
330
1B3D7
100
AcDbEntity
  8
1
  6
ByBlock
370
    50
100
AcDbHatch
 10
0.0
 20
0.0
 30
0.0
210
0.0
220
0.0
230
1.0
  2
SOLID
 70
     1
 71
     0
 91
        2
 92
        7
 72
     1
 73
     1
 93
        3
 10
-0.0000000000001137
 20
0.0
 42
0.0
 10
-2.950972054112752
 20
0.0
 42
0.4142135623730968
 10
-0.0000000000001137
 20
-2.950972054112583
 42
0.0
 97
        0
 92
        7
 72
     1
 73
     1
 93
        3
 10
-0.0000000000001137
 20
2.950972054112638
 42
0.0
 10
-0.0000000000001137
 20
0.0
 42
0.0
 10
2.950972054112526
 20
0.0
 42
0.4142135623730966
 97
        0
 75
     0
 76
     1
 47
0.1190009775223266
 98
        2
 10
-0.7445530588121301
 20
-0.9212244733764125
 10
1.279464601852737
 20
1.696796923046345
  0
LWPOLYLINE
  5
1B3DB
330
1B3D7
100
AcDbEntity
  8
1
  6
ByBlock
370
    50
100
AcDbPolyline
 90
        3
 70
     1
 43
0.0
 10
-0.0000000000001137
 20
0.0
 10
2.950972054112526
 20
0.0
 42
0.4142135623730966
 10
-0.0000000000001137
 20
2.950972054112638
  0
LINE
  5
1B3DC
330
1B3D7
100
AcDbEntity
  8
1
  6
ByBlock
370
    50
100
AcDbLine
 10
-0.0000000000001137
 20
-2.950972054112583
 30
0.0
 11
-0.0000000000001137
 21
2.950972054112638
 31
0.0
  0
LWPOLYLINE
  5
1B3DD
330
1B3D7
100
AcDbEntity
  8
1
  6
ByBlock
370
    50
100
AcDbPolyline
 90
        3
 70
     1
 43
0.0
 10
-0.0000000000001137
 20
-2.950972054112583
 10
-0.0000000000001137
 20
0.0
 10
-2.950972054112752
 20
0.0
 42
0.4142135623730966
  0
LINE
  5
1B3DE
330
1B3D7
100
AcDbEntity
  8
1
  6
ByBlock
370
    50
100
AcDbLine
 10
2.950972054112638
 20
0.0
 30
0.0
 11
-2.950972054112638
 21
0.0
 31
0.0
  0
CIRCLE
  5
1B3DF
330
1B3D7
100
AcDbEntity
  8
1
  6
ByBlock
370
    50
100
AcDbCircle
 10
-0.0000000000001137
 20
0.0
 30
0.0
 40
2.950972054112601
  0
ENDBLK
  5
1B3D9
330
1B3D7
100
AcDbEntity
  8
0
100
AcDbBlockEnd
  0
BLOCK
  5
20D50
330
20D4F
100
AcDbEntity
  8
0
100
AcDbBlockBegin
  2
_None
 70
     0
 10
0.0
 20
0.0
 30
0.0
  3
_None
  1

  0
ENDBLK
  5
20D51
330
20D4F
100
AcDbEntity
  8
0
100
AcDbBlockEnd
  0
BLOCK
  5
2102B
330
2102A
100
AcDbEntity
  8
0
100
AcDbBlockBegin
  2
*D2
 70
     1
 10
0.0
 20
0.0
 30
0.0
  3
*D2
  1

  0
LINE
  5
210F3
330
2102A
100
AcDbEntity
  8
SK2
 62
     0
370
    -2
100
AcDbLine
 10
-71.0625
 20
12.5
 30
0.0
 11
-87.28427837268402
 21
12.5
 31
0.0
  0
LINE
  5
210F4
330
2102A
100
AcDbEntity
  8
SK2
 62
     0
370
    -2
100
AcDbLine
 10
-71.0625
 20
-12.5
 30
0.0
 11
-87.28427837268402
 21
-12.49999999999999
 31
0.0
  0
LINE
  5
210F5
330
2102A
100
AcDbEntity
  8
SK2
 62
     0
370
    -2
100
AcDbLine
 10
-87.10427837268403
 20
7.930000000000005
 30
0.0
 11
-87.10427837268403
 21
-7.929999999999994
 31
0.0
  0
SOLID
  5
210F6
330
2102A
100
AcDbEntity
  8
SK2
 62
     0
100
AcDbTrace
 10
-87.86594503935068
 20
7.930000000000005
 30
0.0
 11
-86.34261170601734
 21
7.930000000000005
 31
0.0
 12
-87.10427837268403
 22
12.5
 32
0.0
 13
-87.10427837268403
 23
12.5
 33
0.0
  0
SOLID
  5
210F7
330
2102A
100
AcDbEntity
  8
SK2
 62
     0
100
AcDbTrace
 10
-87.86594503935068
 20
-7.929999999999994
 30
0.0
 11
-86.34261170601734
 21
-7.929999999999994
 31
0.0
 12
-87.10427837268403
 22
-12.49999999999999
 32
0.0
 13
-87.10427837268403
 23
-12.49999999999999
 33
0.0
  0
MTEXT
  5
210F8
330
2102A
100
AcDbEntity
  8
SK2
 62
     0
100
AcDbMText
 10
-89.05741962356243
 20
-0.0000000000000086
 30
0.0
 40
3.5
 41
0.0
 71
     5
 72
     1
  1
\A1;%%C25
 11
0.0000000000000001
 21
1.0
 31
0.0
 73
     1
 44
1.0
1001
ACAD
1000
MTEXTBEGIN
1070
    73
1070
     1
1070
    44
1040
1.0
1070
    74
1070
     0
1000
MTEXTEND
  0
POINT
  5
210F9
330
2102A
100
AcDbEntity
  8
Defpoints
 62
     0
100
AcDbPoint
 10
-71.0
 20
12.5
 30
0.0
  0
POINT
  5
210FA
330
2102A
100
AcDbEntity
  8
Defpoints
 62
     0
100
AcDbPoint
 10
-71.0
 20
-12.5
 30
0.0
  0
POINT
  5
210FB
330
2102A
100
AcDbEntity
  8
Defpoints
 62
     0
100
AcDbPoint
 10
-87.10427837268403
 20
-12.49999999999999
 30
0.0
  0
ENDBLK
  5
2102C
330
2102A
100
AcDbEntity
  8
0
100
AcDbBlockEnd
  0
BLOCK
  5
21037
330
21036
100
AcDbEntity
  8
0
100
AcDbBlockBegin
  2
*D3
 70
     1
 10
0.0
 20
0.0
 30
0.0
  3
*D3
  1

  0
LINE
  5
210FC
330
21036
100
AcDbEntity
  8
SK2
 62
     0
370
    -2
100
AcDbLine
 10
-75.0
 20
-11.4375
 30
0.0
 11
-75.0
 21
-31.83683614148176
 31
0.0
  0
LINE
  5
210FD
330
21036
100
AcDbEntity
  8
SK2
 62
     0
370
    -2
100
AcDbLine
 10
85.0028765496429
 20
-0.0621469631138609
 30
0.0
 11
85.0028765496429
 21
-31.83683614148176
 31
0.0
  0
LINE
  5
210FE
330
21036
100
AcDbEntity
  8
SK2
 62
     0
370
    -2
100
AcDbLine
 10
-70.43000000000002
 20
-31.65683614148176
 30
0.0
 11
80.43287654964291
 21
-31.65683614148176
 31
0.0
  0
SOLID
  5
210FF
330
21036
100
AcDbEntity
  8
SK2
 62
     0
100
AcDbTrace
 10
-70.43000000000002
 20
-30.8951694748151
 30
0.0
 11
-70.43000000000002
 21
-32.41850280814843
 31
0.0
 12
-75.0
 22
-31.65683614148176
 32
0.0
 13
-75.0
 23
-31.65683614148176
 33
0.0
  0
SOLID
  5
21100
330
21036
100
AcDbEntity
  8
SK2
 62
     0
100
AcDbTrace
 10
80.43287654964291
 20
-30.8951694748151
 30
0.0
 11
80.43287654964291
 21
-32.41850280814843
 31
0.0
 12
85.0028765496429
 22
-31.65683614148176
 32
0.0
 13
85.0028765496429
 23
-31.65683614148176
 33
0.0
  0
MTEXT
  5
21101
330
21036
100
AcDbEntity
  8
SK2
 62
     0
100
AcDbMText
 10
5.001438274821452
 20
-29.75534633122175
 30
0.0
 40
3.5
 41
0.0
 71
     5
 72
     1
  1
\A1;160.003
 73
     1
 44
1.0
1001
ACAD
1000
MTEXTBEGIN
1070
    73
1070
     1
1070
    44
1040
1.0
1070
    74
1070
     0
1000
MTEXTEND
  0
POINT
  5
21102
330
21036
100
AcDbEntity
  8
Defpoints
 62
     0
100
AcDbPoint
 10
-75.0
 20
-11.375
 30
0.0
  0
POINT
  5
21103
330
21036
100
AcDbEntity
  8
Defpoints
 62
     0
100
AcDbPoint
 10
85.0028765496429
 20
0.0003530368861391
 30
0.0
  0
POINT
  5
21104
330
21036
100
AcDbEntity
  8
Defpoints
 62
     0
100
AcDbPoint
 10
85.0028765496429
 20
-31.65683614148176
 30
0.0
  0
ENDBLK
  5
21038
330
21036
100
AcDbEntity
  8
0
100
AcDbBlockEnd
  0
BLOCK
  5
21043
330
21042
100
AcDbEntity
  8
0
100
AcDbBlockBegin
  2
*D4
 70
     1
 10
0.0
 20
0.0
 30
0.0
  3
*D4
  1

  0
LINE
  5
21105
330
21042
100
AcDbEntity
  8
2
 62
     0
370
    -2
100
AcDbLine
 10
9.996060947313935
 20
14.56883604736546
 30
0.0
 11
9.996060947313935
 21
42.95519493335723
 31
0.0
  0
LINE
  5
21106
330
21042
100
AcDbEntity
  8
2
 62
     0
370
    -2
100
AcDbLine
 10
85.02983080724925
 20
10.08674031185225
 30
0.0
 11
85.02983080724925
 21
42.95519493335723
 31
0.0
  0
LINE
  5
21107
330
21042
100
AcDbEntity
  8
2
 62
     0
370
    -2
100
AcDbLine
 10
14.56606094731394
 20
42.77519493335725
 30
0.0
 11
80.45983080724928
 21
42.77519493335725
 31
0.0
  0
SOLID
  5
21108
330
21042
100
AcDbEntity
  8
2
 62
     0
100
AcDbTrace
 10
14.56606094731394
 20
43.53686160002392
 30
0.0
 11
14.56606094731394
 21
42.01352826669057
 31
0.0
 12
9.996060947313935
 22
42.77519493335725
 32
0.0
 13
9.996060947313935
 23
42.77519493335725
 33
0.0
  0
SOLID
  5
21109
330
21042
100
AcDbEntity
  8
2
 62
     0
100
AcDbTrace
 10
80.45983080724928
 20
43.53686160002392
 30
0.0
 11
80.45983080724928
 21
42.01352826669057
 31
0.0
 12
85.02983080724925
 22
42.77519493335725
 32
0.0
 13
85.02983080724925
 23
42.77519493335725
 33
0.0
  0
MTEXT
  5
2110A
330
21042
100
AcDbEntity
  8
2
 62
     0
100
AcDbMText
 10
47.5129458772816
 20
44.67668474361728
 30
0.0
 40
3.5
 41
0.0
 71
     5
 72
     1
  1
\A1;75.034
 73
     1
 44
1.0
1001
ACAD
1000
MTEXTBEGIN
1070
    73
1070
     1
1070
    44
1040
1.0
1070
    74
1070
     0
1000
MTEXTEND
  0
POINT
  5
2110B
330
21042
100
AcDbEntity
  8
Defpoints
 62
     0
100
AcDbPoint
 10
9.996060947313935
 20
14.50633604736546
 30
0.0
  0
POINT
  5
2110C
330
21042
100
AcDbEntity
  8
Defpoints
 62
     0
100
AcDbPoint
 10
85.02983080724925
 20
10.02424031185225
 30
0.0
  0
POINT
  5
2110D
330
21042
100
AcDbEntity
  8
Defpoints
 62
     0
100
AcDbPoint
 10
85.02983080724925
 20
42.77519493335725
 30
0.0
  0
ENDBLK
  5
21044
330
21042
100
AcDbEntity
  8
0
100
AcDbBlockEnd
  0
BLOCK
  5
21067
330
21066
100
AcDbEntity
  8
0
100
AcDbBlockBegin
  2
*D5
 70
     1
 10
0.0
 20
0.0
 30
0.0
  3
*D5
  1

  0
LINE
  5
2110E
330
21066
100
AcDbEntity
  8
2
 62
     0
370
    -2
100
AcDbLine
 10
71.35369317194409
 20
11.72106864051531
 30
0.0
 11
71.35369317194409
 21
16.24475941703584
 31
0.0
  0
LINE
  5
2110F
330
21066
100
AcDbEntity
  8
2
 62
     0
370
    -2
100
AcDbLine
 10
85.02983080724925
 20
10.08674031185225
 30
0.0
 11
85.02983080724925
 21
16.24475941703584
 31
0.0
  0
LINE
  5
21110
330
21066
100
AcDbEntity
  8
2
 62
     0
370
    -2
100
AcDbLine
 10
66.78369317194409
 20
16.06475941703584
 30
0.0
 11
62.21369317194407
 21
16.06475941703584
 31
0.0
  0
LINE
  5
21111
330
21066
100
AcDbEntity
  8
2
 62
     0
370
    -2
100
AcDbLine
 10
89.59983080724924
 20
16.06475941703584
 30
0.0
 11
111.1104773286828
 21
16.06475941703584
 31
0.0
  0
LINE
  5
21112
330
21066
100
AcDbEntity
  8
2
 62
     0
370
    -2
100
AcDbLine
 10
71.35369317194409
 20
16.06475941703584
 30
0.0
 11
85.02983080724925
 21
16.06475941703584
 31
0.0
  0
SOLID
  5
21113
330
21066
100
AcDbEntity
  8
2
 62
     0
100
AcDbTrace
 10
66.78369317194409
 20
16.82642608370251
 30
0.0
 11
66.78369317194409
 21
15.30309275036918
 31
0.0
 12
71.35369317194409
 22
16.06475941703584
 32
0.0
 13
71.35369317194409
 23
16.06475941703584
 33
0.0
  0
SOLID
  5
21114
330
21066
100
AcDbEntity
  8
2
 62
     0
100
AcDbTrace
 10
89.59983080724924
 20
16.82642608370251
 30
0.0
 11
89.59983080724924
 21
15.30309275036918
 31
0.0
 12
85.02983080724925
 22
16.06475941703584
 32
0.0
 13
85.02983080724925
 23
16.06475941703584
 33
0.0
  0
MTEXT
  5
21115
330
21066
100
AcDbEntity
  8
2
 62
     0
100
AcDbMText
 10
102.640154067966
 20
18.43972076629796
 30
0.0
 40
3.5
 41
0.0
 71
     5
 72
     1
  1
\A1;Ap13.66
 73
     1
 44
1.0
1001
ACAD
1000
MTEXTBEGIN
1070
    73
1070
     1
1070
    44
1040
1.0
1070
    74
1070
     0
1000
MTEXTEND
  0
POINT
  5
21116
330
21066
100
AcDbEntity
  8
Defpoints
 62
     0
100
AcDbPoint
 10
71.35369317194409
 20
11.65856864051531
 30
0.0
  0
POINT
  5
21117
330
21066
100
AcDbEntity
  8
Defpoints
 62
     0
100
AcDbPoint
 10
85.02983080724925
 20
10.02424031185225
 30
0.0
  0
POINT
  5
21118
330
21066
100
AcDbEntity
  8
Defpoints
 62
     0
100
AcDbPoint
 10
85.02983080724925
 20
16.06475941703584
 30
0.0
  0
ENDBLK
  5
21068
330
21066
100
AcDbEntity
  8
0
100
AcDbBlockEnd
  0
BLOCK
  5
21074
330
21073
100
AcDbEntity
  8
0
100
AcDbBlockBegin
  2
*D6
 70
     1
 10
0.0
 20
0.0
 30
0.0
  3
*D6
  1

  0
LINE
  5
211E6
330
21073
100
AcDbEntity
  8
2
 62
     0
370
    -2
100
AcDbLine
 10
77.03102921090863
 20
-9.997903570662487
 30
0.0
 11
101.1508510936769
 21
-9.997903570662494
 31
0.0
  0
LINE
  5
211E7
330
21073
100
AcDbEntity
  8
2
 62
     0
370
    -2
100
AcDbLine
 10
99.90085109367694
 20
-7.497903570662493
 30
0.0
 11
99.90085109367694
 21
-0.0000000000000034
 31
0.0
  0
SOLID
  5
211E8
330
21073
100
AcDbEntity
  8
2
 62
     0
100
AcDbTrace
 10
99.48418442701026
 20
-7.497903570662493
 30
0.0
 11
100.3175177603436
 21
-7.497903570662493
 31
0.0
 12
99.90085109367694
 22
-9.997903570662492
 32
0.0
 13
99.90085109367694
 23
-9.997903570662492
 33
0.0
  0
MTEXT
  5
211E9
330
21073
100
AcDbEntity
  8
2
 62
     0
100
AcDbMText
 10
97.4127098427985
 20
-3.748951785331231
 30
0.0
 40
3.5
 41
0.0
 71
     5
 72
     1
  1
%%C20
 11
0.0000000000000001
 21
1.0
 31
0.0
 73
     1
 44
1.0
1001
ACAD
1000
MTEXTBEGIN
1070
    73
1070
     1
1070
    44
1040
1.0
1070
    74
1070
     0
1000
MTEXTEND
  0
POINT
  5
211EA
330
21073
100
AcDbEntity
  8
Defpoints
 62
     0
100
AcDbPoint
 10
77.03102921090863
 20
-9.997903570662487
 30
0.0
  0
POINT
  5
211EB
330
21073
100
AcDbEntity
  8
Defpoints
 62
     0
100
AcDbPoint
 10
87.8547309999999
 20
0.0
 30
0.0
  0
POINT
  5
211EC
330
21073
100
AcDbEntity
  8
Defpoints
 62
     0
100
AcDbPoint
 10
99.90085109367694
 20
-0.0000000000000034
 30
0.0
  0
ENDBLK
  5
21075
330
21073
100
AcDbEntity
  8
0
100
AcDbBlockEnd
  0
ENDSEC
  0
SECTION
  2
ENTITIES
  0
INSERT
  5
20A18
330
1F
100
AcDbEntity
  8
0
100
AcDbBlockReference
  2
cero_point
 10
0.0
 20
0.0
 30
0.0
  0
TEXT
  5
20EF4
330
1F
100
AcDbEntity
  8
SK6
100
AcDbText
 10
-27.98808784605308
 20
-52.63057729831674
 30
0.0
 40
3.5
  1
1TW8J020075T5R00
100
AcDbText
1001
ACAD
1000
MTEXTBEGIN
1070
    73
1070
     1
1070
    44
1040
1.0
1070
    74
1070
     0
1000
MTEXTEND
  0
LINE
  5
20EF5
330
1F
100
AcDbEntity
  8
INFTOTAL
100
AcDbLine
 10
-102.974827167352
 20
57.49805215075117
 30
0.0
 11
-52.97482716735203
 21
57.49805215075115
 31
0.0
  0
LINE
  5
20EF6
330
1F
100
AcDbEntity
  8
INFTOTAL
100
AcDbLine
 10
117.2471902629049
 20
-15.57990823867331
 30
0.0
 11
117.2471902629049
 21
-65.57990823867328
 31
0.0
  0
LINE
  5
20EF7
330
1F
100
AcDbEntity
  8
INFTOTAL
100
AcDbLine
 10
117.2471902629049
 20
-65.57990823867328
 30
0.0
 11
67.24719026290495
 21
-65.57990823867328
 31
0.0
  0
LINE
  5
20EF8
330
1F
100
AcDbEntity
  8
INFTOTAL
100
AcDbLine
 10
-102.974827167352
 20
7.498052150751219
 30
0.0
 11
-102.974827167352
 21
57.49805215075117
 31
0.0
  0
LINE
  5
20EF9
330
1F
100
AcDbEntity
  8
4
100
AcDbLine
 10
87.8547309999999
 20
0.0
 30
0.0
 11
0.0
 21
0.0
 31
0.0
  0
LINE
  5
20EFA
330
1F
100
AcDbEntity
  8
SK4
100
AcDbLine
 10
0.0
 20
0.0
 30
0.0
 11
-78.94306700000004
 21
0.0
 31
0.0
  0
ARC
  5
20F00
330
1F
100
AcDbEntity
  8
SK3
100
AcDbCircle
 10
68.80820799999992
 20
-0.5504800000000217
 30
0.0
 40
1.098646999999999
100
AcDbArc
 50
71.81216799999941
 51
83.05086500000181
  0
LINE
  5
20F01
330
1F
100
AcDbEntity
  8
SK3
100
AcDbLine
 10
69.15112599999997
 20
0.4932589999999948
 30
0.0
 11
69.22606699999983
 21
0.4650389999999902
 31
0.0
  0
SPLINE
  5
20F02
330
1F
100
AcDbEntity
  8
SK3
100
AcDbSpline
210
0.0
220
0.0
230
1.0
 70
     8
 71
     5
 72
    21
 73
    15
 74
     0
 42
0.000000001
 43
0.0000000001
 40
0.0
 40
0.0
 40
0.0
 40
0.0
 40
0.0
 40
0.0
 40
1.1390209308229
 40
1.1390209308229
 40
1.1390209308229
 40
2.58091241638781
 40
2.58091241638781
 40
2.58091241638781
 40
4.084795019088493
 40
4.084795019088493
 40
4.084795019088493
 40
4.654221827675342
 40
4.654221827675342
 40
4.654221827675342
 40
4.654221827675342
 40
4.654221827675342
 40
4.654221827675342
 10
68.94113083543107
 20
0.5401108512357668
 30
0.0
 10
68.91806541441019
 20
0.5223641479693982
 30
0.0
 10
68.89216576748208
 20
0.4863407152582512
 30
0.0
 10
68.86485524634122
 20
0.4283443833002992
 30
0.0
 10
68.80312653198576
 20
0.2524219021142642
 30
0.0
 10
68.74616991321953
 20
-0.0030007613021041
 30
0.0
 10
68.71723241653763
 20
-0.163825017886694
 30
0.0
 10
68.66576747946147
 20
-0.5101351264772518
 30
0.0
 10
68.63272229275594
 20
-0.8668528281731083
 30
0.0
 10
68.62121952131906
 20
-1.04759441568953
 30
0.0
 10
68.61697124927355
 20
-1.262110705655428
 30
0.0
 10
68.62927287568277
 20
-1.388900294212277
 30
0.0
 10
68.63391271284172
 20
-1.415755644419164
 30
0.0
 10
68.63970229775896
 20
-1.433737217880688
 30
0.0
 10
68.64644042449981
 20
-1.44298189285544
 30
0.0
  0
ARC
  5
20F03
330
1F
100
AcDbEntity
  8
SK3
100
AcDbCircle
 10
68.69110899999987
 20
0.8125619999999853
 30
0.0
 40
1.226892
100
AcDbArc
 50
279.4314790000044
 51
292.8066520000011
  0
ARC
  5
20F04
330
1F
100
AcDbEntity
  8
SK3
100
AcDbCircle
 10
68.76655099999993
 20
0.6280979999999943
 30
0.0
 40
1.027559
100
AcDbArc
 50
292.9158670000027
 51
299.1121159999971
  0
ARC
  5
20F05
330
1F
100
AcDbEntity
  8
SK3
100
AcDbCircle
 10
65.81093199999987
 20
-0.5162170000000117
 30
0.0
 40
3.01359
100
AcDbArc
 50
343.1781129999994
 51
350.8503219999998
  0
ELLIPSE
  5
20F06
330
1F
100
AcDbEntity
  8
SK3
100
AcDbEllipse
 10
68.80829599999993
 20
-0.0091850000000306
 30
0.0
 11
-0.1531019168231342
 21
-1.439904102454395
 31
0.0
210
0.0
220
0.0
230
1.0
 40
0.076811
 41
6.266578701699451
 42
6.583551079008553
  0
LINE
  5
20F07
330
1F
100
AcDbEntity
  8
SK3
100
AcDbLine
 10
68.65337899999985
 20
-1.448696000000011
 30
0.0
 11
68.64643999999998
 21
-1.442981999999999
 31
0.0
  0
ARC
  5
20F08
330
1F
100
AcDbEntity
  8
SK3
100
AcDbCircle
 10
28.41734799999995
 20
6.372074999999995
 30
0.0
 40
41.036665
100
AcDbArc
 50
349.657117000001
 51
350.5045540000008
  0
SPLINE
  5
20F09
330
1F
100
AcDbEntity
  8
SK3
100
AcDbSpline
210
0.0
220
0.0
230
1.0
 70
     8
 71
     5
 72
    24
 73
    18
 74
     0
 42
0.000000001
 43
0.0000000001
 40
0.0
 40
0.0
 40
0.0
 40
0.0
 40
0.0
 40
0.0
 40
1.05892858827952
 40
1.05892858827952
 40
1.05892858827952
 40
2.404211959329779
 40
2.404211959329779
 40
2.404211959329779
 40
3.368318693477846
 40
3.368318693477846
 40
3.368318693477846
 40
4.246610299029291
 40
4.246610299029291
 40
4.246610299029291
 40
4.35596001730344
 40
4.35596001730344
 40
4.35596001730344
 40
4.35596001730344
 40
4.35596001730344
 40
4.35596001730344
 10
68.89215809988377
 20
-0.3977751203111381
 30
0.0
 10
68.85474819543424
 20
-0.3777144477969898
 30
0.0
 10
68.81779156850484
 20
-0.3358483751227652
 30
0.0
 10
68.78219811147754
 20
-0.2729975701315936
 30
0.0
 10
68.70582508147254
 20
-0.0940193527714257
 30
0.0
 10
68.64043489412802
 20
0.1522713408497509
 30
0.0
 10
68.60772404108411
 20
0.3047924805488549
 30
0.0
 10
68.55902330645881
 20
0.583672472403265
 30
0.0
 10
68.52619935161555
 20
0.8731666008639249
 30
0.0
 10
68.51560275475503
 20
0.9938905009044843
 30
0.0
 10
68.50268485985272
 20
1.216800468443551
 30
0.0
 10
68.50642049816451
 20
1.40356636765037
 30
0.0
 10
68.51255469322177
 20
1.479520852531948
 30
0.0
 10
68.52474480986984
 20
1.541584560873585
 30
0.0
 10
68.54148946678993
 20
1.575832219881218
 30
0.0
 10
68.54339902530909
 20
1.579284095837663
 30
0.0
 10
68.54535891968203
 20
1.582389893620643
 30
0.0
 10
68.54736872402964
 20
1.585153782064451
 30
0.0
  0
SPLINE
  5
20F0A
330
1F
100
AcDbEntity
  8
SK3
100
AcDbSpline
210
0.0
220
0.0
230
1.0
 70
     8
 71
     5
 72
    12
 73
     6
 74
     0
 42
0.000000001
 43
0.0000000001
 40
0.0
 40
0.0
 40
0.0
 40
0.0
 40
0.0
 40
0.0
 40
1.282037260592262
 40
1.282037260592262
 40
1.282037260592262
 40
1.282037260592262
 40
1.282037260592262
 40
1.282037260592262
 10
68.86719036110389
 20
0.8024512543148317
 30
0.0
 10
68.8311143111257
 20
0.9340719384525757
 30
0.0
 10
68.79586005578767
 20
1.064534990347709
 30
0.0
 10
68.76111977504206
 20
1.188206306539967
 30
0.0
 10
68.72623251294067
 20
1.301682694437914
 30
0.0
 10
68.69188278205569
 20
1.396040654803158
 30
0.0
  0
SPLINE
  5
20F0B
330
1F
100
AcDbEntity
  8
SK3
100
AcDbSpline
210
0.0
220
0.0
230
1.0
 70
     8
 71
     5
 72
    15
 73
     9
 74
     0
 42
0.000000001
 43
0.0000000001
 40
0.0
 40
0.0
 40
0.0
 40
0.0
 40
0.0
 40
0.0
 40
0.9180455654240475
 40
0.9180455654240475
 40
0.9180455654240475
 40
1.049669248613376
 40
1.049669248613376
 40
1.049669248613376
 40
1.049669248613376
 40
1.049669248613376
 40
1.049669248613376
 10
68.69188278205569
 20
1.396040654803158
 30
0.0
 10
68.6672855109141
 20
1.463608821297583
 30
0.0
 10
68.64296394170287
 20
1.521372604196414
 30
0.0
 10
68.61899702108485
 20
1.566609106614206
 30
0.0
 10
68.59296590504435
 20
1.597482688306513
 30
0.0
 10
68.56998040114878
 20
1.599593063431625
 30
0.0
 10
68.56714695150322
 20
1.599393844640474
 30
0.0
 10
68.56437263581824
 20
1.598721563855774
 30
0.0
 10
68.56165837588287
 20
1.597569171958269
 30
0.0
  0
ARC
  5
20F0C
330
1F
100
AcDbEntity
  8
SK3
100
AcDbCircle
 10
68.57720399999994
 20
1.565516999999971
 30
0.0
 40
0.035668
100
AcDbArc
 50
115.873162
 51
146.647580000003
  0
LINE
  5
20F0D
330
1F
100
AcDbEntity
  8
SK3
100
AcDbLine
 10
68.94112599999994
 20
0.5401099999999987
 30
0.0
 11
68.86718999999994
 21
0.8024509999999905
 31
0.0
  0
SPLINE
  5
20F0E
330
1F
100
AcDbEntity
  8
SK3
100
AcDbSpline
210
0.0
220
0.0
230
1.0
 70
     8
 71
     5
 72
    18
 73
    12
 74
     0
 42
0.000000001
 43
0.0000000001
 40
0.0
 40
0.0
 40
0.0
 40
0.0
 40
0.0
 40
0.0
 40
0.8453493119272758
 40
0.8453493119272758
 40
0.8453493119272758
 40
1.471716106810835
 40
1.471716106810835
 40
1.471716106810835
 40
2.10134184908192
 40
2.10134184908192
 40
2.10134184908192
 40
2.10134184908192
 40
2.10134184908192
 40
2.10134184908192
 10
69.22606735705653
 20
0.4650392366461916
 30
0.0
 10
69.30489837258504
 20
0.4315086552896619
 30
0.0
 10
69.37832455546639
 20
0.3893967683764288
 30
0.0
 10
69.4456305673782
 20
0.3372143861137999
 30
0.0
 10
69.53483680736622
 20
0.2281192371570171
 30
0.0
 10
69.55639236507386
 20
0.0986638940745195
 30
0.0
 10
69.550318470207
 20
0.0425916936479496
 30
0.0
 10
69.50972290778281
 20
-0.066226111841587
 30
0.0
 10
69.42682710085273
 20
-0.1592300082658369
 30
0.0
 10
69.37773434187011
 20
-0.2008108745619097
 30
0.0
 10
69.32395785998824
 20
-0.2374968495425094
 30
0.0
 10
69.26647471365845
 20
-0.2696407441287363
 30
0.0
  0
LINE
  5
20F0F
330
1F
100
AcDbEntity
  8
SK3
100
AcDbLine
 10
68.56165799999985
 20
1.597568999999992
 30
0.0
 11
72.08549900000003
 21
3.093959999999981
 31
0.0
  0
LINE
  5
20F10
330
1F
100
AcDbEntity
  8
SK3
100
AcDbLine
 10
69.16666499999997
 20
-0.3183720000000108
 30
0.0
 11
72.86725999999998
 21
1.25307699999999
 31
0.0
  0
LINE
  5
20F11
330
1F
100
AcDbEntity
  8
SK3
100
AcDbLine
 10
69.15112599999997
 20
0.4932589999999948
 30
0.0
 11
74.74917200000004
 21
-1.359477999999995
 31
0.0
  0
LINE
  5
20F12
330
1F
100
AcDbEntity
  8
SK3
100
AcDbLine
 10
68.65337899999985
 20
-1.448696000000011
 30
0.0
 11
74.12081499999998
 21
-3.258206000000001
 31
0.0
  0
ELLIPSE
  5
20F13
330
1F
100
AcDbEntity
  8
SK3
100
AcDbEllipse
 10
72.47637899999995
 20
2.173517999999972
 30
0.0
 11
0.3908659155484068
 21
-0.9204476280932587
 31
0.0
210
0.0
220
0.0
230
1.0
 40
0.50385
 41
3.594431898836363
 42
5.830360430586977
  0
ARC
  5
20F14
330
1F
100
AcDbEntity
  8
SK3
100
AcDbCircle
 10
73.07268500000009
 20
2.42673799999997
 30
0.0
 40
1.25
100
AcDbArc
 50
125.1596270000027
 51
157.0061639999978
  0
ELLIPSE
  5
20F15
330
1F
100
AcDbEntity
  8
SK3
100
AcDbEllipse
 10
72.47637899999995
 20
2.173517999999972
 30
0.0
 11
-0.3908659155484069
 21
0.9204476280932585
 31
0.0
210
0.0
220
0.0
230
1.0
 40
0.50385
 41
3.249741404424665
 42
6.283217042124222
  0
ELLIPSE
  5
20F16
330
1F
100
AcDbEntity
  8
SK3
100
AcDbEllipse
 10
72.47637899999995
 20
2.173517999999972
 30
0.0
 11
0.3908659155484068
 21
-0.9204476280932587
 31
0.0
210
0.0
220
0.0
230
1.0
 40
0.50385
 41
5.830360430586977
 42
6.283217042124222
  0
ELLIPSE
  5
20F17
330
1F
100
AcDbEntity
  8
SK3
100
AcDbEllipse
 10
72.47637899999995
 20
2.173517999999972
 30
0.0
 11
0.3908659155484068
 21
-0.9204476280932587
 31
0.0
210
0.0
220
0.0
230
1.0
 40
0.50385
 41
0.0000317349446382
 42
0.1081487508348763
  0
ARC
  5
20F18
330
1F
100
AcDbEntity
  8
SK3
100
AcDbCircle
 10
73.07268500000009
 20
2.42673799999997
 30
0.0
 40
1.25
100
AcDbArc
 50
249.0110319999961
 51
293.0093059999983
  0
LINE
  5
20F19
330
1F
100
AcDbEntity
  8
SK3
100
AcDbLine
 10
73.56128599999988
 20
1.276185999999995
 30
0.0
 11
76.17764899999997
 21
2.387218999999987
 31
0.0
  0
ARC
  5
20F1A
330
1F
100
AcDbEntity
  8
SK3
100
AcDbCircle
 10
73.07270199999994
 20
2.42670799999999
 30
0.0
 40
1.250034
100
AcDbArc
 50
113.008397999993
 51
125.1594719999993
  0
LINE
  5
20F1B
330
1F
100
AcDbEntity
  8
SK3
100
AcDbLine
 10
72.5841059999998
 20
3.577299000000008
 30
0.0
 11
72.87413100000003
 21
3.700457999999997
 31
0.0
  0
ARC
  5
20F1C
330
1F
100
AcDbEntity
  8
SK3
100
AcDbCircle
 10
73.0245030000001
 20
3.33792199999999
 30
0.0
 40
0.392512
100
AcDbArc
 50
101.885285999993
 51
112.5275279999951
  0
ARC
  5
20F1D
330
1F
100
AcDbEntity
  8
SK3
100
AcDbCircle
 10
72.95703800000002
 20
3.491029999999993
 30
0.0
 40
0.225113
100
AcDbArc
 50
111.597224999998
 51
136.9133099999989
  0
ARC
  5
20F1E
330
1F
100
AcDbEntity
  8
SK3
100
AcDbCircle
 10
72.81368900000007
 20
3.622445999999995
 30
0.0
 40
0.030624
100
AcDbArc
 50
133.2654579999976
 51
241.1860630000023
  0
SPLINE
  5
20F1F
330
1F
100
AcDbEntity
  8
SK3
100
AcDbSpline
210
0.0
220
0.0
230
1.0
 70
     8
 71
     5
 72
    18
 73
    12
 74
     0
 42
0.000000001
 43
0.0000000001
 40
0.0
 40
0.0
 40
0.0
 40
0.0
 40
0.0
 40
0.0
 40
1.164269255109129
 40
1.164269255109129
 40
1.164269255109129
 40
2.628044001155473
 40
2.628044001155473
 40
2.628044001155473
 40
2.907585837471486
 40
2.907585837471486
 40
2.907585837471486
 40
2.907585837471486
 40
2.907585837471486
 40
2.907585837471486
 10
73.10163735285802
 20
3.443271161522091
 30
0.0
 10
73.2137729664762
 20
3.389722599186967
 30
0.0
 10
73.33201082082428
 20
3.328744227673411
 30
0.0
 10
73.44848707286928
 20
3.259601540733596
 30
0.0
 10
73.70377034195212
 20
3.086298110076453
 30
0.0
 10
73.93973314954816
 20
2.884667834481033
 30
0.0
 10
74.06645694310668
 20
2.765666538049828
 30
0.0
 10
74.21255000445626
 20
2.634578416960493
 30
0.0
 10
74.36340652624902
 20
2.533639548450679
 30
0.0
 10
74.38777517182825
 20
2.518311750581885
 30
0.0
 10
74.41230445044062
 20
2.503968917639213
 30
0.0
 10
74.43703819850544
 20
2.490682513311469
 30
0.0
  0
SPLINE
  5
20F20
330
1F
100
AcDbEntity
  8
SK3
100
AcDbSpline
210
0.0
220
0.0
230
1.0
 70
     8
 71
     5
 72
    15
 73
     9
 74
     0
 42
0.000000001
 43
0.0000000001
 40
0.0
 40
0.0
 40
0.0
 40
0.0
 40
0.0
 40
0.0
 40
0.7662524491829485
 40
0.7662524491829485
 40
0.7662524491829485
 40
0.7714139026753477
 40
0.7714139026753477
 40
0.7714139026753477
 40
0.7714139026753477
 40
0.7714139026753477
 40
0.7714139026753477
 10
72.80254940505416
 20
3.591475593479401
 30
0.0
 10
72.83171455470437
 20
3.567315954156838
 30
0.0
 10
72.88633478906056
 20
3.540635765957147
 30
0.0
 10
72.95444948405702
 20
3.511211740953881
 30
0.0
 10
73.02590352970288
 20
3.47939058704668
 30
0.0
 10
73.10014635762875
 20
3.443982855210236
 30
0.0
 10
73.10064323318465
 20
3.443745784872985
 30
0.0
 10
73.10114023180791
 20
3.443508553700012
 30
0.0
 10
73.10163735285802
 20
3.443271161522146
 30
0.0
  0
SPLINE
  5
20F21
330
1F
100
AcDbEntity
  8
SK3
100
AcDbSpline
210
0.0
220
0.0
230
1.0
 70
     8
 71
     5
 72
    27
 73
    21
 74
     0
 42
0.000000001
 43
0.0000000001
 40
0.0
 40
0.0
 40
0.0
 40
0.0
 40
0.0
 40
0.0
 40
0.9580991268960168
 40
0.9580991268960168
 40
0.9580991268960168
 40
1.914228012087041
 40
1.914228012087041
 40
1.914228012087041
 40
2.766514003299048
 40
2.766514003299048
 40
2.766514003299048
 40
4.653230551571378
 40
4.653230551571378
 40
4.653230551571378
 40
8.167468762215777
 40
8.167468762215777
 40
8.167468762215777
 40
8.752585456730678
 40
8.752585456730678
 40
8.752585456730678
 40
8.752585456730678
 40
8.752585456730678
 40
8.752585456730678
 10
76.17764902890917
 20
2.387218835200115
 30
0.0
 10
76.22037945758211
 20
2.405363065352588
 30
0.0
 10
76.25455730274826
 20
2.427331323214076
 30
0.0
 10
76.27852678119506
 20
2.454727871283211
 30
0.0
 10
76.28439745034644
 20
2.522701697369853
 30
0.0
 10
76.18934369243834
 20
2.616543068055589
 30
0.0
 10
76.11218656996062
 20
2.668057749960013
 30
0.0
 10
75.94707100451294
 20
2.762457996936575
 30
0.0
 10
75.7596373215963
 20
2.852492783900828
 30
0.0
 10
75.67281743902708
 20
2.892356436016568
 30
0.0
 10
75.38307744939584
 20
3.021218227884586
 30
0.0
 10
75.09398801754469
 20
3.139646201740276
 30
0.0
 10
74.89575746503738
 20
3.219087893456503
 30
0.0
 10
74.355943866497
 20
3.428675499026013
 30
0.0
 10
73.86651415972117
 20
3.596252139524806
 30
0.0
 10
73.57762406019287
 20
3.681081715553203
 30
0.0
 10
73.27102792234723
 20
3.743933401370213
 30
0.0
 10
73.03487692729048
 20
3.735478165972522
 30
0.0
 10
73.00267980905847
 20
3.732713756723311
 30
0.0
 10
72.97222156131944
 20
3.728283815999333
 30
0.0
 10
72.94365765467252
 20
3.722047662025318
 30
0.0
  0
SPLINE
  5
20F22
330
1F
100
AcDbEntity
  8
SK3
100
AcDbSpline
210
0.0
220
0.0
230
1.0
 70
     8
 71
     5
 72
    15
 73
     9
 74
     0
 42
0.000000001
 43
0.0000000001
 40
0.0
 40
0.0
 40
0.0
 40
0.0
 40
0.0
 40
0.0
 40
1.804627103395412
 40
1.804627103395412
 40
1.804627103395412
 40
3.692296137035983
 40
3.692296137035983
 40
3.692296137035983
 40
3.692296137035983
 40
3.692296137035983
 40
3.692296137035983
 10
76.09553124758372
 20
2.360281866539734
 30
0.0
 10
75.99648740018756
 20
2.334872391892048
 30
0.0
 10
75.87603617415061
 20
2.320208917495931
 30
0.0
 10
75.74979619624423
 20
2.312544016991495
 30
0.0
 10
75.46624115416375
 20
2.309800063678295
 30
0.0
 10
75.15462815336376
 20
2.333628126752131
 30
0.0
 10
74.99112370678948
 20
2.352410521369989
 30
0.0
 10
74.82087453585041
 20
2.378681046231803
 30
0.0
 10
74.6459194271399
 20
2.41346723903942
 30
0.0
  0
ARC
  5
20F23
330
1F
100
AcDbEntity
  8
SK3
100
AcDbCircle
 10
74.79851499999995
 20
3.145098999999986
 30
0.0
 40
0.747486
100
AcDbArc
 50
241.0852469999963
 51
258.2187630000021
  0
ELLIPSE
  5
20F24
330
1F
100
AcDbEntity
  8
SK3
100
AcDbEllipse
 10
74.43499300000008
 20
-2.308841999999998
 30
0.0
 11
-0.314200399299223
 21
-0.9493566816951339
 31
0.0
210
0.0
220
0.0
230
1.0
 40
0.413454
 41
3.489114944880573
 42
5.935650084816452
  0
ELLIPSE
  5
20F25
330
1F
100
AcDbEntity
  8
SK3
100
AcDbEllipse
 10
74.43499300000008
 20
-2.308841999999998
 30
0.0
 11
0.3142003992979108
 21
0.9493566816961019
 31
0.0
210
0.0
220
0.0
230
1.0
 40
0.413454
 41
3.141647430210732
 42
6.202613044396628
  0
ARC
  5
20F26
330
1F
100
AcDbEntity
  8
SK3
100
AcDbCircle
 10
75.0833029999999
 20
-2.523406999999989
 30
0.0
 40
1.25
100
AcDbArc
 50
71.68874800000323
 51
112.9082669999973
  0
LINE
  5
20F27
330
1F
100
AcDbEntity
  8
SK3
100
AcDbLine
 10
75.47602699999993
 20
-1.336702999999997
 30
0.0
 11
77.14482299999986
 21
-1.889010000000013
 31
0.0
  0
ARC
  5
20F28
330
1F
100
AcDbEntity
  8
SK3
100
AcDbCircle
 10
75.0833029999999
 20
-2.523406999999989
 30
0.0
 40
1.25
100
AcDbArc
 50
210.4663280000024
 51
240.643237999996
  0
LINE
  5
20F29
330
1F
100
AcDbEntity
  8
SK3
100
AcDbLine
 10
74.69055200000003
 20
-3.710103000000001
 30
0.0
 11
74.91190099999993
 21
-3.783361000000013
 31
0.0
  0
ARC
  5
20F2A
330
1F
100
AcDbEntity
  8
SK3
100
AcDbCircle
 10
75.08331299999986
 20
-2.523386000000015
 30
0.0
 40
1.250022999999998
100
AcDbArc
 50
240.643333000003
 51
251.6873280000002
  0
SPLINE
  5
20F2B
330
1F
100
AcDbEntity
  8
SK3
100
AcDbSpline
210
0.0
220
0.0
230
1.0
 70
     8
 71
     5
 72
    15
 73
     9
 74
     0
 42
0.000000001
 43
0.0000000001
 40
0.0
 40
0.0
 40
0.0
 40
0.0
 40
0.0
 40
0.0
 40
1.103895049097687
 40
1.103895049097687
 40
1.103895049097687
 40
1.21317739088205
 40
1.21317739088205
 40
1.21317739088205
 40
1.21317739088205
 40
1.21317739088205
 40
1.21317739088205
 10
74.92674616169961
 20
-3.315208391914779
 30
0.0
 10
74.87640950101582
 20
-3.407593249621498
 30
0.0
 10
74.83840460855458
 20
-3.495710638812198
 30
0.0
 10
74.81486482300191
 20
-3.576515671698841
 30
0.0
 10
74.80884212733349
 20
-3.649296485132736
 30
0.0
 10
74.82424719617075
 20
-3.699610004918156
 30
0.0
 10
74.82580926829951
 20
-3.703957901919721
 30
0.0
 10
74.8275436964202
 20
-3.708113806567126
 30
0.0
 10
74.82945020664283
 20
-3.712076573126353
 30
0.0
  0
ARC
  5
20F2C
330
1F
100
AcDbEntity
  8
SK3
100
AcDbCircle
 10
74.95148199999992
 20
-3.654044000000026
 30
0.0
 40
0.135155
100
AcDbArc
 50
205.4334650000015
 51
252.9818039999947
  0
SPLINE
  5
20F2D
330
1F
100
AcDbEntity
  8
SK3
100
AcDbSpline
210
0.0
220
0.0
230
1.0
 70
     8
 71
     5
 72
    24
 73
    18
 74
     0
 42
0.000000001
 43
0.0000000001
 40
0.0
 40
0.0
 40
0.0
 40
0.0
 40
0.0
 40
0.0
 40
1.250445071417332
 40
1.250445071417332
 40
1.250445071417332
 40
1.973602987059764
 40
1.973602987059764
 40
1.973602987059764
 40
3.571153299823083
 40
3.571153299823083
 40
3.571153299823083
 40
5.885435047926835
 40
5.885435047926835
 40
5.885435047926835
 40
7.366038267465702
 40
7.366038267465702
 40
7.366038267465702
 40
7.366038267465702
 40
7.366038267465702
 40
7.366038267465702
 10
77.14482330256647
 20
-1.88900970417859
 30
0.0
 10
77.19057027541499
 20
-1.904148356586714
 30
0.0
 10
77.22033958175916
 20
-1.93232994177586
 30
0.0
 10
77.22877746418794
 20
-1.976665214228063
 30
0.0
 10
77.1909067971003
 20
-2.079524261063566
 30
0.0
 10
77.0903460184229
 20
-2.215663929370832
 30
0.0
 10
77.04642367899919
 20
-2.268730340208406
 30
0.0
 10
76.88883878709043
 20
-2.445492979088582
 30
0.0
 10
76.69339750877452
 20
-2.633020781490897
 30
0.0
 10
76.5556585283432
 20
-2.758822228898365
 30
0.0
 10
76.2164470604198
 20
-3.057147485758576
 30
0.0
 10
75.88628705585893
 20
-3.320528028391862
 30
0.0
 10
75.69955613025422
 20
-3.459687603534206
 30
0.0
 10
75.41405115636212
 20
-3.649617814818071
 30
0.0
 10
75.17346264400932
 20
-3.759012932841498
 30
0.0
 10
75.08779370487538
 20
-3.787487284799423
 30
0.0
 10
75.01214309056763
 20
-3.799331065781813
 30
0.0
 10
74.95005329303855
 20
-3.791716226352575
 30
0.0
  0
LINE
  5
20F2E
330
1F
100
AcDbEntity
  8
SK3
100
AcDbLine
 10
74.91190099999993
 20
-3.783361000000013
 30
0.0
 11
74.95005300000002
 21
-3.791716000000008
 31
0.0
  0
SPLINE
  5
20F2F
330
1F
100
AcDbEntity
  8
SK3
100
AcDbSpline
210
0.0
220
0.0
230
1.0
 70
     8
 71
     5
 72
    15
 73
     9
 74
     0
 42
0.000000001
 43
0.0000000001
 40
0.0
 40
0.0
 40
0.0
 40
0.0
 40
0.0
 40
0.0
 40
1.492302508831675
 40
1.492302508831675
 40
1.492302508831675
 40
1.873537056710734
 40
1.873537056710734
 40
1.873537056710734
 40
1.873537056710734
 40
1.873537056710734
 40
1.873537056710734
 10
74.92674616168709
 20
-3.315208391937431
 30
0.0
 10
74.99612082926592
 20
-3.187882329658321
 30
0.0
 10
75.10701756077653
 20
-3.059359948452423
 30
0.0
 10
75.21275834572134
 20
-2.939966052154233
 30
0.0
 10
75.36274652574594
 20
-2.773480639734001
 30
0.0
 10
75.52068024377786
 20
-2.621770812811517
 30
0.0
 10
75.55318827985615
 20
-2.591712157031877
 30
0.0
 10
75.58606560731141
 20
-2.562808086881318
 30
0.0
 10
75.61938318872353
 20
-2.535487011739377
 30
0.0
  0
SPLINE
  5
20F30
330
1F
100
AcDbEntity
  8
SK3
100
AcDbSpline
210
0.0
220
0.0
230
1.0
 70
     8
 71
     5
 72
    15
 73
     9
 74
     0
 42
0.000000001
 43
0.0000000001
 40
0.0
 40
0.0
 40
0.0
 40
0.0
 40
0.0
 40
0.0
 40
2.580335822724419
 40
2.580335822724419
 40
2.580335822724419
 40
3.795271563705814
 40
3.795271563705814
 40
3.795271563705814
 40
3.795271563705814
 40
3.795271563705814
 40
3.795271563705814
 10
77.10548668364208
 20
-1.880262364803313
 30
0.0
 10
76.99213357425492
 20
-1.864887436976147
 30
0.0
 10
76.82100531353056
 20
-1.89908822240781
 30
0.0
 10
76.63379182614244
 20
-1.958448765451264
 30
0.0
 10
76.32940275927217
 20
-2.085131217743565
 30
0.0
 10
76.00306883663006
 20
-2.270039018858056
 30
0.0
 10
75.89673021752151
 20
-2.335518270451075
 30
0.0
 10
75.78973212375013
 20
-2.407315803754158
 30
0.0
 10
75.68303766242684
 20
-2.48589834565652
 30
0.0
  0
ELLIPSE
  5
20F31
330
1F
100
AcDbEntity
  8
1
100
AcDbEllipse
 10
81.97110900000007
 20
-9.329283000000003
 30
0.0
 11
0.0000000000000006
 21
10.35000038146972
 31
0.0
210
0.0
220
0.0
230
1.0
 40
0.9781479999999998
 41
6.138535891512841
 42
6.186547901315456
  0
LINE
  5
20F32
330
1F
100
AcDbEntity
  8
1
100
AcDbLine
 10
83.43041300000004
 20
0.9126269999999864
 30
0.0
 11
83.61576300000001
 21
0.8834940000000131
 31
0.0
  0
ELLIPSE
  5
20F33
330
1F
100
AcDbEntity
  8
1
100
AcDbEllipse
 10
84.35742399999979
 20
-0.1032480000000078
 30
0.0
 11
1.180990695953369
 21
-0.8886139392852784
 31
0.0
210
0.0
220
0.0
230
1.0
 40
0.388365
 41
1.342877149084233
 42
2.502090983580008
  0
LINE
  5
20F34
330
1F
100
AcDbEntity
  8
1
100
AcDbLine
 10
73.65130099999987
 20
-9.584970999999995
 30
0.0
 11
73.31115599999998
 21
-9.260867999999987
 31
0.0
  0
ARC
  5
20F35
330
1F
100
AcDbEntity
  8
1
100
AcDbCircle
 10
74.74252799999998
 20
-8.430855000000008
 30
0.0
 40
1.588367
100
AcDbArc
 50
226.6043590000026
 51
236.025447000003
  0
ARC
  5
20F36
330
1F
100
AcDbEntity
  8
1
100
AcDbCircle
 10
74.22015999999985
 20
-8.906306999999998
 30
0.0
 40
0.9168459999999999
100
AcDbArc
 50
246.5427919999957
 51
266.8210759999967
  0
LINE
  5
20F37
330
1F
100
AcDbEntity
  8
1
100
AcDbLine
 10
74.82221600000002
 20
-9.825277999999997
 30
0.0
 11
74.16937200000006
 21
-9.820761000000002
 31
0.0
  0
LINE
  5
20F38
330
1F
100
AcDbEntity
  8
1
100
AcDbLine
 10
73.76289999999993
 20
-9.175531000000006
 30
0.0
 11
74.24434300000007
 21
-9.178862000000007
 31
0.0
  0
ELLIPSE
  5
20F39
330
1F
100
AcDbEntity
  8
1
100
AcDbEllipse
 10
74.30726099999994
 20
0.3244889999999998
 30
0.0
 11
0.0000000000000006
 21
9.503568649291992
 31
0.0
210
0.0
220
0.0
230
1.0
 40
0.9781479999999998
 41
3.134824248830606
 42
4.581103040666452
  0
SPLINE
  5
20F3A
330
1F
100
AcDbEntity
  8
1
100
AcDbSpline
210
0.0
220
0.0
230
1.0
 70
     8
 71
     5
 72
    48
 73
    42
 74
     0
 42
0.000000001
 43
0.0000000001
 40
0.0
 40
0.0
 40
0.0
 40
0.0
 40
0.0
 40
0.0
 40
4.877303541983644
 40
4.877303541983644
 40
4.877303541983644
 40
9.760959839938086
 40
9.760959839938086
 40
9.760959839938086
 40
10.98220273522394
 40
10.98220273522394
 40
10.98220273522394
 40
12.20344563050978
 40
12.20344563050978
 40
12.20344563050978
 40
14.64685320006729
 40
14.64685320006729
 40
14.64685320006729
 40
15.86951817665904
 40
15.86951817665904
 40
15.86951817665904
 40
17.09099000268482
 40
17.09099000268482
 40
17.09099000268482
 40
18.31400009479234
 40
18.31400009479234
 40
18.31400009479234
 40
19.53701018689985
 40
19.53701018689985
 40
19.53701018689985
 40
20.76076497365437
 40
20.76076497365437
 40
20.76076497365437
 40
21.98451976040888
 40
21.98451976040888
 40
21.98451976040888
 40
23.17803663054203
 40
23.17803663054203
 40
23.17803663054203
 40
24.37155350067517
 40
24.37155350067517
 40
24.37155350067517
 40
24.37155350067517
 40
24.37155350067517
 40
24.37155350067517
 10
84.90261015131521
 20
-1.391720211927149
 30
0.0
 10
84.82369819269662
 20
-1.950732868240663
 30
0.0
 10
84.70397504962852
 20
-2.504259646023911
 30
0.0
 10
84.54572059888937
 20
-3.047989373932296
 30
0.0
 10
84.15090185102419
 20
-4.109080641411877
 30
0.0
 10
83.60741642912627
 20
-5.102144581807237
 30
0.0
 10
83.29986419066631
 20
-5.578499392746863
 30
0.0
 10
82.87338756781105
 20
-6.144216236095418
 30
0.0
 10
82.39856066308721
 20
-6.667945872514707
 30
0.0
 10
82.30164564213394
 20
-6.771024183247702
 30
0.0
 10
82.10418690564893
 20
-6.97355680663415
 30
0.0
 10
81.89951394409082
 20
-7.168815216814523
 30
0.0
 10
81.79509085545555
 20
-7.264879895533937
 30
0.0
 10
81.47756580692769
 20
-7.546535852610674
 30
0.0
 10
81.14512888138916
 20
-7.810634764888277
 30
0.0
 10
80.91683223659698
 20
-7.978935728423945
 30
0.0
 10
80.56520486616362
 20
-8.218970082182721
 30
0.0
 10
80.201348357921
 20
-8.439482395772927
 30
0.0
 10
80.07865963507697
 20
-8.510841392553032
 30
0.0
 10
79.83104477575079
 20
-8.648953076374766
 30
0.0
 10
79.57866970604164
 20
-8.778053143048705
 30
0.0
 10
79.45136569266719
 20
-8.840317655173976
 30
0.0
 10
79.19443484369458
 20
-8.96033222030843
 30
0.0
 10
78.93281664323126
 20
-9.071297587605442
 30
0.0
 10
78.80094680993646
 20
-9.124458581888516
 30
0.0
 10
78.53523322563273
 20
-9.226087718506786
 30
0.0
 10
78.26598086815625
 20
-9.318186559821953
 30
0.0
 10
78.13050913158531
 20
-9.361840154314904
 30
0.0
 10
77.85816320042636
 20
-9.444279774477307
 30
0.0
 10
77.58314492057071
 20
-9.516978215172033
 30
0.0
 10
77.44474112026319
 20
-9.550952443889967
 30
0.0
 10
77.16713410571468
 20
-9.613911187554831
 30
0.0
 10
76.88743555792711
 20
-9.667054047344036
 30
0.0
 10
76.74700217601913
 20
-9.691186680698193
 30
0.0
 10
76.46891151102386
 20
-9.733963425576432
 30
0.0
 10
76.18945217278518
 20
-9.767118826357854
 30
0.0
 10
76.05118098812522
 20
-9.781144895106734
 30
0.0
 10
75.77406095444917
 20
-9.804516317657316
 30
0.0
 10
75.49603811043358
 20
-9.818523929911322
 30
0.0
 10
75.35683965323094
 20
-9.823185809919236
 30
0.0
 10
75.21766687388755
 20
-9.825509964332836
 30
0.0
 10
75.07850482256458
 20
-9.825510599485994
 30
0.0
  0
ARC
  5
20F3B
330
1F
100
AcDbEntity
  8
1
100
AcDbCircle
 10
75.29708899999993
 20
-0.0467849999999999
 30
0.0
 40
9.699198
100
AcDbArc
 50
352.0294370000012
 51
359.3903039999998
  0
ARC
  5
20F3C
330
1F
100
AcDbEntity
  8
1
100
AcDbCircle
 10
79.40355299999987
 20
-0.039355999999998
 30
0.0
 40
5.400737
100
AcDbArc
 50
355.8053830000002
 51
358.8261600000005
  0
LINE
  5
20F3D
330
1F
100
AcDbEntity
  8
1
100
AcDbLine
 10
74.82221600000002
 20
-9.825277999999997
 30
0.0
 11
74.889768
 21
-9.825511000000004
 31
0.0
  0
ELLIPSE
  5
20F3E
330
1F
100
AcDbEntity
  8
1
100
AcDbEllipse
 10
74.88941399999998
 20
0.3244889999999998
 30
0.0
 11
-0.0000000033541179
 21
-10.14999961853027
 31
0.0
210
0.0
220
0.0
230
1.0
 40
0.9781479999999998
 41
0.0000357336148581
 42
1.495960081545836
  0
ARC
  5
20F3F
330
1F
100
AcDbEntity
  8
1
100
AcDbCircle
 10
83.87461600000007
 20
-0.1367620000000045
 30
0.0
 40
1.121229999999999
100
AcDbArc
 50
359.3237590000009
 51
14.43614299999984
  0
LINE
  5
20F40
330
1F
100
AcDbEntity
  8
1
100
AcDbLine
 10
83.10906399999998
 20
-0.1251670000000047
 30
0.0
 11
83.15699700000005
 21
0.1021770000000117
 31
0.0
  0
SPLINE
  5
20F41
330
1F
100
AcDbEntity
  8
1
100
AcDbSpline
210
0.0
220
0.0
230
1.0
 70
     8
 71
     5
 72
    18
 73
    12
 74
     0
 42
0.000000001
 43
0.0000000001
 40
0.0
 40
0.0
 40
0.0
 40
0.0
 40
0.0
 40
0.0
 40
0.4404753524769422
 40
0.4404753524769422
 40
0.4404753524769422
 40
0.6856968871956567
 40
0.6856968871956567
 40
0.6856968871956567
 40
0.8444649636942518
 40
0.8444649636942518
 40
0.8444649636942518
 40
0.8444649636942518
 40
0.8444649636942518
 40
0.8444649636942518
 10
82.8790171355606
 20
0.5729443513237698
 30
0.0
 10
82.93657953158231
 20
0.5394333523636306
 30
0.0
 10
82.99055920820071
 20
0.5023692729199924
 30
0.0
 10
83.04000996509467
 20
0.4609411203481672
 30
0.0
 10
83.10483493164316
 20
0.3891826741394197
 30
0.0
 10
83.1447704308257
 20
0.3064029927361673
 30
0.0
 10
83.15540033891579
 20
0.275474678804585
 30
0.0
 10
83.16627573204778
 20
0.2227204816462063
 30
0.0
 10
83.16638531863191
 20
0.1679467947932665
 30
0.0
 10
83.16476080086294
 20
0.1460088147969429
 30
0.0
 10
83.16159014248388
 20
0.1241270598987398
 30
0.0
 10
83.15699726531851
 20
0.1021770533554331
 30
0.0
  0
ARC
  5
20F42
330
1F
100
AcDbEntity
  8
1
100
AcDbCircle
 10
81.70244899999991
 20
-9.953010000000006
 30
0.0
 40
10.975173
100
AcDbArc
 50
81.89836800000263
 51
83.52078499999716
  0
LINE
  5
20F43
330
1F
100
AcDbEntity
  8
1
100
AcDbLine
 10
83.24917400000002
 20
0.9126269999999864
 30
0.0
 11
83.44161499999996
 21
0.8834940000000131
 31
0.0
  0
ARC
  5
20F44
330
1F
100
AcDbEntity
  8
1
100
AcDbCircle
 10
83.28605700000002
 20
-0.1005729999999971
 30
0.0
 40
0.9962419999999999
100
AcDbArc
 50
61.7069249999953
 51
81.01720799999837
  0
ARC
  5
20F45
330
1F
100
AcDbEntity
  8
1
100
AcDbCircle
 10
61.41666599999985
 20
3.177987999999998
 30
0.0
 40
22.470331
100
AcDbArc
 50
350.8712520000011
 51
353.8651490000002
  0
ARC
  5
20F46
330
1F
100
AcDbEntity
  8
1
100
AcDbCircle
 10
104.3317579999998
 20
-3.786265000000013
 30
0.0
 40
21.005138
100
AcDbArc
 50
170.6873629999989
 51
172.156292000001
  0
ELLIPSE
  5
20F47
330
1F
100
AcDbEntity
  8
1
100
AcDbEllipse
 10
82.92586800000005
 20
-0.1032480000000078
 30
0.0
 11
1.877210617065426
 21
-0.0500297546386719
 31
0.0
210
0.0
220
0.0
230
0.9999999999999998
 40
0.532038
 41
0.0032863994039457
 42
1.125626562286367
  0
LINE
  5
20F48
330
1F
100
AcDbEntity
  8
1
100
AcDbLine
 10
74.889768
 20
-9.825511000000004
 30
0.0
 11
75.07850499999995
 21
-9.825511000000004
 31
0.0
  0
ELLIPSE
  5
20F49
330
1F
100
AcDbEntity
  8
1
100
AcDbEllipse
 10
81.97110900000007
 20
-9.329283000000003
 30
0.0
 11
0.0000000000000006
 21
10.35000038146972
 31
0.0
210
0.0
220
0.0
230
1.0
 40
0.9781479999999998
 41
6.138535891512841
 42
6.186547880023941
  0
LINE
  5
20F4A
330
1F
100
AcDbEntity
  8
1
100
AcDbLine
 10
83.43041300000004
 20
0.9126269999999864
 30
0.0
 11
83.61576300000001
 21
0.8834940000000131
 31
0.0
  0
ELLIPSE
  5
20F4B
330
1F
100
AcDbEntity
  8
1
100
AcDbEllipse
 10
84.35742399999979
 20
-0.1032480000000078
 30
0.0
 11
1.180990695953369
 21
-0.8886139392852784
 31
0.0
210
0.0
220
0.0
230
1.0
 40
0.388365
 41
1.342877149067905
 42
2.502090983579688
  0
LINE
  5
20F4C
330
1F
100
AcDbEntity
  8
1
100
AcDbLine
 10
73.65130099999987
 20
-9.584970999999995
 30
0.0
 11
73.31115599999998
 21
-9.260867999999987
 31
0.0
  0
ARC
  5
20F4D
330
1F
100
AcDbEntity
  8
1
100
AcDbCircle
 10
74.74252799999998
 20
-8.430855000000008
 30
0.0
 40
1.588367
100
AcDbArc
 50
226.6043590000026
 51
236.025447000003
  0
ARC
  5
20F4E
330
1F
100
AcDbEntity
  8
1
100
AcDbCircle
 10
74.22015999999985
 20
-8.906306999999998
 30
0.0
 40
0.9168459999999999
100
AcDbArc
 50
246.5427919999957
 51
266.8210759999967
  0
LINE
  5
20F4F
330
1F
100
AcDbEntity
  8
1
100
AcDbLine
 10
74.82221600000002
 20
-9.825277999999997
 30
0.0
 11
74.16937200000006
 21
-9.820761000000002
 31
0.0
  0
LINE
  5
20F50
330
1F
100
AcDbEntity
  8
1
100
AcDbLine
 10
73.76289999999993
 20
-9.175531000000006
 30
0.0
 11
74.24434300000007
 21
-9.178862000000007
 31
0.0
  0
ELLIPSE
  5
20F51
330
1F
100
AcDbEntity
  8
1
100
AcDbEllipse
 10
74.30726099999994
 20
0.3244889999999998
 30
0.0
 11
0.0000000000000006
 21
9.503568649291992
 31
0.0
210
0.0
220
0.0
230
1.0
 40
0.9781479999999998
 41
3.134824248830606
 42
4.581103040666452
  0
SPLINE
  5
20F52
330
1F
100
AcDbEntity
  8
1
100
AcDbSpline
210
0.0
220
0.0
230
1.0
 70
     8
 71
     5
 72
    48
 73
    42
 74
     0
 42
0.000000001
 43
0.0000000001
 40
0.0
 40
0.0
 40
0.0
 40
0.0
 40
0.0
 40
0.0
 40
4.877303542080656
 40
4.877303542080656
 40
4.877303542080656
 40
9.760959840034537
 40
9.760959840034537
 40
9.760959840034537
 40
10.98220273532038
 40
10.98220273532038
 40
10.98220273532038
 40
12.20344563060623
 40
12.20344563060623
 40
12.20344563060623
 40
14.64685320015999
 40
14.64685320015999
 40
14.64685320015999
 40
15.86951817675176
 40
15.86951817675176
 40
15.86951817675176
 40
17.09099000284259
 40
17.09099000284259
 40
17.09099000284259
 40
18.31400009495011
 40
18.31400009495011
 40
18.31400009495011
 40
19.53701018705762
 40
19.53701018705762
 40
19.53701018705762
 40
20.76076497381214
 40
20.76076497381214
 40
20.76076497381214
 40
21.98451976056666
 40
21.98451976056666
 40
21.98451976056666
 40
23.1780366306998
 40
23.1780366306998
 40
23.1780366306998
 40
24.37155350083294
 40
24.37155350083294
 40
24.37155350083294
 40
24.37155350083294
 40
24.37155350083294
 40
24.37155350083294
 10
84.90261015131521
 20
-1.391720211927149
 30
0.0
 10
84.82369819269502
 20
-1.950732868251805
 30
0.0
 10
84.70397504962102
 20
-2.504259646044602
 30
0.0
 10
84.54572059889597
 20
-3.047989373908563
 30
0.0
 10
84.15090185103077
 20
-4.109080641404601
 30
0.0
 10
83.60741642912513
 20
-5.102144581804451
 30
0.0
 10
83.29986419066768
 20
-5.57849939274962
 30
0.0
 10
82.87338756781059
 20
-6.14421623609482
 30
0.0
 10
82.39856066308721
 20
-6.667945872514847
 30
0.0
 10
82.30164564213419
 20
-6.771024183247561
 30
0.0
 10
82.10418690564869
 20
-6.973556806634262
 30
0.0
 10
81.89951394409105
 20
-7.168815216814405
 30
0.0
 10
81.79509085545578
 20
-7.264879895533822
 30
0.0
 10
81.47756580692794
 20
-7.546535852610642
 30
0.0
 10
81.14512888138985
 20
-7.810634764887254
 30
0.0
 10
80.91683223659652
 20
-7.978935728424603
 30
0.0
 10
80.56520486616319
 20
-8.218970082182861
 30
0.0
 10
80.201348357921
 20
-8.439482395772955
 30
0.0
 10
80.07865963507697
 20
-8.510841392553061
 30
0.0
 10
79.83104477574444
 20
-8.648953076378404
 30
0.0
 10
79.578669706028
 20
-8.778053143055615
 30
0.0
 10
79.45136569268061
 20
-8.840317655167776
 30
0.0
 10
79.19443484370141
 20
-8.960332220305302
 30
0.0
 10
78.93281664323104
 20
-9.07129758760564
 30
0.0
 10
78.80094680993646
 20
-9.124458581888546
 30
0.0
 10
78.53523322563273
 20
-9.226087718506786
 30
0.0
 10
78.26598086815625
 20
-9.318186559821953
 30
0.0
 10
78.13050913158531
 20
-9.361840154314931
 30
0.0
 10
77.8581632004266
 20
-9.444279774477307
 30
0.0
 10
77.58314492057047
 20
-9.516978215172061
 30
0.0
 10
77.44474112026319
 20
-9.550952443889796
 30
0.0
 10
77.16713410571468
 20
-9.613911187555004
 30
0.0
 10
76.88743555792711
 20
-9.667054047343862
 30
0.0
 10
76.74700217601913
 20
-9.691186680698193
 30
0.0
 10
76.46891151102362
 20
-9.733963425576432
 30
0.0
 10
76.18945217278518
 20
-9.767118826357854
 30
0.0
 10
76.05118098812522
 20
-9.781144895106905
 30
0.0
 10
75.77406095444917
 20
-9.804516317657146
 30
0.0
 10
75.4960381104338
 20
-9.818523929911492
 30
0.0
 10
75.35683965323094
 20
-9.823185809919236
 30
0.0
 10
75.21766687388755
 20
-9.825509964332836
 30
0.0
 10
75.07850482256458
 20
-9.825510599485994
 30
0.0
  0
ARC
  5
20F53
330
1F
100
AcDbEntity
  8
1
100
AcDbCircle
 10
75.29708899999993
 20
-0.0467849999999999
 30
0.0
 40
9.699198
100
AcDbArc
 50
352.0294370000012
 51
359.3903039999998
  0
ARC
  5
20F54
330
1F
100
AcDbEntity
  8
1
100
AcDbCircle
 10
79.40355299999987
 20
-0.039355999999998
 30
0.0
 40
5.400737
100
AcDbArc
 50
355.8053830000002
 51
358.8261600000005
  0
LINE
  5
20F55
330
1F
100
AcDbEntity
  8
1
100
AcDbLine
 10
74.82221600000002
 20
-9.825277999999997
 30
0.0
 11
74.889768
 21
-9.825511000000004
 31
0.0
  0
ELLIPSE
  5
20F56
330
1F
100
AcDbEntity
  8
1
100
AcDbEllipse
 10
74.88941399999998
 20
0.3244889999999998
 30
0.0
 11
-0.0000000033949468
 21
-10.14999961853027
 31
0.0
210
0.0
220
0.0
230
1.0
 40
0.9781479999999998
 41
0.0000357336187585
 42
1.49596008154998
  0
ARC
  5
20F57
330
1F
100
AcDbEntity
  8
1
100
AcDbCircle
 10
83.87461600000007
 20
-0.1367620000000045
 30
0.0
 40
1.121229999999999
100
AcDbArc
 50
359.3237590000009
 51
14.43614299999984
  0
LINE
  5
20F58
330
1F
100
AcDbEntity
  8
1
100
AcDbLine
 10
83.10906399999998
 20
-0.1251670000000047
 30
0.0
 11
83.15699700000005
 21
0.1021770000000117
 31
0.0
  0
SPLINE
  5
20F59
330
1F
100
AcDbEntity
  8
1
100
AcDbSpline
210
0.0
220
0.0
230
1.0
 70
     8
 71
     5
 72
    18
 73
    12
 74
     0
 42
0.000000001
 43
0.0000000001
 40
0.0
 40
0.0
 40
0.0
 40
0.0
 40
0.0
 40
0.0
 40
0.4404753524779157
 40
0.4404753524779157
 40
0.4404753524779157
 40
0.6856968871967472
 40
0.6856968871967472
 40
0.6856968871967472
 40
0.8444649636953458
 40
0.8444649636953458
 40
0.8444649636953458
 40
0.8444649636953458
 40
0.8444649636953458
 40
0.8444649636953458
 10
82.8790171355606
 20
0.5729443513238266
 30
0.0
 10
82.93657953158255
 20
0.5394333523636023
 30
0.0
 10
82.99055920820093
 20
0.5023692729198502
 30
0.0
 10
83.04000996509442
 20
0.460941120348423
 30
0.0
 10
83.10483493164316
 20
0.3891826741395334
 30
0.0
 10
83.14477043082595
 20
0.3064029927361673
 30
0.0
 10
83.15540033891579
 20
0.2754746788046418
 30
0.0
 10
83.16627573204778
 20
0.2227204816462347
 30
0.0
 10
83.16638531863191
 20
0.1679467947932949
 30
0.0
 10
83.16476080086294
 20
0.1460088147969714
 30
0.0
 10
83.16159014248388
 20
0.1241270598987683
 30
0.0
 10
83.15699726531851
 20
0.1021770533554616
 30
0.0
  0
ARC
  5
20F5A
330
1F
100
AcDbEntity
  8
1
100
AcDbCircle
 10
81.70244899999991
 20
-9.953010000000006
 30
0.0
 40
10.975173
100
AcDbArc
 50
81.89836800000263
 51
83.52078499999716
  0
LINE
  5
20F5B
330
1F
100
AcDbEntity
  8
1
100
AcDbLine
 10
83.24917400000002
 20
0.9126269999999864
 30
0.0
 11
83.44161499999996
 21
0.8834940000000131
 31
0.0
  0
ARC
  5
20F5C
330
1F
100
AcDbEntity
  8
1
100
AcDbCircle
 10
83.28605700000002
 20
-0.1005729999999971
 30
0.0
 40
0.9962419999999999
100
AcDbArc
 50
61.7069249999953
 51
81.01720799999837
  0
ARC
  5
20F5D
330
1F
100
AcDbEntity
  8
1
100
AcDbCircle
 10
61.41666599999985
 20
3.177987999999998
 30
0.0
 40
22.470331
100
AcDbArc
 50
350.8712520000011
 51
353.8651490000002
  0
ARC
  5
20F5E
330
1F
100
AcDbEntity
  8
1
100
AcDbCircle
 10
104.3317579999998
 20
-3.786265000000013
 30
0.0
 40
21.005138
100
AcDbArc
 50
170.6873629999989
 51
172.156292000001
  0
ELLIPSE
  5
20F5F
330
1F
100
AcDbEntity
  8
1
100
AcDbEllipse
 10
82.92586800000005
 20
-0.1032480000000078
 30
0.0
 11
1.877210617065426
 21
-0.0500297546386719
 31
0.0
210
0.0
220
0.0
230
0.9999999999999998
 40
0.532038
 41
0.0032863994036083
 42
1.125626562275495
  0
LINE
  5
20F60
330
1F
100
AcDbEntity
  8
1
100
AcDbLine
 10
74.889768
 20
-9.825511000000004
 30
0.0
 11
75.07850499999995
 21
-9.825511000000004
 31
0.0
  0
ELLIPSE
  5
20F61
330
1F
100
AcDbEntity
  8
1
100
AcDbEllipse
 10
77.29884700000003
 20
-4.168408999999996
 30
0.0
 11
-0.0000000000000002
 21
-1.200000047683715
 31
0.0
210
0.0
220
0.0
230
1.0
 40
0.9781479999999998
 41
0.1756553327706045
 42
6.45884063995019
  0
ELLIPSE
  5
20F62
330
1F
100
AcDbEntity
  8
1
100
AcDbEllipse
 10
77.36122099999987
 20
-4.168408999999996
 30
0.0
 11
-0.0000000000000003
 21
-1.5
 31
0.0
210
0.0
220
0.0
230
1.0
 40
0.9781479999999994
 41
0.0000941683768808
 42
3.141686821966676
  0
ELLIPSE
  5
20F63
330
1F
100
AcDbEntity
  8
1
100
AcDbEllipse
 10
77.36122099999987
 20
-4.168408999999996
 30
0.0
 11
-0.0000000000000003
 21
-1.5
 31
0.0
210
0.0
220
0.0
230
1.0
 40
0.9781479999999994
 41
3.317247986360396
 42
6.283279475556467
  0
ELLIPSE
  5
20F64
330
1F
100
AcDbEntity
  8
1
100
AcDbEllipse
 10
77.36122099999987
 20
-4.168408999999996
 30
0.0
 11
-0.0000000000000003
 21
-1.5
 31
0.0
210
0.0
220
0.0
230
1.0
 40
0.9781479999999994
 41
3.141686821966676
 42
3.317247986360396
  0
ELLIPSE
  5
20F65
330
1F
100
AcDbEntity
  8
1
100
AcDbEllipse
 10
70.76831700000003
 20
9.170718999999991
 30
0.0
 11
-0.6359809041023256
 21
-0.4260785579681398
 31
0.0
210
0.0
220
0.0
230
1.0
 40
0.4114010000000002
 41
3.707619740932048
 42
4.420800409093105
  0
LINE
  5
20F66
330
1F
100
AcDbEntity
  8
1
100
AcDbLine
 10
70.76182900000003
 20
9.514987999999988
 30
0.0
 11
70.78325500000005
 21
9.543803999999994
 31
0.0
  0
LINE
  5
20F67
330
1F
100
AcDbEntity
  8
1
100
AcDbLine
 10
70.76182900000003
 20
9.514987999999988
 30
0.0
 11
70.66834300000005
 21
9.378531000000007
 31
0.0
  0
LINE
  5
20F68
330
1F
100
AcDbEntity
  8
1
100
AcDbLine
 10
74.76268499999992
 20
9.726306999999991
 30
0.0
 11
71.21110499999986
 21
9.670659999999998
 31
0.0
  0
ELLIPSE
  5
20F69
330
1F
100
AcDbEntity
  8
1
100
AcDbEllipse
 10
74.917823
 20
-0.622478000000001
 30
0.0
 11
0.00000000000009
 21
-10.35000038146972
 31
0.0
210
0.0
220
0.0
230
1.0
 40
0.9781479999999998
 41
3.141556302146768
 42
3.156917281103182
  0
LINE
  5
20F6A
330
1F
100
AcDbEntity
  8
1
100
AcDbLine
 10
75.0
 20
9.726214999999996
 30
0.0
 11
75.00604199999997
 21
9.726306999999991
 31
0.0
  0
LINE
  5
20F6B
330
1F
100
AcDbEntity
  8
1
100
AcDbLine
 10
71.34111800000005
 20
9.670659999999998
 30
0.0
 11
75.0
 21
9.726214999999996
 31
0.0
  0
LINE
  5
20F6C
330
1F
100
AcDbEntity
  8
1
100
AcDbLine
 10
71.42436299999984
 20
7.596462999999999
 30
0.0
 11
70.71173199999998
 21
6.926783
 31
0.0
  0
ELLIPSE
  5
20F6D
330
1F
100
AcDbEntity
  8
1
100
AcDbEllipse
 10
71.29197299999987
 20
7.743707999999998
 30
0.0
 11
0.0000000000000017
 21
-0.2000000029802322
 31
0.0
210
0.0
220
0.0
230
1.0
 40
0.978148
 41
0.7433189118127219
 42
1.519992738334581
  0
ARC
  5
20F6E
330
1F
100
AcDbEntity
  8
1
100
AcDbCircle
 10
71.3437449999999
 20
7.73426599999999
 30
0.0
 40
0.143746
100
AcDbArc
 50
359.7149640000005
 51
21.63205600000198
  0
ELLIPSE
  5
20F6F
330
1F
100
AcDbEntity
  8
1
100
AcDbEllipse
 10
78.80950499999993
 20
11.087119
 30
0.0
 11
0.0000000000000405
 21
-9.503568649291992
 31
0.0
210
0.0
220
0.0
230
1.0
 40
0.9781479999999998
 41
0.3917870925617843
 42
0.4599764149222
  0
SPLINE
  5
20F70
330
1F
100
AcDbEntity
  8
1
100
AcDbSpline
210
0.0
220
0.0
230
1.0
 70
     8
 71
     5
 72
    27
 73
    21
 74
     0
 42
0.000000001
 43
0.0000000001
 40
0.0
 40
0.0
 40
0.0
 40
0.0
 40
0.0
 40
0.0
 40
0.6289711142785129
 40
0.6289711142785129
 40
0.6289711142785129
 40
1.080858897579477
 40
1.080858897579477
 40
1.080858897579477
 40
1.326191131766639
 40
1.326191131766639
 40
1.326191131766639
 40
1.578216176184159
 40
1.578216176184159
 40
1.578216176184159
 40
1.82463122918268
 40
1.82463122918268
 40
1.82463122918268
 40
2.056356691469434
 40
2.056356691469434
 40
2.056356691469434
 40
2.056356691469434
 40
2.056356691469434
 40
2.056356691469434
 10
71.07310260346685
 20
9.136614865226393
 30
0.0
 10
71.08730824445136
 20
9.044770282547972
 30
0.0
 10
71.10138486038795
 20
8.953746083202361
 30
0.0
 10
71.11800737235262
 20
8.861618516331816
 30
0.0
 10
71.1535382622112
 20
8.700316266827343
 30
0.0
 10
71.19730193413466
 20
8.544367510603905
 30
0.0
 10
71.2167909658433
 20
8.480568442212414
 30
0.0
 10
71.24778702270531
 20
8.385367637430846
 30
0.0
 10
71.27987018277782
 20
8.294304075899077
 30
0.0
 10
71.29127277003476
 20
8.262714099112656
 30
0.0
 10
71.31448503534284
 20
8.19974593757783
 30
0.0
 10
71.33784980254927
 20
8.138670426909696
 30
0.0
 10
71.34970489915122
 20
8.108168981976032
 30
0.0
 10
71.37310009294856
 20
8.048763105633042
 30
0.0
 10
71.39627002816563
 20
7.991091936885028
 30
0.0
 10
71.40757095909794
 20
7.963153418763964
 30
0.0
 10
71.42935893239473
 20
7.90948100489399
 30
0.0
 10
71.45021916649785
 20
7.857760199130408
 30
0.0
 10
71.45984216365673
 20
7.833637824442887
 30
0.0
 10
71.46922976865039
 20
7.809685514536056
 30
0.0
 10
71.47747273907111
 20
7.787299367788847
 30
0.0
  0
LINE
  5
20F71
330
1F
100
AcDbEntity
  8
1
100
AcDbLine
 10
71.01465099999995
 20
9.514987999999988
 30
0.0
 11
71.07310400000007
 21
9.136615000000006
 31
0.0
  0
LINE
  5
20F72
330
1F
100
AcDbEntity
  8
1
100
AcDbLine
 10
82.70739000000004
 20
3.103179000000011
 30
0.0
 11
82.73625199999992
 21
3.115995999999995
 31
0.0
  0
LINE
  5
20F73
330
1F
100
AcDbEntity
  8
1
100
AcDbLine
 10
82.73625199999992
 20
3.115995999999995
 30
0.0
 11
82.95829899999992
 21
3.214864000000004
 31
0.0
  0
LINE
  5
20F74
330
1F
100
AcDbEntity
  8
1
100
AcDbLine
 10
82.95829899999992
 20
3.214864000000004
 30
0.0
 11
83.52964099999985
 21
3.469246999999995
 31
0.0
  0
SPLINE
  5
20F75
330
1F
100
AcDbEntity
  8
1
100
AcDbSpline
210
0.0
220
0.0
230
1.0
 70
     8
 71
     5
 72
    18
 73
    12
 74
     0
 42
0.000000001
 43
0.0000000001
 40
0.0
 40
0.0
 40
0.0
 40
0.0
 40
0.0
 40
0.0
 40
0.865889397687361
 40
0.865889397687361
 40
0.865889397687361
 40
1.747161361040331
 40
1.747161361040331
 40
1.747161361040331
 40
2.131310990142436
 40
2.131310990142436
 40
2.131310990142436
 40
2.131310990142436
 40
2.131310990142436
 40
2.131310990142436
 10
83.49642447647466
 20
4.905401769720612
 30
0.0
 10
83.55441833488406
 20
4.800023223254186
 30
0.0
 10
83.6062430659715
 20
4.682338536518641
 30
0.0
 10
83.65336003755395
 20
4.55377861139584
 30
0.0
 10
83.73318242164556
 20
4.291740491595106
 30
0.0
 10
83.77300958731394
 20
4.022181368391557
 30
0.0
 10
83.78068002420514
 20
3.880115070412415
 30
0.0
 10
83.75542402695169
 20
3.692893581094607
 30
0.0
 10
83.65819079800553
 20
3.554881117025586
 30
0.0
 10
83.62153923288337
 20
3.519241184923173
 30
0.0
 10
83.57816744343381
 20
3.490826956822443
 30
0.0
 10
83.52964130040119
 20
3.469247475600068
 30
0.0
  0
ARC
  5
20F76
330
1F
100
AcDbEntity
  8
1
100
AcDbCircle
 10
75.66126299999995
 20
0.2537590000000023
 30
0.0
 40
9.291897999999999
100
AcDbArc
 50
22.75533899999986
 51
30.68372500000271
  0
LINE
  5
20F77
330
1F
100
AcDbEntity
  8
1
100
AcDbLine
 10
84.22989600000006
 20
3.847824000000001
 30
0.0
 11
84.30001300000006
 21
3.675597000000009
 31
0.0
  0
ARC
  5
20F78
330
1F
100
AcDbEntity
  8
1
100
AcDbCircle
 10
83.28036599999995
 20
3.273773000000004
 30
0.0
 40
1.096009
100
AcDbArc
 50
4.314037999999841
 51
21.50848699999876
  0
ARC
  5
20F79
330
1F
100
AcDbEntity
  8
1
100
AcDbCircle
 10
50.42581500000006
 20
63.20532199999997
 30
0.0
 40
68.806606
100
AcDbArc
 50
298.629235999999
 51
299.5626849999986
  0
ARC
  5
20F7A
330
1F
100
AcDbEntity
  8
1
100
AcDbCircle
 10
76.38420599999995
 20
15.65212500000001
 30
0.0
 40
14.629855
100
AcDbArc
 50
296.6053880000007
 51
298.6290299999978
  0
ARC
  5
20F7B
330
1F
100
AcDbEntity
  8
1
100
AcDbCircle
 10
81.02248899999995
 20
5.831412
 30
0.0
 40
4.166068
100
AcDbArc
 50
311.6214120000025
 51
323.547275000001
  0
LINE
  5
20F7C
330
1F
100
AcDbEntity
  8
1
100
AcDbLine
 10
71.01453999999989
 20
9.515712000000007
 30
0.0
 11
71.01046900000007
 21
9.543803999999994
 31
0.0
  0
LINE
  5
20F7D
330
1F
100
AcDbEntity
  8
1
100
AcDbLine
 10
71.01046900000007
 20
9.543803999999994
 30
0.0
 11
70.78325500000005
 21
9.543803999999994
 31
0.0
  0
LINE
  5
20F7E
330
1F
100
AcDbEntity
  8
1
100
AcDbLine
 10
75.0
 20
9.576211
 30
0.0
 11
71.01469099999984
 21
9.515714000000002
 31
0.0
  0
SPLINE
  5
20F7F
330
1F
100
AcDbEntity
  8
1
100
AcDbSpline
210
0.0
220
0.0
230
1.0
 70
     8
 71
     5
 72
    27
 73
    21
 74
     0
 42
0.000000001
 43
0.0000000001
 40
0.0
 40
0.0
 40
0.0
 40
0.0
 40
0.0
 40
0.0
 40
4.321982804313193
 40
4.321982804313193
 40
4.321982804313193
 40
7.217281837875309
 40
7.217281837875309
 40
7.217281837875309
 40
8.668027367451742
 40
8.668027367451742
 40
8.668027367451742
 40
11.57502508952581
 40
11.57502508952581
 40
11.57502508952581
 40
13.03262876917399
 40
13.03262876917399
 40
13.03262876917399
 40
14.46778720653353
 40
14.46778720653353
 40
14.46778720653353
 40
14.46778720653353
 40
14.46778720653353
 40
14.46778720653353
 10
83.49640135874324
 20
4.905399611866213
 30
0.0
 10
83.20618820042909
 20
5.432643264214048
 30
0.0
 10
82.8654994715662
 20
5.933072588283437
 30
0.0
 10
82.4750951337428
 20
6.399074157301356
 30
0.0
 10
81.76123707221561
 20
7.120323327647297
 30
0.0
 10
80.96045639491626
 20
7.740057716661682
 30
0.0
 10
80.62743621746927
 20
7.970756284725354
 30
0.0
 10
80.10679814031346
 20
8.291585137894116
 30
0.0
 10
79.5621007582638
 20
8.57024106975416
 30
0.0
 10
79.3775855040144
 20
8.658557939797701
 30
0.0
 10
78.81765671979451
 20
8.908658508789585
 30
0.0
 10
78.23863044033647
 20
9.114297312486966
 30
0.0
 10
77.84430660713815
 20
9.231638577760435
 30
0.0
 10
77.2437401513373
 20
9.376704462974343
 30
0.0
 10
76.63454107332291
 20
9.474914201038984
 30
0.0
 10
76.43022390629176
 20
9.502505539682855
 30
0.0
 10
76.02369790411353
 20
9.546864698104116
 30
0.0
 10
75.61523203111073
 20
9.570761644944155
 30
0.0
 10
75.41208394892828
 20
9.577602545548133
 30
0.0
 10
75.20906902939805
 20
9.579418729533612
 30
0.0
 10
75.00599992409593
 20
9.576302572819967
 30
0.0
  0
ARC
  5
20F80
330
1F
100
AcDbEntity
  8
1
100
AcDbCircle
 10
75.44861499999981
 20
0.1138709999999889
 30
0.0
 40
9.546554999999999
100
AcDbArc
 50
30.75442100000012
 51
55.98585999999656
  0
ARC
  5
20F81
330
1F
100
AcDbEntity
  8
1
100
AcDbCircle
 10
75.30519299999991
 20
-0.0832619999999906
 30
0.0
 40
9.790600999999997
100
AcDbArc
 50
55.93548199999928
 51
68.82824599999492
  0
ARC
  5
20F82
330
1F
100
AcDbEntity
  8
1
100
AcDbCircle
 10
75.187185
 20
-0.4273059999999873
 30
0.0
 40
10.154469
100
AcDbArc
 50
68.90845299999511
 51
90.12064699999912
  0
LINE
  5
20F83
330
1F
100
AcDbEntity
  8
1
100
AcDbLine
 10
75.16580199999999
 20
9.727521999999991
 30
0.0
 11
75.00605500000006
 21
9.726306999999991
 31
0.0
  0
ARC
  5
20F84
330
1F
100
AcDbEntity
  8
1
100
AcDbCircle
 10
71.34965399999988
 20
9.154246
 30
0.0
 40
0.516511
100
AcDbArc
 50
90.94698499999244
 51
131.0452549999974
  0
LINE
  5
20F85
330
1F
100
AcDbEntity
  8
1
100
AcDbLine
 10
75.0
 20
9.576210000000003
 30
0.0
 11
75.00599999999986
 21
9.576302999999995
 31
0.0
  0
ELLIPSE
  5
20F86
330
1F
100
AcDbEntity
  8
1
100
AcDbEllipse
 10
77.34569499999998
 20
5.205275
 30
0.0
 11
-0.000016220179532
 21
-2.415222644805908
 31
0.0
210
0.0
220
0.0
230
1.0
 40
0.9770900000000001
 41
3.566642590902477
 42
5.479855719710136
  0
ARC
  5
20F87
330
1F
100
AcDbEntity
  8
1
100
AcDbCircle
 10
77.37773900000002
 20
5.158941999999996
 30
0.0
 40
2.377616999999998
100
AcDbArc
 50
223.2988010000017
 51
232.8289889999962
  0
LINE
  5
20F88
330
1F
100
AcDbEntity
  8
1
100
AcDbLine
 10
75.16580199999999
 20
9.727521999999991
 30
0.0
 11
74.91819099999998
 21
9.727521999999991
 31
0.0
  0
SPLINE
  5
20F89
330
1F
100
AcDbEntity
  8
1
100
AcDbSpline
210
0.0
220
0.0
230
1.0
 70
     8
 71
     5
 72
    18
 73
    12
 74
     0
 42
0.000000001
 43
0.0000000001
 40
0.0
 40
0.0
 40
0.0
 40
0.0
 40
0.0
 40
0.0
 40
13.56988255481801
 40
13.56988255481801
 40
13.56988255481801
 40
20.37533661179827
 40
20.37533661179827
 40
20.37533661179827
 40
22.64399872783686
 40
22.64399872783686
 40
22.64399872783686
 40
22.64399872783686
 40
22.64399872783686
 40
22.64399872783686
 10
78.34166483487023
 20
5.205273964395075
 30
0.0
 10
78.34166483487023
 20
5.171354557501356
 30
0.0
 10
78.33548548600266
 20
5.137435151672661
 30
0.0
 10
78.32307187138053
 20
5.104163387836478
 30
0.0
 10
78.29461485549995
 20
5.055943542911903
 30
0.0
 10
78.2476209643655
 20
5.013792034689116
 30
0.0
 10
78.22979575190015
 20
5.00071299312853
 30
0.0
 10
78.20174127321116
 20
4.984043720142011
 30
0.0
 10
78.16547341371779
 20
4.970569797080058
 30
0.0
 10
78.15579809426413
 20
4.967426582531458
 30
0.0
 10
78.14523170337134
 20
4.964499314677851
 30
0.0
 10
78.13343859193787
 20
4.961945565672976
 30
0.0
  0
SPLINE
  5
20F8A
330
1F
100
AcDbEntity
  8
1
100
AcDbSpline
210
0.0
220
0.0
230
1.0
 70
     8
 71
     5
 72
    24
 73
    18
 74
     0
 42
0.000000001
 43
0.0000000001
 40
0.0
 40
0.0
 40
0.0
 40
0.0
 40
0.0
 40
0.0
 40
6.065025842002008
 40
6.065025842002008
 40
6.065025842002008
 40
18.09022149993406
 40
18.09022149993406
 40
18.09022149993406
 40
41.97729271994609
 40
41.97729271994609
 40
41.97729271994609
 40
54.00410800477223
 40
54.00410800477223
 40
54.00410800477223
 40
59.85963831629264
 40
59.85963831629264
 40
59.85963831629264
 40
59.85963831629264
 40
59.85963831629264
 40
59.85963831629264
 10
77.8224303905074
 20
4.411229082757669
 30
0.0
 10
77.81084771668044
 20
4.43972092217848
 30
0.0
 10
77.80450557662856
 20
4.462279464034252
 30
0.0
 10
77.79977086979511
 20
4.48156294700044
 30
0.0
 10
77.78966015827973
 20
4.537748921991322
 30
0.0
 10
77.78963297471114
 20
4.581337063992291
 30
0.0
 10
77.79133378878828
 20
4.606536082658152
 30
0.0
 10
77.80221862298756
 20
4.679382397721608
 30
0.0
 10
77.82680882896284
 20
4.738741110917061
 30
0.0
 10
77.8470021533667
 20
4.774361984845398
 30
0.0
 10
77.88533840068065
 20
4.826676435377748
 30
0.0
 10
77.94375601285787
 20
4.876444230466518
 30
0.0
 10
77.96547347395358
 20
4.892262739576549
 30
0.0
 10
78.00363094126055
 20
4.916571589658443
 30
0.0
 10
78.05820512364085
 20
4.9400041174639
 30
0.0
 10
78.08011073701074
 20
4.947952182359016
 30
0.0
 10
78.10299998189634
 20
4.955354211852436
 30
0.0
 10
78.13343859193787
 20
4.961945565672976
 30
0.0
  0
ARC
  5
20F8B
330
1F
100
AcDbEntity
  8
1
100
AcDbCircle
 10
77.61311299999987
 20
4.318281000000013
 30
0.0
 40
0.228292
100
AcDbArc
 50
300.9392810000025
 51
23.94371800000258
  0
ARC
  5
20F8C
330
1F
100
AcDbEntity
  8
1
100
AcDbCircle
 10
76.62755500000002
 20
6.118803000000013
 30
0.0
 40
0.202811
100
AcDbArc
 50
37.63490400000093
 51
53.74428000000396
  0
ARC
  5
20F8D
330
1F
100
AcDbEntity
  8
1
100
AcDbCircle
 10
77.06924800000002
 20
6.463268999999996
 30
0.0
 40
0.357628
100
AcDbArc
 50
218.128554000002
 51
271.2306069999928
  0
ARC
  5
20F8E
330
1F
100
AcDbEntity
  8
1
100
AcDbCircle
 10
77.61303299999986
 20
6.092210999999991
 30
0.0
 40
0.228382
100
AcDbArc
 50
336.0771069999973
 51
59.05059999999346
  0
SPLINE
  5
20F8F
330
1F
100
AcDbEntity
  8
1
100
AcDbSpline
210
0.0
220
0.0
230
1.0
 70
     8
 71
     5
 72
    24
 73
    18
 74
     0
 42
0.000000001
 43
0.0000000001
 40
0.0
 40
0.0
 40
0.0
 40
0.0
 40
0.0
 40
0.0
 40
6.065025847479905
 40
6.065025847479905
 40
6.065025847479905
 40
18.09022150564142
 40
18.09022150564142
 40
18.09022150564142
 40
41.97729272702429
 40
41.97729272702429
 40
41.97729272702429
 40
54.0041080064562
 40
54.0041080064562
 40
54.0041080064562
 40
59.85963834434521
 40
59.85963834434521
 40
59.85963834434521
 40
59.85963834434521
 40
59.85963834434521
 40
59.85963834434521
 10
77.8224303905074
 20
5.999318846032451
 30
0.0
 10
77.81084771666995
 20
5.970827006585921
 30
0.0
 10
77.80450557661652
 20
5.948268464714883
 30
0.0
 10
77.7997708698033
 20
5.928984981833392
 30
0.0
 10
77.78966015828018
 20
5.872799006819007
 30
0.0
 10
77.78963297471069
 20
5.829210864803627
 30
0.0
 10
77.79133378878964
 20
5.804011846116962
 30
0.0
 10
77.80221862299574
 20
5.731165531030086
 30
0.0
 10
77.82680882897171
 20
5.671806817876214
 30
0.0
 10
77.84700215335442
 20
5.636185943959532
 30
0.0
 10
77.8853384006634
 20
5.583871493434712
 30
0.0
 10
77.94375601282536
 20
5.534103698349552
 30
0.0
 10
77.96547347394858
 20
5.518285189219284
 30
0.0
 10
78.00363094130034
 20
5.49397633910695
 30
0.0
 10
78.05820512375477
 20
5.47054381127603
 30
0.0
 10
78.08011073680312
 20
5.462595746498124
 30
0.0
 10
78.10299998175924
 20
5.455193716967387
 30
0.0
 10
78.13343859193787
 20
5.448602363117172
 30
0.0
  0
SPLINE
  5
20F90
330
1F
100
AcDbEntity
  8
1
100
AcDbSpline
210
0.0
220
0.0
230
1.0
 70
     8
 71
     5
 72
    18
 73
    12
 74
     0
 42
0.000000001
 43
0.0000000001
 40
0.0
 40
0.0
 40
0.0
 40
0.0
 40
0.0
 40
0.0
 40
13.56988255520707
 40
13.56988255520707
 40
13.56988255520707
 40
20.37533661151968
 40
20.37533661151968
 40
20.37533661151968
 40
22.64399872733513
 40
22.64399872733513
 40
22.64399872733513
 40
22.64399872733513
 40
22.64399872733513
 40
22.64399872733513
 10
78.34166483487023
 20
5.205273964395075
 30
0.0
 10
78.34166483487023
 20
5.239193371289758
 30
0.0
 10
78.33548548600856
 20
5.273112777119422
 30
0.0
 10
78.32307187136963
 20
5.306384540976039
 30
0.0
 10
78.2946148554879
 20
5.354604385894333
 30
0.0
 10
78.24762096434572
 20
5.396755894116751
 30
0.0
 10
78.22979575189584
 20
5.409834935672193
 30
0.0
 10
78.20174127316612
 20
5.426504208667777
 30
0.0
 10
78.1654734137037
 20
5.439978131714383
 30
0.0
 10
78.15579809426208
 20
5.443121346259315
 30
0.0
 10
78.1452317033702
 20
5.446048614112553
 30
0.0
 10
78.13343859193787
 20
5.448602363117172
 30
0.0
  0
ELLIPSE
  5
20F91
330
1F
100
AcDbEntity
  8
1
100
AcDbEllipse
 10
78.34662200000003
 20
5.205274000000001
 30
0.0
 11
0.0000000000000011
 21
-0.25
 31
0.0
210
0.0
220
0.0
230
1.0
 40
0.9781479999999998
 41
0.2315424416127365
 42
2.910050211977043
  0
ELLIPSE
  5
20F92
330
1F
100
AcDbEntity
  8
1
100
AcDbEllipse
 10
78.50074999999994
 20
4.53694999999999
 30
0.0
 11
0.0000000000000019
 21
-0.4366483390331268
 31
0.0
210
0.0
220
0.0
230
0.9999999999999998
 40
0.9781479999999993
 41
3.373135095202531
 42
5.004445314370214
  0
ELLIPSE
  5
20F93
330
1F
100
AcDbEntity
  8
1
100
AcDbEllipse
 10
77.85754799999995
 20
4.339248999999995
 30
0.0
 11
0.0000000000000011
 21
-0.25
 31
0.0
210
0.0
220
0.0
230
1.0
 40
0.9781479999999998
 41
0.0001968586129266
 42
1.862852660780438
  0
ELLIPSE
  5
20F94
330
1F
100
AcDbEntity
  8
1
100
AcDbEllipse
 10
77.85754799999995
 20
4.339248999999995
 30
0.0
 11
0.0000000000000011
 21
-0.25
 31
0.0
210
0.0
220
0.0
230
1.0
 40
0.9781479999999998
 41
5.467530197595768
 42
6.283382165792512
  0
ARC
  5
20F95
330
1F
100
AcDbEntity
  8
1
100
AcDbCircle
 10
77.069252
 20
3.947270000000003
 30
0.0
 40
0.357638
100
AcDbArc
 50
88.76083599999859
 51
141.8708069999991
  0
ARC
  5
20F96
330
1F
100
AcDbEntity
  8
1
100
AcDbCircle
 10
76.62754100000007
 20
4.291757999999987
 30
0.0
 40
0.202831
100
AcDbArc
 50
306.3318040000015
 51
322.3644780000021
  0
ELLIPSE
  5
20F97
330
1F
100
AcDbEntity
  8
1
100
AcDbEllipse
 10
76.87940000000003
 20
6.071300000000007
 30
0.0
 11
0.0000000000000011
 21
-0.25
 31
0.0
210
0.0
220
0.0
230
1.0
 40
0.9781479999999998
 41
2.325937544005975
 42
3.141789512202723
  0
ELLIPSE
  5
20F98
330
1F
100
AcDbEntity
  8
1
100
AcDbEllipse
 10
76.87940000000003
 20
6.071300000000007
 30
0.0
 11
0.0000000000000011
 21
-0.25
 31
0.0
210
0.0
220
0.0
230
1.0
 40
0.9781479999999998
 41
3.141789512202723
 42
3.665191429188069
  0
ELLIPSE
  5
20F99
330
1F
100
AcDbEntity
  8
1
100
AcDbEllipse
 10
77.36847399999987
 20
6.541921999999997
 30
0.0
 11
0.0000000000000019
 21
-0.4366483390331268
 31
0.0
210
0.0
220
0.0
230
0.9999999999999998
 40
0.9781479999999993
 41
6.28318530717958
 42
7.098840416763397
  0
ELLIPSE
  5
20F9A
330
1F
100
AcDbEntity
  8
1
100
AcDbEllipse
 10
77.36847399999987
 20
6.541921999999997
 30
0.0
 11
0.0000000000000019
 21
-0.4366483390331268
 31
0.0
210
0.0
220
0.0
230
0.9999999999999998
 40
0.9781479999999993
 41
5.467530197595761
 42
6.28318530717958
  0
ELLIPSE
  5
20F9B
330
1F
100
AcDbEntity
  8
1
100
AcDbEllipse
 10
77.85754799999995
 20
6.071300000000007
 30
0.0
 11
0.0000000000000011
 21
-0.25
 31
0.0
210
0.0
220
0.0
230
1.0
 40
0.9781479999999998
 41
1.278739992809343
 42
3.141395794976856
  0
ELLIPSE
  5
20F9C
330
1F
100
AcDbEntity
  8
1
100
AcDbEllipse
 10
77.85754799999995
 20
6.071300000000007
 30
0.0
 11
0.0000000000000011
 21
-0.25
 31
0.0
210
0.0
220
0.0
230
1.0
 40
0.9781479999999998
 41
3.141395794976856
 42
3.957247763173596
  0
ELLIPSE
  5
20F9D
330
1F
100
AcDbEntity
  8
1
100
AcDbEllipse
 10
78.50074999999994
 20
5.873597999999986
 30
0.0
 11
0.0000000000000019
 21
-0.4366483390331268
 31
0.0
210
0.0
220
0.0
230
0.9999999999999998
 40
0.9781479999999993
 41
4.420332646399153
 42
6.051642865566835
  0
ELLIPSE
  5
20F9E
330
1F
100
AcDbEntity
  8
1
100
AcDbEllipse
 10
77.36847399999987
 20
3.868626000000006
 30
0.0
 11
0.0000000000000019
 21
-0.4366483390331268
 31
0.0
210
0.0
220
0.0
230
0.9999999999999998
 40
0.9781479999999993
 41
3.141592653589786
 42
3.957247763173602
  0
ELLIPSE
  5
20F9F
330
1F
100
AcDbEntity
  8
1
100
AcDbEllipse
 10
77.36847399999987
 20
3.868626000000006
 30
0.0
 11
0.0000000000000019
 21
-0.4366483390331268
 31
0.0
210
0.0
220
0.0
230
0.9999999999999998
 40
0.9781479999999993
 41
2.32593754400597
 42
3.141592653589786
  0
ELLIPSE
  5
20FA0
330
1F
100
AcDbEntity
  8
1
100
AcDbEllipse
 10
76.39032700000007
 20
5.205274000000001
 30
0.0
 11
0.0000000000000011
 21
-0.25
 31
0.0
210
0.0
220
0.0
230
1.0
 40
0.9781479999999998
 41
3.373135095202528
 42
6.051642865566837
  0
ELLIPSE
  5
20FA1
330
1F
100
AcDbEntity
  8
1
100
AcDbEllipse
 10
76.23619899999993
 20
5.873597999999986
 30
0.0
 11
0.0000000000000019
 21
-0.4366483390331268
 31
0.0
210
0.0
220
0.0
230
0.9999999999999998
 40
0.9781479999999993
 41
0.23154244161274
 42
1.862852660780425
  0
ELLIPSE
  5
20FA2
330
1F
100
AcDbEntity
  8
1
100
AcDbEllipse
 10
76.87940000000003
 20
6.071300000000007
 30
0.0
 11
0.0000000000000011
 21
-0.25
 31
0.0
210
0.0
220
0.0
230
1.0
 40
0.9781479999999998
 41
3.665191429188069
 42
5.004445314370236
  0
ELLIPSE
  5
20FA3
330
1F
100
AcDbEntity
  8
1
100
AcDbEllipse
 10
76.87940000000003
 20
4.339248999999995
 30
0.0
 11
0.0000000000000011
 21
-0.25
 31
0.0
210
0.0
220
0.0
230
1.0
 40
0.9781479999999998
 41
4.420332646399137
 42
6.282988448566649
  0
ELLIPSE
  5
20FA4
330
1F
100
AcDbEntity
  8
1
100
AcDbEllipse
 10
76.87940000000003
 20
4.339248999999995
 30
0.0
 11
0.0000000000000011
 21
-0.25
 31
0.0
210
0.0
220
0.0
230
1.0
 40
0.9781479999999998
 41
6.28298844856665
 42
7.098840416763392
  0
ELLIPSE
  5
20FA5
330
1F
100
AcDbEntity
  8
1
100
AcDbEllipse
 10
76.23619899999993
 20
4.53694999999999
 30
0.0
 11
0.0000000000000019
 21
-0.4366483390331268
 31
0.0
210
0.0
220
0.0
230
0.9999999999999998
 40
0.9781479999999993
 41
1.27873999280936
 42
2.910050211977042
  0
ELLIPSE
  5
20FA6
330
1F
100
AcDbEntity
  8
1
100
AcDbEllipse
 10
77.36847399999987
 20
5.205274000000001
 30
0.0
 11
0.000000000000006
 21
-1.399999976158142
 31
0.0
210
0.0
220
0.0
230
1.0
 40
0.9781479999999998
 41
0.4999999999999781
 42
6.783185307179563
  0
ELLIPSE
  5
20FA7
330
1F
100
AcDbEntity
  8
1
100
AcDbEllipse
 10
77.29362599999991
 20
5.205274000000001
 30
0.0
 11
0.0000000000000092
 21
-2.150000095367432
 31
0.0
210
0.0
220
0.0
230
1.0
 40
0.978148
 41
3.141621740030787
 42
6.283214393620581
  0
ELLIPSE
  5
20FA8
330
1F
100
AcDbEntity
  8
1
100
AcDbEllipse
 10
77.29362599999991
 20
5.205274000000001
 30
0.0
 11
0.0000000000000092
 21
-2.150000095367432
 31
0.0
210
0.0
220
0.0
230
1.0
 40
0.978148
 41
0.0000290864409977
 42
0.4999999999999771
  0
ELLIPSE
  5
20FA9
330
1F
100
AcDbEntity
  8
1
100
AcDbEllipse
 10
77.29362599999991
 20
5.205274000000001
 30
0.0
 11
0.0000000000000092
 21
-2.150000095367432
 31
0.0
210
0.0
220
0.0
230
1.0
 40
0.978148
 41
0.4999999999999782
 42
3.141621740030787
  0
ELLIPSE
  5
20FAA
330
1F
100
AcDbEntity
  8
1
100
AcDbEllipse
 10
77.20214499999997
 20
5.205274000000001
 30
0.0
 11
0.0000000000000092
 21
-2.150000095367432
 31
0.0
210
0.0
220
0.0
230
1.0
 40
0.978148
 41
3.141621740030787
 42
6.283214393620584
  0
LINE
  5
20FAB
330
1F
100
AcDbEntity
  8
1
100
AcDbLine
 10
77.07693799999993
 20
6.105274000000008
 30
0.0
 11
77.36847399999987
 21
6.105274000000008
 31
0.0
  0
LINE
  5
20FAC
330
1F
100
AcDbEntity
  8
1
100
AcDbLine
 10
77.07699600000002
 20
4.305273999999997
 30
0.0
 11
77.36847399999987
 21
4.305273999999997
 31
0.0
  0
LINE
  5
20FAD
330
1F
100
AcDbEntity
  8
1
100
AcDbLine
 10
77.20220599999993
 20
3.055273999999997
 30
0.0
 11
77.29368699999986
 21
3.055273999999997
 31
0.0
  0
LINE
  5
20FAE
330
1F
100
AcDbEntity
  8
1
100
AcDbLine
 10
77.20208400000001
 20
7.355274000000008
 30
0.0
 11
77.29356499999993
 21
7.355274000000008
 31
0.0
  0
LINE
  5
20FAF
330
1F
100
AcDbEntity
  8
SK1
100
AcDbLine
 10
-75.0
 20
9.982502000000009
 30
0.0
 11
-75.0
 21
11.375
 31
0.0
  0
LINE
  5
20FB0
330
1F
100
AcDbEntity
  8
SK1
100
AcDbLine
 10
-75.0
 20
-11.375
 30
0.0
 11
-75.0
 21
9.982502000000009
 31
0.0
  0
LINE
  5
20FB1
330
1F
100
AcDbEntity
  8
1
100
AcDbLine
 10
10.0
 20
10.96978200000001
 30
0.0
 11
10.0
 21
12.5
 31
0.0
  0
LINE
  5
20FB2
330
1F
100
AcDbEntity
  8
1
100
AcDbLine
 10
10.0
 20
-12.5
 30
0.0
 11
10.0
 21
10.96978200000001
 31
0.0
  0
LINE
  5
20FB3
330
1F
100
AcDbEntity
  8
SK1
100
AcDbLine
 10
-71.0
 20
10.96978200000001
 30
0.0
 11
-71.0
 21
12.5
 31
0.0
  0
LINE
  5
20FB4
330
1F
100
AcDbEntity
  8
SK1
100
AcDbLine
 10
-71.0
 20
-12.5
 30
0.0
 11
-71.0
 21
10.96978200000001
 31
0.0
  0
ARC
  5
20FB5
330
1F
100
AcDbEntity
  8
1
100
AcDbCircle
 10
74.43905500000005
 20
-22.28415200000001
 30
0.0
 40
16.296882
100
AcDbArc
 50
83.18841199999978
 51
88.77450400000162
  0
ELLIPSE
  5
20FB6
330
1F
100
AcDbEntity
  8
1
100
AcDbEllipse
 10
76.39063499999998
 20
1.349763999999991
 30
0.0
 11
7.725922107696532
 21
3.886354684829711
 31
0.0
210
0.0
220
0.0
230
1.0
 40
0.8063459999999999
 41
3.697242834296304
 42
4.133573187362299
  0
ARC
  5
20FB7
330
1F
100
AcDbEntity
  8
1
100
AcDbCircle
 10
73.37404900000001
 20
-9.028976999999995
 30
0.0
 40
0.410344
100
AcDbArc
 50
275.2896479999964
 51
285.3962590000048
  0
SPLINE
  5
20FB8
330
1F
100
AcDbEntity
  8
1
100
AcDbSpline
210
0.0
220
0.0
230
1.0
 70
     8
 71
     5
 72
    15
 73
     9
 74
     0
 42
0.000000001
 43
0.0000000001
 40
0.0
 40
0.0
 40
0.0
 40
0.0
 40
0.0
 40
0.0
 40
1.083633170462908
 40
1.083633170462908
 40
1.083633170462908
 40
1.219279313869975
 40
1.219279313869975
 40
1.219279313869975
 40
1.219279313869975
 40
1.219279313869975
 40
1.219279313869975
 10
72.88886533510595
 20
-9.444521035477775
 30
0.0
 10
72.92685098095876
 20
-9.452833929930989
 30
0.0
 10
72.98906192903723
 20
-9.456458282374171
 30
0.0
 10
73.0713898228107
 20
-9.455724643445362
 30
0.0
 10
73.17680164221108
 20
-9.451735942246754
 30
0.0
 10
73.29332764348419
 20
-9.445113868265307
 30
0.0
 10
73.30642303489049
 20
-9.444346051209347
 30
0.0
 10
73.31964081789806
 20
-9.443548778388759
 30
0.0
 10
73.33297607677969
 20
-9.44272336544634
 30
0.0
  0
LINE
  5
20FB9
330
1F
100
AcDbEntity
  8
1
100
AcDbLine
 10
73.3329759999999
 20
-9.442723
 30
0.0
 11
73.411877
 21
-9.437574000000012
 31
0.0
  0
ARC
  5
20FBA
330
1F
100
AcDbEntity
  8
1
100
AcDbCircle
 10
72.89518300000008
 20
-9.383834000000009
 30
0.0
 40
0.060743
100
AcDbArc
 50
229.6788240000023
 51
264.0564209999959
  0
SPLINE
  5
20FBB
330
1F
100
AcDbEntity
  8
1
100
AcDbSpline
210
0.0
220
0.0
230
1.0
 70
     8
 71
     5
 72
    18
 73
    12
 74
     0
 42
0.000000001
 43
0.0000000001
 40
0.0
 40
0.0
 40
0.0
 40
0.0
 40
0.0
 40
0.0
 40
0.9124595752909502
 40
0.9124595752909502
 40
0.9124595752909502
 40
4.014349797504316
 40
4.014349797504316
 40
4.014349797504316
 40
5.11744925198205
 40
5.11744925198205
 40
5.11744925198205
 40
5.11744925198205
 40
5.11744925198205
 40
5.11744925198205
 10
72.85604003831645
 20
-9.429955448294919
 30
0.0
 10
72.84723036520972
 20
-9.418723344071679
 30
0.0
 10
72.85719849476619
 20
-9.404273550133297
 30
0.0
 10
72.88650653952686
 20
-9.387024227571773
 30
0.0
 10
73.08273165787705
 20
-9.304269082086392
 30
0.0
 10
73.51239598358507
 20
-9.206528343701306
 30
0.0
 10
73.86582062713614
 20
-9.149643311816133
 30
0.0
 10
74.35787207479144
 20
-9.092526952204051
 30
0.0
 10
74.83502855389406
 20
-9.066702692808975
 30
0.0
 10
74.95820736024689
 20
-9.062167555854699
 30
0.0
 10
75.07801729366223
 20
-9.059976874277881
 30
0.0
 10
75.19224101897953
 20
-9.060273341141167
 30
0.0
  0
ARC
  5
20FBC
330
1F
100
AcDbEntity
  8
1
100
AcDbCircle
 10
70.92936299999997
 20
15.52297999999999
 30
0.0
 40
24.950111
100
AcDbArc
 50
279.8375939999941
 51
283.0353159999967
  0
LINE
  5
20FBD
330
1F
100
AcDbEntity
  8
1
100
AcDbLine
 10
76.55689800000004
 20
-6.274946999999997
 30
0.0
 11
76.37197100000003
 21
-6.102060999999991
 31
0.0
  0
ELLIPSE
  5
20FBE
330
1F
100
AcDbEntity
  8
1
100
AcDbEllipse
 10
74.610318
 20
-0.000220000000013
 30
0.0
 11
-0.0039985273033381
 21
-9.006617546081542
 31
0.0
210
0.0
220
0.0
230
0.9999999999999998
 40
0.9781479999999998
 41
0.2232485486245672
 42
1.486647709987993
  0
ARC
  5
20FBF
330
1F
100
AcDbEntity
  8
1
100
AcDbCircle
 10
78.38124100000005
 20
-2.430936999999999
 30
0.0
 40
5.278484999999998
100
AcDbArc
 50
18.44211099999758
 51
25.25443399999796
  0
SPLINE
  5
20FC0
330
1F
100
AcDbEntity
  8
1
100
AcDbSpline
210
0.0
220
0.0
230
1.0
 70
     8
 71
     5
 72
    27
 73
    21
 74
     0
 42
0.000000001
 43
0.0000000001
 40
0.0
 40
0.0
 40
0.0
 40
0.0
 40
0.0
 40
0.0
 40
3.135252652334307
 40
3.135252652334307
 40
3.135252652334307
 40
6.419125823775942
 40
6.419125823775942
 40
6.419125823775942
 40
8.144651563034768
 40
8.144651563034768
 40
8.144651563034768
 40
11.6444068749523
 40
11.6444068749523
 40
11.6444068749523
 40
15.08925368191267
 40
15.08925368191267
 40
15.08925368191267
 40
16.81924273989825
 40
16.81924273989825
 40
16.81924273989825
 40
16.81924273989825
 40
16.81924273989825
 40
16.81924273989825
 10
83.15524577647215
 20
-0.1789184596208031
 30
0.0
 10
83.14795790723634
 20
-0.4424303586118583
 30
0.0
 10
83.12719683288468
 20
-0.7073580845057565
 30
0.0
 10
83.0923889275748
 20
-0.9782407213540691
 30
0.0
 10
82.9878843838744
 20
-1.548713849563055
 30
0.0
 10
82.79932143127302
 20
-2.159372501531493
 30
0.0
 10
82.67768981744188
 20
-2.480816196933373
 30
0.0
 10
82.44375852996631
 20
-2.983059628576483
 30
0.0
 10
82.1412013727024
 20
-3.475092394952582
 30
0.0
 10
82.02882236514232
 20
-3.642262198812062
 30
0.0
 10
81.66688841572884
 20
-4.13530118994052
 30
0.0
 10
81.24296395960438
 20
-4.582913549912971
 30
0.0
 10
80.93601581411258
 20
-4.854762271096831
 30
0.0
 10
80.29188148947197
 20
-5.334045161236216
 30
0.0
 10
79.59053597302295
 20
-5.690595857600754
 30
0.0
 10
79.23130827407863
 20
-5.836552375168081
 30
0.0
 10
78.67956674188872
 20
-6.008594433724737
 30
0.0
 10
78.11393304502892
 20
-6.109240948845922
 30
0.0
 10
77.92322208121913
 20
-6.134901000994147
 30
0.0
 10
77.73190218994637
 20
-6.152429097478202
 30
0.0
 10
77.5399358641139
 20
-6.161823046451985
 30
0.0
  0
ARC
  5
20FC1
330
1F
100
AcDbEntity
  8
1
100
AcDbCircle
 10
73.78249099999994
 20
-0.2073379999999929
 30
0.0
 40
7.040900999999997
100
AcDbArc
 50
297.4816819999933
 51
302.2530870000061
  0
ARC
  5
20FC2
330
1F
100
AcDbEntity
  8
1
100
AcDbCircle
 10
76.90058399999998
 20
-6.178354000000013
 30
0.0
 40
0.305278
100
AcDbArc
 50
230.9049310000026
 51
295.4470909999976
  0
LINE
  5
20FC3
330
1F
100
AcDbEntity
  8
1
100
AcDbLine
 10
76.70863699999995
 20
-6.414585999999985
 30
0.0
 11
76.55689800000004
 21
-6.274946999999997
 31
0.0
  0
LINE
  5
20FC4
330
1F
100
AcDbEntity
  8
1
100
AcDbLine
 10
73.411879
 20
-9.437571999999988
 30
0.0
 11
73.40958499999988
 21
-9.359658999999991
 31
0.0
  0
LINE
  5
20FC5
330
1F
100
AcDbEntity
  8
1
100
AcDbLine
 10
83.14721099999998
 20
-0.1700529999999958
 30
0.0
 11
83.15524499999993
 21
-0.1789190000000076
 31
0.0
  0
SPLINE
  5
20FC6
330
1F
100
AcDbEntity
  8
1
100
AcDbSpline
210
0.0
220
0.0
230
1.0
 70
     8
 71
     5
 72
    18
 73
    12
 74
     0
 42
0.000000001
 43
0.0000000001
 40
0.0
 40
0.0
 40
0.0
 40
0.0
 40
0.0
 40
0.0
 40
0.845011719602494
 40
0.845011719602494
 40
0.845011719602494
 40
1.786616704227395
 40
1.786616704227395
 40
1.786616704227395
 40
2.223747518842139
 40
2.223747518842139
 40
2.223747518842139
 40
2.223747518842139
 40
2.223747518842139
 40
2.223747518842139
 10
83.1472105902935
 20
-0.1700525581742056
 30
0.0
 10
83.08487007522581
 20
-0.1013366765803312
 30
0.0
 10
83.02762669051707
 20
-0.0203646844147727
 30
0.0
 10
82.97706568813737
 20
0.0737941329682599
 30
0.0
 10
82.89337682429161
 20
0.2965352447945975
 30
0.0
 10
82.86785526291168
 20
0.5516210272638205
 30
0.0
 10
82.87401653917754
 20
0.687248139608272
 30
0.0
 10
82.90891047694458
 20
0.8766773814533904
 30
0.0
 10
82.97310327565856
 20
1.042366344861618
 30
0.0
 10
82.99620791692538
 20
1.092522236229854
 30
0.0
 10
83.02140025694416
 20
1.139453710120106
 30
0.0
 10
83.04849066052794
 20
1.183384239634732
 30
0.0
  0
SPLINE
  5
20FC7
330
1F
100
AcDbEntity
  8
1
100
AcDbSpline
210
0.0
220
0.0
230
1.0
 70
     8
 71
     5
 72
    15
 73
     9
 74
     0
 42
0.000000001
 43
0.0000000001
 40
0.0
 40
0.0
 40
0.0
 40
0.0
 40
0.0
 40
0.0
 40
1.564388204029879
 40
1.564388204029879
 40
1.564388204029879
 40
1.731163875505783
 40
1.731163875505783
 40
1.731163875505783
 40
1.731163875505783
 40
1.731163875505783
 40
1.731163875505783
 10
83.04849093698681
 20
1.183382644418827
 30
0.0
 10
83.07756029098687
 20
1.28756570530362
 30
0.0
 10
83.11538645025143
 20
1.380942850263237
 30
0.0
 10
83.16217798925981
 20
1.458934958076893
 30
0.0
 10
83.22532133606001
 20
1.523397398146754
 30
0.0
 10
83.30136985723902
 20
1.545138343692456
 30
0.0
 10
83.30882235994545
 20
1.546819388027301
 30
0.0
 10
83.31639161470048
 20
1.548063786258893
 30
0.0
 10
83.32407839770167
 20
1.548850972629253
 30
0.0
  0
ELLIPSE
  5
20FC8
330
1F
100
AcDbEntity
  8
1
100
AcDbEllipse
 10
83.38930499999992
 20
0.5320189999999913
 30
0.0
 11
0.0580622814595699
 21
-1.017403483390805
 31
0.0
210
0.0
220
0.0
230
1.0
 40
0.395606
 41
2.360282648384259
 42
3.159417383093063
  0
ARC
  5
20FC9
330
1F
100
AcDbEntity
  8
1
100
AcDbCircle
 10
78.62374599999998
 20
-1.069344999999997
 30
0.0
 40
5.527453999999997
100
AcDbArc
 50
20.16067599999774
 51
25.04585300000182
  0
ARC
  5
20FCA
330
1F
100
AcDbEntity
  8
1
100
AcDbCircle
 10
69.89154299999995
 20
-0.150147000000004
 30
0.0
 40
9.728225
100
AcDbArc
 50
321.8324680000025
 51
328.9033060000037
  0
ARC
  5
20FCB
330
1F
100
AcDbEntity
  8
1
100
AcDbCircle
 10
69.70154099999991
 20
-0.0467130000000111
 30
0.0
 40
9.944898
100
AcDbArc
 50
335.0281549999996
 51
340.7580129999993
  0
SPLINE
  5
20FCC
330
1F
100
AcDbEntity
  8
1
100
AcDbSpline
210
0.0
220
0.0
230
1.0
 70
     8
 71
     5
 72
    18
 73
    12
 74
     0
 42
0.000000001
 43
0.0000000001
 40
0.0
 40
0.0
 40
0.0
 40
0.0
 40
0.0
 40
0.0
 40
0.0665913144532054
 40
0.0665913144532054
 40
0.0665913144532054
 40
0.269140517237828
 40
0.269140517237828
 40
0.269140517237828
 40
0.6506470319582239
 40
0.6506470319582239
 40
0.6506470319582239
 40
0.6506470319582239
 40
0.6506470319582239
 40
0.6506470319582239
 10
79.09087250867242
 20
-3.324140953993833
 30
0.0
 10
79.0938744880459
 20
-3.315543011741226
 30
0.0
 10
79.09679868064131
 20
-3.306931568327768
 30
0.0
 10
79.09848544598981
 20
-3.297578703924186
 30
0.0
 10
79.10510897564904
 20
-3.260656653455071
 30
0.0
 10
79.10528597528105
 20
-3.222402692719212
 30
0.0
 10
79.10264957174262
 20
-3.193985716054726
 30
0.0
 10
79.08909219399084
 20
-3.114606849866646
 30
0.0
 10
79.06132543148828
 20
-3.042153169697201
 30
0.0
 10
79.03991299596579
 20
-2.998751795409758
 30
0.0
 10
79.01468422711241
 20
-2.957566395147721
 30
0.0
 10
78.98648186000878
 20
-2.92006302400722
 30
0.0
  0
LINE
  5
20FCD
330
1F
100
AcDbEntity
  8
1
100
AcDbLine
 10
78.94263000000002
 20
-2.869836999999987
 30
0.0
 11
78.97902999999995
 21
-2.910414000000001
 31
0.0
  0
LINE
  5
20FCE
330
1F
100
AcDbEntity
  8
1
100
AcDbLine
 10
78.97902999999995
 20
-2.910414000000001
 30
0.0
 11
78.98648200000002
 21
-2.920062999999998
 31
0.0
  0
ARC
  5
20FCF
330
1F
100
AcDbEntity
  8
1
100
AcDbCircle
 10
77.21372599999995
 20
-4.651991000000007
 30
0.0
 40
2.483554
100
AcDbArc
 50
45.86889200000006
 51
89.90728699999001
  0
SPLINE
  5
20FD0
330
1F
100
AcDbEntity
  8
1
100
AcDbSpline
210
0.0
220
0.0
230
1.0
 70
     8
 71
     5
 72
    24
 73
    18
 74
     0
 42
0.000000001
 43
0.0000000001
 40
0.0
 40
0.0
 40
0.0
 40
0.0
 40
0.0
 40
0.0
 40
2.062436157609837
 40
2.062436157609837
 40
2.062436157609837
 40
3.500594822324631
 40
3.500594822324631
 40
3.500594822324631
 40
5.051596050099965
 40
5.051596050099965
 40
5.051596050099965
 40
5.847115817754793
 40
5.847115817754793
 40
5.847115817754793
 40
7.305102098047917
 40
7.305102098047917
 40
7.305102098047917
 40
7.305102098047917
 40
7.305102098047917
 40
7.305102098047917
 10
77.21774516619894
 20
-2.16840950924967
 30
0.0
 10
76.98722711507706
 20
-2.168406772691156
 30
0.0
 10
76.75525230300355
 20
-2.19601323464394
 30
0.0
 10
76.52435415898344
 20
-2.253028223317357
 30
0.0
 10
76.14174326783675
 20
-2.404433413638769
 30
0.0
 10
75.79514517170856
 20
-2.658903619978929
 30
0.0
 10
75.66120231915419
 20
-2.782225988473412
 30
0.0
 10
75.41098772735427
 20
-3.077509252089129
 30
0.0
 10
75.23894380236993
 20
-3.447412492253818
 30
0.0
 10
75.17767811426121
 20
-3.656098297934335
 30
0.0
 10
75.13585681431141
 20
-3.984133060224791
 30
0.0
 10
75.16640038969831
 20
-4.307862259083747
 30
0.0
 10
75.18498807074684
 20
-4.416661581264037
 30
0.0
 10
75.25808679522334
 20
-4.714384914024691
 30
0.0
 10
75.38409415129241
 20
-4.98464189791366
 30
0.0
 10
75.48360709848769
 20
-5.145166200065999
 30
0.0
 10
75.59569904761815
 20
-5.289663929227117
 30
0.0
 10
75.71811418208222
 20
-5.419227119791855
 30
0.0
  0
ARC
  5
20FD1
330
1F
100
AcDbEntity
  8
1
100
AcDbCircle
 10
126.3324309999998
 20
42.39157299999999
 30
0.0
 40
69.62529
100
AcDbArc
 50
223.3684419999952
 51
224.1464380000004
  0
ARC
  5
20FD2
330
1F
100
AcDbEntity
  8
1
100
AcDbCircle
 10
76.76451099999986
 20
0.0141130000000089
 30
0.0
 40
6.391818999999999
100
AcDbArc
 50
10.54061200000028
 51
21.81907600000004
  0
SPLINE
  5
20FD3
330
1F
100
AcDbEntity
  8
1
100
AcDbSpline
210
0.0
220
0.0
230
1.0
 70
     8
 71
     5
 72
    15
 73
     9
 74
     0
 42
0.000000001
 43
0.0000000001
 40
0.0
 40
0.0
 40
0.0
 40
0.0
 40
0.0
 40
0.0
 40
8.905194752342142
 40
8.905194752342142
 40
8.905194752342142
 40
15.2404785341146
 40
15.2404785341146
 40
15.2404785341146
 40
15.2404785341146
 40
15.2404785341146
 40
15.2404785341146
 10
82.69841755808034
 20
2.389798117857935
 30
0.0
 10
81.89408837524636
 20
2.164075801907642
 30
0.0
 10
81.01608218542788
 20
2.048967303527604
 30
0.0
 10
80.08558036345403
 20
2.05363976825231
 30
0.0
 10
78.44442486105662
 20
2.273073616340751
 30
0.0
 10
76.78747358918736
 20
2.847236757586471
 30
0.0
 10
76.10441304904156
 20
3.146313516188482
 30
0.0
 10
75.43513789227269
 20
3.503561877334901
 30
0.0
 10
74.78759651430959
 20
3.915174265418812
 30
0.0
  0
SPLINE
  5
20FD4
330
1F
100
AcDbEntity
  8
1
100
AcDbSpline
210
0.0
220
0.0
230
1.0
 70
     8
 71
     5
 72
    12
 73
     6
 74
     0
 42
0.000000001
 43
0.0000000001
 40
0.0
 40
0.0
 40
0.0
 40
0.0
 40
0.0
 40
0.0
 40
1.434860268575301
 40
1.434860268575301
 40
1.434860268575301
 40
1.434860268575301
 40
1.434860268575301
 40
1.434860268575301
 10
83.77334432651469
 20
2.739015693567464
 30
0.0
 10
83.77661086962735
 20
2.740938319120345
 30
0.0
 10
83.77605376310702
 20
2.751671796491848
 30
0.0
 10
83.77210397187559
 20
2.770221836667388
 30
0.0
 10
83.76443260667519
 20
2.797580548140246
 30
0.0
 10
83.75165875692095
 20
2.836978183806307
 30
0.0
  0
LINE
  5
20FD5
330
1F
100
AcDbEntity
  8
1
100
AcDbLine
 10
83.75165900000002
 20
2.836977999999986
 30
0.0
 11
83.71589700000004
 21
2.940245000000004
 31
0.0
  0
ARC
  5
20FD6
330
1F
100
AcDbEntity
  8
1
100
AcDbCircle
 10
83.94094799999994
 20
2.248222999999995
 30
0.0
 40
0.51875
100
AcDbArc
 50
108.9106169999958
 51
117.209517999999
  0
LINE
  5
20FD7
330
1F
100
AcDbEntity
  8
1
100
AcDbLine
 10
83.70367299999998
 20
2.709721000000001
 30
0.0
 11
83.67230299999983
 21
2.695074000000003
 31
0.0
  0
ARC
  5
20FD8
330
1F
100
AcDbEntity
  8
1
100
AcDbCircle
 10
81.75479700000005
 20
7.135582999999996
 30
0.0
 40
4.837823
100
AcDbArc
 50
281.2456319999951
 51
293.3557050000036
  0
SPLINE
  5
20FD9
330
1F
100
AcDbEntity
  8
1
100
AcDbSpline
210
0.0
220
0.0
230
1.0
 70
     8
 71
     5
 72
    33
 73
    27
 74
     0
 42
0.000000001
 43
0.0000000001
 40
0.0
 40
0.0
 40
0.0
 40
0.0
 40
0.0
 40
0.0
 40
7.027868710500791
 40
7.027868710500791
 40
7.027868710500791
 40
8.76819734456369
 40
8.76819734456369
 40
8.76819734456369
 40
11.53226419186176
 40
11.53226419186176
 40
11.53226419186176
 40
15.23686989094252
 40
15.23686989094252
 40
15.23686989094252
 40
16.81537737939276
 40
16.81537737939276
 40
16.81537737939276
 40
20.62614743348456
 40
20.62614743348456
 40
20.62614743348456
 40
23.07048513544824
 40
23.07048513544824
 40
23.07048513544824
 40
26.47052345468153
 40
26.47052345468153
 40
26.47052345468153
 40
26.47052345468153
 40
26.47052345468153
 40
26.47052345468153
 10
71.48005681864038
 20
5.238097651062362
 30
0.0
 10
70.77057084836042
 20
4.89669614023154
 30
0.0
 10
70.07705609713093
 20
4.520322602853381
 30
0.0
 10
69.40975966366409
 20
4.103480886003126
 30
0.0
 10
68.60915546925821
 20
3.513975233217506
 30
0.0
 10
67.91245323021235
 20
2.80591562262549
 30
0.0
 10
67.77881003535208
 20
2.660303731446274
 30
0.0
 10
67.44742983585457
 20
2.269974252482595
 30
0.0
 10
67.15970598270678
 20
1.84165403315373
 30
0.0
 10
67.00382016598382
 20
1.56329883322212
 30
0.0
 10
66.70497451710184
 20
0.878419212585527
 30
0.0
 10
66.59168960081456
 20
0.1322324041407796
 30
0.0
 10
66.60385316874135
 20
-0.2998779551827226
 30
0.0
 10
66.72753160733896
 20
-0.902992354415403
 30
0.0
 10
66.96782269961727
 20
-1.460788065749424
 30
0.0
 10
67.04908888929367
 20
-1.62327435150388
 30
0.0
 10
67.3530263039611
 20
-2.160088225904813
 30
0.0
 10
67.73919770954694
 20
-2.642614664280925
 30
0.0
 10
68.03984710274446
 20
-2.95773648099049
 30
0.0
 10
68.56277014644433
 20
-3.436359163483984
 30
0.0
 10
69.12451834145667
 20
-3.862043912470538
 30
0.0
 10
69.34926117506757
 20
-4.021466560973465
 30
0.0
 10
69.89567622255369
 20
-4.386445857153262
 30
0.0
 10
70.46215601774179
 20
-4.717130765693211
 30
0.0
 10
70.79730534383884
 20
-4.899576449796199
 30
0.0
 10
71.13681200498786
 20
-5.072929764914221
 30
0.0
 10
71.48005681864038
 20
-5.238097651066339
 30
0.0
  0
ARC
  5
20FDA
330
1F
100
AcDbEntity
  8
1
100
AcDbCircle
 10
47.37466399999993
 20
-29.617806
 30
0.0
 40
43.36038799999999
100
AcDbArc
 50
56.22518799999621
 51
58.35121299999268
  0
SPLINE
  5
20FDB
330
1F
100
AcDbEntity
  8
1
100
AcDbSpline
210
0.0
220
0.0
230
1.0
 70
     8
 71
     5
 72
    12
 73
     6
 74
     0
 42
0.000000001
 43
0.0000000001
 40
0.0
 40
0.0
 40
0.0
 40
0.0
 40
0.0
 40
0.0
 40
3.745056079454768
 40
3.745056079454768
 40
3.745056079454768
 40
3.745056079454768
 40
3.745056079454768
 40
3.745056079454768
 10
70.12629560609774
 20
7.293982119200393
 30
0.0
 10
69.79852521556359
 20
7.495607930056619
 30
0.0
 10
69.49348805632872
 20
7.707812960931562
 30
0.0
 10
69.2125421269659
 20
7.923607840887027
 30
0.0
 10
68.95499829391724
 20
8.135590170046098
 30
0.0
 10
68.71882139626791
 20
8.337034337958867
 30
0.0
  0
LINE
  5
20FDC
330
1F
100
AcDbEntity
  8
1
100
AcDbLine
 10
68.71882099999993
 20
8.337033999999986
 30
0.0
 11
68.17173699999989
 21
8.812353000000001
 31
0.0
  0
SPLINE
  5
20FDD
330
1F
100
AcDbEntity
  8
1
100
AcDbSpline
210
0.0
220
0.0
230
1.0
 70
     8
 71
     5
 72
    15
 73
     9
 74
     0
 42
0.000000001
 43
0.0000000001
 40
0.0
 40
0.0
 40
0.0
 40
0.0
 40
0.0
 40
0.0
 40
1.016060717175597
 40
1.016060717175597
 40
1.016060717175597
 40
1.616506589885495
 40
1.616506589885495
 40
1.616506589885495
 40
1.616506589885495
 40
1.616506589885495
 40
1.616506589885495
 10
68.61327804908275
 20
9.156841004935131
 30
0.0
 10
68.49927050394422
 20
9.147960994671336
 30
0.0
 10
68.38988249105
 20
9.132788377268411
 30
0.0
 10
68.28777594511915
 20
9.110048333418916
 30
0.0
 10
68.16008045314153
 20
9.059871805060083
 30
0.0
 10
68.10140153146085
 20
8.99171131865026
 30
0.0
 10
68.09058810608461
 20
8.964415042866164
 30
0.0
 10
68.09060615282692
 20
8.93595319997425
 30
0.0
 10
68.10032624410744
 20
8.90718497348871
 30
0.0
  0
ARC
  5
20FDE
330
1F
100
AcDbEntity
  8
1
100
AcDbCircle
 10
68.31433100000004
 20
8.995780999999992
 30
0.0
 40
0.231965
100
AcDbArc
 50
202.4891080000018
 51
232.139066000003
  0
ARC
  5
20FDF
330
1F
100
AcDbEntity
  8
1
100
AcDbCircle
 10
76.92674999999986
 20
-97.79264299999995
 30
0.0
 40
107.272128
100
AcDbArc
 50
93.28863600000385
 51
94.44481800000378
  0
ARC
  5
20FE0
330
1F
100
AcDbEntity
  8
1
100
AcDbCircle
 10
70.10836300000005
 20
8.501506000000006
 30
0.0
 40
1.040756999999999
100
AcDbArc
 50
50.32855899999781
 51
66.98461699999332
  0
ARC
  5
20FE1
330
1F
100
AcDbEntity
  8
1
100
AcDbCircle
 10
71.81718999999998
 20
27.707031
 30
0.0
 40
18.294353
100
AcDbArc
 50
264.4163360000074
 51
265.9187080000011
  0
LINE
  5
20FE2
330
1F
100
AcDbEntity
  8
1
100
AcDbLine
 10
70.03711699999985
 20
9.498990999999987
 30
0.0
 11
70.01648
 21
9.5
 31
0.0
  0
LINE
  5
20FE3
330
1F
100
AcDbEntity
  8
1
100
AcDbLine
 10
70.58288300000005
 20
9.428235
 30
0.0
 11
70.69661999999993
 21
9.419803999999999
 31
0.0
  0
ARC
  5
20FE4
330
1F
100
AcDbEntity
  8
1
100
AcDbCircle
 10
74.63002899999992
 20
-1.332956999999991
 30
0.0
 40
7.287136
100
AcDbArc
 50
106.3280150000059
 51
115.6117009999966
  0
ARC
  5
20FE5
330
1F
100
AcDbEntity
  8
1
100
AcDbCircle
 10
50.23313600000006
 20
-25.36155400000001
 30
0.0
 40
38.233468
100
AcDbArc
 50
54.2310149999969
 51
56.2399719999995
  0
ARC
  5
20FE6
330
1F
100
AcDbEntity
  8
1
100
AcDbCircle
 10
80.79786199999992
 20
13.35507200000001
 30
0.0
 40
11.190909
100
AcDbArc
 50
229.0263410000023
 51
237.515600000004
  0
ARC
  5
20FE7
330
1F
100
AcDbEntity
  8
1
100
AcDbCircle
 10
-7.208066000000142
 20
-88.11658600000001
 30
0.0
 40
123.12783
100
AcDbArc
 50
49.06856000000058
 51
49.60745599999738
  0
LINE
  5
20FE8
330
1F
100
AcDbEntity
  8
1
100
AcDbLine
 10
83.71589500000004
 20
2.940243000000009
 30
0.0
 11
83.36012000000005
 21
2.740149000000001
 31
0.0
  0
LINE
  5
20FE9
330
1F
100
AcDbEntity
  8
1
100
AcDbLine
 10
71.2110439999999
 20
7.557390999999995
 30
0.0
 11
70.62548500000002
 21
6.981745999999986
 31
0.0
  0
LINE
  5
20FEA
330
1F
100
AcDbEntity
  8
1
100
AcDbLine
 10
70.77297599999997
 20
9.302846999999983
 30
0.0
 11
71.2110439999999
 21
7.557390999999995
 31
0.0
  0
ARC
  5
20FEB
330
1F
100
AcDbEntity
  8
1
100
AcDbCircle
 10
40.78557799999996
 20
39.499999
 30
0.0
 40
29.999999
100
AcDbArc
 50
266.9999999999944
 51
270.0
  0
ARC
  5
20FEC
330
1F
100
AcDbEntity
  8
1
100
AcDbCircle
 10
40.78557799999996
 20
-39.499999
 30
0.0
 40
29.999999
100
AcDbArc
 50
90.0
 51
93.00000000000556
  0
LINE
  5
20FED
330
1F
100
AcDbEntity
  8
1
100
AcDbLine
 10
39.2154989999999
 20
9.541113999999991
 30
0.0
 11
16.29952800000001
 21
10.74208899999999
 31
0.0
  0
LINE
  5
20FEE
330
1F
100
AcDbEntity
  8
1
100
AcDbLine
 10
39.2154989999999
 20
-9.541113999999991
 30
0.0
 11
16.29952800000001
 21
-10.74208899999999
 31
0.0
  0
ARC
  5
20FEF
330
1F
100
AcDbEntity
  8
1
100
AcDbCircle
 10
17.08456699999988
 20
25.721532
 30
0.0
 40
15.0
100
AcDbArc
 50
241.8160119999973
 51
266.9999999999944
  0
ARC
  5
20FF0
330
1F
100
AcDbEntity
  8
1
100
AcDbCircle
 10
17.08456699999988
 20
-25.721532
 30
0.0
 40
15.0
100
AcDbArc
 50
93.00000000000556
 51
118.1839880000026
  0
LINE
  5
20FF1
330
1F
100
AcDbEntity
  8
SK1
100
AcDbLine
 10
-71.0
 20
12.5
 30
0.0
 11
0.0
 21
12.5
 31
0.0
  0
LINE
  5
20FF2
330
1F
100
AcDbEntity
  8
1
100
AcDbLine
 10
0.0
 20
12.5
 30
0.0
 11
10.0
 21
12.5
 31
0.0
  0
LINE
  5
20FF3
330
1F
100
AcDbEntity
  8
SK1
100
AcDbLine
 10
-71.0
 20
-12.5
 30
0.0
 11
0.0
 21
-12.5
 31
0.0
  0
LINE
  5
20FF4
330
1F
100
AcDbEntity
  8
1
100
AcDbLine
 10
0.0
 20
-12.5
 30
0.0
 11
10.0
 21
-12.5
 31
0.0
  0
LINE
  5
20FF5
330
1F
100
AcDbEntity
  8
SK1
100
AcDbLine
 10
-74.0
 20
12.375
 30
0.0
 11
-71.0
 21
12.375
 31
0.0
  0
LINE
  5
20FF6
330
1F
100
AcDbEntity
  8
SK1
100
AcDbLine
 10
-74.0
 20
-12.375
 30
0.0
 11
-71.0
 21
-12.375
 31
0.0
  0
ARC
  5
20FF7
330
1F
100
AcDbEntity
  8
SK1
100
AcDbCircle
 10
-74.0
 20
11.375
 30
0.0
 40
1.0
100
AcDbArc
 50
90.0
 51
180.0
  0
ARC
  5
20FF8
330
1F
100
AcDbEntity
  8
SK1
100
AcDbCircle
 10
-74.0
 20
-11.375
 30
0.0
 40
1.0
100
AcDbArc
 50
180.0
 51
270.0
  0
ARC
  5
20FF9
330
1F
100
AcDbEntity
  8
1
100
AcDbCircle
 10
71.48005699999998
 20
20.5
 30
0.0
 40
30.0
100
AcDbArc
 50
270.0
 51
273.5410669999964
  0
ARC
  5
20FFA
330
1F
100
AcDbEntity
  8
1
100
AcDbCircle
 10
74.99969199999988
 20
-0.0000599999999906
 30
0.0
 40
9.200312
100
AcDbArc
 50
4.278553000000918
 51
17.96060999999692
  0
LINE
  5
20FFB
330
1F
100
AcDbEntity
  8
1
100
AcDbLine
 10
40.78557799999996
 20
-9.5
 30
0.0
 11
71.48005699999998
 21
-9.5
 31
0.0
  0
LINE
  5
20FFC
330
1F
100
AcDbEntity
  8
1
100
AcDbLine
 10
40.78557799999996
 20
9.5
 30
0.0
 11
70.01648
 21
9.5
 31
0.0
  0
SPLINE
  5
20FFD
330
1F
100
AcDbEntity
  8
1
100
AcDbSpline
210
0.0
220
0.0
230
1.0
 70
     8
 71
     5
 72
    24
 73
    18
 74
     0
 42
0.000000001
 43
0.0000000001
 40
0.0
 40
0.0
 40
0.0
 40
0.0
 40
0.0
 40
0.0
 40
1.987183557824725
 40
1.987183557824725
 40
1.987183557824725
 40
3.314760664473562
 40
3.314760664473562
 40
3.314760664473562
 40
4.648926825138008
 40
4.648926825138008
 40
4.648926825138008
 40
5.317320239529903
 40
5.317320239529903
 40
5.317320239529903
 40
6.592194910006803
 40
6.592194910006803
 40
6.592194910006803
 40
6.592194910006803
 40
6.592194910006803
 40
6.592194910006803
 10
78.4538971563627
 20
2.360175276570628
 30
0.0
 10
78.7131677506063
 20
2.462607676891819
 30
0.0
 10
78.96054322302687
 20
2.595705094262654
 30
0.0
 10
79.19006596289865
 20
2.756879956434999
 30
0.0
 10
79.54064335009729
 20
3.069487489610279
 30
0.0
 10
79.82447242476064
 20
3.443020776451333
 30
0.0
 10
79.92769887734015
 20
3.602672157700907
 30
0.0
 10
80.10655081632718
 20
3.934439644095873
 30
0.0
 10
80.23286167704009
 20
4.290050106079917
 30
0.0
 10
80.28251658108388
 20
4.472162076095628
 30
0.0
 10
80.33895142694268
 20
4.751595704061626
 30
0.0
 10
80.36251938553595
 20
5.034795799396048
 30
0.0
 10
80.36650171520681
 20
5.129809693636929
 30
0.0
 10
80.36598484368097
 20
5.405110735264401
 30
0.0
 10
80.32829942828858
 20
5.677731816973761
 30
0.0
 10
80.28250603674905
 20
5.874749866491129
 30
0.0
 10
80.23666110841281
 20
6.049555107617607
 30
0.0
 10
80.1908154902958
 20
6.224360214098907
 30
0.0
  0
SPLINE
  5
20FFE
330
1F
100
AcDbEntity
  8
1
100
AcDbSpline
210
0.0
220
0.0
230
1.0
 70
     8
 71
     5
 72
    24
 73
    18
 74
     0
 42
0.000000001
 43
0.0000000001
 40
0.0
 40
0.0
 40
0.0
 40
0.0
 40
0.0
 40
0.0
 40
0.6462069284197851
 40
0.6462069284197851
 40
0.6462069284197851
 40
1.290646041279367
 40
1.290646041279367
 40
1.290646041279367
 40
2.594207483968244
 40
2.594207483968244
 40
2.594207483968244
 40
5.210928591251624
 40
5.210928591251624
 40
5.210928591251624
 40
6.497886983820512
 40
6.497886983820512
 40
6.497886983820512
 40
6.497886983820512
 40
6.497886983820512
 40
6.497886983820512
 10
76.05210644074282
 20
7.937120310552217
 30
0.0
 10
75.97355538071884
 20
7.891656714004597
 30
0.0
 10
75.8950044658327
 20
7.846192887098792
 30
0.0
 10
75.81702559847646
 20
7.799708223913227
 30
0.0
 10
75.66389352509645
 20
7.702944626632643
 30
0.0
 10
75.51873845402247
 20
7.594535826858217
 30
0.0
 10
75.44762425949329
 20
7.534894775562378
 30
0.0
 10
75.24484698870242
 20
7.350193136896052
 30
0.0
 10
75.06464585744787
 20
7.141581150595781
 30
0.0
 10
74.95350885575977
 20
6.995577915868862
 30
0.0
 10
74.65401781196328
 20
6.529047182129372
 30
0.0
 10
74.46466681050606
 20
6.001161429669451
 30
0.0
 10
74.39188800277975
 20
5.635452899900172
 30
0.0
 10
74.3652934665331
 20
5.077188254480346
 30
0.0
 10
74.46082617674459
 20
4.531736963533175
 30
0.0
 10
74.50523034329306
 20
4.358069490189336
 30
0.0
 10
74.56240285105581
 20
4.184839021864434
 30
0.0
 10
74.63132777354122
 20
4.016407066685642
 30
0.0
  0
SPLINE
  5
20FFF
330
1F
100
AcDbEntity
  8
1
100
AcDbSpline
210
0.0
220
0.0
230
1.0
 70
     8
 71
     5
 72
    21
 73
    15
 74
     0
 42
0.000000001
 43
0.0000000001
 40
0.0
 40
0.0
 40
0.0
 40
0.0
 40
0.0
 40
0.0
 40
0.5275732688174001
 40
0.5275732688174001
 40
0.5275732688174001
 40
1.268433526882956
 40
1.268433526882956
 40
1.268433526882956
 40
2.00865885297736
 40
2.00865885297736
 40
2.00865885297736
 40
2.513873456227805
 40
2.513873456227805
 40
2.513873456227805
 40
2.513873456227805
 40
2.513873456227805
 40
2.513873456227805
 10
76.00950862005901
 20
7.916923616162106
 30
0.0
 10
76.07769231570114
 20
7.944682380159262
 30
0.0
 10
76.14587649140185
 20
7.972439748480097
 30
0.0
 10
76.18362090739584
 20
7.981913464448155
 30
0.0
 10
76.35436732554126
 20
8.02687373686507
 30
0.0
 10
76.52485012277316
 20
8.075354419600984
 30
0.0
 10
76.60986173091669
 20
8.099018510397911
 30
0.0
 10
76.80694387167045
 20
8.165208532138592
 30
0.0
 10
77.00246247236191
 20
8.238470475942165
 30
0.0
 10
77.09013793606255
 20
8.270289590820681
 30
0.0
 10
77.25813424277133
 20
8.323230447911639
 30
0.0
 10
77.43012972873384
 20
8.361474088953713
 30
0.0
 10
77.48652268032947
 20
8.370574350199971
 30
0.0
 10
77.55744770854448
 20
8.378911939882867
 30
0.0
 10
77.62837284391117
 20
8.387248761077525
 30
0.0
  0
SPLINE
  5
21000
330
1F
100
AcDbEntity
  8
1
100
AcDbSpline
210
0.0
220
0.0
230
1.0
 70
     8
 71
     5
 72
    21
 73
    15
 74
     0
 42
0.000000001
 43
0.0000000001
 40
0.0
 40
0.0
 40
0.0
 40
0.0
 40
0.0
 40
0.0
 40
0.7119819003992621
 40
0.7119819003992621
 40
0.7119819003992621
 40
1.754134555561015
 40
1.754134555561015
 40
1.754134555561015
 40
2.783664038539267
 40
2.783664038539267
 40
2.783664038539267
 40
3.475608352071712
 40
3.475608352071712
 40
3.475608352071712
 40
3.475608352071712
 40
3.475608352071712
 40
3.475608352071712
 10
77.62837280595248
 20
8.387248783528036
 30
0.0
 10
77.7285840401214
 20
8.396617494164301
 30
0.0
 10
77.82879532701874
 20
8.405985482218964
 30
0.0
 10
77.91496001712832
 20
8.410721222815737
 30
0.0
 10
78.16323496855853
 20
8.409809083381702
 30
0.0
 10
78.40955015957002
 20
8.377488800316085
 30
0.0
 10
78.5508219661458
 20
8.345204869352329
 30
0.0
 10
78.82794088259425
 20
8.249272494447325
 30
0.0
 10
79.07602932936197
 20
8.096392116374799
 30
0.0
 10
79.18986557454537
 20
8.007766198223322
 30
0.0
 10
79.36351847855417
 20
7.842033932887432
 30
0.0
 10
79.51356048003344
 20
7.655636207205017
 30
0.0
 10
79.5602298066012
 20
7.590259431560752
 30
0.0
 10
79.61242727587296
 20
7.509507560184317
 30
0.0
 10
79.66462408527945
 20
7.428755232310862
 30
0.0
  0
LINE
  5
21001
330
1F
100
AcDbEntity
  8
1
100
AcDbLine
 10
79.66462400000001
 20
7.428754999999995
 30
0.0
 11
79.7173909999999
 21
7.340721999999997
 31
0.0
  0
SPLINE
  5
21002
330
1F
100
AcDbEntity
  8
1
100
AcDbSpline
210
0.0
220
0.0
230
1.0
 70
     8
 71
     5
 72
    21
 73
    15
 74
     0
 42
0.000000001
 43
0.0000000001
 40
0.0
 40
0.0
 40
0.0
 40
0.0
 40
0.0
 40
0.0
 40
0.5295102024359776
 40
0.5295102024359776
 40
0.5295102024359776
 40
1.23908206735798
 40
1.23908206735798
 40
1.23908206735798
 40
1.611552757552774
 40
1.611552757552774
 40
1.611552757552774
 40
1.786425968270725
 40
1.786425968270725
 40
1.786425968270725
 40
1.786425968270725
 40
1.786425968270725
 40
1.786425968270725
 10
79.71739129633147
 20
7.340722397165789
 30
0.0
 10
79.75458947715059
 20
7.277062013953098
 30
0.0
 10
79.79178675293519
 20
7.213401087394371
 30
0.0
 10
79.81984562478328
 20
7.155620037189095
 30
0.0
 10
79.89176475755539
 20
6.998144359332088
 30
0.0
 10
79.95319828579932
 20
6.835496392022178
 30
0.0
 10
79.98174788236067
 20
6.753159151587766
 30
0.0
 10
80.0342851480002
 20
6.610123345385487
 30
0.0
 10
80.09078534421337
 20
6.468303855017691
 30
0.0
 10
80.1040026253454
 20
6.435923691376017
 30
0.0
 10
80.13543525487921
 20
6.365288746449463
 30
0.0
 10
80.16450554244011
 20
6.293653448268343
 30
0.0
 10
80.17332538988673
 20
6.270572395595477
 30
0.0
 10
80.182070312419
 20
6.247466850838207
 30
0.0
 10
80.19081511278409
 20
6.224361257410745
 30
0.0
  0
POINT
  5
21005
330
1F
100
AcDbEntity
  8
1
100
AcDbPoint
 10
75.0
 20
-10.0
 30
0.0
  0
LINE
  5
21007
330
1F
100
AcDbEntity
  8
SK3
100
AcDbLine
 10
-73.0
 20
2.5
 30
0.0
 11
-73.0
 21
-2.193955999999984
 31
0.0
  0
LINE
  5
21008
330
1F
100
AcDbEntity
  8
SK3
100
AcDbLine
 10
-73.0
 20
2.193955999999984
 30
0.0
 11
-73.0
 21
-2.5
 31
0.0
  0
LINE
  5
21009
330
1F
100
AcDbEntity
  8
SK3
100
AcDbLine
 10
68.290074
 20
2.193955999999984
 30
0.0
 11
68.290074
 21
-2.5
 31
0.0
  0
LINE
  5
2100A
330
1F
100
AcDbEntity
  8
SK3
100
AcDbLine
 10
68.290074
 20
2.5
 30
0.0
 11
68.290074
 21
-2.193955999999984
 31
0.0
  0
LINE
  5
2100B
330
1F
100
AcDbEntity
  8
SK3
100
AcDbLine
 10
-73.0
 20
2.5
 30
0.0
 11
-75.0
 21
3.654701000000017
 31
0.0
  0
LINE
  5
2100C
330
1F
100
AcDbEntity
  8
SK3
100
AcDbLine
 10
-73.0
 20
-2.5
 30
0.0
 11
-75.0
 21
-3.654701000000017
 31
0.0
  0
LINE
  5
21014
330
1F
100
AcDbEntity
  8
SK3
100
AcDbLine
 10
69.19999999999982
 20
0.0
 30
0.0
 11
68.290074
 21
-2.5
 31
0.0
  0
LINE
  5
21015
330
1F
100
AcDbEntity
  8
SK3
100
AcDbLine
 10
69.19999999999982
 20
0.0
 30
0.0
 11
68.290074
 21
2.5
 31
0.0
  0
LINE
  5
21016
330
1F
100
AcDbEntity
  8
SK3
100
AcDbLine
 10
68.290074
 20
-2.5
 30
0.0
 11
-73.0
 21
-2.5
 31
0.0
  0
LINE
  5
21017
330
1F
100
AcDbEntity
  8
SK3
100
AcDbLine
 10
68.290074
 20
2.5
 30
0.0
 11
-73.0
 21
2.5
 31
0.0
  0
POINT
  5
21022
330
1F
100
AcDbEntity
  8
1
100
AcDbPoint
 10
77.0
 20
-10.0
 30
0.0
  0
DIMENSION
  5
21023
330
1F
100
AcDbEntity
  8
SK2
100
AcDbDimension
  2
*D2
 10
-87.10427837268403
 20
-12.49999999999999
 30
0.0
 11
-89.05741962356243
 21
-0.0000000000000086
 31
0.0
 70
    32
  1
%%C<>
 71
     5
 42
25.0
  3
STANDARD
100
AcDbAlignedDimension
 13
-71.0
 23
12.5
 33
0.0
 14
-71.0
 24
-12.5
 34
0.0
 50
90.0
100
AcDbRotatedDimension
  0
DIMENSION
  5
21024
330
1F
100
AcDbEntity
  8
SK2
100
AcDbDimension
  2
*D3
 10
85.0028765496429
 20
-31.65683614148176
 30
0.0
 11
5.001438274821452
 21
-29.75534633122175
 31
0.0
 70
    32
 71
     5
 42
160.0028765496429
  3
STANDARD
100
AcDbAlignedDimension
 13
-75.0
 23
-11.375
 33
0.0
 14
85.0028765496429
 24
0.0003530368861391
 34
0.0
100
AcDbRotatedDimension
  0
DIMENSION
  5
21025
330
1F
100
AcDbEntity
  8
2
100
AcDbDimension
  2
*D4
 10
85.02983080724925
 20
42.77519493335725
 30
0.0
 11
47.5129458772816
 21
44.67668474361728
 31
0.0
 70
    32
 71
     5
 42
75.03376985993532
  3
STANDARD
100
AcDbAlignedDimension
 13
9.996060947313935
 23
14.50633604736546
 33
0.0
 14
85.02983080724925
 24
10.02424031185225
 34
0.0
100
AcDbRotatedDimension
  0
DIMENSION
  5
21028
330
1F
100
AcDbEntity
  8
2
100
AcDbDimension
  2
*D5
 10
85.02983080724925
 20
16.06475941703584
 30
0.0
 11
102.640154067966
 21
18.43972076629796
 31
0.0
 70
    32
  1
Ap13.66
 71
     5
 42
13.67613763530517
  3
STANDARD
100
AcDbAlignedDimension
 13
71.35369317194409
 23
11.65856864051531
 33
0.0
 14
85.02983080724925
 24
10.02424031185225
 34
0.0
100
AcDbRotatedDimension
1001
ACAD
1000
DSTYLE
1002
{
1070
   172
1070
     1
1002
}
  0
DIMENSION
  5
21029
330
1F
100
AcDbEntity
  8
2
100
AcDbDimension
  2
*D6
 10
99.90085109367694
 20
-0.0000000000000034
 30
0.0
 11
97.4127098427985
 21
-3.748951785331231
 31
0.0
 70
    32
  1
%%C20
 71
     5
 42
9.997903570662488
  3
DIAMETER
100
AcDbAlignedDimension
 13
77.03102921090863
 23
-9.997903570662487
 33
0.0
 14
87.8547309999999
 24
0.0
 34
0.0
 50
90.0
100
AcDbRotatedDimension
1001
ACAD
1000
DSTYLE
1002
{
1070
   172
1070
     1
1002
}
  0
LWPOLYLINE
  5
210E4
330
1F
100
AcDbEntity
  8
NOCUT
100
AcDbPolyline
 90
        9
 70
     1
 43
0.0
 10
16.29952765635585
 20
10.74208897868138
 10
39.2154989999999
 20
9.541113999999991
 42
0.0150818112378295
 10
40.78557799999996
 20
9.5
 10
71.48005699999998
 20
9.5
 42
-0.0425372147317906
 10
76.55689801310629
 20
9.067307680716766
 42
-0.3652409823175909
 10
84.20000000000005
 20
0.0
 10
0.0
 20
0.0
 10
0.0
 20
12.5
 10
10.0
 20
12.5
 42
0.1103313926281629
  0
LWPOLYLINE
  5
21186
330
1F
100
AcDbEntity
  8
CUT
100
AcDbPolyline
 90
        4
 70
     1
 43
0.0
 10
85.0028765496429
 20
0.0003530368861391
 10
71.34287654964281
 20
0.0003530368861391
 10
71.34287654964281
 20
10.00035303688611
 10
75.0028765496429
 20
10.00035303688614
 42
-0.4142135623730951
  0
VIEWPORT
  5
9C00
102
{ACAD_XDICTIONARY
360
2121A
102
}
330
1B
100
AcDbEntity
 67
     1
  8
0
100
AcDbViewport
 10
108.2280559557949
 20
71.69854161746989
 30
0.0
 40
251.8950231529317
 41
201.8884082081047
 68
     1
 69
     1
 12
108.2280559557949
 22
71.69854161746989
 13
0.0
 23
0.0
 14
10.0
 24
10.0
 15
10.0
 25
10.0
 16
0.0
 26
0.0
 36
1.0
 17
0.0
 27
0.0
 37
0.0
 42
50.0
 43
0.0
 44
0.0
 45
201.8884082081047
 50
0.0
 51
0.0
 72
   100
 90
   557088
  1

281
     0
 71
     1
 74
     0
110
0.0
120
0.0
130
0.0
111
1.0
121
0.0
131
0.0
112
0.0
122
1.0
132
0.0
 79
     0
146
0.0
  0
VIEWPORT
  5
9C02
102
{ACAD_XDICTIONARY
360
2121C
102
}
330
1B
100
AcDbEntity
 67
     1
  8
1
100
AcDbViewport
 10
143.457083940506
 20
98.18158769607544
 30
0.0
 40
229.5313343048095
 41
157.0905403137207
 68
     2
 69
     2
 12
-44.37697124786255
 22
-35.12342998133886
 13
0.0
 23
0.0
 14
10.0
 24
10.0
 15
10.0
 25
10.0
 16
0.0
 26
0.0
 36
1.0
 17
0.0
 27
0.0
 37
0.0
 42
50.0
 43
0.0
 44
0.0
 45
300.3886240724386
 50
0.0
 51
0.0
 72
   100
 90
   557088
  1

281
     0
 71
     1
 74
     0
110
0.0
120
0.0
130
0.0
111
1.0
121
0.0
131
0.0
112
0.0
122
1.0
132
0.0
 79
     0
146
0.0
  0
ENDSEC
  0
SECTION
  2
OBJECTS
  0
DICTIONARY
  5
3182
330
0
100
AcDbDictionary
281
     1
  3
ACAD_2007HEADERVARS_RT
350
211F2
  3
ACAD_CIP_PREVIOUS_PRODUCT_INFO
350
1B2F4
  3
ACAD_COLOR
350
31A0
  3
ACAD_DETAILVIEWSTYLE
350
1B2F0
  3
ACAD_FIELDLIST
350
20CBF
  3
ACAD_GROUP
350
3183
  3
ACAD_LAYOUT
350
31A5
  3
ACAD_MATERIAL
350
318B
  3
ACAD_MLEADERSTYLE
350
1B221
  3
ACAD_MLINESTYLE
350
3184
  3
ACAD_PLOTSETTINGS
350
31A4
  3
ACAD_PLOTSTYLENAME
350
3189
  3
ACAD_SCALELIST
350
1B1FC
  3
ACAD_SECTIONVIEWSTYLE
350
1B2EE
  3
ACAD_TABLESTYLE
350
31A1
  3
ACAD_VISUALSTYLE
350
318F
  3
ACDB_RECOMPOSE_DATA
350
211F0
  3
AcDbVariableDictionary
350
33A3
  3
AEC_PROPERTY_SET_DEFS
350
20EF2
  3
DWGPROPS
350
211F1
  0
DICTIONARY
  5
422A
330
2
100
AcDbDictionary
280
     1
281
     1
  3
ACAD_LAYERFILTERS
360
1B063
  3
ACAD_LAYERSTATES
360
9A1C
  3
ACLYDICTIONARY
360
1B062
  0
DICTIONARY
  5
1B2F5
330
10
100
AcDbDictionary
280
     1
281
     1
  3
ADSK_XREC_LAYER_RECONCILED
360
20CDE
  0
DICTIONARY
  5
1B2F7
330
3F8C
100
AcDbDictionary
280
     1
281
     1
  3
ADSK_XREC_LAYER_RECONCILED
360
20CDF
  0
DICTIONARY
  5
1B2F9
330
9C4A
100
AcDbDictionary
280
     1
281
     1
  3
ADSK_XREC_LAYER_RECONCILED
360
20CE0
  0
DICTIONARY
  5
1B2FB
330
9C4B
100
AcDbDictionary
280
     1
281
     1
  3
ADSK_XREC_LAYER_RECONCILED
360
20CE1
  0
DICTIONARY
  5
1B2FD
330
9C4D
100
AcDbDictionary
280
     1
281
     1
  3
ADSK_XREC_LAYER_RECONCILED
360
20CE2
  0
DICTIONARY
  5
1B2FF
330
9C4E
100
AcDbDictionary
280
     1
281
     1
  3
ADSK_XREC_LAYER_RECONCILED
360
20CE3
  0
DICTIONARY
  5
1B301
330
9C4F
100
AcDbDictionary
280
     1
281
     1
  3
ADSK_XREC_LAYER_RECONCILED
360
20CE4
  0
DICTIONARY
  5
1B303
330
9C50
100
AcDbDictionary
280
     1
281
     1
  3
ADSK_XREC_LAYER_RECONCILED
360
20CE5
  0
DICTIONARY
  5
1B305
330
9C51
100
AcDbDictionary
280
     1
281
     1
  3
ADSK_XREC_LAYER_RECONCILED
360
20CE6
  0
DICTIONARY
  5
1B307
330
13335
100
AcDbDictionary
280
     1
281
     1
  3
ADSK_XREC_LAYER_RECONCILED
360
20CE7
  0
DICTIONARY
  5
1B309
330
1686E
100
AcDbDictionary
280
     1
281
     1
  3
ADSK_XREC_LAYER_RECONCILED
360
20CE8
  0
DICTIONARY
  5
20CEA
330
20A91
100
AcDbDictionary
280
     1
281
     1
  3
ADSK_XREC_LAYER_RECONCILED
360
20CEB
  0
DICTIONARY
  5
339C
330
1F
100
AcDbDictionary
280
     1
281
     1
  3
ACAD_SORTENTS
360
339D
  0
DICTIONARY
  5
1DE81
330
1B3D7
100
AcDbDictionary
280
     1
281
     1
  3
AcDbBlockTableRecordData
360
21236
  0
DICTIONARY
  5
2121A
330
9C00
100
AcDbDictionary
280
     1
281
     1
  3
ACAD_XREC_ROUNDTRIP
360
2121B
  0
DICTIONARY
  5
2121C
330
9C02
100
AcDbDictionary
280
     1
281
     1
  3
ACAD_XREC_ROUNDTRIP
360
2121D
  0
DICTIONARY
  5
211F2
102
{ACAD_REACTORS
330
3182
102
}
330
3182
100
AcDbDictionary
281
     1
  3
DIMFXL
350
211F3
  3
DIMJOGANG
350
211F4
  0
XRECORD
  5
1B2F4
102
{ACAD_REACTORS
330
3182
102
}
330
3182
100
AcDbXrecord
280
     1
300
ACDLT
300
2015
300
ACDLT_F_S
  0
DICTIONARY
  5
31A0
102
{ACAD_REACTORS
330
3182
102
}
330
3182
100
AcDbDictionary
281
     1
  0
DICTIONARY
  5
1B2F0
102
{ACAD_REACTORS
330
3182
102
}
330
3182
100
AcDbDictionary
281
     1
  3
Imperial24
350
20CB3
  3
Metric50
350
1B2F1
  0
FIELDLIST
  5
20CBF
102
{ACAD_REACTORS
330
3182
102
}
330
3182
100
AcDbIdSet
 90
        0
100
AcDbFieldList
  0
DICTIONARY
  5
3183
102
{ACAD_REACTORS
330
3182
102
}
330
3182
100
AcDbDictionary
281
     1
  0
DICTIONARY
  5
31A5
102
{ACAD_REACTORS
330
3182
102
}
330
3182
100
AcDbDictionary
281
     1
  3
Layout1
350
31A7
  3
Model
350
31A6
  0
DICTIONARY
  5
318B
102
{ACAD_REACTORS
330
3182
102
}
330
3182
100
AcDbDictionary
281
     1
  3
ByBlock
350
318D
  3
ByLayer
350
318C
  3
Global
350
318E
  0
DICTIONARY
  5
1B221
102
{ACAD_REACTORS
330
3182
102
}
330
3182
100
AcDbDictionary
281
     1
  3
Standard
350
1B2ED
  0
DICTIONARY
  5
3184
102
{ACAD_REACTORS
330
3182
102
}
330
3182
100
AcDbDictionary
281
     1
  3
STANDARD
350
3185
  0
DICTIONARY
  5
31A4
102
{ACAD_REACTORS
330
3182
102
}
330
3182
100
AcDbDictionary
281
     1
  0
ACDBDICTIONARYWDFLT
  5
3189
102
{ACAD_REACTORS
330
3182
102
}
330
3182
100
AcDbDictionary
281
     1
  3
Normal
350
318A
100
AcDbDictionaryWithDefault
340
318A
  0
DICTIONARY
  5
1B1FC
102
{ACAD_REACTORS
330
3182
102
}
330
3182
100
AcDbDictionary
281
     1
  3
A0
350
1B1FD
  3
A1
350
1B1FE
  3
A2
350
1B1FF
  3
A3
350
1B200
  3
A4
350
1B201
  3
A5
350
1B202
  3
A6
350
1B203
  3
A7
350
1B204
  3
A8
350
1B205
  3
A9
350
1B206
  3
B0
350
1B207
  3
B1
350
1B208
  3
B2
350
1B209
  3
B3
350
1B20A
  3
B4
350
1B20B
  3
B5
350
1B20C
  3
B6
350
1B20D
  3
B7
350
1B20E
  3
B8
350
1B20F
  3
B9
350
1B210
  3
C0
350
1B211
  3
C1
350
1B212
  3
C2
350
1B213
  3
C3
350
1B214
  3
C4
350
1B215
  3
C5
350
1B216
  3
C6
350
1B217
  3
C7
350
1B218
  3
C8
350
1B219
  3
C9
350
1B21A
  3
D0
350
1B21B
  3
D1
350
1B21C
  3
D2
350
1B21D
  0
DICTIONARY
  5
1B2EE
102
{ACAD_REACTORS
330
3182
102
}
330
3182
100
AcDbDictionary
281
     1
  3
Imperial24
350
20CB1
  3
Metric50
350
1B2EF
  0
DICTIONARY
  5
31A1
102
{ACAD_REACTORS
330
3182
102
}
330
3182
100
AcDbDictionary
281
     1
  3
Standard
350
31A2
  0
DICTIONARY
  5
318F
102
{ACAD_REACTORS
330
3182
102
}
330
3182
100
AcDbDictionary
281
     1
  3
2dWireframe
350
3195
  3
3D Hidden
350
3197
  3
3dWireframe
350
3196
  3
Basic
350
3194
  3
Brighten
350
319B
  3
ColorChange
350
319F
  3
Conceptual
350
3198
  3
Dim
350
319A
  3
EdgeColorOff
350
1B2EC
  3
Facepattern
350
319E
  3
Flat
350
3190
  3
FlatWithEdges
350
3191
  3
Gouraud
350
3192
  3
GouraudWithEdges
350
3193
  3
Hidden
350
1B2E4
  3
JitterOff
350
1B2EA
  3
Linepattern
350
319D
  3
OverhangOff
350
1B2EB
  3
Realistic
350
3199
  3
Shaded
350
1B2E9
  3
Shaded with edges
350
1B2E8
  3
Shades of Gray
350
1B2E5
  3
Sketchy
350
1B2E6
  3
Thicken
350
319C
  3
Wireframe
350
1B2E3
  3
X-Ray
350
1B2E7
  0
XRECORD
  5
211F0
102
{ACAD_REACTORS
330
3182
102
}
330
3182
100
AcDbXrecord
280
     1
 90
        1
330
31A2
  0
DICTIONARY
  5
33A3
102
{ACAD_REACTORS
330
3182
102
}
330
3182
100
AcDbDictionary
281
     1
  3
CANNOSCALE
350
1B222
  3
CMLEADERSTYLE
350
1B30F
  3
CTABLESTYLE
350
33A4
  3
CVIEWDETAILSTYLE
350
1B310
  3
CVIEWSECTIONSTYLE
350
1B311
  3
DIMASSOC
350
9BE8
  3
INDEXCTL
350
9BE7
  3
LAYEREVAL
350
20993
  3
LAYERNOTIFY
350
20994
  3
LIGHTINGUNITS
350
20992
  3
MSLTSCALE
350
20991
  3
SORTENTS
350
9BE6
  3
XCLIPFRAME
350
211EE
  0
DICTIONARY
  5
20EF2
102
{ACAD_REACTORS
330
3182
102
}
330
3182
100
AcDbDictionary
281
     1
  0
XRECORD
  5
211F1
102
{ACAD_REACTORS
330
3182
102
}
330
3182
100
AcDbXrecord
280
     1
  1
DWGPROPS COOKIE
  2

  3

  4

  6

  7

  8
kamerka
  9

300
=
301
=
302
=
303
=
304
=
305
=
306
=
307
=
308
=
309
=
 40
0.0041960532407407
 41
2457366.477918172
 42
2457780.543603657
  1

 90
        0
  0
DICTIONARY
  5
1B063
102
{ACAD_REACTORS
330
422A
102
}
330
422A
100
AcDbDictionary
281
     1
  0
DICTIONARY
  5
9A1C
102
{ACAD_REACTORS
330
422A
102
}
330
422A
100
AcDbDictionary
281
     1
  0
DICTIONARY
  5
1B062
102
{ACAD_REACTORS
330
422A
102
}
330
422A
100
AcDbDictionary
281
     1
1001
ACAD
1000
<All
  0
XRECORD
  5
20CDE
102
{ACAD_REACTORS
330
1B2F5
102
}
330
1B2F5
100
AcDbXrecord
280
     1
290
     1
  0
XRECORD
  5
20CDF
102
{ACAD_REACTORS
330
1B2F7
102
}
330
1B2F7
100
AcDbXrecord
280
     1
290
     1
  0
XRECORD
  5
20CE0
102
{ACAD_REACTORS
330
1B2F9
102
}
330
1B2F9
100
AcDbXrecord
280
     1
290
     1
  0
XRECORD
  5
20CE1
102
{ACAD_REACTORS
330
1B2FB
102
}
330
1B2FB
100
AcDbXrecord
280
     1
290
     1
  0
XRECORD
  5
20CE2
102
{ACAD_REACTORS
330
1B2FD
102
}
330
1B2FD
100
AcDbXrecord
280
     1
290
     1
  0
XRECORD
  5
20CE3
102
{ACAD_REACTORS
330
1B2FF
102
}
330
1B2FF
100
AcDbXrecord
280
     1
290
     1
  0
XRECORD
  5
20CE4
102
{ACAD_REACTORS
330
1B301
102
}
330
1B301
100
AcDbXrecord
280
     1
290
     1
  0
XRECORD
  5
20CE5
102
{ACAD_REACTORS
330
1B303
102
}
330
1B303
100
AcDbXrecord
280
     1
290
     1
  0
XRECORD
  5
20CE6
102
{ACAD_REACTORS
330
1B305
102
}
330
1B305
100
AcDbXrecord
280
     1
290
     1
  0
XRECORD
  5
20CE7
102
{ACAD_REACTORS
330
1B307
102
}
330
1B307
100
AcDbXrecord
280
     1
290
     1
  0
XRECORD
  5
20CE8
102
{ACAD_REACTORS
330
1B309
102
}
330
1B309
100
AcDbXrecord
280
     1
290
     1
  0
XRECORD
  5
20CEB
102
{ACAD_REACTORS
330
20CEA
102
}
330
20CEA
100
AcDbXrecord
280
     1
290
     1
  0
SORTENTSTABLE
  5
339D
102
{ACAD_REACTORS
330
339C
102
}
330
339C
100
AcDbSortentsTable
330
1F
331
20F2D
  5
20F2F
331
20FA7
  5
20FA9
331
20F29
  5
20F2B
331
20FA3
  5
20FA5
331
20F9F
  5
20FA1
331
20FDE
  5
20FE0
331
20F25
  5
20F27
331
20F64
  5
20F66
331
20F60
  5
20F62
331
20F9B
  5
20F9D
331
20FDA
  5
20FDC
331
20F21
  5
20F23
331
210E4
  5
210E0
331
21014
  5
210E1
331
20F1D
  5
20F1F
331
20F5C
  5
20F5E
331
20F97
  5
20F99
331
20FD6
  5
20FD8
331
20FD2
  5
20FD4
331
20F19
  5
20F1B
331
20F58
  5
20F5A
331
20F93
  5
20F95
331
20FCE
  5
20FD0
331
20F15
  5
20F17
331
20F54
  5
20F56
331
20F8F
  5
20F91
331
20F50
  5
20F52
331
20F8B
  5
20F8D
331
20FCA
  5
20FCC
331
20F11
  5
20F13
331
2100C
  5
21015
331
21008
  5
2100A
331
21000
  5
21002
331
20F0D
  5
20F0F
331
20F4C
  5
20F4E
331
20F87
  5
20F89
331
20FC6
  5
20FC8
331
20F09
  5
20F0B
331
20F48
  5
20F4A
331
20F83
  5
20F85
331
20FC2
  5
20FC4
331
20FBE
  5
20FC0
331
20F05
  5
20F07
331
20F44
  5
20F46
331
20F7F
  5
20F81
331
20F40
  5
20F42
331
20F7B
  5
20F7D
331
20FBA
  5
20FBC
331
20F01
  5
20F03
331
21022
  5
21184
331
20FFC
  5
20FFE
331
20FF8
  5
20FFA
331
20FF4
  5
20FF6
331
20FF0
  5
20FF2
331
20F3C
  5
20F3E
331
20F77
  5
20F79
331
20FB6
  5
20FB8
331
20EF9
  5
20EF9
331
20F38
  5
20F3A
331
20F73
  5
20F75
331
20FB2
  5
20FB4
331
20FAE
  5
20FB0
331
20EF5
  5
20EF5
331
20F34
  5
20F36
331
20F6F
  5
20F71
331
20F6B
  5
20F6D
331
20FAA
  5
20FAC
331
20F30
  5
20F32
331
20FEC
  5
20FEE
331
20FE8
  5
20FEA
331
20FE4
  5
20FE6
331
20FE0
  5
20FE2
331
20F2C
  5
20F2E
331
20FA6
  5
20FA8
331
20F28
  5
20F2A
331
20F67
  5
20F69
331
20FA2
  5
20FA4
331
20F9E
  5
20FA0
331
20FDD
  5
20FDF
331
20F24
  5
20F26
331
20F63
  5
20F65
331
20F9A
  5
20F9C
331
20FD9
  5
20FDB
331
20F20
  5
20F22
331
21017
  5
210E4
331
20F5F
  5
20F61
331
20F1C
  5
20F1E
331
20F5B
  5
20F5D
331
20F96
  5
20F98
331
20FD5
  5
20FD7
331
20FD1
  5
20FD3
331
20F18
  5
20F1A
331
20F57
  5
20F59
331
20F92
  5
20F94
331
20F8E
  5
20F90
331
20FCD
  5
20FCF
331
20F14
  5
20F16
331
20F53
  5
20F55
331
20F8A
  5
20F8C
331
20FC9
  5
20FCB
331
20F10
  5
20F12
331
21029
  5
21189
331
2100B
  5
21014
331
21007
  5
21009
331
20F4F
  5
20F51
331
20F0C
  5
20F0E
331
20F4B
  5
20F4D
331
20F86
  5
20F88
331
20FC5
  5
20FC7
331
20FC1
  5
20FC3
331
20F08
  5
20F0A
331
20F47
  5
20F49
331
20F82
  5
20F84
331
20FBD
  5
20FBF
331
20F04
  5
20F06
331
20F43
  5
20F45
331
20F7E
  5
20F80
331
20F7A
  5
20F7C
331
20FB9
  5
20FBB
331
20F00
  5
20F02
331
21025
  5
21187
331
20FFF
  5
21001
331
20FFB
  5
20FFD
331
20FF7
  5
20FF9
331
20FF3
  5
20FF5
331
20F3F
  5
20F41
331
20F3B
  5
20F3D
331
20F76
  5
20F78
331
20FB5
  5
20FB7
331
20EF8
  5
20EF8
331
20F37
  5
20F39
331
20F72
  5
20F74
331
20FB1
  5
20FB3
331
20FAD
  5
20FAF
331
20EF4
  5
20EF4
331
20F33
  5
20F35
331
20F6E
  5
20F70
331
20F6A
  5
20F6C
331
20FA9
  5
20FAB
331
20FEF
  5
20FF1
331
20FEB
  5
20FED
331
20FE7
  5
20FE9
331
20FE3
  5
20FE5
331
20F2F
  5
20F31
331
20F2B
  5
20F2D
331
20FA5
  5
20FA7
331
20F27
  5
20F29
331
20F66
  5
20F68
331
20FA1
  5
20FA3
331
21186
  5
21183
331
20F62
  5
20F64
331
20F9D
  5
20F9F
331
20FDC
  5
20FDE
331
20F23
  5
20F25
331
20F99
  5
20F9B
331
20FD8
  5
20FDA
331
20A18
  5
20A18
331
21016
  5
210E3
331
20F5E
  5
20F60
331
20F1F
  5
20F21
331
20F1B
  5
20F1D
331
20F5A
  5
20F5C
331
20F95
  5
20F97
331
20FD4
  5
20FD6
331
20FD0
  5
20FD2
331
20F17
  5
20F19
331
20F56
  5
20F58
331
20F91
  5
20F93
331
20F8D
  5
20F8F
331
20FCC
  5
20FCE
331
20F13
  5
20F15
331
20F52
  5
20F54
331
20F89
  5
20F8B
331
20FC8
  5
20FCA
331
21028
  5
21188
331
2100A
  5
2100C
331
21002
  5
21007
331
20F4E
  5
20F50
331
20F0F
  5
20F11
331
20F0B
  5
20F0D
331
20F4A
  5
20F4C
331
20F85
  5
20F87
331
20FC4
  5
20FC6
331
20FC0
  5
20FC2
331
20F07
  5
20F09
331
20F46
  5
20F48
331
20F81
  5
20F83
331
20F7D
  5
20F7F
331
20FBC
  5
20FBE
331
20F03
  5
20F05
331
20F42
  5
20F44
331
20F79
  5
20F7B
331
20FB8
  5
20FBA
331
21024
  5
21186
331
20FFE
  5
21000
331
20FFA
  5
20FFC
331
20FF6
  5
20FF8
331
20FF2
  5
20FF4
331
20F3E
  5
20F40
331
20F3A
  5
20F3C
331
20F75
  5
20F77
331
20FB4
  5
20FB6
331
20FB0
  5
20FB2
331
20EF7
  5
20EF7
331
20F36
  5
20F38
331
20F71
  5
20F73
331
20FAC
  5
20FAE
331
20F32
  5
20F34
331
20F6D
  5
20F6F
331
20F69
  5
20F6B
331
20FA8
  5
20FAA
331
20FEE
  5
20FF0
331
20FEA
  5
20FEC
331
20FE6
  5
20FE8
331
20FE2
  5
20FE4
331
20F2E
  5
20F30
331
20F2A
  5
20F2C
331
20FA4
  5
20FA6
331
20FDF
  5
20FE1
331
20F26
  5
20F28
331
20F65
  5
20F67
331
20FA0
  5
20FA2
331
20F61
  5
20F63
331
20F9C
  5
20F9E
331
20FDB
  5
20FDD
331
20F22
  5
20F24
331
20F98
  5
20F9A
331
21015
  5
210E2
331
20F1E
  5
20F20
331
20F5D
  5
20F5F
331
20FD7
  5
20FD9
331
20F1A
  5
20F1C
331
20F59
  5
20F5B
331
20F94
  5
20F96
331
20FD3
  5
20FD5
331
20FCF
  5
20FD1
331
20F16
  5
20F18
331
20F55
  5
20F57
331
20F90
  5
20F92
331
20F51
  5
20F53
331
20F8C
  5
20F8E
331
20FCB
  5
20FCD
331
20F12
  5
20F14
331
20F88
  5
20F8A
331
21009
  5
2100B
331
21005
  5
21008
331
21001
  5
21005
331
20F4D
  5
20F4F
331
20FC7
  5
20FC9
331
20F0E
  5
20F10
331
20F0A
  5
20F0C
331
20F49
  5
20F4B
331
20F84
  5
20F86
331
20FC3
  5
20FC5
331
20FBF
  5
20FC1
331
20F06
  5
20F08
331
20F45
  5
20F47
331
20F80
  5
20F82
331
20F7C
  5
20F7E
331
20FBB
  5
20FBD
331
20F02
  5
20F04
331
20F41
  5
20F43
331
20F78
  5
20F7A
331
21023
  5
21185
331
20FFD
  5
20FFF
331
20FF9
  5
20FFB
331
20FF5
  5
20FF7
331
20FF1
  5
20FF3
331
20F3D
  5
20F3F
331
20FB7
  5
20FB9
331
20EFA
  5
20EFA
331
20F39
  5
20F3B
331
20F74
  5
20F76
331
20FB3
  5
20FB5
331
20FAF
  5
20FB1
331
20EF6
  5
20EF6
331
20F35
  5
20F37
331
20F70
  5
20F72
331
20F6C
  5
20F6E
331
20FAB
  5
20FAD
331
20F31
  5
20F33
331
20F68
  5
20F6A
331
20FED
  5
20FEF
331
20FE9
  5
20FEB
331
20FE5
  5
20FE7
331
20FE1
  5
20FE3
  0
DICTIONARY
  5
21236
102
{ACAD_REACTORS
330
1DE81
102
}
330
1DE81
100
AcDbDictionary
280
     1
281
     1
  3
Edit
360
21237
  0
XRECORD
  5
2121B
102
{ACAD_REACTORS
330
2121A
102
}
330
2121A
100
AcDbXrecord
280
     1
102
SHADEPLOT
 70
     0
  0
XRECORD
  5
2121D
102
{ACAD_REACTORS
330
2121C
102
}
330
2121C
100
AcDbXrecord
280
     1
102
SHADEPLOT
 70
     0
  0
XRECORD
  5
211F3
102
{ACAD_REACTORS
330
211F2
102
}
330
211F2
100
AcDbXrecord
280
     1
 40
1.25
  0
XRECORD
  5
211F4
102
{ACAD_REACTORS
330
211F2
102
}
330
211F2
100
AcDbXrecord
280
     1
 40
1.570796326794896
  0
ACDBDETAILVIEWSTYLE
  5
20CB3
102
{ACAD_XDICTIONARY
360
2123A
102
}
102
{ACAD_REACTORS
330
1B2F0
102
}
330
1B2F0
100
AcDbModelDocViewStyle
 70
     0
  3
Imperial24
290
     0
100
AcDbDetailViewStyle
 70
     0
 71
     0
 90
        3
 71
     1
340
11
 40
0.24
340
0
 40
0.24
300

 40
0.36
280
     3
 71
     2
340
16
 90
       25
 71
     3
340
11
 40
0.24
 90
        1
 40
0.75
 90
        1
300
%<\AcVar ViewType \f "%tc1">% %<\AcVar ViewDetailId>%\PVARIA %<\AcVar ViewScale \f "%sn">%
 71
     4
340
16
 90
       25
340
16
 90
       25
280
     0
  0
ACDBDETAILVIEWSTYLE
  5
1B2F1
102
{ACAD_XDICTIONARY
360
21234
102
}
102
{ACAD_REACTORS
330
1B2F0
102
}
330
1B2F0
100
AcDbModelDocViewStyle
 70
     0
  3
Metric50
290
     0
100
AcDbDetailViewStyle
 70
     0
 71
     0
 90
        3
 71
     1
340
11
 40
5.0
340
0
 40
5.0
300

 40
0.0
280
     1
 71
     2
340
16
 90
       25
 71
     3
340
11
 40
5.0
 90
        0
 40
15.0
 90
        1
300
%<\AcVar ViewDetailId>% (%<\AcVar ViewScale \f "%sn">%)
 71
     4
340
16
 90
       25
340
16
 90
       25
280
     0
  0
LAYOUT
  5
31A7
102
{ACAD_XDICTIONARY
360
21218
102
}
102
{ACAD_REACTORS
330
31A5
102
}
330
31A5
100
AcDbPlotSettings
  1

  2
\\ingdc01\ITB3
  4
A4
  6

 40
6.805083274841307
 41
5.027085781097412
 42
6.805068969726562
 43
5.027069091796875
 44
209.9733276367186
 45
296.9683227539062
 46
0.0
 47
0.0
 48
0.0
 49
0.0
140
0.0
141
0.0
142
1.0
143
1.0
 70
   688
 72
     1
 73
     1
 74
     5
  7

 75
    16
147
1.0
148
0.0
149
0.0
100
AcDbLayout
  1
Layout1
 70
     1
 71
     1
 10
-5.027069091796875
 20
-6.805083274841307
 11
291.9412536621094
 21
203.1682443618775
 12
0.0
 22
0.0
 32
0.0
 14
28.69141678810127
 24
19.6363175392151
 34
0.0
 15
258.2227510929107
 25
176.7268578529358
 35
0.0
146
0.0
 13
0.0
 23
0.0
 33
0.0
 16
1.0
 26
0.0
 36
0.0
 17
0.0
 27
1.0
 37
0.0
 76
     0
330
1B
331
9C00
1001
ACAD_PSEXT
1000
\\ingdc01\ITB3
1000
HP LaserJet 5000 Series PCL
1000
TB
1000

1070
     0
  0
LAYOUT
  5
31A6
102
{ACAD_XDICTIONARY
360
21216
102
}
102
{ACAD_REACTORS
330
31A5
102
}
330
31A5
100
AcDbPlotSettings
  1

  2
\\ingdc01\ITB3
  4
A4
  6

 40
6.805083274841307
 41
5.027085781097412
 42
6.805068969726562
 43
5.027069091796875
 44
209.9733276367186
 45
296.9683227539062
 46
0.0
 47
0.0
 48
0.0
 49
0.0
140
0.0
141
0.0
142
1.0
143
1.500313223655698
 70
 11952
 72
     1
 73
     1
 74
     0
  7

 75
     0
147
0.6665274852163048
148
239.0155119930048
149
102.2558208723354
100
AcDbLayout
  1
Model
 70
     1
 71
     0
 10
0.0
 20
0.0
 11
12.0
 21
9.0
 12
0.0
 22
0.0
 32
0.0
 14
0.0
 24
0.0
 34
0.0
 15
0.0
 25
0.0
 35
0.0
146
0.0
 13
0.0
 23
0.0
 33
0.0
 16
1.0
 26
0.0
 36
0.0
 17
0.0
 27
1.0
 37
0.0
 76
     0
330
1F
331
1F4
1001
ACAD_PSEXT
1000
\\ingdc01\ITB3
1000
HP LaserJet 5000 Series PCL
1000
TB
1000

1070
     0
  0
MATERIAL
  5
318D
102
{ACAD_XDICTIONARY
360
1B22B
102
}
102
{ACAD_REACTORS
330
318B
102
}
330
318B
100
AcDbMaterial
  1
ByBlock
  0
MATERIAL
  5
318C
102
{ACAD_XDICTIONARY
360
1B22D
102
}
102
{ACAD_REACTORS
330
318B
102
}
330
318B
100
AcDbMaterial
  1
ByLayer
  0
MATERIAL
  5
318E
102
{ACAD_XDICTIONARY
360
1B22F
102
}
102
{ACAD_REACTORS
330
318B
102
}
330
318B
100
AcDbMaterial
  1
Global
  0
MLEADERSTYLE
  5
1B2ED
102
{ACAD_REACTORS
330
1B221
102
}
330
1B221
100
AcDbMLeaderStyle
170
     2
171
     1
172
     0
 90
        2
 40
0.0
 41
0.0
173
     1
 91
-1056964608
340
14
 92
       -2
290
     1
 42
2.0
291
     1
 43
0.36
  3
Standard
 44
4.0
300

342
11
174
     1
178
     6
175
     1
176
     0
 93
-1056964608
 45
4.0
292
     0
297
     0
 46
4.0
 94
-1056964608
 47
1.0
 49
1.0
140
1.0
293
     1
141
0.0
294
     1
177
     0
142
1.0
295
     0
296
     0
143
0.125
1001
ACAD_MLEADERVER
1070
     2
  0
MLINESTYLE
  5
3185
102
{ACAD_REACTORS
330
3184
102
}
330
3184
100
AcDbMlineStyle
  2
STANDARD
 70
     0
  3

 62
   256
 51
90.0
 52
90.0
 71
     2
 49
0.5
 62
   256
  6
BYLAYER
 49
-0.5
 62
   256
  6
BYLAYER
  0
ACDBPLACEHOLDER
  5
318A
102
{ACAD_REACTORS
330
3189
102
}
330
3189
  0
SCALE
  5
1B1FD
102
{ACAD_REACTORS
330
1B1FC
102
}
330
1B1FC
100
AcDbScale
 70
     0
300
1:1
140
1.0
141
1.0
290
     1
1001
ACAD
1000
AcRTDxfName
1000
SCALE
  0
SCALE
  5
1B1FE
102
{ACAD_REACTORS
330
1B1FC
102
}
330
1B1FC
100
AcDbScale
 70
     0
300
1:2
140
1.0
141
2.0
290
     0
1001
ACAD
1000
AcRTDxfName
1000
SCALE
  0
SCALE
  5
1B1FF
102
{ACAD_REACTORS
330
1B1FC
102
}
330
1B1FC
100
AcDbScale
 70
     0
300
1:4
140
1.0
141
4.0
290
     0
1001
ACAD
1000
AcRTDxfName
1000
SCALE
  0
SCALE
  5
1B200
102
{ACAD_REACTORS
330
1B1FC
102
}
330
1B1FC
100
AcDbScale
 70
     0
300
1:5
140
1.0
141
5.0
290
     0
1001
ACAD
1000
AcRTDxfName
1000
SCALE
  0
SCALE
  5
1B201
102
{ACAD_REACTORS
330
1B1FC
102
}
330
1B1FC
100
AcDbScale
 70
     0
300
1:8
140
1.0
141
8.0
290
     0
1001
ACAD
1000
AcRTDxfName
1000
SCALE
  0
SCALE
  5
1B202
102
{ACAD_REACTORS
330
1B1FC
102
}
330
1B1FC
100
AcDbScale
 70
     0
300
1:10
140
1.0
141
10.0
290
     0
1001
ACAD
1000
AcRTDxfName
1000
SCALE
  0
SCALE
  5
1B203
102
{ACAD_REACTORS
330
1B1FC
102
}
330
1B1FC
100
AcDbScale
 70
     0
300
1:16
140
1.0
141
16.0
290
     0
1001
ACAD
1000
AcRTDxfName
1000
SCALE
  0
SCALE
  5
1B204
102
{ACAD_REACTORS
330
1B1FC
102
}
330
1B1FC
100
AcDbScale
 70
     0
300
1:20
140
1.0
141
20.0
290
     0
1001
ACAD
1000
AcRTDxfName
1000
SCALE
  0
SCALE
  5
1B205
102
{ACAD_REACTORS
330
1B1FC
102
}
330
1B1FC
100
AcDbScale
 70
     0
300
1:30
140
1.0
141
30.0
290
     0
1001
ACAD
1000
AcRTDxfName
1000
SCALE
  0
SCALE
  5
1B206
102
{ACAD_REACTORS
330
1B1FC
102
}
330
1B1FC
100
AcDbScale
 70
     0
300
1:40
140
1.0
141
40.0
290
     0
1001
ACAD
1000
AcRTDxfName
1000
SCALE
  0
SCALE
  5
1B207
102
{ACAD_REACTORS
330
1B1FC
102
}
330
1B1FC
100
AcDbScale
 70
     0
300
1:50
140
1.0
141
50.0
290
     0
1001
ACAD
1000
AcRTDxfName
1000
SCALE
  0
SCALE
  5
1B208
102
{ACAD_REACTORS
330
1B1FC
102
}
330
1B1FC
100
AcDbScale
 70
     0
300
1:100
140
1.0
141
100.0
290
     0
1001
ACAD
1000
AcRTDxfName
1000
SCALE
  0
SCALE
  5
1B209
102
{ACAD_REACTORS
330
1B1FC
102
}
330
1B1FC
100
AcDbScale
 70
     0
300
2:1
140
2.0
141
1.0
290
     0
1001
ACAD
1000
AcRTDxfName
1000
SCALE
  0
SCALE
  5
1B20A
102
{ACAD_REACTORS
330
1B1FC
102
}
330
1B1FC
100
AcDbScale
 70
     0
300
4:1
140
4.0
141
1.0
290
     0
1001
ACAD
1000
AcRTDxfName
1000
SCALE
  0
SCALE
  5
1B20B
102
{ACAD_REACTORS
330
1B1FC
102
}
330
1B1FC
100
AcDbScale
 70
     0
300
8:1
140
8.0
141
1.0
290
     0
1001
ACAD
1000
AcRTDxfName
1000
SCALE
  0
SCALE
  5
1B20C
102
{ACAD_REACTORS
330
1B1FC
102
}
330
1B1FC
100
AcDbScale
 70
     0
300
10:1
140
10.0
141
1.0
290
     0
1001
ACAD
1000
AcRTDxfName
1000
SCALE
  0
SCALE
  5
1B20D
102
{ACAD_REACTORS
330
1B1FC
102
}
330
1B1FC
100
AcDbScale
 70
     0
300
100:1
140
100.0
141
1.0
290
     0
1001
ACAD
1000
AcRTDxfName
1000
SCALE
  0
SCALE
  5
1B20E
102
{ACAD_REACTORS
330
1B1FC
102
}
330
1B1FC
100
AcDbScale
 70
     0
300
1/128" = 1'-0"
140
0.0078125
141
12.0
290
     0
1001
ACAD
1000
AcRTDxfName
1000
SCALE
  0
SCALE
  5
1B20F
102
{ACAD_REACTORS
330
1B1FC
102
}
330
1B1FC
100
AcDbScale
 70
     0
300
1/64" = 1'-0"
140
0.015625
141
12.0
290
     0
1001
ACAD
1000
AcRTDxfName
1000
SCALE
  0
SCALE
  5
1B210
102
{ACAD_REACTORS
330
1B1FC
102
}
330
1B1FC
100
AcDbScale
 70
     0
300
1/32" = 1'-0"
140
0.03125
141
12.0
290
     0
1001
ACAD
1000
AcRTDxfName
1000
SCALE
  0
SCALE
  5
1B211
102
{ACAD_REACTORS
330
1B1FC
102
}
330
1B1FC
100
AcDbScale
 70
     0
300
1/16" = 1'-0"
140
0.0625
141
12.0
290
     0
1001
ACAD
1000
AcRTDxfName
1000
SCALE
  0
SCALE
  5
1B212
102
{ACAD_REACTORS
330
1B1FC
102
}
330
1B1FC
100
AcDbScale
 70
     0
300
3/32" = 1'-0"
140
0.09375
141
12.0
290
     0
1001
ACAD
1000
AcRTDxfName
1000
SCALE
  0
SCALE
  5
1B213
102
{ACAD_REACTORS
330
1B1FC
102
}
330
1B1FC
100
AcDbScale
 70
     0
300
1/8" = 1'-0"
140
0.125
141
12.0
290
     0
1001
ACAD
1000
AcRTDxfName
1000
SCALE
  0
SCALE
  5
1B214
102
{ACAD_REACTORS
330
1B1FC
102
}
330
1B1FC
100
AcDbScale
 70
     0
300
3/16" = 1'-0"
140
0.1875
141
12.0
290
     0
1001
ACAD
1000
AcRTDxfName
1000
SCALE
  0
SCALE
  5
1B215
102
{ACAD_REACTORS
330
1B1FC
102
}
330
1B1FC
100
AcDbScale
 70
     0
300
1/4" = 1'-0"
140
0.25
141
12.0
290
     0
1001
ACAD
1000
AcRTDxfName
1000
SCALE
  0
SCALE
  5
1B216
102
{ACAD_REACTORS
330
1B1FC
102
}
330
1B1FC
100
AcDbScale
 70
     0
300
3/8" = 1'-0"
140
0.375
141
12.0
290
     0
1001
ACAD
1000
AcRTDxfName
1000
SCALE
  0
SCALE
  5
1B217
102
{ACAD_REACTORS
330
1B1FC
102
}
330
1B1FC
100
AcDbScale
 70
     0
300
1/2" = 1'-0"
140
0.5
141
12.0
290
     0
1001
ACAD
1000
AcRTDxfName
1000
SCALE
  0
SCALE
  5
1B218
102
{ACAD_REACTORS
330
1B1FC
102
}
330
1B1FC
100
AcDbScale
 70
     0
300
3/4" = 1'-0"
140
0.75
141
12.0
290
     0
1001
ACAD
1000
AcRTDxfName
1000
SCALE
  0
SCALE
  5
1B219
102
{ACAD_REACTORS
330
1B1FC
102
}
330
1B1FC
100
AcDbScale
 70
     0
300
1" = 1'-0"
140
1.0
141
12.0
290
     0
1001
ACAD
1000
AcRTDxfName
1000
SCALE
  0
SCALE
  5
1B21A
102
{ACAD_REACTORS
330
1B1FC
102
}
330
1B1FC
100
AcDbScale
 70
     0
300
1-1/2" = 1'-0"
140
1.5
141
12.0
290
     0
1001
ACAD
1000
AcRTDxfName
1000
SCALE
  0
SCALE
  5
1B21B
102
{ACAD_REACTORS
330
1B1FC
102
}
330
1B1FC
100
AcDbScale
 70
     0
300
3" = 1'-0"
140
3.0
141
12.0
290
     0
1001
ACAD
1000
AcRTDxfName
1000
SCALE
  0
SCALE
  5
1B21C
102
{ACAD_REACTORS
330
1B1FC
102
}
330
1B1FC
100
AcDbScale
 70
     0
300
6" = 1'-0"
140
6.0
141
12.0
290
     0
1001
ACAD
1000
AcRTDxfName
1000
SCALE
  0
SCALE
  5
1B21D
102
{ACAD_REACTORS
330
1B1FC
102
}
330
1B1FC
100
AcDbScale
 70
     0
300
1'-0" = 1'-0"
140
12.0
141
12.0
290
     0
1001
ACAD
1000
AcRTDxfName
1000
SCALE
  0
ACDBSECTIONVIEWSTYLE
  5
20CB1
102
{ACAD_XDICTIONARY
360
21238
102
}
102
{ACAD_REACTORS
330
1B2EE
102
}
330
1B2EE
100
AcDbModelDocViewStyle
 70
     0
  3
Imperial24
290
     0
100
AcDbSectionViewStyle
 70
     0
 71
     0
 90
       78
 71
     1
340
11
 40
0.24
340
0
340
0
 40
0.24
300
I, O, Q, S, X, Z
 40
0.48
 90
        3
 40
0.18
 90
        1
 71
     2
340
16
 90
       25
340
16
 90
       50
 40
0.24
 40
0.0
 40
0.24
 71
     3
340
11
 40
0.24
 90
        1
 40
0.75
 90
        1
300
%<\AcVar ViewType \f "%tc1">% %<\AcVar ViewSectionStartId>%-%<\AcVar ViewSectionEndId>%\PVARIA %<\AcVar ViewScale \f "%sn">%
 71
     4
300
ANSI31
 40
1.0
 90
        0
290
     0
290
     0
 90
        6
 40
0.0
 40
1.570796326794896
 40
0.2617993877991494
 40
1.308996938995747
 40
-0.2617993877991494
 40
1.832595714594044
  0
ACDBSECTIONVIEWSTYLE
  5
1B2EF
102
{ACAD_XDICTIONARY
360
21232
102
}
102
{ACAD_REACTORS
330
1B2EE
102
}
330
1B2EE
100
AcDbModelDocViewStyle
 70
     0
  3
Metric50
290
     0
100
AcDbSectionViewStyle
 70
     0
 71
     0
 90
      102
 71
     1
340
11
 40
5.0
340
0
340
0
 40
5.0
300
I, O, Q, S, X, Z
 40
10.0
 90
        0
 40
2.5
 90
        0
 71
     2
340
16
 90
       25
340
16
 90
       50
 40
5.0
 40
2.5
 40
5.0
 71
     3
340
11
 40
5.0
 90
        0
 40
15.0
 90
        1
300
%<\AcVar ViewSectionStartId>%-%<\AcVar ViewSectionEndId>% (%<\AcVar ViewScale \f "%sn">%)
 71
     4
300
ANSI31
 40
1.0
 90
        0
290
     0
290
     0
 90
        6
 40
0.0
 40
1.570796326794896
 40
0.2617993877991494
 40
1.308996938995747
 40
-0.2617993877991494
 40
1.832595714594044
  0
TABLESTYLE
  5
31A2
102
{ACAD_XDICTIONARY
360
1B314
102
}
102
{ACAD_REACTORS
330
31A1
102
}
330
31A1
100
AcDbTableStyle
  3
Standard
 70
     0
 71
     0
 40
1.5
 41
1.5
280
     0
281
     0
  7
STANDARD
140
4.5
170
     2
 62
     0
 63
     7
283
     0
274
    -2
284
     1
 64
     0
275
    -2
285
     1
 65
     0
276
    -2
286
     1
 66
     0
277
    -2
287
     1
 67
     0
278
    -2
288
     1
 68
     0
279
    -2
289
     1
 69
     0
  7
STANDARD
140
6.0
170
     5
 62
     0
 63
     7
283
     0
274
    -2
284
     1
 64
     0
275
    -2
285
     1
 65
     0
276
    -2
286
     1
 66
     0
277
    -2
287
     1
 67
     0
278
    -2
288
     1
 68
     0
279
    -2
289
     1
 69
     0
  7
STANDARD
140
4.5
170
     5
 62
     0
 63
     7
283
     0
274
    -2
284
     1
 64
     0
275
    -2
285
     1
 65
     0
276
    -2
286
     1
 66
     0
277
    -2
287
     1
 67
     0
278
    -2
288
     1
 68
     0
279
    -2
289
     1
 69
     0
  0
VISUALSTYLE
  5
3195
102
{ACAD_XDICTIONARY
360
211FF
102
}
102
{ACAD_REACTORS
330
318F
102
}
330
318F
100
AcDbVisualStyle
  2

 70
     4
 71
     0
 72
     2
 73
     0
 90
        0
 40
-0.6
 41
-30.0
 62
     5
 63
     7
 74
     1
 91
        4
 64
     7
 65
   257
 75
     1
175
     1
 42
1.0
 92
        0
 66
   257
 43
1.0
 76
     1
 77
     6
 78
     2
 67
     7
 79
     5
170
     0
171
     0
290
     0
174
     0
 93
        1
 44
0.0
173
     0
291
     0
 45
0.0
1001
ACAD
1000
AcDbSavedByObjectVersion
1070
     0
  0
VISUALSTYLE
  5
3197
102
{ACAD_XDICTIONARY
360
21203
102
}
102
{ACAD_REACTORS
330
318F
102
}
330
318F
100
AcDbVisualStyle
  2

 70
     6
 71
     1
 72
     2
 73
     2
 90
        0
 40
-0.6
 41
-30.0
 62
     5
 63
     7
 74
     2
 91
        2
 64
     7
 65
   257
 75
     2
175
     1
 42
40.0
 92
        0
 66
   257
 43
1.0
 76
     1
 77
     6
 78
     2
 67
     7
 79
     3
170
     0
171
     0
290
     0
174
     0
 93
        1
 44
0.0
173
     0
291
     0
 45
0.0
1001
ACAD
1000
AcDbSavedByObjectVersion
1070
     0
  0
VISUALSTYLE
  5
3196
102
{ACAD_XDICTIONARY
360
21201
102
}
102
{ACAD_REACTORS
330
318F
102
}
330
318F
100
AcDbVisualStyle
  2

 70
     5
 71
     0
 72
     2
 73
     0
 90
        0
 40
-0.6
 41
-30.0
 62
     5
 63
     7
 74
     1
 91
        4
 64
     7
 65
   257
 75
     1
175
     1
 42
1.0
 92
        0
 66
   257
 43
1.0
 76
     1
 77
     6
 78
     2
 67
     7
 79
     5
170
     0
171
     0
290
     0
174
     0
 93
        1
 44
0.0
173
     0
291
     0
 45
0.0
1001
ACAD
1000
AcDbSavedByObjectVersion
1070
     0
  0
VISUALSTYLE
  5
3194
102
{ACAD_XDICTIONARY
360
211FD
102
}
102
{ACAD_REACTORS
330
318F
102
}
330
318F
100
AcDbVisualStyle
  2

 70
     7
 71
     1
 72
     0
 73
     1
 90
        0
 40
-0.6
 41
-30.0
 62
     5
 63
     7
 74
     0
 91
        4
 64
     7
 65
   257
 75
     1
175
     1
 42
1.0
 92
        8
 66
     7
 43
1.0
 76
     1
 77
     6
 78
     2
 67
     7
 79
     5
170
     0
171
     0
290
     0
174
     0
 93
        1
 44
0.0
173
     0
291
     1
 45
0.0
1001
ACAD
1000
AcDbSavedByObjectVersion
1070
     0
  0
VISUALSTYLE
  5
319B
102
{ACAD_XDICTIONARY
360
2120B
102
}
102
{ACAD_REACTORS
330
318F
102
}
330
318F
100
AcDbVisualStyle
  2

 70
    12
 71
     2
 72
     2
 73
     0
 90
        0
 40
-0.6
 41
-30.0
 62
     5
 63
     7
 74
     1
 91
        4
 64
     7
 65
   257
 75
     1
175
     1
 42
1.0
 92
        8
 66
     7
 43
1.0
 76
     1
 77
     6
 78
     2
 67
     7
 79
     5
170
     0
171
     0
290
     0
174
     0
 93
        1
 44
50.0
173
     0
291
     1
 45
0.0
1001
ACAD
1000
AcDbSavedByObjectVersion
1070
     0
  0
VISUALSTYLE
  5
319F
102
{ACAD_XDICTIONARY
360
21213
102
}
102
{ACAD_REACTORS
330
318F
102
}
330
318F
100
AcDbVisualStyle
  2

 70
    16
 71
     2
 72
     2
 73
     3
 90
        0
 40
-0.6
 41
-30.0
 62
     5
 63
     8
 74
     1
 91
        4
 64
     7
 65
   257
 75
     1
175
     1
 42
1.0
 92
        8
 66
     8
 43
1.0
 76
     1
 77
     6
 78
     2
 67
     7
 79
     5
170
     0
171
     0
290
     0
174
     0
 93
        1
 44
0.0
173
     0
291
     1
 45
0.0
1001
ACAD
1000
AcDbSavedByObjectVersion
1070
     0
  0
VISUALSTYLE
  5
3198
102
{ACAD_XDICTIONARY
360
21205
102
}
102
{ACAD_REACTORS
330
318F
102
}
330
318F
100
AcDbVisualStyle
  2

 70
     9
 71
     3
 72
     2
 73
     0
 90
        0
 40
-0.6
 41
-30.0
 62
     5
 63
     7
 74
     2
 91
        2
 64
     7
 65
   257
 75
     1
175
     1
 42
40.0
 92
        8
 66
     7
 43
1.0
 76
     1
 77
     6
 78
     2
 67
     7
 79
     3
170
     0
171
     0
290
     0
174
     0
 93
        1
 44
0.0
173
     0
291
     0
 45
0.0
1001
ACAD
1000
AcDbSavedByObjectVersion
1070
     0
  0
VISUALSTYLE
  5
319A
102
{ACAD_XDICTIONARY
360
21209
102
}
102
{ACAD_REACTORS
330
318F
102
}
330
318F
100
AcDbVisualStyle
  2

 70
    11
 71
     2
 72
     2
 73
     0
 90
        0
 40
-0.6
 41
-30.0
 62
     5
 63
     7
 74
     1
 91
        4
 64
     7
 65
   257
 75
     1
175
     1
 42
1.0
 92
        8
 66
     7
 43
1.0
 76
     1
 77
     6
 78
     2
 67
     7
 79
     5
170
     0
171
     0
290
     0
174
     0
 93
        1
 44
-50.0
173
     0
291
     1
 45
0.0
1001
ACAD
1000
AcDbSavedByObjectVersion
1070
     0
  0
VISUALSTYLE
  5
1B2EC
102
{ACAD_XDICTIONARY
360
21230
102
}
102
{ACAD_REACTORS
330
318F
102
}
330
318F
100
AcDbVisualStyle
  2

 70
    22
 71
     2
 72
     2
 73
     0
 90
        0
 40
-0.6
 41
-30.0
 62
     5
 63
     7
 74
     1
 91
        4
 64
     7
 65
   257
 75
     1
175
     1
 42
1.0
 92
        8
 66
     7
 43
1.0
 76
     1
 77
     6
 78
     2
 67
     7
 79
     5
170
     0
171
     0
290
     0
174
     0
 93
        1
 44
0.0
173
     0
291
     1
 45
0.0
1001
ACAD
1000
AcDbSavedByObjectVersion
1070
     0
  0
VISUALSTYLE
  5
319E
102
{ACAD_XDICTIONARY
360
21211
102
}
102
{ACAD_REACTORS
330
318F
102
}
330
318F
100
AcDbVisualStyle
  2

 70
    15
 71
     2
 72
     2
 73
     0
 90
        0
 40
-0.6
 41
-30.0
 62
     5
 63
     7
 74
     1
 91
        4
 64
     7
 65
   257
 75
     1
175
     1
 42
1.0
 92
        8
 66
     7
 43
1.0
 76
     1
 77
     6
 78
     2
 67
     7
 79
     5
170
     0
171
     0
290
     0
174
     0
 93
        1
 44
0.0
173
     0
291
     1
 45
0.0
1001
ACAD
1000
AcDbSavedByObjectVersion
1070
     0
  0
VISUALSTYLE
  5
3190
102
{ACAD_XDICTIONARY
360
211F5
102
}
102
{ACAD_REACTORS
330
318F
102
}
330
318F
100
AcDbVisualStyle
  2

 70
     0
 71
     2
 72
     1
 73
     1
 90
        2
 40
-0.6
 41
30.0
 62
     5
 63
     7
 74
     0
 91
        4
 64
     7
 65
   257
 75
     1
175
     1
 42
1.0
 92
        8
 66
     7
 43
1.0
 76
     1
 77
     6
 78
     2
 67
     7
 79
     5
170
     0
171
     0
290
     0
174
     0
 93
       13
 44
0.0
173
     0
291
     1
 45
0.0
1001
ACAD
1000
AcDbSavedByObjectVersion
1070
     0
  0
VISUALSTYLE
  5
3191
102
{ACAD_XDICTIONARY
360
211F7
102
}
102
{ACAD_REACTORS
330
318F
102
}
330
318F
100
AcDbVisualStyle
  2

 70
     1
 71
     2
 72
     1
 73
     1
 90
        2
 40
-0.6
 41
30.0
 62
     5
 63
     7
 74
     1
 91
        4
 64
     7
 65
   257
 75
     1
175
     1
 42
1.0
 92
        0
 66
   257
 43
1.0
 76
     1
 77
     6
 78
     2
 67
     7
 79
     5
170
     0
171
     0
290
     0
174
     0
 93
       13
 44
0.0
173
     0
291
     1
 45
0.0
1001
ACAD
1000
AcDbSavedByObjectVersion
1070
     0
  0
VISUALSTYLE
  5
3192
102
{ACAD_XDICTIONARY
360
211F9
102
}
102
{ACAD_REACTORS
330
318F
102
}
330
318F
100
AcDbVisualStyle
  2

 70
     2
 71
     2
 72
     2
 73
     1
 90
        2
 40
-0.6
 41
30.0
 62
     5
 63
     7
 74
     0
 91
        4
 64
     7
 65
   257
 75
     1
175
     1
 42
1.0
 92
        0
 66
     7
 43
1.0
 76
     1
 77
     6
 78
     2
 67
     7
 79
     5
170
     0
171
     0
290
     0
174
     0
 93
       13
 44
0.0
173
     0
291
     1
 45
0.0
1001
ACAD
1000
AcDbSavedByObjectVersion
1070
     0
  0
VISUALSTYLE
  5
3193
102
{ACAD_XDICTIONARY
360
211FB
102
}
102
{ACAD_REACTORS
330
318F
102
}
330
318F
100
AcDbVisualStyle
  2

 70
     3
 71
     2
 72
     2
 73
     1
 90
        2
 40
-0.6
 41
30.0
 62
     5
 63
     7
 74
     1
 91
        4
 64
     7
 65
   257
 75
     1
175
     1
 42
1.0
 92
        0
 66
   257
 43
1.0
 76
     1
 77
     6
 78
     2
 67
     7
 79
     5
170
     0
171
     0
290
     0
174
     0
 93
       13
 44
0.0
173
     0
291
     1
 45
0.0
1001
ACAD
1000
AcDbSavedByObjectVersion
1070
     0
  0
VISUALSTYLE
  5
1B2E4
102
{ACAD_XDICTIONARY
360
21220
102
}
102
{ACAD_REACTORS
330
318F
102
}
330
318F
100
AcDbVisualStyle
  2

 70
     6
 71
     1
 72
     2
 73
     2
 90
        0
 40
-0.6
 41
-30.0
 62
     5
 63
     7
 74
     2
 91
        2
 64
     7
 65
   257
 75
     2
175
     1
 42
40.0
 92
        0
 66
   257
 43
1.0
 76
     1
 77
     6
 78
     2
 67
     7
 79
     3
170
     0
171
     0
290
     0
174
     0
 93
        1
 44
0.0
173
     0
291
     0
 45
0.0
1001
ACAD
1000
AcDbSavedByObjectVersion
1070
     0
  0
VISUALSTYLE
  5
1B2EA
102
{ACAD_XDICTIONARY
360
2122C
102
}
102
{ACAD_REACTORS
330
318F
102
}
330
318F
100
AcDbVisualStyle
  2

 70
    20
 71
     2
 72
     2
 73
     0
 90
        0
 40
-0.6
 41
-30.0
 62
     5
 63
     7
 74
     1
 91
        4
 64
     7
 65
   257
 75
     1
175
     1
 42
1.0
 92
       10
 66
     7
 43
1.0
 76
     1
 77
     6
 78
     2
 67
     7
 79
     5
170
     0
171
     0
290
     0
174
     0
 93
        1
 44
0.0
173
     0
291
     1
 45
0.0
1001
ACAD
1000
AcDbSavedByObjectVersion
1070
     0
  0
VISUALSTYLE
  5
319D
102
{ACAD_XDICTIONARY
360
2120F
102
}
102
{ACAD_REACTORS
330
318F
102
}
330
318F
100
AcDbVisualStyle
  2

 70
    14
 71
     2
 72
     2
 73
     0
 90
        0
 40
-0.6
 41
-30.0
 62
     5
 63
     7
 74
     1
 91
        4
 64
     7
 65
   257
 75
     7
175
     7
 42
1.0
 92
        8
 66
     7
 43
1.0
 76
     1
 77
     6
 78
     2
 67
     7
 79
     5
170
     0
171
     0
290
     0
174
     0
 93
        1
 44
0.0
173
     0
291
     1
 45
0.0
1001
ACAD
1000
AcDbSavedByObjectVersion
1070
     0
  0
VISUALSTYLE
  5
1B2EB
102
{ACAD_XDICTIONARY
360
2122E
102
}
102
{ACAD_REACTORS
330
318F
102
}
330
318F
100
AcDbVisualStyle
  2

 70
    21
 71
     2
 72
     2
 73
     0
 90
        0
 40
-0.6
 41
-30.0
 62
     5
 63
     7
 74
     1
 91
        4
 64
     7
 65
   257
 75
     1
175
     1
 42
1.0
 92
        9
 66
     7
 43
1.0
 76
     1
 77
     6
 78
     2
 67
     7
 79
     5
170
     0
171
     0
290
     0
174
     0
 93
        1
 44
0.0
173
     0
291
     1
 45
0.0
1001
ACAD
1000
AcDbSavedByObjectVersion
1070
     0
  0
VISUALSTYLE
  5
3199
102
{ACAD_XDICTIONARY
360
21207
102
}
102
{ACAD_REACTORS
330
318F
102
}
330
318F
100
AcDbVisualStyle
  2

 70
     8
 71
     2
 72
     2
 73
     0
 90
        0
 40
-0.6
 41
-30.0
 62
     5
 63
     7
 74
     1
 91
        0
 64
     7
 65
   257
 75
     1
175
     1
 42
1.0
 92
        8
 66
     8
 43
1.0
 76
     1
 77
     6
 78
     2
 67
     7
 79
     5
170
     0
171
     0
290
     0
174
     0
 93
       13
 44
0.0
173
     0
291
     0
 45
0.0
1001
ACAD
1000
AcDbSavedByObjectVersion
1070
     0
  0
VISUALSTYLE
  5
1B2E9
102
{ACAD_XDICTIONARY
360
2122A
102
}
102
{ACAD_REACTORS
330
318F
102
}
330
318F
100
AcDbVisualStyle
  2

 70
    27
 71
     2
 72
     2
 73
     1
 90
        2
 40
-0.6
 41
30.0
 62
     5
 63
     7
 74
     0
 91
        4
 64
     7
 65
   257
 75
     1
175
     1
 42
1.0
 92
        8
 66
   257
 43
1.0
 76
     1
 77
     6
 78
     2
 67
     8
 79
     3
170
     0
171
     0
290
     0
174
     0
 93
        5
 44
0.0
173
     0
291
     0
 45
0.0
1001
ACAD
1000
AcDbSavedByObjectVersion
1070
     0
  0
VISUALSTYLE
  5
1B2E8
102
{ACAD_XDICTIONARY
360
21228
102
}
102
{ACAD_REACTORS
330
318F
102
}
330
318F
100
AcDbVisualStyle
  2

 70
    26
 71
     2
 72
     2
 73
     1
 90
        2
 40
-0.6
 41
30.0
 62
     5
 63
     7
 74
     1
 91
       10
 64
     7
 65
   257
 75
     2
175
     1
 42
1.0
 92
        8
 66
   257
 43
1.0
 76
     1
 77
     6
 78
     2
 67
     7
 79
     3
170
     0
171
     0
290
     0
174
     0
 93
        5
 44
0.0
173
     0
291
     0
 45
0.0
1001
ACAD
1000
AcDbSavedByObjectVersion
1070
     0
  0
VISUALSTYLE
  5
1B2E5
102
{ACAD_XDICTIONARY
360
21222
102
}
102
{ACAD_REACTORS
330
318F
102
}
330
318F
100
AcDbVisualStyle
  2

 70
    23
 71
     2
 72
     2
 73
     3
 90
        0
 40
-0.6
 41
-30.0
 62
     5
 63
     7
 74
     2
 91
        2
 64
     7
 65
     7
 75
     1
175
     1
 42
40.0
 92
        8
 66
     7
 43
1.0
 76
     1
 77
     6
 78
     2
 67
     7
 79
     3
170
     0
171
     0
290
     0
174
     0
 93
        1
 44
0.0
173
     0
291
     0
 45
0.0
1001
ACAD
1000
AcDbSavedByObjectVersion
1070
     0
  0
VISUALSTYLE
  5
1B2E6
102
{ACAD_XDICTIONARY
360
21224
102
}
102
{ACAD_REACTORS
330
318F
102
}
330
318F
100
AcDbVisualStyle
  2

 70
    24
 71
     1
 72
     2
 73
     2
 90
        0
 40
-0.6
 41
-30.0
 62
     5
 63
     7
 74
     2
 91
        2
 64
     7
 65
     7
 75
     1
175
     1
 42
40.0
 92
       11
 66
     7
 43
1.0
 76
     1
 77
     6
 78
     2
 67
     7
 79
     6
170
     0
171
     0
290
     0
174
     0
 93
        1
 44
0.0
173
     0
291
     0
 45
0.0
1001
ACAD
1000
AcDbSavedByObjectVersion
1070
     0
  0
VISUALSTYLE
  5
319C
102
{ACAD_XDICTIONARY
360
2120D
102
}
102
{ACAD_REACTORS
330
318F
102
}
330
318F
100
AcDbVisualStyle
  2

 70
    13
 71
     2
 72
     2
 73
     0
 90
        0
 40
-0.6
 41
-30.0
 62
     5
 63
     7
 74
     1
 91
        4
 64
     7
 65
   257
 75
     1
175
     1
 42
1.0
 92
       12
 66
     7
 43
1.0
 76
     1
 77
     6
 78
     2
 67
     7
 79
     5
170
     0
171
     0
290
     0
174
     0
 93
        1
 44
0.0
173
     0
291
     1
 45
0.0
1001
ACAD
1000
AcDbSavedByObjectVersion
1070
     0
  0
VISUALSTYLE
  5
1B2E3
102
{ACAD_XDICTIONARY
360
2121E
102
}
102
{ACAD_REACTORS
330
318F
102
}
330
318F
100
AcDbVisualStyle
  2

 70
     5
 71
     0
 72
     2
 73
     0
 90
        0
 40
-0.6
 41
-30.0
 62
     5
 63
     7
 74
     1
 91
        4
 64
     7
 65
   257
 75
     1
175
     1
 42
1.0
 92
        0
 66
   257
 43
1.0
 76
     1
 77
     6
 78
     2
 67
     7
 79
     3
170
     0
171
     0
290
     0
174
     0
 93
        1
 44
0.0
173
     0
291
     0
 45
0.0
1001
ACAD
1000
AcDbSavedByObjectVersion
1070
     0
  0
VISUALSTYLE
  5
1B2E7
102
{ACAD_XDICTIONARY
360
21226
102
}
102
{ACAD_REACTORS
330
318F
102
}
330
318F
100
AcDbVisualStyle
  2

 70
    25
 71
     2
 72
     2
 73
     1
 90
        1
 40
0.5
 41
-30.0
 62
     5
 63
     7
 74
     1
 91
        0
 64
     7
 65
   257
 75
     1
175
     1
 42
1.0
 92
        8
 66
     7
 43
1.0
 76
     1
 77
     6
 78
     2
 67
     7
 79
     3
170
     0
171
     0
290
     0
174
     0
 93
       13
 44
0.0
173
     0
291
     0
 45
0.0
1001
ACAD
1000
AcDbSavedByObjectVersion
1070
     0
  0
DICTIONARYVAR
  5
1B222
102
{ACAD_REACTORS
330
33A3
102
}
330
33A3
100
DictionaryVariables
280
     0
  1
1:1
  0
DICTIONARYVAR
  5
1B30F
102
{ACAD_REACTORS
330
33A3
102
}
330
33A3
100
DictionaryVariables
280
     0
  1
STANDARD
  0
DICTIONARYVAR
  5
33A4
102
{ACAD_REACTORS
330
33A3
102
}
330
33A3
100
DictionaryVariables
280
     0
  1
STANDARD
  0
DICTIONARYVAR
  5
1B310
102
{ACAD_REACTORS
330
33A3
102
}
330
33A3
100
DictionaryVariables
280
     0
  1
Metric50
  0
DICTIONARYVAR
  5
1B311
102
{ACAD_REACTORS
330
33A3
102
}
330
33A3
100
DictionaryVariables
280
     0
  1
Metric50
  0
DICTIONARYVAR
  5
9BE8
102
{ACAD_REACTORS
330
33A3
102
}
330
33A3
100
DictionaryVariables
280
     0
  1
1
  0
DICTIONARYVAR
  5
9BE7
102
{ACAD_REACTORS
330
33A3
102
}
330
33A3
100
DictionaryVariables
280
     0
  1
0
  0
DICTIONARYVAR
  5
20993
102
{ACAD_REACTORS
330
33A3
102
}
330
33A3
100
DictionaryVariables
280
     0
  1
1
  0
DICTIONARYVAR
  5
20994
102
{ACAD_REACTORS
330
33A3
102
}
330
33A3
100
DictionaryVariables
280
     0
  1
15
  0
DICTIONARYVAR
  5
20992
102
{ACAD_REACTORS
330
33A3
102
}
330
33A3
100
DictionaryVariables
280
     0
  1
0
  0
DICTIONARYVAR
  5
20991
102
{ACAD_REACTORS
330
33A3
102
}
330
33A3
100
DictionaryVariables
280
     0
  1
0
  0
DICTIONARYVAR
  5
9BE6
102
{ACAD_REACTORS
330
33A3
102
}
330
33A3
100
DictionaryVariables
280
     0
  1
127
  0
DICTIONARYVAR
  5
211EE
102
{ACAD_REACTORS
330
33A3
102
}
330
33A3
100
DictionaryVariables
280
     0
  1
2
  0
XRECORD
  5
21237
102
{ACAD_REACTORS
330
21236
102
}
330
21236
100
AcDbXrecord
280
     1
1070
     0
1070
     1
1070
     1
  0
DICTIONARY
  5
2123A
330
20CB3
100
AcDbDictionary
280
     1
281
     1
  3
ACAD_XREC_ROUNDTRIP
360
2123B
  0
DICTIONARY
  5
21234
330
1B2F1
100
AcDbDictionary
280
     1
281
     1
  3
ACAD_XREC_ROUNDTRIP
360
21235
  0
DICTIONARY
  5
21218
330
31A7
100
AcDbDictionary
280
     1
281
     1
  3
ACAD_XREC_ROUNDTRIP
360
21219
  0
DICTIONARY
  5
21216
330
31A6
100
AcDbDictionary
280
     1
281
     1
  3
ACAD_XREC_ROUNDTRIP
360
21217
  0
DICTIONARY
  5
1B22B
330
318D
100
AcDbDictionary
280
     1
281
     1
  3
ACAD_XREC_ROUNDTRIP
360
1B22C
  0
DICTIONARY
  5
1B22D
330
318C
100
AcDbDictionary
280
     1
281
     1
  3
ACAD_XREC_ROUNDTRIP
360
1B22E
  0
DICTIONARY
  5
1B22F
330
318E
100
AcDbDictionary
280
     1
281
     1
  3
ACAD_XREC_ROUNDTRIP
360
1B230
  0
DICTIONARY
  5
21238
330
20CB1
100
AcDbDictionary
280
     1
281
     1
  3
ACAD_XREC_ROUNDTRIP
360
21239
  0
DICTIONARY
  5
21232
330
1B2EF
100
AcDbDictionary
280
     1
281
     1
  3
ACAD_XREC_ROUNDTRIP
360
21233
  0
DICTIONARY
  5
1B314
330
31A2
100
AcDbDictionary
280
     1
281
     1
  3
ACAD_ROUNDTRIP_2008_TABLESTYLE_CELLSTYLEMAP
360
211EF
  3
ACAD_XREC_ROUNDTRIP
360
21215
  0
DICTIONARY
  5
211FF
330
3195
100
AcDbDictionary
280
     1
281
     1
  3
ACAD_XREC_ROUNDTRIP
360
21200
  0
DICTIONARY
  5
21203
330
3197
100
AcDbDictionary
280
     1
281
     1
  3
ACAD_XREC_ROUNDTRIP
360
21204
  0
DICTIONARY
  5
21201
330
3196
100
AcDbDictionary
280
     1
281
     1
  3
ACAD_XREC_ROUNDTRIP
360
21202
  0
DICTIONARY
  5
211FD
330
3194
100
AcDbDictionary
280
     1
281
     1
  3
ACAD_XREC_ROUNDTRIP
360
211FE
  0
DICTIONARY
  5
2120B
330
319B
100
AcDbDictionary
280
     1
281
     1
  3
ACAD_XREC_ROUNDTRIP
360
2120C
  0
DICTIONARY
  5
21213
330
319F
100
AcDbDictionary
280
     1
281
     1
  3
ACAD_XREC_ROUNDTRIP
360
21214
  0
DICTIONARY
  5
21205
330
3198
100
AcDbDictionary
280
     1
281
     1
  3
ACAD_XREC_ROUNDTRIP
360
21206
  0
DICTIONARY
  5
21209
330
319A
100
AcDbDictionary
280
     1
281
     1
  3
ACAD_XREC_ROUNDTRIP
360
2120A
  0
DICTIONARY
  5
21230
330
1B2EC
100
AcDbDictionary
280
     1
281
     1
  3
ACAD_XREC_ROUNDTRIP
360
21231
  0
DICTIONARY
  5
21211
330
319E
100
AcDbDictionary
280
     1
281
     1
  3
ACAD_XREC_ROUNDTRIP
360
21212
  0
DICTIONARY
  5
211F5
330
3190
100
AcDbDictionary
280
     1
281
     1
  3
ACAD_XREC_ROUNDTRIP
360
211F6
  0
DICTIONARY
  5
211F7
330
3191
100
AcDbDictionary
280
     1
281
     1
  3
ACAD_XREC_ROUNDTRIP
360
211F8
  0
DICTIONARY
  5
211F9
330
3192
100
AcDbDictionary
280
     1
281
     1
  3
ACAD_XREC_ROUNDTRIP
360
211FA
  0
DICTIONARY
  5
211FB
330
3193
100
AcDbDictionary
280
     1
281
     1
  3
ACAD_XREC_ROUNDTRIP
360
211FC
  0
DICTIONARY
  5
21220
330
1B2E4
100
AcDbDictionary
280
     1
281
     1
  3
ACAD_XREC_ROUNDTRIP
360
21221
  0
DICTIONARY
  5
2122C
330
1B2EA
100
AcDbDictionary
280
     1
281
     1
  3
ACAD_XREC_ROUNDTRIP
360
2122D
  0
DICTIONARY
  5
2120F
330
319D
100
AcDbDictionary
280
     1
281
     1
  3
ACAD_XREC_ROUNDTRIP
360
21210
  0
DICTIONARY
  5
2122E
330
1B2EB
100
AcDbDictionary
280
     1
281
     1
  3
ACAD_XREC_ROUNDTRIP
360
2122F
  0
DICTIONARY
  5
21207
330
3199
100
AcDbDictionary
280
     1
281
     1
  3
ACAD_XREC_ROUNDTRIP
360
21208
  0
DICTIONARY
  5
2122A
330
1B2E9
100
AcDbDictionary
280
     1
281
     1
  3
ACAD_XREC_ROUNDTRIP
360
2122B
  0
DICTIONARY
  5
21228
330
1B2E8
100
AcDbDictionary
280
     1
281
     1
  3
ACAD_XREC_ROUNDTRIP
360
21229
  0
DICTIONARY
  5
21222
330
1B2E5
100
AcDbDictionary
280
     1
281
     1
  3
ACAD_XREC_ROUNDTRIP
360
21223
  0
DICTIONARY
  5
21224
330
1B2E6
100
AcDbDictionary
280
     1
281
     1
  3
ACAD_XREC_ROUNDTRIP
360
21225
  0
DICTIONARY
  5
2120D
330
319C
100
AcDbDictionary
280
     1
281
     1
  3
ACAD_XREC_ROUNDTRIP
360
2120E
  0
DICTIONARY
  5
2121E
330
1B2E3
100
AcDbDictionary
280
     1
281
     1
  3
ACAD_XREC_ROUNDTRIP
360
2121F
  0
DICTIONARY
  5
21226
330
1B2E7
100
AcDbDictionary
280
     1
281
     1
  3
ACAD_XREC_ROUNDTRIP
360
21227
  0
XRECORD
  5
2123B
102
{ACAD_REACTORS
330
2123A
102
}
330
2123A
100
AcDbXrecord
280
     1
102
DISPLAYNAME
  1
Imperial24
102
FLAGS
 90
        0
  0
XRECORD
  5
21235
102
{ACAD_REACTORS
330
21234
102
}
330
21234
100
AcDbXrecord
280
     1
102
DISPLAYNAME
  1
Metric50
102
FLAGS
 90
        0
  0
XRECORD
  5
21219
102
{ACAD_REACTORS
330
21218
102
}
330
21218
100
AcDbXrecord
280
     1
102
SHADEPLOT
 70
     0
102
SHADEPLOTRESLEVEL
 70
     2
102
SHADEPLOTCUSTOMDPI
 70
   300
  0
XRECORD
  5
21217
102
{ACAD_REACTORS
330
21216
102
}
330
21216
100
AcDbXrecord
280
     1
102
SHADEPLOT
 70
     0
102
SHADEPLOTRESLEVEL
 70
     2
102
SHADEPLOTCUSTOMDPI
 70
   300
  0
XRECORD
  5
1B22C
102
{ACAD_REACTORS
330
1B22B
102
}
330
1B22B
100
AcDbXrecord
280
     1
102
MATERIAL
148
0.0
149
0.0
149
0.0
 93
        0
 94
      127
282
     0
 72
     1
 77
     1
171
     1
175
     1
179
     1
273
     0
  0
XRECORD
  5
1B22E
102
{ACAD_REACTORS
330
1B22D
102
}
330
1B22D
100
AcDbXrecord
280
     1
102
MATERIAL
148
0.0
149
0.0
149
0.0
 93
        0
 94
      127
282
     0
 72
     1
 77
     1
171
     1
175
     1
179
     1
273
     0
  0
XRECORD
  5
1B230
102
{ACAD_REACTORS
330
1B22F
102
}
330
1B22F
100
AcDbXrecord
280
     1
102
MATERIAL
148
0.0
149
0.0
149
0.0
 93
        0
 94
      127
282
     0
 72
     1
 77
     1
171
     1
175
     1
179
     1
273
     0
  0
XRECORD
  5
21239
102
{ACAD_REACTORS
330
21238
102
}
330
21238
100
AcDbXrecord
280
     1
102
DISPLAYNAME
  1
Imperial24
102
FLAGS
 90
        0
  0
XRECORD
  5
21233
102
{ACAD_REACTORS
330
21232
102
}
330
21232
100
AcDbXrecord
280
     1
102
DISPLAYNAME
  1
Metric50
102
FLAGS
 90
        0
  0
CELLSTYLEMAP
  5
211EF
102
{ACAD_REACTORS
330
1B314
102
}
330
1B314
100
AcDbCellStyleMap
 90
        3
300
CELLSTYLE
  1
TABLEFORMAT_BEGIN
 90
        5
170
     1
 91
        0
 92
    32768
 62
   257
 93
        1
300
CONTENTFORMAT
  1
CONTENTFORMAT_BEGIN
 90
        0
 91
        0
 92
        4
 93
        0
300

 40
0.0
140
1.0
 94
        5
 62
     0
340
11
144
6.0
309
CONTENTFORMAT_END
171
     1
301
MARGIN
  1
CELLMARGIN_BEGIN
 40
1.5
 40
1.5
 40
1.5
 40
1.5
 40
0.18
 40
0.18
309
CELLMARGIN_END
 94
        6
 95
        1
302
GRIDFORMAT
  1
GRIDFORMAT_BEGIN
 90
        0
 91
        1
 62
     0
 92
       -2
340
0
 93
        0
 40
0.045
309
GRIDFORMAT_END
 95
        2
302
GRIDFORMAT
  1
GRIDFORMAT_BEGIN
 90
        0
 91
        1
 62
     0
 92
       -2
340
0
 93
        0
 40
0.045
309
GRIDFORMAT_END
 95
        4
302
GRIDFORMAT
  1
GRIDFORMAT_BEGIN
 90
        0
 91
        1
 62
     0
 92
       -2
340
0
 93
        0
 40
0.045
309
GRIDFORMAT_END
 95
        8
302
GRIDFORMAT
  1
GRIDFORMAT_BEGIN
 90
        0
 91
        1
 62
     0
 92
       -2
340
0
 93
        0
 40
0.045
309
GRIDFORMAT_END
 95
       16
302
GRIDFORMAT
  1
GRIDFORMAT_BEGIN
 90
        0
 91
        1
 62
     0
 92
       -2
340
0
 93
        0
 40
0.045
309
GRIDFORMAT_END
 95
       32
302
GRIDFORMAT
  1
GRIDFORMAT_BEGIN
 90
        0
 91
        1
 62
     0
 92
       -2
340
0
 93
        0
 40
0.045
309
GRIDFORMAT_END
309
TABLEFORMAT_END
  1
CELLSTYLE_BEGIN
 90
        1
 91
        1
300
_TITLE
309
CELLSTYLE_END
300
CELLSTYLE
  1
TABLEFORMAT_BEGIN
 90
        5
170
     1
 91
        0
 92
        0
 62
   257
 93
        1
300
CONTENTFORMAT
  1
CONTENTFORMAT_BEGIN
 90
        0
 91
        0
 92
        4
 93
        0
300

 40
0.0
140
1.0
 94
        5
 62
     0
340
11
144
4.5
309
CONTENTFORMAT_END
171
     1
301
MARGIN
  1
CELLMARGIN_BEGIN
 40
1.5
 40
1.5
 40
1.5
 40
1.5
 40
0.18
 40
0.18
309
CELLMARGIN_END
 94
        6
 95
        1
302
GRIDFORMAT
  1
GRIDFORMAT_BEGIN
 90
        0
 91
        1
 62
     0
 92
       -2
340
0
 93
        0
 40
0.045
309
GRIDFORMAT_END
 95
        2
302
GRIDFORMAT
  1
GRIDFORMAT_BEGIN
 90
        0
 91
        1
 62
     0
 92
       -2
340
0
 93
        0
 40
0.045
309
GRIDFORMAT_END
 95
        4
302
GRIDFORMAT
  1
GRIDFORMAT_BEGIN
 90
        0
 91
        1
 62
     0
 92
       -2
340
0
 93
        0
 40
0.045
309
GRIDFORMAT_END
 95
        8
302
GRIDFORMAT
  1
GRIDFORMAT_BEGIN
 90
        0
 91
        1
 62
     0
 92
       -2
340
0
 93
        0
 40
0.045
309
GRIDFORMAT_END
 95
       16
302
GRIDFORMAT
  1
GRIDFORMAT_BEGIN
 90
        0
 91
        1
 62
     0
 92
       -2
340
0
 93
        0
 40
0.045
309
GRIDFORMAT_END
 95
       32
302
GRIDFORMAT
  1
GRIDFORMAT_BEGIN
 90
        0
 91
        1
 62
     0
 92
       -2
340
0
 93
        0
 40
0.045
309
GRIDFORMAT_END
309
TABLEFORMAT_END
  1
CELLSTYLE_BEGIN
 90
        2
 91
        1
300
_HEADER
309
CELLSTYLE_END
300
CELLSTYLE
  1
TABLEFORMAT_BEGIN
 90
        5
170
     1
 91
        0
 92
        0
 62
   257
 93
        1
300
CONTENTFORMAT
  1
CONTENTFORMAT_BEGIN
 90
        0
 91
        0
 92
        4
 93
        0
300

 40
0.0
140
1.0
 94
        2
 62
     0
340
11
144
4.5
309
CONTENTFORMAT_END
171
     1
301
MARGIN
  1
CELLMARGIN_BEGIN
 40
1.5
 40
1.5
 40
1.5
 40
1.5
 40
0.18
 40
0.18
309
CELLMARGIN_END
 94
        6
 95
        1
302
GRIDFORMAT
  1
GRIDFORMAT_BEGIN
 90
        0
 91
        1
 62
     0
 92
       -2
340
0
 93
        0
 40
0.045
309
GRIDFORMAT_END
 95
        2
302
GRIDFORMAT
  1
GRIDFORMAT_BEGIN
 90
        0
 91
        1
 62
     0
 92
       -2
340
0
 93
        0
 40
0.045
309
GRIDFORMAT_END
 95
        4
302
GRIDFORMAT
  1
GRIDFORMAT_BEGIN
 90
        0
 91
        1
 62
     0
 92
       -2
340
0
 93
        0
 40
0.045
309
GRIDFORMAT_END
 95
        8
302
GRIDFORMAT
  1
GRIDFORMAT_BEGIN
 90
        0
 91
        1
 62
     0
 92
       -2
340
0
 93
        0
 40
0.045
309
GRIDFORMAT_END
 95
       16
302
GRIDFORMAT
  1
GRIDFORMAT_BEGIN
 90
        0
 91
        1
 62
     0
 92
       -2
340
0
 93
        0
 40
0.045
309
GRIDFORMAT_END
 95
       32
302
GRIDFORMAT
  1
GRIDFORMAT_BEGIN
 90
        0
 91
        1
 62
     0
 92
       -2
340
0
 93
        0
 40
0.045
309
GRIDFORMAT_END
309
TABLEFORMAT_END
  1
CELLSTYLE_BEGIN
 90
        3
 91
        2
300
_DATA
309
CELLSTYLE_END
  0
XRECORD
  5
21215
102
{ACAD_REACTORS
330
1B314
102
}
330
1B314
100
AcDbXrecord
280
     1
102
ACAD_ROUNDTRIP_PRE2007_TABLESTYLE
 90
        4
 91
        0
  1

 92
        4
 93
        0
  2

 94
        4
 95
        0
  3

  0
XRECORD
  5
21200
102
{ACAD_REACTORS
330
211FF
102
}
330
211FF
100
AcDbXrecord
280
     1
102
RTVSPost2010Prop28
280
     1
102
RTVSPost2010PropOp28
 70
     1
102
RTVSPost2010Prop29
280
     1
102
RTVSPost2010PropOp29
 70
     1
102
RTVSPost2010Prop30
280
     0
102
RTVSPost2010PropOp30
 70
     1
102
RTVSPost2010Prop31
280
     0
102
RTVSPost2010PropOp31
 70
     1
102
RTVSPost2010Prop32
280
     0
102
RTVSPost2010PropOp32
 70
     1
102
RTVSPost2010Prop33
280
     0
102
RTVSPost2010PropOp33
 70
     1
102
RTVSPost2010Prop34
280
     0
102
RTVSPost2010PropOp34
 70
     1
102
RTVSPost2010Prop35
280
     0
102
RTVSPost2010PropOp35
 70
     1
102
RTVSPost2010Prop36
280
     0
102
RTVSPost2010PropOp36
 70
     1
102
RTVSPost2010Prop37
 90
       50
102
RTVSPost2010PropOp37
 70
     1
102
RTVSPost2010Prop38
140
0.0
102
RTVSPost2010PropOp38
 70
     1
102
RTVSPost2010Prop39
140
1.0
102
RTVSPost2010PropOp39
 70
     1
102
RTVSPost2010Prop40
 90
        0
102
RTVSPost2010PropOp40
 70
     1
102
RTVSPost2010Prop41ColorIndex
 90
       18
102
RTVSPost2010Prop41ColorRGB
 90
        0
102
RTVSPost2010PropOp41
 70
     1
102
RTVSPost2010Prop42
 90
       50
102
RTVSPost2010PropOp42
 70
     1
102
RTVSPost2010Prop43
 90
        3
102
RTVSPost2010PropOp43
 70
     1
102
RTVSPost2010Prop44ColorIndex
 90
        5
102
RTVSPost2010Prop44ColorRGB
 90
      255
102
RTVSPost2010PropOp44
 70
     1
102
RTVSPost2010Prop45
280
     0
102
RTVSPost2010PropOp45
 70
     1
102
RTVSPost2010Prop46
 90
       50
102
RTVSPost2010PropOp46
 70
     1
102
RTVSPost2010Prop47
 90
       50
102
RTVSPost2010PropOp47
 70
     1
102
RTVSPost2010Prop48
 90
       50
102
RTVSPost2010PropOp48
 70
     1
102
RTVSPost2010Prop49
280
     0
102
RTVSPost2010PropOp49
 70
     1
102
RTVSPost2010Prop50
 90
       50
102
RTVSPost2010PropOp50
 70
     1
102
RTVSPost2010Prop51ColorIndex
 90
      256
102
RTVSPost2010Prop51ColorRGB
 90
-16777216
102
RTVSPost2010PropOp51
 70
     0
102
RTVSPost2010Prop52
140
1.0
102
RTVSPost2010PropOp52
 70
     0
102
RTVSPost2010Prop53
 90
        2
102
RTVSPost2010PropOp53
 70
     1
102
RTVSPost2010Prop54
  1
strokes_ogs.tif
102
RTVSPost2010PropOp54
 70
     1
102
RTVSPost2010Prop55
280
     0
102
RTVSPost2010PropOp55
 70
     1
102
RTVSPost2010Prop56
140
1.0
102
RTVSPost2010PropOp56
 70
     1
102
RTVSPost2010Prop57
140
1.0
102
RTVSPost2010PropOp57
 70
     1
102
RTVSPropertyOp0
 70
     1
102
RTVSPropertyOp1
 70
     1
102
RTVSPropertyOp2
 70
     1
102
RTVSPropertyOp3
 70
     1
102
RTVSPropertyOp4
 70
     1
102
RTVSPropertyOp5
 70
     1
102
RTVSPropertyOp6
 70
     1
102
RTVSPropertyOp7
 70
     1
102
RTVSPropertyOp8
 70
     1
102
RTVSPropertyOp9
 70
     1
102
RTVSPropertyOp10
 70
     1
102
RTVSPropertyOp11
 70
     1
102
RTVSPropertyOp12
 70
     1
102
RTVSPropertyOp13
 70
     1
102
RTVSPropertyOp14
 70
     1
102
RTVSPropertyOp15
 70
     1
102
RTVSPropertyOp16
 70
     1
102
RTVSPropertyOp17
 70
     1
102
RTVSPropertyOp18
 70
     1
102
RTVSPropertyOp19
 70
     1
102
RTVSPropertyOp20
 70
     1
102
RTVSPropertyOp21
 70
     1
102
RTVSPropertyOp22
 70
     1
102
RTVSPropertyOp23
 70
     1
102
RTVSPropertyOp24
 70
     1
102
RTVSPropertyOp25
 70
     1
102
RTVSPropertyOp26
 70
     1
102
RTVSPropertyOp27
 70
     1
102
RTVSPropertyOp28
 70
     1
102
RTVSPropertyOp29
 70
     1
102
RTVSPropertyOp30
 70
     1
102
RTVSPropertyOp31
 70
     1
102
RTVSPropertyOp32
 70
     1
102
RTVSPropertyOp33
 70
     1
102
RTVSPropertyOp34
 70
     1
102
RTVSPropertyOp35
 70
     1
102
RTVSPropertyOp36
 70
     1
102
RTVSPropertyOp37
 70
     1
102
RTVSPropertyOp38
 70
     1
102
RTVSPropertyOp39
 70
     1
102
RTVSPropertyOp40
 70
     1
102
RTVSPropertyOp41
 70
     1
102
RTVSPropertyOp42
 70
     1
102
RTVSPropertyOp43
 70
     1
102
RTVSPropertyOp44
 70
     1
102
RTVSPropertyOp45
 70
     1
102
RTVSPropertyOp46
 70
     1
102
RTVSPropertyOp47
 70
     1
102
RTVSPropertyOp48
 70
     1
102
RTVSPropertyOp49
 70
     1
102
RTVSPropertyOp50
 70
     1
102
RTVSPropertyOp51
 70
     0
102
RTVSPropertyOp52
 70
     0
102
RTVSPropertyOp53
 70
     1
102
RTVSPropertyOp54
 70
     1
102
RTVSPropertyOp55
 70
     1
102
RTVSPropertyOp56
 70
     1
102
RTVSPropertyOp57
 70
     1
102
RTVSPropertyOp58
 70
     1
102
RTVSPropertyOp59
 70
     1
102
RTVSPropertyOp60
 70
     1
102
RTVSPropertyOp61
 70
     1
102
RTVSPropertyOp62
 70
     1
  0
XRECORD
  5
21204
102
{ACAD_REACTORS
330
21203
102
}
330
21203
100
AcDbXrecord
280
     1
102
RTVSPost2010Prop28
280
     0
102
RTVSPost2010PropOp28
 70
     1
102
RTVSPost2010Prop29
280
     1
102
RTVSPost2010PropOp29
 70
     1
102
RTVSPost2010Prop30
280
     1
102
RTVSPost2010PropOp30
 70
     1
102
RTVSPost2010Prop31
280
     0
102
RTVSPost2010PropOp31
 70
     1
102
RTVSPost2010Prop32
280
     0
102
RTVSPost2010PropOp32
 70
     1
102
RTVSPost2010Prop33
280
     0
102
RTVSPost2010PropOp33
 70
     1
102
RTVSPost2010Prop34
280
     0
102
RTVSPost2010PropOp34
 70
     1
102
RTVSPost2010Prop35
280
     0
102
RTVSPost2010PropOp35
 70
     1
102
RTVSPost2010Prop36
280
     0
102
RTVSPost2010PropOp36
 70
     1
102
RTVSPost2010Prop37
 90
       50
102
RTVSPost2010PropOp37
 70
     1
102
RTVSPost2010Prop38
140
0.0
102
RTVSPost2010PropOp38
 70
     1
102
RTVSPost2010Prop39
140
1.0
102
RTVSPost2010PropOp39
 70
     1
102
RTVSPost2010Prop40
 90
        0
102
RTVSPost2010PropOp40
 70
     1
102
RTVSPost2010Prop41ColorIndex
 90
       18
102
RTVSPost2010Prop41ColorRGB
 90
        0
102
RTVSPost2010PropOp41
 70
     1
102
RTVSPost2010Prop42
 90
       50
102
RTVSPost2010PropOp42
 70
     1
102
RTVSPost2010Prop43
 90
        3
102
RTVSPost2010PropOp43
 70
     1
102
RTVSPost2010Prop44ColorIndex
 90
        5
102
RTVSPost2010Prop44ColorRGB
 90
      255
102
RTVSPost2010PropOp44
 70
     1
102
RTVSPost2010Prop45
280
     0
102
RTVSPost2010PropOp45
 70
     1
102
RTVSPost2010Prop46
 90
       50
102
RTVSPost2010PropOp46
 70
     1
102
RTVSPost2010Prop47
 90
       50
102
RTVSPost2010PropOp47
 70
     1
102
RTVSPost2010Prop48
 90
       50
102
RTVSPost2010PropOp48
 70
     1
102
RTVSPost2010Prop49
280
     0
102
RTVSPost2010PropOp49
 70
     1
102
RTVSPost2010Prop50
 90
       50
102
RTVSPost2010PropOp50
 70
     1
102
RTVSPost2010Prop51ColorIndex
 90
      256
102
RTVSPost2010Prop51ColorRGB
 90
-16777216
102
RTVSPost2010PropOp51
 70
     0
102
RTVSPost2010Prop52
140
1.0
102
RTVSPost2010PropOp52
 70
     0
102
RTVSPost2010Prop53
 90
        2
102
RTVSPost2010PropOp53
 70
     1
102
RTVSPost2010Prop54
  1
strokes_ogs.tif
102
RTVSPost2010PropOp54
 70
     1
102
RTVSPost2010Prop55
280
     0
102
RTVSPost2010PropOp55
 70
     1
102
RTVSPost2010Prop56
140
1.0
102
RTVSPost2010PropOp56
 70
     1
102
RTVSPost2010Prop57
140
1.0
102
RTVSPost2010PropOp57
 70
     1
102
RTVSPropertyOp0
 70
     1
102
RTVSPropertyOp1
 70
     1
102
RTVSPropertyOp2
 70
     1
102
RTVSPropertyOp3
 70
     1
102
RTVSPropertyOp4
 70
     1
102
RTVSPropertyOp5
 70
     1
102
RTVSPropertyOp6
 70
     1
102
RTVSPropertyOp7
 70
     1
102
RTVSPropertyOp8
 70
     1
102
RTVSPropertyOp9
 70
     1
102
RTVSPropertyOp10
 70
     1
102
RTVSPropertyOp11
 70
     1
102
RTVSPropertyOp12
 70
     1
102
RTVSPropertyOp13
 70
     1
102
RTVSPropertyOp14
 70
     1
102
RTVSPropertyOp15
 70
     1
102
RTVSPropertyOp16
 70
     1
102
RTVSPropertyOp17
 70
     1
102
RTVSPropertyOp18
 70
     1
102
RTVSPropertyOp19
 70
     1
102
RTVSPropertyOp20
 70
     1
102
RTVSPropertyOp21
 70
     1
102
RTVSPropertyOp22
 70
     1
102
RTVSPropertyOp23
 70
     1
102
RTVSPropertyOp24
 70
     1
102
RTVSPropertyOp25
 70
     1
102
RTVSPropertyOp26
 70
     1
102
RTVSPropertyOp27
 70
     1
102
RTVSPropertyOp28
 70
     1
102
RTVSPropertyOp29
 70
     1
102
RTVSPropertyOp30
 70
     1
102
RTVSPropertyOp31
 70
     1
102
RTVSPropertyOp32
 70
     1
102
RTVSPropertyOp33
 70
     1
102
RTVSPropertyOp34
 70
     1
102
RTVSPropertyOp35
 70
     1
102
RTVSPropertyOp36
 70
     1
102
RTVSPropertyOp37
 70
     1
102
RTVSPropertyOp38
 70
     1
102
RTVSPropertyOp39
 70
     1
102
RTVSPropertyOp40
 70
     1
102
RTVSPropertyOp41
 70
     1
102
RTVSPropertyOp42
 70
     1
102
RTVSPropertyOp43
 70
     1
102
RTVSPropertyOp44
 70
     1
102
RTVSPropertyOp45
 70
     1
102
RTVSPropertyOp46
 70
     1
102
RTVSPropertyOp47
 70
     1
102
RTVSPropertyOp48
 70
     1
102
RTVSPropertyOp49
 70
     1
102
RTVSPropertyOp50
 70
     1
102
RTVSPropertyOp51
 70
     0
102
RTVSPropertyOp52
 70
     0
102
RTVSPropertyOp53
 70
     1
102
RTVSPropertyOp54
 70
     1
102
RTVSPropertyOp55
 70
     1
102
RTVSPropertyOp56
 70
     1
102
RTVSPropertyOp57
 70
     1
102
RTVSPropertyOp58
 70
     1
102
RTVSPropertyOp59
 70
     1
102
RTVSPropertyOp60
 70
     1
102
RTVSPropertyOp61
 70
     1
102
RTVSPropertyOp62
 70
     1
  0
XRECORD
  5
21202
102
{ACAD_REACTORS
330
21201
102
}
330
21201
100
AcDbXrecord
280
     1
102
RTVSPost2010Prop28
280
     0
102
RTVSPost2010PropOp28
 70
     1
102
RTVSPost2010Prop29
280
     1
102
RTVSPost2010PropOp29
 70
     1
102
RTVSPost2010Prop30
280
     1
102
RTVSPost2010PropOp30
 70
     1
102
RTVSPost2010Prop31
280
     0
102
RTVSPost2010PropOp31
 70
     1
102
RTVSPost2010Prop32
280
     0
102
RTVSPost2010PropOp32
 70
     1
102
RTVSPost2010Prop33
280
     0
102
RTVSPost2010PropOp33
 70
     1
102
RTVSPost2010Prop34
280
     0
102
RTVSPost2010PropOp34
 70
     1
102
RTVSPost2010Prop35
280
     0
102
RTVSPost2010PropOp35
 70
     1
102
RTVSPost2010Prop36
280
     0
102
RTVSPost2010PropOp36
 70
     1
102
RTVSPost2010Prop37
 90
       50
102
RTVSPost2010PropOp37
 70
     1
102
RTVSPost2010Prop38
140
0.0
102
RTVSPost2010PropOp38
 70
     1
102
RTVSPost2010Prop39
140
1.0
102
RTVSPost2010PropOp39
 70
     1
102
RTVSPost2010Prop40
 90
        0
102
RTVSPost2010PropOp40
 70
     1
102
RTVSPost2010Prop41ColorIndex
 90
       18
102
RTVSPost2010Prop41ColorRGB
 90
        0
102
RTVSPost2010PropOp41
 70
     1
102
RTVSPost2010Prop42
 90
       50
102
RTVSPost2010PropOp42
 70
     1
102
RTVSPost2010Prop43
 90
        3
102
RTVSPost2010PropOp43
 70
     1
102
RTVSPost2010Prop44ColorIndex
 90
        5
102
RTVSPost2010Prop44ColorRGB
 90
      255
102
RTVSPost2010PropOp44
 70
     1
102
RTVSPost2010Prop45
280
     0
102
RTVSPost2010PropOp45
 70
     1
102
RTVSPost2010Prop46
 90
       50
102
RTVSPost2010PropOp46
 70
     1
102
RTVSPost2010Prop47
 90
       50
102
RTVSPost2010PropOp47
 70
     1
102
RTVSPost2010Prop48
 90
       50
102
RTVSPost2010PropOp48
 70
     1
102
RTVSPost2010Prop49
280
     0
102
RTVSPost2010PropOp49
 70
     1
102
RTVSPost2010Prop50
 90
       50
102
RTVSPost2010PropOp50
 70
     1
102
RTVSPost2010Prop51ColorIndex
 90
      256
102
RTVSPost2010Prop51ColorRGB
 90
-16777216
102
RTVSPost2010PropOp51
 70
     0
102
RTVSPost2010Prop52
140
1.0
102
RTVSPost2010PropOp52
 70
     0
102
RTVSPost2010Prop53
 90
        2
102
RTVSPost2010PropOp53
 70
     1
102
RTVSPost2010Prop54
  1
strokes_ogs.tif
102
RTVSPost2010PropOp54
 70
     1
102
RTVSPost2010Prop55
280
     0
102
RTVSPost2010PropOp55
 70
     1
102
RTVSPost2010Prop56
140
1.0
102
RTVSPost2010PropOp56
 70
     1
102
RTVSPost2010Prop57
140
1.0
102
RTVSPost2010PropOp57
 70
     1
102
RTVSPropertyOp0
 70
     1
102
RTVSPropertyOp1
 70
     1
102
RTVSPropertyOp2
 70
     1
102
RTVSPropertyOp3
 70
     1
102
RTVSPropertyOp4
 70
     1
102
RTVSPropertyOp5
 70
     1
102
RTVSPropertyOp6
 70
     1
102
RTVSPropertyOp7
 70
     1
102
RTVSPropertyOp8
 70
     1
102
RTVSPropertyOp9
 70
     1
102
RTVSPropertyOp10
 70
     1
102
RTVSPropertyOp11
 70
     1
102
RTVSPropertyOp12
 70
     1
102
RTVSPropertyOp13
 70
     1
102
RTVSPropertyOp14
 70
     1
102
RTVSPropertyOp15
 70
     1
102
RTVSPropertyOp16
 70
     1
102
RTVSPropertyOp17
 70
     1
102
RTVSPropertyOp18
 70
     1
102
RTVSPropertyOp19
 70
     1
102
RTVSPropertyOp20
 70
     1
102
RTVSPropertyOp21
 70
     1
102
RTVSPropertyOp22
 70
     1
102
RTVSPropertyOp23
 70
     1
102
RTVSPropertyOp24
 70
     1
102
RTVSPropertyOp25
 70
     1
102
RTVSPropertyOp26
 70
     1
102
RTVSPropertyOp27
 70
     1
102
RTVSPropertyOp28
 70
     1
102
RTVSPropertyOp29
 70
     1
102
RTVSPropertyOp30
 70
     1
102
RTVSPropertyOp31
 70
     1
102
RTVSPropertyOp32
 70
     1
102
RTVSPropertyOp33
 70
     1
102
RTVSPropertyOp34
 70
     1
102
RTVSPropertyOp35
 70
     1
102
RTVSPropertyOp36
 70
     1
102
RTVSPropertyOp37
 70
     1
102
RTVSPropertyOp38
 70
     1
102
RTVSPropertyOp39
 70
     1
102
RTVSPropertyOp40
 70
     1
102
RTVSPropertyOp41
 70
     1
102
RTVSPropertyOp42
 70
     1
102
RTVSPropertyOp43
 70
     1
102
RTVSPropertyOp44
 70
     1
102
RTVSPropertyOp45
 70
     1
102
RTVSPropertyOp46
 70
     1
102
RTVSPropertyOp47
 70
     1
102
RTVSPropertyOp48
 70
     1
102
RTVSPropertyOp49
 70
     1
102
RTVSPropertyOp50
 70
     1
102
RTVSPropertyOp51
 70
     0
102
RTVSPropertyOp52
 70
     0
102
RTVSPropertyOp53
 70
     1
102
RTVSPropertyOp54
 70
     1
102
RTVSPropertyOp55
 70
     1
102
RTVSPropertyOp56
 70
     1
102
RTVSPropertyOp57
 70
     1
102
RTVSPropertyOp58
 70
     1
102
RTVSPropertyOp59
 70
     1
102
RTVSPropertyOp60
 70
     1
102
RTVSPropertyOp61
 70
     1
102
RTVSPropertyOp62
 70
     1
  0
XRECORD
  5
211FE
102
{ACAD_REACTORS
330
211FD
102
}
330
211FD
100
AcDbXrecord
280
     1
102
RTVSPost2010Prop28
280
     0
102
RTVSPost2010PropOp28
 70
     1
102
RTVSPost2010Prop29
280
     1
102
RTVSPost2010PropOp29
 70
     1
102
RTVSPost2010Prop30
280
     1
102
RTVSPost2010PropOp30
 70
     1
102
RTVSPost2010Prop31
280
     0
102
RTVSPost2010PropOp31
 70
     1
102
RTVSPost2010Prop32
280
     0
102
RTVSPost2010PropOp32
 70
     1
102
RTVSPost2010Prop33
280
     0
102
RTVSPost2010PropOp33
 70
     1
102
RTVSPost2010Prop34
280
     0
102
RTVSPost2010PropOp34
 70
     1
102
RTVSPost2010Prop35
280
     0
102
RTVSPost2010PropOp35
 70
     1
102
RTVSPost2010Prop36
280
     0
102
RTVSPost2010PropOp36
 70
     1
102
RTVSPost2010Prop37
 90
       50
102
RTVSPost2010PropOp37
 70
     1
102
RTVSPost2010Prop38
140
0.0
102
RTVSPost2010PropOp38
 70
     1
102
RTVSPost2010Prop39
140
1.0
102
RTVSPost2010PropOp39
 70
     1
102
RTVSPost2010Prop40
 90
        0
102
RTVSPost2010PropOp40
 70
     1
102
RTVSPost2010Prop41ColorIndex
 90
       18
102
RTVSPost2010Prop41ColorRGB
 90
        0
102
RTVSPost2010PropOp41
 70
     1
102
RTVSPost2010Prop42
 90
       50
102
RTVSPost2010PropOp42
 70
     1
102
RTVSPost2010Prop43
 90
        3
102
RTVSPost2010PropOp43
 70
     1
102
RTVSPost2010Prop44ColorIndex
 90
        5
102
RTVSPost2010Prop44ColorRGB
 90
      255
102
RTVSPost2010PropOp44
 70
     1
102
RTVSPost2010Prop45
280
     0
102
RTVSPost2010PropOp45
 70
     1
102
RTVSPost2010Prop46
 90
       50
102
RTVSPost2010PropOp46
 70
     1
102
RTVSPost2010Prop47
 90
       50
102
RTVSPost2010PropOp47
 70
     1
102
RTVSPost2010Prop48
 90
       50
102
RTVSPost2010PropOp48
 70
     1
102
RTVSPost2010Prop49
280
     0
102
RTVSPost2010PropOp49
 70
     1
102
RTVSPost2010Prop50
 90
       50
102
RTVSPost2010PropOp50
 70
     1
102
RTVSPost2010Prop51ColorIndex
 90
      256
102
RTVSPost2010Prop51ColorRGB
 90
-16777216
102
RTVSPost2010PropOp51
 70
     0
102
RTVSPost2010Prop52
140
1.0
102
RTVSPost2010PropOp52
 70
     0
102
RTVSPost2010Prop53
 90
        2
102
RTVSPost2010PropOp53
 70
     1
102
RTVSPost2010Prop54
  1
strokes_ogs.tif
102
RTVSPost2010PropOp54
 70
     1
102
RTVSPost2010Prop55
280
     0
102
RTVSPost2010PropOp55
 70
     1
102
RTVSPost2010Prop56
140
1.0
102
RTVSPost2010PropOp56
 70
     1
102
RTVSPost2010Prop57
140
1.0
102
RTVSPost2010PropOp57
 70
     1
102
RTVSPropertyOp0
 70
     1
102
RTVSPropertyOp1
 70
     1
102
RTVSPropertyOp2
 70
     1
102
RTVSPropertyOp3
 70
     1
102
RTVSPropertyOp4
 70
     1
102
RTVSPropertyOp5
 70
     1
102
RTVSPropertyOp6
 70
     1
102
RTVSPropertyOp7
 70
     1
102
RTVSPropertyOp8
 70
     1
102
RTVSPropertyOp9
 70
     1
102
RTVSPropertyOp10
 70
     1
102
RTVSPropertyOp11
 70
     1
102
RTVSPropertyOp12
 70
     1
102
RTVSPropertyOp13
 70
     1
102
RTVSPropertyOp14
 70
     1
102
RTVSPropertyOp15
 70
     1
102
RTVSPropertyOp16
 70
     1
102
RTVSPropertyOp17
 70
     1
102
RTVSPropertyOp18
 70
     1
102
RTVSPropertyOp19
 70
     1
102
RTVSPropertyOp20
 70
     1
102
RTVSPropertyOp21
 70
     1
102
RTVSPropertyOp22
 70
     1
102
RTVSPropertyOp23
 70
     1
102
RTVSPropertyOp24
 70
     1
102
RTVSPropertyOp25
 70
     1
102
RTVSPropertyOp26
 70
     1
102
RTVSPropertyOp27
 70
     1
102
RTVSPropertyOp28
 70
     1
102
RTVSPropertyOp29
 70
     1
102
RTVSPropertyOp30
 70
     1
102
RTVSPropertyOp31
 70
     1
102
RTVSPropertyOp32
 70
     1
102
RTVSPropertyOp33
 70
     1
102
RTVSPropertyOp34
 70
     1
102
RTVSPropertyOp35
 70
     1
102
RTVSPropertyOp36
 70
     1
102
RTVSPropertyOp37
 70
     1
102
RTVSPropertyOp38
 70
     1
102
RTVSPropertyOp39
 70
     1
102
RTVSPropertyOp40
 70
     1
102
RTVSPropertyOp41
 70
     1
102
RTVSPropertyOp42
 70
     1
102
RTVSPropertyOp43
 70
     1
102
RTVSPropertyOp44
 70
     1
102
RTVSPropertyOp45
 70
     1
102
RTVSPropertyOp46
 70
     1
102
RTVSPropertyOp47
 70
     1
102
RTVSPropertyOp48
 70
     1
102
RTVSPropertyOp49
 70
     1
102
RTVSPropertyOp50
 70
     1
102
RTVSPropertyOp51
 70
     0
102
RTVSPropertyOp52
 70
     0
102
RTVSPropertyOp53
 70
     1
102
RTVSPropertyOp54
 70
     1
102
RTVSPropertyOp55
 70
     1
102
RTVSPropertyOp56
 70
     1
102
RTVSPropertyOp57
 70
     1
102
RTVSPropertyOp58
 70
     1
102
RTVSPropertyOp59
 70
     1
102
RTVSPropertyOp60
 70
     1
102
RTVSPropertyOp61
 70
     1
102
RTVSPropertyOp62
 70
     1
  0
XRECORD
  5
2120C
102
{ACAD_REACTORS
330
2120B
102
}
330
2120B
100
AcDbXrecord
280
     1
102
RTVSPost2010Prop28
280
     0
102
RTVSPost2010PropOp28
 70
     1
102
RTVSPost2010Prop29
280
     1
102
RTVSPost2010PropOp29
 70
     1
102
RTVSPost2010Prop30
280
     1
102
RTVSPost2010PropOp30
 70
     1
102
RTVSPost2010Prop31
280
     0
102
RTVSPost2010PropOp31
 70
     1
102
RTVSPost2010Prop32
280
     0
102
RTVSPost2010PropOp32
 70
     1
102
RTVSPost2010Prop33
280
     0
102
RTVSPost2010PropOp33
 70
     1
102
RTVSPost2010Prop34
280
     0
102
RTVSPost2010PropOp34
 70
     1
102
RTVSPost2010Prop35
280
     0
102
RTVSPost2010PropOp35
 70
     1
102
RTVSPost2010Prop36
280
     0
102
RTVSPost2010PropOp36
 70
     1
102
RTVSPost2010Prop37
 90
       50
102
RTVSPost2010PropOp37
 70
     1
102
RTVSPost2010Prop38
140
0.0
102
RTVSPost2010PropOp38
 70
     1
102
RTVSPost2010Prop39
140
1.0
102
RTVSPost2010PropOp39
 70
     1
102
RTVSPost2010Prop40
 90
        0
102
RTVSPost2010PropOp40
 70
     1
102
RTVSPost2010Prop41ColorIndex
 90
       18
102
RTVSPost2010Prop41ColorRGB
 90
        0
102
RTVSPost2010PropOp41
 70
     1
102
RTVSPost2010Prop42
 90
       50
102
RTVSPost2010PropOp42
 70
     1
102
RTVSPost2010Prop43
 90
        3
102
RTVSPost2010PropOp43
 70
     1
102
RTVSPost2010Prop44ColorIndex
 90
        5
102
RTVSPost2010Prop44ColorRGB
 90
      255
102
RTVSPost2010PropOp44
 70
     1
102
RTVSPost2010Prop45
280
     0
102
RTVSPost2010PropOp45
 70
     1
102
RTVSPost2010Prop46
 90
       50
102
RTVSPost2010PropOp46
 70
     1
102
RTVSPost2010Prop47
 90
       50
102
RTVSPost2010PropOp47
 70
     1
102
RTVSPost2010Prop48
 90
       50
102
RTVSPost2010PropOp48
 70
     1
102
RTVSPost2010Prop49
280
     0
102
RTVSPost2010PropOp49
 70
     1
102
RTVSPost2010Prop50
 90
       50
102
RTVSPost2010PropOp50
 70
     1
102
RTVSPost2010Prop51ColorIndex
 90
      256
102
RTVSPost2010Prop51ColorRGB
 90
-16777216
102
RTVSPost2010PropOp51
 70
     0
102
RTVSPost2010Prop52
140
1.0
102
RTVSPost2010PropOp52
 70
     0
102
RTVSPost2010Prop53
 90
        2
102
RTVSPost2010PropOp53
 70
     1
102
RTVSPost2010Prop54
  1
strokes_ogs.tif
102
RTVSPost2010PropOp54
 70
     1
102
RTVSPost2010Prop55
280
     0
102
RTVSPost2010PropOp55
 70
     1
102
RTVSPost2010Prop56
140
1.0
102
RTVSPost2010PropOp56
 70
     1
102
RTVSPost2010Prop57
140
1.0
102
RTVSPost2010PropOp57
 70
     1
102
RTVSPropertyOp0
 70
     1
102
RTVSPropertyOp1
 70
     1
102
RTVSPropertyOp2
 70
     1
102
RTVSPropertyOp3
 70
     1
102
RTVSPropertyOp4
 70
     1
102
RTVSPropertyOp5
 70
     1
102
RTVSPropertyOp6
 70
     1
102
RTVSPropertyOp7
 70
     1
102
RTVSPropertyOp8
 70
     1
102
RTVSPropertyOp9
 70
     1
102
RTVSPropertyOp10
 70
     1
102
RTVSPropertyOp11
 70
     1
102
RTVSPropertyOp12
 70
     1
102
RTVSPropertyOp13
 70
     1
102
RTVSPropertyOp14
 70
     1
102
RTVSPropertyOp15
 70
     1
102
RTVSPropertyOp16
 70
     1
102
RTVSPropertyOp17
 70
     1
102
RTVSPropertyOp18
 70
     1
102
RTVSPropertyOp19
 70
     1
102
RTVSPropertyOp20
 70
     1
102
RTVSPropertyOp21
 70
     1
102
RTVSPropertyOp22
 70
     1
102
RTVSPropertyOp23
 70
     1
102
RTVSPropertyOp24
 70
     1
102
RTVSPropertyOp25
 70
     1
102
RTVSPropertyOp26
 70
     1
102
RTVSPropertyOp27
 70
     1
102
RTVSPropertyOp28
 70
     1
102
RTVSPropertyOp29
 70
     1
102
RTVSPropertyOp30
 70
     1
102
RTVSPropertyOp31
 70
     1
102
RTVSPropertyOp32
 70
     1
102
RTVSPropertyOp33
 70
     1
102
RTVSPropertyOp34
 70
     1
102
RTVSPropertyOp35
 70
     1
102
RTVSPropertyOp36
 70
     1
102
RTVSPropertyOp37
 70
     1
102
RTVSPropertyOp38
 70
     1
102
RTVSPropertyOp39
 70
     1
102
RTVSPropertyOp40
 70
     1
102
RTVSPropertyOp41
 70
     1
102
RTVSPropertyOp42
 70
     1
102
RTVSPropertyOp43
 70
     1
102
RTVSPropertyOp44
 70
     1
102
RTVSPropertyOp45
 70
     1
102
RTVSPropertyOp46
 70
     1
102
RTVSPropertyOp47
 70
     1
102
RTVSPropertyOp48
 70
     1
102
RTVSPropertyOp49
 70
     1
102
RTVSPropertyOp50
 70
     1
102
RTVSPropertyOp51
 70
     0
102
RTVSPropertyOp52
 70
     0
102
RTVSPropertyOp53
 70
     1
102
RTVSPropertyOp54
 70
     1
102
RTVSPropertyOp55
 70
     1
102
RTVSPropertyOp56
 70
     1
102
RTVSPropertyOp57
 70
     1
102
RTVSPropertyOp58
 70
     1
102
RTVSPropertyOp59
 70
     1
102
RTVSPropertyOp60
 70
     1
102
RTVSPropertyOp61
 70
     1
102
RTVSPropertyOp62
 70
     1
  0
XRECORD
  5
21214
102
{ACAD_REACTORS
330
21213
102
}
330
21213
100
AcDbXrecord
280
     1
102
RTVSPost2010Prop28
280
     0
102
RTVSPost2010PropOp28
 70
     1
102
RTVSPost2010Prop29
280
     1
102
RTVSPost2010PropOp29
 70
     1
102
RTVSPost2010Prop30
280
     1
102
RTVSPost2010PropOp30
 70
     1
102
RTVSPost2010Prop31
280
     0
102
RTVSPost2010PropOp31
 70
     1
102
RTVSPost2010Prop32
280
     0
102
RTVSPost2010PropOp32
 70
     1
102
RTVSPost2010Prop33
280
     0
102
RTVSPost2010PropOp33
 70
     1
102
RTVSPost2010Prop34
280
     0
102
RTVSPost2010PropOp34
 70
     1
102
RTVSPost2010Prop35
280
     0
102
RTVSPost2010PropOp35
 70
     1
102
RTVSPost2010Prop36
280
     0
102
RTVSPost2010PropOp36
 70
     1
102
RTVSPost2010Prop37
 90
       50
102
RTVSPost2010PropOp37
 70
     1
102
RTVSPost2010Prop38
140
0.0
102
RTVSPost2010PropOp38
 70
     1
102
RTVSPost2010Prop39
140
1.0
102
RTVSPost2010PropOp39
 70
     1
102
RTVSPost2010Prop40
 90
        0
102
RTVSPost2010PropOp40
 70
     1
102
RTVSPost2010Prop41ColorIndex
 90
       18
102
RTVSPost2010Prop41ColorRGB
 90
        0
102
RTVSPost2010PropOp41
 70
     1
102
RTVSPost2010Prop42
 90
       50
102
RTVSPost2010PropOp42
 70
     1
102
RTVSPost2010Prop43
 90
        3
102
RTVSPost2010PropOp43
 70
     1
102
RTVSPost2010Prop44ColorIndex
 90
        5
102
RTVSPost2010Prop44ColorRGB
 90
      255
102
RTVSPost2010PropOp44
 70
     1
102
RTVSPost2010Prop45
280
     0
102
RTVSPost2010PropOp45
 70
     1
102
RTVSPost2010Prop46
 90
       50
102
RTVSPost2010PropOp46
 70
     1
102
RTVSPost2010Prop47
 90
       50
102
RTVSPost2010PropOp47
 70
     1
102
RTVSPost2010Prop48
 90
       50
102
RTVSPost2010PropOp48
 70
     1
102
RTVSPost2010Prop49
280
     0
102
RTVSPost2010PropOp49
 70
     1
102
RTVSPost2010Prop50
 90
       50
102
RTVSPost2010PropOp50
 70
     1
102
RTVSPost2010Prop51ColorIndex
 90
      256
102
RTVSPost2010Prop51ColorRGB
 90
-16777216
102
RTVSPost2010PropOp51
 70
     0
102
RTVSPost2010Prop52
140
1.0
102
RTVSPost2010PropOp52
 70
     0
102
RTVSPost2010Prop53
 90
        2
102
RTVSPost2010PropOp53
 70
     1
102
RTVSPost2010Prop54
  1
strokes_ogs.tif
102
RTVSPost2010PropOp54
 70
     1
102
RTVSPost2010Prop55
280
     0
102
RTVSPost2010PropOp55
 70
     1
102
RTVSPost2010Prop56
140
1.0
102
RTVSPost2010PropOp56
 70
     1
102
RTVSPost2010Prop57
140
1.0
102
RTVSPost2010PropOp57
 70
     1
102
RTVSPropertyOp0
 70
     1
102
RTVSPropertyOp1
 70
     1
102
RTVSPropertyOp2
 70
     1
102
RTVSPropertyOp3
 70
     1
102
RTVSPropertyOp4
 70
     1
102
RTVSPropertyOp5
 70
     1
102
RTVSPropertyOp6
 70
     1
102
RTVSPropertyOp7
 70
     1
102
RTVSPropertyOp8
 70
     1
102
RTVSPropertyOp9
 70
     1
102
RTVSPropertyOp10
 70
     1
102
RTVSPropertyOp11
 70
     1
102
RTVSPropertyOp12
 70
     1
102
RTVSPropertyOp13
 70
     1
102
RTVSPropertyOp14
 70
     1
102
RTVSPropertyOp15
 70
     1
102
RTVSPropertyOp16
 70
     1
102
RTVSPropertyOp17
 70
     1
102
RTVSPropertyOp18
 70
     1
102
RTVSPropertyOp19
 70
     1
102
RTVSPropertyOp20
 70
     1
102
RTVSPropertyOp21
 70
     1
102
RTVSPropertyOp22
 70
     1
102
RTVSPropertyOp23
 70
     1
102
RTVSPropertyOp24
 70
     1
102
RTVSPropertyOp25
 70
     1
102
RTVSPropertyOp26
 70
     1
102
RTVSPropertyOp27
 70
     1
102
RTVSPropertyOp28
 70
     1
102
RTVSPropertyOp29
 70
     1
102
RTVSPropertyOp30
 70
     1
102
RTVSPropertyOp31
 70
     1
102
RTVSPropertyOp32
 70
     1
102
RTVSPropertyOp33
 70
     1
102
RTVSPropertyOp34
 70
     1
102
RTVSPropertyOp35
 70
     1
102
RTVSPropertyOp36
 70
     1
102
RTVSPropertyOp37
 70
     1
102
RTVSPropertyOp38
 70
     1
102
RTVSPropertyOp39
 70
     1
102
RTVSPropertyOp40
 70
     1
102
RTVSPropertyOp41
 70
     1
102
RTVSPropertyOp42
 70
     1
102
RTVSPropertyOp43
 70
     1
102
RTVSPropertyOp44
 70
     1
102
RTVSPropertyOp45
 70
     1
102
RTVSPropertyOp46
 70
     1
102
RTVSPropertyOp47
 70
     1
102
RTVSPropertyOp48
 70
     1
102
RTVSPropertyOp49
 70
     1
102
RTVSPropertyOp50
 70
     1
102
RTVSPropertyOp51
 70
     0
102
RTVSPropertyOp52
 70
     0
102
RTVSPropertyOp53
 70
     1
102
RTVSPropertyOp54
 70
     1
102
RTVSPropertyOp55
 70
     1
102
RTVSPropertyOp56
 70
     1
102
RTVSPropertyOp57
 70
     1
102
RTVSPropertyOp58
 70
     1
102
RTVSPropertyOp59
 70
     1
102
RTVSPropertyOp60
 70
     1
102
RTVSPropertyOp61
 70
     1
102
RTVSPropertyOp62
 70
     1
  0
XRECORD
  5
21206
102
{ACAD_REACTORS
330
21205
102
}
330
21205
100
AcDbXrecord
280
     1
102
RTVSPost2010Prop28
280
     0
102
RTVSPost2010PropOp28
 70
     1
102
RTVSPost2010Prop29
280
     1
102
RTVSPost2010PropOp29
 70
     1
102
RTVSPost2010Prop30
280
     1
102
RTVSPost2010PropOp30
 70
     1
102
RTVSPost2010Prop31
280
     0
102
RTVSPost2010PropOp31
 70
     1
102
RTVSPost2010Prop32
280
     0
102
RTVSPost2010PropOp32
 70
     1
102
RTVSPost2010Prop33
280
     0
102
RTVSPost2010PropOp33
 70
     1
102
RTVSPost2010Prop34
280
     0
102
RTVSPost2010PropOp34
 70
     1
102
RTVSPost2010Prop35
280
     0
102
RTVSPost2010PropOp35
 70
     1
102
RTVSPost2010Prop36
280
     0
102
RTVSPost2010PropOp36
 70
     1
102
RTVSPost2010Prop37
 90
       50
102
RTVSPost2010PropOp37
 70
     1
102
RTVSPost2010Prop38
140
0.0
102
RTVSPost2010PropOp38
 70
     1
102
RTVSPost2010Prop39
140
1.0
102
RTVSPost2010PropOp39
 70
     1
102
RTVSPost2010Prop40
 90
        0
102
RTVSPost2010PropOp40
 70
     1
102
RTVSPost2010Prop41ColorIndex
 90
       18
102
RTVSPost2010Prop41ColorRGB
 90
        0
102
RTVSPost2010PropOp41
 70
     1
102
RTVSPost2010Prop42
 90
       50
102
RTVSPost2010PropOp42
 70
     1
102
RTVSPost2010Prop43
 90
        3
102
RTVSPost2010PropOp43
 70
     1
102
RTVSPost2010Prop44ColorIndex
 90
        5
102
RTVSPost2010Prop44ColorRGB
 90
      255
102
RTVSPost2010PropOp44
 70
     1
102
RTVSPost2010Prop45
280
     0
102
RTVSPost2010PropOp45
 70
     1
102
RTVSPost2010Prop46
 90
       50
102
RTVSPost2010PropOp46
 70
     1
102
RTVSPost2010Prop47
 90
       50
102
RTVSPost2010PropOp47
 70
     1
102
RTVSPost2010Prop48
 90
       50
102
RTVSPost2010PropOp48
 70
     1
102
RTVSPost2010Prop49
280
     0
102
RTVSPost2010PropOp49
 70
     1
102
RTVSPost2010Prop50
 90
       50
102
RTVSPost2010PropOp50
 70
     1
102
RTVSPost2010Prop51ColorIndex
 90
      256
102
RTVSPost2010Prop51ColorRGB
 90
-16777216
102
RTVSPost2010PropOp51
 70
     0
102
RTVSPost2010Prop52
140
1.0
102
RTVSPost2010PropOp52
 70
     0
102
RTVSPost2010Prop53
 90
        2
102
RTVSPost2010PropOp53
 70
     1
102
RTVSPost2010Prop54
  1
strokes_ogs.tif
102
RTVSPost2010PropOp54
 70
     1
102
RTVSPost2010Prop55
280
     0
102
RTVSPost2010PropOp55
 70
     1
102
RTVSPost2010Prop56
140
1.0
102
RTVSPost2010PropOp56
 70
     1
102
RTVSPost2010Prop57
140
1.0
102
RTVSPost2010PropOp57
 70
     1
102
RTVSPropertyOp0
 70
     1
102
RTVSPropertyOp1
 70
     1
102
RTVSPropertyOp2
 70
     1
102
RTVSPropertyOp3
 70
     1
102
RTVSPropertyOp4
 70
     1
102
RTVSPropertyOp5
 70
     1
102
RTVSPropertyOp6
 70
     1
102
RTVSPropertyOp7
 70
     1
102
RTVSPropertyOp8
 70
     1
102
RTVSPropertyOp9
 70
     1
102
RTVSPropertyOp10
 70
     1
102
RTVSPropertyOp11
 70
     1
102
RTVSPropertyOp12
 70
     1
102
RTVSPropertyOp13
 70
     1
102
RTVSPropertyOp14
 70
     1
102
RTVSPropertyOp15
 70
     1
102
RTVSPropertyOp16
 70
     1
102
RTVSPropertyOp17
 70
     1
102
RTVSPropertyOp18
 70
     1
102
RTVSPropertyOp19
 70
     1
102
RTVSPropertyOp20
 70
     1
102
RTVSPropertyOp21
 70
     1
102
RTVSPropertyOp22
 70
     1
102
RTVSPropertyOp23
 70
     1
102
RTVSPropertyOp24
 70
     1
102
RTVSPropertyOp25
 70
     1
102
RTVSPropertyOp26
 70
     1
102
RTVSPropertyOp27
 70
     1
102
RTVSPropertyOp28
 70
     1
102
RTVSPropertyOp29
 70
     1
102
RTVSPropertyOp30
 70
     1
102
RTVSPropertyOp31
 70
     1
102
RTVSPropertyOp32
 70
     1
102
RTVSPropertyOp33
 70
     1
102
RTVSPropertyOp34
 70
     1
102
RTVSPropertyOp35
 70
     1
102
RTVSPropertyOp36
 70
     1
102
RTVSPropertyOp37
 70
     1
102
RTVSPropertyOp38
 70
     1
102
RTVSPropertyOp39
 70
     1
102
RTVSPropertyOp40
 70
     1
102
RTVSPropertyOp41
 70
     1
102
RTVSPropertyOp42
 70
     1
102
RTVSPropertyOp43
 70
     1
102
RTVSPropertyOp44
 70
     1
102
RTVSPropertyOp45
 70
     1
102
RTVSPropertyOp46
 70
     1
102
RTVSPropertyOp47
 70
     1
102
RTVSPropertyOp48
 70
     1
102
RTVSPropertyOp49
 70
     1
102
RTVSPropertyOp50
 70
     1
102
RTVSPropertyOp51
 70
     0
102
RTVSPropertyOp52
 70
     0
102
RTVSPropertyOp53
 70
     1
102
RTVSPropertyOp54
 70
     1
102
RTVSPropertyOp55
 70
     1
102
RTVSPropertyOp56
 70
     1
102
RTVSPropertyOp57
 70
     1
102
RTVSPropertyOp58
 70
     1
102
RTVSPropertyOp59
 70
     1
102
RTVSPropertyOp60
 70
     1
102
RTVSPropertyOp61
 70
     1
102
RTVSPropertyOp62
 70
     1
  0
XRECORD
  5
2120A
102
{ACAD_REACTORS
330
21209
102
}
330
21209
100
AcDbXrecord
280
     1
102
RTVSPost2010Prop28
280
     0
102
RTVSPost2010PropOp28
 70
     1
102
RTVSPost2010Prop29
280
     1
102
RTVSPost2010PropOp29
 70
     1
102
RTVSPost2010Prop30
280
     1
102
RTVSPost2010PropOp30
 70
     1
102
RTVSPost2010Prop31
280
     0
102
RTVSPost2010PropOp31
 70
     1
102
RTVSPost2010Prop32
280
     0
102
RTVSPost2010PropOp32
 70
     1
102
RTVSPost2010Prop33
280
     0
102
RTVSPost2010PropOp33
 70
     1
102
RTVSPost2010Prop34
280
     0
102
RTVSPost2010PropOp34
 70
     1
102
RTVSPost2010Prop35
280
     0
102
RTVSPost2010PropOp35
 70
     1
102
RTVSPost2010Prop36
280
     0
102
RTVSPost2010PropOp36
 70
     1
102
RTVSPost2010Prop37
 90
       50
102
RTVSPost2010PropOp37
 70
     1
102
RTVSPost2010Prop38
140
0.0
102
RTVSPost2010PropOp38
 70
     1
102
RTVSPost2010Prop39
140
1.0
102
RTVSPost2010PropOp39
 70
     1
102
RTVSPost2010Prop40
 90
        0
102
RTVSPost2010PropOp40
 70
     1
102
RTVSPost2010Prop41ColorIndex
 90
       18
102
RTVSPost2010Prop41ColorRGB
 90
        0
102
RTVSPost2010PropOp41
 70
     1
102
RTVSPost2010Prop42
 90
       50
102
RTVSPost2010PropOp42
 70
     1
102
RTVSPost2010Prop43
 90
        3
102
RTVSPost2010PropOp43
 70
     1
102
RTVSPost2010Prop44ColorIndex
 90
        5
102
RTVSPost2010Prop44ColorRGB
 90
      255
102
RTVSPost2010PropOp44
 70
     1
102
RTVSPost2010Prop45
280
     0
102
RTVSPost2010PropOp45
 70
     1
102
RTVSPost2010Prop46
 90
       50
102
RTVSPost2010PropOp46
 70
     1
102
RTVSPost2010Prop47
 90
       50
102
RTVSPost2010PropOp47
 70
     1
102
RTVSPost2010Prop48
 90
       50
102
RTVSPost2010PropOp48
 70
     1
102
RTVSPost2010Prop49
280
     0
102
RTVSPost2010PropOp49
 70
     1
102
RTVSPost2010Prop50
 90
       50
102
RTVSPost2010PropOp50
 70
     1
102
RTVSPost2010Prop51ColorIndex
 90
      256
102
RTVSPost2010Prop51ColorRGB
 90
-16777216
102
RTVSPost2010PropOp51
 70
     0
102
RTVSPost2010Prop52
140
1.0
102
RTVSPost2010PropOp52
 70
     0
102
RTVSPost2010Prop53
 90
        2
102
RTVSPost2010PropOp53
 70
     1
102
RTVSPost2010Prop54
  1
strokes_ogs.tif
102
RTVSPost2010PropOp54
 70
     1
102
RTVSPost2010Prop55
280
     0
102
RTVSPost2010PropOp55
 70
     1
102
RTVSPost2010Prop56
140
1.0
102
RTVSPost2010PropOp56
 70
     1
102
RTVSPost2010Prop57
140
1.0
102
RTVSPost2010PropOp57
 70
     1
102
RTVSPropertyOp0
 70
     1
102
RTVSPropertyOp1
 70
     1
102
RTVSPropertyOp2
 70
     1
102
RTVSPropertyOp3
 70
     1
102
RTVSPropertyOp4
 70
     1
102
RTVSPropertyOp5
 70
     1
102
RTVSPropertyOp6
 70
     1
102
RTVSPropertyOp7
 70
     1
102
RTVSPropertyOp8
 70
     1
102
RTVSPropertyOp9
 70
     1
102
RTVSPropertyOp10
 70
     1
102
RTVSPropertyOp11
 70
     1
102
RTVSPropertyOp12
 70
     1
102
RTVSPropertyOp13
 70
     1
102
RTVSPropertyOp14
 70
     1
102
RTVSPropertyOp15
 70
     1
102
RTVSPropertyOp16
 70
     1
102
RTVSPropertyOp17
 70
     1
102
RTVSPropertyOp18
 70
     1
102
RTVSPropertyOp19
 70
     1
102
RTVSPropertyOp20
 70
     1
102
RTVSPropertyOp21
 70
     1
102
RTVSPropertyOp22
 70
     1
102
RTVSPropertyOp23
 70
     1
102
RTVSPropertyOp24
 70
     1
102
RTVSPropertyOp25
 70
     1
102
RTVSPropertyOp26
 70
     1
102
RTVSPropertyOp27
 70
     1
102
RTVSPropertyOp28
 70
     1
102
RTVSPropertyOp29
 70
     1
102
RTVSPropertyOp30
 70
     1
102
RTVSPropertyOp31
 70
     1
102
RTVSPropertyOp32
 70
     1
102
RTVSPropertyOp33
 70
     1
102
RTVSPropertyOp34
 70
     1
102
RTVSPropertyOp35
 70
     1
102
RTVSPropertyOp36
 70
     1
102
RTVSPropertyOp37
 70
     1
102
RTVSPropertyOp38
 70
     1
102
RTVSPropertyOp39
 70
     1
102
RTVSPropertyOp40
 70
     1
102
RTVSPropertyOp41
 70
     1
102
RTVSPropertyOp42
 70
     1
102
RTVSPropertyOp43
 70
     1
102
RTVSPropertyOp44
 70
     1
102
RTVSPropertyOp45
 70
     1
102
RTVSPropertyOp46
 70
     1
102
RTVSPropertyOp47
 70
     1
102
RTVSPropertyOp48
 70
     1
102
RTVSPropertyOp49
 70
     1
102
RTVSPropertyOp50
 70
     1
102
RTVSPropertyOp51
 70
     0
102
RTVSPropertyOp52
 70
     0
102
RTVSPropertyOp53
 70
     1
102
RTVSPropertyOp54
 70
     1
102
RTVSPropertyOp55
 70
     1
102
RTVSPropertyOp56
 70
     1
102
RTVSPropertyOp57
 70
     1
102
RTVSPropertyOp58
 70
     1
102
RTVSPropertyOp59
 70
     1
102
RTVSPropertyOp60
 70
     1
102
RTVSPropertyOp61
 70
     1
102
RTVSPropertyOp62
 70
     1
  0
XRECORD
  5
21231
102
{ACAD_REACTORS
330
21230
102
}
330
21230
100
AcDbXrecord
280
     1
102
RTVSPost2010Prop28
280
     0
102
RTVSPost2010PropOp28
 70
     1
102
RTVSPost2010Prop29
280
     1
102
RTVSPost2010PropOp29
 70
     1
102
RTVSPost2010Prop30
280
     1
102
RTVSPost2010PropOp30
 70
     1
102
RTVSPost2010Prop31
280
     0
102
RTVSPost2010PropOp31
 70
     1
102
RTVSPost2010Prop32
280
     0
102
RTVSPost2010PropOp32
 70
     1
102
RTVSPost2010Prop33
280
     0
102
RTVSPost2010PropOp33
 70
     1
102
RTVSPost2010Prop34
280
     0
102
RTVSPost2010PropOp34
 70
     1
102
RTVSPost2010Prop35
280
     0
102
RTVSPost2010PropOp35
 70
     1
102
RTVSPost2010Prop36
280
     0
102
RTVSPost2010PropOp36
 70
     1
102
RTVSPost2010Prop37
 90
       50
102
RTVSPost2010PropOp37
 70
     0
102
RTVSPost2010Prop38
140
0.0
102
RTVSPost2010PropOp38
 70
     0
102
RTVSPost2010Prop39
140
1.0
102
RTVSPost2010PropOp39
 70
     0
102
RTVSPost2010Prop40
 90
        0
102
RTVSPost2010PropOp40
 70
     0
102
RTVSPost2010Prop41ColorIndex
 90
       18
102
RTVSPost2010Prop41ColorRGB
 90
        0
102
RTVSPost2010PropOp41
 70
     0
102
RTVSPost2010Prop42
 90
       50
102
RTVSPost2010PropOp42
 70
     0
102
RTVSPost2010Prop43
 90
        3
102
RTVSPost2010PropOp43
 70
     0
102
RTVSPost2010Prop44ColorIndex
 90
        5
102
RTVSPost2010Prop44ColorRGB
 90
      255
102
RTVSPost2010PropOp44
 70
     0
102
RTVSPost2010Prop45
280
     0
102
RTVSPost2010PropOp45
 70
     1
102
RTVSPost2010Prop46
 90
       50
102
RTVSPost2010PropOp46
 70
     0
102
RTVSPost2010Prop47
 90
       50
102
RTVSPost2010PropOp47
 70
     0
102
RTVSPost2010Prop48
 90
       50
102
RTVSPost2010PropOp48
 70
     0
102
RTVSPost2010Prop49
280
     0
102
RTVSPost2010PropOp49
 70
     1
102
RTVSPost2010Prop50
 90
       50
102
RTVSPost2010PropOp50
 70
     0
102
RTVSPost2010Prop51ColorIndex
 90
      256
102
RTVSPost2010Prop51ColorRGB
 90
-16777216
102
RTVSPost2010PropOp51
 70
     0
102
RTVSPost2010Prop52
140
1.0
102
RTVSPost2010PropOp52
 70
     0
102
RTVSPost2010Prop53
 90
        2
102
RTVSPost2010PropOp53
 70
     0
102
RTVSPost2010Prop54
  1
strokes_ogs.tif
102
RTVSPost2010PropOp54
 70
     0
102
RTVSPost2010Prop55
280
     0
102
RTVSPost2010PropOp55
 70
     1
102
RTVSPost2010Prop56
140
1.0
102
RTVSPost2010PropOp56
 70
     0
102
RTVSPost2010Prop57
140
1.0
102
RTVSPost2010PropOp57
 70
     0
102
RTVSPropertyOp0
 70
     0
102
RTVSPropertyOp1
 70
     0
102
RTVSPropertyOp2
 70
     0
102
RTVSPropertyOp3
 70
     0
102
RTVSPropertyOp4
 70
     0
102
RTVSPropertyOp5
 70
     0
102
RTVSPropertyOp6
 70
     0
102
RTVSPropertyOp7
 70
     0
102
RTVSPropertyOp8
 70
     0
102
RTVSPropertyOp9
 70
     0
102
RTVSPropertyOp10
 70
     0
102
RTVSPropertyOp11
 70
     0
102
RTVSPropertyOp12
 70
     0
102
RTVSPropertyOp13
 70
     0
102
RTVSPropertyOp14
 70
     2
102
RTVSPropertyOp15
 70
     0
102
RTVSPropertyOp16
 70
     0
102
RTVSPropertyOp17
 70
     0
102
RTVSPropertyOp18
 70
     0
102
RTVSPropertyOp19
 70
     0
102
RTVSPropertyOp20
 70
     0
102
RTVSPropertyOp21
 70
     0
102
RTVSPropertyOp22
 70
     0
102
RTVSPropertyOp23
 70
     0
102
RTVSPropertyOp24
 70
     0
102
RTVSPropertyOp25
 70
     0
102
RTVSPropertyOp26
 70
     0
102
RTVSPropertyOp27
 70
     0
102
RTVSPropertyOp28
 70
     1
102
RTVSPropertyOp29
 70
     1
102
RTVSPropertyOp30
 70
     1
102
RTVSPropertyOp31
 70
     1
102
RTVSPropertyOp32
 70
     1
102
RTVSPropertyOp33
 70
     1
102
RTVSPropertyOp34
 70
     1
102
RTVSPropertyOp35
 70
     1
102
RTVSPropertyOp36
 70
     1
102
RTVSPropertyOp37
 70
     0
102
RTVSPropertyOp38
 70
     0
102
RTVSPropertyOp39
 70
     0
102
RTVSPropertyOp40
 70
     0
102
RTVSPropertyOp41
 70
     0
102
RTVSPropertyOp42
 70
     0
102
RTVSPropertyOp43
 70
     0
102
RTVSPropertyOp44
 70
     0
102
RTVSPropertyOp45
 70
     1
102
RTVSPropertyOp46
 70
     0
102
RTVSPropertyOp47
 70
     0
102
RTVSPropertyOp48
 70
     0
102
RTVSPropertyOp49
 70
     1
102
RTVSPropertyOp50
 70
     0
102
RTVSPropertyOp51
 70
     0
102
RTVSPropertyOp52
 70
     0
102
RTVSPropertyOp53
 70
     0
102
RTVSPropertyOp54
 70
     0
102
RTVSPropertyOp55
 70
     1
102
RTVSPropertyOp56
 70
     0
102
RTVSPropertyOp57
 70
     0
102
RTVSPropertyOp58
 70
     1
102
RTVSPropertyOp59
 70
     1
102
RTVSPropertyOp60
 70
     1
102
RTVSPropertyOp61
 70
     1
102
RTVSPropertyOp62
 70
     1
  0
XRECORD
  5
21212
102
{ACAD_REACTORS
330
21211
102
}
330
21211
100
AcDbXrecord
280
     1
102
RTVSPost2010Prop28
280
     0
102
RTVSPost2010PropOp28
 70
     1
102
RTVSPost2010Prop29
280
     1
102
RTVSPost2010PropOp29
 70
     1
102
RTVSPost2010Prop30
280
     1
102
RTVSPost2010PropOp30
 70
     1
102
RTVSPost2010Prop31
280
     0
102
RTVSPost2010PropOp31
 70
     1
102
RTVSPost2010Prop32
280
     0
102
RTVSPost2010PropOp32
 70
     1
102
RTVSPost2010Prop33
280
     0
102
RTVSPost2010PropOp33
 70
     1
102
RTVSPost2010Prop34
280
     0
102
RTVSPost2010PropOp34
 70
     1
102
RTVSPost2010Prop35
280
     0
102
RTVSPost2010PropOp35
 70
     1
102
RTVSPost2010Prop36
280
     0
102
RTVSPost2010PropOp36
 70
     1
102
RTVSPost2010Prop37
 90
       50
102
RTVSPost2010PropOp37
 70
     1
102
RTVSPost2010Prop38
140
0.0
102
RTVSPost2010PropOp38
 70
     1
102
RTVSPost2010Prop39
140
1.0
102
RTVSPost2010PropOp39
 70
     1
102
RTVSPost2010Prop40
 90
        0
102
RTVSPost2010PropOp40
 70
     1
102
RTVSPost2010Prop41ColorIndex
 90
       18
102
RTVSPost2010Prop41ColorRGB
 90
        0
102
RTVSPost2010PropOp41
 70
     1
102
RTVSPost2010Prop42
 90
       50
102
RTVSPost2010PropOp42
 70
     1
102
RTVSPost2010Prop43
 90
        3
102
RTVSPost2010PropOp43
 70
     1
102
RTVSPost2010Prop44ColorIndex
 90
        5
102
RTVSPost2010Prop44ColorRGB
 90
      255
102
RTVSPost2010PropOp44
 70
     1
102
RTVSPost2010Prop45
280
     0
102
RTVSPost2010PropOp45
 70
     1
102
RTVSPost2010Prop46
 90
       50
102
RTVSPost2010PropOp46
 70
     1
102
RTVSPost2010Prop47
 90
       50
102
RTVSPost2010PropOp47
 70
     1
102
RTVSPost2010Prop48
 90
       50
102
RTVSPost2010PropOp48
 70
     1
102
RTVSPost2010Prop49
280
     0
102
RTVSPost2010PropOp49
 70
     1
102
RTVSPost2010Prop50
 90
       50
102
RTVSPost2010PropOp50
 70
     1
102
RTVSPost2010Prop51ColorIndex
 90
      256
102
RTVSPost2010Prop51ColorRGB
 90
-16777216
102
RTVSPost2010PropOp51
 70
     0
102
RTVSPost2010Prop52
140
1.0
102
RTVSPost2010PropOp52
 70
     0
102
RTVSPost2010Prop53
 90
        2
102
RTVSPost2010PropOp53
 70
     1
102
RTVSPost2010Prop54
  1
strokes_ogs.tif
102
RTVSPost2010PropOp54
 70
     1
102
RTVSPost2010Prop55
280
     0
102
RTVSPost2010PropOp55
 70
     1
102
RTVSPost2010Prop56
140
1.0
102
RTVSPost2010PropOp56
 70
     1
102
RTVSPost2010Prop57
140
1.0
102
RTVSPost2010PropOp57
 70
     1
102
RTVSPropertyOp0
 70
     1
102
RTVSPropertyOp1
 70
     1
102
RTVSPropertyOp2
 70
     1
102
RTVSPropertyOp3
 70
     1
102
RTVSPropertyOp4
 70
     1
102
RTVSPropertyOp5
 70
     1
102
RTVSPropertyOp6
 70
     1
102
RTVSPropertyOp7
 70
     1
102
RTVSPropertyOp8
 70
     1
102
RTVSPropertyOp9
 70
     1
102
RTVSPropertyOp10
 70
     1
102
RTVSPropertyOp11
 70
     1
102
RTVSPropertyOp12
 70
     1
102
RTVSPropertyOp13
 70
     1
102
RTVSPropertyOp14
 70
     1
102
RTVSPropertyOp15
 70
     1
102
RTVSPropertyOp16
 70
     1
102
RTVSPropertyOp17
 70
     1
102
RTVSPropertyOp18
 70
     1
102
RTVSPropertyOp19
 70
     1
102
RTVSPropertyOp20
 70
     1
102
RTVSPropertyOp21
 70
     1
102
RTVSPropertyOp22
 70
     1
102
RTVSPropertyOp23
 70
     1
102
RTVSPropertyOp24
 70
     1
102
RTVSPropertyOp25
 70
     1
102
RTVSPropertyOp26
 70
     1
102
RTVSPropertyOp27
 70
     1
102
RTVSPropertyOp28
 70
     1
102
RTVSPropertyOp29
 70
     1
102
RTVSPropertyOp30
 70
     1
102
RTVSPropertyOp31
 70
     1
102
RTVSPropertyOp32
 70
     1
102
RTVSPropertyOp33
 70
     1
102
RTVSPropertyOp34
 70
     1
102
RTVSPropertyOp35
 70
     1
102
RTVSPropertyOp36
 70
     1
102
RTVSPropertyOp37
 70
     1
102
RTVSPropertyOp38
 70
     1
102
RTVSPropertyOp39
 70
     1
102
RTVSPropertyOp40
 70
     1
102
RTVSPropertyOp41
 70
     1
102
RTVSPropertyOp42
 70
     1
102
RTVSPropertyOp43
 70
     1
102
RTVSPropertyOp44
 70
     1
102
RTVSPropertyOp45
 70
     1
102
RTVSPropertyOp46
 70
     1
102
RTVSPropertyOp47
 70
     1
102
RTVSPropertyOp48
 70
     1
102
RTVSPropertyOp49
 70
     1
102
RTVSPropertyOp50
 70
     1
102
RTVSPropertyOp51
 70
     0
102
RTVSPropertyOp52
 70
     0
102
RTVSPropertyOp53
 70
     1
102
RTVSPropertyOp54
 70
     1
102
RTVSPropertyOp55
 70
     1
102
RTVSPropertyOp56
 70
     1
102
RTVSPropertyOp57
 70
     1
102
RTVSPropertyOp58
 70
     1
102
RTVSPropertyOp59
 70
     1
102
RTVSPropertyOp60
 70
     1
102
RTVSPropertyOp61
 70
     1
102
RTVSPropertyOp62
 70
     1
  0
XRECORD
  5
211F6
102
{ACAD_REACTORS
330
211F5
102
}
330
211F5
100
AcDbXrecord
280
     1
102
RTVSPost2010Prop28
280
     0
102
RTVSPost2010PropOp28
 70
     1
102
RTVSPost2010Prop29
280
     1
102
RTVSPost2010PropOp29
 70
     1
102
RTVSPost2010Prop30
280
     1
102
RTVSPost2010PropOp30
 70
     1
102
RTVSPost2010Prop31
280
     0
102
RTVSPost2010PropOp31
 70
     1
102
RTVSPost2010Prop32
280
     0
102
RTVSPost2010PropOp32
 70
     1
102
RTVSPost2010Prop33
280
     0
102
RTVSPost2010PropOp33
 70
     1
102
RTVSPost2010Prop34
280
     0
102
RTVSPost2010PropOp34
 70
     1
102
RTVSPost2010Prop35
280
     0
102
RTVSPost2010PropOp35
 70
     1
102
RTVSPost2010Prop36
280
     0
102
RTVSPost2010PropOp36
 70
     1
102
RTVSPost2010Prop37
 90
       50
102
RTVSPost2010PropOp37
 70
     1
102
RTVSPost2010Prop38
140
0.0
102
RTVSPost2010PropOp38
 70
     1
102
RTVSPost2010Prop39
140
1.0
102
RTVSPost2010PropOp39
 70
     1
102
RTVSPost2010Prop40
 90
        0
102
RTVSPost2010PropOp40
 70
     1
102
RTVSPost2010Prop41ColorIndex
 90
       18
102
RTVSPost2010Prop41ColorRGB
 90
        0
102
RTVSPost2010PropOp41
 70
     1
102
RTVSPost2010Prop42
 90
       50
102
RTVSPost2010PropOp42
 70
     1
102
RTVSPost2010Prop43
 90
        3
102
RTVSPost2010PropOp43
 70
     1
102
RTVSPost2010Prop44ColorIndex
 90
        5
102
RTVSPost2010Prop44ColorRGB
 90
      255
102
RTVSPost2010PropOp44
 70
     1
102
RTVSPost2010Prop45
280
     0
102
RTVSPost2010PropOp45
 70
     1
102
RTVSPost2010Prop46
 90
       50
102
RTVSPost2010PropOp46
 70
     1
102
RTVSPost2010Prop47
 90
       50
102
RTVSPost2010PropOp47
 70
     1
102
RTVSPost2010Prop48
 90
       50
102
RTVSPost2010PropOp48
 70
     1
102
RTVSPost2010Prop49
280
     0
102
RTVSPost2010PropOp49
 70
     1
102
RTVSPost2010Prop50
 90
       50
102
RTVSPost2010PropOp50
 70
     1
102
RTVSPost2010Prop51ColorIndex
 90
      256
102
RTVSPost2010Prop51ColorRGB
 90
-16777216
102
RTVSPost2010PropOp51
 70
     0
102
RTVSPost2010Prop52
140
1.0
102
RTVSPost2010PropOp52
 70
     0
102
RTVSPost2010Prop53
 90
        2
102
RTVSPost2010PropOp53
 70
     1
102
RTVSPost2010Prop54
  1
strokes_ogs.tif
102
RTVSPost2010PropOp54
 70
     1
102
RTVSPost2010Prop55
280
     0
102
RTVSPost2010PropOp55
 70
     1
102
RTVSPost2010Prop56
140
1.0
102
RTVSPost2010PropOp56
 70
     1
102
RTVSPost2010Prop57
140
1.0
102
RTVSPost2010PropOp57
 70
     1
102
RTVSPropertyOp0
 70
     1
102
RTVSPropertyOp1
 70
     1
102
RTVSPropertyOp2
 70
     1
102
RTVSPropertyOp3
 70
     1
102
RTVSPropertyOp4
 70
     1
102
RTVSPropertyOp5
 70
     1
102
RTVSPropertyOp6
 70
     1
102
RTVSPropertyOp7
 70
     1
102
RTVSPropertyOp8
 70
     1
102
RTVSPropertyOp9
 70
     1
102
RTVSPropertyOp10
 70
     1
102
RTVSPropertyOp11
 70
     1
102
RTVSPropertyOp12
 70
     1
102
RTVSPropertyOp13
 70
     1
102
RTVSPropertyOp14
 70
     1
102
RTVSPropertyOp15
 70
     1
102
RTVSPropertyOp16
 70
     1
102
RTVSPropertyOp17
 70
     1
102
RTVSPropertyOp18
 70
     1
102
RTVSPropertyOp19
 70
     1
102
RTVSPropertyOp20
 70
     1
102
RTVSPropertyOp21
 70
     1
102
RTVSPropertyOp22
 70
     1
102
RTVSPropertyOp23
 70
     1
102
RTVSPropertyOp24
 70
     1
102
RTVSPropertyOp25
 70
     1
102
RTVSPropertyOp26
 70
     1
102
RTVSPropertyOp27
 70
     1
102
RTVSPropertyOp28
 70
     1
102
RTVSPropertyOp29
 70
     1
102
RTVSPropertyOp30
 70
     1
102
RTVSPropertyOp31
 70
     1
102
RTVSPropertyOp32
 70
     1
102
RTVSPropertyOp33
 70
     1
102
RTVSPropertyOp34
 70
     1
102
RTVSPropertyOp35
 70
     1
102
RTVSPropertyOp36
 70
     1
102
RTVSPropertyOp37
 70
     1
102
RTVSPropertyOp38
 70
     1
102
RTVSPropertyOp39
 70
     1
102
RTVSPropertyOp40
 70
     1
102
RTVSPropertyOp41
 70
     1
102
RTVSPropertyOp42
 70
     1
102
RTVSPropertyOp43
 70
     1
102
RTVSPropertyOp44
 70
     1
102
RTVSPropertyOp45
 70
     1
102
RTVSPropertyOp46
 70
     1
102
RTVSPropertyOp47
 70
     1
102
RTVSPropertyOp48
 70
     1
102
RTVSPropertyOp49
 70
     1
102
RTVSPropertyOp50
 70
     1
102
RTVSPropertyOp51
 70
     0
102
RTVSPropertyOp52
 70
     0
102
RTVSPropertyOp53
 70
     1
102
RTVSPropertyOp54
 70
     1
102
RTVSPropertyOp55
 70
     1
102
RTVSPropertyOp56
 70
     1
102
RTVSPropertyOp57
 70
     1
102
RTVSPropertyOp58
 70
     1
102
RTVSPropertyOp59
 70
     1
102
RTVSPropertyOp60
 70
     1
102
RTVSPropertyOp61
 70
     1
102
RTVSPropertyOp62
 70
     1
  0
XRECORD
  5
211F8
102
{ACAD_REACTORS
330
211F7
102
}
330
211F7
100
AcDbXrecord
280
     1
102
RTVSPost2010Prop28
280
     0
102
RTVSPost2010PropOp28
 70
     1
102
RTVSPost2010Prop29
280
     1
102
RTVSPost2010PropOp29
 70
     1
102
RTVSPost2010Prop30
280
     1
102
RTVSPost2010PropOp30
 70
     1
102
RTVSPost2010Prop31
280
     0
102
RTVSPost2010PropOp31
 70
     1
102
RTVSPost2010Prop32
280
     0
102
RTVSPost2010PropOp32
 70
     1
102
RTVSPost2010Prop33
280
     0
102
RTVSPost2010PropOp33
 70
     1
102
RTVSPost2010Prop34
280
     0
102
RTVSPost2010PropOp34
 70
     1
102
RTVSPost2010Prop35
280
     0
102
RTVSPost2010PropOp35
 70
     1
102
RTVSPost2010Prop36
280
     0
102
RTVSPost2010PropOp36
 70
     1
102
RTVSPost2010Prop37
 90
       50
102
RTVSPost2010PropOp37
 70
     1
102
RTVSPost2010Prop38
140
0.0
102
RTVSPost2010PropOp38
 70
     1
102
RTVSPost2010Prop39
140
1.0
102
RTVSPost2010PropOp39
 70
     1
102
RTVSPost2010Prop40
 90
        0
102
RTVSPost2010PropOp40
 70
     1
102
RTVSPost2010Prop41ColorIndex
 90
       18
102
RTVSPost2010Prop41ColorRGB
 90
        0
102
RTVSPost2010PropOp41
 70
     1
102
RTVSPost2010Prop42
 90
       50
102
RTVSPost2010PropOp42
 70
     1
102
RTVSPost2010Prop43
 90
        3
102
RTVSPost2010PropOp43
 70
     1
102
RTVSPost2010Prop44ColorIndex
 90
        5
102
RTVSPost2010Prop44ColorRGB
 90
      255
102
RTVSPost2010PropOp44
 70
     1
102
RTVSPost2010Prop45
280
     0
102
RTVSPost2010PropOp45
 70
     1
102
RTVSPost2010Prop46
 90
       50
102
RTVSPost2010PropOp46
 70
     1
102
RTVSPost2010Prop47
 90
       50
102
RTVSPost2010PropOp47
 70
     1
102
RTVSPost2010Prop48
 90
       50
102
RTVSPost2010PropOp48
 70
     1
102
RTVSPost2010Prop49
280
     0
102
RTVSPost2010PropOp49
 70
     1
102
RTVSPost2010Prop50
 90
       50
102
RTVSPost2010PropOp50
 70
     1
102
RTVSPost2010Prop51ColorIndex
 90
      256
102
RTVSPost2010Prop51ColorRGB
 90
-16777216
102
RTVSPost2010PropOp51
 70
     0
102
RTVSPost2010Prop52
140
1.0
102
RTVSPost2010PropOp52
 70
     0
102
RTVSPost2010Prop53
 90
        2
102
RTVSPost2010PropOp53
 70
     1
102
RTVSPost2010Prop54
  1
strokes_ogs.tif
102
RTVSPost2010PropOp54
 70
     1
102
RTVSPost2010Prop55
280
     0
102
RTVSPost2010PropOp55
 70
     1
102
RTVSPost2010Prop56
140
1.0
102
RTVSPost2010PropOp56
 70
     1
102
RTVSPost2010Prop57
140
1.0
102
RTVSPost2010PropOp57
 70
     1
102
RTVSPropertyOp0
 70
     1
102
RTVSPropertyOp1
 70
     1
102
RTVSPropertyOp2
 70
     1
102
RTVSPropertyOp3
 70
     1
102
RTVSPropertyOp4
 70
     1
102
RTVSPropertyOp5
 70
     1
102
RTVSPropertyOp6
 70
     1
102
RTVSPropertyOp7
 70
     1
102
RTVSPropertyOp8
 70
     1
102
RTVSPropertyOp9
 70
     1
102
RTVSPropertyOp10
 70
     1
102
RTVSPropertyOp11
 70
     1
102
RTVSPropertyOp12
 70
     1
102
RTVSPropertyOp13
 70
     1
102
RTVSPropertyOp14
 70
     1
102
RTVSPropertyOp15
 70
     1
102
RTVSPropertyOp16
 70
     1
102
RTVSPropertyOp17
 70
     1
102
RTVSPropertyOp18
 70
     1
102
RTVSPropertyOp19
 70
     1
102
RTVSPropertyOp20
 70
     1
102
RTVSPropertyOp21
 70
     1
102
RTVSPropertyOp22
 70
     1
102
RTVSPropertyOp23
 70
     1
102
RTVSPropertyOp24
 70
     1
102
RTVSPropertyOp25
 70
     1
102
RTVSPropertyOp26
 70
     1
102
RTVSPropertyOp27
 70
     1
102
RTVSPropertyOp28
 70
     1
102
RTVSPropertyOp29
 70
     1
102
RTVSPropertyOp30
 70
     1
102
RTVSPropertyOp31
 70
     1
102
RTVSPropertyOp32
 70
     1
102
RTVSPropertyOp33
 70
     1
102
RTVSPropertyOp34
 70
     1
102
RTVSPropertyOp35
 70
     1
102
RTVSPropertyOp36
 70
     1
102
RTVSPropertyOp37
 70
     1
102
RTVSPropertyOp38
 70
     1
102
RTVSPropertyOp39
 70
     1
102
RTVSPropertyOp40
 70
     1
102
RTVSPropertyOp41
 70
     1
102
RTVSPropertyOp42
 70
     1
102
RTVSPropertyOp43
 70
     1
102
RTVSPropertyOp44
 70
     1
102
RTVSPropertyOp45
 70
     1
102
RTVSPropertyOp46
 70
     1
102
RTVSPropertyOp47
 70
     1
102
RTVSPropertyOp48
 70
     1
102
RTVSPropertyOp49
 70
     1
102
RTVSPropertyOp50
 70
     1
102
RTVSPropertyOp51
 70
     0
102
RTVSPropertyOp52
 70
     0
102
RTVSPropertyOp53
 70
     1
102
RTVSPropertyOp54
 70
     1
102
RTVSPropertyOp55
 70
     1
102
RTVSPropertyOp56
 70
     1
102
RTVSPropertyOp57
 70
     1
102
RTVSPropertyOp58
 70
     1
102
RTVSPropertyOp59
 70
     1
102
RTVSPropertyOp60
 70
     1
102
RTVSPropertyOp61
 70
     1
102
RTVSPropertyOp62
 70
     1
  0
XRECORD
  5
211FA
102
{ACAD_REACTORS
330
211F9
102
}
330
211F9
100
AcDbXrecord
280
     1
102
RTVSPost2010Prop28
280
     0
102
RTVSPost2010PropOp28
 70
     1
102
RTVSPost2010Prop29
280
     1
102
RTVSPost2010PropOp29
 70
     1
102
RTVSPost2010Prop30
280
     1
102
RTVSPost2010PropOp30
 70
     1
102
RTVSPost2010Prop31
280
     0
102
RTVSPost2010PropOp31
 70
     1
102
RTVSPost2010Prop32
280
     0
102
RTVSPost2010PropOp32
 70
     1
102
RTVSPost2010Prop33
280
     0
102
RTVSPost2010PropOp33
 70
     1
102
RTVSPost2010Prop34
280
     0
102
RTVSPost2010PropOp34
 70
     1
102
RTVSPost2010Prop35
280
     0
102
RTVSPost2010PropOp35
 70
     1
102
RTVSPost2010Prop36
280
     0
102
RTVSPost2010PropOp36
 70
     1
102
RTVSPost2010Prop37
 90
       50
102
RTVSPost2010PropOp37
 70
     1
102
RTVSPost2010Prop38
140
0.0
102
RTVSPost2010PropOp38
 70
     1
102
RTVSPost2010Prop39
140
1.0
102
RTVSPost2010PropOp39
 70
     1
102
RTVSPost2010Prop40
 90
        0
102
RTVSPost2010PropOp40
 70
     1
102
RTVSPost2010Prop41ColorIndex
 90
       18
102
RTVSPost2010Prop41ColorRGB
 90
        0
102
RTVSPost2010PropOp41
 70
     1
102
RTVSPost2010Prop42
 90
       50
102
RTVSPost2010PropOp42
 70
     1
102
RTVSPost2010Prop43
 90
        3
102
RTVSPost2010PropOp43
 70
     1
102
RTVSPost2010Prop44ColorIndex
 90
        5
102
RTVSPost2010Prop44ColorRGB
 90
      255
102
RTVSPost2010PropOp44
 70
     1
102
RTVSPost2010Prop45
280
     0
102
RTVSPost2010PropOp45
 70
     1
102
RTVSPost2010Prop46
 90
       50
102
RTVSPost2010PropOp46
 70
     1
102
RTVSPost2010Prop47
 90
       50
102
RTVSPost2010PropOp47
 70
     1
102
RTVSPost2010Prop48
 90
       50
102
RTVSPost2010PropOp48
 70
     1
102
RTVSPost2010Prop49
280
     0
102
RTVSPost2010PropOp49
 70
     1
102
RTVSPost2010Prop50
 90
       50
102
RTVSPost2010PropOp50
 70
     1
102
RTVSPost2010Prop51ColorIndex
 90
      256
102
RTVSPost2010Prop51ColorRGB
 90
-16777216
102
RTVSPost2010PropOp51
 70
     0
102
RTVSPost2010Prop52
140
1.0
102
RTVSPost2010PropOp52
 70
     0
102
RTVSPost2010Prop53
 90
        2
102
RTVSPost2010PropOp53
 70
     1
102
RTVSPost2010Prop54
  1
strokes_ogs.tif
102
RTVSPost2010PropOp54
 70
     1
102
RTVSPost2010Prop55
280
     0
102
RTVSPost2010PropOp55
 70
     1
102
RTVSPost2010Prop56
140
1.0
102
RTVSPost2010PropOp56
 70
     1
102
RTVSPost2010Prop57
140
1.0
102
RTVSPost2010PropOp57
 70
     1
102
RTVSPropertyOp0
 70
     1
102
RTVSPropertyOp1
 70
     1
102
RTVSPropertyOp2
 70
     1
102
RTVSPropertyOp3
 70
     1
102
RTVSPropertyOp4
 70
     1
102
RTVSPropertyOp5
 70
     1
102
RTVSPropertyOp6
 70
     1
102
RTVSPropertyOp7
 70
     1
102
RTVSPropertyOp8
 70
     1
102
RTVSPropertyOp9
 70
     1
102
RTVSPropertyOp10
 70
     1
102
RTVSPropertyOp11
 70
     1
102
RTVSPropertyOp12
 70
     1
102
RTVSPropertyOp13
 70
     1
102
RTVSPropertyOp14
 70
     1
102
RTVSPropertyOp15
 70
     1
102
RTVSPropertyOp16
 70
     1
102
RTVSPropertyOp17
 70
     1
102
RTVSPropertyOp18
 70
     1
102
RTVSPropertyOp19
 70
     1
102
RTVSPropertyOp20
 70
     1
102
RTVSPropertyOp21
 70
     1
102
RTVSPropertyOp22
 70
     1
102
RTVSPropertyOp23
 70
     1
102
RTVSPropertyOp24
 70
     1
102
RTVSPropertyOp25
 70
     1
102
RTVSPropertyOp26
 70
     1
102
RTVSPropertyOp27
 70
     1
102
RTVSPropertyOp28
 70
     1
102
RTVSPropertyOp29
 70
     1
102
RTVSPropertyOp30
 70
     1
102
RTVSPropertyOp31
 70
     1
102
RTVSPropertyOp32
 70
     1
102
RTVSPropertyOp33
 70
     1
102
RTVSPropertyOp34
 70
     1
102
RTVSPropertyOp35
 70
     1
102
RTVSPropertyOp36
 70
     1
102
RTVSPropertyOp37
 70
     1
102
RTVSPropertyOp38
 70
     1
102
RTVSPropertyOp39
 70
     1
102
RTVSPropertyOp40
 70
     1
102
RTVSPropertyOp41
 70
     1
102
RTVSPropertyOp42
 70
     1
102
RTVSPropertyOp43
 70
     1
102
RTVSPropertyOp44
 70
     1
102
RTVSPropertyOp45
 70
     1
102
RTVSPropertyOp46
 70
     1
102
RTVSPropertyOp47
 70
     1
102
RTVSPropertyOp48
 70
     1
102
RTVSPropertyOp49
 70
     1
102
RTVSPropertyOp50
 70
     1
102
RTVSPropertyOp51
 70
     0
102
RTVSPropertyOp52
 70
     0
102
RTVSPropertyOp53
 70
     1
102
RTVSPropertyOp54
 70
     1
102
RTVSPropertyOp55
 70
     1
102
RTVSPropertyOp56
 70
     1
102
RTVSPropertyOp57
 70
     1
102
RTVSPropertyOp58
 70
     1
102
RTVSPropertyOp59
 70
     1
102
RTVSPropertyOp60
 70
     1
102
RTVSPropertyOp61
 70
     1
102
RTVSPropertyOp62
 70
     1
  0
XRECORD
  5
211FC
102
{ACAD_REACTORS
330
211FB
102
}
330
211FB
100
AcDbXrecord
280
     1
102
RTVSPost2010Prop28
280
     0
102
RTVSPost2010PropOp28
 70
     1
102
RTVSPost2010Prop29
280
     1
102
RTVSPost2010PropOp29
 70
     1
102
RTVSPost2010Prop30
280
     1
102
RTVSPost2010PropOp30
 70
     1
102
RTVSPost2010Prop31
280
     0
102
RTVSPost2010PropOp31
 70
     1
102
RTVSPost2010Prop32
280
     0
102
RTVSPost2010PropOp32
 70
     1
102
RTVSPost2010Prop33
280
     0
102
RTVSPost2010PropOp33
 70
     1
102
RTVSPost2010Prop34
280
     0
102
RTVSPost2010PropOp34
 70
     1
102
RTVSPost2010Prop35
280
     0
102
RTVSPost2010PropOp35
 70
     1
102
RTVSPost2010Prop36
280
     0
102
RTVSPost2010PropOp36
 70
     1
102
RTVSPost2010Prop37
 90
       50
102
RTVSPost2010PropOp37
 70
     1
102
RTVSPost2010Prop38
140
0.0
102
RTVSPost2010PropOp38
 70
     1
102
RTVSPost2010Prop39
140
1.0
102
RTVSPost2010PropOp39
 70
     1
102
RTVSPost2010Prop40
 90
        0
102
RTVSPost2010PropOp40
 70
     1
102
RTVSPost2010Prop41ColorIndex
 90
       18
102
RTVSPost2010Prop41ColorRGB
 90
        0
102
RTVSPost2010PropOp41
 70
     1
102
RTVSPost2010Prop42
 90
       50
102
RTVSPost2010PropOp42
 70
     1
102
RTVSPost2010Prop43
 90
        3
102
RTVSPost2010PropOp43
 70
     1
102
RTVSPost2010Prop44ColorIndex
 90
        5
102
RTVSPost2010Prop44ColorRGB
 90
      255
102
RTVSPost2010PropOp44
 70
     1
102
RTVSPost2010Prop45
280
     0
102
RTVSPost2010PropOp45
 70
     1
102
RTVSPost2010Prop46
 90
       50
102
RTVSPost2010PropOp46
 70
     1
102
RTVSPost2010Prop47
 90
       50
102
RTVSPost2010PropOp47
 70
     1
102
RTVSPost2010Prop48
 90
       50
102
RTVSPost2010PropOp48
 70
     1
102
RTVSPost2010Prop49
280
     0
102
RTVSPost2010PropOp49
 70
     1
102
RTVSPost2010Prop50
 90
       50
102
RTVSPost2010PropOp50
 70
     1
102
RTVSPost2010Prop51ColorIndex
 90
      256
102
RTVSPost2010Prop51ColorRGB
 90
-16777216
102
RTVSPost2010PropOp51
 70
     0
102
RTVSPost2010Prop52
140
1.0
102
RTVSPost2010PropOp52
 70
     0
102
RTVSPost2010Prop53
 90
        2
102
RTVSPost2010PropOp53
 70
     1
102
RTVSPost2010Prop54
  1
strokes_ogs.tif
102
RTVSPost2010PropOp54
 70
     1
102
RTVSPost2010Prop55
280
     0
102
RTVSPost2010PropOp55
 70
     1
102
RTVSPost2010Prop56
140
1.0
102
RTVSPost2010PropOp56
 70
     1
102
RTVSPost2010Prop57
140
1.0
102
RTVSPost2010PropOp57
 70
     1
102
RTVSPropertyOp0
 70
     1
102
RTVSPropertyOp1
 70
     1
102
RTVSPropertyOp2
 70
     1
102
RTVSPropertyOp3
 70
     1
102
RTVSPropertyOp4
 70
     1
102
RTVSPropertyOp5
 70
     1
102
RTVSPropertyOp6
 70
     1
102
RTVSPropertyOp7
 70
     1
102
RTVSPropertyOp8
 70
     1
102
RTVSPropertyOp9
 70
     1
102
RTVSPropertyOp10
 70
     1
102
RTVSPropertyOp11
 70
     1
102
RTVSPropertyOp12
 70
     1
102
RTVSPropertyOp13
 70
     1
102
RTVSPropertyOp14
 70
     1
102
RTVSPropertyOp15
 70
     1
102
RTVSPropertyOp16
 70
     1
102
RTVSPropertyOp17
 70
     1
102
RTVSPropertyOp18
 70
     1
102
RTVSPropertyOp19
 70
     1
102
RTVSPropertyOp20
 70
     1
102
RTVSPropertyOp21
 70
     1
102
RTVSPropertyOp22
 70
     1
102
RTVSPropertyOp23
 70
     1
102
RTVSPropertyOp24
 70
     1
102
RTVSPropertyOp25
 70
     1
102
RTVSPropertyOp26
 70
     1
102
RTVSPropertyOp27
 70
     1
102
RTVSPropertyOp28
 70
     1
102
RTVSPropertyOp29
 70
     1
102
RTVSPropertyOp30
 70
     1
102
RTVSPropertyOp31
 70
     1
102
RTVSPropertyOp32
 70
     1
102
RTVSPropertyOp33
 70
     1
102
RTVSPropertyOp34
 70
     1
102
RTVSPropertyOp35
 70
     1
102
RTVSPropertyOp36
 70
     1
102
RTVSPropertyOp37
 70
     1
102
RTVSPropertyOp38
 70
     1
102
RTVSPropertyOp39
 70
     1
102
RTVSPropertyOp40
 70
     1
102
RTVSPropertyOp41
 70
     1
102
RTVSPropertyOp42
 70
     1
102
RTVSPropertyOp43
 70
     1
102
RTVSPropertyOp44
 70
     1
102
RTVSPropertyOp45
 70
     1
102
RTVSPropertyOp46
 70
     1
102
RTVSPropertyOp47
 70
     1
102
RTVSPropertyOp48
 70
     1
102
RTVSPropertyOp49
 70
     1
102
RTVSPropertyOp50
 70
     1
102
RTVSPropertyOp51
 70
     0
102
RTVSPropertyOp52
 70
     0
102
RTVSPropertyOp53
 70
     1
102
RTVSPropertyOp54
 70
     1
102
RTVSPropertyOp55
 70
     1
102
RTVSPropertyOp56
 70
     1
102
RTVSPropertyOp57
 70
     1
102
RTVSPropertyOp58
 70
     1
102
RTVSPropertyOp59
 70
     1
102
RTVSPropertyOp60
 70
     1
102
RTVSPropertyOp61
 70
     1
102
RTVSPropertyOp62
 70
     1
  0
XRECORD
  5
21221
102
{ACAD_REACTORS
330
21220
102
}
330
21220
100
AcDbXrecord
280
     1
102
RTVSPost2010Prop28
280
     0
102
RTVSPost2010PropOp28
 70
     1
102
RTVSPost2010Prop29
280
     1
102
RTVSPost2010PropOp29
 70
     1
102
RTVSPost2010Prop30
280
     1
102
RTVSPost2010PropOp30
 70
     1
102
RTVSPost2010Prop31
280
     0
102
RTVSPost2010PropOp31
 70
     1
102
RTVSPost2010Prop32
280
     0
102
RTVSPost2010PropOp32
 70
     1
102
RTVSPost2010Prop33
280
     0
102
RTVSPost2010PropOp33
 70
     1
102
RTVSPost2010Prop34
280
     0
102
RTVSPost2010PropOp34
 70
     1
102
RTVSPost2010Prop35
280
     0
102
RTVSPost2010PropOp35
 70
     1
102
RTVSPost2010Prop36
280
     0
102
RTVSPost2010PropOp36
 70
     1
102
RTVSPost2010Prop37
 90
       50
102
RTVSPost2010PropOp37
 70
     1
102
RTVSPost2010Prop38
140
0.0
102
RTVSPost2010PropOp38
 70
     1
102
RTVSPost2010Prop39
140
1.0
102
RTVSPost2010PropOp39
 70
     1
102
RTVSPost2010Prop40
 90
        0
102
RTVSPost2010PropOp40
 70
     1
102
RTVSPost2010Prop41ColorIndex
 90
       18
102
RTVSPost2010Prop41ColorRGB
 90
        0
102
RTVSPost2010PropOp41
 70
     1
102
RTVSPost2010Prop42
 90
       50
102
RTVSPost2010PropOp42
 70
     1
102
RTVSPost2010Prop43
 90
        3
102
RTVSPost2010PropOp43
 70
     1
102
RTVSPost2010Prop44ColorIndex
 90
        5
102
RTVSPost2010Prop44ColorRGB
 90
      255
102
RTVSPost2010PropOp44
 70
     1
102
RTVSPost2010Prop45
280
     0
102
RTVSPost2010PropOp45
 70
     1
102
RTVSPost2010Prop46
 90
       50
102
RTVSPost2010PropOp46
 70
     1
102
RTVSPost2010Prop47
 90
       50
102
RTVSPost2010PropOp47
 70
     1
102
RTVSPost2010Prop48
 90
       50
102
RTVSPost2010PropOp48
 70
     1
102
RTVSPost2010Prop49
280
     0
102
RTVSPost2010PropOp49
 70
     1
102
RTVSPost2010Prop50
 90
       50
102
RTVSPost2010PropOp50
 70
     1
102
RTVSPost2010Prop51ColorIndex
 90
      256
102
RTVSPost2010Prop51ColorRGB
 90
-16777216
102
RTVSPost2010PropOp51
 70
     0
102
RTVSPost2010Prop52
140
1.0
102
RTVSPost2010PropOp52
 70
     0
102
RTVSPost2010Prop53
 90
        2
102
RTVSPost2010PropOp53
 70
     1
102
RTVSPost2010Prop54
  1
strokes_ogs.tif
102
RTVSPost2010PropOp54
 70
     1
102
RTVSPost2010Prop55
280
     0
102
RTVSPost2010PropOp55
 70
     1
102
RTVSPost2010Prop56
140
1.0
102
RTVSPost2010PropOp56
 70
     1
102
RTVSPost2010Prop57
140
1.0
102
RTVSPost2010PropOp57
 70
     1
102
RTVSPropertyOp0
 70
     1
102
RTVSPropertyOp1
 70
     1
102
RTVSPropertyOp2
 70
     1
102
RTVSPropertyOp3
 70
     1
102
RTVSPropertyOp4
 70
     1
102
RTVSPropertyOp5
 70
     1
102
RTVSPropertyOp6
 70
     1
102
RTVSPropertyOp7
 70
     1
102
RTVSPropertyOp8
 70
     1
102
RTVSPropertyOp9
 70
     1
102
RTVSPropertyOp10
 70
     1
102
RTVSPropertyOp11
 70
     1
102
RTVSPropertyOp12
 70
     1
102
RTVSPropertyOp13
 70
     1
102
RTVSPropertyOp14
 70
     1
102
RTVSPropertyOp15
 70
     1
102
RTVSPropertyOp16
 70
     1
102
RTVSPropertyOp17
 70
     1
102
RTVSPropertyOp18
 70
     1
102
RTVSPropertyOp19
 70
     1
102
RTVSPropertyOp20
 70
     1
102
RTVSPropertyOp21
 70
     1
102
RTVSPropertyOp22
 70
     1
102
RTVSPropertyOp23
 70
     1
102
RTVSPropertyOp24
 70
     1
102
RTVSPropertyOp25
 70
     1
102
RTVSPropertyOp26
 70
     1
102
RTVSPropertyOp27
 70
     1
102
RTVSPropertyOp28
 70
     1
102
RTVSPropertyOp29
 70
     1
102
RTVSPropertyOp30
 70
     1
102
RTVSPropertyOp31
 70
     1
102
RTVSPropertyOp32
 70
     1
102
RTVSPropertyOp33
 70
     1
102
RTVSPropertyOp34
 70
     1
102
RTVSPropertyOp35
 70
     1
102
RTVSPropertyOp36
 70
     1
102
RTVSPropertyOp37
 70
     1
102
RTVSPropertyOp38
 70
     1
102
RTVSPropertyOp39
 70
     1
102
RTVSPropertyOp40
 70
     1
102
RTVSPropertyOp41
 70
     1
102
RTVSPropertyOp42
 70
     1
102
RTVSPropertyOp43
 70
     1
102
RTVSPropertyOp44
 70
     1
102
RTVSPropertyOp45
 70
     1
102
RTVSPropertyOp46
 70
     1
102
RTVSPropertyOp47
 70
     1
102
RTVSPropertyOp48
 70
     1
102
RTVSPropertyOp49
 70
     1
102
RTVSPropertyOp50
 70
     1
102
RTVSPropertyOp51
 70
     0
102
RTVSPropertyOp52
 70
     0
102
RTVSPropertyOp53
 70
     1
102
RTVSPropertyOp54
 70
     1
102
RTVSPropertyOp55
 70
     1
102
RTVSPropertyOp56
 70
     1
102
RTVSPropertyOp57
 70
     1
102
RTVSPropertyOp58
 70
     1
102
RTVSPropertyOp59
 70
     1
102
RTVSPropertyOp60
 70
     1
102
RTVSPropertyOp61
 70
     1
102
RTVSPropertyOp62
 70
     1
  0
XRECORD
  5
2122D
102
{ACAD_REACTORS
330
2122C
102
}
330
2122C
100
AcDbXrecord
280
     1
102
RTVSPost2010Prop28
280
     0
102
RTVSPost2010PropOp28
 70
     1
102
RTVSPost2010Prop29
280
     1
102
RTVSPost2010PropOp29
 70
     1
102
RTVSPost2010Prop30
280
     1
102
RTVSPost2010PropOp30
 70
     1
102
RTVSPost2010Prop31
280
     0
102
RTVSPost2010PropOp31
 70
     1
102
RTVSPost2010Prop32
280
     0
102
RTVSPost2010PropOp32
 70
     1
102
RTVSPost2010Prop33
280
     0
102
RTVSPost2010PropOp33
 70
     1
102
RTVSPost2010Prop34
280
     0
102
RTVSPost2010PropOp34
 70
     1
102
RTVSPost2010Prop35
280
     0
102
RTVSPost2010PropOp35
 70
     1
102
RTVSPost2010Prop36
280
     0
102
RTVSPost2010PropOp36
 70
     1
102
RTVSPost2010Prop37
 90
       50
102
RTVSPost2010PropOp37
 70
     0
102
RTVSPost2010Prop38
140
0.0
102
RTVSPost2010PropOp38
 70
     0
102
RTVSPost2010Prop39
140
1.0
102
RTVSPost2010PropOp39
 70
     0
102
RTVSPost2010Prop40
 90
        0
102
RTVSPost2010PropOp40
 70
     0
102
RTVSPost2010Prop41ColorIndex
 90
       18
102
RTVSPost2010Prop41ColorRGB
 90
        0
102
RTVSPost2010PropOp41
 70
     0
102
RTVSPost2010Prop42
 90
       50
102
RTVSPost2010PropOp42
 70
     0
102
RTVSPost2010Prop43
 90
        3
102
RTVSPost2010PropOp43
 70
     0
102
RTVSPost2010Prop44ColorIndex
 90
        5
102
RTVSPost2010Prop44ColorRGB
 90
      255
102
RTVSPost2010PropOp44
 70
     0
102
RTVSPost2010Prop45
280
     0
102
RTVSPost2010PropOp45
 70
     1
102
RTVSPost2010Prop46
 90
       50
102
RTVSPost2010PropOp46
 70
     0
102
RTVSPost2010Prop47
 90
       50
102
RTVSPost2010PropOp47
 70
     0
102
RTVSPost2010Prop48
 90
       50
102
RTVSPost2010PropOp48
 70
     0
102
RTVSPost2010Prop49
280
     0
102
RTVSPost2010PropOp49
 70
     1
102
RTVSPost2010Prop50
 90
       50
102
RTVSPost2010PropOp50
 70
     0
102
RTVSPost2010Prop51ColorIndex
 90
      256
102
RTVSPost2010Prop51ColorRGB
 90
-16777216
102
RTVSPost2010PropOp51
 70
     0
102
RTVSPost2010Prop52
140
1.0
102
RTVSPost2010PropOp52
 70
     0
102
RTVSPost2010Prop53
 90
        2
102
RTVSPost2010PropOp53
 70
     0
102
RTVSPost2010Prop54
  1
strokes_ogs.tif
102
RTVSPost2010PropOp54
 70
     0
102
RTVSPost2010Prop55
280
     0
102
RTVSPost2010PropOp55
 70
     1
102
RTVSPost2010Prop56
140
1.0
102
RTVSPost2010PropOp56
 70
     0
102
RTVSPost2010Prop57
140
1.0
102
RTVSPost2010PropOp57
 70
     0
102
RTVSPropertyOp0
 70
     0
102
RTVSPropertyOp1
 70
     0
102
RTVSPropertyOp2
 70
     0
102
RTVSPropertyOp3
 70
     0
102
RTVSPropertyOp4
 70
     0
102
RTVSPropertyOp5
 70
     0
102
RTVSPropertyOp6
 70
     0
102
RTVSPropertyOp7
 70
     0
102
RTVSPropertyOp8
 70
     0
102
RTVSPropertyOp9
 70
     0
102
RTVSPropertyOp10
 70
     0
102
RTVSPropertyOp11
 70
     0
102
RTVSPropertyOp12
 70
     0
102
RTVSPropertyOp13
 70
     0
102
RTVSPropertyOp14
 70
     2
102
RTVSPropertyOp15
 70
     0
102
RTVSPropertyOp16
 70
     0
102
RTVSPropertyOp17
 70
     0
102
RTVSPropertyOp18
 70
     0
102
RTVSPropertyOp19
 70
     0
102
RTVSPropertyOp20
 70
     0
102
RTVSPropertyOp21
 70
     0
102
RTVSPropertyOp22
 70
     0
102
RTVSPropertyOp23
 70
     0
102
RTVSPropertyOp24
 70
     0
102
RTVSPropertyOp25
 70
     0
102
RTVSPropertyOp26
 70
     0
102
RTVSPropertyOp27
 70
     0
102
RTVSPropertyOp28
 70
     1
102
RTVSPropertyOp29
 70
     1
102
RTVSPropertyOp30
 70
     1
102
RTVSPropertyOp31
 70
     1
102
RTVSPropertyOp32
 70
     1
102
RTVSPropertyOp33
 70
     1
102
RTVSPropertyOp34
 70
     1
102
RTVSPropertyOp35
 70
     1
102
RTVSPropertyOp36
 70
     1
102
RTVSPropertyOp37
 70
     0
102
RTVSPropertyOp38
 70
     0
102
RTVSPropertyOp39
 70
     0
102
RTVSPropertyOp40
 70
     0
102
RTVSPropertyOp41
 70
     0
102
RTVSPropertyOp42
 70
     0
102
RTVSPropertyOp43
 70
     0
102
RTVSPropertyOp44
 70
     0
102
RTVSPropertyOp45
 70
     1
102
RTVSPropertyOp46
 70
     0
102
RTVSPropertyOp47
 70
     0
102
RTVSPropertyOp48
 70
     0
102
RTVSPropertyOp49
 70
     1
102
RTVSPropertyOp50
 70
     0
102
RTVSPropertyOp51
 70
     0
102
RTVSPropertyOp52
 70
     0
102
RTVSPropertyOp53
 70
     0
102
RTVSPropertyOp54
 70
     0
102
RTVSPropertyOp55
 70
     1
102
RTVSPropertyOp56
 70
     0
102
RTVSPropertyOp57
 70
     0
102
RTVSPropertyOp58
 70
     1
102
RTVSPropertyOp59
 70
     1
102
RTVSPropertyOp60
 70
     1
102
RTVSPropertyOp61
 70
     1
102
RTVSPropertyOp62
 70
     1
  0
XRECORD
  5
21210
102
{ACAD_REACTORS
330
2120F
102
}
330
2120F
100
AcDbXrecord
280
     1
102
RTVSPost2010Prop28
280
     0
102
RTVSPost2010PropOp28
 70
     1
102
RTVSPost2010Prop29
280
     1
102
RTVSPost2010PropOp29
 70
     1
102
RTVSPost2010Prop30
280
     1
102
RTVSPost2010PropOp30
 70
     1
102
RTVSPost2010Prop31
280
     0
102
RTVSPost2010PropOp31
 70
     1
102
RTVSPost2010Prop32
280
     0
102
RTVSPost2010PropOp32
 70
     1
102
RTVSPost2010Prop33
280
     0
102
RTVSPost2010PropOp33
 70
     1
102
RTVSPost2010Prop34
280
     0
102
RTVSPost2010PropOp34
 70
     1
102
RTVSPost2010Prop35
280
     0
102
RTVSPost2010PropOp35
 70
     1
102
RTVSPost2010Prop36
280
     0
102
RTVSPost2010PropOp36
 70
     1
102
RTVSPost2010Prop37
 90
       50
102
RTVSPost2010PropOp37
 70
     1
102
RTVSPost2010Prop38
140
0.0
102
RTVSPost2010PropOp38
 70
     1
102
RTVSPost2010Prop39
140
1.0
102
RTVSPost2010PropOp39
 70
     1
102
RTVSPost2010Prop40
 90
        0
102
RTVSPost2010PropOp40
 70
     1
102
RTVSPost2010Prop41ColorIndex
 90
       18
102
RTVSPost2010Prop41ColorRGB
 90
        0
102
RTVSPost2010PropOp41
 70
     1
102
RTVSPost2010Prop42
 90
       50
102
RTVSPost2010PropOp42
 70
     1
102
RTVSPost2010Prop43
 90
        3
102
RTVSPost2010PropOp43
 70
     1
102
RTVSPost2010Prop44ColorIndex
 90
        5
102
RTVSPost2010Prop44ColorRGB
 90
      255
102
RTVSPost2010PropOp44
 70
     1
102
RTVSPost2010Prop45
280
     0
102
RTVSPost2010PropOp45
 70
     1
102
RTVSPost2010Prop46
 90
       50
102
RTVSPost2010PropOp46
 70
     1
102
RTVSPost2010Prop47
 90
       50
102
RTVSPost2010PropOp47
 70
     1
102
RTVSPost2010Prop48
 90
       50
102
RTVSPost2010PropOp48
 70
     1
102
RTVSPost2010Prop49
280
     0
102
RTVSPost2010PropOp49
 70
     1
102
RTVSPost2010Prop50
 90
       50
102
RTVSPost2010PropOp50
 70
     1
102
RTVSPost2010Prop51ColorIndex
 90
      256
102
RTVSPost2010Prop51ColorRGB
 90
-16777216
102
RTVSPost2010PropOp51
 70
     0
102
RTVSPost2010Prop52
140
1.0
102
RTVSPost2010PropOp52
 70
     0
102
RTVSPost2010Prop53
 90
        2
102
RTVSPost2010PropOp53
 70
     1
102
RTVSPost2010Prop54
  1
strokes_ogs.tif
102
RTVSPost2010PropOp54
 70
     1
102
RTVSPost2010Prop55
280
     0
102
RTVSPost2010PropOp55
 70
     1
102
RTVSPost2010Prop56
140
1.0
102
RTVSPost2010PropOp56
 70
     1
102
RTVSPost2010Prop57
140
1.0
102
RTVSPost2010PropOp57
 70
     1
102
RTVSPropertyOp0
 70
     1
102
RTVSPropertyOp1
 70
     1
102
RTVSPropertyOp2
 70
     1
102
RTVSPropertyOp3
 70
     1
102
RTVSPropertyOp4
 70
     1
102
RTVSPropertyOp5
 70
     1
102
RTVSPropertyOp6
 70
     1
102
RTVSPropertyOp7
 70
     1
102
RTVSPropertyOp8
 70
     1
102
RTVSPropertyOp9
 70
     1
102
RTVSPropertyOp10
 70
     1
102
RTVSPropertyOp11
 70
     1
102
RTVSPropertyOp12
 70
     1
102
RTVSPropertyOp13
 70
     1
102
RTVSPropertyOp14
 70
     1
102
RTVSPropertyOp15
 70
     1
102
RTVSPropertyOp16
 70
     1
102
RTVSPropertyOp17
 70
     1
102
RTVSPropertyOp18
 70
     1
102
RTVSPropertyOp19
 70
     1
102
RTVSPropertyOp20
 70
     1
102
RTVSPropertyOp21
 70
     1
102
RTVSPropertyOp22
 70
     1
102
RTVSPropertyOp23
 70
     1
102
RTVSPropertyOp24
 70
     1
102
RTVSPropertyOp25
 70
     1
102
RTVSPropertyOp26
 70
     1
102
RTVSPropertyOp27
 70
     1
102
RTVSPropertyOp28
 70
     1
102
RTVSPropertyOp29
 70
     1
102
RTVSPropertyOp30
 70
     1
102
RTVSPropertyOp31
 70
     1
102
RTVSPropertyOp32
 70
     1
102
RTVSPropertyOp33
 70
     1
102
RTVSPropertyOp34
 70
     1
102
RTVSPropertyOp35
 70
     1
102
RTVSPropertyOp36
 70
     1
102
RTVSPropertyOp37
 70
     1
102
RTVSPropertyOp38
 70
     1
102
RTVSPropertyOp39
 70
     1
102
RTVSPropertyOp40
 70
     1
102
RTVSPropertyOp41
 70
     1
102
RTVSPropertyOp42
 70
     1
102
RTVSPropertyOp43
 70
     1
102
RTVSPropertyOp44
 70
     1
102
RTVSPropertyOp45
 70
     1
102
RTVSPropertyOp46
 70
     1
102
RTVSPropertyOp47
 70
     1
102
RTVSPropertyOp48
 70
     1
102
RTVSPropertyOp49
 70
     1
102
RTVSPropertyOp50
 70
     1
102
RTVSPropertyOp51
 70
     0
102
RTVSPropertyOp52
 70
     0
102
RTVSPropertyOp53
 70
     1
102
RTVSPropertyOp54
 70
     1
102
RTVSPropertyOp55
 70
     1
102
RTVSPropertyOp56
 70
     1
102
RTVSPropertyOp57
 70
     1
102
RTVSPropertyOp58
 70
     1
102
RTVSPropertyOp59
 70
     1
102
RTVSPropertyOp60
 70
     1
102
RTVSPropertyOp61
 70
     1
102
RTVSPropertyOp62
 70
     1
  0
XRECORD
  5
2122F
102
{ACAD_REACTORS
330
2122E
102
}
330
2122E
100
AcDbXrecord
280
     1
102
RTVSPost2010Prop28
280
     0
102
RTVSPost2010PropOp28
 70
     1
102
RTVSPost2010Prop29
280
     1
102
RTVSPost2010PropOp29
 70
     1
102
RTVSPost2010Prop30
280
     1
102
RTVSPost2010PropOp30
 70
     1
102
RTVSPost2010Prop31
280
     0
102
RTVSPost2010PropOp31
 70
     1
102
RTVSPost2010Prop32
280
     0
102
RTVSPost2010PropOp32
 70
     1
102
RTVSPost2010Prop33
280
     0
102
RTVSPost2010PropOp33
 70
     1
102
RTVSPost2010Prop34
280
     0
102
RTVSPost2010PropOp34
 70
     1
102
RTVSPost2010Prop35
280
     0
102
RTVSPost2010PropOp35
 70
     1
102
RTVSPost2010Prop36
280
     0
102
RTVSPost2010PropOp36
 70
     1
102
RTVSPost2010Prop37
 90
       50
102
RTVSPost2010PropOp37
 70
     0
102
RTVSPost2010Prop38
140
0.0
102
RTVSPost2010PropOp38
 70
     0
102
RTVSPost2010Prop39
140
1.0
102
RTVSPost2010PropOp39
 70
     0
102
RTVSPost2010Prop40
 90
        0
102
RTVSPost2010PropOp40
 70
     0
102
RTVSPost2010Prop41ColorIndex
 90
       18
102
RTVSPost2010Prop41ColorRGB
 90
        0
102
RTVSPost2010PropOp41
 70
     0
102
RTVSPost2010Prop42
 90
       50
102
RTVSPost2010PropOp42
 70
     0
102
RTVSPost2010Prop43
 90
        3
102
RTVSPost2010PropOp43
 70
     0
102
RTVSPost2010Prop44ColorIndex
 90
        5
102
RTVSPost2010Prop44ColorRGB
 90
      255
102
RTVSPost2010PropOp44
 70
     0
102
RTVSPost2010Prop45
280
     0
102
RTVSPost2010PropOp45
 70
     1
102
RTVSPost2010Prop46
 90
       50
102
RTVSPost2010PropOp46
 70
     0
102
RTVSPost2010Prop47
 90
       50
102
RTVSPost2010PropOp47
 70
     0
102
RTVSPost2010Prop48
 90
       50
102
RTVSPost2010PropOp48
 70
     0
102
RTVSPost2010Prop49
280
     0
102
RTVSPost2010PropOp49
 70
     1
102
RTVSPost2010Prop50
 90
       50
102
RTVSPost2010PropOp50
 70
     0
102
RTVSPost2010Prop51ColorIndex
 90
      256
102
RTVSPost2010Prop51ColorRGB
 90
-16777216
102
RTVSPost2010PropOp51
 70
     0
102
RTVSPost2010Prop52
140
1.0
102
RTVSPost2010PropOp52
 70
     0
102
RTVSPost2010Prop53
 90
        2
102
RTVSPost2010PropOp53
 70
     0
102
RTVSPost2010Prop54
  1
strokes_ogs.tif
102
RTVSPost2010PropOp54
 70
     0
102
RTVSPost2010Prop55
280
     0
102
RTVSPost2010PropOp55
 70
     1
102
RTVSPost2010Prop56
140
1.0
102
RTVSPost2010PropOp56
 70
     0
102
RTVSPost2010Prop57
140
1.0
102
RTVSPost2010PropOp57
 70
     0
102
RTVSPropertyOp0
 70
     0
102
RTVSPropertyOp1
 70
     0
102
RTVSPropertyOp2
 70
     0
102
RTVSPropertyOp3
 70
     0
102
RTVSPropertyOp4
 70
     0
102
RTVSPropertyOp5
 70
     0
102
RTVSPropertyOp6
 70
     0
102
RTVSPropertyOp7
 70
     0
102
RTVSPropertyOp8
 70
     0
102
RTVSPropertyOp9
 70
     0
102
RTVSPropertyOp10
 70
     0
102
RTVSPropertyOp11
 70
     0
102
RTVSPropertyOp12
 70
     0
102
RTVSPropertyOp13
 70
     0
102
RTVSPropertyOp14
 70
     2
102
RTVSPropertyOp15
 70
     0
102
RTVSPropertyOp16
 70
     0
102
RTVSPropertyOp17
 70
     0
102
RTVSPropertyOp18
 70
     0
102
RTVSPropertyOp19
 70
     0
102
RTVSPropertyOp20
 70
     0
102
RTVSPropertyOp21
 70
     0
102
RTVSPropertyOp22
 70
     0
102
RTVSPropertyOp23
 70
     0
102
RTVSPropertyOp24
 70
     0
102
RTVSPropertyOp25
 70
     0
102
RTVSPropertyOp26
 70
     0
102
RTVSPropertyOp27
 70
     0
102
RTVSPropertyOp28
 70
     1
102
RTVSPropertyOp29
 70
     1
102
RTVSPropertyOp30
 70
     1
102
RTVSPropertyOp31
 70
     1
102
RTVSPropertyOp32
 70
     1
102
RTVSPropertyOp33
 70
     1
102
RTVSPropertyOp34
 70
     1
102
RTVSPropertyOp35
 70
     1
102
RTVSPropertyOp36
 70
     1
102
RTVSPropertyOp37
 70
     0
102
RTVSPropertyOp38
 70
     0
102
RTVSPropertyOp39
 70
     0
102
RTVSPropertyOp40
 70
     0
102
RTVSPropertyOp41
 70
     0
102
RTVSPropertyOp42
 70
     0
102
RTVSPropertyOp43
 70
     0
102
RTVSPropertyOp44
 70
     0
102
RTVSPropertyOp45
 70
     1
102
RTVSPropertyOp46
 70
     0
102
RTVSPropertyOp47
 70
     0
102
RTVSPropertyOp48
 70
     0
102
RTVSPropertyOp49
 70
     1
102
RTVSPropertyOp50
 70
     0
102
RTVSPropertyOp51
 70
     0
102
RTVSPropertyOp52
 70
     0
102
RTVSPropertyOp53
 70
     0
102
RTVSPropertyOp54
 70
     0
102
RTVSPropertyOp55
 70
     1
102
RTVSPropertyOp56
 70
     0
102
RTVSPropertyOp57
 70
     0
102
RTVSPropertyOp58
 70
     1
102
RTVSPropertyOp59
 70
     1
102
RTVSPropertyOp60
 70
     1
102
RTVSPropertyOp61
 70
     1
102
RTVSPropertyOp62
 70
     1
  0
XRECORD
  5
21208
102
{ACAD_REACTORS
330
21207
102
}
330
21207
100
AcDbXrecord
280
     1
102
RTVSPost2010Prop28
280
     0
102
RTVSPost2010PropOp28
 70
     1
102
RTVSPost2010Prop29
280
     1
102
RTVSPost2010PropOp29
 70
     1
102
RTVSPost2010Prop30
280
     1
102
RTVSPost2010PropOp30
 70
     1
102
RTVSPost2010Prop31
280
     0
102
RTVSPost2010PropOp31
 70
     1
102
RTVSPost2010Prop32
280
     0
102
RTVSPost2010PropOp32
 70
     1
102
RTVSPost2010Prop33
280
     0
102
RTVSPost2010PropOp33
 70
     1
102
RTVSPost2010Prop34
280
     0
102
RTVSPost2010PropOp34
 70
     1
102
RTVSPost2010Prop35
280
     0
102
RTVSPost2010PropOp35
 70
     1
102
RTVSPost2010Prop36
280
     0
102
RTVSPost2010PropOp36
 70
     1
102
RTVSPost2010Prop37
 90
       50
102
RTVSPost2010PropOp37
 70
     1
102
RTVSPost2010Prop38
140
0.0
102
RTVSPost2010PropOp38
 70
     1
102
RTVSPost2010Prop39
140
1.0
102
RTVSPost2010PropOp39
 70
     1
102
RTVSPost2010Prop40
 90
        0
102
RTVSPost2010PropOp40
 70
     1
102
RTVSPost2010Prop41ColorIndex
 90
       18
102
RTVSPost2010Prop41ColorRGB
 90
        0
102
RTVSPost2010PropOp41
 70
     1
102
RTVSPost2010Prop42
 90
       50
102
RTVSPost2010PropOp42
 70
     1
102
RTVSPost2010Prop43
 90
        3
102
RTVSPost2010PropOp43
 70
     1
102
RTVSPost2010Prop44ColorIndex
 90
        5
102
RTVSPost2010Prop44ColorRGB
 90
      255
102
RTVSPost2010PropOp44
 70
     1
102
RTVSPost2010Prop45
280
     0
102
RTVSPost2010PropOp45
 70
     1
102
RTVSPost2010Prop46
 90
       50
102
RTVSPost2010PropOp46
 70
     1
102
RTVSPost2010Prop47
 90
       50
102
RTVSPost2010PropOp47
 70
     1
102
RTVSPost2010Prop48
 90
       50
102
RTVSPost2010PropOp48
 70
     1
102
RTVSPost2010Prop49
280
     0
102
RTVSPost2010PropOp49
 70
     1
102
RTVSPost2010Prop50
 90
       50
102
RTVSPost2010PropOp50
 70
     1
102
RTVSPost2010Prop51ColorIndex
 90
      256
102
RTVSPost2010Prop51ColorRGB
 90
-16777216
102
RTVSPost2010PropOp51
 70
     0
102
RTVSPost2010Prop52
140
1.0
102
RTVSPost2010PropOp52
 70
     0
102
RTVSPost2010Prop53
 90
        2
102
RTVSPost2010PropOp53
 70
     1
102
RTVSPost2010Prop54
  1
strokes_ogs.tif
102
RTVSPost2010PropOp54
 70
     1
102
RTVSPost2010Prop55
280
     0
102
RTVSPost2010PropOp55
 70
     1
102
RTVSPost2010Prop56
140
1.0
102
RTVSPost2010PropOp56
 70
     1
102
RTVSPost2010Prop57
140
1.0
102
RTVSPost2010PropOp57
 70
     1
102
RTVSPropertyOp0
 70
     1
102
RTVSPropertyOp1
 70
     1
102
RTVSPropertyOp2
 70
     1
102
RTVSPropertyOp3
 70
     1
102
RTVSPropertyOp4
 70
     1
102
RTVSPropertyOp5
 70
     1
102
RTVSPropertyOp6
 70
     1
102
RTVSPropertyOp7
 70
     1
102
RTVSPropertyOp8
 70
     1
102
RTVSPropertyOp9
 70
     1
102
RTVSPropertyOp10
 70
     1
102
RTVSPropertyOp11
 70
     1
102
RTVSPropertyOp12
 70
     1
102
RTVSPropertyOp13
 70
     1
102
RTVSPropertyOp14
 70
     1
102
RTVSPropertyOp15
 70
     1
102
RTVSPropertyOp16
 70
     1
102
RTVSPropertyOp17
 70
     1
102
RTVSPropertyOp18
 70
     1
102
RTVSPropertyOp19
 70
     1
102
RTVSPropertyOp20
 70
     1
102
RTVSPropertyOp21
 70
     1
102
RTVSPropertyOp22
 70
     1
102
RTVSPropertyOp23
 70
     1
102
RTVSPropertyOp24
 70
     1
102
RTVSPropertyOp25
 70
     1
102
RTVSPropertyOp26
 70
     1
102
RTVSPropertyOp27
 70
     1
102
RTVSPropertyOp28
 70
     1
102
RTVSPropertyOp29
 70
     1
102
RTVSPropertyOp30
 70
     1
102
RTVSPropertyOp31
 70
     1
102
RTVSPropertyOp32
 70
     1
102
RTVSPropertyOp33
 70
     1
102
RTVSPropertyOp34
 70
     1
102
RTVSPropertyOp35
 70
     1
102
RTVSPropertyOp36
 70
     1
102
RTVSPropertyOp37
 70
     1
102
RTVSPropertyOp38
 70
     1
102
RTVSPropertyOp39
 70
     1
102
RTVSPropertyOp40
 70
     1
102
RTVSPropertyOp41
 70
     1
102
RTVSPropertyOp42
 70
     1
102
RTVSPropertyOp43
 70
     1
102
RTVSPropertyOp44
 70
     1
102
RTVSPropertyOp45
 70
     1
102
RTVSPropertyOp46
 70
     1
102
RTVSPropertyOp47
 70
     1
102
RTVSPropertyOp48
 70
     1
102
RTVSPropertyOp49
 70
     1
102
RTVSPropertyOp50
 70
     1
102
RTVSPropertyOp51
 70
     0
102
RTVSPropertyOp52
 70
     0
102
RTVSPropertyOp53
 70
     1
102
RTVSPropertyOp54
 70
     1
102
RTVSPropertyOp55
 70
     1
102
RTVSPropertyOp56
 70
     1
102
RTVSPropertyOp57
 70
     1
102
RTVSPropertyOp58
 70
     1
102
RTVSPropertyOp59
 70
     1
102
RTVSPropertyOp60
 70
     1
102
RTVSPropertyOp61
 70
     1
102
RTVSPropertyOp62
 70
     1
  0
XRECORD
  5
2122B
102
{ACAD_REACTORS
330
2122A
102
}
330
2122A
100
AcDbXrecord
280
     1
102
RTVSPost2010Prop28
280
     0
102
RTVSPost2010PropOp28
 70
     1
102
RTVSPost2010Prop29
280
     1
102
RTVSPost2010PropOp29
 70
     1
102
RTVSPost2010Prop30
280
     1
102
RTVSPost2010PropOp30
 70
     1
102
RTVSPost2010Prop31
280
     0
102
RTVSPost2010PropOp31
 70
     1
102
RTVSPost2010Prop32
280
     0
102
RTVSPost2010PropOp32
 70
     1
102
RTVSPost2010Prop33
280
     0
102
RTVSPost2010PropOp33
 70
     1
102
RTVSPost2010Prop34
280
     0
102
RTVSPost2010PropOp34
 70
     1
102
RTVSPost2010Prop35
280
     0
102
RTVSPost2010PropOp35
 70
     1
102
RTVSPost2010Prop36
280
     0
102
RTVSPost2010PropOp36
 70
     1
102
RTVSPost2010Prop37
 90
       50
102
RTVSPost2010PropOp37
 70
     1
102
RTVSPost2010Prop38
140
0.0
102
RTVSPost2010PropOp38
 70
     1
102
RTVSPost2010Prop39
140
1.0
102
RTVSPost2010PropOp39
 70
     1
102
RTVSPost2010Prop40
 90
        0
102
RTVSPost2010PropOp40
 70
     1
102
RTVSPost2010Prop41ColorIndex
 90
       18
102
RTVSPost2010Prop41ColorRGB
 90
        0
102
RTVSPost2010PropOp41
 70
     1
102
RTVSPost2010Prop42
 90
       50
102
RTVSPost2010PropOp42
 70
     1
102
RTVSPost2010Prop43
 90
        3
102
RTVSPost2010PropOp43
 70
     1
102
RTVSPost2010Prop44ColorIndex
 90
        5
102
RTVSPost2010Prop44ColorRGB
 90
      255
102
RTVSPost2010PropOp44
 70
     1
102
RTVSPost2010Prop45
280
     0
102
RTVSPost2010PropOp45
 70
     1
102
RTVSPost2010Prop46
 90
       50
102
RTVSPost2010PropOp46
 70
     1
102
RTVSPost2010Prop47
 90
       50
102
RTVSPost2010PropOp47
 70
     1
102
RTVSPost2010Prop48
 90
       50
102
RTVSPost2010PropOp48
 70
     1
102
RTVSPost2010Prop49
280
     0
102
RTVSPost2010PropOp49
 70
     1
102
RTVSPost2010Prop50
 90
       50
102
RTVSPost2010PropOp50
 70
     1
102
RTVSPost2010Prop51ColorIndex
 90
      256
102
RTVSPost2010Prop51ColorRGB
 90
-16777216
102
RTVSPost2010PropOp51
 70
     0
102
RTVSPost2010Prop52
140
1.0
102
RTVSPost2010PropOp52
 70
     0
102
RTVSPost2010Prop53
 90
        2
102
RTVSPost2010PropOp53
 70
     1
102
RTVSPost2010Prop54
  1
strokes_ogs.tif
102
RTVSPost2010PropOp54
 70
     1
102
RTVSPost2010Prop55
280
     0
102
RTVSPost2010PropOp55
 70
     1
102
RTVSPost2010Prop56
140
1.0
102
RTVSPost2010PropOp56
 70
     1
102
RTVSPost2010Prop57
140
1.0
102
RTVSPost2010PropOp57
 70
     1
102
RTVSPropertyOp0
 70
     1
102
RTVSPropertyOp1
 70
     1
102
RTVSPropertyOp2
 70
     1
102
RTVSPropertyOp3
 70
     1
102
RTVSPropertyOp4
 70
     1
102
RTVSPropertyOp5
 70
     1
102
RTVSPropertyOp6
 70
     1
102
RTVSPropertyOp7
 70
     1
102
RTVSPropertyOp8
 70
     1
102
RTVSPropertyOp9
 70
     1
102
RTVSPropertyOp10
 70
     1
102
RTVSPropertyOp11
 70
     1
102
RTVSPropertyOp12
 70
     1
102
RTVSPropertyOp13
 70
     1
102
RTVSPropertyOp14
 70
     1
102
RTVSPropertyOp15
 70
     1
102
RTVSPropertyOp16
 70
     1
102
RTVSPropertyOp17
 70
     1
102
RTVSPropertyOp18
 70
     1
102
RTVSPropertyOp19
 70
     1
102
RTVSPropertyOp20
 70
     1
102
RTVSPropertyOp21
 70
     1
102
RTVSPropertyOp22
 70
     1
102
RTVSPropertyOp23
 70
     1
102
RTVSPropertyOp24
 70
     1
102
RTVSPropertyOp25
 70
     1
102
RTVSPropertyOp26
 70
     1
102
RTVSPropertyOp27
 70
     1
102
RTVSPropertyOp28
 70
     1
102
RTVSPropertyOp29
 70
     1
102
RTVSPropertyOp30
 70
     1
102
RTVSPropertyOp31
 70
     1
102
RTVSPropertyOp32
 70
     1
102
RTVSPropertyOp33
 70
     1
102
RTVSPropertyOp34
 70
     1
102
RTVSPropertyOp35
 70
     1
102
RTVSPropertyOp36
 70
     1
102
RTVSPropertyOp37
 70
     1
102
RTVSPropertyOp38
 70
     1
102
RTVSPropertyOp39
 70
     1
102
RTVSPropertyOp40
 70
     1
102
RTVSPropertyOp41
 70
     1
102
RTVSPropertyOp42
 70
     1
102
RTVSPropertyOp43
 70
     1
102
RTVSPropertyOp44
 70
     1
102
RTVSPropertyOp45
 70
     1
102
RTVSPropertyOp46
 70
     1
102
RTVSPropertyOp47
 70
     1
102
RTVSPropertyOp48
 70
     1
102
RTVSPropertyOp49
 70
     1
102
RTVSPropertyOp50
 70
     1
102
RTVSPropertyOp51
 70
     0
102
RTVSPropertyOp52
 70
     0
102
RTVSPropertyOp53
 70
     1
102
RTVSPropertyOp54
 70
     1
102
RTVSPropertyOp55
 70
     1
102
RTVSPropertyOp56
 70
     1
102
RTVSPropertyOp57
 70
     1
102
RTVSPropertyOp58
 70
     1
102
RTVSPropertyOp59
 70
     1
102
RTVSPropertyOp60
 70
     1
102
RTVSPropertyOp61
 70
     1
102
RTVSPropertyOp62
 70
     1
  0
XRECORD
  5
21229
102
{ACAD_REACTORS
330
21228
102
}
330
21228
100
AcDbXrecord
280
     1
102
RTVSPost2010Prop28
280
     0
102
RTVSPost2010PropOp28
 70
     1
102
RTVSPost2010Prop29
280
     1
102
RTVSPost2010PropOp29
 70
     1
102
RTVSPost2010Prop30
280
     1
102
RTVSPost2010PropOp30
 70
     1
102
RTVSPost2010Prop31
280
     0
102
RTVSPost2010PropOp31
 70
     1
102
RTVSPost2010Prop32
280
     0
102
RTVSPost2010PropOp32
 70
     1
102
RTVSPost2010Prop33
280
     0
102
RTVSPost2010PropOp33
 70
     1
102
RTVSPost2010Prop34
280
     0
102
RTVSPost2010PropOp34
 70
     1
102
RTVSPost2010Prop35
280
     0
102
RTVSPost2010PropOp35
 70
     1
102
RTVSPost2010Prop36
280
     0
102
RTVSPost2010PropOp36
 70
     1
102
RTVSPost2010Prop37
 90
       50
102
RTVSPost2010PropOp37
 70
     1
102
RTVSPost2010Prop38
140
0.0
102
RTVSPost2010PropOp38
 70
     1
102
RTVSPost2010Prop39
140
1.0
102
RTVSPost2010PropOp39
 70
     1
102
RTVSPost2010Prop40
 90
        0
102
RTVSPost2010PropOp40
 70
     1
102
RTVSPost2010Prop41ColorIndex
 90
       18
102
RTVSPost2010Prop41ColorRGB
 90
        0
102
RTVSPost2010PropOp41
 70
     1
102
RTVSPost2010Prop42
 90
       50
102
RTVSPost2010PropOp42
 70
     1
102
RTVSPost2010Prop43
 90
        3
102
RTVSPost2010PropOp43
 70
     1
102
RTVSPost2010Prop44ColorIndex
 90
        5
102
RTVSPost2010Prop44ColorRGB
 90
      255
102
RTVSPost2010PropOp44
 70
     1
102
RTVSPost2010Prop45
280
     0
102
RTVSPost2010PropOp45
 70
     1
102
RTVSPost2010Prop46
 90
       50
102
RTVSPost2010PropOp46
 70
     1
102
RTVSPost2010Prop47
 90
       50
102
RTVSPost2010PropOp47
 70
     1
102
RTVSPost2010Prop48
 90
       50
102
RTVSPost2010PropOp48
 70
     1
102
RTVSPost2010Prop49
280
     0
102
RTVSPost2010PropOp49
 70
     1
102
RTVSPost2010Prop50
 90
       50
102
RTVSPost2010PropOp50
 70
     1
102
RTVSPost2010Prop51ColorIndex
 90
      256
102
RTVSPost2010Prop51ColorRGB
 90
-16777216
102
RTVSPost2010PropOp51
 70
     0
102
RTVSPost2010Prop52
140
1.0
102
RTVSPost2010PropOp52
 70
     0
102
RTVSPost2010Prop53
 90
        2
102
RTVSPost2010PropOp53
 70
     1
102
RTVSPost2010Prop54
  1
strokes_ogs.tif
102
RTVSPost2010PropOp54
 70
     1
102
RTVSPost2010Prop55
280
     0
102
RTVSPost2010PropOp55
 70
     1
102
RTVSPost2010Prop56
140
1.0
102
RTVSPost2010PropOp56
 70
     1
102
RTVSPost2010Prop57
140
1.0
102
RTVSPost2010PropOp57
 70
     1
102
RTVSPropertyOp0
 70
     1
102
RTVSPropertyOp1
 70
     1
102
RTVSPropertyOp2
 70
     1
102
RTVSPropertyOp3
 70
     1
102
RTVSPropertyOp4
 70
     1
102
RTVSPropertyOp5
 70
     1
102
RTVSPropertyOp6
 70
     1
102
RTVSPropertyOp7
 70
     1
102
RTVSPropertyOp8
 70
     1
102
RTVSPropertyOp9
 70
     1
102
RTVSPropertyOp10
 70
     1
102
RTVSPropertyOp11
 70
     1
102
RTVSPropertyOp12
 70
     1
102
RTVSPropertyOp13
 70
     1
102
RTVSPropertyOp14
 70
     1
102
RTVSPropertyOp15
 70
     1
102
RTVSPropertyOp16
 70
     1
102
RTVSPropertyOp17
 70
     1
102
RTVSPropertyOp18
 70
     1
102
RTVSPropertyOp19
 70
     1
102
RTVSPropertyOp20
 70
     1
102
RTVSPropertyOp21
 70
     1
102
RTVSPropertyOp22
 70
     1
102
RTVSPropertyOp23
 70
     1
102
RTVSPropertyOp24
 70
     1
102
RTVSPropertyOp25
 70
     1
102
RTVSPropertyOp26
 70
     1
102
RTVSPropertyOp27
 70
     1
102
RTVSPropertyOp28
 70
     1
102
RTVSPropertyOp29
 70
     1
102
RTVSPropertyOp30
 70
     1
102
RTVSPropertyOp31
 70
     1
102
RTVSPropertyOp32
 70
     1
102
RTVSPropertyOp33
 70
     1
102
RTVSPropertyOp34
 70
     1
102
RTVSPropertyOp35
 70
     1
102
RTVSPropertyOp36
 70
     1
102
RTVSPropertyOp37
 70
     1
102
RTVSPropertyOp38
 70
     1
102
RTVSPropertyOp39
 70
     1
102
RTVSPropertyOp40
 70
     1
102
RTVSPropertyOp41
 70
     1
102
RTVSPropertyOp42
 70
     1
102
RTVSPropertyOp43
 70
     1
102
RTVSPropertyOp44
 70
     1
102
RTVSPropertyOp45
 70
     1
102
RTVSPropertyOp46
 70
     1
102
RTVSPropertyOp47
 70
     1
102
RTVSPropertyOp48
 70
     1
102
RTVSPropertyOp49
 70
     1
102
RTVSPropertyOp50
 70
     1
102
RTVSPropertyOp51
 70
     0
102
RTVSPropertyOp52
 70
     0
102
RTVSPropertyOp53
 70
     1
102
RTVSPropertyOp54
 70
     1
102
RTVSPropertyOp55
 70
     1
102
RTVSPropertyOp56
 70
     1
102
RTVSPropertyOp57
 70
     1
102
RTVSPropertyOp58
 70
     1
102
RTVSPropertyOp59
 70
     1
102
RTVSPropertyOp60
 70
     1
102
RTVSPropertyOp61
 70
     1
102
RTVSPropertyOp62
 70
     1
  0
XRECORD
  5
21223
102
{ACAD_REACTORS
330
21222
102
}
330
21222
100
AcDbXrecord
280
     1
102
RTVSPost2010Prop28
280
     0
102
RTVSPost2010PropOp28
 70
     1
102
RTVSPost2010Prop29
280
     1
102
RTVSPost2010PropOp29
 70
     1
102
RTVSPost2010Prop30
280
     1
102
RTVSPost2010PropOp30
 70
     1
102
RTVSPost2010Prop31
280
     0
102
RTVSPost2010PropOp31
 70
     1
102
RTVSPost2010Prop32
280
     0
102
RTVSPost2010PropOp32
 70
     1
102
RTVSPost2010Prop33
280
     0
102
RTVSPost2010PropOp33
 70
     1
102
RTVSPost2010Prop34
280
     0
102
RTVSPost2010PropOp34
 70
     1
102
RTVSPost2010Prop35
280
     0
102
RTVSPost2010PropOp35
 70
     1
102
RTVSPost2010Prop36
280
     0
102
RTVSPost2010PropOp36
 70
     1
102
RTVSPost2010Prop37
 90
       50
102
RTVSPost2010PropOp37
 70
     1
102
RTVSPost2010Prop38
140
0.0
102
RTVSPost2010PropOp38
 70
     1
102
RTVSPost2010Prop39
140
1.0
102
RTVSPost2010PropOp39
 70
     1
102
RTVSPost2010Prop40
 90
        0
102
RTVSPost2010PropOp40
 70
     1
102
RTVSPost2010Prop41ColorIndex
 90
       18
102
RTVSPost2010Prop41ColorRGB
 90
        0
102
RTVSPost2010PropOp41
 70
     1
102
RTVSPost2010Prop42
 90
       50
102
RTVSPost2010PropOp42
 70
     1
102
RTVSPost2010Prop43
 90
        3
102
RTVSPost2010PropOp43
 70
     1
102
RTVSPost2010Prop44ColorIndex
 90
        5
102
RTVSPost2010Prop44ColorRGB
 90
      255
102
RTVSPost2010PropOp44
 70
     1
102
RTVSPost2010Prop45
280
     0
102
RTVSPost2010PropOp45
 70
     1
102
RTVSPost2010Prop46
 90
       50
102
RTVSPost2010PropOp46
 70
     1
102
RTVSPost2010Prop47
 90
       50
102
RTVSPost2010PropOp47
 70
     1
102
RTVSPost2010Prop48
 90
       50
102
RTVSPost2010PropOp48
 70
     1
102
RTVSPost2010Prop49
280
     0
102
RTVSPost2010PropOp49
 70
     1
102
RTVSPost2010Prop50
 90
       50
102
RTVSPost2010PropOp50
 70
     1
102
RTVSPost2010Prop51ColorIndex
 90
      256
102
RTVSPost2010Prop51ColorRGB
 90
-16777216
102
RTVSPost2010PropOp51
 70
     0
102
RTVSPost2010Prop52
140
1.0
102
RTVSPost2010PropOp52
 70
     0
102
RTVSPost2010Prop53
 90
        2
102
RTVSPost2010PropOp53
 70
     1
102
RTVSPost2010Prop54
  1
strokes_ogs.tif
102
RTVSPost2010PropOp54
 70
     1
102
RTVSPost2010Prop55
280
     0
102
RTVSPost2010PropOp55
 70
     1
102
RTVSPost2010Prop56
140
1.0
102
RTVSPost2010PropOp56
 70
     1
102
RTVSPost2010Prop57
140
1.0
102
RTVSPost2010PropOp57
 70
     1
102
RTVSPropertyOp0
 70
     1
102
RTVSPropertyOp1
 70
     1
102
RTVSPropertyOp2
 70
     1
102
RTVSPropertyOp3
 70
     1
102
RTVSPropertyOp4
 70
     1
102
RTVSPropertyOp5
 70
     1
102
RTVSPropertyOp6
 70
     1
102
RTVSPropertyOp7
 70
     1
102
RTVSPropertyOp8
 70
     1
102
RTVSPropertyOp9
 70
     1
102
RTVSPropertyOp10
 70
     1
102
RTVSPropertyOp11
 70
     1
102
RTVSPropertyOp12
 70
     1
102
RTVSPropertyOp13
 70
     1
102
RTVSPropertyOp14
 70
     1
102
RTVSPropertyOp15
 70
     1
102
RTVSPropertyOp16
 70
     1
102
RTVSPropertyOp17
 70
     1
102
RTVSPropertyOp18
 70
     1
102
RTVSPropertyOp19
 70
     1
102
RTVSPropertyOp20
 70
     1
102
RTVSPropertyOp21
 70
     1
102
RTVSPropertyOp22
 70
     1
102
RTVSPropertyOp23
 70
     1
102
RTVSPropertyOp24
 70
     1
102
RTVSPropertyOp25
 70
     1
102
RTVSPropertyOp26
 70
     1
102
RTVSPropertyOp27
 70
     1
102
RTVSPropertyOp28
 70
     1
102
RTVSPropertyOp29
 70
     1
102
RTVSPropertyOp30
 70
     1
102
RTVSPropertyOp31
 70
     1
102
RTVSPropertyOp32
 70
     1
102
RTVSPropertyOp33
 70
     1
102
RTVSPropertyOp34
 70
     1
102
RTVSPropertyOp35
 70
     1
102
RTVSPropertyOp36
 70
     1
102
RTVSPropertyOp37
 70
     1
102
RTVSPropertyOp38
 70
     1
102
RTVSPropertyOp39
 70
     1
102
RTVSPropertyOp40
 70
     1
102
RTVSPropertyOp41
 70
     1
102
RTVSPropertyOp42
 70
     1
102
RTVSPropertyOp43
 70
     1
102
RTVSPropertyOp44
 70
     1
102
RTVSPropertyOp45
 70
     1
102
RTVSPropertyOp46
 70
     1
102
RTVSPropertyOp47
 70
     1
102
RTVSPropertyOp48
 70
     1
102
RTVSPropertyOp49
 70
     1
102
RTVSPropertyOp50
 70
     1
102
RTVSPropertyOp51
 70
     0
102
RTVSPropertyOp52
 70
     0
102
RTVSPropertyOp53
 70
     1
102
RTVSPropertyOp54
 70
     1
102
RTVSPropertyOp55
 70
     1
102
RTVSPropertyOp56
 70
     1
102
RTVSPropertyOp57
 70
     1
102
RTVSPropertyOp58
 70
     1
102
RTVSPropertyOp59
 70
     1
102
RTVSPropertyOp60
 70
     1
102
RTVSPropertyOp61
 70
     1
102
RTVSPropertyOp62
 70
     1
  0
XRECORD
  5
21225
102
{ACAD_REACTORS
330
21224
102
}
330
21224
100
AcDbXrecord
280
     1
102
RTVSPost2010Prop28
280
     0
102
RTVSPost2010PropOp28
 70
     1
102
RTVSPost2010Prop29
280
     1
102
RTVSPost2010PropOp29
 70
     1
102
RTVSPost2010Prop30
280
     1
102
RTVSPost2010PropOp30
 70
     1
102
RTVSPost2010Prop31
280
     0
102
RTVSPost2010PropOp31
 70
     1
102
RTVSPost2010Prop32
280
     0
102
RTVSPost2010PropOp32
 70
     1
102
RTVSPost2010Prop33
280
     0
102
RTVSPost2010PropOp33
 70
     1
102
RTVSPost2010Prop34
280
     0
102
RTVSPost2010PropOp34
 70
     1
102
RTVSPost2010Prop35
280
     0
102
RTVSPost2010PropOp35
 70
     1
102
RTVSPost2010Prop36
280
     0
102
RTVSPost2010PropOp36
 70
     1
102
RTVSPost2010Prop37
 90
       50
102
RTVSPost2010PropOp37
 70
     1
102
RTVSPost2010Prop38
140
0.0
102
RTVSPost2010PropOp38
 70
     1
102
RTVSPost2010Prop39
140
1.0
102
RTVSPost2010PropOp39
 70
     1
102
RTVSPost2010Prop40
 90
        0
102
RTVSPost2010PropOp40
 70
     1
102
RTVSPost2010Prop41ColorIndex
 90
       18
102
RTVSPost2010Prop41ColorRGB
 90
        0
102
RTVSPost2010PropOp41
 70
     1
102
RTVSPost2010Prop42
 90
       50
102
RTVSPost2010PropOp42
 70
     1
102
RTVSPost2010Prop43
 90
        3
102
RTVSPost2010PropOp43
 70
     1
102
RTVSPost2010Prop44ColorIndex
 90
        5
102
RTVSPost2010Prop44ColorRGB
 90
      255
102
RTVSPost2010PropOp44
 70
     1
102
RTVSPost2010Prop45
280
     0
102
RTVSPost2010PropOp45
 70
     1
102
RTVSPost2010Prop46
 90
       50
102
RTVSPost2010PropOp46
 70
     1
102
RTVSPost2010Prop47
 90
       50
102
RTVSPost2010PropOp47
 70
     1
102
RTVSPost2010Prop48
 90
       50
102
RTVSPost2010PropOp48
 70
     1
102
RTVSPost2010Prop49
280
     0
102
RTVSPost2010PropOp49
 70
     1
102
RTVSPost2010Prop50
 90
       50
102
RTVSPost2010PropOp50
 70
     1
102
RTVSPost2010Prop51ColorIndex
 90
      256
102
RTVSPost2010Prop51ColorRGB
 90
-16777216
102
RTVSPost2010PropOp51
 70
     0
102
RTVSPost2010Prop52
140
1.0
102
RTVSPost2010PropOp52
 70
     0
102
RTVSPost2010Prop53
 90
        2
102
RTVSPost2010PropOp53
 70
     1
102
RTVSPost2010Prop54
  1
strokes_ogs.tif
102
RTVSPost2010PropOp54
 70
     1
102
RTVSPost2010Prop55
280
     0
102
RTVSPost2010PropOp55
 70
     1
102
RTVSPost2010Prop56
140
1.0
102
RTVSPost2010PropOp56
 70
     1
102
RTVSPost2010Prop57
140
1.0
102
RTVSPost2010PropOp57
 70
     1
102
RTVSPropertyOp0
 70
     1
102
RTVSPropertyOp1
 70
     1
102
RTVSPropertyOp2
 70
     1
102
RTVSPropertyOp3
 70
     1
102
RTVSPropertyOp4
 70
     1
102
RTVSPropertyOp5
 70
     1
102
RTVSPropertyOp6
 70
     1
102
RTVSPropertyOp7
 70
     1
102
RTVSPropertyOp8
 70
     1
102
RTVSPropertyOp9
 70
     1
102
RTVSPropertyOp10
 70
     1
102
RTVSPropertyOp11
 70
     1
102
RTVSPropertyOp12
 70
     1
102
RTVSPropertyOp13
 70
     1
102
RTVSPropertyOp14
 70
     1
102
RTVSPropertyOp15
 70
     1
102
RTVSPropertyOp16
 70
     1
102
RTVSPropertyOp17
 70
     1
102
RTVSPropertyOp18
 70
     1
102
RTVSPropertyOp19
 70
     1
102
RTVSPropertyOp20
 70
     1
102
RTVSPropertyOp21
 70
     1
102
RTVSPropertyOp22
 70
     1
102
RTVSPropertyOp23
 70
     1
102
RTVSPropertyOp24
 70
     1
102
RTVSPropertyOp25
 70
     1
102
RTVSPropertyOp26
 70
     1
102
RTVSPropertyOp27
 70
     1
102
RTVSPropertyOp28
 70
     1
102
RTVSPropertyOp29
 70
     1
102
RTVSPropertyOp30
 70
     1
102
RTVSPropertyOp31
 70
     1
102
RTVSPropertyOp32
 70
     1
102
RTVSPropertyOp33
 70
     1
102
RTVSPropertyOp34
 70
     1
102
RTVSPropertyOp35
 70
     1
102
RTVSPropertyOp36
 70
     1
102
RTVSPropertyOp37
 70
     1
102
RTVSPropertyOp38
 70
     1
102
RTVSPropertyOp39
 70
     1
102
RTVSPropertyOp40
 70
     1
102
RTVSPropertyOp41
 70
     1
102
RTVSPropertyOp42
 70
     1
102
RTVSPropertyOp43
 70
     1
102
RTVSPropertyOp44
 70
     1
102
RTVSPropertyOp45
 70
     1
102
RTVSPropertyOp46
 70
     1
102
RTVSPropertyOp47
 70
     1
102
RTVSPropertyOp48
 70
     1
102
RTVSPropertyOp49
 70
     1
102
RTVSPropertyOp50
 70
     1
102
RTVSPropertyOp51
 70
     0
102
RTVSPropertyOp52
 70
     0
102
RTVSPropertyOp53
 70
     1
102
RTVSPropertyOp54
 70
     1
102
RTVSPropertyOp55
 70
     1
102
RTVSPropertyOp56
 70
     1
102
RTVSPropertyOp57
 70
     1
102
RTVSPropertyOp58
 70
     1
102
RTVSPropertyOp59
 70
     1
102
RTVSPropertyOp60
 70
     1
102
RTVSPropertyOp61
 70
     1
102
RTVSPropertyOp62
 70
     1
  0
XRECORD
  5
2120E
102
{ACAD_REACTORS
330
2120D
102
}
330
2120D
100
AcDbXrecord
280
     1
102
RTVSPost2010Prop28
280
     0
102
RTVSPost2010PropOp28
 70
     1
102
RTVSPost2010Prop29
280
     1
102
RTVSPost2010PropOp29
 70
     1
102
RTVSPost2010Prop30
280
     1
102
RTVSPost2010PropOp30
 70
     1
102
RTVSPost2010Prop31
280
     0
102
RTVSPost2010PropOp31
 70
     1
102
RTVSPost2010Prop32
280
     0
102
RTVSPost2010PropOp32
 70
     1
102
RTVSPost2010Prop33
280
     0
102
RTVSPost2010PropOp33
 70
     1
102
RTVSPost2010Prop34
280
     0
102
RTVSPost2010PropOp34
 70
     1
102
RTVSPost2010Prop35
280
     0
102
RTVSPost2010PropOp35
 70
     1
102
RTVSPost2010Prop36
280
     0
102
RTVSPost2010PropOp36
 70
     1
102
RTVSPost2010Prop37
 90
       50
102
RTVSPost2010PropOp37
 70
     1
102
RTVSPost2010Prop38
140
0.0
102
RTVSPost2010PropOp38
 70
     1
102
RTVSPost2010Prop39
140
1.0
102
RTVSPost2010PropOp39
 70
     1
102
RTVSPost2010Prop40
 90
        0
102
RTVSPost2010PropOp40
 70
     1
102
RTVSPost2010Prop41ColorIndex
 90
       18
102
RTVSPost2010Prop41ColorRGB
 90
        0
102
RTVSPost2010PropOp41
 70
     1
102
RTVSPost2010Prop42
 90
       50
102
RTVSPost2010PropOp42
 70
     1
102
RTVSPost2010Prop43
 90
        3
102
RTVSPost2010PropOp43
 70
     1
102
RTVSPost2010Prop44ColorIndex
 90
        5
102
RTVSPost2010Prop44ColorRGB
 90
      255
102
RTVSPost2010PropOp44
 70
     1
102
RTVSPost2010Prop45
280
     0
102
RTVSPost2010PropOp45
 70
     1
102
RTVSPost2010Prop46
 90
       50
102
RTVSPost2010PropOp46
 70
     1
102
RTVSPost2010Prop47
 90
       50
102
RTVSPost2010PropOp47
 70
     1
102
RTVSPost2010Prop48
 90
       50
102
RTVSPost2010PropOp48
 70
     1
102
RTVSPost2010Prop49
280
     0
102
RTVSPost2010PropOp49
 70
     1
102
RTVSPost2010Prop50
 90
       50
102
RTVSPost2010PropOp50
 70
     1
102
RTVSPost2010Prop51ColorIndex
 90
      256
102
RTVSPost2010Prop51ColorRGB
 90
-16777216
102
RTVSPost2010PropOp51
 70
     0
102
RTVSPost2010Prop52
140
1.0
102
RTVSPost2010PropOp52
 70
     0
102
RTVSPost2010Prop53
 90
        2
102
RTVSPost2010PropOp53
 70
     1
102
RTVSPost2010Prop54
  1
strokes_ogs.tif
102
RTVSPost2010PropOp54
 70
     1
102
RTVSPost2010Prop55
280
     0
102
RTVSPost2010PropOp55
 70
     1
102
RTVSPost2010Prop56
140
1.0
102
RTVSPost2010PropOp56
 70
     1
102
RTVSPost2010Prop57
140
1.0
102
RTVSPost2010PropOp57
 70
     1
102
RTVSPropertyOp0
 70
     1
102
RTVSPropertyOp1
 70
     1
102
RTVSPropertyOp2
 70
     1
102
RTVSPropertyOp3
 70
     1
102
RTVSPropertyOp4
 70
     1
102
RTVSPropertyOp5
 70
     1
102
RTVSPropertyOp6
 70
     1
102
RTVSPropertyOp7
 70
     1
102
RTVSPropertyOp8
 70
     1
102
RTVSPropertyOp9
 70
     1
102
RTVSPropertyOp10
 70
     1
102
RTVSPropertyOp11
 70
     1
102
RTVSPropertyOp12
 70
     1
102
RTVSPropertyOp13
 70
     1
102
RTVSPropertyOp14
 70
     1
102
RTVSPropertyOp15
 70
     1
102
RTVSPropertyOp16
 70
     1
102
RTVSPropertyOp17
 70
     1
102
RTVSPropertyOp18
 70
     1
102
RTVSPropertyOp19
 70
     1
102
RTVSPropertyOp20
 70
     1
102
RTVSPropertyOp21
 70
     1
102
RTVSPropertyOp22
 70
     1
102
RTVSPropertyOp23
 70
     1
102
RTVSPropertyOp24
 70
     1
102
RTVSPropertyOp25
 70
     1
102
RTVSPropertyOp26
 70
     1
102
RTVSPropertyOp27
 70
     1
102
RTVSPropertyOp28
 70
     1
102
RTVSPropertyOp29
 70
     1
102
RTVSPropertyOp30
 70
     1
102
RTVSPropertyOp31
 70
     1
102
RTVSPropertyOp32
 70
     1
102
RTVSPropertyOp33
 70
     1
102
RTVSPropertyOp34
 70
     1
102
RTVSPropertyOp35
 70
     1
102
RTVSPropertyOp36
 70
     1
102
RTVSPropertyOp37
 70
     1
102
RTVSPropertyOp38
 70
     1
102
RTVSPropertyOp39
 70
     1
102
RTVSPropertyOp40
 70
     1
102
RTVSPropertyOp41
 70
     1
102
RTVSPropertyOp42
 70
     1
102
RTVSPropertyOp43
 70
     1
102
RTVSPropertyOp44
 70
     1
102
RTVSPropertyOp45
 70
     1
102
RTVSPropertyOp46
 70
     1
102
RTVSPropertyOp47
 70
     1
102
RTVSPropertyOp48
 70
     1
102
RTVSPropertyOp49
 70
     1
102
RTVSPropertyOp50
 70
     1
102
RTVSPropertyOp51
 70
     0
102
RTVSPropertyOp52
 70
     0
102
RTVSPropertyOp53
 70
     1
102
RTVSPropertyOp54
 70
     1
102
RTVSPropertyOp55
 70
     1
102
RTVSPropertyOp56
 70
     1
102
RTVSPropertyOp57
 70
     1
102
RTVSPropertyOp58
 70
     1
102
RTVSPropertyOp59
 70
     1
102
RTVSPropertyOp60
 70
     1
102
RTVSPropertyOp61
 70
     1
102
RTVSPropertyOp62
 70
     1
  0
XRECORD
  5
2121F
102
{ACAD_REACTORS
330
2121E
102
}
330
2121E
100
AcDbXrecord
280
     1
102
RTVSPost2010Prop28
280
     0
102
RTVSPost2010PropOp28
 70
     1
102
RTVSPost2010Prop29
280
     1
102
RTVSPost2010PropOp29
 70
     1
102
RTVSPost2010Prop30
280
     1
102
RTVSPost2010PropOp30
 70
     1
102
RTVSPost2010Prop31
280
     0
102
RTVSPost2010PropOp31
 70
     1
102
RTVSPost2010Prop32
280
     0
102
RTVSPost2010PropOp32
 70
     1
102
RTVSPost2010Prop33
280
     0
102
RTVSPost2010PropOp33
 70
     1
102
RTVSPost2010Prop34
280
     0
102
RTVSPost2010PropOp34
 70
     1
102
RTVSPost2010Prop35
280
     0
102
RTVSPost2010PropOp35
 70
     1
102
RTVSPost2010Prop36
280
     0
102
RTVSPost2010PropOp36
 70
     1
102
RTVSPost2010Prop37
 90
       50
102
RTVSPost2010PropOp37
 70
     1
102
RTVSPost2010Prop38
140
0.0
102
RTVSPost2010PropOp38
 70
     1
102
RTVSPost2010Prop39
140
1.0
102
RTVSPost2010PropOp39
 70
     1
102
RTVSPost2010Prop40
 90
        0
102
RTVSPost2010PropOp40
 70
     1
102
RTVSPost2010Prop41ColorIndex
 90
       18
102
RTVSPost2010Prop41ColorRGB
 90
        0
102
RTVSPost2010PropOp41
 70
     1
102
RTVSPost2010Prop42
 90
       50
102
RTVSPost2010PropOp42
 70
     1
102
RTVSPost2010Prop43
 90
        3
102
RTVSPost2010PropOp43
 70
     1
102
RTVSPost2010Prop44ColorIndex
 90
        5
102
RTVSPost2010Prop44ColorRGB
 90
      255
102
RTVSPost2010PropOp44
 70
     1
102
RTVSPost2010Prop45
280
     0
102
RTVSPost2010PropOp45
 70
     1
102
RTVSPost2010Prop46
 90
       50
102
RTVSPost2010PropOp46
 70
     1
102
RTVSPost2010Prop47
 90
       50
102
RTVSPost2010PropOp47
 70
     1
102
RTVSPost2010Prop48
 90
       50
102
RTVSPost2010PropOp48
 70
     1
102
RTVSPost2010Prop49
280
     0
102
RTVSPost2010PropOp49
 70
     1
102
RTVSPost2010Prop50
 90
       50
102
RTVSPost2010PropOp50
 70
     1
102
RTVSPost2010Prop51ColorIndex
 90
      256
102
RTVSPost2010Prop51ColorRGB
 90
-16777216
102
RTVSPost2010PropOp51
 70
     0
102
RTVSPost2010Prop52
140
1.0
102
RTVSPost2010PropOp52
 70
     0
102
RTVSPost2010Prop53
 90
        2
102
RTVSPost2010PropOp53
 70
     1
102
RTVSPost2010Prop54
  1
strokes_ogs.tif
102
RTVSPost2010PropOp54
 70
     1
102
RTVSPost2010Prop55
280
     0
102
RTVSPost2010PropOp55
 70
     1
102
RTVSPost2010Prop56
140
1.0
102
RTVSPost2010PropOp56
 70
     1
102
RTVSPost2010Prop57
140
1.0
102
RTVSPost2010PropOp57
 70
     1
102
RTVSPropertyOp0
 70
     1
102
RTVSPropertyOp1
 70
     1
102
RTVSPropertyOp2
 70
     1
102
RTVSPropertyOp3
 70
     1
102
RTVSPropertyOp4
 70
     1
102
RTVSPropertyOp5
 70
     1
102
RTVSPropertyOp6
 70
     1
102
RTVSPropertyOp7
 70
     1
102
RTVSPropertyOp8
 70
     1
102
RTVSPropertyOp9
 70
     1
102
RTVSPropertyOp10
 70
     1
102
RTVSPropertyOp11
 70
     1
102
RTVSPropertyOp12
 70
     1
102
RTVSPropertyOp13
 70
     1
102
RTVSPropertyOp14
 70
     1
102
RTVSPropertyOp15
 70
     1
102
RTVSPropertyOp16
 70
     1
102
RTVSPropertyOp17
 70
     1
102
RTVSPropertyOp18
 70
     1
102
RTVSPropertyOp19
 70
     1
102
RTVSPropertyOp20
 70
     1
102
RTVSPropertyOp21
 70
     1
102
RTVSPropertyOp22
 70
     1
102
RTVSPropertyOp23
 70
     1
102
RTVSPropertyOp24
 70
     1
102
RTVSPropertyOp25
 70
     1
102
RTVSPropertyOp26
 70
     1
102
RTVSPropertyOp27
 70
     1
102
RTVSPropertyOp28
 70
     1
102
RTVSPropertyOp29
 70
     1
102
RTVSPropertyOp30
 70
     1
102
RTVSPropertyOp31
 70
     1
102
RTVSPropertyOp32
 70
     1
102
RTVSPropertyOp33
 70
     1
102
RTVSPropertyOp34
 70
     1
102
RTVSPropertyOp35
 70
     1
102
RTVSPropertyOp36
 70
     1
102
RTVSPropertyOp37
 70
     1
102
RTVSPropertyOp38
 70
     1
102
RTVSPropertyOp39
 70
     1
102
RTVSPropertyOp40
 70
     1
102
RTVSPropertyOp41
 70
     1
102
RTVSPropertyOp42
 70
     1
102
RTVSPropertyOp43
 70
     1
102
RTVSPropertyOp44
 70
     1
102
RTVSPropertyOp45
 70
     1
102
RTVSPropertyOp46
 70
     1
102
RTVSPropertyOp47
 70
     1
102
RTVSPropertyOp48
 70
     1
102
RTVSPropertyOp49
 70
     1
102
RTVSPropertyOp50
 70
     1
102
RTVSPropertyOp51
 70
     0
102
RTVSPropertyOp52
 70
     0
102
RTVSPropertyOp53
 70
     1
102
RTVSPropertyOp54
 70
     1
102
RTVSPropertyOp55
 70
     1
102
RTVSPropertyOp56
 70
     1
102
RTVSPropertyOp57
 70
     1
102
RTVSPropertyOp58
 70
     1
102
RTVSPropertyOp59
 70
     1
102
RTVSPropertyOp60
 70
     1
102
RTVSPropertyOp61
 70
     1
102
RTVSPropertyOp62
 70
     1
  0
XRECORD
  5
21227
102
{ACAD_REACTORS
330
21226
102
}
330
21226
100
AcDbXrecord
280
     1
102
RTVSPost2010Prop28
280
     0
102
RTVSPost2010PropOp28
 70
     1
102
RTVSPost2010Prop29
280
     1
102
RTVSPost2010PropOp29
 70
     1
102
RTVSPost2010Prop30
280
     1
102
RTVSPost2010PropOp30
 70
     1
102
RTVSPost2010Prop31
280
     0
102
RTVSPost2010PropOp31
 70
     1
102
RTVSPost2010Prop32
280
     0
102
RTVSPost2010PropOp32
 70
     1
102
RTVSPost2010Prop33
280
     0
102
RTVSPost2010PropOp33
 70
     1
102
RTVSPost2010Prop34
280
     0
102
RTVSPost2010PropOp34
 70
     1
102
RTVSPost2010Prop35
280
     0
102
RTVSPost2010PropOp35
 70
     1
102
RTVSPost2010Prop36
280
     0
102
RTVSPost2010PropOp36
 70
     1
102
RTVSPost2010Prop37
 90
       50
102
RTVSPost2010PropOp37
 70
     1
102
RTVSPost2010Prop38
140
0.0
102
RTVSPost2010PropOp38
 70
     1
102
RTVSPost2010Prop39
140
1.0
102
RTVSPost2010PropOp39
 70
     1
102
RTVSPost2010Prop40
 90
        0
102
RTVSPost2010PropOp40
 70
     1
102
RTVSPost2010Prop41ColorIndex
 90
       18
102
RTVSPost2010Prop41ColorRGB
 90
        0
102
RTVSPost2010PropOp41
 70
     1
102
RTVSPost2010Prop42
 90
       50
102
RTVSPost2010PropOp42
 70
     1
102
RTVSPost2010Prop43
 90
        3
102
RTVSPost2010PropOp43
 70
     1
102
RTVSPost2010Prop44ColorIndex
 90
        5
102
RTVSPost2010Prop44ColorRGB
 90
      255
102
RTVSPost2010PropOp44
 70
     1
102
RTVSPost2010Prop45
280
     0
102
RTVSPost2010PropOp45
 70
     1
102
RTVSPost2010Prop46
 90
       50
102
RTVSPost2010PropOp46
 70
     1
102
RTVSPost2010Prop47
 90
       50
102
RTVSPost2010PropOp47
 70
     1
102
RTVSPost2010Prop48
 90
       50
102
RTVSPost2010PropOp48
 70
     1
102
RTVSPost2010Prop49
280
     0
102
RTVSPost2010PropOp49
 70
     1
102
RTVSPost2010Prop50
 90
       50
102
RTVSPost2010PropOp50
 70
     1
102
RTVSPost2010Prop51ColorIndex
 90
      256
102
RTVSPost2010Prop51ColorRGB
 90
-16777216
102
RTVSPost2010PropOp51
 70
     0
102
RTVSPost2010Prop52
140
1.0
102
RTVSPost2010PropOp52
 70
     0
102
RTVSPost2010Prop53
 90
        2
102
RTVSPost2010PropOp53
 70
     1
102
RTVSPost2010Prop54
  1
strokes_ogs.tif
102
RTVSPost2010PropOp54
 70
     1
102
RTVSPost2010Prop55
280
     0
102
RTVSPost2010PropOp55
 70
     1
102
RTVSPost2010Prop56
140
1.0
102
RTVSPost2010PropOp56
 70
     1
102
RTVSPost2010Prop57
140
1.0
102
RTVSPost2010PropOp57
 70
     1
102
RTVSPropertyOp0
 70
     1
102
RTVSPropertyOp1
 70
     1
102
RTVSPropertyOp2
 70
     1
102
RTVSPropertyOp3
 70
     1
102
RTVSPropertyOp4
 70
     1
102
RTVSPropertyOp5
 70
     1
102
RTVSPropertyOp6
 70
     1
102
RTVSPropertyOp7
 70
     1
102
RTVSPropertyOp8
 70
     1
102
RTVSPropertyOp9
 70
     1
102
RTVSPropertyOp10
 70
     1
102
RTVSPropertyOp11
 70
     1
102
RTVSPropertyOp12
 70
     1
102
RTVSPropertyOp13
 70
     1
102
RTVSPropertyOp14
 70
     1
102
RTVSPropertyOp15
 70
     1
102
RTVSPropertyOp16
 70
     1
102
RTVSPropertyOp17
 70
     1
102
RTVSPropertyOp18
 70
     1
102
RTVSPropertyOp19
 70
     1
102
RTVSPropertyOp20
 70
     1
102
RTVSPropertyOp21
 70
     1
102
RTVSPropertyOp22
 70
     1
102
RTVSPropertyOp23
 70
     1
102
RTVSPropertyOp24
 70
     1
102
RTVSPropertyOp25
 70
     1
102
RTVSPropertyOp26
 70
     1
102
RTVSPropertyOp27
 70
     1
102
RTVSPropertyOp28
 70
     1
102
RTVSPropertyOp29
 70
     1
102
RTVSPropertyOp30
 70
     1
102
RTVSPropertyOp31
 70
     1
102
RTVSPropertyOp32
 70
     1
102
RTVSPropertyOp33
 70
     1
102
RTVSPropertyOp34
 70
     1
102
RTVSPropertyOp35
 70
     1
102
RTVSPropertyOp36
 70
     1
102
RTVSPropertyOp37
 70
     1
102
RTVSPropertyOp38
 70
     1
102
RTVSPropertyOp39
 70
     1
102
RTVSPropertyOp40
 70
     1
102
RTVSPropertyOp41
 70
     1
102
RTVSPropertyOp42
 70
     1
102
RTVSPropertyOp43
 70
     1
102
RTVSPropertyOp44
 70
     1
102
RTVSPropertyOp45
 70
     1
102
RTVSPropertyOp46
 70
     1
102
RTVSPropertyOp47
 70
     1
102
RTVSPropertyOp48
 70
     1
102
RTVSPropertyOp49
 70
     1
102
RTVSPropertyOp50
 70
     1
102
RTVSPropertyOp51
 70
     0
102
RTVSPropertyOp52
 70
     0
102
RTVSPropertyOp53
 70
     1
102
RTVSPropertyOp54
 70
     1
102
RTVSPropertyOp55
 70
     1
102
RTVSPropertyOp56
 70
     1
102
RTVSPropertyOp57
 70
     1
102
RTVSPropertyOp58
 70
     1
102
RTVSPropertyOp59
 70
     1
102
RTVSPropertyOp60
 70
     1
102
RTVSPropertyOp61
 70
     1
102
RTVSPropertyOp62
 70
     1
  0
ENDSEC
  0
EOF
