  0
SECTION
  2
HEADER
  9
$ACADVER
  1
AC1021
  9
$ACADMAINTVER
 70
    25
  9
$DWGCODEPAGE
  3
ANSI_949
  9
$LASTSAVEDBY
  1
fottrem
  9
$INSBASE
 10
0.0
 20
0.0
 30
0.0
  9
$EXTMIN
 10
-52.21415849495828
 20
-36.37186987708071
 30
0.0
  9
$EXTMAX
 10
71.72110239108605
 20
38.58691077145515
 30
0.0
  9
$LIMMIN
 10
-170.0
 20
-170.0
  9
$LIMMAX
 10
519.0
 20
260.0
  9
$ORTHOMODE
 70
     0
  9
$REGENMODE
 70
     1
  9
$FILLMODE
 70
     1
  9
$QTEXTMODE
 70
     0
  9
$MIRRTEXT
 70
     0
  9
$LTSCALE
 40
1.0
  9
$ATTMODE
 70
     1
  9
$TEXTSIZE
 40
5.0
  9
$TRACEWID
 40
1.0
  9
$TEXTSTYLE
  7
Standard
  9
$CLAYER
  8
0
  9
$CELTYPE
  6
ByLayer
  9
$CECOLOR
 62
   256
  9
$CELTSCALE
 40
1.0
  9
$DISPSILH
 70
     0
  9
$DIMSCALE
 40
1.0
  9
$DIMASZ
 40
2.5
  9
$DIMEXO
 40
0.0
  9
$DIMDLI
 40
3.75
  9
$DIMRND
 40
0.0
  9
$DIMDLE
 40
0.0
  9
$DIMEXE
 40
1.25
  9
$DIMTP
 40
0.0
  9
$DIMTM
 40
0.0
  9
$DIMTXT
 40
3.5
  9
$DIMCEN
 40
0.0
  9
$DIMTSZ
 40
0.0
  9
$DIMTOL
 70
     0
  9
$DIMLIM
 70
     0
  9
$DIMTIH
 70
     0
  9
$DIMTOH
 70
     0
  9
$DIMSE1
 70
     0
  9
$DIMSE2
 70
     0
  9
$DIMTAD
 70
     1
  9
$DIMZIN
 70
     8
  9
$DIMBLK
  1

  9
$DIMASO
 70
     1
  9
$DIMSHO
 70
     1
  9
$DIMPOST
  1

  9
$DIMAPOST
  1

  9
$DIMALT
 70
     0
  9
$DIMALTD
 70
     3
  9
$DIMALTF
 40
0.039370078
  9
$DIMLFAC
 40
1.0
  9
$DIMTOFL
 70
     1
  9
$DIMTVP
 40
0.0
  9
$DIMTIX
 70
     0
  9
$DIMSOXD
 70
     0
  9
$DIMSAH
 70
     0
  9
$DIMBLK1
  1

  9
$DIMBLK2
  1

  9
$DIMSTYLE
  2
Standard
  9
$DIMCLRD
 70
     0
  9
$DIMCLRE
 70
     0
  9
$DIMCLRT
 70
     0
  9
$DIMTFAC
 40
1.0
  9
$DIMGAP
 40
0.625
  9
$DIMJUST
 70
     0
  9
$DIMSD1
 70
     0
  9
$DIMSD2
 70
     0
  9
$DIMTOLJ
 70
     0
  9
$DIMTZIN
 70
     8
  9
$DIMALTZ
 70
     0
  9
$DIMALTTZ
 70
     0
  9
$DIMUPT
 70
     0
  9
$DIMDEC
 70
     2
  9
$DIMTDEC
 70
     2
  9
$DIMALTU
 70
     2
  9
$DIMALTTD
 70
     3
  9
$DIMTXSTY
  7
Standard
  9
$DIMAUNIT
 70
     0
  9
$DIMADEC
 70
     2
  9
$DIMALTRND
 40
0.0
  9
$DIMAZIN
 70
     2
  9
$DIMDSEP
 70
    46
  9
$DIMATFIT
 70
     3
  9
$DIMFRAC
 70
     0
  9
$DIMLDRBLK
  1

  9
$DIMLUNIT
 70
     2
  9
$DIMLWD
 70
    -2
  9
$DIMLWE
 70
    -2
  9
$DIMTMOVE
 70
     0
  9
$DIMFXL
 40
1.0
  9
$DIMFXLON
 70
     0
  9
$DIMJOGANG
 40
0.7853981633974483
  9
$DIMTFILL
 70
     0
  9
$DIMTFILLCLR
 70
     0
  9
$DIMARCSYM
 70
     0
  9
$DIMLTYPE
  6

  9
$DIMLTEX1
  6

  9
$DIMLTEX2
  6

  9
$LUNITS
 70
     2
  9
$LUPREC
 70
     4
  9
$SKETCHINC
 40
1.0
  9
$FILLETRAD
 40
0.0
  9
$AUNITS
 70
     0
  9
$AUPREC
 70
     0
  9
$MENU
  1
.
  9
$ELEVATION
 40
0.0
  9
$PELEVATION
 40
0.0
  9
$THICKNESS
 40
0.0
  9
$LIMCHECK
 70
     0
  9
$CHAMFERA
 40
0.0
  9
$CHAMFERB
 40
0.0
  9
$CHAMFERC
 40
0.0
  9
$CHAMFERD
 40
0.0
  9
$SKPOLY
 70
     0
  9
$TDCREATE
 40
2453354.092125822
  9
$TDUCREATE
 40
2453353.717125822
  9
$TDUPDATE
 40
2457102.459471771
  9
$TDUUPDATE
 40
2457102.084471771
  9
$TDINDWG
 40
260.0230444444
  9
$TDUSRTIMER
 40
260.0229613194
  9
$USRTIMER
 70
     1
  9
$ANGBASE
 50
0.0
  9
$ANGDIR
 70
     0
  9
$PDMODE
 70
     0
  9
$PDSIZE
 40
0.0
  9
$PLINEWID
 40
0.0
  9
$SPLFRAME
 70
     0
  9
$SPLINETYPE
 70
     6
  9
$SPLINESEGS
 70
     8
  9
$HANDSEED
  5
128AD
  9
$SURFTAB1
 70
     6
  9
$SURFTAB2
 70
     6
  9
$SURFTYPE
 70
     6
  9
$SURFU
 70
     6
  9
$SURFV
 70
     6
  9
$UCSBASE
  2

  9
$UCSNAME
  2

  9
$UCSORG
 10
0.0
 20
0.0
 30
0.0
  9
$UCSXDIR
 10
1.0
 20
0.0
 30
0.0
  9
$UCSYDIR
 10
0.0
 20
1.0
 30
0.0
  9
$UCSORTHOREF
  2

  9
$UCSORTHOVIEW
 70
     0
  9
$UCSORGTOP
 10
0.0
 20
0.0
 30
0.0
  9
$UCSORGBOTTOM
 10
0.0
 20
0.0
 30
0.0
  9
$UCSORGLEFT
 10
0.0
 20
0.0
 30
0.0
  9
$UCSORGRIGHT
 10
0.0
 20
0.0
 30
0.0
  9
$UCSORGFRONT
 10
0.0
 20
0.0
 30
0.0
  9
$UCSORGBACK
 10
0.0
 20
0.0
 30
0.0
  9
$PUCSBASE
  2

  9
$PUCSNAME
  2

  9
$PUCSORG
 10
0.0
 20
0.0
 30
0.0
  9
$PUCSXDIR
 10
1.0
 20
0.0
 30
0.0
  9
$PUCSYDIR
 10
0.0
 20
1.0
 30
0.0
  9
$PUCSORTHOREF
  2

  9
$PUCSORTHOVIEW
 70
     0
  9
$PUCSORGTOP
 10
0.0
 20
0.0
 30
0.0
  9
$PUCSORGBOTTOM
 10
0.0
 20
0.0
 30
0.0
  9
$PUCSORGLEFT
 10
0.0
 20
0.0
 30
0.0
  9
$PUCSORGRIGHT
 10
0.0
 20
0.0
 30
0.0
  9
$PUCSORGFRONT
 10
0.0
 20
0.0
 30
0.0
  9
$PUCSORGBACK
 10
0.0
 20
0.0
 30
0.0
  9
$USERI1
 70
     0
  9
$USERI2
 70
     0
  9
$USERI3
 70
     0
  9
$USERI4
 70
     0
  9
$USERI5
 70
     0
  9
$USERR1
 40
0.0
  9
$USERR2
 40
0.0
  9
$USERR3
 40
0.0
  9
$USERR4
 40
0.0
  9
$USERR5
 40
0.0
  9
$WORLDVIEW
 70
     1
  9
$SHADEDGE
 70
     3
  9
$SHADEDIF
 70
    70
  9
$TILEMODE
 70
     1
  9
$MAXACTVP
 70
    64
  9
$PINSBASE
 10
0.0
 20
0.0
 30
0.0
  9
$PLIMCHECK
 70
     0
  9
$PEXTMIN
 10
0.0
 20
0.0
 30
0.0
  9
$PEXTMAX
 10
0.0
 20
0.0
 30
0.0
  9
$PLIMMIN
 10
0.0
 20
0.0
  9
$PLIMMAX
 10
12.0
 20
9.0
  9
$UNITMODE
 70
     0
  9
$VISRETAIN
 70
     0
  9
$PLINEGEN
 70
     0
  9
$PSLTSCALE
 70
     1
  9
$TREEDEPTH
 70
  3020
  9
$CMLSTYLE
  2
Standard
  9
$CMLJUST
 70
     0
  9
$CMLSCALE
 40
20.0
  9
$PROXYGRAPHICS
 70
     0
  9
$MEASUREMENT
 70
     1
  9
$CELWEIGHT
370
    -1
  9
$ENDCAPS
280
     0
  9
$JOINSTYLE
280
     0
  9
$LWDISPLAY
290
     0
  9
$INSUNITS
 70
     4
  9
$HYPERLINKBASE
  1

  9
$STYLESHEET
  1

  9
$XEDIT
290
     1
  9
$CEPSNTYPE
380
     0
  9
$PSTYLEMODE
290
     1
  9
$FINGERPRINTGUID
  2
{FFB8C8EB-D02A-4238-A6B1-145454AF2DD3}
  9
$VERSIONGUID
  2
{836108FB-8300-46FF-8A03-D68D5E00F8A0}
  9
$EXTNAMES
290
     1
  9
$PSVPSCALE
 40
0.0
  9
$OLESTARTUP
290
     0
  9
$SORTENTS
280
   127
  9
$INDEXCTL
280
     0
  9
$HIDETEXT
280
     1
  9
$XCLIPFRAME
290
     1
  9
$HALOGAP
280
     0
  9
$OBSCOLOR
 70
   257
  9
$OBSLTYPE
280
     0
  9
$INTERSECTIONDISPLAY
280
     0
  9
$INTERSECTIONCOLOR
 70
   257
  9
$DIMASSOC
280
     2
  9
$PROJECTNAME
  1

  9
$CAMERADISPLAY
290
     0
  9
$LENSLENGTH
 40
50.0
  9
$CAMERAHEIGHT
 40
0.0
  9
$STEPSPERSEC
 40
2.0
  9
$STEPSIZE
 40
6.0
  9
$3DDWFPREC
 40
2.0
  9
$PSOLWIDTH
 40
0.25
  9
$PSOLHEIGHT
 40
4.0
  9
$LOFTANG1
 40
1.570796326794897
  9
$LOFTANG2
 40
1.570796326794897
  9
$LOFTMAG1
 40
1.0
  9
$LOFTMAG2
 40
1.0
  9
$LOFTPARAM
 70
     7
  9
$LOFTNORMALS
280
     1
  9
$LATITUDE
 40
37.795
  9
$LONGITUDE
 40
-122.394
  9
$NORTHDIRECTION
 40
0.0
  9
$TIMEZONE
 70
 -8000
  9
$LIGHTGLYPHDISPLAY
280
     1
  9
$TILEMODELIGHTSYNCH
280
     1
  9
$SOLIDHIST
280
     1
  9
$SHOWHIST
280
     1
  9
$DWFFRAME
280
     0
  9
$DGNFRAME
280
     2
  9
$REALWORLDSCALE
290
     1
  9
$INTERFERECOLOR
 62
   256
  9
$CSHADOW
280
     0
  9
$SHADOWPLANELOCATION
 40
0.0
  0
ENDSEC
  0
SECTION
  2
CLASSES
  0
CLASS
  1
ACDBDICTIONARYWDFLT
  2
AcDbDictionaryWithDefault
  3
ObjectDBX Classes
 90
        0
 91
        4
280
     0
281
     0
  0
CLASS
  1
ACDBPLACEHOLDER
  2
AcDbPlaceHolder
  3
ObjectDBX Classes
 90
        0
 91
        1
280
     0
281
     0
  0
CLASS
  1
LAYOUT
  2
AcDbLayout
  3
ObjectDBX Classes
 90
        0
 91
        1
280
     0
281
     0
  0
CLASS
  1
DICTIONARYVAR
  2
AcDbDictionaryVar
  3
ObjectDBX Classes
 90
        0
 91
        4
280
     0
281
     0
  0
CLASS
  1
TABLESTYLE
  2
AcDbTableStyle
  3
ObjectDBX Classes
 90
     4095
 91
        4
280
     0
281
     0
  0
CLASS
  1
SCALE
  2
AcDbScale
  3
ObjectDBX Classes
 90
     1153
 91
        4
280
     0
281
     0
  0
CLASS
  1
WIPEOUTVARIABLES
  2
AcDbWipeoutVariables
  3
WipeOut|AutoCAD Express Tool|expresstools@autodesk.com
 90
        0
 91
        4
280
     0
281
     0
  0
CLASS
  1
SORTENTSTABLE
  2
AcDbSortentsTable
  3
ObjectDBX Classes
 90
        0
 91
        4
280
     0
281
     0
  0
ENDSEC
  0
SECTION
  2
TABLES
  0
TABLE
  2
VPORT
  5
8
330
0
100
AcDbSymbolTable
 70
     2
  0
VPORT
  5
97
330
8
100
AcDbSymbolTableRecord
100
AcDbViewportTableRecord
  2
*Active
 70
     0
 10
0.0
 20
0.0
 11
1.0
 21
1.0
 12
334.699484607056
 22
-154.1381243799555
 13
0.0
 23
0.0
 14
5.0
 24
5.0
 15
5.0
 25
5.0
 16
0.0
 26
0.0
 36
4.675706334103843
 17
-324.9460126589921
 27
155.2456448271427
 37
0.0
 40
76.45795626150658
 41
0.9208173690932311
 42
50.0
 43
0.0
 44
0.0
 50
0.0
 51
0.0
 71
     0
 72
  2000
 73
     1
 74
     3
 75
     0
 76
     0
 77
     0
 78
     0
281
     0
 65
     1
110
0.0
120
0.0
130
0.0
111
1.0
121
0.0
131
0.0
112
0.0
122
1.0
132
0.0
 79
     0
146
0.0
 60
     0
 61
     5
292
     1
282
     1
141
0.0
142
0.0
 63
   256
  0
ENDTAB
  0
TABLE
  2
LTYPE
  5
5
330
0
100
AcDbSymbolTable
 70
     3
  0
LTYPE
  5
14
330
5
100
AcDbSymbolTableRecord
100
AcDbLinetypeTableRecord
  2
ByBlock
 70
     0
  3

 72
    65
 73
     0
 40
0.0
  0
LTYPE
  5
15
330
5
100
AcDbSymbolTableRecord
100
AcDbLinetypeTableRecord
  2
ByLayer
 70
     0
  3

 72
    65
 73
     0
 40
0.0
  0
LTYPE
  5
16
330
5
100
AcDbSymbolTableRecord
100
AcDbLinetypeTableRecord
  2
Continuous
 70
     0
  3
Solid line
 72
    65
 73
     0
 40
0.0
  0
LTYPE
  5
12897
330
5
100
AcDbSymbolTableRecord
100
AcDbLinetypeTableRecord
  2
CENTER2
 70
     0
  3
Center (.5x) ___ _ ___ _ ___ _ ___ _ ___ _ ___
 72
    65
 73
     4
 40
28.57499999999999
 49
19.05
 74
     4
 75
     0
340
0
 46
1.0
 50
0.0
 44
0.0
 45
0.0
 49
-3.174999999999998
 74
     4
 75
     0
340
0
 46
1.0
 50
0.0
 44
0.0
 45
0.0
 49
3.174999999999998
 74
     4
 75
     0
340
0
 46
1.0
 50
0.0
 44
0.0
 45
0.0
 49
-3.174999999999998
 74
     4
 75
     0
340
0
 46
1.0
 50
0.0
 44
0.0
 45
0.0
  0
LTYPE
  5
12898
330
5
100
AcDbSymbolTableRecord
100
AcDbLinetypeTableRecord
  2
DASHED
 70
     0
  3
__ __ __ __ __ __ __ __ __ __ __ __ __ __ __ __
 72
    65
 73
     2
 40
15.0
 49
12.0
 74
     4
 75
     0
340
0
 46
1.0
 50
0.0
 44
0.0
 45
0.0
 49
-3.0
 74
     4
 75
     0
340
0
 46
1.0
 50
0.0
 44
0.0
 45
0.0
  0
ENDTAB
  0
TABLE
  2
LAYER
  5
2
102
{ACAD_XDICTIONARY
360
1289F
102
}
330
0
100
AcDbSymbolTable
 70
    14
  0
LAYER
  5
10
102
{ACAD_XDICTIONARY
360
12899
102
}
330
2
100
AcDbSymbolTableRecord
100
AcDbLayerTableRecord
  2
0
 70
     0
 62
     7
  6
Continuous
370
    -3
390
F
347
0
  0
LAYER
  5
23
102
{ACAD_XDICTIONARY
360
1289A
102
}
330
2
100
AcDbSymbolTableRecord
100
AcDbLayerTableRecord
  2
1
 70
     0
 62
     4
  6
Continuous
370
    50
390
F
347
0
  0
LAYER
  5
25
102
{ACAD_XDICTIONARY
360
1289B
102
}
330
2
100
AcDbSymbolTableRecord
100
AcDbLayerTableRecord
  2
2
 70
     0
 62
     7
  6
Continuous
370
    25
390
F
347
0
  0
LAYER
  5
2E
102
{ACAD_XDICTIONARY
360
1289C
102
}
330
2
100
AcDbSymbolTableRecord
100
AcDbLayerTableRecord
  2
SK6
 70
     0
 62
     5
  6
Continuous
370
    -3
390
F
347
0
  0
LAYER
  5
49B
102
{ACAD_XDICTIONARY
360
1289D
102
}
330
2
100
AcDbSymbolTableRecord
100
AcDbLayerTableRecord
  2
INFTOTAL
 70
     0
 62
     9
  6
Continuous
370
    18
390
F
347
0
1001
AcAecLayerStandard
1000

1000

  0
LAYER
  5
5F84
330
2
100
AcDbSymbolTableRecord
100
AcDbLayerTableRecord
  2
DEFPOINTS
 70
     0
 62
     7
  6
Continuous
290
     0
370
    25
390
F
347
0
  0
LAYER
  5
E5AF
330
2
100
AcDbSymbolTableRecord
100
AcDbLayerTableRecord
  2
4
 70
     0
 62
     2
  6
CENTER2
370
    25
390
F
347
0
1001
AcAecLayerStandard
1000

1000

  0
LAYER
  5
10476
330
2
100
AcDbSymbolTableRecord
100
AcDbLayerTableRecord
  2
INSERT
 70
     0
 62
     4
  6
Continuous
370
    50
390
F
347
0
1001
AcAecLayerStandard
1000

1000

  0
LAYER
  5
10477
330
2
100
AcDbSymbolTableRecord
100
AcDbLayerTableRecord
  2
SK2
 70
     0
 62
     7
  6
Continuous
370
    25
390
F
347
0
1001
AcAecLayerStandard
1000

1000

  0
LAYER
  5
10478
330
2
100
AcDbSymbolTableRecord
100
AcDbLayerTableRecord
  2
SK1
 70
     0
 62
     4
  6
Continuous
370
    50
390
F
347
0
1001
AcAecLayerStandard
1000

1000

  0
LAYER
  5
10479
330
2
100
AcDbSymbolTableRecord
100
AcDbLayerTableRecord
  2
SK4
 70
     0
 62
     2
  6
CENTER2
370
    25
390
F
347
0
1001
AcAecLayerStandard
1000

1000

  0
LAYER
  5
1047A
330
2
100
AcDbSymbolTableRecord
100
AcDbLayerTableRecord
  2
NOCUT
 70
     0
 62
     7
  6
Continuous
370
    25
390
F
347
0
1001
AcAecLayerStandard
1000

1000

  0
LAYER
  5
1047B
330
2
100
AcDbSymbolTableRecord
100
AcDbLayerTableRecord
  2
CUT
 70
     0
 62
     1
  6
Continuous
370
    25
390
F
347
0
  0
LAYER
  5
1069D
330
2
100
AcDbSymbolTableRecord
100
AcDbLayerTableRecord
  2
SK3
 70
     0
 62
     1
  6
DASHED
370
    35
390
F
347
0
1001
AcAecLayerStandard
1000

1000

  0
ENDTAB
  0
TABLE
  2
STYLE
  5
3
330
0
100
AcDbSymbolTable
 70
     1
  0
STYLE
  5
11
330
3
100
AcDbSymbolTableRecord
100
AcDbTextStyleTableRecord
  2
Standard
 70
     0
 40
0.0
 41
1.0
 50
0.0
 71
     0
 42
5.0
  3
monos.ttf
  4

1001
ACAD
1000
Monospac821 BT
1071
       49
  0
ENDTAB
  0
TABLE
  2
VIEW
  5
6
330
0
100
AcDbSymbolTable
 70
     0
  0
ENDTAB
  0
TABLE
  2
UCS
  5
7
330
0
100
AcDbSymbolTable
 70
     0
  0
ENDTAB
  0
TABLE
  2
APPID
  5
9
330
0
100
AcDbSymbolTable
 70
    20
  0
APPID
  5
12
330
9
100
AcDbSymbolTableRecord
100
AcDbRegAppTableRecord
  2
ACAD
 70
     0
  0
APPID
  5
12884
330
9
100
AcDbSymbolTableRecord
100
AcDbRegAppTableRecord
  2
ACAD_PSEXT
 70
     0
  0
APPID
  5
12885
330
9
100
AcDbSymbolTableRecord
100
AcDbRegAppTableRecord
  2
ACAD_EXEMPT_FROM_CAD_STANDARDS
 70
     0
  0
APPID
  5
12886
330
9
100
AcDbSymbolTableRecord
100
AcDbRegAppTableRecord
  2
ACAD_MLEADERVER
 70
     0
  0
APPID
  5
12887
330
9
100
AcDbSymbolTableRecord
100
AcDbRegAppTableRecord
  2
ACAD_DSTYLE_DIMJAG
 70
     0
  0
APPID
  5
12888
330
9
100
AcDbSymbolTableRecord
100
AcDbRegAppTableRecord
  2
ACAD_DSTYLE_DIMBREAK
 70
     0
  0
APPID
  5
12889
330
9
100
AcDbSymbolTableRecord
100
AcDbRegAppTableRecord
  2
ACAD_DSTYLE_DIMTALN
 70
     0
  0
APPID
  5
1288A
330
9
100
AcDbSymbolTableRecord
100
AcDbRegAppTableRecord
  2
AcAecLayerStandard
 70
     0
  0
APPID
  5
1288B
330
9
100
AcDbSymbolTableRecord
100
AcDbRegAppTableRecord
  2
DCO15
 70
     0
  0
APPID
  5
1288C
330
9
100
AcDbSymbolTableRecord
100
AcDbRegAppTableRecord
  2
AcadAnnoPO
 70
     0
  0
APPID
  5
1288D
330
9
100
AcDbSymbolTableRecord
100
AcDbRegAppTableRecord
  2
ACAD_DSTYLE_DIMRADIAL_EXTENSION
 70
     0
  0
APPID
  5
1288E
330
9
100
AcDbSymbolTableRecord
100
AcDbRegAppTableRecord
  2
ACAD_DSTYLE_DIMTEXT_FILL
 70
     0
  0
APPID
  5
1288F
330
9
100
AcDbSymbolTableRecord
100
AcDbRegAppTableRecord
  2
ACAD_DSTYLE_DIMEXT_LENGTH
 70
     0
  0
APPID
  5
12890
330
9
100
AcDbSymbolTableRecord
100
AcDbRegAppTableRecord
  2
ACAD_DSTYLE_DIMEXT_ENABLED
 70
     0
  0
APPID
  5
12891
330
9
100
AcDbSymbolTableRecord
100
AcDbRegAppTableRecord
  2
ACAD_DSTYLE_DIM_LINETYPE
 70
     0
  0
APPID
  5
12892
330
9
100
AcDbSymbolTableRecord
100
AcDbRegAppTableRecord
  2
ACAD_DSTYLE_DIM_EXT1_LINETYPE
 70
     0
  0
APPID
  5
12893
330
9
100
AcDbSymbolTableRecord
100
AcDbRegAppTableRecord
  2
ACAD_DSTYLE_DIM_EXT2_LINETYPE
 70
     0
  0
APPID
  5
12894
330
9
100
AcDbSymbolTableRecord
100
AcDbRegAppTableRecord
  2
ACAD_DSTYLE_DIMJOGGED_JOGANGLE_SYMBOL
 70
     0
  0
APPID
  5
12895
330
9
100
AcDbSymbolTableRecord
100
AcDbRegAppTableRecord
  2
ACAD_DSTYLE_DIMARC_LENGTH_SYMBOL
 70
     0
  0
APPID
  5
12896
330
9
100
AcDbSymbolTableRecord
100
AcDbRegAppTableRecord
  2
AcLayerTools
 70
     0
  0
ENDTAB
  0
TABLE
  2
DIMSTYLE
  5
A
330
0
100
AcDbSymbolTable
 70
     1
100
AcDbDimStyleTable
  0
DIMSTYLE
105
27
102
{ACAD_REACTORS
330
120C9
330
12753
330
1277B
330
127A5
330
127CD
102
}
330
A
100
AcDbSymbolTableRecord
100
AcDbDimStyleTableRecord
  2
Standard
 70
     0
 41
2.5
 42
0.0
 43
3.75
 44
1.25
 73
     0
 74
     0
 77
     1
 78
     8
 79
     2
140
3.5
141
0.0
143
0.039370078
147
0.625
171
     3
172
     1
179
     2
271
     2
272
     2
274
     3
283
     0
284
     8
340
11
1001
ACAD_DSTYLE_DIMJAG
1070
   388
1040
1.5
1001
ACAD_DSTYLE_DIMTALN
1070
   392
1070
     0
  0
ENDTAB
  0
TABLE
  2
BLOCK_RECORD
  5
1
330
0
100
AcDbSymbolTable
 70
     5
  0
BLOCK_RECORD
  5
1F
102
{ACAD_XDICTIONARY
360
128AA
102
}
330
1
100
AcDbSymbolTableRecord
100
AcDbBlockTableRecord
  2
*Model_Space
340
22
 70
     0
280
     1
281
     0
  0
BLOCK_RECORD
  5
73
330
1
100
AcDbSymbolTableRecord
100
AcDbBlockTableRecord
  2
*Paper_Space
340
74
 70
     0
280
     1
281
     0
  0
BLOCK_RECORD
  5
120D3
330
1
100
AcDbSymbolTableRecord
100
AcDbBlockTableRecord
  2
*D0
340
0
 70
     0
280
     1
281
     0
  0
BLOCK_RECORD
  5
1275E
330
1
100
AcDbSymbolTableRecord
100
AcDbBlockTableRecord
  2
*D1
340
0
 70
     0
280
     1
281
     0
  0
BLOCK_RECORD
  5
12786
330
1
100
AcDbSymbolTableRecord
100
AcDbBlockTableRecord
  2
*D2
340
0
 70
     0
280
     1
281
     0
  0
BLOCK_RECORD
  5
127B0
330
1
100
AcDbSymbolTableRecord
100
AcDbBlockTableRecord
  2
*D3
340
0
 70
     0
280
     1
281
     0
  0
BLOCK_RECORD
  5
127D8
330
1
100
AcDbSymbolTableRecord
100
AcDbBlockTableRecord
  2
*D4
340
0
 70
     0
280
     1
281
     0
  0
ENDTAB
  0
ENDSEC
  0
SECTION
  2
BLOCKS
  0
BLOCK
  5
20
330
1F
100
AcDbEntity
  8
0
100
AcDbBlockBegin
  2
*Model_Space
 70
     0
 10
0.0
 20
0.0
 30
0.0
  3
*Model_Space
  1

  0
ENDBLK
  5
21
330
1F
100
AcDbEntity
  8
0
100
AcDbBlockEnd
  0
BLOCK
  5
75
330
73
100
AcDbEntity
 67
     1
  8
0
100
AcDbBlockBegin
  2
*Paper_Space
 70
     0
 10
0.0
 20
0.0
 30
0.0
  3
*Paper_Space
  1

  0
ENDBLK
  5
76
330
73
100
AcDbEntity
 67
     1
  8
0
100
AcDbBlockEnd
  0
BLOCK
  5
128A0
102
{ACAD_REACTORS
330
120C9
102
}
330
120D3
100
AcDbEntity
  8
0
100
AcDbBlockBegin
  2
*D0
 70
     1
 10
0.0
 20
0.0
 30
0.0
  3
*D0
  1

  0
POINT
  5
12724
330
120D3
100
AcDbEntity
  8
DEFPOINTS
  6
ByBlock
 62
     0
100
AcDbPoint
 10
26.80085951954817
 20
16.0
 30
0.0
  0
POINT
  5
12725
330
120D3
100
AcDbEntity
  8
DEFPOINTS
  6
ByBlock
 62
     0
100
AcDbPoint
 10
27.0
 20
-16.0
 30
0.0
  0
LINE
  5
12726
330
120D3
100
AcDbEntity
  8
2
  6
ByBlock
 62
     0
370
    -2
100
AcDbLine
 10
26.80085951954817
 20
16.0
 30
0.0
 11
54.93938194365444
 21
16.0
 31
0.0
  0
LINE
  5
12727
330
120D3
100
AcDbEntity
  8
2
  6
ByBlock
 62
     0
370
    -2
100
AcDbLine
 10
53.68938194365444
 20
16.0
 30
0.0
 11
53.68938194365444
 21
-5.003074490513001
 31
0.0
  0
SOLID
  5
12728
330
120D3
100
AcDbEntity
  8
2
  6
ByBlock
 62
     0
100
AcDbTrace
 10
53.68938194365444
 20
16.0
 30
0.0
 11
53.27271527698769
 21
13.5
 31
0.0
 12
54.10604861032119
 22
13.5
 32
0.0
 13
54.10604861032119
 23
13.5
 33
0.0
  0
LINE
  5
12729
330
120D3
100
AcDbEntity
  8
2
  6
ByBlock
 62
     0
370
    -2
100
AcDbLine
 10
26.80085951954817
 20
16.0
 30
0.0
 11
26.80085951954817
 21
16.0
 31
0.0
  0
MTEXT
  5
1272A
330
120D3
100
AcDbEntity
  8
2
  6
ByBlock
 62
     0
100
AcDbMText
 10
51.1434402711316
 20
0.0
 30
0.0
 40
3.5
 41
0.0
 46
0.0
 71
     5
 72
     1
  1
%%C32
 11
6.123031769111886E-17
 21
1.0
 31
0.0
 73
     1
 44
1.0
  0
ENDBLK
  5
128A1
330
120D3
100
AcDbEntity
  8
0
100
AcDbBlockEnd
  0
BLOCK
  5
128A2
330
1275E
100
AcDbEntity
  8
0
100
AcDbBlockBegin
  2
*D1
 70
     1
 10
0.0
 20
0.0
 30
0.0
  3
*D1
  1

  0
POINT
  5
12879
330
1275E
100
AcDbEntity
  8
DEFPOINTS
  6
ByBlock
 62
     0
100
AcDbPoint
 10
43.0
 20
0.0
 30
0.0
  0
POINT
  5
1287A
330
1275E
100
AcDbEntity
  8
DEFPOINTS
  6
ByBlock
 62
     0
100
AcDbPoint
 10
21.60000000000001
 20
15.99999999999977
 30
0.0
  0
LINE
  5
1287B
330
1275E
100
AcDbEntity
  8
2
  6
ByBlock
 62
     0
370
    -2
100
AcDbLine
 10
43.0
 20
0.0
 30
0.0
 11
43.0
 21
25.40072152980957
 31
0.0
  0
LINE
  5
1287C
330
1275E
100
AcDbEntity
  8
2
  6
ByBlock
 62
     0
370
    -2
100
AcDbLine
 10
21.60000000000001
 20
15.99999999999977
 30
0.0
 11
21.60000000000001
 21
25.40072152980957
 31
0.0
  0
LINE
  5
1287D
330
1275E
100
AcDbEntity
  8
2
  6
ByBlock
 62
     0
370
    -2
100
AcDbLine
 10
43.0
 20
24.15072152980957
 30
0.0
 11
21.60000000000001
 21
24.15072152980957
 31
0.0
  0
SOLID
  5
1287E
330
1275E
100
AcDbEntity
  8
2
  6
ByBlock
 62
     0
100
AcDbTrace
 10
43.0
 20
24.15072152980957
 30
0.0
 11
40.5
 21
24.56738819647632
 31
0.0
 12
40.5
 22
23.73405486314282
 32
0.0
 13
40.5
 23
23.73405486314282
 33
0.0
  0
LINE
  5
1287F
330
1275E
100
AcDbEntity
  8
2
  6
ByBlock
 62
     0
370
    -2
100
AcDbLine
 10
43.0
 20
24.15072152980957
 30
0.0
 11
69.54162254914408
 21
24.15072152980957
 31
0.0
  0
SOLID
  5
12880
330
1275E
100
AcDbEntity
  8
2
  6
ByBlock
 62
     0
100
AcDbTrace
 10
21.60000000000001
 20
24.15072152980957
 30
0.0
 11
24.10000000000001
 21
24.56738819647632
 31
0.0
 12
24.10000000000001
 22
23.73405486314282
 32
0.0
 13
24.10000000000001
 23
23.73405486314282
 33
0.0
  0
LINE
  5
12881
330
1275E
100
AcDbEntity
  8
2
  6
ByBlock
 62
     0
370
    -2
100
AcDbLine
 10
43.0
 20
0.0
 30
0.0
 11
43.0
 21
0.0
 31
0.0
  0
MTEXT
  5
12882
330
1275E
100
AcDbEntity
  8
2
  6
ByBlock
 62
     0
100
AcDbMText
 10
58.44613765806889
 20
27.0717510449185
 30
0.0
 40
3.5
 41
0.0
 46
0.0
 71
     5
 72
     1
  1
ap=21.4
 73
     1
 44
1.0
  0
ENDBLK
  5
128A3
330
1275E
100
AcDbEntity
  8
0
100
AcDbBlockEnd
  0
BLOCK
  5
128A4
330
12786
100
AcDbEntity
  8
0
100
AcDbBlockBegin
  2
*D2
 70
     1
 10
0.0
 20
0.0
 30
0.0
  3
*D2
  1

  0
POINT
  5
12866
330
12786
100
AcDbEntity
  8
DEFPOINTS
  6
ByBlock
 62
     0
100
AcDbPoint
 10
43.0
 20
0.0
 30
0.0
  0
POINT
  5
12867
330
12786
100
AcDbEntity
  8
DEFPOINTS
  6
ByBlock
 62
     0
100
AcDbPoint
 10
0.0
 20
14.3
 30
0.0
  0
LINE
  5
12868
330
12786
100
AcDbEntity
  8
2
  6
ByBlock
 62
     0
370
    -2
100
AcDbLine
 10
43.0
 20
0.0
 30
0.0
 11
43.0
 21
32.82152005660767
 31
0.0
  0
LINE
  5
12869
330
12786
100
AcDbEntity
  8
2
  6
ByBlock
 62
     0
370
    -2
100
AcDbLine
 10
0.0
 20
14.3
 30
0.0
 11
0.0
 21
32.82152005660767
 31
0.0
  0
LINE
  5
1286A
330
12786
100
AcDbEntity
  8
2
  6
ByBlock
 62
     0
370
    -2
100
AcDbLine
 10
43.0
 20
31.57152005660767
 30
0.0
 11
0.0
 21
31.57152005660767
 31
0.0
  0
SOLID
  5
1286B
330
12786
100
AcDbEntity
  8
2
  6
ByBlock
 62
     0
100
AcDbTrace
 10
43.0
 20
31.57152005660767
 30
0.0
 11
40.5
 21
31.98818672327442
 31
0.0
 12
40.5
 22
31.15485338994092
 32
0.0
 13
40.5
 23
31.15485338994092
 33
0.0
  0
SOLID
  5
1286C
330
12786
100
AcDbEntity
  8
2
  6
ByBlock
 62
     0
100
AcDbTrace
 10
0.0
 20
31.57152005660767
 30
0.0
 11
2.5
 21
31.98818672327442
 31
0.0
 12
2.5
 22
31.15485338994092
 32
0.0
 13
2.5
 23
31.15485338994092
 33
0.0
  0
LINE
  5
1286D
330
12786
100
AcDbEntity
  8
2
  6
ByBlock
 62
     0
370
    -2
100
AcDbLine
 10
43.0
 20
0.0
 30
0.0
 11
43.0
 21
0.0
 31
0.0
  0
MTEXT
  5
1286E
330
12786
100
AcDbEntity
  8
2
  6
ByBlock
 62
     0
100
AcDbMText
 10
21.5
 20
34.01907803271448
 30
0.0
 40
3.5
 41
0.0
 46
0.0
 71
     5
 72
     1
  1
43
 73
     1
 44
1.0
  0
ENDBLK
  5
128A5
330
12786
100
AcDbEntity
  8
0
100
AcDbBlockEnd
  0
BLOCK
  5
128A6
330
127B0
100
AcDbEntity
  8
0
100
AcDbBlockBegin
  2
*D3
 70
     1
 10
0.0
 20
0.0
 30
0.0
  3
*D3
  1

  0
POINT
  5
12854
330
127B0
100
AcDbEntity
  8
DEFPOINTS
  6
ByBlock
 62
     0
100
AcDbPoint
 10
-25.0
 20
8.0
 30
0.0
  0
POINT
  5
12855
330
127B0
100
AcDbEntity
  8
DEFPOINTS
  6
ByBlock
 62
     0
100
AcDbPoint
 10
-25.0
 20
-8.0
 30
0.0
  0
LINE
  5
12856
330
127B0
100
AcDbEntity
  8
SK2
  6
ByBlock
 62
     0
370
    -2
100
AcDbLine
 10
-25.0
 20
8.0
 30
0.0
 11
-35.19366785139175
 21
8.0
 31
0.0
  0
LINE
  5
12857
330
127B0
100
AcDbEntity
  8
SK2
  6
ByBlock
 62
     0
370
    -2
100
AcDbLine
 10
-25.0
 20
-8.0
 30
0.0
 11
-35.19366785139175
 21
-8.0
 31
0.0
  0
LINE
  5
12858
330
127B0
100
AcDbEntity
  8
SK2
  6
ByBlock
 62
     0
370
    -2
100
AcDbLine
 10
-33.94366785139175
 20
8.0
 30
0.0
 11
-33.94366785139175
 21
-8.0
 31
0.0
  0
SOLID
  5
12859
330
127B0
100
AcDbEntity
  8
SK2
  6
ByBlock
 62
     0
100
AcDbTrace
 10
-33.94366785139175
 20
8.0
 30
0.0
 11
-34.3603345180585
 21
5.5
 31
0.0
 12
-33.527001184725
 22
5.5
 32
0.0
 13
-33.527001184725
 23
5.5
 33
0.0
  0
SOLID
  5
1285A
330
127B0
100
AcDbEntity
  8
SK2
  6
ByBlock
 62
     0
100
AcDbTrace
 10
-33.94366785139175
 20
-8.0
 30
0.0
 11
-34.3603345180585
 21
-5.5
 31
0.0
 12
-33.527001184725
 22
-5.5
 32
0.0
 13
-33.527001184725
 23
-5.5
 33
0.0
  0
LINE
  5
1285B
330
127B0
100
AcDbEntity
  8
SK2
  6
ByBlock
 62
     0
370
    -2
100
AcDbLine
 10
-25.0
 20
8.0
 30
0.0
 11
-25.0
 21
8.0
 31
0.0
  0
MTEXT
  5
1285C
330
127B0
100
AcDbEntity
  8
SK2
  6
ByBlock
 62
     0
100
AcDbMText
 10
-36.39122582749857
 20
0.0
 30
0.0
 40
3.5
 41
0.0
 46
0.0
 71
     5
 72
     1
  1
M16
 11
6.123031769111886E-17
 21
1.0
 31
0.0
 73
     1
 44
1.0
  0
ENDBLK
  5
128A7
330
127B0
100
AcDbEntity
  8
0
100
AcDbBlockEnd
  0
BLOCK
  5
128A8
330
127D8
100
AcDbEntity
  8
0
100
AcDbBlockBegin
  2
*D4
 70
     1
 10
0.0
 20
0.0
 30
0.0
  3
*D4
  1

  0
POINT
  5
12842
330
127D8
100
AcDbEntity
  8
DEFPOINTS
  6
ByBlock
 62
     0
100
AcDbPoint
 10
0.0
 20
14.3
 30
0.0
  0
POINT
  5
12843
330
127D8
100
AcDbEntity
  8
DEFPOINTS
  6
ByBlock
 62
     0
100
AcDbPoint
 10
0.0
 20
-14.3
 30
0.0
  0
LINE
  5
12844
330
127D8
100
AcDbEntity
  8
SK2
  6
ByBlock
 62
     0
370
    -2
100
AcDbLine
 10
0.0
 20
14.3
 30
0.0
 11
-45.86483079777327
 21
14.3
 31
0.0
  0
LINE
  5
12845
330
127D8
100
AcDbEntity
  8
SK2
  6
ByBlock
 62
     0
370
    -2
100
AcDbLine
 10
0.0
 20
-14.3
 30
0.0
 11
-45.86483079777327
 21
-14.3
 31
0.0
  0
LINE
  5
12846
330
127D8
100
AcDbEntity
  8
SK2
  6
ByBlock
 62
     0
370
    -2
100
AcDbLine
 10
-44.61483079777327
 20
14.3
 30
0.0
 11
-44.61483079777327
 21
-14.3
 31
0.0
  0
SOLID
  5
12847
330
127D8
100
AcDbEntity
  8
SK2
  6
ByBlock
 62
     0
100
AcDbTrace
 10
-44.61483079777327
 20
14.3
 30
0.0
 11
-45.03149746444002
 21
11.8
 31
0.0
 12
-44.19816413110652
 22
11.8
 32
0.0
 13
-44.19816413110652
 23
11.8
 33
0.0
  0
SOLID
  5
12848
330
127D8
100
AcDbEntity
  8
SK2
  6
ByBlock
 62
     0
100
AcDbTrace
 10
-44.61483079777327
 20
-14.3
 30
0.0
 11
-45.03149746444002
 21
-11.8
 31
0.0
 12
-44.19816413110652
 22
-11.8
 32
0.0
 13
-44.19816413110652
 23
-11.8
 33
0.0
  0
LINE
  5
12849
330
127D8
100
AcDbEntity
  8
SK2
  6
ByBlock
 62
     0
370
    -2
100
AcDbLine
 10
0.0
 20
14.3
 30
0.0
 11
0.0
 21
14.3
 31
0.0
  0
MTEXT
  5
1284A
330
127D8
100
AcDbEntity
  8
SK2
  6
ByBlock
 62
     0
100
AcDbMText
 10
-47.1607724702961
 20
0.0
 30
0.0
 40
3.5
 41
0.0
 46
0.0
 71
     5
 72
     1
  1
%%C29
 11
6.123031769111886E-17
 21
1.0
 31
0.0
 73
     1
 44
1.0
  0
ENDBLK
  5
128A9
330
127D8
100
AcDbEntity
  8
0
100
AcDbBlockEnd
  0
ENDSEC
  0
SECTION
  2
ENTITIES
  0
LINE
  5
F17
330
1F
100
AcDbEntity
  8
INFTOTAL
100
AcDbLine
 10
-52.21415849495828
 20
38.58691077145515
 30
0.0
 11
-2.214158494958326
 21
38.58691077145515
 31
0.0
  0
LINE
  5
F18
102
{ACAD_REACTORS
330
6D2D
102
}
330
1F
100
AcDbEntity
  8
INFTOTAL
100
AcDbLine
 10
71.72110239108605
 20
13.62813012291929
 30
0.0
 11
71.72110239108605
 21
-36.37186987708071
 31
0.0
  0
LINE
  5
F19
102
{ACAD_REACTORS
330
6D2D
102
}
330
1F
100
AcDbEntity
  8
INFTOTAL
100
AcDbLine
 10
71.72110239108605
 20
-36.37186987708071
 30
0.0
 11
21.72110239108594
 21
-36.37186987708071
 31
0.0
  0
LINE
  5
F1A
330
1F
100
AcDbEntity
  8
INFTOTAL
100
AcDbLine
 10
-52.21415849495828
 20
-11.4130892285449
 30
0.0
 11
-52.21415849495828
 21
38.58691077145515
 31
0.0
  0
MTEXT
  5
117BA
330
1F
100
AcDbEntity
  8
SK6
100
AcDbMText
 10
13.25306800349031
 20
-21.08199802357054
 30
0.0
 40
5.0
 41
100.4218
 46
0.0
 71
     2
 72
     5
  1
\P{\H0.7x;2F 32-21-M16}
 73
     1
 44
1.0
  0
DIMENSION
  5
120C9
330
1F
100
AcDbEntity
  8
2
100
AcDbDimension
  2
*D0
 10
53.68938194365444
 20
-16.0
 30
0.0
 11
53.68938194365444
 21
0.0
 31
0.0
 70
   160
  1
%%C<>
 71
     5
 41
0.0
 42
32.0
 73
     0
 74
     0
 75
     0
  3
Standard
100
AcDbAlignedDimension
 13
26.80085951954817
 23
16.0
 33
0.0
 14
27.0
 24
-16.0
 34
0.0
 50
90.0
100
AcDbRotatedDimension
1001
ACAD
1000
DSTYLE
1002
{
1070
    76
1070
     1
1070
   282
1070
     1
1002
}
  0
LINE
  5
124A5
330
1F
100
AcDbEntity
  8
4
390
F
100
AcDbLine
 10
44.66291783680202
 20
0.0
 30
0.0
 11
-0.0000000000000071
 21
0.0
 31
0.0
  0
LINE
  5
124A6
330
1F
100
AcDbEntity
  8
NOCUT
390
F
100
AcDbLine
 10
42.19999999999999
 20
0.0000002268927801
 30
0.0
 11
0.0
 21
0.0
 31
0.0
  0
LINE
  5
125DB
330
1F
100
AcDbEntity
  8
SK1
 48
0.104115
100
AcDbLine
 10
-25.0
 20
8.0
 30
0.0
 11
-25.0
 21
3.835403999999997
 31
0.0
  0
LINE
  5
125DC
330
1F
100
AcDbEntity
  8
SK1
 48
0.104115
100
AcDbLine
 10
-10.840717
 20
8.0
 30
0.0
 11
-10.840717
 21
3.835403999999997
 31
0.0
  0
LINE
  5
125DD
330
1F
100
AcDbEntity
  8
SK1
 48
0.295885
100
AcDbLine
 10
-10.840717
 20
3.835403999999997
 30
0.0
 11
-10.840717
 21
-8.0
 31
0.0
  0
LINE
  5
125DE
330
1F
100
AcDbEntity
  8
SK1
 48
0.295885
100
AcDbLine
 10
-25.0
 20
3.835403999999997
 30
0.0
 11
-25.0
 21
-8.0
 31
0.0
  0
LINE
  5
125DF
330
1F
100
AcDbEntity
  8
SK1
 48
0.314378
100
AcDbLine
 10
-5.414214000000001
 20
-8.5
 30
0.0
 11
-5.414214000000001
 21
4.075117000000006
 31
0.0
  0
LINE
  5
125E0
330
1F
100
AcDbEntity
  8
SK1
 48
0.110622
100
AcDbLine
 10
-5.414214000000001
 20
4.075117000000006
 30
0.0
 11
-5.414214000000001
 21
8.5
 31
0.0
  0
LINE
  5
125E1
330
1F
100
AcDbEntity
  8
1
100
AcDbLine
 10
0.0
 20
14.3
 30
0.0
 11
0.0
 21
-12.549431
 31
0.0
  0
LINE
  5
125E2
330
1F
100
AcDbEntity
  8
1
 48
0.043764
100
AcDbLine
 10
0.0
 20
-12.549431
 30
0.0
 11
0.0
 21
-14.3
 31
0.0
  0
LINE
  5
125E3
330
1F
100
AcDbEntity
  8
1
 48
0.060448
100
AcDbLine
 10
40.913
 20
1.196990999999997
 30
0.0
 11
40.913
 21
-1.220941999999994
 31
0.0
  0
SPLINE
  5
125E4
330
1F
100
AcDbEntity
  8
1
100
AcDbSpline
210
0.0
220
0.0
230
1.0
 70
     8
 71
     5
 72
    15
 73
     9
 74
     0
 42
0.0
 43
0.0
 40
0.0
 40
0.0
 40
0.0
 40
0.0
 40
0.0
 40
0.0
 40
10.37734828258539
 40
10.37734828258539
 40
10.37734828258539
 40
11.41041723735291
 40
11.41041723735291
 40
11.41041723735291
 40
11.41041723735291
 40
11.41041723735291
 40
11.41041723735291
 10
37.14206053281092
 20
4.764588082658079
 30
0.0
 10
37.96643053461722
 20
4.004586703754285
 30
0.0
 10
38.74921624265311
 20
3.290340315161444
 30
0.0
 10
39.46430972395396
 20
2.636017695516401
 30
0.0
 10
40.17031232991765
 20
1.967217702827284
 30
0.0
 10
40.75905114360229
 20
1.359149857760698
 30
0.0
 10
40.81137912037772
 20
1.30458993269626
 30
0.0
 10
40.86270057878635
 20
1.250537462842743
 30
0.0
 10
40.913
 20
1.196991260547875
 30
0.0
  0
ELLIPSE
  5
125E5
330
1F
100
AcDbEntity
  8
1
100
AcDbEllipse
 10
28.28643
 20
2.192870999999997
 30
0.0
 11
13.15363883972168
 21
-7.628806114196778
 31
0.0
210
0.0
220
0.0
230
1.0
 40
0.4829050000000001
 41
1.138525202412379
 42
1.714709819911856
  0
LINE
  5
125E6
330
1F
100
AcDbEntity
  8
1
100
AcDbLine
 10
30.045877
 20
9.573268999999996
 30
0.0
 11
30.045877
 21
-12.549431
 31
0.0
  0
SPLINE
  5
125E7
330
1F
100
AcDbEntity
  8
1
100
AcDbSpline
210
0.0
220
0.0
230
1.0
 70
     8
 71
     5
 72
    27
 73
    21
 74
     0
 42
0.0
 43
0.0
 40
10.72295927107939
 40
10.72295927107939
 40
10.72295927107939
 40
10.72295927107939
 40
10.72295927107939
 40
10.72295927107939
 40
13.91516794274985
 40
13.91516794274985
 40
13.91516794274985
 40
17.60585206473934
 40
17.60585206473934
 40
17.60585206473934
 40
21.16651272696058
 40
21.16651272696058
 40
21.16651272696058
 40
24.97646258846211
 40
24.97646258846211
 40
24.97646258846211
 40
29.23119904091783
 40
29.23119904091783
 40
29.23119904091783
 40
34.78495523743765
 40
34.78495523743765
 40
34.78495523743765
 40
34.78495523743765
 40
34.78495523743765
 40
34.78495523743765
 10
40.26823601164257
 20
-0.7772939235046294
 30
0.0
 10
40.24478977236795
 20
-1.126318088380884
 30
0.0
 10
40.2080060486515
 20
-1.477646902706709
 30
0.0
 10
40.15737939079888
 20
-1.832852496707147
 30
0.0
 10
40.016185326544
 20
-2.60924682979234
 30
0.0
 10
39.80035566780572
 20
-3.409799074613019
 30
0.0
 10
39.66148017003427
 20
-3.845937831523543
 30
0.0
 10
39.33924591568051
 20
-4.713602750887816
 30
0.0
 10
38.91924159155546
 20
-5.587073676474532
 30
0.0
 10
38.68919032134907
 20
-6.014023606121739
 30
0.0
 10
38.16517311901572
 20
-6.886148436275008
 30
0.0
 10
37.54806426668127
 20
-7.720758768884345
 30
0.0
 10
37.20558580246795
 20
-8.13868293972196
 30
0.0
 10
36.43596265867035
 20
-8.988256839003967
 30
0.0
 10
35.57889032634348
 20
-9.756641794768598
 30
0.0
 10
35.10477820963472
 20
-10.13699763257205
 30
0.0
 10
33.96721437552675
 20
-10.95220457663701
 30
0.0
 10
32.73816226959333
 20
-11.61955173200011
 30
0.0
 10
32.01784856389068
 20
-11.94744567045725
 30
0.0
 10
31.27801992706947
 20
-12.22372575604312
 30
0.0
 10
30.52337729977368
 20
-12.44731650764464
 30
0.0
  0
LINE
  5
125E8
330
1F
100
AcDbEntity
  8
1
 48
0.000758
100
AcDbLine
 10
30.045877
 20
-12.549431
 30
0.0
 11
30.045877
 21
-12.579746
 31
0.0
  0
ARC
  5
125E9
330
1F
100
AcDbEntity
  8
1
100
AcDbCircle
 10
26.502549
 20
1.123524000000003
 30
0.0
 40
14.153967
100
AcDbArc
 50
284.497734
 51
286.503734
  0
LINE
  5
125EA
330
1F
100
AcDbEntity
  8
1
 48
0.000203
100
AcDbLine
 10
42.14072
 20
-1.24006
 30
0.0
 11
42.139942
 21
-1.248154999999997
 31
0.0
  0
ARC
  5
125EB
330
1F
100
AcDbEntity
  8
1
100
AcDbCircle
 10
40.436258
 20
-1.076851000000005
 30
0.0
 40
1.71226
100
AcDbArc
 50
354.5303130000001
 51
1.812914000000214
  0
ARC
  5
125EC
330
1F
100
AcDbEntity
  8
1
100
AcDbCircle
 10
40.801642
 20
-2.944042999999994
 30
0.0
 40
1.034464
100
AcDbArc
 50
356.7527889999999
 51
10.94741399999988
  0
SPLINE
  5
125ED
330
1F
100
AcDbEntity
  8
1
100
AcDbSpline
210
0.0
220
0.0
230
1.0
 70
     8
 71
     5
 72
    21
 73
    15
 74
     0
 42
0.0
 43
0.0
 40
0.0
 40
0.0
 40
0.0
 40
0.0
 40
0.0
 40
0.0
 40
8.014837660897415
 40
8.014837660897415
 40
8.014837660897415
 40
13.95238606527857
 40
13.95238606527857
 40
13.95238606527857
 40
18.02423343921578
 40
18.02423343921578
 40
18.02423343921578
 40
20.1578939263445
 40
20.1578939263445
 40
20.1578939263445
 40
20.1578939263445
 40
20.1578939263445
 40
20.1578939263445
 10
42.14766321068063
 20
-1.022682087971731
 30
0.0
 10
42.14601579033273
 20
-0.9702623112179367
 30
0.0
 10
42.14231635270353
 20
-0.9156813677322901
 30
0.0
 10
42.13598724218578
 20
-0.8574469669902243
 30
0.0
 10
42.12042667700975
 20
-0.737921764899383
 30
0.0
 10
42.07168005353424
 20
-0.5459379501240278
 30
0.0
 10
42.04093782268536
 20
-0.4419422382472504
 30
0.0
 10
41.95429357703688
 20
-0.2069190041704019
 30
0.0
 10
41.7533655631013
 20
0.1492543857381463
 30
0.0
 10
41.64750860748498
 20
0.3138665602266713
 30
0.0
 10
41.45001499775019
 20
0.5843805167178999
 30
0.0
 10
41.20208955009034
 20
0.8789445524693349
 30
0.0
 10
41.11106401745
 20
0.9827606945944183
 30
0.0
 10
41.0146478999399
 20
1.088782082753696
 30
0.0
 10
40.913
 20
1.196991260547392
 30
0.0
  0
ELLIPSE
  5
125EE
330
1F
100
AcDbEntity
  8
1
100
AcDbEllipse
 10
29.474174
 20
0.8157620000000065
 30
0.0
 11
12.31955051422119
 21
-4.032450199127197
 31
0.0
210
0.0
220
0.0
230
0.9999999999999998
 40
0.253908
 41
0.1381310621908082
 42
0.4227364852494457
  0
LINE
  5
125EF
330
1F
100
AcDbEntity
  8
1
 48
0.084323
100
AcDbLine
 10
24.514914
 20
14.3
 30
0.0
 11
25.59469299999999
 21
11.10457700000001
 31
0.0
  0
LINE
  5
125F0
330
1F
100
AcDbEntity
  8
1
 48
0.362602
100
AcDbLine
 10
10.01081600000001
 20
14.3
 30
0.0
 11
24.514914
 21
14.3
 31
0.0
  0
ARC
  5
125F1
330
1F
100
AcDbEntity
  8
1
100
AcDbCircle
 10
22.43277399999999
 20
12.032501
 30
0.0
 40
0.2232069999999973
100
AcDbArc
 50
110.0011819999986
 51
155.2263369999986
  0
ARC
  5
125F2
330
1F
100
AcDbEntity
  8
1
100
AcDbCircle
 10
23.287817
 20
12.032506
 30
0.0
 40
0.2232019999999942
100
AcDbArc
 50
276.8221080000006
 51
69.99954500000064
  0
ARC
  5
125F3
330
1F
100
AcDbEntity
  8
1
100
AcDbCircle
 10
22.860293
 20
10.857879
 30
0.0
 40
1.473214000000005
100
AcDbArc
 50
70.0001079999998
 51
109.9998449999998
  0
LINE
  5
125F4
330
1F
100
AcDbEntity
  8
1
 48
0.00703
100
AcDbLine
 10
24.168441
 20
11.812483
 30
0.0
 11
23.96961
 21
11.613653
 31
0.0
  0
ARC
  5
125F5
330
1F
100
AcDbEntity
  8
1
100
AcDbCircle
 10
23.991664
 20
11.98926
 30
0.0
 40
0.250000000000002
100
AcDbArc
 50
315.0
 51
135.0000000000001
  0
LINE
  5
125F6
330
1F
100
AcDbEntity
  8
1
 48
0.01374
100
AcDbLine
 10
23.426276
 20
11.777424
 30
0.0
 11
23.814888
 21
12.16603600000001
 31
0.0
  0
LINE
  5
12602
330
1F
100
AcDbEntity
  8
1
 48
0.253461
100
AcDbLine
 10
19.907439
 20
-12.579746
 30
0.0
 11
30.045877
 21
-12.579746
 31
0.0
  0
LINE
  5
12603
330
1F
100
AcDbEntity
  8
1
 48
0.047908
100
AcDbLine
 10
20.75738199999999
 20
-14.297274
 30
0.0
 11
19.907439
 21
-12.579746
 31
0.0
  0
LINE
  5
12604
330
1F
100
AcDbEntity
  8
1
 48
0.217246
100
AcDbLine
 10
12.06890199999999
 20
-14.3
 30
0.0
 11
20.75873299999999
 21
-14.3
 31
0.0
  0
ELLIPSE
  5
12605
330
1F
100
AcDbEntity
  8
1
100
AcDbEllipse
 10
34.77916
 20
-0.0000119999999981
 30
0.0
 11
29.32237243652344
 21
-12.71297359466553
 31
0.0
210
0.0
220
0.0
230
0.9999999999999999
 40
0.223296
 41
1.828677909310092
 42
2.665993120288334
  0
ELLIPSE
  5
12606
330
1F
100
AcDbEntity
  8
1
100
AcDbEllipse
 10
2.491495999999998
 20
0.000007999999994
 30
0.0
 11
1.924992648127954E-5
 21
-14.30002593994141
 31
0.0
210
0.0
220
0.0
230
1.0
 40
0.7857179999999999
 41
1.096764246482271
 42
2.04482499861949
  0
LINE
  5
12607
330
1F
100
AcDbEntity
  8
1
 48
0.204759
100
AcDbLine
 10
4.298018999999996
 20
-6.527618000000004
 30
0.0
 11
12.488375
 21
-6.527618000000004
 31
0.0
  0
ELLIPSE
  5
12608
330
1F
100
AcDbEntity
  8
1
100
AcDbEllipse
 10
13.84043699999999
 20
0.0000059999999991
 30
0.0
 11
-1.219392379425699E-5
 21
-14.29999351501465
 31
0.0
210
0.0
220
0.0
230
1.0
 40
0.750001
 41
4.238358562829091
 42
5.186421654669827
  0
LINE
  5
12609
330
1F
100
AcDbEntity
  8
1
 48
0.204759
100
AcDbLine
 10
4.298018999999996
 20
6.527618000000004
 30
0.0
 11
12.488375
 21
6.527618000000004
 31
0.0
  0
LINE
  5
1260A
330
1F
100
AcDbEntity
  8
1
 48
0.326381
100
AcDbLine
 10
12.488375
 20
-6.527618000000004
 30
0.0
 11
12.488375
 21
6.527618000000004
 31
0.0
  0
LINE
  5
1260B
330
1F
100
AcDbEntity
  8
1
 48
0.326381
100
AcDbLine
 10
4.298018999999996
 20
-6.527618000000004
 30
0.0
 11
4.298018999999996
 21
6.527618000000004
 31
0.0
  0
LINE
  5
1260C
330
1F
100
AcDbEntity
  8
SK1
 48
0.353982
100
AcDbLine
 10
-10.840717
 20
8.0
 30
0.0
 11
-25.0
 21
8.0
 31
0.0
  0
LINE
  5
1260D
330
1F
100
AcDbEntity
  8
SK1
 48
0.353982
100
AcDbLine
 10
-10.840717
 20
-8.0
 30
0.0
 11
-25.0
 21
-8.0
 31
0.0
  0
ARC
  5
1260E
330
1F
100
AcDbEntity
  8
SK1
100
AcDbCircle
 10
-8.242640999999999
 20
-9.5
 30
0.0
 40
2.999999999999998
100
AcDbArc
 50
19.47122100000002
 51
150.0
  0
ARC
  5
1260F
330
1F
100
AcDbEntity
  8
SK1
100
AcDbCircle
 10
-8.242640999999999
 20
9.5
 30
0.0
 40
3.0
100
AcDbArc
 50
210.0
 51
340.528779
  0
LINE
  5
12610
330
1F
100
AcDbEntity
  8
SK1
 48
0.135355
100
AcDbLine
 10
0.0
 20
8.5
 30
0.0
 11
-5.414214000000001
 21
8.5
 31
0.0
  0
LINE
  5
12611
330
1F
100
AcDbEntity
  8
SK1
 48
0.135355
100
AcDbLine
 10
0.0
 20
-8.5
 30
0.0
 11
-5.414214000000001
 21
-8.5
 31
0.0
  0
ARC
  5
12612
330
1F
100
AcDbEntity
  8
1
100
AcDbCircle
 10
29.19786000000001
 20
0.0004399999999976
 30
0.0
 40
13.002176
100
AcDbArc
 50
346.55869
 51
354.48941
  0
LINE
  5
12613
330
1F
100
AcDbEntity
  8
1
 48
0.25027
100
AcDbLine
 10
10.01081600000001
 20
14.3
 30
0.0
 11
0.0
 21
14.3
 31
0.0
  0
LINE
  5
12614
330
1F
100
AcDbEntity
  8
1
 48
0.301723
100
AcDbLine
 10
12.06890199999999
 20
-14.3
 30
0.0
 11
0.0
 21
-14.3
 31
0.0
  0
LINE
  5
12615
330
1F
100
AcDbEntity
  8
INSERT
 48
0.034
100
AcDbLine
 10
25.64066800000001
 20
16.0
 30
0.0
 11
27.000668
 21
16.0
 31
0.0
  0
ARC
  5
12616
330
1F
100
AcDbEntity
  8
INSERT
100
AcDbCircle
 10
26.999696
 20
-0.0009809999999959
 30
0.0
 40
16.001346
100
AcDbArc
 50
0.5510479999999947
 51
89.99652
  0
ARC
  5
12617
330
1F
100
AcDbEntity
  8
INSERT
 48
0.09565
100
AcDbCircle
 10
41.60108799999999
 20
0.1393159999999938
 30
0.0
 40
1.399054000000003
100
AcDbArc
 50
292.9670440000002
 51
314.9720240000001
  0
ARC
  5
12618
330
1F
100
AcDbEntity
  8
INSERT
 48
0.09565
100
AcDbCircle
 10
41.596385
 20
0.1409539999999936
 30
0.0
 40
1.403608999999997
100
AcDbArc
 50
315.0605720000002
 51
0.4879630000002356
  0
LINE
  5
12619
330
1F
100
AcDbEntity
  8
INSERT
 48
0.09565
100
AcDbLine
 10
24.369878
 20
14.72920999999999
 30
0.0
 11
25.59469299999999
 21
11.10457700000001
 31
0.0
  0
LINE
  5
1261A
330
1F
100
AcDbEntity
  8
INSERT
 48
0.044929
100
AcDbLine
 10
24.369878
 20
14.72920999999999
 30
0.0
 11
25.64066800000001
 21
16.0
 31
0.0
  0
ARC
  5
1261B
330
1F
100
AcDbEntity
  8
INSERT
 48
0.09565
100
AcDbCircle
 10
34.52755499999999
 20
6.968801999999997
 30
0.0
 40
2.499996999999999
100
AcDbArc
 50
320.4266909999999
 51
135.000006
  0
ARC
  5
1261C
330
1F
100
AcDbEntity
  8
INSERT
 48
0.09565
100
AcDbCircle
 10
34.527444
 20
6.968917000000005
 30
0.0
 40
2.499840000000004
100
AcDbArc
 50
135.0000570000001
 51
148.137545
  0
ARC
  5
1261D
330
1F
100
AcDbEntity
  8
INSERT
 48
0.09565
100
AcDbCircle
 10
28.711226
 20
10.15545400000001
 30
0.0
 40
0.2232040000000057
100
AcDbArc
 50
70.000693999999
 51
186.402828999999
  0
ARC
  5
1261E
330
1F
100
AcDbEntity
  8
INSERT
 48
0.09565
100
AcDbCircle
 10
29.22425800000001
 20
11.564983
 30
0.0
 40
1.723191999999996
100
AcDbArc
 50
272.4958910000001
 51
290.0000430000002
  0
ARC
  5
1261F
330
1F
100
AcDbEntity
  8
INSERT
 48
0.09565
100
AcDbCircle
 10
29.73728300000001
 20
10.155456
 30
0.0
 40
0.2232019999999997
100
AcDbArc
 50
290.0005020000009
 51
109.9994980000009
  0
ARC
  5
12620
330
1F
100
AcDbEntity
  8
INSERT
 48
0.09565
100
AcDbCircle
 10
29.224255
 20
11.565001
 30
0.0
 40
1.276799999999999
100
AcDbArc
 50
250.0000649999998
 51
289.9999059999998
  0
ARC
  5
12621
330
1F
100
AcDbEntity
  8
INSERT
 48
0.09565
100
AcDbCircle
 10
30.63379400000001
 20
11.051967
 30
0.0
 40
0.2232020000000063
100
AcDbArc
 50
160.0005019999993
 51
339.9994979999993
  0
ARC
  5
12622
330
1F
100
AcDbEntity
  8
INSERT
 48
0.09565
100
AcDbCircle
 10
29.224244
 20
11.56499600000001
 30
0.0
 40
1.723215000000004
100
AcDbArc
 50
340.0001000000001
 51
19.99986000000014
  0
ARC
  5
12623
330
1F
100
AcDbEntity
  8
INSERT
 48
0.09565
100
AcDbCircle
 10
30.63379400000001
 20
12.078024
 30
0.0
 40
0.2232019999999997
100
AcDbArc
 50
20.00050200000096
 51
199.999498000001
  0
ARC
  5
12624
330
1F
100
AcDbEntity
  8
INSERT
 48
0.09565
100
AcDbCircle
 10
29.224249
 20
11.56499600000001
 30
0.0
 40
1.276799999999999
100
AcDbArc
 50
340.0000649999997
 51
19.99990599999976
  0
ARC
  5
12625
330
1F
100
AcDbEntity
  8
INSERT
 48
0.09565
100
AcDbCircle
 10
29.73728300000001
 20
12.974536
 30
0.0
 40
0.2232020000000063
100
AcDbArc
 50
250.0005019999993
 51
69.9994979999993
  0
ARC
  5
12626
330
1F
100
AcDbEntity
  8
INSERT
 48
0.09565
100
AcDbCircle
 10
29.224254
 20
11.564984
 30
0.0
 40
1.723215999999995
100
AcDbArc
 50
70.00010499999982
 51
109.9998499999998
  0
ARC
  5
12627
330
1F
100
AcDbEntity
  8
INSERT
 48
0.09565
100
AcDbCircle
 10
28.711226
 20
12.974535
 30
0.0
 40
0.2232019999999997
100
AcDbArc
 50
110.000502000001
 51
289.999498000001
  0
ARC
  5
12628
330
1F
100
AcDbEntity
  8
INSERT
 48
0.09565
100
AcDbCircle
 10
29.224254
 20
11.56498999999999
 30
0.0
 40
1.276799999999999
100
AcDbArc
 50
70.00006499999975
 51
109.9999059999997
  0
ARC
  5
12629
330
1F
100
AcDbEntity
  8
INSERT
 48
0.09565
100
AcDbCircle
 10
27.814714
 20
12.078024
 30
0.0
 40
0.2232020000000063
100
AcDbArc
 50
340.0005019999993
 51
159.9994979999994
  0
ARC
  5
1262A
330
1F
100
AcDbEntity
  8
INSERT
 48
0.09565
100
AcDbCircle
 10
29.224266
 20
11.564995
 30
0.0
 40
1.723215999999995
100
AcDbArc
 50
160.0001049999998
 51
199.9998499999998
  0
ARC
  5
1262B
330
1F
100
AcDbEntity
  8
INSERT
 48
0.09565
100
AcDbCircle
 10
27.81471499999999
 20
11.051967
 30
0.0
 40
0.2232019999999997
100
AcDbArc
 50
200.0005020000009
 51
19.99949800000089
  0
ARC
  5
1262C
330
1F
100
AcDbEntity
  8
INSERT
 48
0.09565
100
AcDbCircle
 10
29.22426
 20
11.564995
 30
0.0
 40
1.276799999999999
100
AcDbArc
 50
160.0000649999998
 51
199.9999059999997
  0
LINE
  5
1262D
330
1F
100
AcDbEntity
  8
INSERT
 48
0.09565
100
AcDbLine
 10
27.793632
 20
10.450033
 30
0.0
 11
28.359318
 21
11.015719
 31
0.0
  0
ARC
  5
1262E
330
1F
100
AcDbEntity
  8
INSERT
 48
0.09565
100
AcDbCircle
 10
27.95123600000001
 20
10.292388
 30
0.0
 40
0.2229130000000058
100
AcDbArc
 50
134.9925059999994
 51
154.7804089999994
  0
LINE
  5
1262F
330
1F
100
AcDbEntity
  8
INSERT
 48
0.09565
100
AcDbLine
 10
28.674977
 20
10.700059
 30
0.0
 11
28.204869
 21
10.22995
 31
0.0
  0
ARC
  5
12630
330
1F
100
AcDbEntity
  8
INSERT
 48
0.09565
100
AcDbCircle
 10
28.51714700000001
 20
10.85788700000001
 30
0.0
 40
0.2232019999999916
100
AcDbArc
 50
315.0005020000004
 51
134.9994980000004
  0
LINE
  5
12631
330
1F
100
AcDbEntity
  8
INSERT
 48
0.09565
100
AcDbLine
 10
30.339217
 20
10.13437399999999
 30
0.0
 11
29.77353100000001
 21
10.700059
 31
0.0
  0
ARC
  5
12632
330
1F
100
AcDbEntity
  8
INSERT
 48
0.09565
100
AcDbCircle
 10
30.497045
 20
10.292205
 30
0.0
 40
0.2232019999999916
100
AcDbArc
 50
225.0005020000004
 51
44.99949800000036
  0
LINE
  5
12633
330
1F
100
AcDbEntity
  8
INSERT
 48
0.09565
100
AcDbLine
 10
30.089191
 20
11.015719
 30
0.0
 11
30.654876
 21
10.450033
 31
0.0
  0
ARC
  5
12634
330
1F
100
AcDbEntity
  8
INSERT
 48
0.09565
100
AcDbCircle
 10
29.931363
 20
10.857888
 30
0.0
 40
0.2232019999999916
100
AcDbArc
 50
45.00050200000037
 51
224.9994980000004
  0
LINE
  5
12635
330
1F
100
AcDbEntity
  8
INSERT
 48
0.09565
100
AcDbLine
 10
30.654876
 20
12.679958
 30
0.0
 11
30.089191
 21
12.114273
 31
0.0
  0
ARC
  5
12636
330
1F
100
AcDbEntity
  8
INSERT
 48
0.09565
100
AcDbCircle
 10
30.497046
 20
12.83778599999999
 30
0.0
 40
0.2232019999999916
100
AcDbArc
 50
315.0005020000004
 51
134.9994980000004
  0
LINE
  5
12637
330
1F
100
AcDbEntity
  8
INSERT
 48
0.09565
100
AcDbLine
 10
29.77353100000001
 20
12.42993200000001
 30
0.0
 11
30.339217
 21
12.99561800000001
 31
0.0
  0
ARC
  5
12638
330
1F
100
AcDbEntity
  8
INSERT
 48
0.09565
100
AcDbCircle
 10
29.93136199999999
 20
12.272104
 30
0.0
 40
0.2232019999999916
100
AcDbArc
 50
135.0005020000004
 51
314.9994980000004
  0
LINE
  5
12639
330
1F
100
AcDbEntity
  8
INSERT
 48
0.09565
100
AcDbLine
 10
28.109292
 20
12.99561800000001
 30
0.0
 11
28.674977
 21
12.42993200000001
 31
0.0
  0
ARC
  5
1263A
330
1F
100
AcDbEntity
  8
INSERT
 48
0.09565
100
AcDbCircle
 10
27.951464
 20
12.83778700000001
 30
0.0
 40
0.2232019999999916
100
AcDbArc
 50
45.00050200000037
 51
224.9994980000004
  0
LINE
  5
1263B
330
1F
100
AcDbEntity
  8
INSERT
 48
0.09565
100
AcDbLine
 10
28.359318
 20
12.114273
 30
0.0
 11
27.793632
 21
12.679958
 31
0.0
  0
ARC
  5
1263C
330
1F
100
AcDbEntity
  8
INSERT
 48
0.09565
100
AcDbCircle
 10
28.517146
 20
12.272104
 30
0.0
 40
0.2232019999999916
100
AcDbArc
 50
225.0005020000004
 51
44.99949800000036
  0
LINE
  5
1263E
330
1F
100
AcDbEntity
  8
INSERT
 48
0.015175
100
AcDbLine
 10
23.940667
 20
14.299999
 30
0.0
 11
24.369878
 21
14.72920999999999
 31
0.0
  0
LINE
  5
1267D
330
1F
100
AcDbEntity
  8
INSERT
 48
0.09565
100
AcDbLine
 10
42.13422300000001
 20
-1.306094000000002
 30
0.0
 11
42.589877
 21
-0.8504389999999944
 31
0.0
  0
ARC
  5
1267E
330
1F
100
AcDbEntity
  8
INSERT
 48
0.09565
100
AcDbCircle
 10
39.82467699999999
 20
-2.106920000000002
 30
0.0
 40
1.404002000000004
100
AcDbArc
 50
342.7416150000003
 51
26.26096200000018
  0
ARC
  5
1267F
330
1F
100
AcDbEntity
  8
INSERT
 48
0.09565
100
AcDbCircle
 10
39.826443
 20
-2.109565000000003
 30
0.0
 40
1.403609000000003
100
AcDbArc
 50
26.38973199999976
 51
71.81712299999975
  0
ARC
  5
12680
330
1F
100
AcDbEntity
  8
INSERT
 48
0.09565
100
AcDbCircle
 10
25.890822
 20
2.241140000000001
 30
0.0
 40
16.000598
100
AcDbArc
 50
270.001286
 51
342.675797
  0
LINE
  5
12681
330
1F
100
AcDbEntity
  8
INSERT
 48
0.09565
100
AcDbLine
 10
20.49118199999999
 20
-13.759348
 30
0.0
 11
25.891182
 21
-13.759348
 31
0.0
  0
LINE
  5
12682
330
1F
100
AcDbEntity
  8
1
 48
0.032903
100
AcDbLine
 10
20.49118199999999
 20
-13.759348
 30
0.0
 11
19.907439
 21
-12.579746
 31
0.0
  0
ARC
  5
12683
330
1F
100
AcDbEntity
  8
INSERT
 48
0.09565
100
AcDbCircle
 10
40.93349500000001
 20
-4.347572
 30
0.0
 40
1.404002000000004
100
AcDbArc
 50
342.7416150000003
 51
26.26096200000018
  0
ARC
  5
12684
330
1F
100
AcDbEntity
  8
INSERT
 48
0.09565
100
AcDbCircle
 10
26.999641
 20
0.0004880000000043
 30
0.0
 40
16.000598
100
AcDbArc
 50
270.001286
 51
342.675797
  0
LINE
  5
12685
330
1F
100
AcDbEntity
  8
INSERT
 48
0.09565
100
AcDbLine
 10
21.60000000000001
 20
-16.0
 30
0.0
 11
27.0
 21
-16.0
 31
0.0
  0
LINE
  5
12686
330
1F
100
AcDbEntity
  8
INSERT
 48
0.09565
100
AcDbLine
 10
27.0
 20
-16.0
 30
0.0
 11
25.891182
 21
-13.759348
 31
0.0
  0
LINE
  5
12687
330
1F
100
AcDbEntity
  8
INSERT
 48
0.09565
100
AcDbLine
 10
42.27426799999999
 20
-4.764107999999993
 30
0.0
 11
41.16545000000001
 21
-2.523455999999996
 31
0.0
  0
LINE
  5
12688
330
1F
100
AcDbEntity
  8
INSERT
 48
0.09565
100
AcDbLine
 10
21.60000000000001
 20
-16.0
 30
0.0
 11
20.49118199999999
 21
-13.759348
 31
0.0
  0
LINE
  5
12689
330
1F
100
AcDbEntity
  8
INSERT
 48
0.09565
100
AcDbLine
 10
42.19252899999999
 20
-3.726386000000005
 30
0.0
 11
41.08371000000001
 21
-1.485733999999994
 31
0.0
  0
LINE
  5
1268A
330
1F
100
AcDbEntity
  8
SK3
100
AcDbLine
 10
-25.0
 20
2.17577
 30
0.0
 11
25.012995
 21
2.17577
 31
0.0
  0
LINE
  5
1268B
330
1F
100
AcDbEntity
  8
SK3
100
AcDbLine
 10
-25.0
 20
-2.17577
 30
0.0
 11
25.012995
 21
-2.17577
 31
0.0
  0
SPLINE
  5
1268C
330
1F
100
AcDbEntity
  8
SK3
100
AcDbSpline
210
0.0
220
0.0
230
1.0
 70
     8
 71
     5
 72
    12
 73
     6
 74
     0
 42
0.0
 43
0.0
 40
0.0
 40
0.0
 40
0.0
 40
0.0
 40
0.0
 40
0.0
 40
0.7707355909935794
 40
0.7707355909935794
 40
0.7707355909935794
 40
0.7707355909935794
 40
0.7707355909935794
 40
0.7707355909935794
 10
25.01299521112416
 20
-2.175769839064827
 30
0.0
 10
24.96578388245976
 20
-2.175769839064827
 30
0.0
 10
24.92610779966988
 20
-2.170864665123091
 30
0.0
 10
24.89445118506903
 20
-2.159824793949383
 30
0.0
 10
24.87145289830703
 20
-2.141956802921356
 30
0.0
 10
24.85736100981187
 20
-2.11754887270348
 30
0.0
  0
SPLINE
  5
1268D
330
1F
100
AcDbEntity
  8
SK3
100
AcDbSpline
210
0.0
220
0.0
230
1.0
 70
     8
 71
     5
 72
    15
 73
     9
 74
     0
 42
0.0
 43
0.0
 40
0.0
 40
0.0
 40
0.0
 40
0.0
 40
0.0
 40
0.0
 40
1.471505715347772
 40
1.471505715347772
 40
1.471505715347772
 40
1.789781334010142
 40
1.789781334010142
 40
1.789781334010142
 40
1.789781334010142
 40
1.789781334010142
 40
1.789781334010142
 10
25.86620723617274
 20
-2.098696420473999
 30
0.0
 10
25.69629239199871
 20
-2.098696420473814
 30
0.0
 10
25.5263788446281
 20
-2.108343001569082
 30
0.0
 10
25.37441030245297
 20
-2.131179724061326
 30
0.0
 10
25.20609841592538
 20
-2.160767873328808
 30
0.0
 10
25.0753572448871
 20
-2.173342841064155
 30
0.0
 10
25.05327210616946
 20
-2.174933511040962
 30
0.0
 10
25.03249115112501
 20
-2.175769839064827
 30
0.0
 10
25.01299521112416
 20
-2.175769839064827
 30
0.0
  0
SPLINE
  5
1268E
330
1F
100
AcDbEntity
  8
SK3
100
AcDbSpline
210
0.0
220
0.0
230
1.0
 70
     8
 71
     5
 72
    15
 73
     9
 74
     0
 42
0.0
 43
0.0
 40
0.0
 40
0.0
 40
0.0
 40
0.0
 40
0.0
 40
0.0
 40
1.092890073623421
 40
1.092890073623421
 40
1.092890073623421
 40
2.127553464565082
 40
2.127553464565082
 40
2.127553464565082
 40
2.127553464565082
 40
2.127553464565082
 40
2.127553464565082
 10
25.86620723616421
 20
-2.098696420474013
 30
0.0
 10
25.99240331180445
 20
-2.098696420473871
 30
0.0
 10
26.11859879142372
 20
-2.104016284678949
 30
0.0
 10
26.2374458642465
 20
-2.112897302942343
 30
0.0
 10
26.47215241613948
 20
-2.133807886380637
 30
0.0
 10
26.69494095590866
 20
-2.155214974107565
 30
0.0
 10
26.80036607167121
 20
-2.16439652793369
 30
0.0
 10
26.90240779135785
 20
-2.17126667886977
 30
0.0
 10
27.0
 20
-2.174332823051444
 30
0.0
  0
LINE
  5
1268F
330
1F
100
AcDbEntity
  8
SK3
 48
0.090318
100
AcDbLine
 10
27.0
 20
1.438385999999994
 30
0.0
 11
27.0
 21
-2.174333000000004
 31
0.0
  0
SPLINE
  5
12690
330
1F
100
AcDbEntity
  8
SK3
100
AcDbSpline
210
0.0
220
0.0
230
1.0
 70
     8
 71
     5
 72
    15
 73
     9
 74
     0
 42
0.0
 43
0.0
 40
0.0
 40
0.0
 40
0.0
 40
0.0
 40
0.0
 40
0.0
 40
1.092890073653469
 40
1.092890073653469
 40
1.092890073653469
 40
2.127553464595246
 40
2.127553464595246
 40
2.127553464595246
 40
2.127553464595246
 40
2.127553464595246
 40
2.127553464595246
 10
25.86620723616421
 20
2.098696420474013
 30
0.0
 10
25.99240331180792
 20
2.098696420473871
 30
0.0
 10
26.11859879143059
 20
2.104016284679176
 30
0.0
 10
26.23744586424324
 20
2.112897302942088
 30
0.0
 10
26.47215241613968
 20
2.133807886380566
 30
0.0
 10
26.69494095590998
 20
2.155214974107494
 30
0.0
 10
26.80036607167122
 20
2.164396527933604
 30
0.0
 10
26.90240779135785
 20
2.17126667886977
 30
0.0
 10
27.0
 20
2.174332823051444
 30
0.0
  0
LINE
  5
12691
330
1F
100
AcDbEntity
  8
SK3
 48
0.030845
100
AcDbLine
 10
27.0
 20
2.174333000000004
 30
0.0
 11
27.0
 21
0.9405179999999973
 31
0.0
  0
ARC
  5
12692
330
1F
100
AcDbEntity
  8
SK3
100
AcDbCircle
 10
26.126124
 20
3.227027000000007
 30
0.0
 40
1.990177999999999
100
AcDbArc
 50
270.7404469999998
 51
296.0387229999999
  0
SPLINE
  5
12693
330
1F
100
AcDbEntity
  8
SK3
100
AcDbSpline
210
0.0
220
0.0
230
1.0
 70
     8
 71
     5
 72
    12
 73
     6
 74
     0
 42
0.0
 43
0.0
 40
0.0
 40
0.0
 40
0.0
 40
0.0
 40
0.0
 40
0.0
 40
0.7707355909996054
 40
0.7707355909996054
 40
0.7707355909996054
 40
0.7707355909996054
 40
0.7707355909996054
 40
0.7707355909996054
 10
25.01299521112416
 20
2.175769839064827
 30
0.0
 10
24.96578388245939
 20
2.175769839064827
 30
0.0
 10
24.92610779966934
 20
2.170864665123176
 30
0.0
 10
24.89445118506934
 20
2.159824793949738
 30
0.0
 10
24.87145289830711
 20
2.141956802921513
 30
0.0
 10
24.85736100981185
 20
2.117548872703452
 30
0.0
  0
SPLINE
  5
12694
330
1F
100
AcDbEntity
  8
SK3
100
AcDbSpline
210
0.0
220
0.0
230
1.0
 70
     8
 71
     5
 72
    18
 73
    12
 74
     0
 42
0.0
 43
0.0
 40
0.0
 40
0.0
 40
0.0
 40
0.0
 40
0.0
 40
0.0
 40
1.066030817271446
 40
1.066030817271446
 40
1.066030817271446
 40
2.968949388335647
 40
2.968949388335647
 40
2.968949388335647
 40
3.75509638020171
 40
3.75509638020171
 40
3.75509638020171
 40
3.75509638020171
 40
3.75509638020171
 40
3.75509638020171
 10
24.85736100981185
 20
2.117548872703438
 30
0.0
 10
24.83787003575418
 20
2.083789427697752
 30
0.0
 10
24.83541772989062
 20
2.037518876456573
 30
0.0
 10
24.85068276079507
 20
1.979529546669639
 30
0.0
 10
24.93872924017779
 20
1.796616522462173
 30
0.0
 10
25.13935222775055
 20
1.584662582312731
 30
0.0
 10
25.30461837986714
 20
1.457877138670682
 30
0.0
 10
25.5772699939794
 20
1.321352616257101
 30
0.0
 10
25.87973524080901
 20
1.256293191914949
 30
0.0
 10
25.97028204699554
 20
1.243737247327573
 30
0.0
 10
26.06105832515355
 20
1.23767755141715
 30
0.0
 10
26.15183476062886
 20
1.23767755141715
 30
0.0
  0
SPLINE
  5
12695
330
1F
100
AcDbEntity
  8
SK3
100
AcDbSpline
210
0.0
220
0.0
230
1.0
 70
     8
 71
     5
 72
    15
 73
     9
 74
     0
 42
0.0
 43
0.0
 40
0.0
 40
0.0
 40
0.0
 40
0.0
 40
0.0
 40
0.0
 40
1.471505714154174
 40
1.471505714154174
 40
1.471505714154174
 40
1.789781332817123
 40
1.789781332817123
 40
1.789781332817123
 40
1.789781332817123
 40
1.789781332817123
 40
1.789781332817123
 10
25.86620723617274
 20
2.098696420474013
 30
0.0
 10
25.69629239213654
 20
2.098696420473814
 30
0.0
 10
25.52637884490387
 20
2.108343001553422
 30
0.0
 10
25.3744103022289
 20
2.131179724100321
 30
0.0
 10
25.20609841583841
 20
2.16076787333725
 30
0.0
 10
25.07535724488723
 20
2.173342841064127
 30
0.0
 10
25.05327210616954
 20
2.174933511040948
 30
0.0
 10
25.03249115112506
 20
2.175769839064827
 30
0.0
 10
25.01299521112416
 20
2.175769839064827
 30
0.0
  0
LINE
  5
12696
330
1F
100
AcDbEntity
  8
SK3
 48
0.124281
100
AcDbLine
 10
29.485612
 20
5.245722999999998
 30
0.0
 11
27.0
 21
0.9405169999999998
 31
0.0
  0
LINE
  5
12697
330
1F
100
AcDbEntity
  8
SK3
 48
0.12558
100
AcDbLine
 10
27.36896399999999
 20
6.467772999999994
 30
0.0
 11
24.857361
 21
2.117548999999997
 31
0.0
  0
ELLIPSE
  5
12698
330
1F
100
AcDbEntity
  8
SK3
100
AcDbEllipse
 10
28.427288
 20
5.856747999999996
 30
0.0
 11
1.05855917930603
 21
-0.6106169819831848
 31
0.0
210
0.0
220
0.0
230
1.0
 40
0.9497449999999997
 41
6.282822145993256
 42
9.424361749582712
  0
ELLIPSE
  5
12699
330
1F
100
AcDbEntity
  8
SK3
100
AcDbEllipse
 10
28.42738300000001
 20
5.856750000000005
 30
0.0
 11
1.058629870414734
 21
-0.6106576919555664
 31
0.0
210
0.0
220
0.0
230
1.0
 40
0.949727
 41
3.141229492418848
 42
4.430938888212205
  0
ELLIPSE
  5
1269A
330
1F
100
AcDbEntity
  8
SK3
100
AcDbEllipse
 10
28.427288
 20
5.856747999999996
 30
0.0
 11
1.058324337005615
 21
-0.6110239028930666
 31
0.0
210
0.0
220
0.0
230
0.9999999999999998
 40
0.9497450000000001
 41
4.431354078881928
 42
6.283184286680151
  0
LINE
  5
126A1
330
1F
100
AcDbEntity
  8
NOCUT
100
AcDbLine
 10
0.0
 20
14.3
 30
0.0
 11
0.0
 21
0.0
 31
0.0
  0
LINE
  5
126AE
330
1F
100
AcDbEntity
  8
NOCUT
100
AcDbLine
 10
30.04587699999999
 20
14.3
 30
0.0
 11
0.0
 21
14.3
 31
0.0
  0
ARC
  5
126AF
330
1F
100
AcDbEntity
  8
NOCUT
100
AcDbCircle
 10
26.49700000000001
 20
-1.301457999999997
 30
0.0
 40
16.0
100
AcDbArc
 50
25.71017499999998
 51
77.18493699999999
  0
ARC
  5
126B2
330
1F
100
AcDbEntity
  8
NOCUT
100
AcDbCircle
 10
29.20000099999999
 20
0.0
 30
0.0
 40
12.999999
100
AcDbArc
 50
359.999999
 51
25.71017499999998
  0
LINE
  5
126B3
330
1F
100
AcDbEntity
  8
SK4
100
AcDbLine
 10
0.0
 20
0.0
 30
0.0
 11
-27.46103874378502
 21
0.0
 31
0.0
  0
LINE
  5
126E0
330
1F
100
AcDbEntity
  8
CUT
100
AcDbLine
 10
43.0
 20
-0.0000000000002309
 30
0.0
 11
21.60000000000001
 21
-0.0000000000002309
 31
0.0
  0
LINE
  5
126E1
330
1F
100
AcDbEntity
  8
CUT
100
AcDbLine
 10
21.60000000000001
 20
-0.0000000000002309
 30
0.0
 11
21.60000000000001
 21
15.99999999999977
 31
0.0
  0
LINE
  5
126E2
330
1F
100
AcDbEntity
  8
CUT
100
AcDbLine
 10
27.0
 20
15.99999999999977
 30
0.0
 11
21.60000000000001
 21
15.99999999999977
 31
0.0
  0
ARC
  5
126E3
330
1F
100
AcDbEntity
  8
CUT
100
AcDbCircle
 10
27.0
 20
-0.0000000000002274
 30
0.0
 40
16.0
100
AcDbArc
 50
0.0000000000008142
 51
90.00000000000043
  0
DIMENSION
  5
12753
330
1F
100
AcDbEntity
  8
2
100
AcDbDimension
  2
*D1
 10
21.60000000000001
 20
24.15072152980957
 30
0.0
 11
58.44613765806889
 21
24.15072152980957
 31
0.0
 70
   160
  1
ap=<>
 71
     5
 41
0.0
 42
21.39999999999999
 73
     0
 74
     0
 75
     0
  3
Standard
100
AcDbAlignedDimension
 13
43.0
 23
0.0
 33
0.0
 14
21.60000000000001
 24
15.99999999999977
 34
0.0
100
AcDbRotatedDimension
  0
DIMENSION
  5
1277B
330
1F
100
AcDbEntity
  8
2
100
AcDbDimension
  2
*D2
 10
0.0
 20
31.57152005660767
 30
0.0
 11
21.5
 21
34.01907803271448
 31
0.0
 70
    32
 71
     5
 41
0.0
 42
43.0
 73
     0
 74
     0
 75
     0
  3
Standard
100
AcDbAlignedDimension
 13
43.0
 23
0.0
 33
0.0
 14
0.0
 24
14.3
 34
0.0
100
AcDbRotatedDimension
  0
DIMENSION
  5
127A5
330
1F
100
AcDbEntity
  8
SK2
100
AcDbDimension
  2
*D3
 10
-33.94366785139175
 20
-8.0
 30
0.0
 11
-36.39122582749857
 21
0.0
 31
0.0
 70
    32
  1
M<>
 71
     5
 41
0.0
 42
16.0
 73
     0
 74
     0
 75
     0
  3
Standard
100
AcDbAlignedDimension
 13
-25.0
 23
8.0
 33
0.0
 14
-25.0
 24
-8.0
 34
0.0
 50
90.0
100
AcDbRotatedDimension
  0
DIMENSION
  5
127CD
330
1F
100
AcDbEntity
  8
SK2
100
AcDbDimension
  2
*D4
 10
-44.61483079777327
 20
-14.29999999999999
 30
0.0
 11
-47.1607724702961
 21
0.0
 31
0.0
 70
    32
  1
%%C29
 71
     5
 41
0.0
 42
28.59999999999999
 73
     0
 74
     0
 75
     0
  3
Standard
100
AcDbAlignedDimension
 13
0.0
 23
14.3
 33
0.0
 14
0.0
 24
-14.3
 34
0.0
 50
90.0
100
AcDbRotatedDimension
  0
ENDSEC
  0
SECTION
  2
OBJECTS
  0
DICTIONARY
  5
C
330
0
100
AcDbDictionary
281
     1
  3
ACAD_BACKGROUND
350
762A
  3
ACAD_COLOR
350
6C
  3
ACAD_GROUP
350
D
  3
ACAD_LAYOUT
350
1A
  3
ACAD_MATERIAL
350
6B
  3
ACAD_MLEADERSTYLE
350
43C
  3
ACAD_MLINESTYLE
350
17
  3
ACAD_PLOTSETTINGS
350
19
  3
ACAD_PLOTSTYLENAME
350
E
  3
ACAD_SCALELIST
350
99
  3
ACAD_TABLESTYLE
350
92
  3
ACAD_VISUALSTYLE
350
3F2
  3
ACAD_WIPEOUT_VARS
350
1289E
  3
ACDB_RECOMPOSE_DATA
350
11E23
  3
AcDbVariableDictionary
350
59
  3
AEC_PROPERTY_SET_DEFS
350
5CF
  3
ASE_INDEX_DICTIONARY
350
10A7E
  0
DICTIONARY
  5
1289F
330
2
100
AcDbDictionary
280
     1
281
     1
  3
ACAD_LAYERFILTERS
360
23C2
  3
ACAD_LAYERSTATES
360
6E9
  3
ACLYDICTIONARY
360
23C1
  0
DICTIONARY
  5
12899
330
10
100
AcDbDictionary
280
     1
281
     1
  3
ADSK_XREC_LAYER_RECONCILED
360
F63
  0
DICTIONARY
  5
1289A
330
23
100
AcDbDictionary
280
     1
281
     1
  3
ADSK_XREC_LAYER_RECONCILED
360
F65
  0
DICTIONARY
  5
1289B
330
25
100
AcDbDictionary
280
     1
281
     1
  3
ADSK_XREC_LAYER_RECONCILED
360
F67
  0
DICTIONARY
  5
1289C
330
2E
100
AcDbDictionary
280
     1
281
     1
  3
ADSK_XREC_LAYER_RECONCILED
360
F71
  0
DICTIONARY
  5
1289D
330
49B
100
AcDbDictionary
280
     1
281
     1
  3
ADSK_XREC_LAYER_RECONCILED
360
F79
  0
DICTIONARY
  5
128AA
330
1F
100
AcDbDictionary
280
     1
281
     1
  3
ACAD_SORTENTS
360
128AB
  0
DICTIONARY
  5
762A
102
{ACAD_REACTORS
330
C
102
}
330
C
100
AcDbDictionary
281
     1
  0
DICTIONARY
  5
6C
102
{ACAD_REACTORS
330
C
102
}
330
C
100
AcDbDictionary
281
     1
  0
DICTIONARY
  5
D
102
{ACAD_REACTORS
330
C
102
}
330
C
100
AcDbDictionary
281
     1
  3
INFTOTAL
350
6D2D
  0
DICTIONARY
  5
1A
102
{ACAD_REACTORS
330
C
102
}
330
C
100
AcDbDictionary
281
     1
  3
Layout1
350
74
  3
Model
350
22
  0
DICTIONARY
  5
6B
102
{ACAD_REACTORS
330
C
102
}
330
C
100
AcDbDictionary
281
     1
  0
DICTIONARY
  5
43C
102
{ACAD_REACTORS
330
C
102
}
330
C
100
AcDbDictionary
281
     1
  0
DICTIONARY
  5
17
102
{ACAD_REACTORS
330
C
102
}
330
C
100
AcDbDictionary
281
     1
  3
Standard
350
18
  0
DICTIONARY
  5
19
102
{ACAD_REACTORS
330
C
102
}
330
C
100
AcDbDictionary
281
     1
  0
ACDBDICTIONARYWDFLT
  5
E
102
{ACAD_REACTORS
330
C
102
}
330
C
100
AcDbDictionary
281
     1
  3
Normal
350
F
100
AcDbDictionaryWithDefault
340
F
  0
DICTIONARY
  5
99
102
{ACAD_REACTORS
330
C
102
}
330
C
100
AcDbDictionary
281
     1
  3
A0
350
9A
  3
A1
350
9B
  3
A2
350
9C
  3
A3
350
9D
  3
A4
350
9E
  3
A5
350
9F
  3
A6
350
A0
  3
A7
350
A1
  3
A8
350
A2
  3
A9
350
A3
  3
B0
350
A4
  3
B1
350
A5
  3
B2
350
A6
  3
B3
350
A7
  3
B4
350
A8
  3
B5
350
A9
  3
B6
350
AA
  3
B7
350
AB
  3
B8
350
AC
  3
B9
350
AD
  3
C0
350
AE
  3
C1
350
AF
  3
C2
350
B0
  3
C3
350
B1
  3
C4
350
B2
  3
C5
350
B3
  3
C6
350
B4
  3
C7
350
B5
  3
C8
350
B6
  3
C9
350
B7
  3
D0
350
B8
  3
D1
350
B9
  3
D2
350
BA
  0
DICTIONARY
  5
92
102
{ACAD_REACTORS
330
C
102
}
330
C
100
AcDbDictionary
281
     1
  3
Standard
350
93
  0
DICTIONARY
  5
3F2
102
{ACAD_REACTORS
330
C
102
}
330
C
100
AcDbDictionary
281
     1
  0
WIPEOUTVARIABLES
  5
1289E
102
{ACAD_REACTORS
330
C
102
}
330
C
100
AcDbWipeoutVariables
 70
     1
  0
XRECORD
  5
11E23
102
{ACAD_REACTORS
330
C
102
}
330
C
100
AcDbXrecord
280
     1
 90
        1
330
0
  0
DICTIONARY
  5
59
102
{ACAD_REACTORS
330
C
102
}
330
C
100
AcDbDictionary
281
     1
  3
CANNOSCALE
350
128AC
  3
CTABLESTYLE
350
98
  3
DIMASSOC
350
359
  3
HALOGAP
350
11E4F
  3
HIDETEXT
350
358
  3
INDEXCTL
350
F7B
  3
LIGHTINGUNITS
350
44A
  3
MSLTSCALE
350
448
  3
PROJECTNAME
350
1051
  3
SORTENTS
350
F7A
  3
XCLIPFRAME
350
11DF4
  0
DICTIONARY
  5
5CF
102
{ACAD_REACTORS
330
C
102
}
330
C
100
AcDbDictionary
281
     1
  0
DICTIONARY
  5
10A7E
102
{ACAD_REACTORS
330
C
102
}
330
C
100
AcDbDictionary
281
     1
  3
ASEBLOCKHIERARCHYINDEXRECORD
350
10A7F
  0
DICTIONARY
  5
23C2
102
{ACAD_REACTORS
330
1289F
102
}
330
1289F
100
AcDbDictionary
281
     1
  0
DICTIONARY
  5
6E9
102
{ACAD_REACTORS
330
1289F
102
}
330
1289F
100
AcDbDictionary
281
     1
  3
_LAYISO_STATE
350
4506
  0
DICTIONARY
  5
23C1
102
{ACAD_REACTORS
330
1289F
102
}
330
1289F
100
AcDbDictionary
281
     1
  0
XRECORD
  5
F63
102
{ACAD_REACTORS
330
12899
102
}
330
12899
100
AcDbXrecord
280
     1
290
     1
  0
XRECORD
  5
F65
102
{ACAD_REACTORS
330
1289A
102
}
330
1289A
100
AcDbXrecord
280
     1
290
     1
  0
XRECORD
  5
F67
102
{ACAD_REACTORS
330
1289B
102
}
330
1289B
100
AcDbXrecord
280
     1
290
     1
  0
XRECORD
  5
F71
102
{ACAD_REACTORS
330
1289C
102
}
330
1289C
100
AcDbXrecord
280
     1
290
     1
  0
XRECORD
  5
F79
102
{ACAD_REACTORS
330
1289D
102
}
330
1289D
100
AcDbXrecord
280
     1
290
     1
  0
SORTENTSTABLE
  5
128AB
102
{ACAD_REACTORS
330
128AA
330
128AA
102
}
330
128AA
100
AcDbSortentsTable
330
1F
  0
GROUP
  5
6D2D
102
{ACAD_REACTORS
330
D
102
}
330
D
100
AcDbGroup
300

 70
     0
 71
     1
340
F18
340
F19
  0
LAYOUT
  5
74
102
{ACAD_REACTORS
330
1A
102
}
330
1A
100
AcDbPlotSettings
  1

  2
\\ADSCCNDC1\hq601xrx1
  4

  6

 40
0.0
 41
0.0
 42
0.0
 43
0.0
 44
0.0
 45
0.0
 46
0.0
 47
0.0
 48
0.0
 49
0.0
140
0.0
141
0.0
142
1.0
143
1.0
 70
   688
 72
     0
 73
     0
 74
     5
  7
monochrome.ctb
 75
    16
 76
     0
 77
     2
 78
   300
147
1.0
148
0.0
149
0.0
100
AcDbLayout
  1
Layout1
 70
     1
 71
     1
 10
0.0
 20
0.0
 11
12.0
 21
9.0
 12
0.0
 22
0.0
 32
0.0
 14
0.0
 24
0.0
 34
0.0
 15
0.0
 25
0.0
 35
0.0
146
0.0
 13
0.0
 23
0.0
 33
0.0
 16
1.0
 26
0.0
 36
0.0
 17
0.0
 27
1.0
 37
0.0
 76
     0
330
73
  0
LAYOUT
  5
22
102
{ACAD_REACTORS
330
1A
102
}
330
1A
100
AcDbPlotSettings
  1

  2
none_device
  4
Letter_(8.50_x_11.00_Inches)
  6

 40
6.35
 41
6.35
 42
6.35000508
 43
6.35000508
 44
215.9
 45
279.4
 46
1.587499365000021
 47
0.0
 48
0.0
 49
0.0
140
0.0
141
0.0
142
1.0
143
0.0449943765600729
 70
 11956
 72
     1
 73
     1
 74
     1
  7
monochrome.ctb
 75
     0
 76
     0
 77
     2
 78
   300
147
22.22499957666666
148
-82.3508777524703
149
-53.69369632994493
100
AcDbLayout
  1
Model
 70
     1
 71
     0
 10
-170.0
 20
-170.0
 11
519.0
 21
260.0
 12
0.0
 22
0.0
 32
0.0
 14
-52.21415849495828
 24
-36.37186987708071
 34
0.0
 15
71.72110239108605
 25
38.58691077145515
 35
0.0
146
0.0
 13
0.0
 23
0.0
 33
0.0
 16
1.0
 26
0.0
 36
0.0
 17
0.0
 27
1.0
 37
0.0
 76
     0
330
1F
331
97
  0
MLINESTYLE
  5
18
102
{ACAD_REACTORS
330
17
102
}
330
17
100
AcDbMlineStyle
  2
STANDARD
 70
     0
  3

 62
     0
 51
90.0
 52
90.0
 71
     2
 49
0.5
 62
   256
  6
BYLAYER
 49
-0.5
 62
   256
  6
BYLAYER
  0
ACDBPLACEHOLDER
  5
F
102
{ACAD_REACTORS
330
E
102
}
330
E
  0
SCALE
  5
9A
102
{ACAD_REACTORS
330
99
102
}
330
99
100
AcDbScale
 70
     0
300
1:1
140
1.0
141
1.0
290
     1
  0
SCALE
  5
9B
102
{ACAD_REACTORS
330
99
102
}
330
99
100
AcDbScale
 70
     0
300
1:2
140
1.0
141
2.0
290
     0
  0
SCALE
  5
9C
102
{ACAD_REACTORS
330
99
102
}
330
99
100
AcDbScale
 70
     0
300
1:4
140
1.0
141
4.0
290
     0
  0
SCALE
  5
9D
102
{ACAD_REACTORS
330
99
102
}
330
99
100
AcDbScale
 70
     0
300
1:5
140
1.0
141
5.0
290
     0
  0
SCALE
  5
9E
102
{ACAD_REACTORS
330
99
102
}
330
99
100
AcDbScale
 70
     0
300
1:8
140
1.0
141
8.0
290
     0
  0
SCALE
  5
9F
102
{ACAD_REACTORS
330
99
102
}
330
99
100
AcDbScale
 70
     0
300
1:10
140
1.0
141
10.0
290
     0
  0
SCALE
  5
A0
102
{ACAD_REACTORS
330
99
102
}
330
99
100
AcDbScale
 70
     0
300
1:16
140
1.0
141
16.0
290
     0
  0
SCALE
  5
A1
102
{ACAD_REACTORS
330
99
102
}
330
99
100
AcDbScale
 70
     0
300
1:20
140
1.0
141
20.0
290
     0
  0
SCALE
  5
A2
102
{ACAD_REACTORS
330
99
102
}
330
99
100
AcDbScale
 70
     0
300
1:30
140
1.0
141
30.0
290
     0
  0
SCALE
  5
A3
102
{ACAD_REACTORS
330
99
102
}
330
99
100
AcDbScale
 70
     0
300
1:40
140
1.0
141
40.0
290
     0
  0
SCALE
  5
A4
102
{ACAD_REACTORS
330
99
102
}
330
99
100
AcDbScale
 70
     0
300
1:50
140
1.0
141
50.0
290
     0
  0
SCALE
  5
A5
102
{ACAD_REACTORS
330
99
102
}
330
99
100
AcDbScale
 70
     0
300
1:100
140
1.0
141
100.0
290
     0
  0
SCALE
  5
A6
102
{ACAD_REACTORS
330
99
102
}
330
99
100
AcDbScale
 70
     0
300
2:1
140
2.0
141
1.0
290
     0
  0
SCALE
  5
A7
102
{ACAD_REACTORS
330
99
102
}
330
99
100
AcDbScale
 70
     0
300
4:1
140
4.0
141
1.0
290
     0
  0
SCALE
  5
A8
102
{ACAD_REACTORS
330
99
102
}
330
99
100
AcDbScale
 70
     0
300
8:1
140
8.0
141
1.0
290
     0
  0
SCALE
  5
A9
102
{ACAD_REACTORS
330
99
102
}
330
99
100
AcDbScale
 70
     0
300
10:1
140
10.0
141
1.0
290
     0
  0
SCALE
  5
AA
102
{ACAD_REACTORS
330
99
102
}
330
99
100
AcDbScale
 70
     0
300
100:1
140
100.0
141
1.0
290
     0
  0
SCALE
  5
AB
102
{ACAD_REACTORS
330
99
102
}
330
99
100
AcDbScale
 70
     0
300
1/128" = 1'-0"
140
0.0078125
141
12.0
290
     0
  0
SCALE
  5
AC
102
{ACAD_REACTORS
330
99
102
}
330
99
100
AcDbScale
 70
     0
300
1/64" = 1'-0"
140
0.015625
141
12.0
290
     0
  0
SCALE
  5
AD
102
{ACAD_REACTORS
330
99
102
}
330
99
100
AcDbScale
 70
     0
300
1/32" = 1'-0"
140
0.03125
141
12.0
290
     0
  0
SCALE
  5
AE
102
{ACAD_REACTORS
330
99
102
}
330
99
100
AcDbScale
 70
     0
300
1/16" = 1'-0"
140
0.0625
141
12.0
290
     0
  0
SCALE
  5
AF
102
{ACAD_REACTORS
330
99
102
}
330
99
100
AcDbScale
 70
     0
300
3/32" = 1'-0"
140
0.09375
141
12.0
290
     0
  0
SCALE
  5
B0
102
{ACAD_REACTORS
330
99
102
}
330
99
100
AcDbScale
 70
     0
300
1/8" = 1'-0"
140
0.125
141
12.0
290
     0
  0
SCALE
  5
B1
102
{ACAD_REACTORS
330
99
102
}
330
99
100
AcDbScale
 70
     0
300
3/16" = 1'-0"
140
0.1875
141
12.0
290
     0
  0
SCALE
  5
B2
102
{ACAD_REACTORS
330
99
102
}
330
99
100
AcDbScale
 70
     0
300
1/4" = 1'-0"
140
0.25
141
12.0
290
     0
  0
SCALE
  5
B3
102
{ACAD_REACTORS
330
99
102
}
330
99
100
AcDbScale
 70
     0
300
3/8" = 1'-0"
140
0.375
141
12.0
290
     0
  0
SCALE
  5
B4
102
{ACAD_REACTORS
330
99
102
}
330
99
100
AcDbScale
 70
     0
300
1/2" = 1'-0"
140
0.5
141
12.0
290
     0
  0
SCALE
  5
B5
102
{ACAD_REACTORS
330
99
102
}
330
99
100
AcDbScale
 70
     0
300
3/4" = 1'-0"
140
0.75
141
12.0
290
     0
  0
SCALE
  5
B6
102
{ACAD_REACTORS
330
99
102
}
330
99
100
AcDbScale
 70
     0
300
1" = 1'-0"
140
1.0
141
12.0
290
     0
  0
SCALE
  5
B7
102
{ACAD_REACTORS
330
99
102
}
330
99
100
AcDbScale
 70
     0
300
1-1/2" = 1'-0"
140
1.5
141
12.0
290
     0
  0
SCALE
  5
B8
102
{ACAD_REACTORS
330
99
102
}
330
99
100
AcDbScale
 70
     0
300
3" = 1'-0"
140
3.0
141
12.0
290
     0
  0
SCALE
  5
B9
102
{ACAD_REACTORS
330
99
102
}
330
99
100
AcDbScale
 70
     0
300
6" = 1'-0"
140
6.0
141
12.0
290
     0
  0
SCALE
  5
BA
102
{ACAD_REACTORS
330
99
102
}
330
99
100
AcDbScale
 70
     0
300
1'-0" = 1'-0"
140
12.0
141
12.0
290
     0
  0
TABLESTYLE
  5
93
102
{ACAD_REACTORS
330
92
102
}
330
92
100
AcDbTableStyle
  3
Standard
 70
     0
 71
     0
 40
0.06
 41
0.06
280
     0
281
     0
  7
Standard
140
0.18
170
     2
 62
     0
 63
     7
283
     0
 90
      512
 91
        0
  1

274
    -2
284
     1
 64
     0
275
    -2
285
     1
 65
     0
276
    -2
286
     1
 66
     0
277
    -2
287
     1
 67
     0
278
    -2
288
     1
 68
     0
279
    -2
289
     1
 69
     0
  7
Standard
140
0.25
170
     5
 62
     0
 63
     7
283
     0
 90
      512
 91
        0
  1

274
    -2
284
     1
 64
     0
275
    -2
285
     1
 65
     0
276
    -2
286
     1
 66
     0
277
    -2
287
     1
 67
     0
278
    -2
288
     1
 68
     0
279
    -2
289
     1
 69
     0
  7
Standard
140
0.18
170
     5
 62
     0
 63
     7
283
     0
 90
      512
 91
        0
  1

274
    -2
284
     1
 64
     0
275
    -2
285
     1
 65
     0
276
    -2
286
     1
 66
     0
277
    -2
287
     1
 67
     0
278
    -2
288
     1
 68
     0
279
    -2
289
     1
 69
     0
  0
DICTIONARYVAR
  5
128AC
102
{ACAD_REACTORS
330
59
102
}
330
59
100
DictionaryVariables
280
     0
  1
1:1
  0
DICTIONARYVAR
  5
98
102
{ACAD_REACTORS
330
59
102
}
330
59
100
DictionaryVariables
280
     0
  1
Standard
  0
DICTIONARYVAR
  5
359
102
{ACAD_REACTORS
330
59
102
}
330
59
100
DictionaryVariables
280
     0
  1
2
  0
DICTIONARYVAR
  5
11E4F
102
{ACAD_REACTORS
330
59
102
}
330
59
100
DictionaryVariables
280
     0
  1
0
  0
DICTIONARYVAR
  5
358
102
{ACAD_REACTORS
330
59
102
}
330
59
100
DictionaryVariables
280
     0
  1
1
  0
DICTIONARYVAR
  5
F7B
102
{ACAD_REACTORS
330
59
102
}
330
59
100
DictionaryVariables
280
     0
  1
0
  0
DICTIONARYVAR
  5
44A
102
{ACAD_REACTORS
330
59
102
}
330
59
100
DictionaryVariables
280
     0
  1
0
  0
DICTIONARYVAR
  5
448
102
{ACAD_REACTORS
330
59
102
}
330
59
100
DictionaryVariables
280
     0
  1
1
  0
DICTIONARYVAR
  5
1051
102
{ACAD_REACTORS
330
59
102
}
330
59
100
DictionaryVariables
280
     0
  1

  0
DICTIONARYVAR
  5
F7A
102
{ACAD_REACTORS
330
59
102
}
330
59
100
DictionaryVariables
280
     0
  1
127
  0
DICTIONARYVAR
  5
11DF4
102
{ACAD_REACTORS
330
59
102
}
330
59
100
DictionaryVariables
280
     0
  1
1
  0
XRECORD
  5
10A7F
102
{ACAD_REACTORS
330
10A7E
102
}
330
10A7E
100
AcDbXrecord
280
     1
  0
XRECORD
  5
4506
102
{ACAD_REACTORS
330
6E9
102
}
330
6E9
100
AcDbXrecord
280
     1
 91
      535
301

290
     0
302
0
330
0
 90
        8
 62
     5
370
    -3
331
16
  1
색상_5
330
0
 90
        8
 62
     3
370
    -3
331
16
  1
색상_3
330
0
 90
        8
 62
     4
370
    -3
331
16
  1
색상_4
330
0
 90
        8
 62
     2
370
    -3
331
16
  1
색상_2
330
0
 90
        8
 62
     1
370
    -3
331
16
  1
색상_1
330
0
 90
        8
 62
     6
370
    -3
331
16
  1
색상_6
330
0
 90
        0
 62
     7
370
    -3
331
16
  1
색상_7
330
0
 90
        8
 62
     6
370
    50
331
16
  1
색상_6
330
0
 90
        8
 62
     4
370
    50
331
16
  1
색상_4
330
0
 90
        8
 62
     1
370
    35
331
0
  1
색상_1
330
49B
 90
        8
 62
     9
370
    18
331
16
  1
색상_9
330
0
 90
        8
 62
     7
370
    -3
331
16
  1
색상_7
330
0
 90
        8
 62
     1
370
    25
331
16
  1
색상_1
330
2E
 90
        8
 62
     5
370
    -3
331
16
  1
색상_5
330
0
 90
        8
 62
     2
370
    25
331
0
  1
색상_2
330
0
 90
        8
 62
     2
370
    25
331
0
  1
색상_2
330
0
 90
        8
 62
     1
370
    35
331
0
  1
색상_1
330
0
 90
        8
 62
     7
370
    25
331
16
  1
색상_7
330
25
 90
        8
 62
     7
370
    25
331
16
  1
색상_7
330
23
 90
        8
 62
     4
370
    50
331
16
  1
색상_4
330
10
 90
        8
 62
     7
370
    -3
331
16
  1
색상_7
  0
ENDSEC
  0
EOF
