  0
SECTION
  2
HEADER
  9
$ACADVER
  1
AC1015
  9
$ACADMAINTVER
 70
    20
  9
$DWGCODEPAGE
  3
ANSI_1252
  9
$INSBASE
 10
0.0
 20
0.0
 30
0.0
  9
$EXTMIN
 10
-126.9144206627865
 20
-361.6974463392694
 30
0.0
  9
$EXTMAX
 10
445.5655383126923
 20
122.0491021988169
 30
0.0
  9
$LIMMIN
 10
0.0
 20
0.0
  9
$LIMMAX
 10
420.0
 20
297.0
  9
$ORTHOMODE
 70
     1
  9
$REGENMODE
 70
     1
  9
$FILLMODE
 70
     1
  9
$QTEXTMODE
 70
     0
  9
$MIRRTEXT
 70
     0
  9
$LTSCALE
 40
23.1
  9
$ATTMODE
 70
     1
  9
$TEXTSIZE
 40
3.5
  9
$TRACEWID
 40
0.05
  9
$TEXTSTYLE
  7
STANDARD
  9
$CLAYER
  8
0
  9
$CELTYPE
  6
BYLAYER
  9
$CECOLOR
 62
   256
  9
$CELTSCALE
 40
1.0
  9
$DISPSILH
 70
     0
  9
$DIMSCALE
 40
1.0
  9
$DIMASZ
 40
4.57
  9
$DIMEXO
 40
0.0625
  9
$DIMDLI
 40
0.38
  9
$DIMRND
 40
0.0
  9
$DIMDLE
 40
0.0
  9
$DIMEXE
 40
0.18
  9
$DIMTP
 40
0.01
  9
$DIMTM
 40
0.01
  9
$DIMTXT
 40
3.5
  9
$DIMCEN
 40
0.09
  9
$DIMTSZ
 40
0.0
  9
$DIMTOL
 70
     0
  9
$DIMLIM
 70
     0
  9
$DIMTIH
 70
     0
  9
$DIMTOH
 70
     0
  9
$DIMSE1
 70
     0
  9
$DIMSE2
 70
     0
  9
$DIMTAD
 70
     1
  9
$DIMZIN
 70
     8
  9
$DIMBLK
  1

  9
$DIMASO
 70
     1
  9
$DIMSHO
 70
     1
  9
$DIMPOST
  1

  9
$DIMAPOST
  1

  9
$DIMALT
 70
     0
  9
$DIMALTD
 70
     2
  9
$DIMALTF
 40
25.4
  9
$DIMLFAC
 40
1.0
  9
$DIMTOFL
 70
     0
  9
$DIMTVP
 40
0.0
  9
$DIMTIX
 70
     0
  9
$DIMSOXD
 70
     0
  9
$DIMSAH
 70
     0
  9
$DIMBLK1
  1

  9
$DIMBLK2
  1

  9
$DIMSTYLE
  2
STANDARD
  9
$DIMCLRD
 70
     0
  9
$DIMCLRE
 70
     0
  9
$DIMCLRT
 70
     0
  9
$DIMTFAC
 40
1.0
  9
$DIMGAP
 40
0.09
  9
$DIMJUST
 70
     0
  9
$DIMSD1
 70
     0
  9
$DIMSD2
 70
     0
  9
$DIMTOLJ
 70
     1
  9
$DIMTZIN
 70
     8
  9
$DIMALTZ
 70
     0
  9
$DIMALTTZ
 70
     0
  9
$DIMUPT
 70
     0
  9
$DIMDEC
 70
     3
  9
$DIMTDEC
 70
     3
  9
$DIMALTU
 70
     2
  9
$DIMALTTD
 70
     2
  9
$DIMTXSTY
  7
STANDARD
  9
$DIMAUNIT
 70
     0
  9
$DIMADEC
 70
     0
  9
$DIMALTRND
 40
0.0
  9
$DIMAZIN
 70
     0
  9
$DIMDSEP
 70
    46
  9
$DIMATFIT
 70
     0
  9
$DIMFRAC
 70
     0
  9
$DIMLDRBLK
  1

  9
$DIMLUNIT
 70
     2
  9
$DIMLWD
 70
    -2
  9
$DIMLWE
 70
    -2
  9
$DIMTMOVE
 70
     0
  9
$LUNITS
 70
     2
  9
$LUPREC
 70
     4
  9
$SKETCHINC
 40
0.1
  9
$FILLETRAD
 40
12.25
  9
$AUNITS
 70
     0
  9
$AUPREC
 70
     0
  9
$MENU
  1
.
  9
$ELEVATION
 40
0.0
  9
$PELEVATION
 40
0.0
  9
$THICKNESS
 40
0.0
  9
$LIMCHECK
 70
     0
  9
$CHAMFERA
 40
0.0
  9
$CHAMFERB
 40
0.0
  9
$CHAMFERC
 40
0.0
  9
$CHAMFERD
 40
0.0
  9
$SKPOLY
 70
     0
  9
$TDCREATE
 40
2457401.551698970
  9
$TDUCREATE
 40
2457401.510032303
  9
$TDUPDATE
 40
2457401.643990011
  9
$TDUUPDATE
 40
2457401.602323345
  9
$TDINDWG
 40
0.0922935764
  9
$TDUSRTIMER
 40
0.0922923380
  9
$USRTIMER
 70
     1
  9
$ANGBASE
 50
0.0
  9
$ANGDIR
 70
     0
  9
$PDMODE
 70
     3
  9
$PDSIZE
 40
0.3125
  9
$PLINEWID
 40
0.0
  9
$SPLFRAME
 70
     0
  9
$SPLINETYPE
 70
     6
  9
$SPLINESEGS
 70
     8
  9
$HANDSEED
  5
21EF7
  9
$SURFTAB1
 70
     6
  9
$SURFTAB2
 70
     6
  9
$SURFTYPE
 70
     6
  9
$SURFU
 70
     6
  9
$SURFV
 70
     6
  9
$UCSBASE
  2

  9
$UCSNAME
  2

  9
$UCSORG
 10
0.0
 20
0.0
 30
0.0
  9
$UCSXDIR
 10
1.0
 20
0.0
 30
0.0
  9
$UCSYDIR
 10
0.0
 20
1.0
 30
0.0
  9
$UCSORTHOREF
  2

  9
$UCSORTHOVIEW
 70
     0
  9
$UCSORGTOP
 10
0.0
 20
0.0
 30
0.0
  9
$UCSORGBOTTOM
 10
0.0
 20
0.0
 30
0.0
  9
$UCSORGLEFT
 10
0.0
 20
0.0
 30
0.0
  9
$UCSORGRIGHT
 10
0.0
 20
0.0
 30
0.0
  9
$UCSORGFRONT
 10
0.0
 20
0.0
 30
0.0
  9
$UCSORGBACK
 10
0.0
 20
0.0
 30
0.0
  9
$PUCSBASE
  2

  9
$PUCSNAME
  2

  9
$PUCSORG
 10
0.0
 20
0.0
 30
0.0
  9
$PUCSXDIR
 10
1.0
 20
0.0
 30
0.0
  9
$PUCSYDIR
 10
0.0
 20
1.0
 30
0.0
  9
$PUCSORTHOREF
  2

  9
$PUCSORTHOVIEW
 70
     0
  9
$PUCSORGTOP
 10
0.0
 20
0.0
 30
0.0
  9
$PUCSORGBOTTOM
 10
0.0
 20
0.0
 30
0.0
  9
$PUCSORGLEFT
 10
0.0
 20
0.0
 30
0.0
  9
$PUCSORGRIGHT
 10
0.0
 20
0.0
 30
0.0
  9
$PUCSORGFRONT
 10
0.0
 20
0.0
 30
0.0
  9
$PUCSORGBACK
 10
0.0
 20
0.0
 30
0.0
  9
$USERI1
 70
     0
  9
$USERI2
 70
     0
  9
$USERI3
 70
     0
  9
$USERI4
 70
     0
  9
$USERI5
 70
     0
  9
$USERR1
 40
0.0
  9
$USERR2
 40
0.0
  9
$USERR3
 40
0.0
  9
$USERR4
 40
0.0
  9
$USERR5
 40
0.0
  9
$WORLDVIEW
 70
     1
  9
$SHADEDGE
 70
     3
  9
$SHADEDIF
 70
    70
  9
$TILEMODE
 70
     1
  9
$MAXACTVP
 70
    64
  9
$PINSBASE
 10
0.0
 20
0.0
 30
0.0
  9
$PLIMCHECK
 70
     0
  9
$PEXTMIN
 10
28.69141678810127
 20
19.6363175392151
 30
0.0
  9
$PEXTMAX
 10
258.2227510929107
 20
176.7268578529358
 30
0.0
  9
$PLIMMIN
 10
-5.027069091796875
 20
-6.805083274841307
  9
$PLIMMAX
 10
291.9412536621094
 20
203.1682443618775
  9
$UNITMODE
 70
     0
  9
$VISRETAIN
 70
     1
  9
$PLINEGEN
 70
     0
  9
$PSLTSCALE
 70
     1
  9
$TREEDEPTH
 70
  3020
  9
$CMLSTYLE
  2
STANDARD
  9
$CMLJUST
 70
     0
  9
$CMLSCALE
 40
1.0
  9
$PROXYGRAPHICS
 70
     1
  9
$MEASUREMENT
 70
     1
  9
$CELWEIGHT
370
    -1
  9
$ENDCAPS
280
     0
  9
$JOINSTYLE
280
     0
  9
$LWDISPLAY
290
     0
  9
$INSUNITS
 70
     0
  9
$HYPERLINKBASE
  1

  9
$STYLESHEET
  1
A1-A2.CTB
  9
$XEDIT
290
     1
  9
$CEPSNTYPE
380
     0
  9
$PSTYLEMODE
290
     1
  9
$FINGERPRINTGUID
  2
{87DAC724-E677-4167-A631-443302DCF3F2}
  9
$VERSIONGUID
  2
{FB6A9E09-11DC-4DA0-AD29-6A42C10A3BB0}
  9
$EXTNAMES
290
     1
  9
$PSVPSCALE
 40
0.0
  9
$OLESTARTUP
290
     0
  0
ENDSEC
  0
SECTION
  2
CLASSES
  0
CLASS
  1
ACDBDICTIONARYWDFLT
  2
AcDbDictionaryWithDefault
  3
ObjectDBX Classes
 90
        0
280
     0
281
     0
  0
CLASS
  1
MATERIAL
  2
AcDbMaterial
  3
ObjectDBX Classes
 90
     1153
280
     0
281
     0
  0
CLASS
  1
VISUALSTYLE
  2
AcDbVisualStyle
  3
ObjectDBX Classes
 90
     4095
280
     0
281
     0
  0
CLASS
  1
TABLESTYLE
  2
AcDbTableStyle
  3
ObjectDBX Classes
 90
     4095
280
     0
281
     0
  0
CLASS
  1
SORTENTSTABLE
  2
AcDbSortentsTable
  3
ObjectDBX Classes
 90
        0
280
     0
281
     0
  0
CLASS
  1
DICTIONARYVAR
  2
AcDbDictionaryVar
  3
ObjectDBX Classes
 90
        0
280
     0
281
     0
  0
CLASS
  1
EXACXREFPANELOBJECT
  2
ExAcXREFPanelObject
  3
EXAC_ESW
 90
    33793
280
     1
281
     0
  0
CLASS
  1
NPOCOLLECTION
  2
AcDbImpNonPersistentObjectsCollection
  3
ObjectDBX Classes
 90
    33921
280
     1
281
     0
  0
CLASS
  1
ACDBPLACEHOLDER
  2
AcDbPlaceHolder
  3
ObjectDBX Classes
 90
        0
280
     0
281
     0
  0
CLASS
  1
LAYOUT
  2
AcDbLayout
  3
ObjectDBX Classes
 90
        0
280
     0
281
     0
  0
CLASS
  1
SCALE
  2
AcDbScale
  3
ObjectDBX Classes
 90
     1153
280
     0
281
     0
  0
CLASS
  1
MLEADERSTYLE
  2
AcDbMLeaderStyle
  3
ACDB_MLEADERSTYLE_CLASS
 90
     4095
280
     0
281
     0
  0
CLASS
  1
ACDBSECTIONVIEWSTYLE
  2
AcDbSectionViewStyle
  3
ObjectDBX Classes
 90
     1025
280
     0
281
     0
  0
CLASS
  1
ACDBDETAILVIEWSTYLE
  2
AcDbDetailViewStyle
  3
ObjectDBX Classes
 90
     1025
280
     0
281
     0
  0
CLASS
  1
CELLSTYLEMAP
  2
AcDbCellStyleMap
  3
ObjectDBX Classes
 90
     1152
280
     0
281
     0
  0
CLASS
  1
ACAD_EVALUATION_GRAPH
  2
AcDbEvalGraph
  3
ObjectDBX Classes
 90
    33921
280
     0
281
     0
  0
CLASS
  1
ACAECUSTOBJ
  2
AcAeEditorObj
  3
AcAeEditorObj
 90
    33792
280
     0
281
     0
  0
CLASS
  1
ACDB_DYNAMICBLOCKPURGEPREVENTER_VERSION
  2
AcDbDynamicBlockPurgePreventer
  3
ObjectDBX Classes
 90
    33921
280
     0
281
     0
  0
CLASS
  1
FIELD
  2
AcDbField
  3
ObjectDBX Classes
 90
     1152
280
     0
281
     0
  0
CLASS
  1
FIELDLIST
  2
AcDbFieldList
  3
ObjectDBX Classes
 90
     1152
280
     0
281
     0
  0
ENDSEC
  0
SECTION
  2
TABLES
  0
TABLE
  2
VPORT
  5
8
330
0
100
AcDbSymbolTable
 70
     1
  0
VPORT
  5
1F4
330
8
100
AcDbSymbolTableRecord
100
AcDbViewportTableRecord
  2
*ACTIVE
 70
     0
 10
0.0
 20
0.0
 11
1.0
 21
1.0
 12
35.92121474926887
 22
-10.39680928185564
 13
0.0
 23
0.0
 14
1.0
 24
1.0
 15
0.0
 25
0.0
 16
0.0
 26
0.0
 36
1.0
 17
0.0
 27
0.0
 37
0.0
 40
118.1763052456575
 41
2.124153498871331
 42
50.0
 43
0.0
 44
0.0
 50
0.0
 51
0.0
 71
     0
 72
  2000
 73
     1
 74
     1
 75
     0
 76
     0
 77
     0
 78
     0
281
     0
 65
     1
110
0.0
120
0.0
130
0.0
111
1.0
121
0.0
131
0.0
112
0.0
122
1.0
132
0.0
 79
     0
146
0.0
1001
ACAD_NAV_VCDISPLAY
1070
     3
  0
ENDTAB
  0
TABLE
  2
LTYPE
  5
5
330
0
100
AcDbSymbolTable
 70
    11
  0
LTYPE
  5
14
330
5
100
AcDbSymbolTableRecord
100
AcDbLinetypeTableRecord
  2
BYBLOCK
 70
     0
  3

 72
    65
 73
     0
 40
0.0
  0
LTYPE
  5
15
330
5
100
AcDbSymbolTableRecord
100
AcDbLinetypeTableRecord
  2
BYLAYER
 70
     0
  3

 72
    65
 73
     0
 40
0.0
  0
LTYPE
  5
16
330
5
100
AcDbSymbolTableRecord
100
AcDbLinetypeTableRecord
  2
CONTINUOUS
 70
     0
  3
Solid line
 72
    65
 73
     0
 40
0.0
  0
LTYPE
  5
9C48
330
5
100
AcDbSymbolTableRecord
100
AcDbLinetypeTableRecord
  2
CENTER
 70
     0
  3
____ _ ____ _ ____ _ ____ _ ____ _ ____ _ ____
 72
    65
 73
     4
 40
0.6
 49
0.375
 74
     0
 49
-0.075
 74
     0
 49
0.075
 74
     0
 49
-0.075
 74
     0
  0
LTYPE
  5
20A82
330
5
100
AcDbSymbolTableRecord
100
AcDbLinetypeTableRecord
  2
HIDDEN
 70
     0
  3
- - - - - - - - - - - - - - - - - - - -
 72
    65
 73
     2
 40
0.2
 49
0.1
 74
     0
 49
-0.1
 74
     0
  0
ENDTAB
  0
TABLE
  2
LAYER
  5
2
102
{ACAD_XDICTIONARY
360
422A
102
}
330
0
100
AcDbSymbolTable
 70
    24
  0
LAYER
  5
10
102
{ACAD_XDICTIONARY
360
1B2F5
102
}
330
2
100
AcDbSymbolTableRecord
100
AcDbLayerTableRecord
  2
0
 70
     0
 62
     7
  6
CONTINUOUS
370
    -3
390
318A
  0
LAYER
  5
3F8C
102
{ACAD_XDICTIONARY
360
1B2F7
102
}
330
2
100
AcDbSymbolTableRecord
100
AcDbLayerTableRecord
  2
1
 70
     0
 62
     4
  6
BYBLOCK
370
    50
390
318A
  0
LAYER
  5
3FA7
330
2
100
AcDbSymbolTableRecord
100
AcDbLayerTableRecord
  2
Defpoints
 70
     0
 62
     7
  6
CONTINUOUS
290
     0
370
    -3
390
318A
  0
LAYER
  5
9C4A
102
{ACAD_XDICTIONARY
360
1B2F9
102
}
330
2
100
AcDbSymbolTableRecord
100
AcDbLayerTableRecord
  2
2
 70
     0
 62
     7
  6
BYBLOCK
370
    25
390
318A
  0
LAYER
  5
9C4B
102
{ACAD_XDICTIONARY
360
1B2FB
102
}
330
2
100
AcDbSymbolTableRecord
100
AcDbLayerTableRecord
  2
4
 70
     0
 62
     2
  6
CENTER
370
    25
390
318A
  0
LAYER
  5
9C4D
102
{ACAD_XDICTIONARY
360
1B2FD
102
}
330
2
100
AcDbSymbolTableRecord
100
AcDbLayerTableRecord
  2
CUT
 70
     0
 62
     1
  6
BYBLOCK
370
    25
390
318A
  0
LAYER
  5
9C4E
102
{ACAD_XDICTIONARY
360
1B2FF
102
}
330
2
100
AcDbSymbolTableRecord
100
AcDbLayerTableRecord
  2
NOCUT
 70
     0
 62
     7
  6
BYBLOCK
370
    25
390
318A
  0
LAYER
  5
9C50
102
{ACAD_XDICTIONARY
360
1B303
102
}
330
2
100
AcDbSymbolTableRecord
100
AcDbLayerTableRecord
  2
SK1
 70
     0
 62
     4
  6
BYBLOCK
370
    50
390
318A
  0
LAYER
  5
9C51
102
{ACAD_XDICTIONARY
360
1B305
102
}
330
2
100
AcDbSymbolTableRecord
100
AcDbLayerTableRecord
  2
SK4
 70
     0
 62
     2
  6
CENTER
370
    25
390
318A
  0
LAYER
  5
13335
102
{ACAD_XDICTIONARY
360
1B307
102
}
330
2
100
AcDbSymbolTableRecord
100
AcDbLayerTableRecord
  2
INFTOTAL
 70
     0
 62
     9
  6
BYBLOCK
370
    18
390
318A
1001
AcAecLayerStandard
1000

1000

  0
LAYER
  5
20A91
102
{ACAD_XDICTIONARY
360
210BC
102
}
330
2
100
AcDbSymbolTableRecord
100
AcDbLayerTableRecord
  2
SK3
 70
     0
 62
     1
  6
HIDDEN
370
    -3
390
318A
1001
AcAecLayerStandard
1000

1000

1001
AcCmTransparency
1071
        0
  0
LAYER
  5
21257
102
{ACAD_XDICTIONARY
360
21258
102
}
330
2
100
AcDbSymbolTableRecord
100
AcDbLayerTableRecord
  2
SK2
 70
     0
 62
     7
  6
CONTINUOUS
370
    25
390
318A
  0
LAYER
  5
21E3E
102
{ACAD_XDICTIONARY
360
21E3F
102
}
330
2
100
AcDbSymbolTableRecord
100
AcDbLayerTableRecord
  2
SKVIEW63
 70
     0
 62
     5
  6
CONTINUOUS
370
    35
390
318A
  0
ENDTAB
  0
TABLE
  2
STYLE
  5
3
330
0
100
AcDbSymbolTable
 70
     4
  0
STYLE
  5
11
330
3
100
AcDbSymbolTableRecord
100
AcDbTextStyleTableRecord
  2
STANDARD
 70
     0
 40
3.5
 41
0.8
 50
0.0
 71
     0
 42
3.5
  3
monos.ttf
  4

1001
ACAD
1000
Monospac821 BT
1071
       49
  0
STYLE
  5
21E40
330
3
100
AcDbSymbolTableRecord
100
AcDbTextStyleTableRecord
  2
BMG_Text
 70
     0
 40
3.5
 41
1.0
 50
0.0
 71
     0
 42
0.2
  3
monos.ttf
  4

1001
ACAD
1000
Monospac821 BT
1071
       49
  0
ENDTAB
  0
TABLE
  2
VIEW
  5
6
330
0
100
AcDbSymbolTable
 70
     0
  0
ENDTAB
  0
TABLE
  2
UCS
  5
7
330
0
100
AcDbSymbolTable
 70
     0
  0
ENDTAB
  0
TABLE
  2
APPID
  5
9
330
0
100
AcDbSymbolTable
 70
    16
  0
APPID
  5
23B
330
9
100
AcDbSymbolTableRecord
100
AcDbRegAppTableRecord
  2
ACAD
 70
     0
  0
APPID
  5
3395
330
9
100
AcDbSymbolTableRecord
100
AcDbRegAppTableRecord
  2
ACAD_EXEMPT_FROM_CAD_STANDARDS
 70
     0
  0
APPID
  5
4229
330
9
100
AcDbSymbolTableRecord
100
AcDbRegAppTableRecord
  2
AcAecLayerStandard
 70
     0
  0
APPID
  5
9A1B
330
9
100
AcDbSymbolTableRecord
100
AcDbRegAppTableRecord
  2
ACAD_PSEXT
 70
     0
  0
APPID
  5
1B313
330
9
100
AcDbSymbolTableRecord
100
AcDbRegAppTableRecord
  2
ACAD_NAV_VCDISPLAY
 70
     0
  0
APPID
  5
1B355
330
9
100
AcDbSymbolTableRecord
100
AcDbRegAppTableRecord
  2
ACAD_MLEADERVER
 70
     0
  0
APPID
  5
1EC7F
330
9
100
AcDbSymbolTableRecord
100
AcDbRegAppTableRecord
  2
ACAUTHENVIRON
 70
     0
  0
APPID
  5
1EC82
330
9
100
AcDbSymbolTableRecord
100
AcDbRegAppTableRecord
  2
AcDbDynamicBlockTrueName
 70
     0
  0
APPID
  5
1EC83
330
9
100
AcDbSymbolTableRecord
100
AcDbRegAppTableRecord
  2
AcDbDynamicBlockGUID
 70
     0
  0
APPID
  5
20A85
330
9
100
AcDbSymbolTableRecord
100
AcDbRegAppTableRecord
  2
AcCmTransparency
 70
     0
  0
APPID
  5
20AE2
330
9
100
AcDbSymbolTableRecord
100
AcDbRegAppTableRecord
  2
ACAD_DSTYLE_DIMRADIAL_EXTENSION
 70
     0
  0
APPID
  5
20CB0
330
9
100
AcDbSymbolTableRecord
100
AcDbRegAppTableRecord
  2
AcadAnnotative
 70
     0
  0
APPID
  5
20D39
330
9
100
AcDbSymbolTableRecord
100
AcDbRegAppTableRecord
  2
ACAD_DSTYLE_DIMJAG
 70
     0
  0
APPID
  5
20D3A
330
9
100
AcDbSymbolTableRecord
100
AcDbRegAppTableRecord
  2
ACAD_DSTYLE_DIMBREAK
 70
     0
  0
APPID
  5
20D3B
330
9
100
AcDbSymbolTableRecord
100
AcDbRegAppTableRecord
  2
ACAD_DSTYLE_DIMTALN
 70
     0
  0
APPID
  5
20D3C
330
9
100
AcDbSymbolTableRecord
100
AcDbRegAppTableRecord
  2
ACAD_DSTYLE_DIMJOGGED_JOGANGLE_SYMBOL
 70
     0
  0
ENDTAB
  0
TABLE
  2
DIMSTYLE
  5
A
330
0
100
AcDbSymbolTable
 70
     9
100
AcDbDimStyleTable
 71
     1
340
243
  0
DIMSTYLE
105
243
102
{ACAD_REACTORS
330
21B5F
330
21B60
330
21B61
330
21B62
330
21B64
330
21B63
102
}
330
A
100
AcDbSymbolTableRecord
100
AcDbDimStyleTableRecord
  2
STANDARD
 70
     0
 41
4.57
 47
0.01
 48
0.01
 73
     0
 74
     0
 77
     1
 78
     8
140
3.5
271
     3
272
     3
284
     8
289
     0
340
11
  0
ENDTAB
  0
TABLE
  2
BLOCK_RECORD
  5
1
330
0
100
AcDbSymbolTable
 70
    65
  0
BLOCK_RECORD
  5
1F
102
{ACAD_XDICTIONARY
360
339C
102
}
330
1
100
AcDbSymbolTableRecord
100
AcDbBlockTableRecord
  2
*MODEL_SPACE
340
31A6
  0
BLOCK_RECORD
  5
1B
330
1
100
AcDbSymbolTableRecord
100
AcDbBlockTableRecord
  2
*PAPER_SPACE
340
31A7
  0
BLOCK_RECORD
  5
1B3D7
102
{ACAD_XDICTIONARY
360
1DE81
102
}
330
1
100
AcDbSymbolTableRecord
100
AcDbBlockTableRecord
  2
cero_point
340
0
310
28000000200000002000000001002000000000000010000001000000010000000000000000000000302821FF302821FF302821FF302821FF302821FF302821FF302821FF302821FF302821FF302821FF302821FF302821FF302821FF302821FF302821FF302821FF302821FF302821FF302821FF302821FF302821FF302821
310
FF302821FF302821FF302821FF302821FF302821FF302821FF302821FF302821FF302821FF302821FF302821FF302821FF302821FF302821FF302821FF302821FF302821FF302821FF302821FF302821FF302821FF302821FF302821FF302821FF302821FFFFFF00FFFFFF00FFFFFF00FF302821FF302821FF302821FF3028
310
21FF302821FF302821FF302821FF302821FF302821FF302821FF302821FF302821FF302821FF302821FF302821FF302821FF302821FF302821FF302821FF302821FF302821FF302821FF302821FF302821FFFFFF00FFFFFF00FFFFFF00FFFFFF00FFFFFF00FFFFFF00FFFFFF00FF302821FFFFFF00FFFFFF00FFFFFF00FF30
310
2821FF302821FF302821FF302821FF302821FF302821FF302821FF302821FF302821FF302821FF302821FF302821FF302821FF302821FF302821FF302821FF302821FF302821FF302821FFFFFF00FFFFFF00FFFFFF00FFFFFF00FFFFFF00FFFFFF00FFFFFF00FFFFFF00FFFFFF00FF302821FF302821FF302821FF302821FF
310
FFFF00FFFFFF00FF302821FF302821FF302821FF302821FF302821FF302821FF302821FF302821FF302821FF302821FF302821FF302821FF302821FF302821FF302821FF302821FFFFFF00FFFFFF00FFFFFF00FFFFFF00FFFFFF00FFFFFF00FFFFFF00FFFFFF00FFFFFF00FFFFFF00FF302821FF302821FF302821FF302821
310
FF302821FF302821FFFFFF00FFFFFF00FF302821FF302821FF302821FF302821FF302821FF302821FF302821FF302821FF302821FF302821FF302821FF302821FF302821FFFFFF00FFFFFF00FFFFFF00FFFFFF00FFFFFF00FFFFFF00FFFFFF00FFFFFF00FFFFFF00FFFFFF00FFFFFF00FF302821FF302821FF302821FF3028
310
21FF302821FF302821FF302821FF302821FFFFFF00FF302821FF302821FF302821FF302821FF302821FF302821FF302821FF302821FF302821FF302821FF302821FFFFFF00FFFFFF00FFFFFF00FFFFFF00FFFFFF00FFFFFF00FFFFFF00FFFFFF00FFFFFF00FFFFFF00FFFFFF00FFFFFF00FF302821FF302821FF302821FF30
310
2821FF302821FF302821FF302821FF302821FF302821FFFFFF00FF302821FF302821FF302821FF302821FF302821FF302821FF302821FF302821FF302821FFFFFF00FFFFFF00FFFFFF00FFFFFF00FFFFFF00FFFFFF00FFFFFF00FFFFFF00FFFFFF00FFFFFF00FFFFFF00FFFFFF00FFFFFF00FF302821FF302821FF302821FF
310
302821FF302821FF302821FF302821FF302821FF302821FF302821FFFFFF00FF302821FF302821FF302821FF302821FF302821FF302821FF302821FFFFFF00FFFFFF00FFFFFF00FFFFFF00FFFFFF00FFFFFF00FFFFFF00FFFFFF00FFFFFF00FFFFFF00FFFFFF00FFFFFF00FFFFFF00FFFFFF00FF302821FF302821FF302821
310
FF302821FF302821FF302821FF302821FF302821FF302821FF302821FFFFFF00FF302821FF302821FF302821FF302821FF302821FF302821FF302821FFFFFF00FFFFFF00FFFFFF00FFFFFF00FFFFFF00FFFFFF00FFFFFF00FFFFFF00FFFFFF00FFFFFF00FFFFFF00FFFFFF00FFFFFF00FFFFFF00FF302821FF302821FF3028
310
21FF302821FF302821FF302821FF302821FF302821FF302821FF302821FF302821FFFFFF00FF302821FF302821FF302821FF302821FF302821FFFFFF00FFFFFF00FFFFFF00FFFFFF00FFFFFF00FFFFFF00FFFFFF00FFFFFF00FFFFFF00FFFFFF00FFFFFF00FFFFFF00FFFFFF00FFFFFF00FFFFFF00FF302821FF302821FF30
310
2821FF302821FF302821FF302821FF302821FF302821FF302821FF302821FF302821FF302821FFFFFF00FF302821FF302821FF302821FF302821FFFFFF00FFFFFF00FFFFFF00FFFFFF00FFFFFF00FFFFFF00FFFFFF00FFFFFF00FFFFFF00FFFFFF00FFFFFF00FFFFFF00FFFFFF00FFFFFF00FFFFFF00FF302821FF302821FF
310
302821FF302821FF302821FF302821FF302821FF302821FF302821FF302821FF302821FF302821FFFFFF00FF302821FF302821FF302821FF302821FFFFFF00FFFFFF00FFFFFF00FFFFFF00FFFFFF00FFFFFF00FFFFFF00FFFFFF00FFFFFF00FFFFFF00FFFFFF00FFFFFF00FFFFFF00FFFFFF00FFFFFF00FF302821FF302821
310
FF302821FF302821FF302821FF302821FF302821FF302821FF302821FF302821FF302821FF302821FFFFFF00FF302821FF302821FF302821FF302821FFFFFF00FFFFFF00FFFFFF00FFFFFF00FFFFFF00FFFFFF00FFFFFF00FFFFFF00FFFFFF00FFFFFF00FFFFFF00FFFFFF00FFFFFF00FFFFFF00FFFFFF00FF302821FF3028
310
21FF302821FF302821FF302821FF302821FF302821FF302821FF302821FF302821FF302821FF302821FFFFFF00FF302821FF302821FF302821FFFFFF00FFFFFF00FFFFFF00FFFFFF00FFFFFF00FFFFFF00FFFFFF00FFFFFF00FFFFFF00FFFFFF00FFFFFF00FFFFFF00FFFFFF00FFFFFF00FFFFFF00FFFFFF00FF302821FF30
310
2821FF302821FF302821FF302821FF302821FF302821FF302821FF302821FF302821FF302821FF302821FF302821FFFFFF00FF302821FF302821FFFFFF00FFFFFF00FFFFFF00FFFFFF00FFFFFF00FFFFFF00FFFFFF00FFFFFF00FFFFFF00FFFFFF00FFFFFF00FFFFFF00FFFFFF00FFFFFF00FFFFFF00FFFFFF00FFFFFF00FF
310
FFFF00FFFFFF00FFFFFF00FFFFFF00FFFFFF00FFFFFF00FFFFFF00FFFFFF00FFFFFF00FFFFFF00FFFFFF00FFFFFF00FFFFFF00FF302821FF302821FFFFFF00FF302821FF302821FF302821FF302821FF302821FF302821FF302821FF302821FF302821FF302821FF302821FF302821FF302821FF302821FFFFFF00FFFFFF00
310
FFFFFF00FFFFFF00FFFFFF00FFFFFF00FFFFFF00FFFFFF00FFFFFF00FFFFFF00FFFFFF00FFFFFF00FFFFFF00FFFFFF00FFFFFF00FF302821FF302821FFFFFF00FF302821FF302821FF302821FF302821FF302821FF302821FF302821FF302821FF302821FF302821FF302821FF302821FF302821FF302821FFFFFF00FFFFFF
310
00FFFFFF00FFFFFF00FFFFFF00FFFFFF00FFFFFF00FFFFFF00FFFFFF00FFFFFF00FFFFFF00FFFFFF00FFFFFF00FFFFFF00FF302821FF302821FF302821FF302821FFFFFF00FF302821FF302821FF302821FF302821FF302821FF302821FF302821FF302821FF302821FF302821FF302821FF302821FF302821FFFFFF00FFFF
310
FF00FFFFFF00FFFFFF00FFFFFF00FFFFFF00FFFFFF00FFFFFF00FFFFFF00FFFFFF00FFFFFF00FFFFFF00FFFFFF00FFFFFF00FF302821FF302821FF302821FF302821FFFFFF00FF302821FF302821FF302821FF302821FF302821FF302821FF302821FF302821FF302821FF302821FF302821FF302821FF302821FFFFFF00FF
310
FFFF00FFFFFF00FFFFFF00FFFFFF00FFFFFF00FFFFFF00FFFFFF00FFFFFF00FFFFFF00FFFFFF00FFFFFF00FFFFFF00FFFFFF00FF302821FF302821FF302821FF302821FFFFFF00FF302821FF302821FF302821FF302821FF302821FF302821FF302821FF302821FF302821FF302821FF302821FF302821FF302821FFFFFF00
310
FFFFFF00FFFFFF00FFFFFF00FFFFFF00FFFFFF00FFFFFF00FFFFFF00FFFFFF00FFFFFF00FFFFFF00FFFFFF00FFFFFF00FFFFFF00FF302821FF302821FF302821FF302821FF302821FFFFFF00FF302821FF302821FF302821FF302821FF302821FF302821FF302821FF302821FF302821FF302821FF302821FF302821FFFFFF
310
00FFFFFF00FFFFFF00FFFFFF00FFFFFF00FFFFFF00FFFFFF00FFFFFF00FFFFFF00FFFFFF00FFFFFF00FFFFFF00FFFFFF00FFFFFF00FF302821FF302821FF302821FF302821FF302821FFFFFF00FF302821FF302821FF302821FF302821FF302821FF302821FF302821FF302821FF302821FF302821FF302821FF302821FFFF
310
FF00FFFFFF00FFFFFF00FFFFFF00FFFFFF00FFFFFF00FFFFFF00FFFFFF00FFFFFF00FFFFFF00FFFFFF00FFFFFF00FFFFFF00FF302821FF302821FF302821FF302821FF302821FF302821FF302821FFFFFF00FF302821FF302821FF302821FF302821FF302821FF302821FF302821FF302821FF302821FF302821FF302821FF
310
FFFF00FFFFFF00FFFFFF00FFFFFF00FFFFFF00FFFFFF00FFFFFF00FFFFFF00FFFFFF00FFFFFF00FFFFFF00FFFFFF00FFFFFF00FF302821FF302821FF302821FF302821FF302821FF302821FF302821FFFFFF00FF302821FF302821FF302821FF302821FF302821FF302821FF302821FF302821FF302821FF302821FF302821
310
FFFFFF00FFFFFF00FFFFFF00FFFFFF00FFFFFF00FFFFFF00FFFFFF00FFFFFF00FFFFFF00FFFFFF00FFFFFF00FFFFFF00FF302821FF302821FF302821FF302821FF302821FF302821FF302821FF302821FF302821FFFFFF00FF302821FF302821FF302821FF302821FF302821FF302821FF302821FF302821FF302821FF3028
310
21FFFFFF00FFFFFF00FFFFFF00FFFFFF00FFFFFF00FFFFFF00FFFFFF00FFFFFF00FFFFFF00FFFFFF00FFFFFF00FF302821FF302821FF302821FF302821FF302821FF302821FF302821FF302821FF302821FF302821FF302821FFFFFF00FF302821FF302821FF302821FF302821FF302821FF302821FF302821FF302821FF30
310
2821FFFFFF00FFFFFF00FFFFFF00FFFFFF00FFFFFF00FFFFFF00FFFFFF00FFFFFF00FFFFFF00FFFFFF00FF302821FF302821FF302821FF302821FF302821FF302821FF302821FF302821FF302821FF302821FF302821FF302821FF302821FFFFFF00FF302821FF302821FF302821FF302821FF302821FF302821FF302821FF
310
302821FFFFFF00FFFFFF00FFFFFF00FFFFFF00FFFFFF00FFFFFF00FFFFFF00FFFFFF00FFFFFF00FF302821FF302821FF302821FF302821FF302821FF302821FF302821FF302821FF302821FF302821FF302821FF302821FF302821FF302821FF302821FFFFFF00FFFFFF00FF302821FF302821FF302821FF302821FF302821
310
FF302821FFFFFF00FFFFFF00FFFFFF00FFFFFF00FFFFFF00FFFFFF00FFFFFF00FFFFFF00FF302821FF302821FF302821FF302821FF302821FF302821FF302821FF302821FF302821FF302821FF302821FF302821FF302821FF302821FF302821FF302821FF302821FF302821FFFFFF00FFFFFF00FFFFFF00FFFFFF00FFFFFF
310
00FF302821FFFFFF00FFFFFF00FFFFFF00FFFFFF00FFFFFF00FFFFFF00FF302821FF302821FF302821FF302821FF302821FF302821FF302821FF302821FF302821FF302821FF302821FF302821FF302821FF302821FF302821FF302821FF302821FF302821FF302821FF302821FF302821FF302821FF302821FF302821FF30
310
2821FFFFFF00FFFFFF00FFFFFF00FF302821FF302821FF302821FF302821FF302821FF302821FF302821FF302821FF302821FF302821FF302821FF302821FF302821FF302821FF302821FF302821FF302821FF302821FF302821FF302821FF302821FF302821FF302821FF302821FF302821FF302821FF302821FF302821FF
310
302821FF302821FF302821FF302821FF302821FF302821FF302821FF302821FF302821FF302821FF302821FF302821FF302821FF302821FF302821FF302821FF302821FF302821FF
102
{BLKREFS
331
20A18
102
}
  0
BLOCK_RECORD
  5
21B65
330
1
100
AcDbSymbolTableRecord
100
AcDbBlockTableRecord
  2
*D57
340
0
  0
BLOCK_RECORD
  5
21B71
330
1
100
AcDbSymbolTableRecord
100
AcDbBlockTableRecord
  2
*D58
340
0
  0
BLOCK_RECORD
  5
21B7D
330
1
100
AcDbSymbolTableRecord
100
AcDbBlockTableRecord
  2
*D59
340
0
  0
BLOCK_RECORD
  5
21B89
330
1
100
AcDbSymbolTableRecord
100
AcDbBlockTableRecord
  2
*D60
340
0
  0
BLOCK_RECORD
  5
21B95
330
1
100
AcDbSymbolTableRecord
100
AcDbBlockTableRecord
  2
*D61
340
0
  0
BLOCK_RECORD
  5
21BA1
330
1
100
AcDbSymbolTableRecord
100
AcDbBlockTableRecord
  2
*D62
340
0
  0
BLOCK_RECORD
  5
21E35
102
{ACAD_XDICTIONARY
360
21E36
102
}
330
1
100
AcDbSymbolTableRecord
100
AcDbBlockTableRecord
  2
Name
340
0
310
28000000200000002000000001002000000000000010000001000000010000000000000000000000302821FF302821FF302821FF302821FF302821FF302821FF302821FF302821FF302821FF302821FF302821FF302821FF302821FF302821FF302821FF302821FF302821FF302821FF302821FF302821FF302821FF302821
310
FF302821FF302821FF302821FF302821FF302821FF302821FF302821FF302821FF302821FF302821FF302821FF302821FF302821FF302821FF302821FF302821FF302821FF302821FF302821FF302821FF302821FF302821FF302821FF302821FF302821FF302821FF302821FF302821FF302821FF302821FF302821FF3028
310
21FF302821FF302821FF302821FF302821FF302821FF302821FF302821FF302821FF302821FF302821FF302821FF302821FF302821FF302821FF302821FF302821FF302821FF302821FF302821FF302821FF302821FF302821FF302821FF302821FF302821FF302821FF302821FF302821FF302821FF302821FF302821FF30
310
2821FF302821FF302821FF302821FF302821FF302821FF302821FF302821FF302821FF302821FF302821FF302821FF302821FF302821FF302821FF302821FF302821FF302821FF302821FF302821FF302821FF302821FF302821FF302821FF302821FF302821FF302821FF302821FF302821FF302821FF302821FF302821FF
310
302821FF302821FF302821FF302821FF302821FF302821FF302821FF302821FF302821FF302821FF302821FF302821FF302821FF302821FF302821FF302821FF302821FF302821FF302821FF302821FF302821FF302821FF302821FF302821FF302821FF302821FF302821FF302821FF302821FF302821FF302821FF302821
310
FF302821FF302821FF302821FF302821FF302821FF302821FF302821FF302821FF302821FF302821FF302821FF302821FF302821FF302821FF302821FF302821FF302821FF302821FF302821FF302821FF302821FF302821FF302821FF302821FF302821FF302821FF302821FF302821FF302821FF302821FF302821FF3028
310
21FF302821FF302821FF302821FF302821FF302821FF302821FF302821FF302821FF302821FF302821FF302821FF302821FF302821FF302821FF302821FF302821FF302821FF302821FF302821FF302821FF302821FF302821FF302821FF302821FF302821FF302821FF302821FF302821FF302821FF302821FF302821FF30
310
2821FF302821FF302821FF302821FF302821FF302821FF302821FF302821FF302821FF302821FF302821FF302821FF302821FF302821FF302821FF302821FF302821FF302821FF302821FF302821FF302821FF302821FF302821FF302821FF302821FF302821FF302821FF302821FF302821FF302821FF302821FF302821FF
310
302821FF302821FF302821FF302821FF302821FF302821FF302821FF302821FF302821FF302821FF302821FF302821FF302821FF302821FF302821FF302821FF302821FF302821FF302821FF302821FF302821FF302821FF302821FF302821FF302821FF302821FF302821FF302821FF302821FF302821FF302821FF302821
310
FF302821FF302821FF302821FF302821FF302821FF302821FF302821FF302821FF302821FF302821FF302821FF302821FF302821FF302821FF302821FF302821FF302821FF302821FF302821FF302821FF302821FF302821FF302821FF302821FF302821FF302821FF302821FF302821FF302821FF302821FF302821FF3028
310
21FF302821FF302821FF302821FF302821FF302821FF302821FF302821FF302821FF302821FF302821FF302821FF302821FF302821FF302821FFFF0000FFFF0000FF302821FF302821FFFF0000FFFF0000FFFF0000FFFF0000FFFF0000FF302821FF302821FF302821FF302821FFFF0000FFFF0000FFFF0000FFFF0000FFFF
310
0000FFFF0000FFFF0000FFFF0000FF302821FFFF0000FFFF0000FFFF0000FFFF0000FFFF0000FFFF0000FF302821FF302821FF302821FF302821FFFF0000FFFF0000FF302821FF302821FFFF0000FFFF0000FFFF0000FFFF0000FFFF0000FF302821FF302821FF302821FF302821FFFF0000FFFF0000FFFF0000FFFF0000FF
310
FF0000FFFF0000FFFF0000FFFF0000FF302821FFFF0000FFFF0000FFFF0000FFFF0000FFFF0000FFFF0000FF302821FF302821FF302821FF302821FFFF0000FFFF0000FF302821FFFF0000FFFF0000FFFF0000FFFF0000FFFF0000FFFF0000FF302821FF302821FF302821FFFF0000FFFF0000FFFF0000FFFF0000FFFF0000
310
FFFF0000FFFF0000FFFF0000FFFF0000FF302821FFFF0000FFFF0000FFFF0000FFFF0000FFFF0000FFFF0000FF302821FF302821FF302821FF302821FFFF0000FFFF0000FF302821FFFF0000FFFF0000FFFF0000FFFF0000FFFF0000FFFF0000FFFF0000FFFF0000FFFF0000FFFF0000FFFF0000FFFF0000FFFF0000FFFF00
310
00FFFF0000FFFF0000FFFF0000FFFF0000FF302821FFFF0000FFFF0000FF302821FF302821FF302821FF302821FF302821FF302821FF302821FF302821FFFF0000FFFF0000FF302821FFFF0000FFFF0000FFFF0000FFFF0000FFFF0000FFFF0000FFFF0000FFFF0000FFFF0000FFFF0000FFFF0000FFFF0000FFFF0000FFFF
310
0000FFFF0000FFFF0000FFFF0000FFFF0000FF302821FFFF0000FFFF0000FF302821FF302821FF302821FF302821FF302821FF302821FF302821FF302821FFFF0000FFFF0000FFFF0000FFFF0000FFFF0000FFFF0000FFFF0000FFFF0000FFFF0000FFFF0000FFFF0000FFFF0000FFFF0000FF302821FFFF0000FFFF0000FF
310
FF0000FF302821FFFF0000FFFF0000FFFF0000FF302821FFFF0000FFFF0000FFFF0000FFFF0000FFFF0000FF302821FF302821FF302821FF302821FF302821FFFF0000FFFF0000FFFF0000FFFF0000FFFF0000FFFF0000FFFF0000FF302821FFFF0000FFFF0000FF302821FFFF0000FFFF0000FF302821FFFF0000FFFF0000
310
FFFF0000FF302821FFFF0000FFFF0000FFFF0000FF302821FFFF0000FFFF0000FFFF0000FFFF0000FFFF0000FF302821FF302821FF302821FF302821FF302821FFFF0000FFFF0000FFFF0000FFFF0000FF302821FFFF0000FFFF0000FF302821FFFF0000FFFF0000FFFF0000FFFF0000FFFF0000FF302821FFFF0000FFFF00
310
00FFFF0000FF302821FFFF0000FFFF0000FFFF0000FF302821FFFF0000FFFF0000FFFF0000FFFF0000FFFF0000FF302821FF302821FF302821FF302821FF302821FFFF0000FFFF0000FFFF0000FFFF0000FF302821FFFF0000FFFF0000FF302821FFFF0000FFFF0000FFFF0000FFFF0000FFFF0000FF302821FFFF0000FFFF
310
0000FFFF0000FF302821FF302821FFFF0000FFFF0000FF302821FFFF0000FFFF0000FF302821FF302821FF302821FF302821FF302821FF302821FF302821FF302821FFFF0000FFFF0000FFFF0000FF302821FF302821FFFF0000FFFF0000FF302821FF302821FFFF0000FFFF0000FFFF0000FF302821FF302821FFFF0000FF
310
FF0000FF302821FF302821FF302821FFFF0000FFFF0000FF302821FFFF0000FFFF0000FFFF0000FFFF0000FFFF0000FF302821FF302821FF302821FF302821FF302821FFFF0000FFFF0000FFFF0000FF302821FF302821FFFF0000FFFF0000FF302821FF302821FFFF0000FFFF0000FFFF0000FF302821FF302821FFFF0000
310
FFFF0000FF302821FF302821FF302821FFFF0000FFFF0000FF302821FFFF0000FFFF0000FFFF0000FFFF0000FFFF0000FF302821FF302821FF302821FF302821FF302821FF302821FF302821FF302821FF302821FF302821FF302821FF302821FF302821FF302821FF302821FF302821FF302821FF302821FF302821FF3028
310
21FF302821FF302821FF302821FF302821FF302821FF302821FF302821FF302821FF302821FF302821FF302821FF302821FF302821FF302821FF302821FF302821FF302821FF302821FF302821FF302821FF302821FF302821FF302821FF302821FF302821FF302821FF302821FF302821FF302821FF302821FF302821FF30
310
2821FF302821FF302821FF302821FF302821FF302821FF302821FF302821FF302821FF302821FF302821FF302821FF302821FF302821FF302821FF302821FF302821FF302821FF302821FF302821FF302821FF302821FF302821FF302821FF302821FF302821FF302821FF302821FF302821FF302821FF302821FF302821FF
310
302821FF302821FF302821FF302821FF302821FF302821FF302821FF302821FF302821FF302821FF302821FF302821FF302821FF302821FF302821FF302821FF302821FF302821FF302821FF302821FF302821FF302821FF302821FF302821FF302821FF302821FF302821FF302821FF302821FF302821FF302821FF302821
310
FF302821FF302821FF302821FF302821FF302821FF302821FF302821FF302821FF302821FF302821FF302821FF302821FF302821FF302821FF302821FF302821FF302821FF302821FF302821FF302821FF302821FF302821FF302821FF302821FF302821FF302821FF302821FF302821FF302821FF302821FF302821FF3028
310
21FF302821FF302821FF302821FF302821FF302821FF302821FF302821FF302821FF302821FF302821FF302821FF302821FF302821FF302821FF302821FF302821FF302821FF302821FF302821FF302821FF302821FF302821FF302821FF302821FF302821FF302821FF302821FF302821FF302821FF302821FF302821FF30
310
2821FF302821FF302821FF302821FF302821FF302821FF302821FF302821FF302821FF302821FF302821FF302821FF302821FF302821FF302821FF302821FF302821FF302821FF302821FF302821FF302821FF302821FF302821FF302821FF302821FF302821FF302821FF302821FF302821FF302821FF302821FF302821FF
310
302821FF302821FF302821FF302821FF302821FF302821FF302821FF302821FF302821FF302821FF302821FF302821FF302821FF302821FF302821FF302821FF302821FF302821FF302821FF302821FF302821FF302821FF302821FF302821FF302821FF302821FF302821FF302821FF302821FF302821FF302821FF302821
310
FF302821FF302821FF302821FF302821FF302821FF302821FF302821FF302821FF302821FF302821FF302821FF302821FF302821FF302821FF302821FF302821FF302821FF302821FF302821FF302821FF302821FF302821FF302821FF302821FF302821FF302821FF302821FF302821FF302821FF302821FF302821FF3028
310
21FF302821FF302821FF302821FF302821FF302821FF302821FF302821FF302821FF302821FF302821FF302821FF302821FF302821FF302821FF302821FF302821FF302821FF302821FF302821FF302821FF302821FF302821FF302821FF302821FF302821FF302821FF302821FF302821FF302821FF302821FF302821FF30
310
2821FF302821FF302821FF302821FF302821FF302821FF302821FF302821FF302821FF302821FF302821FF302821FF302821FF302821FF302821FF302821FF302821FF302821FF302821FF302821FF302821FF302821FF302821FF302821FF302821FF302821FF302821FF302821FF302821FF302821FF302821FF302821FF
310
302821FF302821FF302821FF302821FF302821FF302821FF302821FF302821FF302821FF302821FF302821FF302821FF302821FF302821FF302821FF302821FF302821FF302821FF
102
{BLKREFS
331
21E4E
102
}
1001
AcDbDynamicBlockGUID
1000
{15A9DAFA-FD13-4556-B9B1-5A71F15CF06E}
  0
ENDTAB
  0
ENDSEC
  0
SECTION
  2
BLOCKS
  0
BLOCK
  5
20
330
1F
100
AcDbEntity
  8
0
100
AcDbBlockBegin
  2
*MODEL_SPACE
 70
     0
 10
0.0
 20
0.0
 30
0.0
  3
*MODEL_SPACE
  1

  0
ENDBLK
  5
21
330
1F
100
AcDbEntity
  8
0
100
AcDbBlockEnd
  0
BLOCK
  5
1C
330
1B
100
AcDbEntity
 67
     1
  8
0
100
AcDbBlockBegin
  2
*PAPER_SPACE
 70
     0
 10
0.0
 20
0.0
 30
0.0
  3
*PAPER_SPACE
  1

  0
ENDBLK
  5
1D
330
1B
100
AcDbEntity
 67
     1
  8
0
100
AcDbBlockEnd
  0
BLOCK
  5
1B3D8
330
1B3D7
100
AcDbEntity
  8
0
100
AcDbBlockBegin
  2
cero_point
 70
     0
 10
0.0
 20
0.0
 30
0.0
  3
cero_point
  1

  0
HATCH
  5
1B3DA
330
1B3D7
100
AcDbEntity
  8
1
  6
ByBlock
370
    50
100
AcDbHatch
 10
0.0
 20
0.0
 30
0.0
210
0.0
220
0.0
230
1.0
  2
SOLID
 70
     1
 71
     0
 91
        2
 92
        7
 72
     1
 73
     1
 93
        3
 10
-0.0000000000001137
 20
0.0
 42
0.0
 10
-2.950972054112752
 20
0.0
 42
0.4142135623730968
 10
-0.0000000000001137
 20
-2.950972054112583
 42
0.0
 97
        0
 92
        7
 72
     1
 73
     1
 93
        3
 10
-0.0000000000001137
 20
2.950972054112638
 42
0.0
 10
-0.0000000000001137
 20
0.0
 42
0.0
 10
2.950972054112526
 20
0.0
 42
0.4142135623730966
 97
        0
 75
     0
 76
     1
 47
0.1190009775223266
 98
        2
 10
-0.7445530588121301
 20
-0.9212244733764125
 10
1.279464601852737
 20
1.696796923046345
  0
LWPOLYLINE
  5
1B3DB
330
1B3D7
100
AcDbEntity
  8
1
  6
ByBlock
370
    50
100
AcDbPolyline
 90
        3
 70
     1
 43
0.0
 10
-0.0000000000001137
 20
0.0
 10
2.950972054112526
 20
0.0
 42
0.4142135623730966
 10
-0.0000000000001137
 20
2.950972054112638
  0
LINE
  5
1B3DC
330
1B3D7
100
AcDbEntity
  8
1
  6
ByBlock
370
    50
100
AcDbLine
 10
-0.0000000000001137
 20
-2.950972054112583
 30
0.0
 11
-0.0000000000001137
 21
2.950972054112638
 31
0.0
  0
LWPOLYLINE
  5
1B3DD
330
1B3D7
100
AcDbEntity
  8
1
  6
ByBlock
370
    50
100
AcDbPolyline
 90
        3
 70
     1
 43
0.0
 10
-0.0000000000001137
 20
-2.950972054112583
 10
-0.0000000000001137
 20
0.0
 10
-2.950972054112752
 20
0.0
 42
0.4142135623730966
  0
LINE
  5
1B3DE
330
1B3D7
100
AcDbEntity
  8
1
  6
ByBlock
370
    50
100
AcDbLine
 10
2.950972054112638
 20
0.0
 30
0.0
 11
-2.950972054112638
 21
0.0
 31
0.0
  0
CIRCLE
  5
1B3DF
330
1B3D7
100
AcDbEntity
  8
1
  6
ByBlock
370
    50
100
AcDbCircle
 10
-0.0000000000001137
 20
0.0
 30
0.0
 40
2.950972054112601
  0
ENDBLK
  5
1B3D9
330
1B3D7
100
AcDbEntity
  8
0
100
AcDbBlockEnd
  0
BLOCK
  5
21B66
330
21B65
100
AcDbEntity
  8
0
100
AcDbBlockBegin
  2
*D57
 70
     1
 10
0.0
 20
0.0
 30
0.0
  3
*D57
  1

  0
LINE
  5
21C31
330
21B65
100
AcDbEntity
  8
SK2
 62
     0
370
    -2
100
AcDbLine
 10
-21.06250000000011
 20
6.0
 30
0.0
 11
-29.85494306717848
 21
6.000000000000002
 31
0.0
  0
LINE
  5
21C32
330
21B65
100
AcDbEntity
  8
SK2
 62
     0
370
    -2
100
AcDbLine
 10
-21.06250000000011
 20
-6.0
 30
0.0
 11
-29.85494306717848
 21
-5.999999999999997
 31
0.0
  0
LINE
  5
21C33
330
21B65
100
AcDbEntity
  8
SK2
 62
     0
370
    -2
100
AcDbLine
 10
-29.67494306717848
 20
1.430000000000002
 30
0.0
 11
-29.67494306717848
 21
-1.429999999999996
 31
0.0
  0
SOLID
  5
21C34
330
21B65
100
AcDbEntity
  8
SK2
 62
     0
100
AcDbTrace
 10
-30.43660973384514
 20
1.430000000000002
 30
0.0
 11
-28.91327640051181
 21
1.430000000000002
 31
0.0
 12
-29.67494306717848
 22
6.000000000000002
 32
0.0
 13
-29.67494306717848
 23
6.000000000000002
 33
0.0
  0
SOLID
  5
21C35
330
21B65
100
AcDbEntity
  8
SK2
 62
     0
100
AcDbTrace
 10
-30.43660973384514
 20
-1.429999999999996
 30
0.0
 11
-28.91327640051181
 21
-1.429999999999996
 31
0.0
 12
-29.67494306717848
 22
-5.999999999999997
 32
0.0
 13
-29.67494306717848
 23
-5.999999999999997
 33
0.0
  0
MTEXT
  5
21C36
330
21B65
100
AcDbEntity
  8
SK2
 62
     0
100
AcDbMText
 10
-31.52601123302528
 20
-0.0000000000000015
 30
0.0
 40
3.5
 41
0.0
 71
     5
 72
     1
  1
\A1;M12
 11
0.0000000000000001
 21
1.0
 31
0.0
 73
     1
 44
1.0
1001
ACAD
1000
MTEXTBEGIN
1070
    73
1070
     1
1070
    44
1040
1.0
1070
    74
1070
     0
1000
MTEXTEND
  0
POINT
  5
21C37
330
21B65
100
AcDbEntity
  8
Defpoints
 62
     0
100
AcDbPoint
 10
-21.00000000000012
 20
6.0
 30
0.0
  0
POINT
  5
21C38
330
21B65
100
AcDbEntity
  8
Defpoints
 62
     0
100
AcDbPoint
 10
-21.00000000000012
 20
-6.0
 30
0.0
  0
POINT
  5
21C39
330
21B65
100
AcDbEntity
  8
Defpoints
 62
     0
100
AcDbPoint
 10
-29.67494306717848
 20
-5.999999999999997
 30
0.0
  0
ENDBLK
  5
21B67
330
21B65
100
AcDbEntity
  8
0
100
AcDbBlockEnd
  0
BLOCK
  5
21B72
330
21B71
100
AcDbEntity
  8
0
100
AcDbBlockBegin
  2
*D58
 70
     1
 10
0.0
 20
0.0
 30
0.0
  3
*D58
  1

  0
LINE
  5
21C9D
330
21B71
100
AcDbEntity
  8
2
 62
     0
370
    -2
100
AcDbLine
 10
0.2374999999998693
 20
10.5
 30
0.0
 11
-41.45355271339019
 21
10.50000000000001
 31
0.0
  0
LINE
  5
21C9E
330
21B71
100
AcDbEntity
  8
2
 62
     0
370
    -2
100
AcDbLine
 10
3.437501333333216
 20
-10.5
 30
0.0
 11
-41.45355271339019
 21
-10.49999999999998
 31
0.0
  0
LINE
  5
21C9F
330
21B71
100
AcDbEntity
  8
2
 62
     0
370
    -2
100
AcDbLine
 10
-41.27355271339019
 20
5.93000000000001
 30
0.0
 11
-41.27355271339019
 21
-5.929999999999987
 31
0.0
  0
SOLID
  5
21CA0
330
21B71
100
AcDbEntity
  8
2
 62
     0
100
AcDbTrace
 10
-42.03521938005685
 20
5.930000000000011
 30
0.0
 11
-40.51188604672351
 21
5.93000000000001
 31
0.0
 12
-41.27355271339019
 22
10.50000000000001
 32
0.0
 13
-41.27355271339019
 23
10.50000000000001
 33
0.0
  0
SOLID
  5
21CA1
330
21B71
100
AcDbEntity
  8
2
 62
     0
100
AcDbTrace
 10
-42.03521938005685
 20
-5.929999999999986
 30
0.0
 11
-40.51188604672351
 21
-5.929999999999987
 31
0.0
 12
-41.27355271339019
 22
-10.49999999999998
 32
0.0
 13
-41.27355271339019
 23
-10.49999999999998
 33
0.0
  0
MTEXT
  5
21CA2
330
21B71
100
AcDbEntity
  8
2
 62
     0
100
AcDbMText
 10
-43.22669396426861
 20
0.0000000000000054
 30
0.0
 40
3.5
 41
0.0
 71
     5
 72
     1
  1
\A1;%%C21
 11
0.0000000000000001
 21
1.0
 31
0.0
 73
     1
 44
1.0
1001
ACAD
1000
MTEXTBEGIN
1070
    73
1070
     1
1070
    44
1040
1.0
1070
    74
1070
     0
1000
MTEXTEND
  0
POINT
  5
21CA3
330
21B71
100
AcDbEntity
  8
Defpoints
 62
     0
100
AcDbPoint
 10
0.2999999999998692
 20
10.5
 30
0.0
  0
POINT
  5
21CA4
330
21B71
100
AcDbEntity
  8
Defpoints
 62
     0
100
AcDbPoint
 10
3.500001333333216
 20
-10.5
 30
0.0
  0
POINT
  5
21CA5
330
21B71
100
AcDbEntity
  8
Defpoints
 62
     0
100
AcDbPoint
 10
-41.27355271339019
 20
-10.49999999999998
 30
0.0
  0
ENDBLK
  5
21B73
330
21B71
100
AcDbEntity
  8
0
100
AcDbBlockEnd
  0
BLOCK
  5
21B7E
330
21B7D
100
AcDbEntity
  8
0
100
AcDbBlockBegin
  2
*D59
 70
     1
 10
0.0
 20
0.0
 30
0.0
  3
*D59
  1

  0
LINE
  5
21C65
330
21B7D
100
AcDbEntity
  8
SK2
 62
     0
370
    -2
100
AcDbLine
 10
-22.00000000000011
 20
5.0625
 30
0.0
 11
-22.00000000000011
 21
27.42106389739748
 31
0.0
  0
LINE
  5
21C66
330
21B7D
100
AcDbEntity
  8
SK2
 62
     0
370
    -2
100
AcDbLine
 10
35.00106515478444
 20
12.56255748368974
 30
0.0
 11
35.00106515478444
 21
27.42106389739748
 31
0.0
  0
LINE
  5
21C67
330
21B7D
100
AcDbEntity
  8
SK2
 62
     0
370
    -2
100
AcDbLine
 10
-17.43000000000011
 20
27.24106389739748
 30
0.0
 11
30.43106515478444
 21
27.24106389739748
 31
0.0
  0
SOLID
  5
21C68
330
21B7D
100
AcDbEntity
  8
SK2
 62
     0
100
AcDbTrace
 10
-17.43000000000011
 20
28.00273056406415
 30
0.0
 11
-17.43000000000011
 21
26.47939723073081
 31
0.0
 12
-22.00000000000011
 22
27.24106389739748
 32
0.0
 13
-22.00000000000011
 23
27.24106389739748
 33
0.0
  0
SOLID
  5
21C69
330
21B7D
100
AcDbEntity
  8
SK2
 62
     0
100
AcDbTrace
 10
30.43106515478444
 20
28.00273056406415
 30
0.0
 11
30.43106515478444
 21
26.47939723073081
 31
0.0
 12
35.00106515478444
 22
27.24106389739748
 32
0.0
 13
35.00106515478444
 23
27.24106389739748
 33
0.0
  0
MTEXT
  5
21C6A
330
21B7D
100
AcDbEntity
  8
SK2
 62
     0
100
AcDbMText
 10
6.500532577392164
 20
29.1314855418107
 30
0.0
 40
3.5
 41
0.0
 71
     5
 72
     1
  1
\A1;57
 73
     1
 44
1.0
1001
ACAD
1000
MTEXTBEGIN
1070
    73
1070
     1
1070
    44
1040
1.0
1070
    74
1070
     0
1000
MTEXTEND
  0
POINT
  5
21C6B
330
21B7D
100
AcDbEntity
  8
Defpoints
 62
     0
100
AcDbPoint
 10
-22.00000000000011
 20
5.0
 30
0.0
  0
POINT
  5
21C6C
330
21B7D
100
AcDbEntity
  8
Defpoints
 62
     0
100
AcDbPoint
 10
35.00106515478444
 20
12.50005748368973
 30
0.0
  0
POINT
  5
21C6D
330
21B7D
100
AcDbEntity
  8
Defpoints
 62
     0
100
AcDbPoint
 10
35.00106515478444
 20
27.24106389739748
 30
0.0
  0
ENDBLK
  5
21B7F
330
21B7D
100
AcDbEntity
  8
0
100
AcDbBlockEnd
  0
BLOCK
  5
21B8A
330
21B89
100
AcDbEntity
  8
0
100
AcDbBlockBegin
  2
*D60
 70
     1
 10
0.0
 20
0.0
 30
0.0
  3
*D60
  1

  0
LINE
  5
21C4C
330
21B89
100
AcDbEntity
  8
2
 62
     0
370
    -2
100
AcDbLine
 10
17.23032204491341
 20
13.69707331339754
 30
0.0
 11
17.23032204491341
 21
19.31375217570677
 31
0.0
  0
LINE
  5
21C4D
330
21B89
100
AcDbEntity
  8
2
 62
     0
370
    -2
100
AcDbLine
 10
35.00106515478444
 20
12.56255748368974
 30
0.0
 11
35.00106515478444
 21
19.31375217570677
 31
0.0
  0
LINE
  5
21C4E
330
21B89
100
AcDbEntity
  8
2
 62
     0
370
    -2
100
AcDbLine
 10
21.80032204491341
 20
19.13375217570677
 30
0.0
 11
30.43106515478444
 21
19.13375217570677
 31
0.0
  0
SOLID
  5
21C4F
330
21B89
100
AcDbEntity
  8
2
 62
     0
100
AcDbTrace
 10
21.80032204491341
 20
19.89541884237344
 30
0.0
 11
21.80032204491341
 21
18.3720855090401
 31
0.0
 12
17.23032204491341
 22
19.13375217570677
 32
0.0
 13
17.23032204491341
 23
19.13375217570677
 33
0.0
  0
SOLID
  5
21C50
330
21B89
100
AcDbEntity
  8
2
 62
     0
100
AcDbTrace
 10
30.43106515478444
 20
19.89541884237344
 30
0.0
 11
30.43106515478444
 21
18.3720855090401
 31
0.0
 12
35.00106515478444
 22
19.13375217570677
 32
0.0
 13
35.00106515478444
 23
19.13375217570677
 33
0.0
  0
MTEXT
  5
21C51
330
21B89
100
AcDbEntity
  8
2
 62
     0
100
AcDbMText
 10
26.11569359984893
 20
21.5087135249689
 30
0.0
 40
3.5
 41
0.0
 71
     5
 72
     1
  1
\A1;Ap17.74
 73
     1
 44
1.0
1001
ACAD
1000
MTEXTBEGIN
1070
    73
1070
     1
1070
    44
1040
1.0
1070
    74
1070
     0
1000
MTEXTEND
  0
POINT
  5
21C52
330
21B89
100
AcDbEntity
  8
Defpoints
 62
     0
100
AcDbPoint
 10
17.23032204491341
 20
13.63457331339754
 30
0.0
  0
POINT
  5
21C53
330
21B89
100
AcDbEntity
  8
Defpoints
 62
     0
100
AcDbPoint
 10
35.00106515478444
 20
12.50005748368973
 30
0.0
  0
POINT
  5
21C54
330
21B89
100
AcDbEntity
  8
Defpoints
 62
     0
100
AcDbPoint
 10
35.00106515478444
 20
19.13375217570677
 30
0.0
  0
ENDBLK
  5
21B8B
330
21B89
100
AcDbEntity
  8
0
100
AcDbBlockEnd
  0
BLOCK
  5
21B96
330
21B95
100
AcDbEntity
  8
0
100
AcDbBlockBegin
  2
*D61
 70
     1
 10
0.0
 20
0.0
 30
0.0
  3
*D61
  1

  0
LINE
  5
21CAF
330
21B95
100
AcDbEntity
  8
2
 62
     0
370
    -2
100
AcDbLine
 10
-0.0000000000001137
 20
-10.2625
 30
0.0
 11
-0.0000000000001144
 21
-21.88654088334666
 31
0.0
  0
LINE
  5
21CB0
330
21B95
100
AcDbEntity
  8
2
 62
     0
370
    -2
100
AcDbLine
 10
34.99662532313036
 20
-0.2125004283892906
 30
0.0
 11
34.99662532313036
 21
-21.88654088334666
 31
0.0
  0
LINE
  5
21CB1
330
21B95
100
AcDbEntity
  8
2
 62
     0
370
    -2
100
AcDbLine
 10
4.569999999999885
 20
-21.70654088334666
 30
0.0
 11
30.42662532313036
 21
-21.70654088334666
 31
0.0
  0
SOLID
  5
21CB2
330
21B95
100
AcDbEntity
  8
2
 62
     0
100
AcDbTrace
 10
4.569999999999885
 20
-20.94487421668
 30
0.0
 11
4.569999999999885
 21
-22.46820755001333
 31
0.0
 12
-0.0000000000001144
 22
-21.70654088334666
 32
0.0
 13
-0.0000000000001144
 23
-21.70654088334666
 33
0.0
  0
SOLID
  5
21CB3
330
21B95
100
AcDbEntity
  8
2
 62
     0
100
AcDbTrace
 10
30.42662532313036
 20
-20.94487421668
 30
0.0
 11
30.42662532313036
 21
-22.46820755001333
 31
0.0
 12
34.99662532313036
 22
-21.70654088334666
 32
0.0
 13
34.99662532313036
 23
-21.70654088334666
 33
0.0
  0
MTEXT
  5
21CB4
330
21B95
100
AcDbEntity
  8
2
 62
     0
100
AcDbMText
 10
17.49831266156512
 20
-19.80505107308665
 30
0.0
 40
3.5
 41
0.0
 71
     5
 72
     1
  1
\A1;35
 73
     1
 44
1.0
1001
ACAD
1000
MTEXTBEGIN
1070
    73
1070
     1
1070
    44
1040
1.0
1070
    74
1070
     0
1000
MTEXTEND
  0
POINT
  5
21CB5
330
21B95
100
AcDbEntity
  8
Defpoints
 62
     0
100
AcDbPoint
 10
-0.0000000000001137
 20
-10.2
 30
0.0
  0
POINT
  5
21CB6
330
21B95
100
AcDbEntity
  8
Defpoints
 62
     0
100
AcDbPoint
 10
34.99662532313036
 20
-0.1500004283892906
 30
0.0
  0
POINT
  5
21CB7
330
21B95
100
AcDbEntity
  8
Defpoints
 62
     0
100
AcDbPoint
 10
34.99662532313036
 20
-21.70654088334666
 30
0.0
  0
ENDBLK
  5
21B97
330
21B95
100
AcDbEntity
  8
0
100
AcDbBlockEnd
  0
BLOCK
  5
21BA2
330
21BA1
100
AcDbEntity
  8
0
100
AcDbBlockBegin
  2
*D62
 70
     1
 10
0.0
 20
0.0
 30
0.0
  3
*D62
  1

  0
LINE
  5
21CC1
330
21BA1
100
AcDbEntity
  8
2
 62
     0
370
    -2
100
AcDbLine
 10
22.57520499018574
 20
-12.50511388541804
 30
0.0
 11
51.03395026515078
 21
-12.50511388541805
 31
0.0
  0
LINE
  5
21CC2
330
21BA1
100
AcDbEntity
  8
2
 62
     0
370
    -2
100
AcDbLine
 10
22.56164642112756
 20
12.50085780795334
 30
0.0
 11
51.03395026515078
 21
12.50085780795334
 31
0.0
  0
LINE
  5
21CC3
330
21BA1
100
AcDbEntity
  8
2
 62
     0
370
    -2
100
AcDbLine
 10
50.85395026515079
 20
-7.935113885418048
 30
0.0
 11
50.85395026515079
 21
7.930857807953336
 31
0.0
  0
SOLID
  5
21CC4
330
21BA1
100
AcDbEntity
  8
2
 62
     0
100
AcDbTrace
 10
50.09228359848411
 20
-7.935113885418048
 30
0.0
 11
51.61561693181745
 21
-7.935113885418048
 31
0.0
 12
50.85395026515079
 22
-12.50511388541805
 32
0.0
 13
50.85395026515079
 23
-12.50511388541805
 33
0.0
  0
SOLID
  5
21CC5
330
21BA1
100
AcDbEntity
  8
2
 62
     0
100
AcDbTrace
 10
50.09228359848411
 20
7.930857807953336
 30
0.0
 11
51.61561693181745
 21
7.930857807953336
 31
0.0
 12
50.85395026515079
 22
12.50085780795334
 32
0.0
 13
50.85395026515079
 23
12.50085780795334
 33
0.0
  0
MTEXT
  5
21CC6
330
21BA1
100
AcDbEntity
  8
2
 62
     0
100
AcDbMText
 10
48.90080901427236
 20
-0.0021280387323472
 30
0.0
 40
3.5
 41
0.0
 71
     5
 72
     1
  1
\A1;%%C25
 11
0.0000000000000001
 21
1.0
 31
0.0
 73
     1
 44
1.0
1001
ACAD
1000
MTEXTBEGIN
1070
    73
1070
     1
1070
    44
1040
1.0
1070
    74
1070
     0
1000
MTEXTEND
  0
POINT
  5
21CC7
330
21BA1
100
AcDbEntity
  8
Defpoints
 62
     0
100
AcDbPoint
 10
22.51270499018574
 20
-12.50511388541804
 30
0.0
  0
POINT
  5
21CC8
330
21BA1
100
AcDbEntity
  8
Defpoints
 62
     0
100
AcDbPoint
 10
22.49914642112756
 20
12.50085780795334
 30
0.0
  0
POINT
  5
21CC9
330
21BA1
100
AcDbEntity
  8
Defpoints
 62
     0
100
AcDbPoint
 10
50.85395026515079
 20
12.50085780795334
 30
0.0
  0
ENDBLK
  5
21BA3
330
21BA1
100
AcDbEntity
  8
0
100
AcDbBlockEnd
  0
BLOCK
  5
21E37
330
21E35
100
AcDbEntity
  8
0
100
AcDbBlockBegin
  2
Name
 70
     2
 10
0.0
 20
0.0
 30
0.0
  3
Name
  1

  0
ATTDEF
  5
21E38
102
{ACAD_XDICTIONARY
360
21E39
102
}
330
21E35
100
AcDbEntity
  8
SKVIEW63
100
AcDbText
 10
0.0905073844082551
 20
0.0474757964751689
 30
0.0
 40
3.5
  1
1TW7K025035X7R00
 41
0.8
  7
BMG_Text
100
AcDbAttributeDefinition
  3
identisch mit Dateiname
  2
NAME
 70
     4
  0
ENDBLK
  5
21E3D
330
21E35
100
AcDbEntity
  8
0
100
AcDbBlockEnd
  0
ENDSEC
  0
SECTION
  2
ENTITIES
  0
INSERT
  5
20A18
330
1F
100
AcDbEntity
  8
2
100
AcDbBlockReference
  2
cero_point
 10
-0.0000000000000341
 20
0.0
 30
0.0
 41
0.7
 42
0.7
 43
0.7
  0
LINE
  5
21A24
330
1F
100
AcDbEntity
  8
INFTOTAL
100
AcDbLine
 10
-54.55854930229043
 20
40.15029180427421
 30
0.0
 11
-4.55854930229043
 21
40.15029180427418
 31
0.0
  0
LINE
  5
21A25
330
1F
100
AcDbEntity
  8
INFTOTAL
100
AcDbLine
 10
74.29899951066182
 20
4.270932121529064
 30
0.0
 11
74.29899951066182
 21
-45.72906787847091
 31
0.0
  0
LINE
  5
21A26
330
1F
100
AcDbEntity
  8
INFTOTAL
100
AcDbLine
 10
74.29899951066182
 20
-45.72906787847091
 30
0.0
 11
24.29899951066182
 21
-45.72906787847091
 31
0.0
  0
LINE
  5
21A27
330
1F
100
AcDbEntity
  8
INFTOTAL
100
AcDbLine
 10
-54.55854930229043
 20
-9.849708195725746
 30
0.0
 11
-54.55854930229043
 21
40.15029180427421
 31
0.0
  0
LINE
  5
21A2A
330
1F
100
AcDbEntity
  8
SK4
100
AcDbLine
 10
-24.8307406666668
 20
0.0
 30
0.0
 11
-0.0000000000001137
 21
0.0
 31
0.0
  0
LINE
  5
21A2B
330
1F
100
AcDbEntity
  8
4
100
AcDbLine
 10
-0.0000000000001137
 20
0.0
 30
0.0
 11
38.31699999999989
 21
0.0
 31
0.0
  0
SPLINE
  5
21A2D
330
1F
100
AcDbEntity
  8
SK3
100
AcDbSpline
210
0.0
220
0.0
230
1.0
 70
     8
 71
     5
 72
    15
 73
     9
 74
     0
 42
0.000000001
 43
0.0000000001
 40
0.0
 40
0.0
 40
0.0
 40
0.0
 40
0.0
 40
0.0
 40
0.6834563057453421
 40
0.6834563057453421
 40
0.6834563057453421
 40
1.421589420911321
 40
1.421589420911321
 40
1.421589420911321
 40
1.421589420911321
 40
1.421589420911321
 40
1.421589420911321
 10
17.01881364335693
 20
0.4159186372532418
 30
0.0
 10
16.98930082121092
 20
0.4276721353216431
 30
0.0
 10
16.96017728774541
 20
0.4273797778250455
 30
0.0
 10
16.93185564735091
 20
0.4141325672187009
 30
0.0
 10
16.87517982036132
 20
0.3614538377997505
 30
0.0
 10
16.82396914919127
 20
0.2634417155187165
 30
0.0
 10
16.7990004227579
 20
0.2021912620293378
 30
0.0
 10
16.77571927562326
 20
0.1330994276359334
 30
0.0
 10
16.75404483536039
 20
0.057549152554941
 30
0.0
  0
SPLINE
  5
21A2E
330
1F
100
AcDbEntity
  8
SK3
100
AcDbSpline
210
0.0
220
0.0
230
1.0
 70
     8
 71
     5
 72
    21
 73
    15
 74
     0
 42
0.000000001
 43
0.0000000001
 40
0.0
 40
0.0
 40
0.0
 40
0.0
 40
0.0
 40
0.0
 40
1.036704142116592
 40
1.036704142116592
 40
1.036704142116592
 40
2.131734561699219
 40
2.131734561699219
 40
2.131734561699219
 40
3.276319752181468
 40
3.276319752181468
 40
3.276319752181468
 40
3.651446598460122
 40
3.651446598460122
 40
3.651446598460122
 40
3.651446598460122
 40
3.651446598460122
 40
3.651446598460122
 10
16.0080566698457
 20
-1.316373871505426
 30
0.0
 10
15.93625607533187
 20
-1.263108968049458
 30
0.0
 10
15.88163576197644
 20
-1.194586097631848
 30
0.0
 10
15.84739334111728
 20
-1.109920922694584
 30
0.0
 10
15.81381240507187
 20
-0.9140410570450399
 30
0.0
 10
15.85147859195086
 20
-0.6917274547553589
 30
0.0
 10
15.88827560014283
 20
-0.5752164167507417
 30
0.0
 10
16.00060097196291
 20
-0.3461116829105677
 30
0.0
 10
16.18499698097395
 20
-0.1598829754757176
 30
0.0
 10
16.29512283235218
 20
-0.0849197589702726
 30
0.0
 10
16.45624054259053
 20
-0.0111996932110401
 30
0.0
 10
16.62622198536297
 20
0.033604190170216
 30
0.0
 10
16.6686266037687
 20
0.0430405199947259
 30
0.0
 10
16.71123145818529
 20
0.0509733699360808
 30
0.0
 10
16.75404483536033
 20
0.0575491525556231
 30
0.0
  0
ARC
  5
21A2F
330
1F
100
AcDbEntity
  8
SK3
100
AcDbCircle
 10
16.32310466666652
 20
-0.8824613333333317
 30
0.0
 40
0.5363013333333333
100
AcDbArc
 50
234.017962000001
 51
248.905687000001
  0
ARC
  5
21A30
330
1F
100
AcDbEntity
  8
SK3
100
AcDbCircle
 10
16.42163799999986
 20
0.5346953333333531
 30
0.0
 40
1.411205333333333
100
AcDbArc
 50
294.7838049999995
 51
308.0485879999991
  0
SPLINE
  5
21A31
330
1F
100
AcDbEntity
  8
SK3
100
AcDbSpline
210
0.0
220
0.0
230
1.0
 70
     8
 71
     5
 72
    18
 73
    12
 74
     0
 42
0.000000001
 43
0.0000000001
 40
0.0
 40
0.0
 40
0.0
 40
0.0
 40
0.0
 40
0.0
 40
1.24103188510263
 40
1.24103188510263
 40
1.24103188510263
 40
1.974353589205648
 40
1.974353589205648
 40
1.974353589205648
 40
2.457965299363233
 40
2.457965299363233
 40
2.457965299363233
 40
2.457965299363233
 40
2.457965299363233
 40
2.457965299363233
 10
17.04132668789319
 20
0.4042348668083165
 30
0.0
 10
17.16589711017229
 20
0.3467443549205313
 30
0.0
 10
17.28385140091871
 20
0.2770027272416087
 30
0.0
 10
17.39511484278395
 20
0.1899777156875402
 30
0.0
 10
17.52590612521283
 20
0.0221388276234507
 30
0.0
 10
17.54620763188123
 20
-0.1757048875134401
 30
0.0
 10
17.53462040899728
 20
-0.2494535053720597
 30
0.0
 10
17.48785914748262
 20
-0.3663934897991794
 30
0.0
 10
17.40790675468122
 20
-0.4689553686839077
 30
0.0
 10
17.37175654992745
 20
-0.5074207880014115
 30
0.0
 10
17.33277451948598
 20
-0.5431011263645687
 30
0.0
 10
17.29128675100736
 20
-0.5764607309336043
 30
0.0
  0
LINE
  5
21A32
330
1F
100
AcDbEntity
  8
SK3
100
AcDbLine
 10
17.01881333333318
 20
0.415918666666677
 30
0.0
 11
17.04132733333321
 21
0.4042333333333446
 31
0.0
  0
SPLINE
  5
21A33
330
1F
100
AcDbEntity
  8
SK3
100
AcDbSpline
210
0.0
220
0.0
230
1.0
 70
     8
 71
     5
 72
    12
 73
     6
 74
     0
 42
0.000000001
 43
0.0000000001
 40
0.0
 40
0.0
 40
0.0
 40
0.0
 40
0.0
 40
0.0
 40
1.18082613256319
 40
1.18082613256319
 40
1.18082613256319
 40
1.18082613256319
 40
1.18082613256319
 40
1.18082613256319
 10
16.13005768672224
 20
-1.382902727312114
 30
0.0
 10
16.23290540987779
 20
-1.42386189107723
 30
0.0
 10
16.35312453736833
 20
-1.447698145235868
 30
0.0
 10
16.48654136899995
 20
-1.460744311742722
 30
0.0
 10
16.61937972949059
 20
-1.468744143627247
 30
0.0
 10
16.75404483536033
 20
-1.473591458490126
 30
0.0
  0
ARC
  5
21A34
330
1F
100
AcDbEntity
  8
SK3
100
AcDbCircle
 10
14.73403866666652
 20
-0.5267446666666516
 30
0.0
 40
2.231059333333333
100
AcDbArc
 50
334.8858900000006
 51
340.7085979999997
  0
ARC
  5
21A35
330
1F
100
AcDbEntity
  8
SK3
100
AcDbCircle
 10
16.95993066666654
 20
0.8716153333333309
 30
0.0
 40
0.5023406666666666
100
AcDbArc
 50
117.7207510000006
 51
137.415485
  0
SPLINE
  5
21A36
330
1F
100
AcDbEntity
  8
SK3
100
AcDbSpline
210
0.0
220
0.0
230
1.0
 70
     8
 71
     5
 72
    18
 73
    12
 74
     0
 42
0.000000001
 43
0.0000000001
 40
0.0
 40
0.0
 40
0.0
 40
0.0
 40
0.0
 40
0.0
 40
1.26997978887795
 40
1.26997978887795
 40
1.26997978887795
 40
2.237968841218386
 40
2.237968841218386
 40
2.237968841218386
 40
2.455795697271886
 40
2.455795697271886
 40
2.455795697271886
 40
2.455795697271886
 40
2.455795697271886
 40
2.455795697271886
 10
16.75404483537937
 20
0.0319721086469258
 30
0.0
 10
16.65070527125044
 20
0.1360024119223908
 30
0.0
 10
16.56848905490977
 20
0.260879336080599
 30
0.0
 10
16.50989734268975
 20
0.3990746518162709
 30
0.0
 10
16.44405290991349
 20
0.6439751765660731
 30
0.0
 10
16.4460601060629
 20
0.876483998669606
 30
0.0
 10
16.46004228967561
 20
0.9722317600721339
 30
0.0
 10
16.49524139938708
 20
1.078024638406667
 30
0.0
 10
16.55338749086462
 20
1.166481317636872
 30
0.0
 10
16.56486785256169
 20
1.182143794595525
 30
0.0
 10
16.57710732515642
 20
1.197142207696302
 30
0.0
 10
16.59011897130125
 20
1.211490021330064
 30
0.0
  0
LINE
  5
21A37
330
1F
100
AcDbEntity
  8
SK3
100
AcDbLine
 10
17.01329333333319
 20
-0.7467159999999922
 30
0.0
 11
17.00910466666653
 21
-0.7489873333333108
 31
0.0
  0
SPLINE
  5
21A38
330
1F
100
AcDbEntity
  8
SK3
100
AcDbSpline
210
0.0
220
0.0
230
1.0
 70
     8
 71
     5
 72
    18
 73
    12
 74
     0
 42
0.000000001
 43
0.0000000001
 40
0.0
 40
0.0
 40
0.0
 40
0.0
 40
0.0
 40
0.0
 40
0.7126257630037891
 40
0.7126257630037891
 40
0.7126257630037891
 40
1.80945530599496
 40
1.80945530599496
 40
1.80945530599496
 40
2.184285141470415
 40
2.184285141470415
 40
2.184285141470415
 40
2.184285141470415
 40
2.184285141470415
 40
2.184285141470415
 10
17.00910479904567
 20
-0.7489872359511196
 30
0.0
 10
16.99390392232638
 20
-0.7558585676091525
 30
0.0
 10
16.97737204273215
 20
-0.7511023471986178
 30
0.0
 10
16.95987257008187
 20
-0.7340563738045276
 30
0.0
 10
16.91417169869061
 20
-0.6621596124494076
 30
0.0
 10
16.86770450161489
 20
-0.5268115073492936
 30
0.0
 10
16.84048778812422
 20
-0.4264441357949167
 30
0.0
 10
16.80619312068995
 20
-0.2743917985494235
 30
0.0
 10
16.77568216304229
 20
-0.1040711864407271
 30
0.0
 10
16.76817070451946
 20
-0.0595945954613413
 30
0.0
 10
16.76095323996395
 20
-0.0142231880329078
 30
0.0
 10
16.75404483535979
 20
0.0319721086697555
 30
0.0
  0
SPLINE
  5
21A39
330
1F
100
AcDbEntity
  8
SK3
100
AcDbSpline
210
0.0
220
0.0
230
1.0
 70
     8
 71
     5
 72
    12
 73
     6
 74
     0
 42
0.000000001
 43
0.0000000001
 40
0.0
 40
0.0
 40
0.0
 40
0.0
 40
0.0
 40
0.0
 40
1.558595526629548
 40
1.558595526629548
 40
1.558595526629548
 40
1.558595526629548
 40
1.558595526629548
 40
1.558595526629548
 10
17.04132738086883
 20
0.4042333843622928
 30
0.0
 10
17.01714238768019
 20
0.5768048365422729
 30
0.0
 10
16.98719289448348
 20
0.7495780630226037
 30
0.0
 10
16.95321913386664
 20
0.9115047676179202
 30
0.0
 10
16.91457081918261
 20
1.058985818953999
 30
0.0
 10
16.87380175243015
 20
1.170965704655884
 30
0.0
  0
SPLINE
  5
21A3A
330
1F
100
AcDbEntity
  8
SK3
100
AcDbSpline
210
0.0
220
0.0
230
1.0
 70
     8
 71
     5
 72
    15
 73
     9
 74
     0
 42
0.000000001
 43
0.0000000001
 40
0.0
 40
0.0
 40
0.0
 40
0.0
 40
0.0
 40
0.0
 40
0.7250877038491961
 40
0.7250877038491961
 40
0.7250877038491961
 40
0.8964616860119749
 40
0.8964616860119749
 40
0.8964616860119749
 40
0.8964616860119749
 40
0.8964616860119749
 40
0.8964616860119749
 10
16.87380175243015
 20
1.170965704655884
 30
0.0
 10
16.85483522231089
 20
1.22306083569763
 30
0.0
 10
16.83540980589674
 20
1.267471783044037
 30
0.0
 10
16.81572826089405
 20
1.302371558771085
 30
0.0
 10
16.79161488813727
 20
1.329953610609962
 30
0.0
 10
16.76895752854983
 20
1.334426038894015
 30
0.0
 10
16.76468059137645
 20
1.334402901436952
 30
0.0
 10
16.7604886941391
 20
1.333473566275621
 30
0.0
 10
16.75638314156518
 20
1.3316177398871
 30
0.0
  0
LINE
  5
21A3B
330
1F
100
AcDbEntity
  8
SK3
100
AcDbLine
 10
16.75638333333319
 20
1.331618000000013
 30
0.0
 11
16.75404466666651
 21
1.330434000000003
 31
0.0
  0
LINE
  5
21A3C
330
1F
100
AcDbEntity
  8
SK3
100
AcDbLine
 10
16.75404466666651
 20
1.330434000000003
 30
0.0
 11
16.72622133333323
 21
1.316374000000017
 31
0.0
  0
LINE
  5
21A3D
330
1F
100
AcDbEntity
  8
SK3
100
AcDbLine
 10
16.8399853333332
 20
-1.263880666666658
 30
0.0
 11
16.75404466666651
 21
-1.5
 31
0.0
  0
LINE
  5
21A3E
330
1F
100
AcDbEntity
  8
SK3
100
AcDbLine
 10
16.75638333333319
 20
1.331618000000013
 30
0.0
 11
19.9770666666665
 21
2.787476000000005
 31
0.0
  0
LINE
  5
21A3F
330
1F
100
AcDbEntity
  8
SK3
100
AcDbLine
 10
17.00910466666653
 20
-0.7489873333333108
 30
0.0
 11
20.80085466666654
 21
0.9650126666666878
 31
0.0
  0
LINE
  5
21A40
330
1F
100
AcDbEntity
  8
SK3
100
AcDbLine
 10
21.57993666666655
 20
-1.400551333333318
 30
0.0
 11
17.01881333333318
 21
0.415918666666677
 31
0.0
  0
LINE
  5
21A41
330
1F
100
AcDbEntity
  8
SK3
100
AcDbLine
 10
20.83995866666652
 20
-3.258623333333311
 30
0.0
 11
16.13005799999988
 21
-1.382902666666666
 31
0.0
  0
ELLIPSE
  5
21A42
330
1F
100
AcDbEntity
  8
SK3
100
AcDbEllipse
 10
20.38896066666655
 20
1.876244666666686
 30
0.0
 11
0.4119054609502293
 21
-0.9112265861131241
 31
0.0
210
0.0
220
0.0
230
1.0
 40
0.5356390000000001
 41
3.637389775459033
 42
5.78728746530109
  0
ARC
  5
21A43
330
1F
100
AcDbEntity
  8
SK3
100
AcDbCircle
 10
20.96607266666652
 20
2.137118666666673
 30
0.0
 40
1.25
100
AcDbArc
 50
143.2041400000008
 51
159.6022469999992
  0
ELLIPSE
  5
21A44
330
1F
100
AcDbEntity
  8
SK3
100
AcDbEllipse
 10
20.38896066666655
 20
1.876244666666686
 30
0.0
 11
0.4119054609502293
 21
-0.9112265861131241
 31
0.0
210
0.0
220
0.0
230
1.0
 40
0.5356390000000001
 41
3.141569452425353
 42
3.428860551684448
  0
ELLIPSE
  5
21A45
330
1F
100
AcDbEntity
  8
SK3
100
AcDbEllipse
 10
20.38896066666655
 20
1.876244666666686
 30
0.0
 11
0.4119054609502293
 21
-0.9112265861131241
 31
0.0
210
0.0
220
0.0
230
1.0
 40
0.5356390000000001
 41
3.428860551684448
 42
3.637389775459033
  0
ELLIPSE
  5
21A46
330
1F
100
AcDbEntity
  8
SK3
100
AcDbEllipse
 10
20.38896066666655
 20
1.876244666666686
 30
0.0
 11
0.4119054609502293
 21
-0.9112265861131241
 31
0.0
210
0.0
220
0.0
230
1.0
 40
0.5356390000000001
 41
6.283162106015145
 42
9.424754759604939
  0
ELLIPSE
  5
21A47
330
1F
100
AcDbEntity
  8
SK3
100
AcDbEllipse
 10
20.38896066666655
 20
1.876244666666686
 30
0.0
 11
0.4119054609502293
 21
-0.9112265861131241
 31
0.0
210
0.0
220
0.0
230
1.0
 40
0.5356390000000001
 41
5.78728746530109
 42
6.283162106015145
  0
ARC
  5
21A48
330
1F
100
AcDbEntity
  8
SK3
100
AcDbCircle
 10
20.96607199999988
 20
2.137118666666673
 30
0.0
 40
1.25
100
AcDbArc
 50
249.043839
 51
294.3238779999993
  0
ELLIPSE
  5
21A49
330
1F
100
AcDbEntity
  8
SK3
100
AcDbEllipse
 10
21.20994799999988
 20
-2.329587333333314
 30
0.0
 11
0.3699891422367927
 21
0.9290360782159549
 31
0.0
210
0.0
220
0.0
230
1.0
 40
0.400625
 41
0.3341442443422162
 42
2.807448409247578
  0
ELLIPSE
  5
21A4A
330
1F
100
AcDbEntity
  8
SK3
100
AcDbEllipse
 10
21.20994799999988
 20
-2.329587333333314
 30
0.0
 11
0.3699891422367927
 21
0.9290360782159549
 31
0.0
210
0.0
220
0.0
230
1.0
 40
0.400625
 41
3.141592653589794
 42
6.283185307179588
  0
ELLIPSE
  5
21A4B
330
1F
100
AcDbEntity
  8
SK3
100
AcDbEllipse
 10
21.20994799999988
 20
-2.329587333333314
 30
0.0
 11
0.3699891422367927
 21
0.9290360782159549
 31
0.0
210
0.0
220
0.0
230
1.0
 40
0.400625
 41
2.807448409247578
 42
3.141592653589786
  0
ARC
  5
21A4C
330
1F
100
AcDbEntity
  8
SK3
100
AcDbCircle
 10
21.84836399999986
 20
-2.583837333333313
 30
0.0
 40
1.25
100
AcDbArc
 50
207.3762649999992
 51
248.285052999999
  0
LINE
  5
21A4D
330
1F
100
AcDbEntity
  8
SK3
100
AcDbLine
 10
21.66189266666657
 20
-3.855055333333325
 30
0.0
 11
21.38587733333321
 21
-3.745131999999991
 31
0.0
  0
ELLIPSE
  5
21A4E
330
1F
100
AcDbEntity
  8
SK3
100
AcDbEllipse
 10
21.20994799999988
 20
-2.329587333333314
 30
0.0
 11
0.3699891422367927
 21
0.9290360782159549
 31
0.0
210
0.0
220
0.0
230
1.0
 40
0.400625
 41
6.283185307179584
 42
6.6173295515218
  0
ARC
  5
21A4F
330
1F
100
AcDbEntity
  8
SK3
100
AcDbCircle
 10
0.1490559999998595
 20
4.58771066666668
 30
0.0
 40
17.68721066666666
100
AcDbArc
 50
340.6800889999998
 51
342.4470059999993
  0
LINE
  5
21A50
330
1F
100
AcDbEntity
  8
SK3
100
AcDbLine
 10
23.99670999999984
 20
-2.09393666666665
 30
0.0
 11
22.31085066666654
 21
-1.422541999999985
 31
0.0
  0
ELLIPSE
  5
21A51
330
1F
100
AcDbEntity
  8
SK3
100
AcDbEllipse
 10
22.82930133333321
 20
-2.974495999999987
 30
0.0
 11
1.176980484188671
 21
0.8735348918917207
 31
0.0
210
0.0
220
0.0
230
1.0
 40
0.112077
 41
3.210710043844963
 42
6.352302697434764
  0
ARC
  5
21A52
330
1F
100
AcDbEntity
  8
SK3
100
AcDbCircle
 10
21.84836399999986
 20
-2.583836666666648
 30
0.0
 40
1.25
100
AcDbArc
 50
68.2850519999997
 51
109.1938400000006
  0
LINE
  5
21A53
330
1F
100
AcDbEntity
  8
SK3
100
AcDbLine
 10
21.48093999999986
 20
0.9980793333333508
 30
0.0
 11
23.99603866666655
 21
2.134989333333351
 31
0.0
  0
ARC
  5
21A54
330
1F
100
AcDbEntity
  8
SK3
100
AcDbCircle
 10
20.96607199999988
 20
2.137118666666673
 30
0.0
 40
1.25
100
AcDbArc
 50
114.324552
 51
143.2041379999996
  0
ELLIPSE
  5
21A55
330
1F
100
AcDbEntity
  8
SK3
100
AcDbEllipse
 10
22.24439666666655
 20
2.714964666666674
 30
0.0
 11
1.737337454196729
 21
-0.5857800605931136
 31
0.0
210
0.0
220
0.0
230
1.0
 40
0.028929
 41
0.7056821772928776
 42
2.823266133788486
  0
ARC
  5
21A56
330
1F
100
AcDbEntity
  8
SK3
100
AcDbCircle
 10
20.49742933333317
 20
2.979649333333348
 30
0.0
 40
0.3232006666666667
100
AcDbArc
 50
71.60685000000012
 51
88.04587600000076
  0
LINE
  5
21A57
330
1F
100
AcDbEntity
  8
SK3
100
AcDbLine
 10
20.45119133333321
 20
3.276152666666668
 30
0.0
 11
20.50842866666653
 21
3.302026000000012
 31
0.0
  0
SPLINE
  5
21A58
330
1F
100
AcDbEntity
  8
SK3
100
AcDbSpline
210
0.0
220
0.0
230
1.0
 70
     8
 71
     5
 72
    15
 73
     9
 74
     0
 42
0.000000001
 43
0.0000000001
 40
0.0
 40
0.0
 40
0.0
 40
0.0
 40
0.0
 40
0.0
 40
0.9245306797366255
 40
0.9245306797366255
 40
0.9245306797366255
 40
1.470047349548324
 40
1.470047349548324
 40
1.470047349548324
 40
1.470047349548324
 40
1.470047349548324
 40
1.470047349548324
 10
23.57779482214974
 20
2.301682590314761
 30
0.0
 10
23.67104812504081
 20
2.266673377293273
 30
0.0
 10
23.75967333062167
 20
2.233895861059977
 30
0.0
 10
23.8426178243206
 20
2.203497556103606
 30
0.0
 10
23.94191849107179
 20
2.165901533482326
 30
0.0
 10
23.98767935011452
 20
2.1450696563546
 30
0.0
 10
23.99685444520344
 20
2.139742540467217
 30
0.0
 10
23.99932472264578
 20
2.136474296033931
 30
0.0
 10
23.99603836032512
 20
2.134989295545643
 30
0.0
  0
LINE
  5
21A59
330
1F
100
AcDbEntity
  8
1
100
AcDbLine
 10
20.20039199999988
 20
-11.57797999999999
 30
0.0
 11
20.21238299999987
 21
-11.677296
 31
0.0
  0
ELLIPSE
  5
21A5A
330
1F
100
AcDbEntity
  8
1
100
AcDbEllipse
 10
21.64549299999988
 20
0.4713449999999995
 30
0.0
 11
0.0000000000000007
 21
12.23576068878174
 31
0.0
210
0.0
220
0.0
230
1.0
 40
0.9832549999999999
 41
3.022189696564812
 42
4.557727397300835
  0
ARC
  5
21A5B
330
1F
100
AcDbEntity
  8
1
100
AcDbCircle
 10
31.41923399999991
 20
-11.272914
 30
0.0
 40
12.533543
100
AcDbArc
 50
80.61023899999895
 51
82.42702099999984
  0
LINE
  5
21A5C
330
1F
100
AcDbEntity
  8
1
100
AcDbLine
 10
33.2557599999999
 20
1.092697000000001
 30
0.0
 11
33.0626419999999
 21
1.121893
 31
0.0
  0
ARC
  5
21A5D
330
1F
100
AcDbEntity
  8
1
100
AcDbCircle
 10
55.70966099999987
 20
-1.676296
 30
0.0
 40
22.071267
100
AcDbArc
 50
173.3815849999996
 51
175.965371
  0
ARC
  5
21A5E
330
1F
100
AcDbEntity
  8
1
100
AcDbCircle
 10
17.71420599999987
 20
1.216028999999998
 30
0.0
 40
16.03489599999999
100
AcDbArc
 50
350.5618429999998
 51
355.2084549999996
  0
ARC
  5
21A5F
330
1F
100
AcDbEntity
  8
1
100
AcDbCircle
 10
33.08014099999986
 20
-0.0590259999999958
 30
0.0
 40
1.164825999999999
100
AcDbArc
 50
52.70885800000074
 51
81.33013000000087
  0
LINE
  5
21A60
330
1F
100
AcDbEntity
  8
1
100
AcDbLine
 10
20.21238299999987
 20
-11.677296
 30
0.0
 11
20.67611199999987
 21
-12.086685
 31
0.0
  0
ELLIPSE
  5
21A61
330
1F
100
AcDbEntity
  8
1
100
AcDbEllipse
 10
22.22864699999985
 20
0.4713449999999995
 30
0.0
 11
-0.0000000000000024
 21
-12.80000686645508
 31
0.0
210
0.0
220
0.0
230
1.0
 40
0.9832549999999999
 41
0.0000123237717943
 42
1.522234688781336
  0
ELLIPSE
  5
21A62
330
1F
100
AcDbEntity
  8
1
100
AcDbEllipse
 10
22.22864699999985
 20
0.4713449999999995
 30
0.0
 11
-0.0000000000000024
 21
-12.80000686645508
 31
0.0
210
0.0
220
0.0
230
1.0
 40
0.9832549999999999
 41
6.218210671536446
 42
6.283197630951379
  0
LINE
  5
21A63
330
1F
100
AcDbEntity
  8
1
100
AcDbLine
 10
21.41147299999989
 20
-12.301652
 30
0.0
 11
20.92420999999987
 21
-12.268721
 31
0.0
  0
ARC
  5
21A64
330
1F
100
AcDbEntity
  8
1
100
AcDbCircle
 10
21.83900899999986
 20
-10.760019
 30
0.0
 40
1.764233
100
AcDbArc
 50
228.7636150000004
 51
238.777216999999
  0
ELLIPSE
  5
21A65
330
1F
100
AcDbEntity
  8
1
100
AcDbEllipse
 10
34.51492799999988
 20
-0.0917490000000001
 30
0.0
 11
-1.525726675987242
 21
1.085144162178039
 31
0.0
210
0.0
220
0.0
230
1.0
 40
0.335781
 41
4.917070622099884
 42
5.680910794424807
  0
ARC
  5
21A66
330
1F
100
AcDbEntity
  8
1
100
AcDbCircle
 10
32.93390299999988
 20
-1.525663999999999
 30
0.0
 40
2.540009999999999
100
AcDbArc
 50
58.09630300000018
 51
70.40687800000049
  0
ELLIPSE
  5
21A67
330
1F
100
AcDbEntity
  8
1
100
AcDbEllipse
 10
32.38075399999985
 20
-0.0917490000000001
 30
0.0
 11
2.419324159622191
 21
-0.0395906418561935
 31
0.0
210
0.0
220
0.0
230
1.0
 40
0.4957360000000001
 41
6.267621859880678
 42
6.961955321132142
  0
ARC
  5
21A68
330
1F
100
AcDbEntity
  8
1
100
AcDbCircle
 10
23.04620399999988
 20
-0.0577989999999957
 30
0.0
 40
11.950777
100
AcDbArc
 50
351.9099449999999
 51
359.557953
  0
ARC
  5
21A69
330
1F
100
AcDbEntity
  8
1
100
AcDbCircle
 10
22.7777789999999
 20
-0.0062580000000025
 30
0.0
 40
12.224512
100
AcDbArc
 50
314.2250549999994
 51
351.8478439999999
  0
SPLINE
  5
21A6A
330
1F
100
AcDbEntity
  8
1
100
AcDbSpline
210
0.0
220
0.0
230
1.0
 70
     8
 71
     5
 72
    27
 73
    21
 74
     0
 42
0.000000001
 43
0.0000000001
 40
0.0
 40
0.0
 40
0.0
 40
0.0
 40
0.0
 40
0.0
 40
1.689021776237304
 40
1.689021776237304
 40
1.689021776237304
 40
3.379103318475216
 40
3.379103318475216
 40
3.379103318475216
 40
5.070222184127714
 40
5.070222184127714
 40
5.070222184127714
 40
10.13853097747906
 40
10.13853097747906
 40
10.13853097747906
 40
15.20229814017595
 40
15.20229814017595
 40
15.20229814017595
 40
16.87369012890326
 40
16.87369012890326
 40
16.87369012890326
 40
16.87369012890326
 40
16.87369012890326
 40
16.87369012890326
 10
22.42235520606181
 20
-12.32866176883447
 30
0.0
 10
22.61893146915588
 20
-12.3286602511454
 30
0.0
 10
22.81566673260392
 20
-12.32506156268351
 30
0.0
 10
23.01224732456157
 20
-12.31782830562525
 30
0.0
 10
23.40517186426808
 20
-12.29608210649412
 30
0.0
 10
23.79801895805804
 20
-12.25957674583197
 30
0.0
 10
23.99420635978959
 20
-12.2376054135846
 30
0.0
 10
24.3854829707546
 20
-12.18628279837791
 30
0.0
 10
24.77432408333132
 20
-12.12018625246853
 30
0.0
 10
24.9680730170453
 20
-12.08343718160455
 30
0.0
 10
25.73901010296729
 20
-11.92190039873004
 30
0.0
 10
26.49636034099442
 20
-11.70155553929299
 30
0.0
 10
27.05346665105918
 20
-11.50364979304855
 30
0.0
 10
28.14046308674108
 20
-11.04447647275073
 30
0.0
 10
29.16568474496319
 20
-10.46167228432374
 30
0.0
 10
29.65987987617126
 20
-10.14070499095531
 30
0.0
 10
30.29000111553353
 20
-9.676225110912177
 30
0.0
 10
30.88025073557771
 20
-9.164733566767736
 30
0.0
 10
31.02445818089203
 20
-9.034728570059399
 30
0.0
 10
31.16582855344655
 20
-8.902157214261166
 30
0.0
 10
31.30454569213953
 20
-8.766856594322725
 30
0.0
  0
ARC
  5
21A6B
330
1F
100
AcDbEntity
  8
1
100
AcDbCircle
 10
33.63428799999986
 20
-0.1367140000000049
 30
0.0
 40
1.362344999999999
100
AcDbArc
 50
359.4412580000002
 51
24.24497799999924
  0
ARC
  5
21A6C
330
1F
100
AcDbEntity
  8
1
100
AcDbCircle
 10
31.69863999999987
 20
-4.048830999999999
 30
0.0
 40
5.485616
100
AcDbArc
 50
54.60015999999918
 51
58.54019800000003
  0
LINE
  5
21A6D
330
1F
100
AcDbEntity
  8
1
100
AcDbLine
 10
22.22880199999989
 20
-12.328662
 30
0.0
 11
22.42235499999987
 21
-12.328662
 31
0.0
  0
LINE
  5
21A6E
330
1F
100
AcDbEntity
  8
1
100
AcDbLine
 10
22.43915099999989
 20
12.110263
 30
0.0
 11
22.49983099999992
 21
12.10984499999999
 31
0.0
  0
ARC
  5
21A6F
330
1F
100
AcDbEntity
  8
1
100
AcDbCircle
 10
28.80822599999988
 20
13.265081
 30
0.0
 40
11.667386
100
AcDbArc
 50
188.03723
 51
196.3767119999995
  0
LINE
  5
21A70
330
1F
100
AcDbEntity
  8
1
100
AcDbLine
 10
17.20636899999988
 20
12.133975
 30
0.0
 11
22.43915099999989
 21
12.110263
 31
0.0
  0
ARC
  5
21A71
330
1F
100
AcDbEntity
  8
1
100
AcDbCircle
 10
17.55377299999989
 20
12.060241
 30
0.0
 40
0.355132
100
AcDbArc
 50
168.0172839999997
 51
187.9333060000004
  0
LINE
  5
21A72
330
1F
100
AcDbEntity
  8
1
100
AcDbLine
 10
17.20204899999987
 20
12.011227
 30
0.0
 11
17.25518399999987
 21
11.633751
 31
0.0
  0
LINE
  5
21A73
330
1F
100
AcDbEntity
  8
1
100
AcDbLine
 10
22.49999999999989
 20
12.259845
 30
0.0
 11
22.43893999999989
 21
12.260263
 31
0.0
  0
SPLINE
  5
21A74
330
1F
100
AcDbEntity
  8
1
100
AcDbSpline
210
0.0
220
0.0
230
1.0
 70
     8
 71
     5
 72
    27
 73
    21
 74
     0
 42
0.000000001
 43
0.0000000001
 40
0.0
 40
0.0
 40
0.0
 40
0.0
 40
0.0
 40
0.0
 40
3.591459880078955
 40
3.591459880078955
 40
3.591459880078955
 40
8.992831956911388
 40
8.992831956911388
 40
8.992831956911388
 40
10.7990817650808
 40
10.7990817650808
 40
10.7990817650808
 40
14.41482690527755
 40
14.41482690527755
 40
14.41482690527755
 40
16.22408871305523
 40
16.22408871305523
 40
16.22408871305523
 40
18.00152240519452
 40
18.00152240519452
 40
18.00152240519452
 40
18.00152240519452
 40
18.00152240519452
 40
18.00152240519452
 10
33.09027912297691
 20
6.128965440102554
 30
0.0
 10
32.84795051309402
 20
6.570430829951725
 30
0.0
 10
32.57671307329031
 20
6.996511838086043
 30
0.0
 10
32.28116409604655
 20
7.40166840373012
 30
0.0
 10
31.46277090162198
 20
8.372772520546575
 30
0.0
 10
30.52229820981134
 20
9.228298215698075
 30
0.0
 10
29.9192092073447
 20
9.699847340722406
 30
0.0
 10
29.06712923309999
 20
10.26607464647582
 30
0.0
 10
28.16294135473234
 20
10.74194618218904
 30
0.0
 10
27.93302361328665
 20
10.85552082665441
 30
0.0
 10
27.23557823459794
 20
11.17825842485973
 30
0.0
 10
26.51471969117918
 20
11.44728418933125
 30
0.0
 10
26.02438755982934
 20
11.60254976933585
 30
0.0
 10
25.27853273232807
 20
11.79793365245056
 30
0.0
 10
24.52110143763611
 20
11.93655040800384
 30
0.0
 10
24.26720328532002
 20
11.97648055753691
 30
0.0
 10
23.76259476635022
 20
12.04300539834949
 30
0.0
 10
23.25541692463293
 20
12.08462547169365
 30
0.0
 10
23.00342749696858
 20
12.09914410120732
 30
0.0
 10
22.75155877266422
 20
12.10752897953967
 30
0.0
 10
22.49983139980671
 20
12.10984522109967
 30
0.0
  0
ELLIPSE
  5
21A75
330
1F
100
AcDbEntity
  8
1
100
AcDbEllipse
 10
17.37780999999987
 20
9.912063999999993
 30
0.0
 11
0.0
 21
-0.25
 31
0.0
210
0.0
220
0.0
230
1.0
 40
0.994522
 41
0.7029847071280569
 42
1.451172218546024
  0
LINE
  5
21A76
330
1F
100
AcDbEntity
  8
1
100
AcDbLine
 10
17.53854899999987
 20
9.721334999999996
 30
0.0
 11
16.27587699999986
 21
8.645447999999994
 31
0.0
  0
ELLIPSE
  5
21A77
330
1F
100
AcDbEntity
  8
1
100
AcDbEllipse
 10
27.17207799999989
 20
14.092931
 30
0.0
 11
-0.0000000000000022
 21
-12.23576068878174
 31
0.0
210
0.0
220
0.0
230
1.0
 40
0.9945219999999995
 41
5.173797682851827
 42
5.841126445410045
  0
ELLIPSE
  5
21A78
330
1F
100
AcDbEntity
  8
1
100
AcDbEllipse
 10
27.17207799999989
 20
14.092931
 30
0.0
 11
-0.0000000000000022
 21
-12.23576068878174
 31
0.0
210
0.0
220
0.0
230
1.0
 40
0.9945219999999995
 41
6.040612903108825
 42
6.709335383587852
  0
LINE
  5
21A79
330
1F
100
AcDbEntity
  8
1
100
AcDbLine
 10
17.61474099999989
 20
9.975602999999992
 30
0.0
 11
17.61992999999987
 21
9.956669999999995
 31
0.0
  0
ARC
  5
21A7A
330
1F
100
AcDbEntity
  8
1
100
AcDbCircle
 10
17.42163699999986
 20
9.906734
 30
0.0
 40
0.204494
100
AcDbArc
 50
353.1177179999998
 51
14.13475999999981
  0
LINE
  5
21A7B
330
1F
100
AcDbEntity
  8
1
100
AcDbLine
 10
16.96327999999988
 20
12.011227
 30
0.0
 11
16.8689619999999
 21
11.78246199999999
 31
0.0
  0
ARC
  5
21A7C
330
1F
100
AcDbEntity
  8
1
100
AcDbCircle
 10
17.55747099999988
 20
12.074162
 30
0.0
 40
0.356162
100
AcDbArc
 50
146.8677439999988
 51
170.332144
  0
LINE
  5
21A7D
330
1F
100
AcDbEntity
  8
1
100
AcDbLine
 10
22.43893999999989
 20
12.260263
 30
0.0
 11
22.40094399999987
 21
12.26038
 31
0.0
  0
LINE
  5
21A7E
330
1F
100
AcDbEntity
  8
1
100
AcDbLine
 10
22.40094399999987
 20
12.26038
 30
0.0
 11
17.25921399999987
 21
12.268833
 31
0.0
  0
LINE
  5
21A7F
330
1F
100
AcDbEntity
  8
1
100
AcDbLine
 10
17.25921399999987
 20
12.268833
 30
0.0
 11
17.16716399999987
 21
12.268833
 31
0.0
  0
ARC
  5
21A80
330
1F
100
AcDbEntity
  8
1
100
AcDbCircle
 10
17.58591399999989
 20
11.724907
 30
0.0
 40
0.6859149999999998
100
AcDbArc
 50
127.5914049999994
 51
155.3044849999999
  0
SPLINE
  5
21A81
330
1F
100
AcDbEntity
  8
1
100
AcDbSpline
210
0.0
220
0.0
230
1.0
 70
     8
 71
     5
 72
    30
 73
    24
 74
     0
 42
0.000000001
 43
0.0000000001
 40
0.0
 40
0.0
 40
0.0
 40
0.0
 40
0.0
 40
0.0
 40
2.217353731313486
 40
2.217353731313486
 40
2.217353731313486
 40
6.666557531225521
 40
6.666557531225521
 40
6.666557531225521
 40
11.12208665047486
 40
11.12208665047486
 40
11.12208665047486
 40
13.35439237902553
 40
13.35439237902553
 40
13.35439237902553
 40
17.82030318068608
 40
17.82030318068608
 40
17.82030318068608
 40
20.05549189518527
 40
20.05549189518527
 40
20.05549189518527
 40
22.26748762799099
 40
22.26748762799099
 40
22.26748762799099
 40
22.26748762799099
 40
22.26748762799099
 40
22.26748762799099
 10
33.26376138826887
 20
6.228509350038635
 30
0.0
 10
33.13171824325952
 20
6.445466844475113
 30
0.0
 10
32.99398494227009
 20
6.659127740123523
 30
0.0
 10
32.85048582471109
 20
6.869603141275121
 30
0.0
 10
32.40281295090097
 20
7.49110888073315
 30
0.0
 10
31.90688870227209
 20
8.078071043515457
 30
0.0
 10
31.55566392981098
 20
8.4527166445339
 30
0.0
 10
30.81519727616097
 20
9.165423073763776
 30
0.0
 10
30.00391349303516
 20
9.800110461023741
 30
0.0
 10
29.58026852910558
 20
10.09786049500334
 30
0.0
 10
28.92378763736019
 20
10.51070799127197
 30
0.0
 10
28.23755802971081
 20
10.87230584236023
 30
0.0
 10
28.00516742935088
 20
10.98728690407949
 30
0.0
 10
27.30016429901869
 20
11.31405443499499
 30
0.0
 10
26.57130136395696
 20
11.58669839527039
 30
0.0
 10
26.07454337150705
 20
11.74438090134449
 30
0.0
 10
25.32020923618958
 20
11.94243372622203
 30
0.0
 10
24.55422106154399
 20
12.08313059960104
 30
0.0
 10
24.29766436147196
 20
12.12365261530287
 30
0.0
 10
23.78543557107759
 20
12.19153508089787
 30
0.0
 10
23.27008583976903
 20
12.23406791740623
 30
0.0
 10
23.01304394244551
 20
12.24894573912662
 30
0.0
 10
22.75615703067899
 20
12.25750239170041
 30
0.0
 10
22.49999999998701
 20
12.25984512496822
 30
0.0
  0
ARC
  5
21A82
330
1F
100
AcDbEntity
  8
1
100
AcDbCircle
 10
22.8957999999999
 20
-0.086151000000001
 30
0.0
 40
12.13955
100
AcDbArc
 50
22.63823100000053
 51
31.34626900000097
  0
LINE
  5
21A83
330
1F
100
AcDbEntity
  8
1
100
AcDbLine
 10
31.89673599999987
 20
3.748634000000002
 30
0.0
 11
32.13918699999988
 21
3.836883
 31
0.0
  0
LINE
  5
21A84
330
1F
100
AcDbEntity
  8
1
100
AcDbLine
 10
32.13918699999988
 20
3.836883
 30
0.0
 11
32.81637599999988
 21
4.083351999999997
 31
0.0
  0
SPLINE
  5
21A85
330
1F
100
AcDbEntity
  8
1
100
AcDbSpline
210
0.0
220
0.0
230
1.0
 70
     8
 71
     5
 72
    21
 73
    15
 74
     0
 42
0.000000001
 43
0.0000000001
 40
0.0
 40
0.0
 40
0.0
 40
0.0
 40
0.0
 40
0.0
 40
0.9102596530595807
 40
0.9102596530595807
 40
0.9102596530595807
 40
2.207555930489921
 40
2.207555930489921
 40
2.207555930489921
 40
2.80730193432001
 40
2.80730193432001
 40
2.80730193432001
 40
3.078243683280049
 40
3.078243683280049
 40
3.078243683280049
 40
3.078243683280049
 40
3.078243683280049
 40
3.078243683280049
 10
33.09028471801872
 20
6.128964241344704
 30
0.0
 10
33.15152112225374
 20
6.017404018793193
 30
0.0
 10
33.20151554060479
 20
5.894872541073638
 30
0.0
 10
33.2414225521556
 20
5.763134871372919
 30
0.0
 10
33.31501404437006
 20
5.434190370565623
 30
0.0
 10
33.33330090682196
 20
5.088338064814337
 30
0.0
 10
33.32471632914923
 20
4.884039119621796
 30
0.0
 10
33.27614699764675
 20
4.594113692928971
 30
0.0
 10
33.15195942658184
 20
4.352217729220797
 30
0.0
 10
33.10409568028197
 20
4.282199784779727
 30
0.0
 10
33.02097599849563
 20
4.194447165800319
 30
0.0
 10
32.92007284530934
 20
4.1297045615796
 30
0.0
 10
32.88673506241878
 20
4.111761230801242
 30
0.0
 10
32.85220945060917
 20
4.096386215551127
 30
0.0
 10
32.8163762964596
 20
4.083351916839689
 30
0.0
  0
ARC
  5
21A86
330
1F
100
AcDbEntity
  8
1
100
AcDbCircle
 10
63.88230899999985
 20
-48.963436
 30
0.0
 40
60.734776
100
AcDbArc
 50
119.2618179999999
 51
120.184034
  0
ARC
  5
21A87
330
1F
100
AcDbEntity
  8
1
100
AcDbCircle
 10
26.83249999999987
 20
14.86596799999999
 30
0.0
 40
13.068372
100
AcDbArc
 50
294.2605400000004
 51
299.896066
  0
ARC
  5
21A88
330
1F
100
AcDbEntity
  8
1
100
AcDbCircle
 10
32.92529999999988
 20
4.098334999999998
 30
0.0
 40
1.272152999999998
100
AcDbArc
 50
356.5240220000003
 51
22.565311
  0
LINE
  5
21A89
330
1F
100
AcDbEntity
  8
1
100
AcDbLine
 10
16.27587699999986
 20
8.645447999999994
 30
0.0
 11
16.20315199999985
 21
8.610213999999999
 31
0.0
  0
ELLIPSE
  5
21A8A
330
1F
100
AcDbEntity
  8
1
100
AcDbEllipse
 10
26.83758699999987
 20
14.092931
 30
0.0
 11
0.0000000000000008
 21
12.80000686645508
 31
0.0
210
0.0
220
0.0
230
1.0
 40
0.9945219999999995
 41
2.086633350643873
 42
2.327328902289222
  0
LINE
  5
21A8B
330
1F
100
AcDbEntity
  8
1
100
AcDbLine
 10
15.76411099999987
 20
7.779158999999999
 30
0.0
 11
15.58810899999986
 21
8.08614
 31
0.0
  0
ARC
  5
21A8C
330
1F
100
AcDbEntity
  8
1
100
AcDbCircle
 10
31.7828119999999
 20
5.365380999999999
 30
0.0
 40
2.761566
100
AcDbArc
 50
322.719472999999
 51
330.8728540000006
  0
ARC
  5
21A8D
330
1F
100
AcDbEntity
  8
1
100
AcDbCircle
 10
31.72565199999991
 20
5.403812999999999
 30
0.0
 40
2.830345999999998
100
AcDbArc
 50
316.5887709999999
 51
322.8013129999993
  0
LINE
  5
21A8E
330
1F
100
AcDbEntity
  8
1
100
AcDbLine
 10
15.67431599999989
 20
7.779158999999999
 30
0.0
 11
15.53499899999986
 21
8.041607999999996
 31
0.0
  0
ARC
  5
21A8F
330
1F
100
AcDbEntity
  8
1
100
AcDbCircle
 10
26.26950999999988
 20
13.430218
 30
0.0
 40
12.008172
100
AcDbArc
 50
208.0737059999998
 51
222.9009859999993
  0
ELLIPSE
  5
21A90
330
1F
100
AcDbEntity
  8
1
100
AcDbEllipse
 10
25.24625299999986
 20
6.651392999999998
 30
0.0
 11
0.0000000000000002
 21
2.889110803604124
 31
0.0
210
0.0
220
0.0
230
1.0
 40
0.9945219999999995
 41
2.570561779372065
 42
2.619550987020017
  0
ELLIPSE
  5
21A91
330
1F
100
AcDbEntity
  8
1
100
AcDbEllipse
 10
25.24625299999986
 20
6.651392999999998
 30
0.0
 11
0.0000000000000002
 21
2.889110803604124
 31
0.0
210
0.0
220
0.0
230
1.0
 40
0.9945219999999995
 41
0.5216970052917669
 42
0.5302339418504346
  0
ARC
  5
21A92
330
1F
100
AcDbEntity
  8
1
100
AcDbCircle
 10
25.25464099999988
 20
6.637079999999997
 30
0.0
 40
2.876994999999998
100
AcDbArc
 50
221.4669629999994
 51
237.1310560000004
  0
ARC
  5
21A93
330
1F
100
AcDbEntity
  8
1
100
AcDbCircle
 10
25.27215799999988
 20
6.651191000000004
 30
0.0
 40
2.899331
100
AcDbArc
 50
120.6834159999994
 51
221.4466989999996
  0
ELLIPSE
  5
21A94
330
1F
100
AcDbEntity
  8
1
100
AcDbEllipse
 10
25.97938999999986
 20
-5.217230999999998
 30
0.0
 11
-0.0000000000000002
 21
-1.25
 31
0.0
210
0.0
220
0.0
230
1.0
 40
0.9832549999999999
 41
5.783185307179588
 42
12.06637061435917
  0
ARC
  5
21A95
330
1F
100
AcDbEntity
  8
1
100
AcDbCircle
 10
26.41875599999986
 20
6.650852
 30
0.0
 40
0.3375979999999999
100
AcDbArc
 50
281.1346709999997
 51
358.7786159999997
  0
SPLINE
  5
21A96
330
1F
100
AcDbEntity
  8
1
100
AcDbSpline
210
0.0
220
0.0
230
1.0
 70
     8
 71
     5
 72
    24
 73
    18
 74
     0
 42
0.000000001
 43
0.0000000001
 40
0.0
 40
0.0
 40
0.0
 40
0.0
 40
0.0
 40
0.0
 40
6.067268851419933
 40
6.067268851419933
 40
6.067268851419933
 40
18.09835123743737
 40
18.09835123743737
 40
18.09835123743737
 40
41.99259216832857
 40
41.99259216832857
 40
41.99259216832857
 40
54.05022208643967
 40
54.05022208643967
 40
54.05022208643967
 40
59.90572342563233
 40
59.90572342563233
 40
59.90572342563233
 40
59.90572342563233
 40
59.90572342563233
 40
59.90572342563233
 10
26.05700256746127
 20
5.582815473502805
 30
0.0
 10
26.04360940220306
 20
5.621030776512135
 30
0.0
 10
26.03668362625524
 20
5.651290372253903
 30
0.0
 10
26.03165256702937
 20
5.67716144469103
 30
0.0
 10
26.02177471824783
 20
5.752493204018605
 30
0.0
 10
26.02421073251497
 20
5.810895710077808
 30
0.0
 10
26.02781018027727
 20
5.844620681254561
 30
0.0
 10
26.04585899120753
 20
5.942161984222153
 30
0.0
 10
26.08060863464385
 20
6.021556396719631
 30
0.0
 10
26.10833807345461
 20
6.06916075278864
 30
0.0
 10
26.16009764654135
 20
6.139093023385356
 30
0.0
 10
26.23734204250357
 20
6.205495997862982
 30
0.0
 10
26.26572820878812
 20
6.226410340055913
 30
0.0
 10
26.31548583222516
 20
6.258680726525049
 30
0.0
 10
26.38662025140187
 20
6.289837000523888
 30
0.0
 10
26.41507926836192
 20
6.300367551804889
 30
0.0
 10
26.4447611020131
 20
6.310150371848372
 30
0.0
 10
26.4841098768153
 20
6.318802984998207
 30
0.0
  0
ARC
  5
21A97
330
1F
100
AcDbEntity
  8
1
100
AcDbCircle
 10
25.75736599999985
 20
5.473162999999999
 30
0.0
 40
0.318679
100
AcDbArc
 50
299.8855039999995
 51
20.10022999999968
  0
LINE
  5
21A98
330
1F
100
AcDbEntity
  8
1
100
AcDbLine
 10
25.91609999999986
 20
5.196953999999998
 30
0.0
 11
25.88074199999989
 21
5.179398999999996
 31
0.0
  0
ARC
  5
21A99
330
1F
100
AcDbEntity
  8
1
100
AcDbCircle
 10
24.42895599999986
 20
7.847138000000001
 30
0.0
 40
0.3025239999999999
100
AcDbArc
 50
40.45298599999979
 51
74.94838599999974
  0
ARC
  5
21A9A
330
1F
100
AcDbEntity
  8
1
100
AcDbCircle
 10
25.06396299999986
 20
8.392295999999994
 30
0.0
 40
0.5346340000000001
100
AcDbArc
 50
220.755748
 51
270.6181289999995
  0
ARC
  5
21A9B
330
1F
100
AcDbEntity
  8
1
100
AcDbCircle
 10
25.76247699999988
 20
7.812992999999998
 30
0.0
 40
0.330391
100
AcDbArc
 50
59.65204900000003
 51
76.03517700000053
  0
ARC
  5
21A9C
330
1F
100
AcDbEntity
  8
1
100
AcDbCircle
 10
25.76799599999987
 20
7.823286000000003
 30
0.0
 40
0.3188309999999999
100
AcDbArc
 50
339.374063
 51
59.57332399999932
  0
SPLINE
  5
21A9D
330
1F
100
AcDbEntity
  8
1
100
AcDbSpline
210
0.0
220
0.0
230
1.0
 70
     8
 71
     5
 72
    24
 73
    18
 74
     0
 42
0.000000001
 43
0.0000000001
 40
0.0
 40
0.0
 40
0.0
 40
0.0
 40
0.0
 40
0.0
 40
6.067266936880187
 40
6.067266936880187
 40
6.067266936880187
 40
18.09835342884063
 40
18.09835342884063
 40
18.09835342884063
 40
41.99250451744641
 40
41.99250451744641
 40
41.99250451744641
 40
54.05012908875549
 40
54.05012908875549
 40
54.05012908875549
 40
59.90566800263913
 40
59.90566800263913
 40
59.90566800263913
 40
59.90566800263913
 40
59.90566800263913
 40
59.90566800263913
 10
26.06676200226019
 20
7.710833130013753
 30
0.0
 10
26.05301881010212
 20
7.67272367727692
 30
0.0
 10
26.04581571532168
 20
7.642515253751085
 30
0.0
 10
26.04054750524966
 20
7.616680020134396
 30
0.0
 10
26.02997898389395
 20
7.541410846785979
 30
0.0
 10
26.03187913095209
 20
7.482968253856618
 30
0.0
 10
26.03516904790436
 20
7.449201140489243
 30
0.0
 10
26.05232227616506
 20
7.351471779574154
 30
0.0
 10
26.08634206824457
 20
7.271750784800659
 30
0.0
 10
26.11363412514993
 20
7.223890629512801
 30
0.0
 10
26.16475003700919
 20
7.153489286347969
 30
0.0
 10
26.24138201024909
 20
7.086398171312275
 30
0.0
 10
26.2695752411617
 20
7.065231836672218
 30
0.0
 10
26.31903495344579
 20
7.032521054077065
 30
0.0
 10
26.38988091655372
 20
7.000738293395215
 30
0.0
 10
26.41824145545601
 20
6.989957745328553
 30
0.0
 10
26.44783249098731
 20
6.979914055391091
 30
0.0
 10
26.48710057381109
 20
6.970916159940408
 30
0.0
  0
ARC
  5
21A9E
330
1F
100
AcDbEntity
  8
1
100
AcDbCircle
 10
26.41885699999989
 20
6.639609
 30
0.0
 40
0.3374409999999999
100
AcDbArc
 50
0.6906540000001376
 51
78.36086799999913
  0
ELLIPSE
  5
21A9F
330
1F
100
AcDbEntity
  8
1
100
AcDbEllipse
 10
26.5845129999999
 20
6.645214000000002
 30
0.0
 11
-0.0000000000000001
 21
-0.3350000083446503
 31
0.0
210
0.0
220
0.0
230
1.0
 40
0.9945219999999999
 41
0.2269310499238252
 42
2.905438820288109
  0
ELLIPSE
  5
21AA0
330
1F
100
AcDbEntity
  8
1
100
AcDbEllipse
 10
26.79039299999988
 20
5.748694999999997
 30
0.0
 11
-0.0000000000000001
 21
-0.5851088166236879
 31
0.0
210
0.0
220
0.0
230
1.0
 40
0.9945219999999997
 41
3.368523703513618
 42
4.999833922681281
  0
ELLIPSE
  5
21AA1
330
1F
100
AcDbEntity
  8
1
100
AcDbEllipse
 10
25.91286899999989
 20
5.487842
 30
0.0
 11
-0.0000000000000001
 21
-0.3350000083446503
 31
0.0
210
0.0
220
0.0
230
1.0
 40
0.9945219999999999
 41
0.0001553701225981
 42
1.858241269091504
  0
LINE
  5
21AA2
330
1F
100
AcDbEntity
  8
1
100
AcDbLine
 10
25.88074199999989
 20
5.179398999999996
 30
0.0
 11
25.83199699999989
 21
5.163080999999998
 31
0.0
  0
ELLIPSE
  5
21AA3
330
1F
100
AcDbEntity
  8
1
100
AcDbEllipse
 10
25.91286899999989
 20
5.487842
 30
0.0
 11
-0.0000000000000001
 21
-0.3350000083446503
 31
0.0
210
0.0
220
0.0
230
1.0
 40
0.9945219999999999
 41
5.462918805906817
 42
6.283340677302184
  0
ARC
  5
21AA4
330
1F
100
AcDbEntity
  8
1
100
AcDbCircle
 10
25.04769299999987
 20
4.910786999999999
 30
0.0
 40
0.5343520000000001
100
AcDbArc
 50
89.39298399999952
 51
138.7025289999987
  0
ARC
  5
21AA5
330
1F
100
AcDbEntity
  8
1
100
AcDbCircle
 10
24.41819499999986
 20
5.461693999999994
 30
0.0
 40
0.302398
100
AcDbArc
 50
285.0706579999991
 51
318.9972729999996
  0
ELLIPSE
  5
21AA6
330
1F
100
AcDbEntity
  8
1
100
AcDbEllipse
 10
24.59086799999989
 20
7.814944999999994
 30
0.0
 11
-0.0000000000000001
 21
-0.3350000083446503
 31
0.0
210
0.0
220
0.0
230
1.0
 40
0.9945219999999999
 41
2.321326152317023
 42
3.141748023712386
  0
ELLIPSE
  5
21AA7
330
1F
100
AcDbEntity
  8
1
100
AcDbEllipse
 10
24.59086799999989
 20
7.814944999999994
 30
0.0
 11
-0.0000000000000001
 21
-0.3350000083446503
 31
0.0
210
0.0
220
0.0
230
1.0
 40
0.9945219999999999
 41
3.141748023712386
 42
3.660580037499158
  0
ELLIPSE
  5
21AA8
330
1F
100
AcDbEntity
  8
1
100
AcDbEllipse
 10
25.26008299999984
 20
8.442482999999995
 30
0.0
 11
-0.0000000000000001
 21
-0.5851088166236879
 31
0.0
210
0.0
220
0.0
230
1.0
 40
0.9945219999999997
 41
0.0000299564086878
 42
0.8110437178949087
  0
ELLIPSE
  5
21AA9
330
1F
100
AcDbEntity
  8
1
100
AcDbEllipse
 10
25.26008299999984
 20
8.442482999999995
 30
0.0
 11
-0.0000000000000001
 21
-0.5851088166236879
 31
0.0
210
0.0
220
0.0
230
1.0
 40
0.9945219999999997
 41
5.46291880590682
 42
6.283215263588272
  0
ELLIPSE
  5
21AAA
330
1F
100
AcDbEntity
  8
1
100
AcDbEllipse
 10
25.92351299999987
 20
7.808764999999993
 30
0.0
 11
-0.0000000000000001
 21
-0.3350000083446503
 31
0.0
210
0.0
220
0.0
230
1.0
 40
0.9945219999999999
 41
1.274128601120426
 42
3.14135520776647
  0
ELLIPSE
  5
21AAB
330
1F
100
AcDbEntity
  8
1
100
AcDbEllipse
 10
25.92351299999987
 20
7.808764999999993
 30
0.0
 11
-0.0000000000000001
 21
-0.3350000083446503
 31
0.0
210
0.0
220
0.0
230
1.0
 40
0.9945219999999999
 41
3.14135520776647
 42
3.952636371484695
  0
ELLIPSE
  5
21AAC
330
1F
100
AcDbEntity
  8
1
100
AcDbEllipse
 10
26.79860799999986
 20
7.539784999999994
 30
0.0
 11
-0.0000000000000001
 21
-0.5851088166236879
 31
0.0
210
0.0
220
0.0
230
1.0
 40
0.9945219999999997
 41
4.41572125471024
 42
6.047031473877903
  0
ELLIPSE
  5
21AAD
330
1F
100
AcDbEntity
  8
1
100
AcDbEllipse
 10
25.24365399999988
 20
4.860302999999994
 30
0.0
 11
-0.0000000000000001
 21
-0.5851088166236879
 31
0.0
210
0.0
220
0.0
230
1.0
 40
0.9945219999999997
 41
3.141622609998481
 42
3.9526363714847
  0
ELLIPSE
  5
21AAE
330
1F
100
AcDbEntity
  8
1
100
AcDbEllipse
 10
25.24365399999988
 20
4.860302999999994
 30
0.0
 11
-0.0000000000000001
 21
-0.5851088166236879
 31
0.0
210
0.0
220
0.0
230
1.0
 40
0.9945219999999997
 41
2.321326152317028
 42
3.141622609998481
  0
ELLIPSE
  5
21AAF
330
1F
100
AcDbEntity
  8
1
100
AcDbEllipse
 10
23.91922399999987
 20
6.657572999999999
 30
0.0
 11
-0.0000000000000001
 21
-0.3350000083446503
 31
0.0
210
0.0
220
0.0
230
1.0
 40
0.9945219999999999
 41
3.368523703513618
 42
6.047031473877901
  0
ELLIPSE
  5
21AB0
330
1F
100
AcDbEntity
  8
1
100
AcDbEllipse
 10
23.71334299999984
 20
7.554090999999999
 30
0.0
 11
-0.0000000000000001
 21
-0.5851088166236879
 31
0.0
210
0.0
220
0.0
230
1.0
 40
0.9945219999999997
 41
0.226931049923829
 42
1.858241269091488
  0
ELLIPSE
  5
21AB1
330
1F
100
AcDbEntity
  8
1
100
AcDbEllipse
 10
24.59086799999989
 20
7.814944999999994
 30
0.0
 11
-0.0000000000000001
 21
-0.3350000083446503
 31
0.0
210
0.0
220
0.0
230
1.0
 40
0.9945219999999999
 41
3.660580037499158
 42
4.999833922681302
  0
ELLIPSE
  5
21AB2
330
1F
100
AcDbEntity
  8
1
100
AcDbEllipse
 10
24.58022399999985
 20
5.494020999999996
 30
0.0
 11
-0.0000000000000001
 21
-0.3350000083446503
 31
0.0
210
0.0
220
0.0
230
1.0
 40
0.9945219999999999
 41
4.415721254710224
 42
6.282947861356262
  0
ELLIPSE
  5
21AB3
330
1F
100
AcDbEntity
  8
1
100
AcDbEllipse
 10
24.58022399999985
 20
5.494020999999996
 30
0.0
 11
-0.0000000000000001
 21
-0.3350000083446503
 31
0.0
210
0.0
220
0.0
230
1.0
 40
0.9945219999999999
 41
6.282947861356262
 42
7.094229025074487
  0
ELLIPSE
  5
21AB4
330
1F
100
AcDbEntity
  8
1
100
AcDbEllipse
 10
23.70512899999992
 20
5.763001000000002
 30
0.0
 11
-0.0000000000000001
 21
-0.5851088166236879
 31
0.0
210
0.0
220
0.0
230
1.0
 40
0.9945219999999997
 41
1.274128601120448
 42
2.905438820288111
  0
ELLIPSE
  5
21AB5
330
1F
100
AcDbEntity
  8
1
100
AcDbEllipse
 10
25.15779299999991
 20
6.651392999999998
 30
0.0
 11
-0.0000000000000005
 21
-2.625
 31
0.0
210
0.0
220
0.0
230
1.0
 40
0.9945219999999995
 41
3.141607137178481
 42
3.636981261900865
  0
ELLIPSE
  5
21AB6
330
1F
100
AcDbEntity
  8
1
100
AcDbEllipse
 10
25.15779299999991
 20
6.651392999999998
 30
0.0
 11
-0.0000000000000005
 21
-2.625
 31
0.0
210
0.0
220
0.0
230
1.0
 40
0.9945219999999995
 41
3.636981261900865
 42
6.283199790768276
  0
ELLIPSE
  5
21AB7
330
1F
100
AcDbEntity
  8
1
100
AcDbEllipse
 10
25.21143399999989
 20
6.651392999999998
 30
0.0
 11
-0.0000000000000005
 21
-2.625
 31
0.0
210
0.0
220
0.0
230
1.0
 40
0.9945219999999995
 41
0.0000144835886899
 42
3.141607137178481
  0
ELLIPSE
  5
21AB8
330
1F
100
AcDbEntity
  8
1
100
AcDbEllipse
 10
25.21143399999989
 20
6.651392999999998
 30
0.0
 11
-0.0000000000000005
 21
-2.625
 31
0.0
210
0.0
220
0.0
230
1.0
 40
0.9945219999999995
 41
3.141607137178482
 42
3.636981261900865
  0
ELLIPSE
  5
21AB9
330
1F
100
AcDbEntity
  8
1
100
AcDbEllipse
 10
25.21143399999989
 20
6.651392999999998
 30
0.0
 11
-0.0000000000000005
 21
-2.625
 31
0.0
210
0.0
220
0.0
230
1.0
 40
0.9945219999999995
 41
3.636981261900865
 42
6.283199790768276
  0
ELLIPSE
  5
21ABA
330
1F
100
AcDbEntity
  8
1
100
AcDbEllipse
 10
25.25186799999986
 20
6.651392999999998
 30
0.0
 11
-0.0000000000000004
 21
-1.955000042915343
 31
0.0
210
0.0
220
0.0
230
1.0
 40
0.994522
 41
0.4953886083110727
 42
6.778573915490657
  0
LINE
  5
21ABB
330
1F
100
AcDbEntity
  8
1
100
AcDbLine
 10
25.06973399999987
 20
7.857374
 30
0.0
 11
25.26009999999985
 21
7.857374
 31
0.0
  0
LINE
  5
21ABC
330
1F
100
AcDbEntity
  8
1
100
AcDbLine
 10
25.05335799999989
 20
5.445411999999997
 30
0.0
 11
25.2436369999999
 21
5.445411999999997
 31
0.0
  0
LINE
  5
21ABD
330
1F
100
AcDbEntity
  8
1
100
AcDbLine
 10
25.15775499999989
 20
9.276392999999998
 30
0.0
 11
25.21139599999989
 21
9.276392999999998
 31
0.0
  0
LINE
  5
21ABE
330
1F
100
AcDbEntity
  8
1
100
AcDbLine
 10
25.15783099999988
 20
4.026392999999998
 30
0.0
 11
25.2114719999999
 21
4.026392999999998
 31
0.0
  0
LINE
  5
21ABF
330
1F
100
AcDbEntity
  8
SK1
100
AcDbLine
 10
-22.00000000000011
 20
5.0
 30
0.0
 11
-22.00000000000011
 21
2.397128000000002
 31
0.0
  0
LINE
  5
21AC0
330
1F
100
AcDbEntity
  8
SK1
100
AcDbLine
 10
-21.00000000000012
 20
6.0
 30
0.0
 11
-21.00000000000012
 21
2.876553000000001
 31
0.0
  0
LINE
  5
21AC1
330
1F
100
AcDbEntity
  8
SK1
100
AcDbLine
 10
-22.00000000000011
 20
2.397128000000002
 30
0.0
 11
-22.00000000000011
 21
-5.0
 31
0.0
  0
LINE
  5
21AC2
330
1F
100
AcDbEntity
  8
SK1
100
AcDbLine
 10
-21.00000000000012
 20
2.876553000000001
 30
0.0
 11
-21.00000000000012
 21
-6.0
 31
0.0
  0
LINE
  5
21AC3
330
1F
100
AcDbEntity
  8
SK1
100
AcDbLine
 10
-10.33528100000012
 20
6.0
 30
0.0
 11
-10.33528100000012
 21
2.876553000000001
 31
0.0
  0
LINE
  5
21AC4
330
1F
100
AcDbEntity
  8
SK1
100
AcDbLine
 10
-10.33528100000012
 20
2.876553000000001
 30
0.0
 11
-10.33528100000012
 21
-6.0
 31
0.0
  0
LINE
  5
21AC5
330
1F
100
AcDbEntity
  8
SK1
100
AcDbLine
 10
-5.000000000000113
 20
6.25
 30
0.0
 11
-5.000000000000113
 21
2.996409999999997
 31
0.0
  0
LINE
  5
21AC6
330
1F
100
AcDbEntity
  8
SK1
100
AcDbLine
 10
-5.000000000000113
 20
2.996409999999997
 30
0.0
 11
-5.000000000000113
 21
-6.25
 31
0.0
  0
LINE
  5
21AC7
330
1F
100
AcDbEntity
  8
SK1
100
AcDbLine
 10
-1.320577000000156
 20
6.25
 30
0.0
 11
-1.320577000000156
 21
2.996409999999997
 31
0.0
  0
LINE
  5
21AC8
330
1F
100
AcDbEntity
  8
SK1
100
AcDbLine
 10
-1.320577000000156
 20
2.996409999999997
 30
0.0
 11
-1.320577000000156
 21
-6.25
 31
0.0
  0
LINE
  5
21AC9
330
1F
100
AcDbEntity
  8
1
100
AcDbLine
 10
-0.0000000000001137
 20
4.890140999999999
 30
0.0
 11
-0.0000000000001137
 21
-10.2
 31
0.0
  0
LINE
  5
21ACA
330
1F
100
AcDbEntity
  8
1
100
AcDbLine
 10
-0.0000000000001137
 20
10.2
 30
0.0
 11
-0.0000000000001137
 21
4.890140000000002
 31
0.0
  0
LINE
  5
21ACB
330
1F
100
AcDbEntity
  8
1
100
AcDbLine
 10
0.2999999999998692
 20
-9.214616999999996
 30
0.0
 11
0.2999999999998692
 21
5.033967999999994
 31
0.0
  0
LINE
  5
21ACC
330
1F
100
AcDbEntity
  8
1
100
AcDbLine
 10
0.2999999999998692
 20
-9.214616999999996
 30
0.0
 11
0.2999999999998692
 21
-10.5
 31
0.0
  0
LINE
  5
21ACD
330
1F
100
AcDbEntity
  8
1
100
AcDbLine
 10
0.2999999999998692
 20
5.033967999999994
 30
0.0
 11
0.2999999999998692
 21
10.5
 31
0.0
  0
SPLINE
  5
21ACE
330
1F
100
AcDbEntity
  8
1
100
AcDbSpline
210
0.0
220
0.0
230
1.0
 70
     8
 71
     5
 72
    15
 73
     9
 74
     0
 42
0.000000001
 43
0.0000000001
 40
0.0
 40
0.0
 40
0.0
 40
0.0
 40
0.0
 40
0.0
 40
3.169261024158918
 40
3.169261024158918
 40
3.169261024158918
 40
4.626989255551164
 40
4.626989255551164
 40
4.626989255551164
 40
4.626989255551164
 40
4.626989255551164
 40
4.626989255551164
 10
6.307417328692707
 20
-6.09487489617301
 30
0.0
 10
6.755618520999291
 20
-6.09487489617301
 30
0.0
 10
7.203819406041873
 20
-6.123714498817754
 30
0.0
 10
7.644860834227074
 20
-6.181415544941515
 30
0.0
 10
8.272155366895077
 20
-6.301329799566239
 30
0.0
 10
8.873305850907399
 20
-6.46545958391654
 30
0.0
 10
9.060524727962445
 20
-6.521353537966689
 30
0.0
 10
9.24459150899861
 20
-6.580801373781952
 30
0.0
 10
9.426092690959137
 20
-6.643677402119351
 30
0.0
  0
ARC
  5
21ACF
330
1F
100
AcDbEntity
  8
1
100
AcDbCircle
 10
51.48973199999989
 20
115.160494
 30
0.0
 40
128.862898
100
AcDbArc
 50
250.9482479999999
 51
252.3684950000003
  0
ARC
  5
21AD0
330
1F
100
AcDbEntity
  8
1
100
AcDbCircle
 10
15.5524509999999
 20
2.062635
 30
0.0
 40
10.192882
100
AcDbArc
 50
252.3260090000003
 51
258.3834390000009
  0
SPLINE
  5
21AD1
330
1F
100
AcDbEntity
  8
1
100
AcDbSpline
210
0.0
220
0.0
230
1.0
 70
     8
 71
     5
 72
    18
 73
    12
 74
     0
 42
0.000000001
 43
0.0000000001
 40
0.0
 40
0.0
 40
0.0
 40
0.0
 40
0.0
 40
0.0
 40
0.3357868285097366
 40
0.3357868285097366
 40
0.3357868285097366
 40
0.8189713299099341
 40
0.8189713299099341
 40
0.8189713299099341
 40
1.584982072096105
 40
1.584982072096105
 40
1.584982072096105
 40
1.584982072096105
 40
1.584982072096105
 40
1.584982072096105
 10
13.49999999999909
 20
-7.921474124541632
 30
0.0
 10
13.53797784446056
 20
-7.929285251596574
 30
0.0
 10
13.57676184807263
 20
-7.933182635527671
 30
0.0
 10
13.61544014908816
 20
-7.932681411004566
 30
0.0
 10
13.70737632528596
 20
-7.920343644140515
 30
0.0
 10
13.78817235526219
 20
-7.883635946625354
 30
0.0
 10
13.82977334001478
 20
-7.854474671360513
 30
0.0
 10
13.91992406482472
 20
-7.768093716739599
 30
0.0
 10
13.97153558958917
 20
-7.65892652830265
 30
0.0
 10
13.99085945429081
 20
-7.588136911461937
 30
0.0
 10
14.00000000000005
 20
-7.515551412714508
 30
0.0
 10
13.99999999999989
 20
-7.442020639918752
 30
0.0
  0
LINE
  5
21AD2
330
1F
100
AcDbEntity
  8
1
100
AcDbLine
 10
13.99999999999989
 20
-4.099851999999998
 30
0.0
 11
13.99999999999989
 21
-7.442021000000003
 31
0.0
  0
ELLIPSE
  5
21AD3
330
1F
100
AcDbEntity
  8
1
100
AcDbEllipse
 10
18.18540999999985
 20
1.233192000000002
 30
0.0
 11
-1.203093886375426
 21
-7.781791210174559
 31
0.0
210
0.0
220
0.0
230
1.0
 40
0.638306
 41
5.561263123547353
 42
5.985100266774043
  0
ELLIPSE
  5
21AD4
330
1F
100
AcDbEntity
  8
1
100
AcDbEllipse
 10
51.23930199999984
 20
3.924278000000001
 30
0.0
 11
39.71985626220703
 21
4.15623903274536
 31
0.0
210
0.0
220
0.0
230
1.0
 40
0.378757
 41
3.559496614792875
 42
3.864667650553836
  0
SPLINE
  5
21AD5
330
1F
100
AcDbEntity
  8
1
100
AcDbSpline
210
0.0
220
0.0
230
1.0
 70
     8
 71
     5
 72
    21
 73
    15
 74
     0
 42
0.000000001
 43
0.0000000001
 40
0.0
 40
0.0
 40
0.0
 40
0.0
 40
0.0
 40
0.0
 40
0.1993281542402187
 40
0.1993281542402187
 40
0.1993281542402187
 40
0.5921811706086537
 40
0.5921811706086537
 40
0.5921811706086537
 40
1.352165136127992
 40
1.352165136127992
 40
1.352165136127992
 40
1.906601929622255
 40
1.906601929622255
 40
1.906601929622255
 40
1.906601929622255
 40
1.906601929622255
 40
1.906601929622255
 10
3.500000000000653
 20
6.094874896173003
 30
0.0
 10
3.476983567299129
 20
6.09487489617306
 30
0.0
 10
3.453967158496311
 20
6.093016956409528
 30
0.0
 10
3.431311121361602
 20
6.089325903174639
 30
0.0
 10
3.365192348402871
 20
6.073100944145913
 30
0.0
 10
3.304895240412974
 20
6.043021522931752
 30
0.0
 10
3.268421655818457
 20
6.017981914623398
 30
0.0
 10
3.173451660652034
 20
5.936051613170619
 30
0.0
 10
3.107266150066294
 20
5.832429852013319
 30
0.0
 10
3.073981260795363
 20
5.760039947910463
 30
0.0
 10
3.030822038261391
 20
5.630969668759057
 30
0.0
 10
3.008842887319502
 20
5.496810346147405
 30
0.0
 10
3.002881643427713
 20
5.439456186146088
 30
0.0
 10
2.999999999999886
 20
5.381945287850918
 30
0.0
 10
2.999999999999886
 20
5.32423703454306
 30
0.0
  0
SPLINE
  5
21AD6
330
1F
100
AcDbEntity
  8
1
100
AcDbSpline
210
0.0
220
0.0
230
1.0
 70
     8
 71
     5
 72
    21
 73
    15
 74
     0
 42
0.000000001
 43
0.0000000001
 40
0.0
 40
0.0
 40
0.0
 40
0.0
 40
0.0
 40
0.0
 40
0.1993281542389187
 40
0.1993281542389187
 40
0.1993281542389187
 40
0.5921811706065372
 40
0.5921811706065372
 40
0.5921811706065372
 40
1.352165136118534
 40
1.352165136118534
 40
1.352165136118534
 40
1.906601929610543
 40
1.906601929610543
 40
1.906601929610543
 40
1.906601929610543
 40
1.906601929610543
 40
1.906601929610543
 10
3.500000000000653
 20
-6.09487489617301
 30
0.0
 10
3.476983567299271
 20
-6.09487489617306
 30
0.0
 10
3.453967158496567
 20
-6.093016956409563
 30
0.0
 10
3.431311121361517
 20
-6.089325903174611
 30
0.0
 10
3.365192348403013
 20
-6.073100944145949
 30
0.0
 10
3.304895240413316
 20
-6.043021522931951
 30
0.0
 10
3.268421655819082
 20
-6.017981914624002
 30
0.0
 10
3.173451660652574
 20
-5.936051613171066
 30
0.0
 10
3.107266150063793
 20
-5.832429852009894
 30
0.0
 10
3.073981260793289
 20
-5.76003994790463
 30
0.0
 10
3.03082203826105
 20
-5.630969668756826
 30
0.0
 10
3.008842887319559
 20
-5.496810346147121
 30
0.0
 10
3.002881643427656
 20
-5.439456186145626
 30
0.0
 10
2.999999999999886
 20
-5.38194528785069
 30
0.0
 10
2.999999999999886
 20
-5.324237034543067
 30
0.0
  0
LINE
  5
21AD7
330
1F
100
AcDbEntity
  8
1
100
AcDbLine
 10
2.999999999999886
 20
5.324236999999996
 30
0.0
 11
2.999999999999886
 21
-5.324236999999996
 31
0.0
  0
SPLINE
  5
21AD8
330
1F
100
AcDbEntity
  8
1
100
AcDbSpline
210
0.0
220
0.0
230
1.0
 70
     8
 71
     5
 72
    15
 73
     9
 74
     0
 42
0.000000001
 43
0.0000000001
 40
0.0
 40
0.0
 40
0.0
 40
0.0
 40
0.0
 40
0.0
 40
3.169261024042943
 40
3.169261024042943
 40
3.169261024042943
 40
4.626989255435167
 40
4.626989255435167
 40
4.626989255435167
 40
4.626989255435167
 40
4.626989255435167
 40
4.626989255435167
 10
6.307417328692707
 20
6.094874896173003
 30
0.0
 10
6.75561852098292
 20
6.094874896173003
 30
0.0
 10
7.203819406008534
 20
6.123714498815637
 30
0.0
 10
7.64486083425794
 20
6.181415544948229
 30
0.0
 10
8.272155366910396
 20
6.301329799570034
 30
0.0
 10
8.873305850907286
 20
6.465459583916697
 30
0.0
 10
9.060524727962558
 20
6.521353537966746
 30
0.0
 10
9.24459150899861
 20
6.580801373781952
 30
0.0
 10
9.426092690959137
 20
6.643677402119351
 30
0.0
  0
LINE
  5
21AD9
330
1F
100
AcDbEntity
  8
1
100
AcDbLine
 10
3.499999999999886
 20
6.094875000000001
 30
0.0
 11
6.307416999999873
 21
6.094875000000001
 31
0.0
  0
LINE
  5
21ADA
330
1F
100
AcDbEntity
  8
1
100
AcDbLine
 10
3.499999999999886
 20
-6.094875000000001
 30
0.0
 11
6.307416999999873
 21
-6.094875000000001
 31
0.0
  0
ELLIPSE
  5
21ADB
330
1F
100
AcDbEntity
  8
1
100
AcDbEllipse
 10
22.0893559999999
 20
0.0012199999999964
 30
0.0
 11
0.0165579002350569
 21
-11.58467864990234
 31
0.0
210
0.0
220
0.0
230
1.0
 40
0.9832169999999999
 41
0.0346063101103343
 42
0.9093003777807115
  0
LINE
  5
21ADC
330
1F
100
AcDbEntity
  8
1
100
AcDbLine
 10
22.49999999999989
 20
-11.575959
 30
0.0
 11
22.09197099999986
 21
-11.59065299999999
 31
0.0
  0
ARC
  5
21ADD
330
1F
100
AcDbEntity
  8
1
100
AcDbCircle
 10
19.59733799999989
 20
-11.69867999999999
 30
0.0
 40
0.061588
100
AcDbArc
 50
225.2179870000008
 51
256.6882480000004
  0
SPLINE
  5
21ADE
330
1F
100
AcDbEntity
  8
1
100
AcDbSpline
210
0.0
220
0.0
230
1.0
 70
     8
 71
     5
 72
    18
 73
    12
 74
     0
 42
0.000000001
 43
0.0000000001
 40
0.0
 40
0.0
 40
0.0
 40
0.0
 40
0.0
 40
0.0
 40
0.9719746328442628
 40
0.9719746328442628
 40
0.9719746328442628
 40
3.71556178775095
 40
3.71556178775095
 40
3.71556178775095
 40
5.459993876322942
 40
5.459993876322942
 40
5.459993876322942
 40
5.459993876322942
 40
5.459993876322942
 40
5.459993876322942
 10
19.55408453907401
 20
-11.74226342257912
 30
0.0
 10
19.54408872091153
 20
-11.72877261577255
 30
0.0
 10
19.55579735055303
 20
-11.71309559145957
 30
0.0
 10
19.59023901090694
 20
-11.69583252857862
 30
0.0
 10
19.78817929197305
 20
-11.62894085481599
 30
0.0
 10
20.18012636213157
 20
-11.56895000621331
 30
0.0
 10
20.48884435945092
 20
-11.5428107763813
 30
0.0
 10
21.00873658951826
 20
-11.52269882449641
 30
0.0
 10
21.52583841205347
 20
-11.53955330576884
 30
0.0
 10
21.72351860884851
 20
-11.55150983221094
 30
0.0
 10
21.91510982756392
 20
-11.5687058524081
 30
0.0
 10
22.09197678943821
 20
-11.59065344735334
 30
0.0
  0
SPLINE
  5
21ADF
330
1F
100
AcDbEntity
  8
1
100
AcDbSpline
210
0.0
220
0.0
230
1.0
 70
     8
 71
     5
 72
    15
 73
     9
 74
     0
 42
0.000000001
 43
0.0000000001
 40
0.0
 40
0.0
 40
0.0
 40
0.0
 40
0.0
 40
0.0
 40
1.061797383397184
 40
1.061797383397184
 40
1.061797383397184
 40
1.848719590348983
 40
1.848719590348983
 40
1.848719590348983
 40
1.848719590348983
 40
1.848719590348983
 40
1.848719590348983
 10
19.5831107932068
 20
-11.75880834367922
 30
0.0
 10
19.61877489758038
 20
-11.77078133735931
 30
0.0
 10
19.6781643482945
 20
-11.77985423556789
 30
0.0
 10
19.7571984238229
 20
-11.78605856312386
 30
0.0
 10
19.91448201422355
 20
-11.79353503852083
 30
0.0
 10
20.09831928470061
 20
-11.79700652392869
 30
0.0
 10
20.18011660978363
 20
-11.79799725975105
 30
0.0
 10
20.26426889169957
 20
-11.79866010099266
 30
0.0
 10
20.35027614222113
 20
-11.79910346340116
 30
0.0
  0
LINE
  5
21AE0
330
1F
100
AcDbEntity
  8
1
100
AcDbLine
 10
33.52333599999986
 20
1.189038000000003
 30
0.0
 11
33.34194599999989
 21
1.218592999999998
 31
0.0
  0
ELLIPSE
  5
21AE1
330
1F
100
AcDbEntity
  8
1
100
AcDbEllipse
 10
31.29085399999991
 20
-11.689448
 30
0.0
 11
-0.0000000000000372
 21
-13.07551193237304
 31
0.0
210
0.0
220
0.0
230
1.0
 40
0.9832549999999995
 41
2.981371428256723
 42
2.999791620422562
  0
SPLINE
  5
21AE2
330
1F
100
AcDbEntity
  8
1
100
AcDbSpline
210
0.0
220
0.0
230
1.0
 70
     8
 71
     5
 72
    18
 73
    12
 74
     0
 42
0.000000001
 43
0.0000000001
 40
0.0
 40
0.0
 40
0.0
 40
0.0
 40
0.0
 40
0.0
 40
2.775303278229055
 40
2.775303278229055
 40
2.775303278229055
 40
4.266730237348881
 40
4.266730237348881
 40
4.266730237348881
 40
4.546827471992563
 40
4.546827471992563
 40
4.546827471992563
 40
4.546827471992563
 40
4.546827471992563
 40
4.546827471992563
 10
33.04356976322293
 20
0.1278234808324967
 30
0.0
 10
33.00642574795529
 20
0.3344131004073958
 30
0.0
 10
32.98989887102943
 20
0.5516174075992524
 30
0.0
 10
32.99340604138019
 20
0.7650549120520438
 30
0.0
 10
33.03156576715313
 20
1.082497750095512
 30
0.0
 10
33.13241692039139
 20
1.325272018615834
 30
0.0
 10
33.17600833143484
 20
1.397451874370965
 30
0.0
 10
33.24079944647193
 20
1.46160760546661
 30
0.0
 10
33.32075008648283
 20
1.475286322412976
 30
0.0
 10
33.33380651406895
 20
1.47607658791162
 30
0.0
 10
33.34719632920627
 20
1.475342520724318
 30
0.0
 10
33.36086259877277
 20
1.472991715177371
 30
0.0
  0
ARC
  5
21AE3
330
1F
100
AcDbEntity
  8
1
100
AcDbCircle
 10
33.29954499999988
 20
1.227935000000002
 30
0.0
 40
0.253213
100
AcDbArc
 50
37.09714600000019
 51
75.95192700000075
  0
LINE
  5
21AE4
330
1F
100
AcDbEntity
  8
1
100
AcDbLine
 10
33.62467399999986
 20
1.172674
 30
0.0
 11
33.52333599999986
 21
1.189038000000003
 31
0.0
  0
ARC
  5
21AE5
330
1F
100
AcDbEntity
  8
1
100
AcDbCircle
 10
32.88643099999987
 20
0.8810190000000019
 30
0.0
 40
0.7934130000000001
100
AcDbArc
 50
21.55733500000057
 51
39.08630499999893
  0
ARC
  5
21AE6
330
1F
100
AcDbEntity
  8
1
100
AcDbCircle
 10
32.01215599999989
 20
-1.583779999999997
 30
0.0
 40
3.193259999999998
100
AcDbArc
 50
52.09230600000015
 51
59.67249199999968
  0
ARC
  5
21AE7
330
1F
100
AcDbEntity
  8
1
100
AcDbCircle
 10
35.30588199999988
 20
0.5322229999999948
 30
0.0
 40
2.298162999999999
100
AcDbArc
 50
190.1348649999993
 51
194.1026389999997
  0
ARC
  5
21AE8
330
1F
100
AcDbEntity
  8
1
100
AcDbCircle
 10
21.79050199999986
 20
-0.0219909999999999
 30
0.0
 40
11.68635599999999
100
AcDbArc
 50
322.7072599999995
 51
351.5263369999999
  0
ARC
  5
21AE9
330
1F
100
AcDbEntity
  8
1
100
AcDbCircle
 10
23.81864899999985
 20
-2.379629999999998
 30
0.0
 40
9.55226
100
AcDbArc
 50
3.815001999999876
 51
14.25328799999984
  0
ELLIPSE
  5
21AEA
330
1F
100
AcDbEntity
  8
1
100
AcDbEllipse
 10
25.86093699999989
 20
-5.217230999999998
 30
0.0
 11
-0.0000000000000003
 21
-1.5
 31
0.0
210
0.0
220
0.0
230
1.0
 40
0.9832550000000001
 41
6.28308110688541
 42
8.499753274450128
  0
ELLIPSE
  5
21AEB
330
1F
100
AcDbEntity
  8
1
100
AcDbEllipse
 10
25.86093699999989
 20
-5.217230999999998
 30
0.0
 11
-0.0000000000000003
 21
-1.5
 31
0.0
210
0.0
220
0.0
230
1.0
 40
0.9832550000000001
 41
5.358160803636139
 42
6.28308110688541
  0
ELLIPSE
  5
21AEC
330
1F
100
AcDbEntity
  8
1
100
AcDbEllipse
 10
25.86093699999989
 20
-5.217230999999998
 30
0.0
 11
-0.0000000000000003
 21
-1.5
 31
0.0
210
0.0
220
0.0
230
1.0
 40
0.9832550000000001
 41
3.141488452739198
 42
5.358160803636144
  0
ELLIPSE
  5
21AED
330
1F
100
AcDbEntity
  8
1
100
AcDbEllipse
 10
25.86093699999989
 20
-5.217230999999998
 30
0.0
 11
-0.0000000000000003
 21
-1.5
 31
0.0
210
0.0
220
0.0
230
1.0
 40
0.9832550000000001
 41
2.216567967270544
 42
3.141488452739198
  0
ARC
  5
21AEE
330
1F
100
AcDbEntity
  8
1
100
AcDbCircle
 10
20.82718299999988
 20
-0.1222600000000042
 30
0.0
 40
9.167521999999999
100
AcDbArc
 50
303.5817689999995
 51
322.3297039999993
  0
SPLINE
  5
21AEF
330
1F
100
AcDbEntity
  8
1
100
AcDbSpline
210
0.0
220
0.0
230
1.0
 70
     8
 71
     5
 72
    18
 73
    12
 74
     0
 42
0.000000001
 43
0.0000000001
 40
0.0
 40
0.0
 40
0.0
 40
0.0
 40
0.0
 40
0.0
 40
0.1344850328109112
 40
0.1344850328109112
 40
0.1344850328109112
 40
0.4717304956900383
 40
0.4717304956900383
 40
0.4717304956900383
 40
0.6712029546266322
 40
0.6712029546266322
 40
0.6712029546266322
 40
0.6712029546266322
 40
0.6712029546266322
 40
0.6712029546266322
 10
25.89792750316411
 20
-7.759615079304474
 30
0.0
 10
25.88510531495916
 20
-7.768118763201002
 30
0.0
 10
25.87171688515355
 20
-7.775872061050826
 30
0.0
 10
25.85768317492532
 20
-7.78291777256279
 30
0.0
 10
25.807665701888
 20
-7.804578406310909
 30
0.0
 10
25.75407898147256
 20
-7.81671168138002
 30
0.0
 10
25.71525705497533
 20
-7.820897262756879
 30
0.0
 10
25.65370143022645
 20
-7.821793391079793
 30
0.0
 10
25.59303965863075
 20
-7.814810642543463
 30
0.0
 10
25.57061838338257
 20
-7.811233599369309
 30
0.0
 10
25.54856331621778
 20
-7.806804264541383
 30
0.0
 10
25.52676961535877
 20
-7.801584879062659
 30
0.0
  0
SPLINE
  5
21AF0
330
1F
100
AcDbEntity
  8
1
100
AcDbSpline
210
0.0
220
0.0
230
1.0
 70
     8
 71
     5
 72
    15
 73
     9
 74
     0
 42
0.000000001
 43
0.0000000001
 40
0.0
 40
0.0
 40
0.0
 40
0.0
 40
0.0
 40
0.0
 40
0.9045943684216279
 40
0.9045943684216279
 40
0.9045943684216279
 40
1.284613829240014
 40
1.284613829240014
 40
1.284613829240014
 40
1.284613829240014
 40
1.284613829240014
 40
1.284613829240014
 10
25.52676961536096
 20
-7.801584879063135
 30
0.0
 10
25.42827323455026
 20
-7.777995926318112
 30
0.0
 10
25.33531638956294
 20
-7.739218695850389
 30
0.0
 10
25.24915057459799
 20
-7.691624083499185
 30
0.0
 10
25.13548475511266
 20
-7.613402122974243
 30
0.0
 10
25.03452086878017
 20
-7.522682357139828
 30
0.0
 10
25.00573342157679
 20
-7.4947987405207
 30
0.0
 10
24.9781153639847
 20
-7.46599696589098
 30
0.0
 10
24.95166587718035
 20
-7.436294726339561
 30
0.0
  0
SPLINE
  5
21AF1
330
1F
100
AcDbEntity
  8
1
100
AcDbSpline
210
0.0
220
0.0
230
1.0
 70
     8
 71
     5
 72
    18
 73
    12
 74
     0
 42
0.000000001
 43
0.0000000001
 40
0.0
 40
0.0
 40
0.0
 40
0.0
 40
0.0
 40
0.0
 40
0.3885308503298118
 40
0.3885308503298118
 40
0.3885308503298118
 40
1.147276735679902
 40
1.147276735679902
 40
1.147276735679902
 40
1.892415542388959
 40
1.892415542388959
 40
1.892415542388959
 40
1.892415542388959
 40
1.892415542388959
 40
1.892415542388959
 10
28.08372739335954
 20
-5.72474799721013
 30
0.0
 10
28.11078275915469
 20
-5.689741939002459
 30
0.0
 10
28.13174268823241
 20
-5.650544260711214
 30
0.0
 10
28.14655087686299
 20
-5.609182888387472
 30
0.0
 10
28.17580653664283
 20
-5.485533702106913
 30
0.0
 10
28.16925248775834
 20
-5.359653912247637
 30
0.0
 10
28.15510236147557
 20
-5.279085351966756
 30
0.0
 10
28.11167108922962
 20
-5.123871551648782
 30
0.0
 10
28.04307929008274
 20
-4.978431297862385
 30
0.0
 10
28.00392642598115
 20
-4.908523761784728
 30
0.0
 10
27.96051367551758
 20
-4.841557732540415
 30
0.0
 10
27.91298104885561
 20
-4.777405545380574
 30
0.0
  0
ARC
  5
21AF2
330
1F
100
AcDbEntity
  8
1
100
AcDbCircle
 10
26.61649999999989
 20
-5.738236999999998
 30
0.0
 40
1.613709999999999
100
AcDbArc
 50
36.54240600000058
 51
41.22030300000021
  0
ARC
  5
21AF3
330
1F
100
AcDbEntity
  8
1
100
AcDbCircle
 10
25.52013699999986
 20
-5.507702000000001
 30
0.0
 40
2.291055
100
AcDbArc
 50
40.7022439999994
 51
89.83409800000002
  0
SPLINE
  5
21AF4
330
1F
100
AcDbEntity
  8
1
100
AcDbSpline
210
0.0
220
0.0
230
1.0
 70
     8
 71
     5
 72
    21
 73
    15
 74
     0
 42
0.000000001
 43
0.0000000001
 40
0.0
 40
0.0
 40
0.0
 40
0.0
 40
0.0
 40
0.0
 40
2.479462711448449
 40
2.479462711448449
 40
2.479462711448449
 40
4.945001997078393
 40
4.945001997078393
 40
4.945001997078393
 40
7.358505574455876
 40
7.358505574455876
 40
7.358505574455876
 40
8.092178234966816
 40
8.092178234966816
 40
8.092178234966816
 40
8.092178234966816
 40
8.092178234966816
 40
8.092178234966816
 10
25.52676961536093
 20
-3.217239304781934
 30
0.0
 10
25.24240450221123
 20
-3.218010336540913
 30
0.0
 10
24.95717731529357
 20
-3.265095512954914
 30
0.0
 10
24.68164390661548
 20
-3.360363410601124
 30
0.0
 10
24.17856670781896
 20
-3.643446988665786
 30
0.0
 10
23.81303320045302
 20
-4.080645096438388
 30
0.0
 10
23.67686393758734
 20
-4.328462315207367
 30
0.0
 10
23.5097075381405
 20
-4.851074879272928
 30
0.0
 10
23.53762803223165
 20
-5.386327064089222
 30
0.0
 10
23.5972626391144
 20
-5.642829400529791
 30
0.0
 10
23.72530996116518
 20
-5.956699543250088
 30
0.0
 10
23.91035183072597
 20
-6.236926868783939
 30
0.0
 10
23.9565272191075
 20
-6.30041833539601
 30
0.0
 10
24.00542260456016
 20
-6.361722684523357
 30
0.0
 10
24.05699555615547
 20
-6.420861327231278
 30
0.0
  0
ARC
  5
21AF5
330
1F
100
AcDbEntity
  8
1
100
AcDbCircle
 10
122.5096019999998
 20
79.419196
 30
0.0
 40
130.6194059999999
100
AcDbArc
 50
221.0849180000004
 51
221.6785610000012
  0
ARC
  5
21AF6
330
1F
100
AcDbEntity
  8
1
100
AcDbCircle
 10
92.27773799999988
 20
51.77236599999999
 30
0.0
 40
85.67241700000002
100
AcDbArc
 50
220.6286900000006
 51
221.2139759999994
  0
ELLIPSE
  5
21AF7
330
1F
100
AcDbEntity
  8
1
100
AcDbEllipse
 10
18.16578799999991
 20
-1.200555999999998
 30
0.0
 11
1.177274227142332
 21
-7.749604225158692
 31
0.0
210
0.0
220
0.0
230
1.0
 40
0.6390180000000002
 41
3.573610477802557
 42
3.866819118747237
  0
LINE
  5
21AF8
330
1F
100
AcDbEntity
  8
1
100
AcDbLine
 10
13.99999999999989
 20
-4.099857
 30
0.0
 11
13.99999999999989
 21
4.099826999999997
 31
0.0
  0
SPLINE
  5
21AF9
330
1F
100
AcDbEntity
  8
1
100
AcDbSpline
210
0.0
220
0.0
230
1.0
 70
     8
 71
     5
 72
    15
 73
     9
 74
     0
 42
0.000000001
 43
0.0000000001
 40
0.0
 40
0.0
 40
0.0
 40
0.0
 40
0.0
 40
0.0
 40
2.735934627753405
 40
2.735934627753405
 40
2.735934627753405
 40
5.445688747535407
 40
5.445688747535407
 40
5.445688747535407
 40
5.445688747535407
 40
5.445688747535407
 40
5.445688747535407
 10
25.52676961536093
 20
-8.941416252812167
 30
0.0
 10
25.24140670317036
 20
-9.068143308851986
 30
0.0
 10
24.94362778446987
 20
-9.172853326291409
 30
0.0
 10
24.63586748992137
 20
-9.251978687975146
 30
0.0
 10
24.01210373078192
 20
-9.352260025453354
 30
0.0
 10
23.38752401937529
 20
-9.336518009822761
 30
0.0
 10
23.08176815736604
 20
-9.299412820062187
 30
0.0
 10
22.78519719749235
 20
-9.235179378167693
 30
0.0
 10
22.49999999999989
 20
-9.146591388211945
 30
0.0
  0
ARC
  5
21AFA
330
1F
100
AcDbEntity
  8
1
100
AcDbCircle
 10
28.04902699999988
 20
13.544985
 30
0.0
 40
11.949844
100
AcDbArc
 50
250.1987670000008
 51
257.8149070000006
  0
ARC
  5
21AFB
330
1F
100
AcDbEntity
  8
1
100
AcDbCircle
 10
-1551.449489
 20
-4375.642334000001
 30
0.0
 40
4652.788183999999
100
AcDbArc
 50
70.20818499999954
 51
70.32563600000016
  0
ELLIPSE
  5
21AFC
330
1F
100
AcDbEntity
  8
1
100
AcDbEllipse
 10
21.62525899999986
 20
0.0000300000000024
 30
0.0
 11
0.0018436640966684
 21
-9.769419670104975
 31
0.0
210
0.0
220
0.0
230
1.0
 40
0.9912309999999999
 41
0.4144847109753604
 42
1.780831569269946
  0
ARC
  5
21AFD
330
1F
100
AcDbEntity
  8
1
100
AcDbCircle
 10
28.01507999999984
 20
13.329031
 30
0.0
 40
11.731423
100
AcDbArc
 50
257.7543459999994
 51
269.934423000001
  0
ARC
  5
21AFE
330
1F
100
AcDbEntity
  8
1
100
AcDbCircle
 10
28.02461199999988
 20
12.53467899999999
 30
0.0
 40
10.936508
100
AcDbArc
 50
269.879725
 51
286.3098309999997
  0
ARC
  5
21AFF
330
1F
100
AcDbEntity
  8
1
100
AcDbCircle
 10
28.75238199999984
 20
9.711135999999996
 30
0.0
 40
8.021680999999997
100
AcDbArc
 50
286.984457
 51
299.7419470000005
  0
ELLIPSE
  5
21B00
330
1F
100
AcDbEntity
  8
1
100
AcDbEllipse
 10
23.17841799999988
 20
-1.479345000000002
 30
0.0
 11
10.59193706512451
 21
4.974193096160886
 31
0.0
210
0.0
220
0.0
230
1.0
 40
0.04461
 41
5.81518242281303
 42
6.182189510821253
  0
SPLINE
  5
21B01
330
1F
100
AcDbEntity
  8
1
100
AcDbSpline
210
0.0
220
0.0
230
1.0
 70
     8
 71
     5
 72
    15
 73
     9
 74
     0
 42
0.000000001
 43
0.0000000001
 40
0.0
 40
0.0
 40
0.0
 40
0.0
 40
0.0
 40
0.0
 40
0.9453960556309947
 40
0.9453960556309947
 40
0.9453960556309947
 40
1.543056508002664
 40
1.543056508002664
 40
1.543056508002664
 40
1.543056508002664
 40
1.543056508002664
 40
1.543056508002664
 10
33.67756567310437
 20
3.710465137939536
 30
0.0
 10
33.70211416574114
 20
3.631542408151936
 30
0.0
 10
33.71751897793209
 20
3.574340564788819
 30
0.0
 10
33.72845896104767
 20
3.529437260912729
 30
0.0
 10
33.7397686404133
 20
3.474006903788058
 30
0.0
 10
33.74264604875077
 20
3.441033865875873
 30
0.0
 10
33.7425868205707
 20
3.43133301599969
 30
0.0
 10
33.7413389595317
 20
3.424823670624149
 30
0.0
 10
33.73875507922369
 20
3.421860107098694
 30
0.0
  0
LINE
  5
21B02
330
1F
100
AcDbEntity
  8
1
100
AcDbLine
 10
11.28400099999987
 20
10.79661999999999
 30
0.0
 11
12.45788799999988
 21
11.08920099999999
 31
0.0
  0
LINE
  5
21B03
330
1F
100
AcDbEntity
  8
1
100
AcDbLine
 10
10.84195099999988
 20
10.560163
 30
0.0
 11
10.84320699999989
 21
10.57397299999999
 31
0.0
  0
SPLINE
  5
21B04
330
1F
100
AcDbEntity
  8
1
100
AcDbSpline
210
0.0
220
0.0
230
1.0
 70
     8
 71
     5
 72
    15
 73
     9
 74
     0
 42
0.000000001
 43
0.0000000001
 40
0.0
 40
0.0
 40
0.0
 40
0.0
 40
0.0
 40
0.0
 40
0.4084835913962566
 40
0.4084835913962566
 40
0.4084835913962566
 40
1.094969968670525
 40
1.094969968670525
 40
1.094969968670525
 40
1.094969968670525
 40
1.094969968670525
 40
1.094969968670525
 10
10.84320748610065
 20
10.5739726515432
 30
0.0
 10
10.84777094852273
 20
10.59244754421627
 30
0.0
 10
10.86168809267445
 20
10.61208916380317
 30
0.0
 10
10.8836091599673
 20
10.63184480482878
 30
0.0
 10
10.95679841002464
 20
10.683004071879
 30
0.0
 10
11.06083394019197
 20
10.72883814459477
 30
0.0
 10
11.13254125642783
 20
10.75468860690564
 30
0.0
 10
11.20752120882929
 20
10.77744160328856
 30
0.0
 10
11.28414868489972
 20
10.79665689769301
 30
0.0
  0
SPLINE
  5
21B05
330
1F
100
AcDbEntity
  8
1
100
AcDbSpline
210
0.0
220
0.0
230
1.0
 70
     8
 71
     5
 72
    15
 73
     9
 74
     0
 42
0.000000001
 43
0.0000000001
 40
0.0
 40
0.0
 40
0.0
 40
0.0
 40
0.0
 40
0.0
 40
7.294111058569419
 40
7.294111058569419
 40
7.294111058569419
 40
9.261555194309442
 40
9.261555194309442
 40
9.261555194309442
 40
9.261555194309442
 40
9.261555194309442
 40
9.261555194309442
 10
10.84195126028163
 20
10.56016264823256
 30
0.0
 10
10.86560134955633
 20
10.2474367328331
 30
0.0
 10
10.8923219781399
 20
9.832210518533095
 30
0.0
 10
10.96707867790985
 20
9.33717745329914
 30
0.0
 10
11.17762462121521
 20
8.636160022975417
 30
0.0
 10
11.575438636596
 20
7.917833315870772
 30
0.0
 10
11.66905843821036
 20
7.765088184276194
 30
0.0
 10
11.7717835773858
 20
7.613828312917846
 30
0.0
 10
11.88393228025123
 20
7.464912328124739
 30
0.0
  0
ARC
  5
21B06
330
1F
100
AcDbEntity
  8
1
100
AcDbCircle
 10
50.04743899999988
 20
-110.866695
 30
0.0
 40
124.333428
100
AcDbArc
 50
107.8751959999996
 51
109.0694009999992
  0
ARC
  5
21B07
330
1F
100
AcDbEntity
  8
1
100
AcDbCircle
 10
15.26579099999989
 20
9.628080999999994
 30
0.0
 40
4.014564
100
AcDbArc
 50
212.6045849999998
 51
243.9063210000012
  0
ARC
  5
21B08
330
1F
100
AcDbEntity
  8
1
100
AcDbCircle
 10
15.91856699999988
 20
-2.884712999999997
 30
0.0
 40
14.396077
100
AcDbArc
 50
91.36128499999903
 51
103.9095989999996
  0
LINE
  5
21B09
330
1F
100
AcDbEntity
  8
1
100
AcDbLine
 10
13.99999999999989
 20
5.877479999999998
 30
0.0
 11
13.99999999999989
 21
4.099851000000001
 31
0.0
  0
LINE
  5
21B0A
330
1F
100
AcDbEntity
  8
1
100
AcDbLine
 10
14.09105599999987
 20
5.844968999999998
 30
0.0
 11
13.99999999999989
 21
5.877480999999995
 31
0.0
  0
LINE
  5
21B0B
330
1F
100
AcDbEntity
  8
1
100
AcDbLine
 10
14.09105599999987
 20
5.844968999999998
 30
0.0
 11
15.02319799999992
 21
5.522043999999993
 31
0.0
  0
ELLIPSE
  5
21B0C
330
1F
100
AcDbEntity
  8
1
100
AcDbEllipse
 10
18.94797399999987
 20
0.0044619999999966
 30
0.0
 11
2.173568487167357
 21
-11.79346656799316
 31
0.0
210
0.0
220
0.0
230
1.0
 40
0.101707
 41
2.913531161972565
 42
3.122794367205258
  0
LINE
  5
21B0D
330
1F
100
AcDbEntity
  8
1
100
AcDbLine
 10
15.5765639999999
 20
11.50731799999999
 30
0.0
 11
17.10187699999986
 21
11.542535
 31
0.0
  0
ARC
  5
21B0E
330
1F
100
AcDbEntity
  8
1
100
AcDbCircle
 10
14.78663699999987
 20
8.617694
 30
0.0
 40
2.896276999999998
100
AcDbArc
 50
243.6275699999995
 51
253.2308659999998
  0
ARC
  5
21B0F
330
1F
100
AcDbEntity
  8
1
100
AcDbCircle
 10
14.00428399999987
 20
5.970346999999996
 30
0.0
 40
0.135415
100
AcDbArc
 50
247.026030000001
 51
268.1786039999997
  0
LINE
  5
21B10
330
1F
100
AcDbEntity
  8
1
100
AcDbLine
 10
33.34353399999989
 20
3.509887999999996
 30
0.0
 11
33.48634299999986
 21
3.594844000000001
 31
0.0
  0
ARC
  5
21B11
330
1F
100
AcDbEntity
  8
1
100
AcDbCircle
 10
25.86630699999989
 20
-3.678902
 30
0.0
 40
5.537983
100
AcDbArc
 50
85.883008
 51
92.91351300000098
  0
LINE
  5
21B12
330
1F
100
AcDbEntity
  8
1
100
AcDbLine
 10
15.25684699999988
 20
7.803882000000001
 30
0.0
 11
17.50719399999988
 21
5.133676000000001
 31
0.0
  0
LINE
  5
21B13
330
1F
100
AcDbEntity
  8
1
100
AcDbLine
 10
17.33647899999985
 20
9.575875999999993
 30
0.0
 11
15.25684699999988
 21
7.803882000000001
 31
0.0
  0
ELLIPSE
  5
21B14
330
1F
100
AcDbEntity
  8
1
100
AcDbEllipse
 10
16.39027699999985
 20
9.883791000000002
 30
0.0
 11
-0.0000000000000002
 21
-1.0
 31
0.0
210
0.0
220
0.0
230
1.0
 40
0.994522
 41
1.257795739978309
 42
1.750182258328328
  0
LINE
  5
21B15
330
1F
100
AcDbEntity
  8
1
100
AcDbLine
 10
17.36883999999989
 20
10.062216
 30
0.0
 11
17.10187699999986
 21
11.542535
 31
0.0
  0
LINE
  5
21B16
330
1F
100
AcDbEntity
  8
1
100
AcDbLine
 10
19.74190599999985
 20
3.832011000000001
 30
0.0
 11
19.62665599999985
 21
3.907713999999998
 31
0.0
  0
LINE
  5
21B17
330
1F
100
AcDbEntity
  8
1
100
AcDbLine
 10
19.35246999999987
 20
4.096164999999999
 30
0.0
 11
18.79781499999984
 21
4.482658
 31
0.0
  0
LINE
  5
21B18
330
1F
100
AcDbEntity
  8
1
100
AcDbLine
 10
19.35246999999987
 20
4.096164999999999
 30
0.0
 11
19.62665599999985
 21
3.907713999999998
 31
0.0
  0
ELLIPSE
  5
21B19
330
1F
100
AcDbEntity
  8
1
100
AcDbEllipse
 10
20.67416099999986
 20
7.205143999999997
 30
0.0
 11
-0.0000000000000006
 21
-3.312324762344359
 31
0.0
210
0.0
220
0.0
230
1.0
 40
0.9945219999999995
 41
5.270449026881608
 42
5.677173075315552
  0
LINE
  5
21B1A
330
1F
100
AcDbEntity
  8
1
100
AcDbLine
 10
17.87976099999986
 20
5.451130999999996
 30
0.0
 11
17.42400499999988
 21
5.232210999999999
 31
0.0
  0
LINE
  5
21B1B
330
1F
100
AcDbEntity
  8
1
100
AcDbLine
 10
17.50719399999988
 20
5.133676000000001
 30
0.0
 11
17.87976099999986
 21
5.451130999999996
 31
0.0
  0
LINE
  5
21B1C
330
1F
100
AcDbEntity
  8
SK1
100
AcDbLine
 10
-22.00000000000011
 20
5.0
 30
0.0
 11
-21.00000000000012
 21
6.0
 31
0.0
  0
LINE
  5
21B1D
330
1F
100
AcDbEntity
  8
SK1
100
AcDbLine
 10
-22.00000000000011
 20
-5.0
 30
0.0
 11
-21.00000000000012
 21
-6.0
 31
0.0
  0
LINE
  5
21B1E
330
1F
100
AcDbEntity
  8
SK1
100
AcDbLine
 10
-10.33528100000012
 20
6.0
 30
0.0
 11
-21.00000000000012
 21
6.0
 31
0.0
  0
LINE
  5
21B1F
330
1F
100
AcDbEntity
  8
SK1
100
AcDbLine
 10
-10.33528100000012
 20
-6.0
 30
0.0
 11
-21.00000000000012
 21
-6.0
 31
0.0
  0
LINE
  5
21B20
330
1F
100
AcDbEntity
  8
SK1
100
AcDbLine
 10
-9.913961000000114
 20
5.578679999999998
 30
0.0
 11
-10.33528100000012
 21
6.0
 31
0.0
  0
LINE
  5
21B21
330
1F
100
AcDbEntity
  8
SK1
100
AcDbLine
 10
-9.913961000000114
 20
-5.578679999999998
 30
0.0
 11
-10.33528100000012
 21
-6.0
 31
0.0
  0
ARC
  5
21B22
330
1F
100
AcDbEntity
  8
SK1
100
AcDbCircle
 10
-7.792641000000116
 20
7.699999999999995
 30
0.0
 40
3.0
100
AcDbArc
 50
224.9999999999995
 51
315.0000000000005
  0
ARC
  5
21B23
330
1F
100
AcDbEntity
  8
SK1
100
AcDbCircle
 10
-7.792641000000116
 20
-7.699999999999995
 30
0.0
 40
3.0
100
AcDbArc
 50
44.99999999999949
 51
135.0000000000005
  0
LINE
  5
21B24
330
1F
100
AcDbEntity
  8
SK1
100
AcDbLine
 10
-5.671320000000093
 20
5.578679999999998
 30
0.0
 11
-5.000000000000113
 21
6.25
 31
0.0
  0
LINE
  5
21B25
330
1F
100
AcDbEntity
  8
SK1
100
AcDbLine
 10
-5.671320000000093
 20
-5.578679999999998
 30
0.0
 11
-5.000000000000113
 21
-6.25
 31
0.0
  0
LINE
  5
21B26
330
1F
100
AcDbEntity
  8
SK1
100
AcDbLine
 10
-1.320577000000156
 20
6.25
 30
0.0
 11
-5.000000000000113
 21
6.25
 31
0.0
  0
LINE
  5
21B27
330
1F
100
AcDbEntity
  8
SK1
100
AcDbLine
 10
-1.320577000000156
 20
-6.25
 30
0.0
 11
-5.000000000000113
 21
-6.25
 31
0.0
  0
LINE
  5
21B28
330
1F
100
AcDbEntity
  8
SK1
100
AcDbLine
 10
-0.9000000000001193
 20
6.007179999999998
 30
0.0
 11
-1.320577000000156
 21
6.25
 31
0.0
  0
LINE
  5
21B29
330
1F
100
AcDbEntity
  8
SK1
100
AcDbLine
 10
-0.9000000000001193
 20
-6.007179999999998
 30
0.0
 11
-1.320577000000156
 21
-6.25
 31
0.0
  0
ARC
  5
21B2A
330
1F
100
AcDbEntity
  8
SK1
100
AcDbCircle
 10
-0.5000000000001137
 20
6.699999999999995
 30
0.0
 40
0.8
100
AcDbArc
 50
240.0000009999989
 51
308.680351
  0
ARC
  5
21B2B
330
1F
100
AcDbEntity
  8
SK1
100
AcDbCircle
 10
-0.5000000000001137
 20
-6.699999999999995
 30
0.0
 40
0.8
100
AcDbArc
 50
51.31885400000065
 51
119.9999990000011
  0
LINE
  5
21B2C
330
1F
100
AcDbEntity
  8
1
100
AcDbLine
 10
-0.0000000000001137
 20
-10.2
 30
0.0
 11
0.2999999999998692
 21
-10.5
 31
0.0
  0
LINE
  5
21B2D
330
1F
100
AcDbEntity
  8
1
100
AcDbLine
 10
-0.0000000000001137
 20
10.2
 30
0.0
 11
0.2999999999998692
 21
10.5
 31
0.0
  0
LINE
  5
21B2E
330
1F
100
AcDbEntity
  8
1
100
AcDbLine
 10
6.307416999999873
 20
-10.5
 30
0.0
 11
0.2999999999998692
 21
-10.5
 31
0.0
  0
ARC
  5
21B2F
330
1F
100
AcDbEntity
  8
1
100
AcDbCircle
 10
6.307416999999873
 20
-25.5
 30
0.0
 40
15.0
100
AcDbArc
 50
78.00000000000039
 51
90.0
  0
LINE
  5
21B30
330
1F
100
AcDbEntity
  8
1
100
AcDbLine
 10
9.426092999999866
 20
-10.827786
 30
0.0
 11
12.45788799999988
 21
-11.472214
 31
0.0
  0
ARC
  5
21B31
330
1F
100
AcDbEntity
  8
1
100
AcDbCircle
 10
6.307416999999873
 20
25.5
 30
0.0
 40
15.0
100
AcDbArc
 50
270.0
 51
281.9999999999996
  0
LINE
  5
21B32
330
1F
100
AcDbEntity
  8
1
100
AcDbLine
 10
6.307416999999873
 20
10.5
 30
0.0
 11
0.2999999999998692
 21
10.5
 31
0.0
  0
LINE
  5
21B33
330
1F
100
AcDbEntity
  8
1
100
AcDbLine
 10
20.35129099999986
 20
-11.79999999999999
 30
0.0
 11
15.5765639999999
 21
-11.79999999999999
 31
0.0
  0
ARC
  5
21B34
330
1F
100
AcDbEntity
  8
1
100
AcDbCircle
 10
15.5765639999999
 20
3.199999999999995
 30
0.0
 40
15.0
100
AcDbArc
 50
258.0000000000004
 51
270.0
  0
ARC
  5
21B35
330
1F
100
AcDbEntity
  8
1
100
AcDbCircle
 10
22.49982999999986
 20
-0.0000330000000019
 30
0.0
 40
11.80017199999999
100
AcDbArc
 50
3.858017999999838
 51
17.95120600000051
  0
LINE
  5
21B36
330
1F
100
AcDbEntity
  8
1
100
AcDbLine
 10
9.426092999999866
 20
10.827786
 30
0.0
 11
12.45788799999988
 21
11.472214
 31
0.0
  0
ARC
  5
21B37
330
1F
100
AcDbEntity
  8
1
100
AcDbCircle
 10
15.5765639999999
 20
-3.199999999999995
 30
0.0
 40
15.0
100
AcDbArc
 50
90.0
 51
101.9999999999996
  0
LINE
  5
21B38
330
1F
100
AcDbEntity
  8
1
100
AcDbLine
 10
16.79733599999989
 20
11.79999999999999
 30
0.0
 11
15.5765639999999
 21
11.79999999999999
 31
0.0
  0
SPLINE
  5
21B39
330
1F
100
AcDbEntity
  8
1
100
AcDbSpline
210
0.0
220
0.0
230
1.0
 70
     8
 71
     5
 72
    18
 73
    12
 74
     0
 42
0.000000001
 43
0.0000000001
 40
0.0
 40
0.0
 40
0.0
 40
0.0
 40
0.0
 40
0.0
 40
0.5241355397823462
 40
0.5241355397823462
 40
0.5241355397823462
 40
1.57278864318771
 40
1.57278864318771
 40
1.57278864318771
 40
1.745560888221095
 40
1.745560888221095
 40
1.745560888221095
 40
1.745560888221095
 40
1.745560888221095
 40
1.745560888221095
 10
27.88654822484966
 20
8.985126901810936
 30
0.0
 10
27.92734406614932
 20
8.923713645543216
 30
0.0
 10
27.968139232081
 20
8.862299939403072
 30
0.0
 10
28.00231183239487
 20
8.80377184301831
 30
0.0
 10
28.11084272216883
 20
8.610675443755113
 30
0.0
 10
28.20534383812216
 20
8.409735255930399
 30
0.0
 10
28.25973177585277
 20
8.283511468565656
 30
0.0
 10
28.32737825941638
 20
8.124755719681765
 30
0.0
 10
28.39227051633458
 20
7.964760281919325
 30
0.0
 10
28.40141059752244
 20
7.942111222858535
 30
0.0
 10
28.41053284860249
 20
7.919454262042201
 30
0.0
 10
28.41965508347414
 20
7.896797293982899
 30
0.0
  0
ARC
  5
21B3A
330
1F
100
AcDbEntity
  8
1
100
AcDbCircle
 10
25.62641699999989
 20
7.447792999999997
 30
0.0
 40
2.733395999999998
100
AcDbArc
 50
34.2234180000009
 51
41.91003000000011
  0
SPLINE
  5
21B3B
330
1F
100
AcDbEntity
  8
1
100
AcDbSpline
210
0.0
220
0.0
230
1.0
 70
     8
 71
     5
 72
    18
 73
    12
 74
     0
 42
0.000000001
 43
0.0000000001
 40
0.0
 40
0.0
 40
0.0
 40
0.0
 40
0.0
 40
0.0
 40
0.6166800666965525
 40
0.6166800666965525
 40
0.6166800666965525
 40
2.396541590224804
 40
2.396541590224804
 40
2.396541590224804
 40
3.013427528225002
 40
3.013427528225002
 40
3.013427528225002
 40
3.013427528225002
 40
3.013427528225002
 40
3.013427528225002
 10
27.66057749714389
 20
9.273584918999304
 30
0.0
 10
27.60227882922445
 20
9.337769506458201
 30
0.0
 10
27.54397964878374
 20
9.401953616802089
 30
0.0
 10
27.49405467048394
 20
9.452717026982725
 30
0.0
 10
27.24561095188057
 20
9.681047212711078
 30
0.0
 10
26.96367129652711
 20
9.870559294856903
 30
0.0
 10
26.72623687666999
 20
9.984157180671836
 30
0.0
 10
26.40163252883636
 20
10.08719310999572
 30
0.0
 10
26.0670296230021
 20
10.14275230777371
 30
0.0
 10
25.99542481046083
 20
10.15108142390474
 30
0.0
 10
25.90845819032896
 20
10.15800642012602
 30
0.0
 10
25.82149150639953
 20
10.16493076430602
 30
0.0
  0
SPLINE
  5
21B3C
330
1F
100
AcDbEntity
  8
1
100
AcDbSpline
210
0.0
220
0.0
230
1.0
 70
     8
 71
     5
 72
    21
 73
    15
 74
     0
 42
0.000000001
 43
0.0000000001
 40
0.0
 40
0.0
 40
0.0
 40
0.0
 40
0.0
 40
0.0
 40
0.6094781257236908
 40
0.6094781257236908
 40
0.6094781257236908
 40
2.072225692376188
 40
2.072225692376188
 40
2.072225692376188
 40
2.642108930491585
 40
2.642108930491585
 40
2.642108930491585
 40
2.932548066373716
 40
2.932548066373716
 40
2.932548066373716
 40
2.932548066373716
 40
2.932548066373716
 40
2.932548066373716
 10
25.82149023360279
 20
10.16493085084813
 30
0.0
 10
25.73541253728311
 20
10.1694706811063
 30
0.0
 10
25.64933481758794
 20
10.17400984060214
 30
0.0
 10
25.57986049181625
 20
10.17508361969441
 30
0.0
 10
25.28676294635455
 20
10.16482903548302
 30
0.0
 10
24.99597612075286
 20
10.12275448800413
 30
0.0
 10
24.79275650538927
 20
10.07677800725389
 30
0.0
 10
24.51516160129904
 20
10.00190242279588
 30
0.0
 10
24.2432925392109
 20
9.909928093776422
 30
0.0
 10
24.15758669857956
 20
9.879436288264798
 30
0.0
 10
24.0439467993188
 20
9.836530548199185
 30
0.0
 10
23.93248700845584
 20
9.788426419353505
 30
0.0
 10
23.89503842330953
 20
9.771765358333112
 30
0.0
 10
23.85767713854597
 20
9.754916851280299
 30
0.0
 10
23.82031589895166
 20
9.738068241183746
 30
0.0
  0
SPLINE
  5
21B3D
330
1F
100
AcDbEntity
  8
1
100
AcDbSpline
210
0.0
220
0.0
230
1.0
 70
     8
 71
     5
 72
    42
 73
    36
 74
     0
 42
0.000000001
 43
0.0000000001
 40
0.0
 40
0.0
 40
0.0
 40
0.0
 40
0.0
 40
0.0
 40
1.341556742812378
 40
1.341556742812378
 40
1.341556742812378
 40
2.237648359695509
 40
2.237648359695509
 40
2.237648359695509
 40
4.319446736397128
 40
4.319446736397128
 40
4.319446736397128
 40
6.885152989200069
 40
6.885152989200069
 40
6.885152989200069
 40
8.60099466136512
 40
8.60099466136512
 40
8.60099466136512
 40
9.458882448166363
 40
9.458882448166363
 40
9.458882448166363
 40
10.7494945229978
 40
10.7494945229978
 40
10.7494945229978
 40
11.62256271592575
 40
11.62256271592575
 40
11.62256271592575
 40
12.25959157796084
 40
12.25959157796084
 40
12.25959157796084
 40
12.89662043999593
 40
12.89662043999593
 40
12.89662043999593
 40
13.4041620401597
 40
13.4041620401597
 40
13.4041620401597
 40
13.4041620401597
 40
13.4041620401597
 40
13.4041620401597
 10
22.72728718468085
 20
4.385886134330377
 30
0.0
 10
22.86425392865675
 20
4.254106195449836
 30
0.0
 10
23.00122106803502
 20
4.12232673216522
 30
0.0
 10
23.14358245652215
 20
3.992960245011666
 30
0.0
 10
23.39018237766357
 20
3.794978280570006
 30
0.0
 10
23.66345146131374
 20
3.635661033031134
 30
0.0
 10
23.77696409716341
 20
3.577655402842211
 30
0.0
 10
24.1619456721827
 20
3.405292700198181
 30
0.0
 10
24.57208890870894
 20
3.295469255891589
 30
0.0
 10
24.86218984234
 20
3.245757248531042
 30
0.0
 10
25.52116477147718
 20
3.210320696386034
 30
0.0
 10
26.17207002589436
 20
3.335791080745238
 30
0.0
 10
26.5198919421872
 20
3.452590422986354
 30
0.0
 10
27.06708527638878
 20
3.723157596838738
 30
0.0
 10
27.53901139328875
 20
4.106283048450869
 30
0.0
 10
27.71381988548708
 20
4.275910147984909
 30
0.0
 10
27.95236645496638
 20
4.553126817649058
 30
0.0
 10
28.15141605649208
 20
4.858670737106258
 30
0.0
 10
28.21341120339508
 20
4.963746244555103
 30
0.0
 10
28.35593797490722
 20
5.232615507165682
 30
0.0
 10
28.46739910968543
 20
5.51612152917913
 30
0.0
 10
28.52277053349087
 20
5.689896815909627
 30
0.0
 10
28.59737912446514
 20
5.987949851824602
 30
0.0
 10
28.64016527939373
 20
6.292403338694796
 30
0.0
 10
28.65192358962173
 20
6.41638226461216
 30
0.0
 10
28.66187789221465
 20
6.630526734189565
 30
0.0
 10
28.65272870723504
 20
6.844111673671584
 30
0.0
 10
28.64533763545103
 20
6.934195644324681
 30
0.0
 10
28.62244153801365
 20
7.112695748829366
 30
0.0
 10
28.58678056997849
 20
7.289149978221949
 30
0.0
 10
28.56634441518344
 20
7.37698314795805
 30
0.0
 10
28.52612326624751
 20
7.533889388201998
 30
0.0
 10
28.48143480502853
 20
7.689841233304271
 30
0.0
 10
28.46103591668455
 20
7.75886858603102
 30
0.0
 10
28.4403484895343
 20
7.82782539946281
 30
0.0
 10
28.41966097659562
 20
7.896782193439818
 30
0.0
  0
SPLINE
  5
21B3E
330
1F
100
AcDbEntity
  8
1
100
AcDbSpline
210
0.0
220
0.0
230
1.0
 70
     8
 71
     5
 72
    33
 73
    27
 74
     0
 42
0.000000001
 43
0.0000000001
 40
0.0
 40
0.0
 40
0.0
 40
0.0
 40
0.0
 40
0.0
 40
0.8947398602697738
 40
0.8947398602697738
 40
0.8947398602697738
 40
1.791754490302875
 40
1.791754490302875
 40
1.791754490302875
 40
3.601795483637064
 40
3.601795483637064
 40
3.601795483637064
 40
5.407788111026624
 40
5.407788111026624
 40
5.407788111026624
 40
6.309369201757589
 40
6.309369201757589
 40
6.309369201757589
 40
7.213210193208664
 40
7.213210193208664
 40
7.213210193208664
 40
8.106771303108084
 40
8.106771303108084
 40
8.106771303108084
 40
8.949338766664991
 40
8.949338766664991
 40
8.949338766664991
 40
8.949338766664991
 40
8.949338766664991
 40
8.949338766664991
 10
23.8209233100533
 20
9.738355065113594
 30
0.0
 10
23.70965293324781
 20
9.67828854200718
 30
0.0
 10
23.59838276996732
 20
9.61822166203796
 30
0.0
 10
23.48819937924989
 20
9.555955250709239
 30
0.0
 10
23.27308882592186
 20
9.422776951215851
 30
0.0
 10
23.07487591807825
 20
9.264816693173088
 30
0.0
 10
22.97949995809108
 20
9.180054641743595
 30
0.0
 10
22.70544697294866
 20
8.91192930146775
 30
0.0
 10
22.46841123533454
 20
8.609767934423111
 30
0.0
 10
22.33192436996154
 20
8.397225354687527
 30
0.0
 10
22.09662488108577
 20
7.940459534294063
 30
0.0
 10
21.94988044083871
 20
7.448017318917905
 30
0.0
 10
21.90002893799453
 20
7.197405379420715
 30
0.0
 10
21.86037593993126
 20
6.814617635949723
 30
0.0
 10
21.87417596455444
 20
6.431204845517086
 30
0.0
 10
21.88472539016726
 20
6.3033734768983
 30
0.0
 10
21.91781448877077
 20
6.049777202127032
 30
0.0
 10
21.97469443765758
 20
5.800543768569873
 30
0.0
 10
22.00854763927762
 20
5.678633397052621
 30
0.0
 10
22.08717067399215
 20
5.436408594298725
 30
0.0
 10
22.18683824751548
 20
5.201906223628583
 30
0.0
 10
22.24457959481942
 20
5.081823519306183
 30
0.0
 10
22.36456171486944
 20
4.86746433802503
 30
0.0
 10
22.50675016317661
 20
4.667467565450571
 30
0.0
 10
22.57921289605704
 20
4.572729122558676
 30
0.0
 10
22.65324989176477
 20
4.479307520948452
 30
0.0
 10
22.72728718468028
 20
4.385886134329837
 30
0.0
  0
LINE
  5
21B44
330
1F
100
AcDbEntity
  8
SK3
100
AcDbLine
 10
-20.00000000000011
 20
-1.5
 30
0.0
 11
-20.00000000000011
 21
1.316374000000003
 31
0.0
  0
LINE
  5
21B45
330
1F
100
AcDbEntity
  8
SK3
100
AcDbLine
 10
16.75404499999985
 20
-1.5
 30
0.0
 11
16.75404499999985
 21
1.316374000000003
 31
0.0
  0
LINE
  5
21B48
330
1F
100
AcDbEntity
  8
SK3
100
AcDbLine
 10
16.75404499999985
 20
-1.316374000000003
 30
0.0
 11
16.75404499999985
 21
1.5
 31
0.0
  0
LINE
  5
21B49
330
1F
100
AcDbEntity
  8
SK3
100
AcDbLine
 10
-20.00000000000011
 20
-1.316374000000003
 30
0.0
 11
-20.00000000000011
 21
1.5
 31
0.0
  0
LINE
  5
21B4A
330
1F
100
AcDbEntity
  8
SK3
100
AcDbLine
 10
-20.00000000000011
 20
-1.5
 30
0.0
 11
-22.00000000000011
 21
-2.654700999999995
 31
0.0
  0
LINE
  5
21B4B
330
1F
100
AcDbEntity
  8
SK3
100
AcDbLine
 10
-20.00000000000011
 20
-1.5
 30
0.0
 11
0.2999999999998692
 21
-1.499999999999999
 31
0.0
  0
LINE
  5
21B4C
330
1F
100
AcDbEntity
  8
SK3
100
AcDbLine
 10
17.29999999999987
 20
0.0
 30
0.0
 11
16.75404499999985
 21
-1.5
 31
0.0
  0
LINE
  5
21B54
330
1F
100
AcDbEntity
  8
SK3
100
AcDbLine
 10
17.29999999999987
 20
0.0
 30
0.0
 11
16.75404499999985
 21
1.5
 31
0.0
  0
LINE
  5
21B55
330
1F
100
AcDbEntity
  8
SK3
100
AcDbLine
 10
-20.00000000000011
 20
1.5
 30
0.0
 11
-0.0000000000001137
 21
1.5
 31
0.0
  0
LINE
  5
21B56
330
1F
100
AcDbEntity
  8
SK3
100
AcDbLine
 10
-20.00000000000011
 20
1.5
 30
0.0
 11
-22.00000000000011
 21
2.654700999999995
 31
0.0
  0
LINE
  5
21B5D
330
1F
100
AcDbEntity
  8
SK1
100
AcDbLine
 10
-22.00000000000011
 20
5.0
 30
0.0
 11
-10.33528100000012
 21
5.0
 31
0.0
  0
LINE
  5
21B5E
330
1F
100
AcDbEntity
  8
SK1
100
AcDbLine
 10
-22.00000000000011
 20
-5.0
 30
0.0
 11
-10.33528100000012
 21
-5.0
 31
0.0
  0
DIMENSION
  5
21B5F
330
1F
100
AcDbEntity
  8
SK2
100
AcDbDimension
  2
*D57
 10
-29.67494306717848
 20
-5.999999999999997
 30
0.0
 11
-31.52601123302528
 21
-0.0000000000000015
 31
0.0
 70
    32
  1
M<>
 71
     5
 42
12.0
  3
STANDARD
100
AcDbAlignedDimension
 13
-21.00000000000012
 23
6.0
 33
0.0
 14
-21.00000000000012
 24
-6.0
 34
0.0
 50
90.0
100
AcDbRotatedDimension
  0
DIMENSION
  5
21B60
330
1F
100
AcDbEntity
  8
2
100
AcDbDimension
  2
*D58
 10
-41.27355271339019
 20
-10.49999999999998
 30
0.0
 11
-43.22669396426861
 21
0.0000000000000054
 31
0.0
 70
    32
  1
%%C<>
 71
     5
 42
21.0
  3
STANDARD
100
AcDbAlignedDimension
 13
0.2999999999998692
 23
10.5
 33
0.0
 14
3.500001333333216
 24
-10.5
 34
0.0
 50
90.0
100
AcDbRotatedDimension
  0
DIMENSION
  5
21B61
330
1F
100
AcDbEntity
  8
SK2
100
AcDbDimension
  2
*D59
 10
35.00106515478444
 20
27.24106389739748
 30
0.0
 11
6.500532577392164
 21
29.1314855418107
 31
0.0
 70
    32
 71
     5
 42
57.00106515478456
  3
STANDARD
100
AcDbAlignedDimension
 13
-22.00000000000011
 23
5.0
 33
0.0
 14
35.00106515478444
 24
12.50005748368973
 34
0.0
100
AcDbRotatedDimension
1001
ACAD
1000
DSTYLE
1002
{
1070
   271
1070
     0
1002
}
  0
DIMENSION
  5
21B62
330
1F
100
AcDbEntity
  8
2
100
AcDbDimension
  2
*D60
 10
35.00106515478444
 20
19.13375217570677
 30
0.0
 11
26.11569359984893
 21
21.5087135249689
 31
0.0
 70
    32
  1
Ap17.74
 71
     5
 42
17.77074310987103
  3
STANDARD
100
AcDbAlignedDimension
 13
17.23032204491341
 23
13.63457331339754
 33
0.0
 14
35.00106515478444
 24
12.50005748368973
 34
0.0
100
AcDbRotatedDimension
  0
DIMENSION
  5
21B63
330
1F
100
AcDbEntity
  8
2
100
AcDbDimension
  2
*D61
 10
34.99662532313036
 20
-21.70654088334666
 30
0.0
 11
17.49831266156512
 21
-19.80505107308665
 31
0.0
 70
    32
 71
     5
 42
34.99662532313048
  3
STANDARD
100
AcDbAlignedDimension
 13
-0.0000000000001137
 23
-10.2
 33
0.0
 14
34.99662532313036
 24
-0.1500004283892906
 34
0.0
100
AcDbRotatedDimension
1001
ACAD
1000
DSTYLE
1002
{
1070
   271
1070
     0
1002
}
  0
DIMENSION
  5
21B64
330
1F
100
AcDbEntity
  8
2
100
AcDbDimension
  2
*D62
 10
50.85395026515079
 20
12.50085780795334
 30
0.0
 11
48.90080901427236
 21
-0.0021280387323472
 31
0.0
 70
    32
  1
%%C25
 71
     5
 42
25.00597169337139
  3
STANDARD
100
AcDbAlignedDimension
 13
22.51270499018574
 23
-12.50511388541804
 33
0.0
 14
22.49914642112756
 24
12.50085780795334
 34
0.0
 50
90.0
100
AcDbRotatedDimension
1001
ACAD
1000
DSTYLE
1002
{
1070
   271
1070
     0
1002
}
  0
LINE
  5
21C89
330
1F
100
AcDbEntity
  8
SK3
100
AcDbLine
 10
-0.0000000000001137
 20
1.5
 30
0.0
 11
16.75404499999985
 21
1.5
 31
0.0
  0
LINE
  5
21C8A
330
1F
100
AcDbEntity
  8
SK3
100
AcDbLine
 10
0.2999999999998692
 20
-1.499999999999999
 30
0.0
 11
18.37702249999987
 21
-1.5
 31
0.0
  0
LWPOLYLINE
  5
21CD5
330
1F
100
AcDbEntity
  8
NOCUT
100
AcDbPolyline
 90
        9
 70
     1
 43
0.0
 10
34.29999999999998
 20
0.0
 10
-0.0000000000001137
 20
0.0
 10
-0.0000000000001137
 20
10.2
 10
0.2999999999998692
 20
10.5
 10
6.307416999999873
 20
10.5
 10
9.426092362266587
 20
10.82778598899298
 10
12.45788779747812
 20
11.47221400028066
 10
15.5765639999999
 20
11.79999999999999
 10
22.49999999999989
 20
11.79999999999999
 42
-0.4142135623730951
  0
LWPOLYLINE
  5
21DE1
330
1F
100
AcDbEntity
  8
CUT
100
AcDbPolyline
 90
        5
 70
     1
 43
0.0
 10
34.99914642112755
 20
0.000857807953345
 10
34.99914642112755
 20
0.2508578079533477
 42
0.4142135623730951
 10
22.74914642112755
 20
12.50085780795334
 10
17.25914642112755
 20
12.50085780795334
 10
17.25914642112755
 20
0.000857807953345
  0
INSERT
  5
21E4E
330
1F
100
AcDbEntity
  8
0
100
AcDbBlockReference
 66
     1
  2
Name
 10
-4.610540900997648
 20
-32.60545235471068
 30
0.0
  0
ATTRIB
  5
21E4F
102
{ACAD_XDICTIONARY
360
21E50
102
}
330
21E4E
100
AcDbEntity
  8
SKVIEW63
100
AcDbText
 10
-4.520033516589393
 20
-32.55797655823551
 30
0.0
 40
3.5
  1
1TW7K025035X7R00
 41
0.8
  7
BMG_Text
100
AcDbAttribute
  2
NAME
 70
     0
  0
SEQEND
  5
21E54
330
21E4E
100
AcDbEntity
  8
0
  0
VIEWPORT
  5
9C00
102
{ACAD_XDICTIONARY
360
21ED5
102
}
330
1B
100
AcDbEntity
 67
     1
  8
0
100
AcDbViewport
 10
108.2280559557949
 20
71.69854161746989
 30
0.0
 40
251.8950231529317
 41
201.8884082081047
 68
     1
 69
     1
 12
108.2280559557949
 22
71.69854161746989
 13
0.0
 23
0.0
 14
10.0
 24
10.0
 15
10.0
 25
10.0
 16
0.0
 26
0.0
 36
1.0
 17
0.0
 27
0.0
 37
0.0
 42
50.0
 43
0.0
 44
0.0
 45
201.8884082081047
 50
0.0
 51
0.0
 72
   100
 90
   557088
  1

281
     0
 71
     1
 74
     0
110
0.0
120
0.0
130
0.0
111
1.0
121
0.0
131
0.0
112
0.0
122
1.0
132
0.0
 79
     0
146
0.0
  0
VIEWPORT
  5
9C02
102
{ACAD_XDICTIONARY
360
21ED7
102
}
330
1B
100
AcDbEntity
 67
     1
  8
1
100
AcDbViewport
 10
143.457083940506
 20
98.18158769607544
 30
0.0
 40
229.5313343048095
 41
157.0905403137207
 68
     2
 69
     2
 12
-44.37697124786255
 22
-35.12342998133886
 13
0.0
 23
0.0
 14
10.0
 24
10.0
 15
10.0
 25
10.0
 16
0.0
 26
0.0
 36
1.0
 17
0.0
 27
0.0
 37
0.0
 42
50.0
 43
0.0
 44
0.0
 45
300.3886240724386
 50
0.0
 51
0.0
 72
   100
 90
   557088
  1

281
     0
 71
     1
 74
     0
110
0.0
120
0.0
130
0.0
111
1.0
121
0.0
131
0.0
112
0.0
122
1.0
132
0.0
 79
     0
146
0.0
  0
ENDSEC
  0
SECTION
  2
OBJECTS
  0
DICTIONARY
  5
3182
330
0
100
AcDbDictionary
281
     1
  3
ACAD_CIP_PREVIOUS_PRODUCT_INFO
350
1B2F4
  3
ACAD_COLOR
350
31A0
  3
ACAD_DETAILVIEWSTYLE
350
1B2F0
  3
ACAD_FIELDLIST
350
20CBF
  3
ACAD_GROUP
350
3183
  3
ACAD_LAYOUT
350
31A5
  3
ACAD_MATERIAL
350
318B
  3
ACAD_MLEADERSTYLE
350
1B221
  3
ACAD_MLINESTYLE
350
3184
  3
ACAD_PLOTSETTINGS
350
31A4
  3
ACAD_PLOTSTYLENAME
350
3189
  3
ACAD_SCALELIST
350
1B1FC
  3
ACAD_SECTIONVIEWSTYLE
350
1B2EE
  3
ACAD_TABLESTYLE
350
31A1
  3
ACAD_VISUALSTYLE
350
318F
  3
ACDB_RECOMPOSE_DATA
350
21EA7
  3
AcDbVariableDictionary
350
33A3
  3
AcDsDecomposeData
350
21EAE
  3
AEC_PROPERTY_SET_DEFS
350
20E9E
  3
DWGPROPS
350
21EA8
  0
DICTIONARY
  5
422A
330
2
100
AcDbDictionary
280
     1
281
     1
  3
ACAD_LAYERFILTERS
360
1B063
  3
ACAD_LAYERSTATES
360
9A1C
  3
ACLYDICTIONARY
360
1B062
  0
DICTIONARY
  5
1B2F5
330
10
100
AcDbDictionary
280
     1
281
     1
  3
ADSK_XREC_LAYER_RECONCILED
360
210B0
  0
DICTIONARY
  5
1B2F7
330
3F8C
100
AcDbDictionary
280
     1
281
     1
  3
ADSK_XREC_LAYER_RECONCILED
360
210B1
  0
DICTIONARY
  5
1B2F9
330
9C4A
100
AcDbDictionary
280
     1
281
     1
  3
ADSK_XREC_LAYER_RECONCILED
360
210B2
  0
DICTIONARY
  5
1B2FB
330
9C4B
100
AcDbDictionary
280
     1
281
     1
  3
ADSK_XREC_LAYER_RECONCILED
360
210B3
  0
DICTIONARY
  5
1B2FD
330
9C4D
100
AcDbDictionary
280
     1
281
     1
  3
ADSK_XREC_LAYER_RECONCILED
360
210B4
  0
DICTIONARY
  5
1B2FF
330
9C4E
100
AcDbDictionary
280
     1
281
     1
  3
ADSK_XREC_LAYER_RECONCILED
360
210B5
  0
DICTIONARY
  5
1B303
330
9C50
100
AcDbDictionary
280
     1
281
     1
  3
ADSK_XREC_LAYER_RECONCILED
360
210B7
  0
DICTIONARY
  5
1B305
330
9C51
100
AcDbDictionary
280
     1
281
     1
  3
ADSK_XREC_LAYER_RECONCILED
360
210B8
  0
DICTIONARY
  5
1B307
330
13335
100
AcDbDictionary
280
     1
281
     1
  3
ADSK_XREC_LAYER_RECONCILED
360
210B9
  0
DICTIONARY
  5
210BC
330
20A91
100
AcDbDictionary
280
     1
281
     1
  3
ADSK_XREC_LAYER_RECONCILED
360
210BD
  0
DICTIONARY
  5
21258
330
21257
100
AcDbDictionary
280
     1
281
     1
  0
DICTIONARY
  5
21E3F
330
21E3E
100
AcDbDictionary
280
     1
281
     1
  0
DICTIONARY
  5
339C
330
1F
100
AcDbDictionary
280
     1
281
     1
  3
ACAD_SORTENTS
360
339D
  0
DICTIONARY
  5
1DE81
330
1B3D7
100
AcDbDictionary
280
     1
281
     1
  3
AcDbBlockTableRecordData
360
21EEF
  0
DICTIONARY
  5
21E36
330
21E35
100
AcDbDictionary
280
     1
281
     1
  3
AcDbBlockTableRecordData
360
21EF5
  0
DICTIONARY
  5
21E39
330
21E38
100
AcDbDictionary
280
     1
281
     1
  3
ACAD_FIELD
360
21E3A
  0
DICTIONARY
  5
21E50
330
21E4F
100
AcDbDictionary
280
     1
281
     1
  3
ACAD_FIELD
360
21E51
  0
DICTIONARY
  5
21ED5
330
9C00
100
AcDbDictionary
280
     1
281
     1
  3
ACAD_XREC_ROUNDTRIP
360
21ED6
  0
DICTIONARY
  5
21ED7
330
9C02
100
AcDbDictionary
280
     1
281
     1
  3
ACAD_XREC_ROUNDTRIP
360
21ED8
  0
XRECORD
  5
1B2F4
102
{ACAD_REACTORS
330
3182
102
}
330
3182
100
AcDbXrecord
280
     1
300
ACDLT
300
2015
300
ACDLT_F_S
  0
DICTIONARY
  5
31A0
102
{ACAD_REACTORS
330
3182
102
}
330
3182
100
AcDbDictionary
281
     1
  0
DICTIONARY
  5
1B2F0
102
{ACAD_REACTORS
330
3182
102
}
330
3182
100
AcDbDictionary
281
     1
  3
Imperial24
350
20CB3
  3
Metric50
350
1B2F1
  0
FIELDLIST
  5
20CBF
102
{ACAD_REACTORS
330
3182
102
}
330
3182
100
AcDbIdSet
 90
       12
330
20CAB
330
20CAC
330
20CBA
330
20CBB
330
20CC6
330
20CC7
330
21E3B
330
21E3C
330
21E46
330
21E47
330
21E52
330
21E53
100
AcDbFieldList
  0
DICTIONARY
  5
3183
102
{ACAD_REACTORS
330
3182
102
}
330
3182
100
AcDbDictionary
281
     1
  0
DICTIONARY
  5
31A5
102
{ACAD_REACTORS
330
3182
102
}
330
3182
100
AcDbDictionary
281
     1
  3
Layout1
350
31A7
  3
Model
350
31A6
  0
DICTIONARY
  5
318B
102
{ACAD_REACTORS
330
3182
102
}
330
3182
100
AcDbDictionary
281
     1
  3
ByBlock
350
318D
  3
ByLayer
350
318C
  3
Global
350
318E
  0
DICTIONARY
  5
1B221
102
{ACAD_REACTORS
330
3182
102
}
330
3182
100
AcDbDictionary
281
     1
  3
Standard
350
1B2ED
  0
DICTIONARY
  5
3184
102
{ACAD_REACTORS
330
3182
102
}
330
3182
100
AcDbDictionary
281
     1
  3
STANDARD
350
3185
  0
DICTIONARY
  5
31A4
102
{ACAD_REACTORS
330
3182
102
}
330
3182
100
AcDbDictionary
281
     1
  0
ACDBDICTIONARYWDFLT
  5
3189
102
{ACAD_REACTORS
330
3182
102
}
330
3182
100
AcDbDictionary
281
     1
  3
Normal
350
318A
100
AcDbDictionaryWithDefault
340
318A
  0
DICTIONARY
  5
1B1FC
102
{ACAD_REACTORS
330
3182
102
}
330
3182
100
AcDbDictionary
281
     1
  3
A0
350
1B1FD
  3
A1
350
1B1FE
  3
A2
350
1B1FF
  3
A3
350
1B200
  3
A4
350
1B201
  3
A5
350
1B202
  3
A6
350
1B203
  3
A7
350
1B204
  3
A8
350
1B205
  3
A9
350
1B206
  3
B0
350
1B207
  3
B1
350
1B208
  3
B2
350
1B209
  3
B3
350
1B20A
  3
B4
350
1B20B
  3
B5
350
1B20C
  3
B6
350
1B20D
  3
B7
350
1B20E
  3
B8
350
1B20F
  3
B9
350
1B210
  3
C0
350
1B211
  3
C1
350
1B212
  3
C2
350
1B213
  3
C3
350
1B214
  3
C4
350
1B215
  3
C5
350
1B216
  3
C6
350
1B217
  3
C7
350
1B218
  3
C8
350
1B219
  3
C9
350
1B21A
  3
D0
350
1B21B
  3
D1
350
1B21C
  3
D2
350
1B21D
  0
DICTIONARY
  5
1B2EE
102
{ACAD_REACTORS
330
3182
102
}
330
3182
100
AcDbDictionary
281
     1
  3
Imperial24
350
20CB1
  3
Metric50
350
1B2EF
  0
DICTIONARY
  5
31A1
102
{ACAD_REACTORS
330
3182
102
}
330
3182
100
AcDbDictionary
281
     1
  3
Standard
350
31A2
  0
DICTIONARY
  5
318F
102
{ACAD_REACTORS
330
3182
102
}
330
3182
100
AcDbDictionary
281
     1
  3
2dWireframe
350
3195
  3
3D Hidden
350
3197
  3
3dWireframe
350
3196
  3
Basic
350
3194
  3
Brighten
350
319B
  3
ColorChange
350
319F
  3
Conceptual
350
3198
  3
Dim
350
319A
  3
EdgeColorOff
350
1B2EC
  3
Facepattern
350
319E
  3
Flat
350
3190
  3
FlatWithEdges
350
3191
  3
Gouraud
350
3192
  3
GouraudWithEdges
350
3193
  3
Hidden
350
1B2E4
  3
JitterOff
350
1B2EA
  3
Linepattern
350
319D
  3
OverhangOff
350
1B2EB
  3
Realistic
350
3199
  3
Shaded
350
1B2E9
  3
Shaded with edges
350
1B2E8
  3
Shades of Gray
350
1B2E5
  3
Sketchy
350
1B2E6
  3
Thicken
350
319C
  3
Wireframe
350
1B2E3
  3
X-Ray
350
1B2E7
  0
XRECORD
  5
21EA7
102
{ACAD_REACTORS
330
3182
102
}
330
3182
100
AcDbXrecord
280
     1
 90
        1
330
31A2
  0
DICTIONARY
  5
33A3
102
{ACAD_REACTORS
330
3182
102
}
330
3182
100
AcDbDictionary
281
     1
  3
CANNOSCALE
350
1B222
  3
CMLEADERSTYLE
350
1B30F
  3
CTABLESTYLE
350
33A4
  3
CVIEWDETAILSTYLE
350
1B310
  3
CVIEWSECTIONSTYLE
350
1B311
  3
DIMASSOC
350
9BE8
  3
INDEXCTL
350
9BE7
  3
LAYEREVAL
350
20993
  3
LAYERNOTIFY
350
20994
  3
LIGHTINGUNITS
350
20992
  3
MSLTSCALE
350
20991
  3
SORTENTS
350
9BE6
  3
XCLIPFRAME
350
1FAAB
  0
DICTIONARY
  5
21EAE
102
{ACAD_REACTORS
330
3182
102
}
330
3182
100
AcDbDictionary
281
     1
  3
AcDsRecords
350
21EB0
  3
AcDsSchemas
350
21EAF
1001
ACAD
1070
     2
  0
DICTIONARY
  5
20E9E
102
{ACAD_REACTORS
330
3182
102
}
330
3182
100
AcDbDictionary
281
     1
  0
XRECORD
  5
21EA8
102
{ACAD_REACTORS
330
3182
102
}
330
3182
100
AcDbXrecord
280
     1
  1
DWGPROPS COOKIE
  2

  3

  4

  6

  7

  8
bendera
  9

300
=
301
=
302
=
303
=
304
=
305
=
306
=
307
=
308
=
309
=
 40
0.0922924189814815
 41
2457401.55169897
 42
2457401.643990011
  1

 90
        0
  0
DICTIONARY
  5
1B063
102
{ACAD_REACTORS
330
422A
102
}
330
422A
100
AcDbDictionary
281
     1
  0
DICTIONARY
  5
9A1C
102
{ACAD_REACTORS
330
422A
102
}
330
422A
100
AcDbDictionary
281
     1
  0
DICTIONARY
  5
1B062
102
{ACAD_REACTORS
330
422A
102
}
330
422A
100
AcDbDictionary
281
     1
1001
ACAD
1000
<All
  0
XRECORD
  5
210B0
102
{ACAD_REACTORS
330
1B2F5
102
}
330
1B2F5
100
AcDbXrecord
280
     1
290
     1
  0
XRECORD
  5
210B1
102
{ACAD_REACTORS
330
1B2F7
102
}
330
1B2F7
100
AcDbXrecord
280
     1
290
     1
  0
XRECORD
  5
210B2
102
{ACAD_REACTORS
330
1B2F9
102
}
330
1B2F9
100
AcDbXrecord
280
     1
290
     1
  0
XRECORD
  5
210B3
102
{ACAD_REACTORS
330
1B2FB
102
}
330
1B2FB
100
AcDbXrecord
280
     1
290
     1
  0
XRECORD
  5
210B4
102
{ACAD_REACTORS
330
1B2FD
102
}
330
1B2FD
100
AcDbXrecord
280
     1
290
     1
  0
XRECORD
  5
210B5
102
{ACAD_REACTORS
330
1B2FF
102
}
330
1B2FF
100
AcDbXrecord
280
     1
290
     1
  0
XRECORD
  5
210B7
102
{ACAD_REACTORS
330
1B303
102
}
330
1B303
100
AcDbXrecord
280
     1
290
     1
  0
XRECORD
  5
210B8
102
{ACAD_REACTORS
330
1B305
102
}
330
1B305
100
AcDbXrecord
280
     1
290
     1
  0
XRECORD
  5
210B9
102
{ACAD_REACTORS
330
1B307
102
}
330
1B307
100
AcDbXrecord
280
     1
290
     1
  0
XRECORD
  5
210BD
102
{ACAD_REACTORS
330
210BC
102
}
330
210BC
100
AcDbXrecord
280
     1
290
     1
  0
SORTENTSTABLE
  5
339D
102
{ACAD_REACTORS
330
339C
102
}
330
339C
100
AcDbSortentsTable
330
1F
331
21A6F
  5
21A6F
331
21A6E
  5
21A6E
331
21A5F
  5
21A5F
331
21A6D
  5
21A6D
331
21A5E
  5
21A5E
331
21A4F
  5
21A4F
331
21A6C
  5
21A6C
331
21A5D
  5
21A5D
331
21A4E
  5
21A4E
331
21A3F
  5
21A3F
331
21A6B
  5
21A6B
331
21A5C
  5
21A5C
331
21A4D
  5
21A4D
331
21A3E
  5
21A3E
331
21A2F
  5
21A2F
331
21A6A
  5
21A6A
331
21A5B
  5
21A5B
331
21A4C
  5
21A4C
331
21A3D
  5
21A3D
331
21A2E
  5
21A2E
331
21A69
  5
21A69
331
21A5A
  5
21A5A
331
21A4B
  5
21A4B
331
21A3C
  5
21A3C
331
21A2D
  5
21A2D
331
21A77
  5
21A77
331
21A68
  5
21A68
331
21A59
  5
21A59
331
21A4A
  5
21A4A
331
21A3B
  5
21A3B
331
21A76
  5
21A76
331
21A67
  5
21A67
331
21A58
  5
21A58
331
21A49
  5
21A49
331
21A3A
  5
21A3A
331
21AE7
  5
21AE7
331
21A2B
  5
21A2B
331
21A75
  5
21A75
331
21A66
  5
21A66
331
21A57
  5
21A57
331
21A48
  5
21A48
331
21A39
  5
21A39
331
21AE6
  5
21AE6
331
21AD7
  5
21AD7
331
21A2A
  5
21A2A
331
21A74
  5
21A74
331
21A65
  5
21A65
331
21A56
  5
21A56
331
21A47
  5
21A47
331
21AE5
  5
21AE5
331
21AD6
  5
21AD6
331
21AC7
  5
21AC7
331
21A38
  5
21A38
331
21A73
  5
21A73
331
21A64
  5
21A64
331
21A55
  5
21A55
331
21A46
  5
21A46
331
21AE4
  5
21AE4
331
21AD5
  5
21AD5
331
21AC6
  5
21AC6
331
21AB7
  5
21AB7
331
21A37
  5
21A37
331
21A72
  5
21A72
331
21A63
  5
21A63
331
21A54
  5
21A54
331
21A45
  5
21A45
331
21A36
  5
21A36
331
21AE3
  5
21AE3
331
21AD4
  5
21AD4
331
21AC5
  5
21AC5
331
21AB6
  5
21AB6
331
21AA7
  5
21AA7
331
21A27
  5
21A27
331
21A71
  5
21A71
331
21A62
  5
21A62
331
21A53
  5
21A53
331
21A44
  5
21A44
331
21A35
  5
21A35
331
21AE2
  5
21AE2
331
21AD3
  5
21AD3
331
21AC4
  5
21AC4
331
21AB5
  5
21AB5
331
21AA6
  5
21AA6
331
21A97
  5
21A97
331
21A26
  5
21A26
331
21A70
  5
21A70
331
21A61
  5
21A61
331
21A52
  5
21A52
331
21A43
  5
21A43
331
21A34
  5
21A34
331
21AE1
  5
21AE1
331
21AD2
  5
21AD2
331
21AC3
  5
21AC3
331
21AB4
  5
21AB4
331
21AA5
  5
21AA5
331
21A96
  5
21A96
331
21A87
  5
21A87
331
21A25
  5
21A25
331
21A60
  5
21A60
331
21A51
  5
21A51
331
21A42
  5
21A42
331
21A33
  5
21A33
331
21AEF
  5
21AEF
331
21AE0
  5
21AE0
331
21AD1
  5
21AD1
331
21AC2
  5
21AC2
331
21AB3
  5
21AB3
331
21AA4
  5
21AA4
331
21A95
  5
21A95
331
21A86
  5
21A86
331
21A24
  5
21A24
331
21A50
  5
21A50
331
21A41
  5
21A41
331
21AEE
  5
21AEE
331
21ADF
  5
21ADF
331
21AD0
  5
21AD0
331
21AC1
  5
21AC1
331
21AB2
  5
21AB2
331
21AA3
  5
21AA3
331
21A94
  5
21A94
331
21A85
  5
21A85
331
21A32
  5
21A32
331
21A40
  5
21A40
331
21AED
  5
21AED
331
21ADE
  5
21ADE
331
21ACF
  5
21ACF
331
21AC0
  5
21AC0
331
21AB1
  5
21AB1
331
21AA2
  5
21AA2
331
21A93
  5
21A93
331
21A84
  5
21A84
331
21A31
  5
21A31
331
21AEC
  5
21AEC
331
21ADD
  5
21ADD
331
21ACE
  5
21ACE
331
21ABF
  5
21ABF
331
21AB0
  5
21AB0
331
21AA1
  5
21AA1
331
21A92
  5
21A92
331
21A83
  5
21A83
331
21A30
  5
21A30
331
21AEB
  5
21AEB
331
21ADC
  5
21ADC
331
21ACD
  5
21ACD
331
21ABE
  5
21ABE
331
21AAF
  5
21AAF
331
21AA0
  5
21AA0
331
21A91
  5
21A91
331
21A82
  5
21A82
331
21AEA
  5
21AEA
331
21ADB
  5
21ADB
331
21ACC
  5
21ACC
331
21ABD
  5
21ABD
331
21AAE
  5
21AAE
331
21A9F
  5
21A9F
331
21A90
  5
21A90
331
21A81
  5
21A81
331
21AE9
  5
21AE9
331
21ADA
  5
21ADA
331
21ACB
  5
21ACB
331
21ABC
  5
21ABC
331
21AAD
  5
21AAD
331
21A9E
  5
21A9E
331
21A8F
  5
21A8F
331
21A80
  5
21A80
331
21AE8
  5
21AE8
331
21AD9
  5
21AD9
331
21ACA
  5
21ACA
331
21ABB
  5
21ABB
331
21AAC
  5
21AAC
331
21A9D
  5
21A9D
331
21A8E
  5
21A8E
331
21A7F
  5
21A7F
331
21AD8
  5
21AD8
331
21AC9
  5
21AC9
331
21ABA
  5
21ABA
331
21AAB
  5
21AAB
331
21A9C
  5
21A9C
331
21A8D
  5
21A8D
331
21A7E
  5
21A7E
331
21AC8
  5
21AC8
331
21AB9
  5
21AB9
331
21AAA
  5
21AAA
331
21A9B
  5
21A9B
331
21A8C
  5
21A8C
331
21A7D
  5
21A7D
331
21AB8
  5
21AB8
331
21AA9
  5
21AA9
331
21A9A
  5
21A9A
331
21A8B
  5
21A8B
331
21A7C
  5
21A7C
331
21AA8
  5
21AA8
331
21A99
  5
21A99
331
21A8A
  5
21A8A
331
21A7B
  5
21A7B
331
21A98
  5
21A98
331
21A89
  5
21A89
331
21A7A
  5
21A7A
331
21A88
  5
21A88
331
21A79
  5
21A79
331
21A78
  5
21A78
331
20A18
  5
20A18
331
21CD5
  5
21CE6
331
21DE1
  5
21DE5
331
21B5F
  5
21C8A
331
21B5E
  5
21C89
331
21B5D
  5
21B64
331
21B3E
  5
21B3E
331
21B2F
  5
21B2F
331
21B4C
  5
21B4D
331
21B3D
  5
21B3D
331
21B2E
  5
21B2E
331
21B1F
  5
21B1F
331
21B4B
  5
21B4B
331
21B3C
  5
21B3C
331
21B2D
  5
21B2D
331
21B1E
  5
21B1E
331
21B0F
  5
21B0F
331
21B4A
  5
21B4A
331
21B3B
  5
21B3B
331
21B2C
  5
21B2C
331
21B1D
  5
21B1D
331
21B0E
  5
21B0E
331
21AFF
  5
21AFF
331
21B49
  5
21B49
331
21B3A
  5
21B3A
331
21B2B
  5
21B2B
331
21B1C
  5
21B1C
331
21B0D
  5
21B0D
331
21AFE
  5
21AFE
331
21B48
  5
21B48
331
21B39
  5
21B39
331
21B2A
  5
21B2A
331
21B1B
  5
21B1B
331
21B0C
  5
21B0C
331
21AFD
  5
21AFD
331
21B56
  5
21B59
331
21B38
  5
21B38
331
21B29
  5
21B29
331
21B1A
  5
21B1A
331
21B0B
  5
21B0B
331
21AFC
  5
21AFC
331
21B64
  5
21CE5
331
21B55
  5
21B57
331
21B37
  5
21B37
331
21B28
  5
21B28
331
21B19
  5
21B19
331
21B0A
  5
21B0A
331
21AFB
  5
21AFB
331
21B63
  5
21CE4
331
21B54
  5
21B56
331
21B45
  5
21B45
331
21B36
  5
21B36
331
21B27
  5
21B27
331
21B18
  5
21B18
331
21B09
  5
21B09
331
21AFA
  5
21AFA
331
21B62
  5
21CDE
331
21B44
  5
21B44
331
21B35
  5
21B35
331
21B26
  5
21B26
331
21B17
  5
21B17
331
21B08
  5
21B08
331
21AF9
  5
21AF9
331
21B61
  5
21CDD
331
21B34
  5
21B34
331
21B25
  5
21B25
331
21B16
  5
21B16
331
21B07
  5
21B07
331
21AF8
  5
21AF8
331
21B60
  5
21CD5
331
21B33
  5
21B33
331
21B24
  5
21B24
331
21B15
  5
21B15
331
21B06
  5
21B06
331
21AF7
  5
21AF7
331
21B32
  5
21B32
331
21B23
  5
21B23
331
21B14
  5
21B14
331
21B05
  5
21B05
331
21AF6
  5
21AF6
331
21B31
  5
21B31
331
21B22
  5
21B22
331
21B13
  5
21B13
331
21B04
  5
21B04
331
21AF5
  5
21AF5
331
21B30
  5
21B30
331
21B21
  5
21B21
331
21B12
  5
21B12
331
21B03
  5
21B03
331
21AF4
  5
21AF4
331
21B20
  5
21B20
331
21B11
  5
21B11
331
21B02
  5
21B02
331
21AF3
  5
21AF3
331
21B10
  5
21B10
331
21B01
  5
21B01
331
21AF2
  5
21AF2
331
21B00
  5
21B00
331
21AF1
  5
21AF1
331
21AF0
  5
21AF0
331
21C8A
  5
21B4C
331
21C89
  5
21B58
  0
DICTIONARY
  5
21EEF
102
{ACAD_REACTORS
330
1DE81
102
}
330
1DE81
100
AcDbDictionary
280
     1
281
     1
  3
Edit
360
21EF0
  0
DICTIONARY
  5
21EF5
102
{ACAD_REACTORS
330
21E36
102
}
330
21E36
100
AcDbDictionary
280
     1
281
     1
  3
Edit
360
21EF6
  0
DICTIONARY
  5
21E3A
102
{ACAD_REACTORS
330
21E39
102
}
330
21E39
100
AcDbDictionary
280
     1
281
     1
  3
TEXT
360
21E3B
  0
DICTIONARY
  5
21E51
102
{ACAD_REACTORS
330
21E50
102
}
330
21E50
100
AcDbDictionary
280
     1
281
     1
  3
TEXT
360
21E52
  0
XRECORD
  5
21ED6
102
{ACAD_REACTORS
330
21ED5
102
}
330
21ED5
100
AcDbXrecord
280
     1
102
SHADEPLOT
 70
     0
  0
XRECORD
  5
21ED8
102
{ACAD_REACTORS
330
21ED7
102
}
330
21ED7
100
AcDbXrecord
280
     1
102
SHADEPLOT
 70
     0
  0
ACDBDETAILVIEWSTYLE
  5
20CB3
102
{ACAD_XDICTIONARY
360
20CB4
102
}
102
{ACAD_REACTORS
330
1B2F0
102
}
330
1B2F0
100
AcDbModelDocViewStyle
 70
     0
  3
Imperial24
290
     0
100
AcDbDetailViewStyle
 70
     0
 71
     0
 90
        3
 71
     1
340
11
 40
0.24
340
0
 40
0.24
300

 40
0.36
280
     3
 71
     2
340
16
 90
       25
 71
     3
340
11
 40
0.24
 90
        1
 40
0.75
 90
        1
300
%<\AcVar ViewType \f "%tc1">% %<\AcVar ViewDetailId>%\PVARIA %<\AcVar ViewScale \f "%sn">%
 71
     4
340
16
 90
       25
340
16
 90
       25
280
     0
  0
ACDBDETAILVIEWSTYLE
  5
1B2F1
102
{ACAD_XDICTIONARY
360
2098E
102
}
102
{ACAD_REACTORS
330
1B2F0
102
}
330
1B2F0
100
AcDbModelDocViewStyle
 70
     0
  3
Metric50
290
     0
100
AcDbDetailViewStyle
 70
     0
 71
     0
 90
        3
 71
     1
340
11
 40
5.0
340
0
 40
5.0
300

 40
0.0
280
     1
 71
     2
340
16
 90
       25
 71
     3
340
11
 40
5.0
 90
        0
 40
15.0
 90
        1
300
%<\AcVar ViewDetailId>% (%<\AcVar ViewScale \f "%sn">%)
 71
     4
340
16
 90
       25
340
16
 90
       25
280
     0
  0
LAYOUT
  5
31A7
102
{ACAD_XDICTIONARY
360
9C07
102
}
102
{ACAD_REACTORS
330
31A5
102
}
330
31A5
100
AcDbPlotSettings
  1

  2
\\ingdc01\ITB3
  4
A4
  6

 40
6.805083274841307
 41
5.027085781097412
 42
6.805068969726562
 43
5.027069091796875
 44
209.9733276367186
 45
296.9683227539062
 46
0.0
 47
0.0
 48
0.0
 49
0.0
140
0.0
141
0.0
142
1.0
143
1.0
 70
   688
 72
     1
 73
     1
 74
     5
  7

 75
    16
147
1.0
148
0.0
149
0.0
100
AcDbLayout
  1
Layout1
 70
     1
 71
     1
 10
-5.027069091796875
 20
-6.805083274841307
 11
291.9412536621094
 21
203.1682443618775
 12
0.0
 22
0.0
 32
0.0
 14
28.69141678810127
 24
19.6363175392151
 34
0.0
 15
258.2227510929107
 25
176.7268578529358
 35
0.0
146
0.0
 13
0.0
 23
0.0
 33
0.0
 16
1.0
 26
0.0
 36
0.0
 17
0.0
 27
1.0
 37
0.0
 76
     0
330
1B
331
9C00
1001
ACAD_PSEXT
1000
\\ingdc01\ITB3
1000
HP LaserJet 5000 Series PCL
1000
TB
1000

1070
     0
  0
LAYOUT
  5
31A6
102
{ACAD_XDICTIONARY
360
21ED2
102
}
102
{ACAD_REACTORS
330
31A5
102
}
330
31A5
100
AcDbPlotSettings
  1

  2
\\ingdc01\ITB3
  4
A4
  6

 40
6.805083274841307
 41
5.027085781097412
 42
6.805068969726562
 43
5.027069091796875
 44
209.9733276367186
 45
296.9683227539062
 46
0.0
 47
0.0
 48
0.0
 49
0.0
140
0.0
141
0.0
142
1.0
143
1.500313223655698
 70
 11952
 72
     1
 73
     1
 74
     0
  7

 75
     0
147
0.6665274852163048
148
239.0155119930048
149
102.2558208723354
100
AcDbLayout
  1
Model
 70
     1
 71
     0
 10
0.0
 20
0.0
 11
12.0
 21
9.0
 12
0.0
 22
0.0
 32
0.0
 14
0.0
 24
0.0
 34
0.0
 15
0.0
 25
0.0
 35
0.0
146
0.0
 13
0.0
 23
0.0
 33
0.0
 16
1.0
 26
0.0
 36
0.0
 17
0.0
 27
1.0
 37
0.0
 76
     0
330
1F
331
1F4
1001
ACAD_PSEXT
1000
\\ingdc01\ITB3
1000
HP LaserJet 5000 Series PCL
1000
TB
1000

1070
     0
  0
MATERIAL
  5
318D
102
{ACAD_XDICTIONARY
360
1B22B
102
}
102
{ACAD_REACTORS
330
318B
102
}
330
318B
100
AcDbMaterial
  1
ByBlock
  0
MATERIAL
  5
318C
102
{ACAD_XDICTIONARY
360
1B22D
102
}
102
{ACAD_REACTORS
330
318B
102
}
330
318B
100
AcDbMaterial
  1
ByLayer
  0
MATERIAL
  5
318E
102
{ACAD_XDICTIONARY
360
1B22F
102
}
102
{ACAD_REACTORS
330
318B
102
}
330
318B
100
AcDbMaterial
  1
Global
  0
MLEADERSTYLE
  5
1B2ED
102
{ACAD_REACTORS
330
1B221
102
}
330
1B221
100
AcDbMLeaderStyle
170
     2
171
     1
172
     0
 90
        2
 40
0.0
 41
0.0
173
     1
 91
-1056964608
340
14
 92
       -2
290
     1
 42
2.0
291
     1
 43
0.36
  3
Standard
 44
4.0
300

342
11
174
     1
178
     6
175
     1
176
     0
 93
-1056964608
 45
4.0
292
     0
297
     0
 46
4.0
 94
-1056964608
 47
1.0
 49
1.0
140
1.0
293
     1
141
0.0
294
     1
177
     0
142
1.0
295
     0
296
     0
143
0.125
1001
ACAD_MLEADERVER
1070
     2
  0
MLINESTYLE
  5
3185
102
{ACAD_REACTORS
330
3184
102
}
330
3184
100
AcDbMlineStyle
  2
STANDARD
 70
     0
  3

 62
   256
 51
90.0
 52
90.0
 71
     2
 49
0.5
 62
   256
  6
BYLAYER
 49
-0.5
 62
   256
  6
BYLAYER
  0
ACDBPLACEHOLDER
  5
318A
102
{ACAD_REACTORS
330
3189
102
}
330
3189
  0
SCALE
  5
1B1FD
102
{ACAD_REACTORS
330
1B1FC
102
}
330
1B1FC
100
AcDbScale
 70
     0
300
1:1
140
1.0
141
1.0
290
     1
1001
ACAD
1000
AcRTDxfName
1000
SCALE
  0
SCALE
  5
1B1FE
102
{ACAD_REACTORS
330
1B1FC
102
}
330
1B1FC
100
AcDbScale
 70
     0
300
1:2
140
1.0
141
2.0
290
     0
1001
ACAD
1000
AcRTDxfName
1000
SCALE
  0
SCALE
  5
1B1FF
102
{ACAD_REACTORS
330
1B1FC
102
}
330
1B1FC
100
AcDbScale
 70
     0
300
1:4
140
1.0
141
4.0
290
     0
1001
ACAD
1000
AcRTDxfName
1000
SCALE
  0
SCALE
  5
1B200
102
{ACAD_REACTORS
330
1B1FC
102
}
330
1B1FC
100
AcDbScale
 70
     0
300
1:5
140
1.0
141
5.0
290
     0
1001
ACAD
1000
AcRTDxfName
1000
SCALE
  0
SCALE
  5
1B201
102
{ACAD_REACTORS
330
1B1FC
102
}
330
1B1FC
100
AcDbScale
 70
     0
300
1:8
140
1.0
141
8.0
290
     0
1001
ACAD
1000
AcRTDxfName
1000
SCALE
  0
SCALE
  5
1B202
102
{ACAD_REACTORS
330
1B1FC
102
}
330
1B1FC
100
AcDbScale
 70
     0
300
1:10
140
1.0
141
10.0
290
     0
1001
ACAD
1000
AcRTDxfName
1000
SCALE
  0
SCALE
  5
1B203
102
{ACAD_REACTORS
330
1B1FC
102
}
330
1B1FC
100
AcDbScale
 70
     0
300
1:16
140
1.0
141
16.0
290
     0
1001
ACAD
1000
AcRTDxfName
1000
SCALE
  0
SCALE
  5
1B204
102
{ACAD_REACTORS
330
1B1FC
102
}
330
1B1FC
100
AcDbScale
 70
     0
300
1:20
140
1.0
141
20.0
290
     0
1001
ACAD
1000
AcRTDxfName
1000
SCALE
  0
SCALE
  5
1B205
102
{ACAD_REACTORS
330
1B1FC
102
}
330
1B1FC
100
AcDbScale
 70
     0
300
1:30
140
1.0
141
30.0
290
     0
1001
ACAD
1000
AcRTDxfName
1000
SCALE
  0
SCALE
  5
1B206
102
{ACAD_REACTORS
330
1B1FC
102
}
330
1B1FC
100
AcDbScale
 70
     0
300
1:40
140
1.0
141
40.0
290
     0
1001
ACAD
1000
AcRTDxfName
1000
SCALE
  0
SCALE
  5
1B207
102
{ACAD_REACTORS
330
1B1FC
102
}
330
1B1FC
100
AcDbScale
 70
     0
300
1:50
140
1.0
141
50.0
290
     0
1001
ACAD
1000
AcRTDxfName
1000
SCALE
  0
SCALE
  5
1B208
102
{ACAD_REACTORS
330
1B1FC
102
}
330
1B1FC
100
AcDbScale
 70
     0
300
1:100
140
1.0
141
100.0
290
     0
1001
ACAD
1000
AcRTDxfName
1000
SCALE
  0
SCALE
  5
1B209
102
{ACAD_REACTORS
330
1B1FC
102
}
330
1B1FC
100
AcDbScale
 70
     0
300
2:1
140
2.0
141
1.0
290
     0
1001
ACAD
1000
AcRTDxfName
1000
SCALE
  0
SCALE
  5
1B20A
102
{ACAD_REACTORS
330
1B1FC
102
}
330
1B1FC
100
AcDbScale
 70
     0
300
4:1
140
4.0
141
1.0
290
     0
1001
ACAD
1000
AcRTDxfName
1000
SCALE
  0
SCALE
  5
1B20B
102
{ACAD_REACTORS
330
1B1FC
102
}
330
1B1FC
100
AcDbScale
 70
     0
300
8:1
140
8.0
141
1.0
290
     0
1001
ACAD
1000
AcRTDxfName
1000
SCALE
  0
SCALE
  5
1B20C
102
{ACAD_REACTORS
330
1B1FC
102
}
330
1B1FC
100
AcDbScale
 70
     0
300
10:1
140
10.0
141
1.0
290
     0
1001
ACAD
1000
AcRTDxfName
1000
SCALE
  0
SCALE
  5
1B20D
102
{ACAD_REACTORS
330
1B1FC
102
}
330
1B1FC
100
AcDbScale
 70
     0
300
100:1
140
100.0
141
1.0
290
     0
1001
ACAD
1000
AcRTDxfName
1000
SCALE
  0
SCALE
  5
1B20E
102
{ACAD_REACTORS
330
1B1FC
102
}
330
1B1FC
100
AcDbScale
 70
     0
300
1/128" = 1'-0"
140
0.0078125
141
12.0
290
     0
1001
ACAD
1000
AcRTDxfName
1000
SCALE
  0
SCALE
  5
1B20F
102
{ACAD_REACTORS
330
1B1FC
102
}
330
1B1FC
100
AcDbScale
 70
     0
300
1/64" = 1'-0"
140
0.015625
141
12.0
290
     0
1001
ACAD
1000
AcRTDxfName
1000
SCALE
  0
SCALE
  5
1B210
102
{ACAD_REACTORS
330
1B1FC
102
}
330
1B1FC
100
AcDbScale
 70
     0
300
1/32" = 1'-0"
140
0.03125
141
12.0
290
     0
1001
ACAD
1000
AcRTDxfName
1000
SCALE
  0
SCALE
  5
1B211
102
{ACAD_REACTORS
330
1B1FC
102
}
330
1B1FC
100
AcDbScale
 70
     0
300
1/16" = 1'-0"
140
0.0625
141
12.0
290
     0
1001
ACAD
1000
AcRTDxfName
1000
SCALE
  0
SCALE
  5
1B212
102
{ACAD_REACTORS
330
1B1FC
102
}
330
1B1FC
100
AcDbScale
 70
     0
300
3/32" = 1'-0"
140
0.09375
141
12.0
290
     0
1001
ACAD
1000
AcRTDxfName
1000
SCALE
  0
SCALE
  5
1B213
102
{ACAD_REACTORS
330
1B1FC
102
}
330
1B1FC
100
AcDbScale
 70
     0
300
1/8" = 1'-0"
140
0.125
141
12.0
290
     0
1001
ACAD
1000
AcRTDxfName
1000
SCALE
  0
SCALE
  5
1B214
102
{ACAD_REACTORS
330
1B1FC
102
}
330
1B1FC
100
AcDbScale
 70
     0
300
3/16" = 1'-0"
140
0.1875
141
12.0
290
     0
1001
ACAD
1000
AcRTDxfName
1000
SCALE
  0
SCALE
  5
1B215
102
{ACAD_REACTORS
330
1B1FC
102
}
330
1B1FC
100
AcDbScale
 70
     0
300
1/4" = 1'-0"
140
0.25
141
12.0
290
     0
1001
ACAD
1000
AcRTDxfName
1000
SCALE
  0
SCALE
  5
1B216
102
{ACAD_REACTORS
330
1B1FC
102
}
330
1B1FC
100
AcDbScale
 70
     0
300
3/8" = 1'-0"
140
0.375
141
12.0
290
     0
1001
ACAD
1000
AcRTDxfName
1000
SCALE
  0
SCALE
  5
1B217
102
{ACAD_REACTORS
330
1B1FC
102
}
330
1B1FC
100
AcDbScale
 70
     0
300
1/2" = 1'-0"
140
0.5
141
12.0
290
     0
1001
ACAD
1000
AcRTDxfName
1000
SCALE
  0
SCALE
  5
1B218
102
{ACAD_REACTORS
330
1B1FC
102
}
330
1B1FC
100
AcDbScale
 70
     0
300
3/4" = 1'-0"
140
0.75
141
12.0
290
     0
1001
ACAD
1000
AcRTDxfName
1000
SCALE
  0
SCALE
  5
1B219
102
{ACAD_REACTORS
330
1B1FC
102
}
330
1B1FC
100
AcDbScale
 70
     0
300
1" = 1'-0"
140
1.0
141
12.0
290
     0
1001
ACAD
1000
AcRTDxfName
1000
SCALE
  0
SCALE
  5
1B21A
102
{ACAD_REACTORS
330
1B1FC
102
}
330
1B1FC
100
AcDbScale
 70
     0
300
1-1/2" = 1'-0"
140
1.5
141
12.0
290
     0
1001
ACAD
1000
AcRTDxfName
1000
SCALE
  0
SCALE
  5
1B21B
102
{ACAD_REACTORS
330
1B1FC
102
}
330
1B1FC
100
AcDbScale
 70
     0
300
3" = 1'-0"
140
3.0
141
12.0
290
     0
1001
ACAD
1000
AcRTDxfName
1000
SCALE
  0
SCALE
  5
1B21C
102
{ACAD_REACTORS
330
1B1FC
102
}
330
1B1FC
100
AcDbScale
 70
     0
300
6" = 1'-0"
140
6.0
141
12.0
290
     0
1001
ACAD
1000
AcRTDxfName
1000
SCALE
  0
SCALE
  5
1B21D
102
{ACAD_REACTORS
330
1B1FC
102
}
330
1B1FC
100
AcDbScale
 70
     0
300
1'-0" = 1'-0"
140
12.0
141
12.0
290
     0
1001
ACAD
1000
AcRTDxfName
1000
SCALE
  0
ACDBSECTIONVIEWSTYLE
  5
20CB1
102
{ACAD_XDICTIONARY
360
20CB2
102
}
102
{ACAD_REACTORS
330
1B2EE
102
}
330
1B2EE
100
AcDbModelDocViewStyle
 70
     0
  3
Imperial24
290
     0
100
AcDbSectionViewStyle
 70
     0
 71
     0
 90
       78
 71
     1
340
11
 40
0.24
340
0
340
0
 40
0.24
300
I, O, Q, S, X, Z
 40
0.48
 90
        3
 40
0.18
 90
        1
 71
     2
340
16
 90
       25
340
16
 90
       50
 40
0.24
 40
0.0
 40
0.24
 71
     3
340
11
 40
0.24
 90
        1
 40
0.75
 90
        1
300
%<\AcVar ViewType \f "%tc1">% %<\AcVar ViewSectionStartId>%-%<\AcVar ViewSectionEndId>%\PVARIA %<\AcVar ViewScale \f "%sn">%
 71
     4
300
ANSI31
 40
1.0
 90
        0
290
     0
290
     0
 90
        6
 40
0.0
 40
1.570796326794896
 40
0.2617993877991494
 40
1.308996938995747
 40
-0.2617993877991494
 40
1.832595714594046
  0
ACDBSECTIONVIEWSTYLE
  5
1B2EF
102
{ACAD_XDICTIONARY
360
2098C
102
}
102
{ACAD_REACTORS
330
1B2EE
102
}
330
1B2EE
100
AcDbModelDocViewStyle
 70
     0
  3
Metric50
290
     0
100
AcDbSectionViewStyle
 70
     0
 71
     0
 90
      102
 71
     1
340
11
 40
5.0
340
0
340
0
 40
5.0
300
I, O, Q, S, X, Z
 40
10.0
 90
        0
 40
2.5
 90
        0
 71
     2
340
16
 90
       25
340
16
 90
       50
 40
5.0
 40
2.5
 40
5.0
 71
     3
340
11
 40
5.0
 90
        0
 40
15.0
 90
        1
300
%<\AcVar ViewSectionStartId>%-%<\AcVar ViewSectionEndId>% (%<\AcVar ViewScale \f "%sn">%)
 71
     4
300
ANSI31
 40
1.0
 90
        0
290
     0
290
     0
 90
        6
 40
0.0
 40
1.570796326794896
 40
0.2617993877991494
 40
1.308996938995747
 40
-0.2617993877991494
 40
1.832595714594044
  0
TABLESTYLE
  5
31A2
102
{ACAD_XDICTIONARY
360
1B314
102
}
102
{ACAD_REACTORS
330
31A1
102
}
330
31A1
100
AcDbTableStyle
  3
Standard
 70
     0
 71
     0
 40
1.5
 41
1.5
280
     0
281
     0
  7
STANDARD
140
4.5
170
     2
 62
     0
 63
     7
283
     0
274
    -2
284
     1
 64
     0
275
    -2
285
     1
 65
     0
276
    -2
286
     1
 66
     0
277
    -2
287
     1
 67
     0
278
    -2
288
     1
 68
     0
279
    -2
289
     1
 69
     0
  7
STANDARD
140
6.0
170
     5
 62
     0
 63
     7
283
     0
274
    -2
284
     1
 64
     0
275
    -2
285
     1
 65
     0
276
    -2
286
     1
 66
     0
277
    -2
287
     1
 67
     0
278
    -2
288
     1
 68
     0
279
    -2
289
     1
 69
     0
  7
STANDARD
140
4.5
170
     5
 62
     0
 63
     7
283
     0
274
    -2
284
     1
 64
     0
275
    -2
285
     1
 65
     0
276
    -2
286
     1
 66
     0
277
    -2
287
     1
 67
     0
278
    -2
288
     1
 68
     0
279
    -2
289
     1
 69
     0
  0
VISUALSTYLE
  5
3195
102
{ACAD_XDICTIONARY
360
21EBB
102
}
102
{ACAD_REACTORS
330
318F
102
}
330
318F
100
AcDbVisualStyle
  2

 70
     4
 71
     0
 72
     2
 73
     0
 90
        0
 40
-0.6
 41
-30.0
 62
     5
 63
     7
 74
     1
 91
        4
 64
     7
 65
   257
 75
     1
175
     1
 42
1.0
 92
        0
 66
   257
 43
1.0
 76
     1
 77
     6
 78
     2
 67
     7
 79
     5
170
     0
171
     0
290
     0
174
     0
 93
        1
 44
0.0
173
     0
291
     0
 45
0.0
1001
ACAD
1000
AcDbSavedByObjectVersion
1070
     0
  0
VISUALSTYLE
  5
3197
102
{ACAD_XDICTIONARY
360
21EBF
102
}
102
{ACAD_REACTORS
330
318F
102
}
330
318F
100
AcDbVisualStyle
  2

 70
     6
 71
     1
 72
     2
 73
     2
 90
        0
 40
-0.6
 41
-30.0
 62
     5
 63
     7
 74
     2
 91
        2
 64
     7
 65
   257
 75
     2
175
     1
 42
40.0
 92
        0
 66
   257
 43
1.0
 76
     1
 77
     6
 78
     2
 67
     7
 79
     3
170
     0
171
     0
290
     0
174
     0
 93
        1
 44
0.0
173
     0
291
     0
 45
0.0
1001
ACAD
1000
AcDbSavedByObjectVersion
1070
     0
  0
VISUALSTYLE
  5
3196
102
{ACAD_XDICTIONARY
360
21EBD
102
}
102
{ACAD_REACTORS
330
318F
102
}
330
318F
100
AcDbVisualStyle
  2

 70
     5
 71
     0
 72
     2
 73
     0
 90
        0
 40
-0.6
 41
-30.0
 62
     5
 63
     7
 74
     1
 91
        4
 64
     7
 65
   257
 75
     1
175
     1
 42
1.0
 92
        0
 66
   257
 43
1.0
 76
     1
 77
     6
 78
     2
 67
     7
 79
     5
170
     0
171
     0
290
     0
174
     0
 93
        1
 44
0.0
173
     0
291
     0
 45
0.0
1001
ACAD
1000
AcDbSavedByObjectVersion
1070
     0
  0
VISUALSTYLE
  5
3194
102
{ACAD_XDICTIONARY
360
21EB9
102
}
102
{ACAD_REACTORS
330
318F
102
}
330
318F
100
AcDbVisualStyle
  2

 70
     7
 71
     1
 72
     0
 73
     1
 90
        0
 40
-0.6
 41
-30.0
 62
     5
 63
     7
 74
     0
 91
        4
 64
     7
 65
   257
 75
     1
175
     1
 42
1.0
 92
        8
 66
     7
 43
1.0
 76
     1
 77
     6
 78
     2
 67
     7
 79
     5
170
     0
171
     0
290
     0
174
     0
 93
        1
 44
0.0
173
     0
291
     1
 45
0.0
1001
ACAD
1000
AcDbSavedByObjectVersion
1070
     0
  0
VISUALSTYLE
  5
319B
102
{ACAD_XDICTIONARY
360
21EC7
102
}
102
{ACAD_REACTORS
330
318F
102
}
330
318F
100
AcDbVisualStyle
  2

 70
    12
 71
     2
 72
     2
 73
     0
 90
        0
 40
-0.6
 41
-30.0
 62
     5
 63
     7
 74
     1
 91
        4
 64
     7
 65
   257
 75
     1
175
     1
 42
1.0
 92
        8
 66
     7
 43
1.0
 76
     1
 77
     6
 78
     2
 67
     7
 79
     5
170
     0
171
     0
290
     0
174
     0
 93
        1
 44
50.0
173
     0
291
     1
 45
0.0
1001
ACAD
1000
AcDbSavedByObjectVersion
1070
     0
  0
VISUALSTYLE
  5
319F
102
{ACAD_XDICTIONARY
360
21ECF
102
}
102
{ACAD_REACTORS
330
318F
102
}
330
318F
100
AcDbVisualStyle
  2

 70
    16
 71
     2
 72
     2
 73
     3
 90
        0
 40
-0.6
 41
-30.0
 62
     5
 63
     8
 74
     1
 91
        4
 64
     7
 65
   257
 75
     1
175
     1
 42
1.0
 92
        8
 66
     8
 43
1.0
 76
     1
 77
     6
 78
     2
 67
     7
 79
     5
170
     0
171
     0
290
     0
174
     0
 93
        1
 44
0.0
173
     0
291
     1
 45
0.0
1001
ACAD
1000
AcDbSavedByObjectVersion
1070
     0
  0
VISUALSTYLE
  5
3198
102
{ACAD_XDICTIONARY
360
21EC1
102
}
102
{ACAD_REACTORS
330
318F
102
}
330
318F
100
AcDbVisualStyle
  2

 70
     9
 71
     3
 72
     2
 73
     0
 90
        0
 40
-0.6
 41
-30.0
 62
     5
 63
     7
 74
     2
 91
        2
 64
     7
 65
   257
 75
     1
175
     1
 42
40.0
 92
        8
 66
     7
 43
1.0
 76
     1
 77
     6
 78
     2
 67
     7
 79
     3
170
     0
171
     0
290
     0
174
     0
 93
        1
 44
0.0
173
     0
291
     0
 45
0.0
1001
ACAD
1000
AcDbSavedByObjectVersion
1070
     0
  0
VISUALSTYLE
  5
319A
102
{ACAD_XDICTIONARY
360
21EC5
102
}
102
{ACAD_REACTORS
330
318F
102
}
330
318F
100
AcDbVisualStyle
  2

 70
    11
 71
     2
 72
     2
 73
     0
 90
        0
 40
-0.6
 41
-30.0
 62
     5
 63
     7
 74
     1
 91
        4
 64
     7
 65
   257
 75
     1
175
     1
 42
1.0
 92
        8
 66
     7
 43
1.0
 76
     1
 77
     6
 78
     2
 67
     7
 79
     5
170
     0
171
     0
290
     0
174
     0
 93
        1
 44
-50.0
173
     0
291
     1
 45
0.0
1001
ACAD
1000
AcDbSavedByObjectVersion
1070
     0
  0
VISUALSTYLE
  5
1B2EC
102
{ACAD_XDICTIONARY
360
21EEB
102
}
102
{ACAD_REACTORS
330
318F
102
}
330
318F
100
AcDbVisualStyle
  2

 70
    22
 71
     2
 72
     2
 73
     0
 90
        0
 40
-0.6
 41
-30.0
 62
     5
 63
     7
 74
     1
 91
        4
 64
     7
 65
   257
 75
     1
175
     1
 42
1.0
 92
        8
 66
     7
 43
1.0
 76
     1
 77
     6
 78
     2
 67
     7
 79
     5
170
     0
171
     0
290
     0
174
     0
 93
        1
 44
0.0
173
     0
291
     1
 45
0.0
1001
ACAD
1000
AcDbSavedByObjectVersion
1070
     0
  0
VISUALSTYLE
  5
319E
102
{ACAD_XDICTIONARY
360
21ECD
102
}
102
{ACAD_REACTORS
330
318F
102
}
330
318F
100
AcDbVisualStyle
  2

 70
    15
 71
     2
 72
     2
 73
     0
 90
        0
 40
-0.6
 41
-30.0
 62
     5
 63
     7
 74
     1
 91
        4
 64
     7
 65
   257
 75
     1
175
     1
 42
1.0
 92
        8
 66
     7
 43
1.0
 76
     1
 77
     6
 78
     2
 67
     7
 79
     5
170
     0
171
     0
290
     0
174
     0
 93
        1
 44
0.0
173
     0
291
     1
 45
0.0
1001
ACAD
1000
AcDbSavedByObjectVersion
1070
     0
  0
VISUALSTYLE
  5
3190
102
{ACAD_XDICTIONARY
360
21EB1
102
}
102
{ACAD_REACTORS
330
318F
102
}
330
318F
100
AcDbVisualStyle
  2

 70
     0
 71
     2
 72
     1
 73
     1
 90
        2
 40
-0.6
 41
30.0
 62
     5
 63
     7
 74
     0
 91
        4
 64
     7
 65
   257
 75
     1
175
     1
 42
1.0
 92
        8
 66
     7
 43
1.0
 76
     1
 77
     6
 78
     2
 67
     7
 79
     5
170
     0
171
     0
290
     0
174
     0
 93
       13
 44
0.0
173
     0
291
     1
 45
0.0
1001
ACAD
1000
AcDbSavedByObjectVersion
1070
     0
  0
VISUALSTYLE
  5
3191
102
{ACAD_XDICTIONARY
360
21EB3
102
}
102
{ACAD_REACTORS
330
318F
102
}
330
318F
100
AcDbVisualStyle
  2

 70
     1
 71
     2
 72
     1
 73
     1
 90
        2
 40
-0.6
 41
30.0
 62
     5
 63
     7
 74
     1
 91
        4
 64
     7
 65
   257
 75
     1
175
     1
 42
1.0
 92
        0
 66
   257
 43
1.0
 76
     1
 77
     6
 78
     2
 67
     7
 79
     5
170
     0
171
     0
290
     0
174
     0
 93
       13
 44
0.0
173
     0
291
     1
 45
0.0
1001
ACAD
1000
AcDbSavedByObjectVersion
1070
     0
  0
VISUALSTYLE
  5
3192
102
{ACAD_XDICTIONARY
360
21EB5
102
}
102
{ACAD_REACTORS
330
318F
102
}
330
318F
100
AcDbVisualStyle
  2

 70
     2
 71
     2
 72
     2
 73
     1
 90
        2
 40
-0.6
 41
30.0
 62
     5
 63
     7
 74
     0
 91
        4
 64
     7
 65
   257
 75
     1
175
     1
 42
1.0
 92
        0
 66
     7
 43
1.0
 76
     1
 77
     6
 78
     2
 67
     7
 79
     5
170
     0
171
     0
290
     0
174
     0
 93
       13
 44
0.0
173
     0
291
     1
 45
0.0
1001
ACAD
1000
AcDbSavedByObjectVersion
1070
     0
  0
VISUALSTYLE
  5
3193
102
{ACAD_XDICTIONARY
360
21EB7
102
}
102
{ACAD_REACTORS
330
318F
102
}
330
318F
100
AcDbVisualStyle
  2

 70
     3
 71
     2
 72
     2
 73
     1
 90
        2
 40
-0.6
 41
30.0
 62
     5
 63
     7
 74
     1
 91
        4
 64
     7
 65
   257
 75
     1
175
     1
 42
1.0
 92
        0
 66
   257
 43
1.0
 76
     1
 77
     6
 78
     2
 67
     7
 79
     5
170
     0
171
     0
290
     0
174
     0
 93
       13
 44
0.0
173
     0
291
     1
 45
0.0
1001
ACAD
1000
AcDbSavedByObjectVersion
1070
     0
  0
VISUALSTYLE
  5
1B2E4
102
{ACAD_XDICTIONARY
360
21EDB
102
}
102
{ACAD_REACTORS
330
318F
102
}
330
318F
100
AcDbVisualStyle
  2

 70
     6
 71
     1
 72
     2
 73
     2
 90
        0
 40
-0.6
 41
-30.0
 62
     5
 63
     7
 74
     2
 91
        2
 64
     7
 65
   257
 75
     2
175
     1
 42
40.0
 92
        0
 66
   257
 43
1.0
 76
     1
 77
     6
 78
     2
 67
     7
 79
     3
170
     0
171
     0
290
     0
174
     0
 93
        1
 44
0.0
173
     0
291
     0
 45
0.0
1001
ACAD
1000
AcDbSavedByObjectVersion
1070
     0
  0
VISUALSTYLE
  5
1B2EA
102
{ACAD_XDICTIONARY
360
21EE7
102
}
102
{ACAD_REACTORS
330
318F
102
}
330
318F
100
AcDbVisualStyle
  2

 70
    20
 71
     2
 72
     2
 73
     0
 90
        0
 40
-0.6
 41
-30.0
 62
     5
 63
     7
 74
     1
 91
        4
 64
     7
 65
   257
 75
     1
175
     1
 42
1.0
 92
       10
 66
     7
 43
1.0
 76
     1
 77
     6
 78
     2
 67
     7
 79
     5
170
     0
171
     0
290
     0
174
     0
 93
        1
 44
0.0
173
     0
291
     1
 45
0.0
1001
ACAD
1000
AcDbSavedByObjectVersion
1070
     0
  0
VISUALSTYLE
  5
319D
102
{ACAD_XDICTIONARY
360
21ECB
102
}
102
{ACAD_REACTORS
330
318F
102
}
330
318F
100
AcDbVisualStyle
  2

 70
    14
 71
     2
 72
     2
 73
     0
 90
        0
 40
-0.6
 41
-30.0
 62
     5
 63
     7
 74
     1
 91
        4
 64
     7
 65
   257
 75
     7
175
     7
 42
1.0
 92
        8
 66
     7
 43
1.0
 76
     1
 77
     6
 78
     2
 67
     7
 79
     5
170
     0
171
     0
290
     0
174
     0
 93
        1
 44
0.0
173
     0
291
     1
 45
0.0
1001
ACAD
1000
AcDbSavedByObjectVersion
1070
     0
  0
VISUALSTYLE
  5
1B2EB
102
{ACAD_XDICTIONARY
360
21EE9
102
}
102
{ACAD_REACTORS
330
318F
102
}
330
318F
100
AcDbVisualStyle
  2

 70
    21
 71
     2
 72
     2
 73
     0
 90
        0
 40
-0.6
 41
-30.0
 62
     5
 63
     7
 74
     1
 91
        4
 64
     7
 65
   257
 75
     1
175
     1
 42
1.0
 92
        9
 66
     7
 43
1.0
 76
     1
 77
     6
 78
     2
 67
     7
 79
     5
170
     0
171
     0
290
     0
174
     0
 93
        1
 44
0.0
173
     0
291
     1
 45
0.0
1001
ACAD
1000
AcDbSavedByObjectVersion
1070
     0
  0
VISUALSTYLE
  5
3199
102
{ACAD_XDICTIONARY
360
21EC3
102
}
102
{ACAD_REACTORS
330
318F
102
}
330
318F
100
AcDbVisualStyle
  2

 70
     8
 71
     2
 72
     2
 73
     0
 90
        0
 40
-0.6
 41
-30.0
 62
     5
 63
     7
 74
     1
 91
        0
 64
     7
 65
   257
 75
     1
175
     1
 42
1.0
 92
        8
 66
     8
 43
1.0
 76
     1
 77
     6
 78
     2
 67
     7
 79
     5
170
     0
171
     0
290
     0
174
     0
 93
       13
 44
0.0
173
     0
291
     0
 45
0.0
1001
ACAD
1000
AcDbSavedByObjectVersion
1070
     0
  0
VISUALSTYLE
  5
1B2E9
102
{ACAD_XDICTIONARY
360
21EE5
102
}
102
{ACAD_REACTORS
330
318F
102
}
330
318F
100
AcDbVisualStyle
  2

 70
    27
 71
     2
 72
     2
 73
     1
 90
        2
 40
-0.6
 41
30.0
 62
     5
 63
     7
 74
     0
 91
        4
 64
     7
 65
   257
 75
     1
175
     1
 42
1.0
 92
        8
 66
   257
 43
1.0
 76
     1
 77
     6
 78
     2
 67
     8
 79
     3
170
     0
171
     0
290
     0
174
     0
 93
        5
 44
0.0
173
     0
291
     0
 45
0.0
1001
ACAD
1000
AcDbSavedByObjectVersion
1070
     0
  0
VISUALSTYLE
  5
1B2E8
102
{ACAD_XDICTIONARY
360
21EE3
102
}
102
{ACAD_REACTORS
330
318F
102
}
330
318F
100
AcDbVisualStyle
  2

 70
    26
 71
     2
 72
     2
 73
     1
 90
        2
 40
-0.6
 41
30.0
 62
     5
 63
     7
 74
     1
 91
       10
 64
     7
 65
   257
 75
     2
175
     1
 42
1.0
 92
        8
 66
   257
 43
1.0
 76
     1
 77
     6
 78
     2
 67
     7
 79
     3
170
     0
171
     0
290
     0
174
     0
 93
        5
 44
0.0
173
     0
291
     0
 45
0.0
1001
ACAD
1000
AcDbSavedByObjectVersion
1070
     0
  0
VISUALSTYLE
  5
1B2E5
102
{ACAD_XDICTIONARY
360
21EDD
102
}
102
{ACAD_REACTORS
330
318F
102
}
330
318F
100
AcDbVisualStyle
  2

 70
    23
 71
     2
 72
     2
 73
     3
 90
        0
 40
-0.6
 41
-30.0
 62
     5
 63
     7
 74
     2
 91
        2
 64
     7
 65
     7
 75
     1
175
     1
 42
40.0
 92
        8
 66
     7
 43
1.0
 76
     1
 77
     6
 78
     2
 67
     7
 79
     3
170
     0
171
     0
290
     0
174
     0
 93
        1
 44
0.0
173
     0
291
     0
 45
0.0
1001
ACAD
1000
AcDbSavedByObjectVersion
1070
     0
  0
VISUALSTYLE
  5
1B2E6
102
{ACAD_XDICTIONARY
360
21EDF
102
}
102
{ACAD_REACTORS
330
318F
102
}
330
318F
100
AcDbVisualStyle
  2

 70
    24
 71
     1
 72
     2
 73
     2
 90
        0
 40
-0.6
 41
-30.0
 62
     5
 63
     7
 74
     2
 91
        2
 64
     7
 65
     7
 75
     1
175
     1
 42
40.0
 92
       11
 66
     7
 43
1.0
 76
     1
 77
     6
 78
     2
 67
     7
 79
     6
170
     0
171
     0
290
     0
174
     0
 93
        1
 44
0.0
173
     0
291
     0
 45
0.0
1001
ACAD
1000
AcDbSavedByObjectVersion
1070
     0
  0
VISUALSTYLE
  5
319C
102
{ACAD_XDICTIONARY
360
21EC9
102
}
102
{ACAD_REACTORS
330
318F
102
}
330
318F
100
AcDbVisualStyle
  2

 70
    13
 71
     2
 72
     2
 73
     0
 90
        0
 40
-0.6
 41
-30.0
 62
     5
 63
     7
 74
     1
 91
        4
 64
     7
 65
   257
 75
     1
175
     1
 42
1.0
 92
       12
 66
     7
 43
1.0
 76
     1
 77
     6
 78
     2
 67
     7
 79
     5
170
     0
171
     0
290
     0
174
     0
 93
        1
 44
0.0
173
     0
291
     1
 45
0.0
1001
ACAD
1000
AcDbSavedByObjectVersion
1070
     0
  0
VISUALSTYLE
  5
1B2E3
102
{ACAD_XDICTIONARY
360
21ED9
102
}
102
{ACAD_REACTORS
330
318F
102
}
330
318F
100
AcDbVisualStyle
  2

 70
     5
 71
     0
 72
     2
 73
     0
 90
        0
 40
-0.6
 41
-30.0
 62
     5
 63
     7
 74
     1
 91
        4
 64
     7
 65
   257
 75
     1
175
     1
 42
1.0
 92
        0
 66
   257
 43
1.0
 76
     1
 77
     6
 78
     2
 67
     7
 79
     3
170
     0
171
     0
290
     0
174
     0
 93
        1
 44
0.0
173
     0
291
     0
 45
0.0
1001
ACAD
1000
AcDbSavedByObjectVersion
1070
     0
  0
VISUALSTYLE
  5
1B2E7
102
{ACAD_XDICTIONARY
360
21EE1
102
}
102
{ACAD_REACTORS
330
318F
102
}
330
318F
100
AcDbVisualStyle
  2

 70
    25
 71
     2
 72
     2
 73
     1
 90
        1
 40
0.5
 41
-30.0
 62
     5
 63
     7
 74
     1
 91
        0
 64
     7
 65
   257
 75
     1
175
     1
 42
1.0
 92
        8
 66
     7
 43
1.0
 76
     1
 77
     6
 78
     2
 67
     7
 79
     3
170
     0
171
     0
290
     0
174
     0
 93
       13
 44
0.0
173
     0
291
     0
 45
0.0
1001
ACAD
1000
AcDbSavedByObjectVersion
1070
     0
  0
DICTIONARYVAR
  5
1B222
102
{ACAD_REACTORS
330
33A3
102
}
330
33A3
100
DictionaryVariables
280
     0
  1
1:1
  0
DICTIONARYVAR
  5
1B30F
102
{ACAD_REACTORS
330
33A3
102
}
330
33A3
100
DictionaryVariables
280
     0
  1
STANDARD
  0
DICTIONARYVAR
  5
33A4
102
{ACAD_REACTORS
330
33A3
102
}
330
33A3
100
DictionaryVariables
280
     0
  1
STANDARD
  0
DICTIONARYVAR
  5
1B310
102
{ACAD_REACTORS
330
33A3
102
}
330
33A3
100
DictionaryVariables
280
     0
  1
Metric50
  0
DICTIONARYVAR
  5
1B311
102
{ACAD_REACTORS
330
33A3
102
}
330
33A3
100
DictionaryVariables
280
     0
  1
Metric50
  0
DICTIONARYVAR
  5
9BE8
102
{ACAD_REACTORS
330
33A3
102
}
330
33A3
100
DictionaryVariables
280
     0
  1
1
  0
DICTIONARYVAR
  5
9BE7
102
{ACAD_REACTORS
330
33A3
102
}
330
33A3
100
DictionaryVariables
280
     0
  1
0
  0
DICTIONARYVAR
  5
20993
102
{ACAD_REACTORS
330
33A3
102
}
330
33A3
100
DictionaryVariables
280
     0
  1
1
  0
DICTIONARYVAR
  5
20994
102
{ACAD_REACTORS
330
33A3
102
}
330
33A3
100
DictionaryVariables
280
     0
  1
15
  0
DICTIONARYVAR
  5
20992
102
{ACAD_REACTORS
330
33A3
102
}
330
33A3
100
DictionaryVariables
280
     0
  1
0
  0
DICTIONARYVAR
  5
20991
102
{ACAD_REACTORS
330
33A3
102
}
330
33A3
100
DictionaryVariables
280
     0
  1
0
  0
DICTIONARYVAR
  5
9BE6
102
{ACAD_REACTORS
330
33A3
102
}
330
33A3
100
DictionaryVariables
280
     0
  1
127
  0
DICTIONARYVAR
  5
1FAAB
102
{ACAD_REACTORS
330
33A3
102
}
330
33A3
100
DictionaryVariables
280
     0
  1
2
  0
DICTIONARY
  5
21EB0
102
{ACAD_REACTORS
330
21EAE
102
}
330
21EAE
100
AcDbDictionary
281
     1
  0
DICTIONARY
  5
21EAF
102
{ACAD_REACTORS
330
21EAE
102
}
330
21EAE
100
AcDbDictionary
281
     1
  3
8796087570192
350
21EA9
  3
8796087570208
350
21EAA
  3
8796087570224
350
21EAB
  3
8796087570240
350
21EAC
  3
8796087570256
350
21EAD
  0
XRECORD
  5
21EF0
102
{ACAD_REACTORS
330
21EEF
102
}
330
21EEF
100
AcDbXrecord
280
     1
1070
     0
1070
     1
1070
     1
  0
XRECORD
  5
21EF6
102
{ACAD_REACTORS
330
21EF5
102
}
330
21EF5
100
AcDbXrecord
280
     1
1070
     0
1070
     1
1070
     1
  0
FIELD
  5
21E3B
102
{ACAD_REACTORS
330
21E3A
102
}
330
21E3A
100
AcDbField
  1
_text
  2
%<\_FldIdx 0>%
 90
        1
360
21E3C
 97
        0
  4

 91
       63
 92
        0
 94
        9
 95
        2
 96
        0
300

 93
        2
  6
ACFD_FIELDTEXT_ATTDEF
 90
        1
 91
        1
  6
ACFD_FIELDTEXT_CHECKSUM
 90
        2
140
8067.0
  7
ACFD_FIELD_VALUE
 90
        0
 91
        0
301

 98
        0
  0
FIELD
  5
21E52
102
{ACAD_REACTORS
330
21E51
102
}
330
21E51
100
AcDbField
  1
_text
  2
%<\_FldIdx 0>%
 90
        1
360
21E53
 97
        0
  4

 91
       63
 92
        0
 94
        9
 95
        2
 96
        0
300

 93
        1
  6
ACFD_FIELDTEXT_CHECKSUM
 90
        2
140
8067.0
  7
ACFD_FIELD_VALUE
 90
        0
 91
        0
301

 98
        0
  0
DICTIONARY
  5
20CB4
330
20CB3
100
AcDbDictionary
280
     1
281
     1
  3
ACAD_XREC_ROUNDTRIP
360
21EF4
  0
DICTIONARY
  5
2098E
330
1B2F1
100
AcDbDictionary
280
     1
281
     1
  3
ACAD_XREC_ROUNDTRIP
360
21EEE
  0
DICTIONARY
  5
9C07
330
31A7
100
AcDbDictionary
280
     1
281
     1
  3
ACAD_XREC_ROUNDTRIP
360
21ED4
  0
DICTIONARY
  5
21ED2
330
31A6
100
AcDbDictionary
280
     1
281
     1
  3
ACAD_XREC_ROUNDTRIP
360
21ED3
  0
DICTIONARY
  5
1B22B
330
318D
100
AcDbDictionary
280
     1
281
     1
  3
ACAD_XREC_ROUNDTRIP
360
1B22C
  0
DICTIONARY
  5
1B22D
330
318C
100
AcDbDictionary
280
     1
281
     1
  3
ACAD_XREC_ROUNDTRIP
360
1B22E
  0
DICTIONARY
  5
1B22F
330
318E
100
AcDbDictionary
280
     1
281
     1
  3
ACAD_XREC_ROUNDTRIP
360
1B230
  0
DICTIONARY
  5
20CB2
330
20CB1
100
AcDbDictionary
280
     1
281
     1
  3
ACAD_XREC_ROUNDTRIP
360
21EF3
  0
DICTIONARY
  5
2098C
330
1B2EF
100
AcDbDictionary
280
     1
281
     1
  3
ACAD_XREC_ROUNDTRIP
360
21EED
  0
DICTIONARY
  5
1B314
330
31A2
100
AcDbDictionary
280
     1
281
     1
  3
ACAD_ROUNDTRIP_2008_TABLESTYLE_CELLSTYLEMAP
360
21EA6
  3
ACAD_XREC_ROUNDTRIP
360
21ED1
  0
DICTIONARY
  5
21EBB
330
3195
100
AcDbDictionary
280
     1
281
     1
  3
ACAD_XREC_ROUNDTRIP
360
21EBC
  0
DICTIONARY
  5
21EBF
330
3197
100
AcDbDictionary
280
     1
281
     1
  3
ACAD_XREC_ROUNDTRIP
360
21EC0
  0
DICTIONARY
  5
21EBD
330
3196
100
AcDbDictionary
280
     1
281
     1
  3
ACAD_XREC_ROUNDTRIP
360
21EBE
  0
DICTIONARY
  5
21EB9
330
3194
100
AcDbDictionary
280
     1
281
     1
  3
ACAD_XREC_ROUNDTRIP
360
21EBA
  0
DICTIONARY
  5
21EC7
330
319B
100
AcDbDictionary
280
     1
281
     1
  3
ACAD_XREC_ROUNDTRIP
360
21EC8
  0
DICTIONARY
  5
21ECF
330
319F
100
AcDbDictionary
280
     1
281
     1
  3
ACAD_XREC_ROUNDTRIP
360
21ED0
  0
DICTIONARY
  5
21EC1
330
3198
100
AcDbDictionary
280
     1
281
     1
  3
ACAD_XREC_ROUNDTRIP
360
21EC2
  0
DICTIONARY
  5
21EC5
330
319A
100
AcDbDictionary
280
     1
281
     1
  3
ACAD_XREC_ROUNDTRIP
360
21EC6
  0
DICTIONARY
  5
21EEB
330
1B2EC
100
AcDbDictionary
280
     1
281
     1
  3
ACAD_XREC_ROUNDTRIP
360
21EEC
  0
DICTIONARY
  5
21ECD
330
319E
100
AcDbDictionary
280
     1
281
     1
  3
ACAD_XREC_ROUNDTRIP
360
21ECE
  0
DICTIONARY
  5
21EB1
330
3190
100
AcDbDictionary
280
     1
281
     1
  3
ACAD_XREC_ROUNDTRIP
360
21EB2
  0
DICTIONARY
  5
21EB3
330
3191
100
AcDbDictionary
280
     1
281
     1
  3
ACAD_XREC_ROUNDTRIP
360
21EB4
  0
DICTIONARY
  5
21EB5
330
3192
100
AcDbDictionary
280
     1
281
     1
  3
ACAD_XREC_ROUNDTRIP
360
21EB6
  0
DICTIONARY
  5
21EB7
330
3193
100
AcDbDictionary
280
     1
281
     1
  3
ACAD_XREC_ROUNDTRIP
360
21EB8
  0
DICTIONARY
  5
21EDB
330
1B2E4
100
AcDbDictionary
280
     1
281
     1
  3
ACAD_XREC_ROUNDTRIP
360
21EDC
  0
DICTIONARY
  5
21EE7
330
1B2EA
100
AcDbDictionary
280
     1
281
     1
  3
ACAD_XREC_ROUNDTRIP
360
21EE8
  0
DICTIONARY
  5
21ECB
330
319D
100
AcDbDictionary
280
     1
281
     1
  3
ACAD_XREC_ROUNDTRIP
360
21ECC
  0
DICTIONARY
  5
21EE9
330
1B2EB
100
AcDbDictionary
280
     1
281
     1
  3
ACAD_XREC_ROUNDTRIP
360
21EEA
  0
DICTIONARY
  5
21EC3
330
3199
100
AcDbDictionary
280
     1
281
     1
  3
ACAD_XREC_ROUNDTRIP
360
21EC4
  0
DICTIONARY
  5
21EE5
330
1B2E9
100
AcDbDictionary
280
     1
281
     1
  3
ACAD_XREC_ROUNDTRIP
360
21EE6
  0
DICTIONARY
  5
21EE3
330
1B2E8
100
AcDbDictionary
280
     1
281
     1
  3
ACAD_XREC_ROUNDTRIP
360
21EE4
  0
DICTIONARY
  5
21EDD
330
1B2E5
100
AcDbDictionary
280
     1
281
     1
  3
ACAD_XREC_ROUNDTRIP
360
21EDE
  0
DICTIONARY
  5
21EDF
330
1B2E6
100
AcDbDictionary
280
     1
281
     1
  3
ACAD_XREC_ROUNDTRIP
360
21EE0
  0
DICTIONARY
  5
21EC9
330
319C
100
AcDbDictionary
280
     1
281
     1
  3
ACAD_XREC_ROUNDTRIP
360
21ECA
  0
DICTIONARY
  5
21ED9
330
1B2E3
100
AcDbDictionary
280
     1
281
     1
  3
ACAD_XREC_ROUNDTRIP
360
21EDA
  0
DICTIONARY
  5
21EE1
330
1B2E7
100
AcDbDictionary
280
     1
281
     1
  3
ACAD_XREC_ROUNDTRIP
360
21EE2
  0
XRECORD
  5
21EA9
102
{ACAD_REACTORS
330
21EAF
102
}
330
21EAF
100
AcDbXrecord
280
     1
  1
AcDb_Thumbnail_Schema
102
{ATTRRECORD
341
21EAA
  2
AcDbDs::TreatedAsObjectData
280
     1
291
     1
102
ATTRRECORD}
102
{ATTRRECORD
341
21EAB
  2
AcDbDs::Legacy
280
     1
291
     1
102
ATTRRECORD}
  2
AcDbDs::ID
280
    10
 91
        8
102
{ATTRRECORD
341
21EAC
  2
AcDs:Indexable
280
     1
291
     1
102
ATTRRECORD}
102
{ATTRRECORD
341
21EAD
  2
AcDbDs::HandleAttribute
280
     7
282
     1
102
ATTRRECORD}
  2
Thumbnail_Data
280
    15
 91
        0
  0
XRECORD
  5
21EAA
102
{ACAD_REACTORS
330
21EAF
102
}
330
21EAF
100
AcDbXrecord
280
     1
  1
AcDbDs::TreatedAsObjectDataSchema
  2
AcDbDs::TreatedAsObjectData
280
     1
 91
        0
  0
XRECORD
  5
21EAB
102
{ACAD_REACTORS
330
21EAF
102
}
330
21EAF
100
AcDbXrecord
280
     1
  1
AcDbDs::LegacySchema
  2
AcDbDs::Legacy
280
     1
 91
        0
  0
XRECORD
  5
21EAC
102
{ACAD_REACTORS
330
21EAF
102
}
330
21EAF
100
AcDbXrecord
280
     1
  1
AcDbDs::IndexedPropertySchema
  2
AcDs:Indexable
280
     1
 91
        0
  0
XRECORD
  5
21EAD
102
{ACAD_REACTORS
330
21EAF
102
}
330
21EAF
100
AcDbXrecord
280
     1
  1
AcDbDs::HandleAttributeSchema
  2
AcDbDs::HandleAttribute
280
     7
 91
        1
284
     1
  0
FIELD
  5
21E3C
330
21E3B
100
AcDbField
  1
AcVar
  2
\AcVar Filename \f "%tc1%fn2"
 90
        0
 97
        0
  4
%tc1%fn2
 91
       63
 92
        0
 94
       59
 95
        2
 96
        0
300

 93
        1
  6
Variable
 90
        4
  1
Filename
  7
ACFD_FIELD_VALUE
 90
        4
  1
S:\BenderA\DXF_CIM\1TW\1TW7K025035X7R00.dxf
301
1TW7K025035X7R00
 98
       16
  0
FIELD
  5
21E53
330
21E52
100
AcDbField
  1
AcVar
  2
\AcVar Filename \f "%tc1%fn2"
 90
        0
 97
        0
  4
%tc1%fn2
 91
       63
 92
        0
 94
       59
 95
        2
 96
        0
300

 93
        1
  6
Variable
 90
        4
  1
Filename
  7
ACFD_FIELD_VALUE
 90
        4
  1
S:\BenderA\DXF_CIM\1TW\1TW7K025035X7R00.dxf
301
1TW7K025035X7R00
 98
       16
  0
XRECORD
  5
21EF4
102
{ACAD_REACTORS
330
20CB4
102
}
330
20CB4
100
AcDbXrecord
280
     1
102
DISPLAYNAME
  1
Imperial24
102
FLAGS
 90
        0
  0
XRECORD
  5
21EEE
102
{ACAD_REACTORS
330
2098E
102
}
330
2098E
100
AcDbXrecord
280
     1
102
DISPLAYNAME
  1
Metric50
102
FLAGS
 90
        0
  0
XRECORD
  5
21ED4
102
{ACAD_REACTORS
330
9C07
102
}
330
9C07
100
AcDbXrecord
280
     1
102
SHADEPLOT
 70
     0
102
SHADEPLOTRESLEVEL
 70
     2
102
SHADEPLOTCUSTOMDPI
 70
   300
  0
XRECORD
  5
21ED3
102
{ACAD_REACTORS
330
21ED2
102
}
330
21ED2
100
AcDbXrecord
280
     1
102
SHADEPLOT
 70
     0
102
SHADEPLOTRESLEVEL
 70
     2
102
SHADEPLOTCUSTOMDPI
 70
   300
  0
XRECORD
  5
1B22C
102
{ACAD_REACTORS
330
1B22B
102
}
330
1B22B
100
AcDbXrecord
280
     1
102
MATERIAL
148
0.0
149
0.0
149
0.0
 93
        0
 94
      127
282
     0
 72
     1
 77
     1
171
     1
175
     1
179
     1
273
     0
  0
XRECORD
  5
1B22E
102
{ACAD_REACTORS
330
1B22D
102
}
330
1B22D
100
AcDbXrecord
280
     1
102
MATERIAL
148
0.0
149
0.0
149
0.0
 93
        0
 94
      127
282
     0
 72
     1
 77
     1
171
     1
175
     1
179
     1
273
     0
  0
XRECORD
  5
1B230
102
{ACAD_REACTORS
330
1B22F
102
}
330
1B22F
100
AcDbXrecord
280
     1
102
MATERIAL
148
0.0
149
0.0
149
0.0
 93
        0
 94
      127
282
     0
 72
     1
 77
     1
171
     1
175
     1
179
     1
273
     0
  0
XRECORD
  5
21EF3
102
{ACAD_REACTORS
330
20CB2
102
}
330
20CB2
100
AcDbXrecord
280
     1
102
DISPLAYNAME
  1
Imperial24
102
FLAGS
 90
        0
  0
XRECORD
  5
21EED
102
{ACAD_REACTORS
330
2098C
102
}
330
2098C
100
AcDbXrecord
280
     1
102
DISPLAYNAME
  1
Metric50
102
FLAGS
 90
        0
  0
CELLSTYLEMAP
  5
21EA6
102
{ACAD_REACTORS
330
1B314
102
}
330
1B314
100
AcDbCellStyleMap
 90
        3
300
CELLSTYLE
  1
TABLEFORMAT_BEGIN
 90
        5
170
     1
 91
        0
 92
    32768
 62
   257
 93
        1
300
CONTENTFORMAT
  1
CONTENTFORMAT_BEGIN
 90
        0
 91
        0
 92
        4
 93
        0
300

 40
0.0
140
1.0
 94
        5
 62
     0
340
11
144
6.0
309
CONTENTFORMAT_END
171
     1
301
MARGIN
  1
CELLMARGIN_BEGIN
 40
1.5
 40
1.5
 40
1.5
 40
1.5
 40
0.18
 40
0.18
309
CELLMARGIN_END
 94
        6
 95
        1
302
GRIDFORMAT
  1
GRIDFORMAT_BEGIN
 90
        0
 91
        1
 62
     0
 92
       -2
340
0
 93
        0
 40
0.045
309
GRIDFORMAT_END
 95
        2
302
GRIDFORMAT
  1
GRIDFORMAT_BEGIN
 90
        0
 91
        1
 62
     0
 92
       -2
340
0
 93
        0
 40
0.045
309
GRIDFORMAT_END
 95
        4
302
GRIDFORMAT
  1
GRIDFORMAT_BEGIN
 90
        0
 91
        1
 62
     0
 92
       -2
340
0
 93
        0
 40
0.045
309
GRIDFORMAT_END
 95
        8
302
GRIDFORMAT
  1
GRIDFORMAT_BEGIN
 90
        0
 91
        1
 62
     0
 92
       -2
340
0
 93
        0
 40
0.045
309
GRIDFORMAT_END
 95
       16
302
GRIDFORMAT
  1
GRIDFORMAT_BEGIN
 90
        0
 91
        1
 62
     0
 92
       -2
340
0
 93
        0
 40
0.045
309
GRIDFORMAT_END
 95
       32
302
GRIDFORMAT
  1
GRIDFORMAT_BEGIN
 90
        0
 91
        1
 62
     0
 92
       -2
340
0
 93
        0
 40
0.045
309
GRIDFORMAT_END
309
TABLEFORMAT_END
  1
CELLSTYLE_BEGIN
 90
        1
 91
        1
300
_TITLE
309
CELLSTYLE_END
300
CELLSTYLE
  1
TABLEFORMAT_BEGIN
 90
        5
170
     1
 91
        0
 92
        0
 62
   257
 93
        1
300
CONTENTFORMAT
  1
CONTENTFORMAT_BEGIN
 90
        0
 91
        0
 92
        4
 93
        0
300

 40
0.0
140
1.0
 94
        5
 62
     0
340
11
144
4.5
309
CONTENTFORMAT_END
171
     1
301
MARGIN
  1
CELLMARGIN_BEGIN
 40
1.5
 40
1.5
 40
1.5
 40
1.5
 40
0.18
 40
0.18
309
CELLMARGIN_END
 94
        6
 95
        1
302
GRIDFORMAT
  1
GRIDFORMAT_BEGIN
 90
        0
 91
        1
 62
     0
 92
       -2
340
0
 93
        0
 40
0.045
309
GRIDFORMAT_END
 95
        2
302
GRIDFORMAT
  1
GRIDFORMAT_BEGIN
 90
        0
 91
        1
 62
     0
 92
       -2
340
0
 93
        0
 40
0.045
309
GRIDFORMAT_END
 95
        4
302
GRIDFORMAT
  1
GRIDFORMAT_BEGIN
 90
        0
 91
        1
 62
     0
 92
       -2
340
0
 93
        0
 40
0.045
309
GRIDFORMAT_END
 95
        8
302
GRIDFORMAT
  1
GRIDFORMAT_BEGIN
 90
        0
 91
        1
 62
     0
 92
       -2
340
0
 93
        0
 40
0.045
309
GRIDFORMAT_END
 95
       16
302
GRIDFORMAT
  1
GRIDFORMAT_BEGIN
 90
        0
 91
        1
 62
     0
 92
       -2
340
0
 93
        0
 40
0.045
309
GRIDFORMAT_END
 95
       32
302
GRIDFORMAT
  1
GRIDFORMAT_BEGIN
 90
        0
 91
        1
 62
     0
 92
       -2
340
0
 93
        0
 40
0.045
309
GRIDFORMAT_END
309
TABLEFORMAT_END
  1
CELLSTYLE_BEGIN
 90
        2
 91
        1
300
_HEADER
309
CELLSTYLE_END
300
CELLSTYLE
  1
TABLEFORMAT_BEGIN
 90
        5
170
     1
 91
        0
 92
        0
 62
   257
 93
        1
300
CONTENTFORMAT
  1
CONTENTFORMAT_BEGIN
 90
        0
 91
        0
 92
        4
 93
        0
300

 40
0.0
140
1.0
 94
        2
 62
     0
340
11
144
4.5
309
CONTENTFORMAT_END
171
     1
301
MARGIN
  1
CELLMARGIN_BEGIN
 40
1.5
 40
1.5
 40
1.5
 40
1.5
 40
0.18
 40
0.18
309
CELLMARGIN_END
 94
        6
 95
        1
302
GRIDFORMAT
  1
GRIDFORMAT_BEGIN
 90
        0
 91
        1
 62
     0
 92
       -2
340
0
 93
        0
 40
0.045
309
GRIDFORMAT_END
 95
        2
302
GRIDFORMAT
  1
GRIDFORMAT_BEGIN
 90
        0
 91
        1
 62
     0
 92
       -2
340
0
 93
        0
 40
0.045
309
GRIDFORMAT_END
 95
        4
302
GRIDFORMAT
  1
GRIDFORMAT_BEGIN
 90
        0
 91
        1
 62
     0
 92
       -2
340
0
 93
        0
 40
0.045
309
GRIDFORMAT_END
 95
        8
302
GRIDFORMAT
  1
GRIDFORMAT_BEGIN
 90
        0
 91
        1
 62
     0
 92
       -2
340
0
 93
        0
 40
0.045
309
GRIDFORMAT_END
 95
       16
302
GRIDFORMAT
  1
GRIDFORMAT_BEGIN
 90
        0
 91
        1
 62
     0
 92
       -2
340
0
 93
        0
 40
0.045
309
GRIDFORMAT_END
 95
       32
302
GRIDFORMAT
  1
GRIDFORMAT_BEGIN
 90
        0
 91
        1
 62
     0
 92
       -2
340
0
 93
        0
 40
0.045
309
GRIDFORMAT_END
309
TABLEFORMAT_END
  1
CELLSTYLE_BEGIN
 90
        3
 91
        2
300
_DATA
309
CELLSTYLE_END
  0
XRECORD
  5
21ED1
102
{ACAD_REACTORS
330
1B314
102
}
330
1B314
100
AcDbXrecord
280
     1
102
ACAD_ROUNDTRIP_PRE2007_TABLESTYLE
 90
        4
 91
        0
  1

 92
        4
 93
        0
  2

 94
        4
 95
        0
  3

  0
XRECORD
  5
21EBC
102
{ACAD_REACTORS
330
21EBB
102
}
330
21EBB
100
AcDbXrecord
280
     1
102
RTVSPost2010Prop28
280
     1
102
RTVSPost2010PropOp28
 70
     1
102
RTVSPost2010Prop29
280
     1
102
RTVSPost2010PropOp29
 70
     1
102
RTVSPost2010Prop30
280
     0
102
RTVSPost2010PropOp30
 70
     1
102
RTVSPost2010Prop31
280
     0
102
RTVSPost2010PropOp31
 70
     1
102
RTVSPost2010Prop32
280
     0
102
RTVSPost2010PropOp32
 70
     1
102
RTVSPost2010Prop33
280
     0
102
RTVSPost2010PropOp33
 70
     1
102
RTVSPost2010Prop34
280
     0
102
RTVSPost2010PropOp34
 70
     1
102
RTVSPost2010Prop35
280
     0
102
RTVSPost2010PropOp35
 70
     1
102
RTVSPost2010Prop36
280
     0
102
RTVSPost2010PropOp36
 70
     1
102
RTVSPost2010Prop37
 90
       50
102
RTVSPost2010PropOp37
 70
     1
102
RTVSPost2010Prop38
140
0.0
102
RTVSPost2010PropOp38
 70
     1
102
RTVSPost2010Prop39
140
1.0
102
RTVSPost2010PropOp39
 70
     1
102
RTVSPost2010Prop40
 90
        0
102
RTVSPost2010PropOp40
 70
     1
102
RTVSPost2010Prop41ColorIndex
 90
       18
102
RTVSPost2010Prop41ColorRGB
 90
        0
102
RTVSPost2010PropOp41
 70
     1
102
RTVSPost2010Prop42
 90
       50
102
RTVSPost2010PropOp42
 70
     1
102
RTVSPost2010Prop43
 90
        3
102
RTVSPost2010PropOp43
 70
     1
102
RTVSPost2010Prop44ColorIndex
 90
        5
102
RTVSPost2010Prop44ColorRGB
 90
      255
102
RTVSPost2010PropOp44
 70
     1
102
RTVSPost2010Prop45
280
     0
102
RTVSPost2010PropOp45
 70
     1
102
RTVSPost2010Prop46
 90
       50
102
RTVSPost2010PropOp46
 70
     1
102
RTVSPost2010Prop47
 90
       50
102
RTVSPost2010PropOp47
 70
     1
102
RTVSPost2010Prop48
 90
       50
102
RTVSPost2010PropOp48
 70
     1
102
RTVSPost2010Prop49
280
     0
102
RTVSPost2010PropOp49
 70
     1
102
RTVSPost2010Prop50
 90
       50
102
RTVSPost2010PropOp50
 70
     1
102
RTVSPost2010Prop51ColorIndex
 90
      256
102
RTVSPost2010Prop51ColorRGB
 90
-16777216
102
RTVSPost2010PropOp51
 70
     0
102
RTVSPost2010Prop52
140
1.0
102
RTVSPost2010PropOp52
 70
     0
102
RTVSPost2010Prop53
 90
        2
102
RTVSPost2010PropOp53
 70
     1
102
RTVSPost2010Prop54
  1
strokes_ogs.tif
102
RTVSPost2010PropOp54
 70
     1
102
RTVSPost2010Prop55
280
     0
102
RTVSPost2010PropOp55
 70
     1
102
RTVSPost2010Prop56
140
1.0
102
RTVSPost2010PropOp56
 70
     1
102
RTVSPost2010Prop57
140
1.0
102
RTVSPost2010PropOp57
 70
     1
102
RTVSPropertyOp0
 70
     1
102
RTVSPropertyOp1
 70
     1
102
RTVSPropertyOp2
 70
     1
102
RTVSPropertyOp3
 70
     1
102
RTVSPropertyOp4
 70
     1
102
RTVSPropertyOp5
 70
     1
102
RTVSPropertyOp6
 70
     1
102
RTVSPropertyOp7
 70
     1
102
RTVSPropertyOp8
 70
     1
102
RTVSPropertyOp9
 70
     1
102
RTVSPropertyOp10
 70
     1
102
RTVSPropertyOp11
 70
     1
102
RTVSPropertyOp12
 70
     1
102
RTVSPropertyOp13
 70
     1
102
RTVSPropertyOp14
 70
     1
102
RTVSPropertyOp15
 70
     1
102
RTVSPropertyOp16
 70
     1
102
RTVSPropertyOp17
 70
     1
102
RTVSPropertyOp18
 70
     1
102
RTVSPropertyOp19
 70
     1
102
RTVSPropertyOp20
 70
     1
102
RTVSPropertyOp21
 70
     1
102
RTVSPropertyOp22
 70
     1
102
RTVSPropertyOp23
 70
     1
102
RTVSPropertyOp24
 70
     1
102
RTVSPropertyOp25
 70
     1
102
RTVSPropertyOp26
 70
     1
102
RTVSPropertyOp27
 70
     1
102
RTVSPropertyOp28
 70
     1
102
RTVSPropertyOp29
 70
     1
102
RTVSPropertyOp30
 70
     1
102
RTVSPropertyOp31
 70
     1
102
RTVSPropertyOp32
 70
     1
102
RTVSPropertyOp33
 70
     1
102
RTVSPropertyOp34
 70
     1
102
RTVSPropertyOp35
 70
     1
102
RTVSPropertyOp36
 70
     1
102
RTVSPropertyOp37
 70
     1
102
RTVSPropertyOp38
 70
     1
102
RTVSPropertyOp39
 70
     1
102
RTVSPropertyOp40
 70
     1
102
RTVSPropertyOp41
 70
     1
102
RTVSPropertyOp42
 70
     1
102
RTVSPropertyOp43
 70
     1
102
RTVSPropertyOp44
 70
     1
102
RTVSPropertyOp45
 70
     1
102
RTVSPropertyOp46
 70
     1
102
RTVSPropertyOp47
 70
     1
102
RTVSPropertyOp48
 70
     1
102
RTVSPropertyOp49
 70
     1
102
RTVSPropertyOp50
 70
     1
102
RTVSPropertyOp51
 70
     0
102
RTVSPropertyOp52
 70
     0
102
RTVSPropertyOp53
 70
     1
102
RTVSPropertyOp54
 70
     1
102
RTVSPropertyOp55
 70
     1
102
RTVSPropertyOp56
 70
     1
102
RTVSPropertyOp57
 70
     1
102
RTVSPropertyOp58
 70
     1
102
RTVSPropertyOp59
 70
     1
102
RTVSPropertyOp60
 70
     1
102
RTVSPropertyOp61
 70
     1
102
RTVSPropertyOp62
 70
     1
  0
XRECORD
  5
21EC0
102
{ACAD_REACTORS
330
21EBF
102
}
330
21EBF
100
AcDbXrecord
280
     1
102
RTVSPost2010Prop28
280
     0
102
RTVSPost2010PropOp28
 70
     1
102
RTVSPost2010Prop29
280
     1
102
RTVSPost2010PropOp29
 70
     1
102
RTVSPost2010Prop30
280
     1
102
RTVSPost2010PropOp30
 70
     1
102
RTVSPost2010Prop31
280
     0
102
RTVSPost2010PropOp31
 70
     1
102
RTVSPost2010Prop32
280
     0
102
RTVSPost2010PropOp32
 70
     1
102
RTVSPost2010Prop33
280
     0
102
RTVSPost2010PropOp33
 70
     1
102
RTVSPost2010Prop34
280
     0
102
RTVSPost2010PropOp34
 70
     1
102
RTVSPost2010Prop35
280
     0
102
RTVSPost2010PropOp35
 70
     1
102
RTVSPost2010Prop36
280
     0
102
RTVSPost2010PropOp36
 70
     1
102
RTVSPost2010Prop37
 90
       50
102
RTVSPost2010PropOp37
 70
     1
102
RTVSPost2010Prop38
140
0.0
102
RTVSPost2010PropOp38
 70
     1
102
RTVSPost2010Prop39
140
1.0
102
RTVSPost2010PropOp39
 70
     1
102
RTVSPost2010Prop40
 90
        0
102
RTVSPost2010PropOp40
 70
     1
102
RTVSPost2010Prop41ColorIndex
 90
       18
102
RTVSPost2010Prop41ColorRGB
 90
        0
102
RTVSPost2010PropOp41
 70
     1
102
RTVSPost2010Prop42
 90
       50
102
RTVSPost2010PropOp42
 70
     1
102
RTVSPost2010Prop43
 90
        3
102
RTVSPost2010PropOp43
 70
     1
102
RTVSPost2010Prop44ColorIndex
 90
        5
102
RTVSPost2010Prop44ColorRGB
 90
      255
102
RTVSPost2010PropOp44
 70
     1
102
RTVSPost2010Prop45
280
     0
102
RTVSPost2010PropOp45
 70
     1
102
RTVSPost2010Prop46
 90
       50
102
RTVSPost2010PropOp46
 70
     1
102
RTVSPost2010Prop47
 90
       50
102
RTVSPost2010PropOp47
 70
     1
102
RTVSPost2010Prop48
 90
       50
102
RTVSPost2010PropOp48
 70
     1
102
RTVSPost2010Prop49
280
     0
102
RTVSPost2010PropOp49
 70
     1
102
RTVSPost2010Prop50
 90
       50
102
RTVSPost2010PropOp50
 70
     1
102
RTVSPost2010Prop51ColorIndex
 90
      256
102
RTVSPost2010Prop51ColorRGB
 90
-16777216
102
RTVSPost2010PropOp51
 70
     0
102
RTVSPost2010Prop52
140
1.0
102
RTVSPost2010PropOp52
 70
     0
102
RTVSPost2010Prop53
 90
        2
102
RTVSPost2010PropOp53
 70
     1
102
RTVSPost2010Prop54
  1
strokes_ogs.tif
102
RTVSPost2010PropOp54
 70
     1
102
RTVSPost2010Prop55
280
     0
102
RTVSPost2010PropOp55
 70
     1
102
RTVSPost2010Prop56
140
1.0
102
RTVSPost2010PropOp56
 70
     1
102
RTVSPost2010Prop57
140
1.0
102
RTVSPost2010PropOp57
 70
     1
102
RTVSPropertyOp0
 70
     1
102
RTVSPropertyOp1
 70
     1
102
RTVSPropertyOp2
 70
     1
102
RTVSPropertyOp3
 70
     1
102
RTVSPropertyOp4
 70
     1
102
RTVSPropertyOp5
 70
     1
102
RTVSPropertyOp6
 70
     1
102
RTVSPropertyOp7
 70
     1
102
RTVSPropertyOp8
 70
     1
102
RTVSPropertyOp9
 70
     1
102
RTVSPropertyOp10
 70
     1
102
RTVSPropertyOp11
 70
     1
102
RTVSPropertyOp12
 70
     1
102
RTVSPropertyOp13
 70
     1
102
RTVSPropertyOp14
 70
     1
102
RTVSPropertyOp15
 70
     1
102
RTVSPropertyOp16
 70
     1
102
RTVSPropertyOp17
 70
     1
102
RTVSPropertyOp18
 70
     1
102
RTVSPropertyOp19
 70
     1
102
RTVSPropertyOp20
 70
     1
102
RTVSPropertyOp21
 70
     1
102
RTVSPropertyOp22
 70
     1
102
RTVSPropertyOp23
 70
     1
102
RTVSPropertyOp24
 70
     1
102
RTVSPropertyOp25
 70
     1
102
RTVSPropertyOp26
 70
     1
102
RTVSPropertyOp27
 70
     1
102
RTVSPropertyOp28
 70
     1
102
RTVSPropertyOp29
 70
     1
102
RTVSPropertyOp30
 70
     1
102
RTVSPropertyOp31
 70
     1
102
RTVSPropertyOp32
 70
     1
102
RTVSPropertyOp33
 70
     1
102
RTVSPropertyOp34
 70
     1
102
RTVSPropertyOp35
 70
     1
102
RTVSPropertyOp36
 70
     1
102
RTVSPropertyOp37
 70
     1
102
RTVSPropertyOp38
 70
     1
102
RTVSPropertyOp39
 70
     1
102
RTVSPropertyOp40
 70
     1
102
RTVSPropertyOp41
 70
     1
102
RTVSPropertyOp42
 70
     1
102
RTVSPropertyOp43
 70
     1
102
RTVSPropertyOp44
 70
     1
102
RTVSPropertyOp45
 70
     1
102
RTVSPropertyOp46
 70
     1
102
RTVSPropertyOp47
 70
     1
102
RTVSPropertyOp48
 70
     1
102
RTVSPropertyOp49
 70
     1
102
RTVSPropertyOp50
 70
     1
102
RTVSPropertyOp51
 70
     0
102
RTVSPropertyOp52
 70
     0
102
RTVSPropertyOp53
 70
     1
102
RTVSPropertyOp54
 70
     1
102
RTVSPropertyOp55
 70
     1
102
RTVSPropertyOp56
 70
     1
102
RTVSPropertyOp57
 70
     1
102
RTVSPropertyOp58
 70
     1
102
RTVSPropertyOp59
 70
     1
102
RTVSPropertyOp60
 70
     1
102
RTVSPropertyOp61
 70
     1
102
RTVSPropertyOp62
 70
     1
  0
XRECORD
  5
21EBE
102
{ACAD_REACTORS
330
21EBD
102
}
330
21EBD
100
AcDbXrecord
280
     1
102
RTVSPost2010Prop28
280
     0
102
RTVSPost2010PropOp28
 70
     1
102
RTVSPost2010Prop29
280
     1
102
RTVSPost2010PropOp29
 70
     1
102
RTVSPost2010Prop30
280
     1
102
RTVSPost2010PropOp30
 70
     1
102
RTVSPost2010Prop31
280
     0
102
RTVSPost2010PropOp31
 70
     1
102
RTVSPost2010Prop32
280
     0
102
RTVSPost2010PropOp32
 70
     1
102
RTVSPost2010Prop33
280
     0
102
RTVSPost2010PropOp33
 70
     1
102
RTVSPost2010Prop34
280
     0
102
RTVSPost2010PropOp34
 70
     1
102
RTVSPost2010Prop35
280
     0
102
RTVSPost2010PropOp35
 70
     1
102
RTVSPost2010Prop36
280
     0
102
RTVSPost2010PropOp36
 70
     1
102
RTVSPost2010Prop37
 90
       50
102
RTVSPost2010PropOp37
 70
     1
102
RTVSPost2010Prop38
140
0.0
102
RTVSPost2010PropOp38
 70
     1
102
RTVSPost2010Prop39
140
1.0
102
RTVSPost2010PropOp39
 70
     1
102
RTVSPost2010Prop40
 90
        0
102
RTVSPost2010PropOp40
 70
     1
102
RTVSPost2010Prop41ColorIndex
 90
       18
102
RTVSPost2010Prop41ColorRGB
 90
        0
102
RTVSPost2010PropOp41
 70
     1
102
RTVSPost2010Prop42
 90
       50
102
RTVSPost2010PropOp42
 70
     1
102
RTVSPost2010Prop43
 90
        3
102
RTVSPost2010PropOp43
 70
     1
102
RTVSPost2010Prop44ColorIndex
 90
        5
102
RTVSPost2010Prop44ColorRGB
 90
      255
102
RTVSPost2010PropOp44
 70
     1
102
RTVSPost2010Prop45
280
     0
102
RTVSPost2010PropOp45
 70
     1
102
RTVSPost2010Prop46
 90
       50
102
RTVSPost2010PropOp46
 70
     1
102
RTVSPost2010Prop47
 90
       50
102
RTVSPost2010PropOp47
 70
     1
102
RTVSPost2010Prop48
 90
       50
102
RTVSPost2010PropOp48
 70
     1
102
RTVSPost2010Prop49
280
     0
102
RTVSPost2010PropOp49
 70
     1
102
RTVSPost2010Prop50
 90
       50
102
RTVSPost2010PropOp50
 70
     1
102
RTVSPost2010Prop51ColorIndex
 90
      256
102
RTVSPost2010Prop51ColorRGB
 90
-16777216
102
RTVSPost2010PropOp51
 70
     0
102
RTVSPost2010Prop52
140
1.0
102
RTVSPost2010PropOp52
 70
     0
102
RTVSPost2010Prop53
 90
        2
102
RTVSPost2010PropOp53
 70
     1
102
RTVSPost2010Prop54
  1
strokes_ogs.tif
102
RTVSPost2010PropOp54
 70
     1
102
RTVSPost2010Prop55
280
     0
102
RTVSPost2010PropOp55
 70
     1
102
RTVSPost2010Prop56
140
1.0
102
RTVSPost2010PropOp56
 70
     1
102
RTVSPost2010Prop57
140
1.0
102
RTVSPost2010PropOp57
 70
     1
102
RTVSPropertyOp0
 70
     1
102
RTVSPropertyOp1
 70
     1
102
RTVSPropertyOp2
 70
     1
102
RTVSPropertyOp3
 70
     1
102
RTVSPropertyOp4
 70
     1
102
RTVSPropertyOp5
 70
     1
102
RTVSPropertyOp6
 70
     1
102
RTVSPropertyOp7
 70
     1
102
RTVSPropertyOp8
 70
     1
102
RTVSPropertyOp9
 70
     1
102
RTVSPropertyOp10
 70
     1
102
RTVSPropertyOp11
 70
     1
102
RTVSPropertyOp12
 70
     1
102
RTVSPropertyOp13
 70
     1
102
RTVSPropertyOp14
 70
     1
102
RTVSPropertyOp15
 70
     1
102
RTVSPropertyOp16
 70
     1
102
RTVSPropertyOp17
 70
     1
102
RTVSPropertyOp18
 70
     1
102
RTVSPropertyOp19
 70
     1
102
RTVSPropertyOp20
 70
     1
102
RTVSPropertyOp21
 70
     1
102
RTVSPropertyOp22
 70
     1
102
RTVSPropertyOp23
 70
     1
102
RTVSPropertyOp24
 70
     1
102
RTVSPropertyOp25
 70
     1
102
RTVSPropertyOp26
 70
     1
102
RTVSPropertyOp27
 70
     1
102
RTVSPropertyOp28
 70
     1
102
RTVSPropertyOp29
 70
     1
102
RTVSPropertyOp30
 70
     1
102
RTVSPropertyOp31
 70
     1
102
RTVSPropertyOp32
 70
     1
102
RTVSPropertyOp33
 70
     1
102
RTVSPropertyOp34
 70
     1
102
RTVSPropertyOp35
 70
     1
102
RTVSPropertyOp36
 70
     1
102
RTVSPropertyOp37
 70
     1
102
RTVSPropertyOp38
 70
     1
102
RTVSPropertyOp39
 70
     1
102
RTVSPropertyOp40
 70
     1
102
RTVSPropertyOp41
 70
     1
102
RTVSPropertyOp42
 70
     1
102
RTVSPropertyOp43
 70
     1
102
RTVSPropertyOp44
 70
     1
102
RTVSPropertyOp45
 70
     1
102
RTVSPropertyOp46
 70
     1
102
RTVSPropertyOp47
 70
     1
102
RTVSPropertyOp48
 70
     1
102
RTVSPropertyOp49
 70
     1
102
RTVSPropertyOp50
 70
     1
102
RTVSPropertyOp51
 70
     0
102
RTVSPropertyOp52
 70
     0
102
RTVSPropertyOp53
 70
     1
102
RTVSPropertyOp54
 70
     1
102
RTVSPropertyOp55
 70
     1
102
RTVSPropertyOp56
 70
     1
102
RTVSPropertyOp57
 70
     1
102
RTVSPropertyOp58
 70
     1
102
RTVSPropertyOp59
 70
     1
102
RTVSPropertyOp60
 70
     1
102
RTVSPropertyOp61
 70
     1
102
RTVSPropertyOp62
 70
     1
  0
XRECORD
  5
21EBA
102
{ACAD_REACTORS
330
21EB9
102
}
330
21EB9
100
AcDbXrecord
280
     1
102
RTVSPost2010Prop28
280
     0
102
RTVSPost2010PropOp28
 70
     1
102
RTVSPost2010Prop29
280
     1
102
RTVSPost2010PropOp29
 70
     1
102
RTVSPost2010Prop30
280
     1
102
RTVSPost2010PropOp30
 70
     1
102
RTVSPost2010Prop31
280
     0
102
RTVSPost2010PropOp31
 70
     1
102
RTVSPost2010Prop32
280
     0
102
RTVSPost2010PropOp32
 70
     1
102
RTVSPost2010Prop33
280
     0
102
RTVSPost2010PropOp33
 70
     1
102
RTVSPost2010Prop34
280
     0
102
RTVSPost2010PropOp34
 70
     1
102
RTVSPost2010Prop35
280
     0
102
RTVSPost2010PropOp35
 70
     1
102
RTVSPost2010Prop36
280
     0
102
RTVSPost2010PropOp36
 70
     1
102
RTVSPost2010Prop37
 90
       50
102
RTVSPost2010PropOp37
 70
     1
102
RTVSPost2010Prop38
140
0.0
102
RTVSPost2010PropOp38
 70
     1
102
RTVSPost2010Prop39
140
1.0
102
RTVSPost2010PropOp39
 70
     1
102
RTVSPost2010Prop40
 90
        0
102
RTVSPost2010PropOp40
 70
     1
102
RTVSPost2010Prop41ColorIndex
 90
       18
102
RTVSPost2010Prop41ColorRGB
 90
        0
102
RTVSPost2010PropOp41
 70
     1
102
RTVSPost2010Prop42
 90
       50
102
RTVSPost2010PropOp42
 70
     1
102
RTVSPost2010Prop43
 90
        3
102
RTVSPost2010PropOp43
 70
     1
102
RTVSPost2010Prop44ColorIndex
 90
        5
102
RTVSPost2010Prop44ColorRGB
 90
      255
102
RTVSPost2010PropOp44
 70
     1
102
RTVSPost2010Prop45
280
     0
102
RTVSPost2010PropOp45
 70
     1
102
RTVSPost2010Prop46
 90
       50
102
RTVSPost2010PropOp46
 70
     1
102
RTVSPost2010Prop47
 90
       50
102
RTVSPost2010PropOp47
 70
     1
102
RTVSPost2010Prop48
 90
       50
102
RTVSPost2010PropOp48
 70
     1
102
RTVSPost2010Prop49
280
     0
102
RTVSPost2010PropOp49
 70
     1
102
RTVSPost2010Prop50
 90
       50
102
RTVSPost2010PropOp50
 70
     1
102
RTVSPost2010Prop51ColorIndex
 90
      256
102
RTVSPost2010Prop51ColorRGB
 90
-16777216
102
RTVSPost2010PropOp51
 70
     0
102
RTVSPost2010Prop52
140
1.0
102
RTVSPost2010PropOp52
 70
     0
102
RTVSPost2010Prop53
 90
        2
102
RTVSPost2010PropOp53
 70
     1
102
RTVSPost2010Prop54
  1
strokes_ogs.tif
102
RTVSPost2010PropOp54
 70
     1
102
RTVSPost2010Prop55
280
     0
102
RTVSPost2010PropOp55
 70
     1
102
RTVSPost2010Prop56
140
1.0
102
RTVSPost2010PropOp56
 70
     1
102
RTVSPost2010Prop57
140
1.0
102
RTVSPost2010PropOp57
 70
     1
102
RTVSPropertyOp0
 70
     1
102
RTVSPropertyOp1
 70
     1
102
RTVSPropertyOp2
 70
     1
102
RTVSPropertyOp3
 70
     1
102
RTVSPropertyOp4
 70
     1
102
RTVSPropertyOp5
 70
     1
102
RTVSPropertyOp6
 70
     1
102
RTVSPropertyOp7
 70
     1
102
RTVSPropertyOp8
 70
     1
102
RTVSPropertyOp9
 70
     1
102
RTVSPropertyOp10
 70
     1
102
RTVSPropertyOp11
 70
     1
102
RTVSPropertyOp12
 70
     1
102
RTVSPropertyOp13
 70
     1
102
RTVSPropertyOp14
 70
     1
102
RTVSPropertyOp15
 70
     1
102
RTVSPropertyOp16
 70
     1
102
RTVSPropertyOp17
 70
     1
102
RTVSPropertyOp18
 70
     1
102
RTVSPropertyOp19
 70
     1
102
RTVSPropertyOp20
 70
     1
102
RTVSPropertyOp21
 70
     1
102
RTVSPropertyOp22
 70
     1
102
RTVSPropertyOp23
 70
     1
102
RTVSPropertyOp24
 70
     1
102
RTVSPropertyOp25
 70
     1
102
RTVSPropertyOp26
 70
     1
102
RTVSPropertyOp27
 70
     1
102
RTVSPropertyOp28
 70
     1
102
RTVSPropertyOp29
 70
     1
102
RTVSPropertyOp30
 70
     1
102
RTVSPropertyOp31
 70
     1
102
RTVSPropertyOp32
 70
     1
102
RTVSPropertyOp33
 70
     1
102
RTVSPropertyOp34
 70
     1
102
RTVSPropertyOp35
 70
     1
102
RTVSPropertyOp36
 70
     1
102
RTVSPropertyOp37
 70
     1
102
RTVSPropertyOp38
 70
     1
102
RTVSPropertyOp39
 70
     1
102
RTVSPropertyOp40
 70
     1
102
RTVSPropertyOp41
 70
     1
102
RTVSPropertyOp42
 70
     1
102
RTVSPropertyOp43
 70
     1
102
RTVSPropertyOp44
 70
     1
102
RTVSPropertyOp45
 70
     1
102
RTVSPropertyOp46
 70
     1
102
RTVSPropertyOp47
 70
     1
102
RTVSPropertyOp48
 70
     1
102
RTVSPropertyOp49
 70
     1
102
RTVSPropertyOp50
 70
     1
102
RTVSPropertyOp51
 70
     0
102
RTVSPropertyOp52
 70
     0
102
RTVSPropertyOp53
 70
     1
102
RTVSPropertyOp54
 70
     1
102
RTVSPropertyOp55
 70
     1
102
RTVSPropertyOp56
 70
     1
102
RTVSPropertyOp57
 70
     1
102
RTVSPropertyOp58
 70
     1
102
RTVSPropertyOp59
 70
     1
102
RTVSPropertyOp60
 70
     1
102
RTVSPropertyOp61
 70
     1
102
RTVSPropertyOp62
 70
     1
  0
XRECORD
  5
21EC8
102
{ACAD_REACTORS
330
21EC7
102
}
330
21EC7
100
AcDbXrecord
280
     1
102
RTVSPost2010Prop28
280
     0
102
RTVSPost2010PropOp28
 70
     1
102
RTVSPost2010Prop29
280
     1
102
RTVSPost2010PropOp29
 70
     1
102
RTVSPost2010Prop30
280
     1
102
RTVSPost2010PropOp30
 70
     1
102
RTVSPost2010Prop31
280
     0
102
RTVSPost2010PropOp31
 70
     1
102
RTVSPost2010Prop32
280
     0
102
RTVSPost2010PropOp32
 70
     1
102
RTVSPost2010Prop33
280
     0
102
RTVSPost2010PropOp33
 70
     1
102
RTVSPost2010Prop34
280
     0
102
RTVSPost2010PropOp34
 70
     1
102
RTVSPost2010Prop35
280
     0
102
RTVSPost2010PropOp35
 70
     1
102
RTVSPost2010Prop36
280
     0
102
RTVSPost2010PropOp36
 70
     1
102
RTVSPost2010Prop37
 90
       50
102
RTVSPost2010PropOp37
 70
     1
102
RTVSPost2010Prop38
140
0.0
102
RTVSPost2010PropOp38
 70
     1
102
RTVSPost2010Prop39
140
1.0
102
RTVSPost2010PropOp39
 70
     1
102
RTVSPost2010Prop40
 90
        0
102
RTVSPost2010PropOp40
 70
     1
102
RTVSPost2010Prop41ColorIndex
 90
       18
102
RTVSPost2010Prop41ColorRGB
 90
        0
102
RTVSPost2010PropOp41
 70
     1
102
RTVSPost2010Prop42
 90
       50
102
RTVSPost2010PropOp42
 70
     1
102
RTVSPost2010Prop43
 90
        3
102
RTVSPost2010PropOp43
 70
     1
102
RTVSPost2010Prop44ColorIndex
 90
        5
102
RTVSPost2010Prop44ColorRGB
 90
      255
102
RTVSPost2010PropOp44
 70
     1
102
RTVSPost2010Prop45
280
     0
102
RTVSPost2010PropOp45
 70
     1
102
RTVSPost2010Prop46
 90
       50
102
RTVSPost2010PropOp46
 70
     1
102
RTVSPost2010Prop47
 90
       50
102
RTVSPost2010PropOp47
 70
     1
102
RTVSPost2010Prop48
 90
       50
102
RTVSPost2010PropOp48
 70
     1
102
RTVSPost2010Prop49
280
     0
102
RTVSPost2010PropOp49
 70
     1
102
RTVSPost2010Prop50
 90
       50
102
RTVSPost2010PropOp50
 70
     1
102
RTVSPost2010Prop51ColorIndex
 90
      256
102
RTVSPost2010Prop51ColorRGB
 90
-16777216
102
RTVSPost2010PropOp51
 70
     0
102
RTVSPost2010Prop52
140
1.0
102
RTVSPost2010PropOp52
 70
     0
102
RTVSPost2010Prop53
 90
        2
102
RTVSPost2010PropOp53
 70
     1
102
RTVSPost2010Prop54
  1
strokes_ogs.tif
102
RTVSPost2010PropOp54
 70
     1
102
RTVSPost2010Prop55
280
     0
102
RTVSPost2010PropOp55
 70
     1
102
RTVSPost2010Prop56
140
1.0
102
RTVSPost2010PropOp56
 70
     1
102
RTVSPost2010Prop57
140
1.0
102
RTVSPost2010PropOp57
 70
     1
102
RTVSPropertyOp0
 70
     1
102
RTVSPropertyOp1
 70
     1
102
RTVSPropertyOp2
 70
     1
102
RTVSPropertyOp3
 70
     1
102
RTVSPropertyOp4
 70
     1
102
RTVSPropertyOp5
 70
     1
102
RTVSPropertyOp6
 70
     1
102
RTVSPropertyOp7
 70
     1
102
RTVSPropertyOp8
 70
     1
102
RTVSPropertyOp9
 70
     1
102
RTVSPropertyOp10
 70
     1
102
RTVSPropertyOp11
 70
     1
102
RTVSPropertyOp12
 70
     1
102
RTVSPropertyOp13
 70
     1
102
RTVSPropertyOp14
 70
     1
102
RTVSPropertyOp15
 70
     1
102
RTVSPropertyOp16
 70
     1
102
RTVSPropertyOp17
 70
     1
102
RTVSPropertyOp18
 70
     1
102
RTVSPropertyOp19
 70
     1
102
RTVSPropertyOp20
 70
     1
102
RTVSPropertyOp21
 70
     1
102
RTVSPropertyOp22
 70
     1
102
RTVSPropertyOp23
 70
     1
102
RTVSPropertyOp24
 70
     1
102
RTVSPropertyOp25
 70
     1
102
RTVSPropertyOp26
 70
     1
102
RTVSPropertyOp27
 70
     1
102
RTVSPropertyOp28
 70
     1
102
RTVSPropertyOp29
 70
     1
102
RTVSPropertyOp30
 70
     1
102
RTVSPropertyOp31
 70
     1
102
RTVSPropertyOp32
 70
     1
102
RTVSPropertyOp33
 70
     1
102
RTVSPropertyOp34
 70
     1
102
RTVSPropertyOp35
 70
     1
102
RTVSPropertyOp36
 70
     1
102
RTVSPropertyOp37
 70
     1
102
RTVSPropertyOp38
 70
     1
102
RTVSPropertyOp39
 70
     1
102
RTVSPropertyOp40
 70
     1
102
RTVSPropertyOp41
 70
     1
102
RTVSPropertyOp42
 70
     1
102
RTVSPropertyOp43
 70
     1
102
RTVSPropertyOp44
 70
     1
102
RTVSPropertyOp45
 70
     1
102
RTVSPropertyOp46
 70
     1
102
RTVSPropertyOp47
 70
     1
102
RTVSPropertyOp48
 70
     1
102
RTVSPropertyOp49
 70
     1
102
RTVSPropertyOp50
 70
     1
102
RTVSPropertyOp51
 70
     0
102
RTVSPropertyOp52
 70
     0
102
RTVSPropertyOp53
 70
     1
102
RTVSPropertyOp54
 70
     1
102
RTVSPropertyOp55
 70
     1
102
RTVSPropertyOp56
 70
     1
102
RTVSPropertyOp57
 70
     1
102
RTVSPropertyOp58
 70
     1
102
RTVSPropertyOp59
 70
     1
102
RTVSPropertyOp60
 70
     1
102
RTVSPropertyOp61
 70
     1
102
RTVSPropertyOp62
 70
     1
  0
XRECORD
  5
21ED0
102
{ACAD_REACTORS
330
21ECF
102
}
330
21ECF
100
AcDbXrecord
280
     1
102
RTVSPost2010Prop28
280
     0
102
RTVSPost2010PropOp28
 70
     1
102
RTVSPost2010Prop29
280
     1
102
RTVSPost2010PropOp29
 70
     1
102
RTVSPost2010Prop30
280
     1
102
RTVSPost2010PropOp30
 70
     1
102
RTVSPost2010Prop31
280
     0
102
RTVSPost2010PropOp31
 70
     1
102
RTVSPost2010Prop32
280
     0
102
RTVSPost2010PropOp32
 70
     1
102
RTVSPost2010Prop33
280
     0
102
RTVSPost2010PropOp33
 70
     1
102
RTVSPost2010Prop34
280
     0
102
RTVSPost2010PropOp34
 70
     1
102
RTVSPost2010Prop35
280
     0
102
RTVSPost2010PropOp35
 70
     1
102
RTVSPost2010Prop36
280
     0
102
RTVSPost2010PropOp36
 70
     1
102
RTVSPost2010Prop37
 90
       50
102
RTVSPost2010PropOp37
 70
     1
102
RTVSPost2010Prop38
140
0.0
102
RTVSPost2010PropOp38
 70
     1
102
RTVSPost2010Prop39
140
1.0
102
RTVSPost2010PropOp39
 70
     1
102
RTVSPost2010Prop40
 90
        0
102
RTVSPost2010PropOp40
 70
     1
102
RTVSPost2010Prop41ColorIndex
 90
       18
102
RTVSPost2010Prop41ColorRGB
 90
        0
102
RTVSPost2010PropOp41
 70
     1
102
RTVSPost2010Prop42
 90
       50
102
RTVSPost2010PropOp42
 70
     1
102
RTVSPost2010Prop43
 90
        3
102
RTVSPost2010PropOp43
 70
     1
102
RTVSPost2010Prop44ColorIndex
 90
        5
102
RTVSPost2010Prop44ColorRGB
 90
      255
102
RTVSPost2010PropOp44
 70
     1
102
RTVSPost2010Prop45
280
     0
102
RTVSPost2010PropOp45
 70
     1
102
RTVSPost2010Prop46
 90
       50
102
RTVSPost2010PropOp46
 70
     1
102
RTVSPost2010Prop47
 90
       50
102
RTVSPost2010PropOp47
 70
     1
102
RTVSPost2010Prop48
 90
       50
102
RTVSPost2010PropOp48
 70
     1
102
RTVSPost2010Prop49
280
     0
102
RTVSPost2010PropOp49
 70
     1
102
RTVSPost2010Prop50
 90
       50
102
RTVSPost2010PropOp50
 70
     1
102
RTVSPost2010Prop51ColorIndex
 90
      256
102
RTVSPost2010Prop51ColorRGB
 90
-16777216
102
RTVSPost2010PropOp51
 70
     0
102
RTVSPost2010Prop52
140
1.0
102
RTVSPost2010PropOp52
 70
     0
102
RTVSPost2010Prop53
 90
        2
102
RTVSPost2010PropOp53
 70
     1
102
RTVSPost2010Prop54
  1
strokes_ogs.tif
102
RTVSPost2010PropOp54
 70
     1
102
RTVSPost2010Prop55
280
     0
102
RTVSPost2010PropOp55
 70
     1
102
RTVSPost2010Prop56
140
1.0
102
RTVSPost2010PropOp56
 70
     1
102
RTVSPost2010Prop57
140
1.0
102
RTVSPost2010PropOp57
 70
     1
102
RTVSPropertyOp0
 70
     1
102
RTVSPropertyOp1
 70
     1
102
RTVSPropertyOp2
 70
     1
102
RTVSPropertyOp3
 70
     1
102
RTVSPropertyOp4
 70
     1
102
RTVSPropertyOp5
 70
     1
102
RTVSPropertyOp6
 70
     1
102
RTVSPropertyOp7
 70
     1
102
RTVSPropertyOp8
 70
     1
102
RTVSPropertyOp9
 70
     1
102
RTVSPropertyOp10
 70
     1
102
RTVSPropertyOp11
 70
     1
102
RTVSPropertyOp12
 70
     1
102
RTVSPropertyOp13
 70
     1
102
RTVSPropertyOp14
 70
     1
102
RTVSPropertyOp15
 70
     1
102
RTVSPropertyOp16
 70
     1
102
RTVSPropertyOp17
 70
     1
102
RTVSPropertyOp18
 70
     1
102
RTVSPropertyOp19
 70
     1
102
RTVSPropertyOp20
 70
     1
102
RTVSPropertyOp21
 70
     1
102
RTVSPropertyOp22
 70
     1
102
RTVSPropertyOp23
 70
     1
102
RTVSPropertyOp24
 70
     1
102
RTVSPropertyOp25
 70
     1
102
RTVSPropertyOp26
 70
     1
102
RTVSPropertyOp27
 70
     1
102
RTVSPropertyOp28
 70
     1
102
RTVSPropertyOp29
 70
     1
102
RTVSPropertyOp30
 70
     1
102
RTVSPropertyOp31
 70
     1
102
RTVSPropertyOp32
 70
     1
102
RTVSPropertyOp33
 70
     1
102
RTVSPropertyOp34
 70
     1
102
RTVSPropertyOp35
 70
     1
102
RTVSPropertyOp36
 70
     1
102
RTVSPropertyOp37
 70
     1
102
RTVSPropertyOp38
 70
     1
102
RTVSPropertyOp39
 70
     1
102
RTVSPropertyOp40
 70
     1
102
RTVSPropertyOp41
 70
     1
102
RTVSPropertyOp42
 70
     1
102
RTVSPropertyOp43
 70
     1
102
RTVSPropertyOp44
 70
     1
102
RTVSPropertyOp45
 70
     1
102
RTVSPropertyOp46
 70
     1
102
RTVSPropertyOp47
 70
     1
102
RTVSPropertyOp48
 70
     1
102
RTVSPropertyOp49
 70
     1
102
RTVSPropertyOp50
 70
     1
102
RTVSPropertyOp51
 70
     0
102
RTVSPropertyOp52
 70
     0
102
RTVSPropertyOp53
 70
     1
102
RTVSPropertyOp54
 70
     1
102
RTVSPropertyOp55
 70
     1
102
RTVSPropertyOp56
 70
     1
102
RTVSPropertyOp57
 70
     1
102
RTVSPropertyOp58
 70
     1
102
RTVSPropertyOp59
 70
     1
102
RTVSPropertyOp60
 70
     1
102
RTVSPropertyOp61
 70
     1
102
RTVSPropertyOp62
 70
     1
  0
XRECORD
  5
21EC2
102
{ACAD_REACTORS
330
21EC1
102
}
330
21EC1
100
AcDbXrecord
280
     1
102
RTVSPost2010Prop28
280
     0
102
RTVSPost2010PropOp28
 70
     1
102
RTVSPost2010Prop29
280
     1
102
RTVSPost2010PropOp29
 70
     1
102
RTVSPost2010Prop30
280
     1
102
RTVSPost2010PropOp30
 70
     1
102
RTVSPost2010Prop31
280
     0
102
RTVSPost2010PropOp31
 70
     1
102
RTVSPost2010Prop32
280
     0
102
RTVSPost2010PropOp32
 70
     1
102
RTVSPost2010Prop33
280
     0
102
RTVSPost2010PropOp33
 70
     1
102
RTVSPost2010Prop34
280
     0
102
RTVSPost2010PropOp34
 70
     1
102
RTVSPost2010Prop35
280
     0
102
RTVSPost2010PropOp35
 70
     1
102
RTVSPost2010Prop36
280
     0
102
RTVSPost2010PropOp36
 70
     1
102
RTVSPost2010Prop37
 90
       50
102
RTVSPost2010PropOp37
 70
     1
102
RTVSPost2010Prop38
140
0.0
102
RTVSPost2010PropOp38
 70
     1
102
RTVSPost2010Prop39
140
1.0
102
RTVSPost2010PropOp39
 70
     1
102
RTVSPost2010Prop40
 90
        0
102
RTVSPost2010PropOp40
 70
     1
102
RTVSPost2010Prop41ColorIndex
 90
       18
102
RTVSPost2010Prop41ColorRGB
 90
        0
102
RTVSPost2010PropOp41
 70
     1
102
RTVSPost2010Prop42
 90
       50
102
RTVSPost2010PropOp42
 70
     1
102
RTVSPost2010Prop43
 90
        3
102
RTVSPost2010PropOp43
 70
     1
102
RTVSPost2010Prop44ColorIndex
 90
        5
102
RTVSPost2010Prop44ColorRGB
 90
      255
102
RTVSPost2010PropOp44
 70
     1
102
RTVSPost2010Prop45
280
     0
102
RTVSPost2010PropOp45
 70
     1
102
RTVSPost2010Prop46
 90
       50
102
RTVSPost2010PropOp46
 70
     1
102
RTVSPost2010Prop47
 90
       50
102
RTVSPost2010PropOp47
 70
     1
102
RTVSPost2010Prop48
 90
       50
102
RTVSPost2010PropOp48
 70
     1
102
RTVSPost2010Prop49
280
     0
102
RTVSPost2010PropOp49
 70
     1
102
RTVSPost2010Prop50
 90
       50
102
RTVSPost2010PropOp50
 70
     1
102
RTVSPost2010Prop51ColorIndex
 90
      256
102
RTVSPost2010Prop51ColorRGB
 90
-16777216
102
RTVSPost2010PropOp51
 70
     0
102
RTVSPost2010Prop52
140
1.0
102
RTVSPost2010PropOp52
 70
     0
102
RTVSPost2010Prop53
 90
        2
102
RTVSPost2010PropOp53
 70
     1
102
RTVSPost2010Prop54
  1
strokes_ogs.tif
102
RTVSPost2010PropOp54
 70
     1
102
RTVSPost2010Prop55
280
     0
102
RTVSPost2010PropOp55
 70
     1
102
RTVSPost2010Prop56
140
1.0
102
RTVSPost2010PropOp56
 70
     1
102
RTVSPost2010Prop57
140
1.0
102
RTVSPost2010PropOp57
 70
     1
102
RTVSPropertyOp0
 70
     1
102
RTVSPropertyOp1
 70
     1
102
RTVSPropertyOp2
 70
     1
102
RTVSPropertyOp3
 70
     1
102
RTVSPropertyOp4
 70
     1
102
RTVSPropertyOp5
 70
     1
102
RTVSPropertyOp6
 70
     1
102
RTVSPropertyOp7
 70
     1
102
RTVSPropertyOp8
 70
     1
102
RTVSPropertyOp9
 70
     1
102
RTVSPropertyOp10
 70
     1
102
RTVSPropertyOp11
 70
     1
102
RTVSPropertyOp12
 70
     1
102
RTVSPropertyOp13
 70
     1
102
RTVSPropertyOp14
 70
     1
102
RTVSPropertyOp15
 70
     1
102
RTVSPropertyOp16
 70
     1
102
RTVSPropertyOp17
 70
     1
102
RTVSPropertyOp18
 70
     1
102
RTVSPropertyOp19
 70
     1
102
RTVSPropertyOp20
 70
     1
102
RTVSPropertyOp21
 70
     1
102
RTVSPropertyOp22
 70
     1
102
RTVSPropertyOp23
 70
     1
102
RTVSPropertyOp24
 70
     1
102
RTVSPropertyOp25
 70
     1
102
RTVSPropertyOp26
 70
     1
102
RTVSPropertyOp27
 70
     1
102
RTVSPropertyOp28
 70
     1
102
RTVSPropertyOp29
 70
     1
102
RTVSPropertyOp30
 70
     1
102
RTVSPropertyOp31
 70
     1
102
RTVSPropertyOp32
 70
     1
102
RTVSPropertyOp33
 70
     1
102
RTVSPropertyOp34
 70
     1
102
RTVSPropertyOp35
 70
     1
102
RTVSPropertyOp36
 70
     1
102
RTVSPropertyOp37
 70
     1
102
RTVSPropertyOp38
 70
     1
102
RTVSPropertyOp39
 70
     1
102
RTVSPropertyOp40
 70
     1
102
RTVSPropertyOp41
 70
     1
102
RTVSPropertyOp42
 70
     1
102
RTVSPropertyOp43
 70
     1
102
RTVSPropertyOp44
 70
     1
102
RTVSPropertyOp45
 70
     1
102
RTVSPropertyOp46
 70
     1
102
RTVSPropertyOp47
 70
     1
102
RTVSPropertyOp48
 70
     1
102
RTVSPropertyOp49
 70
     1
102
RTVSPropertyOp50
 70
     1
102
RTVSPropertyOp51
 70
     0
102
RTVSPropertyOp52
 70
     0
102
RTVSPropertyOp53
 70
     1
102
RTVSPropertyOp54
 70
     1
102
RTVSPropertyOp55
 70
     1
102
RTVSPropertyOp56
 70
     1
102
RTVSPropertyOp57
 70
     1
102
RTVSPropertyOp58
 70
     1
102
RTVSPropertyOp59
 70
     1
102
RTVSPropertyOp60
 70
     1
102
RTVSPropertyOp61
 70
     1
102
RTVSPropertyOp62
 70
     1
  0
XRECORD
  5
21EC6
102
{ACAD_REACTORS
330
21EC5
102
}
330
21EC5
100
AcDbXrecord
280
     1
102
RTVSPost2010Prop28
280
     0
102
RTVSPost2010PropOp28
 70
     1
102
RTVSPost2010Prop29
280
     1
102
RTVSPost2010PropOp29
 70
     1
102
RTVSPost2010Prop30
280
     1
102
RTVSPost2010PropOp30
 70
     1
102
RTVSPost2010Prop31
280
     0
102
RTVSPost2010PropOp31
 70
     1
102
RTVSPost2010Prop32
280
     0
102
RTVSPost2010PropOp32
 70
     1
102
RTVSPost2010Prop33
280
     0
102
RTVSPost2010PropOp33
 70
     1
102
RTVSPost2010Prop34
280
     0
102
RTVSPost2010PropOp34
 70
     1
102
RTVSPost2010Prop35
280
     0
102
RTVSPost2010PropOp35
 70
     1
102
RTVSPost2010Prop36
280
     0
102
RTVSPost2010PropOp36
 70
     1
102
RTVSPost2010Prop37
 90
       50
102
RTVSPost2010PropOp37
 70
     1
102
RTVSPost2010Prop38
140
0.0
102
RTVSPost2010PropOp38
 70
     1
102
RTVSPost2010Prop39
140
1.0
102
RTVSPost2010PropOp39
 70
     1
102
RTVSPost2010Prop40
 90
        0
102
RTVSPost2010PropOp40
 70
     1
102
RTVSPost2010Prop41ColorIndex
 90
       18
102
RTVSPost2010Prop41ColorRGB
 90
        0
102
RTVSPost2010PropOp41
 70
     1
102
RTVSPost2010Prop42
 90
       50
102
RTVSPost2010PropOp42
 70
     1
102
RTVSPost2010Prop43
 90
        3
102
RTVSPost2010PropOp43
 70
     1
102
RTVSPost2010Prop44ColorIndex
 90
        5
102
RTVSPost2010Prop44ColorRGB
 90
      255
102
RTVSPost2010PropOp44
 70
     1
102
RTVSPost2010Prop45
280
     0
102
RTVSPost2010PropOp45
 70
     1
102
RTVSPost2010Prop46
 90
       50
102
RTVSPost2010PropOp46
 70
     1
102
RTVSPost2010Prop47
 90
       50
102
RTVSPost2010PropOp47
 70
     1
102
RTVSPost2010Prop48
 90
       50
102
RTVSPost2010PropOp48
 70
     1
102
RTVSPost2010Prop49
280
     0
102
RTVSPost2010PropOp49
 70
     1
102
RTVSPost2010Prop50
 90
       50
102
RTVSPost2010PropOp50
 70
     1
102
RTVSPost2010Prop51ColorIndex
 90
      256
102
RTVSPost2010Prop51ColorRGB
 90
-16777216
102
RTVSPost2010PropOp51
 70
     0
102
RTVSPost2010Prop52
140
1.0
102
RTVSPost2010PropOp52
 70
     0
102
RTVSPost2010Prop53
 90
        2
102
RTVSPost2010PropOp53
 70
     1
102
RTVSPost2010Prop54
  1
strokes_ogs.tif
102
RTVSPost2010PropOp54
 70
     1
102
RTVSPost2010Prop55
280
     0
102
RTVSPost2010PropOp55
 70
     1
102
RTVSPost2010Prop56
140
1.0
102
RTVSPost2010PropOp56
 70
     1
102
RTVSPost2010Prop57
140
1.0
102
RTVSPost2010PropOp57
 70
     1
102
RTVSPropertyOp0
 70
     1
102
RTVSPropertyOp1
 70
     1
102
RTVSPropertyOp2
 70
     1
102
RTVSPropertyOp3
 70
     1
102
RTVSPropertyOp4
 70
     1
102
RTVSPropertyOp5
 70
     1
102
RTVSPropertyOp6
 70
     1
102
RTVSPropertyOp7
 70
     1
102
RTVSPropertyOp8
 70
     1
102
RTVSPropertyOp9
 70
     1
102
RTVSPropertyOp10
 70
     1
102
RTVSPropertyOp11
 70
     1
102
RTVSPropertyOp12
 70
     1
102
RTVSPropertyOp13
 70
     1
102
RTVSPropertyOp14
 70
     1
102
RTVSPropertyOp15
 70
     1
102
RTVSPropertyOp16
 70
     1
102
RTVSPropertyOp17
 70
     1
102
RTVSPropertyOp18
 70
     1
102
RTVSPropertyOp19
 70
     1
102
RTVSPropertyOp20
 70
     1
102
RTVSPropertyOp21
 70
     1
102
RTVSPropertyOp22
 70
     1
102
RTVSPropertyOp23
 70
     1
102
RTVSPropertyOp24
 70
     1
102
RTVSPropertyOp25
 70
     1
102
RTVSPropertyOp26
 70
     1
102
RTVSPropertyOp27
 70
     1
102
RTVSPropertyOp28
 70
     1
102
RTVSPropertyOp29
 70
     1
102
RTVSPropertyOp30
 70
     1
102
RTVSPropertyOp31
 70
     1
102
RTVSPropertyOp32
 70
     1
102
RTVSPropertyOp33
 70
     1
102
RTVSPropertyOp34
 70
     1
102
RTVSPropertyOp35
 70
     1
102
RTVSPropertyOp36
 70
     1
102
RTVSPropertyOp37
 70
     1
102
RTVSPropertyOp38
 70
     1
102
RTVSPropertyOp39
 70
     1
102
RTVSPropertyOp40
 70
     1
102
RTVSPropertyOp41
 70
     1
102
RTVSPropertyOp42
 70
     1
102
RTVSPropertyOp43
 70
     1
102
RTVSPropertyOp44
 70
     1
102
RTVSPropertyOp45
 70
     1
102
RTVSPropertyOp46
 70
     1
102
RTVSPropertyOp47
 70
     1
102
RTVSPropertyOp48
 70
     1
102
RTVSPropertyOp49
 70
     1
102
RTVSPropertyOp50
 70
     1
102
RTVSPropertyOp51
 70
     0
102
RTVSPropertyOp52
 70
     0
102
RTVSPropertyOp53
 70
     1
102
RTVSPropertyOp54
 70
     1
102
RTVSPropertyOp55
 70
     1
102
RTVSPropertyOp56
 70
     1
102
RTVSPropertyOp57
 70
     1
102
RTVSPropertyOp58
 70
     1
102
RTVSPropertyOp59
 70
     1
102
RTVSPropertyOp60
 70
     1
102
RTVSPropertyOp61
 70
     1
102
RTVSPropertyOp62
 70
     1
  0
XRECORD
  5
21EEC
102
{ACAD_REACTORS
330
21EEB
102
}
330
21EEB
100
AcDbXrecord
280
     1
102
RTVSPost2010Prop28
280
     0
102
RTVSPost2010PropOp28
 70
     1
102
RTVSPost2010Prop29
280
     1
102
RTVSPost2010PropOp29
 70
     1
102
RTVSPost2010Prop30
280
     1
102
RTVSPost2010PropOp30
 70
     1
102
RTVSPost2010Prop31
280
     0
102
RTVSPost2010PropOp31
 70
     1
102
RTVSPost2010Prop32
280
     0
102
RTVSPost2010PropOp32
 70
     1
102
RTVSPost2010Prop33
280
     0
102
RTVSPost2010PropOp33
 70
     1
102
RTVSPost2010Prop34
280
     0
102
RTVSPost2010PropOp34
 70
     1
102
RTVSPost2010Prop35
280
     0
102
RTVSPost2010PropOp35
 70
     1
102
RTVSPost2010Prop36
280
     0
102
RTVSPost2010PropOp36
 70
     1
102
RTVSPost2010Prop37
 90
       50
102
RTVSPost2010PropOp37
 70
     0
102
RTVSPost2010Prop38
140
0.0
102
RTVSPost2010PropOp38
 70
     0
102
RTVSPost2010Prop39
140
1.0
102
RTVSPost2010PropOp39
 70
     0
102
RTVSPost2010Prop40
 90
        0
102
RTVSPost2010PropOp40
 70
     0
102
RTVSPost2010Prop41ColorIndex
 90
       18
102
RTVSPost2010Prop41ColorRGB
 90
        0
102
RTVSPost2010PropOp41
 70
     0
102
RTVSPost2010Prop42
 90
       50
102
RTVSPost2010PropOp42
 70
     0
102
RTVSPost2010Prop43
 90
        3
102
RTVSPost2010PropOp43
 70
     0
102
RTVSPost2010Prop44ColorIndex
 90
        5
102
RTVSPost2010Prop44ColorRGB
 90
      255
102
RTVSPost2010PropOp44
 70
     0
102
RTVSPost2010Prop45
280
     0
102
RTVSPost2010PropOp45
 70
     1
102
RTVSPost2010Prop46
 90
       50
102
RTVSPost2010PropOp46
 70
     0
102
RTVSPost2010Prop47
 90
       50
102
RTVSPost2010PropOp47
 70
     0
102
RTVSPost2010Prop48
 90
       50
102
RTVSPost2010PropOp48
 70
     0
102
RTVSPost2010Prop49
280
     0
102
RTVSPost2010PropOp49
 70
     1
102
RTVSPost2010Prop50
 90
       50
102
RTVSPost2010PropOp50
 70
     0
102
RTVSPost2010Prop51ColorIndex
 90
      256
102
RTVSPost2010Prop51ColorRGB
 90
-16777216
102
RTVSPost2010PropOp51
 70
     0
102
RTVSPost2010Prop52
140
1.0
102
RTVSPost2010PropOp52
 70
     0
102
RTVSPost2010Prop53
 90
        2
102
RTVSPost2010PropOp53
 70
     0
102
RTVSPost2010Prop54
  1
strokes_ogs.tif
102
RTVSPost2010PropOp54
 70
     0
102
RTVSPost2010Prop55
280
     0
102
RTVSPost2010PropOp55
 70
     1
102
RTVSPost2010Prop56
140
1.0
102
RTVSPost2010PropOp56
 70
     0
102
RTVSPost2010Prop57
140
1.0
102
RTVSPost2010PropOp57
 70
     0
102
RTVSPropertyOp0
 70
     0
102
RTVSPropertyOp1
 70
     0
102
RTVSPropertyOp2
 70
     0
102
RTVSPropertyOp3
 70
     0
102
RTVSPropertyOp4
 70
     0
102
RTVSPropertyOp5
 70
     0
102
RTVSPropertyOp6
 70
     0
102
RTVSPropertyOp7
 70
     0
102
RTVSPropertyOp8
 70
     0
102
RTVSPropertyOp9
 70
     0
102
RTVSPropertyOp10
 70
     0
102
RTVSPropertyOp11
 70
     0
102
RTVSPropertyOp12
 70
     0
102
RTVSPropertyOp13
 70
     0
102
RTVSPropertyOp14
 70
     2
102
RTVSPropertyOp15
 70
     0
102
RTVSPropertyOp16
 70
     0
102
RTVSPropertyOp17
 70
     0
102
RTVSPropertyOp18
 70
     0
102
RTVSPropertyOp19
 70
     0
102
RTVSPropertyOp20
 70
     0
102
RTVSPropertyOp21
 70
     0
102
RTVSPropertyOp22
 70
     0
102
RTVSPropertyOp23
 70
     0
102
RTVSPropertyOp24
 70
     0
102
RTVSPropertyOp25
 70
     0
102
RTVSPropertyOp26
 70
     0
102
RTVSPropertyOp27
 70
     0
102
RTVSPropertyOp28
 70
     1
102
RTVSPropertyOp29
 70
     1
102
RTVSPropertyOp30
 70
     1
102
RTVSPropertyOp31
 70
     1
102
RTVSPropertyOp32
 70
     1
102
RTVSPropertyOp33
 70
     1
102
RTVSPropertyOp34
 70
     1
102
RTVSPropertyOp35
 70
     1
102
RTVSPropertyOp36
 70
     1
102
RTVSPropertyOp37
 70
     0
102
RTVSPropertyOp38
 70
     0
102
RTVSPropertyOp39
 70
     0
102
RTVSPropertyOp40
 70
     0
102
RTVSPropertyOp41
 70
     0
102
RTVSPropertyOp42
 70
     0
102
RTVSPropertyOp43
 70
     0
102
RTVSPropertyOp44
 70
     0
102
RTVSPropertyOp45
 70
     1
102
RTVSPropertyOp46
 70
     0
102
RTVSPropertyOp47
 70
     0
102
RTVSPropertyOp48
 70
     0
102
RTVSPropertyOp49
 70
     1
102
RTVSPropertyOp50
 70
     0
102
RTVSPropertyOp51
 70
     0
102
RTVSPropertyOp52
 70
     0
102
RTVSPropertyOp53
 70
     0
102
RTVSPropertyOp54
 70
     0
102
RTVSPropertyOp55
 70
     1
102
RTVSPropertyOp56
 70
     0
102
RTVSPropertyOp57
 70
     0
102
RTVSPropertyOp58
 70
     1
102
RTVSPropertyOp59
 70
     1
102
RTVSPropertyOp60
 70
     1
102
RTVSPropertyOp61
 70
     1
102
RTVSPropertyOp62
 70
     1
  0
XRECORD
  5
21ECE
102
{ACAD_REACTORS
330
21ECD
102
}
330
21ECD
100
AcDbXrecord
280
     1
102
RTVSPost2010Prop28
280
     0
102
RTVSPost2010PropOp28
 70
     1
102
RTVSPost2010Prop29
280
     1
102
RTVSPost2010PropOp29
 70
     1
102
RTVSPost2010Prop30
280
     1
102
RTVSPost2010PropOp30
 70
     1
102
RTVSPost2010Prop31
280
     0
102
RTVSPost2010PropOp31
 70
     1
102
RTVSPost2010Prop32
280
     0
102
RTVSPost2010PropOp32
 70
     1
102
RTVSPost2010Prop33
280
     0
102
RTVSPost2010PropOp33
 70
     1
102
RTVSPost2010Prop34
280
     0
102
RTVSPost2010PropOp34
 70
     1
102
RTVSPost2010Prop35
280
     0
102
RTVSPost2010PropOp35
 70
     1
102
RTVSPost2010Prop36
280
     0
102
RTVSPost2010PropOp36
 70
     1
102
RTVSPost2010Prop37
 90
       50
102
RTVSPost2010PropOp37
 70
     1
102
RTVSPost2010Prop38
140
0.0
102
RTVSPost2010PropOp38
 70
     1
102
RTVSPost2010Prop39
140
1.0
102
RTVSPost2010PropOp39
 70
     1
102
RTVSPost2010Prop40
 90
        0
102
RTVSPost2010PropOp40
 70
     1
102
RTVSPost2010Prop41ColorIndex
 90
       18
102
RTVSPost2010Prop41ColorRGB
 90
        0
102
RTVSPost2010PropOp41
 70
     1
102
RTVSPost2010Prop42
 90
       50
102
RTVSPost2010PropOp42
 70
     1
102
RTVSPost2010Prop43
 90
        3
102
RTVSPost2010PropOp43
 70
     1
102
RTVSPost2010Prop44ColorIndex
 90
        5
102
RTVSPost2010Prop44ColorRGB
 90
      255
102
RTVSPost2010PropOp44
 70
     1
102
RTVSPost2010Prop45
280
     0
102
RTVSPost2010PropOp45
 70
     1
102
RTVSPost2010Prop46
 90
       50
102
RTVSPost2010PropOp46
 70
     1
102
RTVSPost2010Prop47
 90
       50
102
RTVSPost2010PropOp47
 70
     1
102
RTVSPost2010Prop48
 90
       50
102
RTVSPost2010PropOp48
 70
     1
102
RTVSPost2010Prop49
280
     0
102
RTVSPost2010PropOp49
 70
     1
102
RTVSPost2010Prop50
 90
       50
102
RTVSPost2010PropOp50
 70
     1
102
RTVSPost2010Prop51ColorIndex
 90
      256
102
RTVSPost2010Prop51ColorRGB
 90
-16777216
102
RTVSPost2010PropOp51
 70
     0
102
RTVSPost2010Prop52
140
1.0
102
RTVSPost2010PropOp52
 70
     0
102
RTVSPost2010Prop53
 90
        2
102
RTVSPost2010PropOp53
 70
     1
102
RTVSPost2010Prop54
  1
strokes_ogs.tif
102
RTVSPost2010PropOp54
 70
     1
102
RTVSPost2010Prop55
280
     0
102
RTVSPost2010PropOp55
 70
     1
102
RTVSPost2010Prop56
140
1.0
102
RTVSPost2010PropOp56
 70
     1
102
RTVSPost2010Prop57
140
1.0
102
RTVSPost2010PropOp57
 70
     1
102
RTVSPropertyOp0
 70
     1
102
RTVSPropertyOp1
 70
     1
102
RTVSPropertyOp2
 70
     1
102
RTVSPropertyOp3
 70
     1
102
RTVSPropertyOp4
 70
     1
102
RTVSPropertyOp5
 70
     1
102
RTVSPropertyOp6
 70
     1
102
RTVSPropertyOp7
 70
     1
102
RTVSPropertyOp8
 70
     1
102
RTVSPropertyOp9
 70
     1
102
RTVSPropertyOp10
 70
     1
102
RTVSPropertyOp11
 70
     1
102
RTVSPropertyOp12
 70
     1
102
RTVSPropertyOp13
 70
     1
102
RTVSPropertyOp14
 70
     1
102
RTVSPropertyOp15
 70
     1
102
RTVSPropertyOp16
 70
     1
102
RTVSPropertyOp17
 70
     1
102
RTVSPropertyOp18
 70
     1
102
RTVSPropertyOp19
 70
     1
102
RTVSPropertyOp20
 70
     1
102
RTVSPropertyOp21
 70
     1
102
RTVSPropertyOp22
 70
     1
102
RTVSPropertyOp23
 70
     1
102
RTVSPropertyOp24
 70
     1
102
RTVSPropertyOp25
 70
     1
102
RTVSPropertyOp26
 70
     1
102
RTVSPropertyOp27
 70
     1
102
RTVSPropertyOp28
 70
     1
102
RTVSPropertyOp29
 70
     1
102
RTVSPropertyOp30
 70
     1
102
RTVSPropertyOp31
 70
     1
102
RTVSPropertyOp32
 70
     1
102
RTVSPropertyOp33
 70
     1
102
RTVSPropertyOp34
 70
     1
102
RTVSPropertyOp35
 70
     1
102
RTVSPropertyOp36
 70
     1
102
RTVSPropertyOp37
 70
     1
102
RTVSPropertyOp38
 70
     1
102
RTVSPropertyOp39
 70
     1
102
RTVSPropertyOp40
 70
     1
102
RTVSPropertyOp41
 70
     1
102
RTVSPropertyOp42
 70
     1
102
RTVSPropertyOp43
 70
     1
102
RTVSPropertyOp44
 70
     1
102
RTVSPropertyOp45
 70
     1
102
RTVSPropertyOp46
 70
     1
102
RTVSPropertyOp47
 70
     1
102
RTVSPropertyOp48
 70
     1
102
RTVSPropertyOp49
 70
     1
102
RTVSPropertyOp50
 70
     1
102
RTVSPropertyOp51
 70
     0
102
RTVSPropertyOp52
 70
     0
102
RTVSPropertyOp53
 70
     1
102
RTVSPropertyOp54
 70
     1
102
RTVSPropertyOp55
 70
     1
102
RTVSPropertyOp56
 70
     1
102
RTVSPropertyOp57
 70
     1
102
RTVSPropertyOp58
 70
     1
102
RTVSPropertyOp59
 70
     1
102
RTVSPropertyOp60
 70
     1
102
RTVSPropertyOp61
 70
     1
102
RTVSPropertyOp62
 70
     1
  0
XRECORD
  5
21EB2
102
{ACAD_REACTORS
330
21EB1
102
}
330
21EB1
100
AcDbXrecord
280
     1
102
RTVSPost2010Prop28
280
     0
102
RTVSPost2010PropOp28
 70
     1
102
RTVSPost2010Prop29
280
     1
102
RTVSPost2010PropOp29
 70
     1
102
RTVSPost2010Prop30
280
     1
102
RTVSPost2010PropOp30
 70
     1
102
RTVSPost2010Prop31
280
     0
102
RTVSPost2010PropOp31
 70
     1
102
RTVSPost2010Prop32
280
     0
102
RTVSPost2010PropOp32
 70
     1
102
RTVSPost2010Prop33
280
     0
102
RTVSPost2010PropOp33
 70
     1
102
RTVSPost2010Prop34
280
     0
102
RTVSPost2010PropOp34
 70
     1
102
RTVSPost2010Prop35
280
     0
102
RTVSPost2010PropOp35
 70
     1
102
RTVSPost2010Prop36
280
     0
102
RTVSPost2010PropOp36
 70
     1
102
RTVSPost2010Prop37
 90
       50
102
RTVSPost2010PropOp37
 70
     1
102
RTVSPost2010Prop38
140
0.0
102
RTVSPost2010PropOp38
 70
     1
102
RTVSPost2010Prop39
140
1.0
102
RTVSPost2010PropOp39
 70
     1
102
RTVSPost2010Prop40
 90
        0
102
RTVSPost2010PropOp40
 70
     1
102
RTVSPost2010Prop41ColorIndex
 90
       18
102
RTVSPost2010Prop41ColorRGB
 90
        0
102
RTVSPost2010PropOp41
 70
     1
102
RTVSPost2010Prop42
 90
       50
102
RTVSPost2010PropOp42
 70
     1
102
RTVSPost2010Prop43
 90
        3
102
RTVSPost2010PropOp43
 70
     1
102
RTVSPost2010Prop44ColorIndex
 90
        5
102
RTVSPost2010Prop44ColorRGB
 90
      255
102
RTVSPost2010PropOp44
 70
     1
102
RTVSPost2010Prop45
280
     0
102
RTVSPost2010PropOp45
 70
     1
102
RTVSPost2010Prop46
 90
       50
102
RTVSPost2010PropOp46
 70
     1
102
RTVSPost2010Prop47
 90
       50
102
RTVSPost2010PropOp47
 70
     1
102
RTVSPost2010Prop48
 90
       50
102
RTVSPost2010PropOp48
 70
     1
102
RTVSPost2010Prop49
280
     0
102
RTVSPost2010PropOp49
 70
     1
102
RTVSPost2010Prop50
 90
       50
102
RTVSPost2010PropOp50
 70
     1
102
RTVSPost2010Prop51ColorIndex
 90
      256
102
RTVSPost2010Prop51ColorRGB
 90
-16777216
102
RTVSPost2010PropOp51
 70
     0
102
RTVSPost2010Prop52
140
1.0
102
RTVSPost2010PropOp52
 70
     0
102
RTVSPost2010Prop53
 90
        2
102
RTVSPost2010PropOp53
 70
     1
102
RTVSPost2010Prop54
  1
strokes_ogs.tif
102
RTVSPost2010PropOp54
 70
     1
102
RTVSPost2010Prop55
280
     0
102
RTVSPost2010PropOp55
 70
     1
102
RTVSPost2010Prop56
140
1.0
102
RTVSPost2010PropOp56
 70
     1
102
RTVSPost2010Prop57
140
1.0
102
RTVSPost2010PropOp57
 70
     1
102
RTVSPropertyOp0
 70
     1
102
RTVSPropertyOp1
 70
     1
102
RTVSPropertyOp2
 70
     1
102
RTVSPropertyOp3
 70
     1
102
RTVSPropertyOp4
 70
     1
102
RTVSPropertyOp5
 70
     1
102
RTVSPropertyOp6
 70
     1
102
RTVSPropertyOp7
 70
     1
102
RTVSPropertyOp8
 70
     1
102
RTVSPropertyOp9
 70
     1
102
RTVSPropertyOp10
 70
     1
102
RTVSPropertyOp11
 70
     1
102
RTVSPropertyOp12
 70
     1
102
RTVSPropertyOp13
 70
     1
102
RTVSPropertyOp14
 70
     1
102
RTVSPropertyOp15
 70
     1
102
RTVSPropertyOp16
 70
     1
102
RTVSPropertyOp17
 70
     1
102
RTVSPropertyOp18
 70
     1
102
RTVSPropertyOp19
 70
     1
102
RTVSPropertyOp20
 70
     1
102
RTVSPropertyOp21
 70
     1
102
RTVSPropertyOp22
 70
     1
102
RTVSPropertyOp23
 70
     1
102
RTVSPropertyOp24
 70
     1
102
RTVSPropertyOp25
 70
     1
102
RTVSPropertyOp26
 70
     1
102
RTVSPropertyOp27
 70
     1
102
RTVSPropertyOp28
 70
     1
102
RTVSPropertyOp29
 70
     1
102
RTVSPropertyOp30
 70
     1
102
RTVSPropertyOp31
 70
     1
102
RTVSPropertyOp32
 70
     1
102
RTVSPropertyOp33
 70
     1
102
RTVSPropertyOp34
 70
     1
102
RTVSPropertyOp35
 70
     1
102
RTVSPropertyOp36
 70
     1
102
RTVSPropertyOp37
 70
     1
102
RTVSPropertyOp38
 70
     1
102
RTVSPropertyOp39
 70
     1
102
RTVSPropertyOp40
 70
     1
102
RTVSPropertyOp41
 70
     1
102
RTVSPropertyOp42
 70
     1
102
RTVSPropertyOp43
 70
     1
102
RTVSPropertyOp44
 70
     1
102
RTVSPropertyOp45
 70
     1
102
RTVSPropertyOp46
 70
     1
102
RTVSPropertyOp47
 70
     1
102
RTVSPropertyOp48
 70
     1
102
RTVSPropertyOp49
 70
     1
102
RTVSPropertyOp50
 70
     1
102
RTVSPropertyOp51
 70
     0
102
RTVSPropertyOp52
 70
     0
102
RTVSPropertyOp53
 70
     1
102
RTVSPropertyOp54
 70
     1
102
RTVSPropertyOp55
 70
     1
102
RTVSPropertyOp56
 70
     1
102
RTVSPropertyOp57
 70
     1
102
RTVSPropertyOp58
 70
     1
102
RTVSPropertyOp59
 70
     1
102
RTVSPropertyOp60
 70
     1
102
RTVSPropertyOp61
 70
     1
102
RTVSPropertyOp62
 70
     1
  0
XRECORD
  5
21EB4
102
{ACAD_REACTORS
330
21EB3
102
}
330
21EB3
100
AcDbXrecord
280
     1
102
RTVSPost2010Prop28
280
     0
102
RTVSPost2010PropOp28
 70
     1
102
RTVSPost2010Prop29
280
     1
102
RTVSPost2010PropOp29
 70
     1
102
RTVSPost2010Prop30
280
     1
102
RTVSPost2010PropOp30
 70
     1
102
RTVSPost2010Prop31
280
     0
102
RTVSPost2010PropOp31
 70
     1
102
RTVSPost2010Prop32
280
     0
102
RTVSPost2010PropOp32
 70
     1
102
RTVSPost2010Prop33
280
     0
102
RTVSPost2010PropOp33
 70
     1
102
RTVSPost2010Prop34
280
     0
102
RTVSPost2010PropOp34
 70
     1
102
RTVSPost2010Prop35
280
     0
102
RTVSPost2010PropOp35
 70
     1
102
RTVSPost2010Prop36
280
     0
102
RTVSPost2010PropOp36
 70
     1
102
RTVSPost2010Prop37
 90
       50
102
RTVSPost2010PropOp37
 70
     1
102
RTVSPost2010Prop38
140
0.0
102
RTVSPost2010PropOp38
 70
     1
102
RTVSPost2010Prop39
140
1.0
102
RTVSPost2010PropOp39
 70
     1
102
RTVSPost2010Prop40
 90
        0
102
RTVSPost2010PropOp40
 70
     1
102
RTVSPost2010Prop41ColorIndex
 90
       18
102
RTVSPost2010Prop41ColorRGB
 90
        0
102
RTVSPost2010PropOp41
 70
     1
102
RTVSPost2010Prop42
 90
       50
102
RTVSPost2010PropOp42
 70
     1
102
RTVSPost2010Prop43
 90
        3
102
RTVSPost2010PropOp43
 70
     1
102
RTVSPost2010Prop44ColorIndex
 90
        5
102
RTVSPost2010Prop44ColorRGB
 90
      255
102
RTVSPost2010PropOp44
 70
     1
102
RTVSPost2010Prop45
280
     0
102
RTVSPost2010PropOp45
 70
     1
102
RTVSPost2010Prop46
 90
       50
102
RTVSPost2010PropOp46
 70
     1
102
RTVSPost2010Prop47
 90
       50
102
RTVSPost2010PropOp47
 70
     1
102
RTVSPost2010Prop48
 90
       50
102
RTVSPost2010PropOp48
 70
     1
102
RTVSPost2010Prop49
280
     0
102
RTVSPost2010PropOp49
 70
     1
102
RTVSPost2010Prop50
 90
       50
102
RTVSPost2010PropOp50
 70
     1
102
RTVSPost2010Prop51ColorIndex
 90
      256
102
RTVSPost2010Prop51ColorRGB
 90
-16777216
102
RTVSPost2010PropOp51
 70
     0
102
RTVSPost2010Prop52
140
1.0
102
RTVSPost2010PropOp52
 70
     0
102
RTVSPost2010Prop53
 90
        2
102
RTVSPost2010PropOp53
 70
     1
102
RTVSPost2010Prop54
  1
strokes_ogs.tif
102
RTVSPost2010PropOp54
 70
     1
102
RTVSPost2010Prop55
280
     0
102
RTVSPost2010PropOp55
 70
     1
102
RTVSPost2010Prop56
140
1.0
102
RTVSPost2010PropOp56
 70
     1
102
RTVSPost2010Prop57
140
1.0
102
RTVSPost2010PropOp57
 70
     1
102
RTVSPropertyOp0
 70
     1
102
RTVSPropertyOp1
 70
     1
102
RTVSPropertyOp2
 70
     1
102
RTVSPropertyOp3
 70
     1
102
RTVSPropertyOp4
 70
     1
102
RTVSPropertyOp5
 70
     1
102
RTVSPropertyOp6
 70
     1
102
RTVSPropertyOp7
 70
     1
102
RTVSPropertyOp8
 70
     1
102
RTVSPropertyOp9
 70
     1
102
RTVSPropertyOp10
 70
     1
102
RTVSPropertyOp11
 70
     1
102
RTVSPropertyOp12
 70
     1
102
RTVSPropertyOp13
 70
     1
102
RTVSPropertyOp14
 70
     1
102
RTVSPropertyOp15
 70
     1
102
RTVSPropertyOp16
 70
     1
102
RTVSPropertyOp17
 70
     1
102
RTVSPropertyOp18
 70
     1
102
RTVSPropertyOp19
 70
     1
102
RTVSPropertyOp20
 70
     1
102
RTVSPropertyOp21
 70
     1
102
RTVSPropertyOp22
 70
     1
102
RTVSPropertyOp23
 70
     1
102
RTVSPropertyOp24
 70
     1
102
RTVSPropertyOp25
 70
     1
102
RTVSPropertyOp26
 70
     1
102
RTVSPropertyOp27
 70
     1
102
RTVSPropertyOp28
 70
     1
102
RTVSPropertyOp29
 70
     1
102
RTVSPropertyOp30
 70
     1
102
RTVSPropertyOp31
 70
     1
102
RTVSPropertyOp32
 70
     1
102
RTVSPropertyOp33
 70
     1
102
RTVSPropertyOp34
 70
     1
102
RTVSPropertyOp35
 70
     1
102
RTVSPropertyOp36
 70
     1
102
RTVSPropertyOp37
 70
     1
102
RTVSPropertyOp38
 70
     1
102
RTVSPropertyOp39
 70
     1
102
RTVSPropertyOp40
 70
     1
102
RTVSPropertyOp41
 70
     1
102
RTVSPropertyOp42
 70
     1
102
RTVSPropertyOp43
 70
     1
102
RTVSPropertyOp44
 70
     1
102
RTVSPropertyOp45
 70
     1
102
RTVSPropertyOp46
 70
     1
102
RTVSPropertyOp47
 70
     1
102
RTVSPropertyOp48
 70
     1
102
RTVSPropertyOp49
 70
     1
102
RTVSPropertyOp50
 70
     1
102
RTVSPropertyOp51
 70
     0
102
RTVSPropertyOp52
 70
     0
102
RTVSPropertyOp53
 70
     1
102
RTVSPropertyOp54
 70
     1
102
RTVSPropertyOp55
 70
     1
102
RTVSPropertyOp56
 70
     1
102
RTVSPropertyOp57
 70
     1
102
RTVSPropertyOp58
 70
     1
102
RTVSPropertyOp59
 70
     1
102
RTVSPropertyOp60
 70
     1
102
RTVSPropertyOp61
 70
     1
102
RTVSPropertyOp62
 70
     1
  0
XRECORD
  5
21EB6
102
{ACAD_REACTORS
330
21EB5
102
}
330
21EB5
100
AcDbXrecord
280
     1
102
RTVSPost2010Prop28
280
     0
102
RTVSPost2010PropOp28
 70
     1
102
RTVSPost2010Prop29
280
     1
102
RTVSPost2010PropOp29
 70
     1
102
RTVSPost2010Prop30
280
     1
102
RTVSPost2010PropOp30
 70
     1
102
RTVSPost2010Prop31
280
     0
102
RTVSPost2010PropOp31
 70
     1
102
RTVSPost2010Prop32
280
     0
102
RTVSPost2010PropOp32
 70
     1
102
RTVSPost2010Prop33
280
     0
102
RTVSPost2010PropOp33
 70
     1
102
RTVSPost2010Prop34
280
     0
102
RTVSPost2010PropOp34
 70
     1
102
RTVSPost2010Prop35
280
     0
102
RTVSPost2010PropOp35
 70
     1
102
RTVSPost2010Prop36
280
     0
102
RTVSPost2010PropOp36
 70
     1
102
RTVSPost2010Prop37
 90
       50
102
RTVSPost2010PropOp37
 70
     1
102
RTVSPost2010Prop38
140
0.0
102
RTVSPost2010PropOp38
 70
     1
102
RTVSPost2010Prop39
140
1.0
102
RTVSPost2010PropOp39
 70
     1
102
RTVSPost2010Prop40
 90
        0
102
RTVSPost2010PropOp40
 70
     1
102
RTVSPost2010Prop41ColorIndex
 90
       18
102
RTVSPost2010Prop41ColorRGB
 90
        0
102
RTVSPost2010PropOp41
 70
     1
102
RTVSPost2010Prop42
 90
       50
102
RTVSPost2010PropOp42
 70
     1
102
RTVSPost2010Prop43
 90
        3
102
RTVSPost2010PropOp43
 70
     1
102
RTVSPost2010Prop44ColorIndex
 90
        5
102
RTVSPost2010Prop44ColorRGB
 90
      255
102
RTVSPost2010PropOp44
 70
     1
102
RTVSPost2010Prop45
280
     0
102
RTVSPost2010PropOp45
 70
     1
102
RTVSPost2010Prop46
 90
       50
102
RTVSPost2010PropOp46
 70
     1
102
RTVSPost2010Prop47
 90
       50
102
RTVSPost2010PropOp47
 70
     1
102
RTVSPost2010Prop48
 90
       50
102
RTVSPost2010PropOp48
 70
     1
102
RTVSPost2010Prop49
280
     0
102
RTVSPost2010PropOp49
 70
     1
102
RTVSPost2010Prop50
 90
       50
102
RTVSPost2010PropOp50
 70
     1
102
RTVSPost2010Prop51ColorIndex
 90
      256
102
RTVSPost2010Prop51ColorRGB
 90
-16777216
102
RTVSPost2010PropOp51
 70
     0
102
RTVSPost2010Prop52
140
1.0
102
RTVSPost2010PropOp52
 70
     0
102
RTVSPost2010Prop53
 90
        2
102
RTVSPost2010PropOp53
 70
     1
102
RTVSPost2010Prop54
  1
strokes_ogs.tif
102
RTVSPost2010PropOp54
 70
     1
102
RTVSPost2010Prop55
280
     0
102
RTVSPost2010PropOp55
 70
     1
102
RTVSPost2010Prop56
140
1.0
102
RTVSPost2010PropOp56
 70
     1
102
RTVSPost2010Prop57
140
1.0
102
RTVSPost2010PropOp57
 70
     1
102
RTVSPropertyOp0
 70
     1
102
RTVSPropertyOp1
 70
     1
102
RTVSPropertyOp2
 70
     1
102
RTVSPropertyOp3
 70
     1
102
RTVSPropertyOp4
 70
     1
102
RTVSPropertyOp5
 70
     1
102
RTVSPropertyOp6
 70
     1
102
RTVSPropertyOp7
 70
     1
102
RTVSPropertyOp8
 70
     1
102
RTVSPropertyOp9
 70
     1
102
RTVSPropertyOp10
 70
     1
102
RTVSPropertyOp11
 70
     1
102
RTVSPropertyOp12
 70
     1
102
RTVSPropertyOp13
 70
     1
102
RTVSPropertyOp14
 70
     1
102
RTVSPropertyOp15
 70
     1
102
RTVSPropertyOp16
 70
     1
102
RTVSPropertyOp17
 70
     1
102
RTVSPropertyOp18
 70
     1
102
RTVSPropertyOp19
 70
     1
102
RTVSPropertyOp20
 70
     1
102
RTVSPropertyOp21
 70
     1
102
RTVSPropertyOp22
 70
     1
102
RTVSPropertyOp23
 70
     1
102
RTVSPropertyOp24
 70
     1
102
RTVSPropertyOp25
 70
     1
102
RTVSPropertyOp26
 70
     1
102
RTVSPropertyOp27
 70
     1
102
RTVSPropertyOp28
 70
     1
102
RTVSPropertyOp29
 70
     1
102
RTVSPropertyOp30
 70
     1
102
RTVSPropertyOp31
 70
     1
102
RTVSPropertyOp32
 70
     1
102
RTVSPropertyOp33
 70
     1
102
RTVSPropertyOp34
 70
     1
102
RTVSPropertyOp35
 70
     1
102
RTVSPropertyOp36
 70
     1
102
RTVSPropertyOp37
 70
     1
102
RTVSPropertyOp38
 70
     1
102
RTVSPropertyOp39
 70
     1
102
RTVSPropertyOp40
 70
     1
102
RTVSPropertyOp41
 70
     1
102
RTVSPropertyOp42
 70
     1
102
RTVSPropertyOp43
 70
     1
102
RTVSPropertyOp44
 70
     1
102
RTVSPropertyOp45
 70
     1
102
RTVSPropertyOp46
 70
     1
102
RTVSPropertyOp47
 70
     1
102
RTVSPropertyOp48
 70
     1
102
RTVSPropertyOp49
 70
     1
102
RTVSPropertyOp50
 70
     1
102
RTVSPropertyOp51
 70
     0
102
RTVSPropertyOp52
 70
     0
102
RTVSPropertyOp53
 70
     1
102
RTVSPropertyOp54
 70
     1
102
RTVSPropertyOp55
 70
     1
102
RTVSPropertyOp56
 70
     1
102
RTVSPropertyOp57
 70
     1
102
RTVSPropertyOp58
 70
     1
102
RTVSPropertyOp59
 70
     1
102
RTVSPropertyOp60
 70
     1
102
RTVSPropertyOp61
 70
     1
102
RTVSPropertyOp62
 70
     1
  0
XRECORD
  5
21EB8
102
{ACAD_REACTORS
330
21EB7
102
}
330
21EB7
100
AcDbXrecord
280
     1
102
RTVSPost2010Prop28
280
     0
102
RTVSPost2010PropOp28
 70
     1
102
RTVSPost2010Prop29
280
     1
102
RTVSPost2010PropOp29
 70
     1
102
RTVSPost2010Prop30
280
     1
102
RTVSPost2010PropOp30
 70
     1
102
RTVSPost2010Prop31
280
     0
102
RTVSPost2010PropOp31
 70
     1
102
RTVSPost2010Prop32
280
     0
102
RTVSPost2010PropOp32
 70
     1
102
RTVSPost2010Prop33
280
     0
102
RTVSPost2010PropOp33
 70
     1
102
RTVSPost2010Prop34
280
     0
102
RTVSPost2010PropOp34
 70
     1
102
RTVSPost2010Prop35
280
     0
102
RTVSPost2010PropOp35
 70
     1
102
RTVSPost2010Prop36
280
     0
102
RTVSPost2010PropOp36
 70
     1
102
RTVSPost2010Prop37
 90
       50
102
RTVSPost2010PropOp37
 70
     1
102
RTVSPost2010Prop38
140
0.0
102
RTVSPost2010PropOp38
 70
     1
102
RTVSPost2010Prop39
140
1.0
102
RTVSPost2010PropOp39
 70
     1
102
RTVSPost2010Prop40
 90
        0
102
RTVSPost2010PropOp40
 70
     1
102
RTVSPost2010Prop41ColorIndex
 90
       18
102
RTVSPost2010Prop41ColorRGB
 90
        0
102
RTVSPost2010PropOp41
 70
     1
102
RTVSPost2010Prop42
 90
       50
102
RTVSPost2010PropOp42
 70
     1
102
RTVSPost2010Prop43
 90
        3
102
RTVSPost2010PropOp43
 70
     1
102
RTVSPost2010Prop44ColorIndex
 90
        5
102
RTVSPost2010Prop44ColorRGB
 90
      255
102
RTVSPost2010PropOp44
 70
     1
102
RTVSPost2010Prop45
280
     0
102
RTVSPost2010PropOp45
 70
     1
102
RTVSPost2010Prop46
 90
       50
102
RTVSPost2010PropOp46
 70
     1
102
RTVSPost2010Prop47
 90
       50
102
RTVSPost2010PropOp47
 70
     1
102
RTVSPost2010Prop48
 90
       50
102
RTVSPost2010PropOp48
 70
     1
102
RTVSPost2010Prop49
280
     0
102
RTVSPost2010PropOp49
 70
     1
102
RTVSPost2010Prop50
 90
       50
102
RTVSPost2010PropOp50
 70
     1
102
RTVSPost2010Prop51ColorIndex
 90
      256
102
RTVSPost2010Prop51ColorRGB
 90
-16777216
102
RTVSPost2010PropOp51
 70
     0
102
RTVSPost2010Prop52
140
1.0
102
RTVSPost2010PropOp52
 70
     0
102
RTVSPost2010Prop53
 90
        2
102
RTVSPost2010PropOp53
 70
     1
102
RTVSPost2010Prop54
  1
strokes_ogs.tif
102
RTVSPost2010PropOp54
 70
     1
102
RTVSPost2010Prop55
280
     0
102
RTVSPost2010PropOp55
 70
     1
102
RTVSPost2010Prop56
140
1.0
102
RTVSPost2010PropOp56
 70
     1
102
RTVSPost2010Prop57
140
1.0
102
RTVSPost2010PropOp57
 70
     1
102
RTVSPropertyOp0
 70
     1
102
RTVSPropertyOp1
 70
     1
102
RTVSPropertyOp2
 70
     1
102
RTVSPropertyOp3
 70
     1
102
RTVSPropertyOp4
 70
     1
102
RTVSPropertyOp5
 70
     1
102
RTVSPropertyOp6
 70
     1
102
RTVSPropertyOp7
 70
     1
102
RTVSPropertyOp8
 70
     1
102
RTVSPropertyOp9
 70
     1
102
RTVSPropertyOp10
 70
     1
102
RTVSPropertyOp11
 70
     1
102
RTVSPropertyOp12
 70
     1
102
RTVSPropertyOp13
 70
     1
102
RTVSPropertyOp14
 70
     1
102
RTVSPropertyOp15
 70
     1
102
RTVSPropertyOp16
 70
     1
102
RTVSPropertyOp17
 70
     1
102
RTVSPropertyOp18
 70
     1
102
RTVSPropertyOp19
 70
     1
102
RTVSPropertyOp20
 70
     1
102
RTVSPropertyOp21
 70
     1
102
RTVSPropertyOp22
 70
     1
102
RTVSPropertyOp23
 70
     1
102
RTVSPropertyOp24
 70
     1
102
RTVSPropertyOp25
 70
     1
102
RTVSPropertyOp26
 70
     1
102
RTVSPropertyOp27
 70
     1
102
RTVSPropertyOp28
 70
     1
102
RTVSPropertyOp29
 70
     1
102
RTVSPropertyOp30
 70
     1
102
RTVSPropertyOp31
 70
     1
102
RTVSPropertyOp32
 70
     1
102
RTVSPropertyOp33
 70
     1
102
RTVSPropertyOp34
 70
     1
102
RTVSPropertyOp35
 70
     1
102
RTVSPropertyOp36
 70
     1
102
RTVSPropertyOp37
 70
     1
102
RTVSPropertyOp38
 70
     1
102
RTVSPropertyOp39
 70
     1
102
RTVSPropertyOp40
 70
     1
102
RTVSPropertyOp41
 70
     1
102
RTVSPropertyOp42
 70
     1
102
RTVSPropertyOp43
 70
     1
102
RTVSPropertyOp44
 70
     1
102
RTVSPropertyOp45
 70
     1
102
RTVSPropertyOp46
 70
     1
102
RTVSPropertyOp47
 70
     1
102
RTVSPropertyOp48
 70
     1
102
RTVSPropertyOp49
 70
     1
102
RTVSPropertyOp50
 70
     1
102
RTVSPropertyOp51
 70
     0
102
RTVSPropertyOp52
 70
     0
102
RTVSPropertyOp53
 70
     1
102
RTVSPropertyOp54
 70
     1
102
RTVSPropertyOp55
 70
     1
102
RTVSPropertyOp56
 70
     1
102
RTVSPropertyOp57
 70
     1
102
RTVSPropertyOp58
 70
     1
102
RTVSPropertyOp59
 70
     1
102
RTVSPropertyOp60
 70
     1
102
RTVSPropertyOp61
 70
     1
102
RTVSPropertyOp62
 70
     1
  0
XRECORD
  5
21EDC
102
{ACAD_REACTORS
330
21EDB
102
}
330
21EDB
100
AcDbXrecord
280
     1
102
RTVSPost2010Prop28
280
     0
102
RTVSPost2010PropOp28
 70
     1
102
RTVSPost2010Prop29
280
     1
102
RTVSPost2010PropOp29
 70
     1
102
RTVSPost2010Prop30
280
     1
102
RTVSPost2010PropOp30
 70
     1
102
RTVSPost2010Prop31
280
     0
102
RTVSPost2010PropOp31
 70
     1
102
RTVSPost2010Prop32
280
     0
102
RTVSPost2010PropOp32
 70
     1
102
RTVSPost2010Prop33
280
     0
102
RTVSPost2010PropOp33
 70
     1
102
RTVSPost2010Prop34
280
     0
102
RTVSPost2010PropOp34
 70
     1
102
RTVSPost2010Prop35
280
     0
102
RTVSPost2010PropOp35
 70
     1
102
RTVSPost2010Prop36
280
     0
102
RTVSPost2010PropOp36
 70
     1
102
RTVSPost2010Prop37
 90
       50
102
RTVSPost2010PropOp37
 70
     1
102
RTVSPost2010Prop38
140
0.0
102
RTVSPost2010PropOp38
 70
     1
102
RTVSPost2010Prop39
140
1.0
102
RTVSPost2010PropOp39
 70
     1
102
RTVSPost2010Prop40
 90
        0
102
RTVSPost2010PropOp40
 70
     1
102
RTVSPost2010Prop41ColorIndex
 90
       18
102
RTVSPost2010Prop41ColorRGB
 90
        0
102
RTVSPost2010PropOp41
 70
     1
102
RTVSPost2010Prop42
 90
       50
102
RTVSPost2010PropOp42
 70
     1
102
RTVSPost2010Prop43
 90
        3
102
RTVSPost2010PropOp43
 70
     1
102
RTVSPost2010Prop44ColorIndex
 90
        5
102
RTVSPost2010Prop44ColorRGB
 90
      255
102
RTVSPost2010PropOp44
 70
     1
102
RTVSPost2010Prop45
280
     0
102
RTVSPost2010PropOp45
 70
     1
102
RTVSPost2010Prop46
 90
       50
102
RTVSPost2010PropOp46
 70
     1
102
RTVSPost2010Prop47
 90
       50
102
RTVSPost2010PropOp47
 70
     1
102
RTVSPost2010Prop48
 90
       50
102
RTVSPost2010PropOp48
 70
     1
102
RTVSPost2010Prop49
280
     0
102
RTVSPost2010PropOp49
 70
     1
102
RTVSPost2010Prop50
 90
       50
102
RTVSPost2010PropOp50
 70
     1
102
RTVSPost2010Prop51ColorIndex
 90
      256
102
RTVSPost2010Prop51ColorRGB
 90
-16777216
102
RTVSPost2010PropOp51
 70
     0
102
RTVSPost2010Prop52
140
1.0
102
RTVSPost2010PropOp52
 70
     0
102
RTVSPost2010Prop53
 90
        2
102
RTVSPost2010PropOp53
 70
     1
102
RTVSPost2010Prop54
  1
strokes_ogs.tif
102
RTVSPost2010PropOp54
 70
     1
102
RTVSPost2010Prop55
280
     0
102
RTVSPost2010PropOp55
 70
     1
102
RTVSPost2010Prop56
140
1.0
102
RTVSPost2010PropOp56
 70
     1
102
RTVSPost2010Prop57
140
1.0
102
RTVSPost2010PropOp57
 70
     1
102
RTVSPropertyOp0
 70
     1
102
RTVSPropertyOp1
 70
     1
102
RTVSPropertyOp2
 70
     1
102
RTVSPropertyOp3
 70
     1
102
RTVSPropertyOp4
 70
     1
102
RTVSPropertyOp5
 70
     1
102
RTVSPropertyOp6
 70
     1
102
RTVSPropertyOp7
 70
     1
102
RTVSPropertyOp8
 70
     1
102
RTVSPropertyOp9
 70
     1
102
RTVSPropertyOp10
 70
     1
102
RTVSPropertyOp11
 70
     1
102
RTVSPropertyOp12
 70
     1
102
RTVSPropertyOp13
 70
     1
102
RTVSPropertyOp14
 70
     1
102
RTVSPropertyOp15
 70
     1
102
RTVSPropertyOp16
 70
     1
102
RTVSPropertyOp17
 70
     1
102
RTVSPropertyOp18
 70
     1
102
RTVSPropertyOp19
 70
     1
102
RTVSPropertyOp20
 70
     1
102
RTVSPropertyOp21
 70
     1
102
RTVSPropertyOp22
 70
     1
102
RTVSPropertyOp23
 70
     1
102
RTVSPropertyOp24
 70
     1
102
RTVSPropertyOp25
 70
     1
102
RTVSPropertyOp26
 70
     1
102
RTVSPropertyOp27
 70
     1
102
RTVSPropertyOp28
 70
     1
102
RTVSPropertyOp29
 70
     1
102
RTVSPropertyOp30
 70
     1
102
RTVSPropertyOp31
 70
     1
102
RTVSPropertyOp32
 70
     1
102
RTVSPropertyOp33
 70
     1
102
RTVSPropertyOp34
 70
     1
102
RTVSPropertyOp35
 70
     1
102
RTVSPropertyOp36
 70
     1
102
RTVSPropertyOp37
 70
     1
102
RTVSPropertyOp38
 70
     1
102
RTVSPropertyOp39
 70
     1
102
RTVSPropertyOp40
 70
     1
102
RTVSPropertyOp41
 70
     1
102
RTVSPropertyOp42
 70
     1
102
RTVSPropertyOp43
 70
     1
102
RTVSPropertyOp44
 70
     1
102
RTVSPropertyOp45
 70
     1
102
RTVSPropertyOp46
 70
     1
102
RTVSPropertyOp47
 70
     1
102
RTVSPropertyOp48
 70
     1
102
RTVSPropertyOp49
 70
     1
102
RTVSPropertyOp50
 70
     1
102
RTVSPropertyOp51
 70
     0
102
RTVSPropertyOp52
 70
     0
102
RTVSPropertyOp53
 70
     1
102
RTVSPropertyOp54
 70
     1
102
RTVSPropertyOp55
 70
     1
102
RTVSPropertyOp56
 70
     1
102
RTVSPropertyOp57
 70
     1
102
RTVSPropertyOp58
 70
     1
102
RTVSPropertyOp59
 70
     1
102
RTVSPropertyOp60
 70
     1
102
RTVSPropertyOp61
 70
     1
102
RTVSPropertyOp62
 70
     1
  0
XRECORD
  5
21EE8
102
{ACAD_REACTORS
330
21EE7
102
}
330
21EE7
100
AcDbXrecord
280
     1
102
RTVSPost2010Prop28
280
     0
102
RTVSPost2010PropOp28
 70
     1
102
RTVSPost2010Prop29
280
     1
102
RTVSPost2010PropOp29
 70
     1
102
RTVSPost2010Prop30
280
     1
102
RTVSPost2010PropOp30
 70
     1
102
RTVSPost2010Prop31
280
     0
102
RTVSPost2010PropOp31
 70
     1
102
RTVSPost2010Prop32
280
     0
102
RTVSPost2010PropOp32
 70
     1
102
RTVSPost2010Prop33
280
     0
102
RTVSPost2010PropOp33
 70
     1
102
RTVSPost2010Prop34
280
     0
102
RTVSPost2010PropOp34
 70
     1
102
RTVSPost2010Prop35
280
     0
102
RTVSPost2010PropOp35
 70
     1
102
RTVSPost2010Prop36
280
     0
102
RTVSPost2010PropOp36
 70
     1
102
RTVSPost2010Prop37
 90
       50
102
RTVSPost2010PropOp37
 70
     0
102
RTVSPost2010Prop38
140
0.0
102
RTVSPost2010PropOp38
 70
     0
102
RTVSPost2010Prop39
140
1.0
102
RTVSPost2010PropOp39
 70
     0
102
RTVSPost2010Prop40
 90
        0
102
RTVSPost2010PropOp40
 70
     0
102
RTVSPost2010Prop41ColorIndex
 90
       18
102
RTVSPost2010Prop41ColorRGB
 90
        0
102
RTVSPost2010PropOp41
 70
     0
102
RTVSPost2010Prop42
 90
       50
102
RTVSPost2010PropOp42
 70
     0
102
RTVSPost2010Prop43
 90
        3
102
RTVSPost2010PropOp43
 70
     0
102
RTVSPost2010Prop44ColorIndex
 90
        5
102
RTVSPost2010Prop44ColorRGB
 90
      255
102
RTVSPost2010PropOp44
 70
     0
102
RTVSPost2010Prop45
280
     0
102
RTVSPost2010PropOp45
 70
     1
102
RTVSPost2010Prop46
 90
       50
102
RTVSPost2010PropOp46
 70
     0
102
RTVSPost2010Prop47
 90
       50
102
RTVSPost2010PropOp47
 70
     0
102
RTVSPost2010Prop48
 90
       50
102
RTVSPost2010PropOp48
 70
     0
102
RTVSPost2010Prop49
280
     0
102
RTVSPost2010PropOp49
 70
     1
102
RTVSPost2010Prop50
 90
       50
102
RTVSPost2010PropOp50
 70
     0
102
RTVSPost2010Prop51ColorIndex
 90
      256
102
RTVSPost2010Prop51ColorRGB
 90
-16777216
102
RTVSPost2010PropOp51
 70
     0
102
RTVSPost2010Prop52
140
1.0
102
RTVSPost2010PropOp52
 70
     0
102
RTVSPost2010Prop53
 90
        2
102
RTVSPost2010PropOp53
 70
     0
102
RTVSPost2010Prop54
  1
strokes_ogs.tif
102
RTVSPost2010PropOp54
 70
     0
102
RTVSPost2010Prop55
280
     0
102
RTVSPost2010PropOp55
 70
     1
102
RTVSPost2010Prop56
140
1.0
102
RTVSPost2010PropOp56
 70
     0
102
RTVSPost2010Prop57
140
1.0
102
RTVSPost2010PropOp57
 70
     0
102
RTVSPropertyOp0
 70
     0
102
RTVSPropertyOp1
 70
     0
102
RTVSPropertyOp2
 70
     0
102
RTVSPropertyOp3
 70
     0
102
RTVSPropertyOp4
 70
     0
102
RTVSPropertyOp5
 70
     0
102
RTVSPropertyOp6
 70
     0
102
RTVSPropertyOp7
 70
     0
102
RTVSPropertyOp8
 70
     0
102
RTVSPropertyOp9
 70
     0
102
RTVSPropertyOp10
 70
     0
102
RTVSPropertyOp11
 70
     0
102
RTVSPropertyOp12
 70
     0
102
RTVSPropertyOp13
 70
     0
102
RTVSPropertyOp14
 70
     2
102
RTVSPropertyOp15
 70
     0
102
RTVSPropertyOp16
 70
     0
102
RTVSPropertyOp17
 70
     0
102
RTVSPropertyOp18
 70
     0
102
RTVSPropertyOp19
 70
     0
102
RTVSPropertyOp20
 70
     0
102
RTVSPropertyOp21
 70
     0
102
RTVSPropertyOp22
 70
     0
102
RTVSPropertyOp23
 70
     0
102
RTVSPropertyOp24
 70
     0
102
RTVSPropertyOp25
 70
     0
102
RTVSPropertyOp26
 70
     0
102
RTVSPropertyOp27
 70
     0
102
RTVSPropertyOp28
 70
     1
102
RTVSPropertyOp29
 70
     1
102
RTVSPropertyOp30
 70
     1
102
RTVSPropertyOp31
 70
     1
102
RTVSPropertyOp32
 70
     1
102
RTVSPropertyOp33
 70
     1
102
RTVSPropertyOp34
 70
     1
102
RTVSPropertyOp35
 70
     1
102
RTVSPropertyOp36
 70
     1
102
RTVSPropertyOp37
 70
     0
102
RTVSPropertyOp38
 70
     0
102
RTVSPropertyOp39
 70
     0
102
RTVSPropertyOp40
 70
     0
102
RTVSPropertyOp41
 70
     0
102
RTVSPropertyOp42
 70
     0
102
RTVSPropertyOp43
 70
     0
102
RTVSPropertyOp44
 70
     0
102
RTVSPropertyOp45
 70
     1
102
RTVSPropertyOp46
 70
     0
102
RTVSPropertyOp47
 70
     0
102
RTVSPropertyOp48
 70
     0
102
RTVSPropertyOp49
 70
     1
102
RTVSPropertyOp50
 70
     0
102
RTVSPropertyOp51
 70
     0
102
RTVSPropertyOp52
 70
     0
102
RTVSPropertyOp53
 70
     0
102
RTVSPropertyOp54
 70
     0
102
RTVSPropertyOp55
 70
     1
102
RTVSPropertyOp56
 70
     0
102
RTVSPropertyOp57
 70
     0
102
RTVSPropertyOp58
 70
     1
102
RTVSPropertyOp59
 70
     1
102
RTVSPropertyOp60
 70
     1
102
RTVSPropertyOp61
 70
     1
102
RTVSPropertyOp62
 70
     1
  0
XRECORD
  5
21ECC
102
{ACAD_REACTORS
330
21ECB
102
}
330
21ECB
100
AcDbXrecord
280
     1
102
RTVSPost2010Prop28
280
     0
102
RTVSPost2010PropOp28
 70
     1
102
RTVSPost2010Prop29
280
     1
102
RTVSPost2010PropOp29
 70
     1
102
RTVSPost2010Prop30
280
     1
102
RTVSPost2010PropOp30
 70
     1
102
RTVSPost2010Prop31
280
     0
102
RTVSPost2010PropOp31
 70
     1
102
RTVSPost2010Prop32
280
     0
102
RTVSPost2010PropOp32
 70
     1
102
RTVSPost2010Prop33
280
     0
102
RTVSPost2010PropOp33
 70
     1
102
RTVSPost2010Prop34
280
     0
102
RTVSPost2010PropOp34
 70
     1
102
RTVSPost2010Prop35
280
     0
102
RTVSPost2010PropOp35
 70
     1
102
RTVSPost2010Prop36
280
     0
102
RTVSPost2010PropOp36
 70
     1
102
RTVSPost2010Prop37
 90
       50
102
RTVSPost2010PropOp37
 70
     1
102
RTVSPost2010Prop38
140
0.0
102
RTVSPost2010PropOp38
 70
     1
102
RTVSPost2010Prop39
140
1.0
102
RTVSPost2010PropOp39
 70
     1
102
RTVSPost2010Prop40
 90
        0
102
RTVSPost2010PropOp40
 70
     1
102
RTVSPost2010Prop41ColorIndex
 90
       18
102
RTVSPost2010Prop41ColorRGB
 90
        0
102
RTVSPost2010PropOp41
 70
     1
102
RTVSPost2010Prop42
 90
       50
102
RTVSPost2010PropOp42
 70
     1
102
RTVSPost2010Prop43
 90
        3
102
RTVSPost2010PropOp43
 70
     1
102
RTVSPost2010Prop44ColorIndex
 90
        5
102
RTVSPost2010Prop44ColorRGB
 90
      255
102
RTVSPost2010PropOp44
 70
     1
102
RTVSPost2010Prop45
280
     0
102
RTVSPost2010PropOp45
 70
     1
102
RTVSPost2010Prop46
 90
       50
102
RTVSPost2010PropOp46
 70
     1
102
RTVSPost2010Prop47
 90
       50
102
RTVSPost2010PropOp47
 70
     1
102
RTVSPost2010Prop48
 90
       50
102
RTVSPost2010PropOp48
 70
     1
102
RTVSPost2010Prop49
280
     0
102
RTVSPost2010PropOp49
 70
     1
102
RTVSPost2010Prop50
 90
       50
102
RTVSPost2010PropOp50
 70
     1
102
RTVSPost2010Prop51ColorIndex
 90
      256
102
RTVSPost2010Prop51ColorRGB
 90
-16777216
102
RTVSPost2010PropOp51
 70
     0
102
RTVSPost2010Prop52
140
1.0
102
RTVSPost2010PropOp52
 70
     0
102
RTVSPost2010Prop53
 90
        2
102
RTVSPost2010PropOp53
 70
     1
102
RTVSPost2010Prop54
  1
strokes_ogs.tif
102
RTVSPost2010PropOp54
 70
     1
102
RTVSPost2010Prop55
280
     0
102
RTVSPost2010PropOp55
 70
     1
102
RTVSPost2010Prop56
140
1.0
102
RTVSPost2010PropOp56
 70
     1
102
RTVSPost2010Prop57
140
1.0
102
RTVSPost2010PropOp57
 70
     1
102
RTVSPropertyOp0
 70
     1
102
RTVSPropertyOp1
 70
     1
102
RTVSPropertyOp2
 70
     1
102
RTVSPropertyOp3
 70
     1
102
RTVSPropertyOp4
 70
     1
102
RTVSPropertyOp5
 70
     1
102
RTVSPropertyOp6
 70
     1
102
RTVSPropertyOp7
 70
     1
102
RTVSPropertyOp8
 70
     1
102
RTVSPropertyOp9
 70
     1
102
RTVSPropertyOp10
 70
     1
102
RTVSPropertyOp11
 70
     1
102
RTVSPropertyOp12
 70
     1
102
RTVSPropertyOp13
 70
     1
102
RTVSPropertyOp14
 70
     1
102
RTVSPropertyOp15
 70
     1
102
RTVSPropertyOp16
 70
     1
102
RTVSPropertyOp17
 70
     1
102
RTVSPropertyOp18
 70
     1
102
RTVSPropertyOp19
 70
     1
102
RTVSPropertyOp20
 70
     1
102
RTVSPropertyOp21
 70
     1
102
RTVSPropertyOp22
 70
     1
102
RTVSPropertyOp23
 70
     1
102
RTVSPropertyOp24
 70
     1
102
RTVSPropertyOp25
 70
     1
102
RTVSPropertyOp26
 70
     1
102
RTVSPropertyOp27
 70
     1
102
RTVSPropertyOp28
 70
     1
102
RTVSPropertyOp29
 70
     1
102
RTVSPropertyOp30
 70
     1
102
RTVSPropertyOp31
 70
     1
102
RTVSPropertyOp32
 70
     1
102
RTVSPropertyOp33
 70
     1
102
RTVSPropertyOp34
 70
     1
102
RTVSPropertyOp35
 70
     1
102
RTVSPropertyOp36
 70
     1
102
RTVSPropertyOp37
 70
     1
102
RTVSPropertyOp38
 70
     1
102
RTVSPropertyOp39
 70
     1
102
RTVSPropertyOp40
 70
     1
102
RTVSPropertyOp41
 70
     1
102
RTVSPropertyOp42
 70
     1
102
RTVSPropertyOp43
 70
     1
102
RTVSPropertyOp44
 70
     1
102
RTVSPropertyOp45
 70
     1
102
RTVSPropertyOp46
 70
     1
102
RTVSPropertyOp47
 70
     1
102
RTVSPropertyOp48
 70
     1
102
RTVSPropertyOp49
 70
     1
102
RTVSPropertyOp50
 70
     1
102
RTVSPropertyOp51
 70
     0
102
RTVSPropertyOp52
 70
     0
102
RTVSPropertyOp53
 70
     1
102
RTVSPropertyOp54
 70
     1
102
RTVSPropertyOp55
 70
     1
102
RTVSPropertyOp56
 70
     1
102
RTVSPropertyOp57
 70
     1
102
RTVSPropertyOp58
 70
     1
102
RTVSPropertyOp59
 70
     1
102
RTVSPropertyOp60
 70
     1
102
RTVSPropertyOp61
 70
     1
102
RTVSPropertyOp62
 70
     1
  0
XRECORD
  5
21EEA
102
{ACAD_REACTORS
330
21EE9
102
}
330
21EE9
100
AcDbXrecord
280
     1
102
RTVSPost2010Prop28
280
     0
102
RTVSPost2010PropOp28
 70
     1
102
RTVSPost2010Prop29
280
     1
102
RTVSPost2010PropOp29
 70
     1
102
RTVSPost2010Prop30
280
     1
102
RTVSPost2010PropOp30
 70
     1
102
RTVSPost2010Prop31
280
     0
102
RTVSPost2010PropOp31
 70
     1
102
RTVSPost2010Prop32
280
     0
102
RTVSPost2010PropOp32
 70
     1
102
RTVSPost2010Prop33
280
     0
102
RTVSPost2010PropOp33
 70
     1
102
RTVSPost2010Prop34
280
     0
102
RTVSPost2010PropOp34
 70
     1
102
RTVSPost2010Prop35
280
     0
102
RTVSPost2010PropOp35
 70
     1
102
RTVSPost2010Prop36
280
     0
102
RTVSPost2010PropOp36
 70
     1
102
RTVSPost2010Prop37
 90
       50
102
RTVSPost2010PropOp37
 70
     0
102
RTVSPost2010Prop38
140
0.0
102
RTVSPost2010PropOp38
 70
     0
102
RTVSPost2010Prop39
140
1.0
102
RTVSPost2010PropOp39
 70
     0
102
RTVSPost2010Prop40
 90
        0
102
RTVSPost2010PropOp40
 70
     0
102
RTVSPost2010Prop41ColorIndex
 90
       18
102
RTVSPost2010Prop41ColorRGB
 90
        0
102
RTVSPost2010PropOp41
 70
     0
102
RTVSPost2010Prop42
 90
       50
102
RTVSPost2010PropOp42
 70
     0
102
RTVSPost2010Prop43
 90
        3
102
RTVSPost2010PropOp43
 70
     0
102
RTVSPost2010Prop44ColorIndex
 90
        5
102
RTVSPost2010Prop44ColorRGB
 90
      255
102
RTVSPost2010PropOp44
 70
     0
102
RTVSPost2010Prop45
280
     0
102
RTVSPost2010PropOp45
 70
     1
102
RTVSPost2010Prop46
 90
       50
102
RTVSPost2010PropOp46
 70
     0
102
RTVSPost2010Prop47
 90
       50
102
RTVSPost2010PropOp47
 70
     0
102
RTVSPost2010Prop48
 90
       50
102
RTVSPost2010PropOp48
 70
     0
102
RTVSPost2010Prop49
280
     0
102
RTVSPost2010PropOp49
 70
     1
102
RTVSPost2010Prop50
 90
       50
102
RTVSPost2010PropOp50
 70
     0
102
RTVSPost2010Prop51ColorIndex
 90
      256
102
RTVSPost2010Prop51ColorRGB
 90
-16777216
102
RTVSPost2010PropOp51
 70
     0
102
RTVSPost2010Prop52
140
1.0
102
RTVSPost2010PropOp52
 70
     0
102
RTVSPost2010Prop53
 90
        2
102
RTVSPost2010PropOp53
 70
     0
102
RTVSPost2010Prop54
  1
strokes_ogs.tif
102
RTVSPost2010PropOp54
 70
     0
102
RTVSPost2010Prop55
280
     0
102
RTVSPost2010PropOp55
 70
     1
102
RTVSPost2010Prop56
140
1.0
102
RTVSPost2010PropOp56
 70
     0
102
RTVSPost2010Prop57
140
1.0
102
RTVSPost2010PropOp57
 70
     0
102
RTVSPropertyOp0
 70
     0
102
RTVSPropertyOp1
 70
     0
102
RTVSPropertyOp2
 70
     0
102
RTVSPropertyOp3
 70
     0
102
RTVSPropertyOp4
 70
     0
102
RTVSPropertyOp5
 70
     0
102
RTVSPropertyOp6
 70
     0
102
RTVSPropertyOp7
 70
     0
102
RTVSPropertyOp8
 70
     0
102
RTVSPropertyOp9
 70
     0
102
RTVSPropertyOp10
 70
     0
102
RTVSPropertyOp11
 70
     0
102
RTVSPropertyOp12
 70
     0
102
RTVSPropertyOp13
 70
     0
102
RTVSPropertyOp14
 70
     2
102
RTVSPropertyOp15
 70
     0
102
RTVSPropertyOp16
 70
     0
102
RTVSPropertyOp17
 70
     0
102
RTVSPropertyOp18
 70
     0
102
RTVSPropertyOp19
 70
     0
102
RTVSPropertyOp20
 70
     0
102
RTVSPropertyOp21
 70
     0
102
RTVSPropertyOp22
 70
     0
102
RTVSPropertyOp23
 70
     0
102
RTVSPropertyOp24
 70
     0
102
RTVSPropertyOp25
 70
     0
102
RTVSPropertyOp26
 70
     0
102
RTVSPropertyOp27
 70
     0
102
RTVSPropertyOp28
 70
     1
102
RTVSPropertyOp29
 70
     1
102
RTVSPropertyOp30
 70
     1
102
RTVSPropertyOp31
 70
     1
102
RTVSPropertyOp32
 70
     1
102
RTVSPropertyOp33
 70
     1
102
RTVSPropertyOp34
 70
     1
102
RTVSPropertyOp35
 70
     1
102
RTVSPropertyOp36
 70
     1
102
RTVSPropertyOp37
 70
     0
102
RTVSPropertyOp38
 70
     0
102
RTVSPropertyOp39
 70
     0
102
RTVSPropertyOp40
 70
     0
102
RTVSPropertyOp41
 70
     0
102
RTVSPropertyOp42
 70
     0
102
RTVSPropertyOp43
 70
     0
102
RTVSPropertyOp44
 70
     0
102
RTVSPropertyOp45
 70
     1
102
RTVSPropertyOp46
 70
     0
102
RTVSPropertyOp47
 70
     0
102
RTVSPropertyOp48
 70
     0
102
RTVSPropertyOp49
 70
     1
102
RTVSPropertyOp50
 70
     0
102
RTVSPropertyOp51
 70
     0
102
RTVSPropertyOp52
 70
     0
102
RTVSPropertyOp53
 70
     0
102
RTVSPropertyOp54
 70
     0
102
RTVSPropertyOp55
 70
     1
102
RTVSPropertyOp56
 70
     0
102
RTVSPropertyOp57
 70
     0
102
RTVSPropertyOp58
 70
     1
102
RTVSPropertyOp59
 70
     1
102
RTVSPropertyOp60
 70
     1
102
RTVSPropertyOp61
 70
     1
102
RTVSPropertyOp62
 70
     1
  0
XRECORD
  5
21EC4
102
{ACAD_REACTORS
330
21EC3
102
}
330
21EC3
100
AcDbXrecord
280
     1
102
RTVSPost2010Prop28
280
     0
102
RTVSPost2010PropOp28
 70
     1
102
RTVSPost2010Prop29
280
     1
102
RTVSPost2010PropOp29
 70
     1
102
RTVSPost2010Prop30
280
     1
102
RTVSPost2010PropOp30
 70
     1
102
RTVSPost2010Prop31
280
     0
102
RTVSPost2010PropOp31
 70
     1
102
RTVSPost2010Prop32
280
     0
102
RTVSPost2010PropOp32
 70
     1
102
RTVSPost2010Prop33
280
     0
102
RTVSPost2010PropOp33
 70
     1
102
RTVSPost2010Prop34
280
     0
102
RTVSPost2010PropOp34
 70
     1
102
RTVSPost2010Prop35
280
     0
102
RTVSPost2010PropOp35
 70
     1
102
RTVSPost2010Prop36
280
     0
102
RTVSPost2010PropOp36
 70
     1
102
RTVSPost2010Prop37
 90
       50
102
RTVSPost2010PropOp37
 70
     1
102
RTVSPost2010Prop38
140
0.0
102
RTVSPost2010PropOp38
 70
     1
102
RTVSPost2010Prop39
140
1.0
102
RTVSPost2010PropOp39
 70
     1
102
RTVSPost2010Prop40
 90
        0
102
RTVSPost2010PropOp40
 70
     1
102
RTVSPost2010Prop41ColorIndex
 90
       18
102
RTVSPost2010Prop41ColorRGB
 90
        0
102
RTVSPost2010PropOp41
 70
     1
102
RTVSPost2010Prop42
 90
       50
102
RTVSPost2010PropOp42
 70
     1
102
RTVSPost2010Prop43
 90
        3
102
RTVSPost2010PropOp43
 70
     1
102
RTVSPost2010Prop44ColorIndex
 90
        5
102
RTVSPost2010Prop44ColorRGB
 90
      255
102
RTVSPost2010PropOp44
 70
     1
102
RTVSPost2010Prop45
280
     0
102
RTVSPost2010PropOp45
 70
     1
102
RTVSPost2010Prop46
 90
       50
102
RTVSPost2010PropOp46
 70
     1
102
RTVSPost2010Prop47
 90
       50
102
RTVSPost2010PropOp47
 70
     1
102
RTVSPost2010Prop48
 90
       50
102
RTVSPost2010PropOp48
 70
     1
102
RTVSPost2010Prop49
280
     0
102
RTVSPost2010PropOp49
 70
     1
102
RTVSPost2010Prop50
 90
       50
102
RTVSPost2010PropOp50
 70
     1
102
RTVSPost2010Prop51ColorIndex
 90
      256
102
RTVSPost2010Prop51ColorRGB
 90
-16777216
102
RTVSPost2010PropOp51
 70
     0
102
RTVSPost2010Prop52
140
1.0
102
RTVSPost2010PropOp52
 70
     0
102
RTVSPost2010Prop53
 90
        2
102
RTVSPost2010PropOp53
 70
     1
102
RTVSPost2010Prop54
  1
strokes_ogs.tif
102
RTVSPost2010PropOp54
 70
     1
102
RTVSPost2010Prop55
280
     0
102
RTVSPost2010PropOp55
 70
     1
102
RTVSPost2010Prop56
140
1.0
102
RTVSPost2010PropOp56
 70
     1
102
RTVSPost2010Prop57
140
1.0
102
RTVSPost2010PropOp57
 70
     1
102
RTVSPropertyOp0
 70
     1
102
RTVSPropertyOp1
 70
     1
102
RTVSPropertyOp2
 70
     1
102
RTVSPropertyOp3
 70
     1
102
RTVSPropertyOp4
 70
     1
102
RTVSPropertyOp5
 70
     1
102
RTVSPropertyOp6
 70
     1
102
RTVSPropertyOp7
 70
     1
102
RTVSPropertyOp8
 70
     1
102
RTVSPropertyOp9
 70
     1
102
RTVSPropertyOp10
 70
     1
102
RTVSPropertyOp11
 70
     1
102
RTVSPropertyOp12
 70
     1
102
RTVSPropertyOp13
 70
     1
102
RTVSPropertyOp14
 70
     1
102
RTVSPropertyOp15
 70
     1
102
RTVSPropertyOp16
 70
     1
102
RTVSPropertyOp17
 70
     1
102
RTVSPropertyOp18
 70
     1
102
RTVSPropertyOp19
 70
     1
102
RTVSPropertyOp20
 70
     1
102
RTVSPropertyOp21
 70
     1
102
RTVSPropertyOp22
 70
     1
102
RTVSPropertyOp23
 70
     1
102
RTVSPropertyOp24
 70
     1
102
RTVSPropertyOp25
 70
     1
102
RTVSPropertyOp26
 70
     1
102
RTVSPropertyOp27
 70
     1
102
RTVSPropertyOp28
 70
     1
102
RTVSPropertyOp29
 70
     1
102
RTVSPropertyOp30
 70
     1
102
RTVSPropertyOp31
 70
     1
102
RTVSPropertyOp32
 70
     1
102
RTVSPropertyOp33
 70
     1
102
RTVSPropertyOp34
 70
     1
102
RTVSPropertyOp35
 70
     1
102
RTVSPropertyOp36
 70
     1
102
RTVSPropertyOp37
 70
     1
102
RTVSPropertyOp38
 70
     1
102
RTVSPropertyOp39
 70
     1
102
RTVSPropertyOp40
 70
     1
102
RTVSPropertyOp41
 70
     1
102
RTVSPropertyOp42
 70
     1
102
RTVSPropertyOp43
 70
     1
102
RTVSPropertyOp44
 70
     1
102
RTVSPropertyOp45
 70
     1
102
RTVSPropertyOp46
 70
     1
102
RTVSPropertyOp47
 70
     1
102
RTVSPropertyOp48
 70
     1
102
RTVSPropertyOp49
 70
     1
102
RTVSPropertyOp50
 70
     1
102
RTVSPropertyOp51
 70
     0
102
RTVSPropertyOp52
 70
     0
102
RTVSPropertyOp53
 70
     1
102
RTVSPropertyOp54
 70
     1
102
RTVSPropertyOp55
 70
     1
102
RTVSPropertyOp56
 70
     1
102
RTVSPropertyOp57
 70
     1
102
RTVSPropertyOp58
 70
     1
102
RTVSPropertyOp59
 70
     1
102
RTVSPropertyOp60
 70
     1
102
RTVSPropertyOp61
 70
     1
102
RTVSPropertyOp62
 70
     1
  0
XRECORD
  5
21EE6
102
{ACAD_REACTORS
330
21EE5
102
}
330
21EE5
100
AcDbXrecord
280
     1
102
RTVSPost2010Prop28
280
     0
102
RTVSPost2010PropOp28
 70
     1
102
RTVSPost2010Prop29
280
     1
102
RTVSPost2010PropOp29
 70
     1
102
RTVSPost2010Prop30
280
     1
102
RTVSPost2010PropOp30
 70
     1
102
RTVSPost2010Prop31
280
     0
102
RTVSPost2010PropOp31
 70
     1
102
RTVSPost2010Prop32
280
     0
102
RTVSPost2010PropOp32
 70
     1
102
RTVSPost2010Prop33
280
     0
102
RTVSPost2010PropOp33
 70
     1
102
RTVSPost2010Prop34
280
     0
102
RTVSPost2010PropOp34
 70
     1
102
RTVSPost2010Prop35
280
     0
102
RTVSPost2010PropOp35
 70
     1
102
RTVSPost2010Prop36
280
     0
102
RTVSPost2010PropOp36
 70
     1
102
RTVSPost2010Prop37
 90
       50
102
RTVSPost2010PropOp37
 70
     1
102
RTVSPost2010Prop38
140
0.0
102
RTVSPost2010PropOp38
 70
     1
102
RTVSPost2010Prop39
140
1.0
102
RTVSPost2010PropOp39
 70
     1
102
RTVSPost2010Prop40
 90
        0
102
RTVSPost2010PropOp40
 70
     1
102
RTVSPost2010Prop41ColorIndex
 90
       18
102
RTVSPost2010Prop41ColorRGB
 90
        0
102
RTVSPost2010PropOp41
 70
     1
102
RTVSPost2010Prop42
 90
       50
102
RTVSPost2010PropOp42
 70
     1
102
RTVSPost2010Prop43
 90
        3
102
RTVSPost2010PropOp43
 70
     1
102
RTVSPost2010Prop44ColorIndex
 90
        5
102
RTVSPost2010Prop44ColorRGB
 90
      255
102
RTVSPost2010PropOp44
 70
     1
102
RTVSPost2010Prop45
280
     0
102
RTVSPost2010PropOp45
 70
     1
102
RTVSPost2010Prop46
 90
       50
102
RTVSPost2010PropOp46
 70
     1
102
RTVSPost2010Prop47
 90
       50
102
RTVSPost2010PropOp47
 70
     1
102
RTVSPost2010Prop48
 90
       50
102
RTVSPost2010PropOp48
 70
     1
102
RTVSPost2010Prop49
280
     0
102
RTVSPost2010PropOp49
 70
     1
102
RTVSPost2010Prop50
 90
       50
102
RTVSPost2010PropOp50
 70
     1
102
RTVSPost2010Prop51ColorIndex
 90
      256
102
RTVSPost2010Prop51ColorRGB
 90
-16777216
102
RTVSPost2010PropOp51
 70
     0
102
RTVSPost2010Prop52
140
1.0
102
RTVSPost2010PropOp52
 70
     0
102
RTVSPost2010Prop53
 90
        2
102
RTVSPost2010PropOp53
 70
     1
102
RTVSPost2010Prop54
  1
strokes_ogs.tif
102
RTVSPost2010PropOp54
 70
     1
102
RTVSPost2010Prop55
280
     0
102
RTVSPost2010PropOp55
 70
     1
102
RTVSPost2010Prop56
140
1.0
102
RTVSPost2010PropOp56
 70
     1
102
RTVSPost2010Prop57
140
1.0
102
RTVSPost2010PropOp57
 70
     1
102
RTVSPropertyOp0
 70
     1
102
RTVSPropertyOp1
 70
     1
102
RTVSPropertyOp2
 70
     1
102
RTVSPropertyOp3
 70
     1
102
RTVSPropertyOp4
 70
     1
102
RTVSPropertyOp5
 70
     1
102
RTVSPropertyOp6
 70
     1
102
RTVSPropertyOp7
 70
     1
102
RTVSPropertyOp8
 70
     1
102
RTVSPropertyOp9
 70
     1
102
RTVSPropertyOp10
 70
     1
102
RTVSPropertyOp11
 70
     1
102
RTVSPropertyOp12
 70
     1
102
RTVSPropertyOp13
 70
     1
102
RTVSPropertyOp14
 70
     1
102
RTVSPropertyOp15
 70
     1
102
RTVSPropertyOp16
 70
     1
102
RTVSPropertyOp17
 70
     1
102
RTVSPropertyOp18
 70
     1
102
RTVSPropertyOp19
 70
     1
102
RTVSPropertyOp20
 70
     1
102
RTVSPropertyOp21
 70
     1
102
RTVSPropertyOp22
 70
     1
102
RTVSPropertyOp23
 70
     1
102
RTVSPropertyOp24
 70
     1
102
RTVSPropertyOp25
 70
     1
102
RTVSPropertyOp26
 70
     1
102
RTVSPropertyOp27
 70
     1
102
RTVSPropertyOp28
 70
     1
102
RTVSPropertyOp29
 70
     1
102
RTVSPropertyOp30
 70
     1
102
RTVSPropertyOp31
 70
     1
102
RTVSPropertyOp32
 70
     1
102
RTVSPropertyOp33
 70
     1
102
RTVSPropertyOp34
 70
     1
102
RTVSPropertyOp35
 70
     1
102
RTVSPropertyOp36
 70
     1
102
RTVSPropertyOp37
 70
     1
102
RTVSPropertyOp38
 70
     1
102
RTVSPropertyOp39
 70
     1
102
RTVSPropertyOp40
 70
     1
102
RTVSPropertyOp41
 70
     1
102
RTVSPropertyOp42
 70
     1
102
RTVSPropertyOp43
 70
     1
102
RTVSPropertyOp44
 70
     1
102
RTVSPropertyOp45
 70
     1
102
RTVSPropertyOp46
 70
     1
102
RTVSPropertyOp47
 70
     1
102
RTVSPropertyOp48
 70
     1
102
RTVSPropertyOp49
 70
     1
102
RTVSPropertyOp50
 70
     1
102
RTVSPropertyOp51
 70
     0
102
RTVSPropertyOp52
 70
     0
102
RTVSPropertyOp53
 70
     1
102
RTVSPropertyOp54
 70
     1
102
RTVSPropertyOp55
 70
     1
102
RTVSPropertyOp56
 70
     1
102
RTVSPropertyOp57
 70
     1
102
RTVSPropertyOp58
 70
     1
102
RTVSPropertyOp59
 70
     1
102
RTVSPropertyOp60
 70
     1
102
RTVSPropertyOp61
 70
     1
102
RTVSPropertyOp62
 70
     1
  0
XRECORD
  5
21EE4
102
{ACAD_REACTORS
330
21EE3
102
}
330
21EE3
100
AcDbXrecord
280
     1
102
RTVSPost2010Prop28
280
     0
102
RTVSPost2010PropOp28
 70
     1
102
RTVSPost2010Prop29
280
     1
102
RTVSPost2010PropOp29
 70
     1
102
RTVSPost2010Prop30
280
     1
102
RTVSPost2010PropOp30
 70
     1
102
RTVSPost2010Prop31
280
     0
102
RTVSPost2010PropOp31
 70
     1
102
RTVSPost2010Prop32
280
     0
102
RTVSPost2010PropOp32
 70
     1
102
RTVSPost2010Prop33
280
     0
102
RTVSPost2010PropOp33
 70
     1
102
RTVSPost2010Prop34
280
     0
102
RTVSPost2010PropOp34
 70
     1
102
RTVSPost2010Prop35
280
     0
102
RTVSPost2010PropOp35
 70
     1
102
RTVSPost2010Prop36
280
     0
102
RTVSPost2010PropOp36
 70
     1
102
RTVSPost2010Prop37
 90
       50
102
RTVSPost2010PropOp37
 70
     1
102
RTVSPost2010Prop38
140
0.0
102
RTVSPost2010PropOp38
 70
     1
102
RTVSPost2010Prop39
140
1.0
102
RTVSPost2010PropOp39
 70
     1
102
RTVSPost2010Prop40
 90
        0
102
RTVSPost2010PropOp40
 70
     1
102
RTVSPost2010Prop41ColorIndex
 90
       18
102
RTVSPost2010Prop41ColorRGB
 90
        0
102
RTVSPost2010PropOp41
 70
     1
102
RTVSPost2010Prop42
 90
       50
102
RTVSPost2010PropOp42
 70
     1
102
RTVSPost2010Prop43
 90
        3
102
RTVSPost2010PropOp43
 70
     1
102
RTVSPost2010Prop44ColorIndex
 90
        5
102
RTVSPost2010Prop44ColorRGB
 90
      255
102
RTVSPost2010PropOp44
 70
     1
102
RTVSPost2010Prop45
280
     0
102
RTVSPost2010PropOp45
 70
     1
102
RTVSPost2010Prop46
 90
       50
102
RTVSPost2010PropOp46
 70
     1
102
RTVSPost2010Prop47
 90
       50
102
RTVSPost2010PropOp47
 70
     1
102
RTVSPost2010Prop48
 90
       50
102
RTVSPost2010PropOp48
 70
     1
102
RTVSPost2010Prop49
280
     0
102
RTVSPost2010PropOp49
 70
     1
102
RTVSPost2010Prop50
 90
       50
102
RTVSPost2010PropOp50
 70
     1
102
RTVSPost2010Prop51ColorIndex
 90
      256
102
RTVSPost2010Prop51ColorRGB
 90
-16777216
102
RTVSPost2010PropOp51
 70
     0
102
RTVSPost2010Prop52
140
1.0
102
RTVSPost2010PropOp52
 70
     0
102
RTVSPost2010Prop53
 90
        2
102
RTVSPost2010PropOp53
 70
     1
102
RTVSPost2010Prop54
  1
strokes_ogs.tif
102
RTVSPost2010PropOp54
 70
     1
102
RTVSPost2010Prop55
280
     0
102
RTVSPost2010PropOp55
 70
     1
102
RTVSPost2010Prop56
140
1.0
102
RTVSPost2010PropOp56
 70
     1
102
RTVSPost2010Prop57
140
1.0
102
RTVSPost2010PropOp57
 70
     1
102
RTVSPropertyOp0
 70
     1
102
RTVSPropertyOp1
 70
     1
102
RTVSPropertyOp2
 70
     1
102
RTVSPropertyOp3
 70
     1
102
RTVSPropertyOp4
 70
     1
102
RTVSPropertyOp5
 70
     1
102
RTVSPropertyOp6
 70
     1
102
RTVSPropertyOp7
 70
     1
102
RTVSPropertyOp8
 70
     1
102
RTVSPropertyOp9
 70
     1
102
RTVSPropertyOp10
 70
     1
102
RTVSPropertyOp11
 70
     1
102
RTVSPropertyOp12
 70
     1
102
RTVSPropertyOp13
 70
     1
102
RTVSPropertyOp14
 70
     1
102
RTVSPropertyOp15
 70
     1
102
RTVSPropertyOp16
 70
     1
102
RTVSPropertyOp17
 70
     1
102
RTVSPropertyOp18
 70
     1
102
RTVSPropertyOp19
 70
     1
102
RTVSPropertyOp20
 70
     1
102
RTVSPropertyOp21
 70
     1
102
RTVSPropertyOp22
 70
     1
102
RTVSPropertyOp23
 70
     1
102
RTVSPropertyOp24
 70
     1
102
RTVSPropertyOp25
 70
     1
102
RTVSPropertyOp26
 70
     1
102
RTVSPropertyOp27
 70
     1
102
RTVSPropertyOp28
 70
     1
102
RTVSPropertyOp29
 70
     1
102
RTVSPropertyOp30
 70
     1
102
RTVSPropertyOp31
 70
     1
102
RTVSPropertyOp32
 70
     1
102
RTVSPropertyOp33
 70
     1
102
RTVSPropertyOp34
 70
     1
102
RTVSPropertyOp35
 70
     1
102
RTVSPropertyOp36
 70
     1
102
RTVSPropertyOp37
 70
     1
102
RTVSPropertyOp38
 70
     1
102
RTVSPropertyOp39
 70
     1
102
RTVSPropertyOp40
 70
     1
102
RTVSPropertyOp41
 70
     1
102
RTVSPropertyOp42
 70
     1
102
RTVSPropertyOp43
 70
     1
102
RTVSPropertyOp44
 70
     1
102
RTVSPropertyOp45
 70
     1
102
RTVSPropertyOp46
 70
     1
102
RTVSPropertyOp47
 70
     1
102
RTVSPropertyOp48
 70
     1
102
RTVSPropertyOp49
 70
     1
102
RTVSPropertyOp50
 70
     1
102
RTVSPropertyOp51
 70
     0
102
RTVSPropertyOp52
 70
     0
102
RTVSPropertyOp53
 70
     1
102
RTVSPropertyOp54
 70
     1
102
RTVSPropertyOp55
 70
     1
102
RTVSPropertyOp56
 70
     1
102
RTVSPropertyOp57
 70
     1
102
RTVSPropertyOp58
 70
     1
102
RTVSPropertyOp59
 70
     1
102
RTVSPropertyOp60
 70
     1
102
RTVSPropertyOp61
 70
     1
102
RTVSPropertyOp62
 70
     1
  0
XRECORD
  5
21EDE
102
{ACAD_REACTORS
330
21EDD
102
}
330
21EDD
100
AcDbXrecord
280
     1
102
RTVSPost2010Prop28
280
     0
102
RTVSPost2010PropOp28
 70
     1
102
RTVSPost2010Prop29
280
     1
102
RTVSPost2010PropOp29
 70
     1
102
RTVSPost2010Prop30
280
     1
102
RTVSPost2010PropOp30
 70
     1
102
RTVSPost2010Prop31
280
     0
102
RTVSPost2010PropOp31
 70
     1
102
RTVSPost2010Prop32
280
     0
102
RTVSPost2010PropOp32
 70
     1
102
RTVSPost2010Prop33
280
     0
102
RTVSPost2010PropOp33
 70
     1
102
RTVSPost2010Prop34
280
     0
102
RTVSPost2010PropOp34
 70
     1
102
RTVSPost2010Prop35
280
     0
102
RTVSPost2010PropOp35
 70
     1
102
RTVSPost2010Prop36
280
     0
102
RTVSPost2010PropOp36
 70
     1
102
RTVSPost2010Prop37
 90
       50
102
RTVSPost2010PropOp37
 70
     1
102
RTVSPost2010Prop38
140
0.0
102
RTVSPost2010PropOp38
 70
     1
102
RTVSPost2010Prop39
140
1.0
102
RTVSPost2010PropOp39
 70
     1
102
RTVSPost2010Prop40
 90
        0
102
RTVSPost2010PropOp40
 70
     1
102
RTVSPost2010Prop41ColorIndex
 90
       18
102
RTVSPost2010Prop41ColorRGB
 90
        0
102
RTVSPost2010PropOp41
 70
     1
102
RTVSPost2010Prop42
 90
       50
102
RTVSPost2010PropOp42
 70
     1
102
RTVSPost2010Prop43
 90
        3
102
RTVSPost2010PropOp43
 70
     1
102
RTVSPost2010Prop44ColorIndex
 90
        5
102
RTVSPost2010Prop44ColorRGB
 90
      255
102
RTVSPost2010PropOp44
 70
     1
102
RTVSPost2010Prop45
280
     0
102
RTVSPost2010PropOp45
 70
     1
102
RTVSPost2010Prop46
 90
       50
102
RTVSPost2010PropOp46
 70
     1
102
RTVSPost2010Prop47
 90
       50
102
RTVSPost2010PropOp47
 70
     1
102
RTVSPost2010Prop48
 90
       50
102
RTVSPost2010PropOp48
 70
     1
102
RTVSPost2010Prop49
280
     0
102
RTVSPost2010PropOp49
 70
     1
102
RTVSPost2010Prop50
 90
       50
102
RTVSPost2010PropOp50
 70
     1
102
RTVSPost2010Prop51ColorIndex
 90
      256
102
RTVSPost2010Prop51ColorRGB
 90
-16777216
102
RTVSPost2010PropOp51
 70
     0
102
RTVSPost2010Prop52
140
1.0
102
RTVSPost2010PropOp52
 70
     0
102
RTVSPost2010Prop53
 90
        2
102
RTVSPost2010PropOp53
 70
     1
102
RTVSPost2010Prop54
  1
strokes_ogs.tif
102
RTVSPost2010PropOp54
 70
     1
102
RTVSPost2010Prop55
280
     0
102
RTVSPost2010PropOp55
 70
     1
102
RTVSPost2010Prop56
140
1.0
102
RTVSPost2010PropOp56
 70
     1
102
RTVSPost2010Prop57
140
1.0
102
RTVSPost2010PropOp57
 70
     1
102
RTVSPropertyOp0
 70
     1
102
RTVSPropertyOp1
 70
     1
102
RTVSPropertyOp2
 70
     1
102
RTVSPropertyOp3
 70
     1
102
RTVSPropertyOp4
 70
     1
102
RTVSPropertyOp5
 70
     1
102
RTVSPropertyOp6
 70
     1
102
RTVSPropertyOp7
 70
     1
102
RTVSPropertyOp8
 70
     1
102
RTVSPropertyOp9
 70
     1
102
RTVSPropertyOp10
 70
     1
102
RTVSPropertyOp11
 70
     1
102
RTVSPropertyOp12
 70
     1
102
RTVSPropertyOp13
 70
     1
102
RTVSPropertyOp14
 70
     1
102
RTVSPropertyOp15
 70
     1
102
RTVSPropertyOp16
 70
     1
102
RTVSPropertyOp17
 70
     1
102
RTVSPropertyOp18
 70
     1
102
RTVSPropertyOp19
 70
     1
102
RTVSPropertyOp20
 70
     1
102
RTVSPropertyOp21
 70
     1
102
RTVSPropertyOp22
 70
     1
102
RTVSPropertyOp23
 70
     1
102
RTVSPropertyOp24
 70
     1
102
RTVSPropertyOp25
 70
     1
102
RTVSPropertyOp26
 70
     1
102
RTVSPropertyOp27
 70
     1
102
RTVSPropertyOp28
 70
     1
102
RTVSPropertyOp29
 70
     1
102
RTVSPropertyOp30
 70
     1
102
RTVSPropertyOp31
 70
     1
102
RTVSPropertyOp32
 70
     1
102
RTVSPropertyOp33
 70
     1
102
RTVSPropertyOp34
 70
     1
102
RTVSPropertyOp35
 70
     1
102
RTVSPropertyOp36
 70
     1
102
RTVSPropertyOp37
 70
     1
102
RTVSPropertyOp38
 70
     1
102
RTVSPropertyOp39
 70
     1
102
RTVSPropertyOp40
 70
     1
102
RTVSPropertyOp41
 70
     1
102
RTVSPropertyOp42
 70
     1
102
RTVSPropertyOp43
 70
     1
102
RTVSPropertyOp44
 70
     1
102
RTVSPropertyOp45
 70
     1
102
RTVSPropertyOp46
 70
     1
102
RTVSPropertyOp47
 70
     1
102
RTVSPropertyOp48
 70
     1
102
RTVSPropertyOp49
 70
     1
102
RTVSPropertyOp50
 70
     1
102
RTVSPropertyOp51
 70
     0
102
RTVSPropertyOp52
 70
     0
102
RTVSPropertyOp53
 70
     1
102
RTVSPropertyOp54
 70
     1
102
RTVSPropertyOp55
 70
     1
102
RTVSPropertyOp56
 70
     1
102
RTVSPropertyOp57
 70
     1
102
RTVSPropertyOp58
 70
     1
102
RTVSPropertyOp59
 70
     1
102
RTVSPropertyOp60
 70
     1
102
RTVSPropertyOp61
 70
     1
102
RTVSPropertyOp62
 70
     1
  0
XRECORD
  5
21EE0
102
{ACAD_REACTORS
330
21EDF
102
}
330
21EDF
100
AcDbXrecord
280
     1
102
RTVSPost2010Prop28
280
     0
102
RTVSPost2010PropOp28
 70
     1
102
RTVSPost2010Prop29
280
     1
102
RTVSPost2010PropOp29
 70
     1
102
RTVSPost2010Prop30
280
     1
102
RTVSPost2010PropOp30
 70
     1
102
RTVSPost2010Prop31
280
     0
102
RTVSPost2010PropOp31
 70
     1
102
RTVSPost2010Prop32
280
     0
102
RTVSPost2010PropOp32
 70
     1
102
RTVSPost2010Prop33
280
     0
102
RTVSPost2010PropOp33
 70
     1
102
RTVSPost2010Prop34
280
     0
102
RTVSPost2010PropOp34
 70
     1
102
RTVSPost2010Prop35
280
     0
102
RTVSPost2010PropOp35
 70
     1
102
RTVSPost2010Prop36
280
     0
102
RTVSPost2010PropOp36
 70
     1
102
RTVSPost2010Prop37
 90
       50
102
RTVSPost2010PropOp37
 70
     1
102
RTVSPost2010Prop38
140
0.0
102
RTVSPost2010PropOp38
 70
     1
102
RTVSPost2010Prop39
140
1.0
102
RTVSPost2010PropOp39
 70
     1
102
RTVSPost2010Prop40
 90
        0
102
RTVSPost2010PropOp40
 70
     1
102
RTVSPost2010Prop41ColorIndex
 90
       18
102
RTVSPost2010Prop41ColorRGB
 90
        0
102
RTVSPost2010PropOp41
 70
     1
102
RTVSPost2010Prop42
 90
       50
102
RTVSPost2010PropOp42
 70
     1
102
RTVSPost2010Prop43
 90
        3
102
RTVSPost2010PropOp43
 70
     1
102
RTVSPost2010Prop44ColorIndex
 90
        5
102
RTVSPost2010Prop44ColorRGB
 90
      255
102
RTVSPost2010PropOp44
 70
     1
102
RTVSPost2010Prop45
280
     0
102
RTVSPost2010PropOp45
 70
     1
102
RTVSPost2010Prop46
 90
       50
102
RTVSPost2010PropOp46
 70
     1
102
RTVSPost2010Prop47
 90
       50
102
RTVSPost2010PropOp47
 70
     1
102
RTVSPost2010Prop48
 90
       50
102
RTVSPost2010PropOp48
 70
     1
102
RTVSPost2010Prop49
280
     0
102
RTVSPost2010PropOp49
 70
     1
102
RTVSPost2010Prop50
 90
       50
102
RTVSPost2010PropOp50
 70
     1
102
RTVSPost2010Prop51ColorIndex
 90
      256
102
RTVSPost2010Prop51ColorRGB
 90
-16777216
102
RTVSPost2010PropOp51
 70
     0
102
RTVSPost2010Prop52
140
1.0
102
RTVSPost2010PropOp52
 70
     0
102
RTVSPost2010Prop53
 90
        2
102
RTVSPost2010PropOp53
 70
     1
102
RTVSPost2010Prop54
  1
strokes_ogs.tif
102
RTVSPost2010PropOp54
 70
     1
102
RTVSPost2010Prop55
280
     0
102
RTVSPost2010PropOp55
 70
     1
102
RTVSPost2010Prop56
140
1.0
102
RTVSPost2010PropOp56
 70
     1
102
RTVSPost2010Prop57
140
1.0
102
RTVSPost2010PropOp57
 70
     1
102
RTVSPropertyOp0
 70
     1
102
RTVSPropertyOp1
 70
     1
102
RTVSPropertyOp2
 70
     1
102
RTVSPropertyOp3
 70
     1
102
RTVSPropertyOp4
 70
     1
102
RTVSPropertyOp5
 70
     1
102
RTVSPropertyOp6
 70
     1
102
RTVSPropertyOp7
 70
     1
102
RTVSPropertyOp8
 70
     1
102
RTVSPropertyOp9
 70
     1
102
RTVSPropertyOp10
 70
     1
102
RTVSPropertyOp11
 70
     1
102
RTVSPropertyOp12
 70
     1
102
RTVSPropertyOp13
 70
     1
102
RTVSPropertyOp14
 70
     1
102
RTVSPropertyOp15
 70
     1
102
RTVSPropertyOp16
 70
     1
102
RTVSPropertyOp17
 70
     1
102
RTVSPropertyOp18
 70
     1
102
RTVSPropertyOp19
 70
     1
102
RTVSPropertyOp20
 70
     1
102
RTVSPropertyOp21
 70
     1
102
RTVSPropertyOp22
 70
     1
102
RTVSPropertyOp23
 70
     1
102
RTVSPropertyOp24
 70
     1
102
RTVSPropertyOp25
 70
     1
102
RTVSPropertyOp26
 70
     1
102
RTVSPropertyOp27
 70
     1
102
RTVSPropertyOp28
 70
     1
102
RTVSPropertyOp29
 70
     1
102
RTVSPropertyOp30
 70
     1
102
RTVSPropertyOp31
 70
     1
102
RTVSPropertyOp32
 70
     1
102
RTVSPropertyOp33
 70
     1
102
RTVSPropertyOp34
 70
     1
102
RTVSPropertyOp35
 70
     1
102
RTVSPropertyOp36
 70
     1
102
RTVSPropertyOp37
 70
     1
102
RTVSPropertyOp38
 70
     1
102
RTVSPropertyOp39
 70
     1
102
RTVSPropertyOp40
 70
     1
102
RTVSPropertyOp41
 70
     1
102
RTVSPropertyOp42
 70
     1
102
RTVSPropertyOp43
 70
     1
102
RTVSPropertyOp44
 70
     1
102
RTVSPropertyOp45
 70
     1
102
RTVSPropertyOp46
 70
     1
102
RTVSPropertyOp47
 70
     1
102
RTVSPropertyOp48
 70
     1
102
RTVSPropertyOp49
 70
     1
102
RTVSPropertyOp50
 70
     1
102
RTVSPropertyOp51
 70
     0
102
RTVSPropertyOp52
 70
     0
102
RTVSPropertyOp53
 70
     1
102
RTVSPropertyOp54
 70
     1
102
RTVSPropertyOp55
 70
     1
102
RTVSPropertyOp56
 70
     1
102
RTVSPropertyOp57
 70
     1
102
RTVSPropertyOp58
 70
     1
102
RTVSPropertyOp59
 70
     1
102
RTVSPropertyOp60
 70
     1
102
RTVSPropertyOp61
 70
     1
102
RTVSPropertyOp62
 70
     1
  0
XRECORD
  5
21ECA
102
{ACAD_REACTORS
330
21EC9
102
}
330
21EC9
100
AcDbXrecord
280
     1
102
RTVSPost2010Prop28
280
     0
102
RTVSPost2010PropOp28
 70
     1
102
RTVSPost2010Prop29
280
     1
102
RTVSPost2010PropOp29
 70
     1
102
RTVSPost2010Prop30
280
     1
102
RTVSPost2010PropOp30
 70
     1
102
RTVSPost2010Prop31
280
     0
102
RTVSPost2010PropOp31
 70
     1
102
RTVSPost2010Prop32
280
     0
102
RTVSPost2010PropOp32
 70
     1
102
RTVSPost2010Prop33
280
     0
102
RTVSPost2010PropOp33
 70
     1
102
RTVSPost2010Prop34
280
     0
102
RTVSPost2010PropOp34
 70
     1
102
RTVSPost2010Prop35
280
     0
102
RTVSPost2010PropOp35
 70
     1
102
RTVSPost2010Prop36
280
     0
102
RTVSPost2010PropOp36
 70
     1
102
RTVSPost2010Prop37
 90
       50
102
RTVSPost2010PropOp37
 70
     1
102
RTVSPost2010Prop38
140
0.0
102
RTVSPost2010PropOp38
 70
     1
102
RTVSPost2010Prop39
140
1.0
102
RTVSPost2010PropOp39
 70
     1
102
RTVSPost2010Prop40
 90
        0
102
RTVSPost2010PropOp40
 70
     1
102
RTVSPost2010Prop41ColorIndex
 90
       18
102
RTVSPost2010Prop41ColorRGB
 90
        0
102
RTVSPost2010PropOp41
 70
     1
102
RTVSPost2010Prop42
 90
       50
102
RTVSPost2010PropOp42
 70
     1
102
RTVSPost2010Prop43
 90
        3
102
RTVSPost2010PropOp43
 70
     1
102
RTVSPost2010Prop44ColorIndex
 90
        5
102
RTVSPost2010Prop44ColorRGB
 90
      255
102
RTVSPost2010PropOp44
 70
     1
102
RTVSPost2010Prop45
280
     0
102
RTVSPost2010PropOp45
 70
     1
102
RTVSPost2010Prop46
 90
       50
102
RTVSPost2010PropOp46
 70
     1
102
RTVSPost2010Prop47
 90
       50
102
RTVSPost2010PropOp47
 70
     1
102
RTVSPost2010Prop48
 90
       50
102
RTVSPost2010PropOp48
 70
     1
102
RTVSPost2010Prop49
280
     0
102
RTVSPost2010PropOp49
 70
     1
102
RTVSPost2010Prop50
 90
       50
102
RTVSPost2010PropOp50
 70
     1
102
RTVSPost2010Prop51ColorIndex
 90
      256
102
RTVSPost2010Prop51ColorRGB
 90
-16777216
102
RTVSPost2010PropOp51
 70
     0
102
RTVSPost2010Prop52
140
1.0
102
RTVSPost2010PropOp52
 70
     0
102
RTVSPost2010Prop53
 90
        2
102
RTVSPost2010PropOp53
 70
     1
102
RTVSPost2010Prop54
  1
strokes_ogs.tif
102
RTVSPost2010PropOp54
 70
     1
102
RTVSPost2010Prop55
280
     0
102
RTVSPost2010PropOp55
 70
     1
102
RTVSPost2010Prop56
140
1.0
102
RTVSPost2010PropOp56
 70
     1
102
RTVSPost2010Prop57
140
1.0
102
RTVSPost2010PropOp57
 70
     1
102
RTVSPropertyOp0
 70
     1
102
RTVSPropertyOp1
 70
     1
102
RTVSPropertyOp2
 70
     1
102
RTVSPropertyOp3
 70
     1
102
RTVSPropertyOp4
 70
     1
102
RTVSPropertyOp5
 70
     1
102
RTVSPropertyOp6
 70
     1
102
RTVSPropertyOp7
 70
     1
102
RTVSPropertyOp8
 70
     1
102
RTVSPropertyOp9
 70
     1
102
RTVSPropertyOp10
 70
     1
102
RTVSPropertyOp11
 70
     1
102
RTVSPropertyOp12
 70
     1
102
RTVSPropertyOp13
 70
     1
102
RTVSPropertyOp14
 70
     1
102
RTVSPropertyOp15
 70
     1
102
RTVSPropertyOp16
 70
     1
102
RTVSPropertyOp17
 70
     1
102
RTVSPropertyOp18
 70
     1
102
RTVSPropertyOp19
 70
     1
102
RTVSPropertyOp20
 70
     1
102
RTVSPropertyOp21
 70
     1
102
RTVSPropertyOp22
 70
     1
102
RTVSPropertyOp23
 70
     1
102
RTVSPropertyOp24
 70
     1
102
RTVSPropertyOp25
 70
     1
102
RTVSPropertyOp26
 70
     1
102
RTVSPropertyOp27
 70
     1
102
RTVSPropertyOp28
 70
     1
102
RTVSPropertyOp29
 70
     1
102
RTVSPropertyOp30
 70
     1
102
RTVSPropertyOp31
 70
     1
102
RTVSPropertyOp32
 70
     1
102
RTVSPropertyOp33
 70
     1
102
RTVSPropertyOp34
 70
     1
102
RTVSPropertyOp35
 70
     1
102
RTVSPropertyOp36
 70
     1
102
RTVSPropertyOp37
 70
     1
102
RTVSPropertyOp38
 70
     1
102
RTVSPropertyOp39
 70
     1
102
RTVSPropertyOp40
 70
     1
102
RTVSPropertyOp41
 70
     1
102
RTVSPropertyOp42
 70
     1
102
RTVSPropertyOp43
 70
     1
102
RTVSPropertyOp44
 70
     1
102
RTVSPropertyOp45
 70
     1
102
RTVSPropertyOp46
 70
     1
102
RTVSPropertyOp47
 70
     1
102
RTVSPropertyOp48
 70
     1
102
RTVSPropertyOp49
 70
     1
102
RTVSPropertyOp50
 70
     1
102
RTVSPropertyOp51
 70
     0
102
RTVSPropertyOp52
 70
     0
102
RTVSPropertyOp53
 70
     1
102
RTVSPropertyOp54
 70
     1
102
RTVSPropertyOp55
 70
     1
102
RTVSPropertyOp56
 70
     1
102
RTVSPropertyOp57
 70
     1
102
RTVSPropertyOp58
 70
     1
102
RTVSPropertyOp59
 70
     1
102
RTVSPropertyOp60
 70
     1
102
RTVSPropertyOp61
 70
     1
102
RTVSPropertyOp62
 70
     1
  0
XRECORD
  5
21EDA
102
{ACAD_REACTORS
330
21ED9
102
}
330
21ED9
100
AcDbXrecord
280
     1
102
RTVSPost2010Prop28
280
     0
102
RTVSPost2010PropOp28
 70
     1
102
RTVSPost2010Prop29
280
     1
102
RTVSPost2010PropOp29
 70
     1
102
RTVSPost2010Prop30
280
     1
102
RTVSPost2010PropOp30
 70
     1
102
RTVSPost2010Prop31
280
     0
102
RTVSPost2010PropOp31
 70
     1
102
RTVSPost2010Prop32
280
     0
102
RTVSPost2010PropOp32
 70
     1
102
RTVSPost2010Prop33
280
     0
102
RTVSPost2010PropOp33
 70
     1
102
RTVSPost2010Prop34
280
     0
102
RTVSPost2010PropOp34
 70
     1
102
RTVSPost2010Prop35
280
     0
102
RTVSPost2010PropOp35
 70
     1
102
RTVSPost2010Prop36
280
     0
102
RTVSPost2010PropOp36
 70
     1
102
RTVSPost2010Prop37
 90
       50
102
RTVSPost2010PropOp37
 70
     1
102
RTVSPost2010Prop38
140
0.0
102
RTVSPost2010PropOp38
 70
     1
102
RTVSPost2010Prop39
140
1.0
102
RTVSPost2010PropOp39
 70
     1
102
RTVSPost2010Prop40
 90
        0
102
RTVSPost2010PropOp40
 70
     1
102
RTVSPost2010Prop41ColorIndex
 90
       18
102
RTVSPost2010Prop41ColorRGB
 90
        0
102
RTVSPost2010PropOp41
 70
     1
102
RTVSPost2010Prop42
 90
       50
102
RTVSPost2010PropOp42
 70
     1
102
RTVSPost2010Prop43
 90
        3
102
RTVSPost2010PropOp43
 70
     1
102
RTVSPost2010Prop44ColorIndex
 90
        5
102
RTVSPost2010Prop44ColorRGB
 90
      255
102
RTVSPost2010PropOp44
 70
     1
102
RTVSPost2010Prop45
280
     0
102
RTVSPost2010PropOp45
 70
     1
102
RTVSPost2010Prop46
 90
       50
102
RTVSPost2010PropOp46
 70
     1
102
RTVSPost2010Prop47
 90
       50
102
RTVSPost2010PropOp47
 70
     1
102
RTVSPost2010Prop48
 90
       50
102
RTVSPost2010PropOp48
 70
     1
102
RTVSPost2010Prop49
280
     0
102
RTVSPost2010PropOp49
 70
     1
102
RTVSPost2010Prop50
 90
       50
102
RTVSPost2010PropOp50
 70
     1
102
RTVSPost2010Prop51ColorIndex
 90
      256
102
RTVSPost2010Prop51ColorRGB
 90
-16777216
102
RTVSPost2010PropOp51
 70
     0
102
RTVSPost2010Prop52
140
1.0
102
RTVSPost2010PropOp52
 70
     0
102
RTVSPost2010Prop53
 90
        2
102
RTVSPost2010PropOp53
 70
     1
102
RTVSPost2010Prop54
  1
strokes_ogs.tif
102
RTVSPost2010PropOp54
 70
     1
102
RTVSPost2010Prop55
280
     0
102
RTVSPost2010PropOp55
 70
     1
102
RTVSPost2010Prop56
140
1.0
102
RTVSPost2010PropOp56
 70
     1
102
RTVSPost2010Prop57
140
1.0
102
RTVSPost2010PropOp57
 70
     1
102
RTVSPropertyOp0
 70
     1
102
RTVSPropertyOp1
 70
     1
102
RTVSPropertyOp2
 70
     1
102
RTVSPropertyOp3
 70
     1
102
RTVSPropertyOp4
 70
     1
102
RTVSPropertyOp5
 70
     1
102
RTVSPropertyOp6
 70
     1
102
RTVSPropertyOp7
 70
     1
102
RTVSPropertyOp8
 70
     1
102
RTVSPropertyOp9
 70
     1
102
RTVSPropertyOp10
 70
     1
102
RTVSPropertyOp11
 70
     1
102
RTVSPropertyOp12
 70
     1
102
RTVSPropertyOp13
 70
     1
102
RTVSPropertyOp14
 70
     1
102
RTVSPropertyOp15
 70
     1
102
RTVSPropertyOp16
 70
     1
102
RTVSPropertyOp17
 70
     1
102
RTVSPropertyOp18
 70
     1
102
RTVSPropertyOp19
 70
     1
102
RTVSPropertyOp20
 70
     1
102
RTVSPropertyOp21
 70
     1
102
RTVSPropertyOp22
 70
     1
102
RTVSPropertyOp23
 70
     1
102
RTVSPropertyOp24
 70
     1
102
RTVSPropertyOp25
 70
     1
102
RTVSPropertyOp26
 70
     1
102
RTVSPropertyOp27
 70
     1
102
RTVSPropertyOp28
 70
     1
102
RTVSPropertyOp29
 70
     1
102
RTVSPropertyOp30
 70
     1
102
RTVSPropertyOp31
 70
     1
102
RTVSPropertyOp32
 70
     1
102
RTVSPropertyOp33
 70
     1
102
RTVSPropertyOp34
 70
     1
102
RTVSPropertyOp35
 70
     1
102
RTVSPropertyOp36
 70
     1
102
RTVSPropertyOp37
 70
     1
102
RTVSPropertyOp38
 70
     1
102
RTVSPropertyOp39
 70
     1
102
RTVSPropertyOp40
 70
     1
102
RTVSPropertyOp41
 70
     1
102
RTVSPropertyOp42
 70
     1
102
RTVSPropertyOp43
 70
     1
102
RTVSPropertyOp44
 70
     1
102
RTVSPropertyOp45
 70
     1
102
RTVSPropertyOp46
 70
     1
102
RTVSPropertyOp47
 70
     1
102
RTVSPropertyOp48
 70
     1
102
RTVSPropertyOp49
 70
     1
102
RTVSPropertyOp50
 70
     1
102
RTVSPropertyOp51
 70
     0
102
RTVSPropertyOp52
 70
     0
102
RTVSPropertyOp53
 70
     1
102
RTVSPropertyOp54
 70
     1
102
RTVSPropertyOp55
 70
     1
102
RTVSPropertyOp56
 70
     1
102
RTVSPropertyOp57
 70
     1
102
RTVSPropertyOp58
 70
     1
102
RTVSPropertyOp59
 70
     1
102
RTVSPropertyOp60
 70
     1
102
RTVSPropertyOp61
 70
     1
102
RTVSPropertyOp62
 70
     1
  0
XRECORD
  5
21EE2
102
{ACAD_REACTORS
330
21EE1
102
}
330
21EE1
100
AcDbXrecord
280
     1
102
RTVSPost2010Prop28
280
     0
102
RTVSPost2010PropOp28
 70
     1
102
RTVSPost2010Prop29
280
     1
102
RTVSPost2010PropOp29
 70
     1
102
RTVSPost2010Prop30
280
     1
102
RTVSPost2010PropOp30
 70
     1
102
RTVSPost2010Prop31
280
     0
102
RTVSPost2010PropOp31
 70
     1
102
RTVSPost2010Prop32
280
     0
102
RTVSPost2010PropOp32
 70
     1
102
RTVSPost2010Prop33
280
     0
102
RTVSPost2010PropOp33
 70
     1
102
RTVSPost2010Prop34
280
     0
102
RTVSPost2010PropOp34
 70
     1
102
RTVSPost2010Prop35
280
     0
102
RTVSPost2010PropOp35
 70
     1
102
RTVSPost2010Prop36
280
     0
102
RTVSPost2010PropOp36
 70
     1
102
RTVSPost2010Prop37
 90
       50
102
RTVSPost2010PropOp37
 70
     1
102
RTVSPost2010Prop38
140
0.0
102
RTVSPost2010PropOp38
 70
     1
102
RTVSPost2010Prop39
140
1.0
102
RTVSPost2010PropOp39
 70
     1
102
RTVSPost2010Prop40
 90
        0
102
RTVSPost2010PropOp40
 70
     1
102
RTVSPost2010Prop41ColorIndex
 90
       18
102
RTVSPost2010Prop41ColorRGB
 90
        0
102
RTVSPost2010PropOp41
 70
     1
102
RTVSPost2010Prop42
 90
       50
102
RTVSPost2010PropOp42
 70
     1
102
RTVSPost2010Prop43
 90
        3
102
RTVSPost2010PropOp43
 70
     1
102
RTVSPost2010Prop44ColorIndex
 90
        5
102
RTVSPost2010Prop44ColorRGB
 90
      255
102
RTVSPost2010PropOp44
 70
     1
102
RTVSPost2010Prop45
280
     0
102
RTVSPost2010PropOp45
 70
     1
102
RTVSPost2010Prop46
 90
       50
102
RTVSPost2010PropOp46
 70
     1
102
RTVSPost2010Prop47
 90
       50
102
RTVSPost2010PropOp47
 70
     1
102
RTVSPost2010Prop48
 90
       50
102
RTVSPost2010PropOp48
 70
     1
102
RTVSPost2010Prop49
280
     0
102
RTVSPost2010PropOp49
 70
     1
102
RTVSPost2010Prop50
 90
       50
102
RTVSPost2010PropOp50
 70
     1
102
RTVSPost2010Prop51ColorIndex
 90
      256
102
RTVSPost2010Prop51ColorRGB
 90
-16777216
102
RTVSPost2010PropOp51
 70
     0
102
RTVSPost2010Prop52
140
1.0
102
RTVSPost2010PropOp52
 70
     0
102
RTVSPost2010Prop53
 90
        2
102
RTVSPost2010PropOp53
 70
     1
102
RTVSPost2010Prop54
  1
strokes_ogs.tif
102
RTVSPost2010PropOp54
 70
     1
102
RTVSPost2010Prop55
280
     0
102
RTVSPost2010PropOp55
 70
     1
102
RTVSPost2010Prop56
140
1.0
102
RTVSPost2010PropOp56
 70
     1
102
RTVSPost2010Prop57
140
1.0
102
RTVSPost2010PropOp57
 70
     1
102
RTVSPropertyOp0
 70
     1
102
RTVSPropertyOp1
 70
     1
102
RTVSPropertyOp2
 70
     1
102
RTVSPropertyOp3
 70
     1
102
RTVSPropertyOp4
 70
     1
102
RTVSPropertyOp5
 70
     1
102
RTVSPropertyOp6
 70
     1
102
RTVSPropertyOp7
 70
     1
102
RTVSPropertyOp8
 70
     1
102
RTVSPropertyOp9
 70
     1
102
RTVSPropertyOp10
 70
     1
102
RTVSPropertyOp11
 70
     1
102
RTVSPropertyOp12
 70
     1
102
RTVSPropertyOp13
 70
     1
102
RTVSPropertyOp14
 70
     1
102
RTVSPropertyOp15
 70
     1
102
RTVSPropertyOp16
 70
     1
102
RTVSPropertyOp17
 70
     1
102
RTVSPropertyOp18
 70
     1
102
RTVSPropertyOp19
 70
     1
102
RTVSPropertyOp20
 70
     1
102
RTVSPropertyOp21
 70
     1
102
RTVSPropertyOp22
 70
     1
102
RTVSPropertyOp23
 70
     1
102
RTVSPropertyOp24
 70
     1
102
RTVSPropertyOp25
 70
     1
102
RTVSPropertyOp26
 70
     1
102
RTVSPropertyOp27
 70
     1
102
RTVSPropertyOp28
 70
     1
102
RTVSPropertyOp29
 70
     1
102
RTVSPropertyOp30
 70
     1
102
RTVSPropertyOp31
 70
     1
102
RTVSPropertyOp32
 70
     1
102
RTVSPropertyOp33
 70
     1
102
RTVSPropertyOp34
 70
     1
102
RTVSPropertyOp35
 70
     1
102
RTVSPropertyOp36
 70
     1
102
RTVSPropertyOp37
 70
     1
102
RTVSPropertyOp38
 70
     1
102
RTVSPropertyOp39
 70
     1
102
RTVSPropertyOp40
 70
     1
102
RTVSPropertyOp41
 70
     1
102
RTVSPropertyOp42
 70
     1
102
RTVSPropertyOp43
 70
     1
102
RTVSPropertyOp44
 70
     1
102
RTVSPropertyOp45
 70
     1
102
RTVSPropertyOp46
 70
     1
102
RTVSPropertyOp47
 70
     1
102
RTVSPropertyOp48
 70
     1
102
RTVSPropertyOp49
 70
     1
102
RTVSPropertyOp50
 70
     1
102
RTVSPropertyOp51
 70
     0
102
RTVSPropertyOp52
 70
     0
102
RTVSPropertyOp53
 70
     1
102
RTVSPropertyOp54
 70
     1
102
RTVSPropertyOp55
 70
     1
102
RTVSPropertyOp56
 70
     1
102
RTVSPropertyOp57
 70
     1
102
RTVSPropertyOp58
 70
     1
102
RTVSPropertyOp59
 70
     1
102
RTVSPropertyOp60
 70
     1
102
RTVSPropertyOp61
 70
     1
102
RTVSPropertyOp62
 70
     1
  0
ENDSEC
  0
EOF
