  0
SECTION
  2
HEADER
  9
$ACADVER
  1
AC1015
  9
$ACADMAINTVER
 70
    20
  9
$DWGCODEPAGE
  3
ANSI_1252
  9
$INSBASE
 10
0.0
 20
0.0
 30
0.0
  9
$EXTMIN
 10
-126.9144206627865
 20
-361.6974463392694
 30
0.0
  9
$EXTMAX
 10
445.5655383126923
 20
122.0491021988169
 30
0.0
  9
$LIMMIN
 10
0.0
 20
0.0
  9
$LIMMAX
 10
420.0
 20
297.0
  9
$ORTHOMODE
 70
     1
  9
$REGENMODE
 70
     1
  9
$FILLMODE
 70
     1
  9
$QTEXTMODE
 70
     0
  9
$MIRRTEXT
 70
     0
  9
$LTSCALE
 40
23.1
  9
$ATTMODE
 70
     1
  9
$TEXTSIZE
 40
3.5
  9
$TRACEWID
 40
0.05
  9
$TEXTSTYLE
  7
STANDARD
  9
$CLAYER
  8
SK2
  9
$CELTYPE
  6
BYLAYER
  9
$CECOLOR
 62
   256
  9
$CELTSCALE
 40
1.0
  9
$DISPSILH
 70
     0
  9
$DIMSCALE
 40
1.0
  9
$DIMASZ
 40
4.57
  9
$DIMEXO
 40
0.0625
  9
$DIMDLI
 40
0.38
  9
$DIMRND
 40
0.0
  9
$DIMDLE
 40
0.0
  9
$DIMEXE
 40
0.18
  9
$DIMTP
 40
0.01
  9
$DIMTM
 40
0.01
  9
$DIMTXT
 40
3.5
  9
$DIMCEN
 40
0.09
  9
$DIMTSZ
 40
0.0
  9
$DIMTOL
 70
     0
  9
$DIMLIM
 70
     0
  9
$DIMTIH
 70
     0
  9
$DIMTOH
 70
     0
  9
$DIMSE1
 70
     0
  9
$DIMSE2
 70
     0
  9
$DIMTAD
 70
     1
  9
$DIMZIN
 70
     8
  9
$DIMBLK
  1

  9
$DIMASO
 70
     1
  9
$DIMSHO
 70
     1
  9
$DIMPOST
  1

  9
$DIMAPOST
  1

  9
$DIMALT
 70
     0
  9
$DIMALTD
 70
     2
  9
$DIMALTF
 40
25.4
  9
$DIMLFAC
 40
1.0
  9
$DIMTOFL
 70
     0
  9
$DIMTVP
 40
0.0
  9
$DIMTIX
 70
     0
  9
$DIMSOXD
 70
     0
  9
$DIMSAH
 70
     0
  9
$DIMBLK1
  1

  9
$DIMBLK2
  1

  9
$DIMSTYLE
  2
STANDARD
  9
$DIMCLRD
 70
     0
  9
$DIMCLRE
 70
     0
  9
$DIMCLRT
 70
     0
  9
$DIMTFAC
 40
1.0
  9
$DIMGAP
 40
0.09
  9
$DIMJUST
 70
     0
  9
$DIMSD1
 70
     0
  9
$DIMSD2
 70
     0
  9
$DIMTOLJ
 70
     1
  9
$DIMTZIN
 70
     8
  9
$DIMALTZ
 70
     0
  9
$DIMALTTZ
 70
     0
  9
$DIMUPT
 70
     0
  9
$DIMDEC
 70
     3
  9
$DIMTDEC
 70
     3
  9
$DIMALTU
 70
     2
  9
$DIMALTTD
 70
     2
  9
$DIMTXSTY
  7
STANDARD
  9
$DIMAUNIT
 70
     0
  9
$DIMADEC
 70
     0
  9
$DIMALTRND
 40
0.0
  9
$DIMAZIN
 70
     0
  9
$DIMDSEP
 70
    46
  9
$DIMATFIT
 70
     0
  9
$DIMFRAC
 70
     0
  9
$DIMLDRBLK
  1

  9
$DIMLUNIT
 70
     2
  9
$DIMLWD
 70
    -2
  9
$DIMLWE
 70
    -2
  9
$DIMTMOVE
 70
     0
  9
$LUNITS
 70
     2
  9
$LUPREC
 70
     4
  9
$SKETCHINC
 40
0.1
  9
$FILLETRAD
 40
10.0
  9
$AUNITS
 70
     0
  9
$AUPREC
 70
     0
  9
$MENU
  1
.
  9
$ELEVATION
 40
0.0
  9
$PELEVATION
 40
0.0
  9
$THICKNESS
 40
0.0
  9
$LIMCHECK
 70
     0
  9
$CHAMFERA
 40
0.0
  9
$CHAMFERB
 40
0.0
  9
$CHAMFERC
 40
0.0
  9
$CHAMFERD
 40
0.0
  9
$SKPOLY
 70
     0
  9
$TDCREATE
 40
2457401.551698970
  9
$TDUCREATE
 40
2457401.510032303
  9
$TDUPDATE
 40
2457401.611366551
  9
$TDUUPDATE
 40
2457401.569699884
  9
$TDINDWG
 40
0.0596701505
  9
$TDUSRTIMER
 40
0.0596689120
  9
$USRTIMER
 70
     1
  9
$ANGBASE
 50
0.0
  9
$ANGDIR
 70
     0
  9
$PDMODE
 70
     3
  9
$PDSIZE
 40
0.3125
  9
$PLINEWID
 40
0.0
  9
$SPLFRAME
 70
     0
  9
$SPLINETYPE
 70
     6
  9
$SPLINESEGS
 70
     8
  9
$HANDSEED
  5
21887
  9
$SURFTAB1
 70
     6
  9
$SURFTAB2
 70
     6
  9
$SURFTYPE
 70
     6
  9
$SURFU
 70
     6
  9
$SURFV
 70
     6
  9
$UCSBASE
  2

  9
$UCSNAME
  2

  9
$UCSORG
 10
0.0
 20
0.0
 30
0.0
  9
$UCSXDIR
 10
1.0
 20
0.0
 30
0.0
  9
$UCSYDIR
 10
0.0
 20
1.0
 30
0.0
  9
$UCSORTHOREF
  2

  9
$UCSORTHOVIEW
 70
     0
  9
$UCSORGTOP
 10
0.0
 20
0.0
 30
0.0
  9
$UCSORGBOTTOM
 10
0.0
 20
0.0
 30
0.0
  9
$UCSORGLEFT
 10
0.0
 20
0.0
 30
0.0
  9
$UCSORGRIGHT
 10
0.0
 20
0.0
 30
0.0
  9
$UCSORGFRONT
 10
0.0
 20
0.0
 30
0.0
  9
$UCSORGBACK
 10
0.0
 20
0.0
 30
0.0
  9
$PUCSBASE
  2

  9
$PUCSNAME
  2

  9
$PUCSORG
 10
0.0
 20
0.0
 30
0.0
  9
$PUCSXDIR
 10
1.0
 20
0.0
 30
0.0
  9
$PUCSYDIR
 10
0.0
 20
1.0
 30
0.0
  9
$PUCSORTHOREF
  2

  9
$PUCSORTHOVIEW
 70
     0
  9
$PUCSORGTOP
 10
0.0
 20
0.0
 30
0.0
  9
$PUCSORGBOTTOM
 10
0.0
 20
0.0
 30
0.0
  9
$PUCSORGLEFT
 10
0.0
 20
0.0
 30
0.0
  9
$PUCSORGRIGHT
 10
0.0
 20
0.0
 30
0.0
  9
$PUCSORGFRONT
 10
0.0
 20
0.0
 30
0.0
  9
$PUCSORGBACK
 10
0.0
 20
0.0
 30
0.0
  9
$USERI1
 70
     0
  9
$USERI2
 70
     0
  9
$USERI3
 70
     0
  9
$USERI4
 70
     0
  9
$USERI5
 70
     0
  9
$USERR1
 40
0.0
  9
$USERR2
 40
0.0
  9
$USERR3
 40
0.0
  9
$USERR4
 40
0.0
  9
$USERR5
 40
0.0
  9
$WORLDVIEW
 70
     1
  9
$SHADEDGE
 70
     3
  9
$SHADEDIF
 70
    70
  9
$TILEMODE
 70
     1
  9
$MAXACTVP
 70
    64
  9
$PINSBASE
 10
0.0
 20
0.0
 30
0.0
  9
$PLIMCHECK
 70
     0
  9
$PEXTMIN
 10
28.69141678810127
 20
19.6363175392151
 30
0.0
  9
$PEXTMAX
 10
258.2227510929107
 20
176.7268578529358
 30
0.0
  9
$PLIMMIN
 10
-5.027069091796875
 20
-6.805083274841307
  9
$PLIMMAX
 10
291.9412536621094
 20
203.1682443618775
  9
$UNITMODE
 70
     0
  9
$VISRETAIN
 70
     1
  9
$PLINEGEN
 70
     0
  9
$PSLTSCALE
 70
     1
  9
$TREEDEPTH
 70
  3020
  9
$CMLSTYLE
  2
STANDARD
  9
$CMLJUST
 70
     0
  9
$CMLSCALE
 40
1.0
  9
$PROXYGRAPHICS
 70
     1
  9
$MEASUREMENT
 70
     1
  9
$CELWEIGHT
370
    -1
  9
$ENDCAPS
280
     0
  9
$JOINSTYLE
280
     0
  9
$LWDISPLAY
290
     0
  9
$INSUNITS
 70
     0
  9
$HYPERLINKBASE
  1

  9
$STYLESHEET
  1
A1-A2.CTB
  9
$XEDIT
290
     1
  9
$CEPSNTYPE
380
     0
  9
$PSTYLEMODE
290
     1
  9
$FINGERPRINTGUID
  2
{87DAC724-E677-4167-A631-443302DCF3F2}
  9
$VERSIONGUID
  2
{D0926C9D-F821-4ABC-8632-EC67C129C4AA}
  9
$EXTNAMES
290
     1
  9
$PSVPSCALE
 40
0.0
  9
$OLESTARTUP
290
     0
  0
ENDSEC
  0
SECTION
  2
CLASSES
  0
CLASS
  1
ACDBDICTIONARYWDFLT
  2
AcDbDictionaryWithDefault
  3
ObjectDBX Classes
 90
        0
280
     0
281
     0
  0
CLASS
  1
MATERIAL
  2
AcDbMaterial
  3
ObjectDBX Classes
 90
     1153
280
     0
281
     0
  0
CLASS
  1
VISUALSTYLE
  2
AcDbVisualStyle
  3
ObjectDBX Classes
 90
     4095
280
     0
281
     0
  0
CLASS
  1
TABLESTYLE
  2
AcDbTableStyle
  3
ObjectDBX Classes
 90
     4095
280
     0
281
     0
  0
CLASS
  1
SORTENTSTABLE
  2
AcDbSortentsTable
  3
ObjectDBX Classes
 90
        0
280
     0
281
     0
  0
CLASS
  1
DICTIONARYVAR
  2
AcDbDictionaryVar
  3
ObjectDBX Classes
 90
        0
280
     0
281
     0
  0
CLASS
  1
EXACXREFPANELOBJECT
  2
ExAcXREFPanelObject
  3
EXAC_ESW
 90
    33793
280
     1
281
     0
  0
CLASS
  1
NPOCOLLECTION
  2
AcDbImpNonPersistentObjectsCollection
  3
ObjectDBX Classes
 90
    33921
280
     1
281
     0
  0
CLASS
  1
ACDBPLACEHOLDER
  2
AcDbPlaceHolder
  3
ObjectDBX Classes
 90
        0
280
     0
281
     0
  0
CLASS
  1
LAYOUT
  2
AcDbLayout
  3
ObjectDBX Classes
 90
        0
280
     0
281
     0
  0
CLASS
  1
SCALE
  2
AcDbScale
  3
ObjectDBX Classes
 90
     1153
280
     0
281
     0
  0
CLASS
  1
MLEADERSTYLE
  2
AcDbMLeaderStyle
  3
ACDB_MLEADERSTYLE_CLASS
 90
     4095
280
     0
281
     0
  0
CLASS
  1
ACDBSECTIONVIEWSTYLE
  2
AcDbSectionViewStyle
  3
ObjectDBX Classes
 90
     1025
280
     0
281
     0
  0
CLASS
  1
ACDBDETAILVIEWSTYLE
  2
AcDbDetailViewStyle
  3
ObjectDBX Classes
 90
     1025
280
     0
281
     0
  0
CLASS
  1
CELLSTYLEMAP
  2
AcDbCellStyleMap
  3
ObjectDBX Classes
 90
     1152
280
     0
281
     0
  0
CLASS
  1
ACAD_EVALUATION_GRAPH
  2
AcDbEvalGraph
  3
ObjectDBX Classes
 90
    33921
280
     0
281
     0
  0
CLASS
  1
ACAECUSTOBJ
  2
AcAeEditorObj
  3
AcAeEditorObj
 90
    33792
280
     0
281
     0
  0
CLASS
  1
ACDB_DYNAMICBLOCKPURGEPREVENTER_VERSION
  2
AcDbDynamicBlockPurgePreventer
  3
ObjectDBX Classes
 90
    33921
280
     0
281
     0
  0
CLASS
  1
FIELD
  2
AcDbField
  3
ObjectDBX Classes
 90
     1152
280
     0
281
     0
  0
CLASS
  1
FIELDLIST
  2
AcDbFieldList
  3
ObjectDBX Classes
 90
     1152
280
     0
281
     0
  0
ENDSEC
  0
SECTION
  2
TABLES
  0
TABLE
  2
VPORT
  5
8
330
0
100
AcDbSymbolTable
 70
     1
  0
VPORT
  5
1F4
330
8
100
AcDbSymbolTableRecord
100
AcDbViewportTableRecord
  2
*ACTIVE
 70
     0
 10
0.0
 20
0.0
 11
1.0
 21
1.0
 12
-14.565325083115
 22
-129.8688800197001
 13
0.0
 23
0.0
 14
1.0
 24
1.0
 15
0.0
 25
0.0
 16
0.0
 26
0.0
 36
1.0
 17
0.0
 27
0.0
 37
0.0
 40
425.6768114427408
 41
2.124153498871331
 42
50.0
 43
0.0
 44
0.0
 50
0.0
 51
0.0
 71
     0
 72
  2000
 73
     1
 74
     1
 75
     0
 76
     0
 77
     0
 78
     0
281
     0
 65
     1
110
0.0
120
0.0
130
0.0
111
1.0
121
0.0
131
0.0
112
0.0
122
1.0
132
0.0
 79
     0
146
0.0
1001
ACAD_NAV_VCDISPLAY
1070
     3
  0
ENDTAB
  0
TABLE
  2
LTYPE
  5
5
330
0
100
AcDbSymbolTable
 70
     9
  0
LTYPE
  5
14
330
5
100
AcDbSymbolTableRecord
100
AcDbLinetypeTableRecord
  2
BYBLOCK
 70
     0
  3

 72
    65
 73
     0
 40
0.0
  0
LTYPE
  5
15
330
5
100
AcDbSymbolTableRecord
100
AcDbLinetypeTableRecord
  2
BYLAYER
 70
     0
  3

 72
    65
 73
     0
 40
0.0
  0
LTYPE
  5
16
330
5
100
AcDbSymbolTableRecord
100
AcDbLinetypeTableRecord
  2
CONTINUOUS
 70
     0
  3
Solid line
 72
    65
 73
     0
 40
0.0
  0
LTYPE
  5
9C48
330
5
100
AcDbSymbolTableRecord
100
AcDbLinetypeTableRecord
  2
CENTER
 70
     0
  3
____ _ ____ _ ____ _ ____ _ ____ _ ____ _ ____
 72
    65
 73
     4
 40
0.6
 49
0.375
 74
     0
 49
-0.075
 74
     0
 49
0.075
 74
     0
 49
-0.075
 74
     0
  0
LTYPE
  5
20A82
330
5
100
AcDbSymbolTableRecord
100
AcDbLinetypeTableRecord
  2
HIDDEN
 70
     0
  3
- - - - - - - - - - - - - - - - - - - -
 72
    65
 73
     2
 40
0.2
 49
0.1
 74
     0
 49
-0.1
 74
     0
  0
ENDTAB
  0
TABLE
  2
LAYER
  5
2
102
{ACAD_XDICTIONARY
360
422A
102
}
330
0
100
AcDbSymbolTable
 70
    22
  0
LAYER
  5
10
102
{ACAD_XDICTIONARY
360
1B2F5
102
}
330
2
100
AcDbSymbolTableRecord
100
AcDbLayerTableRecord
  2
0
 70
     0
 62
     7
  6
CONTINUOUS
370
    -3
390
318A
  0
LAYER
  5
3F8C
102
{ACAD_XDICTIONARY
360
1B2F7
102
}
330
2
100
AcDbSymbolTableRecord
100
AcDbLayerTableRecord
  2
1
 70
     0
 62
     4
  6
BYBLOCK
370
    50
390
318A
  0
LAYER
  5
3FA7
330
2
100
AcDbSymbolTableRecord
100
AcDbLayerTableRecord
  2
Defpoints
 70
     0
 62
     7
  6
CONTINUOUS
290
     0
370
    -3
390
318A
  0
LAYER
  5
9C4A
102
{ACAD_XDICTIONARY
360
1B2F9
102
}
330
2
100
AcDbSymbolTableRecord
100
AcDbLayerTableRecord
  2
2
 70
     0
 62
     7
  6
BYBLOCK
370
    25
390
318A
  0
LAYER
  5
9C4B
102
{ACAD_XDICTIONARY
360
1B2FB
102
}
330
2
100
AcDbSymbolTableRecord
100
AcDbLayerTableRecord
  2
4
 70
     0
 62
     2
  6
CENTER
370
    25
390
318A
  0
LAYER
  5
9C4D
102
{ACAD_XDICTIONARY
360
1B2FD
102
}
330
2
100
AcDbSymbolTableRecord
100
AcDbLayerTableRecord
  2
CUT
 70
     0
 62
     1
  6
BYBLOCK
370
    25
390
318A
  0
LAYER
  5
9C4E
102
{ACAD_XDICTIONARY
360
1B2FF
102
}
330
2
100
AcDbSymbolTableRecord
100
AcDbLayerTableRecord
  2
NOCUT
 70
     0
 62
     7
  6
BYBLOCK
370
    25
390
318A
  0
LAYER
  5
9C50
102
{ACAD_XDICTIONARY
360
1B303
102
}
330
2
100
AcDbSymbolTableRecord
100
AcDbLayerTableRecord
  2
SK1
 70
     0
 62
     4
  6
BYBLOCK
370
    50
390
318A
  0
LAYER
  5
9C51
102
{ACAD_XDICTIONARY
360
1B305
102
}
330
2
100
AcDbSymbolTableRecord
100
AcDbLayerTableRecord
  2
SK4
 70
     0
 62
     2
  6
CENTER
370
    25
390
318A
  0
LAYER
  5
13335
102
{ACAD_XDICTIONARY
360
1B307
102
}
330
2
100
AcDbSymbolTableRecord
100
AcDbLayerTableRecord
  2
INFTOTAL
 70
     0
 62
     9
  6
BYBLOCK
370
    18
390
318A
1001
AcAecLayerStandard
1000

1000

  0
LAYER
  5
20A83
102
{ACAD_XDICTIONARY
360
20A84
102
}
330
2
100
AcDbSymbolTableRecord
100
AcDbLayerTableRecord
  2
3
 70
     0
 62
     1
  6
HIDDEN
370
    -3
390
318A
1001
AcAecLayerStandard
1000

1000

1001
AcCmTransparency
1071
        0
  0
LAYER
  5
20A91
102
{ACAD_XDICTIONARY
360
210BC
102
}
330
2
100
AcDbSymbolTableRecord
100
AcDbLayerTableRecord
  2
SK3
 70
     0
 62
     1
  6
HIDDEN
370
    -3
390
318A
1001
AcAecLayerStandard
1000

1000

1001
AcCmTransparency
1071
        0
  0
LAYER
  5
20AE0
102
{ACAD_XDICTIONARY
360
20AE1
102
}
330
2
100
AcDbSymbolTableRecord
100
AcDbLayerTableRecord
  2
SKVIEW63
 70
     0
 62
     5
  6
CONTINUOUS
370
    35
390
318A
  0
LAYER
  5
21257
102
{ACAD_XDICTIONARY
360
21258
102
}
330
2
100
AcDbSymbolTableRecord
100
AcDbLayerTableRecord
  2
SK2
 70
     0
 62
     7
  6
CONTINUOUS
370
    25
390
318A
  0
ENDTAB
  0
TABLE
  2
STYLE
  5
3
330
0
100
AcDbSymbolTable
 70
     3
  0
STYLE
  5
11
330
3
100
AcDbSymbolTableRecord
100
AcDbTextStyleTableRecord
  2
STANDARD
 70
     0
 40
3.5
 41
0.8
 50
0.0
 71
     0
 42
3.5
  3
monos.ttf
  4

1001
ACAD
1000
Monospac821 BT
1071
       49
  0
STYLE
  5
1686F
330
3
100
AcDbSymbolTableRecord
100
AcDbTextStyleTableRecord
  2
BMG_Text
 70
     0
 40
3.5
 41
1.0
 50
0.0
 71
     0
 42
0.2
  3
monos.ttf
  4

1001
ACAD
1000
Monospac821 BT
1071
       49
  0
ENDTAB
  0
TABLE
  2
VIEW
  5
6
330
0
100
AcDbSymbolTable
 70
     0
  0
ENDTAB
  0
TABLE
  2
UCS
  5
7
330
0
100
AcDbSymbolTable
 70
     0
  0
ENDTAB
  0
TABLE
  2
APPID
  5
9
330
0
100
AcDbSymbolTable
 70
    16
  0
APPID
  5
23B
330
9
100
AcDbSymbolTableRecord
100
AcDbRegAppTableRecord
  2
ACAD
 70
     0
  0
APPID
  5
3395
330
9
100
AcDbSymbolTableRecord
100
AcDbRegAppTableRecord
  2
ACAD_EXEMPT_FROM_CAD_STANDARDS
 70
     0
  0
APPID
  5
4229
330
9
100
AcDbSymbolTableRecord
100
AcDbRegAppTableRecord
  2
AcAecLayerStandard
 70
     0
  0
APPID
  5
9A1B
330
9
100
AcDbSymbolTableRecord
100
AcDbRegAppTableRecord
  2
ACAD_PSEXT
 70
     0
  0
APPID
  5
1B313
330
9
100
AcDbSymbolTableRecord
100
AcDbRegAppTableRecord
  2
ACAD_NAV_VCDISPLAY
 70
     0
  0
APPID
  5
1B355
330
9
100
AcDbSymbolTableRecord
100
AcDbRegAppTableRecord
  2
ACAD_MLEADERVER
 70
     0
  0
APPID
  5
1EC7F
330
9
100
AcDbSymbolTableRecord
100
AcDbRegAppTableRecord
  2
ACAUTHENVIRON
 70
     0
  0
APPID
  5
1EC82
330
9
100
AcDbSymbolTableRecord
100
AcDbRegAppTableRecord
  2
AcDbDynamicBlockTrueName
 70
     0
  0
APPID
  5
1EC83
330
9
100
AcDbSymbolTableRecord
100
AcDbRegAppTableRecord
  2
AcDbDynamicBlockGUID
 70
     0
  0
APPID
  5
20A85
330
9
100
AcDbSymbolTableRecord
100
AcDbRegAppTableRecord
  2
AcCmTransparency
 70
     0
  0
APPID
  5
20AE2
330
9
100
AcDbSymbolTableRecord
100
AcDbRegAppTableRecord
  2
ACAD_DSTYLE_DIMRADIAL_EXTENSION
 70
     0
  0
APPID
  5
20CB0
330
9
100
AcDbSymbolTableRecord
100
AcDbRegAppTableRecord
  2
AcadAnnotative
 70
     0
  0
APPID
  5
20D39
330
9
100
AcDbSymbolTableRecord
100
AcDbRegAppTableRecord
  2
ACAD_DSTYLE_DIMJAG
 70
     0
  0
APPID
  5
20D3A
330
9
100
AcDbSymbolTableRecord
100
AcDbRegAppTableRecord
  2
ACAD_DSTYLE_DIMBREAK
 70
     0
  0
APPID
  5
20D3B
330
9
100
AcDbSymbolTableRecord
100
AcDbRegAppTableRecord
  2
ACAD_DSTYLE_DIMTALN
 70
     0
  0
APPID
  5
20D3C
330
9
100
AcDbSymbolTableRecord
100
AcDbRegAppTableRecord
  2
ACAD_DSTYLE_DIMJOGGED_JOGANGLE_SYMBOL
 70
     0
  0
ENDTAB
  0
TABLE
  2
DIMSTYLE
  5
A
330
0
100
AcDbSymbolTable
 70
     7
100
AcDbDimStyleTable
 71
     1
340
243
  0
DIMSTYLE
105
243
102
{ACAD_REACTORS
330
21531
330
21532
330
21533
330
21535
330
21534
330
21536
102
}
330
A
100
AcDbSymbolTableRecord
100
AcDbDimStyleTableRecord
  2
STANDARD
 70
     0
 41
4.57
 47
0.01
 48
0.01
 73
     0
 74
     0
 77
     1
 78
     8
140
3.5
271
     3
272
     3
284
     8
289
     0
340
11
  0
ENDTAB
  0
TABLE
  2
BLOCK_RECORD
  5
1
330
0
100
AcDbSymbolTable
 70
    48
  0
BLOCK_RECORD
  5
1F
102
{ACAD_XDICTIONARY
360
339C
102
}
330
1
100
AcDbSymbolTableRecord
100
AcDbBlockTableRecord
  2
*MODEL_SPACE
340
31A6
  0
BLOCK_RECORD
  5
1B
330
1
100
AcDbSymbolTableRecord
100
AcDbBlockTableRecord
  2
*PAPER_SPACE
340
31A7
  0
BLOCK_RECORD
  5
1B3D7
102
{ACAD_XDICTIONARY
360
1DE81
102
}
330
1
100
AcDbSymbolTableRecord
100
AcDbBlockTableRecord
  2
cero_point
340
0
310
28000000200000002000000001002000000000000010000001000000010000000000000000000000302821FF302821FF302821FF302821FF302821FF302821FF302821FF302821FF302821FF302821FF302821FF302821FF302821FF302821FF302821FF302821FF302821FF302821FF302821FF302821FF302821FF302821
310
FF302821FF302821FF302821FF302821FF302821FF302821FF302821FF302821FF302821FF302821FF302821FF302821FF302821FF302821FF302821FF302821FF302821FF302821FF302821FF302821FF302821FF302821FF302821FF302821FF302821FFFFFF00FFFFFF00FFFFFF00FF302821FF302821FF302821FF3028
310
21FF302821FF302821FF302821FF302821FF302821FF302821FF302821FF302821FF302821FF302821FF302821FF302821FF302821FF302821FF302821FF302821FF302821FF302821FF302821FF302821FFFFFF00FFFFFF00FFFFFF00FFFFFF00FFFFFF00FFFFFF00FFFFFF00FF302821FFFFFF00FFFFFF00FFFFFF00FF30
310
2821FF302821FF302821FF302821FF302821FF302821FF302821FF302821FF302821FF302821FF302821FF302821FF302821FF302821FF302821FF302821FF302821FF302821FF302821FFFFFF00FFFFFF00FFFFFF00FFFFFF00FFFFFF00FFFFFF00FFFFFF00FFFFFF00FFFFFF00FF302821FF302821FF302821FF302821FF
310
FFFF00FFFFFF00FF302821FF302821FF302821FF302821FF302821FF302821FF302821FF302821FF302821FF302821FF302821FF302821FF302821FF302821FF302821FF302821FFFFFF00FFFFFF00FFFFFF00FFFFFF00FFFFFF00FFFFFF00FFFFFF00FFFFFF00FFFFFF00FFFFFF00FF302821FF302821FF302821FF302821
310
FF302821FF302821FFFFFF00FFFFFF00FF302821FF302821FF302821FF302821FF302821FF302821FF302821FF302821FF302821FF302821FF302821FF302821FF302821FFFFFF00FFFFFF00FFFFFF00FFFFFF00FFFFFF00FFFFFF00FFFFFF00FFFFFF00FFFFFF00FFFFFF00FFFFFF00FF302821FF302821FF302821FF3028
310
21FF302821FF302821FF302821FF302821FFFFFF00FF302821FF302821FF302821FF302821FF302821FF302821FF302821FF302821FF302821FF302821FF302821FFFFFF00FFFFFF00FFFFFF00FFFFFF00FFFFFF00FFFFFF00FFFFFF00FFFFFF00FFFFFF00FFFFFF00FFFFFF00FFFFFF00FF302821FF302821FF302821FF30
310
2821FF302821FF302821FF302821FF302821FF302821FFFFFF00FF302821FF302821FF302821FF302821FF302821FF302821FF302821FF302821FF302821FFFFFF00FFFFFF00FFFFFF00FFFFFF00FFFFFF00FFFFFF00FFFFFF00FFFFFF00FFFFFF00FFFFFF00FFFFFF00FFFFFF00FFFFFF00FF302821FF302821FF302821FF
310
302821FF302821FF302821FF302821FF302821FF302821FF302821FFFFFF00FF302821FF302821FF302821FF302821FF302821FF302821FF302821FFFFFF00FFFFFF00FFFFFF00FFFFFF00FFFFFF00FFFFFF00FFFFFF00FFFFFF00FFFFFF00FFFFFF00FFFFFF00FFFFFF00FFFFFF00FFFFFF00FF302821FF302821FF302821
310
FF302821FF302821FF302821FF302821FF302821FF302821FF302821FFFFFF00FF302821FF302821FF302821FF302821FF302821FF302821FF302821FFFFFF00FFFFFF00FFFFFF00FFFFFF00FFFFFF00FFFFFF00FFFFFF00FFFFFF00FFFFFF00FFFFFF00FFFFFF00FFFFFF00FFFFFF00FFFFFF00FF302821FF302821FF3028
310
21FF302821FF302821FF302821FF302821FF302821FF302821FF302821FF302821FFFFFF00FF302821FF302821FF302821FF302821FF302821FFFFFF00FFFFFF00FFFFFF00FFFFFF00FFFFFF00FFFFFF00FFFFFF00FFFFFF00FFFFFF00FFFFFF00FFFFFF00FFFFFF00FFFFFF00FFFFFF00FFFFFF00FF302821FF302821FF30
310
2821FF302821FF302821FF302821FF302821FF302821FF302821FF302821FF302821FF302821FFFFFF00FF302821FF302821FF302821FF302821FFFFFF00FFFFFF00FFFFFF00FFFFFF00FFFFFF00FFFFFF00FFFFFF00FFFFFF00FFFFFF00FFFFFF00FFFFFF00FFFFFF00FFFFFF00FFFFFF00FFFFFF00FF302821FF302821FF
310
302821FF302821FF302821FF302821FF302821FF302821FF302821FF302821FF302821FF302821FFFFFF00FF302821FF302821FF302821FF302821FFFFFF00FFFFFF00FFFFFF00FFFFFF00FFFFFF00FFFFFF00FFFFFF00FFFFFF00FFFFFF00FFFFFF00FFFFFF00FFFFFF00FFFFFF00FFFFFF00FFFFFF00FF302821FF302821
310
FF302821FF302821FF302821FF302821FF302821FF302821FF302821FF302821FF302821FF302821FFFFFF00FF302821FF302821FF302821FF302821FFFFFF00FFFFFF00FFFFFF00FFFFFF00FFFFFF00FFFFFF00FFFFFF00FFFFFF00FFFFFF00FFFFFF00FFFFFF00FFFFFF00FFFFFF00FFFFFF00FFFFFF00FF302821FF3028
310
21FF302821FF302821FF302821FF302821FF302821FF302821FF302821FF302821FF302821FF302821FFFFFF00FF302821FF302821FF302821FFFFFF00FFFFFF00FFFFFF00FFFFFF00FFFFFF00FFFFFF00FFFFFF00FFFFFF00FFFFFF00FFFFFF00FFFFFF00FFFFFF00FFFFFF00FFFFFF00FFFFFF00FFFFFF00FF302821FF30
310
2821FF302821FF302821FF302821FF302821FF302821FF302821FF302821FF302821FF302821FF302821FF302821FFFFFF00FF302821FF302821FFFFFF00FFFFFF00FFFFFF00FFFFFF00FFFFFF00FFFFFF00FFFFFF00FFFFFF00FFFFFF00FFFFFF00FFFFFF00FFFFFF00FFFFFF00FFFFFF00FFFFFF00FFFFFF00FFFFFF00FF
310
FFFF00FFFFFF00FFFFFF00FFFFFF00FFFFFF00FFFFFF00FFFFFF00FFFFFF00FFFFFF00FFFFFF00FFFFFF00FFFFFF00FFFFFF00FF302821FF302821FFFFFF00FF302821FF302821FF302821FF302821FF302821FF302821FF302821FF302821FF302821FF302821FF302821FF302821FF302821FF302821FFFFFF00FFFFFF00
310
FFFFFF00FFFFFF00FFFFFF00FFFFFF00FFFFFF00FFFFFF00FFFFFF00FFFFFF00FFFFFF00FFFFFF00FFFFFF00FFFFFF00FFFFFF00FF302821FF302821FFFFFF00FF302821FF302821FF302821FF302821FF302821FF302821FF302821FF302821FF302821FF302821FF302821FF302821FF302821FF302821FFFFFF00FFFFFF
310
00FFFFFF00FFFFFF00FFFFFF00FFFFFF00FFFFFF00FFFFFF00FFFFFF00FFFFFF00FFFFFF00FFFFFF00FFFFFF00FFFFFF00FF302821FF302821FF302821FF302821FFFFFF00FF302821FF302821FF302821FF302821FF302821FF302821FF302821FF302821FF302821FF302821FF302821FF302821FF302821FFFFFF00FFFF
310
FF00FFFFFF00FFFFFF00FFFFFF00FFFFFF00FFFFFF00FFFFFF00FFFFFF00FFFFFF00FFFFFF00FFFFFF00FFFFFF00FFFFFF00FF302821FF302821FF302821FF302821FFFFFF00FF302821FF302821FF302821FF302821FF302821FF302821FF302821FF302821FF302821FF302821FF302821FF302821FF302821FFFFFF00FF
310
FFFF00FFFFFF00FFFFFF00FFFFFF00FFFFFF00FFFFFF00FFFFFF00FFFFFF00FFFFFF00FFFFFF00FFFFFF00FFFFFF00FFFFFF00FF302821FF302821FF302821FF302821FFFFFF00FF302821FF302821FF302821FF302821FF302821FF302821FF302821FF302821FF302821FF302821FF302821FF302821FF302821FFFFFF00
310
FFFFFF00FFFFFF00FFFFFF00FFFFFF00FFFFFF00FFFFFF00FFFFFF00FFFFFF00FFFFFF00FFFFFF00FFFFFF00FFFFFF00FFFFFF00FF302821FF302821FF302821FF302821FF302821FFFFFF00FF302821FF302821FF302821FF302821FF302821FF302821FF302821FF302821FF302821FF302821FF302821FF302821FFFFFF
310
00FFFFFF00FFFFFF00FFFFFF00FFFFFF00FFFFFF00FFFFFF00FFFFFF00FFFFFF00FFFFFF00FFFFFF00FFFFFF00FFFFFF00FFFFFF00FF302821FF302821FF302821FF302821FF302821FFFFFF00FF302821FF302821FF302821FF302821FF302821FF302821FF302821FF302821FF302821FF302821FF302821FF302821FFFF
310
FF00FFFFFF00FFFFFF00FFFFFF00FFFFFF00FFFFFF00FFFFFF00FFFFFF00FFFFFF00FFFFFF00FFFFFF00FFFFFF00FFFFFF00FF302821FF302821FF302821FF302821FF302821FF302821FF302821FFFFFF00FF302821FF302821FF302821FF302821FF302821FF302821FF302821FF302821FF302821FF302821FF302821FF
310
FFFF00FFFFFF00FFFFFF00FFFFFF00FFFFFF00FFFFFF00FFFFFF00FFFFFF00FFFFFF00FFFFFF00FFFFFF00FFFFFF00FFFFFF00FF302821FF302821FF302821FF302821FF302821FF302821FF302821FFFFFF00FF302821FF302821FF302821FF302821FF302821FF302821FF302821FF302821FF302821FF302821FF302821
310
FFFFFF00FFFFFF00FFFFFF00FFFFFF00FFFFFF00FFFFFF00FFFFFF00FFFFFF00FFFFFF00FFFFFF00FFFFFF00FFFFFF00FF302821FF302821FF302821FF302821FF302821FF302821FF302821FF302821FF302821FFFFFF00FF302821FF302821FF302821FF302821FF302821FF302821FF302821FF302821FF302821FF3028
310
21FFFFFF00FFFFFF00FFFFFF00FFFFFF00FFFFFF00FFFFFF00FFFFFF00FFFFFF00FFFFFF00FFFFFF00FFFFFF00FF302821FF302821FF302821FF302821FF302821FF302821FF302821FF302821FF302821FF302821FF302821FFFFFF00FF302821FF302821FF302821FF302821FF302821FF302821FF302821FF302821FF30
310
2821FFFFFF00FFFFFF00FFFFFF00FFFFFF00FFFFFF00FFFFFF00FFFFFF00FFFFFF00FFFFFF00FFFFFF00FF302821FF302821FF302821FF302821FF302821FF302821FF302821FF302821FF302821FF302821FF302821FF302821FF302821FFFFFF00FF302821FF302821FF302821FF302821FF302821FF302821FF302821FF
310
302821FFFFFF00FFFFFF00FFFFFF00FFFFFF00FFFFFF00FFFFFF00FFFFFF00FFFFFF00FFFFFF00FF302821FF302821FF302821FF302821FF302821FF302821FF302821FF302821FF302821FF302821FF302821FF302821FF302821FF302821FF302821FFFFFF00FFFFFF00FF302821FF302821FF302821FF302821FF302821
310
FF302821FFFFFF00FFFFFF00FFFFFF00FFFFFF00FFFFFF00FFFFFF00FFFFFF00FFFFFF00FF302821FF302821FF302821FF302821FF302821FF302821FF302821FF302821FF302821FF302821FF302821FF302821FF302821FF302821FF302821FF302821FF302821FF302821FFFFFF00FFFFFF00FFFFFF00FFFFFF00FFFFFF
310
00FF302821FFFFFF00FFFFFF00FFFFFF00FFFFFF00FFFFFF00FFFFFF00FF302821FF302821FF302821FF302821FF302821FF302821FF302821FF302821FF302821FF302821FF302821FF302821FF302821FF302821FF302821FF302821FF302821FF302821FF302821FF302821FF302821FF302821FF302821FF302821FF30
310
2821FFFFFF00FFFFFF00FFFFFF00FF302821FF302821FF302821FF302821FF302821FF302821FF302821FF302821FF302821FF302821FF302821FF302821FF302821FF302821FF302821FF302821FF302821FF302821FF302821FF302821FF302821FF302821FF302821FF302821FF302821FF302821FF302821FF302821FF
310
302821FF302821FF302821FF302821FF302821FF302821FF302821FF302821FF302821FF302821FF302821FF302821FF302821FF302821FF302821FF302821FF302821FF302821FF
102
{BLKREFS
331
20A18
102
}
  0
BLOCK_RECORD
  5
20CA5
102
{ACAD_XDICTIONARY
360
20CA6
102
}
330
1
100
AcDbSymbolTableRecord
100
AcDbBlockTableRecord
  2
Name
340
0
310
28000000200000002000000001002000000000000010000001000000010000000000000000000000302821FF302821FF302821FF302821FF302821FF302821FF302821FF302821FF302821FF302821FF302821FF302821FF302821FF302821FF302821FF302821FF302821FF302821FF302821FF302821FF302821FF302821
310
FF302821FF302821FF302821FF302821FF302821FF302821FF302821FF302821FF302821FF302821FF302821FF302821FF302821FF302821FF302821FF302821FF302821FF302821FF302821FF302821FF302821FF302821FF302821FF302821FF302821FF302821FF302821FF302821FF302821FF302821FF302821FF3028
310
21FF302821FF302821FF302821FF302821FF302821FF302821FF302821FF302821FF302821FF302821FF302821FF302821FF302821FF302821FF302821FF302821FF302821FF302821FF302821FF302821FF302821FF302821FF302821FF302821FF302821FF302821FF302821FF302821FF302821FF302821FF302821FF30
310
2821FF302821FF302821FF302821FF302821FF302821FF302821FF302821FF302821FF302821FF302821FF302821FF302821FF302821FF302821FF302821FF302821FF302821FF302821FF302821FF302821FF302821FF302821FF302821FF302821FF302821FF302821FF302821FF302821FF302821FF302821FF302821FF
310
302821FF302821FF302821FF302821FF302821FF302821FF302821FF302821FF302821FF302821FF302821FF302821FF302821FF302821FF302821FF302821FF302821FF302821FF302821FF302821FF302821FF302821FF302821FF302821FF302821FF302821FF302821FF302821FF302821FF302821FF302821FF302821
310
FF302821FF302821FF302821FF302821FF302821FF302821FF302821FF302821FF302821FF302821FF302821FF302821FF302821FF302821FF302821FF302821FF302821FF302821FF302821FF302821FF302821FF302821FF302821FF302821FF302821FF302821FF302821FF302821FF302821FF302821FF302821FF3028
310
21FF302821FF302821FF302821FF302821FF302821FF302821FF302821FF302821FF302821FF302821FF302821FF302821FF302821FF302821FF302821FF302821FF302821FF302821FF302821FF302821FF302821FF302821FF302821FF302821FF302821FF302821FF302821FF302821FF302821FF302821FF302821FF30
310
2821FF302821FF302821FF302821FF302821FF302821FF302821FF302821FF302821FF302821FF302821FF302821FF302821FF302821FF302821FF302821FF302821FF302821FF302821FF302821FF302821FF302821FF302821FF302821FF302821FF302821FF302821FF302821FF302821FF302821FF302821FF302821FF
310
302821FF302821FF302821FF302821FF302821FF302821FF302821FF302821FF302821FF302821FF302821FF302821FF302821FF302821FF302821FF302821FF302821FF302821FF302821FF302821FF302821FF302821FF302821FF302821FF302821FF302821FF302821FF302821FF302821FF302821FF302821FF302821
310
FF302821FF302821FF302821FF302821FF302821FF302821FF302821FF302821FF302821FF302821FF302821FF302821FF302821FF302821FF302821FF302821FF302821FF302821FF302821FF302821FF302821FF302821FF302821FF302821FF302821FF302821FF302821FF302821FF302821FF302821FF302821FF3028
310
21FF302821FF302821FF302821FF302821FF302821FF302821FF302821FF302821FF302821FF302821FF302821FF302821FF302821FF302821FFFF0000FFFF0000FF302821FF302821FFFF0000FFFF0000FFFF0000FFFF0000FFFF0000FF302821FF302821FF302821FF302821FFFF0000FFFF0000FFFF0000FFFF0000FFFF
310
0000FFFF0000FFFF0000FFFF0000FF302821FFFF0000FFFF0000FFFF0000FFFF0000FFFF0000FFFF0000FF302821FF302821FF302821FF302821FFFF0000FFFF0000FF302821FF302821FFFF0000FFFF0000FFFF0000FFFF0000FFFF0000FF302821FF302821FF302821FF302821FFFF0000FFFF0000FFFF0000FFFF0000FF
310
FF0000FFFF0000FFFF0000FFFF0000FF302821FFFF0000FFFF0000FFFF0000FFFF0000FFFF0000FFFF0000FF302821FF302821FF302821FF302821FFFF0000FFFF0000FF302821FFFF0000FFFF0000FFFF0000FFFF0000FFFF0000FFFF0000FF302821FF302821FF302821FFFF0000FFFF0000FFFF0000FFFF0000FFFF0000
310
FFFF0000FFFF0000FFFF0000FFFF0000FF302821FFFF0000FFFF0000FFFF0000FFFF0000FFFF0000FFFF0000FF302821FF302821FF302821FF302821FFFF0000FFFF0000FF302821FFFF0000FFFF0000FFFF0000FFFF0000FFFF0000FFFF0000FFFF0000FFFF0000FFFF0000FFFF0000FFFF0000FFFF0000FFFF0000FFFF00
310
00FFFF0000FFFF0000FFFF0000FFFF0000FF302821FFFF0000FFFF0000FF302821FF302821FF302821FF302821FF302821FF302821FF302821FF302821FFFF0000FFFF0000FF302821FFFF0000FFFF0000FFFF0000FFFF0000FFFF0000FFFF0000FFFF0000FFFF0000FFFF0000FFFF0000FFFF0000FFFF0000FFFF0000FFFF
310
0000FFFF0000FFFF0000FFFF0000FFFF0000FF302821FFFF0000FFFF0000FF302821FF302821FF302821FF302821FF302821FF302821FF302821FF302821FFFF0000FFFF0000FFFF0000FFFF0000FFFF0000FFFF0000FFFF0000FFFF0000FFFF0000FFFF0000FFFF0000FFFF0000FFFF0000FF302821FFFF0000FFFF0000FF
310
FF0000FF302821FFFF0000FFFF0000FFFF0000FF302821FFFF0000FFFF0000FFFF0000FFFF0000FFFF0000FF302821FF302821FF302821FF302821FF302821FFFF0000FFFF0000FFFF0000FFFF0000FFFF0000FFFF0000FFFF0000FF302821FFFF0000FFFF0000FF302821FFFF0000FFFF0000FF302821FFFF0000FFFF0000
310
FFFF0000FF302821FFFF0000FFFF0000FFFF0000FF302821FFFF0000FFFF0000FFFF0000FFFF0000FFFF0000FF302821FF302821FF302821FF302821FF302821FFFF0000FFFF0000FFFF0000FFFF0000FF302821FFFF0000FFFF0000FF302821FFFF0000FFFF0000FFFF0000FFFF0000FFFF0000FF302821FFFF0000FFFF00
310
00FFFF0000FF302821FFFF0000FFFF0000FFFF0000FF302821FFFF0000FFFF0000FFFF0000FFFF0000FFFF0000FF302821FF302821FF302821FF302821FF302821FFFF0000FFFF0000FFFF0000FFFF0000FF302821FFFF0000FFFF0000FF302821FFFF0000FFFF0000FFFF0000FFFF0000FFFF0000FF302821FFFF0000FFFF
310
0000FFFF0000FF302821FF302821FFFF0000FFFF0000FF302821FFFF0000FFFF0000FF302821FF302821FF302821FF302821FF302821FF302821FF302821FF302821FFFF0000FFFF0000FFFF0000FF302821FF302821FFFF0000FFFF0000FF302821FF302821FFFF0000FFFF0000FFFF0000FF302821FF302821FFFF0000FF
310
FF0000FF302821FF302821FF302821FFFF0000FFFF0000FF302821FFFF0000FFFF0000FFFF0000FFFF0000FFFF0000FF302821FF302821FF302821FF302821FF302821FFFF0000FFFF0000FFFF0000FF302821FF302821FFFF0000FFFF0000FF302821FF302821FFFF0000FFFF0000FFFF0000FF302821FF302821FFFF0000
310
FFFF0000FF302821FF302821FF302821FFFF0000FFFF0000FF302821FFFF0000FFFF0000FFFF0000FFFF0000FFFF0000FF302821FF302821FF302821FF302821FF302821FF302821FF302821FF302821FF302821FF302821FF302821FF302821FF302821FF302821FF302821FF302821FF302821FF302821FF302821FF3028
310
21FF302821FF302821FF302821FF302821FF302821FF302821FF302821FF302821FF302821FF302821FF302821FF302821FF302821FF302821FF302821FF302821FF302821FF302821FF302821FF302821FF302821FF302821FF302821FF302821FF302821FF302821FF302821FF302821FF302821FF302821FF302821FF30
310
2821FF302821FF302821FF302821FF302821FF302821FF302821FF302821FF302821FF302821FF302821FF302821FF302821FF302821FF302821FF302821FF302821FF302821FF302821FF302821FF302821FF302821FF302821FF302821FF302821FF302821FF302821FF302821FF302821FF302821FF302821FF302821FF
310
302821FF302821FF302821FF302821FF302821FF302821FF302821FF302821FF302821FF302821FF302821FF302821FF302821FF302821FF302821FF302821FF302821FF302821FF302821FF302821FF302821FF302821FF302821FF302821FF302821FF302821FF302821FF302821FF302821FF302821FF302821FF302821
310
FF302821FF302821FF302821FF302821FF302821FF302821FF302821FF302821FF302821FF302821FF302821FF302821FF302821FF302821FF302821FF302821FF302821FF302821FF302821FF302821FF302821FF302821FF302821FF302821FF302821FF302821FF302821FF302821FF302821FF302821FF302821FF3028
310
21FF302821FF302821FF302821FF302821FF302821FF302821FF302821FF302821FF302821FF302821FF302821FF302821FF302821FF302821FF302821FF302821FF302821FF302821FF302821FF302821FF302821FF302821FF302821FF302821FF302821FF302821FF302821FF302821FF302821FF302821FF302821FF30
310
2821FF302821FF302821FF302821FF302821FF302821FF302821FF302821FF302821FF302821FF302821FF302821FF302821FF302821FF302821FF302821FF302821FF302821FF302821FF302821FF302821FF302821FF302821FF302821FF302821FF302821FF302821FF302821FF302821FF302821FF302821FF302821FF
310
302821FF302821FF302821FF302821FF302821FF302821FF302821FF302821FF302821FF302821FF302821FF302821FF302821FF302821FF302821FF302821FF302821FF302821FF302821FF302821FF302821FF302821FF302821FF302821FF302821FF302821FF302821FF302821FF302821FF302821FF302821FF302821
310
FF302821FF302821FF302821FF302821FF302821FF302821FF302821FF302821FF302821FF302821FF302821FF302821FF302821FF302821FF302821FF302821FF302821FF302821FF302821FF302821FF302821FF302821FF302821FF302821FF302821FF302821FF302821FF302821FF302821FF302821FF302821FF3028
310
21FF302821FF302821FF302821FF302821FF302821FF302821FF302821FF302821FF302821FF302821FF302821FF302821FF302821FF302821FF302821FF302821FF302821FF302821FF302821FF302821FF302821FF302821FF302821FF302821FF302821FF302821FF302821FF302821FF302821FF302821FF302821FF30
310
2821FF302821FF302821FF302821FF302821FF302821FF302821FF302821FF302821FF302821FF302821FF302821FF302821FF302821FF302821FF302821FF302821FF302821FF302821FF302821FF302821FF302821FF302821FF302821FF302821FF302821FF302821FF302821FF302821FF302821FF302821FF302821FF
310
302821FF302821FF302821FF302821FF302821FF302821FF302821FF302821FF302821FF302821FF302821FF302821FF302821FF302821FF302821FF302821FF302821FF302821FF
102
{BLKREFS
331
20CC2
102
}
1001
AcDbDynamicBlockGUID
1000
{15A9DAFA-FD13-4556-B9B1-5A71F15CF06E}
  0
BLOCK_RECORD
  5
21537
330
1
100
AcDbSymbolTableRecord
100
AcDbBlockTableRecord
  2
*D42
340
0
  0
BLOCK_RECORD
  5
21543
330
1
100
AcDbSymbolTableRecord
100
AcDbBlockTableRecord
  2
*D43
340
0
  0
BLOCK_RECORD
  5
2154F
330
1
100
AcDbSymbolTableRecord
100
AcDbBlockTableRecord
  2
*D44
340
0
  0
BLOCK_RECORD
  5
2155B
330
1
100
AcDbSymbolTableRecord
100
AcDbBlockTableRecord
  2
*D45
340
0
  0
BLOCK_RECORD
  5
21567
330
1
100
AcDbSymbolTableRecord
100
AcDbBlockTableRecord
  2
*D46
340
0
  0
BLOCK_RECORD
  5
21574
330
1
100
AcDbSymbolTableRecord
100
AcDbBlockTableRecord
  2
*D47
340
0
  0
ENDTAB
  0
ENDSEC
  0
SECTION
  2
BLOCKS
  0
BLOCK
  5
20
330
1F
100
AcDbEntity
  8
0
100
AcDbBlockBegin
  2
*MODEL_SPACE
 70
     0
 10
0.0
 20
0.0
 30
0.0
  3
*MODEL_SPACE
  1

  0
ENDBLK
  5
21
330
1F
100
AcDbEntity
  8
0
100
AcDbBlockEnd
  0
BLOCK
  5
1C
330
1B
100
AcDbEntity
 67
     1
  8
0
100
AcDbBlockBegin
  2
*PAPER_SPACE
 70
     0
 10
0.0
 20
0.0
 30
0.0
  3
*PAPER_SPACE
  1

  0
ENDBLK
  5
1D
330
1B
100
AcDbEntity
 67
     1
  8
0
100
AcDbBlockEnd
  0
BLOCK
  5
1B3D8
330
1B3D7
100
AcDbEntity
  8
0
100
AcDbBlockBegin
  2
cero_point
 70
     0
 10
0.0
 20
0.0
 30
0.0
  3
cero_point
  1

  0
HATCH
  5
1B3DA
330
1B3D7
100
AcDbEntity
  8
1
  6
ByBlock
370
    50
100
AcDbHatch
 10
0.0
 20
0.0
 30
0.0
210
0.0
220
0.0
230
1.0
  2
SOLID
 70
     1
 71
     0
 91
        2
 92
        7
 72
     1
 73
     1
 93
        3
 10
-0.0000000000001137
 20
0.0
 42
0.0
 10
-2.950972054112752
 20
0.0
 42
0.4142135623730968
 10
-0.0000000000001137
 20
-2.950972054112583
 42
0.0
 97
        0
 92
        7
 72
     1
 73
     1
 93
        3
 10
-0.0000000000001137
 20
2.950972054112638
 42
0.0
 10
-0.0000000000001137
 20
0.0
 42
0.0
 10
2.950972054112526
 20
0.0
 42
0.4142135623730966
 97
        0
 75
     0
 76
     1
 47
0.1190009775223266
 98
        2
 10
-0.7445530588121301
 20
-0.9212244733764125
 10
1.279464601852737
 20
1.696796923046345
  0
LWPOLYLINE
  5
1B3DB
330
1B3D7
100
AcDbEntity
  8
1
  6
ByBlock
370
    50
100
AcDbPolyline
 90
        3
 70
     1
 43
0.0
 10
-0.0000000000001137
 20
0.0
 10
2.950972054112526
 20
0.0
 42
0.4142135623730966
 10
-0.0000000000001137
 20
2.950972054112638
  0
LINE
  5
1B3DC
330
1B3D7
100
AcDbEntity
  8
1
  6
ByBlock
370
    50
100
AcDbLine
 10
-0.0000000000001137
 20
-2.950972054112583
 30
0.0
 11
-0.0000000000001137
 21
2.950972054112638
 31
0.0
  0
LWPOLYLINE
  5
1B3DD
330
1B3D7
100
AcDbEntity
  8
1
  6
ByBlock
370
    50
100
AcDbPolyline
 90
        3
 70
     1
 43
0.0
 10
-0.0000000000001137
 20
-2.950972054112583
 10
-0.0000000000001137
 20
0.0
 10
-2.950972054112752
 20
0.0
 42
0.4142135623730966
  0
LINE
  5
1B3DE
330
1B3D7
100
AcDbEntity
  8
1
  6
ByBlock
370
    50
100
AcDbLine
 10
2.950972054112638
 20
0.0
 30
0.0
 11
-2.950972054112638
 21
0.0
 31
0.0
  0
CIRCLE
  5
1B3DF
330
1B3D7
100
AcDbEntity
  8
1
  6
ByBlock
370
    50
100
AcDbCircle
 10
-0.0000000000001137
 20
0.0
 30
0.0
 40
2.950972054112601
  0
ENDBLK
  5
1B3D9
330
1B3D7
100
AcDbEntity
  8
0
100
AcDbBlockEnd
  0
BLOCK
  5
20CA7
330
20CA5
100
AcDbEntity
  8
0
100
AcDbBlockBegin
  2
Name
 70
     2
 10
0.0
 20
0.0
 30
0.0
  3
Name
  1

  0
ATTDEF
  5
20CA8
102
{ACAD_XDICTIONARY
360
20CA9
102
}
330
20CA5
100
AcDbEntity
  8
SKVIEW63
100
AcDbText
 10
0.0905073844082551
 20
0.0474757964751689
 30
0.0
 40
3.5
  1
1TW7J020030X6R00
 41
0.8
  7
BMG_Text
100
AcDbAttributeDefinition
  3
identisch mit Dateiname
  2
NAME
 70
     4
  0
ENDBLK
  5
20CAD
330
20CA5
100
AcDbEntity
  8
0
100
AcDbBlockEnd
  0
BLOCK
  5
21538
330
21537
100
AcDbEntity
  8
0
100
AcDbBlockBegin
  2
*D42
 70
     1
 10
0.0
 20
0.0
 30
0.0
  3
*D42
  1

  0
LINE
  5
21605
330
21537
100
AcDbEntity
  8
SK2
 62
     0
370
    -2
100
AcDbLine
 10
-19.06250000000011
 20
5.0
 30
0.0
 11
-25.08442520839815
 21
5.0
 31
0.0
  0
LINE
  5
21606
330
21537
100
AcDbEntity
  8
SK2
 62
     0
370
    -2
100
AcDbLine
 10
-19.06250000000011
 20
-5.0
 30
0.0
 11
-25.08442520839815
 21
-4.999999999999999
 31
0.0
  0
LINE
  5
21607
330
21537
100
AcDbEntity
  8
SK2
 62
     0
370
    -2
100
AcDbLine
 10
-24.90442520839815
 20
0.4300000000000008
 30
0.0
 11
-24.90442520839815
 21
-0.4299999999999987
 31
0.0
  0
SOLID
  5
21608
330
21537
100
AcDbEntity
  8
SK2
 62
     0
100
AcDbTrace
 10
-25.66609187506482
 20
0.430000000000001
 30
0.0
 11
-24.14275854173149
 21
0.4300000000000007
 31
0.0
 12
-24.90442520839815
 22
5.0
 32
0.0
 13
-24.90442520839815
 23
5.0
 33
0.0
  0
SOLID
  5
21609
330
21537
100
AcDbEntity
  8
SK2
 62
     0
100
AcDbTrace
 10
-25.66609187506482
 20
-0.4299999999999985
 30
0.0
 11
-24.14275854173149
 21
-0.4299999999999988
 31
0.0
 12
-24.90442520839815
 22
-4.999999999999999
 32
0.0
 13
-24.90442520839815
 23
-4.999999999999999
 33
0.0
  0
MTEXT
  5
2160A
330
21537
100
AcDbEntity
  8
SK2
 62
     0
100
AcDbMText
 10
-26.80591501865817
 20
-0.0000000000000027
 30
0.0
 40
3.5
 41
0.0
 71
     5
 72
     1
  1
\A1;M10
 11
0.0000000000000001
 21
1.0
 31
0.0
 73
     1
 44
1.0
1001
ACAD
1000
MTEXTBEGIN
1070
    73
1070
     1
1070
    44
1040
1.0
1070
    74
1070
     0
1000
MTEXTEND
  0
POINT
  5
2160B
330
21537
100
AcDbEntity
  8
Defpoints
 62
     0
100
AcDbPoint
 10
-19.00000000000011
 20
5.0
 30
0.0
  0
POINT
  5
2160C
330
21537
100
AcDbEntity
  8
Defpoints
 62
     0
100
AcDbPoint
 10
-19.00000000000011
 20
-5.0
 30
0.0
  0
POINT
  5
2160D
330
21537
100
AcDbEntity
  8
Defpoints
 62
     0
100
AcDbPoint
 10
-24.90442520839815
 20
-4.999999999999999
 30
0.0
  0
ENDBLK
  5
21539
330
21537
100
AcDbEntity
  8
0
100
AcDbBlockEnd
  0
BLOCK
  5
21544
330
21543
100
AcDbEntity
  8
0
100
AcDbBlockBegin
  2
*D43
 70
     1
 10
0.0
 20
0.0
 30
0.0
  3
*D43
  1

  0
LINE
  5
2167F
330
21543
100
AcDbEntity
  8
2
 62
     0
370
    -2
100
AcDbLine
 10
0.1374999999998749
 20
9.0
 30
0.0
 11
-35.32449136382763
 21
9.000000000000008
 31
0.0
  0
LINE
  5
21680
330
21543
100
AcDbEntity
  8
2
 62
     0
370
    -2
100
AcDbLine
 10
0.1374999999998749
 20
-9.0
 30
0.0
 11
-35.32449136382763
 21
-8.999999999999991
 31
0.0
  0
LINE
  5
21681
330
21543
100
AcDbEntity
  8
2
 62
     0
370
    -2
100
AcDbLine
 10
-35.14449136382763
 20
4.430000000000009
 30
0.0
 11
-35.14449136382763
 21
-4.429999999999989
 31
0.0
  0
SOLID
  5
21682
330
21543
100
AcDbEntity
  8
2
 62
     0
100
AcDbTrace
 10
-35.9061580304943
 20
4.430000000000009
 30
0.0
 11
-34.38282469716096
 21
4.430000000000009
 31
0.0
 12
-35.14449136382763
 22
9.000000000000008
 32
0.0
 13
-35.14449136382763
 23
9.000000000000008
 33
0.0
  0
SOLID
  5
21683
330
21543
100
AcDbEntity
  8
2
 62
     0
100
AcDbTrace
 10
-35.9061580304943
 20
-4.429999999999989
 30
0.0
 11
-34.38282469716096
 21
-4.429999999999989
 31
0.0
 12
-35.14449136382763
 22
-8.999999999999991
 32
0.0
 13
-35.14449136382763
 23
-8.999999999999991
 33
0.0
  0
MTEXT
  5
21684
330
21543
100
AcDbEntity
  8
2
 62
     0
100
AcDbMText
 10
-37.09763261470605
 20
0.0000000000000042
 30
0.0
 40
3.5
 41
0.0
 71
     5
 72
     1
  1
\A1;%%C18
 11
0.0000000000000001
 21
1.0
 31
0.0
 73
     1
 44
1.0
1001
ACAD
1000
MTEXTBEGIN
1070
    73
1070
     1
1070
    44
1040
1.0
1070
    74
1070
     0
1000
MTEXTEND
  0
POINT
  5
21685
330
21543
100
AcDbEntity
  8
Defpoints
 62
     0
100
AcDbPoint
 10
0.1999999999998749
 20
9.0
 30
0.0
  0
POINT
  5
21686
330
21543
100
AcDbEntity
  8
Defpoints
 62
     0
100
AcDbPoint
 10
0.1999999999998749
 20
-9.0
 30
0.0
  0
POINT
  5
21687
330
21543
100
AcDbEntity
  8
Defpoints
 62
     0
100
AcDbPoint
 10
-35.14449136382763
 20
-8.999999999999991
 30
0.0
  0
ENDBLK
  5
21545
330
21543
100
AcDbEntity
  8
0
100
AcDbBlockEnd
  0
BLOCK
  5
21550
330
2154F
100
AcDbEntity
  8
0
100
AcDbBlockBegin
  2
*D44
 70
     1
 10
0.0
 20
0.0
 30
0.0
  3
*D44
  1

  0
LINE
  5
2163A
330
2154F
100
AcDbEntity
  8
2
 62
     0
370
    -2
100
AcDbLine
 10
-0.0000000000001137
 20
-8.862499999999997
 30
0.0
 11
-0.0000000000001143
 21
-18.89459203956956
 31
0.0
  0
LINE
  5
2163B
330
2154F
100
AcDbEntity
  8
2
 62
     0
370
    -2
100
AcDbLine
 10
30.00111736557196
 20
-0.0625
 30
0.0
 11
30.00111736557196
 21
-18.89459203956956
 31
0.0
  0
LINE
  5
2163C
330
2154F
100
AcDbEntity
  8
2
 62
     0
370
    -2
100
AcDbLine
 10
4.569999999999885
 20
-18.71459203956957
 30
0.0
 11
25.43111736557196
 21
-18.71459203956957
 31
0.0
  0
SOLID
  5
2163D
330
2154F
100
AcDbEntity
  8
2
 62
     0
100
AcDbTrace
 10
4.569999999999885
 20
-17.9529253729029
 30
0.0
 11
4.569999999999885
 21
-19.47625870623623
 31
0.0
 12
-0.0000000000001143
 22
-18.71459203956957
 32
0.0
 13
-0.0000000000001143
 23
-18.71459203956957
 33
0.0
  0
SOLID
  5
2163E
330
2154F
100
AcDbEntity
  8
2
 62
     0
100
AcDbTrace
 10
25.43111736557196
 20
-17.9529253729029
 30
0.0
 11
25.43111736557196
 21
-19.47625870623623
 31
0.0
 12
30.00111736557196
 22
-18.71459203956957
 32
0.0
 13
30.00111736557196
 23
-18.71459203956957
 33
0.0
  0
MTEXT
  5
2163F
330
2154F
100
AcDbEntity
  8
2
 62
     0
100
AcDbMText
 10
15.00055868278592
 20
-16.81310222930955
 30
0.0
 40
3.5
 41
0.0
 71
     5
 72
     1
  1
\A1;30
 73
     1
 44
1.0
1001
ACAD
1000
MTEXTBEGIN
1070
    73
1070
     1
1070
    44
1040
1.0
1070
    74
1070
     0
1000
MTEXTEND
  0
POINT
  5
21640
330
2154F
100
AcDbEntity
  8
Defpoints
 62
     0
100
AcDbPoint
 10
-0.0000000000001137
 20
-8.799999999999997
 30
0.0
  0
POINT
  5
21641
330
2154F
100
AcDbEntity
  8
Defpoints
 62
     0
100
AcDbPoint
 10
30.00111736557196
 20
0.0
 30
0.0
  0
POINT
  5
21642
330
2154F
100
AcDbEntity
  8
Defpoints
 62
     0
100
AcDbPoint
 10
30.00111736557196
 20
-18.71459203956957
 30
0.0
  0
ENDBLK
  5
21551
330
2154F
100
AcDbEntity
  8
0
100
AcDbBlockEnd
  0
BLOCK
  5
2155C
330
2155B
100
AcDbEntity
  8
0
100
AcDbBlockBegin
  2
*D45
 70
     1
 10
0.0
 20
0.0
 30
0.0
  3
*D45
  1

  0
LINE
  5
216D9
330
2155B
100
AcDbEntity
  8
SK2
 62
     0
370
    -2
100
AcDbLine
 10
-20.00000000000011
 20
4.0625
 30
0.0
 11
-20.00000000000011
 21
23.81396141599242
 31
0.0
  0
LINE
  5
216DA
330
2155B
100
AcDbEntity
  8
SK2
 62
     0
370
    -2
100
AcDbLine
 10
30.00111742107515
 20
0.0625
 30
0.0
 11
30.00111742107515
 21
23.81396141599242
 31
0.0
  0
LINE
  5
216DB
330
2155B
100
AcDbEntity
  8
SK2
 62
     0
370
    -2
100
AcDbLine
 10
-15.43000000000011
 20
23.63396141599242
 30
0.0
 11
25.43111742107515
 21
23.63396141599242
 31
0.0
  0
SOLID
  5
216DC
330
2155B
100
AcDbEntity
  8
SK2
 62
     0
100
AcDbTrace
 10
-15.43000000000011
 20
24.39562808265908
 30
0.0
 11
-15.43000000000011
 21
22.87229474932575
 31
0.0
 12
-20.00000000000011
 22
23.63396141599242
 32
0.0
 13
-20.00000000000011
 23
23.63396141599242
 33
0.0
  0
SOLID
  5
216DD
330
2155B
100
AcDbEntity
  8
SK2
 62
     0
100
AcDbTrace
 10
25.43111742107515
 20
24.39562808265908
 30
0.0
 11
25.43111742107515
 21
22.87229474932575
 31
0.0
 12
30.00111742107515
 22
23.63396141599242
 32
0.0
 13
30.00111742107515
 23
23.63396141599242
 33
0.0
  0
MTEXT
  5
216DE
330
2155B
100
AcDbEntity
  8
SK2
 62
     0
100
AcDbMText
 10
5.000558710537518
 20
25.53545122625243
 30
0.0
 40
3.5
 41
0.0
 71
     5
 72
     1
  1
\A1;50
 73
     1
 44
1.0
1001
ACAD
1000
MTEXTBEGIN
1070
    73
1070
     1
1070
    44
1040
1.0
1070
    74
1070
     0
1000
MTEXTEND
  0
POINT
  5
216DF
330
2155B
100
AcDbEntity
  8
Defpoints
 62
     0
100
AcDbPoint
 10
-20.00000000000011
 20
4.0
 30
0.0
  0
POINT
  5
216E0
330
2155B
100
AcDbEntity
  8
Defpoints
 62
     0
100
AcDbPoint
 10
30.00111742107515
 20
0.0
 30
0.0
  0
POINT
  5
216E1
330
2155B
100
AcDbEntity
  8
Defpoints
 62
     0
100
AcDbPoint
 10
30.00111742107515
 20
23.63396141599242
 30
0.0
  0
ENDBLK
  5
2155D
330
2155B
100
AcDbEntity
  8
0
100
AcDbBlockEnd
  0
BLOCK
  5
21568
330
21567
100
AcDbEntity
  8
0
100
AcDbBlockBegin
  2
*D46
 70
     1
 10
0.0
 20
0.0
 30
0.0
  3
*D46
  1

  0
LINE
  5
21657
330
21567
100
AcDbEntity
  8
2
 62
     0
370
    -2
100
AcDbLine
 10
16.34239082782108
 20
10.70695498029354
 30
0.0
 11
16.34239082782108
 21
15.66380070749778
 31
0.0
  0
LINE
  5
21658
330
21567
100
AcDbEntity
  8
2
 62
     0
370
    -2
100
AcDbLine
 10
30.01162021612839
 20
10.04933810641313
 30
0.0
 11
30.01162021612839
 21
15.66380070749778
 31
0.0
  0
LINE
  5
21659
330
21567
100
AcDbEntity
  8
2
 62
     0
370
    -2
100
AcDbLine
 10
11.77239082782107
 20
15.48380070749778
 30
0.0
 11
7.202390827821076
 21
15.48380070749778
 31
0.0
  0
LINE
  5
2165A
330
21567
100
AcDbEntity
  8
2
 62
     0
370
    -2
100
AcDbLine
 10
34.58162021612839
 20
15.48380070749778
 30
0.0
 11
56.09226673756198
 21
15.48380070749778
 31
0.0
  0
LINE
  5
2165B
330
21567
100
AcDbEntity
  8
2
 62
     0
370
    -2
100
AcDbLine
 10
16.34239082782108
 20
15.48380070749778
 30
0.0
 11
30.01162021612839
 21
15.48380070749778
 31
0.0
  0
SOLID
  5
2165C
330
21567
100
AcDbEntity
  8
2
 62
     0
100
AcDbTrace
 10
11.77239082782107
 20
16.24546737416444
 30
0.0
 11
11.77239082782107
 21
14.72213404083111
 31
0.0
 12
16.34239082782108
 22
15.48380070749778
 32
0.0
 13
16.34239082782108
 23
15.48380070749778
 33
0.0
  0
SOLID
  5
2165D
330
21567
100
AcDbEntity
  8
2
 62
     0
100
AcDbTrace
 10
34.58162021612839
 20
16.24546737416444
 30
0.0
 11
34.58162021612839
 21
14.72213404083111
 31
0.0
 12
30.01162021612839
 22
15.48380070749778
 32
0.0
 13
30.01162021612839
 23
15.48380070749778
 33
0.0
  0
MTEXT
  5
2165E
330
21567
100
AcDbEntity
  8
2
 62
     0
100
AcDbMText
 10
47.62194347684519
 20
17.8587620567599
 30
0.0
 40
3.5
 41
0.0
 71
     5
 72
     1
  1
\A1;Ap13.66
 73
     1
 44
1.0
1001
ACAD
1000
MTEXTBEGIN
1070
    73
1070
     1
1070
    44
1040
1.0
1070
    74
1070
     0
1000
MTEXTEND
  0
POINT
  5
2165F
330
21567
100
AcDbEntity
  8
Defpoints
 62
     0
100
AcDbPoint
 10
16.34239082782108
 20
10.64445498029354
 30
0.0
  0
POINT
  5
21660
330
21567
100
AcDbEntity
  8
Defpoints
 62
     0
100
AcDbPoint
 10
30.01162021612839
 20
9.986838106413131
 30
0.0
  0
POINT
  5
21661
330
21567
100
AcDbEntity
  8
Defpoints
 62
     0
100
AcDbPoint
 10
30.01162021612839
 20
15.48380070749778
 30
0.0
  0
ENDBLK
  5
21569
330
21567
100
AcDbEntity
  8
0
100
AcDbBlockEnd
  0
BLOCK
  5
21575
330
21574
100
AcDbEntity
  8
0
100
AcDbBlockBegin
  2
*D47
 70
     1
 10
0.0
 20
0.0
 30
0.0
  3
*D47
  1

  0
LINE
  5
2169A
330
21574
100
AcDbEntity
  8
2
 62
     0
370
    -2
100
AcDbLine
 10
20.07696770925304
 20
-9.996520908336549
 30
0.0
 11
54.30384079839189
 21
-9.996520908336558
 31
0.0
  0
LINE
  5
2169B
330
21574
100
AcDbEntity
  8
2
 62
     0
370
    -2
100
AcDbLine
 10
20.06361742107515
 20
9.998946404325266
 30
0.0
 11
54.30384079839187
 21
9.998946404325257
 31
0.0
  0
LINE
  5
2169C
330
21574
100
AcDbEntity
  8
2
 62
     0
370
    -2
100
AcDbLine
 10
54.12384079839188
 20
-5.426520908336557
 30
0.0
 11
54.12384079839188
 21
5.428946404325257
 31
0.0
  0
SOLID
  5
2169D
330
21574
100
AcDbEntity
  8
2
 62
     0
100
AcDbTrace
 10
53.36217413172521
 20
-5.426520908336557
 30
0.0
 11
54.88550746505855
 21
-5.426520908336557
 31
0.0
 12
54.12384079839188
 22
-9.996520908336558
 32
0.0
 13
54.12384079839188
 23
-9.996520908336558
 33
0.0
  0
SOLID
  5
2169E
330
21574
100
AcDbEntity
  8
2
 62
     0
100
AcDbTrace
 10
53.36217413172521
 20
5.428946404325258
 30
0.0
 11
54.88550746505855
 21
5.428946404325257
 31
0.0
 12
54.12384079839188
 22
9.998946404325257
 32
0.0
 13
54.12384079839188
 23
9.998946404325257
 33
0.0
  0
MTEXT
  5
2169F
330
21574
100
AcDbEntity
  8
2
 62
     0
100
AcDbMText
 10
52.17069954751345
 20
-0.1351567188911813
 30
0.0
 40
3.5
 41
0.0
 71
     5
 72
     1
  1
\A1;%%C20
 11
0.0000000000000001
 21
1.0
 31
0.0
 73
     1
 44
1.0
1001
ACAD
1000
MTEXTBEGIN
1070
    73
1070
     1
1070
    44
1040
1.0
1070
    74
1070
     0
1000
MTEXTEND
  0
POINT
  5
216A0
330
21574
100
AcDbEntity
  8
Defpoints
 62
     0
100
AcDbPoint
 10
20.01446770925304
 20
-9.996520908336549
 30
0.0
  0
POINT
  5
216A1
330
21574
100
AcDbEntity
  8
Defpoints
 62
     0
100
AcDbPoint
 10
20.00111742107515
 20
9.998946404325266
 30
0.0
  0
POINT
  5
216A2
330
21574
100
AcDbEntity
  8
Defpoints
 62
     0
100
AcDbPoint
 10
54.12384079839188
 20
9.998946404325257
 30
0.0
  0
ENDBLK
  5
21576
330
21574
100
AcDbEntity
  8
0
100
AcDbBlockEnd
  0
ENDSEC
  0
SECTION
  2
ENTITIES
  0
INSERT
  5
20A18
330
1F
100
AcDbEntity
  8
2
100
AcDbBlockReference
  2
cero_point
 10
-0.0000000000000341
 20
0.0
 30
0.0
 41
0.7
 42
0.7
 43
0.7
  0
INSERT
  5
20CC2
330
1F
100
AcDbEntity
  8
0
100
AcDbBlockReference
 66
     1
  2
Name
 10
-7.811011416002429
 20
-31.82889010646011
 30
0.0
  0
ATTRIB
  5
20CC3
102
{ACAD_XDICTIONARY
360
20CC4
102
}
330
20CC2
100
AcDbEntity
  8
SKVIEW63
100
AcDbText
 10
-7.720504031594174
 20
-31.78141430998494
 30
0.0
 40
3.5
  1
1TW7J020030X6R00
 41
0.8
  7
BMG_Text
100
AcDbAttribute
  2
NAME
 70
     0
  0
SEQEND
  5
20CC8
330
20CC2
100
AcDbEntity
  8
0
  0
LINE
  5
213CF
330
1F
100
AcDbEntity
  8
INFTOTAL
100
AcDbLine
 10
-54.55854930229043
 20
40.15029180427421
 30
0.0
 11
-4.55854930229043
 21
40.15029180427418
 31
0.0
  0
LINE
  5
213D0
330
1F
100
AcDbEntity
  8
INFTOTAL
100
AcDbLine
 10
74.29899951066182
 20
4.270932121529057
 30
0.0
 11
74.29899951066182
 21
-45.72906787847091
 31
0.0
  0
LINE
  5
213D1
330
1F
100
AcDbEntity
  8
INFTOTAL
100
AcDbLine
 10
74.29899951066182
 20
-45.72906787847091
 30
0.0
 11
24.29899951066182
 21
-45.72906787847091
 31
0.0
  0
LINE
  5
213D2
330
1F
100
AcDbEntity
  8
INFTOTAL
100
AcDbLine
 10
-54.55854930229043
 20
-9.849708195725753
 30
0.0
 11
-54.55854930229043
 21
40.15029180427421
 31
0.0
  0
LINE
  5
213D4
330
1F
100
AcDbEntity
  8
4
100
AcDbLine
 10
33.14874399999988
 20
0.0
 30
0.0
 11
8.502263499999884
 21
0.0
 31
0.0
  0
LINE
  5
213D6
330
1F
100
AcDbEntity
  8
SK4
100
AcDbLine
 10
-22.62103700000011
 20
0.0
 30
0.0
 11
-0.0000000000001137
 21
0.0
 31
0.0
  0
LINE
  5
213D7
330
1F
100
AcDbEntity
  8
4
100
AcDbLine
 10
-0.0000000000001137
 20
0.0
 30
0.0
 11
8.831425999999908
 21
0.0
 31
0.0
  0
LINE
  5
213D9
330
1F
100
AcDbEntity
  8
3
100
AcDbLine
 10
14.16666249999991
 20
-0.3183730000000082
 30
0.0
 11
17.86725949999987
 21
1.25307699999999
 31
0.0
  0
SPLINE
  5
213DA
330
1F
100
AcDbEntity
  8
3
100
AcDbSpline
210
0.0
220
0.0
230
1.0
 70
     8
 71
     5
 72
    18
 73
    12
 74
     0
 42
0.000000001
 43
0.0000000001
 40
0.0
 40
0.0
 40
0.0
 40
0.0
 40
0.0
 40
0.0
 40
0.496564023518649
 40
0.496564023518649
 40
0.496564023518649
 40
0.839900933278152
 40
0.839900933278152
 40
0.839900933278152
 40
1.756684351566951
 40
1.756684351566951
 40
1.756684351566951
 40
1.756684351566951
 40
1.756684351566951
 40
1.756684351566951
 10
12.79564377673984
 20
1.250000098067147
 30
0.0
 10
12.82963884346998
 20
1.24999526943742
 30
0.0
 10
12.8690696658515
 20
1.246792902159612
 30
0.0
 10
12.91291843403974
 20
1.241677725584978
 30
0.0
 10
12.9983454674649
 20
1.233093107060483
 30
0.0
 10
13.09269594612345
 20
1.227203725872925
 30
0.0
 10
13.1405366788224
 20
1.225129483507217
 30
0.0
 10
13.28534667002333
 20
1.221279816801541
 30
0.0
 10
13.43189498381503
 20
1.224016300024686
 30
0.0
 10
13.53681776248947
 20
1.227542330643402
 30
0.0
 10
13.64121548634978
 20
1.231471196109282
 30
0.0
 10
13.74503711130381
 20
1.2353190427214
 30
0.0
  0
SPLINE
  5
213DB
330
1F
100
AcDbEntity
  8
3
100
AcDbSpline
210
0.0
220
0.0
230
1.0
 70
     8
 71
     5
 72
    18
 73
    12
 74
     0
 42
0.000000001
 43
0.0000000001
 40
0.0
 40
0.0
 40
0.0
 40
0.0
 40
0.0
 40
0.0
 40
0.3689854401013421
 40
0.3689854401013421
 40
0.3689854401013421
 40
0.6427569302787905
 40
0.6427569302787905
 40
0.6427569302787905
 40
1.369218762769862
 40
1.369218762769862
 40
1.369218762769862
 40
1.369218762769862
 40
1.369218762769862
 40
1.369218762769862
 10
13.07099152866146
 20
-1.249998722878146
 30
0.0
 10
13.08809115814176
 20
-1.249998301619783
 30
0.0
 10
13.10830294469355
 20
-1.247703009387507
 30
0.0
 10
13.13225062300097
 20
-1.243392224584823
 30
0.0
 10
13.18197012461849
 20
-1.233651525073526
 30
0.0
 10
13.24264714641299
 20
-1.223330174152167
 30
0.0
 10
13.26747534571973
 20
-1.219598527438378
 30
0.0
 10
13.3730880718191
 20
-1.206150388321347
 30
0.0
 10
13.48984968255746
 20
-1.200019971740815
 30
0.0
 10
13.57746743066968
 20
-1.19948606465374
 30
0.0
 10
13.66138012960454
 20
-1.200430499885527
 30
0.0
 10
13.74503711128716
 20
-1.202458969728652
 30
0.0
  0
ARC
  5
213DC
330
1F
100
AcDbEntity
  8
3
100
AcDbCircle
 10
13.80820349999988
 20
-0.5505070000000103
 30
0.0
 40
1.098674499999998
100
AcDbArc
 50
71.81240699999907
 51
83.05090599999969
  0
LINE
  5
213DD
330
1F
100
AcDbEntity
  8
3
100
AcDbLine
 10
14.15112599999986
 20
0.4932589999999948
 30
0.0
 11
14.22606699999983
 21
0.4650389999999902
 31
0.0
  0
SPLINE
  5
213DE
330
1F
100
AcDbEntity
  8
3
100
AcDbSpline
210
0.0
220
0.0
230
1.0
 70
     8
 71
     5
 72
    15
 73
     9
 74
     0
 42
0.000000001
 43
0.0000000001
 40
0.0
 40
0.0
 40
0.0
 40
0.0
 40
0.0
 40
0.0
 40
0.8239723002935003
 40
0.8239723002935003
 40
0.8239723002935003
 40
1.449095261511926
 40
1.449095261511926
 40
1.449095261511926
 40
1.449095261511926
 40
1.449095261511926
 40
1.449095261511926
 10
13.94113042412164
 20
0.5401112926470404
 30
0.0
 10
13.91842486692042
 20
0.5226521737312737
 30
0.0
 10
13.89418655655072
 20
0.488429196584562
 30
0.0
 10
13.86997872227658
 20
0.4376863414058505
 30
0.0
 10
13.82855194790352
 20
0.3259255219951882
 30
0.0
 10
13.7902424310883
 20
0.1826619163957588
 30
0.0
 10
13.77434439481055
 20
0.115799614783441
 30
0.0
 10
13.75928902593239
 20
0.0454862089354009
 30
0.0
 10
13.74503711128716
 20
-0.0278812342292412
 30
0.0
  0
ARC
  5
213DF
330
1F
100
AcDbEntity
  8
3
100
AcDbCircle
 10
13.69111099999986
 20
0.8125249999999937
 30
0.0
 40
1.226855999999999
100
AcDbArc
 50
279.4315840000006
 51
292.807149
  0
ARC
  5
213E0
330
1F
100
AcDbEntity
  8
3
100
AcDbCircle
 10
13.76654499999984
 20
0.6281094999999937
 30
0.0
 40
1.027571999999999
100
AcDbArc
 50
292.9158090000004
 51
299.1120740000006
  0
SPLINE
  5
213E1
330
1F
100
AcDbEntity
  8
3
100
AcDbSpline
210
0.0
220
0.0
230
1.0
 70
     8
 71
     5
 72
    18
 73
    12
 74
     0
 42
0.000000001
 43
0.0000000001
 40
0.0
 40
0.0
 40
0.0
 40
0.0
 40
0.0
 40
0.0
 40
0.845349311925927
 40
0.845349311925927
 40
0.845349311925927
 40
1.471716106848084
 40
1.471716106848084
 40
1.471716106848084
 40
2.101341849121151
 40
2.101341849121151
 40
2.101341849121151
 40
2.101341849121151
 40
2.101341849121151
 40
2.101341849121151
 10
14.22606686667473
 20
0.4650390934030498
 30
0.0
 10
14.30489788220313
 20
0.4315085120465625
 30
0.0
 10
14.37832406508437
 20
0.3893966251334433
 30
0.0
 10
14.44563007699639
 20
0.3372142428706866
 30
0.0
 10
14.53483631698668
 20
0.2281190939111468
 30
0.0
 10
14.5563918746933
 20
0.0986637508248976
 30
0.0
 10
14.55031797982769
 20
0.0425915504116858
 30
0.0
 10
14.50972241740351
 20
-0.0662262550819293
 30
0.0
 10
14.42682661047081
 20
-0.159230151509135
 30
0.0
 10
14.3777338514887
 20
-0.2008110178048241
 30
0.0
 10
14.32395736960677
 20
-0.2374969927855659
 30
0.0
 10
14.26647422327653
 20
-0.2696408873718639
 30
0.0
  0
SPLINE
  5
213E2
330
1F
100
AcDbEntity
  8
3
100
AcDbSpline
210
0.0
220
0.0
230
1.0
 70
     8
 71
     5
 72
    12
 73
     6
 74
     0
 42
0.000000001
 43
0.0000000001
 40
0.0
 40
0.0
 40
0.0
 40
0.0
 40
0.0
 40
0.0
 40
1.416689266968204
 40
1.416689266968204
 40
1.416689266968204
 40
1.416689266968204
 40
1.416689266968204
 40
1.416689266968204
 10
13.89216609072821
 20
-0.3977717954378761
 30
0.0
 10
13.86213091909974
 20
-0.5688675335747746
 30
0.0
 10
13.83261849972291
 20
-0.743884000878893
 30
0.0
 10
13.80380145829542
 20
-0.9131166650727067
 30
0.0
 10
13.77431774173266
 20
-1.071724257995711
 30
0.0
 10
13.74503711128693
 20
-1.20245896972807
 30
0.0
  0
SPLINE
  5
213E3
330
1F
100
AcDbEntity
  8
3
100
AcDbSpline
210
0.0
220
0.0
230
1.0
 70
     8
 71
     5
 72
    12
 73
     6
 74
     0
 42
0.000000001
 43
0.0000000001
 40
0.0
 40
0.0
 40
0.0
 40
0.0
 40
0.0
 40
0.0
 40
1.256841230989694
 40
1.256841230989694
 40
1.256841230989694
 40
1.256841230989694
 40
1.256841230989694
 40
1.256841230989694
 10
13.94112642105631
 20
0.5401098565248077
 30
0.0
 10
13.89967191450074
 20
0.6807905739194098
 30
0.0
 10
13.86013554792526
 20
0.8267791494703971
 30
0.0
 10
13.82050734589006
 20
0.9757927136171815
 30
0.0
 10
13.78262707753595
 20
1.112714821825804
 30
0.0
 10
13.7450371112867
 20
1.235319042722267
 30
0.0
  0
SPLINE
  5
213E4
330
1F
100
AcDbEntity
  8
3
100
AcDbSpline
210
0.0
220
0.0
230
1.0
 70
     8
 71
     5
 72
    15
 73
     9
 74
     0
 42
0.000000001
 43
0.0000000001
 40
0.0
 40
0.0
 40
0.0
 40
0.0
 40
0.0
 40
0.0
 40
0.7872268535528059
 40
0.7872268535528059
 40
0.7872268535528059
 40
0.7904977988844504
 40
0.7904977988844504
 40
0.7904977988844504
 40
0.7904977988844504
 40
0.7904977988844504
 40
0.7904977988844504
 10
13.89216059829391
 20
-0.3977753673715654
 30
0.0
 10
13.86068527326955
 20
-0.3808949145337834
 30
0.0
 10
13.82993741899236
 20
-0.3487943720309374
 30
0.0
 10
13.80036639798226
 20
-0.3027340074345091
 30
0.0
 10
13.77212362438297
 20
-0.2454108530026673
 30
0.0
 10
13.74536907564919
 20
-0.1787813513434173
 30
0.0
 10
13.74525839534146
 20
-0.1785054905230936
 30
0.0
 10
13.74514774056069
 20
-0.1782294707276577
 30
0.0
 10
13.7450371112867
 20
-0.1779532920126314
 30
0.0
  0
LINE
  5
213E5
330
1F
100
AcDbEntity
  8
3
100
AcDbLine
 10
13.74503699999985
 20
1.235318999999989
 30
0.0
 11
13.74503699999985
 21
-0.0278810000000078
 31
0.0
  0
LINE
  5
213E6
330
1F
100
AcDbEntity
  8
3
100
AcDbLine
 10
13.74503699999985
 20
-0.177953500000001
 30
0.0
 11
13.74503699999985
 21
-1.202459000000018
 31
0.0
  0
ELLIPSE
  5
213E7
330
1F
100
AcDbEntity
  8
3
100
AcDbEllipse
 10
65.08694699999989
 20
-80.72031050000003
 30
0.0
 11
51.45995928335847
 21
-80.62608655679945
 31
0.0
210
0.0
220
0.0
230
1.0
 40
0.112082
 41
3.12898083459062
 42
3.202917086757989
  0
SPLINE
  5
213E8
330
1F
100
AcDbEntity
  8
3
100
AcDbSpline
210
0.0
220
0.0
230
1.0
 70
     8
 71
     5
 72
    15
 73
     9
 74
     0
 42
0.000000001
 43
0.0000000001
 40
0.0
 40
0.0
 40
0.0
 40
0.0
 40
0.0
 40
0.0
 40
0.8042702414896114
 40
0.8042702414896114
 40
0.8042702414896114
 40
1.819741885701773
 40
1.819741885701773
 40
1.819741885701773
 40
1.819741885701773
 40
1.819741885701773
 40
1.819741885701773
 10
13.02295240748412
 20
-1.236631742681296
 30
0.0
 10
13.00246822021415
 20
-1.220535642812919
 30
0.0
 10
12.99232110967421
 20
-1.192102873564564
 30
0.0
 10
12.98957701269097
 20
-1.151080563246821
 30
0.0
 10
12.99929790156136
 20
-1.03675912860605
 30
0.0
 10
13.04193894383968
 20
-0.8837904625182204
 30
0.0
 10
13.07497980422295
 20
-0.7912530443286272
 30
0.0
 10
13.11753679336283
 20
-0.6950930640097966
 30
0.0
 10
13.16990908363573
 20
-0.599281821181549
 30
0.0
  0
SPLINE
  5
213E9
330
1F
100
AcDbEntity
  8
3
100
AcDbSpline
210
0.0
220
0.0
230
1.0
 70
     8
 71
     5
 72
    15
 73
     9
 74
     0
 42
0.000000001
 43
0.0000000001
 40
0.0
 40
0.0
 40
0.0
 40
0.0
 40
0.0
 40
0.0
 40
1.181371715049613
 40
1.181371715049613
 40
1.181371715049613
 40
1.96908396012512
 40
1.96908396012512
 40
1.96908396012512
 40
1.96908396012512
 40
1.96908396012512
 40
1.96908396012512
 10
12.81940803209659
 20
0.3863832352440113
 30
0.0
 10
12.88684377389455
 20
0.2717687264893556
 30
0.0
 10
12.96922358304397
 20
0.1622880337462504
 30
0.0
 10
13.06719220135926
 20
0.0646581455814754
 30
0.0
 10
13.25726410348699
 20
-0.0647727764450963
 30
0.0
 10
13.47409883096509
 20
-0.137874425204572
 30
0.0
 10
13.56410145898405
 20
-0.1582595650493772
 30
0.0
 10
13.65433758307711
 20
-0.1711586878590339
 30
0.0
 10
13.74503711130381
 20
-0.1779532920150331
 30
0.0
  0
SPLINE
  5
213EA
330
1F
100
AcDbEntity
  8
3
100
AcDbSpline
210
0.0
220
0.0
230
1.0
 70
     8
 71
     5
 72
    15
 73
     9
 74
     0
 42
0.000000001
 43
0.0000000001
 40
0.0
 40
0.0
 40
0.0
 40
0.0
 40
0.0
 40
0.0
 40
0.8710959860592716
 40
0.8710959860592716
 40
0.8710959860592716
 40
1.104530564345049
 40
1.104530564345049
 40
1.104530564345049
 40
1.104530564345049
 40
1.104530564345049
 40
1.104530564345049
 10
12.67901139486207
 20
1.216407954161581
 30
0.0
 10
12.64860162965044
 20
1.189719335908151
 30
0.0
 10
12.62946997088841
 20
1.149300476853326
 30
0.0
 10
12.61942811589461
 20
1.095390463965983
 30
0.0
 10
12.61765715966123
 20
1.014043057693172
 30
0.0
 10
12.6288585992628
 20
0.9204793030211391
 30
0.0
 10
12.63179909791415
 20
0.9001929228301861
 30
0.0
 10
12.63530009385113
 20
0.8794842556684727
 30
0.0
 10
12.63935891573396
 20
0.8583849627893869
 30
0.0
  0
LINE
  5
213EB
330
1F
100
AcDbEntity
  8
3
100
AcDbLine
 10
12.71091299999989
 20
1.23630199999998
 30
0.0
 11
17.08549849999986
 21
3.093959499999996
 31
0.0
  0
ARC
  5
213EC
330
1F
100
AcDbEntity
  8
3
100
AcDbCircle
 10
12.75631049999987
 20
1.127895499999993
 30
0.0
 40
0.1175205
100
AcDbArc
 50
112.7225949999983
 51
131.1312050000004
  0
ARC
  5
213ED
330
1F
100
AcDbEntity
  8
3
100
AcDbCircle
 10
12.78607849999986
 20
1.034060499999995
 30
0.0
 40
0.2159415
100
AcDbArc
 50
87.4636909999997
 51
110.3881980000011
  0
ELLIPSE
  5
213EE
330
1F
100
AcDbEntity
  8
3
100
AcDbEllipse
 10
17.47637899999984
 20
2.173517999999987
 30
0.0
 11
0.3908659155484068
 21
-0.9204476280932587
 31
0.0
210
0.0
220
0.0
230
1.0
 40
0.50385
 41
3.594431898836363
 42
5.830360430586977
  0
ARC
  5
213EF
330
1F
100
AcDbEntity
  8
3
100
AcDbCircle
 10
18.07268449999986
 20
2.426737999999986
 30
0.0
 40
1.25
100
AcDbArc
 50
125.1596269999986
 51
157.0061640000005
  0
ARC
  5
213F0
330
1F
100
AcDbEntity
  8
3
100
AcDbCircle
 10
18.07270149999988
 20
2.42670799999999
 30
0.0
 40
1.250034
100
AcDbArc
 50
113.0083979999993
 51
125.1594719999993
  0
LINE
  5
213F1
330
1F
100
AcDbEntity
  8
3
100
AcDbLine
 10
17.58410549999985
 20
3.577298999999996
 30
0.0
 11
17.87413099999986
 21
3.700457499999984
 31
0.0
  0
ELLIPSE
  5
213F2
330
1F
100
AcDbEntity
  8
3
100
AcDbEllipse
 10
17.47637899999984
 20
2.173517999999987
 30
0.0
 11
0.3908659155484068
 21
-0.9204476280932587
 31
0.0
210
0.0
220
0.0
230
1.0
 40
0.50385
 41
5.830360430586977
 42
6.283217042124223
  0
ELLIPSE
  5
213F3
330
1F
100
AcDbEntity
  8
3
100
AcDbEllipse
 10
17.47637899999984
 20
2.173517999999987
 30
0.0
 11
0.3908659155484068
 21
-0.9204476280932587
 31
0.0
210
0.0
220
0.0
230
1.0
 40
0.50385
 41
0.0000317349446382
 42
0.1081487508348763
  0
ELLIPSE
  5
213F4
330
1F
100
AcDbEntity
  8
3
100
AcDbEllipse
 10
17.47637899999984
 20
2.173517999999987
 30
0.0
 11
-0.3908659155484069
 21
0.9204476280932585
 31
0.0
210
0.0
220
0.0
230
1.0
 40
0.50385
 41
3.249741404424667
 42
6.283217042124223
  0
ELLIPSE
  5
213F5
330
1F
100
AcDbEntity
  8
3
100
AcDbEllipse
 10
17.47637899999984
 20
2.173517999999987
 30
0.0
 11
0.3908659155484068
 21
-0.9204476280932587
 31
0.0
210
0.0
220
0.0
230
1.0
 40
0.50385
 41
3.249741404424667
 42
3.594431898836363
  0
ELLIPSE
  5
213F6
330
1F
100
AcDbEntity
  8
3
100
AcDbEllipse
 10
17.47637899999984
 20
2.173517999999987
 30
0.0
 11
-0.3908659155484069
 21
0.9204476280932585
 31
0.0
210
0.0
220
0.0
230
1.0
 40
0.50385
 41
0.0000317349446386
 42
0.1081487508348763
  0
ARC
  5
213F7
330
1F
100
AcDbEntity
  8
3
100
AcDbCircle
 10
18.02450199999987
 20
3.337921499999993
 30
0.0
 40
0.392512
100
AcDbArc
 50
101.8852859999994
 51
112.5275280000011
  0
LINE
  5
213F8
330
1F
100
AcDbEntity
  8
3
100
AcDbLine
 10
13.04025049999984
 20
-1.245774000000011
 30
0.0
 11
19.12081399999988
 21
-3.258205500000002
 31
0.0
  0
LINE
  5
213F9
330
1F
100
AcDbEntity
  8
3
100
AcDbLine
 10
14.15112549999986
 20
0.4932589999999948
 30
0.0
 11
19.74917199999987
 21
-1.359478000000009
 31
0.0
  0
LINE
  5
213FA
330
1F
100
AcDbEntity
  8
3
100
AcDbLine
 10
18.56128549999988
 20
1.276186499999994
 30
0.0
 11
21.17764849999986
 21
2.387218499999988
 31
0.0
  0
ARC
  5
213FB
330
1F
100
AcDbEntity
  8
3
100
AcDbCircle
 10
18.07268449999986
 20
2.426737999999986
 30
0.0
 40
1.25
100
AcDbArc
 50
249.0110319999986
 51
293.0093059999982
  0
SPLINE
  5
213FC
330
1F
100
AcDbEntity
  8
3
100
AcDbSpline
210
0.0
220
0.0
230
1.0
 70
     8
 71
     5
 72
    27
 73
    21
 74
     0
 42
0.000000001
 43
0.0000000001
 40
0.0
 40
0.0
 40
0.0
 40
0.0
 40
0.0
 40
0.0
 40
0.9580991268960168
 40
0.9580991268960168
 40
0.9580991268960168
 40
1.914228012087041
 40
1.914228012087041
 40
1.914228012087041
 40
2.766514003299049
 40
2.766514003299049
 40
2.766514003299049
 40
4.653230551571378
 40
4.653230551571378
 40
4.653230551571378
 40
8.167468762215777
 40
8.167468762215777
 40
8.167468762215777
 40
8.752585456730678
 40
8.752585456730678
 40
8.752585456730678
 40
8.752585456730678
 40
8.752585456730678
 40
8.752585456730678
 10
21.17764853852737
 20
2.387218691956988
 30
0.0
 10
21.2203789672003
 20
2.405362922109461
 30
0.0
 10
21.25455681236644
 20
2.427331179970934
 30
0.0
 10
21.27852629081337
 20
2.45472772804004
 30
0.0
 10
21.28439695996451
 20
2.522701554126697
 30
0.0
 10
21.18934320205665
 20
2.616542924812435
 30
0.0
 10
21.11218607957886
 20
2.668057606716857
 30
0.0
 10
20.94707051413127
 20
2.762457853693462
 30
0.0
 10
20.75963683121449
 20
2.852492640657686
 30
0.0
 10
20.67281694864528
 20
2.892356292773428
 30
0.0
 10
20.38307695901409
 20
3.021218084641446
 30
0.0
 10
20.09398752716288
 20
3.139646058497135
 30
0.0
 10
19.89575697465568
 20
3.219087750213361
 30
0.0
 10
19.3559433761153
 20
3.428675355782857
 30
0.0
 10
18.8665136693395
 20
3.596251996281637
 30
0.0
 10
18.57762356981101
 20
3.681081572310063
 30
0.0
 10
18.27102743196536
 20
3.743933258127071
 30
0.0
 10
18.03487643690874
 20
3.735478022729395
 30
0.0
 10
18.00267931867654
 20
3.732713613480171
 30
0.0
 10
17.97222107093773
 20
3.728283672756205
 30
0.0
 10
17.9436571642907
 20
3.722047518782176
 30
0.0
  0
ELLIPSE
  5
213FD
330
1F
100
AcDbEntity
  8
3
100
AcDbEllipse
 10
19.43499299999985
 20
-2.308842000000012
 30
0.0
 11
-0.314200399299223
 21
-0.9493566816951339
 31
0.0
210
0.0
220
0.0
230
1.0
 40
0.413454
 41
3.489114944880573
 42
5.935650084816452
  0
ELLIPSE
  5
213FE
330
1F
100
AcDbEntity
  8
3
100
AcDbEllipse
 10
19.43499299999985
 20
-2.308842000000012
 30
0.0
 11
0.3142003992979108
 21
0.9493566816961019
 31
0.0
210
0.0
220
0.0
230
1.0
 40
0.413454
 41
3.141647430210732
 42
6.202613044396628
  0
ARC
  5
213FF
330
1F
100
AcDbEntity
  8
3
100
AcDbCircle
 10
20.08330249999983
 20
-2.523407500000004
 30
0.0
 40
1.25
100
AcDbArc
 50
210.4663279999992
 51
240.6432379999997
  0
ARC
  5
21400
330
1F
100
AcDbEntity
  8
3
100
AcDbCircle
 10
20.08330249999983
 20
-2.523407500000004
 30
0.0
 40
1.25
100
AcDbArc
 50
71.68874800000065
 51
112.9082670000006
  0
ARC
  5
21401
330
1F
100
AcDbEntity
  8
3
100
AcDbCircle
 10
20.08331199999986
 20
-2.523386500000015
 30
0.0
 40
1.2500225
100
AcDbArc
 50
240.6433330000006
 51
251.6873280000005
  0
ARC
  5
21402
330
1F
100
AcDbEntity
  8
3
100
AcDbCircle
 10
19.21042599999987
 20
-3.045426000000006
 30
0.0
 40
0.2328775
100
AcDbArc
 50
208.6554130000014
 51
238.8961680000015
  0
LINE
  5
21403
330
1F
100
AcDbEntity
  8
3
100
AcDbLine
 10
19.69055199999985
 20
-3.710103000000003
 30
0.0
 11
19.91190049999989
 21
-3.783361000000013
 31
0.0
  0
SPLINE
  5
21404
330
1F
100
AcDbEntity
  8
3
100
AcDbSpline
210
0.0
220
0.0
230
1.0
 70
     8
 71
     5
 72
    24
 73
    18
 74
     0
 42
0.000000001
 43
0.0000000001
 40
0.0
 40
0.0
 40
0.0
 40
0.0
 40
0.0
 40
0.0
 40
1.250445071417332
 40
1.250445071417332
 40
1.250445071417332
 40
1.973602987059764
 40
1.973602987059764
 40
1.973602987059764
 40
3.571153299823083
 40
3.571153299823083
 40
3.571153299823083
 40
5.885435047926835
 40
5.885435047926835
 40
5.885435047926835
 40
7.366038267465702
 40
7.366038267465702
 40
7.366038267465702
 40
7.366038267465702
 40
7.366038267465702
 40
7.366038267465702
 10
22.14482281218466
 20
-1.889009847421732
 30
0.0
 10
22.19056978503329
 20
-1.904148499829858
 30
0.0
 10
22.22033909137724
 20
-1.932330085018961
 30
0.0
 10
22.22877697380602
 20
-1.976665357471205
 30
0.0
 10
22.19090630671849
 20
-2.079524404306724
 30
0.0
 10
22.0903455280411
 20
-2.215664072613989
 30
0.0
 10
22.04642318861738
 20
-2.268730483451534
 30
0.0
 10
21.88883829670851
 20
-2.44549312233174
 30
0.0
 10
21.69339701839283
 20
-2.63302092473404
 30
0.0
 10
21.5556580379614
 20
-2.758822372141523
 30
0.0
 10
21.21644657003805
 20
-3.05714762900169
 30
0.0
 10
20.88628656547712
 20
-3.320528171634961
 30
0.0
 10
20.69955563987242
 20
-3.459687746777333
 30
0.0
 10
20.41405066598043
 20
-3.649617958061227
 30
0.0
 10
20.17346215362761
 20
-3.759013076084642
 30
0.0
 10
20.08779321449356
 20
-3.787487428042538
 30
0.0
 10
20.01214260018588
 20
-3.79933120902497
 30
0.0
 10
19.95005280265684
 20
-3.791716369595718
 30
0.0
  0
LINE
  5
21405
330
1F
100
AcDbEntity
  8
3
100
AcDbLine
 10
19.91190049999989
 20
-3.783361000000013
 30
0.0
 11
19.95005299999985
 21
-3.791716500000006
 31
0.0
  0
LINE
  5
21406
330
1F
100
AcDbEntity
  8
3
100
AcDbLine
 10
20.47602649999987
 20
-1.336702500000001
 30
0.0
 11
22.14482299999986
 21
-1.889010000000013
 31
0.0
  0
ELLIPSE
  5
21407
330
1F
100
AcDbEntity
  8
1
100
AcDbEllipse
 10
26.97110899999987
 20
-9.329283000000003
 30
0.0
 11
0.0000000000000006
 21
10.35000038146972
 31
0.0
210
0.0
220
0.0
230
1.0
 40
0.9781479999999998
 41
6.138535891512841
 42
6.186547936925307
  0
LINE
  5
21408
330
1F
100
AcDbEntity
  8
1
100
AcDbLine
 10
28.43041299999987
 20
0.9126270000000005
 30
0.0
 11
28.61576299999987
 21
0.8834939999999988
 31
0.0
  0
ELLIPSE
  5
21409
330
1F
100
AcDbEntity
  8
1
100
AcDbEllipse
 10
29.35742399999987
 20
-0.1032480000000078
 30
0.0
 11
1.180990695953369
 21
-0.8886139392852784
 31
0.0
210
0.0
220
0.0
230
1.0
 40
0.388365
 41
1.342877149067905
 42
2.502090983579688
  0
LINE
  5
2140A
330
1F
100
AcDbEntity
  8
1
100
AcDbLine
 10
18.65130099999987
 20
-9.584970999999995
 30
0.0
 11
18.31115599999987
 21
-9.260867999999987
 31
0.0
  0
ARC
  5
2140B
330
1F
100
AcDbEntity
  8
1
100
AcDbCircle
 10
19.74252799999988
 20
-8.430855000000008
 30
0.0
 40
1.588367
100
AcDbArc
 50
226.6043589999997
 51
236.0254469999994
  0
ARC
  5
2140C
330
1F
100
AcDbEntity
  8
1
100
AcDbCircle
 10
19.22015999999988
 20
-8.906306999999998
 30
0.0
 40
0.9168459999999999
100
AcDbArc
 50
246.5427919999993
 51
266.821076
  0
LINE
  5
2140D
330
1F
100
AcDbEntity
  8
1
100
AcDbLine
 10
19.82221599999988
 20
-9.825277999999997
 30
0.0
 11
19.16937199999987
 21
-9.820761000000004
 31
0.0
  0
LINE
  5
2140E
330
1F
100
AcDbEntity
  8
1
100
AcDbLine
 10
18.76289999999989
 20
-9.175531000000006
 30
0.0
 11
19.24434299999987
 21
-9.178861999999995
 31
0.0
  0
ELLIPSE
  5
2140F
330
1F
100
AcDbEntity
  8
1
100
AcDbEllipse
 10
19.30726099999987
 20
0.3244889999999998
 30
0.0
 11
0.0000000000000006
 21
9.503568649291992
 31
0.0
210
0.0
220
0.0
230
1.0
 40
0.9781479999999998
 41
3.134824248830606
 42
4.581103040666452
  0
SPLINE
  5
21410
330
1F
100
AcDbEntity
  8
1
100
AcDbSpline
210
0.0
220
0.0
230
1.0
 70
     8
 71
     5
 72
    48
 73
    42
 74
     0
 42
0.000000001
 43
0.0000000001
 40
0.0
 40
0.0
 40
0.0
 40
0.0
 40
0.0
 40
0.0
 40
4.877303542080656
 40
4.877303542080656
 40
4.877303542080656
 40
9.760959840034537
 40
9.760959840034537
 40
9.760959840034537
 40
10.98220273532038
 40
10.98220273532038
 40
10.98220273532038
 40
12.20344563060623
 40
12.20344563060623
 40
12.20344563060623
 40
14.64685320015999
 40
14.64685320015999
 40
14.64685320015999
 40
15.86951817675176
 40
15.86951817675176
 40
15.86951817675176
 40
17.09099000284259
 40
17.09099000284259
 40
17.09099000284259
 40
18.31400009495011
 40
18.31400009495011
 40
18.31400009495011
 40
19.53701018705762
 40
19.53701018705762
 40
19.53701018705762
 40
20.76076497381214
 40
20.76076497381214
 40
20.76076497381214
 40
21.98451976056666
 40
21.98451976056666
 40
21.98451976056666
 40
23.1780366306998
 40
23.1780366306998
 40
23.1780366306998
 40
24.37155350083294
 40
24.37155350083294
 40
24.37155350083294
 40
24.37155350083294
 40
24.37155350083294
 40
24.37155350083294
 10
29.90261015131509
 20
-1.391720211927136
 30
0.0
 10
29.82369819269493
 20
-1.95073286825179
 30
0.0
 10
29.70397504962099
 20
-2.504259646044602
 30
0.0
 10
29.54572059889591
 20
-3.047989373908563
 30
0.0
 10
29.15090185103074
 20
-4.109080641404588
 30
0.0
 10
28.60741642912496
 20
-5.102144581804466
 30
0.0
 10
28.29986419066754
 20
-5.57849939274962
 30
0.0
 10
27.87338756781054
 20
-6.144216236094806
 30
0.0
 10
27.39856066308721
 20
-6.667945872514849
 30
0.0
 10
27.3016456421341
 20
-6.771024183247575
 30
0.0
 10
27.10418690564865
 20
-6.973556806634263
 30
0.0
 10
26.89951394409098
 20
-7.168815216814394
 30
0.0
 10
26.79509085545561
 20
-7.264879895533823
 30
0.0
 10
26.47756580692789
 20
-7.546535852610645
 30
0.0
 10
26.14512888138981
 20
-7.810634764887254
 30
0.0
 10
25.91683223659646
 20
-7.978935728424616
 30
0.0
 10
25.56520486616304
 20
-8.218970082182863
 30
0.0
 10
25.20134835792095
 20
-8.439482395772969
 30
0.0
 10
25.0786596350768
 20
-8.510841392553061
 30
0.0
 10
24.83104477574426
 20
-8.648953076378404
 30
0.0
 10
24.57866970602797
 20
-8.778053143055615
 30
0.0
 10
24.45136569268064
 20
-8.84031765516778
 30
0.0
 10
24.19443484370149
 20
-8.960332220305289
 30
0.0
 10
23.93281664323106
 20
-9.071297587605641
 30
0.0
 10
23.80094680993634
 20
-9.124458581888532
 30
0.0
 10
23.53523322563265
 20
-9.226087718506789
 30
0.0
 10
23.26598086815622
 20
-9.318186559821953
 30
0.0
 10
23.13050913158514
 20
-9.361840154314933
 30
0.0
 10
22.85816320042642
 20
-9.444279774477294
 30
0.0
 10
22.58314492057045
 20
-9.516978215172059
 30
0.0
 10
22.44474112026302
 20
-9.550952443889798
 30
0.0
 10
22.16713410571472
 20
-9.613911187555004
 30
0.0
 10
21.88743555792701
 20
-9.667054047343867
 30
0.0
 10
21.74700217601901
 20
-9.691186680698194
 30
0.0
 10
21.4689115110236
 20
-9.733963425576433
 30
0.0
 10
21.18945217278517
 20
-9.767118826357858
 30
0.0
 10
21.05118098812514
 20
-9.781144895106905
 30
0.0
 10
20.77406095444911
 20
-9.804516317657146
 30
0.0
 10
20.49603811043366
 20
-9.818523929911478
 30
0.0
 10
20.35683965323088
 20
-9.823185809919237
 30
0.0
 10
20.2176668738874
 20
-9.825509964332837
 30
0.0
 10
20.07850482256447
 20
-9.825510599485994
 30
0.0
  0
ARC
  5
21411
330
1F
100
AcDbEntity
  8
1
100
AcDbCircle
 10
20.29708899999989
 20
-0.0467849999999999
 30
0.0
 40
9.699198
100
AcDbArc
 50
352.0294370000003
 51
359.3903039999998
  0
ARC
  5
21412
330
1F
100
AcDbEntity
  8
1
100
AcDbCircle
 10
24.40355299999988
 20
-0.039355999999998
 30
0.0
 40
5.400737
100
AcDbArc
 50
355.8053830000006
 51
358.8261599999996
  0
LINE
  5
21413
330
1F
100
AcDbEntity
  8
1
100
AcDbLine
 10
19.82221599999988
 20
-9.825277999999997
 30
0.0
 11
19.88976799999986
 21
-9.825511000000005
 31
0.0
  0
ELLIPSE
  5
21414
330
1F
100
AcDbEntity
  8
1
100
AcDbEllipse
 10
19.88941399999987
 20
0.3244889999999998
 30
0.0
 11
-0.0000000033949468
 21
-10.14999961853027
 31
0.0
210
0.0
220
0.0
230
1.0
 40
0.9781479999999998
 41
0.0000357336187585
 42
1.495960081549982
  0
ARC
  5
21415
330
1F
100
AcDbEntity
  8
1
100
AcDbCircle
 10
28.87461599999986
 20
-0.1367620000000045
 30
0.0
 40
1.121229999999999
100
AcDbArc
 50
359.3237589999999
 51
14.43614299999984
  0
LINE
  5
21416
330
1F
100
AcDbEntity
  8
1
100
AcDbLine
 10
28.10906399999988
 20
-0.1251670000000047
 30
0.0
 11
28.15699699999988
 21
0.1021769999999975
 31
0.0
  0
SPLINE
  5
21417
330
1F
100
AcDbEntity
  8
1
100
AcDbSpline
210
0.0
220
0.0
230
1.0
 70
     8
 71
     5
 72
    18
 73
    12
 74
     0
 42
0.000000001
 43
0.0000000001
 40
0.0
 40
0.0
 40
0.0
 40
0.0
 40
0.0
 40
0.0
 40
0.4404753524779157
 40
0.4404753524779157
 40
0.4404753524779157
 40
0.6856968871967472
 40
0.6856968871967472
 40
0.6856968871967472
 40
0.8444649636953458
 40
0.8444649636953458
 40
0.8444649636953458
 40
0.8444649636953458
 40
0.8444649636953458
 40
0.8444649636953458
 10
27.87901713556056
 20
0.5729443513238124
 30
0.0
 10
27.93657953158245
 20
0.539433352363588
 30
0.0
 10
27.99055920820092
 20
0.5023692729198502
 30
0.0
 10
28.04000996509433
 20
0.4609411203484087
 30
0.0
 10
28.10483493164312
 20
0.3891826741395334
 30
0.0
 10
28.14477043082576
 20
0.3064029927361673
 30
0.0
 10
28.15540033891565
 20
0.2754746788046418
 30
0.0
 10
28.16627573204781
 20
0.2227204816462347
 30
0.0
 10
28.16638531863191
 20
0.1679467947932807
 30
0.0
 10
28.16476080086292
 20
0.1460088147969714
 30
0.0
 10
28.16159014248379
 20
0.1241270598987683
 30
0.0
 10
28.15699726531846
 20
0.1021770533554474
 30
0.0
  0
ARC
  5
21418
330
1F
100
AcDbEntity
  8
1
100
AcDbCircle
 10
26.70244899999989
 20
-9.953010000000006
 30
0.0
 40
10.975173
100
AcDbArc
 50
81.89836799999941
 51
83.52078500000038
  0
LINE
  5
21419
330
1F
100
AcDbEntity
  8
1
100
AcDbLine
 10
28.24917399999987
 20
0.9126270000000005
 30
0.0
 11
28.44161499999987
 21
0.8834939999999988
 31
0.0
  0
ARC
  5
2141A
330
1F
100
AcDbEntity
  8
1
100
AcDbCircle
 10
28.28605699999989
 20
-0.1005729999999971
 30
0.0
 40
0.9962419999999999
100
AcDbArc
 50
61.70692500000037
 51
81.01720800000011
  0
ARC
  5
2141B
330
1F
100
AcDbEntity
  8
1
100
AcDbCircle
 10
6.416665999999878
 20
3.177987999999999
 30
0.0
 40
22.470331
100
AcDbArc
 50
350.8712519999992
 51
353.8651489999998
  0
ARC
  5
2141C
330
1F
100
AcDbEntity
  8
1
100
AcDbCircle
 10
49.33175799999986
 20
-3.786265
 30
0.0
 40
21.005138
100
AcDbArc
 50
170.687363
 51
172.1562919999995
  0
ELLIPSE
  5
2141D
330
1F
100
AcDbEntity
  8
1
100
AcDbEllipse
 10
27.92586799999987
 20
-0.1032480000000078
 30
0.0
 11
1.877210617065428
 21
-0.0500297546386719
 31
0.0
210
0.0
220
0.0
230
1.0
 40
0.532038
 41
0.0032863994036083
 42
1.125626562275495
  0
LINE
  5
2141E
330
1F
100
AcDbEntity
  8
1
100
AcDbLine
 10
19.88976799999986
 20
-9.825511000000005
 30
0.0
 11
20.07850499999987
 21
-9.825511000000005
 31
0.0
  0
ELLIPSE
  5
2141F
330
1F
100
AcDbEntity
  8
1
100
AcDbEllipse
 10
22.29884699999988
 20
-4.168408999999996
 30
0.0
 11
-0.0000000000000002
 21
-1.200000047683715
 31
0.0
210
0.0
220
0.0
230
1.0
 40
0.9781479999999998
 41
0.1756553327706045
 42
6.45884063995019
  0
ELLIPSE
  5
21420
330
1F
100
AcDbEntity
  8
1
100
AcDbEllipse
 10
22.36122099999989
 20
-4.168408999999996
 30
0.0
 11
-0.0000000000000003
 21
-1.5
 31
0.0
210
0.0
220
0.0
230
1.0
 40
0.9781479999999996
 41
0.0000941683768808
 42
3.141686821966676
  0
ELLIPSE
  5
21421
330
1F
100
AcDbEntity
  8
1
100
AcDbEllipse
 10
22.36122099999989
 20
-4.168408999999996
 30
0.0
 11
-0.0000000000000003
 21
-1.5
 31
0.0
210
0.0
220
0.0
230
1.0
 40
0.9781479999999996
 41
3.317247986360396
 42
6.283279475556467
  0
ELLIPSE
  5
21422
330
1F
100
AcDbEntity
  8
1
100
AcDbEllipse
 10
22.36122099999989
 20
-4.168408999999996
 30
0.0
 11
-0.0000000000000003
 21
-1.5
 31
0.0
210
0.0
220
0.0
230
1.0
 40
0.9781479999999996
 41
3.141686821966676
 42
3.317247986360396
  0
ELLIPSE
  5
21423
330
1F
100
AcDbEntity
  8
1
100
AcDbEllipse
 10
15.76831699999988
 20
9.170718999999991
 30
0.0
 11
-0.6359809041023256
 21
-0.4260785579681398
 31
0.0
210
0.0
220
0.0
230
1.0
 40
0.4114010000000002
 41
3.707619740932046
 42
4.420800409093099
  0
LINE
  5
21424
330
1F
100
AcDbEntity
  8
1
100
AcDbLine
 10
15.76182899999986
 20
9.514988000000002
 30
0.0
 11
15.78325499999988
 21
9.543803999999994
 31
0.0
  0
LINE
  5
21425
330
1F
100
AcDbEntity
  8
1
100
AcDbLine
 10
15.76182899999986
 20
9.514988000000002
 30
0.0
 11
15.66834299999988
 21
9.378531000000009
 31
0.0
  0
LINE
  5
21426
330
1F
100
AcDbEntity
  8
1
100
AcDbLine
 10
19.76268499999986
 20
9.726306999999991
 30
0.0
 11
16.21110499999986
 21
9.670659999999998
 31
0.0
  0
ELLIPSE
  5
21427
330
1F
100
AcDbEntity
  8
1
100
AcDbEllipse
 10
19.91782299999988
 20
-0.622478000000001
 30
0.0
 11
-0.0000000000000019
 21
-10.35000038146972
 31
0.0
210
0.0
220
0.0
230
1.0
 40
0.9781479999999998
 41
3.141556302146791
 42
3.156917281103183
  0
LINE
  5
21428
330
1F
100
AcDbEntity
  8
1
100
AcDbLine
 10
19.99999999999988
 20
9.726214999999996
 30
0.0
 11
20.00604199999987
 21
9.726306999999991
 31
0.0
  0
LINE
  5
21429
330
1F
100
AcDbEntity
  8
1
100
AcDbLine
 10
16.34111799999988
 20
9.670659999999998
 30
0.0
 11
19.99999999999988
 21
9.726214999999996
 31
0.0
  0
LINE
  5
2142A
330
1F
100
AcDbEntity
  8
1
100
AcDbLine
 10
16.42436299999988
 20
7.596462999999999
 30
0.0
 11
15.71173199999987
 21
6.926783
 31
0.0
  0
ELLIPSE
  5
2142B
330
1F
100
AcDbEntity
  8
1
100
AcDbEllipse
 10
16.29197299999987
 20
7.743707999999998
 30
0.0
 11
0.0
 21
-0.2000000029802322
 31
0.0
210
0.0
220
0.0
230
1.0
 40
0.978148
 41
0.7433189118127032
 42
1.519992738334595
  0
ARC
  5
2142C
330
1F
100
AcDbEntity
  8
1
100
AcDbCircle
 10
16.34374499999987
 20
7.73426599999999
 30
0.0
 40
0.143746
100
AcDbArc
 50
359.7149639999997
 51
21.63205600000063
  0
ELLIPSE
  5
2142D
330
1F
100
AcDbEntity
  8
1
100
AcDbEllipse
 10
23.80950499999989
 20
11.087119
 30
0.0
 11
-0.0000000000000017
 21
-9.503568649291992
 31
0.0
210
0.0
220
0.0
230
1.0
 40
0.9781479999999998
 41
0.391787092561593
 42
0.4599764149221734
  0
SPLINE
  5
2142E
330
1F
100
AcDbEntity
  8
1
100
AcDbSpline
210
0.0
220
0.0
230
1.0
 70
     8
 71
     5
 72
    27
 73
    21
 74
     0
 42
0.000000001
 43
0.0000000001
 40
0.0
 40
0.0
 40
0.0
 40
0.0
 40
0.0
 40
0.0
 40
0.6289711142785129
 40
0.6289711142785129
 40
0.6289711142785129
 40
1.080858897579477
 40
1.080858897579477
 40
1.080858897579477
 40
1.326191131766641
 40
1.326191131766641
 40
1.326191131766641
 40
1.578216176184159
 40
1.578216176184159
 40
1.578216176184159
 40
1.82463122918268
 40
1.82463122918268
 40
1.82463122918268
 40
2.056356691469434
 40
2.056356691469434
 40
2.056356691469434
 40
2.056356691469434
 40
2.056356691469434
 40
2.056356691469434
 10
16.07310260346685
 20
9.136614865226391
 30
0.0
 10
16.08730824445123
 20
9.044770282547986
 30
0.0
 10
16.10138486038792
 20
8.953746083202375
 30
0.0
 10
16.11800737235268
 20
8.86161851633183
 30
0.0
 10
16.15353826221124
 20
8.700316266827329
 30
0.0
 10
16.19730193413466
 20
8.544367510603919
 30
0.0
 10
16.21679096584316
 20
8.480568442212401
 30
0.0
 10
16.24778702270515
 20
8.385367637430846
 30
0.0
 10
16.27987018277773
 20
8.294304075899077
 30
0.0
 10
16.29127277003459
 20
8.262714099112656
 30
0.0
 10
16.31448503534258
 20
8.199745937577816
 30
0.0
 10
16.3378498025491
 20
8.138670426909698
 30
0.0
 10
16.34970489915119
 20
8.108168981976021
 30
0.0
 10
16.37310009294856
 20
8.048763105633042
 30
0.0
 10
16.39627002816556
 20
7.991091936885013
 30
0.0
 10
16.40757095909797
 20
7.963153418763965
 30
0.0
 10
16.42935893239453
 20
7.909481004894004
 30
0.0
 10
16.45021916649767
 20
7.85776019913041
 30
0.0
 10
16.45984216365667
 20
7.833637824442888
 30
0.0
 10
16.46922976865036
 20
7.809685514536056
 30
0.0
 10
16.47747273907114
 20
7.787299367788847
 30
0.0
  0
LINE
  5
2142F
330
1F
100
AcDbEntity
  8
1
100
AcDbLine
 10
16.01465099999987
 20
9.514988000000002
 30
0.0
 11
16.07310399999988
 21
9.136615000000006
 31
0.0
  0
LINE
  5
21430
330
1F
100
AcDbEntity
  8
1
100
AcDbLine
 10
27.70738999999986
 20
3.103178999999997
 30
0.0
 11
27.73625199999987
 21
3.115995999999995
 31
0.0
  0
LINE
  5
21431
330
1F
100
AcDbEntity
  8
1
100
AcDbLine
 10
27.73625199999987
 20
3.115995999999995
 30
0.0
 11
27.95829899999987
 21
3.214864000000005
 31
0.0
  0
LINE
  5
21432
330
1F
100
AcDbEntity
  8
1
100
AcDbLine
 10
27.95829899999987
 20
3.214864000000005
 30
0.0
 11
28.52964099999989
 21
3.469246999999995
 31
0.0
  0
SPLINE
  5
21433
330
1F
100
AcDbEntity
  8
1
100
AcDbSpline
210
0.0
220
0.0
230
1.0
 70
     8
 71
     5
 72
    18
 73
    12
 74
     0
 42
0.000000001
 43
0.0000000001
 40
0.0
 40
0.0
 40
0.0
 40
0.0
 40
0.0
 40
0.0
 40
0.8658893976874693
 40
0.8658893976874693
 40
0.8658893976874693
 40
1.747161361040468
 40
1.747161361040468
 40
1.747161361040468
 40
2.131310990143419
 40
2.131310990143419
 40
2.131310990143419
 40
2.131310990143419
 40
2.131310990143419
 40
2.131310990143419
 10
28.49642447647454
 20
4.905401769720612
 30
0.0
 10
28.55441833488391
 20
4.800023223254157
 30
0.0
 10
28.60624306597163
 20
4.682338536518699
 30
0.0
 10
28.65336003755383
 20
4.55377861139587
 30
0.0
 10
28.73318242164558
 20
4.291740491595106
 30
0.0
 10
28.77300958731377
 20
4.022181368391557
 30
0.0
 10
28.78068002420511
 20
3.880115070412415
 30
0.0
 10
28.75542402695149
 20
3.69289358109448
 30
0.0
 10
28.65819079800522
 20
3.554881117025416
 30
0.0
 10
28.62153923288352
 20
3.519241184923274
 30
0.0
 10
28.57816744343381
 20
3.490826956822502
 30
0.0
 10
28.52964130040112
 20
3.469247475600056
 30
0.0
  0
ARC
  5
21434
330
1F
100
AcDbEntity
  8
1
100
AcDbCircle
 10
20.66126299999988
 20
0.2537590000000023
 30
0.0
 40
9.291897999999999
100
AcDbArc
 50
22.75533899999986
 51
30.68372499999869
  0
LINE
  5
21435
330
1F
100
AcDbEntity
  8
1
100
AcDbLine
 10
29.22989599999988
 20
3.847824000000002
 30
0.0
 11
29.30001299999986
 21
3.67559700000001
 31
0.0
  0
ARC
  5
21436
330
1F
100
AcDbEntity
  8
1
100
AcDbCircle
 10
28.28036599999987
 20
3.273773000000005
 30
0.0
 40
1.096009
100
AcDbArc
 50
4.314037999999843
 51
21.5084869999998
  0
ARC
  5
21437
330
1F
100
AcDbEntity
  8
1
100
AcDbCircle
 10
-4.574185000000113
 20
63.20532199999999
 30
0.0
 40
68.806606
100
AcDbArc
 50
298.6292360000005
 51
299.5626850000001
  0
ARC
  5
21438
330
1F
100
AcDbEntity
  8
1
100
AcDbCircle
 10
21.38420599999987
 20
15.652125
 30
0.0
 40
14.629855
100
AcDbArc
 50
296.6053880000003
 51
298.6290300000003
  0
ARC
  5
21439
330
1F
100
AcDbEntity
  8
1
100
AcDbCircle
 10
26.02248899999987
 20
5.831412
 30
0.0
 40
4.166068
100
AcDbArc
 50
311.6214119999993
 51
323.547275000001
  0
LINE
  5
2143A
330
1F
100
AcDbEntity
  8
1
100
AcDbLine
 10
16.01453999999987
 20
9.515711999999993
 30
0.0
 11
16.01046899999988
 21
9.543803999999994
 31
0.0
  0
LINE
  5
2143B
330
1F
100
AcDbEntity
  8
1
100
AcDbLine
 10
16.01046899999988
 20
9.543803999999994
 30
0.0
 11
15.78325499999988
 21
9.543803999999994
 31
0.0
  0
LINE
  5
2143C
330
1F
100
AcDbEntity
  8
1
100
AcDbLine
 10
19.99999999999988
 20
9.576211
 30
0.0
 11
16.01469099999988
 21
9.515714000000002
 31
0.0
  0
SPLINE
  5
2143D
330
1F
100
AcDbEntity
  8
1
100
AcDbSpline
210
0.0
220
0.0
230
1.0
 70
     8
 71
     5
 72
    27
 73
    21
 74
     0
 42
0.000000001
 43
0.0000000001
 40
0.0
 40
0.0
 40
0.0
 40
0.0
 40
0.0
 40
0.0
 40
4.321982804563056
 40
4.321982804563056
 40
4.321982804563056
 40
7.217281838135543
 40
7.217281838135543
 40
7.217281838135543
 40
8.668027367711975
 40
8.668027367711975
 40
8.668027367711975
 40
11.57502508978675
 40
11.57502508978675
 40
11.57502508978675
 40
13.03262876943493
 40
13.03262876943493
 40
13.03262876943493
 40
14.46778720679447
 40
14.46778720679447
 40
14.46778720679447
 40
14.46778720679447
 40
14.46778720679447
 40
14.46778720679447
 10
28.49640135874322
 20
4.905399611866229
 30
0.0
 10
28.20618820041216
 20
5.432643264244532
 30
0.0
 10
27.86549947152375
 20
5.933072588314331
 30
0.0
 10
27.47509513379117
 20
6.399074157250908
 30
0.0
 10
26.76123707224295
 20
7.120323327627218
 30
0.0
 10
25.96045639491351
 20
7.74005771666323
 30
0.0
 10
25.62743621747157
 20
7.970756284723833
 30
0.0
 10
25.1067981403146
 20
8.291585137893449
 30
0.0
 10
24.56210075826382
 20
8.570241069754175
 30
0.0
 10
24.37758550401421
 20
8.658557939797702
 30
0.0
 10
23.81765671979431
 20
8.908658508789613
 30
0.0
 10
23.23863044033629
 20
9.114297312487025
 30
0.0
 10
22.84430660713824
 20
9.231638577760406
 30
0.0
 10
22.24374015133742
 20
9.376704462974316
 30
0.0
 10
21.63454107332282
 20
9.474914201038984
 30
0.0
 10
21.4302239062917
 20
9.502505539682857
 30
0.0
 10
21.02369790411339
 20
9.54686469810413
 30
0.0
 10
20.61523203111068
 20
9.570761644944155
 30
0.0
 10
20.4120839489247
 20
9.5776025455514
 30
0.0
 10
20.20906902939797
 20
9.579418729533614
 30
0.0
 10
20.00599992409582
 20
9.576302572819969
 30
0.0
  0
ARC
  5
2143E
330
1F
100
AcDbEntity
  8
1
100
AcDbCircle
 10
20.44861499999988
 20
0.1138709999999889
 30
0.0
 40
9.546554999999999
100
AcDbArc
 50
30.75442100000095
 51
55.98586000000062
  0
ARC
  5
2143F
330
1F
100
AcDbEntity
  8
1
100
AcDbCircle
 10
20.30519299999986
 20
-0.0832619999999906
 30
0.0
 40
9.790600999999997
100
AcDbArc
 50
55.93548199999975
 51
68.82824600000036
  0
ARC
  5
21440
330
1F
100
AcDbEntity
  8
1
100
AcDbCircle
 10
20.18718499999989
 20
-0.4273060000000016
 30
0.0
 40
10.154469
100
AcDbArc
 50
68.90845299999965
 51
90.12064700000074
  0
LINE
  5
21441
330
1F
100
AcDbEntity
  8
1
100
AcDbLine
 10
20.16580199999987
 20
9.727521999999993
 30
0.0
 11
20.00605499999989
 21
9.726306999999991
 31
0.0
  0
ARC
  5
21442
330
1F
100
AcDbEntity
  8
1
100
AcDbCircle
 10
16.34965399999987
 20
9.154246
 30
0.0
 40
0.516511
100
AcDbArc
 50
90.9469850000006
 51
131.0452550000009
  0
LINE
  5
21443
330
1F
100
AcDbEntity
  8
1
100
AcDbLine
 10
19.99999999999988
 20
9.576210000000003
 30
0.0
 11
20.00599999999989
 21
9.576302999999995
 31
0.0
  0
ELLIPSE
  5
21444
330
1F
100
AcDbEntity
  8
1
100
AcDbEllipse
 10
22.34569499999986
 20
5.205275
 30
0.0
 11
-0.0000162201813509
 21
-2.415222644805908
 31
0.0
210
0.0
220
0.0
230
1.0
 40
0.9770900000000001
 41
3.566642590903264
 42
5.479855719710947
  0
ARC
  5
21445
330
1F
100
AcDbEntity
  8
1
100
AcDbCircle
 10
22.37773899999988
 20
5.158941999999996
 30
0.0
 40
2.377616999999998
100
AcDbArc
 50
223.2988010000001
 51
232.8289889999997
  0
LINE
  5
21446
330
1F
100
AcDbEntity
  8
1
100
AcDbLine
 10
20.16580199999987
 20
9.727521999999993
 30
0.0
 11
19.91819099999986
 21
9.727521999999993
 31
0.0
  0
ELLIPSE
  5
21447
330
1F
100
AcDbEntity
  8
1
100
AcDbEllipse
 10
15.76831699999988
 20
9.170718999999991
 30
0.0
 11
-0.6359809041023256
 21
-0.4260785579681398
 31
0.0
210
0.0
220
0.0
230
1.0
 40
0.4114010000000002
 41
3.707619740932048
 42
4.420800409093105
  0
LINE
  5
21448
330
1F
100
AcDbEntity
  8
1
100
AcDbLine
 10
15.76182899999986
 20
9.514988000000002
 30
0.0
 11
15.78325499999988
 21
9.543803999999994
 31
0.0
  0
LINE
  5
21449
330
1F
100
AcDbEntity
  8
1
100
AcDbLine
 10
15.76182899999986
 20
9.514988000000002
 30
0.0
 11
15.66834299999988
 21
9.378531000000009
 31
0.0
  0
LINE
  5
2144A
330
1F
100
AcDbEntity
  8
1
100
AcDbLine
 10
19.76268499999986
 20
9.726306999999991
 30
0.0
 11
16.21110499999986
 21
9.670659999999998
 31
0.0
  0
ELLIPSE
  5
2144B
330
1F
100
AcDbEntity
  8
1
100
AcDbEllipse
 10
19.91782299999988
 20
-0.622478000000001
 30
0.0
 11
0.00000000000009
 21
-10.35000038146972
 31
0.0
210
0.0
220
0.0
230
1.0
 40
0.9781479999999998
 41
3.141556302146768
 42
3.156917281103182
  0
LINE
  5
2144C
330
1F
100
AcDbEntity
  8
1
100
AcDbLine
 10
19.99999999999988
 20
9.726214999999996
 30
0.0
 11
20.00604199999987
 21
9.726306999999991
 31
0.0
  0
LINE
  5
2144D
330
1F
100
AcDbEntity
  8
1
100
AcDbLine
 10
16.34111799999988
 20
9.670659999999998
 30
0.0
 11
19.99999999999988
 21
9.726214999999996
 31
0.0
  0
LINE
  5
2144E
330
1F
100
AcDbEntity
  8
1
100
AcDbLine
 10
16.42436299999988
 20
7.596462999999999
 30
0.0
 11
15.71173199999987
 21
6.926783
 31
0.0
  0
ELLIPSE
  5
2144F
330
1F
100
AcDbEntity
  8
1
100
AcDbEllipse
 10
16.29197299999987
 20
7.743707999999998
 30
0.0
 11
0.0000000000000017
 21
-0.2000000029802322
 31
0.0
210
0.0
220
0.0
230
1.0
 40
0.978148
 41
0.7433189118127219
 42
1.519992738334581
  0
ARC
  5
21450
330
1F
100
AcDbEntity
  8
1
100
AcDbCircle
 10
16.34374499999987
 20
7.73426599999999
 30
0.0
 40
0.143746
100
AcDbArc
 50
359.7149639999997
 51
21.63205600000063
  0
ELLIPSE
  5
21451
330
1F
100
AcDbEntity
  8
1
100
AcDbEllipse
 10
23.80950499999989
 20
11.087119
 30
0.0
 11
0.0000000000000405
 21
-9.503568649291992
 31
0.0
210
0.0
220
0.0
230
1.0
 40
0.9781479999999998
 41
0.3917870925617979
 42
0.4599764149222
  0
SPLINE
  5
21452
330
1F
100
AcDbEntity
  8
1
100
AcDbSpline
210
0.0
220
0.0
230
1.0
 70
     8
 71
     5
 72
    27
 73
    21
 74
     0
 42
0.000000001
 43
0.0000000001
 40
0.0
 40
0.0
 40
0.0
 40
0.0
 40
0.0
 40
0.0
 40
0.6289711142785129
 40
0.6289711142785129
 40
0.6289711142785129
 40
1.080858897579477
 40
1.080858897579477
 40
1.080858897579477
 40
1.326191131766641
 40
1.326191131766641
 40
1.326191131766641
 40
1.578216176184159
 40
1.578216176184159
 40
1.578216176184159
 40
1.82463122918268
 40
1.82463122918268
 40
1.82463122918268
 40
2.056356691469434
 40
2.056356691469434
 40
2.056356691469434
 40
2.056356691469434
 40
2.056356691469434
 40
2.056356691469434
 10
16.07310260346685
 20
9.136614865226405
 30
0.0
 10
16.08730824445123
 20
9.044770282547986
 30
0.0
 10
16.10138486038792
 20
8.953746083202375
 30
0.0
 10
16.11800737235268
 20
8.86161851633183
 30
0.0
 10
16.15353826221124
 20
8.700316266827329
 30
0.0
 10
16.19730193413466
 20
8.544367510603919
 30
0.0
 10
16.21679096584313
 20
8.480568442212415
 30
0.0
 10
16.24778702270515
 20
8.385367637430846
 30
0.0
 10
16.27987018277773
 20
8.294304075899091
 30
0.0
 10
16.29127277003457
 20
8.26271409911267
 30
0.0
 10
16.31448503534258
 20
8.19974593757783
 30
0.0
 10
16.3378498025491
 20
8.138670426909698
 30
0.0
 10
16.34970489915119
 20
8.108168981976021
 30
0.0
 10
16.37310009294856
 20
8.048763105633042
 30
0.0
 10
16.39627002816556
 20
7.991091936885013
 30
0.0
 10
16.40757095909797
 20
7.963153418763965
 30
0.0
 10
16.42935893239453
 20
7.909481004894004
 30
0.0
 10
16.45021916649767
 20
7.857760199130424
 30
0.0
 10
16.45984216365664
 20
7.833637824442888
 30
0.0
 10
16.46922976865036
 20
7.809685514536056
 30
0.0
 10
16.47747273907114
 20
7.787299367788847
 30
0.0
  0
LINE
  5
21453
330
1F
100
AcDbEntity
  8
1
100
AcDbLine
 10
16.01465099999987
 20
9.514988000000002
 30
0.0
 11
16.07310399999988
 21
9.136615000000006
 31
0.0
  0
LINE
  5
21454
330
1F
100
AcDbEntity
  8
1
100
AcDbLine
 10
27.70738999999986
 20
3.103178999999997
 30
0.0
 11
27.73625199999987
 21
3.115995999999995
 31
0.0
  0
LINE
  5
21455
330
1F
100
AcDbEntity
  8
1
100
AcDbLine
 10
27.73625199999987
 20
3.115995999999995
 30
0.0
 11
27.95829899999987
 21
3.214864000000005
 31
0.0
  0
LINE
  5
21456
330
1F
100
AcDbEntity
  8
1
100
AcDbLine
 10
27.95829899999987
 20
3.214864000000005
 30
0.0
 11
28.52964099999989
 21
3.469246999999995
 31
0.0
  0
SPLINE
  5
21457
330
1F
100
AcDbEntity
  8
1
100
AcDbSpline
210
0.0
220
0.0
230
1.0
 70
     8
 71
     5
 72
    18
 73
    12
 74
     0
 42
0.000000001
 43
0.0000000001
 40
0.0
 40
0.0
 40
0.0
 40
0.0
 40
0.0
 40
0.0
 40
0.865889397687361
 40
0.865889397687361
 40
0.865889397687361
 40
1.747161361040332
 40
1.747161361040332
 40
1.747161361040332
 40
2.131310990142436
 40
2.131310990142436
 40
2.131310990142436
 40
2.131310990142436
 40
2.131310990142436
 40
2.131310990142436
 10
28.49642447647452
 20
4.905401769720612
 30
0.0
 10
28.55441833488388
 20
4.800023223254171
 30
0.0
 10
28.60624306597154
 20
4.682338536518656
 30
0.0
 10
28.65336003755385
 20
4.553778611395841
 30
0.0
 10
28.73318242164555
 20
4.291740491595106
 30
0.0
 10
28.7730095873138
 20
4.022181368391557
 30
0.0
 10
28.78068002420511
 20
3.880115070412415
 30
0.0
 10
28.75542402695149
 20
3.692893581094608
 30
0.0
 10
28.65819079800534
 20
3.554881117025601
 30
0.0
 10
28.62153923288332
 20
3.51924118492316
 30
0.0
 10
28.5781674434337
 20
3.490826956822459
 30
0.0
 10
28.52964130040112
 20
3.469247475600056
 30
0.0
  0
ARC
  5
21458
330
1F
100
AcDbEntity
  8
1
100
AcDbCircle
 10
20.66126299999988
 20
0.2537590000000023
 30
0.0
 40
9.291897999999999
100
AcDbArc
 50
22.75533899999986
 51
30.68372499999869
  0
LINE
  5
21459
330
1F
100
AcDbEntity
  8
1
100
AcDbLine
 10
29.22989599999988
 20
3.847824000000002
 30
0.0
 11
29.30001299999986
 21
3.67559700000001
 31
0.0
  0
ARC
  5
2145A
330
1F
100
AcDbEntity
  8
1
100
AcDbCircle
 10
28.28036599999987
 20
3.273773000000005
 30
0.0
 40
1.096009
100
AcDbArc
 50
4.314037999999843
 51
21.5084869999998
  0
ARC
  5
2145B
330
1F
100
AcDbEntity
  8
1
100
AcDbCircle
 10
-4.574185000000113
 20
63.20532199999999
 30
0.0
 40
68.806606
100
AcDbArc
 50
298.6292360000005
 51
299.5626850000001
  0
ARC
  5
2145C
330
1F
100
AcDbEntity
  8
1
100
AcDbCircle
 10
21.38420599999987
 20
15.652125
 30
0.0
 40
14.629855
100
AcDbArc
 50
296.6053880000003
 51
298.6290300000003
  0
ARC
  5
2145D
330
1F
100
AcDbEntity
  8
1
100
AcDbCircle
 10
26.02248899999987
 20
5.831412
 30
0.0
 40
4.166068
100
AcDbArc
 50
311.6214119999993
 51
323.547275000001
  0
LINE
  5
2145E
330
1F
100
AcDbEntity
  8
1
100
AcDbLine
 10
16.01453999999987
 20
9.515711999999993
 30
0.0
 11
16.01046899999988
 21
9.543803999999994
 31
0.0
  0
LINE
  5
2145F
330
1F
100
AcDbEntity
  8
1
100
AcDbLine
 10
16.01046899999988
 20
9.543803999999994
 30
0.0
 11
15.78325499999988
 21
9.543803999999994
 31
0.0
  0
LINE
  5
21460
330
1F
100
AcDbEntity
  8
1
100
AcDbLine
 10
19.99999999999988
 20
9.576211
 30
0.0
 11
16.01469099999988
 21
9.515714000000002
 31
0.0
  0
SPLINE
  5
21461
330
1F
100
AcDbEntity
  8
1
100
AcDbSpline
210
0.0
220
0.0
230
1.0
 70
     8
 71
     5
 72
    27
 73
    21
 74
     0
 42
0.000000001
 43
0.0000000001
 40
0.0
 40
0.0
 40
0.0
 40
0.0
 40
0.0
 40
0.0
 40
4.321982804313193
 40
4.321982804313193
 40
4.321982804313193
 40
7.217281837875309
 40
7.217281837875309
 40
7.217281837875309
 40
8.668027367451742
 40
8.668027367451742
 40
8.668027367451742
 40
11.57502508952581
 40
11.57502508952581
 40
11.57502508952581
 40
13.03262876917399
 40
13.03262876917399
 40
13.03262876917399
 40
14.46778720653353
 40
14.46778720653353
 40
14.46778720653353
 40
14.46778720653353
 40
14.46778720653353
 40
14.46778720653353
 10
28.49640135874322
 20
4.905399611866215
 30
0.0
 10
28.20618820042895
 20
5.43264326421405
 30
0.0
 10
27.86549947156627
 20
5.933072588283437
 30
0.0
 10
27.47509513374277
 20
6.39907415730137
 30
0.0
 10
26.76123707221555
 20
7.120323327647298
 30
0.0
 10
25.96045639491626
 20
7.740057716661681
 30
0.0
 10
25.62743621746907
 20
7.970756284725354
 30
0.0
 10
25.10679814031329
 20
8.291585137894116
 30
0.0
 10
24.56210075826382
 20
8.570241069754175
 30
0.0
 10
24.37758550401421
 20
8.658557939797688
 30
0.0
 10
23.8176567197944
 20
8.908658508789585
 30
0.0
 10
23.23863044033647
 20
9.114297312486968
 30
0.0
 10
22.84430660713804
 20
9.231638577760449
 30
0.0
 10
22.24374015133731
 20
9.376704462974331
 30
0.0
 10
21.63454107332282
 20
9.474914201038984
 30
0.0
 10
21.4302239062917
 20
9.502505539682857
 30
0.0
 10
21.02369790411339
 20
9.546864698104116
 30
0.0
 10
20.61523203111068
 20
9.570761644944155
 30
0.0
 10
20.41208394892811
 20
9.577602545548131
 30
0.0
 10
20.20906902939797
 20
9.579418729533614
 30
0.0
 10
20.00599992409582
 20
9.576302572819969
 30
0.0
  0
ARC
  5
21462
330
1F
100
AcDbEntity
  8
1
100
AcDbCircle
 10
20.44861499999988
 20
0.1138709999999889
 30
0.0
 40
9.546554999999999
100
AcDbArc
 50
30.75442100000095
 51
55.98586000000062
  0
ARC
  5
21463
330
1F
100
AcDbEntity
  8
1
100
AcDbCircle
 10
20.30519299999986
 20
-0.0832619999999906
 30
0.0
 40
9.790600999999997
100
AcDbArc
 50
55.93548199999975
 51
68.82824600000036
  0
ARC
  5
21464
330
1F
100
AcDbEntity
  8
1
100
AcDbCircle
 10
20.18718499999989
 20
-0.4273060000000016
 30
0.0
 40
10.154469
100
AcDbArc
 50
68.90845299999965
 51
90.12064700000074
  0
LINE
  5
21465
330
1F
100
AcDbEntity
  8
1
100
AcDbLine
 10
20.16580199999987
 20
9.727521999999993
 30
0.0
 11
20.00605499999989
 21
9.726306999999991
 31
0.0
  0
ARC
  5
21466
330
1F
100
AcDbEntity
  8
1
100
AcDbCircle
 10
16.34965399999987
 20
9.154246
 30
0.0
 40
0.516511
100
AcDbArc
 50
90.9469850000006
 51
131.0452550000009
  0
LINE
  5
21467
330
1F
100
AcDbEntity
  8
1
100
AcDbLine
 10
19.99999999999988
 20
9.576210000000003
 30
0.0
 11
20.00599999999989
 21
9.576302999999995
 31
0.0
  0
ELLIPSE
  5
21468
330
1F
100
AcDbEntity
  8
1
100
AcDbEllipse
 10
22.34569499999986
 20
5.205275
 30
0.0
 11
-0.000016220179532
 21
-2.415222644805908
 31
0.0
210
0.0
220
0.0
230
1.0
 40
0.9770900000000001
 41
3.566642590902477
 42
5.479855719710136
  0
ARC
  5
21469
330
1F
100
AcDbEntity
  8
1
100
AcDbCircle
 10
22.37773899999988
 20
5.158941999999996
 30
0.0
 40
2.377616999999998
100
AcDbArc
 50
223.2988010000001
 51
232.8289889999997
  0
LINE
  5
2146A
330
1F
100
AcDbEntity
  8
1
100
AcDbLine
 10
20.16580199999987
 20
9.727521999999993
 30
0.0
 11
19.91819099999986
 21
9.727521999999993
 31
0.0
  0
SPLINE
  5
2146B
330
1F
100
AcDbEntity
  8
1
100
AcDbSpline
210
0.0
220
0.0
230
1.0
 70
     8
 71
     5
 72
    18
 73
    12
 74
     0
 42
0.000000001
 43
0.0000000001
 40
0.0
 40
0.0
 40
0.0
 40
0.0
 40
0.0
 40
0.0
 40
13.56988255481801
 40
13.56988255481801
 40
13.56988255481801
 40
20.37533661179827
 40
20.37533661179827
 40
20.37533661179827
 40
22.64399872783686
 40
22.64399872783686
 40
22.64399872783686
 40
22.64399872783686
 40
22.64399872783686
 40
22.64399872783686
 10
23.34166483487007
 20
5.205273964395075
 30
0.0
 10
23.34166483487007
 20
5.171354557501359
 30
0.0
 10
23.33548548600266
 20
5.137435151672647
 30
0.0
 10
23.32307187138039
 20
5.104163387836464
 30
0.0
 10
23.29461485549996
 20
5.055943542911904
 30
0.0
 10
23.24762096436541
 20
5.013792034689117
 30
0.0
 10
23.22979575189998
 20
5.00071299312853
 30
0.0
 10
23.20174127321101
 20
4.984043720142011
 30
0.0
 10
23.16547341371765
 20
4.970569797080059
 30
0.0
 10
23.15579809426407
 20
4.967426582531459
 30
0.0
 10
23.14523170337134
 20
4.964499314677851
 30
0.0
 10
23.13343859193782
 20
4.961945565672976
 30
0.0
  0
SPLINE
  5
2146C
330
1F
100
AcDbEntity
  8
1
100
AcDbSpline
210
0.0
220
0.0
230
1.0
 70
     8
 71
     5
 72
    24
 73
    18
 74
     0
 42
0.000000001
 43
0.0000000001
 40
0.0
 40
0.0
 40
0.0
 40
0.0
 40
0.0
 40
0.0
 40
6.065025842002008
 40
6.065025842002008
 40
6.065025842002008
 40
18.09022149993406
 40
18.09022149993406
 40
18.09022149993406
 40
41.97729271994609
 40
41.97729271994609
 40
41.97729271994609
 40
54.00410800477223
 40
54.00410800477223
 40
54.00410800477223
 40
59.85963831629264
 40
59.85963831629264
 40
59.85963831629264
 40
59.85963831629264
 40
59.85963831629264
 40
59.85963831629264
 10
22.82243039050738
 20
4.411229082757671
 30
0.0
 10
22.81084771668046
 20
4.43972092217848
 30
0.0
 10
22.80450557662846
 20
4.462279464034253
 30
0.0
 10
22.79977086979505
 20
4.481562947000455
 30
0.0
 10
22.78966015827967
 20
4.537748921991322
 30
0.0
 10
22.78963297471094
 20
4.581337063992293
 30
0.0
 10
22.79133378878808
 20
4.606536082658138
 30
0.0
 10
22.80221862298748
 20
4.67938239772161
 30
0.0
 10
22.8268088289627
 20
4.738741110917061
 30
0.0
 10
22.8470021533667
 20
4.774361984845384
 30
0.0
 10
22.88533840068064
 20
4.826676435377763
 30
0.0
 10
22.94375601285785
 20
4.876444230466518
 30
0.0
 10
22.96547347395358
 20
4.892262739576565
 30
0.0
 10
23.00363094126035
 20
4.916571589658445
 30
0.0
 10
23.05820512364073
 20
4.940004117463914
 30
0.0
 10
23.08011073701075
 20
4.947952182359017
 30
0.0
 10
23.10299998189629
 20
4.955354211852437
 30
0.0
 10
23.13343859193785
 20
4.961945565672976
 30
0.0
  0
ARC
  5
2146D
330
1F
100
AcDbEntity
  8
1
100
AcDbCircle
 10
22.61311299999988
 20
4.318280999999998
 30
0.0
 40
0.228292
100
AcDbArc
 50
300.9392810000002
 51
23.94371800000043
  0
ARC
  5
2146E
330
1F
100
AcDbEntity
  8
1
100
AcDbCircle
 10
21.62755499999989
 20
6.118802999999999
 30
0.0
 40
0.202811
100
AcDbArc
 50
37.63490399999994
 51
53.74428000000037
  0
ARC
  5
2146F
330
1F
100
AcDbEntity
  8
1
100
AcDbCircle
 10
22.06924799999987
 20
6.463268999999996
 30
0.0
 40
0.357628
100
AcDbArc
 50
218.1285540000004
 51
271.2306069999993
  0
ARC
  5
21470
330
1F
100
AcDbEntity
  8
1
100
AcDbCircle
 10
22.61303299999989
 20
6.092210999999991
 30
0.0
 40
0.228382
100
AcDbArc
 50
336.0771070000004
 51
59.05059999999945
  0
SPLINE
  5
21471
330
1F
100
AcDbEntity
  8
1
100
AcDbSpline
210
0.0
220
0.0
230
1.0
 70
     8
 71
     5
 72
    24
 73
    18
 74
     0
 42
0.000000001
 43
0.0000000001
 40
0.0
 40
0.0
 40
0.0
 40
0.0
 40
0.0
 40
0.0
 40
6.065025847479905
 40
6.065025847479905
 40
6.065025847479905
 40
18.09022150564142
 40
18.09022150564142
 40
18.09022150564142
 40
41.97729272702429
 40
41.97729272702429
 40
41.97729272702429
 40
54.0041080064562
 40
54.0041080064562
 40
54.0041080064562
 40
59.85963834434521
 40
59.85963834434521
 40
59.85963834434521
 40
59.85963834434521
 40
59.85963834434521
 40
59.85963834434521
 10
22.82243039050738
 20
5.999318846032466
 30
0.0
 10
22.81084771667
 20
5.970827006585935
 30
0.0
 10
22.80450557661649
 20
5.948268464714885
 30
0.0
 10
22.79977086980324
 20
5.92898498183338
 30
0.0
 10
22.78966015828004
 20
5.872799006819008
 30
0.0
 10
22.78963297471071
 20
5.829210864803627
 30
0.0
 10
22.7913337887895
 20
5.804011846116978
 30
0.0
 10
22.80221862299573
 20
5.7311655310301
 30
0.0
 10
22.82680882897171
 20
5.671806817876216
 30
0.0
 10
22.84700215335431
 20
5.636185943959546
 30
0.0
 10
22.88533840066321
 20
5.583871493434713
 30
0.0
 10
22.94375601282528
 20
5.534103698349554
 30
0.0
 10
22.96547347394841
 20
5.518285189219284
 30
0.0
 10
23.00363094130014
 20
5.493976339106964
 30
0.0
 10
23.05820512375453
 20
5.47054381127603
 30
0.0
 10
23.08011073680311
 20
5.462595746498124
 30
0.0
 10
23.10299998175924
 20
5.455193716967386
 30
0.0
 10
23.13343859193782
 20
5.44860236311716
 30
0.0
  0
SPLINE
  5
21472
330
1F
100
AcDbEntity
  8
1
100
AcDbSpline
210
0.0
220
0.0
230
1.0
 70
     8
 71
     5
 72
    18
 73
    12
 74
     0
 42
0.000000001
 43
0.0000000001
 40
0.0
 40
0.0
 40
0.0
 40
0.0
 40
0.0
 40
0.0
 40
13.56988255520707
 40
13.56988255520707
 40
13.56988255520707
 40
20.37533661151968
 40
20.37533661151968
 40
20.37533661151968
 40
22.64399872733513
 40
22.64399872733513
 40
22.64399872733513
 40
22.64399872733513
 40
22.64399872733513
 40
22.64399872733513
 10
23.34166483487007
 20
5.205273964395075
 30
0.0
 10
23.34166483487007
 20
5.239193371289758
 30
0.0
 10
23.33548548600851
 20
5.273112777119436
 30
0.0
 10
23.32307187136954
 20
5.30638454097604
 30
0.0
 10
23.29461485548785
 20
5.354604385894333
 30
0.0
 10
23.24762096434568
 20
5.396755894116751
 30
0.0
 10
23.22979575189584
 20
5.409834935672193
 30
0.0
 10
23.20174127316613
 20
5.426504208667765
 30
0.0
 10
23.16547341370352
 20
5.439978131714397
 30
0.0
 10
23.155798094262
 20
5.443121346259317
 30
0.0
 10
23.14523170337017
 20
5.446048614112541
 30
0.0
 10
23.13343859193782
 20
5.448602363117174
 30
0.0
  0
ELLIPSE
  5
21473
330
1F
100
AcDbEntity
  8
1
100
AcDbEllipse
 10
23.34662199999988
 20
5.205274000000002
 30
0.0
 11
0.0000000000000011
 21
-0.25
 31
0.0
210
0.0
220
0.0
230
1.0
 40
0.9781479999999998
 41
0.2315424416127365
 42
2.910050211977043
  0
ELLIPSE
  5
21474
330
1F
100
AcDbEntity
  8
1
100
AcDbEllipse
 10
23.50074999999987
 20
4.53694999999999
 30
0.0
 11
0.0000000000000019
 21
-0.4366483390331268
 31
0.0
210
0.0
220
0.0
230
1.0
 40
0.9781479999999996
 41
3.373135095202531
 42
5.004445314370216
  0
ELLIPSE
  5
21475
330
1F
100
AcDbEntity
  8
1
100
AcDbEllipse
 10
22.85754799999986
 20
4.339248999999995
 30
0.0
 11
0.0000000000000011
 21
-0.25
 31
0.0
210
0.0
220
0.0
230
1.0
 40
0.9781479999999998
 41
0.0001968586129266
 42
1.862852660780439
  0
ELLIPSE
  5
21476
330
1F
100
AcDbEntity
  8
1
100
AcDbEllipse
 10
22.85754799999986
 20
4.339248999999995
 30
0.0
 11
0.0000000000000011
 21
-0.25
 31
0.0
210
0.0
220
0.0
230
1.0
 40
0.9781479999999998
 41
5.467530197595768
 42
6.283382165792512
  0
ARC
  5
21477
330
1F
100
AcDbEntity
  8
1
100
AcDbCircle
 10
22.06925199999986
 20
3.947270000000003
 30
0.0
 40
0.357638
100
AcDbArc
 50
88.76083600000022
 51
141.8708069999998
  0
ARC
  5
21478
330
1F
100
AcDbEntity
  8
1
100
AcDbCircle
 10
21.62754099999987
 20
4.291758000000001
 30
0.0
 40
0.202831
100
AcDbArc
 50
306.3318039999992
 51
322.3644779999988
  0
ELLIPSE
  5
21479
330
1F
100
AcDbEntity
  8
1
100
AcDbEllipse
 10
21.87939999999986
 20
6.071300000000007
 30
0.0
 11
0.0000000000000011
 21
-0.25
 31
0.0
210
0.0
220
0.0
230
1.0
 40
0.9781479999999998
 41
2.325937544005975
 42
3.141789512202723
  0
ELLIPSE
  5
2147A
330
1F
100
AcDbEntity
  8
1
100
AcDbEllipse
 10
21.87939999999986
 20
6.071300000000007
 30
0.0
 11
0.0000000000000011
 21
-0.25
 31
0.0
210
0.0
220
0.0
230
1.0
 40
0.9781479999999998
 41
3.141789512202723
 42
3.665191429188069
  0
ELLIPSE
  5
2147B
330
1F
100
AcDbEntity
  8
1
100
AcDbEllipse
 10
22.36847399999988
 20
6.541921999999999
 30
0.0
 11
0.0000000000000019
 21
-0.4366483390331268
 31
0.0
210
0.0
220
0.0
230
1.0
 40
0.9781479999999996
 41
6.28318530717958
 42
7.098840416763397
  0
ELLIPSE
  5
2147C
330
1F
100
AcDbEntity
  8
1
100
AcDbEllipse
 10
22.36847399999988
 20
6.541921999999999
 30
0.0
 11
0.0000000000000019
 21
-0.4366483390331268
 31
0.0
210
0.0
220
0.0
230
1.0
 40
0.9781479999999996
 41
5.467530197595762
 42
6.28318530717958
  0
ELLIPSE
  5
2147D
330
1F
100
AcDbEntity
  8
1
100
AcDbEllipse
 10
22.85754799999986
 20
6.071300000000007
 30
0.0
 11
0.0000000000000011
 21
-0.25
 31
0.0
210
0.0
220
0.0
230
1.0
 40
0.9781479999999998
 41
1.278739992809343
 42
3.141395794976857
  0
ELLIPSE
  5
2147E
330
1F
100
AcDbEntity
  8
1
100
AcDbEllipse
 10
22.85754799999986
 20
6.071300000000007
 30
0.0
 11
0.0000000000000011
 21
-0.25
 31
0.0
210
0.0
220
0.0
230
1.0
 40
0.9781479999999998
 41
3.141395794976857
 42
3.957247763173598
  0
ELLIPSE
  5
2147F
330
1F
100
AcDbEntity
  8
1
100
AcDbEllipse
 10
23.50074999999987
 20
5.873598000000001
 30
0.0
 11
0.0000000000000019
 21
-0.4366483390331268
 31
0.0
210
0.0
220
0.0
230
1.0
 40
0.9781479999999996
 41
4.420332646399153
 42
6.051642865566835
  0
ELLIPSE
  5
21480
330
1F
100
AcDbEntity
  8
1
100
AcDbEllipse
 10
22.36847399999988
 20
3.868626000000006
 30
0.0
 11
0.0000000000000019
 21
-0.4366483390331268
 31
0.0
210
0.0
220
0.0
230
1.0
 40
0.9781479999999996
 41
3.141592653589786
 42
3.957247763173603
  0
ELLIPSE
  5
21481
330
1F
100
AcDbEntity
  8
1
100
AcDbEllipse
 10
22.36847399999988
 20
3.868626000000006
 30
0.0
 11
0.0000000000000019
 21
-0.4366483390331268
 31
0.0
210
0.0
220
0.0
230
1.0
 40
0.9781479999999996
 41
2.325937544005971
 42
3.141592653589786
  0
ELLIPSE
  5
21482
330
1F
100
AcDbEntity
  8
1
100
AcDbEllipse
 10
21.39032699999987
 20
5.205274000000002
 30
0.0
 11
0.0000000000000011
 21
-0.25
 31
0.0
210
0.0
220
0.0
230
1.0
 40
0.9781479999999998
 41
3.373135095202528
 42
6.051642865566837
  0
ELLIPSE
  5
21483
330
1F
100
AcDbEntity
  8
1
100
AcDbEllipse
 10
21.23619899999988
 20
5.873598000000001
 30
0.0
 11
0.0000000000000019
 21
-0.4366483390331268
 31
0.0
210
0.0
220
0.0
230
1.0
 40
0.9781479999999996
 41
0.23154244161274
 42
1.862852660780425
  0
ELLIPSE
  5
21484
330
1F
100
AcDbEntity
  8
1
100
AcDbEllipse
 10
21.87939999999986
 20
6.071300000000007
 30
0.0
 11
0.0000000000000011
 21
-0.25
 31
0.0
210
0.0
220
0.0
230
1.0
 40
0.9781479999999998
 41
3.665191429188069
 42
5.004445314370236
  0
ELLIPSE
  5
21485
330
1F
100
AcDbEntity
  8
1
100
AcDbEllipse
 10
21.87939999999986
 20
4.339248999999995
 30
0.0
 11
0.0000000000000011
 21
-0.25
 31
0.0
210
0.0
220
0.0
230
1.0
 40
0.9781479999999998
 41
4.420332646399137
 42
6.282988448566649
  0
ELLIPSE
  5
21486
330
1F
100
AcDbEntity
  8
1
100
AcDbEllipse
 10
21.87939999999986
 20
4.339248999999995
 30
0.0
 11
0.0000000000000011
 21
-0.25
 31
0.0
210
0.0
220
0.0
230
1.0
 40
0.9781479999999998
 41
6.28298844856665
 42
7.098840416763392
  0
ELLIPSE
  5
21487
330
1F
100
AcDbEntity
  8
1
100
AcDbEllipse
 10
21.23619899999988
 20
4.53694999999999
 30
0.0
 11
0.0000000000000019
 21
-0.4366483390331268
 31
0.0
210
0.0
220
0.0
230
1.0
 40
0.9781479999999996
 41
1.27873999280936
 42
2.910050211977042
  0
ELLIPSE
  5
21488
330
1F
100
AcDbEntity
  8
1
100
AcDbEllipse
 10
22.36847399999988
 20
5.205274000000002
 30
0.0
 11
0.000000000000006
 21
-1.399999976158142
 31
0.0
210
0.0
220
0.0
230
1.0
 40
0.9781479999999998
 41
0.4999999999999781
 42
6.783185307179563
  0
ELLIPSE
  5
21489
330
1F
100
AcDbEntity
  8
1
100
AcDbEllipse
 10
22.29362599999987
 20
5.205274000000002
 30
0.0
 11
0.0000000000000092
 21
-2.150000095367432
 31
0.0
210
0.0
220
0.0
230
1.0
 40
0.978148
 41
3.141621740030787
 42
6.283214393620581
  0
ELLIPSE
  5
2148A
330
1F
100
AcDbEntity
  8
1
100
AcDbEllipse
 10
22.29362599999987
 20
5.205274000000002
 30
0.0
 11
0.0000000000000092
 21
-2.150000095367432
 31
0.0
210
0.0
220
0.0
230
1.0
 40
0.978148
 41
0.0000290864409977
 42
0.4999999999999771
  0
ELLIPSE
  5
2148B
330
1F
100
AcDbEntity
  8
1
100
AcDbEllipse
 10
22.29362599999987
 20
5.205274000000002
 30
0.0
 11
0.0000000000000092
 21
-2.150000095367432
 31
0.0
210
0.0
220
0.0
230
1.0
 40
0.978148
 41
0.4999999999999782
 42
3.141621740030787
  0
ELLIPSE
  5
2148C
330
1F
100
AcDbEntity
  8
1
100
AcDbEllipse
 10
22.20214499999989
 20
5.205274000000002
 30
0.0
 11
0.0000000000000092
 21
-2.150000095367432
 31
0.0
210
0.0
220
0.0
230
1.0
 40
0.978148
 41
3.141621740030789
 42
6.283214393620584
  0
LINE
  5
2148D
330
1F
100
AcDbEntity
  8
1
100
AcDbLine
 10
22.07693799999987
 20
6.105274000000008
 30
0.0
 11
22.36847399999988
 21
6.105274000000008
 31
0.0
  0
LINE
  5
2148E
330
1F
100
AcDbEntity
  8
1
100
AcDbLine
 10
22.07699599999987
 20
4.305273999999997
 30
0.0
 11
22.36847399999988
 21
4.305273999999997
 31
0.0
  0
LINE
  5
2148F
330
1F
100
AcDbEntity
  8
1
100
AcDbLine
 10
22.20220599999988
 20
3.055273999999997
 30
0.0
 11
22.29368699999986
 21
3.055273999999997
 31
0.0
  0
LINE
  5
21490
330
1F
100
AcDbEntity
  8
1
100
AcDbLine
 10
22.20208399999987
 20
7.355274000000008
 30
0.0
 11
22.29356499999989
 21
7.355274000000008
 31
0.0
  0
LINE
  5
21491
330
1F
100
AcDbEntity
  8
SK1
100
AcDbLine
 10
-20.00000000000011
 20
1.917701999999991
 30
0.0
 11
-20.00000000000011
 21
-4.0
 31
0.0
  0
LINE
  5
21492
330
1F
100
AcDbEntity
  8
SK1
100
AcDbLine
 10
-20.00000000000011
 20
4.0
 30
0.0
 11
-20.00000000000011
 21
1.917701999999991
 31
0.0
  0
LINE
  5
21493
330
1F
100
AcDbEntity
  8
SK1
100
AcDbLine
 10
-19.00000000000011
 20
2.397128000000009
 30
0.0
 11
-19.00000000000011
 21
-5.0
 31
0.0
  0
LINE
  5
21494
330
1F
100
AcDbEntity
  8
SK1
100
AcDbLine
 10
-19.00000000000011
 20
5.0
 30
0.0
 11
-19.00000000000011
 21
2.397128000000009
 31
0.0
  0
LINE
  5
21495
330
1F
100
AcDbEntity
  8
SK1
100
AcDbLine
 10
-9.521068000000127
 20
2.397128000000009
 30
0.0
 11
-9.521068000000127
 21
-5.0
 31
0.0
  0
LINE
  5
21496
330
1F
100
AcDbEntity
  8
SK1
100
AcDbLine
 10
-9.521068000000127
 20
5.0
 30
0.0
 11
-9.521068000000127
 21
2.397128000000009
 31
0.0
  0
LINE
  5
21497
330
1F
100
AcDbEntity
  8
SK1
100
AcDbLine
 10
-5.000000000000113
 20
2.516984000000007
 30
0.0
 11
-5.000000000000113
 21
-5.25
 31
0.0
  0
LINE
  5
21498
330
1F
100
AcDbEntity
  8
SK1
100
AcDbLine
 10
-5.000000000000113
 20
5.25
 30
0.0
 11
-5.000000000000113
 21
2.516984000000007
 31
0.0
  0
LINE
  5
21499
330
1F
100
AcDbEntity
  8
SK1
100
AcDbLine
 10
-1.320577000000128
 20
2.516984000000007
 30
0.0
 11
-1.320577000000128
 21
-5.25
 31
0.0
  0
LINE
  5
2149A
330
1F
100
AcDbEntity
  8
SK1
100
AcDbLine
 10
-1.320577000000128
 20
5.25
 30
0.0
 11
-1.320577000000128
 21
2.516984000000007
 31
0.0
  0
LINE
  5
2149B
330
1F
100
AcDbEntity
  8
1
100
AcDbLine
 10
-0.0000000000001137
 20
4.21894499999999
 30
0.0
 11
-0.0000000000001137
 21
-8.799999999999997
 31
0.0
  0
LINE
  5
2149C
330
1F
100
AcDbEntity
  8
1
100
AcDbLine
 10
-0.0000000000001137
 20
8.799999999999997
 30
0.0
 11
-0.0000000000001137
 21
4.21894499999999
 31
0.0
  0
LINE
  5
2149D
330
1F
100
AcDbEntity
  8
1
100
AcDbLine
 10
0.1999999999998749
 20
4.31483
 30
0.0
 11
0.1999999999998749
 21
-9.0
 31
0.0
  0
LINE
  5
2149E
330
1F
100
AcDbEntity
  8
1
100
AcDbLine
 10
0.1999999999998749
 20
9.0
 30
0.0
 11
0.1999999999998749
 21
7.898243000000007
 31
0.0
  0
LINE
  5
2149F
330
1F
100
AcDbEntity
  8
1
100
AcDbLine
 10
0.1999999999998749
 20
7.898243000000007
 30
0.0
 11
0.1999999999998749
 21
4.31483
 31
0.0
  0
LINE
  5
214A0
330
1F
100
AcDbEntity
  8
1
100
AcDbLine
 10
2.499999999999886
 20
-4.937040999999993
 30
0.0
 11
6.210386999999883
 21
-4.937040999999993
 31
0.0
  0
SPLINE
  5
214A1
330
1F
100
AcDbEntity
  8
1
100
AcDbSpline
210
0.0
220
0.0
230
1.0
 70
     8
 71
     5
 72
    24
 73
    18
 74
     0
 42
0.000000001
 43
0.0000000001
 40
0.0
 40
0.0
 40
0.0
 40
0.0
 40
0.0
 40
0.0
 40
0.105936090235654
 40
0.105936090235654
 40
0.105936090235654
 40
0.2118721804713078
 40
0.2118721804713078
 40
0.2118721804713078
 40
0.6303186500040368
 40
0.6303186500040368
 40
0.6303186500040368
 40
1.442388225272557
 40
1.442388225272557
 40
1.442388225272557
 40
2.03685783410787
 40
2.03685783410787
 40
2.03685783410787
 40
2.03685783410787
 40
2.03685783410787
 40
2.03685783410787
 10
2.500000000000653
 20
-4.937041117916677
 30
0.0
 10
2.48776755395778
 20
-4.937041117916706
 30
0.0
 10
2.475535117135848
 20
-4.936470923896607
 30
0.0
 10
2.463251795811231
 20
-4.935314646019861
 30
0.0
 10
2.43896808264634
 20
-4.931899835998919
 30
0.0
 10
2.415303625359229
 20
-4.926345321305205
 30
0.0
 10
2.403618582988656
 20
-4.923045978646172
 30
0.0
 10
2.346665801234252
 20
-4.904266126618068
 30
0.0
 10
2.295139470028004
 20
-4.874369271990332
 30
0.0
 10
2.258315149736318
 20
-4.845010330002793
 30
0.0
 10
2.163443012573424
 20
-4.750224732363847
 30
0.0
 10
2.100093002196871
 20
-4.633907375759974
 30
0.0
 10
2.068653281996603
 20
-4.553850930149906
 30
0.0
 10
2.028189455754187
 20
-4.411228891279847
 30
0.0
 10
2.008010601028672
 20
-4.263837304090174
 30
0.0
 10
2.002591089265081
 20
-4.200827877654788
 30
0.0
 10
1.999999999999886
 20
-4.137644243688669
 30
0.0
 10
1.999999999999886
 20
-4.074233056662322
 30
0.0
  0
LINE
  5
214A2
330
1F
100
AcDbEntity
  8
1
100
AcDbLine
 10
1.999999999999886
 20
4.074232999999992
 30
0.0
 11
1.999999999999886
 21
-4.074232999999992
 31
0.0
  0
SPLINE
  5
214A3
330
1F
100
AcDbEntity
  8
1
100
AcDbSpline
210
0.0
220
0.0
230
1.0
 70
     8
 71
     5
 72
    24
 73
    18
 74
     0
 42
0.000000001
 43
0.0000000001
 40
0.0
 40
0.0
 40
0.0
 40
0.0
 40
0.0
 40
0.0
 40
0.1059360902353244
 40
0.1059360902353244
 40
0.1059360902353244
 40
0.2118721804706503
 40
0.2118721804706503
 40
0.2118721804706503
 40
0.6303186500020967
 40
0.6303186500020967
 40
0.6303186500020967
 40
1.442388225262605
 40
1.442388225262605
 40
1.442388225262605
 40
2.036857834096201
 40
2.036857834096201
 40
2.036857834096201
 40
2.036857834096201
 40
2.036857834096201
 40
2.036857834096201
 10
2.500000000000653
 20
4.937041117916692
 30
0.0
 10
2.487767553957809
 20
4.93704111791672
 30
0.0
 10
2.475535117135933
 20
4.936470923896621
 30
0.0
 10
2.463251795811345
 20
4.935314646019875
 30
0.0
 10
2.438968082646539
 20
4.931899835998962
 30
0.0
 10
2.415303625359484
 20
4.926345321305291
 30
0.0
 10
2.40361858298894
 20
4.923045978646257
 30
0.0
 10
2.346665801234678
 20
4.904266126618267
 30
0.0
 10
2.295139470028544
 20
4.874369271990687
 30
0.0
 10
2.258315149737057
 20
4.845010330003518
 30
0.0
 10
2.163443012574248
 20
4.750224732364713
 30
0.0
 10
2.10009300219653
 20
4.633907375759676
 30
0.0
 10
2.068653281996034
 20
4.553850930147888
 30
0.0
 10
2.028189455753931
 20
4.411228891278312
 30
0.0
 10
2.008010601028615
 20
4.263837304089577
 30
0.0
 10
2.002591089265052
 20
4.200827877654376
 30
0.0
 10
1.999999999999886
 20
4.13764424368847
 30
0.0
 10
1.999999999999886
 20
4.074233056662308
 30
0.0
  0
LINE
  5
214A4
330
1F
100
AcDbEntity
  8
1
100
AcDbLine
 10
2.499999999999886
 20
4.937040999999993
 30
0.0
 11
6.210386999999883
 21
4.937040999999993
 31
0.0
  0
LINE
  5
214A5
330
1F
100
AcDbEntity
  8
1
100
AcDbLine
 10
10.99999999999988
 20
5.005915000000001
 30
0.0
 11
10.99999999999988
 21
-5.005915000000001
 31
0.0
  0
SPLINE
  5
214A6
330
1F
100
AcDbEntity
  8
1
100
AcDbSpline
210
0.0
220
0.0
230
1.0
 70
     8
 71
     5
 72
    24
 73
    18
 74
     0
 42
0.000000001
 43
0.0000000001
 40
0.0
 40
0.0
 40
0.0
 40
0.0
 40
0.0
 40
0.0
 40
0.187416350077605
 40
0.187416350077605
 40
0.187416350077605
 40
0.3745822674199777
 40
0.3745822674199777
 40
0.3745822674199777
 40
0.7389029318315796
 40
0.7389029318315796
 40
0.7389029318315796
 40
1.62267184063402
 40
1.62267184063402
 40
1.62267184063402
 40
1.786829463668262
 40
1.786829463668262
 40
1.786829463668262
 40
1.786829463668262
 40
1.786829463668262
 40
1.786829463668262
 10
10.49999999999909
 20
5.654229393704113
 30
0.0
 10
10.52129592910614
 20
5.658074482705927
 30
0.0
 10
10.54286820831646
 20
5.660394250731343
 30
0.0
 10
10.56450824498472
 20
5.661084153346848
 30
0.0
 10
10.60750782597017
 20
5.659087383728831
 30
0.0
 10
10.64924080723474
 20
5.650576161834322
 30
0.0
 10
10.66944719790893
 20
5.64475949721546
 30
0.0
 10
10.72693287267256
 20
5.623388569318564
 30
0.0
 10
10.77699867062759
 20
5.591217497865471
 30
0.0
 10
10.80644690083127
 20
5.566438099891627
 30
0.0
 10
10.89632178098318
 20
5.472492963627431
 30
0.0
 10
10.9506866243922
 20
5.355344353822516
 30
0.0
 10
10.97591566374848
 20
5.268858822024071
 30
0.0
 10
10.99370016007151
 20
5.163656070506164
 30
0.0
 10
10.9991600092338
 20
5.056500178283428
 30
0.0
 10
10.99972245740105
 20
5.039668456692936
 30
0.0
 10
10.99999999999991
 20
5.022806074000612
 30
0.0
 10
10.99999999999986
 20
5.005915228989508
 30
0.0
  0
SPLINE
  5
214A7
330
1F
100
AcDbEntity
  8
1
100
AcDbSpline
210
0.0
220
0.0
230
1.0
 70
     8
 71
     5
 72
    24
 73
    18
 74
     0
 42
0.000000001
 43
0.0000000001
 40
0.0
 40
0.0
 40
0.0
 40
0.0
 40
0.0
 40
0.0
 40
0.1874163500857768
 40
0.1874163500857768
 40
0.1874163500857768
 40
0.374582267425439
 40
0.374582267425439
 40
0.374582267425439
 40
0.7389029318521251
 40
0.7389029318521251
 40
0.7389029318521251
 40
1.622671840631394
 40
1.622671840631394
 40
1.622671840631394
 40
1.786829463664252
 40
1.786829463664252
 40
1.786829463664252
 40
1.786829463664252
 40
1.786829463664252
 40
1.786829463664252
 10
10.49999999999909
 20
-5.654229393704127
 30
0.0
 10
10.52129592910705
 20
-5.658074482706098
 30
0.0
 10
10.54286820831834
 20
-5.660394250731556
 30
0.0
 10
10.56450824498131
 20
-5.661084153346934
 30
0.0
 10
10.60750782596741
 20
-5.659087383729215
 30
0.0
 10
10.64924080723267
 20
-5.650576161834806
 30
0.0
 10
10.6694471979066
 20
-5.644759497216185
 30
0.0
 10
10.72693287267174
 20
-5.623388569319217
 30
0.0
 10
10.77699867062804
 20
-5.591217497865443
 30
0.0
 10
10.80644690082485
 20
-5.566438099897936
 30
0.0
 10
10.89632178097867
 20
-5.472492963634479
 30
0.0
 10
10.95068662439195
 20
-5.355344353825586
 30
0.0
 10
10.97591566374859
 20
-5.268858822024412
 30
0.0
 10
10.99370016007165
 20
-5.163656070504345
 30
0.0
 10
10.9991600092338
 20
-5.056500178283073
 30
0.0
 10
10.99972245740107
 20
-5.039668456692652
 30
0.0
 10
10.99999999999991
 20
-5.02280607400047
 30
0.0
 10
10.99999999999988
 20
-5.005915228989522
 30
0.0
  0
LINE
  5
214A8
330
1F
100
AcDbEntity
  8
1
100
AcDbLine
 10
10.28939899999989
 20
5.613602
 30
0.0
 11
10.49999999999988
 21
5.654229
 31
0.0
  0
LINE
  5
214A9
330
1F
100
AcDbEntity
  8
1
100
AcDbLine
 10
10.28939899999989
 20
-5.613602
 30
0.0
 11
10.49999999999988
 21
-5.654229
 31
0.0
  0
SPLINE
  5
214AA
330
1F
100
AcDbEntity
  8
1
100
AcDbSpline
210
0.0
220
0.0
230
1.0
 70
     8
 71
     5
 72
    18
 73
    12
 74
     0
 42
0.000000001
 43
0.0000000001
 40
0.0
 40
0.0
 40
0.0
 40
0.0
 40
0.0
 40
0.0
 40
3.776270224577793
 40
3.776270224577793
 40
3.776270224577793
 40
5.667581179651736
 40
5.667581179651736
 40
5.667581179651736
 40
6.288123429594199
 40
6.288123429594199
 40
6.288123429594199
 40
6.288123429594199
 40
6.288123429594199
 40
6.288123429594199
 10
12.11743930225717
 20
1.737284582912707
 30
0.0
 10
11.90537074826136
 20
1.360625884467197
 30
0.0
 10
11.75831348339048
 20
0.9450659468044193
 30
0.0
 10
11.67543888547735
 20
0.5099131163221671
 30
0.0
 10
11.64429083126816
 20
-0.1518475682796208
 30
0.0
 10
11.75459193423987
 20
-0.7986703395019675
 30
0.0
 10
11.80723385212155
 20
-1.010983590510505
 30
0.0
 10
11.89821888382425
 20
-1.285917234072854
 30
0.0
 10
12.0180864799687
 20
-1.54837773545816
 30
0.0
 10
12.04949773338796
 20
-1.612443889387634
 30
0.0
 10
12.08259076393432
 20
-1.675389479465877
 30
0.0
 10
12.11743930225717
 20
-1.737284582912806
 30
0.0
  0
ARC
  5
214AB
330
1F
100
AcDbEntity
  8
1
100
AcDbCircle
 10
49.28256399999987
 20
184.544938
 30
0.0
 40
194.115231
100
AcDbArc
 50
257.7327150000001
 51
258.4117899999995
  0
ARC
  5
214AC
330
1F
100
AcDbEntity
  8
1
100
AcDbCircle
 10
49.28256399999987
 20
-184.544938
 30
0.0
 40
194.115231
100
AcDbArc
 50
101.5882100000005
 51
102.2672849999999
  0
ARC
  5
214AD
330
1F
100
AcDbEntity
  8
1
100
AcDbCircle
 10
6.192326999999863
 20
13.49222900000001
 30
0.0
 40
8.555448
100
AcDbArc
 50
270.120954
 51
282.4609069999999
  0
ARC
  5
214AE
330
1F
100
AcDbEntity
  8
1
100
AcDbCircle
 10
6.192326999999863
 20
-13.49222900000001
 30
0.0
 40
8.555448
100
AcDbArc
 50
77.53909300000012
 51
89.87904599999993
  0
SPLINE
  5
214AF
330
1F
100
AcDbEntity
  8
1
100
AcDbSpline
210
0.0
220
0.0
230
1.0
 70
     8
 71
     5
 72
    18
 73
    12
 74
     0
 42
0.000000001
 43
0.0000000001
 40
0.0
 40
0.0
 40
0.0
 40
0.0
 40
0.0
 40
0.0
 40
3.036489675339575
 40
3.036489675339575
 40
3.036489675339575
 40
8.06865754025912
 40
8.06865754025912
 40
8.06865754025912
 40
10.06424307257397
 40
10.06424307257397
 40
10.06424307257397
 40
10.06424307257397
 40
10.06424307257397
 40
10.06424307257397
 10
12.11743930225714
 20
-1.737284582912707
 30
0.0
 10
12.28777013865797
 20
-2.039812185119771
 30
0.0
 10
12.48690292599121
 20
-2.324814739525152
 30
0.0
 10
12.70748167569826
 20
-2.592575443544475
 30
0.0
 10
13.33496338204858
 20
-3.261081356451256
 30
0.0
 10
14.04999303180636
 20
-3.828468181339971
 30
0.0
 10
14.51472138062951
 20
-4.150679409857744
 30
0.0
 10
15.18578653550321
 20
-4.565761452328771
 30
0.0
 10
15.87968831167498
 20
-4.938643376427066
 30
0.0
 10
16.07842299831111
 20
-5.041393800267258
 30
0.0
 10
16.27859603500957
 20
-5.141155613043565
 30
0.0
 10
16.48005681864026
 20
-5.238097651062361
 30
0.0
  0
ELLIPSE
  5
214B0
330
1F
100
AcDbEntity
  8
1
100
AcDbEllipse
 10
19.61031999999988
 20
-0.0002209999999963
 30
0.0
 11
-0.0040262802504003
 21
-9.006616592407223
 31
0.0
210
0.0
220
0.0
230
1.0
 40
0.9781479999999996
 41
0.2232515535305865
 42
1.486650876571224
  0
ARC
  5
214B1
330
1F
100
AcDbEntity
  8
1
100
AcDbCircle
 10
23.38124099999987
 20
-2.430937
 30
0.0
 40
5.278484999999998
100
AcDbArc
 50
18.44211100000041
 51
25.25443400000082
  0
SPLINE
  5
214B2
330
1F
100
AcDbEntity
  8
1
100
AcDbSpline
210
0.0
220
0.0
230
1.0
 70
     8
 71
     5
 72
    27
 73
    21
 74
     0
 42
0.000000001
 43
0.0000000001
 40
0.0
 40
0.0
 40
0.0
 40
0.0
 40
0.0
 40
0.0
 40
3.135252652334309
 40
3.135252652334309
 40
3.135252652334309
 40
6.419125823775943
 40
6.419125823775943
 40
6.419125823775943
 40
8.144651563034768
 40
8.144651563034768
 40
8.144651563034768
 40
11.6444068749523
 40
11.6444068749523
 40
11.6444068749523
 40
15.08925368191267
 40
15.08925368191267
 40
15.08925368191267
 40
16.81924273989825
 40
16.81924273989825
 40
16.81924273989825
 40
16.81924273989825
 40
16.81924273989825
 40
16.81924273989825
 10
28.15524577647205
 20
-0.1789184596208031
 30
0.0
 10
28.14795790723631
 20
-0.4424303586118583
 30
0.0
 10
28.12719683288463
 20
-0.7073580845057422
 30
0.0
 10
28.09238892757463
 20
-0.9782407213540693
 30
0.0
 10
27.98788438387439
 20
-1.548713849563057
 30
0.0
 10
27.79932143127286
 20
-2.159372501531478
 30
0.0
 10
27.67768981744175
 20
-2.480816196933375
 30
0.0
 10
27.44375852996615
 20
-2.983059628576484
 30
0.0
 10
27.14120137270231
 20
-3.475092394952596
 30
0.0
 10
27.02882236514222
 20
-3.642262198812076
 30
0.0
 10
26.66688841572872
 20
-4.135301189940506
 30
0.0
 10
26.2429639596042
 20
-4.582913549912973
 30
0.0
 10
25.93601581411238
 20
-4.854762271096831
 30
0.0
 10
25.29188148947179
 20
-5.334045161236218
 30
0.0
 10
24.59053597302296
 20
-5.690595857600769
 30
0.0
 10
24.23130827407852
 20
-5.836552375168082
 30
0.0
 10
23.67956674188864
 20
-6.008594433724738
 30
0.0
 10
23.11393304502877
 20
-6.109240948845922
 30
0.0
 10
22.92322208121911
 20
-6.134901000994148
 30
0.0
 10
22.73190218994617
 20
-6.152429097478204
 30
0.0
 10
22.53993586411374
 20
-6.161823046451985
 30
0.0
  0
ARC
  5
214B3
330
1F
100
AcDbEntity
  8
1
100
AcDbCircle
 10
18.78249099999988
 20
-0.2073379999999929
 30
0.0
 40
7.040900999999998
100
AcDbArc
 50
297.4816819999995
 51
302.2530870000001
  0
ARC
  5
214B4
330
1F
100
AcDbEntity
  8
1
100
AcDbCircle
 10
21.90058399999987
 20
-6.178353999999998
 30
0.0
 40
0.305278
100
AcDbArc
 50
230.9049310000009
 51
295.4470910000008
  0
LINE
  5
214B5
330
1F
100
AcDbEntity
  8
1
100
AcDbLine
 10
21.70863699999987
 20
-6.414585999999999
 30
0.0
 11
21.55689799999988
 21
-6.274946999999997
 31
0.0
  0
ARC
  5
214B6
330
1F
100
AcDbEntity
  8
1
100
AcDbCircle
 10
19.43905499999988
 20
-22.284152
 30
0.0
 40
16.296882
100
AcDbArc
 50
83.18841199999978
 51
88.77450399999998
  0
ELLIPSE
  5
214B7
330
1F
100
AcDbEntity
  8
1
100
AcDbEllipse
 10
21.39063499999986
 20
1.349763999999993
 30
0.0
 11
7.725922107696532
 21
3.886354684829711
 31
0.0
210
0.0
220
0.0
230
1.0
 40
0.8063459999999999
 41
3.697242842052737
 42
4.133573196638044
  0
ARC
  5
214B8
330
1F
100
AcDbEntity
  8
1
100
AcDbCircle
 10
18.37404899999987
 20
-9.028976999999997
 30
0.0
 40
0.410344
100
AcDbArc
 50
275.2896479999995
 51
285.3962590000001
  0
SPLINE
  5
214B9
330
1F
100
AcDbEntity
  8
1
100
AcDbSpline
210
0.0
220
0.0
230
1.0
 70
     8
 71
     5
 72
    15
 73
     9
 74
     0
 42
0.000000001
 43
0.0000000001
 40
0.0
 40
0.0
 40
0.0
 40
0.0
 40
0.0
 40
0.0
 40
1.083633169694975
 40
1.083633169694975
 40
1.083633169694975
 40
1.219279313075467
 40
1.219279313075467
 40
1.219279313075467
 40
1.219279313075467
 40
1.219279313075467
 40
1.219279313075467
 10
17.88886533510595
 20
-9.444521035477777
 30
0.0
 10
17.92685098093179
 20
-9.452833929925105
 30
0.0
 10
17.98906192894898
 20
-9.456458282369055
 30
0.0
 10
18.07138982296874
 20
-9.455724643440461
 30
0.0
 10
18.17680164230654
 20
-9.451735942241256
 30
0.0
 10
18.29332764349411
 20
-9.445113868264257
 30
0.0
 10
18.30642303489665
 20
-9.444346051208469
 30
0.0
 10
18.31964081790036
 20
-9.443548778388134
 30
0.0
 10
18.33297607677835
 20
-9.442723365445971
 30
0.0
  0
LINE
  5
214BA
330
1F
100
AcDbEntity
  8
1
100
AcDbLine
 10
18.33297599999986
 20
-9.442723
 30
0.0
 11
18.41187699999989
 21
-9.437573999999997
 31
0.0
  0
ARC
  5
214BB
330
1F
100
AcDbEntity
  8
1
100
AcDbCircle
 10
17.89518299999986
 20
-9.383834000000007
 30
0.0
 40
0.060743
100
AcDbArc
 50
229.6788240000008
 51
264.0564210000008
  0
SPLINE
  5
214BC
330
1F
100
AcDbEntity
  8
1
100
AcDbSpline
210
0.0
220
0.0
230
1.0
 70
     8
 71
     5
 72
    18
 73
    12
 74
     0
 42
0.000000001
 43
0.0000000001
 40
0.0
 40
0.0
 40
0.0
 40
0.0
 40
0.0
 40
0.0
 40
0.9124595751580534
 40
0.9124595751580534
 40
0.9124595751580534
 40
4.0143498019793
 40
4.0143498019793
 40
4.0143498019793
 40
5.117449256345632
 40
5.117449256345632
 40
5.117449256345632
 40
5.117449256345632
 40
5.117449256345632
 40
5.117449256345632
 10
17.85604003831577
 20
-9.429955448294052
 30
0.0
 10
17.84723036521078
 20
-9.418723344073072
 30
0.0
 10
17.85719849476007
 20
-9.404273550140374
 30
0.0
 10
17.88650653950395
 20
-9.387024227580525
 30
0.0
 10
18.08273165800935
 20
-9.304269082022869
 30
0.0
 10
18.51239598508212
 20
-9.206528343352658
 30
0.0
 10
18.86582062614374
 20
-9.149643311928599
 30
0.0
 10
19.3578720743306
 20
-9.092526952226677
 30
0.0
 10
19.83502855393161
 20
-9.066702692807623
 30
0.0
 10
19.9582073602719
 20
-9.062167555854344
 30
0.0
 10
20.07801729367438
 20
-9.059976874277907
 30
0.0
 10
20.1922410189795
 20
-9.060273341141197
 30
0.0
  0
ARC
  5
214BD
330
1F
100
AcDbEntity
  8
1
100
AcDbCircle
 10
15.92936299999988
 20
15.52297999999999
 30
0.0
 40
24.950111
100
AcDbArc
 50
279.8375940000005
 51
283.0353159999997
  0
LINE
  5
214BE
330
1F
100
AcDbEntity
  8
1
100
AcDbLine
 10
21.55689799999988
 20
-6.274946999999997
 30
0.0
 11
21.37197099999989
 21
-6.102060999999991
 31
0.0
  0
LINE
  5
214BF
330
1F
100
AcDbEntity
  8
1
100
AcDbLine
 10
18.41187899999988
 20
-9.437572000000002
 30
0.0
 11
18.40940099999989
 21
-9.354478999999997
 31
0.0
  0
LINE
  5
214C0
330
1F
100
AcDbEntity
  8
1
100
AcDbLine
 10
28.14721099999989
 20
-0.1700529999999958
 30
0.0
 11
28.15524499999987
 21
-0.1789190000000076
 31
0.0
  0
SPLINE
  5
214C1
330
1F
100
AcDbEntity
  8
1
100
AcDbSpline
210
0.0
220
0.0
230
1.0
 70
     8
 71
     5
 72
    18
 73
    12
 74
     0
 42
0.000000001
 43
0.0000000001
 40
0.0
 40
0.0
 40
0.0
 40
0.0
 40
0.0
 40
0.0
 40
0.845011719602494
 40
0.845011719602494
 40
0.845011719602494
 40
1.786616704227395
 40
1.786616704227395
 40
1.786616704227395
 40
2.223747518842139
 40
2.223747518842139
 40
2.223747518842139
 40
2.223747518842139
 40
2.223747518842139
 40
2.223747518842139
 10
28.14721059029347
 20
-0.1700525581742056
 30
0.0
 10
28.08487007522567
 20
-0.1013366765803312
 30
0.0
 10
28.02762669051697
 20
-0.0203646844147727
 30
0.0
 10
27.97706568813746
 20
0.0737941329682599
 30
0.0
 10
27.89337682429149
 20
0.2965352447945975
 30
0.0
 10
27.86785526291178
 20
0.5516210272638347
 30
0.0
 10
27.87401653917738
 20
0.6872481396082577
 30
0.0
 10
27.90891047694464
 20
0.8766773814533905
 30
0.0
 10
27.97310327565839
 20
1.042366344861619
 30
0.0
 10
27.99620791692527
 20
1.092522236229854
 30
0.0
 10
28.02140025694411
 20
1.139453710120108
 30
0.0
 10
28.04849066052782
 20
1.183384239634719
 30
0.0
  0
SPLINE
  5
214C2
330
1F
100
AcDbEntity
  8
1
100
AcDbSpline
210
0.0
220
0.0
230
1.0
 70
     8
 71
     5
 72
    15
 73
     9
 74
     0
 42
0.000000001
 43
0.0000000001
 40
0.0
 40
0.0
 40
0.0
 40
0.0
 40
0.0
 40
0.0
 40
1.564388204029879
 40
1.564388204029879
 40
1.564388204029879
 40
1.731163875505783
 40
1.731163875505783
 40
1.731163875505783
 40
1.731163875505783
 40
1.731163875505783
 40
1.731163875505783
 10
28.04849093698678
 20
1.183382644418827
 30
0.0
 10
28.07756029098681
 20
1.287565705303606
 30
0.0
 10
28.11538645025129
 20
1.380942850263238
 30
0.0
 10
28.16217798925973
 20
1.458934958076895
 30
0.0
 10
28.22532133605995
 20
1.523397398146769
 30
0.0
 10
28.30136985723886
 20
1.545138343692457
 30
0.0
 10
28.3088223599454
 20
1.546819388027302
 30
0.0
 10
28.31639161470028
 20
1.548063786258893
 30
0.0
 10
28.32407839770159
 20
1.548850972629253
 30
0.0
  0
ELLIPSE
  5
214C3
330
1F
100
AcDbEntity
  8
1
100
AcDbEllipse
 10
28.38930499999987
 20
0.5320189999999912
 30
0.0
 11
0.0580622814595699
 21
-1.017403483390807
 31
0.0
210
0.0
220
0.0
230
1.0
 40
0.395606
 41
2.360282648384259
 42
3.159417383093063
  0
ARC
  5
214C4
330
1F
100
AcDbEntity
  8
1
100
AcDbCircle
 10
23.62374599999987
 20
-1.069344999999998
 30
0.0
 40
5.527453999999998
100
AcDbArc
 50
20.16065500000035
 51
25.0458530000005
  0
ARC
  5
214C5
330
1F
100
AcDbEntity
  8
1
100
AcDbCircle
 10
14.89154299999987
 20
-0.150147000000004
 30
0.0
 40
9.728225
100
AcDbArc
 50
321.8324679999999
 51
328.9033059999996
  0
SPLINE
  5
214C6
330
1F
100
AcDbEntity
  8
1
100
AcDbSpline
210
0.0
220
0.0
230
1.0
 70
     8
 71
     5
 72
    18
 73
    12
 74
     0
 42
0.000000001
 43
0.0000000001
 40
0.0
 40
0.0
 40
0.0
 40
0.0
 40
0.0
 40
0.0
 40
0.0665913144536135
 40
0.0665913144536135
 40
0.0665913144536135
 40
0.2691405172394543
 40
0.2691405172394543
 40
0.2691405172394543
 40
0.6506470319539757
 40
0.6506470319539757
 40
0.6506470319539757
 40
0.6506470319539757
 40
0.6506470319539757
 40
0.6506470319539757
 10
24.09087250867225
 20
-3.324140953993804
 30
0.0
 10
24.09387448804591
 20
-3.315543011741169
 30
0.0
 10
24.0967986806412
 20
-3.306931568327655
 30
0.0
 10
24.09848544598978
 20
-3.297578703924017
 30
0.0
 10
24.1051089756489
 20
-3.26065665345466
 30
0.0
 10
24.10528597528085
 20
-3.222402692718588
 30
0.0
 10
24.10264957174246
 20
-3.193985716053916
 30
0.0
 10
24.08909219399064
 20
-3.114606849866532
 30
0.0
 10
24.06132543148834
 20
-3.04215316969767
 30
0.0
 10
24.03991299596498
 20
-2.99875179540848
 30
0.0
 10
24.01468422711199
 20
-2.957566395147154
 30
0.0
 10
23.98648186000873
 20
-2.92006302400722
 30
0.0
  0
LINE
  5
214C7
330
1F
100
AcDbEntity
  8
1
100
AcDbLine
 10
23.94262999999987
 20
-2.869836999999989
 30
0.0
 11
23.97902999999988
 21
-2.910414000000002
 31
0.0
  0
LINE
  5
214C8
330
1F
100
AcDbEntity
  8
1
100
AcDbLine
 10
23.97902999999988
 20
-2.910414000000002
 30
0.0
 11
23.98648199999988
 21
-2.920062999999998
 31
0.0
  0
ARC
  5
214C9
330
1F
100
AcDbEntity
  8
1
100
AcDbCircle
 10
22.21372599999987
 20
-4.651991000000009
 30
0.0
 40
2.483554
100
AcDbArc
 50
45.86889199999954
 51
89.9072869999998
  0
SPLINE
  5
214CA
330
1F
100
AcDbEntity
  8
1
100
AcDbSpline
210
0.0
220
0.0
230
1.0
 70
     8
 71
     5
 72
    24
 73
    18
 74
     0
 42
0.000000001
 43
0.0000000001
 40
0.0
 40
0.0
 40
0.0
 40
0.0
 40
0.0
 40
0.0
 40
2.062436157609837
 40
2.062436157609837
 40
2.062436157609837
 40
3.500594822324631
 40
3.500594822324631
 40
3.500594822324631
 40
5.051596050099965
 40
5.051596050099965
 40
5.051596050099965
 40
5.847115817754793
 40
5.847115817754793
 40
5.847115817754793
 40
7.305102098047917
 40
7.305102098047917
 40
7.305102098047917
 40
7.305102098047917
 40
7.305102098047917
 40
7.305102098047917
 10
22.21774516619885
 20
-2.16840950924967
 30
0.0
 10
21.98722711507702
 20
-2.168406772691156
 30
0.0
 10
21.75525230300352
 20
-2.196013234643942
 30
0.0
 10
21.52435415898333
 20
-2.253028223317357
 30
0.0
 10
21.14174326783658
 20
-2.40443341363877
 30
0.0
 10
20.79514517170853
 20
-2.658903619978929
 30
0.0
 10
20.66120231915414
 20
-2.782225988473413
 30
0.0
 10
20.41098772735421
 20
-3.077509252089129
 30
0.0
 10
20.23894380236976
 20
-3.447412492253803
 30
0.0
 10
20.17767811426109
 20
-3.656098297934335
 30
0.0
 10
20.13585681431135
 20
-3.984133060224792
 30
0.0
 10
20.1664003896982
 20
-4.307862259083762
 30
0.0
 10
20.18498807074687
 20
-4.416661581264037
 30
0.0
 10
20.25808679522314
 20
-4.714384914024691
 30
0.0
 10
20.3840941512924
 20
-4.984641897913661
 30
0.0
 10
20.48360709848768
 20
-5.145166200066014
 30
0.0
 10
20.59569904761813
 20
-5.289663929227103
 30
0.0
 10
20.71811418208213
 20
-5.419227119791855
 30
0.0
  0
ARC
  5
214CB
330
1F
100
AcDbEntity
  8
1
100
AcDbCircle
 10
71.33243099999987
 20
42.39157299999999
 30
0.0
 40
69.62529
100
AcDbArc
 50
223.3684419999997
 51
224.1464379999988
  0
SPLINE
  5
214CC
330
1F
100
AcDbEntity
  8
1
100
AcDbSpline
210
0.0
220
0.0
230
1.0
 70
     8
 71
     5
 72
    12
 73
     6
 74
     0
 42
0.000000001
 43
0.0000000001
 40
0.0
 40
0.0
 40
0.0
 40
0.0
 40
0.0
 40
0.0
 40
1.434860268581743
 40
1.434860268581743
 40
1.434860268581743
 40
1.434860268581743
 40
1.434860268581743
 40
1.434860268581743
 10
28.77334432651472
 20
2.739015693567466
 30
0.0
 10
28.77661086962735
 20
2.740938319120346
 30
0.0
 10
28.77605376310675
 20
2.751671796492132
 30
0.0
 10
28.77210397187563
 20
2.770221836667147
 30
0.0
 10
28.76443260667514
 20
2.797580548140075
 30
0.0
 10
28.75165875692085
 20
2.836978183806323
 30
0.0
  0
LINE
  5
214CD
330
1F
100
AcDbEntity
  8
1
100
AcDbLine
 10
28.75165899999988
 20
2.836978000000001
 30
0.0
 11
28.71589699999987
 21
2.940245000000004
 31
0.0
  0
ARC
  5
214CE
330
1F
100
AcDbEntity
  8
1
100
AcDbCircle
 10
28.94094799999988
 20
2.248222999999995
 30
0.0
 40
0.51875
100
AcDbArc
 50
108.9106170000004
 51
117.209517999999
  0
LINE
  5
214CF
330
1F
100
AcDbEntity
  8
1
100
AcDbLine
 10
28.70367299999987
 20
2.709721000000001
 30
0.0
 11
28.67230299999988
 21
2.695074000000005
 31
0.0
  0
ARC
  5
214D0
330
1F
100
AcDbEntity
  8
1
100
AcDbCircle
 10
21.76451099999988
 20
0.0141130000000089
 30
0.0
 40
6.391818999999999
100
AcDbArc
 50
10.54061199999998
 51
21.8190760000011
  0
SPLINE
  5
214D1
330
1F
100
AcDbEntity
  8
1
100
AcDbSpline
210
0.0
220
0.0
230
1.0
 70
     8
 71
     5
 72
    15
 73
     9
 74
     0
 42
0.000000001
 43
0.0000000001
 40
0.0
 40
0.0
 40
0.0
 40
0.0
 40
0.0
 40
0.0
 40
8.905194752516379
 40
8.905194752516379
 40
8.905194752516379
 40
15.24047853404166
 40
15.24047853404166
 40
15.24047853404166
 40
15.24047853404166
 40
15.24047853404166
 40
15.24047853404166
 10
27.69841755808022
 20
2.389798117857935
 30
0.0
 10
26.89408837522595
 20
2.164075801901972
 30
0.0
 10
26.01608218537109
 20
2.048967303516178
 30
0.0
 10
25.08558036340071
 20
2.053639768265128
 30
0.0
 10
23.44442486101105
 20
2.273073616343054
 30
0.0
 10
21.78747358914941
 20
2.84723675761036
 30
0.0
 10
21.10441304889093
 20
3.146313516253201
 30
0.0
 10
20.43513789215353
 20
3.50356187740283
 30
0.0
 10
19.78759651421833
 20
3.915174265476807
 30
0.0
  0
ARC
  5
214D2
330
1F
100
AcDbEntity
  8
1
100
AcDbCircle
 10
26.75479699999988
 20
7.135582999999996
 30
0.0
 40
4.837823
100
AcDbArc
 50
281.2456320000002
 51
293.3557049999994
  0
LINE
  5
214D3
330
1F
100
AcDbEntity
  8
1
100
AcDbLine
 10
13.71882099999988
 20
8.337034000000002
 30
0.0
 11
13.17173699999986
 21
8.812353000000001
 31
0.0
  0
SPLINE
  5
214D4
330
1F
100
AcDbEntity
  8
1
100
AcDbSpline
210
0.0
220
0.0
230
1.0
 70
     8
 71
     5
 72
    15
 73
     9
 74
     0
 42
0.000000001
 43
0.0000000001
 40
0.0
 40
0.0
 40
0.0
 40
0.0
 40
0.0
 40
0.0
 40
1.016060717189837
 40
1.016060717189837
 40
1.016060717189837
 40
1.61650658993149
 40
1.61650658993149
 40
1.61650658993149
 40
1.61650658993149
 40
1.61650658993149
 40
1.61650658993149
 10
13.61327804908273
 20
9.156841004935145
 30
0.0
 10
13.49927050394242
 20
9.147960994671194
 30
0.0
 10
13.38988249104693
 20
9.132788377268042
 30
0.0
 10
13.28777594508131
 20
9.110048333401351
 30
0.0
 10
13.16008045314558
 20
9.059871805062499
 30
0.0
 10
13.10140153146622
 20
8.991711318655404
 30
0.0
 10
13.09058810608485
 20
8.964415042870655
 30
0.0
 10
13.09060615282658
 20
8.935953199976296
 30
0.0
 10
13.1003262441076
 20
8.90718497348871
 30
0.0
  0
ARC
  5
214D5
330
1F
100
AcDbEntity
  8
1
100
AcDbCircle
 10
13.31433099999987
 20
8.995780999999993
 30
0.0
 40
0.231965
100
AcDbArc
 50
202.4891079999992
 51
232.1390659999992
  0
ARC
  5
214D6
330
1F
100
AcDbEntity
  8
1
100
AcDbCircle
 10
21.92674999999988
 20
-97.79264300000001
 30
0.0
 40
107.272128
100
AcDbArc
 50
93.28863600000063
 51
94.4448180000006
  0
ARC
  5
214D7
330
1F
100
AcDbEntity
  8
1
100
AcDbCircle
 10
15.10836299999988
 20
8.501506000000006
 30
0.0
 40
1.040756999999999
100
AcDbArc
 50
50.3285589999998
 51
66.9846169999993
  0
ARC
  5
214D8
330
1F
100
AcDbEntity
  8
1
100
AcDbCircle
 10
16.81718999999987
 20
27.707031
 30
0.0
 40
18.294353
100
AcDbArc
 50
264.4163359999993
 51
265.9187079999994
  0
LINE
  5
214D9
330
1F
100
AcDbEntity
  8
1
100
AcDbLine
 10
15.03711699999988
 20
9.498991000000003
 30
0.0
 11
15.01647999999988
 21
9.5
 31
0.0
  0
LINE
  5
214DA
330
1F
100
AcDbEntity
  8
1
100
AcDbLine
 10
15.58288299999986
 20
9.428235
 30
0.0
 11
15.69311999999988
 21
9.420040999999997
 31
0.0
  0
SPLINE
  5
214DB
330
1F
100
AcDbEntity
  8
1
100
AcDbSpline
210
0.0
220
0.0
230
1.0
 70
     8
 71
     5
 72
    18
 73
    12
 74
     0
 42
0.000000001
 43
0.0000000001
 40
0.0
 40
0.0
 40
0.0
 40
0.0
 40
0.0
 40
0.0
 40
3.036489675233466
 40
3.036489675233466
 40
3.036489675233466
 40
8.068657540878485
 40
8.068657540878485
 40
8.068657540878485
 40
10.06424307324834
 40
10.06424307324834
 40
10.06424307324834
 40
10.06424307324834
 40
10.06424307324834
 40
10.06424307324834
 10
12.11743930225714
 20
1.737284582912721
 30
0.0
 10
12.287770138652
 20
2.039812185109212
 30
0.0
 10
12.48690292599573
 20
2.324814739494755
 30
0.0
 10
12.70748167557522
 20
2.592575443407014
 30
0.0
 10
13.33496338181524
 20
3.261081356254038
 30
0.0
 10
14.04999303170018
 20
3.828468181257179
 30
0.0
 10
14.51472138027841
 20
4.150679409647779
 30
0.0
 10
15.1857865353509
 20
4.565761452238888
 30
0.0
 10
15.87968831165253
 20
4.93864337641088
 30
0.0
 10
16.07842299830119
 20
5.041393800259697
 30
0.0
 10
16.27859603500403
 20
5.14115561304095
 30
0.0
 10
16.48005681864026
 20
5.238097651062403
 30
0.0
  0
ARC
  5
214DC
330
1F
100
AcDbEntity
  8
1
100
AcDbCircle
 10
-7.625336000000118
 20
-29.617806
 30
0.0
 40
43.36038799999999
100
AcDbArc
 50
56.22518799999982
 51
58.35121300000047
  0
SPLINE
  5
214DD
330
1F
100
AcDbEntity
  8
1
100
AcDbSpline
210
0.0
220
0.0
230
1.0
 70
     8
 71
     5
 72
    12
 73
     6
 74
     0
 42
0.000000001
 43
0.0000000001
 40
0.0
 40
0.0
 40
0.0
 40
0.0
 40
0.0
 40
0.0
 40
3.745056079408537
 40
3.745056079408537
 40
3.745056079408537
 40
3.745056079408537
 40
3.745056079408537
 40
3.745056079408537
 10
15.12629560609764
 20
7.293982119200379
 30
0.0
 10
14.79852521556762
 20
7.495607930054134
 30
0.0
 10
14.49348805633769
 20
7.707812960926332
 30
0.0
 10
14.21254212696112
 20
7.923607840893765
 30
0.0
 10
13.954998293914
 20
8.135590170048914
 30
0.0
 10
13.71882139626748
 20
8.33703433795921
 30
0.0
  0
ARC
  5
214DE
330
1F
100
AcDbEntity
  8
1
100
AcDbCircle
 10
19.63002899999986
 20
-1.332956999999993
 30
0.0
 40
7.287136
100
AcDbArc
 50
106.3280190000003
 51
115.6117010000003
  0
ARC
  5
214DF
330
1F
100
AcDbEntity
  8
1
100
AcDbCircle
 10
25.79786199999987
 20
13.35507200000001
 30
0.0
 40
11.190909
100
AcDbArc
 50
229.0263410000004
 51
237.5155999999998
  0
ARC
  5
214E0
330
1F
100
AcDbEntity
  8
1
100
AcDbCircle
 10
-62.20806600000014
 20
-88.11658599999999
 30
0.0
 40
123.12783
100
AcDbArc
 50
49.06856000000058
 51
49.60745599999935
  0
ARC
  5
214E1
330
1F
100
AcDbEntity
  8
1
100
AcDbCircle
 10
-4.766864000000111
 20
-25.361554
 30
0.0
 40
38.233468
100
AcDbArc
 50
54.23101500000086
 51
56.23997199999951
  0
LINE
  5
214E2
330
1F
100
AcDbEntity
  8
1
100
AcDbLine
 10
28.71589499999988
 20
2.940243000000009
 30
0.0
 11
28.36011999999988
 21
2.740149000000002
 31
0.0
  0
LINE
  5
214E3
330
1F
100
AcDbEntity
  8
1
100
AcDbLine
 10
16.21104399999987
 20
7.557390999999995
 30
0.0
 11
15.62548499999988
 21
6.981746000000001
 31
0.0
  0
LINE
  5
214E4
330
1F
100
AcDbEntity
  8
1
100
AcDbLine
 10
15.77297599999988
 20
9.302846999999999
 30
0.0
 11
16.21104399999987
 21
7.557390999999995
 31
0.0
  0
LINE
  5
214E5
330
1F
100
AcDbEntity
  8
SK1
100
AcDbLine
 10
-20.00000000000011
 20
-4.0
 30
0.0
 11
-19.00000000000011
 21
-5.0
 31
0.0
  0
LINE
  5
214E6
330
1F
100
AcDbEntity
  8
SK1
100
AcDbLine
 10
-20.00000000000011
 20
4.0
 30
0.0
 11
-19.00000000000011
 21
5.0
 31
0.0
  0
LINE
  5
214E7
330
1F
100
AcDbEntity
  8
SK1
100
AcDbLine
 10
-9.521068000000127
 20
-5.0
 30
0.0
 11
-19.00000000000011
 21
-5.0
 31
0.0
  0
LINE
  5
214E8
330
1F
100
AcDbEntity
  8
SK1
100
AcDbLine
 10
-9.521068000000127
 20
5.0
 30
0.0
 11
-19.00000000000011
 21
5.0
 31
0.0
  0
LINE
  5
214E9
330
1F
100
AcDbEntity
  8
SK1
100
AcDbLine
 10
-9.153301000000112
 20
-4.632232999999999
 30
0.0
 11
-9.521068000000127
 21
-5.0
 31
0.0
  0
LINE
  5
214EA
330
1F
100
AcDbEntity
  8
SK1
100
AcDbLine
 10
-9.153301000000112
 20
4.632232999999999
 30
0.0
 11
-9.521068000000127
 21
5.0
 31
0.0
  0
ARC
  5
214EB
330
1F
100
AcDbEntity
  8
SK1
100
AcDbCircle
 10
-7.38553400000012
 20
-6.400000000000005
 30
0.0
 40
2.5
100
AcDbArc
 50
44.99999999999942
 51
135.0000000000006
  0
ARC
  5
214EC
330
1F
100
AcDbEntity
  8
SK1
100
AcDbCircle
 10
-7.38553400000012
 20
6.400000000000005
 30
0.0
 40
2.5
100
AcDbArc
 50
224.9999999999994
 51
315.0000000000006
  0
LINE
  5
214ED
330
1F
100
AcDbEntity
  8
SK1
100
AcDbLine
 10
-5.617767000000128
 20
-4.632232999999999
 30
0.0
 11
-5.000000000000113
 21
-5.25
 31
0.0
  0
LINE
  5
214EE
330
1F
100
AcDbEntity
  8
SK1
100
AcDbLine
 10
-5.617767000000128
 20
4.632232999999999
 30
0.0
 11
-5.000000000000113
 21
5.25
 31
0.0
  0
LINE
  5
214EF
330
1F
100
AcDbEntity
  8
SK1
100
AcDbLine
 10
-1.320577000000128
 20
-5.25
 30
0.0
 11
-5.000000000000113
 21
-5.25
 31
0.0
  0
LINE
  5
214F0
330
1F
100
AcDbEntity
  8
SK1
100
AcDbLine
 10
-1.320577000000128
 20
5.25
 30
0.0
 11
-5.000000000000113
 21
5.25
 31
0.0
  0
LINE
  5
214F1
330
1F
100
AcDbEntity
  8
SK1
100
AcDbLine
 10
-0.9000000000001193
 20
-5.007180000000005
 30
0.0
 11
-1.320577000000128
 21
-5.25
 31
0.0
  0
LINE
  5
214F2
330
1F
100
AcDbEntity
  8
SK1
100
AcDbLine
 10
-0.9000000000001193
 20
5.007180000000005
 30
0.0
 11
-1.320577000000128
 21
5.25
 31
0.0
  0
ARC
  5
214F3
330
1F
100
AcDbEntity
  8
SK1
100
AcDbCircle
 10
-0.5000000000001137
 20
-5.699999999999988
 30
0.0
 40
0.8
100
AcDbArc
 50
51.31923400000044
 51
119.9999989999992
  0
ARC
  5
214F4
330
1F
100
AcDbEntity
  8
SK1
100
AcDbCircle
 10
-0.5000000000001137
 20
5.700000000000002
 30
0.0
 40
0.8
100
AcDbArc
 50
240.0000010000008
 51
308.6803170000002
  0
LINE
  5
214F5
330
1F
100
AcDbEntity
  8
1
100
AcDbLine
 10
-0.0000000000001137
 20
-8.799999999999997
 30
0.0
 11
0.1999999999998749
 21
-9.0
 31
0.0
  0
LINE
  5
214F6
330
1F
100
AcDbEntity
  8
1
100
AcDbLine
 10
-0.0000000000001137
 20
8.799999999999997
 30
0.0
 11
0.1999999999998749
 21
9.0
 31
0.0
  0
LINE
  5
214F7
330
1F
100
AcDbEntity
  8
1
100
AcDbLine
 10
0.1999999999998749
 20
-9.0
 30
0.0
 11
6.210386999999883
 21
-9.0
 31
0.0
  0
LINE
  5
214F8
330
1F
100
AcDbEntity
  8
1
100
AcDbLine
 10
0.1999999999998749
 20
9.0
 30
0.0
 11
6.210386999999883
 21
9.0
 31
0.0
  0
ARC
  5
214F9
330
1F
100
AcDbEntity
  8
1
100
AcDbCircle
 10
12.11743899999987
 20
-5.499991999999991
 30
0.0
 40
14.999992
100
AcDbArc
 50
89.99999900000023
 51
97.00000300000009
  0
LINE
  5
214FA
330
1F
100
AcDbEntity
  8
1
100
AcDbLine
 10
8.038427999999868
 20
9.111807999999996
 30
0.0
 11
10.28939899999989
 21
9.388192000000003
 31
0.0
  0
ARC
  5
214FB
330
1F
100
AcDbEntity
  8
1
100
AcDbCircle
 10
12.11743899999987
 20
5.499991999999991
 30
0.0
 40
14.999992
100
AcDbArc
 50
262.9999969999999
 51
270.0000009999998
  0
LINE
  5
214FC
330
1F
100
AcDbEntity
  8
1
100
AcDbLine
 10
8.038427999999868
 20
-9.111807999999996
 30
0.0
 11
10.28939899999989
 21
-9.388192000000003
 31
0.0
  0
ARC
  5
214FD
330
1F
100
AcDbEntity
  8
1
100
AcDbCircle
 10
6.210387999999881
 20
23.999999
 30
0.0
 40
14.999999
100
AcDbArc
 50
270.0
 51
276.9999999999995
  0
ARC
  5
214FE
330
1F
100
AcDbEntity
  8
1
100
AcDbCircle
 10
6.210387999999881
 20
-23.999999
 30
0.0
 40
14.999999
100
AcDbArc
 50
83.00000000000057
 51
90.0
  0
LINE
  5
214FF
330
1F
100
AcDbEntity
  8
1
100
AcDbLine
 10
12.11743899999987
 20
-9.5
 30
0.0
 11
16.48005699999987
 21
-9.5
 31
0.0
  0
ARC
  5
21500
330
1F
100
AcDbEntity
  8
1
100
AcDbCircle
 10
16.48005699999987
 20
20.5
 30
0.0
 40
30.0
100
AcDbArc
 50
270.0
 51
273.5410669999997
  0
ARC
  5
21501
330
1F
100
AcDbEntity
  8
1
100
AcDbCircle
 10
19.99969199999987
 20
-0.0000599999999906
 30
0.0
 40
9.200312
100
AcDbArc
 50
4.278552999999865
 51
17.96061000000025
  0
LINE
  5
21502
330
1F
100
AcDbEntity
  8
1
100
AcDbLine
 10
12.11743899999987
 20
9.5
 30
0.0
 11
15.01647999999988
 21
9.5
 31
0.0
  0
SPLINE
  5
21503
330
1F
100
AcDbEntity
  8
1
100
AcDbSpline
210
0.0
220
0.0
230
1.0
 70
     8
 71
     5
 72
    24
 73
    18
 74
     0
 42
0.000000001
 43
0.0000000001
 40
0.0
 40
0.0
 40
0.0
 40
0.0
 40
0.0
 40
0.0
 40
1.987183557814481
 40
1.987183557814481
 40
1.987183557814481
 40
3.314760664463268
 40
3.314760664463268
 40
3.314760664463268
 40
4.648926825127427
 40
4.648926825127427
 40
4.648926825127427
 40
5.317320239519295
 40
5.317320239519295
 40
5.317320239519295
 40
6.592194910113952
 40
6.592194910113952
 40
6.592194910113952
 40
6.592194910113952
 40
6.592194910113952
 40
6.592194910113952
 10
23.45389715636281
 20
2.360175276570686
 30
0.0
 10
23.71316775060507
 20
2.462607676891366
 30
0.0
 10
23.96054322302453
 20
2.595705094261489
 30
0.0
 10
24.19006596290078
 20
2.756879956436804
 30
0.0
 10
24.54064335009821
 20
3.069487489611645
 30
0.0
 10
24.82447242476067
 20
3.443020776451334
 30
0.0
 10
24.92769887734013
 20
3.602672157701093
 30
0.0
 10
25.106550816327
 20
3.934439644095846
 30
0.0
 10
25.23286167704004
 20
4.29005010608003
 30
0.0
 10
25.2825165810838
 20
4.472162076095969
 30
0.0
 10
25.33895142694252
 20
4.751595704061628
 30
0.0
 10
25.36251938553596
 20
5.03479579939615
 30
0.0
 10
25.3665017152068
 20
5.129809693636985
 30
0.0
 10
25.36598484368079
 20
5.405110735281112
 30
0.0
 10
25.32829942828397
 20
5.677731817006829
 30
0.0
 10
25.28250603675744
 20
5.874749866458827
 30
0.0
 10
25.23666110841694
 20
6.049555107601463
 30
0.0
 10
25.19081549029574
 20
6.224360214098908
 30
0.0
  0
SPLINE
  5
21504
330
1F
100
AcDbEntity
  8
1
100
AcDbSpline
210
0.0
220
0.0
230
1.0
 70
     8
 71
     5
 72
    24
 73
    18
 74
     0
 42
0.000000001
 43
0.0000000001
 40
0.0
 40
0.0
 40
0.0
 40
0.0
 40
0.0
 40
0.0
 40
0.6462069284197888
 40
0.6462069284197888
 40
0.6462069284197888
 40
1.29064604127885
 40
1.29064604127885
 40
1.29064604127885
 40
2.594207483969868
 40
2.594207483969868
 40
2.594207483969868
 40
5.210928591327125
 40
5.210928591327125
 40
5.210928591327125
 40
6.497886983897005
 40
6.497886983897005
 40
6.497886983897005
 40
6.497886983897005
 40
6.497886983897005
 40
6.497886983897005
 10
21.05210644074279
 20
7.937120310552217
 30
0.0
 10
20.97355538071878
 20
7.891656714004597
 30
0.0
 10
20.89500446583256
 20
7.846192887098794
 30
0.0
 10
20.81702559847625
 20
7.799708223913228
 30
0.0
 10
20.6638935250964
 20
7.702944626632699
 30
0.0
 10
20.51873845402258
 20
7.594535826858319
 30
0.0
 10
20.44762425949324
 20
7.534894775562278
 30
0.0
 10
20.24484698870202
 20
7.350193136895782
 30
0.0
 10
20.06464585744743
 20
7.141581150595357
 30
0.0
 10
19.95350885575996
 20
6.995577915869347
 30
0.0
 10
19.65401781195786
 20
6.529047182120848
 30
0.0
 10
19.46466681049844
 20
6.001161429649542
 30
0.0
 10
19.3918880027806
 20
5.63545289992129
 30
0.0
 10
19.36529346653114
 20
5.077188254490508
 30
0.0
 10
19.46082617674455
 20
4.531736963532893
 30
0.0
 10
19.50523034329302
 20
4.358069490189564
 30
0.0
 10
19.56240285105571
 20
4.184839021864547
 30
0.0
 10
19.63132777354116
 20
4.01640706668563
 30
0.0
  0
SPLINE
  5
21505
330
1F
100
AcDbEntity
  8
1
100
AcDbSpline
210
0.0
220
0.0
230
1.0
 70
     8
 71
     5
 72
    21
 73
    15
 74
     0
 42
0.000000001
 43
0.0000000001
 40
0.0
 40
0.0
 40
0.0
 40
0.0
 40
0.0
 40
0.0
 40
0.5275732688174001
 40
0.5275732688174001
 40
0.5275732688174001
 40
1.268433526882956
 40
1.268433526882956
 40
1.268433526882956
 40
2.00865885297736
 40
2.00865885297736
 40
2.00865885297736
 40
2.513873456227805
 40
2.513873456227805
 40
2.513873456227805
 40
2.513873456227805
 40
2.513873456227805
 40
2.513873456227805
 10
21.00950862005891
 20
7.916923616162108
 30
0.0
 10
21.07769231570097
 20
7.944682380159278
 30
0.0
 10
21.14587649140168
 20
7.972439748480098
 30
0.0
 10
21.18362090739581
 20
7.981913464448169
 30
0.0
 10
21.35436732554123
 20
8.02687373686507
 30
0.0
 10
21.52485012277308
 20
8.075354419600969
 30
0.0
 10
21.60986173091669
 20
8.099018510397911
 30
0.0
 10
21.80694387167031
 20
8.165208532138606
 30
0.0
 10
22.00246247236188
 20
8.238470475942165
 30
0.0
 10
22.09013793606235
 20
8.270289590820695
 30
0.0
 10
22.25813424277135
 20
8.32323044791164
 30
0.0
 10
22.43012972873373
 20
8.361474088953713
 30
0.0
 10
22.48652268032947
 20
8.370574350199959
 30
0.0
 10
22.55744770854443
 20
8.378911939882868
 30
0.0
 10
22.62837284391105
 20
8.387248761077529
 30
0.0
  0
SPLINE
  5
21506
330
1F
100
AcDbEntity
  8
1
100
AcDbSpline
210
0.0
220
0.0
230
1.0
 70
     8
 71
     5
 72
    21
 73
    15
 74
     0
 42
0.000000001
 43
0.0000000001
 40
0.0
 40
0.0
 40
0.0
 40
0.0
 40
0.0
 40
0.0
 40
0.7119819003992621
 40
0.7119819003992621
 40
0.7119819003992621
 40
1.754134555561016
 40
1.754134555561016
 40
1.754134555561016
 40
2.783664038539267
 40
2.783664038539267
 40
2.783664038539267
 40
3.475608352071713
 40
3.475608352071713
 40
3.475608352071713
 40
3.475608352071713
 40
3.475608352071713
 40
3.475608352071713
 10
22.62837280595244
 20
8.387248783528036
 30
0.0
 10
22.72858404012126
 20
8.396617494164303
 30
0.0
 10
22.82879532701853
 20
8.405985482218966
 30
0.0
 10
22.91496001712835
 20
8.410721222815737
 30
0.0
 10
23.1632349685585
 20
8.409809083381702
 30
0.0
 10
23.40955015956996
 20
8.377488800316086
 30
0.0
 10
23.55082196614578
 20
8.345204869352329
 30
0.0
 10
23.82794088259422
 20
8.249272494447325
 30
0.0
 10
24.07602932936177
 20
8.096392116374786
 30
0.0
 10
24.18986557454525
 20
8.007766198223336
 30
0.0
 10
24.3635184785542
 20
7.842033932887432
 30
0.0
 10
24.51356048003336
 20
7.65563620720502
 30
0.0
 10
24.56022980660112
 20
7.590259431560753
 30
0.0
 10
24.61242727587282
 20
7.509507560184317
 30
0.0
 10
24.66462408527946
 20
7.428755232310862
 30
0.0
  0
LINE
  5
21507
330
1F
100
AcDbEntity
  8
1
100
AcDbLine
 10
24.66462399999986
 20
7.428754999999995
 30
0.0
 11
24.71739099999988
 21
7.340721999999999
 31
0.0
  0
SPLINE
  5
21508
330
1F
100
AcDbEntity
  8
1
100
AcDbSpline
210
0.0
220
0.0
230
1.0
 70
     8
 71
     5
 72
    21
 73
    15
 74
     0
 42
0.000000001
 43
0.0000000001
 40
0.0
 40
0.0
 40
0.0
 40
0.0
 40
0.0
 40
0.0
 40
0.5295102024359776
 40
0.5295102024359776
 40
0.5295102024359776
 40
1.239082067357981
 40
1.239082067357981
 40
1.239082067357981
 40
1.611552757552774
 40
1.611552757552774
 40
1.611552757552774
 40
1.786425968270725
 40
1.786425968270725
 40
1.786425968270725
 40
1.786425968270725
 40
1.786425968270725
 40
1.786425968270725
 10
24.71739129633136
 20
7.340722397165791
 30
0.0
 10
24.75458947715043
 20
7.277062013953099
 30
0.0
 10
24.79178675293517
 20
7.213401087394373
 30
0.0
 10
24.81984562478312
 20
7.155620037189095
 30
0.0
 10
24.89176475755537
 20
6.998144359332087
 30
0.0
 10
24.95319828579915
 20
6.835496392022179
 30
0.0
 10
24.98174788236051
 20
6.753159151587766
 30
0.0
 10
25.03428514800007
 20
6.610123345385488
 30
0.0
 10
25.09078534421318
 20
6.46830385501768
 30
0.0
 10
25.10400262534543
 20
6.435923691376004
 30
0.0
 10
25.13543525487907
 20
6.365288746449465
 30
0.0
 10
25.16450554244011
 20
6.293653448268344
 30
0.0
 10
25.17332538988657
 20
6.270572395595493
 30
0.0
 10
25.18207031241895
 20
6.247466850838208
 30
0.0
 10
25.19081511278401
 20
6.224361257410748
 30
0.0
  0
SPLINE
  5
21509
330
1F
100
AcDbEntity
  8
1
100
AcDbSpline
210
0.0
220
0.0
230
1.0
 70
     8
 71
     5
 72
    24
 73
    18
 74
     0
 42
0.000000001
 43
0.0000000001
 40
0.0
 40
0.0
 40
0.0
 40
0.0
 40
0.0
 40
0.0
 40
1.987183557814478
 40
1.987183557814478
 40
1.987183557814478
 40
3.314760664463256
 40
3.314760664463256
 40
3.314760664463256
 40
4.648926825128216
 40
4.648926825128216
 40
4.648926825128216
 40
5.317320239520085
 40
5.317320239520085
 40
5.317320239520085
 40
6.59219490983087
 40
6.59219490983087
 40
6.59219490983087
 40
6.59219490983087
 40
6.59219490983087
 40
6.59219490983087
 10
23.45389715636273
 20
2.360175276570714
 30
0.0
 10
23.71316775060498
 20
2.462607676891394
 30
0.0
 10
23.96054322302441
 20
2.595705094261617
 30
0.0
 10
24.19006596290063
 20
2.756879956437046
 30
0.0
 10
24.54064335009809
 20
3.069487489611532
 30
0.0
 10
24.82447242476053
 20
3.443020776451476
 30
0.0
 10
24.92769887733994
 20
3.602672157701022
 30
0.0
 10
25.10655081632695
 20
3.934439644096073
 30
0.0
 10
25.23286167703989
 20
4.290050106080173
 30
0.0
 10
25.2825165810836
 20
4.472162076095671
 30
0.0
 10
25.33895142694234
 20
4.7515957040616
 30
0.0
 10
25.36251938553579
 20
5.034795799396164
 30
0.0
 10
25.36650171520662
 20
5.129809693637028
 30
0.0
 10
25.36598484368071
 20
5.405110735240867
 30
0.0
 10
25.3282994282948
 20
5.677731816927291
 30
0.0
 10
25.28250603673686
 20
5.874749866536774
 30
0.0
 10
25.23666110840657
 20
6.049555107640401
 30
0.0
 10
25.19081549029556
 20
6.224360214098936
 30
0.0
  0
SPLINE
  5
2150A
330
1F
100
AcDbEntity
  8
1
100
AcDbSpline
210
0.0
220
0.0
230
1.0
 70
     8
 71
     5
 72
    24
 73
    18
 74
     0
 42
0.000000001
 43
0.0000000001
 40
0.0
 40
0.0
 40
0.0
 40
0.0
 40
0.0
 40
0.0
 40
0.6462069284197866
 40
0.6462069284197866
 40
0.6462069284197866
 40
1.290646041274985
 40
1.290646041274985
 40
1.290646041274985
 40
2.5942074839634
 40
2.5942074839634
 40
2.5942074839634
 40
5.210928591239144
 40
5.210928591239144
 40
5.210928591239144
 40
6.497886983844266
 40
6.497886983844266
 40
6.497886983844266
 40
6.497886983844266
 40
6.497886983844266
 40
6.497886983844266
 10
21.05210644074285
 20
7.937120310552131
 30
0.0
 10
20.97355538071884
 20
7.891656714004511
 30
0.0
 10
20.89500446583258
 20
7.846192887098709
 30
0.0
 10
20.81702559847631
 20
7.7997082239131
 30
0.0
 10
20.66389352509691
 20
7.702944626632927
 30
0.0
 10
20.51873845402349
 20
7.594535826858844
 30
0.0
 10
20.44762425949247
 20
7.534894775561468
 30
0.0
 10
20.244846988702
 20
7.350193136895541
 30
0.0
 10
20.06464585744797
 20
7.14158115059584
 30
0.0
 10
19.95350885575973
 20
6.995577915868651
 30
0.0
 10
19.65401781196385
 20
6.529047182130113
 30
0.0
 10
19.46466681050677
 20
6.001161429671412
 30
0.0
 10
19.39188800277958
 20
5.63545289989824
 30
0.0
 10
19.36529346653299
 20
5.077188254473782
 30
0.0
 10
19.46082617674636
 20
4.53173696352303
 30
0.0
 10
19.50523034328995
 20
4.358069490198943
 30
0.0
 10
19.56240285105394
 20
4.184839021869066
 30
0.0
 10
19.6313277735413
 20
4.01640706668553
 30
0.0
  0
SPLINE
  5
2150B
330
1F
100
AcDbEntity
  8
1
100
AcDbSpline
210
0.0
220
0.0
230
1.0
 70
     8
 71
     5
 72
    21
 73
    15
 74
     0
 42
0.000000001
 43
0.0000000001
 40
0.0
 40
0.0
 40
0.0
 40
0.0
 40
0.0
 40
0.0
 40
0.5275732652544707
 40
0.5275732652544707
 40
0.5275732652544707
 40
1.268433524460931
 40
1.268433524460931
 40
1.268433524460931
 40
2.00865885061869
 40
2.00865885061869
 40
2.00865885061869
 40
2.513873454573386
 40
2.513873454573386
 40
2.513873454573386
 40
2.513873454573386
 40
2.513873454573386
 40
2.513873454573386
 10
21.00950862005888
 20
7.916923616162108
 30
0.0
 10
21.07769231524051
 20
7.944682379971808
 30
0.0
 10
21.14587649048073
 20
7.972439748105159
 30
0.0
 10
21.18362090835501
 20
7.981913464700738
 30
0.0
 10
21.35436732617373
 20
8.026873737041697
 30
0.0
 10
21.52485012307969
 20
8.075354419688181
 30
0.0
 10
21.60986173061309
 20
8.099018510295934
 30
0.0
 10
21.80694387152809
 20
8.165208532084989
 30
0.0
 10
22.00246247237865
 20
8.238470475948432
 30
0.0
 10
22.09013793604527
 20
8.270289590815309
 30
0.0
 10
22.25813424285761
 20
8.323230447939636
 30
0.0
 10
22.43012972892825
 20
8.361474088996956
 30
0.0
 10
22.48652268013171
 20
8.370574350176724
 30
0.0
 10
22.55744770844555
 20
8.378911939871258
 30
0.0
 10
22.62837284391108
 20
8.387248761077529
 30
0.0
  0
SPLINE
  5
2150C
330
1F
100
AcDbEntity
  8
1
100
AcDbSpline
210
0.0
220
0.0
230
1.0
 70
     8
 71
     5
 72
    21
 73
    15
 74
     0
 42
0.000000001
 43
0.0000000001
 40
0.0
 40
0.0
 40
0.0
 40
0.0
 40
0.0
 40
0.0
 40
0.7119819010537931
 40
0.7119819010537931
 40
0.7119819010537931
 40
1.754134556241506
 40
1.754134556241506
 40
1.754134556241506
 40
2.783664039214497
 40
2.783664039214497
 40
2.783664039214497
 40
3.475608352467471
 40
3.475608352467471
 40
3.475608352467471
 40
3.475608352467471
 40
3.475608352467471
 40
3.475608352467471
 10
22.62837280595244
 20
8.387248783528036
 30
0.0
 10
22.72858404021338
 20
8.396617494172915
 30
0.0
 10
22.82879532720278
 20
8.405985482236189
 30
0.0
 10
22.91496001694304
 20
8.41072122281642
 30
0.0
 10
23.16323496847031
 20
8.409809083393753
 30
0.0
 10
23.40955015957718
 20
8.37748880031512
 30
0.0
 10
23.55082196613881
 20
8.345204869354688
 30
0.0
 10
23.82794088259041
 20
8.249272494449513
 30
0.0
 10
24.07602932936053
 20
8.09639211637554
 30
0.0
 10
24.18986557454625
 20
8.007766198222313
 30
0.0
 10
24.36351847852649
 20
7.842033932913778
 30
0.0
 10
24.51356047998462
 20
7.655636207265544
 30
0.0
 10
24.56022980664329
 20
7.590259431495496
 30
0.0
 10
24.61242727589391
 20
7.509507560151718
 30
0.0
 10
24.66462408527946
 20
7.428755232310862
 30
0.0
  0
LINE
  5
2150D
330
1F
100
AcDbEntity
  8
1
100
AcDbLine
 10
24.66462399999986
 20
7.428754999999995
 30
0.0
 11
24.71739099999988
 21
7.340721999999999
 31
0.0
  0
SPLINE
  5
2150E
330
1F
100
AcDbEntity
  8
1
100
AcDbSpline
210
0.0
220
0.0
230
1.0
 70
     8
 71
     5
 72
    21
 73
    15
 74
     0
 42
0.000000001
 43
0.0000000001
 40
0.0
 40
0.0
 40
0.0
 40
0.0
 40
0.0
 40
0.0
 40
0.5295102026173229
 40
0.5295102026173229
 40
0.5295102026173229
 40
1.239082066077672
 40
1.239082066077672
 40
1.239082066077672
 40
1.611552753795753
 40
1.611552753795753
 40
1.611552753795753
 40
1.786425964513709
 40
1.786425964513709
 40
1.786425964513709
 40
1.786425964513709
 40
1.786425964513709
 40
1.786425964513709
 10
24.71739129633136
 20
7.340722397165791
 30
0.0
 10
24.75458947716317
 20
7.277062013931299
 30
0.0
 10
24.79178675296064
 20
7.213401087350774
 30
0.0
 10
24.81984562476208
 20
7.155620037235195
 30
0.0
 10
24.89176475746152
 20
6.998144359541655
 30
0.0
 10
24.9531982856542
 20
6.8354963924059
 30
0.0
 10
24.98174788250245
 20
6.753159151201316
 30
0.0
 10
25.03428514795613
 20
6.610123345521316
 30
0.0
 10
25.09078534395454
 20
6.468303855666903
 30
0.0
 10
25.10400262562991
 20
6.435923690736757
 30
0.0
 10
25.13543525501061
 20
6.36528874612533
 30
0.0
 10
25.16450554244011
 20
6.293653448268344
 30
0.0
 10
25.17332538988657
 20
6.270572395595493
 30
0.0
 10
25.18207031241895
 20
6.247466850838208
 30
0.0
 10
25.19081511278404
 20
6.224361257410748
 30
0.0
  0
POINT
  5
21510
330
1F
100
AcDbEntity
  8
1
100
AcDbPoint
 10
19.99999999999988
 20
-10.0
 30
0.0
  0
POINT
  5
21511
330
1F
100
AcDbEntity
  8
1
100
AcDbPoint
 10
29.99999999999989
 20
0.0
 30
0.0
  0
LINE
  5
21514
330
1F
100
AcDbEntity
  8
SK3
100
AcDbLine
 10
-19.00000000000011
 20
0.5992820000000024
 30
0.0
 11
-19.00000000000011
 21
-1.25
 31
0.0
  0
LINE
  5
21515
330
1F
100
AcDbEntity
  8
SK3
100
AcDbLine
 10
-19.00000000000011
 20
1.25
 30
0.0
 11
-19.00000000000011
 21
-0.5992820000000024
 31
0.0
  0
LINE
  5
21518
330
1F
100
AcDbEntity
  8
3
100
AcDbLine
 10
13.74503699999985
 20
1.25
 30
0.0
 11
13.74503699999985
 21
-0.5992820000000024
 31
0.0
  0
LINE
  5
21519
330
1F
100
AcDbEntity
  8
3
100
AcDbLine
 10
13.74503699999985
 20
0.5992820000000024
 30
0.0
 11
13.74503699999985
 21
-1.25
 31
0.0
  0
LINE
  5
2151A
330
1F
100
AcDbEntity
  8
SK3
100
AcDbLine
 10
-19.00000000000011
 20
-1.25
 30
0.0
 11
-20.00000000000011
 21
-1.827349999999995
 31
0.0
  0
LINE
  5
2151B
330
1F
100
AcDbEntity
  8
SK3
100
AcDbLine
 10
-19.00000000000011
 20
1.25
 30
0.0
 11
-20.00000000000011
 21
1.827349999999995
 31
0.0
  0
LINE
  5
21523
330
1F
100
AcDbEntity
  8
3
100
AcDbLine
 10
14.19999999999987
 20
0.0
 30
0.0
 11
13.74503699999985
 21
1.25
 31
0.0
  0
LINE
  5
21524
330
1F
100
AcDbEntity
  8
3
100
AcDbLine
 10
14.19999999999987
 20
0.0
 30
0.0
 11
13.74503699999985
 21
-1.25
 31
0.0
  0
LINE
  5
21526
330
1F
100
AcDbEntity
  8
3
100
AcDbLine
 10
13.74503699999985
 20
1.25
 30
0.0
 11
-0.0000000000001137
 21
1.25
 31
0.0
  0
LINE
  5
21527
330
1F
100
AcDbEntity
  8
3
100
AcDbLine
 10
13.74503699999985
 20
-1.25
 30
0.0
 11
-0.0000000000001137
 21
-1.25
 31
0.0
  0
LINE
  5
21528
330
1F
100
AcDbEntity
  8
0
100
AcDbLine
 10
30.00111742107515
 20
-0.0010535956747333
 30
0.0
 11
29.99588042107513
 21
0.3204454043252696
 31
0.0
  0
LINE
  5
2152F
330
1F
100
AcDbEntity
  8
SK1
100
AcDbLine
 10
-20.00000000000011
 20
4.0
 30
0.0
 11
-9.521068000000127
 21
4.0
 31
0.0
  0
LINE
  5
21530
330
1F
100
AcDbEntity
  8
SK1
100
AcDbLine
 10
-20.00000000000011
 20
-4.0
 30
0.0
 11
-9.521068000000127
 21
-4.0
 31
0.0
  0
DIMENSION
  5
21531
330
1F
100
AcDbEntity
  8
SK2
100
AcDbDimension
  2
*D42
 10
-24.90442520839815
 20
-4.999999999999999
 30
0.0
 11
-26.80591501865817
 21
-0.0000000000000027
 31
0.0
 70
    32
  1
M<>
 71
     5
 42
10.0
  3
STANDARD
100
AcDbAlignedDimension
 13
-19.00000000000011
 23
5.0
 33
0.0
 14
-19.00000000000011
 24
-5.0
 34
0.0
 50
90.0
100
AcDbRotatedDimension
  0
DIMENSION
  5
21532
330
1F
100
AcDbEntity
  8
2
100
AcDbDimension
  2
*D43
 10
-35.14449136382763
 20
-8.999999999999991
 30
0.0
 11
-37.09763261470605
 21
0.0000000000000042
 31
0.0
 70
    32
  1
%%C<>
 71
     5
 42
18.0
  3
STANDARD
100
AcDbAlignedDimension
 13
0.1999999999998749
 23
9.0
 33
0.0
 14
0.1999999999998749
 24
-9.0
 34
0.0
 50
90.0
100
AcDbRotatedDimension
  0
DIMENSION
  5
21533
330
1F
100
AcDbEntity
  8
2
100
AcDbDimension
  2
*D44
 10
30.00111736557196
 20
-18.71459203956957
 30
0.0
 11
15.00055868278592
 21
-16.81310222930955
 31
0.0
 70
    32
 71
     5
 42
30.00111736557207
  3
STANDARD
100
AcDbAlignedDimension
 13
-0.0000000000001137
 23
-8.799999999999997
 33
0.0
 14
30.00111736557196
 24
0.0
 34
0.0
100
AcDbRotatedDimension
1001
ACAD
1000
DSTYLE
1002
{
1070
   271
1070
     0
1002
}
  0
DIMENSION
  5
21534
330
1F
100
AcDbEntity
  8
SK2
100
AcDbDimension
  2
*D45
 10
30.00111742107515
 20
23.63396141599242
 30
0.0
 11
5.000558710537518
 21
25.53545122625243
 31
0.0
 70
    32
 71
     5
 42
50.00111742107526
  3
STANDARD
100
AcDbAlignedDimension
 13
-20.00000000000011
 23
4.0
 33
0.0
 14
30.00111742107515
 24
0.0
 34
0.0
100
AcDbRotatedDimension
1001
ACAD
1000
DSTYLE
1002
{
1070
   271
1070
     0
1002
}
  0
DIMENSION
  5
21535
330
1F
100
AcDbEntity
  8
2
100
AcDbDimension
  2
*D46
 10
30.01162021612839
 20
15.48380070749778
 30
0.0
 11
47.62194347684519
 21
17.8587620567599
 31
0.0
 70
    32
  1
Ap13.66
 71
     5
 42
13.66922938830731
  3
STANDARD
100
AcDbAlignedDimension
 13
16.34239082782108
 23
10.64445498029354
 33
0.0
 14
30.01162021612839
 24
9.986838106413131
 34
0.0
100
AcDbRotatedDimension
1001
ACAD
1000
DSTYLE
1002
{
1070
   172
1070
     1
1002
}
  0
DIMENSION
  5
21536
330
1F
100
AcDbEntity
  8
2
100
AcDbDimension
  2
*D47
 10
54.12384079839188
 20
9.998946404325257
 30
0.0
 11
54.12384079839188
 21
-0.1351567188911815
 31
0.0
 70
   160
  1
%%C20
 71
     5
 42
19.99546731266181
  3
STANDARD
100
AcDbAlignedDimension
 13
20.01446770925304
 23
-9.996520908336549
 33
0.0
 14
20.00111742107515
 24
9.998946404325266
 34
0.0
 50
90.0
100
AcDbRotatedDimension
  0
LINE
  5
21674
330
1F
100
AcDbEntity
  8
SK3
100
AcDbLine
 10
-0.0000000000001137
 20
1.25
 30
0.0
 11
-19.00000000000011
 21
1.25
 31
0.0
  0
LINE
  5
21675
330
1F
100
AcDbEntity
  8
SK3
100
AcDbLine
 10
-0.0000000000001137
 20
-1.25
 30
0.0
 11
-19.00000000000011
 21
-1.25
 31
0.0
  0
LWPOLYLINE
  5
216CE
330
1F
100
AcDbEntity
  8
NOCUT
100
AcDbPolyline
 90
       12
 70
     0
 43
0.0
 10
-0.0000000000001137
 20
0.0
 10
-0.0000000000001137
 20
8.799999999999997
 10
0.1999999999998749
 20
9.0
 10
6.210386999999855
 20
9.0
 10
8.041319582678514
 20
9.112163041085395
 10
10.28678814839987
 20
9.387871428296227
 10
12.11743899999987
 20
9.500000000000012
 10
16.48005699999989
 20
9.500000000000003
 10
19.50128885061781
 20
9.299699117179216
 42
-0.4059488832176252
 10
29.19999999999989
 20
0.4639551739414891
 10
29.19999999999989
 20
0.0
 10
-0.0000000000001137
 20
0.0
  0
LWPOLYLINE
  5
2178F
330
1F
100
AcDbEntity
  8
CUT
100
AcDbPolyline
 90
        2
 70
     0
 43
0.0
 10
180.0011174210751
 20
-0.0010535956747333
 10
180.0011174210751
 20
-0.0010535956747333
  0
LWPOLYLINE
  5
21793
330
1F
100
AcDbEntity
  8
CUT
100
AcDbPolyline
 90
        7
 70
     0
 43
0.0
 10
16.34111742107512
 20
-0.0010535956747333
 10
16.34111742107512
 20
9.998946404325266
 10
20.00111742107515
 20
9.998946404325266
 10
20.00111742107515
 20
9.998946404325266
 42
-0.4142135623730951
 10
30.00111742107515
 20
-0.0010535956747333
 10
30.00111742107515
 20
-0.0010535956747333
 10
16.34111742107512
 20
-0.0010535956747333
  0
VIEWPORT
  5
9C00
102
{ACAD_XDICTIONARY
360
21865
102
}
330
1B
100
AcDbEntity
 67
     1
  8
0
100
AcDbViewport
 10
108.2280559557949
 20
71.69854161746989
 30
0.0
 40
251.8950231529317
 41
201.8884082081047
 68
     1
 69
     1
 12
108.2280559557949
 22
71.69854161746989
 13
0.0
 23
0.0
 14
10.0
 24
10.0
 15
10.0
 25
10.0
 16
0.0
 26
0.0
 36
1.0
 17
0.0
 27
0.0
 37
0.0
 42
50.0
 43
0.0
 44
0.0
 45
201.8884082081047
 50
0.0
 51
0.0
 72
   100
 90
   557088
  1

281
     0
 71
     1
 74
     0
110
0.0
120
0.0
130
0.0
111
1.0
121
0.0
131
0.0
112
0.0
122
1.0
132
0.0
 79
     0
146
0.0
  0
VIEWPORT
  5
9C02
102
{ACAD_XDICTIONARY
360
21867
102
}
330
1B
100
AcDbEntity
 67
     1
  8
1
100
AcDbViewport
 10
143.457083940506
 20
98.18158769607544
 30
0.0
 40
229.5313343048095
 41
157.0905403137207
 68
     2
 69
     2
 12
-44.37697124786255
 22
-35.12342998133886
 13
0.0
 23
0.0
 14
10.0
 24
10.0
 15
10.0
 25
10.0
 16
0.0
 26
0.0
 36
1.0
 17
0.0
 27
0.0
 37
0.0
 42
50.0
 43
0.0
 44
0.0
 45
300.3886240724386
 50
0.0
 51
0.0
 72
   100
 90
   557088
  1

281
     0
 71
     1
 74
     0
110
0.0
120
0.0
130
0.0
111
1.0
121
0.0
131
0.0
112
0.0
122
1.0
132
0.0
 79
     0
146
0.0
  0
ENDSEC
  0
SECTION
  2
OBJECTS
  0
DICTIONARY
  5
3182
330
0
100
AcDbDictionary
281
     1
  3
ACAD_CIP_PREVIOUS_PRODUCT_INFO
350
1B2F4
  3
ACAD_COLOR
350
31A0
  3
ACAD_DETAILVIEWSTYLE
350
1B2F0
  3
ACAD_FIELDLIST
350
20CBF
  3
ACAD_GROUP
350
3183
  3
ACAD_LAYOUT
350
31A5
  3
ACAD_MATERIAL
350
318B
  3
ACAD_MLEADERSTYLE
350
1B221
  3
ACAD_MLINESTYLE
350
3184
  3
ACAD_PLOTSETTINGS
350
31A4
  3
ACAD_PLOTSTYLENAME
350
3189
  3
ACAD_SCALELIST
350
1B1FC
  3
ACAD_SECTIONVIEWSTYLE
350
1B2EE
  3
ACAD_TABLESTYLE
350
31A1
  3
ACAD_VISUALSTYLE
350
318F
  3
ACDB_RECOMPOSE_DATA
350
21837
  3
AcDbVariableDictionary
350
33A3
  3
AcDsDecomposeData
350
2183E
  3
AEC_PROPERTY_SET_DEFS
350
20E9E
  3
DWGPROPS
350
21838
  0
DICTIONARY
  5
422A
330
2
100
AcDbDictionary
280
     1
281
     1
  3
ACAD_LAYERFILTERS
360
1B063
  3
ACAD_LAYERSTATES
360
9A1C
  3
ACLYDICTIONARY
360
1B062
  0
DICTIONARY
  5
1B2F5
330
10
100
AcDbDictionary
280
     1
281
     1
  3
ADSK_XREC_LAYER_RECONCILED
360
210B0
  0
DICTIONARY
  5
1B2F7
330
3F8C
100
AcDbDictionary
280
     1
281
     1
  3
ADSK_XREC_LAYER_RECONCILED
360
210B1
  0
DICTIONARY
  5
1B2F9
330
9C4A
100
AcDbDictionary
280
     1
281
     1
  3
ADSK_XREC_LAYER_RECONCILED
360
210B2
  0
DICTIONARY
  5
1B2FB
330
9C4B
100
AcDbDictionary
280
     1
281
     1
  3
ADSK_XREC_LAYER_RECONCILED
360
210B3
  0
DICTIONARY
  5
1B2FD
330
9C4D
100
AcDbDictionary
280
     1
281
     1
  3
ADSK_XREC_LAYER_RECONCILED
360
210B4
  0
DICTIONARY
  5
1B2FF
330
9C4E
100
AcDbDictionary
280
     1
281
     1
  3
ADSK_XREC_LAYER_RECONCILED
360
210B5
  0
DICTIONARY
  5
1B303
330
9C50
100
AcDbDictionary
280
     1
281
     1
  3
ADSK_XREC_LAYER_RECONCILED
360
210B7
  0
DICTIONARY
  5
1B305
330
9C51
100
AcDbDictionary
280
     1
281
     1
  3
ADSK_XREC_LAYER_RECONCILED
360
210B8
  0
DICTIONARY
  5
1B307
330
13335
100
AcDbDictionary
280
     1
281
     1
  3
ADSK_XREC_LAYER_RECONCILED
360
210B9
  0
DICTIONARY
  5
20A84
330
20A83
100
AcDbDictionary
280
     1
281
     1
  3
ADSK_XREC_LAYER_RECONCILED
360
210BB
  0
DICTIONARY
  5
210BC
330
20A91
100
AcDbDictionary
280
     1
281
     1
  3
ADSK_XREC_LAYER_RECONCILED
360
210BD
  0
DICTIONARY
  5
20AE1
330
20AE0
100
AcDbDictionary
280
     1
281
     1
  3
ADSK_XREC_LAYER_RECONCILED
360
210C4
  0
DICTIONARY
  5
21258
330
21257
100
AcDbDictionary
280
     1
281
     1
  0
DICTIONARY
  5
339C
330
1F
100
AcDbDictionary
280
     1
281
     1
  3
ACAD_SORTENTS
360
339D
  0
DICTIONARY
  5
1DE81
330
1B3D7
100
AcDbDictionary
280
     1
281
     1
  3
AcDbBlockTableRecordData
360
2187F
  0
DICTIONARY
  5
20CA6
330
20CA5
100
AcDbDictionary
280
     1
281
     1
  3
AcDbBlockTableRecordData
360
21883
  0
DICTIONARY
  5
20CA9
330
20CA8
100
AcDbDictionary
280
     1
281
     1
  3
ACAD_FIELD
360
20CAA
  0
DICTIONARY
  5
20CC4
330
20CC3
100
AcDbDictionary
280
     1
281
     1
  3
ACAD_FIELD
360
20CC5
  0
DICTIONARY
  5
21865
330
9C00
100
AcDbDictionary
280
     1
281
     1
  3
ACAD_XREC_ROUNDTRIP
360
21866
  0
DICTIONARY
  5
21867
330
9C02
100
AcDbDictionary
280
     1
281
     1
  3
ACAD_XREC_ROUNDTRIP
360
21868
  0
XRECORD
  5
1B2F4
102
{ACAD_REACTORS
330
3182
102
}
330
3182
100
AcDbXrecord
280
     1
300
ACDLT
300
2015
300
ACDLT_F_S
  0
DICTIONARY
  5
31A0
102
{ACAD_REACTORS
330
3182
102
}
330
3182
100
AcDbDictionary
281
     1
  0
DICTIONARY
  5
1B2F0
102
{ACAD_REACTORS
330
3182
102
}
330
3182
100
AcDbDictionary
281
     1
  3
Imperial24
350
20CB3
  3
Metric50
350
1B2F1
  0
FIELDLIST
  5
20CBF
102
{ACAD_REACTORS
330
3182
102
}
330
3182
100
AcDbIdSet
 90
        6
330
20CAB
330
20CAC
330
20CBA
330
20CBB
330
20CC6
330
20CC7
100
AcDbFieldList
  0
DICTIONARY
  5
3183
102
{ACAD_REACTORS
330
3182
102
}
330
3182
100
AcDbDictionary
281
     1
  0
DICTIONARY
  5
31A5
102
{ACAD_REACTORS
330
3182
102
}
330
3182
100
AcDbDictionary
281
     1
  3
Layout1
350
31A7
  3
Model
350
31A6
  0
DICTIONARY
  5
318B
102
{ACAD_REACTORS
330
3182
102
}
330
3182
100
AcDbDictionary
281
     1
  3
ByBlock
350
318D
  3
ByLayer
350
318C
  3
Global
350
318E
  0
DICTIONARY
  5
1B221
102
{ACAD_REACTORS
330
3182
102
}
330
3182
100
AcDbDictionary
281
     1
  3
Standard
350
1B2ED
  0
DICTIONARY
  5
3184
102
{ACAD_REACTORS
330
3182
102
}
330
3182
100
AcDbDictionary
281
     1
  3
STANDARD
350
3185
  0
DICTIONARY
  5
31A4
102
{ACAD_REACTORS
330
3182
102
}
330
3182
100
AcDbDictionary
281
     1
  0
ACDBDICTIONARYWDFLT
  5
3189
102
{ACAD_REACTORS
330
3182
102
}
330
3182
100
AcDbDictionary
281
     1
  3
Normal
350
318A
100
AcDbDictionaryWithDefault
340
318A
  0
DICTIONARY
  5
1B1FC
102
{ACAD_REACTORS
330
3182
102
}
330
3182
100
AcDbDictionary
281
     1
  3
A0
350
1B1FD
  3
A1
350
1B1FE
  3
A2
350
1B1FF
  3
A3
350
1B200
  3
A4
350
1B201
  3
A5
350
1B202
  3
A6
350
1B203
  3
A7
350
1B204
  3
A8
350
1B205
  3
A9
350
1B206
  3
B0
350
1B207
  3
B1
350
1B208
  3
B2
350
1B209
  3
B3
350
1B20A
  3
B4
350
1B20B
  3
B5
350
1B20C
  3
B6
350
1B20D
  3
B7
350
1B20E
  3
B8
350
1B20F
  3
B9
350
1B210
  3
C0
350
1B211
  3
C1
350
1B212
  3
C2
350
1B213
  3
C3
350
1B214
  3
C4
350
1B215
  3
C5
350
1B216
  3
C6
350
1B217
  3
C7
350
1B218
  3
C8
350
1B219
  3
C9
350
1B21A
  3
D0
350
1B21B
  3
D1
350
1B21C
  3
D2
350
1B21D
  0
DICTIONARY
  5
1B2EE
102
{ACAD_REACTORS
330
3182
102
}
330
3182
100
AcDbDictionary
281
     1
  3
Imperial24
350
20CB1
  3
Metric50
350
1B2EF
  0
DICTIONARY
  5
31A1
102
{ACAD_REACTORS
330
3182
102
}
330
3182
100
AcDbDictionary
281
     1
  3
Standard
350
31A2
  0
DICTIONARY
  5
318F
102
{ACAD_REACTORS
330
3182
102
}
330
3182
100
AcDbDictionary
281
     1
  3
2dWireframe
350
3195
  3
3D Hidden
350
3197
  3
3dWireframe
350
3196
  3
Basic
350
3194
  3
Brighten
350
319B
  3
ColorChange
350
319F
  3
Conceptual
350
3198
  3
Dim
350
319A
  3
EdgeColorOff
350
1B2EC
  3
Facepattern
350
319E
  3
Flat
350
3190
  3
FlatWithEdges
350
3191
  3
Gouraud
350
3192
  3
GouraudWithEdges
350
3193
  3
Hidden
350
1B2E4
  3
JitterOff
350
1B2EA
  3
Linepattern
350
319D
  3
OverhangOff
350
1B2EB
  3
Realistic
350
3199
  3
Shaded
350
1B2E9
  3
Shaded with edges
350
1B2E8
  3
Shades of Gray
350
1B2E5
  3
Sketchy
350
1B2E6
  3
Thicken
350
319C
  3
Wireframe
350
1B2E3
  3
X-Ray
350
1B2E7
  0
XRECORD
  5
21837
102
{ACAD_REACTORS
330
3182
102
}
330
3182
100
AcDbXrecord
280
     1
 90
        1
330
31A2
  0
DICTIONARY
  5
33A3
102
{ACAD_REACTORS
330
3182
102
}
330
3182
100
AcDbDictionary
281
     1
  3
CANNOSCALE
350
1B222
  3
CMLEADERSTYLE
350
1B30F
  3
CTABLESTYLE
350
33A4
  3
CVIEWDETAILSTYLE
350
1B310
  3
CVIEWSECTIONSTYLE
350
1B311
  3
DIMASSOC
350
9BE8
  3
INDEXCTL
350
9BE7
  3
LAYEREVAL
350
20993
  3
LAYERNOTIFY
350
20994
  3
LIGHTINGUNITS
350
20992
  3
MSLTSCALE
350
20991
  3
SORTENTS
350
9BE6
  3
XCLIPFRAME
350
1FAAB
  0
DICTIONARY
  5
2183E
102
{ACAD_REACTORS
330
3182
102
}
330
3182
100
AcDbDictionary
281
     1
  3
AcDsRecords
350
21840
  3
AcDsSchemas
350
2183F
1001
ACAD
1070
     2
  0
DICTIONARY
  5
20E9E
102
{ACAD_REACTORS
330
3182
102
}
330
3182
100
AcDbDictionary
281
     1
  0
XRECORD
  5
21838
102
{ACAD_REACTORS
330
3182
102
}
330
3182
100
AcDbXrecord
280
     1
  1
DWGPROPS COOKIE
  2

  3

  4

  6

  7

  8
bendera
  9

300
=
301
=
302
=
303
=
304
=
305
=
306
=
307
=
308
=
309
=
 40
0.059668900462963
 41
2457401.55169897
 42
2457401.611366551
  1

 90
        0
  0
DICTIONARY
  5
1B063
102
{ACAD_REACTORS
330
422A
102
}
330
422A
100
AcDbDictionary
281
     1
  0
DICTIONARY
  5
9A1C
102
{ACAD_REACTORS
330
422A
102
}
330
422A
100
AcDbDictionary
281
     1
  0
DICTIONARY
  5
1B062
102
{ACAD_REACTORS
330
422A
102
}
330
422A
100
AcDbDictionary
281
     1
1001
ACAD
1000
<All
  0
XRECORD
  5
210B0
102
{ACAD_REACTORS
330
1B2F5
102
}
330
1B2F5
100
AcDbXrecord
280
     1
290
     1
  0
XRECORD
  5
210B1
102
{ACAD_REACTORS
330
1B2F7
102
}
330
1B2F7
100
AcDbXrecord
280
     1
290
     1
  0
XRECORD
  5
210B2
102
{ACAD_REACTORS
330
1B2F9
102
}
330
1B2F9
100
AcDbXrecord
280
     1
290
     1
  0
XRECORD
  5
210B3
102
{ACAD_REACTORS
330
1B2FB
102
}
330
1B2FB
100
AcDbXrecord
280
     1
290
     1
  0
XRECORD
  5
210B4
102
{ACAD_REACTORS
330
1B2FD
102
}
330
1B2FD
100
AcDbXrecord
280
     1
290
     1
  0
XRECORD
  5
210B5
102
{ACAD_REACTORS
330
1B2FF
102
}
330
1B2FF
100
AcDbXrecord
280
     1
290
     1
  0
XRECORD
  5
210B7
102
{ACAD_REACTORS
330
1B303
102
}
330
1B303
100
AcDbXrecord
280
     1
290
     1
  0
XRECORD
  5
210B8
102
{ACAD_REACTORS
330
1B305
102
}
330
1B305
100
AcDbXrecord
280
     1
290
     1
  0
XRECORD
  5
210B9
102
{ACAD_REACTORS
330
1B307
102
}
330
1B307
100
AcDbXrecord
280
     1
290
     1
  0
XRECORD
  5
210BB
102
{ACAD_REACTORS
330
20A84
102
}
330
20A84
100
AcDbXrecord
280
     1
290
     1
  0
XRECORD
  5
210BD
102
{ACAD_REACTORS
330
210BC
102
}
330
210BC
100
AcDbXrecord
280
     1
290
     1
  0
XRECORD
  5
210C4
102
{ACAD_REACTORS
330
20AE1
102
}
330
20AE1
100
AcDbXrecord
280
     1
290
     1
  0
SORTENTSTABLE
  5
339D
102
{ACAD_REACTORS
330
339C
102
}
330
339C
100
AcDbSortentsTable
330
1F
331
214D0
  5
214D1
331
214C1
  5
214C2
331
214B2
  5
214B3
331
214A3
  5
214A4
331
21494
  5
21495
331
21485
  5
21486
331
21476
  5
21477
331
21532
  5
21787
331
21523
  5
21536
331
21467
  5
21468
331
21505
  5
21506
331
214F6
  5
214F7
331
214E7
  5
214E8
331
21514
  5
21515
331
214C0
  5
214C1
331
214B1
  5
214B2
331
214A2
  5
214A3
331
21493
  5
21494
331
21484
  5
21485
331
21475
  5
21476
331
21531
  5
21786
331
21466
  5
21467
331
214F5
  5
214F6
331
214E6
  5
214E7
331
21504
  5
21505
331
214B0
  5
214B1
331
214A1
  5
214A2
331
21492
  5
21493
331
21483
  5
21484
331
21474
  5
21475
331
21530
  5
216D8
331
21465
  5
21466
331
214F4
  5
214F5
331
214E5
  5
214E6
331
21503
  5
21504
331
214A0
  5
214A1
331
21491
  5
21492
331
21482
  5
21483
331
21473
  5
21474
331
2152F
  5
216D7
331
21464
  5
21465
331
21502
  5
21503
331
214F3
  5
214F4
331
214E4
  5
214E5
331
21511
  5
21514
331
21490
  5
21491
331
21481
  5
21482
331
21472
  5
21473
331
21510
  5
21511
331
21463
  5
21464
331
214F2
  5
214F3
331
214E3
  5
214E4
331
21501
  5
21502
331
21480
  5
21481
331
21471
  5
21472
331
21462
  5
21463
331
214F1
  5
214F2
331
214E2
  5
214E3
331
21500
  5
21501
331
21470
  5
21471
331
21461
  5
21462
331
214FF
  5
21500
331
214F0
  5
214F1
331
214E1
  5
214E2
331
2150E
  5
21510
331
21460
  5
21461
331
2150D
  5
2150E
331
214FE
  5
214FF
331
214EF
  5
214F0
331
214E0
  5
214E1
331
2151B
  5
21524
331
2150C
  5
2150D
331
214FD
  5
214FE
331
214EE
  5
214EF
331
214DF
  5
214E0
331
2151A
  5
21521
331
2150B
  5
2150C
331
214FC
  5
214FD
331
214ED
  5
214EE
331
214DE
  5
214DF
331
21528
  5
216C1
331
21519
  5
2151C
331
2150A
  5
2150B
331
214FB
  5
214FC
331
214EC
  5
214ED
331
214DD
  5
214DE
331
21518
  5
2151B
331
21509
  5
2150A
331
214FA
  5
214FB
331
214EB
  5
214EC
331
214DC
  5
214DD
331
21508
  5
21509
331
214F9
  5
214FA
331
214EA
  5
214EB
331
214DB
  5
214DC
331
214F8
  5
214F9
331
214E9
  5
214EA
331
214DA
  5
214DB
331
214E8
  5
214E9
331
214D9
  5
214DA
331
214D8
  5
214D9
331
2178F
  5
21790
331
20A18
  5
20A18
331
213DF
  5
213E0
331
213DE
  5
213DF
331
213CF
  5
213CF
331
213DD
  5
213DE
331
213DC
  5
213DD
331
213DB
  5
213DC
331
213DA
  5
213DB
331
213D9
  5
213DA
331
213E7
  5
213E8
331
213E6
  5
213E7
331
21457
  5
21458
331
213D7
  5
213D7
331
213E5
  5
213E6
331
21456
  5
21457
331
21447
  5
21448
331
213D6
  5
213D6
331
21455
  5
21456
331
213E4
  5
213E5
331
21446
  5
21447
331
21437
  5
21438
331
213E3
  5
213E4
331
21454
  5
21455
331
21445
  5
21446
331
21436
  5
21437
331
21427
  5
21428
331
213D4
  5
213D4
331
21453
  5
21454
331
213E2
  5
213E3
331
21444
  5
21445
331
21435
  5
21436
331
21426
  5
21427
331
21417
  5
21418
331
213E1
  5
213E2
331
21452
  5
21453
331
21443
  5
21444
331
21434
  5
21435
331
21425
  5
21426
331
21416
  5
21417
331
21407
  5
21408
331
213D2
  5
213D2
331
213E0
  5
213E1
331
21451
  5
21452
331
21442
  5
21443
331
21433
  5
21434
331
21424
  5
21425
331
21415
  5
21416
331
21406
  5
21407
331
213F7
  5
213F8
331
213D1
  5
213D1
331
2145F
  5
21460
331
21450
  5
21451
331
21441
  5
21442
331
21432
  5
21433
331
21423
  5
21424
331
21414
  5
21415
331
21405
  5
21406
331
213F6
  5
213F7
331
213D0
  5
213D0
331
2145E
  5
2145F
331
2144F
  5
21450
331
21440
  5
21441
331
21431
  5
21432
331
21422
  5
21423
331
21413
  5
21414
331
21404
  5
21405
331
213F5
  5
213F6
331
2145D
  5
2145E
331
2144E
  5
2144F
331
2143F
  5
21440
331
21430
  5
21431
331
21421
  5
21422
331
21412
  5
21413
331
21403
  5
21404
331
213F4
  5
213F5
331
2145C
  5
2145D
331
2144D
  5
2144E
331
2143E
  5
2143F
331
2142F
  5
21430
331
21420
  5
21421
331
21411
  5
21412
331
21402
  5
21403
331
213F3
  5
213F4
331
2145B
  5
2145C
331
2144C
  5
2144D
331
2143D
  5
2143E
331
2142E
  5
2142F
331
2141F
  5
21420
331
21410
  5
21411
331
21401
  5
21402
331
213F2
  5
213F3
331
2145A
  5
2145B
331
2144B
  5
2144C
331
2143C
  5
2143D
331
2142D
  5
2142E
331
2141E
  5
2141F
331
2140F
  5
21410
331
21400
  5
21401
331
213F1
  5
213F2
331
21459
  5
2145A
331
2144A
  5
2144B
331
2143B
  5
2143C
331
2142C
  5
2142D
331
2141D
  5
2141E
331
2140E
  5
2140F
331
213FF
  5
21400
331
213F0
  5
213F1
331
21458
  5
21459
331
21449
  5
2144A
331
2143A
  5
2143B
331
2142B
  5
2142C
331
2141C
  5
2141D
331
2140D
  5
2140E
331
213FE
  5
213FF
331
213EF
  5
213F0
331
21448
  5
21449
331
21439
  5
2143A
331
2142A
  5
2142B
331
2141B
  5
2141C
331
2140C
  5
2140D
331
213FD
  5
213FE
331
213EE
  5
213EF
331
21438
  5
21439
331
21429
  5
2142A
331
2141A
  5
2141B
331
2140B
  5
2140C
331
213FC
  5
213FD
331
213ED
  5
213EE
331
21428
  5
21429
331
21419
  5
2141A
331
2140A
  5
2140B
331
213FB
  5
213FC
331
213EC
  5
213ED
331
21418
  5
21419
331
21409
  5
2140A
331
213FA
  5
213FB
331
213EB
  5
213EC
331
21408
  5
21409
331
213F9
  5
213FA
331
213EA
  5
213EB
331
213F8
  5
213F9
331
213E9
  5
213EA
331
213E8
  5
213E9
331
20CC2
  5
20CC2
331
21675
  5
216C0
331
21674
  5
216BE
331
216CE
  5
2178F
331
214CF
  5
214D0
331
214CE
  5
214CF
331
214BF
  5
214C0
331
214CD
  5
214CE
331
214BE
  5
214BF
331
214AF
  5
214B0
331
214CC
  5
214CD
331
214BD
  5
214BE
331
214AE
  5
214AF
331
2149F
  5
214A0
331
214CB
  5
214CC
331
214BC
  5
214BD
331
214AD
  5
214AE
331
2149E
  5
2149F
331
2148F
  5
21490
331
214CA
  5
214CB
331
214BB
  5
214BC
331
214AC
  5
214AD
331
2149D
  5
2149E
331
2148E
  5
2148F
331
2147F
  5
21480
331
214C9
  5
214CA
331
214BA
  5
214BB
331
214AB
  5
214AC
331
2149C
  5
2149D
331
2148D
  5
2148E
331
2147E
  5
2147F
331
2146F
  5
21470
331
214D7
  5
214D8
331
214C8
  5
214C9
331
214B9
  5
214BA
331
214AA
  5
214AB
331
2149B
  5
2149C
331
2148C
  5
2148D
331
2147D
  5
2147E
331
2146E
  5
2146F
331
214D6
  5
214D7
331
214C7
  5
214C8
331
214B8
  5
214B9
331
214A9
  5
214AA
331
2149A
  5
2149B
331
2148B
  5
2148C
331
2147C
  5
2147D
331
2146D
  5
2146E
331
214D5
  5
214D6
331
214C6
  5
214C7
331
214B7
  5
214B8
331
214A8
  5
214A9
331
21499
  5
2149A
331
2148A
  5
2148B
331
2147B
  5
2147C
331
2146C
  5
2146D
331
214D4
  5
214D5
331
214C5
  5
214C6
331
214B6
  5
214B7
331
214A7
  5
214A8
331
21498
  5
21499
331
21489
  5
2148A
331
2147A
  5
2147B
331
21536
  5
2178E
331
21527
  5
216BF
331
2146B
  5
2146C
331
214D3
  5
214D4
331
214C4
  5
214C5
331
214B5
  5
214B6
331
214A6
  5
214A7
331
21497
  5
21498
331
21488
  5
21489
331
21479
  5
2147A
331
21535
  5
2178D
331
21526
  5
21675
331
2146A
  5
2146B
331
214D2
  5
214D3
331
214C3
  5
214C4
331
214B4
  5
214B5
331
214A5
  5
214A6
331
21496
  5
21497
331
21487
  5
21488
331
21478
  5
21479
331
21534
  5
21789
331
21469
  5
2146A
331
21507
  5
21508
331
214D1
  5
214D2
331
214C2
  5
214C3
331
214B3
  5
214B4
331
214A4
  5
214A5
331
21495
  5
21496
331
21486
  5
21487
331
21477
  5
21478
331
21533
  5
21788
331
21524
  5
21674
331
21468
  5
21469
331
21506
  5
21507
331
214F7
  5
214F8
331
21515
  5
21516
  0
DICTIONARY
  5
2187F
102
{ACAD_REACTORS
330
1DE81
102
}
330
1DE81
100
AcDbDictionary
280
     1
281
     1
  3
Edit
360
21880
  0
DICTIONARY
  5
21883
102
{ACAD_REACTORS
330
20CA6
102
}
330
20CA6
100
AcDbDictionary
280
     1
281
     1
  3
Edit
360
21884
  0
DICTIONARY
  5
20CAA
102
{ACAD_REACTORS
330
20CA9
102
}
330
20CA9
100
AcDbDictionary
280
     1
281
     1
  3
TEXT
360
20CAB
  0
DICTIONARY
  5
20CC5
102
{ACAD_REACTORS
330
20CC4
102
}
330
20CC4
100
AcDbDictionary
280
     1
281
     1
  3
TEXT
360
20CC6
  0
XRECORD
  5
21866
102
{ACAD_REACTORS
330
21865
102
}
330
21865
100
AcDbXrecord
280
     1
102
SHADEPLOT
 70
     0
  0
XRECORD
  5
21868
102
{ACAD_REACTORS
330
21867
102
}
330
21867
100
AcDbXrecord
280
     1
102
SHADEPLOT
 70
     0
  0
ACDBDETAILVIEWSTYLE
  5
20CB3
102
{ACAD_XDICTIONARY
360
20CB4
102
}
102
{ACAD_REACTORS
330
1B2F0
102
}
330
1B2F0
100
AcDbModelDocViewStyle
 70
     0
  3
Imperial24
290
     0
100
AcDbDetailViewStyle
 70
     0
 71
     0
 90
        3
 71
     1
340
11
 40
0.24
340
0
 40
0.24
300

 40
0.36
280
     3
 71
     2
340
16
 90
       25
 71
     3
340
11
 40
0.24
 90
        1
 40
0.75
 90
        1
300
%<\AcVar ViewType \f "%tc1">% %<\AcVar ViewDetailId>%\PVARIA %<\AcVar ViewScale \f "%sn">%
 71
     4
340
16
 90
       25
340
16
 90
       25
280
     0
  0
ACDBDETAILVIEWSTYLE
  5
1B2F1
102
{ACAD_XDICTIONARY
360
2098E
102
}
102
{ACAD_REACTORS
330
1B2F0
102
}
330
1B2F0
100
AcDbModelDocViewStyle
 70
     0
  3
Metric50
290
     0
100
AcDbDetailViewStyle
 70
     0
 71
     0
 90
        3
 71
     1
340
11
 40
5.0
340
0
 40
5.0
300

 40
0.0
280
     1
 71
     2
340
16
 90
       25
 71
     3
340
11
 40
5.0
 90
        0
 40
15.0
 90
        1
300
%<\AcVar ViewDetailId>% (%<\AcVar ViewScale \f "%sn">%)
 71
     4
340
16
 90
       25
340
16
 90
       25
280
     0
  0
LAYOUT
  5
31A7
102
{ACAD_XDICTIONARY
360
9C07
102
}
102
{ACAD_REACTORS
330
31A5
102
}
330
31A5
100
AcDbPlotSettings
  1

  2
\\ingdc01\ITB3
  4
A4
  6

 40
6.805083274841307
 41
5.027085781097412
 42
6.805068969726562
 43
5.027069091796875
 44
209.9733276367186
 45
296.9683227539062
 46
0.0
 47
0.0
 48
0.0
 49
0.0
140
0.0
141
0.0
142
1.0
143
1.0
 70
   688
 72
     1
 73
     1
 74
     5
  7

 75
    16
147
1.0
148
0.0
149
0.0
100
AcDbLayout
  1
Layout1
 70
     1
 71
     1
 10
-5.027069091796875
 20
-6.805083274841307
 11
291.9412536621094
 21
203.1682443618775
 12
0.0
 22
0.0
 32
0.0
 14
28.69141678810127
 24
19.6363175392151
 34
0.0
 15
258.2227510929107
 25
176.7268578529358
 35
0.0
146
0.0
 13
0.0
 23
0.0
 33
0.0
 16
1.0
 26
0.0
 36
0.0
 17
0.0
 27
1.0
 37
0.0
 76
     0
330
1B
331
9C00
1001
ACAD_PSEXT
1000
\\ingdc01\ITB3
1000
HP LaserJet 5000 Series PCL
1000
TB
1000

1070
     0
  0
LAYOUT
  5
31A6
102
{ACAD_XDICTIONARY
360
21862
102
}
102
{ACAD_REACTORS
330
31A5
102
}
330
31A5
100
AcDbPlotSettings
  1

  2
\\ingdc01\ITB3
  4
A4
  6

 40
6.805083274841307
 41
5.027085781097412
 42
6.805068969726562
 43
5.027069091796875
 44
209.9733276367186
 45
296.9683227539062
 46
0.0
 47
0.0
 48
0.0
 49
0.0
140
0.0
141
0.0
142
1.0
143
1.500313223655698
 70
 11952
 72
     1
 73
     1
 74
     0
  7

 75
     0
147
0.6665274852163048
148
239.0155119930048
149
102.2558208723354
100
AcDbLayout
  1
Model
 70
     1
 71
     0
 10
0.0
 20
0.0
 11
12.0
 21
9.0
 12
0.0
 22
0.0
 32
0.0
 14
0.0
 24
0.0
 34
0.0
 15
0.0
 25
0.0
 35
0.0
146
0.0
 13
0.0
 23
0.0
 33
0.0
 16
1.0
 26
0.0
 36
0.0
 17
0.0
 27
1.0
 37
0.0
 76
     0
330
1F
331
1F4
1001
ACAD_PSEXT
1000
\\ingdc01\ITB3
1000
HP LaserJet 5000 Series PCL
1000
TB
1000

1070
     0
  0
MATERIAL
  5
318D
102
{ACAD_XDICTIONARY
360
1B22B
102
}
102
{ACAD_REACTORS
330
318B
102
}
330
318B
100
AcDbMaterial
  1
ByBlock
  0
MATERIAL
  5
318C
102
{ACAD_XDICTIONARY
360
1B22D
102
}
102
{ACAD_REACTORS
330
318B
102
}
330
318B
100
AcDbMaterial
  1
ByLayer
  0
MATERIAL
  5
318E
102
{ACAD_XDICTIONARY
360
1B22F
102
}
102
{ACAD_REACTORS
330
318B
102
}
330
318B
100
AcDbMaterial
  1
Global
  0
MLEADERSTYLE
  5
1B2ED
102
{ACAD_REACTORS
330
1B221
102
}
330
1B221
100
AcDbMLeaderStyle
170
     2
171
     1
172
     0
 90
        2
 40
0.0
 41
0.0
173
     1
 91
-1056964608
340
14
 92
       -2
290
     1
 42
2.0
291
     1
 43
0.36
  3
Standard
 44
4.0
300

342
11
174
     1
178
     6
175
     1
176
     0
 93
-1056964608
 45
4.0
292
     0
297
     0
 46
4.0
 94
-1056964608
 47
1.0
 49
1.0
140
1.0
293
     1
141
0.0
294
     1
177
     0
142
1.0
295
     0
296
     0
143
0.125
1001
ACAD_MLEADERVER
1070
     2
  0
MLINESTYLE
  5
3185
102
{ACAD_REACTORS
330
3184
102
}
330
3184
100
AcDbMlineStyle
  2
STANDARD
 70
     0
  3

 62
   256
 51
90.0
 52
90.0
 71
     2
 49
0.5
 62
   256
  6
BYLAYER
 49
-0.5
 62
   256
  6
BYLAYER
  0
ACDBPLACEHOLDER
  5
318A
102
{ACAD_REACTORS
330
3189
102
}
330
3189
  0
SCALE
  5
1B1FD
102
{ACAD_REACTORS
330
1B1FC
102
}
330
1B1FC
100
AcDbScale
 70
     0
300
1:1
140
1.0
141
1.0
290
     1
1001
ACAD
1000
AcRTDxfName
1000
SCALE
  0
SCALE
  5
1B1FE
102
{ACAD_REACTORS
330
1B1FC
102
}
330
1B1FC
100
AcDbScale
 70
     0
300
1:2
140
1.0
141
2.0
290
     0
1001
ACAD
1000
AcRTDxfName
1000
SCALE
  0
SCALE
  5
1B1FF
102
{ACAD_REACTORS
330
1B1FC
102
}
330
1B1FC
100
AcDbScale
 70
     0
300
1:4
140
1.0
141
4.0
290
     0
1001
ACAD
1000
AcRTDxfName
1000
SCALE
  0
SCALE
  5
1B200
102
{ACAD_REACTORS
330
1B1FC
102
}
330
1B1FC
100
AcDbScale
 70
     0
300
1:5
140
1.0
141
5.0
290
     0
1001
ACAD
1000
AcRTDxfName
1000
SCALE
  0
SCALE
  5
1B201
102
{ACAD_REACTORS
330
1B1FC
102
}
330
1B1FC
100
AcDbScale
 70
     0
300
1:8
140
1.0
141
8.0
290
     0
1001
ACAD
1000
AcRTDxfName
1000
SCALE
  0
SCALE
  5
1B202
102
{ACAD_REACTORS
330
1B1FC
102
}
330
1B1FC
100
AcDbScale
 70
     0
300
1:10
140
1.0
141
10.0
290
     0
1001
ACAD
1000
AcRTDxfName
1000
SCALE
  0
SCALE
  5
1B203
102
{ACAD_REACTORS
330
1B1FC
102
}
330
1B1FC
100
AcDbScale
 70
     0
300
1:16
140
1.0
141
16.0
290
     0
1001
ACAD
1000
AcRTDxfName
1000
SCALE
  0
SCALE
  5
1B204
102
{ACAD_REACTORS
330
1B1FC
102
}
330
1B1FC
100
AcDbScale
 70
     0
300
1:20
140
1.0
141
20.0
290
     0
1001
ACAD
1000
AcRTDxfName
1000
SCALE
  0
SCALE
  5
1B205
102
{ACAD_REACTORS
330
1B1FC
102
}
330
1B1FC
100
AcDbScale
 70
     0
300
1:30
140
1.0
141
30.0
290
     0
1001
ACAD
1000
AcRTDxfName
1000
SCALE
  0
SCALE
  5
1B206
102
{ACAD_REACTORS
330
1B1FC
102
}
330
1B1FC
100
AcDbScale
 70
     0
300
1:40
140
1.0
141
40.0
290
     0
1001
ACAD
1000
AcRTDxfName
1000
SCALE
  0
SCALE
  5
1B207
102
{ACAD_REACTORS
330
1B1FC
102
}
330
1B1FC
100
AcDbScale
 70
     0
300
1:50
140
1.0
141
50.0
290
     0
1001
ACAD
1000
AcRTDxfName
1000
SCALE
  0
SCALE
  5
1B208
102
{ACAD_REACTORS
330
1B1FC
102
}
330
1B1FC
100
AcDbScale
 70
     0
300
1:100
140
1.0
141
100.0
290
     0
1001
ACAD
1000
AcRTDxfName
1000
SCALE
  0
SCALE
  5
1B209
102
{ACAD_REACTORS
330
1B1FC
102
}
330
1B1FC
100
AcDbScale
 70
     0
300
2:1
140
2.0
141
1.0
290
     0
1001
ACAD
1000
AcRTDxfName
1000
SCALE
  0
SCALE
  5
1B20A
102
{ACAD_REACTORS
330
1B1FC
102
}
330
1B1FC
100
AcDbScale
 70
     0
300
4:1
140
4.0
141
1.0
290
     0
1001
ACAD
1000
AcRTDxfName
1000
SCALE
  0
SCALE
  5
1B20B
102
{ACAD_REACTORS
330
1B1FC
102
}
330
1B1FC
100
AcDbScale
 70
     0
300
8:1
140
8.0
141
1.0
290
     0
1001
ACAD
1000
AcRTDxfName
1000
SCALE
  0
SCALE
  5
1B20C
102
{ACAD_REACTORS
330
1B1FC
102
}
330
1B1FC
100
AcDbScale
 70
     0
300
10:1
140
10.0
141
1.0
290
     0
1001
ACAD
1000
AcRTDxfName
1000
SCALE
  0
SCALE
  5
1B20D
102
{ACAD_REACTORS
330
1B1FC
102
}
330
1B1FC
100
AcDbScale
 70
     0
300
100:1
140
100.0
141
1.0
290
     0
1001
ACAD
1000
AcRTDxfName
1000
SCALE
  0
SCALE
  5
1B20E
102
{ACAD_REACTORS
330
1B1FC
102
}
330
1B1FC
100
AcDbScale
 70
     0
300
1/128" = 1'-0"
140
0.0078125
141
12.0
290
     0
1001
ACAD
1000
AcRTDxfName
1000
SCALE
  0
SCALE
  5
1B20F
102
{ACAD_REACTORS
330
1B1FC
102
}
330
1B1FC
100
AcDbScale
 70
     0
300
1/64" = 1'-0"
140
0.015625
141
12.0
290
     0
1001
ACAD
1000
AcRTDxfName
1000
SCALE
  0
SCALE
  5
1B210
102
{ACAD_REACTORS
330
1B1FC
102
}
330
1B1FC
100
AcDbScale
 70
     0
300
1/32" = 1'-0"
140
0.03125
141
12.0
290
     0
1001
ACAD
1000
AcRTDxfName
1000
SCALE
  0
SCALE
  5
1B211
102
{ACAD_REACTORS
330
1B1FC
102
}
330
1B1FC
100
AcDbScale
 70
     0
300
1/16" = 1'-0"
140
0.0625
141
12.0
290
     0
1001
ACAD
1000
AcRTDxfName
1000
SCALE
  0
SCALE
  5
1B212
102
{ACAD_REACTORS
330
1B1FC
102
}
330
1B1FC
100
AcDbScale
 70
     0
300
3/32" = 1'-0"
140
0.09375
141
12.0
290
     0
1001
ACAD
1000
AcRTDxfName
1000
SCALE
  0
SCALE
  5
1B213
102
{ACAD_REACTORS
330
1B1FC
102
}
330
1B1FC
100
AcDbScale
 70
     0
300
1/8" = 1'-0"
140
0.125
141
12.0
290
     0
1001
ACAD
1000
AcRTDxfName
1000
SCALE
  0
SCALE
  5
1B214
102
{ACAD_REACTORS
330
1B1FC
102
}
330
1B1FC
100
AcDbScale
 70
     0
300
3/16" = 1'-0"
140
0.1875
141
12.0
290
     0
1001
ACAD
1000
AcRTDxfName
1000
SCALE
  0
SCALE
  5
1B215
102
{ACAD_REACTORS
330
1B1FC
102
}
330
1B1FC
100
AcDbScale
 70
     0
300
1/4" = 1'-0"
140
0.25
141
12.0
290
     0
1001
ACAD
1000
AcRTDxfName
1000
SCALE
  0
SCALE
  5
1B216
102
{ACAD_REACTORS
330
1B1FC
102
}
330
1B1FC
100
AcDbScale
 70
     0
300
3/8" = 1'-0"
140
0.375
141
12.0
290
     0
1001
ACAD
1000
AcRTDxfName
1000
SCALE
  0
SCALE
  5
1B217
102
{ACAD_REACTORS
330
1B1FC
102
}
330
1B1FC
100
AcDbScale
 70
     0
300
1/2" = 1'-0"
140
0.5
141
12.0
290
     0
1001
ACAD
1000
AcRTDxfName
1000
SCALE
  0
SCALE
  5
1B218
102
{ACAD_REACTORS
330
1B1FC
102
}
330
1B1FC
100
AcDbScale
 70
     0
300
3/4" = 1'-0"
140
0.75
141
12.0
290
     0
1001
ACAD
1000
AcRTDxfName
1000
SCALE
  0
SCALE
  5
1B219
102
{ACAD_REACTORS
330
1B1FC
102
}
330
1B1FC
100
AcDbScale
 70
     0
300
1" = 1'-0"
140
1.0
141
12.0
290
     0
1001
ACAD
1000
AcRTDxfName
1000
SCALE
  0
SCALE
  5
1B21A
102
{ACAD_REACTORS
330
1B1FC
102
}
330
1B1FC
100
AcDbScale
 70
     0
300
1-1/2" = 1'-0"
140
1.5
141
12.0
290
     0
1001
ACAD
1000
AcRTDxfName
1000
SCALE
  0
SCALE
  5
1B21B
102
{ACAD_REACTORS
330
1B1FC
102
}
330
1B1FC
100
AcDbScale
 70
     0
300
3" = 1'-0"
140
3.0
141
12.0
290
     0
1001
ACAD
1000
AcRTDxfName
1000
SCALE
  0
SCALE
  5
1B21C
102
{ACAD_REACTORS
330
1B1FC
102
}
330
1B1FC
100
AcDbScale
 70
     0
300
6" = 1'-0"
140
6.0
141
12.0
290
     0
1001
ACAD
1000
AcRTDxfName
1000
SCALE
  0
SCALE
  5
1B21D
102
{ACAD_REACTORS
330
1B1FC
102
}
330
1B1FC
100
AcDbScale
 70
     0
300
1'-0" = 1'-0"
140
12.0
141
12.0
290
     0
1001
ACAD
1000
AcRTDxfName
1000
SCALE
  0
ACDBSECTIONVIEWSTYLE
  5
20CB1
102
{ACAD_XDICTIONARY
360
20CB2
102
}
102
{ACAD_REACTORS
330
1B2EE
102
}
330
1B2EE
100
AcDbModelDocViewStyle
 70
     0
  3
Imperial24
290
     0
100
AcDbSectionViewStyle
 70
     0
 71
     0
 90
       78
 71
     1
340
11
 40
0.24
340
0
340
0
 40
0.24
300
I, O, Q, S, X, Z
 40
0.48
 90
        3
 40
0.18
 90
        1
 71
     2
340
16
 90
       25
340
16
 90
       50
 40
0.24
 40
0.0
 40
0.24
 71
     3
340
11
 40
0.24
 90
        1
 40
0.75
 90
        1
300
%<\AcVar ViewType \f "%tc1">% %<\AcVar ViewSectionStartId>%-%<\AcVar ViewSectionEndId>%\PVARIA %<\AcVar ViewScale \f "%sn">%
 71
     4
300
ANSI31
 40
1.0
 90
        0
290
     0
290
     0
 90
        6
 40
0.0
 40
1.570796326794896
 40
0.2617993877991494
 40
1.308996938995747
 40
-0.2617993877991494
 40
1.832595714594046
  0
ACDBSECTIONVIEWSTYLE
  5
1B2EF
102
{ACAD_XDICTIONARY
360
2098C
102
}
102
{ACAD_REACTORS
330
1B2EE
102
}
330
1B2EE
100
AcDbModelDocViewStyle
 70
     0
  3
Metric50
290
     0
100
AcDbSectionViewStyle
 70
     0
 71
     0
 90
      102
 71
     1
340
11
 40
5.0
340
0
340
0
 40
5.0
300
I, O, Q, S, X, Z
 40
10.0
 90
        0
 40
2.5
 90
        0
 71
     2
340
16
 90
       25
340
16
 90
       50
 40
5.0
 40
2.5
 40
5.0
 71
     3
340
11
 40
5.0
 90
        0
 40
15.0
 90
        1
300
%<\AcVar ViewSectionStartId>%-%<\AcVar ViewSectionEndId>% (%<\AcVar ViewScale \f "%sn">%)
 71
     4
300
ANSI31
 40
1.0
 90
        0
290
     0
290
     0
 90
        6
 40
0.0
 40
1.570796326794896
 40
0.2617993877991494
 40
1.308996938995747
 40
-0.2617993877991494
 40
1.832595714594044
  0
TABLESTYLE
  5
31A2
102
{ACAD_XDICTIONARY
360
1B314
102
}
102
{ACAD_REACTORS
330
31A1
102
}
330
31A1
100
AcDbTableStyle
  3
Standard
 70
     0
 71
     0
 40
1.5
 41
1.5
280
     0
281
     0
  7
STANDARD
140
4.5
170
     2
 62
     0
 63
     7
283
     0
274
    -2
284
     1
 64
     0
275
    -2
285
     1
 65
     0
276
    -2
286
     1
 66
     0
277
    -2
287
     1
 67
     0
278
    -2
288
     1
 68
     0
279
    -2
289
     1
 69
     0
  7
STANDARD
140
6.0
170
     5
 62
     0
 63
     7
283
     0
274
    -2
284
     1
 64
     0
275
    -2
285
     1
 65
     0
276
    -2
286
     1
 66
     0
277
    -2
287
     1
 67
     0
278
    -2
288
     1
 68
     0
279
    -2
289
     1
 69
     0
  7
STANDARD
140
4.5
170
     5
 62
     0
 63
     7
283
     0
274
    -2
284
     1
 64
     0
275
    -2
285
     1
 65
     0
276
    -2
286
     1
 66
     0
277
    -2
287
     1
 67
     0
278
    -2
288
     1
 68
     0
279
    -2
289
     1
 69
     0
  0
VISUALSTYLE
  5
3195
102
{ACAD_XDICTIONARY
360
2184B
102
}
102
{ACAD_REACTORS
330
318F
102
}
330
318F
100
AcDbVisualStyle
  2

 70
     4
 71
     0
 72
     2
 73
     0
 90
        0
 40
-0.6
 41
-30.0
 62
     5
 63
     7
 74
     1
 91
        4
 64
     7
 65
   257
 75
     1
175
     1
 42
1.0
 92
        0
 66
   257
 43
1.0
 76
     1
 77
     6
 78
     2
 67
     7
 79
     5
170
     0
171
     0
290
     0
174
     0
 93
        1
 44
0.0
173
     0
291
     0
 45
0.0
1001
ACAD
1000
AcDbSavedByObjectVersion
1070
     0
  0
VISUALSTYLE
  5
3197
102
{ACAD_XDICTIONARY
360
2184F
102
}
102
{ACAD_REACTORS
330
318F
102
}
330
318F
100
AcDbVisualStyle
  2

 70
     6
 71
     1
 72
     2
 73
     2
 90
        0
 40
-0.6
 41
-30.0
 62
     5
 63
     7
 74
     2
 91
        2
 64
     7
 65
   257
 75
     2
175
     1
 42
40.0
 92
        0
 66
   257
 43
1.0
 76
     1
 77
     6
 78
     2
 67
     7
 79
     3
170
     0
171
     0
290
     0
174
     0
 93
        1
 44
0.0
173
     0
291
     0
 45
0.0
1001
ACAD
1000
AcDbSavedByObjectVersion
1070
     0
  0
VISUALSTYLE
  5
3196
102
{ACAD_XDICTIONARY
360
2184D
102
}
102
{ACAD_REACTORS
330
318F
102
}
330
318F
100
AcDbVisualStyle
  2

 70
     5
 71
     0
 72
     2
 73
     0
 90
        0
 40
-0.6
 41
-30.0
 62
     5
 63
     7
 74
     1
 91
        4
 64
     7
 65
   257
 75
     1
175
     1
 42
1.0
 92
        0
 66
   257
 43
1.0
 76
     1
 77
     6
 78
     2
 67
     7
 79
     5
170
     0
171
     0
290
     0
174
     0
 93
        1
 44
0.0
173
     0
291
     0
 45
0.0
1001
ACAD
1000
AcDbSavedByObjectVersion
1070
     0
  0
VISUALSTYLE
  5
3194
102
{ACAD_XDICTIONARY
360
21849
102
}
102
{ACAD_REACTORS
330
318F
102
}
330
318F
100
AcDbVisualStyle
  2

 70
     7
 71
     1
 72
     0
 73
     1
 90
        0
 40
-0.6
 41
-30.0
 62
     5
 63
     7
 74
     0
 91
        4
 64
     7
 65
   257
 75
     1
175
     1
 42
1.0
 92
        8
 66
     7
 43
1.0
 76
     1
 77
     6
 78
     2
 67
     7
 79
     5
170
     0
171
     0
290
     0
174
     0
 93
        1
 44
0.0
173
     0
291
     1
 45
0.0
1001
ACAD
1000
AcDbSavedByObjectVersion
1070
     0
  0
VISUALSTYLE
  5
319B
102
{ACAD_XDICTIONARY
360
21857
102
}
102
{ACAD_REACTORS
330
318F
102
}
330
318F
100
AcDbVisualStyle
  2

 70
    12
 71
     2
 72
     2
 73
     0
 90
        0
 40
-0.6
 41
-30.0
 62
     5
 63
     7
 74
     1
 91
        4
 64
     7
 65
   257
 75
     1
175
     1
 42
1.0
 92
        8
 66
     7
 43
1.0
 76
     1
 77
     6
 78
     2
 67
     7
 79
     5
170
     0
171
     0
290
     0
174
     0
 93
        1
 44
50.0
173
     0
291
     1
 45
0.0
1001
ACAD
1000
AcDbSavedByObjectVersion
1070
     0
  0
VISUALSTYLE
  5
319F
102
{ACAD_XDICTIONARY
360
2185F
102
}
102
{ACAD_REACTORS
330
318F
102
}
330
318F
100
AcDbVisualStyle
  2

 70
    16
 71
     2
 72
     2
 73
     3
 90
        0
 40
-0.6
 41
-30.0
 62
     5
 63
     8
 74
     1
 91
        4
 64
     7
 65
   257
 75
     1
175
     1
 42
1.0
 92
        8
 66
     8
 43
1.0
 76
     1
 77
     6
 78
     2
 67
     7
 79
     5
170
     0
171
     0
290
     0
174
     0
 93
        1
 44
0.0
173
     0
291
     1
 45
0.0
1001
ACAD
1000
AcDbSavedByObjectVersion
1070
     0
  0
VISUALSTYLE
  5
3198
102
{ACAD_XDICTIONARY
360
21851
102
}
102
{ACAD_REACTORS
330
318F
102
}
330
318F
100
AcDbVisualStyle
  2

 70
     9
 71
     3
 72
     2
 73
     0
 90
        0
 40
-0.6
 41
-30.0
 62
     5
 63
     7
 74
     2
 91
        2
 64
     7
 65
   257
 75
     1
175
     1
 42
40.0
 92
        8
 66
     7
 43
1.0
 76
     1
 77
     6
 78
     2
 67
     7
 79
     3
170
     0
171
     0
290
     0
174
     0
 93
        1
 44
0.0
173
     0
291
     0
 45
0.0
1001
ACAD
1000
AcDbSavedByObjectVersion
1070
     0
  0
VISUALSTYLE
  5
319A
102
{ACAD_XDICTIONARY
360
21855
102
}
102
{ACAD_REACTORS
330
318F
102
}
330
318F
100
AcDbVisualStyle
  2

 70
    11
 71
     2
 72
     2
 73
     0
 90
        0
 40
-0.6
 41
-30.0
 62
     5
 63
     7
 74
     1
 91
        4
 64
     7
 65
   257
 75
     1
175
     1
 42
1.0
 92
        8
 66
     7
 43
1.0
 76
     1
 77
     6
 78
     2
 67
     7
 79
     5
170
     0
171
     0
290
     0
174
     0
 93
        1
 44
-50.0
173
     0
291
     1
 45
0.0
1001
ACAD
1000
AcDbSavedByObjectVersion
1070
     0
  0
VISUALSTYLE
  5
1B2EC
102
{ACAD_XDICTIONARY
360
2187B
102
}
102
{ACAD_REACTORS
330
318F
102
}
330
318F
100
AcDbVisualStyle
  2

 70
    22
 71
     2
 72
     2
 73
     0
 90
        0
 40
-0.6
 41
-30.0
 62
     5
 63
     7
 74
     1
 91
        4
 64
     7
 65
   257
 75
     1
175
     1
 42
1.0
 92
        8
 66
     7
 43
1.0
 76
     1
 77
     6
 78
     2
 67
     7
 79
     5
170
     0
171
     0
290
     0
174
     0
 93
        1
 44
0.0
173
     0
291
     1
 45
0.0
1001
ACAD
1000
AcDbSavedByObjectVersion
1070
     0
  0
VISUALSTYLE
  5
319E
102
{ACAD_XDICTIONARY
360
2185D
102
}
102
{ACAD_REACTORS
330
318F
102
}
330
318F
100
AcDbVisualStyle
  2

 70
    15
 71
     2
 72
     2
 73
     0
 90
        0
 40
-0.6
 41
-30.0
 62
     5
 63
     7
 74
     1
 91
        4
 64
     7
 65
   257
 75
     1
175
     1
 42
1.0
 92
        8
 66
     7
 43
1.0
 76
     1
 77
     6
 78
     2
 67
     7
 79
     5
170
     0
171
     0
290
     0
174
     0
 93
        1
 44
0.0
173
     0
291
     1
 45
0.0
1001
ACAD
1000
AcDbSavedByObjectVersion
1070
     0
  0
VISUALSTYLE
  5
3190
102
{ACAD_XDICTIONARY
360
21841
102
}
102
{ACAD_REACTORS
330
318F
102
}
330
318F
100
AcDbVisualStyle
  2

 70
     0
 71
     2
 72
     1
 73
     1
 90
        2
 40
-0.6
 41
30.0
 62
     5
 63
     7
 74
     0
 91
        4
 64
     7
 65
   257
 75
     1
175
     1
 42
1.0
 92
        8
 66
     7
 43
1.0
 76
     1
 77
     6
 78
     2
 67
     7
 79
     5
170
     0
171
     0
290
     0
174
     0
 93
       13
 44
0.0
173
     0
291
     1
 45
0.0
1001
ACAD
1000
AcDbSavedByObjectVersion
1070
     0
  0
VISUALSTYLE
  5
3191
102
{ACAD_XDICTIONARY
360
21843
102
}
102
{ACAD_REACTORS
330
318F
102
}
330
318F
100
AcDbVisualStyle
  2

 70
     1
 71
     2
 72
     1
 73
     1
 90
        2
 40
-0.6
 41
30.0
 62
     5
 63
     7
 74
     1
 91
        4
 64
     7
 65
   257
 75
     1
175
     1
 42
1.0
 92
        0
 66
   257
 43
1.0
 76
     1
 77
     6
 78
     2
 67
     7
 79
     5
170
     0
171
     0
290
     0
174
     0
 93
       13
 44
0.0
173
     0
291
     1
 45
0.0
1001
ACAD
1000
AcDbSavedByObjectVersion
1070
     0
  0
VISUALSTYLE
  5
3192
102
{ACAD_XDICTIONARY
360
21845
102
}
102
{ACAD_REACTORS
330
318F
102
}
330
318F
100
AcDbVisualStyle
  2

 70
     2
 71
     2
 72
     2
 73
     1
 90
        2
 40
-0.6
 41
30.0
 62
     5
 63
     7
 74
     0
 91
        4
 64
     7
 65
   257
 75
     1
175
     1
 42
1.0
 92
        0
 66
     7
 43
1.0
 76
     1
 77
     6
 78
     2
 67
     7
 79
     5
170
     0
171
     0
290
     0
174
     0
 93
       13
 44
0.0
173
     0
291
     1
 45
0.0
1001
ACAD
1000
AcDbSavedByObjectVersion
1070
     0
  0
VISUALSTYLE
  5
3193
102
{ACAD_XDICTIONARY
360
21847
102
}
102
{ACAD_REACTORS
330
318F
102
}
330
318F
100
AcDbVisualStyle
  2

 70
     3
 71
     2
 72
     2
 73
     1
 90
        2
 40
-0.6
 41
30.0
 62
     5
 63
     7
 74
     1
 91
        4
 64
     7
 65
   257
 75
     1
175
     1
 42
1.0
 92
        0
 66
   257
 43
1.0
 76
     1
 77
     6
 78
     2
 67
     7
 79
     5
170
     0
171
     0
290
     0
174
     0
 93
       13
 44
0.0
173
     0
291
     1
 45
0.0
1001
ACAD
1000
AcDbSavedByObjectVersion
1070
     0
  0
VISUALSTYLE
  5
1B2E4
102
{ACAD_XDICTIONARY
360
2186B
102
}
102
{ACAD_REACTORS
330
318F
102
}
330
318F
100
AcDbVisualStyle
  2

 70
     6
 71
     1
 72
     2
 73
     2
 90
        0
 40
-0.6
 41
-30.0
 62
     5
 63
     7
 74
     2
 91
        2
 64
     7
 65
   257
 75
     2
175
     1
 42
40.0
 92
        0
 66
   257
 43
1.0
 76
     1
 77
     6
 78
     2
 67
     7
 79
     3
170
     0
171
     0
290
     0
174
     0
 93
        1
 44
0.0
173
     0
291
     0
 45
0.0
1001
ACAD
1000
AcDbSavedByObjectVersion
1070
     0
  0
VISUALSTYLE
  5
1B2EA
102
{ACAD_XDICTIONARY
360
21877
102
}
102
{ACAD_REACTORS
330
318F
102
}
330
318F
100
AcDbVisualStyle
  2

 70
    20
 71
     2
 72
     2
 73
     0
 90
        0
 40
-0.6
 41
-30.0
 62
     5
 63
     7
 74
     1
 91
        4
 64
     7
 65
   257
 75
     1
175
     1
 42
1.0
 92
       10
 66
     7
 43
1.0
 76
     1
 77
     6
 78
     2
 67
     7
 79
     5
170
     0
171
     0
290
     0
174
     0
 93
        1
 44
0.0
173
     0
291
     1
 45
0.0
1001
ACAD
1000
AcDbSavedByObjectVersion
1070
     0
  0
VISUALSTYLE
  5
319D
102
{ACAD_XDICTIONARY
360
2185B
102
}
102
{ACAD_REACTORS
330
318F
102
}
330
318F
100
AcDbVisualStyle
  2

 70
    14
 71
     2
 72
     2
 73
     0
 90
        0
 40
-0.6
 41
-30.0
 62
     5
 63
     7
 74
     1
 91
        4
 64
     7
 65
   257
 75
     7
175
     7
 42
1.0
 92
        8
 66
     7
 43
1.0
 76
     1
 77
     6
 78
     2
 67
     7
 79
     5
170
     0
171
     0
290
     0
174
     0
 93
        1
 44
0.0
173
     0
291
     1
 45
0.0
1001
ACAD
1000
AcDbSavedByObjectVersion
1070
     0
  0
VISUALSTYLE
  5
1B2EB
102
{ACAD_XDICTIONARY
360
21879
102
}
102
{ACAD_REACTORS
330
318F
102
}
330
318F
100
AcDbVisualStyle
  2

 70
    21
 71
     2
 72
     2
 73
     0
 90
        0
 40
-0.6
 41
-30.0
 62
     5
 63
     7
 74
     1
 91
        4
 64
     7
 65
   257
 75
     1
175
     1
 42
1.0
 92
        9
 66
     7
 43
1.0
 76
     1
 77
     6
 78
     2
 67
     7
 79
     5
170
     0
171
     0
290
     0
174
     0
 93
        1
 44
0.0
173
     0
291
     1
 45
0.0
1001
ACAD
1000
AcDbSavedByObjectVersion
1070
     0
  0
VISUALSTYLE
  5
3199
102
{ACAD_XDICTIONARY
360
21853
102
}
102
{ACAD_REACTORS
330
318F
102
}
330
318F
100
AcDbVisualStyle
  2

 70
     8
 71
     2
 72
     2
 73
     0
 90
        0
 40
-0.6
 41
-30.0
 62
     5
 63
     7
 74
     1
 91
        0
 64
     7
 65
   257
 75
     1
175
     1
 42
1.0
 92
        8
 66
     8
 43
1.0
 76
     1
 77
     6
 78
     2
 67
     7
 79
     5
170
     0
171
     0
290
     0
174
     0
 93
       13
 44
0.0
173
     0
291
     0
 45
0.0
1001
ACAD
1000
AcDbSavedByObjectVersion
1070
     0
  0
VISUALSTYLE
  5
1B2E9
102
{ACAD_XDICTIONARY
360
21875
102
}
102
{ACAD_REACTORS
330
318F
102
}
330
318F
100
AcDbVisualStyle
  2

 70
    27
 71
     2
 72
     2
 73
     1
 90
        2
 40
-0.6
 41
30.0
 62
     5
 63
     7
 74
     0
 91
        4
 64
     7
 65
   257
 75
     1
175
     1
 42
1.0
 92
        8
 66
   257
 43
1.0
 76
     1
 77
     6
 78
     2
 67
     8
 79
     3
170
     0
171
     0
290
     0
174
     0
 93
        5
 44
0.0
173
     0
291
     0
 45
0.0
1001
ACAD
1000
AcDbSavedByObjectVersion
1070
     0
  0
VISUALSTYLE
  5
1B2E8
102
{ACAD_XDICTIONARY
360
21873
102
}
102
{ACAD_REACTORS
330
318F
102
}
330
318F
100
AcDbVisualStyle
  2

 70
    26
 71
     2
 72
     2
 73
     1
 90
        2
 40
-0.6
 41
30.0
 62
     5
 63
     7
 74
     1
 91
       10
 64
     7
 65
   257
 75
     2
175
     1
 42
1.0
 92
        8
 66
   257
 43
1.0
 76
     1
 77
     6
 78
     2
 67
     7
 79
     3
170
     0
171
     0
290
     0
174
     0
 93
        5
 44
0.0
173
     0
291
     0
 45
0.0
1001
ACAD
1000
AcDbSavedByObjectVersion
1070
     0
  0
VISUALSTYLE
  5
1B2E5
102
{ACAD_XDICTIONARY
360
2186D
102
}
102
{ACAD_REACTORS
330
318F
102
}
330
318F
100
AcDbVisualStyle
  2

 70
    23
 71
     2
 72
     2
 73
     3
 90
        0
 40
-0.6
 41
-30.0
 62
     5
 63
     7
 74
     2
 91
        2
 64
     7
 65
     7
 75
     1
175
     1
 42
40.0
 92
        8
 66
     7
 43
1.0
 76
     1
 77
     6
 78
     2
 67
     7
 79
     3
170
     0
171
     0
290
     0
174
     0
 93
        1
 44
0.0
173
     0
291
     0
 45
0.0
1001
ACAD
1000
AcDbSavedByObjectVersion
1070
     0
  0
VISUALSTYLE
  5
1B2E6
102
{ACAD_XDICTIONARY
360
2186F
102
}
102
{ACAD_REACTORS
330
318F
102
}
330
318F
100
AcDbVisualStyle
  2

 70
    24
 71
     1
 72
     2
 73
     2
 90
        0
 40
-0.6
 41
-30.0
 62
     5
 63
     7
 74
     2
 91
        2
 64
     7
 65
     7
 75
     1
175
     1
 42
40.0
 92
       11
 66
     7
 43
1.0
 76
     1
 77
     6
 78
     2
 67
     7
 79
     6
170
     0
171
     0
290
     0
174
     0
 93
        1
 44
0.0
173
     0
291
     0
 45
0.0
1001
ACAD
1000
AcDbSavedByObjectVersion
1070
     0
  0
VISUALSTYLE
  5
319C
102
{ACAD_XDICTIONARY
360
21859
102
}
102
{ACAD_REACTORS
330
318F
102
}
330
318F
100
AcDbVisualStyle
  2

 70
    13
 71
     2
 72
     2
 73
     0
 90
        0
 40
-0.6
 41
-30.0
 62
     5
 63
     7
 74
     1
 91
        4
 64
     7
 65
   257
 75
     1
175
     1
 42
1.0
 92
       12
 66
     7
 43
1.0
 76
     1
 77
     6
 78
     2
 67
     7
 79
     5
170
     0
171
     0
290
     0
174
     0
 93
        1
 44
0.0
173
     0
291
     1
 45
0.0
1001
ACAD
1000
AcDbSavedByObjectVersion
1070
     0
  0
VISUALSTYLE
  5
1B2E3
102
{ACAD_XDICTIONARY
360
21869
102
}
102
{ACAD_REACTORS
330
318F
102
}
330
318F
100
AcDbVisualStyle
  2

 70
     5
 71
     0
 72
     2
 73
     0
 90
        0
 40
-0.6
 41
-30.0
 62
     5
 63
     7
 74
     1
 91
        4
 64
     7
 65
   257
 75
     1
175
     1
 42
1.0
 92
        0
 66
   257
 43
1.0
 76
     1
 77
     6
 78
     2
 67
     7
 79
     3
170
     0
171
     0
290
     0
174
     0
 93
        1
 44
0.0
173
     0
291
     0
 45
0.0
1001
ACAD
1000
AcDbSavedByObjectVersion
1070
     0
  0
VISUALSTYLE
  5
1B2E7
102
{ACAD_XDICTIONARY
360
21871
102
}
102
{ACAD_REACTORS
330
318F
102
}
330
318F
100
AcDbVisualStyle
  2

 70
    25
 71
     2
 72
     2
 73
     1
 90
        1
 40
0.5
 41
-30.0
 62
     5
 63
     7
 74
     1
 91
        0
 64
     7
 65
   257
 75
     1
175
     1
 42
1.0
 92
        8
 66
     7
 43
1.0
 76
     1
 77
     6
 78
     2
 67
     7
 79
     3
170
     0
171
     0
290
     0
174
     0
 93
       13
 44
0.0
173
     0
291
     0
 45
0.0
1001
ACAD
1000
AcDbSavedByObjectVersion
1070
     0
  0
DICTIONARYVAR
  5
1B222
102
{ACAD_REACTORS
330
33A3
102
}
330
33A3
100
DictionaryVariables
280
     0
  1
1:1
  0
DICTIONARYVAR
  5
1B30F
102
{ACAD_REACTORS
330
33A3
102
}
330
33A3
100
DictionaryVariables
280
     0
  1
STANDARD
  0
DICTIONARYVAR
  5
33A4
102
{ACAD_REACTORS
330
33A3
102
}
330
33A3
100
DictionaryVariables
280
     0
  1
STANDARD
  0
DICTIONARYVAR
  5
1B310
102
{ACAD_REACTORS
330
33A3
102
}
330
33A3
100
DictionaryVariables
280
     0
  1
Metric50
  0
DICTIONARYVAR
  5
1B311
102
{ACAD_REACTORS
330
33A3
102
}
330
33A3
100
DictionaryVariables
280
     0
  1
Metric50
  0
DICTIONARYVAR
  5
9BE8
102
{ACAD_REACTORS
330
33A3
102
}
330
33A3
100
DictionaryVariables
280
     0
  1
1
  0
DICTIONARYVAR
  5
9BE7
102
{ACAD_REACTORS
330
33A3
102
}
330
33A3
100
DictionaryVariables
280
     0
  1
0
  0
DICTIONARYVAR
  5
20993
102
{ACAD_REACTORS
330
33A3
102
}
330
33A3
100
DictionaryVariables
280
     0
  1
1
  0
DICTIONARYVAR
  5
20994
102
{ACAD_REACTORS
330
33A3
102
}
330
33A3
100
DictionaryVariables
280
     0
  1
15
  0
DICTIONARYVAR
  5
20992
102
{ACAD_REACTORS
330
33A3
102
}
330
33A3
100
DictionaryVariables
280
     0
  1
0
  0
DICTIONARYVAR
  5
20991
102
{ACAD_REACTORS
330
33A3
102
}
330
33A3
100
DictionaryVariables
280
     0
  1
0
  0
DICTIONARYVAR
  5
9BE6
102
{ACAD_REACTORS
330
33A3
102
}
330
33A3
100
DictionaryVariables
280
     0
  1
127
  0
DICTIONARYVAR
  5
1FAAB
102
{ACAD_REACTORS
330
33A3
102
}
330
33A3
100
DictionaryVariables
280
     0
  1
2
  0
DICTIONARY
  5
21840
102
{ACAD_REACTORS
330
2183E
102
}
330
2183E
100
AcDbDictionary
281
     1
  0
DICTIONARY
  5
2183F
102
{ACAD_REACTORS
330
2183E
102
}
330
2183E
100
AcDbDictionary
281
     1
  3
8796086776208
350
21839
  3
8796086776224
350
2183A
  3
8796086776240
350
2183B
  3
8796086776256
350
2183C
  3
8796086776272
350
2183D
  0
XRECORD
  5
21880
102
{ACAD_REACTORS
330
2187F
102
}
330
2187F
100
AcDbXrecord
280
     1
1070
     0
1070
     1
1070
     1
  0
XRECORD
  5
21884
102
{ACAD_REACTORS
330
21883
102
}
330
21883
100
AcDbXrecord
280
     1
1070
     0
1070
     1
1070
     1
  0
FIELD
  5
20CAB
102
{ACAD_REACTORS
330
20CAA
102
}
330
20CAA
100
AcDbField
  1
_text
  2
%<\_FldIdx 0>%
 90
        1
360
20CAC
 97
        0
  4

 91
       63
 92
        0
 94
        9
 95
        2
 96
        0
300

 93
        2
  6
ACFD_FIELDTEXT_ATTDEF
 90
        1
 91
        1
  6
ACFD_FIELDTEXT_CHECKSUM
 90
        2
140
7954.0
  7
ACFD_FIELD_VALUE
 90
        0
 91
        0
301

 98
        0
  0
FIELD
  5
20CC6
102
{ACAD_REACTORS
330
20CC5
102
}
330
20CC5
100
AcDbField
  1
_text
  2
%<\_FldIdx 0>%
 90
        1
360
20CC7
 97
        0
  4

 91
       63
 92
        0
 94
        9
 95
        2
 96
        0
300

 93
        1
  6
ACFD_FIELDTEXT_CHECKSUM
 90
        2
140
7954.0
  7
ACFD_FIELD_VALUE
 90
        0
 91
        0
301

 98
        0
  0
DICTIONARY
  5
20CB4
330
20CB3
100
AcDbDictionary
280
     1
281
     1
  3
ACAD_XREC_ROUNDTRIP
360
21886
  0
DICTIONARY
  5
2098E
330
1B2F1
100
AcDbDictionary
280
     1
281
     1
  3
ACAD_XREC_ROUNDTRIP
360
2187E
  0
DICTIONARY
  5
9C07
330
31A7
100
AcDbDictionary
280
     1
281
     1
  3
ACAD_XREC_ROUNDTRIP
360
21864
  0
DICTIONARY
  5
21862
330
31A6
100
AcDbDictionary
280
     1
281
     1
  3
ACAD_XREC_ROUNDTRIP
360
21863
  0
DICTIONARY
  5
1B22B
330
318D
100
AcDbDictionary
280
     1
281
     1
  3
ACAD_XREC_ROUNDTRIP
360
1B22C
  0
DICTIONARY
  5
1B22D
330
318C
100
AcDbDictionary
280
     1
281
     1
  3
ACAD_XREC_ROUNDTRIP
360
1B22E
  0
DICTIONARY
  5
1B22F
330
318E
100
AcDbDictionary
280
     1
281
     1
  3
ACAD_XREC_ROUNDTRIP
360
1B230
  0
DICTIONARY
  5
20CB2
330
20CB1
100
AcDbDictionary
280
     1
281
     1
  3
ACAD_XREC_ROUNDTRIP
360
21885
  0
DICTIONARY
  5
2098C
330
1B2EF
100
AcDbDictionary
280
     1
281
     1
  3
ACAD_XREC_ROUNDTRIP
360
2187D
  0
DICTIONARY
  5
1B314
330
31A2
100
AcDbDictionary
280
     1
281
     1
  3
ACAD_ROUNDTRIP_2008_TABLESTYLE_CELLSTYLEMAP
360
21836
  3
ACAD_XREC_ROUNDTRIP
360
21861
  0
DICTIONARY
  5
2184B
330
3195
100
AcDbDictionary
280
     1
281
     1
  3
ACAD_XREC_ROUNDTRIP
360
2184C
  0
DICTIONARY
  5
2184F
330
3197
100
AcDbDictionary
280
     1
281
     1
  3
ACAD_XREC_ROUNDTRIP
360
21850
  0
DICTIONARY
  5
2184D
330
3196
100
AcDbDictionary
280
     1
281
     1
  3
ACAD_XREC_ROUNDTRIP
360
2184E
  0
DICTIONARY
  5
21849
330
3194
100
AcDbDictionary
280
     1
281
     1
  3
ACAD_XREC_ROUNDTRIP
360
2184A
  0
DICTIONARY
  5
21857
330
319B
100
AcDbDictionary
280
     1
281
     1
  3
ACAD_XREC_ROUNDTRIP
360
21858
  0
DICTIONARY
  5
2185F
330
319F
100
AcDbDictionary
280
     1
281
     1
  3
ACAD_XREC_ROUNDTRIP
360
21860
  0
DICTIONARY
  5
21851
330
3198
100
AcDbDictionary
280
     1
281
     1
  3
ACAD_XREC_ROUNDTRIP
360
21852
  0
DICTIONARY
  5
21855
330
319A
100
AcDbDictionary
280
     1
281
     1
  3
ACAD_XREC_ROUNDTRIP
360
21856
  0
DICTIONARY
  5
2187B
330
1B2EC
100
AcDbDictionary
280
     1
281
     1
  3
ACAD_XREC_ROUNDTRIP
360
2187C
  0
DICTIONARY
  5
2185D
330
319E
100
AcDbDictionary
280
     1
281
     1
  3
ACAD_XREC_ROUNDTRIP
360
2185E
  0
DICTIONARY
  5
21841
330
3190
100
AcDbDictionary
280
     1
281
     1
  3
ACAD_XREC_ROUNDTRIP
360
21842
  0
DICTIONARY
  5
21843
330
3191
100
AcDbDictionary
280
     1
281
     1
  3
ACAD_XREC_ROUNDTRIP
360
21844
  0
DICTIONARY
  5
21845
330
3192
100
AcDbDictionary
280
     1
281
     1
  3
ACAD_XREC_ROUNDTRIP
360
21846
  0
DICTIONARY
  5
21847
330
3193
100
AcDbDictionary
280
     1
281
     1
  3
ACAD_XREC_ROUNDTRIP
360
21848
  0
DICTIONARY
  5
2186B
330
1B2E4
100
AcDbDictionary
280
     1
281
     1
  3
ACAD_XREC_ROUNDTRIP
360
2186C
  0
DICTIONARY
  5
21877
330
1B2EA
100
AcDbDictionary
280
     1
281
     1
  3
ACAD_XREC_ROUNDTRIP
360
21878
  0
DICTIONARY
  5
2185B
330
319D
100
AcDbDictionary
280
     1
281
     1
  3
ACAD_XREC_ROUNDTRIP
360
2185C
  0
DICTIONARY
  5
21879
330
1B2EB
100
AcDbDictionary
280
     1
281
     1
  3
ACAD_XREC_ROUNDTRIP
360
2187A
  0
DICTIONARY
  5
21853
330
3199
100
AcDbDictionary
280
     1
281
     1
  3
ACAD_XREC_ROUNDTRIP
360
21854
  0
DICTIONARY
  5
21875
330
1B2E9
100
AcDbDictionary
280
     1
281
     1
  3
ACAD_XREC_ROUNDTRIP
360
21876
  0
DICTIONARY
  5
21873
330
1B2E8
100
AcDbDictionary
280
     1
281
     1
  3
ACAD_XREC_ROUNDTRIP
360
21874
  0
DICTIONARY
  5
2186D
330
1B2E5
100
AcDbDictionary
280
     1
281
     1
  3
ACAD_XREC_ROUNDTRIP
360
2186E
  0
DICTIONARY
  5
2186F
330
1B2E6
100
AcDbDictionary
280
     1
281
     1
  3
ACAD_XREC_ROUNDTRIP
360
21870
  0
DICTIONARY
  5
21859
330
319C
100
AcDbDictionary
280
     1
281
     1
  3
ACAD_XREC_ROUNDTRIP
360
2185A
  0
DICTIONARY
  5
21869
330
1B2E3
100
AcDbDictionary
280
     1
281
     1
  3
ACAD_XREC_ROUNDTRIP
360
2186A
  0
DICTIONARY
  5
21871
330
1B2E7
100
AcDbDictionary
280
     1
281
     1
  3
ACAD_XREC_ROUNDTRIP
360
21872
  0
XRECORD
  5
21839
102
{ACAD_REACTORS
330
2183F
102
}
330
2183F
100
AcDbXrecord
280
     1
  1
AcDb_Thumbnail_Schema
102
{ATTRRECORD
341
2183A
  2
AcDbDs::TreatedAsObjectData
280
     1
291
     1
102
ATTRRECORD}
102
{ATTRRECORD
341
2183B
  2
AcDbDs::Legacy
280
     1
291
     1
102
ATTRRECORD}
  2
AcDbDs::ID
280
    10
 91
        8
102
{ATTRRECORD
341
2183C
  2
AcDs:Indexable
280
     1
291
     1
102
ATTRRECORD}
102
{ATTRRECORD
341
2183D
  2
AcDbDs::HandleAttribute
280
     7
282
     1
102
ATTRRECORD}
  2
Thumbnail_Data
280
    15
 91
        0
  0
XRECORD
  5
2183A
102
{ACAD_REACTORS
330
2183F
102
}
330
2183F
100
AcDbXrecord
280
     1
  1
AcDbDs::TreatedAsObjectDataSchema
  2
AcDbDs::TreatedAsObjectData
280
     1
 91
        0
  0
XRECORD
  5
2183B
102
{ACAD_REACTORS
330
2183F
102
}
330
2183F
100
AcDbXrecord
280
     1
  1
AcDbDs::LegacySchema
  2
AcDbDs::Legacy
280
     1
 91
        0
  0
XRECORD
  5
2183C
102
{ACAD_REACTORS
330
2183F
102
}
330
2183F
100
AcDbXrecord
280
     1
  1
AcDbDs::IndexedPropertySchema
  2
AcDs:Indexable
280
     1
 91
        0
  0
XRECORD
  5
2183D
102
{ACAD_REACTORS
330
2183F
102
}
330
2183F
100
AcDbXrecord
280
     1
  1
AcDbDs::HandleAttributeSchema
  2
AcDbDs::HandleAttribute
280
     7
 91
        1
284
     1
  0
FIELD
  5
20CAC
330
20CAB
100
AcDbField
  1
AcVar
  2
\AcVar Filename \f "%tc1%fn2"
 90
        0
 97
        0
  4
%tc1%fn2
 91
       63
 92
        0
 94
       59
 95
        2
 96
        0
300

 93
        1
  6
Variable
 90
        4
  1
Filename
  7
ACFD_FIELD_VALUE
 90
        4
  1
S:\BenderA\DXF_CIM\1TW\1TW7J020030X6R00.dxf
301
1TW7J020030X6R00
 98
       16
  0
FIELD
  5
20CC7
330
20CC6
100
AcDbField
  1
AcVar
  2
\AcVar Filename \f "%tc1%fn2"
 90
        0
 97
        0
  4
%tc1%fn2
 91
       63
 92
        0
 94
       59
 95
        2
 96
        0
300

 93
        1
  6
Variable
 90
        4
  1
Filename
  7
ACFD_FIELD_VALUE
 90
        4
  1
S:\BenderA\DXF_CIM\1TW\1TW7J020030X6R00.dxf
301
1TW7J020030X6R00
 98
       16
  0
XRECORD
  5
21886
102
{ACAD_REACTORS
330
20CB4
102
}
330
20CB4
100
AcDbXrecord
280
     1
102
DISPLAYNAME
  1
Imperial24
102
FLAGS
 90
        0
  0
XRECORD
  5
2187E
102
{ACAD_REACTORS
330
2098E
102
}
330
2098E
100
AcDbXrecord
280
     1
102
DISPLAYNAME
  1
Metric50
102
FLAGS
 90
        0
  0
XRECORD
  5
21864
102
{ACAD_REACTORS
330
9C07
102
}
330
9C07
100
AcDbXrecord
280
     1
102
SHADEPLOT
 70
     0
102
SHADEPLOTRESLEVEL
 70
     2
102
SHADEPLOTCUSTOMDPI
 70
   300
  0
XRECORD
  5
21863
102
{ACAD_REACTORS
330
21862
102
}
330
21862
100
AcDbXrecord
280
     1
102
SHADEPLOT
 70
     0
102
SHADEPLOTRESLEVEL
 70
     2
102
SHADEPLOTCUSTOMDPI
 70
   300
  0
XRECORD
  5
1B22C
102
{ACAD_REACTORS
330
1B22B
102
}
330
1B22B
100
AcDbXrecord
280
     1
102
MATERIAL
148
0.0
149
0.0
149
0.0
 93
        0
 94
      127
282
     0
 72
     1
 77
     1
171
     1
175
     1
179
     1
273
     0
  0
XRECORD
  5
1B22E
102
{ACAD_REACTORS
330
1B22D
102
}
330
1B22D
100
AcDbXrecord
280
     1
102
MATERIAL
148
0.0
149
0.0
149
0.0
 93
        0
 94
      127
282
     0
 72
     1
 77
     1
171
     1
175
     1
179
     1
273
     0
  0
XRECORD
  5
1B230
102
{ACAD_REACTORS
330
1B22F
102
}
330
1B22F
100
AcDbXrecord
280
     1
102
MATERIAL
148
0.0
149
0.0
149
0.0
 93
        0
 94
      127
282
     0
 72
     1
 77
     1
171
     1
175
     1
179
     1
273
     0
  0
XRECORD
  5
21885
102
{ACAD_REACTORS
330
20CB2
102
}
330
20CB2
100
AcDbXrecord
280
     1
102
DISPLAYNAME
  1
Imperial24
102
FLAGS
 90
        0
  0
XRECORD
  5
2187D
102
{ACAD_REACTORS
330
2098C
102
}
330
2098C
100
AcDbXrecord
280
     1
102
DISPLAYNAME
  1
Metric50
102
FLAGS
 90
        0
  0
CELLSTYLEMAP
  5
21836
102
{ACAD_REACTORS
330
1B314
102
}
330
1B314
100
AcDbCellStyleMap
 90
        3
300
CELLSTYLE
  1
TABLEFORMAT_BEGIN
 90
        5
170
     1
 91
        0
 92
    32768
 62
   257
 93
        1
300
CONTENTFORMAT
  1
CONTENTFORMAT_BEGIN
 90
        0
 91
        0
 92
        4
 93
        0
300

 40
0.0
140
1.0
 94
        5
 62
     0
340
11
144
6.0
309
CONTENTFORMAT_END
171
     1
301
MARGIN
  1
CELLMARGIN_BEGIN
 40
1.5
 40
1.5
 40
1.5
 40
1.5
 40
0.18
 40
0.18
309
CELLMARGIN_END
 94
        6
 95
        1
302
GRIDFORMAT
  1
GRIDFORMAT_BEGIN
 90
        0
 91
        1
 62
     0
 92
       -2
340
0
 93
        0
 40
0.045
309
GRIDFORMAT_END
 95
        2
302
GRIDFORMAT
  1
GRIDFORMAT_BEGIN
 90
        0
 91
        1
 62
     0
 92
       -2
340
0
 93
        0
 40
0.045
309
GRIDFORMAT_END
 95
        4
302
GRIDFORMAT
  1
GRIDFORMAT_BEGIN
 90
        0
 91
        1
 62
     0
 92
       -2
340
0
 93
        0
 40
0.045
309
GRIDFORMAT_END
 95
        8
302
GRIDFORMAT
  1
GRIDFORMAT_BEGIN
 90
        0
 91
        1
 62
     0
 92
       -2
340
0
 93
        0
 40
0.045
309
GRIDFORMAT_END
 95
       16
302
GRIDFORMAT
  1
GRIDFORMAT_BEGIN
 90
        0
 91
        1
 62
     0
 92
       -2
340
0
 93
        0
 40
0.045
309
GRIDFORMAT_END
 95
       32
302
GRIDFORMAT
  1
GRIDFORMAT_BEGIN
 90
        0
 91
        1
 62
     0
 92
       -2
340
0
 93
        0
 40
0.045
309
GRIDFORMAT_END
309
TABLEFORMAT_END
  1
CELLSTYLE_BEGIN
 90
        1
 91
        1
300
_TITLE
309
CELLSTYLE_END
300
CELLSTYLE
  1
TABLEFORMAT_BEGIN
 90
        5
170
     1
 91
        0
 92
        0
 62
   257
 93
        1
300
CONTENTFORMAT
  1
CONTENTFORMAT_BEGIN
 90
        0
 91
        0
 92
        4
 93
        0
300

 40
0.0
140
1.0
 94
        5
 62
     0
340
11
144
4.5
309
CONTENTFORMAT_END
171
     1
301
MARGIN
  1
CELLMARGIN_BEGIN
 40
1.5
 40
1.5
 40
1.5
 40
1.5
 40
0.18
 40
0.18
309
CELLMARGIN_END
 94
        6
 95
        1
302
GRIDFORMAT
  1
GRIDFORMAT_BEGIN
 90
        0
 91
        1
 62
     0
 92
       -2
340
0
 93
        0
 40
0.045
309
GRIDFORMAT_END
 95
        2
302
GRIDFORMAT
  1
GRIDFORMAT_BEGIN
 90
        0
 91
        1
 62
     0
 92
       -2
340
0
 93
        0
 40
0.045
309
GRIDFORMAT_END
 95
        4
302
GRIDFORMAT
  1
GRIDFORMAT_BEGIN
 90
        0
 91
        1
 62
     0
 92
       -2
340
0
 93
        0
 40
0.045
309
GRIDFORMAT_END
 95
        8
302
GRIDFORMAT
  1
GRIDFORMAT_BEGIN
 90
        0
 91
        1
 62
     0
 92
       -2
340
0
 93
        0
 40
0.045
309
GRIDFORMAT_END
 95
       16
302
GRIDFORMAT
  1
GRIDFORMAT_BEGIN
 90
        0
 91
        1
 62
     0
 92
       -2
340
0
 93
        0
 40
0.045
309
GRIDFORMAT_END
 95
       32
302
GRIDFORMAT
  1
GRIDFORMAT_BEGIN
 90
        0
 91
        1
 62
     0
 92
       -2
340
0
 93
        0
 40
0.045
309
GRIDFORMAT_END
309
TABLEFORMAT_END
  1
CELLSTYLE_BEGIN
 90
        2
 91
        1
300
_HEADER
309
CELLSTYLE_END
300
CELLSTYLE
  1
TABLEFORMAT_BEGIN
 90
        5
170
     1
 91
        0
 92
        0
 62
   257
 93
        1
300
CONTENTFORMAT
  1
CONTENTFORMAT_BEGIN
 90
        0
 91
        0
 92
        4
 93
        0
300

 40
0.0
140
1.0
 94
        2
 62
     0
340
11
144
4.5
309
CONTENTFORMAT_END
171
     1
301
MARGIN
  1
CELLMARGIN_BEGIN
 40
1.5
 40
1.5
 40
1.5
 40
1.5
 40
0.18
 40
0.18
309
CELLMARGIN_END
 94
        6
 95
        1
302
GRIDFORMAT
  1
GRIDFORMAT_BEGIN
 90
        0
 91
        1
 62
     0
 92
       -2
340
0
 93
        0
 40
0.045
309
GRIDFORMAT_END
 95
        2
302
GRIDFORMAT
  1
GRIDFORMAT_BEGIN
 90
        0
 91
        1
 62
     0
 92
       -2
340
0
 93
        0
 40
0.045
309
GRIDFORMAT_END
 95
        4
302
GRIDFORMAT
  1
GRIDFORMAT_BEGIN
 90
        0
 91
        1
 62
     0
 92
       -2
340
0
 93
        0
 40
0.045
309
GRIDFORMAT_END
 95
        8
302
GRIDFORMAT
  1
GRIDFORMAT_BEGIN
 90
        0
 91
        1
 62
     0
 92
       -2
340
0
 93
        0
 40
0.045
309
GRIDFORMAT_END
 95
       16
302
GRIDFORMAT
  1
GRIDFORMAT_BEGIN
 90
        0
 91
        1
 62
     0
 92
       -2
340
0
 93
        0
 40
0.045
309
GRIDFORMAT_END
 95
       32
302
GRIDFORMAT
  1
GRIDFORMAT_BEGIN
 90
        0
 91
        1
 62
     0
 92
       -2
340
0
 93
        0
 40
0.045
309
GRIDFORMAT_END
309
TABLEFORMAT_END
  1
CELLSTYLE_BEGIN
 90
        3
 91
        2
300
_DATA
309
CELLSTYLE_END
  0
XRECORD
  5
21861
102
{ACAD_REACTORS
330
1B314
102
}
330
1B314
100
AcDbXrecord
280
     1
102
ACAD_ROUNDTRIP_PRE2007_TABLESTYLE
 90
        4
 91
        0
  1

 92
        4
 93
        0
  2

 94
        4
 95
        0
  3

  0
XRECORD
  5
2184C
102
{ACAD_REACTORS
330
2184B
102
}
330
2184B
100
AcDbXrecord
280
     1
102
RTVSPost2010Prop28
280
     1
102
RTVSPost2010PropOp28
 70
     1
102
RTVSPost2010Prop29
280
     1
102
RTVSPost2010PropOp29
 70
     1
102
RTVSPost2010Prop30
280
     0
102
RTVSPost2010PropOp30
 70
     1
102
RTVSPost2010Prop31
280
     0
102
RTVSPost2010PropOp31
 70
     1
102
RTVSPost2010Prop32
280
     0
102
RTVSPost2010PropOp32
 70
     1
102
RTVSPost2010Prop33
280
     0
102
RTVSPost2010PropOp33
 70
     1
102
RTVSPost2010Prop34
280
     0
102
RTVSPost2010PropOp34
 70
     1
102
RTVSPost2010Prop35
280
     0
102
RTVSPost2010PropOp35
 70
     1
102
RTVSPost2010Prop36
280
     0
102
RTVSPost2010PropOp36
 70
     1
102
RTVSPost2010Prop37
 90
       50
102
RTVSPost2010PropOp37
 70
     1
102
RTVSPost2010Prop38
140
0.0
102
RTVSPost2010PropOp38
 70
     1
102
RTVSPost2010Prop39
140
1.0
102
RTVSPost2010PropOp39
 70
     1
102
RTVSPost2010Prop40
 90
        0
102
RTVSPost2010PropOp40
 70
     1
102
RTVSPost2010Prop41ColorIndex
 90
       18
102
RTVSPost2010Prop41ColorRGB
 90
        0
102
RTVSPost2010PropOp41
 70
     1
102
RTVSPost2010Prop42
 90
       50
102
RTVSPost2010PropOp42
 70
     1
102
RTVSPost2010Prop43
 90
        3
102
RTVSPost2010PropOp43
 70
     1
102
RTVSPost2010Prop44ColorIndex
 90
        5
102
RTVSPost2010Prop44ColorRGB
 90
      255
102
RTVSPost2010PropOp44
 70
     1
102
RTVSPost2010Prop45
280
     0
102
RTVSPost2010PropOp45
 70
     1
102
RTVSPost2010Prop46
 90
       50
102
RTVSPost2010PropOp46
 70
     1
102
RTVSPost2010Prop47
 90
       50
102
RTVSPost2010PropOp47
 70
     1
102
RTVSPost2010Prop48
 90
       50
102
RTVSPost2010PropOp48
 70
     1
102
RTVSPost2010Prop49
280
     0
102
RTVSPost2010PropOp49
 70
     1
102
RTVSPost2010Prop50
 90
       50
102
RTVSPost2010PropOp50
 70
     1
102
RTVSPost2010Prop51ColorIndex
 90
      256
102
RTVSPost2010Prop51ColorRGB
 90
-16777216
102
RTVSPost2010PropOp51
 70
     0
102
RTVSPost2010Prop52
140
1.0
102
RTVSPost2010PropOp52
 70
     0
102
RTVSPost2010Prop53
 90
        2
102
RTVSPost2010PropOp53
 70
     1
102
RTVSPost2010Prop54
  1
strokes_ogs.tif
102
RTVSPost2010PropOp54
 70
     1
102
RTVSPost2010Prop55
280
     0
102
RTVSPost2010PropOp55
 70
     1
102
RTVSPost2010Prop56
140
1.0
102
RTVSPost2010PropOp56
 70
     1
102
RTVSPost2010Prop57
140
1.0
102
RTVSPost2010PropOp57
 70
     1
102
RTVSPropertyOp0
 70
     1
102
RTVSPropertyOp1
 70
     1
102
RTVSPropertyOp2
 70
     1
102
RTVSPropertyOp3
 70
     1
102
RTVSPropertyOp4
 70
     1
102
RTVSPropertyOp5
 70
     1
102
RTVSPropertyOp6
 70
     1
102
RTVSPropertyOp7
 70
     1
102
RTVSPropertyOp8
 70
     1
102
RTVSPropertyOp9
 70
     1
102
RTVSPropertyOp10
 70
     1
102
RTVSPropertyOp11
 70
     1
102
RTVSPropertyOp12
 70
     1
102
RTVSPropertyOp13
 70
     1
102
RTVSPropertyOp14
 70
     1
102
RTVSPropertyOp15
 70
     1
102
RTVSPropertyOp16
 70
     1
102
RTVSPropertyOp17
 70
     1
102
RTVSPropertyOp18
 70
     1
102
RTVSPropertyOp19
 70
     1
102
RTVSPropertyOp20
 70
     1
102
RTVSPropertyOp21
 70
     1
102
RTVSPropertyOp22
 70
     1
102
RTVSPropertyOp23
 70
     1
102
RTVSPropertyOp24
 70
     1
102
RTVSPropertyOp25
 70
     1
102
RTVSPropertyOp26
 70
     1
102
RTVSPropertyOp27
 70
     1
102
RTVSPropertyOp28
 70
     1
102
RTVSPropertyOp29
 70
     1
102
RTVSPropertyOp30
 70
     1
102
RTVSPropertyOp31
 70
     1
102
RTVSPropertyOp32
 70
     1
102
RTVSPropertyOp33
 70
     1
102
RTVSPropertyOp34
 70
     1
102
RTVSPropertyOp35
 70
     1
102
RTVSPropertyOp36
 70
     1
102
RTVSPropertyOp37
 70
     1
102
RTVSPropertyOp38
 70
     1
102
RTVSPropertyOp39
 70
     1
102
RTVSPropertyOp40
 70
     1
102
RTVSPropertyOp41
 70
     1
102
RTVSPropertyOp42
 70
     1
102
RTVSPropertyOp43
 70
     1
102
RTVSPropertyOp44
 70
     1
102
RTVSPropertyOp45
 70
     1
102
RTVSPropertyOp46
 70
     1
102
RTVSPropertyOp47
 70
     1
102
RTVSPropertyOp48
 70
     1
102
RTVSPropertyOp49
 70
     1
102
RTVSPropertyOp50
 70
     1
102
RTVSPropertyOp51
 70
     0
102
RTVSPropertyOp52
 70
     0
102
RTVSPropertyOp53
 70
     1
102
RTVSPropertyOp54
 70
     1
102
RTVSPropertyOp55
 70
     1
102
RTVSPropertyOp56
 70
     1
102
RTVSPropertyOp57
 70
     1
102
RTVSPropertyOp58
 70
     1
102
RTVSPropertyOp59
 70
     1
102
RTVSPropertyOp60
 70
     1
102
RTVSPropertyOp61
 70
     1
102
RTVSPropertyOp62
 70
     1
  0
XRECORD
  5
21850
102
{ACAD_REACTORS
330
2184F
102
}
330
2184F
100
AcDbXrecord
280
     1
102
RTVSPost2010Prop28
280
     0
102
RTVSPost2010PropOp28
 70
     1
102
RTVSPost2010Prop29
280
     1
102
RTVSPost2010PropOp29
 70
     1
102
RTVSPost2010Prop30
280
     1
102
RTVSPost2010PropOp30
 70
     1
102
RTVSPost2010Prop31
280
     0
102
RTVSPost2010PropOp31
 70
     1
102
RTVSPost2010Prop32
280
     0
102
RTVSPost2010PropOp32
 70
     1
102
RTVSPost2010Prop33
280
     0
102
RTVSPost2010PropOp33
 70
     1
102
RTVSPost2010Prop34
280
     0
102
RTVSPost2010PropOp34
 70
     1
102
RTVSPost2010Prop35
280
     0
102
RTVSPost2010PropOp35
 70
     1
102
RTVSPost2010Prop36
280
     0
102
RTVSPost2010PropOp36
 70
     1
102
RTVSPost2010Prop37
 90
       50
102
RTVSPost2010PropOp37
 70
     1
102
RTVSPost2010Prop38
140
0.0
102
RTVSPost2010PropOp38
 70
     1
102
RTVSPost2010Prop39
140
1.0
102
RTVSPost2010PropOp39
 70
     1
102
RTVSPost2010Prop40
 90
        0
102
RTVSPost2010PropOp40
 70
     1
102
RTVSPost2010Prop41ColorIndex
 90
       18
102
RTVSPost2010Prop41ColorRGB
 90
        0
102
RTVSPost2010PropOp41
 70
     1
102
RTVSPost2010Prop42
 90
       50
102
RTVSPost2010PropOp42
 70
     1
102
RTVSPost2010Prop43
 90
        3
102
RTVSPost2010PropOp43
 70
     1
102
RTVSPost2010Prop44ColorIndex
 90
        5
102
RTVSPost2010Prop44ColorRGB
 90
      255
102
RTVSPost2010PropOp44
 70
     1
102
RTVSPost2010Prop45
280
     0
102
RTVSPost2010PropOp45
 70
     1
102
RTVSPost2010Prop46
 90
       50
102
RTVSPost2010PropOp46
 70
     1
102
RTVSPost2010Prop47
 90
       50
102
RTVSPost2010PropOp47
 70
     1
102
RTVSPost2010Prop48
 90
       50
102
RTVSPost2010PropOp48
 70
     1
102
RTVSPost2010Prop49
280
     0
102
RTVSPost2010PropOp49
 70
     1
102
RTVSPost2010Prop50
 90
       50
102
RTVSPost2010PropOp50
 70
     1
102
RTVSPost2010Prop51ColorIndex
 90
      256
102
RTVSPost2010Prop51ColorRGB
 90
-16777216
102
RTVSPost2010PropOp51
 70
     0
102
RTVSPost2010Prop52
140
1.0
102
RTVSPost2010PropOp52
 70
     0
102
RTVSPost2010Prop53
 90
        2
102
RTVSPost2010PropOp53
 70
     1
102
RTVSPost2010Prop54
  1
strokes_ogs.tif
102
RTVSPost2010PropOp54
 70
     1
102
RTVSPost2010Prop55
280
     0
102
RTVSPost2010PropOp55
 70
     1
102
RTVSPost2010Prop56
140
1.0
102
RTVSPost2010PropOp56
 70
     1
102
RTVSPost2010Prop57
140
1.0
102
RTVSPost2010PropOp57
 70
     1
102
RTVSPropertyOp0
 70
     1
102
RTVSPropertyOp1
 70
     1
102
RTVSPropertyOp2
 70
     1
102
RTVSPropertyOp3
 70
     1
102
RTVSPropertyOp4
 70
     1
102
RTVSPropertyOp5
 70
     1
102
RTVSPropertyOp6
 70
     1
102
RTVSPropertyOp7
 70
     1
102
RTVSPropertyOp8
 70
     1
102
RTVSPropertyOp9
 70
     1
102
RTVSPropertyOp10
 70
     1
102
RTVSPropertyOp11
 70
     1
102
RTVSPropertyOp12
 70
     1
102
RTVSPropertyOp13
 70
     1
102
RTVSPropertyOp14
 70
     1
102
RTVSPropertyOp15
 70
     1
102
RTVSPropertyOp16
 70
     1
102
RTVSPropertyOp17
 70
     1
102
RTVSPropertyOp18
 70
     1
102
RTVSPropertyOp19
 70
     1
102
RTVSPropertyOp20
 70
     1
102
RTVSPropertyOp21
 70
     1
102
RTVSPropertyOp22
 70
     1
102
RTVSPropertyOp23
 70
     1
102
RTVSPropertyOp24
 70
     1
102
RTVSPropertyOp25
 70
     1
102
RTVSPropertyOp26
 70
     1
102
RTVSPropertyOp27
 70
     1
102
RTVSPropertyOp28
 70
     1
102
RTVSPropertyOp29
 70
     1
102
RTVSPropertyOp30
 70
     1
102
RTVSPropertyOp31
 70
     1
102
RTVSPropertyOp32
 70
     1
102
RTVSPropertyOp33
 70
     1
102
RTVSPropertyOp34
 70
     1
102
RTVSPropertyOp35
 70
     1
102
RTVSPropertyOp36
 70
     1
102
RTVSPropertyOp37
 70
     1
102
RTVSPropertyOp38
 70
     1
102
RTVSPropertyOp39
 70
     1
102
RTVSPropertyOp40
 70
     1
102
RTVSPropertyOp41
 70
     1
102
RTVSPropertyOp42
 70
     1
102
RTVSPropertyOp43
 70
     1
102
RTVSPropertyOp44
 70
     1
102
RTVSPropertyOp45
 70
     1
102
RTVSPropertyOp46
 70
     1
102
RTVSPropertyOp47
 70
     1
102
RTVSPropertyOp48
 70
     1
102
RTVSPropertyOp49
 70
     1
102
RTVSPropertyOp50
 70
     1
102
RTVSPropertyOp51
 70
     0
102
RTVSPropertyOp52
 70
     0
102
RTVSPropertyOp53
 70
     1
102
RTVSPropertyOp54
 70
     1
102
RTVSPropertyOp55
 70
     1
102
RTVSPropertyOp56
 70
     1
102
RTVSPropertyOp57
 70
     1
102
RTVSPropertyOp58
 70
     1
102
RTVSPropertyOp59
 70
     1
102
RTVSPropertyOp60
 70
     1
102
RTVSPropertyOp61
 70
     1
102
RTVSPropertyOp62
 70
     1
  0
XRECORD
  5
2184E
102
{ACAD_REACTORS
330
2184D
102
}
330
2184D
100
AcDbXrecord
280
     1
102
RTVSPost2010Prop28
280
     0
102
RTVSPost2010PropOp28
 70
     1
102
RTVSPost2010Prop29
280
     1
102
RTVSPost2010PropOp29
 70
     1
102
RTVSPost2010Prop30
280
     1
102
RTVSPost2010PropOp30
 70
     1
102
RTVSPost2010Prop31
280
     0
102
RTVSPost2010PropOp31
 70
     1
102
RTVSPost2010Prop32
280
     0
102
RTVSPost2010PropOp32
 70
     1
102
RTVSPost2010Prop33
280
     0
102
RTVSPost2010PropOp33
 70
     1
102
RTVSPost2010Prop34
280
     0
102
RTVSPost2010PropOp34
 70
     1
102
RTVSPost2010Prop35
280
     0
102
RTVSPost2010PropOp35
 70
     1
102
RTVSPost2010Prop36
280
     0
102
RTVSPost2010PropOp36
 70
     1
102
RTVSPost2010Prop37
 90
       50
102
RTVSPost2010PropOp37
 70
     1
102
RTVSPost2010Prop38
140
0.0
102
RTVSPost2010PropOp38
 70
     1
102
RTVSPost2010Prop39
140
1.0
102
RTVSPost2010PropOp39
 70
     1
102
RTVSPost2010Prop40
 90
        0
102
RTVSPost2010PropOp40
 70
     1
102
RTVSPost2010Prop41ColorIndex
 90
       18
102
RTVSPost2010Prop41ColorRGB
 90
        0
102
RTVSPost2010PropOp41
 70
     1
102
RTVSPost2010Prop42
 90
       50
102
RTVSPost2010PropOp42
 70
     1
102
RTVSPost2010Prop43
 90
        3
102
RTVSPost2010PropOp43
 70
     1
102
RTVSPost2010Prop44ColorIndex
 90
        5
102
RTVSPost2010Prop44ColorRGB
 90
      255
102
RTVSPost2010PropOp44
 70
     1
102
RTVSPost2010Prop45
280
     0
102
RTVSPost2010PropOp45
 70
     1
102
RTVSPost2010Prop46
 90
       50
102
RTVSPost2010PropOp46
 70
     1
102
RTVSPost2010Prop47
 90
       50
102
RTVSPost2010PropOp47
 70
     1
102
RTVSPost2010Prop48
 90
       50
102
RTVSPost2010PropOp48
 70
     1
102
RTVSPost2010Prop49
280
     0
102
RTVSPost2010PropOp49
 70
     1
102
RTVSPost2010Prop50
 90
       50
102
RTVSPost2010PropOp50
 70
     1
102
RTVSPost2010Prop51ColorIndex
 90
      256
102
RTVSPost2010Prop51ColorRGB
 90
-16777216
102
RTVSPost2010PropOp51
 70
     0
102
RTVSPost2010Prop52
140
1.0
102
RTVSPost2010PropOp52
 70
     0
102
RTVSPost2010Prop53
 90
        2
102
RTVSPost2010PropOp53
 70
     1
102
RTVSPost2010Prop54
  1
strokes_ogs.tif
102
RTVSPost2010PropOp54
 70
     1
102
RTVSPost2010Prop55
280
     0
102
RTVSPost2010PropOp55
 70
     1
102
RTVSPost2010Prop56
140
1.0
102
RTVSPost2010PropOp56
 70
     1
102
RTVSPost2010Prop57
140
1.0
102
RTVSPost2010PropOp57
 70
     1
102
RTVSPropertyOp0
 70
     1
102
RTVSPropertyOp1
 70
     1
102
RTVSPropertyOp2
 70
     1
102
RTVSPropertyOp3
 70
     1
102
RTVSPropertyOp4
 70
     1
102
RTVSPropertyOp5
 70
     1
102
RTVSPropertyOp6
 70
     1
102
RTVSPropertyOp7
 70
     1
102
RTVSPropertyOp8
 70
     1
102
RTVSPropertyOp9
 70
     1
102
RTVSPropertyOp10
 70
     1
102
RTVSPropertyOp11
 70
     1
102
RTVSPropertyOp12
 70
     1
102
RTVSPropertyOp13
 70
     1
102
RTVSPropertyOp14
 70
     1
102
RTVSPropertyOp15
 70
     1
102
RTVSPropertyOp16
 70
     1
102
RTVSPropertyOp17
 70
     1
102
RTVSPropertyOp18
 70
     1
102
RTVSPropertyOp19
 70
     1
102
RTVSPropertyOp20
 70
     1
102
RTVSPropertyOp21
 70
     1
102
RTVSPropertyOp22
 70
     1
102
RTVSPropertyOp23
 70
     1
102
RTVSPropertyOp24
 70
     1
102
RTVSPropertyOp25
 70
     1
102
RTVSPropertyOp26
 70
     1
102
RTVSPropertyOp27
 70
     1
102
RTVSPropertyOp28
 70
     1
102
RTVSPropertyOp29
 70
     1
102
RTVSPropertyOp30
 70
     1
102
RTVSPropertyOp31
 70
     1
102
RTVSPropertyOp32
 70
     1
102
RTVSPropertyOp33
 70
     1
102
RTVSPropertyOp34
 70
     1
102
RTVSPropertyOp35
 70
     1
102
RTVSPropertyOp36
 70
     1
102
RTVSPropertyOp37
 70
     1
102
RTVSPropertyOp38
 70
     1
102
RTVSPropertyOp39
 70
     1
102
RTVSPropertyOp40
 70
     1
102
RTVSPropertyOp41
 70
     1
102
RTVSPropertyOp42
 70
     1
102
RTVSPropertyOp43
 70
     1
102
RTVSPropertyOp44
 70
     1
102
RTVSPropertyOp45
 70
     1
102
RTVSPropertyOp46
 70
     1
102
RTVSPropertyOp47
 70
     1
102
RTVSPropertyOp48
 70
     1
102
RTVSPropertyOp49
 70
     1
102
RTVSPropertyOp50
 70
     1
102
RTVSPropertyOp51
 70
     0
102
RTVSPropertyOp52
 70
     0
102
RTVSPropertyOp53
 70
     1
102
RTVSPropertyOp54
 70
     1
102
RTVSPropertyOp55
 70
     1
102
RTVSPropertyOp56
 70
     1
102
RTVSPropertyOp57
 70
     1
102
RTVSPropertyOp58
 70
     1
102
RTVSPropertyOp59
 70
     1
102
RTVSPropertyOp60
 70
     1
102
RTVSPropertyOp61
 70
     1
102
RTVSPropertyOp62
 70
     1
  0
XRECORD
  5
2184A
102
{ACAD_REACTORS
330
21849
102
}
330
21849
100
AcDbXrecord
280
     1
102
RTVSPost2010Prop28
280
     0
102
RTVSPost2010PropOp28
 70
     1
102
RTVSPost2010Prop29
280
     1
102
RTVSPost2010PropOp29
 70
     1
102
RTVSPost2010Prop30
280
     1
102
RTVSPost2010PropOp30
 70
     1
102
RTVSPost2010Prop31
280
     0
102
RTVSPost2010PropOp31
 70
     1
102
RTVSPost2010Prop32
280
     0
102
RTVSPost2010PropOp32
 70
     1
102
RTVSPost2010Prop33
280
     0
102
RTVSPost2010PropOp33
 70
     1
102
RTVSPost2010Prop34
280
     0
102
RTVSPost2010PropOp34
 70
     1
102
RTVSPost2010Prop35
280
     0
102
RTVSPost2010PropOp35
 70
     1
102
RTVSPost2010Prop36
280
     0
102
RTVSPost2010PropOp36
 70
     1
102
RTVSPost2010Prop37
 90
       50
102
RTVSPost2010PropOp37
 70
     1
102
RTVSPost2010Prop38
140
0.0
102
RTVSPost2010PropOp38
 70
     1
102
RTVSPost2010Prop39
140
1.0
102
RTVSPost2010PropOp39
 70
     1
102
RTVSPost2010Prop40
 90
        0
102
RTVSPost2010PropOp40
 70
     1
102
RTVSPost2010Prop41ColorIndex
 90
       18
102
RTVSPost2010Prop41ColorRGB
 90
        0
102
RTVSPost2010PropOp41
 70
     1
102
RTVSPost2010Prop42
 90
       50
102
RTVSPost2010PropOp42
 70
     1
102
RTVSPost2010Prop43
 90
        3
102
RTVSPost2010PropOp43
 70
     1
102
RTVSPost2010Prop44ColorIndex
 90
        5
102
RTVSPost2010Prop44ColorRGB
 90
      255
102
RTVSPost2010PropOp44
 70
     1
102
RTVSPost2010Prop45
280
     0
102
RTVSPost2010PropOp45
 70
     1
102
RTVSPost2010Prop46
 90
       50
102
RTVSPost2010PropOp46
 70
     1
102
RTVSPost2010Prop47
 90
       50
102
RTVSPost2010PropOp47
 70
     1
102
RTVSPost2010Prop48
 90
       50
102
RTVSPost2010PropOp48
 70
     1
102
RTVSPost2010Prop49
280
     0
102
RTVSPost2010PropOp49
 70
     1
102
RTVSPost2010Prop50
 90
       50
102
RTVSPost2010PropOp50
 70
     1
102
RTVSPost2010Prop51ColorIndex
 90
      256
102
RTVSPost2010Prop51ColorRGB
 90
-16777216
102
RTVSPost2010PropOp51
 70
     0
102
RTVSPost2010Prop52
140
1.0
102
RTVSPost2010PropOp52
 70
     0
102
RTVSPost2010Prop53
 90
        2
102
RTVSPost2010PropOp53
 70
     1
102
RTVSPost2010Prop54
  1
strokes_ogs.tif
102
RTVSPost2010PropOp54
 70
     1
102
RTVSPost2010Prop55
280
     0
102
RTVSPost2010PropOp55
 70
     1
102
RTVSPost2010Prop56
140
1.0
102
RTVSPost2010PropOp56
 70
     1
102
RTVSPost2010Prop57
140
1.0
102
RTVSPost2010PropOp57
 70
     1
102
RTVSPropertyOp0
 70
     1
102
RTVSPropertyOp1
 70
     1
102
RTVSPropertyOp2
 70
     1
102
RTVSPropertyOp3
 70
     1
102
RTVSPropertyOp4
 70
     1
102
RTVSPropertyOp5
 70
     1
102
RTVSPropertyOp6
 70
     1
102
RTVSPropertyOp7
 70
     1
102
RTVSPropertyOp8
 70
     1
102
RTVSPropertyOp9
 70
     1
102
RTVSPropertyOp10
 70
     1
102
RTVSPropertyOp11
 70
     1
102
RTVSPropertyOp12
 70
     1
102
RTVSPropertyOp13
 70
     1
102
RTVSPropertyOp14
 70
     1
102
RTVSPropertyOp15
 70
     1
102
RTVSPropertyOp16
 70
     1
102
RTVSPropertyOp17
 70
     1
102
RTVSPropertyOp18
 70
     1
102
RTVSPropertyOp19
 70
     1
102
RTVSPropertyOp20
 70
     1
102
RTVSPropertyOp21
 70
     1
102
RTVSPropertyOp22
 70
     1
102
RTVSPropertyOp23
 70
     1
102
RTVSPropertyOp24
 70
     1
102
RTVSPropertyOp25
 70
     1
102
RTVSPropertyOp26
 70
     1
102
RTVSPropertyOp27
 70
     1
102
RTVSPropertyOp28
 70
     1
102
RTVSPropertyOp29
 70
     1
102
RTVSPropertyOp30
 70
     1
102
RTVSPropertyOp31
 70
     1
102
RTVSPropertyOp32
 70
     1
102
RTVSPropertyOp33
 70
     1
102
RTVSPropertyOp34
 70
     1
102
RTVSPropertyOp35
 70
     1
102
RTVSPropertyOp36
 70
     1
102
RTVSPropertyOp37
 70
     1
102
RTVSPropertyOp38
 70
     1
102
RTVSPropertyOp39
 70
     1
102
RTVSPropertyOp40
 70
     1
102
RTVSPropertyOp41
 70
     1
102
RTVSPropertyOp42
 70
     1
102
RTVSPropertyOp43
 70
     1
102
RTVSPropertyOp44
 70
     1
102
RTVSPropertyOp45
 70
     1
102
RTVSPropertyOp46
 70
     1
102
RTVSPropertyOp47
 70
     1
102
RTVSPropertyOp48
 70
     1
102
RTVSPropertyOp49
 70
     1
102
RTVSPropertyOp50
 70
     1
102
RTVSPropertyOp51
 70
     0
102
RTVSPropertyOp52
 70
     0
102
RTVSPropertyOp53
 70
     1
102
RTVSPropertyOp54
 70
     1
102
RTVSPropertyOp55
 70
     1
102
RTVSPropertyOp56
 70
     1
102
RTVSPropertyOp57
 70
     1
102
RTVSPropertyOp58
 70
     1
102
RTVSPropertyOp59
 70
     1
102
RTVSPropertyOp60
 70
     1
102
RTVSPropertyOp61
 70
     1
102
RTVSPropertyOp62
 70
     1
  0
XRECORD
  5
21858
102
{ACAD_REACTORS
330
21857
102
}
330
21857
100
AcDbXrecord
280
     1
102
RTVSPost2010Prop28
280
     0
102
RTVSPost2010PropOp28
 70
     1
102
RTVSPost2010Prop29
280
     1
102
RTVSPost2010PropOp29
 70
     1
102
RTVSPost2010Prop30
280
     1
102
RTVSPost2010PropOp30
 70
     1
102
RTVSPost2010Prop31
280
     0
102
RTVSPost2010PropOp31
 70
     1
102
RTVSPost2010Prop32
280
     0
102
RTVSPost2010PropOp32
 70
     1
102
RTVSPost2010Prop33
280
     0
102
RTVSPost2010PropOp33
 70
     1
102
RTVSPost2010Prop34
280
     0
102
RTVSPost2010PropOp34
 70
     1
102
RTVSPost2010Prop35
280
     0
102
RTVSPost2010PropOp35
 70
     1
102
RTVSPost2010Prop36
280
     0
102
RTVSPost2010PropOp36
 70
     1
102
RTVSPost2010Prop37
 90
       50
102
RTVSPost2010PropOp37
 70
     1
102
RTVSPost2010Prop38
140
0.0
102
RTVSPost2010PropOp38
 70
     1
102
RTVSPost2010Prop39
140
1.0
102
RTVSPost2010PropOp39
 70
     1
102
RTVSPost2010Prop40
 90
        0
102
RTVSPost2010PropOp40
 70
     1
102
RTVSPost2010Prop41ColorIndex
 90
       18
102
RTVSPost2010Prop41ColorRGB
 90
        0
102
RTVSPost2010PropOp41
 70
     1
102
RTVSPost2010Prop42
 90
       50
102
RTVSPost2010PropOp42
 70
     1
102
RTVSPost2010Prop43
 90
        3
102
RTVSPost2010PropOp43
 70
     1
102
RTVSPost2010Prop44ColorIndex
 90
        5
102
RTVSPost2010Prop44ColorRGB
 90
      255
102
RTVSPost2010PropOp44
 70
     1
102
RTVSPost2010Prop45
280
     0
102
RTVSPost2010PropOp45
 70
     1
102
RTVSPost2010Prop46
 90
       50
102
RTVSPost2010PropOp46
 70
     1
102
RTVSPost2010Prop47
 90
       50
102
RTVSPost2010PropOp47
 70
     1
102
RTVSPost2010Prop48
 90
       50
102
RTVSPost2010PropOp48
 70
     1
102
RTVSPost2010Prop49
280
     0
102
RTVSPost2010PropOp49
 70
     1
102
RTVSPost2010Prop50
 90
       50
102
RTVSPost2010PropOp50
 70
     1
102
RTVSPost2010Prop51ColorIndex
 90
      256
102
RTVSPost2010Prop51ColorRGB
 90
-16777216
102
RTVSPost2010PropOp51
 70
     0
102
RTVSPost2010Prop52
140
1.0
102
RTVSPost2010PropOp52
 70
     0
102
RTVSPost2010Prop53
 90
        2
102
RTVSPost2010PropOp53
 70
     1
102
RTVSPost2010Prop54
  1
strokes_ogs.tif
102
RTVSPost2010PropOp54
 70
     1
102
RTVSPost2010Prop55
280
     0
102
RTVSPost2010PropOp55
 70
     1
102
RTVSPost2010Prop56
140
1.0
102
RTVSPost2010PropOp56
 70
     1
102
RTVSPost2010Prop57
140
1.0
102
RTVSPost2010PropOp57
 70
     1
102
RTVSPropertyOp0
 70
     1
102
RTVSPropertyOp1
 70
     1
102
RTVSPropertyOp2
 70
     1
102
RTVSPropertyOp3
 70
     1
102
RTVSPropertyOp4
 70
     1
102
RTVSPropertyOp5
 70
     1
102
RTVSPropertyOp6
 70
     1
102
RTVSPropertyOp7
 70
     1
102
RTVSPropertyOp8
 70
     1
102
RTVSPropertyOp9
 70
     1
102
RTVSPropertyOp10
 70
     1
102
RTVSPropertyOp11
 70
     1
102
RTVSPropertyOp12
 70
     1
102
RTVSPropertyOp13
 70
     1
102
RTVSPropertyOp14
 70
     1
102
RTVSPropertyOp15
 70
     1
102
RTVSPropertyOp16
 70
     1
102
RTVSPropertyOp17
 70
     1
102
RTVSPropertyOp18
 70
     1
102
RTVSPropertyOp19
 70
     1
102
RTVSPropertyOp20
 70
     1
102
RTVSPropertyOp21
 70
     1
102
RTVSPropertyOp22
 70
     1
102
RTVSPropertyOp23
 70
     1
102
RTVSPropertyOp24
 70
     1
102
RTVSPropertyOp25
 70
     1
102
RTVSPropertyOp26
 70
     1
102
RTVSPropertyOp27
 70
     1
102
RTVSPropertyOp28
 70
     1
102
RTVSPropertyOp29
 70
     1
102
RTVSPropertyOp30
 70
     1
102
RTVSPropertyOp31
 70
     1
102
RTVSPropertyOp32
 70
     1
102
RTVSPropertyOp33
 70
     1
102
RTVSPropertyOp34
 70
     1
102
RTVSPropertyOp35
 70
     1
102
RTVSPropertyOp36
 70
     1
102
RTVSPropertyOp37
 70
     1
102
RTVSPropertyOp38
 70
     1
102
RTVSPropertyOp39
 70
     1
102
RTVSPropertyOp40
 70
     1
102
RTVSPropertyOp41
 70
     1
102
RTVSPropertyOp42
 70
     1
102
RTVSPropertyOp43
 70
     1
102
RTVSPropertyOp44
 70
     1
102
RTVSPropertyOp45
 70
     1
102
RTVSPropertyOp46
 70
     1
102
RTVSPropertyOp47
 70
     1
102
RTVSPropertyOp48
 70
     1
102
RTVSPropertyOp49
 70
     1
102
RTVSPropertyOp50
 70
     1
102
RTVSPropertyOp51
 70
     0
102
RTVSPropertyOp52
 70
     0
102
RTVSPropertyOp53
 70
     1
102
RTVSPropertyOp54
 70
     1
102
RTVSPropertyOp55
 70
     1
102
RTVSPropertyOp56
 70
     1
102
RTVSPropertyOp57
 70
     1
102
RTVSPropertyOp58
 70
     1
102
RTVSPropertyOp59
 70
     1
102
RTVSPropertyOp60
 70
     1
102
RTVSPropertyOp61
 70
     1
102
RTVSPropertyOp62
 70
     1
  0
XRECORD
  5
21860
102
{ACAD_REACTORS
330
2185F
102
}
330
2185F
100
AcDbXrecord
280
     1
102
RTVSPost2010Prop28
280
     0
102
RTVSPost2010PropOp28
 70
     1
102
RTVSPost2010Prop29
280
     1
102
RTVSPost2010PropOp29
 70
     1
102
RTVSPost2010Prop30
280
     1
102
RTVSPost2010PropOp30
 70
     1
102
RTVSPost2010Prop31
280
     0
102
RTVSPost2010PropOp31
 70
     1
102
RTVSPost2010Prop32
280
     0
102
RTVSPost2010PropOp32
 70
     1
102
RTVSPost2010Prop33
280
     0
102
RTVSPost2010PropOp33
 70
     1
102
RTVSPost2010Prop34
280
     0
102
RTVSPost2010PropOp34
 70
     1
102
RTVSPost2010Prop35
280
     0
102
RTVSPost2010PropOp35
 70
     1
102
RTVSPost2010Prop36
280
     0
102
RTVSPost2010PropOp36
 70
     1
102
RTVSPost2010Prop37
 90
       50
102
RTVSPost2010PropOp37
 70
     1
102
RTVSPost2010Prop38
140
0.0
102
RTVSPost2010PropOp38
 70
     1
102
RTVSPost2010Prop39
140
1.0
102
RTVSPost2010PropOp39
 70
     1
102
RTVSPost2010Prop40
 90
        0
102
RTVSPost2010PropOp40
 70
     1
102
RTVSPost2010Prop41ColorIndex
 90
       18
102
RTVSPost2010Prop41ColorRGB
 90
        0
102
RTVSPost2010PropOp41
 70
     1
102
RTVSPost2010Prop42
 90
       50
102
RTVSPost2010PropOp42
 70
     1
102
RTVSPost2010Prop43
 90
        3
102
RTVSPost2010PropOp43
 70
     1
102
RTVSPost2010Prop44ColorIndex
 90
        5
102
RTVSPost2010Prop44ColorRGB
 90
      255
102
RTVSPost2010PropOp44
 70
     1
102
RTVSPost2010Prop45
280
     0
102
RTVSPost2010PropOp45
 70
     1
102
RTVSPost2010Prop46
 90
       50
102
RTVSPost2010PropOp46
 70
     1
102
RTVSPost2010Prop47
 90
       50
102
RTVSPost2010PropOp47
 70
     1
102
RTVSPost2010Prop48
 90
       50
102
RTVSPost2010PropOp48
 70
     1
102
RTVSPost2010Prop49
280
     0
102
RTVSPost2010PropOp49
 70
     1
102
RTVSPost2010Prop50
 90
       50
102
RTVSPost2010PropOp50
 70
     1
102
RTVSPost2010Prop51ColorIndex
 90
      256
102
RTVSPost2010Prop51ColorRGB
 90
-16777216
102
RTVSPost2010PropOp51
 70
     0
102
RTVSPost2010Prop52
140
1.0
102
RTVSPost2010PropOp52
 70
     0
102
RTVSPost2010Prop53
 90
        2
102
RTVSPost2010PropOp53
 70
     1
102
RTVSPost2010Prop54
  1
strokes_ogs.tif
102
RTVSPost2010PropOp54
 70
     1
102
RTVSPost2010Prop55
280
     0
102
RTVSPost2010PropOp55
 70
     1
102
RTVSPost2010Prop56
140
1.0
102
RTVSPost2010PropOp56
 70
     1
102
RTVSPost2010Prop57
140
1.0
102
RTVSPost2010PropOp57
 70
     1
102
RTVSPropertyOp0
 70
     1
102
RTVSPropertyOp1
 70
     1
102
RTVSPropertyOp2
 70
     1
102
RTVSPropertyOp3
 70
     1
102
RTVSPropertyOp4
 70
     1
102
RTVSPropertyOp5
 70
     1
102
RTVSPropertyOp6
 70
     1
102
RTVSPropertyOp7
 70
     1
102
RTVSPropertyOp8
 70
     1
102
RTVSPropertyOp9
 70
     1
102
RTVSPropertyOp10
 70
     1
102
RTVSPropertyOp11
 70
     1
102
RTVSPropertyOp12
 70
     1
102
RTVSPropertyOp13
 70
     1
102
RTVSPropertyOp14
 70
     1
102
RTVSPropertyOp15
 70
     1
102
RTVSPropertyOp16
 70
     1
102
RTVSPropertyOp17
 70
     1
102
RTVSPropertyOp18
 70
     1
102
RTVSPropertyOp19
 70
     1
102
RTVSPropertyOp20
 70
     1
102
RTVSPropertyOp21
 70
     1
102
RTVSPropertyOp22
 70
     1
102
RTVSPropertyOp23
 70
     1
102
RTVSPropertyOp24
 70
     1
102
RTVSPropertyOp25
 70
     1
102
RTVSPropertyOp26
 70
     1
102
RTVSPropertyOp27
 70
     1
102
RTVSPropertyOp28
 70
     1
102
RTVSPropertyOp29
 70
     1
102
RTVSPropertyOp30
 70
     1
102
RTVSPropertyOp31
 70
     1
102
RTVSPropertyOp32
 70
     1
102
RTVSPropertyOp33
 70
     1
102
RTVSPropertyOp34
 70
     1
102
RTVSPropertyOp35
 70
     1
102
RTVSPropertyOp36
 70
     1
102
RTVSPropertyOp37
 70
     1
102
RTVSPropertyOp38
 70
     1
102
RTVSPropertyOp39
 70
     1
102
RTVSPropertyOp40
 70
     1
102
RTVSPropertyOp41
 70
     1
102
RTVSPropertyOp42
 70
     1
102
RTVSPropertyOp43
 70
     1
102
RTVSPropertyOp44
 70
     1
102
RTVSPropertyOp45
 70
     1
102
RTVSPropertyOp46
 70
     1
102
RTVSPropertyOp47
 70
     1
102
RTVSPropertyOp48
 70
     1
102
RTVSPropertyOp49
 70
     1
102
RTVSPropertyOp50
 70
     1
102
RTVSPropertyOp51
 70
     0
102
RTVSPropertyOp52
 70
     0
102
RTVSPropertyOp53
 70
     1
102
RTVSPropertyOp54
 70
     1
102
RTVSPropertyOp55
 70
     1
102
RTVSPropertyOp56
 70
     1
102
RTVSPropertyOp57
 70
     1
102
RTVSPropertyOp58
 70
     1
102
RTVSPropertyOp59
 70
     1
102
RTVSPropertyOp60
 70
     1
102
RTVSPropertyOp61
 70
     1
102
RTVSPropertyOp62
 70
     1
  0
XRECORD
  5
21852
102
{ACAD_REACTORS
330
21851
102
}
330
21851
100
AcDbXrecord
280
     1
102
RTVSPost2010Prop28
280
     0
102
RTVSPost2010PropOp28
 70
     1
102
RTVSPost2010Prop29
280
     1
102
RTVSPost2010PropOp29
 70
     1
102
RTVSPost2010Prop30
280
     1
102
RTVSPost2010PropOp30
 70
     1
102
RTVSPost2010Prop31
280
     0
102
RTVSPost2010PropOp31
 70
     1
102
RTVSPost2010Prop32
280
     0
102
RTVSPost2010PropOp32
 70
     1
102
RTVSPost2010Prop33
280
     0
102
RTVSPost2010PropOp33
 70
     1
102
RTVSPost2010Prop34
280
     0
102
RTVSPost2010PropOp34
 70
     1
102
RTVSPost2010Prop35
280
     0
102
RTVSPost2010PropOp35
 70
     1
102
RTVSPost2010Prop36
280
     0
102
RTVSPost2010PropOp36
 70
     1
102
RTVSPost2010Prop37
 90
       50
102
RTVSPost2010PropOp37
 70
     1
102
RTVSPost2010Prop38
140
0.0
102
RTVSPost2010PropOp38
 70
     1
102
RTVSPost2010Prop39
140
1.0
102
RTVSPost2010PropOp39
 70
     1
102
RTVSPost2010Prop40
 90
        0
102
RTVSPost2010PropOp40
 70
     1
102
RTVSPost2010Prop41ColorIndex
 90
       18
102
RTVSPost2010Prop41ColorRGB
 90
        0
102
RTVSPost2010PropOp41
 70
     1
102
RTVSPost2010Prop42
 90
       50
102
RTVSPost2010PropOp42
 70
     1
102
RTVSPost2010Prop43
 90
        3
102
RTVSPost2010PropOp43
 70
     1
102
RTVSPost2010Prop44ColorIndex
 90
        5
102
RTVSPost2010Prop44ColorRGB
 90
      255
102
RTVSPost2010PropOp44
 70
     1
102
RTVSPost2010Prop45
280
     0
102
RTVSPost2010PropOp45
 70
     1
102
RTVSPost2010Prop46
 90
       50
102
RTVSPost2010PropOp46
 70
     1
102
RTVSPost2010Prop47
 90
       50
102
RTVSPost2010PropOp47
 70
     1
102
RTVSPost2010Prop48
 90
       50
102
RTVSPost2010PropOp48
 70
     1
102
RTVSPost2010Prop49
280
     0
102
RTVSPost2010PropOp49
 70
     1
102
RTVSPost2010Prop50
 90
       50
102
RTVSPost2010PropOp50
 70
     1
102
RTVSPost2010Prop51ColorIndex
 90
      256
102
RTVSPost2010Prop51ColorRGB
 90
-16777216
102
RTVSPost2010PropOp51
 70
     0
102
RTVSPost2010Prop52
140
1.0
102
RTVSPost2010PropOp52
 70
     0
102
RTVSPost2010Prop53
 90
        2
102
RTVSPost2010PropOp53
 70
     1
102
RTVSPost2010Prop54
  1
strokes_ogs.tif
102
RTVSPost2010PropOp54
 70
     1
102
RTVSPost2010Prop55
280
     0
102
RTVSPost2010PropOp55
 70
     1
102
RTVSPost2010Prop56
140
1.0
102
RTVSPost2010PropOp56
 70
     1
102
RTVSPost2010Prop57
140
1.0
102
RTVSPost2010PropOp57
 70
     1
102
RTVSPropertyOp0
 70
     1
102
RTVSPropertyOp1
 70
     1
102
RTVSPropertyOp2
 70
     1
102
RTVSPropertyOp3
 70
     1
102
RTVSPropertyOp4
 70
     1
102
RTVSPropertyOp5
 70
     1
102
RTVSPropertyOp6
 70
     1
102
RTVSPropertyOp7
 70
     1
102
RTVSPropertyOp8
 70
     1
102
RTVSPropertyOp9
 70
     1
102
RTVSPropertyOp10
 70
     1
102
RTVSPropertyOp11
 70
     1
102
RTVSPropertyOp12
 70
     1
102
RTVSPropertyOp13
 70
     1
102
RTVSPropertyOp14
 70
     1
102
RTVSPropertyOp15
 70
     1
102
RTVSPropertyOp16
 70
     1
102
RTVSPropertyOp17
 70
     1
102
RTVSPropertyOp18
 70
     1
102
RTVSPropertyOp19
 70
     1
102
RTVSPropertyOp20
 70
     1
102
RTVSPropertyOp21
 70
     1
102
RTVSPropertyOp22
 70
     1
102
RTVSPropertyOp23
 70
     1
102
RTVSPropertyOp24
 70
     1
102
RTVSPropertyOp25
 70
     1
102
RTVSPropertyOp26
 70
     1
102
RTVSPropertyOp27
 70
     1
102
RTVSPropertyOp28
 70
     1
102
RTVSPropertyOp29
 70
     1
102
RTVSPropertyOp30
 70
     1
102
RTVSPropertyOp31
 70
     1
102
RTVSPropertyOp32
 70
     1
102
RTVSPropertyOp33
 70
     1
102
RTVSPropertyOp34
 70
     1
102
RTVSPropertyOp35
 70
     1
102
RTVSPropertyOp36
 70
     1
102
RTVSPropertyOp37
 70
     1
102
RTVSPropertyOp38
 70
     1
102
RTVSPropertyOp39
 70
     1
102
RTVSPropertyOp40
 70
     1
102
RTVSPropertyOp41
 70
     1
102
RTVSPropertyOp42
 70
     1
102
RTVSPropertyOp43
 70
     1
102
RTVSPropertyOp44
 70
     1
102
RTVSPropertyOp45
 70
     1
102
RTVSPropertyOp46
 70
     1
102
RTVSPropertyOp47
 70
     1
102
RTVSPropertyOp48
 70
     1
102
RTVSPropertyOp49
 70
     1
102
RTVSPropertyOp50
 70
     1
102
RTVSPropertyOp51
 70
     0
102
RTVSPropertyOp52
 70
     0
102
RTVSPropertyOp53
 70
     1
102
RTVSPropertyOp54
 70
     1
102
RTVSPropertyOp55
 70
     1
102
RTVSPropertyOp56
 70
     1
102
RTVSPropertyOp57
 70
     1
102
RTVSPropertyOp58
 70
     1
102
RTVSPropertyOp59
 70
     1
102
RTVSPropertyOp60
 70
     1
102
RTVSPropertyOp61
 70
     1
102
RTVSPropertyOp62
 70
     1
  0
XRECORD
  5
21856
102
{ACAD_REACTORS
330
21855
102
}
330
21855
100
AcDbXrecord
280
     1
102
RTVSPost2010Prop28
280
     0
102
RTVSPost2010PropOp28
 70
     1
102
RTVSPost2010Prop29
280
     1
102
RTVSPost2010PropOp29
 70
     1
102
RTVSPost2010Prop30
280
     1
102
RTVSPost2010PropOp30
 70
     1
102
RTVSPost2010Prop31
280
     0
102
RTVSPost2010PropOp31
 70
     1
102
RTVSPost2010Prop32
280
     0
102
RTVSPost2010PropOp32
 70
     1
102
RTVSPost2010Prop33
280
     0
102
RTVSPost2010PropOp33
 70
     1
102
RTVSPost2010Prop34
280
     0
102
RTVSPost2010PropOp34
 70
     1
102
RTVSPost2010Prop35
280
     0
102
RTVSPost2010PropOp35
 70
     1
102
RTVSPost2010Prop36
280
     0
102
RTVSPost2010PropOp36
 70
     1
102
RTVSPost2010Prop37
 90
       50
102
RTVSPost2010PropOp37
 70
     1
102
RTVSPost2010Prop38
140
0.0
102
RTVSPost2010PropOp38
 70
     1
102
RTVSPost2010Prop39
140
1.0
102
RTVSPost2010PropOp39
 70
     1
102
RTVSPost2010Prop40
 90
        0
102
RTVSPost2010PropOp40
 70
     1
102
RTVSPost2010Prop41ColorIndex
 90
       18
102
RTVSPost2010Prop41ColorRGB
 90
        0
102
RTVSPost2010PropOp41
 70
     1
102
RTVSPost2010Prop42
 90
       50
102
RTVSPost2010PropOp42
 70
     1
102
RTVSPost2010Prop43
 90
        3
102
RTVSPost2010PropOp43
 70
     1
102
RTVSPost2010Prop44ColorIndex
 90
        5
102
RTVSPost2010Prop44ColorRGB
 90
      255
102
RTVSPost2010PropOp44
 70
     1
102
RTVSPost2010Prop45
280
     0
102
RTVSPost2010PropOp45
 70
     1
102
RTVSPost2010Prop46
 90
       50
102
RTVSPost2010PropOp46
 70
     1
102
RTVSPost2010Prop47
 90
       50
102
RTVSPost2010PropOp47
 70
     1
102
RTVSPost2010Prop48
 90
       50
102
RTVSPost2010PropOp48
 70
     1
102
RTVSPost2010Prop49
280
     0
102
RTVSPost2010PropOp49
 70
     1
102
RTVSPost2010Prop50
 90
       50
102
RTVSPost2010PropOp50
 70
     1
102
RTVSPost2010Prop51ColorIndex
 90
      256
102
RTVSPost2010Prop51ColorRGB
 90
-16777216
102
RTVSPost2010PropOp51
 70
     0
102
RTVSPost2010Prop52
140
1.0
102
RTVSPost2010PropOp52
 70
     0
102
RTVSPost2010Prop53
 90
        2
102
RTVSPost2010PropOp53
 70
     1
102
RTVSPost2010Prop54
  1
strokes_ogs.tif
102
RTVSPost2010PropOp54
 70
     1
102
RTVSPost2010Prop55
280
     0
102
RTVSPost2010PropOp55
 70
     1
102
RTVSPost2010Prop56
140
1.0
102
RTVSPost2010PropOp56
 70
     1
102
RTVSPost2010Prop57
140
1.0
102
RTVSPost2010PropOp57
 70
     1
102
RTVSPropertyOp0
 70
     1
102
RTVSPropertyOp1
 70
     1
102
RTVSPropertyOp2
 70
     1
102
RTVSPropertyOp3
 70
     1
102
RTVSPropertyOp4
 70
     1
102
RTVSPropertyOp5
 70
     1
102
RTVSPropertyOp6
 70
     1
102
RTVSPropertyOp7
 70
     1
102
RTVSPropertyOp8
 70
     1
102
RTVSPropertyOp9
 70
     1
102
RTVSPropertyOp10
 70
     1
102
RTVSPropertyOp11
 70
     1
102
RTVSPropertyOp12
 70
     1
102
RTVSPropertyOp13
 70
     1
102
RTVSPropertyOp14
 70
     1
102
RTVSPropertyOp15
 70
     1
102
RTVSPropertyOp16
 70
     1
102
RTVSPropertyOp17
 70
     1
102
RTVSPropertyOp18
 70
     1
102
RTVSPropertyOp19
 70
     1
102
RTVSPropertyOp20
 70
     1
102
RTVSPropertyOp21
 70
     1
102
RTVSPropertyOp22
 70
     1
102
RTVSPropertyOp23
 70
     1
102
RTVSPropertyOp24
 70
     1
102
RTVSPropertyOp25
 70
     1
102
RTVSPropertyOp26
 70
     1
102
RTVSPropertyOp27
 70
     1
102
RTVSPropertyOp28
 70
     1
102
RTVSPropertyOp29
 70
     1
102
RTVSPropertyOp30
 70
     1
102
RTVSPropertyOp31
 70
     1
102
RTVSPropertyOp32
 70
     1
102
RTVSPropertyOp33
 70
     1
102
RTVSPropertyOp34
 70
     1
102
RTVSPropertyOp35
 70
     1
102
RTVSPropertyOp36
 70
     1
102
RTVSPropertyOp37
 70
     1
102
RTVSPropertyOp38
 70
     1
102
RTVSPropertyOp39
 70
     1
102
RTVSPropertyOp40
 70
     1
102
RTVSPropertyOp41
 70
     1
102
RTVSPropertyOp42
 70
     1
102
RTVSPropertyOp43
 70
     1
102
RTVSPropertyOp44
 70
     1
102
RTVSPropertyOp45
 70
     1
102
RTVSPropertyOp46
 70
     1
102
RTVSPropertyOp47
 70
     1
102
RTVSPropertyOp48
 70
     1
102
RTVSPropertyOp49
 70
     1
102
RTVSPropertyOp50
 70
     1
102
RTVSPropertyOp51
 70
     0
102
RTVSPropertyOp52
 70
     0
102
RTVSPropertyOp53
 70
     1
102
RTVSPropertyOp54
 70
     1
102
RTVSPropertyOp55
 70
     1
102
RTVSPropertyOp56
 70
     1
102
RTVSPropertyOp57
 70
     1
102
RTVSPropertyOp58
 70
     1
102
RTVSPropertyOp59
 70
     1
102
RTVSPropertyOp60
 70
     1
102
RTVSPropertyOp61
 70
     1
102
RTVSPropertyOp62
 70
     1
  0
XRECORD
  5
2187C
102
{ACAD_REACTORS
330
2187B
102
}
330
2187B
100
AcDbXrecord
280
     1
102
RTVSPost2010Prop28
280
     0
102
RTVSPost2010PropOp28
 70
     1
102
RTVSPost2010Prop29
280
     1
102
RTVSPost2010PropOp29
 70
     1
102
RTVSPost2010Prop30
280
     1
102
RTVSPost2010PropOp30
 70
     1
102
RTVSPost2010Prop31
280
     0
102
RTVSPost2010PropOp31
 70
     1
102
RTVSPost2010Prop32
280
     0
102
RTVSPost2010PropOp32
 70
     1
102
RTVSPost2010Prop33
280
     0
102
RTVSPost2010PropOp33
 70
     1
102
RTVSPost2010Prop34
280
     0
102
RTVSPost2010PropOp34
 70
     1
102
RTVSPost2010Prop35
280
     0
102
RTVSPost2010PropOp35
 70
     1
102
RTVSPost2010Prop36
280
     0
102
RTVSPost2010PropOp36
 70
     1
102
RTVSPost2010Prop37
 90
       50
102
RTVSPost2010PropOp37
 70
     0
102
RTVSPost2010Prop38
140
0.0
102
RTVSPost2010PropOp38
 70
     0
102
RTVSPost2010Prop39
140
1.0
102
RTVSPost2010PropOp39
 70
     0
102
RTVSPost2010Prop40
 90
        0
102
RTVSPost2010PropOp40
 70
     0
102
RTVSPost2010Prop41ColorIndex
 90
       18
102
RTVSPost2010Prop41ColorRGB
 90
        0
102
RTVSPost2010PropOp41
 70
     0
102
RTVSPost2010Prop42
 90
       50
102
RTVSPost2010PropOp42
 70
     0
102
RTVSPost2010Prop43
 90
        3
102
RTVSPost2010PropOp43
 70
     0
102
RTVSPost2010Prop44ColorIndex
 90
        5
102
RTVSPost2010Prop44ColorRGB
 90
      255
102
RTVSPost2010PropOp44
 70
     0
102
RTVSPost2010Prop45
280
     0
102
RTVSPost2010PropOp45
 70
     1
102
RTVSPost2010Prop46
 90
       50
102
RTVSPost2010PropOp46
 70
     0
102
RTVSPost2010Prop47
 90
       50
102
RTVSPost2010PropOp47
 70
     0
102
RTVSPost2010Prop48
 90
       50
102
RTVSPost2010PropOp48
 70
     0
102
RTVSPost2010Prop49
280
     0
102
RTVSPost2010PropOp49
 70
     1
102
RTVSPost2010Prop50
 90
       50
102
RTVSPost2010PropOp50
 70
     0
102
RTVSPost2010Prop51ColorIndex
 90
      256
102
RTVSPost2010Prop51ColorRGB
 90
-16777216
102
RTVSPost2010PropOp51
 70
     0
102
RTVSPost2010Prop52
140
1.0
102
RTVSPost2010PropOp52
 70
     0
102
RTVSPost2010Prop53
 90
        2
102
RTVSPost2010PropOp53
 70
     0
102
RTVSPost2010Prop54
  1
strokes_ogs.tif
102
RTVSPost2010PropOp54
 70
     0
102
RTVSPost2010Prop55
280
     0
102
RTVSPost2010PropOp55
 70
     1
102
RTVSPost2010Prop56
140
1.0
102
RTVSPost2010PropOp56
 70
     0
102
RTVSPost2010Prop57
140
1.0
102
RTVSPost2010PropOp57
 70
     0
102
RTVSPropertyOp0
 70
     0
102
RTVSPropertyOp1
 70
     0
102
RTVSPropertyOp2
 70
     0
102
RTVSPropertyOp3
 70
     0
102
RTVSPropertyOp4
 70
     0
102
RTVSPropertyOp5
 70
     0
102
RTVSPropertyOp6
 70
     0
102
RTVSPropertyOp7
 70
     0
102
RTVSPropertyOp8
 70
     0
102
RTVSPropertyOp9
 70
     0
102
RTVSPropertyOp10
 70
     0
102
RTVSPropertyOp11
 70
     0
102
RTVSPropertyOp12
 70
     0
102
RTVSPropertyOp13
 70
     0
102
RTVSPropertyOp14
 70
     2
102
RTVSPropertyOp15
 70
     0
102
RTVSPropertyOp16
 70
     0
102
RTVSPropertyOp17
 70
     0
102
RTVSPropertyOp18
 70
     0
102
RTVSPropertyOp19
 70
     0
102
RTVSPropertyOp20
 70
     0
102
RTVSPropertyOp21
 70
     0
102
RTVSPropertyOp22
 70
     0
102
RTVSPropertyOp23
 70
     0
102
RTVSPropertyOp24
 70
     0
102
RTVSPropertyOp25
 70
     0
102
RTVSPropertyOp26
 70
     0
102
RTVSPropertyOp27
 70
     0
102
RTVSPropertyOp28
 70
     1
102
RTVSPropertyOp29
 70
     1
102
RTVSPropertyOp30
 70
     1
102
RTVSPropertyOp31
 70
     1
102
RTVSPropertyOp32
 70
     1
102
RTVSPropertyOp33
 70
     1
102
RTVSPropertyOp34
 70
     1
102
RTVSPropertyOp35
 70
     1
102
RTVSPropertyOp36
 70
     1
102
RTVSPropertyOp37
 70
     0
102
RTVSPropertyOp38
 70
     0
102
RTVSPropertyOp39
 70
     0
102
RTVSPropertyOp40
 70
     0
102
RTVSPropertyOp41
 70
     0
102
RTVSPropertyOp42
 70
     0
102
RTVSPropertyOp43
 70
     0
102
RTVSPropertyOp44
 70
     0
102
RTVSPropertyOp45
 70
     1
102
RTVSPropertyOp46
 70
     0
102
RTVSPropertyOp47
 70
     0
102
RTVSPropertyOp48
 70
     0
102
RTVSPropertyOp49
 70
     1
102
RTVSPropertyOp50
 70
     0
102
RTVSPropertyOp51
 70
     0
102
RTVSPropertyOp52
 70
     0
102
RTVSPropertyOp53
 70
     0
102
RTVSPropertyOp54
 70
     0
102
RTVSPropertyOp55
 70
     1
102
RTVSPropertyOp56
 70
     0
102
RTVSPropertyOp57
 70
     0
102
RTVSPropertyOp58
 70
     1
102
RTVSPropertyOp59
 70
     1
102
RTVSPropertyOp60
 70
     1
102
RTVSPropertyOp61
 70
     1
102
RTVSPropertyOp62
 70
     1
  0
XRECORD
  5
2185E
102
{ACAD_REACTORS
330
2185D
102
}
330
2185D
100
AcDbXrecord
280
     1
102
RTVSPost2010Prop28
280
     0
102
RTVSPost2010PropOp28
 70
     1
102
RTVSPost2010Prop29
280
     1
102
RTVSPost2010PropOp29
 70
     1
102
RTVSPost2010Prop30
280
     1
102
RTVSPost2010PropOp30
 70
     1
102
RTVSPost2010Prop31
280
     0
102
RTVSPost2010PropOp31
 70
     1
102
RTVSPost2010Prop32
280
     0
102
RTVSPost2010PropOp32
 70
     1
102
RTVSPost2010Prop33
280
     0
102
RTVSPost2010PropOp33
 70
     1
102
RTVSPost2010Prop34
280
     0
102
RTVSPost2010PropOp34
 70
     1
102
RTVSPost2010Prop35
280
     0
102
RTVSPost2010PropOp35
 70
     1
102
RTVSPost2010Prop36
280
     0
102
RTVSPost2010PropOp36
 70
     1
102
RTVSPost2010Prop37
 90
       50
102
RTVSPost2010PropOp37
 70
     1
102
RTVSPost2010Prop38
140
0.0
102
RTVSPost2010PropOp38
 70
     1
102
RTVSPost2010Prop39
140
1.0
102
RTVSPost2010PropOp39
 70
     1
102
RTVSPost2010Prop40
 90
        0
102
RTVSPost2010PropOp40
 70
     1
102
RTVSPost2010Prop41ColorIndex
 90
       18
102
RTVSPost2010Prop41ColorRGB
 90
        0
102
RTVSPost2010PropOp41
 70
     1
102
RTVSPost2010Prop42
 90
       50
102
RTVSPost2010PropOp42
 70
     1
102
RTVSPost2010Prop43
 90
        3
102
RTVSPost2010PropOp43
 70
     1
102
RTVSPost2010Prop44ColorIndex
 90
        5
102
RTVSPost2010Prop44ColorRGB
 90
      255
102
RTVSPost2010PropOp44
 70
     1
102
RTVSPost2010Prop45
280
     0
102
RTVSPost2010PropOp45
 70
     1
102
RTVSPost2010Prop46
 90
       50
102
RTVSPost2010PropOp46
 70
     1
102
RTVSPost2010Prop47
 90
       50
102
RTVSPost2010PropOp47
 70
     1
102
RTVSPost2010Prop48
 90
       50
102
RTVSPost2010PropOp48
 70
     1
102
RTVSPost2010Prop49
280
     0
102
RTVSPost2010PropOp49
 70
     1
102
RTVSPost2010Prop50
 90
       50
102
RTVSPost2010PropOp50
 70
     1
102
RTVSPost2010Prop51ColorIndex
 90
      256
102
RTVSPost2010Prop51ColorRGB
 90
-16777216
102
RTVSPost2010PropOp51
 70
     0
102
RTVSPost2010Prop52
140
1.0
102
RTVSPost2010PropOp52
 70
     0
102
RTVSPost2010Prop53
 90
        2
102
RTVSPost2010PropOp53
 70
     1
102
RTVSPost2010Prop54
  1
strokes_ogs.tif
102
RTVSPost2010PropOp54
 70
     1
102
RTVSPost2010Prop55
280
     0
102
RTVSPost2010PropOp55
 70
     1
102
RTVSPost2010Prop56
140
1.0
102
RTVSPost2010PropOp56
 70
     1
102
RTVSPost2010Prop57
140
1.0
102
RTVSPost2010PropOp57
 70
     1
102
RTVSPropertyOp0
 70
     1
102
RTVSPropertyOp1
 70
     1
102
RTVSPropertyOp2
 70
     1
102
RTVSPropertyOp3
 70
     1
102
RTVSPropertyOp4
 70
     1
102
RTVSPropertyOp5
 70
     1
102
RTVSPropertyOp6
 70
     1
102
RTVSPropertyOp7
 70
     1
102
RTVSPropertyOp8
 70
     1
102
RTVSPropertyOp9
 70
     1
102
RTVSPropertyOp10
 70
     1
102
RTVSPropertyOp11
 70
     1
102
RTVSPropertyOp12
 70
     1
102
RTVSPropertyOp13
 70
     1
102
RTVSPropertyOp14
 70
     1
102
RTVSPropertyOp15
 70
     1
102
RTVSPropertyOp16
 70
     1
102
RTVSPropertyOp17
 70
     1
102
RTVSPropertyOp18
 70
     1
102
RTVSPropertyOp19
 70
     1
102
RTVSPropertyOp20
 70
     1
102
RTVSPropertyOp21
 70
     1
102
RTVSPropertyOp22
 70
     1
102
RTVSPropertyOp23
 70
     1
102
RTVSPropertyOp24
 70
     1
102
RTVSPropertyOp25
 70
     1
102
RTVSPropertyOp26
 70
     1
102
RTVSPropertyOp27
 70
     1
102
RTVSPropertyOp28
 70
     1
102
RTVSPropertyOp29
 70
     1
102
RTVSPropertyOp30
 70
     1
102
RTVSPropertyOp31
 70
     1
102
RTVSPropertyOp32
 70
     1
102
RTVSPropertyOp33
 70
     1
102
RTVSPropertyOp34
 70
     1
102
RTVSPropertyOp35
 70
     1
102
RTVSPropertyOp36
 70
     1
102
RTVSPropertyOp37
 70
     1
102
RTVSPropertyOp38
 70
     1
102
RTVSPropertyOp39
 70
     1
102
RTVSPropertyOp40
 70
     1
102
RTVSPropertyOp41
 70
     1
102
RTVSPropertyOp42
 70
     1
102
RTVSPropertyOp43
 70
     1
102
RTVSPropertyOp44
 70
     1
102
RTVSPropertyOp45
 70
     1
102
RTVSPropertyOp46
 70
     1
102
RTVSPropertyOp47
 70
     1
102
RTVSPropertyOp48
 70
     1
102
RTVSPropertyOp49
 70
     1
102
RTVSPropertyOp50
 70
     1
102
RTVSPropertyOp51
 70
     0
102
RTVSPropertyOp52
 70
     0
102
RTVSPropertyOp53
 70
     1
102
RTVSPropertyOp54
 70
     1
102
RTVSPropertyOp55
 70
     1
102
RTVSPropertyOp56
 70
     1
102
RTVSPropertyOp57
 70
     1
102
RTVSPropertyOp58
 70
     1
102
RTVSPropertyOp59
 70
     1
102
RTVSPropertyOp60
 70
     1
102
RTVSPropertyOp61
 70
     1
102
RTVSPropertyOp62
 70
     1
  0
XRECORD
  5
21842
102
{ACAD_REACTORS
330
21841
102
}
330
21841
100
AcDbXrecord
280
     1
102
RTVSPost2010Prop28
280
     0
102
RTVSPost2010PropOp28
 70
     1
102
RTVSPost2010Prop29
280
     1
102
RTVSPost2010PropOp29
 70
     1
102
RTVSPost2010Prop30
280
     1
102
RTVSPost2010PropOp30
 70
     1
102
RTVSPost2010Prop31
280
     0
102
RTVSPost2010PropOp31
 70
     1
102
RTVSPost2010Prop32
280
     0
102
RTVSPost2010PropOp32
 70
     1
102
RTVSPost2010Prop33
280
     0
102
RTVSPost2010PropOp33
 70
     1
102
RTVSPost2010Prop34
280
     0
102
RTVSPost2010PropOp34
 70
     1
102
RTVSPost2010Prop35
280
     0
102
RTVSPost2010PropOp35
 70
     1
102
RTVSPost2010Prop36
280
     0
102
RTVSPost2010PropOp36
 70
     1
102
RTVSPost2010Prop37
 90
       50
102
RTVSPost2010PropOp37
 70
     1
102
RTVSPost2010Prop38
140
0.0
102
RTVSPost2010PropOp38
 70
     1
102
RTVSPost2010Prop39
140
1.0
102
RTVSPost2010PropOp39
 70
     1
102
RTVSPost2010Prop40
 90
        0
102
RTVSPost2010PropOp40
 70
     1
102
RTVSPost2010Prop41ColorIndex
 90
       18
102
RTVSPost2010Prop41ColorRGB
 90
        0
102
RTVSPost2010PropOp41
 70
     1
102
RTVSPost2010Prop42
 90
       50
102
RTVSPost2010PropOp42
 70
     1
102
RTVSPost2010Prop43
 90
        3
102
RTVSPost2010PropOp43
 70
     1
102
RTVSPost2010Prop44ColorIndex
 90
        5
102
RTVSPost2010Prop44ColorRGB
 90
      255
102
RTVSPost2010PropOp44
 70
     1
102
RTVSPost2010Prop45
280
     0
102
RTVSPost2010PropOp45
 70
     1
102
RTVSPost2010Prop46
 90
       50
102
RTVSPost2010PropOp46
 70
     1
102
RTVSPost2010Prop47
 90
       50
102
RTVSPost2010PropOp47
 70
     1
102
RTVSPost2010Prop48
 90
       50
102
RTVSPost2010PropOp48
 70
     1
102
RTVSPost2010Prop49
280
     0
102
RTVSPost2010PropOp49
 70
     1
102
RTVSPost2010Prop50
 90
       50
102
RTVSPost2010PropOp50
 70
     1
102
RTVSPost2010Prop51ColorIndex
 90
      256
102
RTVSPost2010Prop51ColorRGB
 90
-16777216
102
RTVSPost2010PropOp51
 70
     0
102
RTVSPost2010Prop52
140
1.0
102
RTVSPost2010PropOp52
 70
     0
102
RTVSPost2010Prop53
 90
        2
102
RTVSPost2010PropOp53
 70
     1
102
RTVSPost2010Prop54
  1
strokes_ogs.tif
102
RTVSPost2010PropOp54
 70
     1
102
RTVSPost2010Prop55
280
     0
102
RTVSPost2010PropOp55
 70
     1
102
RTVSPost2010Prop56
140
1.0
102
RTVSPost2010PropOp56
 70
     1
102
RTVSPost2010Prop57
140
1.0
102
RTVSPost2010PropOp57
 70
     1
102
RTVSPropertyOp0
 70
     1
102
RTVSPropertyOp1
 70
     1
102
RTVSPropertyOp2
 70
     1
102
RTVSPropertyOp3
 70
     1
102
RTVSPropertyOp4
 70
     1
102
RTVSPropertyOp5
 70
     1
102
RTVSPropertyOp6
 70
     1
102
RTVSPropertyOp7
 70
     1
102
RTVSPropertyOp8
 70
     1
102
RTVSPropertyOp9
 70
     1
102
RTVSPropertyOp10
 70
     1
102
RTVSPropertyOp11
 70
     1
102
RTVSPropertyOp12
 70
     1
102
RTVSPropertyOp13
 70
     1
102
RTVSPropertyOp14
 70
     1
102
RTVSPropertyOp15
 70
     1
102
RTVSPropertyOp16
 70
     1
102
RTVSPropertyOp17
 70
     1
102
RTVSPropertyOp18
 70
     1
102
RTVSPropertyOp19
 70
     1
102
RTVSPropertyOp20
 70
     1
102
RTVSPropertyOp21
 70
     1
102
RTVSPropertyOp22
 70
     1
102
RTVSPropertyOp23
 70
     1
102
RTVSPropertyOp24
 70
     1
102
RTVSPropertyOp25
 70
     1
102
RTVSPropertyOp26
 70
     1
102
RTVSPropertyOp27
 70
     1
102
RTVSPropertyOp28
 70
     1
102
RTVSPropertyOp29
 70
     1
102
RTVSPropertyOp30
 70
     1
102
RTVSPropertyOp31
 70
     1
102
RTVSPropertyOp32
 70
     1
102
RTVSPropertyOp33
 70
     1
102
RTVSPropertyOp34
 70
     1
102
RTVSPropertyOp35
 70
     1
102
RTVSPropertyOp36
 70
     1
102
RTVSPropertyOp37
 70
     1
102
RTVSPropertyOp38
 70
     1
102
RTVSPropertyOp39
 70
     1
102
RTVSPropertyOp40
 70
     1
102
RTVSPropertyOp41
 70
     1
102
RTVSPropertyOp42
 70
     1
102
RTVSPropertyOp43
 70
     1
102
RTVSPropertyOp44
 70
     1
102
RTVSPropertyOp45
 70
     1
102
RTVSPropertyOp46
 70
     1
102
RTVSPropertyOp47
 70
     1
102
RTVSPropertyOp48
 70
     1
102
RTVSPropertyOp49
 70
     1
102
RTVSPropertyOp50
 70
     1
102
RTVSPropertyOp51
 70
     0
102
RTVSPropertyOp52
 70
     0
102
RTVSPropertyOp53
 70
     1
102
RTVSPropertyOp54
 70
     1
102
RTVSPropertyOp55
 70
     1
102
RTVSPropertyOp56
 70
     1
102
RTVSPropertyOp57
 70
     1
102
RTVSPropertyOp58
 70
     1
102
RTVSPropertyOp59
 70
     1
102
RTVSPropertyOp60
 70
     1
102
RTVSPropertyOp61
 70
     1
102
RTVSPropertyOp62
 70
     1
  0
XRECORD
  5
21844
102
{ACAD_REACTORS
330
21843
102
}
330
21843
100
AcDbXrecord
280
     1
102
RTVSPost2010Prop28
280
     0
102
RTVSPost2010PropOp28
 70
     1
102
RTVSPost2010Prop29
280
     1
102
RTVSPost2010PropOp29
 70
     1
102
RTVSPost2010Prop30
280
     1
102
RTVSPost2010PropOp30
 70
     1
102
RTVSPost2010Prop31
280
     0
102
RTVSPost2010PropOp31
 70
     1
102
RTVSPost2010Prop32
280
     0
102
RTVSPost2010PropOp32
 70
     1
102
RTVSPost2010Prop33
280
     0
102
RTVSPost2010PropOp33
 70
     1
102
RTVSPost2010Prop34
280
     0
102
RTVSPost2010PropOp34
 70
     1
102
RTVSPost2010Prop35
280
     0
102
RTVSPost2010PropOp35
 70
     1
102
RTVSPost2010Prop36
280
     0
102
RTVSPost2010PropOp36
 70
     1
102
RTVSPost2010Prop37
 90
       50
102
RTVSPost2010PropOp37
 70
     1
102
RTVSPost2010Prop38
140
0.0
102
RTVSPost2010PropOp38
 70
     1
102
RTVSPost2010Prop39
140
1.0
102
RTVSPost2010PropOp39
 70
     1
102
RTVSPost2010Prop40
 90
        0
102
RTVSPost2010PropOp40
 70
     1
102
RTVSPost2010Prop41ColorIndex
 90
       18
102
RTVSPost2010Prop41ColorRGB
 90
        0
102
RTVSPost2010PropOp41
 70
     1
102
RTVSPost2010Prop42
 90
       50
102
RTVSPost2010PropOp42
 70
     1
102
RTVSPost2010Prop43
 90
        3
102
RTVSPost2010PropOp43
 70
     1
102
RTVSPost2010Prop44ColorIndex
 90
        5
102
RTVSPost2010Prop44ColorRGB
 90
      255
102
RTVSPost2010PropOp44
 70
     1
102
RTVSPost2010Prop45
280
     0
102
RTVSPost2010PropOp45
 70
     1
102
RTVSPost2010Prop46
 90
       50
102
RTVSPost2010PropOp46
 70
     1
102
RTVSPost2010Prop47
 90
       50
102
RTVSPost2010PropOp47
 70
     1
102
RTVSPost2010Prop48
 90
       50
102
RTVSPost2010PropOp48
 70
     1
102
RTVSPost2010Prop49
280
     0
102
RTVSPost2010PropOp49
 70
     1
102
RTVSPost2010Prop50
 90
       50
102
RTVSPost2010PropOp50
 70
     1
102
RTVSPost2010Prop51ColorIndex
 90
      256
102
RTVSPost2010Prop51ColorRGB
 90
-16777216
102
RTVSPost2010PropOp51
 70
     0
102
RTVSPost2010Prop52
140
1.0
102
RTVSPost2010PropOp52
 70
     0
102
RTVSPost2010Prop53
 90
        2
102
RTVSPost2010PropOp53
 70
     1
102
RTVSPost2010Prop54
  1
strokes_ogs.tif
102
RTVSPost2010PropOp54
 70
     1
102
RTVSPost2010Prop55
280
     0
102
RTVSPost2010PropOp55
 70
     1
102
RTVSPost2010Prop56
140
1.0
102
RTVSPost2010PropOp56
 70
     1
102
RTVSPost2010Prop57
140
1.0
102
RTVSPost2010PropOp57
 70
     1
102
RTVSPropertyOp0
 70
     1
102
RTVSPropertyOp1
 70
     1
102
RTVSPropertyOp2
 70
     1
102
RTVSPropertyOp3
 70
     1
102
RTVSPropertyOp4
 70
     1
102
RTVSPropertyOp5
 70
     1
102
RTVSPropertyOp6
 70
     1
102
RTVSPropertyOp7
 70
     1
102
RTVSPropertyOp8
 70
     1
102
RTVSPropertyOp9
 70
     1
102
RTVSPropertyOp10
 70
     1
102
RTVSPropertyOp11
 70
     1
102
RTVSPropertyOp12
 70
     1
102
RTVSPropertyOp13
 70
     1
102
RTVSPropertyOp14
 70
     1
102
RTVSPropertyOp15
 70
     1
102
RTVSPropertyOp16
 70
     1
102
RTVSPropertyOp17
 70
     1
102
RTVSPropertyOp18
 70
     1
102
RTVSPropertyOp19
 70
     1
102
RTVSPropertyOp20
 70
     1
102
RTVSPropertyOp21
 70
     1
102
RTVSPropertyOp22
 70
     1
102
RTVSPropertyOp23
 70
     1
102
RTVSPropertyOp24
 70
     1
102
RTVSPropertyOp25
 70
     1
102
RTVSPropertyOp26
 70
     1
102
RTVSPropertyOp27
 70
     1
102
RTVSPropertyOp28
 70
     1
102
RTVSPropertyOp29
 70
     1
102
RTVSPropertyOp30
 70
     1
102
RTVSPropertyOp31
 70
     1
102
RTVSPropertyOp32
 70
     1
102
RTVSPropertyOp33
 70
     1
102
RTVSPropertyOp34
 70
     1
102
RTVSPropertyOp35
 70
     1
102
RTVSPropertyOp36
 70
     1
102
RTVSPropertyOp37
 70
     1
102
RTVSPropertyOp38
 70
     1
102
RTVSPropertyOp39
 70
     1
102
RTVSPropertyOp40
 70
     1
102
RTVSPropertyOp41
 70
     1
102
RTVSPropertyOp42
 70
     1
102
RTVSPropertyOp43
 70
     1
102
RTVSPropertyOp44
 70
     1
102
RTVSPropertyOp45
 70
     1
102
RTVSPropertyOp46
 70
     1
102
RTVSPropertyOp47
 70
     1
102
RTVSPropertyOp48
 70
     1
102
RTVSPropertyOp49
 70
     1
102
RTVSPropertyOp50
 70
     1
102
RTVSPropertyOp51
 70
     0
102
RTVSPropertyOp52
 70
     0
102
RTVSPropertyOp53
 70
     1
102
RTVSPropertyOp54
 70
     1
102
RTVSPropertyOp55
 70
     1
102
RTVSPropertyOp56
 70
     1
102
RTVSPropertyOp57
 70
     1
102
RTVSPropertyOp58
 70
     1
102
RTVSPropertyOp59
 70
     1
102
RTVSPropertyOp60
 70
     1
102
RTVSPropertyOp61
 70
     1
102
RTVSPropertyOp62
 70
     1
  0
XRECORD
  5
21846
102
{ACAD_REACTORS
330
21845
102
}
330
21845
100
AcDbXrecord
280
     1
102
RTVSPost2010Prop28
280
     0
102
RTVSPost2010PropOp28
 70
     1
102
RTVSPost2010Prop29
280
     1
102
RTVSPost2010PropOp29
 70
     1
102
RTVSPost2010Prop30
280
     1
102
RTVSPost2010PropOp30
 70
     1
102
RTVSPost2010Prop31
280
     0
102
RTVSPost2010PropOp31
 70
     1
102
RTVSPost2010Prop32
280
     0
102
RTVSPost2010PropOp32
 70
     1
102
RTVSPost2010Prop33
280
     0
102
RTVSPost2010PropOp33
 70
     1
102
RTVSPost2010Prop34
280
     0
102
RTVSPost2010PropOp34
 70
     1
102
RTVSPost2010Prop35
280
     0
102
RTVSPost2010PropOp35
 70
     1
102
RTVSPost2010Prop36
280
     0
102
RTVSPost2010PropOp36
 70
     1
102
RTVSPost2010Prop37
 90
       50
102
RTVSPost2010PropOp37
 70
     1
102
RTVSPost2010Prop38
140
0.0
102
RTVSPost2010PropOp38
 70
     1
102
RTVSPost2010Prop39
140
1.0
102
RTVSPost2010PropOp39
 70
     1
102
RTVSPost2010Prop40
 90
        0
102
RTVSPost2010PropOp40
 70
     1
102
RTVSPost2010Prop41ColorIndex
 90
       18
102
RTVSPost2010Prop41ColorRGB
 90
        0
102
RTVSPost2010PropOp41
 70
     1
102
RTVSPost2010Prop42
 90
       50
102
RTVSPost2010PropOp42
 70
     1
102
RTVSPost2010Prop43
 90
        3
102
RTVSPost2010PropOp43
 70
     1
102
RTVSPost2010Prop44ColorIndex
 90
        5
102
RTVSPost2010Prop44ColorRGB
 90
      255
102
RTVSPost2010PropOp44
 70
     1
102
RTVSPost2010Prop45
280
     0
102
RTVSPost2010PropOp45
 70
     1
102
RTVSPost2010Prop46
 90
       50
102
RTVSPost2010PropOp46
 70
     1
102
RTVSPost2010Prop47
 90
       50
102
RTVSPost2010PropOp47
 70
     1
102
RTVSPost2010Prop48
 90
       50
102
RTVSPost2010PropOp48
 70
     1
102
RTVSPost2010Prop49
280
     0
102
RTVSPost2010PropOp49
 70
     1
102
RTVSPost2010Prop50
 90
       50
102
RTVSPost2010PropOp50
 70
     1
102
RTVSPost2010Prop51ColorIndex
 90
      256
102
RTVSPost2010Prop51ColorRGB
 90
-16777216
102
RTVSPost2010PropOp51
 70
     0
102
RTVSPost2010Prop52
140
1.0
102
RTVSPost2010PropOp52
 70
     0
102
RTVSPost2010Prop53
 90
        2
102
RTVSPost2010PropOp53
 70
     1
102
RTVSPost2010Prop54
  1
strokes_ogs.tif
102
RTVSPost2010PropOp54
 70
     1
102
RTVSPost2010Prop55
280
     0
102
RTVSPost2010PropOp55
 70
     1
102
RTVSPost2010Prop56
140
1.0
102
RTVSPost2010PropOp56
 70
     1
102
RTVSPost2010Prop57
140
1.0
102
RTVSPost2010PropOp57
 70
     1
102
RTVSPropertyOp0
 70
     1
102
RTVSPropertyOp1
 70
     1
102
RTVSPropertyOp2
 70
     1
102
RTVSPropertyOp3
 70
     1
102
RTVSPropertyOp4
 70
     1
102
RTVSPropertyOp5
 70
     1
102
RTVSPropertyOp6
 70
     1
102
RTVSPropertyOp7
 70
     1
102
RTVSPropertyOp8
 70
     1
102
RTVSPropertyOp9
 70
     1
102
RTVSPropertyOp10
 70
     1
102
RTVSPropertyOp11
 70
     1
102
RTVSPropertyOp12
 70
     1
102
RTVSPropertyOp13
 70
     1
102
RTVSPropertyOp14
 70
     1
102
RTVSPropertyOp15
 70
     1
102
RTVSPropertyOp16
 70
     1
102
RTVSPropertyOp17
 70
     1
102
RTVSPropertyOp18
 70
     1
102
RTVSPropertyOp19
 70
     1
102
RTVSPropertyOp20
 70
     1
102
RTVSPropertyOp21
 70
     1
102
RTVSPropertyOp22
 70
     1
102
RTVSPropertyOp23
 70
     1
102
RTVSPropertyOp24
 70
     1
102
RTVSPropertyOp25
 70
     1
102
RTVSPropertyOp26
 70
     1
102
RTVSPropertyOp27
 70
     1
102
RTVSPropertyOp28
 70
     1
102
RTVSPropertyOp29
 70
     1
102
RTVSPropertyOp30
 70
     1
102
RTVSPropertyOp31
 70
     1
102
RTVSPropertyOp32
 70
     1
102
RTVSPropertyOp33
 70
     1
102
RTVSPropertyOp34
 70
     1
102
RTVSPropertyOp35
 70
     1
102
RTVSPropertyOp36
 70
     1
102
RTVSPropertyOp37
 70
     1
102
RTVSPropertyOp38
 70
     1
102
RTVSPropertyOp39
 70
     1
102
RTVSPropertyOp40
 70
     1
102
RTVSPropertyOp41
 70
     1
102
RTVSPropertyOp42
 70
     1
102
RTVSPropertyOp43
 70
     1
102
RTVSPropertyOp44
 70
     1
102
RTVSPropertyOp45
 70
     1
102
RTVSPropertyOp46
 70
     1
102
RTVSPropertyOp47
 70
     1
102
RTVSPropertyOp48
 70
     1
102
RTVSPropertyOp49
 70
     1
102
RTVSPropertyOp50
 70
     1
102
RTVSPropertyOp51
 70
     0
102
RTVSPropertyOp52
 70
     0
102
RTVSPropertyOp53
 70
     1
102
RTVSPropertyOp54
 70
     1
102
RTVSPropertyOp55
 70
     1
102
RTVSPropertyOp56
 70
     1
102
RTVSPropertyOp57
 70
     1
102
RTVSPropertyOp58
 70
     1
102
RTVSPropertyOp59
 70
     1
102
RTVSPropertyOp60
 70
     1
102
RTVSPropertyOp61
 70
     1
102
RTVSPropertyOp62
 70
     1
  0
XRECORD
  5
21848
102
{ACAD_REACTORS
330
21847
102
}
330
21847
100
AcDbXrecord
280
     1
102
RTVSPost2010Prop28
280
     0
102
RTVSPost2010PropOp28
 70
     1
102
RTVSPost2010Prop29
280
     1
102
RTVSPost2010PropOp29
 70
     1
102
RTVSPost2010Prop30
280
     1
102
RTVSPost2010PropOp30
 70
     1
102
RTVSPost2010Prop31
280
     0
102
RTVSPost2010PropOp31
 70
     1
102
RTVSPost2010Prop32
280
     0
102
RTVSPost2010PropOp32
 70
     1
102
RTVSPost2010Prop33
280
     0
102
RTVSPost2010PropOp33
 70
     1
102
RTVSPost2010Prop34
280
     0
102
RTVSPost2010PropOp34
 70
     1
102
RTVSPost2010Prop35
280
     0
102
RTVSPost2010PropOp35
 70
     1
102
RTVSPost2010Prop36
280
     0
102
RTVSPost2010PropOp36
 70
     1
102
RTVSPost2010Prop37
 90
       50
102
RTVSPost2010PropOp37
 70
     1
102
RTVSPost2010Prop38
140
0.0
102
RTVSPost2010PropOp38
 70
     1
102
RTVSPost2010Prop39
140
1.0
102
RTVSPost2010PropOp39
 70
     1
102
RTVSPost2010Prop40
 90
        0
102
RTVSPost2010PropOp40
 70
     1
102
RTVSPost2010Prop41ColorIndex
 90
       18
102
RTVSPost2010Prop41ColorRGB
 90
        0
102
RTVSPost2010PropOp41
 70
     1
102
RTVSPost2010Prop42
 90
       50
102
RTVSPost2010PropOp42
 70
     1
102
RTVSPost2010Prop43
 90
        3
102
RTVSPost2010PropOp43
 70
     1
102
RTVSPost2010Prop44ColorIndex
 90
        5
102
RTVSPost2010Prop44ColorRGB
 90
      255
102
RTVSPost2010PropOp44
 70
     1
102
RTVSPost2010Prop45
280
     0
102
RTVSPost2010PropOp45
 70
     1
102
RTVSPost2010Prop46
 90
       50
102
RTVSPost2010PropOp46
 70
     1
102
RTVSPost2010Prop47
 90
       50
102
RTVSPost2010PropOp47
 70
     1
102
RTVSPost2010Prop48
 90
       50
102
RTVSPost2010PropOp48
 70
     1
102
RTVSPost2010Prop49
280
     0
102
RTVSPost2010PropOp49
 70
     1
102
RTVSPost2010Prop50
 90
       50
102
RTVSPost2010PropOp50
 70
     1
102
RTVSPost2010Prop51ColorIndex
 90
      256
102
RTVSPost2010Prop51ColorRGB
 90
-16777216
102
RTVSPost2010PropOp51
 70
     0
102
RTVSPost2010Prop52
140
1.0
102
RTVSPost2010PropOp52
 70
     0
102
RTVSPost2010Prop53
 90
        2
102
RTVSPost2010PropOp53
 70
     1
102
RTVSPost2010Prop54
  1
strokes_ogs.tif
102
RTVSPost2010PropOp54
 70
     1
102
RTVSPost2010Prop55
280
     0
102
RTVSPost2010PropOp55
 70
     1
102
RTVSPost2010Prop56
140
1.0
102
RTVSPost2010PropOp56
 70
     1
102
RTVSPost2010Prop57
140
1.0
102
RTVSPost2010PropOp57
 70
     1
102
RTVSPropertyOp0
 70
     1
102
RTVSPropertyOp1
 70
     1
102
RTVSPropertyOp2
 70
     1
102
RTVSPropertyOp3
 70
     1
102
RTVSPropertyOp4
 70
     1
102
RTVSPropertyOp5
 70
     1
102
RTVSPropertyOp6
 70
     1
102
RTVSPropertyOp7
 70
     1
102
RTVSPropertyOp8
 70
     1
102
RTVSPropertyOp9
 70
     1
102
RTVSPropertyOp10
 70
     1
102
RTVSPropertyOp11
 70
     1
102
RTVSPropertyOp12
 70
     1
102
RTVSPropertyOp13
 70
     1
102
RTVSPropertyOp14
 70
     1
102
RTVSPropertyOp15
 70
     1
102
RTVSPropertyOp16
 70
     1
102
RTVSPropertyOp17
 70
     1
102
RTVSPropertyOp18
 70
     1
102
RTVSPropertyOp19
 70
     1
102
RTVSPropertyOp20
 70
     1
102
RTVSPropertyOp21
 70
     1
102
RTVSPropertyOp22
 70
     1
102
RTVSPropertyOp23
 70
     1
102
RTVSPropertyOp24
 70
     1
102
RTVSPropertyOp25
 70
     1
102
RTVSPropertyOp26
 70
     1
102
RTVSPropertyOp27
 70
     1
102
RTVSPropertyOp28
 70
     1
102
RTVSPropertyOp29
 70
     1
102
RTVSPropertyOp30
 70
     1
102
RTVSPropertyOp31
 70
     1
102
RTVSPropertyOp32
 70
     1
102
RTVSPropertyOp33
 70
     1
102
RTVSPropertyOp34
 70
     1
102
RTVSPropertyOp35
 70
     1
102
RTVSPropertyOp36
 70
     1
102
RTVSPropertyOp37
 70
     1
102
RTVSPropertyOp38
 70
     1
102
RTVSPropertyOp39
 70
     1
102
RTVSPropertyOp40
 70
     1
102
RTVSPropertyOp41
 70
     1
102
RTVSPropertyOp42
 70
     1
102
RTVSPropertyOp43
 70
     1
102
RTVSPropertyOp44
 70
     1
102
RTVSPropertyOp45
 70
     1
102
RTVSPropertyOp46
 70
     1
102
RTVSPropertyOp47
 70
     1
102
RTVSPropertyOp48
 70
     1
102
RTVSPropertyOp49
 70
     1
102
RTVSPropertyOp50
 70
     1
102
RTVSPropertyOp51
 70
     0
102
RTVSPropertyOp52
 70
     0
102
RTVSPropertyOp53
 70
     1
102
RTVSPropertyOp54
 70
     1
102
RTVSPropertyOp55
 70
     1
102
RTVSPropertyOp56
 70
     1
102
RTVSPropertyOp57
 70
     1
102
RTVSPropertyOp58
 70
     1
102
RTVSPropertyOp59
 70
     1
102
RTVSPropertyOp60
 70
     1
102
RTVSPropertyOp61
 70
     1
102
RTVSPropertyOp62
 70
     1
  0
XRECORD
  5
2186C
102
{ACAD_REACTORS
330
2186B
102
}
330
2186B
100
AcDbXrecord
280
     1
102
RTVSPost2010Prop28
280
     0
102
RTVSPost2010PropOp28
 70
     1
102
RTVSPost2010Prop29
280
     1
102
RTVSPost2010PropOp29
 70
     1
102
RTVSPost2010Prop30
280
     1
102
RTVSPost2010PropOp30
 70
     1
102
RTVSPost2010Prop31
280
     0
102
RTVSPost2010PropOp31
 70
     1
102
RTVSPost2010Prop32
280
     0
102
RTVSPost2010PropOp32
 70
     1
102
RTVSPost2010Prop33
280
     0
102
RTVSPost2010PropOp33
 70
     1
102
RTVSPost2010Prop34
280
     0
102
RTVSPost2010PropOp34
 70
     1
102
RTVSPost2010Prop35
280
     0
102
RTVSPost2010PropOp35
 70
     1
102
RTVSPost2010Prop36
280
     0
102
RTVSPost2010PropOp36
 70
     1
102
RTVSPost2010Prop37
 90
       50
102
RTVSPost2010PropOp37
 70
     1
102
RTVSPost2010Prop38
140
0.0
102
RTVSPost2010PropOp38
 70
     1
102
RTVSPost2010Prop39
140
1.0
102
RTVSPost2010PropOp39
 70
     1
102
RTVSPost2010Prop40
 90
        0
102
RTVSPost2010PropOp40
 70
     1
102
RTVSPost2010Prop41ColorIndex
 90
       18
102
RTVSPost2010Prop41ColorRGB
 90
        0
102
RTVSPost2010PropOp41
 70
     1
102
RTVSPost2010Prop42
 90
       50
102
RTVSPost2010PropOp42
 70
     1
102
RTVSPost2010Prop43
 90
        3
102
RTVSPost2010PropOp43
 70
     1
102
RTVSPost2010Prop44ColorIndex
 90
        5
102
RTVSPost2010Prop44ColorRGB
 90
      255
102
RTVSPost2010PropOp44
 70
     1
102
RTVSPost2010Prop45
280
     0
102
RTVSPost2010PropOp45
 70
     1
102
RTVSPost2010Prop46
 90
       50
102
RTVSPost2010PropOp46
 70
     1
102
RTVSPost2010Prop47
 90
       50
102
RTVSPost2010PropOp47
 70
     1
102
RTVSPost2010Prop48
 90
       50
102
RTVSPost2010PropOp48
 70
     1
102
RTVSPost2010Prop49
280
     0
102
RTVSPost2010PropOp49
 70
     1
102
RTVSPost2010Prop50
 90
       50
102
RTVSPost2010PropOp50
 70
     1
102
RTVSPost2010Prop51ColorIndex
 90
      256
102
RTVSPost2010Prop51ColorRGB
 90
-16777216
102
RTVSPost2010PropOp51
 70
     0
102
RTVSPost2010Prop52
140
1.0
102
RTVSPost2010PropOp52
 70
     0
102
RTVSPost2010Prop53
 90
        2
102
RTVSPost2010PropOp53
 70
     1
102
RTVSPost2010Prop54
  1
strokes_ogs.tif
102
RTVSPost2010PropOp54
 70
     1
102
RTVSPost2010Prop55
280
     0
102
RTVSPost2010PropOp55
 70
     1
102
RTVSPost2010Prop56
140
1.0
102
RTVSPost2010PropOp56
 70
     1
102
RTVSPost2010Prop57
140
1.0
102
RTVSPost2010PropOp57
 70
     1
102
RTVSPropertyOp0
 70
     1
102
RTVSPropertyOp1
 70
     1
102
RTVSPropertyOp2
 70
     1
102
RTVSPropertyOp3
 70
     1
102
RTVSPropertyOp4
 70
     1
102
RTVSPropertyOp5
 70
     1
102
RTVSPropertyOp6
 70
     1
102
RTVSPropertyOp7
 70
     1
102
RTVSPropertyOp8
 70
     1
102
RTVSPropertyOp9
 70
     1
102
RTVSPropertyOp10
 70
     1
102
RTVSPropertyOp11
 70
     1
102
RTVSPropertyOp12
 70
     1
102
RTVSPropertyOp13
 70
     1
102
RTVSPropertyOp14
 70
     1
102
RTVSPropertyOp15
 70
     1
102
RTVSPropertyOp16
 70
     1
102
RTVSPropertyOp17
 70
     1
102
RTVSPropertyOp18
 70
     1
102
RTVSPropertyOp19
 70
     1
102
RTVSPropertyOp20
 70
     1
102
RTVSPropertyOp21
 70
     1
102
RTVSPropertyOp22
 70
     1
102
RTVSPropertyOp23
 70
     1
102
RTVSPropertyOp24
 70
     1
102
RTVSPropertyOp25
 70
     1
102
RTVSPropertyOp26
 70
     1
102
RTVSPropertyOp27
 70
     1
102
RTVSPropertyOp28
 70
     1
102
RTVSPropertyOp29
 70
     1
102
RTVSPropertyOp30
 70
     1
102
RTVSPropertyOp31
 70
     1
102
RTVSPropertyOp32
 70
     1
102
RTVSPropertyOp33
 70
     1
102
RTVSPropertyOp34
 70
     1
102
RTVSPropertyOp35
 70
     1
102
RTVSPropertyOp36
 70
     1
102
RTVSPropertyOp37
 70
     1
102
RTVSPropertyOp38
 70
     1
102
RTVSPropertyOp39
 70
     1
102
RTVSPropertyOp40
 70
     1
102
RTVSPropertyOp41
 70
     1
102
RTVSPropertyOp42
 70
     1
102
RTVSPropertyOp43
 70
     1
102
RTVSPropertyOp44
 70
     1
102
RTVSPropertyOp45
 70
     1
102
RTVSPropertyOp46
 70
     1
102
RTVSPropertyOp47
 70
     1
102
RTVSPropertyOp48
 70
     1
102
RTVSPropertyOp49
 70
     1
102
RTVSPropertyOp50
 70
     1
102
RTVSPropertyOp51
 70
     0
102
RTVSPropertyOp52
 70
     0
102
RTVSPropertyOp53
 70
     1
102
RTVSPropertyOp54
 70
     1
102
RTVSPropertyOp55
 70
     1
102
RTVSPropertyOp56
 70
     1
102
RTVSPropertyOp57
 70
     1
102
RTVSPropertyOp58
 70
     1
102
RTVSPropertyOp59
 70
     1
102
RTVSPropertyOp60
 70
     1
102
RTVSPropertyOp61
 70
     1
102
RTVSPropertyOp62
 70
     1
  0
XRECORD
  5
21878
102
{ACAD_REACTORS
330
21877
102
}
330
21877
100
AcDbXrecord
280
     1
102
RTVSPost2010Prop28
280
     0
102
RTVSPost2010PropOp28
 70
     1
102
RTVSPost2010Prop29
280
     1
102
RTVSPost2010PropOp29
 70
     1
102
RTVSPost2010Prop30
280
     1
102
RTVSPost2010PropOp30
 70
     1
102
RTVSPost2010Prop31
280
     0
102
RTVSPost2010PropOp31
 70
     1
102
RTVSPost2010Prop32
280
     0
102
RTVSPost2010PropOp32
 70
     1
102
RTVSPost2010Prop33
280
     0
102
RTVSPost2010PropOp33
 70
     1
102
RTVSPost2010Prop34
280
     0
102
RTVSPost2010PropOp34
 70
     1
102
RTVSPost2010Prop35
280
     0
102
RTVSPost2010PropOp35
 70
     1
102
RTVSPost2010Prop36
280
     0
102
RTVSPost2010PropOp36
 70
     1
102
RTVSPost2010Prop37
 90
       50
102
RTVSPost2010PropOp37
 70
     0
102
RTVSPost2010Prop38
140
0.0
102
RTVSPost2010PropOp38
 70
     0
102
RTVSPost2010Prop39
140
1.0
102
RTVSPost2010PropOp39
 70
     0
102
RTVSPost2010Prop40
 90
        0
102
RTVSPost2010PropOp40
 70
     0
102
RTVSPost2010Prop41ColorIndex
 90
       18
102
RTVSPost2010Prop41ColorRGB
 90
        0
102
RTVSPost2010PropOp41
 70
     0
102
RTVSPost2010Prop42
 90
       50
102
RTVSPost2010PropOp42
 70
     0
102
RTVSPost2010Prop43
 90
        3
102
RTVSPost2010PropOp43
 70
     0
102
RTVSPost2010Prop44ColorIndex
 90
        5
102
RTVSPost2010Prop44ColorRGB
 90
      255
102
RTVSPost2010PropOp44
 70
     0
102
RTVSPost2010Prop45
280
     0
102
RTVSPost2010PropOp45
 70
     1
102
RTVSPost2010Prop46
 90
       50
102
RTVSPost2010PropOp46
 70
     0
102
RTVSPost2010Prop47
 90
       50
102
RTVSPost2010PropOp47
 70
     0
102
RTVSPost2010Prop48
 90
       50
102
RTVSPost2010PropOp48
 70
     0
102
RTVSPost2010Prop49
280
     0
102
RTVSPost2010PropOp49
 70
     1
102
RTVSPost2010Prop50
 90
       50
102
RTVSPost2010PropOp50
 70
     0
102
RTVSPost2010Prop51ColorIndex
 90
      256
102
RTVSPost2010Prop51ColorRGB
 90
-16777216
102
RTVSPost2010PropOp51
 70
     0
102
RTVSPost2010Prop52
140
1.0
102
RTVSPost2010PropOp52
 70
     0
102
RTVSPost2010Prop53
 90
        2
102
RTVSPost2010PropOp53
 70
     0
102
RTVSPost2010Prop54
  1
strokes_ogs.tif
102
RTVSPost2010PropOp54
 70
     0
102
RTVSPost2010Prop55
280
     0
102
RTVSPost2010PropOp55
 70
     1
102
RTVSPost2010Prop56
140
1.0
102
RTVSPost2010PropOp56
 70
     0
102
RTVSPost2010Prop57
140
1.0
102
RTVSPost2010PropOp57
 70
     0
102
RTVSPropertyOp0
 70
     0
102
RTVSPropertyOp1
 70
     0
102
RTVSPropertyOp2
 70
     0
102
RTVSPropertyOp3
 70
     0
102
RTVSPropertyOp4
 70
     0
102
RTVSPropertyOp5
 70
     0
102
RTVSPropertyOp6
 70
     0
102
RTVSPropertyOp7
 70
     0
102
RTVSPropertyOp8
 70
     0
102
RTVSPropertyOp9
 70
     0
102
RTVSPropertyOp10
 70
     0
102
RTVSPropertyOp11
 70
     0
102
RTVSPropertyOp12
 70
     0
102
RTVSPropertyOp13
 70
     0
102
RTVSPropertyOp14
 70
     2
102
RTVSPropertyOp15
 70
     0
102
RTVSPropertyOp16
 70
     0
102
RTVSPropertyOp17
 70
     0
102
RTVSPropertyOp18
 70
     0
102
RTVSPropertyOp19
 70
     0
102
RTVSPropertyOp20
 70
     0
102
RTVSPropertyOp21
 70
     0
102
RTVSPropertyOp22
 70
     0
102
RTVSPropertyOp23
 70
     0
102
RTVSPropertyOp24
 70
     0
102
RTVSPropertyOp25
 70
     0
102
RTVSPropertyOp26
 70
     0
102
RTVSPropertyOp27
 70
     0
102
RTVSPropertyOp28
 70
     1
102
RTVSPropertyOp29
 70
     1
102
RTVSPropertyOp30
 70
     1
102
RTVSPropertyOp31
 70
     1
102
RTVSPropertyOp32
 70
     1
102
RTVSPropertyOp33
 70
     1
102
RTVSPropertyOp34
 70
     1
102
RTVSPropertyOp35
 70
     1
102
RTVSPropertyOp36
 70
     1
102
RTVSPropertyOp37
 70
     0
102
RTVSPropertyOp38
 70
     0
102
RTVSPropertyOp39
 70
     0
102
RTVSPropertyOp40
 70
     0
102
RTVSPropertyOp41
 70
     0
102
RTVSPropertyOp42
 70
     0
102
RTVSPropertyOp43
 70
     0
102
RTVSPropertyOp44
 70
     0
102
RTVSPropertyOp45
 70
     1
102
RTVSPropertyOp46
 70
     0
102
RTVSPropertyOp47
 70
     0
102
RTVSPropertyOp48
 70
     0
102
RTVSPropertyOp49
 70
     1
102
RTVSPropertyOp50
 70
     0
102
RTVSPropertyOp51
 70
     0
102
RTVSPropertyOp52
 70
     0
102
RTVSPropertyOp53
 70
     0
102
RTVSPropertyOp54
 70
     0
102
RTVSPropertyOp55
 70
     1
102
RTVSPropertyOp56
 70
     0
102
RTVSPropertyOp57
 70
     0
102
RTVSPropertyOp58
 70
     1
102
RTVSPropertyOp59
 70
     1
102
RTVSPropertyOp60
 70
     1
102
RTVSPropertyOp61
 70
     1
102
RTVSPropertyOp62
 70
     1
  0
XRECORD
  5
2185C
102
{ACAD_REACTORS
330
2185B
102
}
330
2185B
100
AcDbXrecord
280
     1
102
RTVSPost2010Prop28
280
     0
102
RTVSPost2010PropOp28
 70
     1
102
RTVSPost2010Prop29
280
     1
102
RTVSPost2010PropOp29
 70
     1
102
RTVSPost2010Prop30
280
     1
102
RTVSPost2010PropOp30
 70
     1
102
RTVSPost2010Prop31
280
     0
102
RTVSPost2010PropOp31
 70
     1
102
RTVSPost2010Prop32
280
     0
102
RTVSPost2010PropOp32
 70
     1
102
RTVSPost2010Prop33
280
     0
102
RTVSPost2010PropOp33
 70
     1
102
RTVSPost2010Prop34
280
     0
102
RTVSPost2010PropOp34
 70
     1
102
RTVSPost2010Prop35
280
     0
102
RTVSPost2010PropOp35
 70
     1
102
RTVSPost2010Prop36
280
     0
102
RTVSPost2010PropOp36
 70
     1
102
RTVSPost2010Prop37
 90
       50
102
RTVSPost2010PropOp37
 70
     1
102
RTVSPost2010Prop38
140
0.0
102
RTVSPost2010PropOp38
 70
     1
102
RTVSPost2010Prop39
140
1.0
102
RTVSPost2010PropOp39
 70
     1
102
RTVSPost2010Prop40
 90
        0
102
RTVSPost2010PropOp40
 70
     1
102
RTVSPost2010Prop41ColorIndex
 90
       18
102
RTVSPost2010Prop41ColorRGB
 90
        0
102
RTVSPost2010PropOp41
 70
     1
102
RTVSPost2010Prop42
 90
       50
102
RTVSPost2010PropOp42
 70
     1
102
RTVSPost2010Prop43
 90
        3
102
RTVSPost2010PropOp43
 70
     1
102
RTVSPost2010Prop44ColorIndex
 90
        5
102
RTVSPost2010Prop44ColorRGB
 90
      255
102
RTVSPost2010PropOp44
 70
     1
102
RTVSPost2010Prop45
280
     0
102
RTVSPost2010PropOp45
 70
     1
102
RTVSPost2010Prop46
 90
       50
102
RTVSPost2010PropOp46
 70
     1
102
RTVSPost2010Prop47
 90
       50
102
RTVSPost2010PropOp47
 70
     1
102
RTVSPost2010Prop48
 90
       50
102
RTVSPost2010PropOp48
 70
     1
102
RTVSPost2010Prop49
280
     0
102
RTVSPost2010PropOp49
 70
     1
102
RTVSPost2010Prop50
 90
       50
102
RTVSPost2010PropOp50
 70
     1
102
RTVSPost2010Prop51ColorIndex
 90
      256
102
RTVSPost2010Prop51ColorRGB
 90
-16777216
102
RTVSPost2010PropOp51
 70
     0
102
RTVSPost2010Prop52
140
1.0
102
RTVSPost2010PropOp52
 70
     0
102
RTVSPost2010Prop53
 90
        2
102
RTVSPost2010PropOp53
 70
     1
102
RTVSPost2010Prop54
  1
strokes_ogs.tif
102
RTVSPost2010PropOp54
 70
     1
102
RTVSPost2010Prop55
280
     0
102
RTVSPost2010PropOp55
 70
     1
102
RTVSPost2010Prop56
140
1.0
102
RTVSPost2010PropOp56
 70
     1
102
RTVSPost2010Prop57
140
1.0
102
RTVSPost2010PropOp57
 70
     1
102
RTVSPropertyOp0
 70
     1
102
RTVSPropertyOp1
 70
     1
102
RTVSPropertyOp2
 70
     1
102
RTVSPropertyOp3
 70
     1
102
RTVSPropertyOp4
 70
     1
102
RTVSPropertyOp5
 70
     1
102
RTVSPropertyOp6
 70
     1
102
RTVSPropertyOp7
 70
     1
102
RTVSPropertyOp8
 70
     1
102
RTVSPropertyOp9
 70
     1
102
RTVSPropertyOp10
 70
     1
102
RTVSPropertyOp11
 70
     1
102
RTVSPropertyOp12
 70
     1
102
RTVSPropertyOp13
 70
     1
102
RTVSPropertyOp14
 70
     1
102
RTVSPropertyOp15
 70
     1
102
RTVSPropertyOp16
 70
     1
102
RTVSPropertyOp17
 70
     1
102
RTVSPropertyOp18
 70
     1
102
RTVSPropertyOp19
 70
     1
102
RTVSPropertyOp20
 70
     1
102
RTVSPropertyOp21
 70
     1
102
RTVSPropertyOp22
 70
     1
102
RTVSPropertyOp23
 70
     1
102
RTVSPropertyOp24
 70
     1
102
RTVSPropertyOp25
 70
     1
102
RTVSPropertyOp26
 70
     1
102
RTVSPropertyOp27
 70
     1
102
RTVSPropertyOp28
 70
     1
102
RTVSPropertyOp29
 70
     1
102
RTVSPropertyOp30
 70
     1
102
RTVSPropertyOp31
 70
     1
102
RTVSPropertyOp32
 70
     1
102
RTVSPropertyOp33
 70
     1
102
RTVSPropertyOp34
 70
     1
102
RTVSPropertyOp35
 70
     1
102
RTVSPropertyOp36
 70
     1
102
RTVSPropertyOp37
 70
     1
102
RTVSPropertyOp38
 70
     1
102
RTVSPropertyOp39
 70
     1
102
RTVSPropertyOp40
 70
     1
102
RTVSPropertyOp41
 70
     1
102
RTVSPropertyOp42
 70
     1
102
RTVSPropertyOp43
 70
     1
102
RTVSPropertyOp44
 70
     1
102
RTVSPropertyOp45
 70
     1
102
RTVSPropertyOp46
 70
     1
102
RTVSPropertyOp47
 70
     1
102
RTVSPropertyOp48
 70
     1
102
RTVSPropertyOp49
 70
     1
102
RTVSPropertyOp50
 70
     1
102
RTVSPropertyOp51
 70
     0
102
RTVSPropertyOp52
 70
     0
102
RTVSPropertyOp53
 70
     1
102
RTVSPropertyOp54
 70
     1
102
RTVSPropertyOp55
 70
     1
102
RTVSPropertyOp56
 70
     1
102
RTVSPropertyOp57
 70
     1
102
RTVSPropertyOp58
 70
     1
102
RTVSPropertyOp59
 70
     1
102
RTVSPropertyOp60
 70
     1
102
RTVSPropertyOp61
 70
     1
102
RTVSPropertyOp62
 70
     1
  0
XRECORD
  5
2187A
102
{ACAD_REACTORS
330
21879
102
}
330
21879
100
AcDbXrecord
280
     1
102
RTVSPost2010Prop28
280
     0
102
RTVSPost2010PropOp28
 70
     1
102
RTVSPost2010Prop29
280
     1
102
RTVSPost2010PropOp29
 70
     1
102
RTVSPost2010Prop30
280
     1
102
RTVSPost2010PropOp30
 70
     1
102
RTVSPost2010Prop31
280
     0
102
RTVSPost2010PropOp31
 70
     1
102
RTVSPost2010Prop32
280
     0
102
RTVSPost2010PropOp32
 70
     1
102
RTVSPost2010Prop33
280
     0
102
RTVSPost2010PropOp33
 70
     1
102
RTVSPost2010Prop34
280
     0
102
RTVSPost2010PropOp34
 70
     1
102
RTVSPost2010Prop35
280
     0
102
RTVSPost2010PropOp35
 70
     1
102
RTVSPost2010Prop36
280
     0
102
RTVSPost2010PropOp36
 70
     1
102
RTVSPost2010Prop37
 90
       50
102
RTVSPost2010PropOp37
 70
     0
102
RTVSPost2010Prop38
140
0.0
102
RTVSPost2010PropOp38
 70
     0
102
RTVSPost2010Prop39
140
1.0
102
RTVSPost2010PropOp39
 70
     0
102
RTVSPost2010Prop40
 90
        0
102
RTVSPost2010PropOp40
 70
     0
102
RTVSPost2010Prop41ColorIndex
 90
       18
102
RTVSPost2010Prop41ColorRGB
 90
        0
102
RTVSPost2010PropOp41
 70
     0
102
RTVSPost2010Prop42
 90
       50
102
RTVSPost2010PropOp42
 70
     0
102
RTVSPost2010Prop43
 90
        3
102
RTVSPost2010PropOp43
 70
     0
102
RTVSPost2010Prop44ColorIndex
 90
        5
102
RTVSPost2010Prop44ColorRGB
 90
      255
102
RTVSPost2010PropOp44
 70
     0
102
RTVSPost2010Prop45
280
     0
102
RTVSPost2010PropOp45
 70
     1
102
RTVSPost2010Prop46
 90
       50
102
RTVSPost2010PropOp46
 70
     0
102
RTVSPost2010Prop47
 90
       50
102
RTVSPost2010PropOp47
 70
     0
102
RTVSPost2010Prop48
 90
       50
102
RTVSPost2010PropOp48
 70
     0
102
RTVSPost2010Prop49
280
     0
102
RTVSPost2010PropOp49
 70
     1
102
RTVSPost2010Prop50
 90
       50
102
RTVSPost2010PropOp50
 70
     0
102
RTVSPost2010Prop51ColorIndex
 90
      256
102
RTVSPost2010Prop51ColorRGB
 90
-16777216
102
RTVSPost2010PropOp51
 70
     0
102
RTVSPost2010Prop52
140
1.0
102
RTVSPost2010PropOp52
 70
     0
102
RTVSPost2010Prop53
 90
        2
102
RTVSPost2010PropOp53
 70
     0
102
RTVSPost2010Prop54
  1
strokes_ogs.tif
102
RTVSPost2010PropOp54
 70
     0
102
RTVSPost2010Prop55
280
     0
102
RTVSPost2010PropOp55
 70
     1
102
RTVSPost2010Prop56
140
1.0
102
RTVSPost2010PropOp56
 70
     0
102
RTVSPost2010Prop57
140
1.0
102
RTVSPost2010PropOp57
 70
     0
102
RTVSPropertyOp0
 70
     0
102
RTVSPropertyOp1
 70
     0
102
RTVSPropertyOp2
 70
     0
102
RTVSPropertyOp3
 70
     0
102
RTVSPropertyOp4
 70
     0
102
RTVSPropertyOp5
 70
     0
102
RTVSPropertyOp6
 70
     0
102
RTVSPropertyOp7
 70
     0
102
RTVSPropertyOp8
 70
     0
102
RTVSPropertyOp9
 70
     0
102
RTVSPropertyOp10
 70
     0
102
RTVSPropertyOp11
 70
     0
102
RTVSPropertyOp12
 70
     0
102
RTVSPropertyOp13
 70
     0
102
RTVSPropertyOp14
 70
     2
102
RTVSPropertyOp15
 70
     0
102
RTVSPropertyOp16
 70
     0
102
RTVSPropertyOp17
 70
     0
102
RTVSPropertyOp18
 70
     0
102
RTVSPropertyOp19
 70
     0
102
RTVSPropertyOp20
 70
     0
102
RTVSPropertyOp21
 70
     0
102
RTVSPropertyOp22
 70
     0
102
RTVSPropertyOp23
 70
     0
102
RTVSPropertyOp24
 70
     0
102
RTVSPropertyOp25
 70
     0
102
RTVSPropertyOp26
 70
     0
102
RTVSPropertyOp27
 70
     0
102
RTVSPropertyOp28
 70
     1
102
RTVSPropertyOp29
 70
     1
102
RTVSPropertyOp30
 70
     1
102
RTVSPropertyOp31
 70
     1
102
RTVSPropertyOp32
 70
     1
102
RTVSPropertyOp33
 70
     1
102
RTVSPropertyOp34
 70
     1
102
RTVSPropertyOp35
 70
     1
102
RTVSPropertyOp36
 70
     1
102
RTVSPropertyOp37
 70
     0
102
RTVSPropertyOp38
 70
     0
102
RTVSPropertyOp39
 70
     0
102
RTVSPropertyOp40
 70
     0
102
RTVSPropertyOp41
 70
     0
102
RTVSPropertyOp42
 70
     0
102
RTVSPropertyOp43
 70
     0
102
RTVSPropertyOp44
 70
     0
102
RTVSPropertyOp45
 70
     1
102
RTVSPropertyOp46
 70
     0
102
RTVSPropertyOp47
 70
     0
102
RTVSPropertyOp48
 70
     0
102
RTVSPropertyOp49
 70
     1
102
RTVSPropertyOp50
 70
     0
102
RTVSPropertyOp51
 70
     0
102
RTVSPropertyOp52
 70
     0
102
RTVSPropertyOp53
 70
     0
102
RTVSPropertyOp54
 70
     0
102
RTVSPropertyOp55
 70
     1
102
RTVSPropertyOp56
 70
     0
102
RTVSPropertyOp57
 70
     0
102
RTVSPropertyOp58
 70
     1
102
RTVSPropertyOp59
 70
     1
102
RTVSPropertyOp60
 70
     1
102
RTVSPropertyOp61
 70
     1
102
RTVSPropertyOp62
 70
     1
  0
XRECORD
  5
21854
102
{ACAD_REACTORS
330
21853
102
}
330
21853
100
AcDbXrecord
280
     1
102
RTVSPost2010Prop28
280
     0
102
RTVSPost2010PropOp28
 70
     1
102
RTVSPost2010Prop29
280
     1
102
RTVSPost2010PropOp29
 70
     1
102
RTVSPost2010Prop30
280
     1
102
RTVSPost2010PropOp30
 70
     1
102
RTVSPost2010Prop31
280
     0
102
RTVSPost2010PropOp31
 70
     1
102
RTVSPost2010Prop32
280
     0
102
RTVSPost2010PropOp32
 70
     1
102
RTVSPost2010Prop33
280
     0
102
RTVSPost2010PropOp33
 70
     1
102
RTVSPost2010Prop34
280
     0
102
RTVSPost2010PropOp34
 70
     1
102
RTVSPost2010Prop35
280
     0
102
RTVSPost2010PropOp35
 70
     1
102
RTVSPost2010Prop36
280
     0
102
RTVSPost2010PropOp36
 70
     1
102
RTVSPost2010Prop37
 90
       50
102
RTVSPost2010PropOp37
 70
     1
102
RTVSPost2010Prop38
140
0.0
102
RTVSPost2010PropOp38
 70
     1
102
RTVSPost2010Prop39
140
1.0
102
RTVSPost2010PropOp39
 70
     1
102
RTVSPost2010Prop40
 90
        0
102
RTVSPost2010PropOp40
 70
     1
102
RTVSPost2010Prop41ColorIndex
 90
       18
102
RTVSPost2010Prop41ColorRGB
 90
        0
102
RTVSPost2010PropOp41
 70
     1
102
RTVSPost2010Prop42
 90
       50
102
RTVSPost2010PropOp42
 70
     1
102
RTVSPost2010Prop43
 90
        3
102
RTVSPost2010PropOp43
 70
     1
102
RTVSPost2010Prop44ColorIndex
 90
        5
102
RTVSPost2010Prop44ColorRGB
 90
      255
102
RTVSPost2010PropOp44
 70
     1
102
RTVSPost2010Prop45
280
     0
102
RTVSPost2010PropOp45
 70
     1
102
RTVSPost2010Prop46
 90
       50
102
RTVSPost2010PropOp46
 70
     1
102
RTVSPost2010Prop47
 90
       50
102
RTVSPost2010PropOp47
 70
     1
102
RTVSPost2010Prop48
 90
       50
102
RTVSPost2010PropOp48
 70
     1
102
RTVSPost2010Prop49
280
     0
102
RTVSPost2010PropOp49
 70
     1
102
RTVSPost2010Prop50
 90
       50
102
RTVSPost2010PropOp50
 70
     1
102
RTVSPost2010Prop51ColorIndex
 90
      256
102
RTVSPost2010Prop51ColorRGB
 90
-16777216
102
RTVSPost2010PropOp51
 70
     0
102
RTVSPost2010Prop52
140
1.0
102
RTVSPost2010PropOp52
 70
     0
102
RTVSPost2010Prop53
 90
        2
102
RTVSPost2010PropOp53
 70
     1
102
RTVSPost2010Prop54
  1
strokes_ogs.tif
102
RTVSPost2010PropOp54
 70
     1
102
RTVSPost2010Prop55
280
     0
102
RTVSPost2010PropOp55
 70
     1
102
RTVSPost2010Prop56
140
1.0
102
RTVSPost2010PropOp56
 70
     1
102
RTVSPost2010Prop57
140
1.0
102
RTVSPost2010PropOp57
 70
     1
102
RTVSPropertyOp0
 70
     1
102
RTVSPropertyOp1
 70
     1
102
RTVSPropertyOp2
 70
     1
102
RTVSPropertyOp3
 70
     1
102
RTVSPropertyOp4
 70
     1
102
RTVSPropertyOp5
 70
     1
102
RTVSPropertyOp6
 70
     1
102
RTVSPropertyOp7
 70
     1
102
RTVSPropertyOp8
 70
     1
102
RTVSPropertyOp9
 70
     1
102
RTVSPropertyOp10
 70
     1
102
RTVSPropertyOp11
 70
     1
102
RTVSPropertyOp12
 70
     1
102
RTVSPropertyOp13
 70
     1
102
RTVSPropertyOp14
 70
     1
102
RTVSPropertyOp15
 70
     1
102
RTVSPropertyOp16
 70
     1
102
RTVSPropertyOp17
 70
     1
102
RTVSPropertyOp18
 70
     1
102
RTVSPropertyOp19
 70
     1
102
RTVSPropertyOp20
 70
     1
102
RTVSPropertyOp21
 70
     1
102
RTVSPropertyOp22
 70
     1
102
RTVSPropertyOp23
 70
     1
102
RTVSPropertyOp24
 70
     1
102
RTVSPropertyOp25
 70
     1
102
RTVSPropertyOp26
 70
     1
102
RTVSPropertyOp27
 70
     1
102
RTVSPropertyOp28
 70
     1
102
RTVSPropertyOp29
 70
     1
102
RTVSPropertyOp30
 70
     1
102
RTVSPropertyOp31
 70
     1
102
RTVSPropertyOp32
 70
     1
102
RTVSPropertyOp33
 70
     1
102
RTVSPropertyOp34
 70
     1
102
RTVSPropertyOp35
 70
     1
102
RTVSPropertyOp36
 70
     1
102
RTVSPropertyOp37
 70
     1
102
RTVSPropertyOp38
 70
     1
102
RTVSPropertyOp39
 70
     1
102
RTVSPropertyOp40
 70
     1
102
RTVSPropertyOp41
 70
     1
102
RTVSPropertyOp42
 70
     1
102
RTVSPropertyOp43
 70
     1
102
RTVSPropertyOp44
 70
     1
102
RTVSPropertyOp45
 70
     1
102
RTVSPropertyOp46
 70
     1
102
RTVSPropertyOp47
 70
     1
102
RTVSPropertyOp48
 70
     1
102
RTVSPropertyOp49
 70
     1
102
RTVSPropertyOp50
 70
     1
102
RTVSPropertyOp51
 70
     0
102
RTVSPropertyOp52
 70
     0
102
RTVSPropertyOp53
 70
     1
102
RTVSPropertyOp54
 70
     1
102
RTVSPropertyOp55
 70
     1
102
RTVSPropertyOp56
 70
     1
102
RTVSPropertyOp57
 70
     1
102
RTVSPropertyOp58
 70
     1
102
RTVSPropertyOp59
 70
     1
102
RTVSPropertyOp60
 70
     1
102
RTVSPropertyOp61
 70
     1
102
RTVSPropertyOp62
 70
     1
  0
XRECORD
  5
21876
102
{ACAD_REACTORS
330
21875
102
}
330
21875
100
AcDbXrecord
280
     1
102
RTVSPost2010Prop28
280
     0
102
RTVSPost2010PropOp28
 70
     1
102
RTVSPost2010Prop29
280
     1
102
RTVSPost2010PropOp29
 70
     1
102
RTVSPost2010Prop30
280
     1
102
RTVSPost2010PropOp30
 70
     1
102
RTVSPost2010Prop31
280
     0
102
RTVSPost2010PropOp31
 70
     1
102
RTVSPost2010Prop32
280
     0
102
RTVSPost2010PropOp32
 70
     1
102
RTVSPost2010Prop33
280
     0
102
RTVSPost2010PropOp33
 70
     1
102
RTVSPost2010Prop34
280
     0
102
RTVSPost2010PropOp34
 70
     1
102
RTVSPost2010Prop35
280
     0
102
RTVSPost2010PropOp35
 70
     1
102
RTVSPost2010Prop36
280
     0
102
RTVSPost2010PropOp36
 70
     1
102
RTVSPost2010Prop37
 90
       50
102
RTVSPost2010PropOp37
 70
     1
102
RTVSPost2010Prop38
140
0.0
102
RTVSPost2010PropOp38
 70
     1
102
RTVSPost2010Prop39
140
1.0
102
RTVSPost2010PropOp39
 70
     1
102
RTVSPost2010Prop40
 90
        0
102
RTVSPost2010PropOp40
 70
     1
102
RTVSPost2010Prop41ColorIndex
 90
       18
102
RTVSPost2010Prop41ColorRGB
 90
        0
102
RTVSPost2010PropOp41
 70
     1
102
RTVSPost2010Prop42
 90
       50
102
RTVSPost2010PropOp42
 70
     1
102
RTVSPost2010Prop43
 90
        3
102
RTVSPost2010PropOp43
 70
     1
102
RTVSPost2010Prop44ColorIndex
 90
        5
102
RTVSPost2010Prop44ColorRGB
 90
      255
102
RTVSPost2010PropOp44
 70
     1
102
RTVSPost2010Prop45
280
     0
102
RTVSPost2010PropOp45
 70
     1
102
RTVSPost2010Prop46
 90
       50
102
RTVSPost2010PropOp46
 70
     1
102
RTVSPost2010Prop47
 90
       50
102
RTVSPost2010PropOp47
 70
     1
102
RTVSPost2010Prop48
 90
       50
102
RTVSPost2010PropOp48
 70
     1
102
RTVSPost2010Prop49
280
     0
102
RTVSPost2010PropOp49
 70
     1
102
RTVSPost2010Prop50
 90
       50
102
RTVSPost2010PropOp50
 70
     1
102
RTVSPost2010Prop51ColorIndex
 90
      256
102
RTVSPost2010Prop51ColorRGB
 90
-16777216
102
RTVSPost2010PropOp51
 70
     0
102
RTVSPost2010Prop52
140
1.0
102
RTVSPost2010PropOp52
 70
     0
102
RTVSPost2010Prop53
 90
        2
102
RTVSPost2010PropOp53
 70
     1
102
RTVSPost2010Prop54
  1
strokes_ogs.tif
102
RTVSPost2010PropOp54
 70
     1
102
RTVSPost2010Prop55
280
     0
102
RTVSPost2010PropOp55
 70
     1
102
RTVSPost2010Prop56
140
1.0
102
RTVSPost2010PropOp56
 70
     1
102
RTVSPost2010Prop57
140
1.0
102
RTVSPost2010PropOp57
 70
     1
102
RTVSPropertyOp0
 70
     1
102
RTVSPropertyOp1
 70
     1
102
RTVSPropertyOp2
 70
     1
102
RTVSPropertyOp3
 70
     1
102
RTVSPropertyOp4
 70
     1
102
RTVSPropertyOp5
 70
     1
102
RTVSPropertyOp6
 70
     1
102
RTVSPropertyOp7
 70
     1
102
RTVSPropertyOp8
 70
     1
102
RTVSPropertyOp9
 70
     1
102
RTVSPropertyOp10
 70
     1
102
RTVSPropertyOp11
 70
     1
102
RTVSPropertyOp12
 70
     1
102
RTVSPropertyOp13
 70
     1
102
RTVSPropertyOp14
 70
     1
102
RTVSPropertyOp15
 70
     1
102
RTVSPropertyOp16
 70
     1
102
RTVSPropertyOp17
 70
     1
102
RTVSPropertyOp18
 70
     1
102
RTVSPropertyOp19
 70
     1
102
RTVSPropertyOp20
 70
     1
102
RTVSPropertyOp21
 70
     1
102
RTVSPropertyOp22
 70
     1
102
RTVSPropertyOp23
 70
     1
102
RTVSPropertyOp24
 70
     1
102
RTVSPropertyOp25
 70
     1
102
RTVSPropertyOp26
 70
     1
102
RTVSPropertyOp27
 70
     1
102
RTVSPropertyOp28
 70
     1
102
RTVSPropertyOp29
 70
     1
102
RTVSPropertyOp30
 70
     1
102
RTVSPropertyOp31
 70
     1
102
RTVSPropertyOp32
 70
     1
102
RTVSPropertyOp33
 70
     1
102
RTVSPropertyOp34
 70
     1
102
RTVSPropertyOp35
 70
     1
102
RTVSPropertyOp36
 70
     1
102
RTVSPropertyOp37
 70
     1
102
RTVSPropertyOp38
 70
     1
102
RTVSPropertyOp39
 70
     1
102
RTVSPropertyOp40
 70
     1
102
RTVSPropertyOp41
 70
     1
102
RTVSPropertyOp42
 70
     1
102
RTVSPropertyOp43
 70
     1
102
RTVSPropertyOp44
 70
     1
102
RTVSPropertyOp45
 70
     1
102
RTVSPropertyOp46
 70
     1
102
RTVSPropertyOp47
 70
     1
102
RTVSPropertyOp48
 70
     1
102
RTVSPropertyOp49
 70
     1
102
RTVSPropertyOp50
 70
     1
102
RTVSPropertyOp51
 70
     0
102
RTVSPropertyOp52
 70
     0
102
RTVSPropertyOp53
 70
     1
102
RTVSPropertyOp54
 70
     1
102
RTVSPropertyOp55
 70
     1
102
RTVSPropertyOp56
 70
     1
102
RTVSPropertyOp57
 70
     1
102
RTVSPropertyOp58
 70
     1
102
RTVSPropertyOp59
 70
     1
102
RTVSPropertyOp60
 70
     1
102
RTVSPropertyOp61
 70
     1
102
RTVSPropertyOp62
 70
     1
  0
XRECORD
  5
21874
102
{ACAD_REACTORS
330
21873
102
}
330
21873
100
AcDbXrecord
280
     1
102
RTVSPost2010Prop28
280
     0
102
RTVSPost2010PropOp28
 70
     1
102
RTVSPost2010Prop29
280
     1
102
RTVSPost2010PropOp29
 70
     1
102
RTVSPost2010Prop30
280
     1
102
RTVSPost2010PropOp30
 70
     1
102
RTVSPost2010Prop31
280
     0
102
RTVSPost2010PropOp31
 70
     1
102
RTVSPost2010Prop32
280
     0
102
RTVSPost2010PropOp32
 70
     1
102
RTVSPost2010Prop33
280
     0
102
RTVSPost2010PropOp33
 70
     1
102
RTVSPost2010Prop34
280
     0
102
RTVSPost2010PropOp34
 70
     1
102
RTVSPost2010Prop35
280
     0
102
RTVSPost2010PropOp35
 70
     1
102
RTVSPost2010Prop36
280
     0
102
RTVSPost2010PropOp36
 70
     1
102
RTVSPost2010Prop37
 90
       50
102
RTVSPost2010PropOp37
 70
     1
102
RTVSPost2010Prop38
140
0.0
102
RTVSPost2010PropOp38
 70
     1
102
RTVSPost2010Prop39
140
1.0
102
RTVSPost2010PropOp39
 70
     1
102
RTVSPost2010Prop40
 90
        0
102
RTVSPost2010PropOp40
 70
     1
102
RTVSPost2010Prop41ColorIndex
 90
       18
102
RTVSPost2010Prop41ColorRGB
 90
        0
102
RTVSPost2010PropOp41
 70
     1
102
RTVSPost2010Prop42
 90
       50
102
RTVSPost2010PropOp42
 70
     1
102
RTVSPost2010Prop43
 90
        3
102
RTVSPost2010PropOp43
 70
     1
102
RTVSPost2010Prop44ColorIndex
 90
        5
102
RTVSPost2010Prop44ColorRGB
 90
      255
102
RTVSPost2010PropOp44
 70
     1
102
RTVSPost2010Prop45
280
     0
102
RTVSPost2010PropOp45
 70
     1
102
RTVSPost2010Prop46
 90
       50
102
RTVSPost2010PropOp46
 70
     1
102
RTVSPost2010Prop47
 90
       50
102
RTVSPost2010PropOp47
 70
     1
102
RTVSPost2010Prop48
 90
       50
102
RTVSPost2010PropOp48
 70
     1
102
RTVSPost2010Prop49
280
     0
102
RTVSPost2010PropOp49
 70
     1
102
RTVSPost2010Prop50
 90
       50
102
RTVSPost2010PropOp50
 70
     1
102
RTVSPost2010Prop51ColorIndex
 90
      256
102
RTVSPost2010Prop51ColorRGB
 90
-16777216
102
RTVSPost2010PropOp51
 70
     0
102
RTVSPost2010Prop52
140
1.0
102
RTVSPost2010PropOp52
 70
     0
102
RTVSPost2010Prop53
 90
        2
102
RTVSPost2010PropOp53
 70
     1
102
RTVSPost2010Prop54
  1
strokes_ogs.tif
102
RTVSPost2010PropOp54
 70
     1
102
RTVSPost2010Prop55
280
     0
102
RTVSPost2010PropOp55
 70
     1
102
RTVSPost2010Prop56
140
1.0
102
RTVSPost2010PropOp56
 70
     1
102
RTVSPost2010Prop57
140
1.0
102
RTVSPost2010PropOp57
 70
     1
102
RTVSPropertyOp0
 70
     1
102
RTVSPropertyOp1
 70
     1
102
RTVSPropertyOp2
 70
     1
102
RTVSPropertyOp3
 70
     1
102
RTVSPropertyOp4
 70
     1
102
RTVSPropertyOp5
 70
     1
102
RTVSPropertyOp6
 70
     1
102
RTVSPropertyOp7
 70
     1
102
RTVSPropertyOp8
 70
     1
102
RTVSPropertyOp9
 70
     1
102
RTVSPropertyOp10
 70
     1
102
RTVSPropertyOp11
 70
     1
102
RTVSPropertyOp12
 70
     1
102
RTVSPropertyOp13
 70
     1
102
RTVSPropertyOp14
 70
     1
102
RTVSPropertyOp15
 70
     1
102
RTVSPropertyOp16
 70
     1
102
RTVSPropertyOp17
 70
     1
102
RTVSPropertyOp18
 70
     1
102
RTVSPropertyOp19
 70
     1
102
RTVSPropertyOp20
 70
     1
102
RTVSPropertyOp21
 70
     1
102
RTVSPropertyOp22
 70
     1
102
RTVSPropertyOp23
 70
     1
102
RTVSPropertyOp24
 70
     1
102
RTVSPropertyOp25
 70
     1
102
RTVSPropertyOp26
 70
     1
102
RTVSPropertyOp27
 70
     1
102
RTVSPropertyOp28
 70
     1
102
RTVSPropertyOp29
 70
     1
102
RTVSPropertyOp30
 70
     1
102
RTVSPropertyOp31
 70
     1
102
RTVSPropertyOp32
 70
     1
102
RTVSPropertyOp33
 70
     1
102
RTVSPropertyOp34
 70
     1
102
RTVSPropertyOp35
 70
     1
102
RTVSPropertyOp36
 70
     1
102
RTVSPropertyOp37
 70
     1
102
RTVSPropertyOp38
 70
     1
102
RTVSPropertyOp39
 70
     1
102
RTVSPropertyOp40
 70
     1
102
RTVSPropertyOp41
 70
     1
102
RTVSPropertyOp42
 70
     1
102
RTVSPropertyOp43
 70
     1
102
RTVSPropertyOp44
 70
     1
102
RTVSPropertyOp45
 70
     1
102
RTVSPropertyOp46
 70
     1
102
RTVSPropertyOp47
 70
     1
102
RTVSPropertyOp48
 70
     1
102
RTVSPropertyOp49
 70
     1
102
RTVSPropertyOp50
 70
     1
102
RTVSPropertyOp51
 70
     0
102
RTVSPropertyOp52
 70
     0
102
RTVSPropertyOp53
 70
     1
102
RTVSPropertyOp54
 70
     1
102
RTVSPropertyOp55
 70
     1
102
RTVSPropertyOp56
 70
     1
102
RTVSPropertyOp57
 70
     1
102
RTVSPropertyOp58
 70
     1
102
RTVSPropertyOp59
 70
     1
102
RTVSPropertyOp60
 70
     1
102
RTVSPropertyOp61
 70
     1
102
RTVSPropertyOp62
 70
     1
  0
XRECORD
  5
2186E
102
{ACAD_REACTORS
330
2186D
102
}
330
2186D
100
AcDbXrecord
280
     1
102
RTVSPost2010Prop28
280
     0
102
RTVSPost2010PropOp28
 70
     1
102
RTVSPost2010Prop29
280
     1
102
RTVSPost2010PropOp29
 70
     1
102
RTVSPost2010Prop30
280
     1
102
RTVSPost2010PropOp30
 70
     1
102
RTVSPost2010Prop31
280
     0
102
RTVSPost2010PropOp31
 70
     1
102
RTVSPost2010Prop32
280
     0
102
RTVSPost2010PropOp32
 70
     1
102
RTVSPost2010Prop33
280
     0
102
RTVSPost2010PropOp33
 70
     1
102
RTVSPost2010Prop34
280
     0
102
RTVSPost2010PropOp34
 70
     1
102
RTVSPost2010Prop35
280
     0
102
RTVSPost2010PropOp35
 70
     1
102
RTVSPost2010Prop36
280
     0
102
RTVSPost2010PropOp36
 70
     1
102
RTVSPost2010Prop37
 90
       50
102
RTVSPost2010PropOp37
 70
     1
102
RTVSPost2010Prop38
140
0.0
102
RTVSPost2010PropOp38
 70
     1
102
RTVSPost2010Prop39
140
1.0
102
RTVSPost2010PropOp39
 70
     1
102
RTVSPost2010Prop40
 90
        0
102
RTVSPost2010PropOp40
 70
     1
102
RTVSPost2010Prop41ColorIndex
 90
       18
102
RTVSPost2010Prop41ColorRGB
 90
        0
102
RTVSPost2010PropOp41
 70
     1
102
RTVSPost2010Prop42
 90
       50
102
RTVSPost2010PropOp42
 70
     1
102
RTVSPost2010Prop43
 90
        3
102
RTVSPost2010PropOp43
 70
     1
102
RTVSPost2010Prop44ColorIndex
 90
        5
102
RTVSPost2010Prop44ColorRGB
 90
      255
102
RTVSPost2010PropOp44
 70
     1
102
RTVSPost2010Prop45
280
     0
102
RTVSPost2010PropOp45
 70
     1
102
RTVSPost2010Prop46
 90
       50
102
RTVSPost2010PropOp46
 70
     1
102
RTVSPost2010Prop47
 90
       50
102
RTVSPost2010PropOp47
 70
     1
102
RTVSPost2010Prop48
 90
       50
102
RTVSPost2010PropOp48
 70
     1
102
RTVSPost2010Prop49
280
     0
102
RTVSPost2010PropOp49
 70
     1
102
RTVSPost2010Prop50
 90
       50
102
RTVSPost2010PropOp50
 70
     1
102
RTVSPost2010Prop51ColorIndex
 90
      256
102
RTVSPost2010Prop51ColorRGB
 90
-16777216
102
RTVSPost2010PropOp51
 70
     0
102
RTVSPost2010Prop52
140
1.0
102
RTVSPost2010PropOp52
 70
     0
102
RTVSPost2010Prop53
 90
        2
102
RTVSPost2010PropOp53
 70
     1
102
RTVSPost2010Prop54
  1
strokes_ogs.tif
102
RTVSPost2010PropOp54
 70
     1
102
RTVSPost2010Prop55
280
     0
102
RTVSPost2010PropOp55
 70
     1
102
RTVSPost2010Prop56
140
1.0
102
RTVSPost2010PropOp56
 70
     1
102
RTVSPost2010Prop57
140
1.0
102
RTVSPost2010PropOp57
 70
     1
102
RTVSPropertyOp0
 70
     1
102
RTVSPropertyOp1
 70
     1
102
RTVSPropertyOp2
 70
     1
102
RTVSPropertyOp3
 70
     1
102
RTVSPropertyOp4
 70
     1
102
RTVSPropertyOp5
 70
     1
102
RTVSPropertyOp6
 70
     1
102
RTVSPropertyOp7
 70
     1
102
RTVSPropertyOp8
 70
     1
102
RTVSPropertyOp9
 70
     1
102
RTVSPropertyOp10
 70
     1
102
RTVSPropertyOp11
 70
     1
102
RTVSPropertyOp12
 70
     1
102
RTVSPropertyOp13
 70
     1
102
RTVSPropertyOp14
 70
     1
102
RTVSPropertyOp15
 70
     1
102
RTVSPropertyOp16
 70
     1
102
RTVSPropertyOp17
 70
     1
102
RTVSPropertyOp18
 70
     1
102
RTVSPropertyOp19
 70
     1
102
RTVSPropertyOp20
 70
     1
102
RTVSPropertyOp21
 70
     1
102
RTVSPropertyOp22
 70
     1
102
RTVSPropertyOp23
 70
     1
102
RTVSPropertyOp24
 70
     1
102
RTVSPropertyOp25
 70
     1
102
RTVSPropertyOp26
 70
     1
102
RTVSPropertyOp27
 70
     1
102
RTVSPropertyOp28
 70
     1
102
RTVSPropertyOp29
 70
     1
102
RTVSPropertyOp30
 70
     1
102
RTVSPropertyOp31
 70
     1
102
RTVSPropertyOp32
 70
     1
102
RTVSPropertyOp33
 70
     1
102
RTVSPropertyOp34
 70
     1
102
RTVSPropertyOp35
 70
     1
102
RTVSPropertyOp36
 70
     1
102
RTVSPropertyOp37
 70
     1
102
RTVSPropertyOp38
 70
     1
102
RTVSPropertyOp39
 70
     1
102
RTVSPropertyOp40
 70
     1
102
RTVSPropertyOp41
 70
     1
102
RTVSPropertyOp42
 70
     1
102
RTVSPropertyOp43
 70
     1
102
RTVSPropertyOp44
 70
     1
102
RTVSPropertyOp45
 70
     1
102
RTVSPropertyOp46
 70
     1
102
RTVSPropertyOp47
 70
     1
102
RTVSPropertyOp48
 70
     1
102
RTVSPropertyOp49
 70
     1
102
RTVSPropertyOp50
 70
     1
102
RTVSPropertyOp51
 70
     0
102
RTVSPropertyOp52
 70
     0
102
RTVSPropertyOp53
 70
     1
102
RTVSPropertyOp54
 70
     1
102
RTVSPropertyOp55
 70
     1
102
RTVSPropertyOp56
 70
     1
102
RTVSPropertyOp57
 70
     1
102
RTVSPropertyOp58
 70
     1
102
RTVSPropertyOp59
 70
     1
102
RTVSPropertyOp60
 70
     1
102
RTVSPropertyOp61
 70
     1
102
RTVSPropertyOp62
 70
     1
  0
XRECORD
  5
21870
102
{ACAD_REACTORS
330
2186F
102
}
330
2186F
100
AcDbXrecord
280
     1
102
RTVSPost2010Prop28
280
     0
102
RTVSPost2010PropOp28
 70
     1
102
RTVSPost2010Prop29
280
     1
102
RTVSPost2010PropOp29
 70
     1
102
RTVSPost2010Prop30
280
     1
102
RTVSPost2010PropOp30
 70
     1
102
RTVSPost2010Prop31
280
     0
102
RTVSPost2010PropOp31
 70
     1
102
RTVSPost2010Prop32
280
     0
102
RTVSPost2010PropOp32
 70
     1
102
RTVSPost2010Prop33
280
     0
102
RTVSPost2010PropOp33
 70
     1
102
RTVSPost2010Prop34
280
     0
102
RTVSPost2010PropOp34
 70
     1
102
RTVSPost2010Prop35
280
     0
102
RTVSPost2010PropOp35
 70
     1
102
RTVSPost2010Prop36
280
     0
102
RTVSPost2010PropOp36
 70
     1
102
RTVSPost2010Prop37
 90
       50
102
RTVSPost2010PropOp37
 70
     1
102
RTVSPost2010Prop38
140
0.0
102
RTVSPost2010PropOp38
 70
     1
102
RTVSPost2010Prop39
140
1.0
102
RTVSPost2010PropOp39
 70
     1
102
RTVSPost2010Prop40
 90
        0
102
RTVSPost2010PropOp40
 70
     1
102
RTVSPost2010Prop41ColorIndex
 90
       18
102
RTVSPost2010Prop41ColorRGB
 90
        0
102
RTVSPost2010PropOp41
 70
     1
102
RTVSPost2010Prop42
 90
       50
102
RTVSPost2010PropOp42
 70
     1
102
RTVSPost2010Prop43
 90
        3
102
RTVSPost2010PropOp43
 70
     1
102
RTVSPost2010Prop44ColorIndex
 90
        5
102
RTVSPost2010Prop44ColorRGB
 90
      255
102
RTVSPost2010PropOp44
 70
     1
102
RTVSPost2010Prop45
280
     0
102
RTVSPost2010PropOp45
 70
     1
102
RTVSPost2010Prop46
 90
       50
102
RTVSPost2010PropOp46
 70
     1
102
RTVSPost2010Prop47
 90
       50
102
RTVSPost2010PropOp47
 70
     1
102
RTVSPost2010Prop48
 90
       50
102
RTVSPost2010PropOp48
 70
     1
102
RTVSPost2010Prop49
280
     0
102
RTVSPost2010PropOp49
 70
     1
102
RTVSPost2010Prop50
 90
       50
102
RTVSPost2010PropOp50
 70
     1
102
RTVSPost2010Prop51ColorIndex
 90
      256
102
RTVSPost2010Prop51ColorRGB
 90
-16777216
102
RTVSPost2010PropOp51
 70
     0
102
RTVSPost2010Prop52
140
1.0
102
RTVSPost2010PropOp52
 70
     0
102
RTVSPost2010Prop53
 90
        2
102
RTVSPost2010PropOp53
 70
     1
102
RTVSPost2010Prop54
  1
strokes_ogs.tif
102
RTVSPost2010PropOp54
 70
     1
102
RTVSPost2010Prop55
280
     0
102
RTVSPost2010PropOp55
 70
     1
102
RTVSPost2010Prop56
140
1.0
102
RTVSPost2010PropOp56
 70
     1
102
RTVSPost2010Prop57
140
1.0
102
RTVSPost2010PropOp57
 70
     1
102
RTVSPropertyOp0
 70
     1
102
RTVSPropertyOp1
 70
     1
102
RTVSPropertyOp2
 70
     1
102
RTVSPropertyOp3
 70
     1
102
RTVSPropertyOp4
 70
     1
102
RTVSPropertyOp5
 70
     1
102
RTVSPropertyOp6
 70
     1
102
RTVSPropertyOp7
 70
     1
102
RTVSPropertyOp8
 70
     1
102
RTVSPropertyOp9
 70
     1
102
RTVSPropertyOp10
 70
     1
102
RTVSPropertyOp11
 70
     1
102
RTVSPropertyOp12
 70
     1
102
RTVSPropertyOp13
 70
     1
102
RTVSPropertyOp14
 70
     1
102
RTVSPropertyOp15
 70
     1
102
RTVSPropertyOp16
 70
     1
102
RTVSPropertyOp17
 70
     1
102
RTVSPropertyOp18
 70
     1
102
RTVSPropertyOp19
 70
     1
102
RTVSPropertyOp20
 70
     1
102
RTVSPropertyOp21
 70
     1
102
RTVSPropertyOp22
 70
     1
102
RTVSPropertyOp23
 70
     1
102
RTVSPropertyOp24
 70
     1
102
RTVSPropertyOp25
 70
     1
102
RTVSPropertyOp26
 70
     1
102
RTVSPropertyOp27
 70
     1
102
RTVSPropertyOp28
 70
     1
102
RTVSPropertyOp29
 70
     1
102
RTVSPropertyOp30
 70
     1
102
RTVSPropertyOp31
 70
     1
102
RTVSPropertyOp32
 70
     1
102
RTVSPropertyOp33
 70
     1
102
RTVSPropertyOp34
 70
     1
102
RTVSPropertyOp35
 70
     1
102
RTVSPropertyOp36
 70
     1
102
RTVSPropertyOp37
 70
     1
102
RTVSPropertyOp38
 70
     1
102
RTVSPropertyOp39
 70
     1
102
RTVSPropertyOp40
 70
     1
102
RTVSPropertyOp41
 70
     1
102
RTVSPropertyOp42
 70
     1
102
RTVSPropertyOp43
 70
     1
102
RTVSPropertyOp44
 70
     1
102
RTVSPropertyOp45
 70
     1
102
RTVSPropertyOp46
 70
     1
102
RTVSPropertyOp47
 70
     1
102
RTVSPropertyOp48
 70
     1
102
RTVSPropertyOp49
 70
     1
102
RTVSPropertyOp50
 70
     1
102
RTVSPropertyOp51
 70
     0
102
RTVSPropertyOp52
 70
     0
102
RTVSPropertyOp53
 70
     1
102
RTVSPropertyOp54
 70
     1
102
RTVSPropertyOp55
 70
     1
102
RTVSPropertyOp56
 70
     1
102
RTVSPropertyOp57
 70
     1
102
RTVSPropertyOp58
 70
     1
102
RTVSPropertyOp59
 70
     1
102
RTVSPropertyOp60
 70
     1
102
RTVSPropertyOp61
 70
     1
102
RTVSPropertyOp62
 70
     1
  0
XRECORD
  5
2185A
102
{ACAD_REACTORS
330
21859
102
}
330
21859
100
AcDbXrecord
280
     1
102
RTVSPost2010Prop28
280
     0
102
RTVSPost2010PropOp28
 70
     1
102
RTVSPost2010Prop29
280
     1
102
RTVSPost2010PropOp29
 70
     1
102
RTVSPost2010Prop30
280
     1
102
RTVSPost2010PropOp30
 70
     1
102
RTVSPost2010Prop31
280
     0
102
RTVSPost2010PropOp31
 70
     1
102
RTVSPost2010Prop32
280
     0
102
RTVSPost2010PropOp32
 70
     1
102
RTVSPost2010Prop33
280
     0
102
RTVSPost2010PropOp33
 70
     1
102
RTVSPost2010Prop34
280
     0
102
RTVSPost2010PropOp34
 70
     1
102
RTVSPost2010Prop35
280
     0
102
RTVSPost2010PropOp35
 70
     1
102
RTVSPost2010Prop36
280
     0
102
RTVSPost2010PropOp36
 70
     1
102
RTVSPost2010Prop37
 90
       50
102
RTVSPost2010PropOp37
 70
     1
102
RTVSPost2010Prop38
140
0.0
102
RTVSPost2010PropOp38
 70
     1
102
RTVSPost2010Prop39
140
1.0
102
RTVSPost2010PropOp39
 70
     1
102
RTVSPost2010Prop40
 90
        0
102
RTVSPost2010PropOp40
 70
     1
102
RTVSPost2010Prop41ColorIndex
 90
       18
102
RTVSPost2010Prop41ColorRGB
 90
        0
102
RTVSPost2010PropOp41
 70
     1
102
RTVSPost2010Prop42
 90
       50
102
RTVSPost2010PropOp42
 70
     1
102
RTVSPost2010Prop43
 90
        3
102
RTVSPost2010PropOp43
 70
     1
102
RTVSPost2010Prop44ColorIndex
 90
        5
102
RTVSPost2010Prop44ColorRGB
 90
      255
102
RTVSPost2010PropOp44
 70
     1
102
RTVSPost2010Prop45
280
     0
102
RTVSPost2010PropOp45
 70
     1
102
RTVSPost2010Prop46
 90
       50
102
RTVSPost2010PropOp46
 70
     1
102
RTVSPost2010Prop47
 90
       50
102
RTVSPost2010PropOp47
 70
     1
102
RTVSPost2010Prop48
 90
       50
102
RTVSPost2010PropOp48
 70
     1
102
RTVSPost2010Prop49
280
     0
102
RTVSPost2010PropOp49
 70
     1
102
RTVSPost2010Prop50
 90
       50
102
RTVSPost2010PropOp50
 70
     1
102
RTVSPost2010Prop51ColorIndex
 90
      256
102
RTVSPost2010Prop51ColorRGB
 90
-16777216
102
RTVSPost2010PropOp51
 70
     0
102
RTVSPost2010Prop52
140
1.0
102
RTVSPost2010PropOp52
 70
     0
102
RTVSPost2010Prop53
 90
        2
102
RTVSPost2010PropOp53
 70
     1
102
RTVSPost2010Prop54
  1
strokes_ogs.tif
102
RTVSPost2010PropOp54
 70
     1
102
RTVSPost2010Prop55
280
     0
102
RTVSPost2010PropOp55
 70
     1
102
RTVSPost2010Prop56
140
1.0
102
RTVSPost2010PropOp56
 70
     1
102
RTVSPost2010Prop57
140
1.0
102
RTVSPost2010PropOp57
 70
     1
102
RTVSPropertyOp0
 70
     1
102
RTVSPropertyOp1
 70
     1
102
RTVSPropertyOp2
 70
     1
102
RTVSPropertyOp3
 70
     1
102
RTVSPropertyOp4
 70
     1
102
RTVSPropertyOp5
 70
     1
102
RTVSPropertyOp6
 70
     1
102
RTVSPropertyOp7
 70
     1
102
RTVSPropertyOp8
 70
     1
102
RTVSPropertyOp9
 70
     1
102
RTVSPropertyOp10
 70
     1
102
RTVSPropertyOp11
 70
     1
102
RTVSPropertyOp12
 70
     1
102
RTVSPropertyOp13
 70
     1
102
RTVSPropertyOp14
 70
     1
102
RTVSPropertyOp15
 70
     1
102
RTVSPropertyOp16
 70
     1
102
RTVSPropertyOp17
 70
     1
102
RTVSPropertyOp18
 70
     1
102
RTVSPropertyOp19
 70
     1
102
RTVSPropertyOp20
 70
     1
102
RTVSPropertyOp21
 70
     1
102
RTVSPropertyOp22
 70
     1
102
RTVSPropertyOp23
 70
     1
102
RTVSPropertyOp24
 70
     1
102
RTVSPropertyOp25
 70
     1
102
RTVSPropertyOp26
 70
     1
102
RTVSPropertyOp27
 70
     1
102
RTVSPropertyOp28
 70
     1
102
RTVSPropertyOp29
 70
     1
102
RTVSPropertyOp30
 70
     1
102
RTVSPropertyOp31
 70
     1
102
RTVSPropertyOp32
 70
     1
102
RTVSPropertyOp33
 70
     1
102
RTVSPropertyOp34
 70
     1
102
RTVSPropertyOp35
 70
     1
102
RTVSPropertyOp36
 70
     1
102
RTVSPropertyOp37
 70
     1
102
RTVSPropertyOp38
 70
     1
102
RTVSPropertyOp39
 70
     1
102
RTVSPropertyOp40
 70
     1
102
RTVSPropertyOp41
 70
     1
102
RTVSPropertyOp42
 70
     1
102
RTVSPropertyOp43
 70
     1
102
RTVSPropertyOp44
 70
     1
102
RTVSPropertyOp45
 70
     1
102
RTVSPropertyOp46
 70
     1
102
RTVSPropertyOp47
 70
     1
102
RTVSPropertyOp48
 70
     1
102
RTVSPropertyOp49
 70
     1
102
RTVSPropertyOp50
 70
     1
102
RTVSPropertyOp51
 70
     0
102
RTVSPropertyOp52
 70
     0
102
RTVSPropertyOp53
 70
     1
102
RTVSPropertyOp54
 70
     1
102
RTVSPropertyOp55
 70
     1
102
RTVSPropertyOp56
 70
     1
102
RTVSPropertyOp57
 70
     1
102
RTVSPropertyOp58
 70
     1
102
RTVSPropertyOp59
 70
     1
102
RTVSPropertyOp60
 70
     1
102
RTVSPropertyOp61
 70
     1
102
RTVSPropertyOp62
 70
     1
  0
XRECORD
  5
2186A
102
{ACAD_REACTORS
330
21869
102
}
330
21869
100
AcDbXrecord
280
     1
102
RTVSPost2010Prop28
280
     0
102
RTVSPost2010PropOp28
 70
     1
102
RTVSPost2010Prop29
280
     1
102
RTVSPost2010PropOp29
 70
     1
102
RTVSPost2010Prop30
280
     1
102
RTVSPost2010PropOp30
 70
     1
102
RTVSPost2010Prop31
280
     0
102
RTVSPost2010PropOp31
 70
     1
102
RTVSPost2010Prop32
280
     0
102
RTVSPost2010PropOp32
 70
     1
102
RTVSPost2010Prop33
280
     0
102
RTVSPost2010PropOp33
 70
     1
102
RTVSPost2010Prop34
280
     0
102
RTVSPost2010PropOp34
 70
     1
102
RTVSPost2010Prop35
280
     0
102
RTVSPost2010PropOp35
 70
     1
102
RTVSPost2010Prop36
280
     0
102
RTVSPost2010PropOp36
 70
     1
102
RTVSPost2010Prop37
 90
       50
102
RTVSPost2010PropOp37
 70
     1
102
RTVSPost2010Prop38
140
0.0
102
RTVSPost2010PropOp38
 70
     1
102
RTVSPost2010Prop39
140
1.0
102
RTVSPost2010PropOp39
 70
     1
102
RTVSPost2010Prop40
 90
        0
102
RTVSPost2010PropOp40
 70
     1
102
RTVSPost2010Prop41ColorIndex
 90
       18
102
RTVSPost2010Prop41ColorRGB
 90
        0
102
RTVSPost2010PropOp41
 70
     1
102
RTVSPost2010Prop42
 90
       50
102
RTVSPost2010PropOp42
 70
     1
102
RTVSPost2010Prop43
 90
        3
102
RTVSPost2010PropOp43
 70
     1
102
RTVSPost2010Prop44ColorIndex
 90
        5
102
RTVSPost2010Prop44ColorRGB
 90
      255
102
RTVSPost2010PropOp44
 70
     1
102
RTVSPost2010Prop45
280
     0
102
RTVSPost2010PropOp45
 70
     1
102
RTVSPost2010Prop46
 90
       50
102
RTVSPost2010PropOp46
 70
     1
102
RTVSPost2010Prop47
 90
       50
102
RTVSPost2010PropOp47
 70
     1
102
RTVSPost2010Prop48
 90
       50
102
RTVSPost2010PropOp48
 70
     1
102
RTVSPost2010Prop49
280
     0
102
RTVSPost2010PropOp49
 70
     1
102
RTVSPost2010Prop50
 90
       50
102
RTVSPost2010PropOp50
 70
     1
102
RTVSPost2010Prop51ColorIndex
 90
      256
102
RTVSPost2010Prop51ColorRGB
 90
-16777216
102
RTVSPost2010PropOp51
 70
     0
102
RTVSPost2010Prop52
140
1.0
102
RTVSPost2010PropOp52
 70
     0
102
RTVSPost2010Prop53
 90
        2
102
RTVSPost2010PropOp53
 70
     1
102
RTVSPost2010Prop54
  1
strokes_ogs.tif
102
RTVSPost2010PropOp54
 70
     1
102
RTVSPost2010Prop55
280
     0
102
RTVSPost2010PropOp55
 70
     1
102
RTVSPost2010Prop56
140
1.0
102
RTVSPost2010PropOp56
 70
     1
102
RTVSPost2010Prop57
140
1.0
102
RTVSPost2010PropOp57
 70
     1
102
RTVSPropertyOp0
 70
     1
102
RTVSPropertyOp1
 70
     1
102
RTVSPropertyOp2
 70
     1
102
RTVSPropertyOp3
 70
     1
102
RTVSPropertyOp4
 70
     1
102
RTVSPropertyOp5
 70
     1
102
RTVSPropertyOp6
 70
     1
102
RTVSPropertyOp7
 70
     1
102
RTVSPropertyOp8
 70
     1
102
RTVSPropertyOp9
 70
     1
102
RTVSPropertyOp10
 70
     1
102
RTVSPropertyOp11
 70
     1
102
RTVSPropertyOp12
 70
     1
102
RTVSPropertyOp13
 70
     1
102
RTVSPropertyOp14
 70
     1
102
RTVSPropertyOp15
 70
     1
102
RTVSPropertyOp16
 70
     1
102
RTVSPropertyOp17
 70
     1
102
RTVSPropertyOp18
 70
     1
102
RTVSPropertyOp19
 70
     1
102
RTVSPropertyOp20
 70
     1
102
RTVSPropertyOp21
 70
     1
102
RTVSPropertyOp22
 70
     1
102
RTVSPropertyOp23
 70
     1
102
RTVSPropertyOp24
 70
     1
102
RTVSPropertyOp25
 70
     1
102
RTVSPropertyOp26
 70
     1
102
RTVSPropertyOp27
 70
     1
102
RTVSPropertyOp28
 70
     1
102
RTVSPropertyOp29
 70
     1
102
RTVSPropertyOp30
 70
     1
102
RTVSPropertyOp31
 70
     1
102
RTVSPropertyOp32
 70
     1
102
RTVSPropertyOp33
 70
     1
102
RTVSPropertyOp34
 70
     1
102
RTVSPropertyOp35
 70
     1
102
RTVSPropertyOp36
 70
     1
102
RTVSPropertyOp37
 70
     1
102
RTVSPropertyOp38
 70
     1
102
RTVSPropertyOp39
 70
     1
102
RTVSPropertyOp40
 70
     1
102
RTVSPropertyOp41
 70
     1
102
RTVSPropertyOp42
 70
     1
102
RTVSPropertyOp43
 70
     1
102
RTVSPropertyOp44
 70
     1
102
RTVSPropertyOp45
 70
     1
102
RTVSPropertyOp46
 70
     1
102
RTVSPropertyOp47
 70
     1
102
RTVSPropertyOp48
 70
     1
102
RTVSPropertyOp49
 70
     1
102
RTVSPropertyOp50
 70
     1
102
RTVSPropertyOp51
 70
     0
102
RTVSPropertyOp52
 70
     0
102
RTVSPropertyOp53
 70
     1
102
RTVSPropertyOp54
 70
     1
102
RTVSPropertyOp55
 70
     1
102
RTVSPropertyOp56
 70
     1
102
RTVSPropertyOp57
 70
     1
102
RTVSPropertyOp58
 70
     1
102
RTVSPropertyOp59
 70
     1
102
RTVSPropertyOp60
 70
     1
102
RTVSPropertyOp61
 70
     1
102
RTVSPropertyOp62
 70
     1
  0
XRECORD
  5
21872
102
{ACAD_REACTORS
330
21871
102
}
330
21871
100
AcDbXrecord
280
     1
102
RTVSPost2010Prop28
280
     0
102
RTVSPost2010PropOp28
 70
     1
102
RTVSPost2010Prop29
280
     1
102
RTVSPost2010PropOp29
 70
     1
102
RTVSPost2010Prop30
280
     1
102
RTVSPost2010PropOp30
 70
     1
102
RTVSPost2010Prop31
280
     0
102
RTVSPost2010PropOp31
 70
     1
102
RTVSPost2010Prop32
280
     0
102
RTVSPost2010PropOp32
 70
     1
102
RTVSPost2010Prop33
280
     0
102
RTVSPost2010PropOp33
 70
     1
102
RTVSPost2010Prop34
280
     0
102
RTVSPost2010PropOp34
 70
     1
102
RTVSPost2010Prop35
280
     0
102
RTVSPost2010PropOp35
 70
     1
102
RTVSPost2010Prop36
280
     0
102
RTVSPost2010PropOp36
 70
     1
102
RTVSPost2010Prop37
 90
       50
102
RTVSPost2010PropOp37
 70
     1
102
RTVSPost2010Prop38
140
0.0
102
RTVSPost2010PropOp38
 70
     1
102
RTVSPost2010Prop39
140
1.0
102
RTVSPost2010PropOp39
 70
     1
102
RTVSPost2010Prop40
 90
        0
102
RTVSPost2010PropOp40
 70
     1
102
RTVSPost2010Prop41ColorIndex
 90
       18
102
RTVSPost2010Prop41ColorRGB
 90
        0
102
RTVSPost2010PropOp41
 70
     1
102
RTVSPost2010Prop42
 90
       50
102
RTVSPost2010PropOp42
 70
     1
102
RTVSPost2010Prop43
 90
        3
102
RTVSPost2010PropOp43
 70
     1
102
RTVSPost2010Prop44ColorIndex
 90
        5
102
RTVSPost2010Prop44ColorRGB
 90
      255
102
RTVSPost2010PropOp44
 70
     1
102
RTVSPost2010Prop45
280
     0
102
RTVSPost2010PropOp45
 70
     1
102
RTVSPost2010Prop46
 90
       50
102
RTVSPost2010PropOp46
 70
     1
102
RTVSPost2010Prop47
 90
       50
102
RTVSPost2010PropOp47
 70
     1
102
RTVSPost2010Prop48
 90
       50
102
RTVSPost2010PropOp48
 70
     1
102
RTVSPost2010Prop49
280
     0
102
RTVSPost2010PropOp49
 70
     1
102
RTVSPost2010Prop50
 90
       50
102
RTVSPost2010PropOp50
 70
     1
102
RTVSPost2010Prop51ColorIndex
 90
      256
102
RTVSPost2010Prop51ColorRGB
 90
-16777216
102
RTVSPost2010PropOp51
 70
     0
102
RTVSPost2010Prop52
140
1.0
102
RTVSPost2010PropOp52
 70
     0
102
RTVSPost2010Prop53
 90
        2
102
RTVSPost2010PropOp53
 70
     1
102
RTVSPost2010Prop54
  1
strokes_ogs.tif
102
RTVSPost2010PropOp54
 70
     1
102
RTVSPost2010Prop55
280
     0
102
RTVSPost2010PropOp55
 70
     1
102
RTVSPost2010Prop56
140
1.0
102
RTVSPost2010PropOp56
 70
     1
102
RTVSPost2010Prop57
140
1.0
102
RTVSPost2010PropOp57
 70
     1
102
RTVSPropertyOp0
 70
     1
102
RTVSPropertyOp1
 70
     1
102
RTVSPropertyOp2
 70
     1
102
RTVSPropertyOp3
 70
     1
102
RTVSPropertyOp4
 70
     1
102
RTVSPropertyOp5
 70
     1
102
RTVSPropertyOp6
 70
     1
102
RTVSPropertyOp7
 70
     1
102
RTVSPropertyOp8
 70
     1
102
RTVSPropertyOp9
 70
     1
102
RTVSPropertyOp10
 70
     1
102
RTVSPropertyOp11
 70
     1
102
RTVSPropertyOp12
 70
     1
102
RTVSPropertyOp13
 70
     1
102
RTVSPropertyOp14
 70
     1
102
RTVSPropertyOp15
 70
     1
102
RTVSPropertyOp16
 70
     1
102
RTVSPropertyOp17
 70
     1
102
RTVSPropertyOp18
 70
     1
102
RTVSPropertyOp19
 70
     1
102
RTVSPropertyOp20
 70
     1
102
RTVSPropertyOp21
 70
     1
102
RTVSPropertyOp22
 70
     1
102
RTVSPropertyOp23
 70
     1
102
RTVSPropertyOp24
 70
     1
102
RTVSPropertyOp25
 70
     1
102
RTVSPropertyOp26
 70
     1
102
RTVSPropertyOp27
 70
     1
102
RTVSPropertyOp28
 70
     1
102
RTVSPropertyOp29
 70
     1
102
RTVSPropertyOp30
 70
     1
102
RTVSPropertyOp31
 70
     1
102
RTVSPropertyOp32
 70
     1
102
RTVSPropertyOp33
 70
     1
102
RTVSPropertyOp34
 70
     1
102
RTVSPropertyOp35
 70
     1
102
RTVSPropertyOp36
 70
     1
102
RTVSPropertyOp37
 70
     1
102
RTVSPropertyOp38
 70
     1
102
RTVSPropertyOp39
 70
     1
102
RTVSPropertyOp40
 70
     1
102
RTVSPropertyOp41
 70
     1
102
RTVSPropertyOp42
 70
     1
102
RTVSPropertyOp43
 70
     1
102
RTVSPropertyOp44
 70
     1
102
RTVSPropertyOp45
 70
     1
102
RTVSPropertyOp46
 70
     1
102
RTVSPropertyOp47
 70
     1
102
RTVSPropertyOp48
 70
     1
102
RTVSPropertyOp49
 70
     1
102
RTVSPropertyOp50
 70
     1
102
RTVSPropertyOp51
 70
     0
102
RTVSPropertyOp52
 70
     0
102
RTVSPropertyOp53
 70
     1
102
RTVSPropertyOp54
 70
     1
102
RTVSPropertyOp55
 70
     1
102
RTVSPropertyOp56
 70
     1
102
RTVSPropertyOp57
 70
     1
102
RTVSPropertyOp58
 70
     1
102
RTVSPropertyOp59
 70
     1
102
RTVSPropertyOp60
 70
     1
102
RTVSPropertyOp61
 70
     1
102
RTVSPropertyOp62
 70
     1
  0
ENDSEC
  0
EOF
