  0
SECTION
  2
HEADER
  9
$ACADVER
  1
AC1015
  9
$ACADMAINTVER
 70
    10
  9
$DWGCODEPAGE
  3
ANSI_1252
  9
$INSBASE
 10
0.0
 20
0.0
 30
0.0
  9
$EXTMIN
 10
-93.28421217612913
 20
-71.0711053411876
 30
-0.0000000000112498
  9
$EXTMAX
 10
87.83737921745752
 20
92.55293526655419
 30
0.0000000000002956
  9
$LIMMIN
 10
-316.374268
 20
-462.64624
  9
$LIMMAX
 10
814.100464
 20
194.215332
  9
$ORTHOMODE
 70
     0
  9
$REGENMODE
 70
     1
  9
$FILLMODE
 70
     1
  9
$QTEXTMODE
 70
     0
  9
$MIRRTEXT
 70
     1
  9
$LTSCALE
 40
7.0
  9
$ATTMODE
 70
     1
  9
$TEXTSIZE
 40
4.1672
  9
$TRACEWID
 40
0.05
  9
$TEXTSTYLE
  7
STANDARD
  9
$CLAYER
  8
0
  9
$CELTYPE
  6
BYLAYER
  9
$CECOLOR
 62
   256
  9
$CELTSCALE
 40
1.0
  9
$DISPSILH
 70
     0
  9
$DIMSCALE
 40
1.0
  9
$DIMASZ
 40
0.18
  9
$DIMEXO
 40
0.0625
  9
$DIMDLI
 40
0.38
  9
$DIMRND
 40
0.0
  9
$DIMDLE
 40
0.0
  9
$DIMEXE
 40
0.18
  9
$DIMTP
 40
0.0
  9
$DIMTM
 40
0.0
  9
$DIMTXT
 40
3.5
  9
$DIMCEN
 40
0.09
  9
$DIMTSZ
 40
0.0
  9
$DIMTOL
 70
     0
  9
$DIMLIM
 70
     0
  9
$DIMTIH
 70
     1
  9
$DIMTOH
 70
     1
  9
$DIMSE1
 70
     0
  9
$DIMSE2
 70
     0
  9
$DIMTAD
 70
     0
  9
$DIMZIN
 70
     0
  9
$DIMBLK
  1

  9
$DIMASO
 70
     1
  9
$DIMSHO
 70
     1
  9
$DIMPOST
  1

  9
$DIMAPOST
  1

  9
$DIMALT
 70
     0
  9
$DIMALTD
 70
     2
  9
$DIMALTF
 40
25.4
  9
$DIMLFAC
 40
1.0
  9
$DIMTOFL
 70
     0
  9
$DIMTVP
 40
0.0
  9
$DIMTIX
 70
     0
  9
$DIMSOXD
 70
     0
  9
$DIMSAH
 70
     0
  9
$DIMBLK1
  1

  9
$DIMBLK2
  1

  9
$DIMSTYLE
  2
STANDARD
  9
$DIMCLRD
 70
     0
  9
$DIMCLRE
 70
     0
  9
$DIMCLRT
 70
     0
  9
$DIMTFAC
 40
1.0
  9
$DIMGAP
 40
0.09
  9
$DIMJUST
 70
     0
  9
$DIMSD1
 70
     0
  9
$DIMSD2
 70
     0
  9
$DIMTOLJ
 70
     1
  9
$DIMTZIN
 70
     0
  9
$DIMALTZ
 70
     0
  9
$DIMALTTZ
 70
     0
  9
$DIMUPT
 70
     0
  9
$DIMDEC
 70
     4
  9
$DIMTDEC
 70
     4
  9
$DIMALTU
 70
     2
  9
$DIMALTTD
 70
     2
  9
$DIMTXSTY
  7
STANDARD
  9
$DIMAUNIT
 70
     0
  9
$DIMADEC
 70
     0
  9
$DIMALTRND
 40
0.0
  9
$DIMAZIN
 70
     0
  9
$DIMDSEP
 70
    46
  9
$DIMATFIT
 70
     3
  9
$DIMFRAC
 70
     0
  9
$DIMLDRBLK
  1

  9
$DIMLUNIT
 70
     2
  9
$DIMLWD
 70
    -2
  9
$DIMLWE
 70
    -2
  9
$DIMTMOVE
 70
     0
  9
$LUNITS
 70
     2
  9
$LUPREC
 70
     6
  9
$SKETCHINC
 40
0.1
  9
$FILLETRAD
 40
0.5
  9
$AUNITS
 70
     0
  9
$AUPREC
 70
     4
  9
$MENU
  1
.
  9
$ELEVATION
 40
0.0
  9
$PELEVATION
 40
0.0
  9
$THICKNESS
 40
0.0
  9
$LIMCHECK
 70
     0
  9
$CHAMFERA
 40
0.0
  9
$CHAMFERB
 40
0.0
  9
$CHAMFERC
 40
0.0
  9
$CHAMFERD
 40
0.0
  9
$SKPOLY
 70
     0
  9
$TDCREATE
 40
2311949.301217557
  9
$TDUCREATE
 40
2311949.217884224
  9
$TDUPDATE
 40
2455755.602003599
  9
$TDUUPDATE
 40
2455755.518670266
  9
$TDINDWG
 40
0.0106117708
  9
$TDUSRTIMER
 40
0.0106117708
  9
$USRTIMER
 70
     1
  9
$ANGBASE
 50
0.0
  9
$ANGDIR
 70
     0
  9
$PDMODE
 70
     0
  9
$PDSIZE
 40
0.0
  9
$PLINEWID
 40
0.0
  9
$SPLFRAME
 70
     0
  9
$SPLINETYPE
 70
     6
  9
$SPLINESEGS
 70
     8
  9
$HANDSEED
  5
FAA
  9
$SURFTAB1
 70
     6
  9
$SURFTAB2
 70
     6
  9
$SURFTYPE
 70
     6
  9
$SURFU
 70
     6
  9
$SURFV
 70
     6
  9
$UCSBASE
  2

  9
$UCSNAME
  2

  9
$UCSORG
 10
0.0
 20
0.0
 30
0.0
  9
$UCSXDIR
 10
1.0
 20
0.0
 30
0.0
  9
$UCSYDIR
 10
0.0
 20
1.0
 30
0.0
  9
$UCSORTHOREF
  2

  9
$UCSORTHOVIEW
 70
     0
  9
$UCSORGTOP
 10
0.0
 20
0.0
 30
0.0
  9
$UCSORGBOTTOM
 10
0.0
 20
0.0
 30
0.0
  9
$UCSORGLEFT
 10
0.0
 20
0.0
 30
0.0
  9
$UCSORGRIGHT
 10
0.0
 20
0.0
 30
0.0
  9
$UCSORGFRONT
 10
0.0
 20
0.0
 30
0.0
  9
$UCSORGBACK
 10
0.0
 20
0.0
 30
0.0
  9
$PUCSBASE
  2

  9
$PUCSNAME
  2

  9
$PUCSORG
 10
0.0
 20
0.0
 30
0.0
  9
$PUCSXDIR
 10
1.0
 20
0.0
 30
0.0
  9
$PUCSYDIR
 10
0.0
 20
1.0
 30
0.0
  9
$PUCSORTHOREF
  2

  9
$PUCSORTHOVIEW
 70
     0
  9
$PUCSORGTOP
 10
0.0
 20
0.0
 30
0.0
  9
$PUCSORGBOTTOM
 10
0.0
 20
0.0
 30
0.0
  9
$PUCSORGLEFT
 10
0.0
 20
0.0
 30
0.0
  9
$PUCSORGRIGHT
 10
0.0
 20
0.0
 30
0.0
  9
$PUCSORGFRONT
 10
0.0
 20
0.0
 30
0.0
  9
$PUCSORGBACK
 10
0.0
 20
0.0
 30
0.0
  9
$USERI1
 70
     0
  9
$USERI2
 70
     0
  9
$USERI3
 70
     0
  9
$USERI4
 70
     0
  9
$USERI5
 70
     0
  9
$USERR1
 40
0.0
  9
$USERR2
 40
0.0
  9
$USERR3
 40
0.0
  9
$USERR4
 40
0.0
  9
$USERR5
 40
0.0
  9
$WORLDVIEW
 70
     1
  9
$SHADEDGE
 70
     3
  9
$SHADEDIF
 70
    70
  9
$TILEMODE
 70
     1
  9
$MAXACTVP
 70
    48
  9
$PINSBASE
 10
0.0
 20
0.0
 30
0.0
  9
$PLIMCHECK
 70
     0
  9
$PEXTMIN
 10
-316.374268
 20
-462.64624
 30
1.000000000000000E+20
  9
$PEXTMAX
 10
814.100464
 20
194.215332
 30
-1.000000000000000E+20
  9
$PLIMMIN
 10
0.0
 20
0.0
  9
$PLIMMAX
 10
12.0
 20
9.0
  9
$UNITMODE
 70
     0
  9
$VISRETAIN
 70
     0
  9
$PLINEGEN
 70
     0
  9
$PSLTSCALE
 70
     1
  9
$TREEDEPTH
 70
  3020
  9
$CMLSTYLE
  2
STANDARD
  9
$CMLJUST
 70
     0
  9
$CMLSCALE
 40
1.0
  9
$PROXYGRAPHICS
 70
     1
  9
$MEASUREMENT
 70
     0
  9
$CELWEIGHT
370
    -1
  9
$ENDCAPS
280
     0
  9
$JOINSTYLE
280
     0
  9
$LWDISPLAY
290
     0
  9
$INSUNITS
 70
     0
  9
$HYPERLINKBASE
  1

  9
$STYLESHEET
  1

  9
$XEDIT
290
     1
  9
$CEPSNTYPE
380
     0
  9
$PSTYLEMODE
290
     1
  9
$FINGERPRINTGUID
  2
{B3158966-84CC-4DE9-95D6-0EF0F8D1DE25}
  9
$VERSIONGUID
  2
{2A6715F4-4604-4B17-87DC-41C00E21C5AE}
  9
$EXTNAMES
290
     1
  9
$PSVPSCALE
 40
0.0
  9
$OLESTARTUP
290
     0
  0
ENDSEC
  0
SECTION
  2
CLASSES
  0
CLASS
  1
LWPOLYLINE
  2
AcDbPolyline
  3
AutoCAD 2000
 90
    32768
280
     0
281
     1
  0
CLASS
  1
IMAGE
  2
AcDbRasterImage
  3
ISM
 90
    32895
280
     0
281
     1
  0
CLASS
  1
OLE2FRAME
  2
AcDbOle2Frame
  3
AutoCAD 2000
 90
    32768
280
     0
281
     1
  0
CLASS
  1
HATCH
  2
AcDbHatch
  3
AutoCAD 2000
 90
    32768
280
     0
281
     1
  0
CLASS
  1
DICTIONARYVAR
  2
AcDbDictionaryVar
  3
AutoCAD 2000
 90
    32768
280
     0
281
     0
  0
CLASS
  1
RASTERVARIABLES
  2
AcDbRasterVariables
  3
ISM
 90
    32768
280
     0
281
     0
  0
CLASS
  1
IMAGEDEF
  2
AcDbRasterImageDef
  3
ISM
 90
    32768
280
     0
281
     0
  0
CLASS
  1
IMAGEDEF_REACTOR
  2
AcDbRasterImageDefReactor
  3
ISM
 90
    32769
280
     0
281
     0
  0
CLASS
  1
IDBUFFER
  2
AcDbIdBuffer
  3
AutoCAD 2000
 90
    32768
280
     0
281
     0
  0
CLASS
  1
SPATIAL_FILTER
  2
AcDbSpatialFilter
  3
AutoCAD 2000
 90
    32768
280
     0
281
     0
  0
CLASS
  1
XRECORD
  2
AcDbXrecord
  3
AutoCAD 2000
 90
    32768
280
     0
281
     0
  0
CLASS
  1
SORTENTSTABLE
  2
AcDbSortentsTable
  3
AutoCAD 2000
 90
    32768
280
     0
281
     0
  0
CLASS
  1
LAYER_INDEX
  2
AcDbLayerIndex
  3
AutoCAD 2000
 90
    32768
280
     0
281
     0
  0
CLASS
  1
SPATIAL_INDEX
  2
AcDbSpatialIndex
  3
AutoCAD 2000
 90
    32768
280
     0
281
     0
  0
CLASS
  1
OBJECT_PTR
  2
CAseDLPNTableRecord
  3
"ASE-LPNTableRecord"
 90
    32768
280
     0
281
     0
  0
CLASS
  1
LAYOUT
  2
AcDbLayout
  3
AutoCAD 2000
 90
        0
280
     0
281
     0
  0
CLASS
  1
PLOTSETTINGS
  2
AcDbPlotSettings
  3
AutoCAD 2000
 90
    32768
280
     0
281
     0
  0
CLASS
  1
ACDBDICTIONARYWDFLT
  2
AcDbDictionaryWithDefault
  3
AutoCAD 2000
 90
        0
280
     0
281
     0
  0
CLASS
  1
ACDBPLACEHOLDER
  2
AcDbPlaceHolder
  3
AutoCAD 2000
 90
        0
280
     0
281
     0
  0
CLASS
  1
VBA_PROJECT
  2
AcDbVbaProject
  3
"acadvba"
 90
    32768
280
     0
281
     0
  0
CLASS
  1
WIPEOUT
  2
AcDbWipeout
  3
WipeOut|AutoCAD Express Tool|expresstools@autodesk.com
 90
    32768
280
     0
281
     1
  0
CLASS
  1
WIPEOUTVARIABLES
  2
AcDbWipeoutVariables
  3
WipeOut|AutoCAD Express Tool|expresstools@autodesk.com
 90
    32768
280
     0
281
     0
  0
CLASS
  1
RTEXT
  2
RText
  3
RText|AutoCAD Express Tool|expresstools@autodesk.com
 90
    32768
280
     0
281
     1
  0
CLASS
  1
ARCALIGNEDTEXT
  2
AcDbArcAlignedText
  3
ATEXT|AutoCAD Express Tool|expresstools@autodesk.com
 90
    32768
280
     0
281
     1
  0
ENDSEC
  0
SECTION
  2
TABLES
  0
TABLE
  2
VPORT
  5
7
330
0
100
AcDbSymbolTable
 70
     2
  0
VPORT
  5
FA9
330
7
100
AcDbSymbolTableRecord
100
AcDbViewportTableRecord
  2
*Active
 70
     0
 10
0.0
 20
0.0
 11
1.0
 21
1.0
 12
-2.723416479335824
 22
10.74091496268329
 13
0.0
 23
0.0
 14
6.349999999999997
 24
6.349999999999997
 15
6.349999999999997
 25
6.349999999999997
 16
0.0
 26
0.0
 36
1.0
 17
0.0
 27
0.0
 37
0.0
 40
166.0907346872555
 41
2.465994962216624
 42
50.0
 43
0.0
 44
0.0
 50
0.0
 51
0.0
 71
     0
 72
   100
 73
     1
 74
     1
 75
     0
 76
     0
 77
     0
 78
     0
281
     0
 65
     1
110
0.0
120
0.0
130
0.0
111
1.0
121
0.0
131
0.0
112
0.0
122
1.0
132
0.0
 79
     0
146
0.0
  0
ENDTAB
  0
TABLE
  2
LTYPE
  5
4
330
0
100
AcDbSymbolTable
 70
     3
  0
LTYPE
  5
11
330
4
100
AcDbSymbolTableRecord
100
AcDbLinetypeTableRecord
  2
BYBLOCK
 70
     0
  3

 72
    65
 73
     0
 40
0.0
  0
LTYPE
  5
12
330
4
100
AcDbSymbolTableRecord
100
AcDbLinetypeTableRecord
  2
BYLAYER
 70
     0
  3

 72
    65
 73
     0
 40
0.0
  0
LTYPE
  5
13
330
4
100
AcDbSymbolTableRecord
100
AcDbLinetypeTableRecord
  2
CONTINUOUS
 70
     0
  3
DXF Default line type
 72
    65
 73
     0
 40
0.0
  0
LTYPE
  5
933
330
4
100
AcDbSymbolTableRecord
100
AcDbLinetypeTableRecord
  2
CENTER
 70
     0
  3
____ _ ____ _ ____ _ ____ _ ____ _ ____ _ ____
 72
    65
 73
     4
 40
0.6
 49
0.375
 74
     0
 49
-0.075
 74
     0
 49
0.075
 74
     0
 49
-0.075
 74
     0
  0
LTYPE
  5
934
330
4
100
AcDbSymbolTableRecord
100
AcDbLinetypeTableRecord
  2
HIDDEN
 70
     0
  3
- - - - - - - - - - - - - - - - - - - -
 72
    65
 73
     2
 40
0.2
 49
0.1
 74
     0
 49
-0.1
 74
     0
  0
ENDTAB
  0
TABLE
  2
LAYER
  5
2
330
0
100
AcDbSymbolTable
 70
    12
  0
LAYER
  5
14
330
2
100
AcDbSymbolTableRecord
100
AcDbLayerTableRecord
  2
0
 70
     0
 62
     7
  6
CONTINUOUS
370
    -3
390
75A
  0
LAYER
  5
935
330
2
100
AcDbSymbolTableRecord
100
AcDbLayerTableRecord
  2
Defpoints
 70
     0
 62
     7
  6
CONTINUOUS
290
     0
370
    -3
390
75A
  0
LAYER
  5
936
330
2
100
AcDbSymbolTableRecord
100
AcDbLayerTableRecord
  2
2
 70
     0
 62
     7
  6
CONTINUOUS
370
    -3
390
75A
  0
LAYER
  5
937
330
2
100
AcDbSymbolTableRecord
100
AcDbLayerTableRecord
  2
4
 70
     0
 62
     2
  6
CENTER
370
    -3
390
75A
  0
LAYER
  5
938
330
2
100
AcDbSymbolTableRecord
100
AcDbLayerTableRecord
  2
SK3
 70
     0
 62
     1
  6
HIDDEN
370
    -3
390
75A
  0
LAYER
  5
939
330
2
100
AcDbSymbolTableRecord
100
AcDbLayerTableRecord
  2
SK2
 70
     0
 62
     7
  6
CONTINUOUS
370
    -3
390
75A
  0
LAYER
  5
93A
330
2
100
AcDbSymbolTableRecord
100
AcDbLayerTableRecord
  2
1
 70
     0
 62
     4
  6
CONTINUOUS
370
    -3
390
75A
  0
LAYER
  5
93B
330
2
100
AcDbSymbolTableRecord
100
AcDbLayerTableRecord
  2
6
 70
     0
 62
     5
  6
CONTINUOUS
370
    -3
390
75A
  0
LAYER
  5
93C
330
2
100
AcDbSymbolTableRecord
100
AcDbLayerTableRecord
  2
CUT
 70
     0
 62
     1
  6
CONTINUOUS
370
    -3
390
75A
  0
LAYER
  5
93E
330
2
100
AcDbSymbolTableRecord
100
AcDbLayerTableRecord
  2
SK4
 70
     0
 62
     2
  6
CENTER
370
    -3
390
75A
  0
LAYER
  5
93F
330
2
100
AcDbSymbolTableRecord
100
AcDbLayerTableRecord
  2
SK1
 70
     0
 62
     4
  6
CONTINUOUS
370
    -3
390
75A
  0
LAYER
  5
FA8
330
2
100
AcDbSymbolTableRecord
100
AcDbLayerTableRecord
  2
NOCUT
 70
     0
 62
     7
  6
CONTINUOUS
370
    -3
390
75A
  0
ENDTAB
  0
TABLE
  2
STYLE
  5
3
330
0
100
AcDbSymbolTable
 70
     1
  0
STYLE
  5
17
330
3
100
AcDbSymbolTableRecord
100
AcDbTextStyleTableRecord
  2
STANDARD
 70
     0
 40
4.1672
 41
1.0
 50
0.0
 71
     0
 42
4.1672
  3
isocp.shx
  4

  0
ENDTAB
  0
TABLE
  2
VIEW
  5
5
330
0
100
AcDbSymbolTable
 70
     0
  0
ENDTAB
  0
TABLE
  2
UCS
  5
6
330
0
100
AcDbSymbolTable
 70
     3
  0
UCS
  5
4A
330
6
100
AcDbSymbolTableRecord
100
AcDbUCSTableRecord
  2
MO_001_VIEW_PV_P
 70
     0
 10
0.0
 20
0.0
 30
0.0
 11
1.0
 21
0.0
 31
0.0
 12
0.0
 22
1.0
 32
0.0
 79
     0
146
0.0
  0
UCS
  5
4B
330
6
100
AcDbSymbolTableRecord
100
AcDbUCSTableRecord
  2
MO_001_VIEW_AA_P
 70
     0
 10
-44.73222351074219
 20
30.69502258300781
 30
0.0
 11
1.0
 21
0.0
 31
0.0
 12
0.0
 22
1.0
 32
0.0
 79
     0
146
0.0
  0
UCS
  5
4C
330
6
100
AcDbSymbolTableRecord
100
AcDbUCSTableRecord
  2
MO_001_VIEW_BB_P
 70
     0
 10
-168.8433685302734
 20
-462.646240234375
 30
0.0
 11
1.0
 21
0.0
 31
0.0
 12
0.0
 22
1.0
 32
0.0
 79
     0
146
0.0
  0
ENDTAB
  0
TABLE
  2
APPID
  5
8
330
0
100
AcDbSymbolTable
 70
     2
  0
APPID
  5
16
330
8
100
AcDbSymbolTableRecord
100
AcDbRegAppTableRecord
  2
ACAD
 70
     0
  0
APPID
  5
942
330
8
100
AcDbSymbolTableRecord
100
AcDbRegAppTableRecord
  2
ACAD_PSEXT
 70
     0
  0
ENDTAB
  0
TABLE
  2
DIMSTYLE
  5
9
330
0
100
AcDbSymbolTable
 70
     2
100
AcDbDimStyleTable
 71
     2
340
941
340
18
  0
DIMSTYLE
105
18
330
9
100
AcDbSymbolTableRecord
100
AcDbDimStyleTableRecord
  2
STANDARD
 70
     0
 73
     0
 74
     0
140
3.5
271
     0
272
     0
273
     0
274
     0
283
     0
340
17
  0
DIMSTYLE
105
941
102
{ACAD_REACTORS
330
E64
330
E61
330
EC9
330
EF2
330
F3F
102
}
330
9
100
AcDbSymbolTableRecord
100
AcDbDimStyleTableRecord
  2
ISO-25
 70
     0
 41
2.5
 42
0.625
 43
3.75
 44
1.25
 73
     0
 74
     0
 77
     1
 78
     8
140
2.5
141
2.5
143
0.03937007874016
147
0.625
171
     3
172
     1
271
     2
272
     2
274
     3
278
    44
283
     0
284
     8
340
17
  0
ENDTAB
  0
TABLE
  2
BLOCK_RECORD
  5
1
330
0
100
AcDbSymbolTable
 70
     6
  0
BLOCK_RECORD
  5
A
330
1
100
AcDbSymbolTableRecord
100
AcDbBlockTableRecord
  2
*MODEL_SPACE
340
75D
  0
BLOCK_RECORD
  5
B
330
1
100
AcDbSymbolTableRecord
100
AcDbBlockTableRecord
  2
*PAPER_SPACE
340
75E
  0
BLOCK_RECORD
  5
E9F
330
1
100
AcDbSymbolTableRecord
100
AcDbBlockTableRecord
  2
*D0
340
0
  0
BLOCK_RECORD
  5
EAB
330
1
100
AcDbSymbolTableRecord
100
AcDbBlockTableRecord
  2
*D1
340
0
  0
BLOCK_RECORD
  5
ECA
330
1
100
AcDbSymbolTableRecord
100
AcDbBlockTableRecord
  2
*D2
340
0
  0
BLOCK_RECORD
  5
EF3
330
1
100
AcDbSymbolTableRecord
100
AcDbBlockTableRecord
  2
*D3
340
0
  0
BLOCK_RECORD
  5
F40
330
1
100
AcDbSymbolTableRecord
100
AcDbBlockTableRecord
  2
*D4
340
0
  0
ENDTAB
  0
ENDSEC
  0
SECTION
  2
BLOCKS
  0
BLOCK
  5
D
330
A
100
AcDbEntity
  8
0
100
AcDbBlockBegin
  2
*MODEL_SPACE
 70
     0
 10
0.0
 20
0.0
 30
0.0
  3
*MODEL_SPACE
  1

  0
ENDBLK
  5
E
330
A
100
AcDbEntity
  8
0
100
AcDbBlockEnd
  0
BLOCK
  5
F
330
B
100
AcDbEntity
 67
     1
  8
0
100
AcDbBlockBegin
  2
*PAPER_SPACE
 70
     0
 10
0.0
 20
0.0
 30
0.0
  3
*PAPER_SPACE
  1

  0
ENDBLK
  5
10
330
B
100
AcDbEntity
 67
     1
  8
0
100
AcDbBlockEnd
  0
BLOCK
  5
EA9
330
E9F
100
AcDbEntity
  8
0
100
AcDbBlockBegin
  2
*D0
 70
     1
 10
0.0
 20
0.0
 30
0.0
  3
*D0
  1

  0
LINE
  5
F89
330
E9F
100
AcDbEntity
  8
2
 62
     0
370
    -2
100
AcDbLine
 10
34.9999895934743
 20
56.62499999991337
 30
0.0
 11
34.99972889643653
 21
72.28206498255801
 31
0.0
  0
LINE
  5
F8A
330
E9F
100
AcDbEntity
  8
2
 62
     0
370
    -2
100
AcDbLine
 10
-0.0000254065256845
 20
46.46005299991336
 30
0.0
 11
-0.0004553447110846
 21
72.28148221405297
 31
0.0
  0
LINE
  5
F8B
330
E9F
100
AcDbEntity
  8
2
 62
     0
370
    -2
100
AcDbLine
 10
32.49974970983439
 20
71.03202335662865
 30
0.0
 11
2.499565467993699
 21
71.03152384032894
 31
0.0
  0
SOLID
  5
F8C
330
E9F
100
AcDbEntity
  8
2
 62
     0
100
AcDbTrace
 10
32.49974277215061
 20
71.44869002323756
 30
0.0
 11
32.49975664751818
 21
70.61535669001973
 31
0.0
 12
34.99974970948786
 22
71.03206498273131
 32
0.0
 13
34.99974970948786
 23
71.03206498273131
 33
0.0
  0
SOLID
  5
F8D
330
E9F
100
AcDbEntity
  8
2
 62
     0
100
AcDbTrace
 10
2.499558530309921
 20
71.44819050693783
 30
0.0
 11
2.499572405677475
 21
70.61485717372001
 31
0.0
 12
-0.0004345316597535
 22
71.03148221422626
 32
0.0
 13
-0.0004345316597535
 23
71.03148221422626
 33
0.0
  0
MTEXT
  5
F8E
330
E9F
100
AcDbEntity
  8
2
 62
     0
100
AcDbMText
 10
17.49961248952938
 20
73.74037359810333
 30
0.0
 40
4.1672
 41
0.0
 71
     5
 72
     1
  1
\A1;35
 11
0.9999999998613814
 21
0.0000166504410649
 31
0.0
 73
     1
 44
1.0
  0
POINT
  5
F8F
330
E9F
100
AcDbEntity
  8
Defpoints
 62
     0
100
AcDbPoint
 10
34.99999999999996
 20
56.00000000000001
 30
0.0
  0
POINT
  5
F90
330
E9F
100
AcDbEntity
  8
Defpoints
 62
     0
100
AcDbPoint
 10
-0.000015000000019
 20
45.83505299999998
 30
0.0
  0
POINT
  5
F91
330
E9F
100
AcDbEntity
  8
Defpoints
 62
     0
100
AcDbPoint
 10
-0.0004345316597535
 20
71.03148221422626
 30
0.0
  0
ENDBLK
  5
EAA
330
E9F
100
AcDbEntity
  8
0
100
AcDbBlockEnd
  0
BLOCK
  5
EB5
330
EAB
100
AcDbEntity
  8
0
100
AcDbBlockBegin
  2
*D1
 70
     1
 10
0.0
 20
0.0
 30
0.0
  3
*D1
  1

  0
LINE
  5
F92
330
EAB
100
AcDbEntity
  8
2
 62
     0
370
    -2
100
AcDbLine
 10
35.62469499997828
 20
55.99989820326282
 30
0.0
 11
71.24422920673874
 21
56.00019474374042
 31
0.0
  0
LINE
  5
F93
330
EAB
100
AcDbEntity
  8
2
 62
     0
370
    -2
100
AcDbLine
 10
35.62469499997829
 20
-55.99988779673713
 30
0.0
 11
71.24516162965695
 21
-55.99959124849689
 31
0.0
  0
LINE
  5
F94
330
EAB
100
AcDbEntity
  8
2
 62
     0
370
    -2
100
AcDbLine
 10
69.99425001983339
 20
53.50018433730139
 30
0.0
 11
69.99514081664893
 21
-53.49960165510921
 31
0.0
  0
SOLID
  5
F95
330
EAB
100
AcDbEntity
  8
2
 62
     0
100
AcDbTrace
 10
70.41091668648562
 20
53.50018780614328
 30
0.0
 11
69.57758335318115
 21
53.5001808684595
 31
0.0
 12
69.99422920678205
 22
56.00018433721476
 32
0.0
 13
69.99422920678205
 23
56.00018433721476
 33
0.0
  0
SOLID
  5
F96
330
EAB
100
AcDbEntity
  8
2
 62
     0
100
AcDbTrace
 10
70.41180748330114
 20
-53.49959818626732
 30
0.0
 11
69.57847414999669
 21
-53.4996051239511
 31
0.0
 12
69.99516162970026
 22
-55.99960165502257
 32
0.0
 13
69.99516162970026
 23
-55.99960165502257
 33
0.0
  0
MTEXT
  5
F97
330
EAB
100
AcDbEntity
  8
2
 62
     0
100
AcDbMText
 10
72.70371384539263
 20
-0.9930249583768894
 30
0.0
 40
4.1672
 41
0.0
 71
     5
 72
     1
  1
%%C112
 11
0.0000083252205343
 21
-0.9999999999653454
 31
0.0
 73
     1
 44
1.0
  0
POINT
  5
F98
330
EAB
100
AcDbEntity
  8
Defpoints
 62
     0
100
AcDbPoint
 10
34.99969499999994
 20
55.99989299999998
 30
0.0
  0
POINT
  5
F99
330
EAB
100
AcDbEntity
  8
Defpoints
 62
     0
100
AcDbPoint
 10
34.99969499999994
 20
-55.99989299999997
 30
0.0
  0
POINT
  5
F9A
330
EAB
100
AcDbEntity
  8
Defpoints
 62
     0
100
AcDbPoint
 10
69.99516162970026
 20
-55.99960165502257
 30
0.0
  0
ENDBLK
  5
EB6
330
EAB
100
AcDbEntity
  8
0
100
AcDbBlockEnd
  0
BLOCK
  5
ED5
330
ECA
100
AcDbEntity
  8
0
100
AcDbBlockBegin
  2
*D2
 70
     1
 10
0.0
 20
0.0
 30
0.0
  3
*D2
  1

  0
LINE
  5
F80
330
ECA
100
AcDbEntity
  8
SK2
 62
     0
370
    -2
100
AcDbLine
 10
-37.12499590703453
 20
27.99999815510387
 30
0.0
 11
-75.25869639090494
 21
27.99999815510389
 31
0.0
  0
LINE
  5
F81
330
ECA
100
AcDbEntity
  8
SK2
 62
     0
370
    -2
100
AcDbLine
 10
-37.125
 20
-27.99999999999998
 30
0.0
 11
-75.25869639090494
 21
-27.99999999999998
 31
0.0
  0
LINE
  5
F82
330
ECA
100
AcDbEntity
  8
SK2
 62
     0
370
    -2
100
AcDbLine
 10
-74.00869639090494
 20
25.49999815510389
 30
0.0
 11
-74.00869639090494
 21
-25.49999999999998
 31
0.0
  0
SOLID
  5
F83
330
ECA
100
AcDbEntity
  8
SK2
 62
     0
100
AcDbTrace
 10
-74.42536305757158
 20
25.49999815510389
 30
0.0
 11
-73.59202972423826
 21
25.49999815510389
 31
0.0
 12
-74.00869639090494
 22
27.99999815510389
 32
0.0
 13
-74.00869639090494
 23
27.99999815510389
 33
0.0
  0
SOLID
  5
F84
330
ECA
100
AcDbEntity
  8
SK2
 62
     0
100
AcDbTrace
 10
-74.42536305757158
 20
-25.49999999999998
 30
0.0
 11
-73.59202972423826
 21
-25.49999999999998
 31
0.0
 12
-74.00869639090494
 22
-27.99999999999998
 32
0.0
 13
-74.00869639090494
 23
-27.99999999999998
 33
0.0
  0
MTEXT
  5
F85
330
ECA
100
AcDbEntity
  8
SK2
 62
     0
100
AcDbMText
 10
-76.71729639090495
 20
-0.0389386379803082
 30
0.0
 40
4.1672
 41
0.0
 71
     5
 72
     1
  1
%%C56
 11
0.0000000000000001
 21
1.0
 31
0.0
 73
     1
 44
1.0
  0
POINT
  5
F86
330
ECA
100
AcDbEntity
  8
Defpoints
 62
     0
100
AcDbPoint
 10
-36.49999590703453
 20
27.99999815510387
 30
0.0
  0
POINT
  5
F87
330
ECA
100
AcDbEntity
  8
Defpoints
 62
     0
100
AcDbPoint
 10
-36.5
 20
-27.99999999999998
 30
0.0
  0
POINT
  5
F88
330
ECA
100
AcDbEntity
  8
Defpoints
 62
     0
100
AcDbPoint
 10
-74.00869639090494
 20
-27.99999999999998
 30
0.0
  0
ENDBLK
  5
ED6
330
ECA
100
AcDbEntity
  8
0
100
AcDbBlockEnd
  0
BLOCK
  5
EFE
330
EF3
100
AcDbEntity
  8
0
100
AcDbBlockBegin
  2
*D3
 70
     1
 10
0.0
 20
0.0
 30
0.0
  3
*D3
  1

  0
LINE
  5
F77
330
EF3
100
AcDbEntity
  8
2
 62
     0
370
    -2
100
AcDbLine
 10
0.9750060000000074
 20
47.74999999999997
 30
0.0
 11
-89.29652794995572
 21
47.75000000000001
 31
0.0
  0
LINE
  5
F78
330
EF3
100
AcDbEntity
  8
2
 62
     0
370
    -2
100
AcDbLine
 10
0.9750060000000075
 20
-47.75
 30
0.0
 11
-89.29652794995574
 21
-47.74999999999997
 31
0.0
  0
LINE
  5
F79
330
EF3
100
AcDbEntity
  8
2
 62
     0
370
    -2
100
AcDbLine
 10
-88.04652794995572
 20
45.25000000000001
 30
0.0
 11
-88.04652794995574
 21
-45.24999999999997
 31
0.0
  0
SOLID
  5
F7A
330
EF3
100
AcDbEntity
  8
2
 62
     0
100
AcDbTrace
 10
-88.46319461662238
 20
45.25000000000001
 30
0.0
 11
-87.62986128328904
 21
45.25000000000001
 31
0.0
 12
-88.04652794995572
 22
47.75000000000001
 32
0.0
 13
-88.04652794995572
 23
47.75000000000001
 33
0.0
  0
SOLID
  5
F7B
330
EF3
100
AcDbEntity
  8
2
 62
     0
100
AcDbTrace
 10
-88.46319461662243
 20
-45.24999999999997
 30
0.0
 11
-87.62986128328908
 21
-45.24999999999997
 31
0.0
 12
-88.04652794995574
 22
-47.74999999999997
 32
0.0
 13
-88.04652794995574
 23
-47.74999999999997
 33
0.0
  0
MTEXT
  5
F7C
330
EF3
100
AcDbEntity
  8
2
 62
     0
100
AcDbMText
 10
-91.0666608231023
 20
0.2870351320168115
 30
0.0
 40
4.1672
 41
0.0
 71
     5
 72
     1
  1
%%C95,5
 11
0.0000000000000001
 21
1.0
 31
0.0
 73
     1
 44
1.0
  0
POINT
  5
F7D
330
EF3
100
AcDbEntity
  8
Defpoints
 62
     0
100
AcDbPoint
 10
1.600006000000006
 20
47.74999999999997
 30
0.0
  0
POINT
  5
F7E
330
EF3
100
AcDbEntity
  8
Defpoints
 62
     0
100
AcDbPoint
 10
1.600006000000006
 20
-47.75
 30
0.0
  0
POINT
  5
F7F
330
EF3
100
AcDbEntity
  8
Defpoints
 62
     0
100
AcDbPoint
 10
-88.04652794995574
 20
-47.74999999999997
 30
0.0
  0
ENDBLK
  5
EFF
330
EF3
100
AcDbEntity
  8
0
100
AcDbBlockEnd
  0
BLOCK
  5
F4B
330
F40
100
AcDbEntity
  8
0
100
AcDbBlockBegin
  2
*D4
 70
     1
 10
0.0
 20
0.0
 30
0.0
  3
*D4
  1

  0
LINE
  5
F6E
330
F40
100
AcDbEntity
  8
2
 62
     0
370
    -2
100
AcDbLine
 10
-55.00014500000012
 20
27.024902
 30
0.0
 11
-55.0001450000001
 21
89.19784604106991
 31
0.0
  0
LINE
  5
F6F
330
F40
100
AcDbEntity
  8
2
 62
     0
370
    -2
100
AcDbLine
 10
39.99999999999996
 20
46.77499400000001
 30
0.0
 11
39.99999999999996
 21
89.19784604106991
 31
0.0
  0
LINE
  5
F70
330
F40
100
AcDbEntity
  8
2
 62
     0
370
    -2
100
AcDbLine
 10
-52.5001450000001
 20
87.94784604106991
 30
0.0
 11
37.49999999999996
 21
87.94784604106991
 31
0.0
  0
SOLID
  5
F71
330
F40
100
AcDbEntity
  8
2
 62
     0
100
AcDbTrace
 10
-52.5001450000001
 20
88.36451270773659
 30
0.0
 11
-52.5001450000001
 21
87.53117937440325
 31
0.0
 12
-55.0001450000001
 22
87.94784604106991
 32
0.0
 13
-55.0001450000001
 23
87.94784604106991
 33
0.0
  0
SOLID
  5
F72
330
F40
100
AcDbEntity
  8
2
 62
     0
100
AcDbTrace
 10
37.49999999999996
 20
88.36451270773659
 30
0.0
 11
37.49999999999996
 21
87.53117937440325
 31
0.0
 12
39.99999999999996
 22
87.94784604106991
 32
0.0
 13
39.99999999999996
 23
87.94784604106991
 33
0.0
  0
MTEXT
  5
F73
330
F40
100
AcDbEntity
  8
2
 62
     0
100
AcDbMText
 10
-7.500072500000068
 20
90.65644604106992
 30
0.0
 40
4.1672
 41
0.0
 71
     5
 72
     1
  1
95
 73
     1
 44
1.0
  0
POINT
  5
F74
330
F40
100
AcDbEntity
  8
Defpoints
 62
     0
100
AcDbPoint
 10
-55.00014500000012
 20
26.399902
 30
0.0
  0
POINT
  5
F75
330
F40
100
AcDbEntity
  8
Defpoints
 62
     0
100
AcDbPoint
 10
39.99999999999996
 20
46.14999400000001
 30
0.0
  0
POINT
  5
F76
330
F40
100
AcDbEntity
  8
Defpoints
 62
     0
100
AcDbPoint
 10
39.99999999999996
 20
87.94784604106991
 30
0.0
  0
ENDBLK
  5
F4C
330
F40
100
AcDbEntity
  8
0
100
AcDbBlockEnd
  0
ENDSEC
  0
SECTION
  2
ENTITIES
  0
MTEXT
  5
2E1
330
A
100
AcDbEntity
  8
6
100
AcDbMText
 10
44.29981840403526
 20
-71.07494446021028
 30
0.0
 40
4.167183999999998
 41
0.0
 71
     7
 72
     5
  1
15Y1L112-100
 73
     1
 44
1.0
  0
LWPOLYLINE
  5
E60
330
A
100
AcDbEntity
  8
CUT
100
AcDbPolyline
 90
       12
 70
     0
 43
0.0
 10
39.76245800548142
 20
34.79383502827575
 10
39.76245800548142
 20
47.82213265299197
 10
35.2496280054814
 20
55.57076702827576
 10
35.25002900548142
 20
55.57077602827573
 10
35.00003799999999
 20
56.00000499999999
 10
34.75004800548148
 20
55.57077702827576
 10
34.74976400548135
 20
55.57075902827576
 10
30.23731200548136
 20
47.82277344315867
 10
30.23731200548136
 20
34.79355928538044
 10
34.7496300054814
 20
27.04580402827575
 10
35.24974858788478
 20
27.04580402827575
 10
39.7622800054814
 20
34.79392502827574
  0
DIMENSION
  5
E61
330
A
100
AcDbEntity
  8
2
100
AcDbDimension
  2
*D1
 10
69.99516162970026
 20
-55.99960165502257
 30
0.0
 11
69.99470368800619
 21
-0.9930475114838801
 31
0.0
 70
   160
  1
%%C112
 71
     5
 42
111.9997859961186
  3
ISO-25
100
AcDbAlignedDimension
 13
34.99969499999994
 23
55.99989299999998
 33
0.0
 14
34.99969499999994
 24
-55.99989299999998
 34
0.0
 50
90.00047700000015
100
AcDbRotatedDimension
  0
LINE
  5
E62
330
A
100
AcDbEntity
  8
1
100
AcDbLine
 10
39.99999999999996
 20
-46.14999399999999
 30
0.0
 11
39.99999999999996
 21
46.14999400000001
 31
0.0
  0
LINE
  5
E63
330
A
100
AcDbEntity
  8
1
100
AcDbLine
 10
0.0
 20
-46.14999399999999
 30
0.0
 11
0.0
 21
46.14999400000001
 31
0.0
  0
DIMENSION
  5
E64
330
A
100
AcDbEntity
  8
2
100
AcDbDimension
  2
*D0
 10
-0.0004345316597535
 20
71.03148221422626
 30
0.0
 11
17.49961248952938
 21
73.74037359810333
 31
0.0
 70
    32
  1
\A1;35
 71
     5
 42
35.00018424599927
  3
ISO-25
100
AcDbAlignedDimension
 13
34.99999999999996
 23
56.0
 33
0.0
 14
-0.000015000000019
 24
45.83505299999997
 34
0.0
 50
0.0009540000001013
100
AcDbRotatedDimension
  0
LINE
  5
E65
330
A
100
AcDbEntity
  8
1
100
AcDbLine
 10
30.2373049999999
 20
47.82267799999998
 30
0.0
 11
30.23730499999984
 21
34.79354725710477
 31
0.0
  0
LINE
  5
E66
330
A
100
AcDbEntity
  8
1
100
AcDbLine
 10
39.76245099999996
 20
34.79382300000001
 30
0.0
 11
39.76245099999996
 21
47.822113
 31
0.0
  0
LINE
  5
E67
330
A
100
AcDbEntity
  8
SK4
100
AcDbLine
 10
0.0
 20
0.0000000000000036
 30
0.0
 11
-58.62373300000001
 21
0.0000000000000036
 31
0.0
  0
LINE
  5
E68
330
A
100
AcDbEntity
  8
SK3
100
AcDbLine
 10
7.0
 20
-6.500000000000007
 30
0.0
 11
-11.5
 21
-6.500000000000007
 31
0.0
  0
LINE
  5
E69
330
A
100
AcDbEntity
  8
SK3
100
AcDbLine
 10
7.0
 20
6.499999999999996
 30
0.0
 11
-11.5
 21
6.499999999999996
 31
0.0
  0
LINE
  5
E6A
330
A
100
AcDbEntity
  8
SK1
100
AcDbLine
 10
0.0
 20
27.99999999999998
 30
0.0
 11
-11.5
 21
27.99999999999998
 31
0.0
  0
LINE
  5
E6B
330
A
100
AcDbEntity
  8
SK1
100
AcDbLine
 10
0.0
 20
-27.99999999999998
 30
0.0
 11
-11.5
 21
-27.99999999999998
 31
0.0
  0
LINE
  5
E6C
330
A
100
AcDbEntity
  8
SK3
100
AcDbLine
 10
10.75254999999998
 20
-0.0001779999999947
 30
0.0
 11
6.999742999999909
 21
-6.500231000000005
 31
0.0
  0
LINE
  5
E6D
330
A
100
AcDbEntity
  8
SK3
100
AcDbLine
 10
7.0
 20
-6.500000000000007
 30
0.0
 11
7.0
 21
6.499999999999996
 31
0.0
  0
LINE
  5
E6E
330
A
100
AcDbEntity
  8
SK1
100
AcDbLine
 10
-3.0
 20
-27.99999999999998
 30
0.0
 11
-3.0
 21
27.99999999999998
 31
0.0
  0
LINE
  5
E6F
330
A
100
AcDbEntity
  8
1
100
AcDbLine
 10
38.39999399999996
 20
-47.75
 30
0.0
 11
1.600006000000006
 21
-47.75
 31
0.0
  0
LINE
  5
E70
330
A
100
AcDbEntity
  8
1
100
AcDbLine
 10
30.237312
 20
-47.82277199999998
 30
0.0
 11
34.74975900000001
 21
-55.57074799999998
 31
0.0
  0
LINE
  5
E71
330
A
100
AcDbEntity
  8
1
100
AcDbLine
 10
34.74962100000002
 20
-27.04579299999998
 30
0.0
 11
30.23713599999993
 21
-34.793836
 31
0.0
  0
LINE
  5
E72
330
A
100
AcDbEntity
  8
1
100
AcDbLine
 10
35.24974299999998
 20
-27.04579299999998
 30
0.0
 11
39.76227500000002
 21
-34.79391399999999
 31
0.0
  0
LINE
  5
E73
330
A
100
AcDbEntity
  8
1
100
AcDbLine
 10
39.76245099999996
 20
-41.30825799999999
 30
0.0
 11
39.76245099999996
 21
-47.82269299999998
 31
0.0
  0
LINE
  5
E74
330
A
100
AcDbEntity
  8
1
100
AcDbLine
 10
34.75834699999992
 20
-55.58549499999998
 30
0.0
 11
35.24104300000002
 21
-55.58549499999998
 31
0.0
  0
LINE
  5
E75
330
A
100
AcDbEntity
  8
1
 48
0.099
100
AcDbLine
 10
35.00000099999997
 20
-56.000009
 30
0.0
 11
35.2500049999999
 21
-55.57075600000001
 31
0.0
  0
LINE
  5
E76
330
A
100
AcDbEntity
  8
1
 48
0.099
100
AcDbLine
 10
34.75002300000002
 20
-55.570759
 30
0.0
 11
35.00001999999992
 21
-55.999999
 31
0.0
  0
ARC
  5
E77
330
A
100
AcDbEntity
  8
1
100
AcDbCircle
 10
38.39999399999996
 20
-46.14999399999999
 30
0.0
 40
1.6
100
AcDbArc
 50
269.999999
 51
359.9999810000001
  0
LINE
  5
E78
330
A
100
AcDbEntity
  8
1
100
AcDbLine
 10
39.7620509999999
 20
-47.82280599999999
 30
0.0
 11
35.24961900000002
 21
-55.57075600000001
 31
0.0
  0
LINE
  5
E79
330
A
100
AcDbEntity
  8
1
100
AcDbLine
 10
39.76245099999996
 20
-34.79382299999999
 30
0.0
 11
39.76245099999996
 21
-41.30825799999999
 31
0.0
  0
LINE
  5
E7A
330
A
100
AcDbEntity
  8
1
100
AcDbLine
 10
34.74962216480637
 20
-27.04579099999999
 30
0.0
 11
35.24974183519313
 21
-27.04579099999999
 31
0.0
  0
LINE
  5
E7B
330
A
100
AcDbEntity
  8
1
100
AcDbLine
 10
30.2373049999999
 20
-47.822677
 30
0.0
 11
30.2373049999999
 21
-34.64553799999999
 31
0.0
  0
ARC
  5
E7C
330
A
100
AcDbEntity
  8
1
100
AcDbCircle
 10
1.600006000000006
 20
-46.14999399999999
 30
0.0
 40
1.6
100
AcDbArc
 50
180.0
 51
269.9999820000001
  0
LINE
  5
E7D
330
A
100
AcDbEntity
  8
4
100
AcDbLine
 10
43.394531
 20
0.0000000000000036
 30
0.0
 11
0.0
 21
0.0
 31
0.0
  0
LINE
  5
E7E
330
A
100
AcDbEntity
  8
1
100
AcDbLine
 10
34.749623
 20
27.04579199999999
 30
0.0
 11
30.23713799999992
 21
34.79383400000001
 31
0.0
  0
LINE
  5
E7F
330
A
100
AcDbEntity
  8
1
100
AcDbLine
 10
35.249741
 20
27.045791
 30
0.0
 11
39.76227300000002
 21
34.79391299999999
 31
0.0
  0
LINE
  5
E80
330
A
100
AcDbEntity
  8
1
 48
0.1
100
AcDbLine
 10
35.249741
 20
27.04579199999999
 30
0.0
 11
34.74961900000002
 21
27.04579199999999
 31
0.0
  0
LINE
  5
E81
330
A
100
AcDbEntity
  8
SK3
100
AcDbLine
 10
10.75254599999998
 20
-0.0000299999999953
 30
0.0
 11
6.999739000000004
 21
6.500022999999995
 31
0.0
  0
LINE
  5
E82
330
A
100
AcDbEntity
  8
SK1
100
AcDbLine
 10
-51.838379
 20
-27.39990199999999
 30
0.0
 11
-51.838379
 21
27.399902
 31
0.0
  0
LINE
  5
E83
330
A
100
AcDbEntity
  8
SK1
100
AcDbLine
 10
-42.5
 20
-27.99999999999998
 30
0.0
 11
-42.5
 21
27.99999999999998
 31
0.0
  0
LINE
  5
E84
330
A
100
AcDbEntity
  8
SK1
100
AcDbLine
 10
-55.0
 20
-26.39990199999999
 30
0.0
 11
-55.0
 21
26.399902
 31
0.0
  0
LINE
  5
E85
330
A
100
AcDbEntity
  8
SK3
100
AcDbLine
 10
-11.5
 20
-6.500000000000009
 30
0.0
 11
-53.0
 21
-6.500000000000007
 31
0.0
  0
ARC
  5
E86
330
A
100
AcDbEntity
  8
SK1
100
AcDbCircle
 10
-24.0
 20
-53.05500799999999
 30
0.0
 40
28.000061
100
AcDbArc
 50
63.48527800000002
 51
116.5147029999999
  0
LINE
  5
E87
330
A
100
AcDbEntity
  8
SK1
100
AcDbLine
 10
-11.5
 20
-6.500000000000007
 30
0.0
 11
-11.5
 21
-27.99999999999998
 31
0.0
  0
LINE
  5
E88
330
A
100
AcDbEntity
  8
SK1
100
AcDbLine
 10
-36.5
 20
-6.500000000000007
 30
0.0
 11
-36.5
 21
-27.99999999999998
 31
0.0
  0
LINE
  5
E89
330
A
100
AcDbEntity
  8
SK1
100
AcDbLine
 10
-42.50033000000001
 20
-27.99987699999999
 30
0.0
 11
-51.8384960000001
 21
-27.39987899999999
 31
0.0
  0
LINE
  5
E8A
330
A
100
AcDbEntity
  8
SK1
100
AcDbLine
 10
-36.5
 20
-27.99999999999998
 30
0.0
 11
-42.5
 21
-27.99999999999998
 31
0.0
  0
LINE
  5
E8B
330
A
100
AcDbEntity
  8
SK1
100
AcDbLine
 10
-52.6739610000001
 20
-27.82553999999999
 30
0.0
 11
-51.83864200000011
 21
-27.39992399999999
 31
0.0
  0
ARC
  5
E8C
330
A
100
AcDbEntity
  8
SK1
100
AcDbCircle
 10
-53.40014600000011
 20
-26.39990199999999
 30
0.0
 40
1.599998999999999
100
AcDbArc
 50
180.000036
 51
296.999884
  0
ARC
  5
E8D
330
A
100
AcDbEntity
  8
SK3
 48
0.6280000000000002
100
AcDbCircle
 10
-53.0
 20
-8.500000000000001
 30
0.0
 40
2.0
100
AcDbArc
 50
90.00012700000002
 51
180.0
  0
LINE
  5
E8E
330
A
100
AcDbEntity
  8
SK1
100
AcDbLine
 10
-36.5
 20
27.99999999999998
 30
0.0
 11
-36.5
 21
6.499999999999996
 31
0.0
  0
LINE
  5
E8F
330
A
100
AcDbEntity
  8
SK1
100
AcDbLine
 10
-11.5
 20
27.99999999999998
 30
0.0
 11
-11.5
 21
6.499999999999996
 31
0.0
  0
LINE
  5
E90
330
A
100
AcDbEntity
  8
SK3
100
AcDbLine
 10
-11.5
 20
6.499999999999992
 30
0.0
 11
-53.0
 21
6.499999999999996
 31
0.0
  0
ARC
  5
E91
330
A
100
AcDbEntity
  8
SK3
 48
0.6280000000000002
100
AcDbCircle
 10
-53.0
 20
8.500000000000008
 30
0.0
 40
2.0
100
AcDbArc
 50
179.9999639999999
 51
269.999763
  0
ARC
  5
E92
330
A
100
AcDbEntity
  8
SK1
100
AcDbCircle
 10
-24.0
 20
53.05500799999999
 30
0.0
 40
28.000061
100
AcDbArc
 50
243.4852969999999
 51
296.514722
  0
LINE
  5
E93
330
A
100
AcDbEntity
  8
SK1
100
AcDbLine
 10
-42.50046200000011
 20
27.99987000000001
 30
0.0
 11
-51.83862799999999
 21
27.39987199999999
 31
0.0
  0
LINE
  5
E94
330
A
100
AcDbEntity
  8
SK1
100
AcDbLine
 10
-36.5
 20
27.99999999999998
 30
0.0
 11
-42.5
 21
27.99999999999998
 31
0.0
  0
LINE
  5
E95
330
A
100
AcDbEntity
  8
SK1
100
AcDbLine
 10
-51.83862600000001
 20
27.399693
 30
0.0
 11
-52.67394499999999
 21
27.82531
 31
0.0
  0
ARC
  5
E96
330
A
100
AcDbEntity
  8
SK1
100
AcDbCircle
 10
-53.40014600000011
 20
26.399902
 30
0.0
 40
1.599998999999999
100
AcDbArc
 50
63.00011600000011
 51
180.0
  0
LINE
  5
E97
330
A
100
AcDbEntity
  8
1
100
AcDbLine
 10
38.39999399999996
 20
47.74999999999997
 30
0.0
 11
1.600006000000006
 21
47.74999999999997
 31
0.0
  0
LINE
  5
E98
330
A
100
AcDbEntity
  8
1
100
AcDbLine
 10
30.23731000000001
 20
47.82276999999999
 30
0.0
 11
34.7497569999999
 21
55.57074700000001
 31
0.0
  0
ARC
  5
E99
330
A
100
AcDbEntity
  8
1
100
AcDbCircle
 10
38.39999399999996
 20
46.14999400000001
 30
0.0
 40
1.6
100
AcDbArc
 50
359.9999810000001
 51
90.00001800000003
  0
LINE
  5
E9A
330
A
100
AcDbEntity
  8
1
100
AcDbLine
 10
34.75834699999992
 20
55.58549500000001
 30
0.0
 11
35.24142500000002
 21
55.58549500000001
 31
0.0
  0
LINE
  5
E9B
330
A
100
AcDbEntity
  8
1
 48
0.099
100
AcDbLine
 10
35.00001699999998
 20
56.00001699999999
 30
0.0
 11
35.25002199999996
 21
55.57076399999998
 31
0.0
  0
LINE
  5
E9C
330
A
100
AcDbEntity
  8
1
 48
0.099
100
AcDbLine
 10
34.75004099999998
 20
55.570765
 30
0.0
 11
35.00003799999999
 21
56.00000499999999
 31
0.0
  0
LINE
  5
E9D
330
A
100
AcDbEntity
  8
1
100
AcDbLine
 10
39.76205299999989
 20
47.822804
 30
0.0
 11
35.24962100000001
 21
55.570755
 31
0.0
  0
ARC
  5
E9E
330
A
100
AcDbEntity
  8
1
100
AcDbCircle
 10
1.600006000000006
 20
46.14999400000001
 30
0.0
 40
1.6
100
AcDbArc
 50
90.00001800000003
 51
180.0
  0
DIMENSION
  5
EC9
330
A
100
AcDbEntity
  8
SK2
100
AcDbDimension
  2
*D2
 10
-74.00869639090494
 20
-27.99999999999998
 30
0.0
 11
-74.00869639090494
 21
-0.0389386379803085
 31
0.0
 70
   160
  1
%%C<>
 71
     5
 42
55.99999815510388
  3
ISO-25
100
AcDbAlignedDimension
 13
-36.49999590703453
 23
27.99999815510387
 33
0.0
 14
-36.5
 24
-27.99999999999998
 34
0.0
 50
90.0
100
AcDbRotatedDimension
  0
DIMENSION
  5
EF2
330
A
100
AcDbEntity
  8
2
100
AcDbDimension
  2
*D3
 10
-88.04652794995574
 20
-47.74999999999997
 30
0.0
 11
-88.04652794995574
 21
0.2870351320168112
 31
0.0
 70
   160
  1
%%C<>
 71
     5
 42
95.49999999999998
  3
ISO-25
100
AcDbAlignedDimension
 13
1.600006000000006
 23
47.74999999999997
 33
0.0
 14
1.600006000000006
 24
-47.75
 34
0.0
 50
90.0
100
AcDbRotatedDimension
  0
DIMENSION
  5
F3F
330
A
100
AcDbEntity
  8
2
100
AcDbDimension
  2
*D4
 10
39.99999999999996
 20
87.94784604106991
 30
0.0
 11
-7.500072500000068
 21
90.65644604106992
 31
0.0
 70
    32
 71
     5
 42
95.00014500000007
  3
ISO-25
100
AcDbAlignedDimension
 13
-55.00014500000012
 23
26.399902
 33
0.0
 14
39.99999999999996
 24
46.14999400000001
 34
0.0
100
AcDbRotatedDimension
  0
MTEXT
  5
F66
330
A
100
AcDbEntity
  8
6
100
AcDbMText
 10
51.14689973213152
 20
69.45351343376081
 30
0.0
 40
4.167183999999998
 41
0.0
 71
     7
 72
     5
  1
92.40.206.04
 73
     1
 44
1.0
  0
MTEXT
  5
F6D
330
A
100
AcDbEntity
  8
6
100
AcDbMText
 10
87.99018674622644
 20
-4.387037356264656
 30
0.0
 40
4.167183999999998
 41
0.0
 71
     7
 72
     5
  1
Z=8
 11
0.0000000000000001
 21
1.0
 31
0.0
 73
     1
 44
1.0
  0
LWPOLYLINE
  5
FA7
330
A
100
AcDbEntity
  8
NOCUT
100
AcDbPolyline
 90
        8
 70
     1
 43
0.0
 10
38.39999349734512
 20
47.74999399999993
 10
1.600005497345193
 20
47.74999399999993
 42
0.4142134703579791
 10
0.0000060000000133
 20
46.14999400000002
 10
0.0
 20
46.14999400000002
 10
0.0
 20
0.0
 10
39.99999999999997
 20
0.0
 10
39.99999999999997
 20
46.14999346941991
 10
39.99999399999987
 20
46.14999346941991
 42
0.414213751515295
  0
VIEWPORT
  5
3C7
330
B
100
AcDbEntity
 67
     1
  8
0
 62
     0
100
AcDbViewport
 10
0.0
 20
0.0
 30
0.0
 40
1000.0
 41
1000.0
 68
     1
 69
     1
 12
0.0
 22
0.0
 13
0.0
 23
0.0
 14
1.0
 24
1.0
 15
1.0
 25
1.0
 16
0.0
 26
0.0
 36
1.0
 17
0.0
 27
0.0
 37
0.0
 42
50.0
 43
0.0
 44
0.0
 45
1000.0
 50
0.0
 51
0.0
 72
   100
 90
    32800
  1

281
     0
 71
     1
 74
     0
110
0.0
120
0.0
130
0.0
111
1.0
121
0.0
131
0.0
112
0.0
122
1.0
132
0.0
 79
     0
146
0.0
  0
ENDSEC
  0
SECTION
  2
OBJECTS
  0
DICTIONARY
  5
19
330
0
100
AcDbDictionary
281
     1
  3
ACAD_GROUP
350
1A
  3
ACAD_LAYOUT
350
75B
  3
ACAD_MLINESTYLE
350
1B
  3
ACAD_PLOTSETTINGS
350
75C
  3
ACAD_PLOTSTYLENAME
350
759
  0
DICTIONARY
  5
1A
102
{ACAD_REACTORS
330
19
102
}
330
19
100
AcDbDictionary
281
     1
  0
DICTIONARY
  5
75B
102
{ACAD_REACTORS
330
19
102
}
330
19
100
AcDbDictionary
281
     1
  3
Layout1
350
75E
  3
Model
350
75D
  0
DICTIONARY
  5
1B
102
{ACAD_REACTORS
330
19
102
}
330
19
100
AcDbDictionary
281
     1
  3
STANDARD
350
1C
  0
DICTIONARY
  5
75C
102
{ACAD_REACTORS
330
19
102
}
330
19
100
AcDbDictionary
281
     1
  0
ACDBDICTIONARYWDFLT
  5
759
102
{ACAD_REACTORS
330
19
102
}
330
19
100
AcDbDictionary
281
     1
  3
Normal
350
75A
100
AcDbDictionaryWithDefault
340
75A
  0
LAYOUT
  5
75E
102
{ACAD_REACTORS
330
75B
102
}
330
75B
100
AcDbPlotSettings
  1

  2
\\ingdc01\ITB3
  4

  6

 40
0.0
 41
0.0
 42
0.0
 43
0.0
 44
0.0
 45
0.0
 46
0.0
 47
0.0
 48
0.0
 49
0.0
140
0.0
141
0.0
142
1.0
143
1.0
 70
   688
 72
     0
 73
     0
 74
     5
  7
monochrome.ctb
 75
    16
147
1.0
148
0.0
149
0.0
100
AcDbLayout
  1
Layout1
 70
     1
 71
     1
 10
0.0
 20
0.0
 11
12.0
 21
9.0
 12
0.0
 22
0.0
 32
0.0
 14
-316.374268
 24
-462.64624
 34
1.000000000000000E+20
 15
814.100464
 25
194.215332
 35
-1.000000000000000E+20
146
0.0
 13
0.0
 23
0.0
 33
0.0
 16
1.0
 26
0.0
 36
0.0
 17
0.0
 27
1.0
 37
0.0
 76
     0
330
B
331
3C7
  0
LAYOUT
  5
75D
102
{ACAD_REACTORS
330
75B
102
}
330
75B
100
AcDbPlotSettings
  1

  2
\\ingdc01\ITB3
  4

  6

 40
0.0
 41
0.0
 42
0.0
 43
0.0
 44
0.0
 45
0.0
 46
0.0
 47
0.0
 48
0.0
 49
0.0
140
0.0
141
0.0
142
1.0
143
1.0
 70
  1712
 72
     0
 73
     0
 74
     0
  7
monochrome.ctb
 75
     0
147
1.0
148
0.0
149
0.0
100
AcDbLayout
  1
Model
 70
     1
 71
     0
 10
0.0
 20
0.0
 11
12.0
 21
9.0
 12
0.0
 22
0.0
 32
0.0
 14
0.0
 24
0.0
 34
0.0
 15
0.0
 25
0.0
 35
0.0
146
0.0
 13
0.0
 23
0.0
 33
0.0
 16
1.0
 26
0.0
 36
0.0
 17
0.0
 27
1.0
 37
0.0
 76
     0
330
A
  0
MLINESTYLE
  5
1C
102
{ACAD_REACTORS
330
1B
102
}
330
1B
100
AcDbMlineStyle
  2
STANDARD
 70
     0
  3

 62
     0
 51
90.0
 52
90.0
 71
     2
 49
0.5
 62
   256
  6
BYLAYER
 49
-0.5
 62
   256
  6
BYLAYER
  0
ACDBPLACEHOLDER
  5
75A
102
{ACAD_REACTORS
330
759
102
}
330
759
  0
ENDSEC
  0
EOF
