  0
SECTION
  2
HEADER
  9
$ACADVER
  1
AC1015
  9
$ACADMAINTVER
 70
    10
  9
$DWGCODEPAGE
  3
ANSI_1252
  9
$INSBASE
 10
0.0
 20
0.0
 30
0.0
  9
$EXTMIN
 10
-59.32637795275591
 20
-83.62500000000006
 30
0.0
  9
$EXTMAX
 10
91.76698240639215
 20
72.32500000000005
 30
0.0
  9
$LIMMIN
 10
0.0
 20
0.0
  9
$LIMMAX
 10
594.0
 20
420.0
  9
$ORTHOMODE
 70
     0
  9
$REGENMODE
 70
     1
  9
$FILLMODE
 70
     1
  9
$QTEXTMODE
 70
     0
  9
$MIRRTEXT
 70
     1
  9
$LTSCALE
 40
5.0
  9
$ATTMODE
 70
     1
  9
$TEXTSIZE
 40
0.2
  9
$TRACEWID
 40
0.05
  9
$TEXTSTYLE
  7
STANDARD
  9
$CLAYER
  8
0
  9
$CELTYPE
  6
BYLAYER
  9
$CECOLOR
 62
   256
  9
$CELTSCALE
 40
1.0
  9
$DISPSILH
 70
     0
  9
$DIMSCALE
 40
1.0
  9
$DIMASZ
 40
3.5
  9
$DIMEXO
 40
0.625
  9
$DIMDLI
 40
3.75
  9
$DIMRND
 40
0.0
  9
$DIMDLE
 40
0.0
  9
$DIMEXE
 40
2.0
  9
$DIMTP
 40
0.0
  9
$DIMTM
 40
0.0
  9
$DIMTXT
 40
3.5
  9
$DIMCEN
 40
2.5
  9
$DIMTSZ
 40
0.0
  9
$DIMTOL
 70
     0
  9
$DIMLIM
 70
     0
  9
$DIMTIH
 70
     0
  9
$DIMTOH
 70
     0
  9
$DIMSE1
 70
     0
  9
$DIMSE2
 70
     0
  9
$DIMTAD
 70
     1
  9
$DIMZIN
 70
     8
  9
$DIMBLK
  1

  9
$DIMASO
 70
     1
  9
$DIMSHO
 70
     1
  9
$DIMPOST
  1

  9
$DIMAPOST
  1

  9
$DIMALT
 70
     0
  9
$DIMALTD
 70
     3
  9
$DIMALTF
 40
0.03937007874016
  9
$DIMLFAC
 40
1.0
  9
$DIMTOFL
 70
     1
  9
$DIMTVP
 40
0.0
  9
$DIMTIX
 70
     0
  9
$DIMSOXD
 70
     0
  9
$DIMSAH
 70
     0
  9
$DIMBLK1
  1

  9
$DIMBLK2
  1

  9
$DIMSTYLE
  2
ISO-25
  9
$DIMCLRD
 70
   256
  9
$DIMCLRE
 70
   256
  9
$DIMCLRT
 70
   256
  9
$DIMTFAC
 40
1.0
  9
$DIMGAP
 40
0.625
  9
$DIMJUST
 70
     0
  9
$DIMSD1
 70
     0
  9
$DIMSD2
 70
     0
  9
$DIMTOLJ
 70
     0
  9
$DIMTZIN
 70
     8
  9
$DIMALTZ
 70
     0
  9
$DIMALTTZ
 70
     0
  9
$DIMUPT
 70
     0
  9
$DIMDEC
 70
     2
  9
$DIMTDEC
 70
     2
  9
$DIMALTU
 70
     2
  9
$DIMALTTD
 70
     3
  9
$DIMTXSTY
  7
STANDARD
  9
$DIMAUNIT
 70
     0
  9
$DIMADEC
 70
     0
  9
$DIMALTRND
 40
0.0
  9
$DIMAZIN
 70
     0
  9
$DIMDSEP
 70
    46
  9
$DIMATFIT
 70
     3
  9
$DIMFRAC
 70
     0
  9
$DIMLDRBLK
  1

  9
$DIMLUNIT
 70
     2
  9
$DIMLWD
 70
    -2
  9
$DIMLWE
 70
    -2
  9
$DIMTMOVE
 70
     0
  9
$LUNITS
 70
     2
  9
$LUPREC
 70
     4
  9
$SKETCHINC
 40
0.1
  9
$FILLETRAD
 40
0.0
  9
$AUNITS
 70
     0
  9
$AUPREC
 70
     0
  9
$MENU
  1

  9
$ELEVATION
 40
0.0
  9
$PELEVATION
 40
0.0
  9
$THICKNESS
 40
0.0
  9
$LIMCHECK
 70
     0
  9
$CHAMFERA
 40
0.0
  9
$CHAMFERB
 40
0.0
  9
$CHAMFERC
 40
0.0
  9
$CHAMFERD
 40
0.0
  9
$SKPOLY
 70
     0
  9
$TDCREATE
 40
2453402.436539317
  9
$TDUCREATE
 40
2453402.394872650
  9
$TDUPDATE
 40
2453783.387708831
  9
$TDUUPDATE
 40
2453783.346042164
  9
$TDINDWG
 40
0.0231653704
  9
$TDUSRTIMER
 40
0.0213327431
  9
$USRTIMER
 70
     1
  9
$ANGBASE
 50
0.0
  9
$ANGDIR
 70
     0
  9
$PDMODE
 70
     0
  9
$PDSIZE
 40
0.3125
  9
$PLINEWID
 40
0.0
  9
$SPLFRAME
 70
     0
  9
$SPLINETYPE
 70
     6
  9
$SPLINESEGS
 70
     8
  9
$HANDSEED
  5
16AF8
  9
$SURFTAB1
 70
     6
  9
$SURFTAB2
 70
     6
  9
$SURFTYPE
 70
     6
  9
$SURFU
 70
     6
  9
$SURFV
 70
     6
  9
$UCSBASE
  2

  9
$UCSNAME
  2

  9
$UCSORG
 10
0.0
 20
0.0
 30
0.0
  9
$UCSXDIR
 10
1.0
 20
0.0
 30
0.0
  9
$UCSYDIR
 10
0.0
 20
1.0
 30
0.0
  9
$UCSORTHOREF
  2

  9
$UCSORTHOVIEW
 70
     0
  9
$UCSORGTOP
 10
0.0
 20
0.0
 30
0.0
  9
$UCSORGBOTTOM
 10
0.0
 20
0.0
 30
0.0
  9
$UCSORGLEFT
 10
0.0
 20
0.0
 30
0.0
  9
$UCSORGRIGHT
 10
0.0
 20
0.0
 30
0.0
  9
$UCSORGFRONT
 10
0.0
 20
0.0
 30
0.0
  9
$UCSORGBACK
 10
0.0
 20
0.0
 30
0.0
  9
$PUCSBASE
  2

  9
$PUCSNAME
  2

  9
$PUCSORG
 10
0.0
 20
0.0
 30
0.0
  9
$PUCSXDIR
 10
1.0
 20
0.0
 30
0.0
  9
$PUCSYDIR
 10
0.0
 20
1.0
 30
0.0
  9
$PUCSORTHOREF
  2

  9
$PUCSORTHOVIEW
 70
     0
  9
$PUCSORGTOP
 10
0.0
 20
0.0
 30
0.0
  9
$PUCSORGBOTTOM
 10
0.0
 20
0.0
 30
0.0
  9
$PUCSORGLEFT
 10
0.0
 20
0.0
 30
0.0
  9
$PUCSORGRIGHT
 10
0.0
 20
0.0
 30
0.0
  9
$PUCSORGFRONT
 10
0.0
 20
0.0
 30
0.0
  9
$PUCSORGBACK
 10
0.0
 20
0.0
 30
0.0
  9
$USERI1
 70
     0
  9
$USERI2
 70
     0
  9
$USERI3
 70
     0
  9
$USERI4
 70
     0
  9
$USERI5
 70
     0
  9
$USERR1
 40
0.0
  9
$USERR2
 40
0.0
  9
$USERR3
 40
0.0
  9
$USERR4
 40
0.0
  9
$USERR5
 40
0.0
  9
$WORLDVIEW
 70
     1
  9
$SHADEDGE
 70
     3
  9
$SHADEDIF
 70
    70
  9
$TILEMODE
 70
     1
  9
$MAXACTVP
 70
    64
  9
$PINSBASE
 10
0.0
 20
0.0
 30
0.0
  9
$PLIMCHECK
 70
     0
  9
$PEXTMIN
 10
100.0
 20
100.0
 30
100.0
  9
$PEXTMAX
 10
-100.0
 20
-100.0
 30
-100.0
  9
$PLIMMIN
 10
0.0
 20
0.0
  9
$PLIMMAX
 10
12.0
 20
9.0
  9
$UNITMODE
 70
     0
  9
$VISRETAIN
 70
     1
  9
$PLINEGEN
 70
     1
  9
$PSLTSCALE
 70
     1
  9
$TREEDEPTH
 70
  3020
  9
$CMLSTYLE
  2
STANDARD
  9
$CMLJUST
 70
     0
  9
$CMLSCALE
 40
1.0
  9
$PROXYGRAPHICS
 70
     1
  9
$MEASUREMENT
 70
     0
  9
$CELWEIGHT
370
    -1
  9
$ENDCAPS
280
     0
  9
$JOINSTYLE
280
     0
  9
$LWDISPLAY
290
     0
  9
$INSUNITS
 70
     0
  9
$HYPERLINKBASE
  1

  9
$STYLESHEET
  1

  9
$XEDIT
290
     1
  9
$CEPSNTYPE
380
     0
  9
$PSTYLEMODE
290
     1
  9
$FINGERPRINTGUID
  2
{B000347D-A306-4EEF-B63A-427D0ED49AA6}
  9
$VERSIONGUID
  2
{07487B60-4ED6-42FD-A610-7E4586E5C36D}
  9
$EXTNAMES
290
     1
  9
$PSVPSCALE
 40
0.0
  9
$OLESTARTUP
290
     0
  0
ENDSEC
  0
SECTION
  2
CLASSES
  0
CLASS
  1
ACDBDICTIONARYWDFLT
  2
AcDbDictionaryWithDefault
  3
AutoCAD 2000
 90
        0
280
     0
281
     0
  0
CLASS
  1
ACDBPLACEHOLDER
  2
AcDbPlaceHolder
  3
AutoCAD 2000
 90
        0
280
     0
281
     0
  0
CLASS
  1
LAYOUT
  2
AcDbLayout
  3
AutoCAD 2000
 90
        0
280
     0
281
     0
  0
CLASS
  1
TABLESTYLE
  2
AcDbTableStyle
  3
ObjectDBX Classes
 90
     2047
280
     0
281
     0
  0
CLASS
  1
DICTIONARYVAR
  2
AcDbDictionaryVar
  3
AutoCAD 2000
 90
        0
280
     0
281
     0
  0
ENDSEC
  0
SECTION
  2
TABLES
  0
TABLE
  2
VPORT
  5
8
330
0
100
AcDbSymbolTable
 70
     2
  0
VPORT
  5
16AF7
330
8
100
AcDbSymbolTableRecord
100
AcDbViewportTableRecord
  2
*Active
 70
     0
 10
0.0
 20
0.0
 11
1.0
 21
1.0
 12
16.21795066883845
 22
-5.639927192312484
 13
0.0
 23
0.0
 14
1.0
 24
1.0
 15
0.0
 25
0.0
 16
0.0
 26
0.0
 36
1.0
 17
0.0
 27
0.0
 37
0.0
 40
157.1617649239428
 41
1.544999999999999
 42
50.0
 43
0.0
 44
0.0
 50
0.0
 51
0.0
 71
     0
 72
   100
 73
     1
 74
     1
 75
     0
 76
     0
 77
     0
 78
     0
281
     0
 65
     1
110
0.0
120
0.0
130
0.0
111
1.0
121
0.0
131
0.0
112
0.0
122
1.0
132
0.0
 79
     0
146
0.0
  0
ENDTAB
  0
TABLE
  2
LTYPE
  5
5
330
0
100
AcDbSymbolTable
 70
     2
  0
LTYPE
  5
13
330
5
100
AcDbSymbolTableRecord
100
AcDbLinetypeTableRecord
  2
BYBLOCK
 70
     0
  3

 72
    65
 73
     0
 40
0.0
  0
LTYPE
  5
14
330
5
100
AcDbSymbolTableRecord
100
AcDbLinetypeTableRecord
  2
BYLAYER
 70
     0
  3

 72
    65
 73
     0
 40
0.0
  0
LTYPE
  5
15
330
5
100
AcDbSymbolTableRecord
100
AcDbLinetypeTableRecord
  2
CONTINUOUS
 70
     0
  3
Solid line
 72
    65
 73
     0
 40
0.0
  0
LTYPE
  5
23
330
5
100
AcDbSymbolTableRecord
100
AcDbLinetypeTableRecord
  2
CENTER
 70
     0
  3
____ _ ____ _ ____ _ ____ _ ____ _ ____ _ ____
 72
    65
 73
     4
 40
0.6
 49
0.375
 74
     0
 49
-0.075
 74
     0
 49
0.075
 74
     0
 49
-0.075
 74
     0
  0
ENDTAB
  0
TABLE
  2
LAYER
  5
2
330
0
100
AcDbSymbolTable
 70
    11
  0
LAYER
  5
10
330
2
100
AcDbSymbolTableRecord
100
AcDbLayerTableRecord
  2
0
 70
     0
 62
     7
  6
CONTINUOUS
370
    -3
390
16682
  0
LAYER
  5
28
330
2
100
AcDbSymbolTableRecord
100
AcDbLayerTableRecord
  2
1
 70
     0
 62
     4
  6
CONTINUOUS
370
    -3
390
16682
  0
LAYER
  5
29
330
2
100
AcDbSymbolTableRecord
100
AcDbLayerTableRecord
  2
2
 70
     0
 62
     7
  6
CONTINUOUS
370
    -3
390
16682
  0
LAYER
  5
2B
330
2
100
AcDbSymbolTableRecord
100
AcDbLayerTableRecord
  2
4
 70
     0
 62
     2
  6
CENTER
370
    -3
390
16682
  0
LAYER
  5
355B
330
2
100
AcDbSymbolTableRecord
100
AcDbLayerTableRecord
  2
DEFPOINTS
 70
     0
 62
     7
  6
CONTINUOUS
290
     0
370
    -3
390
16682
  0
LAYER
  5
355C
330
2
100
AcDbSymbolTableRecord
100
AcDbLayerTableRecord
  2
SK1
 70
     0
 62
     4
  6
CONTINUOUS
370
    -3
390
16682
  0
LAYER
  5
355D
330
2
100
AcDbSymbolTableRecord
100
AcDbLayerTableRecord
  2
SK4
 70
     0
 62
     2
  6
CENTER
370
    -3
390
16682
  0
LAYER
  5
167AF
330
2
100
AcDbSymbolTableRecord
100
AcDbLayerTableRecord
  2
6
 70
     0
 62
     5
  6
CONTINUOUS
370
    -3
390
16682
  0
LAYER
  5
167B0
330
2
100
AcDbSymbolTableRecord
100
AcDbLayerTableRecord
  2
CUT
 70
     0
 62
     1
  6
CONTINUOUS
370
    -3
390
16682
  0
LAYER
  5
167B1
330
2
100
AcDbSymbolTableRecord
100
AcDbLayerTableRecord
  2
NOCUT
 70
     0
 62
     7
  6
CONTINUOUS
370
    -3
390
16682
  0
LAYER
  5
167B2
330
2
100
AcDbSymbolTableRecord
100
AcDbLayerTableRecord
  2
SK2
 70
     0
 62
     7
  6
CONTINUOUS
370
    -3
390
16682
  0
ENDTAB
  0
TABLE
  2
STYLE
  5
3
330
0
100
AcDbSymbolTable
 70
     1
  0
STYLE
  5
11
330
3
100
AcDbSymbolTableRecord
100
AcDbTextStyleTableRecord
  2
STANDARD
 70
     0
 40
0.0
 41
0.8
 50
0.0
 71
     0
 42
0.2
  3
ISOCP
  4

  0
ENDTAB
  0
TABLE
  2
VIEW
  5
6
330
0
100
AcDbSymbolTable
 70
     0
  0
ENDTAB
  0
TABLE
  2
UCS
  5
7
330
0
100
AcDbSymbolTable
 70
     0
  0
ENDTAB
  0
TABLE
  2
APPID
  5
9
330
0
100
AcDbSymbolTable
 70
     1
  0
APPID
  5
12
330
9
100
AcDbSymbolTableRecord
100
AcDbRegAppTableRecord
  2
ACAD
 70
     0
  0
ENDTAB
  0
TABLE
  2
DIMSTYLE
  5
A
330
0
100
AcDbSymbolTable
 70
     1
100
AcDbDimStyleTable
 71
     0
  0
DIMSTYLE
105
355E
102
{ACAD_REACTORS
330
50E
330
50D
330
50C
330
50B
330
109CA
102
}
330
A
100
AcDbSymbolTableRecord
100
AcDbDimStyleTableRecord
  2
ISO-25
 70
     0
 41
3.5
 42
0.625
 43
3.75
 44
2.0
 73
     0
 74
     0
 77
     1
 78
     8
140
3.5
141
2.5
143
0.03937007874016
147
0.625
171
     3
172
     1
176
   256
177
   256
178
   256
271
     2
272
     2
274
     3
283
     0
284
     8
340
11
  0
ENDTAB
  0
TABLE
  2
BLOCK_RECORD
  5
1
330
0
100
AcDbSymbolTable
 70
     5
  0
BLOCK_RECORD
  5
1E
102
{ACAD_XDICTIONARY
360
3627
102
}
330
1
100
AcDbSymbolTableRecord
100
AcDbBlockTableRecord
  2
*MODEL_SPACE
340
16683
  0
BLOCK_RECORD
  5
1A
102
{ACAD_XDICTIONARY
360
3625
102
}
330
1
100
AcDbSymbolTableRecord
100
AcDbBlockTableRecord
  2
*PAPER_SPACE
340
16684
  0
BLOCK_RECORD
  5
35F4
330
1
100
AcDbSymbolTableRecord
100
AcDbBlockTableRecord
  2
*D0
340
0
  0
BLOCK_RECORD
  5
3600
330
1
100
AcDbSymbolTableRecord
100
AcDbBlockTableRecord
  2
*D1
340
0
  0
BLOCK_RECORD
  5
360C
330
1
100
AcDbSymbolTableRecord
100
AcDbBlockTableRecord
  2
*D2
340
0
  0
BLOCK_RECORD
  5
3618
330
1
100
AcDbSymbolTableRecord
100
AcDbBlockTableRecord
  2
*D3
340
0
  0
BLOCK_RECORD
  5
109CB
330
1
100
AcDbSymbolTableRecord
100
AcDbBlockTableRecord
  2
*D4
340
0
  0
ENDTAB
  0
ENDSEC
  0
SECTION
  2
BLOCKS
  0
BLOCK
  5
1F
330
1E
100
AcDbEntity
  8
0
100
AcDbBlockBegin
  2
*MODEL_SPACE
 70
     0
 10
0.0
 20
0.0
 30
0.0
  3
*MODEL_SPACE
  1

  0
ENDBLK
  5
20
330
1E
100
AcDbEntity
  8
0
100
AcDbBlockEnd
  0
BLOCK
  5
1B
330
1A
100
AcDbEntity
 67
     1
  8
0
100
AcDbBlockBegin
  2
*PAPER_SPACE
 70
     0
 10
0.0
 20
0.0
 30
0.0
  3
*PAPER_SPACE
  1

  0
ENDBLK
  5
1C
330
1A
100
AcDbEntity
 67
     1
  8
0
100
AcDbBlockEnd
  0
BLOCK
  5
35FE
330
35F4
100
AcDbEntity
  8
0
100
AcDbBlockBegin
  2
*D0
 70
     1
 10
0.0
 20
0.0
 30
0.0
  3
*D0
  1

  0
LINE
  5
166AA
330
35F4
100
AcDbEntity
  8
2
370
    -2
100
AcDbLine
 10
36.125
 20
55.99999999999999
 30
0.0
 11
60.39850269190001
 21
55.99999999999997
 31
0.0
  0
LINE
  5
166AB
330
35F4
100
AcDbEntity
  8
2
370
    -2
100
AcDbLine
 10
36.12499999999999
 20
-56.00000000000004
 30
0.0
 11
60.39850269189996
 21
-56.00000000000004
 31
0.0
  0
LINE
  5
166AC
330
35F4
100
AcDbEntity
  8
2
370
    -2
100
AcDbLine
 10
58.39850269190002
 20
52.5
 30
0.0
 11
58.39850269189998
 21
-52.50000000000003
 31
0.0
  0
SOLID
  5
166AD
330
35F4
100
AcDbEntity
  8
2
100
AcDbTrace
 10
57.81516935856668
 20
52.5
 30
0.0
 11
58.98183602523335
 21
52.5
 31
0.0
 12
58.39850269190002
 22
55.99999999999997
 32
0.0
 13
58.39850269190002
 23
55.99999999999997
 33
0.0
  0
SOLID
  5
166AE
330
35F4
100
AcDbEntity
  8
2
100
AcDbTrace
 10
57.81516935856664
 20
-52.50000000000003
 30
0.0
 11
58.98183602523332
 21
-52.50000000000003
 31
0.0
 12
58.39850269189998
 22
-56.00000000000004
 32
0.0
 13
58.39850269189998
 23
-56.00000000000004
 33
0.0
  0
MTEXT
  5
166AF
330
35F4
100
AcDbEntity
  8
2
100
AcDbMText
 10
56.02315820371102
 20
-0.0000000000000069
 30
0.0
 40
3.5
 41
0.0
 71
     5
 72
     1
  1
%%c112
 11
0.0000000000000001
 21
1.0
 31
0.0
 73
     1
 44
1.0
1001
ACAD
1000
MTEXTBEGIN
1070
    73
1070
     1
1070
    44
1040
1.0
1070
    74
1070
     0
1000
MTEXTEND
  0
POINT
  5
166B0
330
35F4
100
AcDbEntity
  8
DEFPOINTS
 62
     0
100
AcDbPoint
 10
35.5
 20
55.99999999999999
 30
0.0
  0
POINT
  5
166B1
330
35F4
100
AcDbEntity
  8
DEFPOINTS
 62
     0
100
AcDbPoint
 10
35.49999999999999
 20
-56.00000000000004
 30
0.0
  0
POINT
  5
166B2
330
35F4
100
AcDbEntity
  8
DEFPOINTS
 62
     0
100
AcDbPoint
 10
58.39850269189998
 20
-56.00000000000004
 30
0.0
  0
ENDBLK
  5
35FF
330
35F4
100
AcDbEntity
  8
0
100
AcDbBlockEnd
  0
BLOCK
  5
360A
330
3600
100
AcDbEntity
  8
0
100
AcDbBlockBegin
  2
*D1
 70
     1
 10
0.0
 20
0.0
 30
0.0
  3
*D1
  1

  0
LINE
  5
166A1
330
3600
100
AcDbEntity
  8
2
370
    -2
100
AcDbLine
 10
-0.0000000000000054
 20
-44.70744368619998
 30
0.0
 11
-0.0000000000000073
 21
-75.62500000000003
 31
0.0
  0
LINE
  5
166A2
330
3600
100
AcDbEntity
  8
2
370
    -2
100
AcDbLine
 10
34.99999999999999
 20
-57.12500000000003
 30
0.0
 11
34.99999999999999
 21
-75.62500000000003
 31
0.0
  0
LINE
  5
166A3
330
3600
100
AcDbEntity
  8
2
370
    -2
100
AcDbLine
 10
3.499999999999991
 20
-73.62500000000003
 30
0.0
 11
31.49999999999999
 21
-73.62500000000003
 31
0.0
  0
SOLID
  5
166A4
330
3600
100
AcDbEntity
  8
2
100
AcDbTrace
 10
3.499999999999991
 20
-73.0416666666667
 30
0.0
 11
3.499999999999991
 21
-74.20833333333336
 31
0.0
 12
-0.0000000000000072
 22
-73.62500000000003
 32
0.0
 13
-0.0000000000000072
 23
-73.62500000000003
 33
0.0
  0
SOLID
  5
166A5
330
3600
100
AcDbEntity
  8
2
100
AcDbTrace
 10
31.49999999999999
 20
-73.0416666666667
 30
0.0
 11
31.49999999999999
 21
-74.20833333333336
 31
0.0
 12
34.99999999999999
 22
-73.62500000000003
 32
0.0
 13
34.99999999999999
 23
-73.62500000000003
 33
0.0
  0
MTEXT
  5
166A6
330
3600
100
AcDbEntity
  8
2
100
AcDbMText
 10
17.49999999999999
 20
-71.25000000000003
 30
0.0
 40
3.5
 41
0.0
 71
     5
 72
     1
  1
35
 73
     1
 44
1.0
1001
ACAD
1000
MTEXTBEGIN
1070
    73
1070
     1
1070
    44
1040
1.0
1070
    74
1070
     0
1000
MTEXTEND
  0
POINT
  5
166A7
330
3600
100
AcDbEntity
  8
DEFPOINTS
 62
     0
100
AcDbPoint
 10
-0.0000000000000054
 20
-44.08244368619998
 30
0.0
  0
POINT
  5
166A8
330
3600
100
AcDbEntity
  8
DEFPOINTS
 62
     0
100
AcDbPoint
 10
34.99999999999999
 20
-56.50000000000003
 30
0.0
  0
POINT
  5
166A9
330
3600
100
AcDbEntity
  8
DEFPOINTS
 62
     0
100
AcDbPoint
 10
34.99999999999999
 20
-73.62500000000003
 30
0.0
  0
ENDBLK
  5
360B
330
3600
100
AcDbEntity
  8
0
100
AcDbBlockEnd
  0
BLOCK
  5
3616
330
360C
100
AcDbEntity
  8
0
100
AcDbBlockBegin
  2
*D2
 70
     1
 10
0.0
 20
0.0
 30
0.0
  3
*D2
  1

  0
LINE
  5
16698
330
360C
100
AcDbEntity
  8
2
370
    -2
100
AcDbLine
 10
-0.0000000000000063
 20
-51.1719728313
 30
0.0
 11
0.0000000000000011
 21
70.375
 31
0.0
  0
LINE
  5
16699
330
360C
100
AcDbEntity
  8
2
370
    -2
100
AcDbLine
 10
38.09999999999995
 20
-50.8022964981
 30
0.0
 11
38.09999999999996
 21
70.375
 31
0.0
  0
LINE
  5
1669A
330
360C
100
AcDbEntity
  8
2
370
    -2
100
AcDbLine
 10
3.5
 20
68.375
 30
0.0
 11
34.59999999999994
 21
68.375
 31
0.0
  0
SOLID
  5
1669B
330
360C
100
AcDbEntity
  8
2
100
AcDbTrace
 10
3.5
 20
68.95833333333333
 30
0.0
 11
3.5
 21
67.79166666666667
 31
0.0
 12
0.000000000000001
 22
68.375
 32
0.0
 13
0.000000000000001
 23
68.375
 33
0.0
  0
SOLID
  5
1669C
330
360C
100
AcDbEntity
  8
2
100
AcDbTrace
 10
34.59999999999994
 20
68.95833333333333
 30
0.0
 11
34.59999999999994
 21
67.79166666666667
 31
0.0
 12
38.09999999999996
 22
68.375
 32
0.0
 13
38.09999999999996
 23
68.375
 33
0.0
  0
MTEXT
  5
1669D
330
360C
100
AcDbEntity
  8
2
100
AcDbMText
 10
19.04999999999996
 20
70.75
 30
0.0
 40
3.5
 41
0.0
 71
     5
 72
     1
  1
38.1
 73
     1
 44
1.0
1001
ACAD
1000
MTEXTBEGIN
1070
    73
1070
     1
1070
    44
1040
1.0
1070
    74
1070
     0
1000
MTEXTEND
  0
POINT
  5
1669E
330
360C
100
AcDbEntity
  8
DEFPOINTS
 62
     0
100
AcDbPoint
 10
-0.0000000000000063
 20
-51.7969728313
 30
0.0
  0
POINT
  5
1669F
330
360C
100
AcDbEntity
  8
DEFPOINTS
 62
     0
100
AcDbPoint
 10
38.09999999999995
 20
-51.4272964981
 30
0.0
  0
POINT
  5
166A0
330
360C
100
AcDbEntity
  8
DEFPOINTS
 62
     0
100
AcDbPoint
 10
38.09999999999996
 20
68.375
 30
0.0
  0
ENDBLK
  5
3617
330
360C
100
AcDbEntity
  8
0
100
AcDbBlockEnd
  0
BLOCK
  5
3622
330
3618
100
AcDbEntity
  8
0
100
AcDbBlockBegin
  2
*D3
 70
     1
 10
0.0
 20
0.0
 30
0.0
  3
*D3
  1

  0
LINE
  5
16ADE
330
3618
100
AcDbEntity
  8
SK2
370
    -2
100
AcDbLine
 10
2.375000000000006
 20
50.5
 30
0.0
 11
-57.37499999999999
 21
50.50000000000002
 31
0.0
  0
LINE
  5
16ADF
330
3618
100
AcDbEntity
  8
SK2
370
    -2
100
AcDbLine
 10
2.374999999999991
 20
-50.50000000000003
 30
0.0
 11
-57.37500000000002
 21
-50.5
 31
0.0
  0
LINE
  5
16AE0
330
3618
100
AcDbEntity
  8
SK2
370
    -2
100
AcDbLine
 10
-55.375
 20
47.00000000000001
 30
0.0
 11
-55.37500000000001
 21
-47.00000000000001
 31
0.0
  0
SOLID
  5
16AE1
330
3618
100
AcDbEntity
  8
SK2
100
AcDbTrace
 10
-55.95833333333334
 20
47.00000000000001
 30
0.0
 11
-54.79166666666666
 21
47.00000000000001
 31
0.0
 12
-55.37499999999999
 22
50.50000000000002
 32
0.0
 13
-55.37499999999999
 23
50.50000000000002
 33
0.0
  0
SOLID
  5
16AE2
330
3618
100
AcDbEntity
  8
SK2
100
AcDbTrace
 10
-55.95833333333334
 20
-47.00000000000001
 30
0.0
 11
-54.79166666666667
 21
-47.00000000000001
 31
0.0
 12
-55.37500000000002
 22
-50.5
 32
0.0
 13
-55.37500000000002
 23
-50.5
 33
0.0
  0
MTEXT
  5
16AE3
330
3618
100
AcDbEntity
  8
SK2
100
AcDbMText
 10
-57.75000000000001
 20
0.0000000000000071
 30
0.0
 40
3.5
 41
0.0
 71
     5
 72
     1
  1
%%c101
 11
0.0000000000000001
 21
1.0
 31
0.0
 73
     1
 44
1.0
  0
POINT
  5
16AE4
330
3618
100
AcDbEntity
  8
DEFPOINTS
 62
     0
100
AcDbPoint
 10
3.000000000000006
 20
50.5
 30
0.0
  0
POINT
  5
16AE5
330
3618
100
AcDbEntity
  8
DEFPOINTS
 62
     0
100
AcDbPoint
 10
2.999999999999991
 20
-50.50000000000003
 30
0.0
  0
POINT
  5
16AE6
330
3618
100
AcDbEntity
  8
DEFPOINTS
 62
     0
100
AcDbPoint
 10
-55.37500000000002
 20
-50.5
 30
0.0
  0
ENDBLK
  5
3623
330
3618
100
AcDbEntity
  8
0
100
AcDbBlockEnd
  0
BLOCK
  5
109D7
330
109CB
100
AcDbEntity
  8
0
100
AcDbBlockBegin
  2
*D4
 70
     1
 10
0.0
 20
0.0
 30
0.0
  3
*D4
  1

  0
LINE
  5
16AEC
330
109CB
100
AcDbEntity
  8
2
370
    -2
100
AcDbLine
 10
34.68747355365023
 20
-56.55382730826908
 30
0.0
 11
20.19253532548042
 21
-81.65696407046953
 31
0.0
  0
LINE
  5
16AED
330
109CB
100
AcDbEntity
  8
2
370
    -2
100
AcDbLine
 10
35.31252644634974
 20
-56.55382730826908
 30
0.0
 11
49.80746467451968
 21
-81.65696407046945
 31
0.0
  0
ARC
  5
16AEE
330
109CB
100
AcDbEntity
  8
2
370
    -2
100
AcDbCircle
 10
34.99999999999998
 20
-56.01257670057243
 30
0.0
 40
27.61242329942759
100
AcDbArc
 50
247.2645712895198
 51
292.7354287104804
  0
SOLID
  5
16AEF
330
109CB
100
AcDbEntity
  8
2
100
AcDbTrace
 10
24.06936073204036
 20
-82.00213334473017
 30
0.0
 11
24.58753838258624
 21
-80.95685681022562
 31
0.0
 12
21.19261995379963
 22
-79.92496212584024
 32
0.0
 13
21.19261995379963
 23
-79.92496212584024
 33
0.0
  0
SOLID
  5
16AF0
330
109CB
100
AcDbEntity
  8
2
100
AcDbTrace
 10
45.41246161741384
 20
-80.95685681022557
 30
0.0
 11
45.93063926795974
 21
-82.0021333447301
 31
0.0
 12
48.80738004620045
 22
-79.92496212584017
 32
0.0
 13
48.80738004620045
 23
-79.92496212584017
 33
0.0
  0
MTEXT
  5
16AF1
330
109CB
100
AcDbEntity
  8
2
100
AcDbMText
 10
35.00000000000004
 20
-81.25000000000001
 30
0.0
 40
3.5
 41
0.0
 71
     5
 72
     1
  1
60°
 73
     1
 44
1.0
  0
POINT
  5
16AF2
330
109CB
100
AcDbEntity
  8
DEFPOINTS
 62
     0
100
AcDbPoint
 10
30.20471012365486
 20
-83.2054271482286
 30
0.0
  0
POINT
  5
16AF3
330
109CB
100
AcDbEntity
  8
DEFPOINTS
 62
     0
100
AcDbPoint
 10
37.11127599999997
 20
-52.35615200000005
 30
0.0
  0
POINT
  5
16AF4
330
109CB
100
AcDbEntity
  8
DEFPOINTS
 62
     0
100
AcDbPoint
 10
32.88872399999998
 20
-52.35615200000005
 30
0.0
  0
POINT
  5
16AF5
330
109CB
100
AcDbEntity
  8
DEFPOINTS
 62
     0
100
AcDbPoint
 10
34.78242100044769
 20
-55.63576133948803
 30
0.0
  0
POINT
  5
16AF6
330
109CB
100
AcDbEntity
  8
DEFPOINTS
 62
     0
100
AcDbPoint
 10
35.21757899955228
 20
-55.63576133948803
 30
0.0
  0
ENDBLK
  5
109D8
330
109CB
100
AcDbEntity
  8
0
100
AcDbBlockEnd
  0
ENDSEC
  0
SECTION
  2
ENTITIES
  0
DIMENSION
  5
50B
330
1E
100
AcDbEntity
  8
SK2
100
AcDbDimension
  2
*D3
 10
-55.37500000000002
 20
-50.5
 30
0.0
 11
-55.37500000000001
 21
0.0000000000000068
 31
0.0
 70
   160
  1
%%c<>
 71
     5
 42
101.0
  3
ISO-25
100
AcDbAlignedDimension
 13
3.000000000000006
 23
50.5
 33
0.0
 14
2.999999999999991
 24
-50.50000000000003
 34
0.0
 50
270.0
100
AcDbRotatedDimension
  0
DIMENSION
  5
50C
330
1E
100
AcDbEntity
  8
2
100
AcDbDimension
  2
*D2
 10
38.09999999999996
 20
68.375
 30
0.0
 11
19.04999999999996
 21
68.375
 31
0.0
 70
   160
 71
     5
 42
38.09999999999996
  3
ISO-25
100
AcDbAlignedDimension
 13
-0.0000000000000063
 23
-51.7969728313
 33
0.0
 14
38.09999999999995
 24
-51.4272964981
 34
0.0
100
AcDbRotatedDimension
  0
DIMENSION
  5
50D
330
1E
100
AcDbEntity
  8
2
100
AcDbDimension
  2
*D1
 10
34.99999999999999
 20
-73.62500000000003
 30
0.0
 11
17.49999999999999
 21
-73.62500000000003
 31
0.0
 70
   160
 71
     5
 42
35.0
  3
ISO-25
100
AcDbAlignedDimension
 13
-0.0000000000000054
 23
-44.08244368619998
 33
0.0
 14
34.99999999999999
 24
-56.50000000000003
 34
0.0
100
AcDbRotatedDimension
  0
DIMENSION
  5
50E
330
1E
100
AcDbEntity
  8
2
100
AcDbDimension
  2
*D0
 10
58.39850269189998
 20
-56.00000000000004
 30
0.0
 11
58.3985026919
 21
-0.0000000000000072
 31
0.0
 70
   160
  1
%%c<>
 71
     5
 42
112.0
  3
ISO-25
100
AcDbAlignedDimension
 13
35.5
 23
55.99999999999999
 33
0.0
 14
35.49999999999999
 24
-56.00000000000004
 34
0.0
 50
270.0
100
AcDbRotatedDimension
  0
LINE
  5
50F
330
1E
100
AcDbEntity
  8
1
100
AcDbLine
 10
38.01626042649997
 20
-51.00130224670003
 30
0.0
 11
37.8244954731
 21
-51.17015729400002
 31
0.0
  0
LINE
  5
511
330
1E
100
AcDbEntity
  8
1
100
AcDbLine
 10
38.0162604265
 20
49.61276684939999
 30
0.0
 11
38.17499999999999
 21
49.38503017089999
 31
0.0
  0
LINE
  5
512
330
1E
100
AcDbEntity
  8
1
100
AcDbLine
 10
37.11127643549999
 20
-52.31106060340003
 30
0.0
 11
35.2175740327
 21
-55.59980653469996
 31
0.0
  0
LINE
  5
516
330
1E
100
AcDbEntity
  8
1
100
AcDbLine
 10
35.09999999999998
 20
-55.79299169999998
 30
0.0
 11
35.2175740327
 21
-55.59980653469996
 31
0.0
  0
LINE
  5
517
330
1E
100
AcDbEntity
  8
1
100
AcDbLine
 10
38.01626042649997
 20
-51.00130224670003
 30
0.0
 11
38.17499999999999
 21
-50.74047823619999
 31
0.0
  0
LINE
  5
518
330
1E
100
AcDbEntity
  8
1
100
AcDbLine
 10
35.09999999999998
 20
-52.50598982720002
 30
0.0
 11
35.2175740327
 21
-52.3128046619
 31
0.0
  0
LINE
  5
519
330
1E
100
AcDbEntity
  8
1
100
AcDbLine
 10
38.09999999999995
 20
-47.57670839910001
 30
0.0
 11
38.17499999999999
 21
-47.45347636340002
 31
0.0
  0
LINE
  5
51A
330
1E
100
AcDbEntity
  8
1
100
AcDbLine
 10
35.2175740327
 20
-52.3128046619
 30
0.0
 11
37.03085659919999
 21
-49.5031007414
 31
0.0
  0
LINE
  5
51B
330
1E
100
AcDbEntity
  8
1
100
AcDbLine
 10
37.11127643549999
 20
-45.51352051550001
 30
0.0
 11
35.2175740327
 21
-48.21120054510002
 31
0.0
  0
LINE
  5
51C
330
1E
100
AcDbEntity
  8
1
100
AcDbLine
 10
35.09999999999998
 20
-48.34760021710001
 30
0.0
 11
35.2175740327
 21
-48.21120054510002
 31
0.0
  0
LINE
  5
51D
330
1E
100
AcDbEntity
  8
1
100
AcDbLine
 10
38.01626042649997
 20
-44.96439597910002
 30
0.0
 11
38.17499999999999
 21
-44.78023945009996
 31
0.0
  0
LINE
  5
51F
330
1E
100
AcDbEntity
  8
1
100
AcDbLine
 10
37.82449547310001
 20
48.71471013309998
 30
0.0
 11
38.0162604265
 21
48.39345014440002
 31
0.0
  0
LINE
  5
520
330
1E
100
AcDbEntity
  8
1
100
AcDbLine
 10
38.0162604265
 20
48.39345014440002
 30
0.0
 11
38.17499999999999
 21
48.12343554069996
 31
0.0
  0
LINE
  5
521
330
1E
100
AcDbEntity
  8
1
100
AcDbLine
 10
35.09999999999998
 20
53.2431562094
 30
0.0
 11
37.1112764355
 21
49.82796798939999
 31
0.0
  0
LINE
  5
522
330
1E
100
AcDbEntity
  8
1
100
AcDbLine
 10
38.0162604265
 20
48.28262314359999
 30
0.0
 11
38.17499999999999
 21
48.0126085399
 31
0.0
  0
LINE
  5
523
330
1E
100
AcDbEntity
  8
1
100
AcDbLine
 10
35.09999999999998
 20
53.35398321020001
 30
0.0
 11
37.1112764355
 21
49.92684474869997
 31
0.0
  0
LINE
  5
524
330
1E
100
AcDbEntity
  8
1
100
AcDbLine
 10
38.0162604265
 20
48.28262314359999
 30
0.0
 11
37.82449547310001
 21
48.61374411739998
 31
0.0
  0
LINE
  5
525
330
1E
100
AcDbEntity
  8
1
100
AcDbLine
 10
35.09999999999998
 20
-39.05940820649997
 30
0.0
 11
35.2175740327
 21
-38.92300853450004
 31
0.0
  0
LINE
  5
526
330
1E
100
AcDbEntity
  8
1
100
AcDbLine
 10
38.09999999999995
 20
-35.57905623870003
 30
0.0
 11
38.17499999999999
 21
-35.49204743949999
 31
0.0
  0
LINE
  5
527
330
1E
100
AcDbEntity
  8
1
100
AcDbLine
 10
31.98373957349998
 20
-44.96439597910002
 30
0.0
 11
32.17550452689998
 21
-44.77365098200002
 31
0.0
  0
LINE
  5
528
330
1E
100
AcDbEntity
  8
1
100
AcDbLine
 10
35.2175740327
 20
-38.92300853450004
 30
0.0
 11
37.11127643549999
 21
-37.2268546412
 31
0.0
  0
LINE
  5
52B
330
1E
100
AcDbEntity
  8
1
100
AcDbLine
 10
34.9
 20
53.35398321020001
 30
0.0
 11
35.09999999999998
 21
53.35398321020001
 31
0.0
  0
LINE
  5
52C
330
1E
100
AcDbEntity
  8
1
100
AcDbLine
 10
34.9
 20
53.2431562094
 30
0.0
 11
35.09999999999998
 21
53.2431562094
 31
0.0
  0
LINE
  5
52D
330
1E
100
AcDbEntity
  8
1
100
AcDbLine
 10
34.7824259673
 20
53.04316382479999
 30
0.0
 11
35.2175740327
 21
53.04316382479999
 31
0.0
  0
LINE
  5
52E
330
1E
100
AcDbEntity
  8
1
100
AcDbLine
 10
35.09999999999998
 20
42.23481934519995
 30
0.0
 11
35.2175740327
 21
42.06901183069997
 31
0.0
  0
LINE
  5
52F
330
1E
100
AcDbEntity
  8
1
100
AcDbLine
 10
38.0162604265
 20
38.12219445760002
 30
0.0
 11
38.17499999999999
 21
37.89833368209996
 31
0.0
  0
LINE
  5
530
330
1E
100
AcDbEntity
  8
1
100
AcDbLine
 10
35.2175740327
 20
42.06901183069997
 30
0.0
 11
37.1112764355
 21
39.01555504499996
 31
0.0
  0
LINE
  5
531
330
1E
100
AcDbEntity
  8
1
100
AcDbLine
 10
38.09999999999996
 20
-27.22299102159999
 30
0.0
 11
38.17499999999999
 21
-27.1435711077
 31
0.0
  0
LINE
  5
54E
330
1E
100
AcDbEntity
  8
1
100
AcDbLine
 10
33.2250533898
 20
50.49999999999999
 30
0.0
 11
3.000000000000006
 21
50.5
 31
0.0
  0
LINE
  5
54F
330
1E
100
AcDbEntity
  8
1
100
AcDbLine
 10
33.12905117749998
 20
50.3363981783
 30
0.0
 11
32.53210678120001
 21
50.3363981783
 31
0.0
  0
LINE
  5
550
330
1E
100
AcDbEntity
  8
1
100
AcDbLine
 10
37.1112764355
 20
49.82796798939999
 30
0.0
 11
32.88872356440001
 21
49.82796798939999
 31
0.0
  0
LINE
  5
551
330
1E
100
AcDbEntity
  8
1
100
AcDbLine
 10
37.93125117830001
 20
49.61276684939999
 30
0.0
 11
38.0162604265
 21
49.61276684939999
 31
0.0
  0
LINE
  5
552
330
1E
100
AcDbEntity
  8
1
100
AcDbLine
 10
31.98373957349998
 20
48.28262314359999
 30
0.0
 11
38.0162604265
 21
48.28262314359999
 31
0.0
  0
LINE
  5
553
330
1E
100
AcDbEntity
  8
1
100
AcDbLine
 10
36.5
 20
47.64522627699999
 30
0.0
 11
32.53210678120001
 21
47.64522627699999
 31
0.0
  0
LINE
  5
56E
330
1E
100
AcDbEntity
  8
1
100
AcDbLine
 10
37.1112764355
 20
32.67957186729998
 30
0.0
 11
35.2175740327
 21
34.96726195659999
 31
0.0
  0
LINE
  5
56F
330
1E
100
AcDbEntity
  8
1
100
AcDbLine
 10
35.09999999999998
 20
35.13306947109998
 30
0.0
 11
35.2175740327
 21
34.96726195659999
 31
0.0
  0
LINE
  5
570
330
1E
100
AcDbEntity
  8
1
100
AcDbLine
 10
38.0162604265
 20
31.02044458350002
 30
0.0
 11
38.17499999999999
 21
30.79658380799997
 31
0.0
  0
LINE
  5
571
330
1E
100
AcDbEntity
  8
1
100
AcDbLine
 10
38.0162604265
 20
31.02044458350002
 30
0.0
 11
37.82449547310001
 21
31.60682303609998
 31
0.0
  0
LINE
  5
572
330
1E
100
AcDbEntity
  8
1
100
AcDbLine
 10
37.1112764355
 20
-25.28528447099998
 30
0.0
 11
35.2175740327
 21
-26.59846852209998
 31
0.0
  0
LINE
  5
573
330
1E
100
AcDbEntity
  8
1
100
AcDbLine
 10
34.9
 20
42.23481934519995
 30
0.0
 11
35.09999999999998
 21
42.23481934519995
 31
0.0
  0
LINE
  5
587
330
1E
100
AcDbEntity
  8
1
100
AcDbLine
 10
32.1916463728
 20
38.07464423379999
 30
0.0
 11
32.17550452690001
 21
38.07668492919999
 31
0.0
  0
LINE
  5
588
330
1E
100
AcDbEntity
  8
1
100
AcDbLine
 10
32.17550452690001
 20
38.07668492919999
 30
0.0
 11
31.98373957349998
 21
38.12219445760002
 31
0.0
  0
LINE
  5
589
330
1E
100
AcDbEntity
  8
1
100
AcDbLine
 10
38.17499999999999
 20
-27.1435711077
 30
0.0
 11
38.17499999999999
 21
-25.59549891600001
 31
0.0
  0
LINE
  5
58A
330
1E
100
AcDbEntity
  8
1
100
AcDbLine
 10
38.17499999999999
 20
-1.431372357300009
 30
0.0
 11
38.17499999999999
 21
-1.058082759400011
 31
0.0
  0
LINE
  5
58B
330
1E
100
AcDbEntity
  8
1
100
AcDbLine
 10
38.17499999999999
 20
20.30399957449998
 30
0.0
 11
38.17499999999999
 21
23.67638937709998
 31
0.0
  0
LINE
  5
58C
330
1E
100
AcDbEntity
  8
1
100
AcDbLine
 10
38.17499999999999
 20
37.89833368209996
 30
0.0
 11
38.17499999999999
 21
39.42442924449996
 31
0.0
  0
LINE
  5
58D
330
1E
100
AcDbEntity
  8
1
100
AcDbLine
 10
38.17499999999999
 20
49.38503017089999
 30
0.0
 11
38.17499999999999
 21
48.12343554069996
 31
0.0
  0
LINE
  5
58E
330
1E
100
AcDbEntity
  8
1
100
AcDbLine
 10
38.17499999999999
 20
48.12343554069996
 30
0.0
 11
38.17499999999999
 21
39.42442924449996
 31
0.0
  0
LINE
  5
58F
330
1E
100
AcDbEntity
  8
1
100
AcDbLine
 10
38.17499999999999
 20
37.89833368209996
 30
0.0
 11
38.17499999999999
 21
23.67638937709998
 31
0.0
  0
LINE
  5
590
330
1E
100
AcDbEntity
  8
1
100
AcDbLine
 10
38.17499999999999
 20
13.8762340565
 30
0.0
 11
38.17499999999999
 21
-1.058082759400011
 31
0.0
  0
LINE
  5
591
330
1E
100
AcDbEntity
  8
1
100
AcDbLine
 10
38.17499999999999
 20
-11.43818240269999
 30
0.0
 11
38.17499999999999
 21
-25.59549891600001
 31
0.0
  0
LINE
  5
592
330
1E
100
AcDbEntity
  8
1
100
AcDbLine
 10
38.17499999999999
 20
-29.63470021430001
 30
0.0
 11
38.17499999999999
 21
-44.78023945009996
 31
0.0
  0
LINE
  5
593
330
1E
100
AcDbEntity
  8
1
100
AcDbLine
 10
38.17499999999999
 20
-44.78023945009996
 30
0.0
 11
38.17499999999999
 21
-50.74047823619999
 31
0.0
  0
LINE
  5
594
330
1E
100
AcDbEntity
  8
1
100
AcDbLine
 10
38.09999999999995
 20
-48.0415120649
 30
0.0
 11
38.09999999999995
 21
-44.86724824929999
 31
0.0
  0
LINE
  5
595
330
1E
100
AcDbEntity
  8
1
100
AcDbLine
 10
38.09999999999995
 20
-35.90723396130003
 30
0.0
 11
38.09999999999996
 21
-25.62093411579999
 31
0.0
  0
LINE
  5
596
330
1E
100
AcDbEntity
  8
1
100
AcDbLine
 10
38.09999999999996
 20
-13.27182624989998
 30
0.0
 11
38.09999999999996
 21
1.281028687400001
 31
0.0
  0
LINE
  5
597
330
1E
100
AcDbEntity
  8
1
100
AcDbLine
 10
38.09999999999996
 20
38.00410162509999
 30
0.0
 11
38.09999999999996
 21
45.95130304440004
 31
0.0
  0
LINE
  5
598
330
1E
100
AcDbEntity
  8
1
100
AcDbLine
 10
38.09999999999996
 20
48.73219171530003
 30
0.0
 11
38.09999999999996
 21
48.25100987409999
 31
0.0
  0
LINE
  5
599
330
1E
100
AcDbEntity
  8
1
100
AcDbLine
 10
38.09999999999996
 20
29.08761903159998
 30
0.0
 11
38.09999999999996
 21
13.92195434959997
 31
0.0
  0
LINE
  5
59A
330
1E
100
AcDbEntity
  8
1
100
AcDbLine
 10
37.8244954731
 20
-13.82298132790001
 30
0.0
 11
37.95420288199997
 21
-13.4045059168
 31
0.0
  0
LINE
  5
59B
330
1E
100
AcDbEntity
  8
1
100
AcDbLine
 10
31.98373957349998
 20
-25.64933321969997
 30
0.0
 11
32.1755045269
 21
-25.16071016030001
 31
0.0
  0
LINE
  5
59C
330
1E
100
AcDbEntity
  8
1
100
AcDbLine
 10
35.09999999999998
 20
-26.63834210899997
 30
0.0
 11
35.2175740327
 21
-26.59846852209998
 31
0.0
  0
LINE
  5
59D
330
1E
100
AcDbEntity
  8
1
100
AcDbLine
 10
38.01626042649999
 20
-25.64933321969997
 30
0.0
 11
38.17499999999999
 21
-25.59549891600001
 31
0.0
  0
LINE
  5
5B1
330
1E
100
AcDbEntity
  8
1
100
AcDbLine
 10
33.33369111530001
 20
39.73303271499996
 30
0.0
 11
32.53210678120001
 21
39.73303271499996
 31
0.0
  0
LINE
  5
5B3
330
1E
100
AcDbEntity
  8
1
100
AcDbLine
 10
38.0162604265
 20
38.12219445760002
 30
0.0
 11
37.69982312620001
 21
38.12219445760002
 31
0.0
  0
LINE
  5
5B4
330
1E
100
AcDbEntity
  8
1
100
AcDbLine
 10
32.30017687369999
 20
38.12219445760002
 30
0.0
 11
31.98373957349998
 21
38.12219445760002
 31
0.0
  0
LINE
  5
5BE
330
1E
100
AcDbEntity
  8
1
100
AcDbLine
 10
38.01626042649999
 20
2.116530904400003
 30
0.0
 11
37.8244954731
 21
2.760904510599991
 31
0.0
  0
LINE
  5
5BF
330
1E
100
AcDbEntity
  8
1
100
AcDbLine
 10
35.09999999999998
 20
53.35398321020001
 30
0.0
 11
35.09999999999998
 21
53.2431562094
 31
0.0
  0
LINE
  5
5C0
330
1E
100
AcDbEntity
  8
1
100
AcDbLine
 10
35.09999999999998
 20
42.23481934519995
 30
0.0
 11
35.09999999999998
 21
35.13306947109998
 31
0.0
  0
LINE
  5
5C1
330
1E
100
AcDbEntity
  8
1
100
AcDbLine
 10
35.09999999999998
 20
15.75076607619996
 30
0.0
 11
35.09999999999998
 21
3.894294659699988
 31
0.0
  0
LINE
  5
5C2
330
1E
100
AcDbEntity
  8
1
100
AcDbLine
 10
35.09999999999998
 20
-14.19329836030001
 30
0.0
 11
35.09999999999998
 21
-26.63834210899997
 31
0.0
  0
LINE
  5
5C3
330
1E
100
AcDbEntity
  8
1
100
AcDbLine
 10
35.09999999999998
 20
-39.05940820649997
 30
0.0
 11
35.09999999999998
 21
-48.34760021710001
 31
0.0
  0
LINE
  5
5C4
330
1E
100
AcDbEntity
  8
1
100
AcDbLine
 10
35.09999999999998
 20
-52.50598982720002
 30
0.0
 11
35.09999999999998
 21
-55.79299169999998
 31
0.0
  0
LINE
  5
5C5
330
1E
100
AcDbEntity
  8
1
100
AcDbLine
 10
34.9
 20
53.35398321020001
 30
0.0
 11
34.9
 21
53.2431562094
 31
0.0
  0
LINE
  5
5C6
330
1E
100
AcDbEntity
  8
1
100
AcDbLine
 10
34.9
 20
42.23481934519995
 30
0.0
 11
34.9
 21
35.13306947109998
 31
0.0
  0
LINE
  5
5C7
330
1E
100
AcDbEntity
  8
1
100
AcDbLine
 10
34.89999999999999
 20
15.75076607619996
 30
0.0
 11
34.89999999999999
 21
3.894294659699988
 31
0.0
  0
LINE
  5
5C8
330
1E
100
AcDbEntity
  8
1
100
AcDbLine
 10
34.89999999999999
 20
-14.19329836030001
 30
0.0
 11
34.89999999999999
 21
-26.63834210899997
 31
0.0
  0
LINE
  5
5C9
330
1E
100
AcDbEntity
  8
1
100
AcDbLine
 10
34.89999999999998
 20
-39.05940820649997
 30
0.0
 11
34.89999999999998
 21
-48.34760021710001
 31
0.0
  0
LINE
  5
5CA
330
1E
100
AcDbEntity
  8
1
100
AcDbLine
 10
34.89999999999998
 20
-52.50598982720002
 30
0.0
 11
34.89999999999998
 21
-55.79299169999998
 31
0.0
  0
LINE
  5
5CB
330
1E
100
AcDbEntity
  8
1
100
AcDbLine
 10
32.5321067812
 20
13.97300232099998
 30
0.0
 11
32.5321067812
 21
14.6693191376
 31
0.0
  0
LINE
  5
5CC
330
1E
100
AcDbEntity
  8
1
100
AcDbLine
 10
32.53210678120001
 20
38.37138983899997
 30
0.0
 11
32.53210678120001
 21
39.73303271499996
 31
0.0
  0
LINE
  5
5CD
330
1E
100
AcDbEntity
  8
1
100
AcDbLine
 10
32.53210678120001
 20
49.31803847689998
 30
0.0
 11
32.53210678120001
 21
50.3363981783
 31
0.0
  0
LINE
  5
5CE
330
1E
100
AcDbEntity
  8
1
100
AcDbLine
 10
31.82499999999999
 20
2.632706518500009
 30
0.0
 11
31.82499999999999
 21
13.98916532909999
 31
0.0
  0
LINE
  5
5CF
330
1E
100
AcDbEntity
  8
1
100
AcDbLine
 10
31.825
 20
31.43402859400001
 30
0.0
 11
31.825
 21
39.29132671179999
 31
0.0
  0
LINE
  5
5D0
330
1E
100
AcDbEntity
  8
1
100
AcDbLine
 10
31.825
 20
47.51004133579998
 30
0.0
 11
31.825
 21
48.0126085399
 31
0.0
  0
LINE
  5
5D1
330
1E
100
AcDbEntity
  8
1
100
AcDbLine
 10
31.825
 20
48.0126085399
 30
0.0
 11
31.825
 21
50.27438554940001
 31
0.0
  0
LINE
  5
5D2
330
1E
100
AcDbEntity
  8
1
100
AcDbLine
 10
31.825
 20
31.43402859400001
 30
0.0
 11
31.825
 21
30.16957112889997
 31
0.0
  0
LINE
  5
5D3
330
1E
100
AcDbEntity
  8
1
100
AcDbLine
 10
31.82499999999999
 20
3.083985686199971
 30
0.0
 11
31.82499999999999
 21
1.485058654099979
 31
0.0
  0
LINE
  5
5D4
330
1E
100
AcDbEntity
  8
1
100
AcDbLine
 10
31.82499999999999
 20
-13.22281446460002
 30
0.0
 11
31.82499999999999
 21
-13.84336657099999
 31
0.0
  0
LINE
  5
5D5
330
1E
100
AcDbEntity
  8
1
100
AcDbLine
 10
31.82499999999999
 20
-13.84336657099999
 30
0.0
 11
31.82499999999999
 21
-24.87633069260003
 31
0.0
  0
LINE
  5
5D6
330
1E
100
AcDbEntity
  8
1
100
AcDbLine
 10
31.82499999999999
 20
-24.4784463036
 30
0.0
 11
31.82499999999999
 21
-25.59549891600001
 31
0.0
  0
LINE
  5
5D7
330
1E
100
AcDbEntity
  8
1
100
AcDbLine
 10
31.82499999999999
 20
-36.739915324
 30
0.0
 11
31.82499999999999
 21
-43.94654216790002
 31
0.0
  0
LINE
  5
5D8
330
1E
100
AcDbEntity
  8
1
100
AcDbLine
 10
31.82499999999999
 20
-43.94654216790002
 30
0.0
 11
31.82499999999999
 21
-44.78023945009996
 31
0.0
  0
LINE
  5
5D9
330
1E
100
AcDbEntity
  8
1
100
AcDbLine
 10
31.82499999999999
 20
-49.51743468940001
 30
0.0
 11
31.82499999999999
 21
-50.50000000000004
 31
0.0
  0
LINE
  5
5DA
330
1E
100
AcDbEntity
  8
1
100
AcDbLine
 10
31.82499999999999
 20
-50.50000000000004
 30
0.0
 11
31.82499999999999
 21
-50.74047823619999
 31
0.0
  0
LINE
  5
5DD
330
1E
100
AcDbEntity
  8
1
100
AcDbLine
 10
37.80835362709999
 20
38.07464423379999
 30
0.0
 11
37.82449547310001
 21
38.07668492919999
 31
0.0
  0
LINE
  5
5DE
330
1E
100
AcDbEntity
  8
1
100
AcDbLine
 10
34.9
 20
35.13306947109998
 30
0.0
 11
35.09999999999998
 21
35.13306947109998
 31
0.0
  0
LINE
  5
5DF
330
1E
100
AcDbEntity
  8
1
100
AcDbLine
 10
34.7824259673
 20
34.96726195659999
 30
0.0
 11
35.2175740327
 21
34.96726195659999
 31
0.0
  0
LINE
  5
5E0
330
1E
100
AcDbEntity
  8
1
100
AcDbLine
 10
37.1112764355
 20
32.67957186729998
 30
0.0
 11
32.88872356440001
 21
32.67957186729998
 31
0.0
  0
LINE
  5
5E1
330
1E
100
AcDbEntity
  8
1
100
AcDbLine
 10
35.09999999999998
 20
15.75076607619996
 30
0.0
 11
35.2175740327
 21
15.67909248629998
 31
0.0
  0
LINE
  5
5E2
330
1E
100
AcDbEntity
  8
1
100
AcDbLine
 10
38.01626042649999
 20
13.97300232099998
 30
0.0
 11
38.17499999999999
 21
13.8762340565
 31
0.0
  0
LINE
  5
5E3
330
1E
100
AcDbEntity
  8
1
100
AcDbLine
 10
35.2175740327
 20
15.67909248629998
 30
0.0
 11
37.1112764355
 21
13.88545495799994
 31
0.0
  0
LINE
  5
5E6
330
1E
100
AcDbEntity
  8
1
100
AcDbLine
 10
32.1755045269
 20
13.56243004519998
 30
0.0
 11
31.98373957349998
 21
13.97300232099998
 31
0.0
  0
LINE
  5
5E7
330
1E
100
AcDbEntity
  8
1
100
AcDbLine
 10
31.98373957349998
 20
2.116530904400004
 30
0.0
 11
32.1755045269
 21
2.760904510599992
 31
0.0
  0
LINE
  5
5E8
330
1E
100
AcDbEntity
  8
1
100
AcDbLine
 10
37.8244954731
 20
13.56243004519998
 30
0.0
 11
38.01626042649999
 21
13.97300232099998
 31
0.0
  0
LINE
  5
5F2
330
1E
100
AcDbEntity
  8
1
100
AcDbLine
 10
37.82449547310001
 20
38.07668492919999
 30
0.0
 11
38.0162604265
 21
38.12219445760002
 31
0.0
  0
LINE
  5
5F3
330
1E
100
AcDbEntity
  8
1
100
AcDbLine
 10
31.98373957349998
 20
31.02044458350002
 30
0.0
 11
38.0162604265
 21
31.02044458350002
 31
0.0
  0
LINE
  5
5F4
330
1E
100
AcDbEntity
  8
1
100
AcDbLine
 10
36.5
 20
30.49199851089996
 30
0.0
 11
32.53210678120001
 21
30.49199851089996
 31
0.0
  0
LINE
  5
5F5
330
1E
100
AcDbEntity
  8
1
100
AcDbLine
 10
32.1755045269
 20
-13.82298132790001
 30
0.0
 11
31.98758287339998
 21
-13.21668912119998
 31
0.0
  0
LINE
  5
5F6
330
1E
100
AcDbEntity
  8
1
100
AcDbLine
 10
35.09999999999998
 20
-14.19329836030001
 30
0.0
 11
35.2175740327
 21
-14.1534247735
 31
0.0
  0
LINE
  5
5F7
330
1E
100
AcDbEntity
  8
1
100
AcDbLine
 10
38.09999999999996
 20
-13.17589036719996
 30
0.0
 11
38.17499999999999
 21
-13.15045516730001
 31
0.0
  0
LINE
  5
5F8
330
1E
100
AcDbEntity
  8
SK1
100
AcDbLine
 10
-35.0
 20
23.0
 30
0.0
 11
-40.21033130990001
 21
22.39999999999996
 31
0.0
  0
LINE
  5
5F9
330
1E
100
AcDbEntity
  8
SK1
100
AcDbLine
 10
-2.499999999999996
 20
23.0
 30
0.0
 11
-9.499999999999996
 21
23.0
 31
0.0
  0
LINE
  5
5FA
330
1E
100
AcDbEntity
  8
SK1
100
AcDbLine
 10
-30.5
 20
23.0
 30
0.0
 11
-35.0
 21
23.0
 31
0.0
  0
LINE
  5
5FB
330
1E
100
AcDbEntity
  8
SK1
100
AcDbLine
 10
-0.400000000000003
 20
22.69999999999999
 30
0.0
 11
-1.301393259200008
 21
22.69999999999999
 31
0.0
  0
LINE
  5
5FC
330
1E
100
AcDbEntity
  8
1
100
AcDbLine
 10
38.01626042649999
 20
-25.64933321969997
 30
0.0
 11
37.8244954731
 21
-25.16071016030001
 31
0.0
  0
LINE
  5
5FD
330
1E
100
AcDbEntity
  8
1
100
AcDbLine
 10
31.98373957349998
 20
31.02044458350002
 30
0.0
 11
32.17550452690001
 21
31.60682303609998
 31
0.0
  0
LINE
  5
600
330
1E
100
AcDbEntity
  8
1
100
AcDbLine
 10
38.17499999999999
 20
23.67638937709998
 30
0.0
 11
38.09999999999996
 21
23.57062143409998
 31
0.0
  0
LINE
  5
601
330
1E
100
AcDbEntity
  8
1
100
AcDbLine
 10
38.17499999999999
 20
-1.058082759400011
 30
0.0
 11
38.09999999999996
 21
-1.103803052500014
 31
0.0
  0
LINE
  5
61F
330
1E
100
AcDbEntity
  8
SK1
100
AcDbLine
 10
-1.45668468629999
 20
22.7204445042
 30
0.0
 11
-1.301393259200008
 21
22.69999999999999
 31
0.0
  0
LINE
  5
620
330
1E
100
AcDbEntity
  8
SK1
100
AcDbLine
 10
-1.45668468629999
 20
22.7204445042
 30
0.0
 11
-2.499999999999996
 21
23.0
 31
0.0
  0
LINE
  5
621
330
1E
100
AcDbEntity
  8
1
100
AcDbLine
 10
35.09999999999998
 20
3.894294659699988
 30
0.0
 11
35.2175740327
 21
3.822621069799988
 31
0.0
  0
LINE
  5
622
330
1E
100
AcDbEntity
  8
1
100
AcDbLine
 10
38.01626042649999
 20
2.116530904400003
 30
0.0
 11
38.17499999999999
 21
2.019762639899988
 31
0.0
  0
LINE
  5
62F
330
1E
100
AcDbEntity
  8
1
100
AcDbLine
 10
38.17499999999999
 20
39.42442924449996
 30
0.0
 11
38.09999999999996
 21
39.29685491109997
 31
0.0
  0
LINE
  5
631
330
1E
100
AcDbEntity
  8
1
100
AcDbLine
 10
31.82499999999999
 20
2.019762639899989
 30
0.0
 11
31.98373957349998
 21
2.116530904400004
 31
0.0
  0
LINE
  5
632
330
1E
100
AcDbEntity
  8
1
100
AcDbLine
 10
34.7824259673
 20
3.822621069799988
 30
0.0
 11
34.89999999999999
 21
3.894294659699988
 31
0.0
  0
LINE
  5
647
330
1E
100
AcDbEntity
  8
1
100
AcDbLine
 10
34.89999999999999
 20
15.75076607619996
 30
0.0
 11
35.09999999999998
 21
15.75076607619996
 31
0.0
  0
LINE
  5
649
330
1E
100
AcDbEntity
  8
1
100
AcDbLine
 10
36.49999999999999
 20
14.66931913759998
 30
0.0
 11
36.2836814187
 21
14.66931913759998
 31
0.0
  0
LINE
  5
64A
330
1E
100
AcDbEntity
  8
1
100
AcDbLine
 10
33.7163185812
 20
14.6693191376
 30
0.0
 11
32.5321067812
 21
14.6693191376
 31
0.0
  0
LINE
  5
64B
330
1E
100
AcDbEntity
  8
1
100
AcDbLine
 10
38.01626042649999
 20
13.97300232099998
 30
0.0
 11
37.0188449107
 21
13.97300232099998
 31
0.0
  0
LINE
  5
64C
330
1E
100
AcDbEntity
  8
1
100
AcDbLine
 10
32.98115508919998
 20
13.97300232099998
 30
0.0
 11
31.98373957349998
 21
13.97300232099998
 31
0.0
  0
LINE
  5
658
330
1E
100
AcDbEntity
  8
1
100
AcDbLine
 10
31.825
 20
30.79658380799997
 30
0.0
 11
31.98373957349998
 21
31.02044458350002
 31
0.0
  0
LINE
  5
659
330
1E
100
AcDbEntity
  8
1
100
AcDbLine
 10
34.7824259673
 20
34.96726195659999
 30
0.0
 11
34.9
 21
35.13306947109998
 31
0.0
  0
LINE
  5
65A
330
1E
100
AcDbEntity
  8
1
100
AcDbLine
 10
34.7824259673
 20
15.67909248629998
 30
0.0
 11
32.88872356440001
 21
13.88545495799996
 31
0.0
  0
LINE
  5
65B
330
1E
100
AcDbEntity
  8
1
100
AcDbLine
 10
37.1112764355
 20
3.307441824099975
 30
0.0
 11
35.2175740327
 21
3.822621069799988
 31
0.0
  0
LINE
  5
65C
330
1E
100
AcDbEntity
  8
1
100
AcDbLine
 10
38.17499999999999
 20
-29.63470021430001
 30
0.0
 11
38.09999999999995
 21
-29.54769141509999
 31
0.0
  0
LINE
  5
667
330
1E
100
AcDbEntity
  8
1
100
AcDbLine
 10
31.98373957349998
 20
48.28262314359999
 30
0.0
 11
32.17550452690001
 21
48.61374411739998
 31
0.0
  0
LINE
  5
668
330
1E
100
AcDbEntity
  8
1
100
AcDbLine
 10
34.7824259673
 20
53.15399082559999
 30
0.0
 11
32.88872356440001
 21
49.92684474869997
 31
0.0
  0
LINE
  5
669
330
1E
100
AcDbEntity
  8
1
100
AcDbLine
 10
31.825
 20
48.0126085399
 30
0.0
 11
31.98373957349998
 21
48.28262314359999
 31
0.0
  0
LINE
  5
66A
330
1E
100
AcDbEntity
  8
1
100
AcDbLine
 10
34.7824259673
 20
53.04316382479999
 30
0.0
 11
34.9
 21
53.2431562094
 31
0.0
  0
LINE
  5
66B
330
1E
100
AcDbEntity
  8
1
100
AcDbLine
 10
34.7824259673
 20
42.06901183069997
 30
0.0
 11
32.88872356440001
 21
39.01555504499996
 31
0.0
  0
LINE
  5
66C
330
1E
100
AcDbEntity
  8
1
100
AcDbLine
 10
31.825
 20
37.89833368209996
 30
0.0
 11
31.98373957349998
 21
38.12219445760002
 31
0.0
  0
LINE
  5
66D
330
1E
100
AcDbEntity
  8
1
100
AcDbLine
 10
34.7824259673
 20
42.06901183069997
 30
0.0
 11
34.9
 21
42.23481934519995
 31
0.0
  0
LINE
  5
66E
330
1E
100
AcDbEntity
  8
1
100
AcDbLine
 10
32.88872356440001
 20
32.67957186729998
 30
0.0
 11
34.7824259673
 21
34.96726195659999
 31
0.0
  0
LINE
  5
66F
330
1E
100
AcDbEntity
  8
1
100
AcDbLine
 10
38.17499999999999
 20
20.30399957449998
 30
0.0
 11
38.0986034569
 21
20.24805259569999
 31
0.0
  0
LINE
  5
670
330
1E
100
AcDbEntity
  8
1
100
AcDbLine
 10
31.82499999999999
 20
13.8762340565
 30
0.0
 11
31.98373957349998
 21
13.97300232099998
 31
0.0
  0
LINE
  5
671
330
1E
100
AcDbEntity
  8
1
100
AcDbLine
 10
34.7824259673
 20
15.67909248629998
 30
0.0
 11
34.89999999999999
 21
15.75076607619996
 31
0.0
  0
LINE
  5
673
330
1E
100
AcDbEntity
  8
1
100
AcDbLine
 10
0.0000000000000058
 20
47.5
 30
0.0
 11
-0.0000000000000058
 21
-47.50000000000002
 31
0.0
  0
LINE
  5
674
330
1E
100
AcDbEntity
  8
1
100
AcDbLine
 10
31.825
 20
48.12343554069996
 30
0.0
 11
31.98373957349998
 21
48.39345014440002
 31
0.0
  0
LINE
  5
675
330
1E
100
AcDbEntity
  8
1
100
AcDbLine
 10
34.7824259673
 20
53.15399082559999
 30
0.0
 11
34.9
 21
53.35398321020001
 31
0.0
  0
LINE
  5
676
330
1E
100
AcDbEntity
  8
1
100
AcDbLine
 10
32.88872356440001
 20
49.82796798939999
 30
0.0
 11
34.7824259673
 21
53.04316382479999
 31
0.0
  0
LINE
  5
677
330
1E
100
AcDbEntity
  8
1
100
AcDbLine
 10
32.17550452690001
 20
48.71471013309998
 30
0.0
 11
31.98373957349998
 21
48.39345014440002
 31
0.0
  0
LINE
  5
67C
330
1E
100
AcDbEntity
  8
SK1
100
AcDbLine
 10
-40.21033130990001
 20
-22.39999999999999
 30
0.0
 11
-41.10981235039999
 21
-22.85830848150002
 31
0.0
  0
LINE
  5
67D
330
1E
100
AcDbEntity
  8
1
100
AcDbLine
 10
34.89999999999999
 20
3.894294659699988
 30
0.0
 11
35.09999999999998
 21
3.894294659699988
 31
0.0
  0
LINE
  5
67E
330
1E
100
AcDbEntity
  8
1
100
AcDbLine
 10
34.7824259673
 20
3.822621069799988
 30
0.0
 11
35.2175740327
 21
3.822621069799988
 31
0.0
  0
LINE
  5
67F
330
1E
100
AcDbEntity
  8
1
100
AcDbLine
 10
37.1112764355
 20
3.307441824099975
 30
0.0
 11
32.88872356440001
 21
3.307441824099975
 31
0.0
  0
LINE
  5
680
330
1E
100
AcDbEntity
  8
1
100
AcDbLine
 10
31.98373957349998
 20
2.116530904400004
 30
0.0
 11
38.01626042649999
 21
2.116530904400003
 31
0.0
  0
LINE
  5
681
330
1E
100
AcDbEntity
  8
1
100
AcDbLine
 10
36.49999999999999
 20
1.888099598399969
 30
0.0
 11
32.5321067812
 21
1.888099598399969
 31
0.0
  0
LINE
  5
682
330
1E
100
AcDbEntity
  8
4
100
AcDbLine
 10
43.77350269189999
 20
-0.0000000000000054
 30
0.0
 11
0.0
 21
0.0
 31
0.0
  0
LINE
  5
683
330
1E
100
AcDbEntity
  8
1
100
AcDbLine
 10
38.17499999999999
 20
-11.43818240269999
 30
0.0
 11
38.09999999999996
 21
-11.41274720289999
 31
0.0
  0
LINE
  5
684
330
1E
100
AcDbEntity
  8
SK1
100
AcDbLine
 10
-40.21033130990001
 20
22.39999999999996
 30
0.0
 11
-41.10981235039999
 21
22.85830848139998
 31
0.0
  0
LINE
  5
685
330
1E
100
AcDbEntity
  8
1
100
AcDbLine
 10
34.78242596729999
 20
-38.92300853450004
 30
0.0
 11
34.89999999999998
 21
-39.05940820649997
 31
0.0
  0
LINE
  5
686
330
1E
100
AcDbEntity
  8
1
100
AcDbLine
 10
32.8887235644
 20
-45.51352051550001
 30
0.0
 11
34.78242596729999
 21
-48.21120054510002
 31
0.0
  0
LINE
  5
687
330
1E
100
AcDbEntity
  8
1
100
AcDbLine
 10
34.78242596729999
 20
-52.3128046619
 30
0.0
 11
33.02594499709998
 21
-49.59111552229998
 31
0.0
  0
LINE
  5
688
330
1E
100
AcDbEntity
  8
1
100
AcDbLine
 10
34.78242596729999
 20
-52.3128046619
 30
0.0
 11
34.89999999999998
 21
-52.50598982720002
 31
0.0
  0
LINE
  5
689
330
1E
100
AcDbEntity
  8
1
100
AcDbLine
 10
31.82499999999999
 20
-50.74047823619999
 30
0.0
 11
31.98373957349998
 21
-51.00130224670003
 31
0.0
  0
LINE
  5
68A
330
1E
100
AcDbEntity
  8
1
100
AcDbLine
 10
34.78242596729999
 20
-55.59980653469996
 30
0.0
 11
34.89999999999998
 21
-55.79299169999998
 31
0.0
  0
LINE
  5
68F
330
1E
100
AcDbEntity
  8
1
100
AcDbLine
 10
32.8887235644
 20
-52.31106060340003
 30
0.0
 11
34.78242596729999
 21
-55.59980653469996
 31
0.0
  0
LINE
  5
690
330
1E
100
AcDbEntity
  8
SK1
100
AcDbLine
 10
-2.499999999999996
 20
23.0
 30
0.0
 11
-2.500000000000002
 21
-23.00000000000002
 31
0.0
  0
LINE
  5
692
330
1E
100
AcDbEntity
  8
1
100
AcDbLine
 10
34.7824259673
 20
-14.1534247735
 30
0.0
 11
34.89999999999999
 21
-14.19329836030001
 31
0.0
  0
LINE
  5
693
330
1E
100
AcDbEntity
  8
1
100
AcDbLine
 10
32.88872356440001
 20
-25.28528447099998
 30
0.0
 11
34.7824259673
 21
-26.59846852209998
 31
0.0
  0
LINE
  5
694
330
1E
100
AcDbEntity
  8
1
100
AcDbLine
 10
34.78242596729999
 20
-38.92300853450004
 30
0.0
 11
32.8887235644
 21
-37.2268546412
 31
0.0
  0
LINE
  5
695
330
1E
100
AcDbEntity
  8
1
100
AcDbLine
 10
38.01626042649997
 20
-44.96439597910002
 30
0.0
 11
37.8244954731
 21
-44.77365098200002
 31
0.0
  0
LINE
  5
696
330
1E
100
AcDbEntity
  8
1
100
AcDbLine
 10
31.82499999999999
 20
-44.78023945009996
 30
0.0
 11
31.98373957349998
 21
-44.96439597910002
 31
0.0
  0
LINE
  5
697
330
1E
100
AcDbEntity
  8
1
100
AcDbLine
 10
34.78242596729999
 20
-48.21120054510002
 30
0.0
 11
34.89999999999998
 21
-48.34760021710001
 31
0.0
  0
LINE
  5
698
330
1E
100
AcDbEntity
  8
1
100
AcDbLine
 10
32.88872356440001
 20
3.307441824099975
 30
0.0
 11
34.7824259673
 21
3.822621069799988
 31
0.0
  0
LINE
  5
699
330
1E
100
AcDbEntity
  8
1
100
AcDbLine
 10
38.09999999999996
 20
-1.444708014100003
 30
0.0
 11
38.17499999999999
 21
-1.431372357300009
 31
0.0
  0
LINE
  5
6B7
330
1E
100
AcDbEntity
  8
1
100
AcDbLine
 10
36.49999999999999
 20
-13.59166575730003
 30
0.0
 11
32.5321067812
 21
-13.59166575730003
 31
0.0
  0
LINE
  5
6B8
330
1E
100
AcDbEntity
  8
1
100
AcDbLine
 10
35.2175740327
 20
-14.1534247735
 30
0.0
 11
34.7824259673
 21
-14.1534247735
 31
0.0
  0
LINE
  5
6B9
330
1E
100
AcDbEntity
  8
1
100
AcDbLine
 10
34.89999999999999
 20
-14.19329836030001
 30
0.0
 11
35.09999999999998
 21
-14.19329836030001
 31
0.0
  0
LINE
  5
6BA
330
1E
100
AcDbEntity
  8
1
100
AcDbLine
 10
35.2175740327
 20
-14.1534247735
 30
0.0
 11
37.1112764355
 21
-14.182163517
 31
0.0
  0
LINE
  5
6CE
330
1E
100
AcDbEntity
  8
1
100
AcDbLine
 10
31.82499999999999
 20
-25.59549891600001
 30
0.0
 11
31.98373957349998
 21
-25.64933321969997
 31
0.0
  0
LINE
  5
6CF
330
1E
100
AcDbEntity
  8
1
100
AcDbLine
 10
34.7824259673
 20
-26.59846852209998
 30
0.0
 11
34.89999999999999
 21
-26.63834210899997
 31
0.0
  0
LINE
  5
6D2
330
1E
100
AcDbEntity
  8
1
100
AcDbLine
 10
34.7824259673
 20
-14.1534247735
 30
0.0
 11
32.88872356440001
 21
-14.182163517
 31
0.0
  0
LINE
  5
6DF
330
1E
100
AcDbEntity
  8
1
100
AcDbLine
 10
31.98373957349998
 20
-51.00130224670003
 30
0.0
 11
32.17550452689998
 21
-51.17015729400002
 31
0.0
  0
LINE
  5
6E2
330
1E
100
AcDbEntity
  8
SK1
100
AcDbLine
 10
-1.456684686299995
 20
-22.7204445042
 30
0.0
 11
-2.500000000000002
 21
-23.00000000000002
 31
0.0
  0
LINE
  5
6E3
330
1E
100
AcDbEntity
  8
SK1
100
AcDbLine
 10
-1.456684686299995
 20
-22.7204445042
 30
0.0
 11
-1.301393259200013
 21
-22.7
 31
0.0
  0
LINE
  5
6E4
330
1E
100
AcDbEntity
  8
SK1
100
AcDbLine
 10
-0.4000000000000087
 20
-22.7
 30
0.0
 11
-1.301393259200013
 21
-22.7
 31
0.0
  0
LINE
  5
6E5
330
1E
100
AcDbEntity
  8
SK1
100
AcDbLine
 10
-2.500000000000002
 20
-23.00000000000002
 30
0.0
 11
-9.500000000000003
 21
-23.00000000000002
 31
0.0
  0
LINE
  5
6E6
330
1E
100
AcDbEntity
  8
SK1
100
AcDbLine
 10
-30.50000000000001
 20
-23.00000000000002
 30
0.0
 11
-35.0
 21
-23.00000000000002
 31
0.0
  0
LINE
  5
6E7
330
1E
100
AcDbEntity
  8
1
100
AcDbLine
 10
31.98373957349998
 20
-25.64933321969997
 30
0.0
 11
33.4137070879
 21
-25.64933321969997
 31
0.0
  0
LINE
  5
6E8
330
1E
100
AcDbEntity
  8
1
100
AcDbLine
 10
36.5862929121
 20
-25.64933321969997
 30
0.0
 11
38.01626042649999
 21
-25.64933321969997
 31
0.0
  0
LINE
  5
6E9
330
1E
100
AcDbEntity
  8
1
100
AcDbLine
 10
34.89999999999999
 20
-26.63834210899997
 30
0.0
 11
35.09999999999998
 21
-26.63834210899997
 31
0.0
  0
LINE
  5
6EA
330
1E
100
AcDbEntity
  8
SK1
100
AcDbLine
 10
-35.0
 20
-23.00000000000002
 30
0.0
 11
-40.21033130990001
 21
-22.39999999999999
 31
0.0
  0
LINE
  5
6EB
330
1E
100
AcDbEntity
  8
1
100
AcDbLine
 10
37.11127643549999
 20
-37.2268546412
 30
0.0
 11
37.14180171879996
 21
-37.23083128640001
 31
0.0
  0
LINE
  5
6EC
330
1E
100
AcDbEntity
  8
SK1
100
AcDbLine
 10
-35.0
 20
23.0
 30
0.0
 11
-35.0
 21
-23.00000000000002
 31
0.0
  0
LINE
  5
700
330
1E
100
AcDbEntity
  8
1
100
AcDbLine
 10
36.49999999999999
 20
-37.00134179850003
 30
0.0
 11
32.53210678119999
 21
-37.00134179850003
 31
0.0
  0
LINE
  5
701
330
1E
100
AcDbEntity
  8
1
100
AcDbLine
 10
37.11127643549999
 20
-37.2268546412
 30
0.0
 11
32.8887235644
 21
-37.2268546412
 31
0.0
  0
LINE
  5
715
330
1E
100
AcDbEntity
  8
SK1
100
AcDbLine
 10
-40.21033130990001
 20
22.39999999999996
 30
0.0
 11
-40.21033130990001
 21
-22.39999999999999
 31
0.0
  0
LINE
  5
716
330
1E
100
AcDbEntity
  8
SK1
100
AcDbLine
 10
-43.0
 20
21.69999999999999
 30
0.0
 11
-43.0
 21
-21.70000000000001
 31
0.0
  0
LINE
  5
717
330
1E
100
AcDbEntity
  8
1
100
AcDbLine
 10
32.8887235644
 20
-37.2268546412
 30
0.0
 11
32.85819828119998
 21
-37.23083128640001
 31
0.0
  0
LINE
  5
719
330
1E
100
AcDbEntity
  8
1
100
AcDbLine
 10
35.2175740327
 20
-38.92300853450004
 30
0.0
 11
34.78242596729999
 21
-38.92300853450004
 31
0.0
  0
LINE
  5
71A
330
1E
100
AcDbEntity
  8
1
100
AcDbLine
 10
34.89999999999998
 20
-39.05940820649997
 30
0.0
 11
35.09999999999998
 21
-39.05940820649997
 31
0.0
  0
LINE
  5
724
330
1E
100
AcDbEntity
  8
1
100
AcDbLine
 10
31.98373957349998
 20
-44.96439597910002
 30
0.0
 11
32.57524930989998
 21
-44.96439597910002
 31
0.0
  0
LINE
  5
725
330
1E
100
AcDbEntity
  8
1
100
AcDbLine
 10
37.4247506901
 20
-44.96439597910002
 30
0.0
 11
38.01626042649997
 21
-44.96439597910002
 31
0.0
  0
LINE
  5
739
330
1E
100
AcDbEntity
  8
1
100
AcDbLine
 10
34.89999999999998
 20
-48.34760021710001
 30
0.0
 11
35.09999999999998
 21
-48.34760021710001
 31
0.0
  0
LINE
  5
73A
330
1E
100
AcDbEntity
  8
1
100
AcDbLine
 10
36.49999999999999
 20
-49.59111552229998
 30
0.0
 11
32.53210678119999
 21
-49.59111552229998
 31
0.0
  0
LINE
  5
73B
330
1E
100
AcDbEntity
  8
1
100
AcDbLine
 10
31.82499999999999
 20
-50.50000000000004
 30
0.0
 11
2.999999999999993
 21
-50.50000000000003
 31
0.0
  0
LINE
  5
74F
330
1E
100
AcDbEntity
  8
1
100
AcDbLine
 10
35.2175740327
 20
-52.3128046619
 30
0.0
 11
34.78242596729999
 21
-52.3128046619
 31
0.0
  0
LINE
  5
750
330
1E
100
AcDbEntity
  8
1
100
AcDbLine
 10
34.89999999999998
 20
-52.50598982720002
 30
0.0
 11
35.09999999999998
 21
-52.50598982720002
 31
0.0
  0
LINE
  5
751
330
1E
100
AcDbEntity
  8
1
100
AcDbLine
 10
34.89999999999998
 20
-55.79299169999998
 30
0.0
 11
35.09999999999998
 21
-55.79299169999998
 31
0.0
  0
ARC
  5
752
330
1E
100
AcDbEntity
  8
SK1
100
AcDbCircle
 10
-41.7
 20
-21.70000000000001
 30
0.0
 40
1.3
100
AcDbArc
 50
180.0
 51
297.0
  0
ARC
  5
753
330
1E
100
AcDbEntity
  8
SK1
100
AcDbCircle
 10
-41.7
 20
21.69999999999999
 30
0.0
 40
1.3
100
AcDbArc
 50
63.00000000000001
 51
180.0
  0
ARC
  5
755
330
1E
100
AcDbEntity
  8
SK1
100
AcDbCircle
 10
-0.400000000000003
 20
23.29999999999996
 30
0.0
 40
0.6
100
AcDbArc
 50
270.0
 51
312.1033933471998
  0
ARC
  5
756
330
1E
100
AcDbEntity
  8
SK1
100
AcDbCircle
 10
-0.4000000000000087
 20
-23.30000000000004
 30
0.0
 40
0.6
100
AcDbArc
 50
47.89660665279995
 51
90.0
  0
ARC
  5
757
330
1E
100
AcDbEntity
  8
1
100
AcDbCircle
 10
3.000000000000003
 20
47.5
 30
0.0
 40
3.0
100
AcDbArc
 50
90.0
 51
180.0
  0
ARC
  5
758
330
1E
100
AcDbEntity
  8
1
100
AcDbCircle
 10
2.999999999999993
 20
-47.50000000000002
 30
0.0
 40
3.0
100
AcDbArc
 50
180.0
 51
270.0
  0
LWPOLYLINE
  5
B3C
330
1E
100
AcDbEntity
  8
1
100
AcDbPolyline
 90
        2
 70
     0
 43
0.0
 10
37.1112764355
 20
49.92684474869997
 10
37.82449034763379
 20
48.71471871969403
  0
LWPOLYLINE
  5
B40
330
1E
100
AcDbEntity
  8
1
100
AcDbPolyline
 90
        2
 70
     0
 43
0.0
 10
32.88872356440001
 20
49.92684474869997
 10
32.17550965236608
 20
48.71471871969403
  0
LWPOLYLINE
  5
B44
330
1E
100
AcDbEntity
  8
1
100
AcDbPolyline
 90
        2
 70
     0
 43
0.0
 10
37.82449547310001
 20
48.61374411739998
 10
37.1112815411876
 20
49.82795939103097
  0
LWPOLYLINE
  5
B48
330
1E
100
AcDbEntity
  8
1
100
AcDbPolyline
 90
        2
 70
     0
 43
0.0
 10
32.17550452690001
 20
48.61374411739998
 10
32.8887184587124
 20
49.82795939103097
  0
LWPOLYLINE
  5
B4C
330
1E
100
AcDbEntity
  8
1
100
AcDbPolyline
 90
       32
 70
     0
 43
0.0
 10
37.8244954731
 20
-51.17015729400002
 10
37.81947091916489
 20
-51.17466214957502
 10
37.813545154859
 20
-51.18017986610798
 10
37.80772496253146
 20
-51.185810237227
 10
37.80200234197849
 20
-51.19154330251403
 10
37.7954385981032
 20
-51.198348384458
 10
37.78807016577018
 20
-51.206259887478
 10
37.77992757343039
 20
-51.21530329699702
 10
37.77014871064579
 20
-51.22651458614704
 10
37.7579102552211
 20
-51.24095086628496
 10
37.74415995740139
 20
-51.25762635832599
 10
37.72980104434346
 20
-51.27553187066498
 10
37.71320150057378
 20
-51.29681759806899
 10
37.69444727274849
 20
-51.32154945744104
 10
37.672010357786
 20
-51.35195753950004
 10
37.6476064496507
 20
-51.38595146420701
 10
37.61977578892389
 20
-51.42579879777001
 10
37.58714257279109
 20
-51.47381579773597
 10
37.5513784844702
 20
-51.52785154600705
 10
37.51262488514178
 20
-51.58799082925405
 10
37.47029924006528
 20
-51.65545635524498
 10
37.4266723230336
 20
-51.72688129710705
 10
37.3818273886134
 20
-51.80230202997996
 10
37.33719502781108
 20
-51.879411679266
 10
37.29479611778078
 20
-51.95468661288201
 10
37.25457319944318
 20
-52.02808195345703
 10
37.21838399616979
 20
-52.09598552922297
 10
37.18608982111839
 20
-52.158312958795
 10
37.15815148783399
 20
-52.21377269088804
 10
37.13441589304399
 20
-52.26227438889701
 10
37.11356147859989
 20
-52.30616842094897
 10
37.11128066127549
 20
-52.31105154013199
  0
LWPOLYLINE
  5
B6E
330
1E
100
AcDbEntity
  8
1
100
AcDbPolyline
 90
       32
 70
     0
 43
0.0
 10
32.17550452689998
 20
-51.17015729400002
 10
32.18052908083488
 20
-51.17466214957502
 10
32.1864548451407
 20
-51.18017986610798
 10
32.19227503746799
 20
-51.185810237227
 10
32.19799765802089
 20
-51.191543302513
 10
32.20456140189599
 20
-51.19834838445697
 10
32.21192983422869
 20
-51.206259887477
 10
32.22007242656828
 20
-51.21530329699605
 10
32.22985128935248
 20
-51.22651458614497
 10
32.2420897447765
 20
-51.24095086628203
 10
32.25584004259528
 20
-51.257626358323
 10
32.27019895565228
 20
-51.27553187066204
 10
32.28679849942139
 20
-51.296817598065
 10
32.30555272724699
 20
-51.32154945743604
 10
32.32798964221159
 20
-51.35195753949203
 10
32.35239355034969
 20
-51.385951464195
 10
32.38022421107617
 20
-51.42579879775603
 10
32.41285742719659
 20
-51.473815797728
 10
32.4486215154878
 20
-51.52785154601604
 10
32.48737511478469
 20
-51.58799082928003
 10
32.52970075985689
 20
-51.655456355271
 10
32.57332767692008
 20
-51.72688129711096
 10
32.61817261137469
 20
-51.802302029959
 10
32.6628049721822
 20
-51.87941167923804
 10
32.70520388220479
 20
-51.95468661285499
 10
32.74542680054578
 20
-52.02808195342599
 10
32.78161600382548
 20
-52.09598552918597
 10
32.81391017886408
 20
-52.158312958761
 10
32.8418485121137
 20
-52.21377269086801
 10
32.86558410687137
 20
-52.26227438889104
 10
32.88643852130028
 20
-52.30616842094897
 10
32.88871933862449
 20
-52.31105154013199
  0
LWPOLYLINE
  5
B90
330
1E
100
AcDbEntity
  8
1
100
AcDbPolyline
 90
       86
 70
     0
 43
0.0
 10
37.53065502999999
 20
-24.90779259280001
 10
37.52709993597171
 20
-24.907810280424
 10
37.52354454766889
 20
-24.90787685467004
 10
37.5199896263287
 20
-24.90799227263504
 10
37.51643593318839
 20
-24.90815649141799
 10
37.51288422948528
 20
-24.90836946811699
 10
37.50933527645649
 20
-24.908631159831
 10
37.50578983533928
 20
-24.90894152365799
 10
37.502248667371
 20
-24.90930051669598
 10
37.4987125337887
 20
-24.90970809604401
 10
37.49518219582978
 20
-24.91016421880003
 10
37.49165841473139
 20
-24.91066884206301
 10
37.4881419077756
 20
-24.91122186286198
 10
37.48463310463829
 20
-24.91182278518496
 10
37.48113231934699
 20
-24.91247095497604
 10
37.47763986561449
 20
-24.91316571774902
 10
37.47415605715339
 20
-24.91390641901798
 10
37.47068120767659
 20
-24.91469240429703
 10
37.46721563089678
 20
-24.91552301909901
 10
37.46375964052679
 20
-24.91639760893802
 10
37.46031355027929
 20
-24.91731551932801
 10
37.45630604283778
 20
-24.91844029399199
 10
37.45231293572528
 20
-24.91962210261002
 10
37.44833472710578
 20
-24.92085990588398
 10
37.44437191514379
 20
-24.92215266451202
 10
37.44042499800328
 20
-24.92349933919602
 10
37.4364944738487
 20
-24.92489889063401
 10
37.4325808408442
 20
-24.92635027952698
 10
37.42868459715388
 20
-24.92785246657601
 10
37.42480624094229
 20
-24.92940441248002
 10
37.42039637592271
 20
-24.93123766093898
 10
37.41601126841921
 20
-24.93313299172896
 10
37.41165166204739
 20
-24.93508885347296
 10
37.4073183004226
 20
-24.93710369479899
 10
37.4030119271602
 20
-24.93917596433002
 10
37.3987332858757
 20
-24.94130411069201
 10
37.3939538886987
 20
-24.94376313398098
 10
37.389211589725
 20
-24.946288704034
 10
37.38450744773509
 20
-24.94887861196001
 10
37.3798424906527
 20
-24.95153067271
 10
37.3747056009107
 20
-24.95454827186203
 10
37.36961723930718
 20
-24.95763886069502
 10
37.36457705628818
 20
-24.960800801394
 10
37.3595847022995
 20
-24.96403245614899
 10
37.35463982778728
 20
-24.967332187145
 10
37.34925488742609
 20
-24.97103856457099
 10
37.34392650901428
 20
-24.97482315256698
 10
37.3386542272956
 20
-24.97868377120598
 10
37.3334375770133
 20
-24.98261824055798
 10
37.3278095865171
 20
-24.98699205383602
 10
37.32224664430479
 20
-24.99144833113101
 10
37.3167481463471
 20
-24.995984242302
 10
37.31086346321271
 20
-25.00098472823898
 10
37.3050529357055
 20
-25.00607175362004
 10
37.29887749510871
 20
-25.01164274215402
 10
37.29278620764751
 20
-25.01730542865605
 10
37.28635212270949
 20
-25.02346924355701
 10
37.2795930353641
 20
-25.03014809090903
 10
37.27293985052289
 20
-25.03692815122199
 10
37.26639126737389
 20
-25.04380542598401
 10
37.25994603887878
 20
-25.05077702942301
 10
37.25360291829489
 20
-25.05784008187797
 10
37.24697383811228
 20
-25.06544155509303
 10
37.24045712531118
 20
-25.07313956076004
 10
37.23405128447009
 20
-25.080930644831
 10
37.2277548201671
 20
-25.08881135325903
 10
37.22156623698071
 20
-25.09677823199703
 10
37.2151295442552
 20
-25.10530383470799
 10
37.20881034615779
 20
-25.11391807108104
 10
37.20260686754079
 20
-25.12261684097298
 10
37.1965173332569
 20
-25.13139604424296
 10
37.19021114556777
 20
-25.14074571079001
 10
37.18402785472878
 20
-25.15017562290003
 10
37.1779656877365
 20
-25.15968187769598
 10
37.1720233238416
 20
-25.16926189323104
 10
37.1658962187921
 20
-25.17942308344997
 10
37.15989893749671
 20
-25.18966036968897
 10
37.15402998146271
 20
-25.19997086306004
 10
37.14828785219779
 20
-25.210351674676
 10
37.14239347414809
 20
-25.22132404589902
 10
37.13663553583099
 20
-25.23236741373902
 10
37.131012302554
 20
-25.24347843394898
 10
37.12552203962479
 20
-25.25465376227801
 10
37.11991106449509
 20
-25.26642657971903
 10
37.11444212674779
 20
-25.278262460244
 10
37.1112805142741
 20
-25.28527534063099
  0
LWPOLYLINE
  5
BE8
330
1E
100
AcDbEntity
  8
1
100
AcDbPolyline
 90
       86
 70
     0
 43
0.0
 10
32.4693449699
 20
-24.90779259280001
 10
32.4729000639285
 20
-24.907810280424
 10
32.4764554522316
 20
-24.90787685467004
 10
32.48001037357209
 20
-24.90799227263504
 10
32.4835640667126
 20
-24.90815649141799
 10
32.48711577041599
 20
-24.90836946811796
 10
32.490664723445
 20
-24.908631159831
 10
32.49421016456237
 20
-24.90894152365799
 10
32.49775133253098
 20
-24.90930051669701
 10
32.5012874661136
 20
-24.90970809604501
 10
32.5048178040729
 20
-24.91016421880104
 10
32.5083415851716
 20
-24.91066884206301
 10
32.51185809212778
 20
-24.91122186286198
 10
32.5153668952656
 20
-24.91182278518401
 10
32.5188676805574
 20
-24.91247095497497
 10
32.5223601342905
 20
-24.91316571774799
 10
32.52584394275209
 20
-24.91390641901599
 10
32.52931879222948
 20
-24.91469240429299
 10
32.53278436900998
 20
-24.91552301909401
 10
32.53624035938058
 20
-24.91639760893198
 10
32.53968644962887
 20
-24.91731551932101
 10
32.5436939570712
 20
-24.91844029398398
 10
32.5476870641847
 20
-24.91962210260098
 10
32.5516652728051
 20
-24.92085990587301
 10
32.55562808476807
 20
-24.92215266450004
 10
32.5595750019096
 20
-24.92349933918101
 10
32.56350552606519
 20
-24.92489889061799
 10
32.5674191590707
 20
-24.92635027950901
 10
32.57131540276199
 20
-24.927852466556
 10
32.57519375897469
 20
-24.92940441245802
 10
32.57960362399549
 20
-24.931237660915
 10
32.5839887315001
 20
-24.93313299170202
 10
32.5883483378731
 20
-24.93508885344496
 10
32.59268169949907
 20
-24.93710369476898
 10
32.5969880727627
 20
-24.93917596429801
 10
32.6012667140484
 20
-24.94130411065802
 10
32.60604611122661
 20
-24.943763133945
 10
32.6107884102016
 20
-24.94628870399604
 10
32.6154925521927
 20
-24.94887861192003
 10
32.62015750927629
 20
-24.95153067266798
 10
32.6252943990195
 20
-24.95454827181898
 10
32.63038276062408
 20
-24.95763886065001
 10
32.6354229436442
 20
-24.96080080134898
 10
32.6404152976338
 20
-24.964032456102
 10
32.645360172147
 20
-24.96733218709702
 10
32.6507451125092
 20
-24.97103856452199
 10
32.6560734909218
 20
-24.97482315251803
 10
32.6613457726415
 20
-24.97868377115603
 10
32.6665624229246
 20
-24.982618240508
 10
32.67219041342178
 20
-24.98699205378598
 10
32.67775335563489
 20
-24.99144833107996
 10
32.68325185359361
 20
-24.99598424225204
 10
32.6891365367291
 20
-25.000984728188
 10
32.69494706423738
 20
-25.00607175356899
 10
32.70112250483549
 20
-25.01164274210398
 10
32.7072137922981
 20
-25.01730542860602
 10
32.71364787723771
 20
-25.02346924350602
 10
32.72040696458498
 20
-25.03014809085899
 10
32.72706014942839
 20
-25.03692815117004
 10
32.73360873257969
 20
-25.04380542593302
 10
32.74005396107728
 20
-25.050777029371
 10
32.7463970816637
 20
-25.05784008182498
 10
32.753026161849
 20
-25.06544155503998
 10
32.75954287465248
 20
-25.07313956070598
 10
32.765948715496
 20
-25.08093064477602
 10
32.772245179801
 20
-25.08881135320299
 10
32.77843376298909
 20
-25.09677823194202
 10
32.78487045571579
 20
-25.105303834652
 10
32.79118965381398
 20
-25.11391807102503
 10
32.79739313243089
 20
-25.12261684091802
 10
32.80348266671399
 20
-25.13139604418901
 10
32.8097888544012
 20
-25.14074571073801
 10
32.8159721452371
 20
-25.15017562285099
 10
32.82203431222539
 20
-25.15968187764904
 10
32.8279766761152
 20
-25.169261893188
 10
32.8341037811586
 20
-25.17942308341102
 10
32.84010106244748
 20
-25.18966036965499
 10
32.84597001847449
 20
-25.19997086303105
 10
32.85171214773239
 20
-25.210351674652
 10
32.85760652577489
 20
-25.22132404587997
 10
32.8633644640854
 20
-25.23236741372498
 10
32.86898769735648
 20
-25.24347843393897
 10
32.87447796028079
 20
-25.25465376227201
 10
32.88008893540689
 20
-25.26642657971601
 10
32.88555787315238
 20
-25.278262460244
 10
32.8887194856259
 20
-25.28527534063099
  0
LWPOLYLINE
  5
C40
330
1E
100
AcDbEntity
  8
1
100
AcDbPolyline
 90
       78
 70
     0
 43
0.0
 10
37.1112764355
 20
-14.182163517
 10
37.1145345163875
 20
-14.18717893435402
 10
37.11785751152439
 20
-14.19215721867298
 10
37.1212460521259
 20
-14.19709586321201
 10
37.1245264521025
 20
-14.20174857600497
 10
37.1278671177207
 20
-14.20636110234099
 10
37.13126859016849
 20
-14.21093129300096
 10
37.13473141063388
 20
-14.21545699876499
 10
37.1382561203051
 20
-14.219936070415
 10
37.14184326037
 20
-14.22436635872998
 10
37.14549337201678
 20
-14.22874571449099
 10
37.1490099503379
 20
-14.23284564799699
 10
37.15258399196569
 20
-14.23689611282799
 10
37.15621595705609
 20
-14.24089528156699
 10
37.15990630576471
 20
-14.24484132679796
 10
37.1636554982476
 20
-14.24873242110501
 10
37.16746399466039
 20
-14.25256673707102
 10
37.171332255159
 20
-14.25634244728101
 10
37.17504090296571
 20
-14.25985293654998
 10
37.17880365695389
 20
-14.26330798146696
 10
37.18239484535649
 20
-14.26650776161
 10
37.18603462828939
 20
-14.269655781296
 10
37.18972317095779
 20
-14.27275068358997
 10
37.1932249701531
 20
-14.27560240862001
 10
37.19676850149629
 20
-14.278404484491
 10
37.20011289183789
 20
-14.28097365933099
 10
37.20349257167649
 20
-14.28349709975098
 10
37.2069070274337
 20
-14.28597360634202
 10
37.21035574553129
 20
-14.28840197969899
 10
37.2135883564881
 20
-14.29061275053602
 10
37.2168496559432
 20
-14.292780024241
 10
37.22013923269699
 20
-14.294902840503
 10
37.22345667555019
 20
-14.29698023900701
 10
37.2265433081039
 20
-14.298856695515
 10
37.2296530107621
 20
-14.300692879303
 10
37.2327854601051
 20
-14.30248803505898
 10
37.23594033271339
 20
-14.304241407472
 10
37.23911730516749
 20
-14.30595224122997
 10
37.2420486677945
 20
-14.30748249139102
 10
37.24499807955309
 20
-14.30897578081101
 10
37.24796529132779
 20
-14.31043152770801
 10
37.2509500540031
 20
-14.31184915029902
 10
37.2539521184637
 20
-14.31322806680102
 10
37.2569712355941
 20
-14.31456769543402
 10
37.26000715627888
 20
-14.31586745441203
 10
37.26278145614719
 20
-14.317013966297
 10
37.26556925020588
 20
-14.318126610142
 10
37.2683703512909
 20
-14.31920494884499
 10
37.27118457223809
 20
-14.32024854530399
 10
37.2740117258834
 20
-14.32125696241801
 10
37.2768516250626
 20
-14.32222976308398
 10
37.27970407288919
 20
-14.32316652273001
 10
37.2825686872725
 20
-14.32406705543198
 10
37.2854449200372
 20
-14.32493138928302
 10
37.2883322171237
 20
-14.32575955995597
 10
37.29123002447229
 20
-14.32655160312501
 10
37.2941377880232
 20
-14.32730755446502
 10
37.2970549537167
 20
-14.328027449649
 10
37.29998096749321
 20
-14.32871132435102
 10
37.30291527529288
 20
-14.32935921424602
 10
37.3058573230561
 20
-14.32997115500698
 10
37.3088065567231
 20
-14.330547182309
 10
37.3117624222342
 20
-14.33108733182498
 10
37.3147243655297
 20
-14.33159163922899
 10
37.31769183254979
 20
-14.33206014019603
 10
37.32066426923497
 20
-14.33249287040004
 10
37.3236411215254
 20
-14.33288986551403
 10
37.3266218353614
 20
-14.33325116121299
 10
37.3296058566832
 20
-14.33357679317103
 10
37.33259263143109
 20
-14.33386679706202
 10
37.3355816055455
 20
-14.33412120855902
 10
37.3385722249667
 20
-14.33434006333698
 10
37.34156393563479
 20
-14.33452339707
 10
37.34455618349029
 20
-14.33467124543098
 10
37.34754841447328
 20
-14.334783644096
 10
37.35054007452429
 20
-14.334860628737
 10
37.35353060958339
 20
-14.33490223503
 10
37.3547163845431
 20
-14.33490894663398
  0
LWPOLYLINE
  5
C90
330
1E
100
AcDbEntity
  8
1
100
AcDbPolyline
 90
       78
 70
     0
 43
0.0
 10
32.88872356440001
 20
-14.182163517
 10
32.8854654835124
 20
-14.18717893435402
 10
32.8821424883752
 20
-14.19215721867297
 10
32.87875394777339
 20
-14.19709586321201
 10
32.87547354779637
 20
-14.201748576004
 10
32.87213288217789
 20
-14.20636110233997
 10
32.86873140972979
 20
-14.21093129299999
 10
32.86526858926389
 20
-14.21545699876404
 10
32.86174387959238
 20
-14.21993607041301
 10
32.8581567395271
 20
-14.22436635872801
 10
32.85450662787989
 20
-14.22874571448899
 10
32.85099004955839
 20
-14.23284564799499
 10
32.84741600793028
 20
-14.236896112825
 10
32.8437840428398
 20
-14.240895281565
 10
32.8400936941309
 20
-14.24484132679602
 10
32.836344501648
 20
-14.24873242110296
 10
32.8325360052351
 20
-14.25256673706999
 10
32.82866774473649
 20
-14.25634244728101
 10
32.82495909692988
 20
-14.25985293654998
 10
32.82119634294188
 20
-14.26330798146802
 10
32.81760515453949
 20
-14.26650776161201
 10
32.81396537160709
 20
-14.26965578129899
 10
32.81027682893908
 20
-14.27275068359501
 10
32.80677502974429
 20
-14.27560240862598
 10
32.8032314984017
 20
-14.27840448449799
 10
32.79988710806061
 20
-14.28097365933999
 10
32.79650742822269
 20
-14.283497099761
 10
32.7930929724661
 20
-14.28597360635498
 10
32.78964425436921
 20
-14.28840197971297
 10
32.78641164341307
 20
-14.29061275055201
 10
32.7831503439586
 20
-14.29278002425903
 10
32.77986076720539
 20
-14.29490284052203
 10
32.776543324353
 20
-14.29698023902798
 10
32.77345669179978
 20
-14.298856695537
 10
32.77034698914219
 20
-14.30069287932703
 10
32.7672145397998
 20
-14.30248803508399
 10
32.76405966719198
 20
-14.30424140749798
 10
32.7608826947386
 20
-14.30595224125701
 10
32.757951332112
 20
-14.30748249141899
 10
32.7550019203538
 20
-14.30897578084002
 10
32.75203470857948
 20
-14.31043152773801
 10
32.7490499459046
 20
-14.31184915032898
 10
32.74604788144429
 20
-14.31322806683201
 10
32.74302876431419
 20
-14.314567695465
 10
32.7399928436296
 20
-14.31586745444403
 10
32.73721854376148
 20
-14.31701396632901
 10
32.73443074970289
 20
-14.31812661017399
 10
32.73162964861799
 20
-14.319204948877
 10
32.72881542767088
 20
-14.32024854533501
 10
32.72598827402559
 20
-14.32125696244801
 10
32.7231483748462
 20
-14.32222976311399
 10
32.72029592701946
 20
-14.323166522759
 10
32.71743131263598
 20
-14.32406705546102
 10
32.71455507987109
 20
-14.32493138931099
 10
32.71166778278429
 20
-14.32575955998301
 10
32.70876997543538
 20
-14.32655160315098
 10
32.70586221188419
 20
-14.32730755448901
 10
32.70294504619029
 20
-14.32802744967099
 10
32.70001903241348
 20
-14.32871132437199
 10
32.69708472461338
 20
-14.32935921426499
 10
32.6941426768498
 20
-14.32997115502499
 10
32.69119344318228
 20
-14.33054718232497
 10
32.6882375776708
 20
-14.33108733183902
 10
32.68527563437489
 20
-14.33159163924202
 10
32.68230816735428
 20
-14.33206014020797
 10
32.67933573066869
 20
-14.33249287040998
 10
32.67635887837789
 20
-14.33288986552301
 10
32.6733781645415
 20
-14.333251161221
 10
32.67039414321919
 20
-14.33357679317698
 10
32.66740736847089
 20
-14.33386679706599
 10
32.6644183943561
 20
-14.33412120856198
 10
32.6614277749346
 20
-14.33434006333899
 10
32.65843606426619
 20
-14.33452339707102
 10
32.65544381641038
 20
-14.33467124543196
 10
32.65245158542708
 20
-14.334783644096
 10
32.64945992537589
 20
-14.33486062873797
 10
32.6464693903166
 20
-14.33490223503
 10
32.645283615357
 20
-14.33490894663398
  0
LWPOLYLINE
  5
CE0
330
1E
100
AcDbEntity
  8
1
100
AcDbPolyline
 90
       91
 70
     0
 43
0.0
 10
37.8244954731
 20
-25.16071016030001
 10
37.8215999980712
 20
-25.1534549559
 10
37.81861859414711
 20
-25.14623037847102
 10
37.81571340387571
 20
-25.13941669770904
 10
37.8127283179743
 20
-25.13263514168504
 10
37.8096619870019
 20
-25.12588796614799
 10
37.8065130615171
 20
-25.11917742684997
 10
37.80346202111561
 20
-25.11287536794001
 10
37.8003349679825
 20
-25.10660990001404
 10
37.79713076531989
 20
-25.10038292336398
 10
37.7938482763301
 20
-25.09419633827903
 10
37.79068634267739
 20
-25.08841226931904
 10
37.7874531072206
 20
-25.08266724732804
 10
37.78414762220389
 20
-25.07696285658997
 10
37.7807689398717
 20
-25.07130068139199
 10
37.77731611246829
 20
-25.065682306017
 10
37.77401090516989
 20
-25.06045626711701
 10
37.77063891739
 20
-25.05527142200604
 10
37.7671993682019
 20
-25.05012907609298
 10
37.76369148053421
 20
-25.04503068082901
 10
37.76011450174328
 20
-25.03997861298401
 10
37.75646768872329
 20
-25.03497561063201
 10
37.75275029839029
 20
-25.03002441267601
 10
37.74921640213099
 20
-25.02545244984499
 10
37.74561977372671
 20
-25.02093022711497
 10
37.74195980902288
 20
-25.01645997131598
 10
37.7382359038647
 20
-25.01204390927497
 10
37.7344474540974
 20
-25.00768426782197
 10
37.7305938555663
 20
-25.00338327378496
 10
37.7266745041167
 20
-24.99914315399298
 10
37.72268879559379
 20
-24.99496613527603
 10
37.71892783578671
 20
-24.99114592270196
 10
37.71510865528239
 20
-24.98738382170202
 10
37.7112307703607
 20
-24.98368161520098
 10
37.7072936973016
 20
-24.98004108612198
 10
37.7036065238376
 20
-24.97673688291602
 10
37.699868125255
 20
-24.97348815475001
 10
37.69607812109479
 20
-24.97029630393897
 10
37.69223613089799
 20
-24.96716273280398
 10
37.68866831800439
 20
-24.96434268900803
 10
37.68505661447049
 20
-24.961574018223
 10
37.6814018172543
 20
-24.95885818676002
 10
37.67770479265999
 20
-24.95619668549901
 10
37.67430794658928
 20
-24.95382553947402
 10
37.6708775686799
 20
-24.95150164669301
 10
37.667414309799
 20
-24.94922612727604
 10
37.66391882081371
 20
-24.947000101342
 10
37.66039175259097
 20
-24.94482468901001
 10
37.65719092888438
 20
-24.94291101832001
 10
37.65396552767999
 20
-24.94104006851298
 10
37.65071602345989
 20
-24.93921265615498
 10
37.64744289070639
 20
-24.93742959781301
 10
37.64414660390139
 20
-24.93569171005502
 10
37.64082763752728
 20
-24.93399980944698
 10
37.63748646606588
 20
-24.93235471255698
 10
37.63449827814799
 20
-24.93093235634498
 10
37.63149325361329
 20
-24.92954819953704
 10
37.62847172570579
 20
-24.92820281563698
 10
37.62543402766939
 20
-24.92689677814402
 10
37.622380492748
 20
-24.92563066056002
 10
37.61931145418571
 20
-24.92440503638702
 10
37.61622724522649
 20
-24.92322047912402
 10
37.6131281991141
 20
-24.92207756227501
 10
37.6100146490927
 20
-24.92097685933899
 10
37.60688692840609
 20
-24.91991894381798
 10
37.60374537029839
 20
-24.91890438921402
 10
37.60098541791871
 20
-24.918052674285
 10
37.59821534965059
 20
-24.91723498084498
 10
37.5954353893699
 20
-24.91645169193501
 10
37.5926458430052
 20
-24.91570303892999
 10
37.58984717920621
 20
-24.91498895243804
 10
37.5870398857961
 20
-24.91430932762901
 10
37.5842244505981
 20
-24.91366405967099
 10
37.5814013614352
 20
-24.91305304373398
 10
37.57857110613079
 20
-24.91247617498501
 10
37.57573417250778
 20
-24.91193334859397
 10
37.5728910483895
 20
-24.91142445972903
 10
37.5700422215991
 20
-24.91094940356001
 10
37.5671881799597
 20
-24.91050807525497
 10
37.56432941129439
 20
-24.910100369984
 10
37.56105708468949
 20
-24.90967545768498
 10
37.557779949346
 20
-24.90929416777996
 10
37.5544987334431
 20
-24.90895634378498
 10
37.5512141651599
 20
-24.90866182921896
 10
37.54792697267559
 20
-24.90841046759804
 10
37.54463788416929
 20
-24.90820210243898
 10
37.54134762782028
 20
-24.90803657726005
 10
37.5380569318077
 20
-24.90791373557804
 10
37.5347665243107
 20
-24.90783342091097
 10
37.53147713350847
 20
-24.90779547677604
 10
37.53066502999078
 20
-24.90779261204002
  0
LWPOLYLINE
  5
D3D
330
1E
100
AcDbEntity
  8
1
100
AcDbPolyline
 90
       94
 70
     0
 43
0.0
 10
37.3547263845
 20
-14.33490897959998
 10
37.358406042652
 20
-14.33489450742698
 10
37.36208567483521
 20
-14.33482688608298
 10
37.36576444675888
 20
-14.33470597898102
 10
37.36944152413229
 20
-14.33453164953599
 10
37.3731160726647
 20
-14.33430376116201
 10
37.3767872580652
 20
-14.33402217727202
 10
37.380454246043
 20
-14.33368676128097
 10
37.38411621113579
 20
-14.33329739573999
 10
37.3877725222776
 20
-14.33285438456701
 10
37.3914227381077
 20
-14.33235844288302
 10
37.39506642515499
 20
-14.331810302911
 10
37.39870314994889
 20
-14.33121069687197
 10
37.40233247901839
 20
-14.33056035698901
 10
37.40595397889249
 20
-14.329860015484
 10
37.40956721610059
 20
-14.32911040457903
 10
37.41317175717171
 20
-14.328312256497
 10
37.41676716863489
 20
-14.32746630345897
 10
37.4203530170194
 20
-14.32657327768898
 10
37.42464280148989
 20
-14.32544054172697
 10
37.42891744189121
 20
-14.32424234070898
 10
37.4331761891859
 20
-14.32297993991599
 10
37.43741829433618
 20
-14.32165460462799
 10
37.44164300830439
 20
-14.32026760012504
 10
37.44584958205289
 20
-14.31882019168696
 10
37.450037266544
 20
-14.31731364459503
 10
37.4542053127401
 20
-14.31574922412701
 10
37.45835297160349
 20
-14.31412819556499
 10
37.4624794940966
 20
-14.312451824188
 10
37.46658413118171
 20
-14.31072137527698
 10
37.47134421442879
 20
-14.30863585823496
 10
37.47607230023639
 20
-14.30648046706503
 10
37.48076719916029
 20
-14.30425721098399
 10
37.4854277217567
 20
-14.30196809921099
 10
37.49005267858129
 20
-14.29961514096297
 10
37.49464098955199
 20
-14.29720028023498
 10
37.4998396528052
 20
-14.29436645593099
 10
37.50499047577878
 20
-14.291455403316
 10
37.51009376272799
 20
-14.28846888122101
 10
37.5151498179076
 20
-14.28540864847698
 10
37.52015894557249
 20
-14.282276463915
 10
37.52512144997761
 20
-14.27907408636698
 10
37.530037635378
 20
-14.27580327466196
 10
37.53551335710099
 20
-14.27204400124301
 10
37.54093127461288
 20
-14.26820284613799
 10
37.54629182112049
 20
-14.26428231362101
 10
37.55159542983039
 20
-14.26028490796498
 10
37.55742207639839
 20
-14.25575623216301
 10
37.56317955846
 20
-14.25113917816199
 10
37.56886847026329
 20
-14.24643718117997
 10
37.57504778383339
 20
-14.24117097528702
 10
37.58114563737478
 20
-14.23581071727201
 10
37.5877058658157
 20
-14.22986126969701
 10
37.59417111823939
 20
-14.22381126976202
 10
37.601069154872
 20
-14.21715024957503
 10
37.6078582372826
 20
-14.21038264208502
 10
37.61453967101999
 20
-14.203511752335
 10
37.62111476163279
 20
-14.196540870233
 10
37.62758481466959
 20
-14.18947328568797
 10
37.63443659352421
 20
-14.18175766786097
 10
37.6411696983777
 20
-14.17393782262004
 10
37.647785759829
 20
-14.16601785897998
 10
37.65428640847679
 20
-14.15800188595798
 10
37.66067327491989
 20
-14.14989401257102
 10
37.666947989757
 20
-14.14169834783396
 10
37.67354829710849
 20
-14.13282452526599
 10
37.68002373642
 20
-14.12385969270498
 10
37.68637631325649
 20
-14.11480890406298
 10
37.692608022425
 20
-14.10567716485902
 10
37.69872057291847
 20
-14.09646819506403
 10
37.7051108645548
 20
-14.08656279282004
 10
37.7113688535845
 20
-14.076574915346
 10
37.7174962205126
 20
-14.06650730704498
 10
37.72349464584471
 20
-14.05636271231801
 10
37.72936581008599
 20
-14.046143875566
 10
37.7354663614135
 20
-14.03520808399397
 10
37.74142715973678
 20
-14.024194870118
 10
37.74725022075989
 20
-14.01310752574298
 10
37.75293756018629
 20
-14.00194934267901
 10
37.7588137572735
 20
-13.99006124249299
 10
37.76454244846339
 20
-13.97810132256202
 10
37.77012597198349
 20
-13.96607342940401
 10
37.77556591716869
 20
-13.95398057111597
 10
37.7808633292777
 20
-13.94182514668304
 10
37.78601924132518
 20
-13.929609541384
 10
37.79130922428
 20
-13.916652638185
 10
37.7964439141238
 20
-13.90363414459997
 10
37.80142452578219
 20
-13.89055686594599
 10
37.806252274181
 20
-13.87742360754103
 10
37.810928374246
 20
-13.864237174703
 10
37.8154540409029
 20
-13.85100037275
 10
37.81983048907749
 20
-13.83771600699899
 10
37.8242774066176
 20
-13.82368416323602
 10
37.8244925124906
 20
-13.82299087959196
  0
LWPOLYLINE
  5
D9D
330
1E
100
AcDbEntity
  8
1
100
AcDbPolyline
 90
       91
 70
     0
 43
0.0
 10
32.1755045269
 20
-25.16071016030001
 10
32.1784000019281
 20
-25.15345495590102
 10
32.18138140585139
 20
-25.146230378475
 10
32.1842865961221
 20
-25.13941669771403
 10
32.18727168202269
 20
-25.13263514169099
 10
32.19033801299429
 20
-25.12588796615702
 10
32.19348693847821
 20
-25.11917742686003
 10
32.19653797887888
 20
-25.11287536795097
 10
32.1996650320111
 20
-25.10660990002699
 10
32.20286923467269
 20
-25.10038292337803
 10
32.2061517236616
 20
-25.09419633829501
 10
32.20931365731328
 20
-25.08841226933598
 10
32.2125468927691
 20
-25.08266724734598
 10
32.21585237778469
 20
-25.07696285660998
 10
32.21923106011578
 20
-25.07130068141198
 10
32.2226838875181
 20
-25.065682306039
 10
32.22598909481549
 20
-25.06045626713998
 10
32.22936108259428
 20
-25.05527142203002
 10
32.2328006317812
 20
-25.05012907611696
 10
32.23630851944768
 20
-25.04503068085401
 10
32.23988549823739
 20
-25.03997861301102
 10
32.2435323112561
 20
-25.03497561066003
 10
32.2472497015878
 20
-25.03002441270401
 10
32.25078359784589
 20
-25.02545244987398
 10
32.25438022624879
 20
-25.02093022714503
 10
32.25804019095139
 20
-25.01645997134598
 10
32.26176409610819
 20
-25.01204390930602
 10
32.2655525458741
 20
-25.00768426785404
 10
32.26940614440378
 20
-25.00338327381697
 10
32.2733254958519
 20
-24.99914315402604
 10
32.27731120437329
 20
-24.994966135309
 10
32.2810721641789
 20
-24.991145922735
 10
32.28489134468178
 20
-24.98738382173602
 10
32.28876922960199
 20
-24.98368161523499
 10
32.2927063026596
 20
-24.98004108615698
 10
32.2963934761222
 20
-24.97673688295098
 10
32.30013187470329
 20
-24.97348815478503
 10
32.303921878862
 20
-24.97029630397501
 10
32.30776386905729
 20
-24.96716273283996
 10
32.31133168194949
 20
-24.96434268904399
 10
32.31494338548201
 20
-24.96157401825902
 10
32.31859818269668
 20
-24.958858186796
 10
32.3222952072896
 20
-24.95619668553505
 10
32.325692053359
 20
-24.95382553951102
 10
32.32912243126699
 20
-24.95150164672995
 10
32.3325856901466
 20
-24.94922612731196
 10
32.33608117913059
 20
-24.94700010137798
 10
32.33960824735198
 20
-24.94482468904598
 10
32.3428090710574
 20
-24.94291101835703
 10
32.3460344722606
 20
-24.94104006854902
 10
32.34928397647939
 20
-24.93921265619102
 10
32.3525571092317
 20
-24.93742959784905
 10
32.3558533960354
 20
-24.93569171009001
 10
32.35917236240839
 20
-24.93399980948201
 10
32.3625135338685
 20
-24.93235471259201
 10
32.36550172178528
 20
-24.93093235637801
 10
32.3685067463189
 20
-24.92954819957104
 10
32.3715282742253
 20
-24.92820281566896
 10
32.3745659722606
 20
-24.92689677817603
 10
32.37761950718089
 20
-24.925630660591
 10
32.380688545742
 20
-24.92440503641703
 10
32.38377275470019
 20
-24.92322047915398
 10
32.3868718008115
 20
-24.92207756230303
 10
32.3899853508318
 20
-24.92097685936701
 10
32.39311307151719
 20
-24.91991894384496
 10
32.39625462962379
 20
-24.91890438923904
 10
32.3990145820026
 20
-24.91805267430898
 10
32.4017846502697
 20
-24.91723498086898
 10
32.4045646105494
 20
-24.91645169195702
 10
32.4073541569132
 20
-24.91570303895102
 10
32.41015282071119
 20
-24.91498895245801
 10
32.41296011412028
 20
-24.91430932764798
 10
32.41577554931739
 20
-24.91366405968798
 10
32.41859863847929
 20
-24.91305304374904
 10
32.42142889378289
 20
-24.912476174999
 10
32.42426582740488
 20
-24.91193334860698
 10
32.4271089515223
 20
-24.91142445974096
 10
32.4299577783118
 20
-24.91094940357099
 10
32.43281181995039
 20
-24.91050807526502
 10
32.43567058861479
 20
-24.91010036999202
 10
32.43894291521871
 20
-24.90967545769203
 10
32.44222005056119
 20
-24.90929416778502
 10
32.44550126646319
 20
-24.90895634378999
 10
32.44878583474548
 20
-24.90866182922196
 10
32.45207302722889
 20
-24.90841046760003
 10
32.45536211573419
 20
-24.90820210244002
 10
32.45865237208239
 20
-24.90803657726102
 10
32.4619430680941
 20
-24.90791373557901
 10
32.4652334755903
 20
-24.90783342091097
 10
32.46852286639169
 20
-24.90779547677604
 10
32.46933496990919
 20
-24.90779261204002
  0
LWPOLYLINE
  5
DFA
330
1E
100
AcDbEntity
  8
1
100
AcDbPolyline
 90
       94
 70
     0
 43
0.0
 10
32.6452736154
 20
-14.33490897959998
 10
32.64159395724837
 20
-14.33489450742698
 10
32.63791432506558
 20
-14.33482688608298
 10
32.63423555314229
 20
-14.33470597898102
 10
32.6305584757692
 20
-14.33453164953599
 10
32.6268839272373
 20
-14.33430376116201
 10
32.6232127418372
 20
-14.33402217727202
 10
32.6195457538598
 20
-14.33368676128097
 10
32.61588378876749
 20
-14.33329739573999
 10
32.6122274776261
 20
-14.33285438456701
 10
32.60857726179649
 20
-14.33235844288302
 10
32.6049335747497
 20
-14.33181030291003
 10
32.6012968499563
 20
-14.33121069687
 10
32.59766752088749
 20
-14.33056035698601
 10
32.59404602101389
 20
-14.32986001547996
 10
32.5904327838064
 20
-14.329110404575
 10
32.58682824273599
 20
-14.32831225649199
 10
32.5832328312734
 20
-14.327466303453
 10
32.5796469828896
 20
-14.32657327768199
 10
32.57535719842
 20
-14.32544054171799
 10
32.57108255801959
 20
-14.32424234069904
 10
32.5668238107258
 20
-14.322979939904
 10
32.5625817055765
 20
-14.32165460461399
 10
32.55835699160928
 20
-14.32026760011003
 10
32.55415041786189
 20
-14.31882019167002
 10
32.54996273337178
 20
-14.31731364457599
 10
32.54579468717679
 20
-14.31574922410598
 10
32.54164702831459
 20
-14.31412819554199
 10
32.5375205058226
 20
-14.312451824164
 10
32.53341586873879
 20
-14.310721375251
 10
32.5286557854932
 20
-14.30863585820699
 10
32.5239276996871
 20
-14.30648046703399
 10
32.5192328007647
 20
-14.30425721095102
 10
32.51457227817
 20
-14.30196809917598
 10
32.5099473213471
 20
-14.29961514092596
 10
32.505359010378
 20
-14.29720028019598
 10
32.5001603471269
 20
-14.29436645588995
 10
32.4950095241552
 20
-14.29145540327398
 10
32.48990623720799
 20
-14.28846888117701
 10
32.4848501820304
 20
-14.28540864843202
 10
32.47984105436739
 20
-14.28227646386798
 10
32.47487854996409
 20
-14.27907408631799
 10
32.4699623645656
 20
-14.275803274612
 10
32.4644866428445
 20
-14.27204400119197
 10
32.45906872533439
 20
-14.268202846087
 10
32.4537081788285
 20
-14.26428231356899
 10
32.44840457011998
 20
-14.26028490791301
 10
32.4425779235535
 20
-14.25575623210997
 10
32.4368204414929
 20
-14.25113917811003
 10
32.4311315296905
 20
-14.24643718112801
 10
32.42495221612089
 20
-14.24117097523597
 10
32.4188543625797
 20
-14.23581071722199
 10
32.41229413413828
 20
-14.22986126964902
 10
32.4058288817136
 20
-14.22381126971498
 10
32.3989308450791
 20
-14.21715024953098
 10
32.3921417626658
 20
-14.210382642045
 10
32.38546032892509
 20
-14.20351175229902
 10
32.37888523830871
 20
-14.196540870201
 10
32.37241518526789
 20
-14.18947328566102
 10
32.36556340640881
 20
-14.18175766783898
 10
32.3588303015506
 20
-14.17393782260202
 10
32.35221424009479
 20
-14.16601785896802
 10
32.34571359144271
 20
-14.15800188595099
 10
32.3393267249958
 20
-14.149894012568
 10
32.33305201015539
 20
-14.14169834783601
 10
32.3264517028012
 20
-14.13282452527099
 10
32.3199762634882
 20
-14.12385969271402
 10
32.31362368665129
 20
-14.11480890407401
 10
32.30739197748379
 20
-14.10567716487101
 10
32.3012794269929
 20
-14.09646819507699
 10
32.29488913536069
 20
-14.08656279283198
 10
32.28863114633638
 20
-14.07657491535799
 10
32.28250377941459
 20
-14.06650730705401
 10
32.2765053540897
 20
-14.05636271232398
 10
32.27063418985618
 20
-14.04614387556901
 10
32.26453363853728
 20
-14.03520808399498
 10
32.2585728402225
 20
-14.02419487011397
 10
32.25274977920799
 20
-14.01310752573603
 10
32.2470624397896
 20
-14.001949342669
 10
32.2411862427102
 20
-13.99006124247998
 10
32.235457551527
 20
-13.97810132254702
 10
32.22987402801209
 20
-13.96607342938696
 10
32.22443408283079
 20
-13.95398057109801
 10
32.2191366707243
 20
-13.94182514666599
 10
32.21398075867838
 20
-13.92960954136698
 10
32.2086907757241
 20
-13.91665263817
 10
32.20355608588028
 20
-13.903634144587
 10
32.19857547422121
 20
-13.89055686593499
 10
32.19374772582149
 20
-13.87742360753199
 10
32.18907162575549
 20
-13.86423717469702
 10
32.1845459590976
 20
-13.85100037274602
 10
32.1801695109224
 20
-13.837716006997
 10
32.17572259338237
 20
-13.82368416323602
 10
32.1755074875094
 20
-13.82299087959196
  0
LWPOLYLINE
  5
E5A
330
1E
100
AcDbEntity
  8
1
100
AcDbPolyline
 90
       71
 70
     0
 43
0.0
 10
37.28453743449999
 20
3.393595191599978
 10
37.28215352089579
 20
3.393576090831991
 10
37.27976979013678
 20
3.393530542097003
 10
37.2773855294597
 20
3.393458124974011
 10
37.27500042648449
 20
3.393358596732008
 10
37.2726147958401
 20
3.393231992904981
 10
37.27022900684829
 20
3.393078373295986
 10
37.26784342883118
 20
3.392897797710981
 10
37.2654584311106
 20
3.392690325955976
 10
37.2630743830086
 20
3.392456017834997
 10
37.2606916538471
 20
3.392194933152971
 10
37.2583106129481
 20
3.391907131714981
 10
37.25593162963349
 20
3.391592673327006
 10
37.2535550732252
 20
3.391251617792983
 10
37.2511813130452
 20
3.390884024917986
 10
37.24881071841549
 20
3.390489954508006
 10
37.246443658658
 20
3.390069466366977
 10
37.2440805030947
 20
3.389622620300991
 10
37.2417216210475
 20
3.389149476114986
 10
37.23936738183839
 20
3.388650093612988
 10
37.23701815478928
 20
3.388124532601006
 10
37.23467430922218
 20
3.387572852883998
 10
37.23233621445899
 20
3.386995114265993
 10
37.2298101964346
 20
3.386339893381966
 10
37.22729183061829
 20
3.385654235707982
 10
37.22478158657049
 20
3.384938217279988
 10
37.2222799338516
 20
3.384191914135975
 10
37.21978734202188
 20
3.383415402312971
 10
37.21730428064189
 20
3.382608757847002
 10
37.21483121927188
 20
3.381772056774986
 10
37.2123686274722
 20
3.380905375134
 10
37.20991697480329
 20
3.380008788962008
 10
37.20747673082559
 20
3.379082374293993
 10
37.20504836509939
 20
3.378126207167008
 10
37.2026323471851
 20
3.377140363618986
 10
37.200229146643
 20
3.376124919686981
 10
37.1978392330336
 20
3.375079951406996
 10
37.19546307591729
 20
3.374005534816002
 10
37.19310114485429
 20
3.37290174595099
 10
37.1907539094051
 20
3.371768660847995
 10
37.18842183912999
 20
3.370606355545981
 10
37.186105403584
 20
3.369414906085006
 10
37.18380499668111
 20
3.368194458343986
 10
37.18152074693821
 20
3.366945403235002
 10
37.17907893560969
 20
3.365568784095978
 10
37.1766560321973
 20
3.364160058160984
 10
37.17425212455609
 20
3.362719780749977
 10
37.17186730054097
 20
3.361248507185985
 10
37.16950164800721
 20
3.359746792791008
 10
37.16698839458111
 20
3.358104663990978
 10
37.16449735814471
 20
3.356428910868993
 10
37.162028646756
 20
3.354720216449003
 10
37.15942008352211
 20
3.352862070007995
 10
37.15683717531929
 20
3.350968049753981
 10
37.15428005328979
 20
3.349038984622971
 10
37.1515915118107
 20
3.346951881328971
 10
37.1489323858512
 20
3.344827145723962
 10
37.14630283271159
 20
3.342665772084978
 10
37.14355100813961
 20
3.340338429609992
 10
37.14083270094511
 20
3.33797230692499
 10
37.13799994522499
 20
3.335433965388995
 10
37.1350589082596
 20
3.332718293656991
 10
37.13215998076361
 20
3.329959359316996
 10
37.1293034188741
 20
3.327158781385968
 10
37.12648947872828
 20
3.324318178878991
 10
37.1237184164631
 20
3.321439170813016
 10
37.12099048821588
 20
3.318523376201989
 10
37.1183059501237
 20
3.315572414064001
 10
37.1156650583236
 20
3.312587903413993
 10
37.11306806895279
 20
3.309571463268971
 10
37.11128283759439
 20
3.307449506128984
  0
LWPOLYLINE
  5
EA3
330
1E
100
AcDbEntity
  8
1
100
AcDbPolyline
 90
       71
 70
     0
 43
0.0
 10
32.71546256549999
 20
3.393595191599978
 10
32.71784647910321
 20
3.393576090831991
 10
32.72023020986128
 20
3.393530542097006
 10
32.72261447053748
 20
3.393458124974011
 10
32.72499957351179
 20
3.393358596732009
 10
32.72738520415539
 20
3.393231992904981
 10
32.72977099314639
 20
3.393078373296982
 10
32.7321565711628
 20
3.392897797712004
 10
32.7345415688825
 20
3.392690325956971
 10
32.73692561698378
 20
3.392456017836958
 10
32.73930834614459
 20
3.392194933154988
 10
32.74168938704299
 20
3.391907131717993
 10
32.7440683703569
 20
3.391592673329991
 10
32.74644492676459
 20
3.391251617796991
 10
32.74881868694389
 20
3.390884024922991
 10
32.75118928157299
 20
3.390489954513008
 10
32.7535563413298
 20
3.390069466373001
 10
32.75591949689248
 20
3.389622620307983
 10
32.75827837893908
 20
3.389149476122008
 10
32.76063261814757
 20
3.388650093621003
 10
32.762981845196
 20
3.388124532609986
 10
32.76532569076248
 20
3.387572852892981
 10
32.76766378552498
 20
3.386995114275997
 10
32.77018980354869
 20
3.386339893392991
 10
32.77270816936429
 20
3.385654235718984
 10
32.77521841341139
 20
3.384938217292013
 10
32.77772006612948
 20
3.384191914148992
 10
32.78021265795838
 20
3.383415402326984
 10
32.78269571933761
 20
3.382608757861016
 10
32.78516878070679
 20
3.381772056789992
 10
32.78763137250548
 20
3.380905375149973
 10
32.79008302517349
 20
3.380008788977983
 10
32.7925232691503
 20
3.379082374310023
 10
32.79495163487549
 20
3.378126207183976
 10
32.7973676527887
 20
3.377140363636977
 10
32.79977085332969
 20
3.376124919705001
 10
32.80216076693788
 20
3.375079951424988
 10
32.8045369240531
 20
3.374005534833993
 10
32.80689885511469
 20
3.372901745968983
 10
32.8092460905626
 20
3.371768660866984
 10
32.8115781608362
 20
3.370606355563971
 10
32.81389459638078
 20
3.369414906102998
 10
32.81619500328218
 20
3.368194458361978
 10
32.8184792530234
 20
3.366945403251971
 10
32.82092106435011
 20
3.365568784113971
 10
32.8233439677605
 20
3.364160058178011
 10
32.82574787539979
 20
3.36271978076598
 10
32.82813269941279
 20
3.36124850720099
 10
32.8304983519446
 20
3.359746792805986
 10
32.8330116053684
 20
3.358104664003996
 10
32.8355026418024
 20
3.356428910881982
 10
32.83797135318879
 20
3.354720216460969
 10
32.8405799164201
 20
3.352862070018966
 10
32.84316282462039
 20
3.350968049764013
 10
32.84571994664729
 20
3.349038984630988
 10
32.84840848812369
 20
3.346951881336987
 10
32.8510676140804
 20
3.344827145729959
 10
32.8536971672173
 20
3.342665772089981
 10
32.85644899178659
 20
3.340338429613972
 10
32.8591672989782
 20
3.337972306926978
 10
32.86200005469559
 20
3.335433965390986
 10
32.8649410916581
 20
3.332718293657957
 10
32.8678400191513
 20
3.329959359316996
 10
32.87069658103819
 20
3.327158781384976
 10
32.87351052118157
 20
3.324318178876973
 10
32.87628158344439
 20
3.321439170810998
 10
32.8790095116896
 20
3.318523376199971
 10
32.88169404977999
 20
3.315572414061982
 10
32.88433494157848
 20
3.312587903412998
 10
32.88693193094799
 20
3.30957146326798
 10
32.88871716230559
 20
3.307449506128984
  0
LWPOLYLINE
  5
EEC
330
1E
100
AcDbEntity
  8
1
100
AcDbPolyline
 90
       86
 70
     0
 43
0.0
 10
37.1112764355
 20
13.88545495799994
 10
37.11774297638721
 20
13.87006567188898
 10
37.12439148612229
 20
13.85475025306899
 10
37.13092267534499
 20
13.84017360292497
 10
37.13762321108738
 20
13.82567183766297
 10
37.14449449013619
 20
13.81124852675797
 10
37.15153790927789
 20
13.79690723968296
 10
37.1587548652992
 20
13.78265154591298
 10
37.16614675498659
 20
13.76848501492299
 10
37.1733671200272
 20
13.755048872105
 10
37.18074936464079
 20
13.74170032744995
 10
37.1882947109887
 20
13.728442494042
 10
37.19600507959999
 20
13.71527930258897
 10
37.20350462316449
 20
13.70283586882597
 10
37.211159604605
 20
13.69048799813198
 10
37.2189728916955
 20
13.67824050115197
 10
37.22654475704429
 20
13.66670273177297
 10
37.2342645401662
 20
13.65526401580696
 10
37.2421346998189
 20
13.64392847778496
 10
37.25015769476039
 20
13.63270024223299
 10
37.25790163609879
 20
13.62216568416199
 10
37.2657870455266
 20
13.61173463955599
 10
37.27381601365129
 20
13.601410615376
 10
37.28199065038428
 20
13.59119720339596
 10
37.28984725742309
 20
13.58165803059899
 10
37.2978388401446
 20
13.57222982889199
 10
37.3059681195627
 20
13.56291976965299
 10
37.31374742818578
 20
13.55427170604996
 10
37.32165338919029
 20
13.54574062592
 10
37.3296882711031
 20
13.53733250808396
 10
37.33785434245139
 20
13.52905333136597
 10
37.34563119835636
 20
13.52141402477899
 10
37.35299707415979
 20
13.51439533852898
 10
37.36046827674
 20
13.50748824714196
 10
37.36804632583289
 20
13.50069675596195
 10
37.37518008532878
 20
13.49449738169197
 10
37.38240849985589
 20
13.48840434360899
 10
37.38916599963849
 20
13.48287787302497
 10
37.39600644114688
 20
13.47745137493096
 10
37.40235077151929
 20
13.47257049380697
 10
37.40876680172859
 20
13.46778415045698
 10
37.4146625825311
 20
13.46351920511999
 10
37.4206191328972
 20
13.45934033826397
 10
37.42603258187399
 20
13.45565608333496
 10
37.43149636337661
 20
13.45204737678899
 10
37.4370110028058
 20
13.44851697774796
 10
37.4425770255622
 20
13.44506764533598
 10
37.4475681627072
 20
13.44207185852598
 10
37.4526006831615
 20
13.43914424222898
 10
37.45767495593089
 20
13.43628673426296
 10
37.4627913500211
 20
13.43350127244896
 10
37.4679502344379
 20
13.43078979460598
 10
37.47315197818689
 20
13.42815423855497
 10
37.47773895210078
 20
13.42591192998899
 10
37.48235926991599
 20
13.42373053087498
 10
37.4870131788374
 20
13.42161133940199
 10
37.4917009253712
 20
13.41955565425699
 10
37.49642232878439
 20
13.41756507880398
 10
37.50117605578299
 20
13.41564203833898
 10
37.50527524934919
 20
13.41404941270699
 10
37.50939610913649
 20
13.41250990098699
 10
37.51353767435118
 20
13.41102511688799
 10
37.51769898419999
 20
13.40959667412098
 10
37.5218790778894
 20
13.40822618639397
 10
37.52607699462571
 20
13.40691526741698
 10
37.5302917736156
 20
13.40566553089794
 10
37.5345224540656
 20
13.40447859054798
 10
37.5387680751821
 20
13.40335606007496
 10
37.54231681262329
 20
13.40247098421499
 10
37.54587470229489
 20
13.40163269192696
 10
37.54944118818221
 20
13.40084211707197
 10
37.55301571427039
 20
13.40010019350798
 10
37.5565977245447
 20
13.39940785509397
 10
37.56018666299039
 20
13.39876603569199
 10
37.56378197359278
 20
13.39817566915899
 10
37.5673831003371
 20
13.39763768935496
 10
37.5709894872086
 20
13.39715303014096
 10
37.57460057819239
 20
13.39672262537501
 10
37.57821581727379
 20
13.39634740891798
 10
37.5818346484381
 20
13.39602831462696
 10
37.5854565156706
 20
13.39576627636398
 10
37.58908086295639
 20
13.39556222798798
 10
37.59270713428079
 20
13.39541710335699
 10
37.59633477360929
 20
13.39533183623898
 10
37.5999631417817
 20
13.39530696721596
 10
37.60067882450879
 20
13.39530913688198
  0
LWPOLYLINE
  5
F44
330
1E
100
AcDbEntity
  8
1
100
AcDbPolyline
 90
       86
 70
     0
 43
0.0
 10
32.88872356440001
 20
13.88545495799996
 10
32.88225702351299
 20
13.870065671891
 10
32.8756085137773
 20
13.85475025307297
 10
32.86907732455389
 20
13.84017360293199
 10
32.86237678881049
 20
13.82567183767297
 10
32.85550550976088
 20
13.81124852677001
 10
32.84846209061889
 20
13.79690723969697
 10
32.84124513459799
 20
13.78265154592898
 10
32.83385324491189
 20
13.76848501493997
 10
32.8266328798737
 20
13.75504887212198
 10
32.81925063526379
 20
13.74170032746498
 10
32.81170528892118
 20
13.72844249405497
 10
32.80399492031679
 20
13.71527930259897
 10
32.79649537676
 20
13.702835868833
 10
32.78884039532808
 20
13.69048799813398
 10
32.78102710824649
 20
13.67824050115
 10
32.7734552429062
 20
13.66670273176501
 10
32.7657354597925
 20
13.655264015796
 10
32.7578653001474
 20
13.64392847777
 10
32.74984230521269
 20
13.63270024221497
 10
32.7420983638796
 20
13.62216568414196
 10
32.73421295445579
 20
13.611734639535
 10
32.72618398633361
 20
13.60141061535598
 10
32.71800934960117
 20
13.591197203379
 10
32.7101527425613
 20
13.58165803058599
 10
32.70216115983739
 20
13.57222982888399
 10
32.69403188041589
 20
13.56291976964998
 10
32.68625257178889
 20
13.55427170605396
 10
32.67834661078
 20
13.54574062592897
 10
32.67031172886261
 20
13.53733250809998
 10
32.66214565750969
 20
13.52905333138799
 10
32.65436880160069
 20
13.52141402480597
 10
32.64700292579389
 20
13.51439533855999
 10
32.63953172321079
 20
13.507488247176
 10
32.63195367411579
 20
13.50069675599897
 10
32.62481991461857
 20
13.49449738172997
 10
32.6175915000911
 20
13.48840434364797
 10
32.61083400030899
 20
13.48287787306298
 10
32.6039935588018
 20
13.47745137496797
 10
32.5976492284311
 20
13.47257049384299
 10
32.59123319822399
 20
13.46778415048998
 10
32.58533741742378
 20
13.46351920515099
 10
32.57938086706028
 20
13.45934033829198
 10
32.5739674180861
 20
13.45565608335999
 10
32.5685036365862
 20
13.45204737681097
 10
32.5629889971598
 20
13.44851697776698
 10
32.5574229744062
 20
13.44506764535198
 10
32.55243183726379
 20
13.44207185853997
 10
32.54739931681209
 20
13.43914424223999
 10
32.54232504404519
 20
13.43628673427099
 10
32.5372086499575
 20
13.43350127245499
 10
32.5320497655431
 20
13.43078979460999
 10
32.52684802179639
 20
13.428154238556
 10
32.52226104788439
 20
13.425911929988
 10
32.51764073007098
 20
13.42373053087296
 10
32.5129868211512
 20
13.42161133939898
 10
32.50829907461879
 20
13.41955565425199
 10
32.50357767120689
 20
13.41756507879899
 10
32.49882394420939
 20
13.41564203833297
 10
32.49472475064401
 20
13.41404941269998
 10
32.4906038908575
 20
13.41250990097998
 10
32.48646232564339
 20
13.41102511688096
 10
32.4823010157951
 20
13.40959667411399
 10
32.47812092210629
 20
13.40822618638799
 10
32.47392300537029
 20
13.40691526741
 10
32.46970822638071
 20
13.40566553089198
 10
32.4654775459311
 20
13.40447859054197
 10
32.46123192481479
 20
13.403356060069
 10
32.45768318737379
 20
13.40247098420999
 10
32.45412529770239
 20
13.40163269192296
 10
32.45055881181519
 20
13.400842117068
 10
32.44698428572709
 20
13.40010019350398
 10
32.44340227545289
 20
13.39940785509099
 10
32.43981333700729
 20
13.39876603568898
 10
32.43621802640499
 20
13.39817566915598
 10
32.43261689966078
 20
13.39763768935295
 10
32.42901051278951
 20
13.39715303013897
 10
32.42539942180578
 20
13.39672262537396
 10
32.4217841827246
 20
13.39634740891699
 10
32.41816535156039
 20
13.39602831462697
 10
32.41454348432819
 20
13.395766276364
 10
32.41091913704261
 20
13.395562227987
 10
32.40729286571848
 20
13.39541710335699
 10
32.40366522639031
 20
13.39533183623898
 10
32.4000368582182
 20
13.39530696721598
 10
32.3993211754912
 20
13.39530913688198
  0
LWPOLYLINE
  5
F9C
330
1E
100
AcDbEntity
  8
1
100
AcDbPolyline
 90
       92
 70
     0
 43
0.0
 10
37.8244954731
 20
2.760904510599991
 10
37.8196538019397
 20
2.776849837551985
 10
37.81463431577559
 20
2.792742947278008
 10
37.80943685251629
 20
2.808581159583975
 10
37.80406125007
 20
2.824361794274006
 10
37.7985073463452
 20
2.840082171154982
 10
37.79277497925021
 20
2.855739610029953
 10
37.78686398669349
 20
2.871331430704961
 10
37.7807742065834
 20
2.886854952984968
 10
37.77450547682819
 20
2.902307496674973
 10
37.76805763533639
 20
2.917686381579946
 10
37.76143036852221
 20
2.932988836570978
 10
37.7546222020175
 20
2.948211393749993
 10
37.74763112463989
 20
2.963350262997002
 10
37.7404551222995
 20
2.978401652444966
 10
37.7334843972622
 20
2.992576732442977
 10
37.72634418061068
 20
3.006666671379998
 10
37.7190327598252
 20
3.020668245146021
 10
37.7115484223862
 20
3.034578229633006
 10
37.7038894557738
 20
3.048393400729958
 10
37.69605414746829
 20
3.062110534328973
 10
37.68849067083629
 20
3.074972678264993
 10
37.68076646469678
 20
3.087740976589991
 10
37.6728784576081
 20
3.100409898982002
 10
37.66482339900611
 20
3.112973605622011
 10
37.6570866555397
 20
3.124696926611016
 10
37.64919634623709
 20
3.136317004421976
 10
37.6411497610819
 20
3.147828970362973
 10
37.6329441900576
 20
3.15922795573797
 10
37.6251046657896
 20
3.169807565581003
 10
37.61712079301221
 20
3.180279585293982
 10
37.60899033874078
 20
3.190640003194991
 10
37.60071106999038
 20
3.200884807605997
 10
37.5928475057222
 20
3.210338724146988
 10
37.5848500457815
 20
3.219683159868986
 10
37.57671579059479
 20
3.228910499176002
 10
37.56844180274229
 20
3.238012974466011
 10
37.56063112868639
 20
3.246346679117003
 10
37.55269508621439
 20
3.254559803659981
 10
37.54463132346371
 20
3.262646128918981
 10
37.53707245503349
 20
3.269992506974993
 10
37.52940090609921
 20
3.277220652308977
 10
37.52161482685709
 20
3.284325673372986
 10
37.5143753959956
 20
3.290726270367991
 10
37.50703674869269
 20
3.297015530776004
 10
37.49959746012859
 20
3.303189686856961
 10
37.49274593825218
 20
3.30869950165299
 10
37.4858090106257
 20
3.314107903383011
 10
37.47949199837239
 20
3.318883804556968
 10
37.47310445627059
 20
3.323567217200996
 10
37.46664577197238
 20
3.328152681995981
 10
37.4608444999197
 20
3.33214200949097
 10
37.454986102847
 20
3.336045798301991
 10
37.4490701506827
 20
3.339860214172995
 10
37.4438461412847
 20
3.343121500087983
 10
37.43857744888209
 20
3.346308855592971
 10
37.43326378536049
 20
3.349419712038971
 10
37.4279048626056
 20
3.352451500772981
 10
37.42250039250318
 20
3.355401653144971
 10
37.41705008693889
 20
3.358267600502976
 10
37.41234169677371
 20
3.360655159411003
 10
37.407599238463
 20
3.362977348663001
 10
37.4028225305706
 20
3.365232550681973
 10
37.39801139165999
 20
3.367419147892968
 10
37.39316564029468
 20
3.369535522718984
 10
37.38828509503849
 20
3.371580057582998
 10
37.38336957445488
 20
3.373551134910991
 10
37.37841906153021
 20
3.375447045408001
 10
37.37343485129678
 20
3.377265347913004
 10
37.36925698913789
 20
3.378719302214983
 10
37.36505817693871
 20
3.380115806697001
 10
37.360839529972
 20
3.381453244584966
 10
37.3566021635105
 20
3.382729999105998
 10
37.35234719282679
 20
3.383944453483985
 10
37.34807573319379
 20
3.38509499094399
 10
37.34378889988418
 20
3.386179994713978
 10
37.3394878081707
 20
3.38719784801699
 10
37.33517357332611
 20
3.388146934079963
 10
37.330847310623
 20
3.389025636128986
 10
37.32651013533429
 20
3.389832337387981
 10
37.32303328750489
 20
3.390424771355008
 10
37.31955074041489
 20
3.390969262292991
 10
37.31606306508378
 20
3.391464982413986
 10
37.3125708325314
 20
3.391911103927975
 10
37.30907461377729
 20
3.392306799046985
 10
37.3055749798411
 20
3.392651239983983
 10
37.30207250174239
 20
3.392943598947986
 10
37.298567750501
 20
3.393183048152986
 10
37.2950612971364
 20
3.393368759808988
 10
37.2915537126682
 20
3.393499906127991
 10
37.28804556811621
 20
3.393575659321008
 10
37.28454743447047
 20
3.393595216607986
  0
LWPOLYLINE
  5
FFA
330
1E
100
AcDbEntity
  8
1
100
AcDbPolyline
 90
       92
 70
     0
 43
0.0
 10
32.1755045269
 20
2.760904510599992
 10
32.1803461980604
 20
2.776849837551988
 10
32.1853656842246
 20
2.792742947278008
 10
32.19056314748419
 20
2.808581159583976
 10
32.19593874993061
 20
2.824361794274998
 10
32.20149265365559
 20
2.840082171155978
 10
32.20722502075079
 20
2.855739610031002
 10
32.21313601330769
 20
2.871331430706017
 10
32.21922579341789
 20
2.886854952987015
 10
32.22549452317299
 20
2.902307496676991
 10
32.23194236466467
 20
2.917686381582991
 10
32.23856963147879
 20
2.932988836573993
 10
32.24537779798328
 20
2.948211393753007
 10
32.25236887536059
 20
2.963350263001013
 10
32.2595448777008
 20
2.978401652449968
 10
32.26651560273799
 20
2.992576732448977
 10
32.27365581938949
 20
3.006666671385966
 10
32.280967240175
 20
3.020668245152986
 10
32.28845157761439
 20
3.034578229639004
 10
32.29611054422738
 20
3.048393400735982
 10
32.30394585253378
 20
3.062110534334998
 10
32.31150932916678
 20
3.074972678270023
 10
32.31923353530778
 20
3.087740976593007
 10
32.32712154239798
 20
3.100409898983963
 10
32.3351766010016
 20
3.112973605623006
 10
32.3429133444694
 20
3.124696926611016
 10
32.3508036537731
 20
3.136317004420983
 10
32.3588502389291
 20
3.147828970361013
 10
32.36705580995389
 20
3.159227955735981
 10
32.37489533422179
 20
3.169807565579982
 10
32.38287920699839
 20
3.180279585293984
 10
32.3910096612685
 20
3.190640003197013
 10
32.3992889300167
 20
3.200884807610004
 10
32.40715249428208
 20
3.210338724154973
 10
32.41514995421928
 20
3.219683159882003
 10
32.42328420940189
 20
3.228910499192973
 10
32.43155819725
 20
3.238012974487981
 10
32.43936887130159
 20
3.246346679145
 10
32.44730491376919
 20
3.254559803692978
 10
32.45536867651579
 20
3.262646128955986
 10
32.46292754494229
 20
3.26999250701598
 10
32.4705990938733
 20
3.277220652353997
 10
32.4783851731126
 20
3.284325673420024
 10
32.485624603972
 20
3.290726270417986
 10
32.49296325127328
 20
3.297015530827021
 10
32.5004025398364
 20
3.303189686908972
 10
32.5072540617126
 20
3.308699501704006
 10
32.51419098933959
 20
3.314107903432977
 10
32.52050800159379
 20
3.318883804605001
 10
32.526895543697
 20
3.323567217246985
 10
32.53335422799689
 20
3.328152682038985
 10
32.53915550005148
 20
3.332142009530993
 10
32.54501389712619
 20
3.336045798337997
 10
32.55092984929258
 20
3.339860214205993
 10
32.55615385869269
 20
3.343121500117968
 10
32.56142255109738
 20
3.346308855620033
 10
32.5667362146212
 20
3.349419712061969
 10
32.57209513737819
 20
3.35245150079299
 10
32.5774996074828
 20
3.35540165316197
 10
32.5829499130492
 20
3.358267600517986
 10
32.5876583032162
 20
3.360655159422971
 10
32.59240076152849
 20
3.362977348671984
 10
32.5971774694225
 20
3.365232550688993
 10
32.6019886083346
 20
3.367419147898
 10
32.60683435970118
 20
3.369535522721996
 10
32.6117149049586
 20
3.371580057584959
 10
32.6166304255432
 20
3.373551134909996
 10
32.62158093846888
 20
3.375447045406981
 10
32.62656514870299
 20
3.377265347910986
 10
32.63074301086239
 20
3.378719302211971
 10
32.6349418230619
 20
3.380115806693959
 10
32.6391604700289
 20
3.381453244582012
 10
32.6433978364907
 20
3.382729999101993
 10
32.64765280717439
 20
3.383944453478983
 10
32.6519242668075
 20
3.385094990939956
 10
32.65621110011709
 20
3.386179994709997
 10
32.6605121918306
 20
3.387197848012983
 10
32.6648264266751
 20
3.388146934076978
 10
32.6691526893781
 20
3.389025636126002
 10
32.6734898646667
 20
3.389832337385991
 10
32.67696671249589
 20
3.390424771352991
 10
32.68044925958589
 20
3.390969262290976
 10
32.68393693491676
 20
3.391464982411966
 10
32.687429167469
 20
3.391911103925986
 10
32.69092538622295
 20
3.392306799045992
 10
32.69442502015909
 20
3.392651239983018
 10
32.6979274982577
 20
3.392943598947987
 10
32.7014322494991
 20
3.393183048152986
 10
32.7049387028636
 20
3.393368759808988
 10
32.70844628733168
 20
3.393499906127992
 10
32.7119544318837
 20
3.393575659321009
 10
32.71545256552949
 20
3.393595216607986
  0
LWPOLYLINE
  5
1058
330
1E
100
AcDbEntity
  8
1
100
AcDbPolyline
 90
       88
 70
     0
 43
0.0
 10
37.60068882440001
 20
13.39530918359998
 10
37.60333745574671
 20
13.39533771677098
 10
37.6059881645601
 20
13.39539845289998
 10
37.6086404145793
 20
13.39549138109496
 10
37.61129366954349
 20
13.39561649046696
 10
37.61394739319179
 20
13.39577377012693
 10
37.6166010492635
 20
13.39596320918396
 10
37.6192541014977
 20
13.39618479674998
 10
37.62190601363339
 20
13.39643852193301
 10
37.62455624940999
 20
13.39672437384394
 10
37.6272042725665
 20
13.39704234159297
 10
37.6298495468421
 20
13.39739241429196
 10
37.63249153597596
 20
13.39777458104897
 10
37.63512970370729
 20
13.39818883097496
 10
37.6377635137751
 20
13.39863515317991
 10
37.64039242991879
 20
13.399113536774
 10
37.64301591587729
 20
13.39962397086796
 10
37.6456334353899
 20
13.40016644457193
 10
37.6482444521957
 20
13.40074094699598
 10
37.65084843003378
 20
13.40134746724998
 10
37.6534448326435
 20
13.40198599444499
 10
37.65603312376399
 20
13.40265651768998
 10
37.6586127671342
 20
13.40335902609598
 10
37.66118322649349
 20
13.40409350877198
 10
37.6637439655809
 20
13.40485995482993
 10
37.6662944481357
 20
13.40565835337994
 10
37.668834137897
 20
13.40648869353094
 10
37.67136249860389
 20
13.40735096439396
 10
37.6738789939956
 20
13.40824515507797
 10
37.67638308781128
 20
13.40917125469498
 10
37.67887424379011
 20
13.41012925235496
 10
37.6813519256712
 20
13.41111913716698
 10
37.68381559719371
 20
13.41214089824196
 10
37.68626472209679
 20
13.41319452468995
 10
37.68869876411971
 20
13.41428000562097
 10
37.69111720239529
 20
13.41539731529896
 10
37.6935197559551
 20
13.41654619661897
 10
37.6959063335207
 20
13.41772620953297
 10
37.69827684899221
 20
13.41893690899597
 10
37.7006312162694
 20
13.42017784996396
 10
37.70322813594889
 20
13.42159160039797
 10
37.7058048951827
 20
13.42304152610195
 10
37.70836137586369
 20
13.42452701659097
 10
37.71089745988479
 20
13.42604746137898
 10
37.71341302913899
 20
13.42760224998197
 10
37.715907965519
 20
13.429190771914
 10
37.71838215091789
 20
13.43081241668996
 10
37.7210796465127
 20
13.43263375421399
 10
37.72375173331019
 20
13.43449361913697
 10
37.72639825410989
 20
13.436391198902
 10
37.7290190517113
 20
13.43832568095398
 10
37.7316139689138
 20
13.44029625273599
 10
37.73441508647279
 20
13.44248617279799
 10
37.7371850130477
 20
13.44471702069497
 10
37.7399235445493
 20
13.44698774150898
 10
37.7428546218351
 20
13.44949146102196
 10
37.74574835451171
 20
13.45203939653398
 10
37.74860448309799
 20
13.45463020680698
 10
37.7516379619747
 20
13.45746672045399
 10
37.75462720398421
 20
13.46034972798996
 10
37.75757188504079
 20
13.463277554242
 10
37.76047168105849
 20
13.46624852403995
 10
37.7633262679515
 20
13.46926096221198
 10
37.7661353216341
 20
13.47231319358697
 10
37.7688985868147
 20
13.47540360469697
 10
37.77161630423178
 20
13.47853102699098
 10
37.77428893218321
 20
13.48169448705296
 10
37.7769169298949
 20
13.48489301230198
 10
37.7796836375588
 20
13.48835781029999
 10
37.78240020352988
 20
13.49186054898398
 10
37.7850671926361
 20
13.49540003212398
 10
37.78768516970529
 20
13.49897506348497
 10
37.7902546995655
 20
13.50258444683499
 10
37.7927763470447
 20
13.50622698594197
 10
37.79541396373199
 20
13.51014755818697
 10
37.7979984290507
 20
13.51410304148398
 10
37.80053042849289
 20
13.51809198405
 10
37.80301064755029
 20
13.52211293410299
 10
37.80543977171499
 20
13.52616443985799
 10
37.8079654980497
 20
13.53050102083796
 10
37.81043513911878
 20
13.53486871605297
 10
37.8128495171445
 20
13.53926578414398
 10
37.81520945434889
 20
13.54369048375094
 10
37.81751577295409
 20
13.54814107351199
 10
37.81990022870779
 20
13.55287974680597
 10
37.8222264700822
 20
13.55764342639798
 10
37.8244954731
 20
13.56243004519998
 10
37.8244912411632
 20
13.56242098479798
  0
LWPOLYLINE
  5
10B2
330
1E
100
AcDbEntity
  8
1
100
AcDbPolyline
 90
       88
 70
     0
 43
0.0
 10
32.39931117559999
 20
13.39530918359998
 10
32.39666254425311
 20
13.39533771677098
 10
32.39401183543948
 20
13.39539845289899
 10
32.39135958541999
 20
13.39549138109398
 10
32.3887063304555
 20
13.39561649046597
 10
32.3860526068067
 20
13.39577377012499
 10
32.3833989507346
 20
13.395963209182
 10
32.38074589849999
 20
13.39618479674601
 10
32.37809398636378
 20
13.39643852192801
 10
32.3754437505867
 20
13.39672437383798
 10
32.37279572742969
 20
13.39704234158696
 10
32.3701504531535
 20
13.39739241428296
 10
32.36750846401899
 20
13.39777458103897
 10
32.3648702962871
 20
13.39818883096398
 10
32.3622364862186
 20
13.39863515316699
 10
32.35960757007437
 20
13.39911353676001
 10
32.35698408411519
 20
13.39962397085298
 10
32.35436656460199
 20
13.40016644455498
 10
32.35175554779559
 20
13.40074094697796
 10
32.34915156995679
 20
13.40134746722998
 10
32.3465551673465
 20
13.40198599442296
 10
32.34396687622549
 20
13.40265651766598
 10
32.3413872328546
 20
13.403359026071
 10
32.33881677349478
 20
13.40409350874597
 10
32.3362560344068
 20
13.40485995480297
 10
32.33370555185148
 20
13.40565835335099
 10
32.3311658620897
 20
13.40648869350002
 10
32.32863750138239
 20
13.40735096436195
 10
32.3261210059903
 20
13.40824515504498
 10
32.3236169121742
 20
13.409171254661
 10
32.32112575619499
 20
13.41012925231896
 10
32.3186480743137
 20
13.41111913713098
 10
32.31618440279088
 20
13.41214089820496
 10
32.31373527788758
 20
13.41319452465199
 10
32.3113012358646
 20
13.41428000558196
 10
32.30888279758889
 20
13.41539731526
 10
32.30648024402919
 20
13.41654619657994
 10
32.3040936664636
 20
13.41772620949296
 10
32.30172315099228
 20
13.41893690895596
 10
32.2993687837153
 20
13.42017784992498
 10
32.29677186403609
 20
13.42159160035897
 10
32.29419510480261
 20
13.42304152606299
 10
32.2916386241221
 20
13.42452701655199
 10
32.28910254010151
 20
13.42604746134099
 10
32.2865869708479
 20
13.42760224994498
 10
32.2840920344685
 20
13.429190771878
 10
32.2816178490702
 20
13.43081241665498
 10
32.27892035347621
 20
13.432633754181
 10
32.27624826667951
 20
13.43449361910498
 10
32.2736017458806
 20
13.43639119887098
 10
32.2709809482801
 20
13.43832568092397
 10
32.26838603107848
 20
13.44029625270801
 10
32.2655849135206
 20
13.44248617277201
 10
32.26281498694678
 20
13.44471702067099
 10
32.26007645544619
 20
13.44698774148699
 10
32.25714537816151
 20
13.44949146100199
 10
32.25425164548589
 20
13.45203939651499
 10
32.2513955169007
 20
13.45463020679099
 10
32.2483620380251
 20
13.45746672043997
 10
32.24537279601661
 20
13.460349727978
 10
32.2424281149611
 20
13.46327755423199
 10
32.23952831894429
 20
13.46624852403198
 10
32.23667373205199
 20
13.46926096220498
 10
32.23386467837009
 20
13.47231319358198
 10
32.2311014131901
 20
13.47540360469398
 10
32.22838369577337
 20
13.47853102698796
 10
32.22571106782238
 20
13.48169448705098
 10
32.22308307011088
 20
13.48489301230099
 10
32.2203163624472
 20
13.4883578103
 10
32.2175997964762
 20
13.491860548985
 10
32.21493280736989
 20
13.49540003212499
 10
32.21231483030059
 20
13.49897506348598
 10
32.20974530044019
 20
13.502584446837
 10
32.20722365296078
 20
13.50622698594398
 10
32.2045860362731
 20
13.51014755818799
 10
32.20200157095389
 20
13.51410304148499
 10
32.19946957151139
 20
13.518091984052
 10
32.1969893524535
 20
13.52211293410398
 10
32.19456022828829
 20
13.52616443985898
 10
32.19203450195311
 20
13.53050102083797
 10
32.1895648608834
 20
13.53486871605297
 10
32.18715048285719
 20
13.53926578414398
 10
32.18479054565239
 20
13.54369048375096
 10
32.1824842270468
 20
13.548141073512
 10
32.1800997712927
 20
13.55287974680498
 10
32.177773529918
 20
13.55764342639798
 10
32.1755045269
 20
13.56243004519998
 10
32.17550875883679
 20
13.56242098479798
  0
LWPOLYLINE
  5
110C
330
1E
100
AcDbEntity
  8
1
100
AcDbPolyline
 90
       81
 70
     0
 43
0.0
 10
37.74366566579999
 20
-44.74075608119997
 10
37.7405645622972
 20
-44.74078417771599
 10
37.73746462656478
 20
-44.74088200393604
 10
37.73436664293658
 20
-44.741047548476
 10
37.7312713957462
 20
-44.74127879995601
 10
37.7281796693272
 20
-44.74157374699299
 10
37.72509224801328
 20
-44.74193037820501
 10
37.72200991613818
 20
-44.74234668221
 10
37.7189334580355
 20
-44.74282064762697
 10
37.71586365803878
 20
-44.74335026307397
 10
37.71280130048189
 20
-44.74393351716801
 10
37.70974716969828
 20
-44.744568398528
 10
37.70670205002188
 20
-44.74525289577199
 10
37.703666725786
 20
-44.74598499751804
 10
37.6996362197956
 20
-44.74703170816396
 10
37.69562638145409
 20
-44.74815470552496
 10
37.69163906992289
 20
-44.74934922188199
 10
37.6876760967867
 20
-44.75061056056599
 10
37.68373824250038
 20
-44.751935564825
 10
37.67982529028838
 20
-44.75332256719698
 10
37.6759369825807
 20
-44.75476996114299
 10
37.67207306180728
 20
-44.75627614012299
 10
37.66823327039809
 20
-44.75783949759996
 10
37.6634670706634
 20
-44.759871654245
 10
37.6587376675407
 20
-44.761987504301
 10
37.65404455796379
 20
-44.76418390999794
 10
37.64938723886599
 20
-44.76645773356399
 10
37.64476520718119
 20
-44.76880583722699
 10
37.64017795984269
 20
-44.77122508321802
 10
37.6356249937842
 20
-44.77371233376302
 10
37.63020597748609
 20
-44.77678238244805
 10
37.6248347325167
 20
-44.77994041723301
 10
37.61951038957727
 20
-44.78318101604999
 10
37.6133567753667
 20
-44.78705883282104
 10
37.60726443640368
 20
-44.791033038331
 10
37.60037502342478
 20
-44.79568196955495
 10
37.5935617831501
 20
-44.80043278538603
 10
37.58598557087978
 20
-44.80588851466904
 10
37.57850092509439
 20
-44.81145730509203
 10
37.57110544154579
 20
-44.81713494621199
 10
37.56298988636289
 20
-44.82356597967097
 10
37.5549781417997
 20
-44.830120422982
 10
37.54628118787317
 20
-44.837465955772
 10
37.5377014645575
 20
-44.844946138572
 10
37.528470309337
 20
-44.85325087266303
 10
37.51936774522839
 20
-44.86169672246203
 10
37.50964513584989
 20
-44.87099406287902
 10
37.49859649285299
 20
-44.88189642637999
 10
37.48699981050946
 20
-44.893710993736
 10
37.4755878560845
 20
-44.90570002509801
 10
37.46435525743809
 20
-44.91785515046101
 10
37.4526115602252
 20
-44.930943401142
 10
37.44105871953499
 20
-44.94420133815999
 10
37.42902767483388
 20
-44.958413905009
 10
37.41654523906959
 20
-44.97359923814101
 10
37.40427745848067
 20
-44.98896011127899
 10
37.3915867178661
 20
-45.00530500580999
 10
37.37849681778599
 20
-45.02264488818902
 10
37.36563923296627
 20
-45.04015360021905
 10
37.35241309410039
 20
-45.05866951238004
 10
37.33943110337327
 20
-45.07735571103203
 10
37.32611430329717
 20
-45.097065420851
 10
37.31305247549689
 20
-45.11694490718801
 10
37.2996880189155
 20
-45.13786069390199
 10
37.28658768270849
 20
-45.15894275602199
 10
37.27321497463928
 20
-45.18106987010399
 10
37.26011614062548
 20
-45.20335889922503
 10
37.24728932080878
 20
-45.22580494995803
 10
37.23473290956059
 20
-45.24840337875001
 10
37.22195936531099
 20
-45.27206239578002
 10
37.2094747522071
 20
-45.29587597908503
 10
37.19727726413489
 20
-45.31983890529995
 10
37.1853650953306
 20
-45.34394595118295
 10
37.17373762004786
 20
-45.36819231357095
 10
37.16239802639329
 20
-45.39257454699804
 10
37.1517697409336
 20
-45.41614418234503
 10
37.14141479479589
 20
-45.439833686102
 10
37.13133670590818
 20
-45.463640238662
 10
37.12192547341518
 20
-45.48660203131404
 10
37.1127757471246
 20
-45.50966660298001
 10
37.1112800523109
 20
-45.51351119248096
  0
LWPOLYLINE
  5
115F
330
1E
100
AcDbEntity
  8
1
100
AcDbPolyline
 90
       81
 70
     0
 43
0.0
 10
32.25633433419998
 20
-44.74075608119997
 10
32.25943543770269
 20
-44.74078417771599
 10
32.26253537343489
 20
-44.74088200393604
 10
32.26563335706289
 20
-44.741047548476
 10
32.26872860425308
 20
-44.74127879995601
 10
32.27182033067189
 20
-44.74157374699299
 10
32.27490775198559
 20
-44.74193037820501
 10
32.27799008386059
 20
-44.74234668221
 10
32.28106654196309
 20
-44.74282064762697
 10
32.28413634195959
 20
-44.74335026307397
 10
32.2871986995163
 20
-44.74393351716801
 10
32.29025283029971
 20
-44.744568398528
 10
32.29329794997609
 20
-44.74525289577199
 10
32.29633327421169
 20
-44.74598499751804
 10
32.30036378020199
 20
-44.74703170816396
 10
32.3043736185434
 20
-44.74815470552496
 10
32.30836093007448
 20
-44.74934922188096
 10
32.31232390321078
 20
-44.75061056056504
 10
32.3162617574971
 20
-44.75193556482397
 10
32.3201747097091
 20
-44.75332256719499
 10
32.32406301741689
 20
-44.75476996114095
 10
32.32792693819038
 20
-44.756276140121
 10
32.33176672959969
 20
-44.757839497597
 10
32.33653292933469
 20
-44.75987165424099
 10
32.34126233245748
 20
-44.76198750429702
 10
32.3459554420346
 20
-44.76418390999302
 10
32.35061276113248
 20
-44.76645773355803
 10
32.35523479281749
 20
-44.768805837222
 10
32.35982204015596
 20
-44.77122508321103
 10
32.3643750062145
 20
-44.77371233375598
 10
32.36979402251248
 20
-44.77678238244098
 10
32.3751652674816
 20
-44.77994041722602
 10
32.3804896104206
 20
-44.783181016042
 10
32.38664322463049
 20
-44.78705883281397
 10
32.39273556359248
 20
-44.791033038324
 10
32.39962497656987
 20
-44.79568196954899
 10
32.40643821684257
 20
-44.800432785382
 10
32.4140144291101
 20
-44.80588851466698
 10
32.4214990748922
 20
-44.81145730509402
 10
32.428894558437
 20
-44.817134946217
 10
32.43701011361537
 20
-44.82356597967999
 10
32.44502185817378
 20
-44.830120422995
 10
32.45371881209499
 20
-44.83746595579098
 10
32.46229853540539
 20
-44.84494613859597
 10
32.47152969062027
 20
-44.853250872693
 10
32.480632254724
 20
-44.86169672249602
 10
32.49035486409787
 20
-44.87099406291799
 10
32.50140350709099
 20
-44.881896426422
 10
32.51300018943278
 20
-44.89371099378
 10
32.52441214385849
 20
-44.90570002514099
 10
32.53564474250769
 20
-44.91785515050104
 10
32.54738843972547
 20
-44.93094340117703
 10
32.55894128042188
 20
-44.94420133818901
 10
32.57097232513048
 20
-44.958413905031
 10
32.5834547609031
 20
-44.97359923815397
 10
32.5957225415002
 20
-44.98896011128199
 10
32.60841328212221
 20
-45.005305005805
 10
32.6215031822082
 20
-45.02264488817799
 10
32.6343607670311
 20
-45.04015360020299
 10
32.6475869058982
 20
-45.05866951236002
 10
32.66056889662467
 20
-45.07735571101203
 10
32.673885696699
 20
-45.097065420831
 10
32.68694752449678
 20
-45.11694490716799
 10
32.70031198107559
 20
-45.13786069388403
 10
32.71341231728089
 20
-45.15894275600397
 10
32.72678502534978
 20
-45.18106987008501
 10
32.73988385936519
 20
-45.20335889920498
 10
32.75271067918438
 20
-45.22580494993603
 10
32.76526709043507
 20
-45.24840337872599
 10
32.77804063468629
 20
-45.272062395752
 10
32.79052524778978
 20
-45.29587597905599
 10
32.80272273585839
 20
-45.31983890527
 10
32.8146349046551
 20
-45.34394595115602
 10
32.82626237992579
 20
-45.36819231354697
 10
32.8376019735652
 20
-45.39257454698001
 10
32.8482302590089
 20
-45.41614418233201
 10
32.8585852051313
 20
-45.43983368609501
 10
32.8686632940056
 20
-45.46364023865899
 10
32.87807452648939
 20
-45.48660203131297
 10
32.88722425277557
 20
-45.50966660298001
 10
32.88871994758908
 20
-45.51351119248096
  0
LWPOLYLINE
  5
11B2
330
1E
100
AcDbEntity
  8
1
100
AcDbPolyline
 90
       65
 70
     0
 43
0.0
 10
37.8244954731
 20
-44.77365098200002
 10
37.82341957650279
 20
-44.77259623991201
 10
37.82232703068109
 20
-44.771555686107
 10
37.82121817391089
 20
-44.770529484352
 10
37.82002668784099
 20
-44.769458743025
 10
37.818817696244
 20
-44.768404469883
 10
37.81759160067188
 20
-44.76736685932705
 10
37.81634880267689
 20
-44.76634610575398
 10
37.815089703811
 20
-44.76534240356502
 10
37.81381470562628
 20
-44.76435594715904
 10
37.812524209675
 20
-44.76338693093501
 10
37.8112186175092
 20
-44.762435549292
 10
37.8098983306809
 20
-44.761501996629
 10
37.80863826221779
 20
-44.760636853943
 10
37.8073657829292
 20
-44.759787951433
 10
37.80608123109099
 20
-44.758955452865
 10
37.8047849449792
 20
-44.75813952200499
 10
37.80347726286978
 20
-44.75734032261899
 10
37.80215852303879
 20
-44.75655801847298
 10
37.80090755792195
 20
-44.75583731259798
 10
37.79964737940209
 20
-44.75513185434702
 10
37.7983782695021
 20
-44.75444178025397
 10
37.79710051024468
 20
-44.75376722685203
 10
37.79581438365299
 20
-44.753108330672
 10
37.7945201717497
 20
-44.75246522824899
 10
37.79321815655767
 20
-44.751838056114
 10
37.79190862009999
 20
-44.75122695080099
 10
37.7906743496317
 20
-44.75066875292404
 10
37.78943394892728
 20
-44.75012490877595
 10
37.78818765036638
 20
-44.74959553085599
 10
37.7869356863287
 20
-44.74908073166504
 10
37.78567828919399
 20
-44.74858062370098
 10
37.78441569134179
 20
-44.74809531946504
 10
37.78314812515188
 20
-44.747624931456
 10
37.7818758230041
 20
-44.74716957217302
 10
37.78059901727788
 20
-44.74672935411602
 10
37.77931794035299
 20
-44.74630438978503
 10
37.7781186199852
 20
-44.745921617903
 10
37.7769159702907
 20
-44.74555232317796
 10
37.7757101802027
 20
-44.74519659707399
 10
37.77450143865439
 20
-44.74485453105899
 10
37.77328993457928
 20
-44.74452621659903
 10
37.7720758569106
 20
-44.74421174516002
 10
37.77085939458159
 20
-44.74391120820903
 10
37.76964073652559
 20
-44.74362469721099
 10
37.76842007167588
 20
-44.74335230363304
 10
37.76719758896578
 20
-44.74309411894203
 10
37.76597347377546
 20
-44.74285022722201
 10
37.7647478517631
 20
-44.74262058847702
 10
37.7635207990092
 20
-44.74240505970899
 10
37.76229239009238
 20
-44.74220349479999
 10
37.76106269959109
 20
-44.74201574762999
 10
37.75983180208409
 20
-44.74184167208099
 10
37.75859977214969
 20
-44.74168112203304
 10
37.7572785681593
 20
-44.74152394728199
 10
37.75595624153009
 20
-44.74138195179704
 10
37.75463288399038
 20
-44.74125495585703
 10
37.75330858726849
 20
-44.74114277974196
 10
37.75198344309278
 20
-44.74104524373204
 10
37.7506575431917
 20
-44.74096216810703
 10
37.74924252033828
 20
-44.74088929017201
 10
37.74782685332799
 20
-44.74083244234701
 10
37.74641065348499
 20
-44.74079140651896
 10
37.74499403213347
 20
-44.74076596457396
 10
37.74367566576609
 20
-44.740756105563
  0
LWPOLYLINE
  5
11F5
330
1E
100
AcDbEntity
  8
1
100
AcDbPolyline
 90
       67
 70
     0
 43
0.0
 10
32.8581989155
 20
-37.23050254930004
 10
32.85616735792898
 20
-37.23048443691604
 10
32.85413583270627
 20
-37.230438250017
 10
32.85210461309789
 20
-37.23036445505296
 10
32.85007397236969
 20
-37.23026351847297
 10
32.84804418378758
 20
-37.23013590672699
 10
32.84601552061729
 20
-37.229982086266
 10
32.84398825612489
 20
-37.22980252354004
 10
32.84155776974709
 20
-37.229553725239
 10
32.83913016317177
 20
-37.22926933579002
 10
32.83670590860229
 20
-37.22895016121803
 10
32.83428547824209
 20
-37.22859700754896
 10
32.83186934429469
 20
-37.22821068080802
 10
32.82945797896348
 20
-37.227791987021
 10
32.827051854452
 20
-37.227341732214
 10
32.82465144296369
 20
-37.226860722412
 10
32.82225721670189
 20
-37.22634976364096
 10
32.819472400138
 20
-37.22571686822804
 10
32.81669739491769
 20
-37.22504558597099
 10
32.8139329508826
 20
-37.22433719680604
 10
32.8111797028696
 20
-37.22359289264803
 10
32.80843775332589
 20
-37.22281345790302
 10
32.80570705074949
 20
-37.221999559144
 10
32.80298754362308
 20
-37.22115186293102
 10
32.79989317810669
 20
-37.22014253768604
 10
32.79681329103036
 20
-37.21909093442004
 10
32.793747805494
 20
-37.21799804811602
 10
32.79069664459679
 20
-37.21686487375602
 10
32.78765973143848
 20
-37.21569240632297
 10
32.78463698911838
 20
-37.214481640799
 10
32.78125324683847
 20
-37.21307499026798
 10
32.77788723270569
 20
-37.21162254467396
 10
32.77453883722689
 20
-37.210125720702
 10
32.771207950909
 20
-37.20858593503503
 10
32.76752736837309
 20
-37.20682639798103
 10
32.76386811671248
 20
-37.20501751411496
 10
32.76023004573089
 20
-37.20316122676301
 10
32.75625245207628
 20
-37.20106687900799
 10
32.75230010539469
 20
-37.19892011102396
 10
32.74801701363079
 20
-37.19652143661902
 10
32.74376347040139
 20
-37.194066814102
 10
32.73918850891828
 20
-37.191348398565
 10
32.73429969063319
 20
-37.18835674688399
 10
32.72910501671219
 20
-37.18508352598197
 10
32.72327130018248
 20
-37.18129709180702
 10
32.71715564932538
 20
-37.17720851860999
 10
32.71076723050138
 20
-37.172809450875
 10
32.70444603324296
 20
-37.168327343578
 10
32.69786299455926
 20
-37.16352247207
 10
32.6910269955061
 20
-37.15838472313595
 10
32.68426690870619
 20
-37.15315552171004
 10
32.67726396692207
 20
-37.14758303162402
 10
32.67002653063848
 20
-37.14165839572999
 10
32.6625627334771
 20
-37.13537333111403
 10
32.6545750195149
 20
-37.128451965727
 10
32.64638372684649
 20
-37.12114744045305
 10
32.63769808531847
 20
-37.11317749103902
 10
32.628535857875
 20
-37.10452565317003
 10
32.61862430312349
 20
-37.09489249164796
 10
32.60799208819069
 20
-37.084253426772
 10
32.59723441911328
 20
-37.07316730383697
 10
32.5866372851767
 20
-37.06192718114003
 10
32.57592447588709
 20
-37.050239220387
 10
32.56510471347039
 20
-37.03810023132902
 10
32.55418643169769
 20
-37.025508051844
 10
32.54317773699169
 20
-37.012461632234
 10
32.5343993650687
 20
-37.001806026789
  0
LWPOLYLINE
  5
123A
330
1E
100
AcDbEntity
  8
1
100
AcDbPolyline
 90
       77
 70
     0
 43
0.0
 10
37.14180108449999
 20
-37.23050254930004
 10
37.14434047387018
 20
-37.230475505086
 10
37.14687970752959
 20
-37.230404778642
 10
37.1494182514777
 20
-37.23029128097003
 10
37.1519555717136
 20
-37.23013592307799
 10
37.1544911342367
 20
-37.229939615969
 10
37.1570244050462
 20
-37.22970327064903
 10
37.1595548501415
 20
-37.229427798123
 10
37.16292345841559
 20
-37.22900121145703
 10
37.16628482808368
 20
-37.22850884429798
 10
37.16963769336627
 20
-37.22795285606501
 10
37.1729807884841
 20
-37.22733540617801
 10
37.17631284765749
 20
-37.226658654058
 10
37.1796326051072
 20
-37.22592475912203
 10
37.1829387950536
 20
-37.22513588079202
 10
37.18623015171746
 20
-37.22429417848602
 10
37.1895056409186
 20
-37.22340163452499
 10
37.19276513070699
 20
-37.22245954131402
 10
37.19600870880579
 20
-37.22146902327803
 10
37.1992364629385
 20
-37.22043120484201
 10
37.20244848082799
 20
-37.21934721043199
 10
37.2064415077392
 20
-37.21792899544804
 10
37.21041025517259
 20
-37.21644258356199
 10
37.21435489446279
 20
-37.21489017091804
 10
37.21827559694427
 20
-37.21327395365801
 10
37.22217253395128
 20
-37.21159612792696
 10
37.22604587681845
 20
-37.20985888986699
 10
37.22989579688028
 20
-37.20806443562199
 10
37.23372246547099
 20
-37.206214961335
 10
37.2382840170772
 20
-37.20392605790503
 10
37.2428126293526
 20
-37.20156488299703
 10
37.24730859836339
 20
-37.19913523154501
 10
37.25177222017529
 20
-37.19664089848597
 10
37.2569392906737
 20
-37.19365415572897
 10
37.26206320616078
 20
-37.19059056566303
 10
37.26786686980078
 20
-37.187002951553
 10
37.27361548356029
 20
-37.18333183182997
 10
37.2800177482086
 20
-37.179113164487
 10
37.28705215510749
 20
-37.17432607650299
 10
37.29400515726138
 20
-37.16943808006202
 10
37.30087884601529
 20
-37.16445259211301
 10
37.30835079268728
 20
-37.158860030804
 10
37.3157320842521
 20
-37.15315818723697
 10
37.3230255042896
 20
-37.147351609369
 10
37.3308850162617
 20
-37.140903055858
 10
37.33928940796439
 20
-37.13378942324899
 10
37.3475837937546
 20
-37.12655029756499
 10
37.35639845504609
 20
-37.11862258244302
 10
37.36571359238909
 20
-37.10998740835502
 10
37.37551026642509
 20
-37.10062827388
 10
37.38636981238379
 20
-37.08993324576097
 10
37.39765617407028
 20
-37.078468598826
 10
37.40876645367649
 20
-37.06683245376698
 10
37.42027666999899
 20
-37.05440771574703
 10
37.4316029794605
 20
-37.04181180184204
 10
37.44330395804239
 20
-37.028412441195
 10
37.45535869000799
 20
-37.01419622366703
 10
37.46721278233199
 20
-36.99980972730597
 10
37.47939946630849
 20
-36.98460119975002
 10
37.49190055574849
 20
-36.96856390145601
 10
37.50469783543677
 20
-36.951691665693
 10
37.51727149850228
 20
-36.93465705041004
 10
37.53011618496179
 20
-36.91677547070596
 10
37.54321046818529
 20
-36.898034836844
 10
37.55606183192199
 20
-36.87912739253496
 10
37.56913921846968
 20
-36.85935184141599
 10
37.58242264802338
 20
-36.83869906804503
 10
37.5958927286171
 20
-36.81716127310297
 10
37.60909412972118
 20
-36.795457476017
 10
37.6220297029767
 20
-36.773594138282
 10
37.63470110650459
 20
-36.75157682072899
 10
37.64751912647439
 20
-36.72866973510895
 10
37.6600586718977
 20
-36.705610306645
 10
37.67232157229189
 20
-36.68240467099102
 10
37.68430965717418
 20
-36.65905896380197
 10
37.69602474765859
 20
-36.63557905264699
 10
37.69899950364719
 20
-36.6295071923
  0
LWPOLYLINE
  5
1289
330
1E
100
AcDbEntity
  8
1
100
AcDbPolyline
 90
       65
 70
     0
 43
0.0
 10
32.17550452689998
 20
-44.77365098200002
 10
32.17658042349719
 20
-44.77259623991201
 10
32.17767296931889
 20
-44.771555686107
 10
32.1787818260891
 20
-44.770529484352
 10
32.179973312159
 20
-44.769458743025
 10
32.18118230375598
 20
-44.768404469883
 10
32.1824083993281
 20
-44.76736685932602
 10
32.18365119732307
 20
-44.76634610575398
 10
32.18491029618898
 20
-44.76534240356502
 10
32.1861852943737
 20
-44.76435594715904
 10
32.18747579032497
 20
-44.76338693093398
 10
32.18878138249078
 20
-44.762435549292
 10
32.19010166931909
 20
-44.761501996629
 10
32.19136173778219
 20
-44.760636853943
 10
32.19263421707078
 20
-44.759787951433
 10
32.19391876890898
 20
-44.758955452865
 10
32.19521505502078
 20
-44.75813952200499
 10
32.19652273713009
 20
-44.75734032261899
 10
32.19784147696119
 20
-44.75655801847298
 10
32.19909244207799
 20
-44.75583731259798
 10
32.20035262059789
 20
-44.75513185434702
 10
32.20162173049788
 20
-44.75444178025397
 10
32.20289948975529
 20
-44.75376722685203
 10
32.20418561634699
 20
-44.753108330672
 10
32.20547982825029
 20
-44.75246522824899
 10
32.20678184344228
 20
-44.751838056114
 10
32.20809137989999
 20
-44.75122695080099
 10
32.20932565036829
 20
-44.75066875292404
 10
32.21056605107269
 20
-44.75012490877595
 10
32.2118123496336
 20
-44.74959553085599
 10
32.21306431367128
 20
-44.74908073166504
 10
32.21432171080608
 20
-44.74858062370098
 10
32.21558430865818
 20
-44.74809531946504
 10
32.2168518748481
 20
-44.74762493145503
 10
32.21812417699589
 20
-44.74716957217302
 10
32.21940098272209
 20
-44.74672935411602
 10
32.220682059647
 20
-44.74630438978503
 10
32.22188138001476
 20
-44.745921617903
 10
32.22308402970928
 20
-44.74555232317796
 10
32.22428981979728
 20
-44.74519659707399
 10
32.2254985613456
 20
-44.74485453105899
 10
32.22671006542069
 20
-44.74452621659903
 10
32.22792414308938
 20
-44.74421174516002
 10
32.22914060541839
 20
-44.74391120820903
 10
32.23035926347439
 20
-44.74362469721099
 10
32.2315799283241
 20
-44.74335230363304
 10
32.23280241103419
 20
-44.74309411894203
 10
32.23402652622449
 20
-44.74285022722201
 10
32.23525214823688
 20
-44.74262058847702
 10
32.23647920099079
 20
-44.74240505970899
 10
32.2377076099076
 20
-44.74220349479999
 10
32.23893730040889
 20
-44.74201574762999
 10
32.24016819791589
 20
-44.74184167208099
 10
32.24140022785029
 20
-44.74168112203304
 10
32.24272143184069
 20
-44.74152394728199
 10
32.24404375846989
 20
-44.74138195179704
 10
32.2453671160096
 20
-44.74125495585703
 10
32.2466914127315
 20
-44.74114277974196
 10
32.2480165569071
 20
-44.74104524373204
 10
32.24934245680829
 20
-44.74096216810703
 10
32.25075747966169
 20
-44.74088929017201
 10
32.25217314667209
 20
-44.74083244234701
 10
32.25358934651497
 20
-44.74079140651896
 10
32.2550059678665
 20
-44.74076596457396
 10
32.25632433423387
 20
-44.740756105563
  0
LWPOLYLINE
  5
12CC
330
1E
100
AcDbEntity
  8
1
100
AcDbPolyline
 90
       73
 70
     0
 43
0.0
 10
37.1112764355
 20
39.01555504499996
 10
37.12259262340249
 20
38.98778697797096
 10
37.13468873005679
 20
38.95904131810296
 10
37.1475914351096
 20
38.92933352941999
 10
37.16132617072229
 20
38.89867963257997
 10
37.17591686417989
 20
38.86709620055797
 10
37.19138575270671
 20
38.83460037114099
 10
37.20775836456861
 20
38.801210934056
 10
37.22452057244779
 20
38.76801675756399
 10
37.24222768297611
 20
38.73395951604399
 10
37.26034081245328
 20
38.700116268519
 10
37.27885532976829
 20
38.66649002852799
 10
37.29776880766671
 20
38.63308541260599
 10
37.31708670196821
 20
38.59991277111595
 10
37.33619338011278
 20
38.56800896533599
 10
37.35569292916049
 20
38.53634435347299
 10
37.37494370659951
 20
38.505938885814
 10
37.39391448829139
 20
38.47677872832799
 10
37.41258102986371
 20
38.44885471967396
 10
37.4309226183814
 20
38.42215957439699
 10
37.44891650847571
 20
38.39668332190797
 10
37.466538106089
 20
38.37241352897399
 10
37.48376127312911
 20
38.34933562031499
 10
37.500559147922
 20
38.32743393506098
 10
37.51616246157861
 20
38.30764025677402
 10
37.53127834629879
 20
38.28899477818196
 10
37.5458860182
 20
38.271488857731
 10
37.55996157785689
 20
38.25510892278797
 10
37.5734786494918
 20
38.23983729474099
 10
37.5864089865239
 20
38.22565297067296
 10
37.5995508273387
 20
38.211664070455
 10
37.6112349129208
 20
38.19959914059399
 10
37.62225480994279
 20
38.18856350284995
 10
37.63258558916171
 20
38.17853710417799
 10
37.642199263978
 20
38.169494829569
 10
37.65195957724638
 20
38.16060676129995
 10
37.66096726687111
 20
38.15267037738396
 10
37.6701100752722
 20
38.14487992933698
 10
37.6784596118265
 20
38.13800057942899
 10
37.6869288032701
 20
38.13125299001999
 10
37.69456169707639
 20
38.12537219437699
 10
37.7013280240672
 20
38.12033409989999
 10
37.70719904424778
 20
38.11611353699196
 10
37.71214566570979
 20
38.11267625887996
 10
37.71714456090029
 20
38.10932038140099
 10
37.72219862452661
 20
38.10605415715797
 10
37.72628354194479
 20
38.10351127384299
 10
37.7304071018647
 20
38.10103527559599
 10
37.7345707863766
 20
38.098630387751
 10
37.73877607757051
 20
38.09630083563996
 10
37.74302445753661
 20
38.09405084459496
 10
37.74731740836509
 20
38.09188463994799
 10
37.75165641214611
 20
38.08980644703199
 10
37.7560429509697
 20
38.08782049117997
 10
37.75936494152901
 20
38.08639409666496
 10
37.76271512948221
 20
38.08502374480897
 10
37.76609414008621
 20
38.08371121817496
 10
37.7695023342111
 20
38.08245890230497
 10
37.77293829861789
 20
38.08127322890499
 10
37.7763998902144
 20
38.08016229423799
 10
37.77988496365439
 20
38.07913419970802
 10
37.78339137359171
 20
38.07819704671999
 10
37.78691697468011
 20
38.07735893667699
 10
37.78927697772621
 20
38.07685922120099
 10
37.7916439210275
 20
38.07640952585098
 10
37.79401716892589
 20
38.07601225104399
 10
37.79639608576317
 20
38.07566979719597
 10
37.7987800358814
 20
38.075384564723
 10
37.80116838362229
 20
38.075158954041
 10
37.80356049332779
 20
38.07499536556602
 10
37.80595572933972
 20
38.074896199713
 10
37.80835345599999
 20
38.0748638569
 10
37.8083434560192
 20
38.07486384971099
  0
LWPOLYLINE
  5
1317
330
1E
100
AcDbEntity
  8
1
100
AcDbPolyline
 90
       72
 70
     0
 43
0.0
 10
32.88872356440001
 20
39.01555504499996
 10
32.87740737649599
 20
38.98778697797096
 10
32.86531126983859
 20
38.95904131810399
 10
32.8524085647826
 20
38.929333529421
 10
32.8386738291682
 20
38.898679632581
 10
32.8240831357129
 20
38.86709620055699
 10
32.80861424719478
 20
38.83460037113395
 10
32.79224163534861
 20
38.80121093403896
 10
32.7754794274884
 20
38.768016757535
 10
32.75777231697889
 20
38.733959516005
 10
32.73965918751521
 20
38.700116268472
 10
32.72114467020398
 20
38.66649002847799
 10
32.70223119229711
 20
38.63308541256095
 10
32.6829132979785
 20
38.59991277107999
 10
32.66380661981399
 20
38.56800896530999
 10
32.6443070707478
 20
38.53634435345695
 10
32.6250562932968
 20
38.50593888580499
 10
32.60608551160239
 20
38.476778728318
 10
32.58741897003621
 20
38.44885471965896
 10
32.56907738152991
 20
38.42215957437399
 10
32.55108349144939
 20
38.39668332187399
 10
32.53346189384989
 20
38.37241352892996
 10
32.51623872682179
 20
38.349335620261
 10
32.49944085203778
 20
38.327433934998
 10
32.48383753838639
 20
38.30764025670499
 10
32.46872165366819
 20
38.288994778109
 10
32.45411398176648
 20
38.27148885765699
 10
32.4400384221068
 20
38.25510892271496
 10
32.42652135046701
 20
38.23983729467099
 10
32.41359101342839
 20
38.22565297060997
 10
32.4004491726051
 20
38.21166407040097
 10
32.3887650870143
 20
38.19959914054999
 10
32.3777451899835
 20
38.188563502816
 10
32.3674144107565
 20
38.178537104153
 10
32.35780073593319
 20
38.16949482955195
 10
32.34804042265848
 20
38.16060676129
 10
32.33903273302901
 20
38.15267037737799
 10
32.32988992462419
 20
38.14487992933396
 10
32.32154038806771
 20
38.13800057942696
 10
32.31307119662328
 20
38.13125299001599
 10
32.30543830281761
 20
38.12537219436999
 10
32.29867197582811
 20
38.12033409988899
 10
32.29280095564901
 20
38.116113536976
 10
32.28785433418861
 20
38.11267625885998
 10
32.28285543899978
 20
38.10932038137695
 10
32.27780137537521
 20
38.10605415713096
 10
32.27371645795837
 20
38.10351127381301
 10
32.26959289803978
 20
38.10103527556396
 10
32.26542921352921
 20
38.098630387717
 10
32.26122392233639
 20
38.09630083560295
 10
32.25697554237128
 20
38.09405084455699
 10
32.25268259154361
 20
38.09188463990901
 10
32.24834358776311
 20
38.08980644699295
 10
32.24395704893979
 20
38.087820491141
 10
32.2406350583804
 20
38.086394096627
 10
32.2372848704269
 20
38.08502374477302
 10
32.23390585982251
 20
38.08371121814099
 10
32.23049766569696
 20
38.082458902273
 10
32.22706170128939
 20
38.08127322887596
 10
32.22360010969211
 20
38.08016229421196
 10
32.22011503625119
 20
38.07913419968599
 10
32.21660862631289
 20
38.078197046702
 10
32.21308302522349
 20
38.07735893666301
 10
32.2107230221768
 20
38.07685922118896
 10
32.20835607887501
 20
38.07640952584199
 10
32.2059828309761
 20
38.076012251037
 10
32.20360391413819
 20
38.07566979719096
 10
32.2012199640196
 20
38.07538456471996
 10
32.1988316162783
 20
38.07515895403896
 10
32.1964395065726
 20
38.07499536556497
 10
32.19404427056039
 20
38.074896199713
 10
32.19165654388081
 20
38.07486384971099
  0
LWPOLYLINE
  5
1361
330
1E
100
AcDbEntity
  8
1
100
AcDbPolyline
 90
       64
 70
     0
 43
0.0
 10
37.82449547310001
 20
31.60682303609998
 10
37.81702498499238
 20
31.62921894830401
 10
37.8092975153396
 20
31.65152924629501
 10
37.8008741989415
 20
31.67498719764498
 10
37.7917258990552
 20
31.69957914868398
 10
37.78182565237949
 20
31.72529105188499
 10
37.77065685971709
 20
31.753324630788
 10
37.7586629593615
 20
31.78243747667702
 10
37.7458173044098
 20
31.81261325049499
 10
37.7326232876851
 20
31.84263683144098
 10
37.71854364673011
 20
31.87370096434098
 10
37.70354921500171
 20
31.90578794804098
 10
37.68761218720571
 20
31.938879623453
 10
37.67070319757679
 20
31.97295609786397
 10
37.65338911663929
 20
32.00682870641396
 10
37.63567332712661
 20
32.040493466858
 10
37.61755921177211
 20
32.07394639694898
 10
37.5984049066605
 20
32.10832572455998
 10
37.5794895580651
 20
32.14133444733798
 10
37.56017611017039
 20
32.17411185398499
 10
37.54114334937728
 20
32.20552787507998
 10
37.5217247205049
 20
32.23670551465497
 10
37.50262738929511
 20
32.26653344814296
 10
37.4831578247245
 20
32.29611916241398
 10
37.46404443945179
 20
32.32436537694499
 10
37.44606501331178
 20
32.35020831218
 10
37.42851551084572
 20
32.37475089322398
 10
37.4114226015181
 20
32.39800787164297
 10
37.39481485653579
 20
32.41999635516598
 10
37.37791043244889
 20
32.44176692046198
 10
37.3623469378716
 20
32.46125974283899
 10
37.3473491977365
 20
32.47952144935098
 10
37.33294294890261
 20
32.49656231117298
 10
37.3191567626476
 20
32.51239841800199
 10
37.3051381156755
 20
32.52802034558396
 10
37.29177407056631
 20
32.54245573908999
 10
37.2790987814336
 20
32.55573219639895
 10
37.26714433277239
 20
32.56787706910799
 10
37.2559319872461
 20
32.57890821829298
 10
37.24548568661961
 20
32.58884756817297
 10
37.23583514778439
 20
32.59772403011498
 10
37.22701383698281
 20
32.60557120456498
 10
37.21805455978371
 20
32.61327365548699
 10
37.20996769281029
 20
32.61999056817399
 10
37.20175844665529
 20
32.62657796699099
 10
37.19342053016847
 20
32.63302871574295
 10
37.1860143576753
 20
32.63855541505898
 10
37.1795805388305
 20
32.64319777324799
 10
37.1730637296664
 20
32.64773254488198
 10
37.1675668178761
 20
32.65141302829696
 10
37.16200725844188
 20
32.65499001863798
 10
37.15751297259039
 20
32.65776830485798
 10
37.1529759659601
 20
32.66046528515798
 10
37.1483950713126
 20
32.66307426160202
 10
37.14376912140931
 20
32.66558853625595
 10
37.1390969490119
 20
32.66800141118495
 10
37.135561784035
 20
32.66974049458594
 10
37.13199946990481
 20
32.67141594736201
 10
37.12840951419249
 20
32.67302494382098
 10
37.1247914244694
 20
32.67456465827298
 10
37.12114470830661
 20
32.676032265026
 10
37.11746887327549
 20
32.67742493838901
 10
37.11376342694741
 20
32.67873985267097
 10
37.11128594196381
 20
32.67956876457097
  0
LWPOLYLINE
  5
13A3
330
1E
100
AcDbEntity
  8
1
100
AcDbPolyline
 90
       64
 70
     0
 43
0.0
 10
32.17550452690001
 20
31.60682303609998
 10
32.1829750150071
 20
31.629218948302
 10
32.1907024846596
 20
31.651529246292
 10
32.1991258010573
 20
31.67498719763997
 10
32.20827410094297
 20
31.69957914867798
 10
32.21817434761808
 20
31.72529105187701
 10
32.22934314027948
 20
31.75332463077799
 10
32.24133704063358
 20
31.78243747666701
 10
32.25418269558351
 20
31.81261325048398
 10
32.26737671230651
 20
31.84263683142797
 10
32.28145635325999
 20
31.87370096432601
 10
32.296450784988
 20
31.905787948024
 10
32.31238781278479
 20
31.938879623432
 10
32.32929680241621
 20
31.97295609783898
 10
32.3466108833561
 20
32.00682870638495
 10
32.36432667286939
 20
32.04049346682496
 10
32.38244078822101
 20
32.07394639691597
 10
32.401595093324
 20
32.10832572452896
 10
32.42051044190428
 20
32.14133444731396
 10
32.43982388977981
 20
32.17411185397099
 10
32.4588566505538
 20
32.20552787507398
 10
32.4782752794099
 20
32.236705514657
 10
32.4973726106097
 20
32.26653344814798
 10
32.51684217517901
 20
32.29611916241696
 10
32.5359555604585
 20
32.32436537693898
 10
32.5539349866097
 20
32.35020831216298
 10
32.57148448908839
 20
32.37475089319596
 10
32.58857739842778
 20
32.39800787160498
 10
32.60518514341949
 20
32.41999635511998
 10
32.6220895675123
 20
32.44176692040999
 10
32.63765306209119
 20
32.46125974278498
 10
32.65265080222528
 20
32.47952144929596
 10
32.66705705105671
 20
32.49656231111897
 10
32.6808432373086
 20
32.51239841794897
 10
32.6948618842773
 20
32.52802034553197
 10
32.70822592938369
 20
32.54245573903798
 10
32.72090121851451
 20
32.55573219634601
 10
32.73285566717467
 20
32.56787706905298
 10
32.7440680127004
 20
32.578908218235
 10
32.75451431332639
 20
32.58884756811398
 10
32.76416485216101
 20
32.59772403005398
 10
32.77298616296171
 20
32.60557120450498
 10
32.7819454401595
 20
32.61327365542601
 10
32.7900323071312
 20
32.61999056811496
 10
32.79824155328389
 20
32.626577966934
 10
32.80657946976779
 20
32.63302871568998
 10
32.81398564225769
 20
32.63855541500999
 10
32.82041946109941
 20
32.64319777320298
 10
32.8269362702599
 20
32.64773254484302
 10
32.83243318204689
 20
32.65141302826296
 10
32.83799274147789
 20
32.65499001860899
 10
32.84248702732689
 20
32.65776830483297
 10
32.84702403395461
 20
32.660465285137
 10
32.85160492859961
 20
32.66307426158498
 10
32.8562308785005
 20
32.66558853624299
 10
32.86090305089579
 20
32.66800141117498
 10
32.8644382158711
 20
32.66974049457799
 10
32.86800052999989
 20
32.67141594735594
 10
32.87159048571089
 20
32.67302494381701
 10
32.87520857543301
 20
32.67456465826998
 10
32.8788552915948
 20
32.676032265025
 10
32.88253112662518
 20
32.67742493838901
 10
32.88623657295278
 20
32.67873985267097
 10
32.88871405793619
 20
32.67956876457097
  0
LWPOLYLINE
  5
1421
330
1E
100
AcDbEntity
  8
SK1
100
AcDbPolyline
 90
       40
 70
     0
 43
0.0
 10
-20.0
 20
-20.46338192969997
 10
-19.78228344588498
 20
-20.46454509714098
 10
-19.56456611438598
 20
-20.46802937450198
 10
-19.34687681789202
 20
-20.473826924336
 10
-19.129244368792
 20
-20.48192990919901
 10
-18.91169757947698
 20
-20.49233049164298
 10
-18.683397168195
 20
-20.50571531697201
 10
-18.45525631642701
 20
-20.52161553002801
 10
-18.22730837811498
 20
-20.54002205798903
 10
-17.99958606337401
 20
-20.560924994732
 10
-17.77211515081499
 20
-20.58430546278501
 10
-17.54491719641998
 20
-20.61013911938097
 10
-17.31801369619199
 20
-20.63840154412396
 10
-17.08064450960699
 20
-20.67058819575905
 10
-16.84364679553797
 20
-20.70538555489601
 10
-16.60704526939999
 20
-20.74276554375003
 10
-16.370864646605
 20
-20.78270008453297
 10
-16.124424061914
 20
-20.82714872452198
 10
-15.878490834827
 20
-20.87431485102297
 10
-15.63308533006197
 20
-20.92415466229701
 10
-15.377594685298
 20
-20.97896462793304
 10
-15.122723961546
 20
-21.03658836649398
 10
-14.868496296955
 20
-21.09697611096598
 10
-14.604384357875
 20
-21.16276542952303
 10
-14.34101517783899
 20
-21.23144119085096
 10
-14.06791379065799
 20
-21.30586019815101
 10
-13.79564545650199
 20
-21.38326613320001
 10
-13.513803017712
 20
-21.466736796275
 10
-13.22250578773298
 20
-21.55654020071303
 10
-12.93222619133401
 20
-21.64955902954701
 10
-12.632660772826
 20
-21.74919927999903
 10
-12.323930774079
 20
-21.855709399169
 10
-12.00616289705401
 20
-21.96932935822704
 10
-11.67948800441998
 20
-22.09028980062598
 10
-11.34403416224998
 20
-22.21881462384001
 10
-10.99993050531099
 20
-22.355116832888
 10
-10.64730886498731
 20
-22.49939610812
 10
-10.27629432058599
 20
-22.65613490052996
 10
-9.89711618767841
 20
-22.82144297946901
 10
-9.500009096882511
 20
-22.99999584708196
  0
LWPOLYLINE
  5
144B
330
1E
100
AcDbEntity
  8
SK1
100
AcDbPolyline
 90
       40
 70
     0
 43
0.0
 10
-30.50000000000001
 20
-23.00000000000002
 10
-30.10288361361201
 20
-22.82144289112996
 10
-29.72370527988299
 20
-22.65613472931399
 10
-29.35269051816398
 20
-22.499395848663
 10
-29.00006865920701
 20
-22.35511649957398
 10
-28.65596474604902
 20
-22.21881419545096
 10
-28.32051064282401
 20
-22.09028927724701
 10
-27.99383553924799
 20
-21.96932878685398
 10
-27.67606741995102
 20
-21.85570877915299
 10
-27.36733714804699
 20
-21.74919858905704
 10
-27.06777151798898
 20
-21.64955828006904
 10
-26.77749184627201
 20
-21.55653943321899
 10
-26.48619458318802
 20
-21.46673605136898
 10
-26.20435201959602
 20
-21.38326541799503
 10
-25.93208355408199
 20
-21.30585950732998
 10
-25.65898209762
 20
-21.23144050935601
 10
-25.39561297665201
 20
-21.16276473276101
 10
-25.131501227538
 20
-21.09697538702002
 10
-24.87727363407901
 20
-21.03658769386897
 10
-24.62240288649899
 20
-20.97896405830201
 10
-24.36691218106201
 20
-20.924154205517
 10
-24.12150663735502
 20
-20.87431447295597
 10
-23.875573442013
 20
-20.827148359022
 10
-23.62913301090098
 20
-20.78269962865495
 10
-23.392952603435
 20
-20.74276500085399
 10
-23.156351279742
 20
-20.70538503284498
 10
-22.91935376548799
 20
-20.67058776635801
 10
-22.68198478638398
 20
-20.63840124305702
 10
-22.455081500817
 20
-20.61013894091697
 10
-22.22788378640801
 20
-20.58430537510801
 10
-22.00041314811498
 20
-20.56092493460803
 10
-21.77269114474301
 20
-20.54002193878901
 10
-21.544743470092
 20
-20.52161536144703
 10
-21.31660280959799
 20
-20.50571513784498
 10
-21.08830252375501
 20
-20.49233033055603
 10
-20.87075579869498
 20
-20.481929782489
 10
-20.65312336573899
 20
-20.47382683977998
 10
-20.43543404293801
 20
-20.46802933101801
 10
-20.21771664834199
 20
-20.46454508479498
 10
-20.00001000000001
 20
-20.46338192970202
  0
LWPOLYLINE
  5
1475
330
1E
100
AcDbEntity
  8
SK1
100
AcDbPolyline
 90
       40
 70
     0
 43
0.0
 10
-20.0
 20
20.46338192969999
 10
-20.217716649587
 20
20.46454508465298
 10
-20.43543404502699
 20
20.46802933052199
 10
-20.653123368273
 20
20.47382683882498
 10
-20.870755801278
 20
20.48192978107997
 10
-21.08830252599497
 20
20.49233032880299
 10
-21.31660281105601
 20
20.50571513597004
 10
-21.544743470342
 20
20.52161535981797
 10
-21.77269114336
 20
20.54002193789802
 10
-22.00041314497299
 20
20.560924934686
 10
-22.227883782152
 20
20.58430537543697
 10
-22.45508149597901
 20
20.61013894094199
 10
-22.68198478132098
 20
20.63840124245897
 10
-22.91935376038499
 20
20.67058776501798
 10
-23.156351274602
 20
20.70538503094098
 10
-23.392952598063
 20
20.74276499883398
 10
-23.62913300490298
 20
20.78269962723398
 10
-23.87557343545898
 20
20.82714835816298
 10
-24.121506630705
 20
20.87431447191899
 10
-24.36691217447199
 20
20.92415420385
 10
-24.622402879817
 20
20.97896405580998
 10
-24.87727362681098
 20
21.03658769070399
 10
-25.131501218848
 20
21.09697538366096
 10
-25.395612965678
 20
21.16276472987995
 10
-25.658982085798
 20
21.23144050675298
 10
-25.932083542605
 20
21.30585950469199
 10
-26.204352008863
 20
21.38326541507898
 10
-26.48619457272801
 20
21.46673604799601
 10
-26.77749183456298
 20
21.556539429298
 10
-27.06777150509498
 20
21.64955827585798
 10
-27.36733713501001
 20
21.749198584779
 10
-27.676067407025
 20
21.855708774714
 10
-27.99383552571899
 20
21.96932878176998
 10
-28.32051062898198
 20
22.090289271826
 10
-28.655964733839
 20
22.21881419084102
 10
-29.00006864900401
 20
22.35511649562301
 10
-29.35269050974897
 20
22.49939584502697
 10
-29.723705274262
 20
22.656134726934
 10
-30.10288361083
 20
22.82144288984699
 10
-30.49999090311699
 20
22.99999584708201
  0
LWPOLYLINE
  5
149F
330
1E
100
AcDbEntity
  8
1
100
AcDbPolyline
 90
       67
 70
     0
 43
0.0
 10
31.57751262659999
 20
14.2276266247
 10
31.57264551386161
 20
14.23237852838598
 10
31.56757723715998
 20
14.23747226162699
 10
31.5625813402848
 20
14.24264460718796
 10
31.5576591235737
 20
14.24789421515798
 10
31.55255887133629
 20
14.25350210342698
 10
31.54779196676638
 20
14.25890607342699
 10
31.54310271181139
 20
14.26438318504698
 10
31.53849240680848
 20
14.26993208837598
 10
31.53419875428429
 20
14.27525394417199
 10
31.5299782325881
 20
14.28063787417699
 10
31.5258319473576
 20
14.28608273060097
 10
31.52176100423011
 20
14.29158736565397
 10
31.5179864008801
 20
14.29684004257997
 10
31.51428091843939
 20
14.302144049844
 10
31.51064548832039
 20
14.30749842052199
 10
31.5070810419356
 20
14.312902187693
 10
31.5035885106972
 20
14.31835438443399
 10
31.50036795074319
 20
14.32352923792097
 10
31.4972126957535
 20
14.32874532831499
 10
31.49412352225247
 20
14.33400184948597
 10
31.49110120676477
 20
14.33929799530499
 10
31.48814652581498
 20
14.34463295964299
 10
31.4852602559277
 20
14.35000593636899
 10
31.48261719959839
 20
14.35507690814298
 10
31.48003559250828
 20
14.360179916499
 10
31.47751607449379
 20
14.36531429720901
 10
31.47505928539139
 20
14.37047938604098
 10
31.4726658650377
 20
14.37567451876398
 10
31.4703364532691
 20
14.38089903114998
 10
31.46807168732019
 20
14.38615225719797
 10
31.4658720426307
 20
14.39143342098298
 10
31.4638779904741
 20
14.39638687673097
 10
31.46194102084929
 20
14.40136305952998
 10
31.46006129562338
 20
14.40636118586698
 10
31.45823897666349
 20
14.41138047222898
 10
31.45647422583689
 20
14.41642013510297
 10
31.45476720501089
 20
14.42147939097698
 10
31.4531180760526
 20
14.426557456336
 10
31.4515270008291
 20
14.43165354766798
 10
31.44999414120789
 20
14.43676688146098
 10
31.448519659056
 20
14.44189667420098
 10
31.44710371624059
 20
14.44704214237497
 10
31.44574647462898
 20
14.45220250247
 10
31.44444809608839
 20
14.45737697097299
 10
31.44320874248599
 20
14.462564764372
 10
31.44202857568898
 20
14.46776509915301
 10
31.44090775756458
 20
14.472977191803
 10
31.4398464499801
 20
14.478200258809
 10
31.4388448148026
 20
14.48343351665899
 10
31.43790301389929
 20
14.48867618183894
 10
31.43702120913739
 20
14.49392747083699
 10
31.43619956238429
 20
14.49918660013898
 10
31.43543823550698
 20
14.50445278623197
 10
31.4347373903728
 20
14.509725245604
 10
31.43409718884891
 20
14.515003194741
 10
31.43351779280251
 20
14.52028585013098
 10
31.43299936410079
 20
14.52557242825997
 10
31.43254206461111
 20
14.53086214561596
 10
31.4321460562005
 20
14.53615421868497
 10
31.43181150073619
 20
14.54144786395499
 10
31.43153856008551
 20
14.54674229791199
 10
31.43134042708899
 20
14.55165857935198
 10
31.43119569032021
 20
14.55657423792994
 10
31.43110447937911
 20
14.56148864632199
 10
31.43106692386571
 20
14.56640117720098
 10
31.43106588718711
 20
14.56752450529498
  0
LWPOLYLINE
  5
14E4
330
1E
100
AcDbEntity
  8
1
100
AcDbPolyline
 90
      165
 70
     0
 43
0.0
 10
32.2846194078
 20
1.626501222299985
 10
32.278811274575
 20
1.62045748218099
 10
32.27289759232148
 20
1.61450517866097
 10
32.26688039976119
 20
1.608646352294976
 10
32.26076173561589
 20
1.602883043636003
 10
32.25454363860729
 20
1.597217293240978
 10
32.2482281474571
 20
1.591651141662989
 10
32.24181730088711
 20
1.586186629456979
 10
32.23531313761888
 20
1.580825797176995
 10
32.2287176963742
 20
1.575570685377978
 10
32.2220330158749
 20
1.570423334613957
 10
32.2152611348426
 20
1.565385785438985
 10
32.20840409199909
 20
1.560460078408989
 10
32.20146392606599
 20
1.555648254078014
 10
32.19444267576509
 20
1.550952352999981
 10
32.1883614700706
 20
1.547021107155979
 10
32.18222347388361
 20
1.543177813612994
 10
32.17602997106389
 20
1.539423757385003
 10
32.16978224547109
 20
1.535760223486978
 10
32.1634815809651
 20
1.53218849693098
 10
32.1571292614056
 20
1.528709862731995
 10
32.15072657065238
 20
1.525325605903979
 10
32.1442747925651
 20
1.522037011460974
 10
32.1377752110036
 20
1.518845364416979
 10
32.1312291098275
 20
1.515751949784994
 10
32.1246377728967
 20
1.512758052578984
 10
32.1180025155545
 20
1.509864867351975
 10
32.1113248456713
 20
1.507073035466981
 10
32.10460634386989
 20
1.504382989247001
 10
32.0978485909083
 20
1.501795160627999
 10
32.09105316754489
 20
1.499309981542999
 10
32.0842216545378
 20
1.496927883928998
 10
32.07735563264519
 20
1.494649299718979
 10
32.07045668262519
 20
1.492474660847985
 10
32.0635263852361
 20
1.490404399251014
 10
32.05656632123609
 20
1.488438946862989
 10
32.0495780713833
 20
1.486578735616967
 10
32.04256321643589
 20
1.484824197449959
 10
32.0355233371521
 20
1.483175764294994
 10
32.02846001429019
 20
1.481633868087975
 10
32.02137482860829
 20
1.480198940762984
 10
32.0142693608646
 20
1.478871414253968
 10
32.00833378494209
 20
1.477847496073956
 10
32.00238613679388
 20
1.47689871171098
 10
31.99642733121049
 20
1.476025311126979
 10
31.9904582829826
 20
1.475227544285981
 10
31.9844799069007
 20
1.47450566114798
 10
31.97849311775549
 20
1.473859911676008
 10
31.97249883033769
 20
1.473290545832999
 10
31.96649795943779
 20
1.472797813579969
 10
31.9604914198465
 20
1.47238196487998
 10
31.95448012635429
 20
1.472043249695978
 10
31.9484649937519
 20
1.471781917988004
 10
31.94244693683
 20
1.471598219720014
 10
31.93642687037899
 20
1.471492404852988
 10
31.9304057166502
 20
1.471464646805964
 10
31.92438442984428
 20
1.471514791195995
 10
31.91836397271329
 20
1.471642595902005
 10
31.9123453080094
 20
1.47184781880599
 10
31.9063293984845
 20
1.472130217787988
 10
31.9003172068909
 20
1.472489550728961
 10
31.89430969598048
 20
1.472925575507979
 10
31.8883078285055
 20
1.473438050005959
 10
31.88231256721799
 20
1.474026732102989
 10
31.8763248748701
 20
1.474691379680985
 10
31.8703457142138
 20
1.475431750618009
 10
31.86437604800119
 20
1.476247602796996
 10
31.8584168389845
 20
1.477138694095964
 10
31.85246904991569
 20
1.478104782395995
 10
31.84534813291929
 20
1.479362743493989
 10
31.8382467106465
 20
1.480727933238989
 10
31.83116644673299
 20
1.482199933248004
 10
31.82410900481428
 20
1.483778325138981
 10
31.8170760485261
 20
1.485462690528998
 10
31.81006924150389
 20
1.487252611034985
 10
31.80309024738349
 20
1.489147668273989
 10
31.79614072980029
 20
1.491147443864003
 10
31.78922235238998
 20
1.493251519421984
 10
31.7823367787882
 20
1.495459476564995
 10
31.7754856726306
 20
1.497770896910985
 10
31.7686706975527
 20
1.500185362075991
 10
31.76189351719008
 20
1.502702453679
 10
31.75515579517858
 20
1.505321753336995
 10
31.74845919514178
 20
1.508042842651003
 10
31.74180527709529
 20
1.510865171986974
 10
31.73519524509009
 20
1.513787740820015
 10
31.72863022679079
 20
1.516809451867995
 10
31.72211134986189
 20
1.519929207848998
 10
31.715639741968
 20
1.523145911482994
 10
31.7092165307735
 20
1.526458465487984
 10
31.70284284394309
 20
1.529865772582009
 10
31.69651980914129
 20
1.533366735484968
 10
31.69024855403251
 20
1.536960256913995
 10
31.6840302062814
 20
1.540645239587995
 10
31.6778658935525
 20
1.544420586225978
 10
31.67175674351029
 20
1.548285199545994
 10
31.66570388381929
 20
1.552237982266969
 10
31.6597084421441
 20
1.556277837106984
 10
31.6527878346047
 20
1.561099586682979
 10
31.6459487049309
 20
1.566036615123004
 10
31.63919284381199
 20
1.57108717998599
 10
31.6325220419378
 20
1.576249538828984
 10
31.6259380899976
 20
1.581521949210975
 10
31.619442778681
 20
1.586902668687991
 10
31.6130378986775
 20
1.59238995481797
 10
31.60672524067658
 20
1.597982065158977
 10
31.60050659536789
 20
1.603677257268994
 10
31.5943837534409
 20
1.609473788704999
 10
31.58835850558499
 20
1.61536991702601
 10
31.58243261916578
 20
1.621363896546989
 10
31.57660740713819
 20
1.627453918426988
 10
31.57088376943419
 20
1.633638116422979
 10
31.5652625909621
 20
1.639914622201979
 10
31.55974475663056
 20
1.646281567431991
 10
31.5543311513481
 20
1.652737083781
 10
31.5490226600232
 20
1.659279302914991
 10
31.54382016756439
 20
1.665906356502965
 10
31.5387245588802
 20
1.672616376211999
 10
31.53373671887929
 20
1.67940749371001
 10
31.5288575324701
 20
1.686277840665009
 10
31.5240878845611
 20
1.693225548744004
 10
31.51942866006089
 20
1.700248749613985
 10
31.5148807438781
 20
1.707345574943978
 10
31.5104450209211
 20
1.714514156401004
 10
31.5061223760985
 20
1.721752625652976
 10
31.50191369431879
 20
1.72905911436697
 10
31.49781986049061
 20
1.736431754210991
 10
31.49384175952238
 20
1.743868676852964
 10
31.48998027632269
 20
1.751368013958989
 10
31.4867639225801
 20
1.757844277783984
 10
31.48363445459519
 20
1.764363847922989
 10
31.48059242962807
 20
1.770925547816994
 10
31.47763840493899
 20
1.777528200905971
 10
31.47477293778798
 20
1.784170630632014
 10
31.47199658045169
 20
1.790851657189955
 10
31.46930971645618
 20
1.79756999091497
 10
31.46671252356878
 20
1.80432420818598
 10
31.46420516707978
 20
1.811112877257978
 10
31.4617878122796
 20
1.81793456638598
 10
31.45946062445839
 20
1.824787843825981
 10
31.45722376890669
 20
1.831671277833004
 10
31.4550774109148
 20
1.838583436663008
 10
31.4530217157729
 20
1.845522888571984
 10
31.4510568487715
 20
1.852488201813989
 10
31.44918297520089
 20
1.859477944645984
 10
31.4474002603515
 20
1.866490685322979
 10
31.44570886951349
 20
1.87352499209998
 10
31.4441089679773
 20
1.880579433232975
 10
31.4426007210332
 20
1.887652576977977
 10
31.4411842939716
 20
1.894742991588994
 10
31.43985985208287
 20
1.901849245322969
 10
31.43862756065729
 20
1.908969906435
 10
31.43748758498519
 20
1.916103543179949
 10
31.43644009035689
 20
1.923248723813994
 10
31.43548524206279
 20
1.930404016592995
 10
31.4346232053933
 20
1.937567989771985
 10
31.4338541456386
 20
1.944739211606014
 10
31.43317822808898
 20
1.951916250350985
 10
31.4325956180351
 20
1.959097674261977
 10
31.43210648076689
 20
1.966282051595978
 10
31.43171098157498
 20
1.973467950606984
 10
31.4314092857497
 20
1.980653939550984
 10
31.4312015585812
 20
1.987838586682977
 10
31.4310879397746
 20
1.995020559215981
 10
31.43106422076559
 20
1.999797677504
  0
LWPOLYLINE
  5
158B
330
1E
100
AcDbEntity
  8
1
100
AcDbPolyline
 90
      110
 70
     0
 43
0.0
 10
31.57751262659999
 20
50.29722692139997
 10
31.57527438309958
 20
50.29743409229598
 10
31.5730613298477
 20
50.29765092338298
 10
31.57072666592239
 20
50.29789242816498
 10
31.56812974147678
 20
50.29817616474097
 10
31.56527768589951
 20
50.29850561147397
 10
31.56217658298171
 20
50.29888420413398
 10
31.5585536399356
 20
50.299351916938
 10
31.55400809645651
 20
50.29997423119399
 10
31.5452993255492
 20
50.30125821558697
 10
31.53185069856839
 20
50.30338519555701
 10
31.5273051477826
 20
50.30411613313098
 10
31.52368219724678
 20
50.30469518987498
 10
31.52058108679861
 20
50.30518573105601
 10
31.5177290234266
 20
50.30563105609799
 10
31.51513209119308
 20
50.30603057021703
 10
31.51279741973061
 20
50.30638412428595
 10
31.51058435888741
 20
50.30671381076699
 10
31.50834610728719
 20
50.30704139433995
 10
31.5062329049048
 20
50.30734490552696
 10
31.50424856367231
 20
50.30762452898997
 10
31.502241868655
 20
50.30790177145298
 10
31.50036877527941
 20
50.30815535971597
 10
31.49847489386369
 20
50.30840651269699
 10
31.4967198604424
 20
50.30863443028995
 10
31.4949460133813
 20
50.30885998732198
 10
31.4931527089835
 20
50.30908303350098
 10
31.49150500613941
 20
50.30928349744896
 10
31.48984020725201
 20
50.30948164918799
 10
31.4881578287023
 20
50.30967737579903
 10
31.4864573868713
 20
50.30987056436798
 10
31.48473839814011
 20
50.310061101976
 10
31.4831750509713
 20
50.31023022592699
 10
31.48159593652378
 20
50.310397028822
 10
31.48000070223921
 20
50.31056142834398
 10
31.47838899555948
 20
50.31072334217699
 10
31.47676046392628
 20
50.31088268800495
 10
31.47511475478149
 20
50.31103938351098
 10
31.47363719656851
 20
50.31117637689796
 10
31.47214553982319
 20
50.31131115335099
 10
31.47063953693256
 20
50.311443655056
 10
31.46911894028388
 20
50.31157382419998
 10
31.46758381826221
 20
50.31170177648197
 10
31.46545398416889
 20
50.311876802227
 10
31.46116204935041
 20
50.31224305629097
 10
31.45882377172751
 20
50.31246388607196
 10
31.4568877298349
 20
50.31266556403096
 10
31.45535201330421
 20
50.31284127277197
 10
31.45402081554002
 20
50.313007201832
 10
31.45289098045539
 20
50.313159543708
 10
31.45177303412928
 20
50.31332211466001
 10
31.4508515587958
 20
50.31346601285799
 10
31.44994021880521
 20
50.313618088452
 10
31.449039868367
 20
50.31377882956498
 10
31.44815136169059
 20
50.31394872431996
 10
31.44744965788671
 20
50.31409155876596
 10
31.44675651813951
 20
50.31424081386099
 10
31.44607237980431
 20
50.31439673952399
 10
31.44539768023639
 20
50.31455958567499
 10
31.4447328567908
 20
50.314729602232
 10
31.4440783468229
 20
50.31490703911496
 10
31.44343458768789
 20
50.31509214624197
 10
31.4428020167409
 20
50.31528517353299
 10
31.44218107133729
 20
50.315486370907
 10
31.4417232546438
 20
50.31564278089597
 10
31.44127240784
 20
50.31580403257096
 10
31.44082871543507
 20
50.31597023136597
 10
31.44039236193831
 20
50.31614148271599
 10
31.43996353185878
 20
50.31631789205597
 10
31.4395424097059
 20
50.31649956481995
 10
31.43912917998878
 20
50.31668660644299
 10
31.43872402721672
 20
50.31687912235899
 10
31.4383271358989
 20
50.317077218003
 10
31.4379386905446
 20
50.31728099881
 10
31.4375588756631
 20
50.31749057021495
 10
31.43718787576351
 20
50.31770603765099
 10
31.43682587535511
 20
50.31792750655395
 10
31.43647305894721
 20
50.31815508235699
 10
31.43612961104889
 20
50.31838887049699
 10
31.43579571616948
 20
50.31862897640699
 10
31.4354715588183
 20
50.31887550552196
 10
31.4351573235044
 20
50.319128563277
 10
31.43485319473711
 20
50.31938825510597
 10
31.43455935702561
 20
50.319654686444
 10
31.43427599487919
 20
50.31992796272498
 10
31.43400329280701
 20
50.32020818938396
 10
31.43374143531838
 20
50.32049547185597
 10
31.4334906069226
 20
50.32078991557599
 10
31.4332509921287
 20
50.32109162597699
 10
31.43302277544611
 20
50.32140070849504
 10
31.43280614138391
 20
50.321717268565
 10
31.4326012744514
 20
50.32204141161995
 10
31.4324083591578
 20
50.32237324309498
 10
31.43222758001241
 20
50.32271286842599
 10
31.43205912152431
 20
50.32306039304597
 10
31.43190316820289
 20
50.32341592238996
 10
31.4317599045573
 20
50.32377956189398
 10
31.43162951509678
 20
50.32415141699097
 10
31.43151218433061
 20
50.32453159311597
 10
31.43140809676789
 20
50.32492019570397
 10
31.43131743691798
 20
50.32531733018898
 10
31.43126454797421
 20
50.32558687852199
 10
31.43121776357619
 20
50.32586029691
 10
31.43117713839351
 20
50.32613761659097
 10
31.4311427270954
 20
50.32641886880597
 10
31.43111458435139
 20
50.32670408479495
 10
31.43109276483079
 20
50.32699329579699
 10
31.4310773232031
 20
50.327286533053
 10
31.43106831413769
 20
50.32758382780297
 10
31.43106632623378
 20
50.32772400911002
  0
LWPOLYLINE
  5
15FB
330
1E
100
AcDbEntity
  8
1
100
AcDbPolyline
 90
       40
 70
     0
 43
0.0
 10
32.2846194078
 20
47.55782500359995
 10
32.27715989925918
 20
47.55521925367997
 10
32.26966999671128
 20
47.55270168929595
 10
32.26215094175199
 20
47.55027050322794
 10
32.25415919415389
 20
47.54778844715595
 10
32.24613762937928
 20
47.54539905908194
 10
32.2380877212701
 20
47.54310019373297
 10
32.22956147557161
 20
47.54076944917295
 10
32.22100702533249
 20
47.53853465150798
 10
32.21197377607251
 20
47.53628311390396
 10
32.20291321761971
 20
47.53413215026997
 10
32.19337245187829
 20
47.53197866126198
 10
32.18380614711669
 20
47.529929404055
 10
32.17375946191828
 20
47.52789064647998
 10
32.1632318071175
 20
47.52587328201396
 10
32.15222322067211
 20
47.523887747496
 10
32.14073445485061
 20
47.52194389621896
 10
32.1287670672098
 20
47.52005086550393
 10
32.1163233730269
 20
47.51821713152799
 10
32.1034043052286
 20
47.51645339767099
 10
32.09047150870699
 20
47.51482813641
 10
32.07752597798289
 20
47.51333943915397
 10
32.0641057432768
 20
47.51193950515894
 10
32.05067402029348
 20
47.51068189610496
 10
32.03676822122079
 20
47.50952843534997
 10
32.02285253357578
 20
47.50852266756495
 10
32.0084639005174
 20
47.50763604029295
 10
31.99406736444669
 20
47.50690201955901
 10
31.9791995653507
 20
47.50630164482795
 10
31.9643262678202
 20
47.50585827209795
 10
31.94898399192461
 20
47.50556246710696
 10
31.9336390760879
 20
47.50542748256798
 10
31.9182933492269
 20
47.50545230820597
 10
31.90341405407938
 20
47.50563283878599
 10
31.8890031320368
 20
47.50595882018497
 10
31.8750621401476
 20
47.50641966433398
 10
31.8611279367726
 20
47.50702716245396
 10
31.84766634220261
 20
47.50775721497297
 10
31.83467806326028
 20
47.50859840107599
 10
31.82495359228671
 20
47.50931818815596
  0
LWPOLYLINE
  5
1625
330
1E
100
AcDbEntity
  8
1
100
AcDbPolyline
 90
      101
 70
     0
 43
0.0
 10
31.8249436226
 20
47.50931896619996
 10
31.81232602660898
 20
47.51037164441295
 10
31.79972243179448
 20
47.51155988167602
 10
31.78758125033089
 20
47.512835233472
 10
31.77545118465389
 20
47.51423891447395
 10
31.76333130048301
 20
47.51577204397498
 10
31.75122066353739
 20
47.51743574126497
 10
31.73956684504549
 20
47.51916231728496
 10
31.7279238146828
 20
47.52101247287199
 10
31.71629566180201
 20
47.52298779495299
 10
31.70513258961471
 20
47.52500665921297
 10
31.69399070212111
 20
47.52714412649999
 10
31.68287364129479
 20
47.52940160836693
 10
31.6717850491088
 20
47.53178051636597
 10
31.6611701645908
 20
47.53417981603197
 10
31.6505880953991
 20
47.53669357176096
 10
31.64004206371881
 20
47.53932303240297
 10
31.6295352917346
 20
47.54206944681095
 10
31.61950612356211
 20
47.54481232856895
 10
31.6095188068281
 20
47.547664867097
 10
31.5995761774933
 20
47.55062816155599
 10
31.5896810715188
 20
47.55370331110497
 10
31.5802634756762
 20
47.55675131575995
 10
31.57259677579071
 20
47.55933386951197
 10
31.56581542458301
 20
47.56171048882199
 10
31.55991049965789
 20
47.56386198683298
 10
31.5544535581907
 20
47.56592698382997
 10
31.54944045955651
 20
47.56789601092797
 10
31.5448667346068
 20
47.56975822783597
 10
31.5403148683843
 20
47.571679069242
 10
31.53619674273628
 20
47.57347929687297
 10
31.53209849384678
 20
47.57533385388799
 10
31.52842777750588
 20
47.57705172078099
 10
31.52477448905278
 20
47.57881790322499
 10
31.52113925740419
 20
47.58063444220398
 10
31.51792360760678
 20
47.58229306810297
 10
31.51472316354448
 20
47.58399452796397
 10
31.51153836692579
 20
47.58574025523599
 10
31.50836965945901
 20
47.58753168336998
 10
31.50521748285251
 20
47.58937024581596
 10
31.50247323603471
 20
47.591018779703
 10
31.49974227974988
 20
47.59270545858195
 10
31.4970249099082
 20
47.59443124275298
 10
31.4943214224198
 20
47.59619709251496
 10
31.49163211319478
 20
47.59800396816796
 10
31.4889572781432
 20
47.59985283000996
 10
31.48629721317528
 20
47.60174463834299
 10
31.48365221420098
 20
47.60368035346399
 10
31.4813972878293
 20
47.605375211998
 10
31.47915383409999
 20
47.60710363884395
 10
31.47692203935879
 20
47.608866238739
 10
31.47470208995151
 20
47.61066361641897
 10
31.47249419067271
 20
47.61249637183295
 10
31.47029993325821
 20
47.61436474493899
 10
31.46812323783739
 20
47.61626837134596
 10
31.46596824727019
 20
47.61820682885296
 10
31.4638391044164
 20
47.62017969525696
 10
31.46173995213611
 20
47.62218654835597
 10
31.4596749332891
 20
47.62422696594695
 10
31.4576481907353
 20
47.626300525829
 10
31.45599146631119
 20
47.62805350482699
 10
31.45436659712069
 20
47.62982896177898
 10
31.45277598065221
 20
47.63162665235396
 10
31.45122201439408
 20
47.63344633222397
 10
31.4500068406514
 20
47.63491774422099
 10
31.4488178849499
 20
47.636402947898
 10
31.44765637480371
 20
47.63790181815798
 10
31.4465235377269
 20
47.63941422990501
 10
31.44542060123361
 20
47.64094005803998
 10
31.44434879283771
 20
47.64247917746796
 10
31.44330934005339
 20
47.644031463091
 10
31.44230347039461
 20
47.64559678981199
 10
31.44133241137549
 20
47.64717503253501
 10
31.4406277000199
 20
47.64836711544893
 10
31.43994377798319
 20
47.64956634047196
 10
31.43928116312289
 20
47.65077265482799
 10
31.4386403732966
 20
47.65198600574196
 10
31.4380219263616
 20
47.65320634043895
 10
31.43742634017561
 20
47.65443360614295
 10
31.43685413259601
 20
47.65566775007996
 10
31.43630582148019
 20
47.65690871947297
 10
31.43578192468579
 20
47.65815646154799
 10
31.43528296007028
 20
47.65941092352899
 10
31.43480944549109
 20
47.66067205264095
 10
31.4343618988058
 20
47.66193979610996
 10
31.4339408378718
 20
47.66321410115796
 10
31.43354678054671
 20
47.66449491501197
 10
31.4331802446878
 20
47.66578218489597
 10
31.43284174815279
 20
47.66707585803497
 10
31.4325318087991
 20
47.66837588165301
 10
31.43225094448411
 20
47.66968220297598
 10
31.4319996730655
 20
47.67099476922695
 10
31.43177851240061
 20
47.67231352763196
 10
31.4315879803469
 20
47.67363842541497
 10
31.43142859476198
 20
47.67496940980198
 10
31.4313008735034
 20
47.67630642801599
 10
31.43120533442851
 20
47.67764942728299
 10
31.43114249539479
 20
47.67899835482793
 10
31.431112952524
 20
47.68035297887095
 10
31.43111845474661
 20
47.68171043096297
 10
31.43112826088171
 20
47.68215270653897
  0
LWPOLYLINE
  5
168C
330
1E
100
AcDbEntity
  8
1
100
AcDbPolyline
 90
       79
 70
     0
 43
0.0
 10
31.57751262659999
 20
39.44686642459996
 10
31.57266046310041
 20
39.44994499435299
 10
31.56783757345821
 20
39.453085133716
 10
31.5630469463095
 20
39.45628764280296
 10
31.5585171733183
 20
39.45939636897496
 10
31.55402195583719
 20
39.46256308321896
 10
31.54956387556261
 20
39.46578847670099
 10
31.54514551419071
 20
39.46907324058996
 10
31.5407694534179
 20
39.472418066052
 10
31.53665372805491
 20
39.47565191179697
 10
31.5325807224454
 20
39.47894117948197
 10
31.52855265007121
 20
39.48228646169395
 10
31.5245717244141
 20
39.48568835102499
 10
31.5206401589562
 20
39.48914744006395
 10
31.51696305568119
 20
39.49247777198697
 10
31.51333412219869
 20
39.49586047675899
 10
31.5097552405653
 20
39.49929605823998
 10
31.5062282928374
 20
39.50278502029199
 10
31.50275516107181
 20
39.506327866776
 10
31.4995260915398
 20
39.50972381975597
 10
31.49634828874949
 20
39.51316871021299
 10
31.49340566737071
 20
39.51645604432896
 10
31.4905111850172
 20
39.51978745777898
 10
31.48784250330258
 20
39.52295100557495
 10
31.48521838219469
 20
39.52615389758397
 10
31.48263991084661
 20
39.52939642539399
 10
31.48010817841139
 20
39.53267888058996
 10
31.47778835784579
 20
39.53577878604399
 10
31.47551108636179
 20
39.538913963763
 10
31.47327724948131
 20
39.54208465081696
 10
31.47124263810129
 20
39.54506086279396
 10
31.46924695052149
 20
39.54806808673799
 10
31.4672909140454
 20
39.55110642482799
 10
31.4653754014746
 20
39.55417528269302
 10
31.4635013550451
 20
39.55727373355497
 10
31.46180908553207
 20
39.560159304746
 10
31.4601536927649
 20
39.56306856928803
 10
31.45853591817498
 20
39.56600079662796
 10
31.456956503194
 20
39.56895525621503
 10
31.45554303721358
 20
39.57168241730601
 10
31.45416299805948
 20
39.57442708308196
 10
31.45281695682298
 20
39.57718869083299
 10
31.45150548459499
 20
39.579966677847
 10
31.45022915246669
 20
39.58276048141396
 10
31.4489885315291
 20
39.58556953882199
 10
31.44778419287339
 20
39.58839328736199
 10
31.4467213047321
 20
39.59097260648496
 10
31.44568930299298
 20
39.59356317921399
 10
31.44468861672528
 20
39.59616458277798
 10
31.44371967499801
 20
39.59877639440199
 10
31.44278290688041
 20
39.60139819131399
 10
31.4418787414416
 20
39.60402955073999
 10
31.44100760775089
 20
39.60667004990799
 10
31.4401699348774
 20
39.60931926604396
 10
31.43936615189028
 20
39.61197677637597
 10
31.43867207768048
 20
39.61437527778898
 10
31.43800611461598
 20
39.616779846854
 10
31.43736857548848
 20
39.61919017536699
 10
31.43675977308931
 20
39.62160595512695
 10
31.43618002020978
 20
39.62402687793299
 10
31.4356296296414
 20
39.62645263558296
 10
31.4351089141757
 20
39.62888291987598
 10
31.434618186604
 20
39.63131742260996
 10
31.43415775971778
 20
39.63375583558396
 10
31.43372794630849
 20
39.63619785059499
 10
31.43332905916739
 20
39.63864315944201
 10
31.43296141108619
 20
39.641091453925
 10
31.43266109104001
 20
39.643269972992
 10
31.43238592053498
 20
39.64545039110097
 10
31.4321361192545
 20
39.64763249179399
 10
31.43191190688199
 20
39.64981605860996
 10
31.43171350310089
 20
39.65200087508995
 10
31.4315411275947
 20
39.65418672477299
 10
31.43139500004671
 20
39.65637339119996
 10
31.43127534014029
 20
39.65856065791096
 10
31.4311823675591
 20
39.66074830844696
 10
31.4311163019863
 20
39.662936126346
 10
31.43107736310551
 20
39.66512389515099
 10
31.43106576104069
 20
39.66730139839997
  0
LWPOLYLINE
  5
16DD
330
1E
100
AcDbEntity
  8
1
100
AcDbPolyline
 90
       75
 70
     0
 43
0.0
 10
32.2846194078
 20
30.282934176
 10
32.27938092407939
 20
30.27856160646601
 10
32.27407701927341
 20
30.27426341144598
 10
32.26870917870371
 20
30.27003985866801
 10
32.26327888769189
 20
30.26589121585701
 10
32.2577876315597
 20
30.26181775073899
 10
32.25223689562879
 20
30.25781973104201
 10
32.24662816522069
 20
30.25389742448998
 10
32.24096292565711
 20
30.25005109881098
 10
32.23524266225977
 20
30.24628102173
 10
32.22946886035018
 20
30.242587460973
 10
32.22364300525011
 20
30.238970684267
 10
32.21776658228121
 20
30.23543095933796
 10
32.21184107676499
 20
30.23196855391299
 10
32.20586797402321
 20
30.228583735716
 10
32.19984875937749
 20
30.22527677247501
 10
32.19378491814939
 20
30.222047931915
 10
32.1876779356608
 20
30.21889748176397
 10
32.18152929723309
 20
30.21582568974598
 10
32.17534048818809
 20
30.21283282358898
 10
32.1691129938474
 20
30.20991915101797
 10
32.16284829953259
 20
30.207084939759
 10
32.15699907252601
 20
30.204524556487
 10
32.1511202399742
 20
30.20203313352697
 10
32.1452129911088
 20
30.19961088523797
 10
32.1392785151616
 20
30.19725802597596
 10
32.13331800136421
 20
30.19497477009599
 10
32.1273326389483
 20
30.192761331957
 10
32.12132361278411
 20
30.19061792307601
 10
32.11529193516351
 20
30.18854464268298
 10
32.1092383924231
 20
30.18654144298798
 10
32.10316375561951
 20
30.18460826625897
 10
32.09706879580898
 20
30.18274505476401
 10
32.0909542840482
 20
30.18095175077201
 10
32.08482099139352
 20
30.17922829654898
 10
32.0786696889013
 20
30.17757463436498
 10
32.07250114762821
 20
30.17599070648699
 10
32.06631613863059
 20
30.17447645518197
 10
32.06011543296491
 20
30.17303182271998
 10
32.0538998016876
 20
30.17165675136698
 10
32.04767001585519
 20
30.17035118339299
 10
32.0414268465241
 20
30.16911506106399
 10
32.03517106475081
 20
30.16794832664899
 10
32.02890344159178
 20
30.16685092241598
 10
32.02262474810339
 20
30.165822790633
 10
32.0163357553422
 20
30.16486387356798
 10
32.01003723436471
 20
30.16397411348799
 10
32.0037299562272
 20
30.16315345266198
 10
31.99741469198631
 20
30.16240183335698
 10
31.99109221269839
 20
30.16171919784301
 10
31.98476328942
 20
30.161105488386
 10
31.97842869320751
 20
30.16056064725399
 10
31.9720891951173
 20
30.16008461671598
 10
31.96574556620609
 20
30.15967733903996
 10
31.9593985775301
 20
30.15933875649298
 10
31.95256048600219
 20
30.15905088764599
 10
31.94572035521638
 20
30.15884254982902
 10
31.93887914820348
 20
30.15871367093501
 10
31.93203782775199
 20
30.15866418074401
 10
31.9251973533124
 20
30.15869403496699
 10
31.91835868190789
 20
30.15880320817597
 10
31.91152277050679
 20
30.15899167536697
 10
31.90469057607749
 20
30.15925941153898
 10
31.89786305558819
 20
30.15960639168898
 10
31.89104116600741
 20
30.16003259081301
 10
31.88422586430347
 20
30.16053798391101
 10
31.8774181074447
 20
30.161122545977
 10
31.87061885239928
 20
30.16178625201098
 10
31.86382905613578
 20
30.16252907700899
 10
31.85704967562251
 20
30.16335099596898
 10
31.85028166782778
 20
30.164251983887
 10
31.84352598971989
 20
30.16523201576299
 10
31.83678359826728
 20
30.16629106659098
 10
31.83005545043819
 20
30.16742911137098
 10
31.82478949785449
 20
30.16837687286995
  0
LWPOLYLINE
  5
172A
330
1E
100
AcDbEntity
  8
1
100
AcDbPolyline
 90
      106
 70
     0
 43
0.0
 10
31.8247796643
 20
30.16837868979999
 10
31.81813825278251
 20
30.16964597576998
 10
31.81151192214541
 20
30.17099090289198
 10
31.80490142683069
 20
30.17241366196798
 10
31.7983075212803
 20
30.17391444379899
 10
31.79173095993629
 20
30.17549343918698
 10
31.78517249724071
 20
30.17715083893099
 10
31.7786328876355
 20
30.17888683383398
 10
31.77211288556279
 20
30.18070161469697
 10
31.76561324546451
 20
30.182595372321
 10
31.7591347217826
 20
30.18456829750701
 10
31.75267806895929
 20
30.18662058105602
 10
31.74624404762321
 20
30.18875241055098
 10
31.73983366255439
 20
30.190963846588
 10
31.7334482378163
 20
30.193254783696
 10
31.7270891190256
 20
30.19562510519401
 10
31.7207576517987
 20
30.19807469440197
 10
31.7144551817523
 20
30.20060343463697
 10
31.70818305450289
 20
30.20321120922
 10
31.7019426156671
 20
30.20589790146996
 10
31.69573521086149
 20
30.20866339470498
 10
31.68956218570261
 20
30.21150757224398
 10
31.683424885807
 20
30.21443031740699
 10
31.67732465679129
 20
30.21743151351298
 10
31.6712628442721
 20
30.22051104388097
 10
31.66524079386579
 20
30.22366879182897
 10
31.6592598511891
 20
30.22690464067801
 10
31.65332136185861
 20
30.23021847374498
 10
31.64742667149079
 20
30.23361017435098
 10
31.6415771257023
 20
30.23707962581399
 10
31.63577407010961
 20
30.24062671145301
 10
31.63001885032938
 20
30.24425131458801
 10
31.62431281197819
 20
30.24795331853701
 10
31.61865730067249
 20
30.25173260661998
 10
31.613053662029
 20
30.25558906215599
 10
31.6075032416642
 20
30.25952256846301
 10
31.60200738519469
 20
30.263533008861
 10
31.59656743823699
 20
30.26762026666798
 10
31.59118474640779
 20
30.27178422520498
 10
31.58586065532351
 20
30.27602476778997
 10
31.58059656808101
 20
30.28034170499196
 10
31.57539415436678
 20
30.28473450997001
 10
31.57025516109818
 20
30.28920255813698
 10
31.5647233701155
 20
30.29416187310598
 10
31.55927140167451
 20
30.299209179466
 10
31.55390152375951
 20
30.30434366631598
 10
31.54861600435499
 20
30.30956452275802
 10
31.54341711144519
 20
30.314870937894
 10
31.53872949559851
 20
30.31980962013898
 10
31.53411832273261
 20
30.32481888947501
 10
31.52958533977289
 20
30.329898121301
 10
31.52513229364498
 20
30.33504669102097
 10
31.5207609312742
 20
30.34026397403497
 10
31.51685931807171
 20
30.34506606024998
 10
31.51302796833739
 20
30.349923948845
 10
31.50926819456239
 20
30.35483717054798
 10
31.5055813092375
 20
30.35980525609099
 10
31.50196862485378
 20
30.36482773620297
 10
31.49843145390219
 20
30.36990414161397
 10
31.49531364880389
 20
30.37451862476297
 10
31.49225902950909
 20
30.37917606519801
 10
31.48926855282379
 20
30.38387612081999
 10
31.48634317555389
 20
30.38861844953101
 10
31.4834838545051
 20
30.39340270923498
 10
31.48069154648351
 20
30.39822855783197
 10
31.47796720829501
 20
30.40309565322599
 10
31.4753117967453
 20
30.40800365331696
 10
31.47272626841239
 20
30.41295221511598
 10
31.47021150744528
 20
30.41794071199598
 10
31.4680361477591
 20
30.42240739845098
 10
31.4659177424884
 20
30.42690360648601
 10
31.46385677110961
 20
30.431428341924
 10
31.4618537130992
 20
30.43598061058798
 10
31.4599090479337
 20
30.440559418302
 10
31.45802325508948
 20
30.44516377088697
 10
31.45619681404308
 20
30.44979267416596
 10
31.45443020427089
 20
30.45444513396299
 10
31.45272390524961
 20
30.45912015609999
 10
31.45107839645548
 20
30.46381674640102
 10
31.44949415736508
 20
30.46853391068697
 10
31.44797166745489
 20
30.47327065478197
 10
31.4465114062014
 20
30.478025984509
 10
31.44511385308101
 20
30.48279890568997
 10
31.4437794875702
 20
30.48758842414901
 10
31.44250878914561
 20
30.49239354570798
 10
31.44130223728351
 20
30.49721327618996
 10
31.44016031146039
 20
30.50204662141698
 10
31.43908349115289
 20
30.506892587214
 10
31.43819505718421
 20
30.51114237854096
 10
31.4373571579369
 20
30.51540040530298
 10
31.43657011462249
 20
30.51966600147798
 10
31.43583424845298
 20
30.52393850104701
 10
31.4351498806402
 20
30.528217237988
 10
31.43451733239571
 20
30.53250154627999
 10
31.43393692493139
 20
30.53679075990098
 10
31.43340897945909
 20
30.54108421283197
 10
31.4329338171905
 20
30.54538123905001
 10
31.43251175933748
 20
30.54968117253499
 10
31.4321431271118
 20
30.55398334726598
 10
31.4318282417251
 20
30.55828709722097
 10
31.43156742438931
 20
30.56259175638098
 10
31.43136099631611
 20
30.56689665872298
 10
31.4312092787174
 20
30.571201138226
 10
31.43111259113979
 20
30.57550453183299
 10
31.43107085408709
 20
30.579806886384
 10
31.43106888698839
 20
30.581026163903
  0
LWPOLYLINE
  5
1BD0
330
1E
100
AcDbEntity
  8
1
100
AcDbPolyline
 90
       77
 70
     0
 43
0.0
 10
36.49999999999999
 20
-13.59166575730003
 10
36.58218747390829
 20
-13.59124474492202
 10
36.66437010274279
 20
-13.58997445571098
 10
36.74486049839369
 20
-13.58789615971701
 10
36.82364981199759
 20
-13.58505153202598
 10
36.90240552617519
 20
-13.58139462867202
 10
36.97609376956428
 20
-13.577204620525
 10
37.0463861451926
 20
-13.57247250967597
 10
37.11328061881268
 20
-13.56726480084196
 10
37.1767772789905
 20
-13.56165333485799
 10
37.2368775084021
 20
-13.55571324983499
 10
37.29524618641729
 20
-13.54932424107001
 10
37.3502109490888
 20
-13.54271430181305
 10
37.40177335809789
 20
-13.53596018048702
 10
37.4515976021312
 20
-13.52889808210498
 10
37.49968278309919
 20
-13.52155882303103
 10
37.5427191848745
 20
-13.51452041857098
 10
37.5790665748835
 20
-13.50816891774498
 10
37.61204502372649
 20
-13.50203230367995
 10
37.64166543898399
 20
-13.49617996870497
 10
37.66958189100488
 20
-13.49033898008801
 10
37.69579942882371
 20
-13.48454069877598
 10
37.72032426322489
 20
-13.47882123815598
 10
37.743163501515
 20
-13.47322026456398
 10
37.7659502190486
 20
-13.46735161126499
 10
37.78705288994
 20
-13.46165180368998
 10
37.80808808623028
 20
-13.45570175623199
 10
37.8274341407892
 20
-13.449979583783
 10
37.8467015550205
 20
-13.444029572157
 10
37.8658801782794
 20
-13.437844705179
 10
37.88337391316739
 20
-13.43196293757503
 10
37.90077669103229
 20
-13.42587252646399
 10
37.91808069329309
 20
-13.41956806760399
 10
37.93527810136879
 20
-13.41304415675701
 10
37.95081152161078
 20
-13.40691429555701
 10
37.96161156486621
 20
-13.40247320113999
 10
37.9708048617471
 20
-13.39852916451499
 10
37.97841201865828
 20
-13.39512368486404
 10
37.98596297970549
 20
-13.39159251695699
 10
37.99195876777111
 20
-13.38866593344599
 10
37.99791084234039
 20
-13.38563978892
 10
38.0038157597942
 20
-13.38250558536699
 10
38.0096700765134
 20
-13.37925482477001
 10
38.01547034887849
 20
-13.37587900911799
 10
38.01978301499289
 20
-13.37325996791101
 10
38.02406189134549
 20
-13.37056221800301
 10
38.02830552515938
 20
-13.36778217429301
 10
38.03251246365769
 20
-13.36491625168199
 10
38.03668125406371
 20
-13.36196086506999
 10
38.0408104436004
 20
-13.35891242935801
 10
38.04489857949089
 20
-13.35576735944701
 10
38.04894420895839
 20
-13.35252207023498
 10
38.05294587922599
 20
-13.34917297662403
 10
38.0569021375168
 20
-13.34571649351399
 10
38.0608115013301
 20
-13.342149044786
 10
38.06466618455228
 20
-13.33846895884599
 10
38.06844433582529
 20
-13.33467881366701
 10
38.072122200508
 20
-13.33078176226499
 10
38.07567602395939
 20
-13.32678095765502
 10
38.0779645971116
 20
-13.32405767095602
 10
38.0801804447972
 20
-13.32129060728701
 10
38.0823165286042
 20
-13.31848070087497
 10
38.08436581012029
 20
-13.31562888594898
 10
38.08632125093339
 20
-13.31273609673299
 10
38.0881758126314
 20
-13.30980326745597
 10
38.0899224568021
 20
-13.30683133234302
 10
38.09155414503328
 20
-13.303821225623
 10
38.09306383891279
 20
-13.30077388152099
 10
38.0944445000286
 20
-13.29769023426599
 10
38.09568908996846
 20
-13.294571218083
 10
38.0967905703202
 20
-13.29141776719998
 10
38.0977419026717
 20
-13.28823081584302
 10
38.09853604861078
 20
-13.28501129823999
 10
38.09916596972539
 20
-13.28176014861699
 10
38.09962462760317
 20
-13.278478301202
 10
38.09990498383209
 20
-13.27516669022
 10
38.0999999991452
 20
-13.27183624977598
  0
LWPOLYLINE
  5
1C1F
330
1E
100
AcDbEntity
  8
1
100
AcDbPolyline
 90
      116
 70
     0
 43
0.0
 10
36.49999999999999
 20
-37.00134179850003
 10
36.52769535918579
 20
-37.00117827523801
 10
36.55326294794239
 20
-37.00073663988102
 10
36.57882926298939
 20
-37.00001535480303
 10
36.60439059744259
 20
-36.99901384931199
 10
36.62994324441828
 20
-36.997731552715
 10
36.65548349703239
 20
-36.99616789432004
 10
36.681007648401
 20
-36.994322303433
 10
36.70651199163999
 20
-36.99219420936303
 10
36.73199281986577
 20
-36.98978304141603
 10
36.7574464261941
 20
-36.987088228901
 10
36.78286910374109
 20
-36.984109201123
 10
36.80825714562288
 20
-36.98084538739096
 10
36.83360684495538
 20
-36.97729621701203
 10
36.85891449479899
 20
-36.97346111901303
 10
36.88417633395128
 20
-36.96933925029899
 10
36.90938844556209
 20
-36.96492898721103
 10
36.9345468850481
 20
-36.96022856701002
 10
36.9596477078257
 20
-36.955236226957
 10
36.98468696931139
 20
-36.94995020431302
 10
37.00966072492199
 20
-36.944368736337
 10
37.03456503007389
 20
-36.93849006029196
 10
37.05939594018365
 20
-36.93231241343797
 10
37.08414951066789
 20
-36.92583403303503
 10
37.108821796943
 20
-36.91905315634496
 10
37.1334088544257
 20
-36.91196802062698
 10
37.15586875037359
 20
-36.90520452427997
 10
37.17825067758159
 20
-36.898182526885
 10
37.20055159161058
 20
-36.890900668037
 10
37.22276778649288
 20
-36.88335730047104
 10
37.24489431105806
 20
-36.87555023696496
 10
37.2669260764437
 20
-36.867477230586
 10
37.28885799378728
 20
-36.85913603440597
 10
37.3106849742266
 20
-36.85052440149402
 10
37.33240192889899
 20
-36.84164008491897
 10
37.3540037689422
 20
-36.83248083775
 10
37.37548540549378
 20
-36.82304441305698
 10
37.39684174969139
 20
-36.81332856391097
 10
37.41806771267238
 20
-36.803331043379
 10
37.4391582055746
 20
-36.79304960453201
 10
37.45820954212199
 20
-36.78345457581499
 10
37.47714089091739
 20
-36.77362135874402
 10
37.4959484286232
 20
-36.76354826516496
 10
37.5146280219371
 20
-36.75323357616699
 10
37.53317373135379
 20
-36.74267539359901
 10
37.5515789649187
 20
-36.731871754566
 10
37.56983712979079
 20
-36.72082069608203
 10
37.58794163312888
 20
-36.70952025516303
 10
37.6058858820922
 20
-36.697968468825
 10
37.62366328383939
 20
-36.68616337408396
 10
37.64126724552939
 20
-36.67410300795402
 10
37.65869117432127
 20
-36.661785407452
 10
37.67592847737399
 20
-36.64920860959195
 10
37.69297256184628
 20
-36.636370651392
 10
37.70981683489718
 20
-36.62326956986499
 10
37.7264547036856
 20
-36.60990340202804
 10
37.7412468609677
 20
-36.59764557977396
 10
37.75586167020338
 20
-36.585170023022
 10
37.7702931934771
 20
-36.57247581424603
 10
37.7845335883489
 20
-36.55956290003102
 10
37.79857482660388
 20
-36.54643131125297
 10
37.81240888002699
 20
-36.53308107878702
 10
37.82602772040328
 20
-36.51951223351003
 10
37.83942331951779
 20
-36.505724806296
 10
37.8525876491556
 20
-36.49171882802202
 10
37.8655126811016
 20
-36.47749432956199
 10
37.87679421638149
 20
-36.46466690684802
 10
37.88787469518897
 20
-36.45166687229004
 10
37.8987484790522
 20
-36.43849424757301
 10
37.9094099294992
 20
-36.425149054383
 10
37.91985340805788
 20
-36.41163131440499
 10
37.93007327625638
 20
-36.39794104932199
 10
37.93882779796867
 20
-36.38582055992302
 10
37.94740297687159
 20
-36.37356810325904
 10
37.95579439430278
 20
-36.36118494180797
 10
37.96399722288989
 20
-36.34867313335
 10
37.9720066272232
 20
-36.33603475130398
 10
37.9798177718931
 20
-36.32327186909103
 10
37.9874258214897
 20
-36.31038656013104
 10
37.99378169443399
 20
-36.299246139585
 10
37.99998175708628
 20
-36.28801860189802
 10
38.0060229644071
 20
-36.27670525277902
 10
38.01190227135709
 20
-36.26530739794
 10
38.01761663289699
 20
-36.25382634308996
 10
38.02316300398739
 20
-36.24226339393996
 10
38.02853833958899
 20
-36.23061985620203
 10
38.03373959466238
 20
-36.21889703558499
 10
38.03876372416829
 20
-36.20709623780002
 10
38.04360768306728
 20
-36.19521876855804
 10
38.04826842632009
 20
-36.18326593357003
 10
38.05274290888728
 20
-36.17123903854499
 10
38.0570280857296
 20
-36.159139389194
 10
38.06045226131279
 20
-36.149001714376
 10
38.06374129408209
 20
-36.13881556276901
 10
38.06689415959699
 20
-36.12858313585403
 10
38.06990992635018
 20
-36.11830681724903
 10
38.0727876628341
 20
-36.10798899057096
 10
38.07552643754139
 20
-36.09763203943797
 10
38.07812531896459
 20
-36.087238347468
 10
38.08058337559638
 20
-36.07681029827805
 10
38.08289967592918
 20
-36.06635027548501
 10
38.0850732884557
 20
-36.05586066270801
 10
38.08710328166839
 20
-36.04534384356397
 10
38.08898872405989
 20
-36.03480220167099
 10
38.0907286841227
 20
-36.02423812064496
 10
38.09232223034949
 20
-36.01365398410599
 10
38.09376843123278
 20
-36.003052175669
 10
38.0950663552652
 20
-35.99243507895401
 10
38.09621507093928
 20
-35.981805077578
 10
38.0972136467476
 20
-35.97116455515699
 10
38.09806115118258
 20
-35.96051589530999
 10
38.09875665273709
 20
-35.94986148165499
 10
38.09929921990349
 20
-35.93920369780899
 10
38.09968792117439
 20
-35.92854492738904
 10
38.09992182504239
 20
-35.91788755401402
 10
38.09999999993099
 20
-35.90724396130302
  0
LWPOLYLINE
  5
1C95
330
1E
100
AcDbEntity
  8
1
100
AcDbPolyline
 90
      118
 70
     0
 43
0.0
 10
36.49999999999999
 20
-49.59111552229998
 10
36.51975259274689
 20
-49.59099668840403
 10
36.5395092524527
 20
-49.59064035083501
 10
36.55926662565589
 20
-49.59004675577304
 10
36.57902135889468
 20
-49.589216149399
 10
36.59877009870747
 20
-49.58814877789103
 10
36.61850949163259
 20
-49.58684488742903
 10
36.63823618420828
 20
-49.58530472419401
 10
36.65794682297299
 20
-49.58352853436499
 10
36.67763805446488
 20
-49.58151656412102
 10
36.69730652522228
 20
-49.57926905964299
 10
36.7169488817837
 20
-49.57678626711
 10
36.73656177068727
 20
-49.57406843270301
 10
36.7561418384714
 20
-49.57111580260002
 10
36.7756857316744
 20
-49.56792862298097
 10
36.79519009683459
 20
-49.56450714002702
 10
36.81465158049029
 20
-49.56085159991797
 10
36.83406682917989
 20
-49.55696224883103
 10
36.85343248944159
 20
-49.552839332949
 10
36.8727452817145
 20
-49.548483153572
 10
36.89200237419929
 20
-49.54389434598201
 10
36.91120110285278
 20
-49.53907367059001
 10
36.93033880392689
 20
-49.53402188802495
 10
36.9494128136736
 20
-49.52873975891804
 10
36.96842046834478
 20
-49.5232280439
 10
36.98735910419249
 20
-49.51748750359897
 10
37.0062260574686
 20
-49.511518898646
 10
37.0250186644251
 20
-49.50532298967202
 10
37.04373426131379
 20
-49.49890053730602
 10
37.06469394003845
 20
-49.49140543532005
 10
37.08554898887078
 20
-49.48362566003304
 10
37.10629561509109
 20
-49.47556229445197
 10
37.12693002598018
 20
-49.46721642158196
 10
37.14744842881849
 20
-49.45858912443199
 10
37.1678470308867
 20
-49.449681486007
 10
37.18812203946538
 20
-49.44049458931304
 10
37.20826965656139
 20
-49.43102955882999
 10
37.22828602420727
 20
-49.42128799067003
 10
37.2481672463657
 20
-49.41127178032203
 10
37.26790942639228
 20
-49.40098282804903
 10
37.2875086676426
 20
-49.390423034115
 10
37.30696107347228
 20
-49.37959429878303
 10
37.3262627472371
 20
-49.36849852231702
 10
37.3454097922925
 20
-49.35713760498002
 10
37.36439831199429
 20
-49.34551344703599
 10
37.38322440969787
 20
-49.33362794874703
 10
37.4018841887591
 20
-49.32148301037798
 10
37.42037375253359
 20
-49.30908053219205
 10
37.43868920437678
 20
-49.29642241445104
 10
37.45682664764449
 20
-49.28351055742004
 10
37.47478218569229
 20
-49.27034686136201
 10
37.49451469849199
 20
-49.25542747689799
 10
37.51401253020817
 20
-49.24020223743802
 10
37.53327073870317
 20
-49.22467460874902
 10
37.5522845369647
 20
-49.20884838724002
 10
37.5710491386398
 20
-49.19272737072502
 10
37.5895597573757
 20
-49.17631535702103
 10
37.6078116068195
 20
-49.15961614394204
 10
37.6257999006186
 20
-49.14263352930298
 10
37.64351985242009
 20
-49.12537131091903
 10
37.6609666758711
 20
-49.10783328660599
 10
37.67813558461889
 20
-49.09002325417803
 10
37.6950217923107
 20
-49.07194501145101
 10
37.71162051259357
 20
-49.05360235623995
 10
37.72792695911488
 20
-49.03499908636003
 10
37.7439363455217
 20
-49.01613899962601
 10
37.75964390500567
 20
-48.99702592496701
 10
37.775045282061
 20
-48.97766434607602
 10
37.78864145843399
 20
-48.960030673643
 10
37.80198353716597
 20
-48.94220358943901
 10
37.81506863952939
 20
-48.92418683397997
 10
37.82789388679677
 20
-48.905984147787
 10
37.8404564002405
 20
-48.88759927137598
 10
37.85275330113299
 20
-48.86903594526703
 10
37.8647817107467
 20
-48.85029790997802
 10
37.8765387503542
 20
-48.83138890602803
 10
37.88802154122777
 20
-48.812312673935
 10
37.89922720463999
 20
-48.79307295421703
 10
37.91015286186318
 20
-48.77367348739401
 10
37.92079563416978
 20
-48.75411801398301
 10
37.93001606538477
 20
-48.73660742634299
 10
37.93900868621899
 20
-48.718979156796
 10
37.94777150921778
 20
-48.70123584860901
 10
37.95630293935629
 20
-48.68338032982403
 10
37.96460163146279
 20
-48.66541554612499
 10
37.9726662443827
 20
-48.64734444508602
 10
37.98049543696139
 20
-48.629169974282
 10
37.98808786804428
 20
-48.61089508128802
 10
37.995442196477
 20
-48.59252271367999
 10
38.00255708110488
 20
-48.57405581903202
 10
38.00943118077328
 20
-48.55549734491895
 10
38.01606315432778
 20
-48.53685023891703
 10
38.02245166061378
 20
-48.51811744859999
 10
38.02859535847679
 20
-48.49930192154303
 10
38.03449290676209
 20
-48.48040660532102
 10
38.04014296431529
 20
-48.46143444751
 10
38.0455441899817
 20
-48.44238839568401
 10
38.05069524260678
 20
-48.42327139741801
 10
38.0555947810361
 20
-48.40408640028702
 10
38.06024146412909
 20
-48.384836351885
 10
38.06463411669677
 20
-48.36552440739602
 10
38.0687721420837
 20
-48.34615444571003
 10
38.07265506962727
 20
-48.32673050332297
 10
38.07628242866499
 20
-48.30725661673298
 10
38.07965374853429
 20
-48.28773682243603
 10
38.0827685585727
 20
-48.26817515692997
 10
38.08562638811759
 20
-48.24857565671103
 10
38.0882267665064
 20
-48.22894235827599
 10
38.09056922307668
 20
-48.20927929812299
 10
38.09265328716588
 20
-48.18959051274802
 10
38.09447848811148
 20
-48.16988003864803
 10
38.09604435525088
 20
-48.15015191232
 10
38.09735041792149
 20
-48.13041017026101
 10
38.098396205461
 20
-48.11065884896803
 10
38.09918124720659
 20
-48.09090198493803
 10
38.09970507249588
 20
-48.07114361466805
 10
38.09996721066639
 20
-48.05138777465501
 10
38.09999999996639
 20
-48.04152206490105
  0
LWPOLYLINE
  5
1D0D
330
1E
100
AcDbEntity
  8
1
100
AcDbPolyline
 90
        2
 70
     0
 43
0.0
 10
32.2846194078
 20
1.626501222299985
 10
32.53209990520748
 20
1.888092337495971
  0
LWPOLYLINE
  5
1D11
330
1E
100
AcDbEntity
  8
1
100
AcDbPolyline
 90
        2
 70
     0
 43
0.0
 10
31.82499999999999
 20
13.98916532909999
 10
31.5775198309574
 20
14.22761968948297
  0
LWPOLYLINE
  5
1D15
330
1E
100
AcDbEntity
  8
1
100
AcDbPolyline
 90
        2
 70
     0
 43
0.0
 10
31.57751262659999
 20
-25.1026658964
 10
31.82499262270889
 20
-24.87633744356898
  0
LWPOLYLINE
  5
1D19
330
1E
100
AcDbEntity
  8
1
100
AcDbPolyline
 90
        2
 70
     0
 43
0.0
 10
32.5321067812
 20
-13.59166575730003
 10
32.28462659802478
 20
-13.35258016096801
  0
LWPOLYLINE
  5
1DA9
330
1E
100
AcDbEntity
  8
1
100
AcDbPolyline
 90
        2
 70
     0
 43
0.0
 10
31.57751262659997
 20
-44.29891415300001
 10
31.8249910902234
 20
-44.17327942997101
  0
LWPOLYLINE
  5
1DAD
330
1E
100
AcDbEntity
  8
1
100
AcDbPolyline
 90
        2
 70
     0
 43
0.0
 10
32.53210678119999
 20
-37.00134179850003
 10
32.28462765523639
 20
-36.83206783946802
  0
LWPOLYLINE
  5
20AD
330
1E
100
AcDbEntity
  8
1
100
AcDbPolyline
 90
        2
 70
     0
 43
0.0
 10
32.53210678119999
 20
-49.59111552229998
 10
32.28462922454149
 20
-49.54366390587203
  0
LWPOLYLINE
  5
21FB
330
1E
100
AcDbEntity
  8
1
100
AcDbPolyline
 90
       89
 70
     0
 43
0.0
 10
31.4310671054
 20
-49.61108939129999
 10
31.43106641678038
 20
-49.61043548411701
 10
31.43108443884669
 20
-49.60978813540602
 10
31.43112091690679
 20
-49.60914728870305
 10
31.43117559626828
 20
-49.60851288754501
 10
31.43124822223918
 20
-49.60788487547002
 10
31.43133854012719
 20
-49.60726319601501
 10
31.43144629524019
 20
-49.606647792715
 10
31.43157123288607
 20
-49.60603860910802
 10
31.43171309837248
 20
-49.60543558873204
 10
31.43187163700738
 20
-49.60483867512298
 10
31.43204659409859
 20
-49.60424781181696
 10
31.43223771495388
 20
-49.60366294235203
 10
31.43244474488109
 20
-49.60308401026503
 10
31.4326674291881
 20
-49.60251095909299
 10
31.43290551318257
 20
-49.601943732372
 10
31.4331587421726
 20
-49.60138227363902
 10
31.43342686146569
 20
-49.60082652643204
 10
31.4337096163699
 20
-49.600276434287
 10
31.43400675219289
 20
-49.59973194074203
 10
31.43431801424259
 20
-49.59919298933201
 10
31.43464314782677
 20
-49.59865952359602
 10
31.43498189825338
 20
-49.59813148706897
 10
31.4353340108301
 20
-49.59760882329003
 10
31.43588667658749
 20
-49.596834778008
 10
31.43646797453919
 20
-49.59607250380201
 10
31.43707704509921
 20
-49.59532181010904
 10
31.43771302868139
 20
-49.594582506365
 10
31.4383750656996
 20
-49.59385440200803
 10
31.43906229656769
 20
-49.593137306476
 10
31.4397738616996
 20
-49.59243102920503
 10
31.44050890150927
 20
-49.591735379632
 10
31.44126655641067
 20
-49.59105016719401
 10
31.44204596681747
 20
-49.59037520132902
 10
31.44284627314389
 20
-49.589710291474
 10
31.4436666158036
 20
-49.58905524706501
 10
31.44450613521048
 20
-49.58840987753998
 10
31.44536397177858
 20
-49.58777399233603
 10
31.44623926592169
 20
-49.587147400889
 10
31.44713115805377
 20
-49.58652991263797
 10
31.44803878858868
 20
-49.58592133701903
 10
31.44927195889087
 20
-49.58512343758696
 10
31.45052954288549
 20
-49.584340592352
 10
31.45180950303498
 20
-49.58357234960804
 10
31.45310980180211
 20
-49.58281825765098
 10
31.45476067238089
 20
-49.581894854105
 10
31.45643615883207
 20
-49.58099197314003
 10
31.4584736322972
 20
-49.57993436360003
 10
31.4605339453557
 20
-49.578903511653
 10
31.46261022131897
 20
-49.57789789279696
 10
31.46504354438949
 20
-49.576754528774
 10
31.46747831488228
 20
-49.57564101391703
 10
31.47024898377138
 20
-49.57440192298999
 10
31.47299949779737
 20
-49.57319649919098
 10
31.4757301181778
 20
-49.57202395994201
 10
31.47844150705829
 20
-49.57088359120102
 10
31.48113432658439
 20
-49.56977467892702
 10
31.48380923890159
 20
-49.56869650907804
 10
31.48679793499659
 20
-49.567519425735
 10
31.48976574808978
 20
-49.56637933039001
 10
31.49271362096259
 20
-49.56527520637004
 10
31.49564249639637
 20
-49.56420603700197
 10
31.49855331717269
 20
-49.56317080561301
 10
31.50176753394847
 20
-49.56205911575902
 10
31.50496191820438
 20
-49.56098667487804
 10
31.50813776319339
 20
-49.55995208835801
 10
31.51161132332548
 20
-49.55885610050198
 10
31.5150657371005
 20
-49.55780237270797
 10
31.5188143747981
 20
-49.556698867732
 10
31.52254451000247
 20
-49.55564103676401
 10
31.52656720215219
 20
-49.55454380002803
 10
31.53088123973259
 20
-49.55341543019399
 10
31.53517997898989
 20
-49.55233856733602
 10
31.54007864346549
 20
-49.55116602765404
 10
31.5452725843405
 20
-49.54998205096504
 10
31.55107196568089
 20
-49.54872592233105
 10
31.5580966291443
 20
-49.54728691785296
 10
31.56698369706099
 20
-49.54557497508599
 10
31.5777958617917
 20
-49.543615727745
 10
31.58748373750089
 20
-49.54194082885605
 10
31.5982266834067
 20
-49.54016046788403
 10
31.61068416512389
 20
-49.538190650178
 10
31.62553631074159
 20
-49.535965734811
 10
31.64511474730689
 20
-49.533222002626
 10
31.66783039034889
 20
-49.53028522142497
 10
31.69098501151419
 20
-49.52754091354203
 10
31.7144646291601
 20
-49.52499506966901
 10
31.7384725356545
 20
-49.52262262865302
 10
31.739444425848
 20
-49.52253131487598
  0
LWPOLYLINE
  5
2256
330
1E
100
AcDbEntity
  8
1
100
AcDbPolyline
 90
       11
 70
     0
 43
0.0
 10
31.73945438219996
 20
-49.52253038130002
 10
31.75463840672668
 20
-49.52118583843301
 10
31.77040659547407
 20
-49.51995203060501
 10
31.7869488486856
 20
-49.51882698884595
 10
31.80445524412077
 20
-49.51781532603099
 10
31.82311578251589
 20
-49.516927898084
 10
31.84292949731958
 20
-49.516187466309
 10
31.86446619123298
 20
-49.51560134706703
 10
31.88810397473089
 20
-49.51519836108396
 10
31.91459949738269
 20
-49.51501585599
 10
31.92983468835379
 20
-49.51502689250602
  0
LWPOLYLINE
  5
2263
330
1E
100
AcDbEntity
  8
1
100
AcDbPolyline
 90
       20
 70
     0
 43
0.0
 10
31.92984468829997
 20
-49.51502692559998
 10
31.96084204973288
 20
-49.51528560182008
 10
31.98969915360978
 20
-49.515820994875
 10
32.01676961137219
 20
-49.51659946462999
 10
32.04240790115188
 20
-49.51759851830704
 10
32.06696888641296
 20
-49.51880768918702
 10
32.09045172987759
 20
-49.52020614603199
 10
32.1128560636347
 20
-49.52177150540896
 10
32.13418177120628
 20
-49.52348053626199
 10
32.15371600343988
 20
-49.52524822876601
 10
32.1714568661701
 20
-49.52703848797503
 10
32.18811346281448
 20
-49.528893764576
 10
32.20368572960679
 20
-49.53079288667002
 10
32.21852791020938
 20
-49.53276127809797
 10
32.2326403718106
 20
-49.53478515317597
 10
32.24602411608588
 20
-49.536849495783
 10
32.25868068378709
 20
-49.538938335489
 10
32.27096264640098
 20
-49.54109854621602
 10
32.2828703183254
 20
-49.54332391680702
 10
32.28460959105019
 20
-49.54366009457103
  0
LWPOLYLINE
  5
2279
330
1E
100
AcDbEntity
  8
1
100
AcDbPolyline
 90
      150
 70
     0
 43
0.0
 10
31.4310660308
 20
-37.07362783309999
 10
31.43110599634869
 20
-37.06948951292904
 10
31.43122580445179
 20
-37.06534970808102
 10
31.43142451576709
 20
-37.06120958022697
 10
31.4317011909521
 20
-37.05707029103602
 10
31.43205489066448
 20
-37.05293300218003
 10
31.43248467556179
 20
-37.048798875328
 10
31.43298960630179
 20
-37.04466907215199
 10
31.43356874354189
 20
-37.04054475432197
 10
31.43422114793989
 20
-37.03642708350802
 10
31.43494588015339
 20
-37.03231722138104
 10
31.43574200084
 20
-37.028216329611
 10
31.4366085706572
 20
-37.02412556986999
 10
31.43754465026288
 20
-37.020046103826
 10
31.4385493003144
 20
-37.01597909315203
 10
31.43962158146949
 20
-37.01192569951599
 10
31.44076055438587
 20
-37.00788708459096
 10
31.44196527972098
 20
-37.00386441004603
 10
31.4432348181326
 20
-36.99985883755202
 10
31.4445682302782
 20
-36.99587152877902
 10
31.4459645768156
 20
-36.99190364539803
 10
31.44742291840219
 20
-36.98795634908
 10
31.44894231569579
 20
-36.984030801494
 10
31.45052182935389
 20
-36.980128164312
 10
31.4521605200341
 20
-36.976249599204
 10
31.45385744839419
 20
-36.97239626783996
 10
31.45561167509169
 20
-36.96856933189099
 10
31.45742226078419
 20
-36.96476995302701
 10
31.4597633167072
 20
-36.960061251332
 10
31.46218913118439
 20
-36.95539969157997
 10
31.4646978695627
 20
-36.950787542659
 10
31.467287697189
 20
-36.946227073458
 10
31.46995678148559
 20
-36.94172052946302
 10
31.4727033793531
 20
-36.93726914720896
 10
31.47552586929228
 20
-36.932872792084
 10
31.47842263849328
 20
-36.92853123148998
 10
31.48139207414649
 20
-36.92424423282996
 10
31.48443256344228
 20
-36.92001156350599
 10
31.48754249357089
 20
-36.915832990921
 10
31.49072025172269
 20
-36.91170828247702
 10
31.493964225088
 20
-36.907637205577
 10
31.4979421263721
 20
-36.902822379438
 10
31.50201026818256
 20
-36.898084045854
 10
31.50616586358429
 20
-36.89342180289603
 10
31.5104061256421
 20
-36.888835248636
 10
31.51472826742089
 20
-36.88432398114501
 10
31.5191295019856
 20
-36.87988759849597
 10
31.5236070424009
 20
-36.87552569875899
 10
31.5289235636051
 20
-36.87053041764503
 10
31.5343357266723
 20
-36.86563533073403
 10
31.53983910605299
 20
-36.86083979977999
 10
31.54542927619718
 20
-36.85614318653399
 10
31.55110181155519
 20
-36.851544852751
 10
31.55685228657719
 20
-36.84704416018202
 10
31.56267627571359
 20
-36.84264047057903
 10
31.56856935341439
 20
-36.83833314569703
 10
31.57452709413
 20
-36.83412154728703
 10
31.58054514783159
 20
-36.830005035838
 10
31.5866206261729
 20
-36.82598294737899
 10
31.59275196416039
 20
-36.82205459579499
 10
31.59893764456999
 20
-36.81821929417
 10
31.60517615017758
 20
-36.814476355589
 10
31.61146596375929
 20
-36.81082509313806
 10
31.61780556809089
 20
-36.80726481989998
 10
31.6241934459485
 20
-36.80379484896104
 10
31.63062808010799
 20
-36.80041449340497
 10
31.6371079533454
 20
-36.79712306631703
 10
31.6436315484365
 20
-36.79391988078303
 10
31.6501973481575
 20
-36.79080424988601
 10
31.65680383528409
 20
-36.78777548671202
 10
31.66344949259239
 20
-36.78483290434603
 10
31.67013280285839
 20
-36.78197581587106
 10
31.67781503110298
 20
-36.77881437712496
 10
31.68554219226278
 20
-36.77576268131001
 10
31.69331202156039
 20
-36.772819703059
 10
31.70112225421799
 20
-36.76998441700702
 10
31.70897062545821
 20
-36.76725579778603
 10
31.71685487050329
 20
-36.76463282003199
 10
31.72477272457589
 20
-36.76211445837803
 10
31.73272192289819
 20
-36.759699687457
 10
31.74070020137548
 20
-36.75738748231597
 10
31.74870557138229
 20
-36.75517698396804
 10
31.75673674056159
 20
-36.753067752926
 10
31.7647925248786
 20
-36.75105941496802
 10
31.7728717402987
 20
-36.74915159586804
 10
31.7809732027872
 20
-36.74734392140504
 10
31.78909572830928
 20
-36.74563601735501
 10
31.7972381328302
 20
-36.74402750949302
 10
31.8053992323154
 20
-36.74251802359803
 10
31.81357784272989
 20
-36.74110718544497
 10
31.82177278003919
 20
-36.73979462081003
 10
31.82998286020849
 20
-36.73857995547204
 10
31.8382068992031
 20
-36.73746281520504
 10
31.84644371298819
 20
-36.73644282578702
 10
31.85469211752909
 20
-36.73551961299504
 10
31.8629509287912
 20
-36.73469280260404
 10
31.8712189627396
 20
-36.73396202039199
 10
31.87949503533969
 20
-36.73332689213502
 10
31.88777796255669
 20
-36.73278704360903
 10
31.89606656035589
 20
-36.73234210059202
 10
31.90539653673578
 20
-36.73195451548501
 10
31.9147305055405
 20
-36.73168603870599
 10
31.92406678090788
 20
-36.73153613742503
 10
31.9334036787642
 20
-36.73150428911097
 10
31.94273959294909
 20
-36.73159042002096
 10
31.95207302366229
 20
-36.73179506905099
 10
31.9614024787541
 20
-36.732118819166
 10
31.96969078389219
 20
-36.73250705442004
 10
31.97797372083189
 20
-36.732990264285
 10
31.9862502415888
 20
-36.73356885819599
 10
31.99451929817849
 20
-36.734243245589
 10
32.00277984261659
 20
-36.73501383589903
 10
32.01103082691889
 20
-36.73588103855997
 10
32.01927120310088
 20
-36.736845263008
 10
32.02749992317818
 20
-36.73790691867903
 10
32.03571593916669
 20
-36.73906641500696
 10
32.04391820308169
 20
-36.740324161428
 10
32.05210566693909
 20
-36.741680567376
 10
32.06027728275439
 20
-36.74313604228697
 10
32.06843200254328
 20
-36.74469099559602
 10
32.07656877832138
 20
-36.74634583673904
 10
32.08468656210439
 20
-36.74810097514995
 10
32.09278430590789
 20
-36.74995682026397
 10
32.10086096174761
 20
-36.751913781517
 10
32.10891548163897
 20
-36.75397226834499
 10
32.1169468175979
 20
-36.75613269018104
 10
32.12495391899619
 20
-36.75839545705603
 10
32.13293523773469
 20
-36.76076109086799
 10
32.1408881452257
 20
-36.76323035648997
 10
32.14880987114059
 20
-36.76580405066796
 10
32.1566976451505
 20
-36.76848297015003
 10
32.16454869692658
 20
-36.77126791168102
 10
32.17236025614027
 20
-36.774159672009
 10
32.18012955246276
 20
-36.77715904788
 10
32.18785381556519
 20
-36.78026683604103
 10
32.19553027511877
 20
-36.78348383323803
 10
32.20220578553329
 20
-36.78638891767203
 10
32.20884071941889
 20
-36.78937875904196
 10
32.21543322087189
 20
-36.79245389110603
 10
32.22198143398839
 20
-36.79561484762203
 10
32.2284835028645
 20
-36.79886216234697
 10
32.23493757159637
 20
-36.802196369041
 10
32.24134178428028
 20
-36.80561800146101
 10
32.24769428501228
 20
-36.80912759336403
 10
32.25399321788859
 20
-36.81272567851003
 10
32.26023672700539
 20
-36.81641279065602
 10
32.26642295645869
 20
-36.82018946356
 10
32.27255005034479
 20
-36.82405623097904
 10
32.2786161527599
 20
-36.828013626674
 10
32.28461116030209
 20
-36.83205652941903
  0
LWPOLYLINE
  5
2311
330
1E
100
AcDbEntity
  8
1
100
AcDbPolyline
 90
       85
 70
     0
 43
0.0
 10
31.43108202639998
 20
-44.47683834350002
 10
31.43109886423887
 20
-44.47540347571701
 10
31.4311337421056
 20
-44.473969146772
 10
31.43118650345559
 20
-44.47253545507002
 10
31.43125699174428
 20
-44.47110249901
 10
31.43134505042707
 20
-44.469670376997
 10
31.43145052295939
 20
-44.46823918743102
 10
31.43159537457107
 20
-44.46657077606004
 10
31.43176346670519
 20
-44.46490392404903
 10
31.43195455077487
 20
-44.46323878765801
 10
31.43216837819298
 20
-44.46157552314501
 10
31.4324047003725
 20
-44.459914286768
 10
31.43266326872659
 20
-44.45825523478798
 10
31.43294383466807
 20
-44.45659852346297
 10
31.43324614960999
 20
-44.454944309051
 10
31.43356996496537
 20
-44.45329274781304
 10
31.43391503214728
 20
-44.45164399600596
 10
31.4342811025686
 20
-44.44999820989004
 10
31.43466792764237
 20
-44.44835554572299
 10
31.43507525878159
 20
-44.44671615976496
 10
31.43550284739919
 20
-44.445080208275
 10
31.4359504449083
 20
-44.44344784751099
 10
31.43641780272178
 20
-44.44181923373299
 10
31.4369758033413
 20
-44.439962749437
 10
31.43755891758428
 20
-44.438111596506
 10
31.43816677438207
 20
-44.43626600818997
 10
31.4387990026662
 20
-44.43442621773598
 10
31.43945523136778
 20
-44.43259245839596
 10
31.44013508941828
 20
-44.43076496341904
 10
31.44083820574919
 20
-44.42894396605303
 10
31.4415642092916
 20
-44.42712969955002
 10
31.4423127289771
 20
-44.42532239715697
 10
31.44308339373678
 20
-44.42352229212499
 10
31.44397639985178
 20
-44.42150606748104
 10
31.44489643535479
 20
-44.41949957931099
 10
31.4458429719077
 20
-44.41750315972195
 10
31.44681548117269
 20
-44.41551714081898
 10
31.44781343481169
 20
-44.413541854712
 10
31.4488363044868
 20
-44.41157763350596
 10
31.4500014062537
 20
-44.40940854678799
 10
31.45119589154628
 20
-44.40725398601702
 10
31.45241903562129
 20
-44.405114406759
 10
31.45367011373528
 20
-44.40299026457902
 10
31.45494840114468
 20
-44.40088201504202
 10
31.45638507905
 20
-44.39858184027103
 10
31.45785283862969
 20
-44.39630205319104
 10
31.45935071525028
 20
-44.39404326015804
 10
31.46101797733469
 20
-44.39160377843299
 10
31.46271868083639
 20
-44.389190790193
 10
31.46445157339877
 20
-44.38680508265402
 10
31.4663637456289
 20
-44.384252264696
 10
31.46831063325818
 20
-44.38173338843601
 10
31.47029080680958
 20
-44.37924919836403
 10
31.47230345213178
 20
-44.37679946983204
 10
31.47434790044119
 20
-44.37438374923899
 10
31.47658441355178
 20
-44.37181971624201
 10
31.4788561996742
 20
-44.36929403179504
 10
31.48116242351337
 20
-44.36680612936201
 10
31.48350224977459
 20
-44.36435544240302
 10
31.48587484316287
 20
-44.36194140438201
 10
31.48845231999648
 20
-44.359394960523
 10
31.49106542589389
 20
-44.356889240968
 10
31.4937131334788
 20
-44.354423548902
 10
31.49639441537487
 20
-44.35199718750804
 10
31.49929029818829
 20
-44.349451634713
 10
31.50222196532678
 20
-44.34694919298201
 10
31.50518816993638
 20
-44.344489016638
 10
31.50818766516289
 20
-44.34207026000197
 10
31.5114097108296
 20
-44.33954476886603
 10
31.51466643534489
 20
-44.33706406765
 10
31.51795634315329
 20
-44.33462714199302
 10
31.52147428152539
 20
-44.33209345432095
 10
31.5250259699445
 20
-44.32960650244299
 10
31.5288096273667
 20
-44.32703075864899
 10
31.53262682303337
 20
-44.32450433002006
 10
31.536678860953
 20
-44.32189665149404
 10
31.5407633116012
 20
-44.31934039496705
 10
31.54508420434748
 20
-44.31670986125598
 10
31.54964323056788
 20
-44.314010834037
 10
31.55444144225569
 20
-44.31124888411003
 10
31.55947915156728
 20
-44.308429301266
 10
31.56475582580068
 20
-44.30555702306199
 10
31.5702699778096
 20
-44.30263656048501
 10
31.57601905184987
 20
-44.29967192053502
 10
31.5775037028207
 20
-44.29891866592803
  0
LWPOLYLINE
  5
2368
330
1E
100
AcDbEntity
  8
1
100
AcDbPolyline
 90
      162
 70
     0
 43
0.0
 10
31.43106591049999
 20
-13.69404914829996
 10
31.43110441945829
 20
-13.68827177544996
 10
31.43121635469889
 20
-13.68249142969702
 10
31.4314014970359
 20
-13.67670914875404
 10
31.43165962728331
 20
-13.67092597033298
 10
31.4319905262552
 20
-13.66514293214899
 10
31.4323939747658
 20
-13.65936107191399
 10
31.4328697536291
 20
-13.653581427342
 10
31.4335358557169
 20
-13.64665023962996
 10
31.4343054191316
 20
-13.63972552994803
 10
31.43517806511999
 20
-13.63280909146399
 10
31.4361534149287
 20
-13.62590271734601
 10
31.43723108980459
 20
-13.61900820076296
 10
31.43841071099439
 20
-13.61212733488301
 10
31.43969189974479
 20
-13.60526191287502
 10
31.44107427730249
 20
-13.59841372790699
 10
31.4425574649144
 20
-13.59158457314801
 10
31.44414108382699
 20
-13.58477624176598
 10
31.4458247552872
 20
-13.57799052692897
 10
31.44760810054179
 20
-13.571229221806
 10
31.44949074083728
 20
-13.56449411956599
 10
31.45147229742069
 20
-13.55778701337603
 10
31.45355239153861
 20
-13.551109696405
 10
31.4557306444377
 20
-13.544463961822
 10
31.4580066773649
 20
-13.53785160279501
 10
31.4603801115667
 20
-13.53127441249299
 10
31.4628505682901
 20
-13.52473418408297
 10
31.4654176687816
 20
-13.51823271073496
 10
31.4680810342881
 20
-13.51177178561599
 10
31.47084025389679
 20
-13.50535316123298
 10
31.4736945730629
 20
-13.49897815559998
 10
31.47664302909889
 20
-13.492647823557
 10
31.47968465640971
 20
-13.48636321626301
 10
31.48281848939998
 20
-13.48012538488203
 10
31.48604356247419
 20
-13.47393538057402
 10
31.48935891003729
 20
-13.46779425450002
 10
31.49276356649378
 20
-13.461703057822
 10
31.49625656624849
 20
-13.45566284170202
 10
31.499836943706
 20
-13.449674657301
 10
31.503503733271
 20
-13.44373955578
 10
31.50725596934821
 20
-13.43785858830202
 10
31.51109268634239
 20
-13.432032806026
 10
31.51567434245548
 20
-13.425307210363
 10
31.52036813887129
 20
-13.41865982784699
 10
31.52517254225989
 20
-13.41209232768201
 10
31.53008601929199
 20
-13.40560637907397
 10
31.53510703663778
 20
-13.39920365122898
 10
31.54023406096778
 20
-13.39288581335196
 10
31.54546555895239
 20
-13.386654534649
 10
31.55079999726198
 20
-13.38051148432501
 10
31.55623584256689
 20
-13.37445833158501
 10
31.56177156153769
 20
-13.36849674563498
 10
31.56740562084459
 20
-13.36262839567999
 10
31.57313648715819
 20
-13.35685495092602
 10
31.57896262570039
 20
-13.35117807809999
 10
31.5848823734075
 20
-13.34559922441698
 10
31.5908938400171
 20
-13.34011944832698
 10
31.59699511198629
 20
-13.33473976844802
 10
31.6031842757725
 20
-13.329461203394
 10
31.60945941783278
 20
-13.32428477178202
 10
31.61581862462448
 20
-13.31921149222696
 10
31.62225998260469
 20
-13.31424238334502
 10
31.6287815782307
 20
-13.30937846375101
 10
31.6353814979597
 20
-13.30462075206199
 10
31.64205782824889
 20
-13.29997026689301
 10
31.64880865555539
 20
-13.29542802686003
 10
31.65563206633669
 20
-13.29099505057899
 10
31.66252614704969
 20
-13.28667235666503
 10
31.6694889841518
 20
-13.28246096373399
 10
31.6765186641002
 20
-13.27836189040296
 10
31.68259585500611
 20
-13.27493856833697
 10
31.68871954404389
 20
-13.27159915662301
 10
31.69488852618369
 20
-13.26834429672399
 10
31.70110159639571
 20
-13.26517463009897
 10
31.70735754964989
 20
-13.262090798209
 10
31.7136551809167
 20
-13.25909344251502
 10
31.719993285166
 20
-13.25618320447701
 10
31.72637065736799
 20
-13.253360725556
 10
31.7327860924929
 20
-13.25062664721301
 10
31.73923838551079
 20
-13.247981610909
 10
31.74572632150589
 20
-13.24542618812401
 10
31.7522486418504
 20
-13.242960640922
 10
31.7588040758394
 20
-13.24058514587298
 10
31.7653913527675
 20
-13.23829987954499
 10
31.77200920192909
 20
-13.236105018507
 10
31.77865635261869
 20
-13.234000739327
 10
31.7853315341311
 20
-13.231987218572
 10
31.79203347576059
 20
-13.230064632811
 10
31.79876090680189
 20
-13.22823315861299
 10
31.80551255654939
 20
-13.22649297254398
 10
31.81228715429779
 20
-13.224844251174
 10
31.8190834293415
 20
-13.22328717107003
 10
31.8259001109752
 20
-13.22182190880099
 10
31.8327359284934
 20
-13.22044864093501
 10
31.83958961119046
 20
-13.21916754403902
 10
31.8464598883612
 20
-13.21797879468201
 10
31.8533454893001
 20
-13.21688256943301
 10
31.86024514330148
 20
-13.21587904485798
 10
31.8671575796602
 20
-13.21496839752702
 10
31.87408152767059
 20
-13.21415080400802
 10
31.88101571662729
 20
-13.213426440868
 10
31.8879588758248
 20
-13.21279548467598
 10
31.89490973455779
 20
-13.212258112
 10
31.90186702212059
 20
-13.211814499408
 10
31.90882946780789
 20
-13.21146482346799
 10
31.91579580091419
 20
-13.211209260748
 10
31.9227647507341
 20
-13.21104798781701
 10
31.9297350465621
 20
-13.21098118124196
 10
31.93670542471811
 20
-13.21100896647303
 10
31.94367465098089
 20
-13.21113125460098
 10
31.9506414988502
 20
-13.21134790054101
 10
31.9576047418255
 20
-13.21165875920499
 10
31.9645631534063
 20
-13.21206368550901
 10
31.9715155070922
 20
-13.21256253436396
 10
31.97846057638261
 20
-13.21315516068501
 10
31.98539713477728
 20
-13.21384141938503
 10
31.9923239557757
 20
-13.21462116537801
 10
31.9992398128773
 20
-13.21549425357798
 10
32.00614347958171
 20
-13.21646053889699
 10
32.01303372938848
 20
-13.21751987625103
 10
32.0199093357972
 20
-13.21867212055197
 10
32.02676907230741
 20
-13.219917126713
 10
32.0336117124185
 20
-13.22125474964999
 10
32.0404360296301
 20
-13.22268484427402
 10
32.04724079744189
 20
-13.224207265501
 10
32.05402478935329
 20
-13.22582186824203
 10
32.06078677886378
 20
-13.22752850741298
 10
32.06752553947309
 20
-13.22932703792602
 10
32.0742398446807
 20
-13.23121731469498
 10
32.08092846798598
 20
-13.23319919263401
 10
32.08759018288878
 20
-13.23527252665698
 10
32.0942237628884
 20
-13.23743717167698
 10
32.1008279814845
 20
-13.239692982607
 10
32.1074016121766
 20
-13.24203981436099
 10
32.1139434284642
 20
-13.24447752185298
 10
32.120452203847
 20
-13.24700595999698
 10
32.12692670739889
 20
-13.24962496415898
 10
32.13336563161279
 20
-13.25233403146998
 10
32.1397676042342
 20
-13.255132373088
 10
32.14613125097098
 20
-13.25801919117199
 10
32.1524551975308
 20
-13.26099368787899
 10
32.15873806962139
 20
-13.26405506536801
 10
32.16497849295069
 20
-13.26720252579801
 10
32.1711750932265
 20
-13.27043527132801
 10
32.17732649615639
 20
-13.27375250411498
 10
32.18343132744829
 20
-13.27715342631798
 10
32.19049293579629
 20
-13.28122587860699
 10
32.1974871020807
 20
-13.28540988859603
 10
32.2044116439765
 20
-13.28970418934298
 10
32.21126437915839
 20
-13.29410751390403
 10
32.2180431253013
 20
-13.29861859533699
 10
32.2247457000801
 20
-13.30323616669798
 10
32.2313699211696
 20
-13.307958961046
 10
32.23791360624469
 20
-13.31278571143698
 10
32.24437457298029
 20
-13.31771515092802
 10
32.250750639051
 20
-13.322746012576
 10
32.25703962213198
 20
-13.32787702943997
 10
32.26323933989789
 20
-13.33310693457397
 10
32.26934761002357
 20
-13.33843446103802
 10
32.2753622501841
 20
-13.34385834188801
 10
32.281281078054
 20
-13.34937731018102
 10
32.2846122174993
 20
-13.35256626130299
  0
LWPOLYLINE
  5
240C
330
1E
100
AcDbEntity
  8
1
100
AcDbPolyline
 90
       68
 70
     0
 43
0.0
 10
31.43106576379998
 20
-25.42572607920002
 10
31.43109148391008
 20
-25.42101152099903
 10
31.4311721228457
 20
-25.416294901334
 10
31.43130750569799
 20
-25.41157688702899
 10
31.43149745755839
 20
-25.40685814491101
 10
31.4317418035182
 20
-25.40213934180498
 10
31.43204036866869
 20
-25.39742114453598
 10
31.43239297810128
 20
-25.39270421992998
 10
31.4327994569072
 20
-25.38798923481099
 10
31.43325963017788
 20
-25.383276856006
 10
31.4337733230046
 20
-25.37856775033996
 10
31.4343403604787
 20
-25.37386258463901
 10
31.43496056769139
 20
-25.36916202572704
 10
31.4356337697341
 20
-25.36446674042994
 10
31.4363597916982
 20
-25.35977739557305
 10
31.43713845867488
 20
-25.35509465798302
 10
31.43796959575559
 20
-25.35041919448302
 10
31.43885302803171
 20
-25.34575167190102
 10
31.43978858059428
 20
-25.34109275706001
 10
31.44077607853489
 20
-25.33644311678703
 10
31.44181534694479
 20
-25.33180341790702
 10
31.44290621091529
 20
-25.32717432724601
 10
31.44404849553779
 20
-25.32255651162799
 10
31.44524202590339
 20
-25.31795063787901
 10
31.446584476002
 20
-25.31300458611904
 10
31.44798593772419
 20
-25.30807399030901
 10
31.4494461926133
 20
-25.30315968329798
 10
31.4509650222126
 20
-25.29826249793499
 10
31.4525422080654
 20
-25.29338326706799
 10
31.45417753171498
 20
-25.288522823548
 10
31.4558707747046
 20
-25.283682000222
 10
31.4576217185775
 20
-25.27886162993903
 10
31.4594301448771
 20
-25.27406254554798
 10
31.4612958351466
 20
-25.26928557989801
 10
31.46321857092928
 20
-25.26453156583798
 10
31.46519813376839
 20
-25.259801336217
 10
31.46723430520729
 20
-25.25509572388298
 10
31.46932685875238
 20
-25.25041555398904
 10
31.47147538304079
 20
-25.24576147462598
 10
31.47367928182911
 20
-25.24113395681697
 10
31.4761013641682
 20
-25.23620590360499
 10
31.47858557723969
 20
-25.23130944371704
 10
31.48113117780239
 20
-25.22644514702099
 10
31.483737422615
 20
-25.22161358338204
 10
31.48640356843619
 20
-25.21681532267005
 10
31.4891288720248
 20
-25.21205093475002
 10
31.4921002301031
 20
-25.20700689839302
 10
31.4951371489113
 20
-25.20200274173796
 10
31.49823872642978
 20
-25.19703915639198
 10
31.50140406063899
 20
-25.19211683396301
 10
31.5046322495191
 20
-25.18723646605903
 10
31.5081300613273
 20
-25.18209781844999
 10
31.5116967299318
 20
-25.17700814388402
 10
31.51533117339329
 20
-25.17196827192103
 10
31.5190323097727
 20
-25.16697903211703
 10
31.5230226506304
 20
-25.16175241684001
 10
31.52708526411239
 20
-25.156584480399
 10
31.53121886589749
 20
-25.15147620752501
 10
31.53565770663929
 20
-25.14614995741296
 10
31.5401727008995
 20
-25.14089243962402
 10
31.5447623381915
 20
-25.13570481229701
 10
31.54967251417148
 20
-25.13032093001098
 10
31.5544106338081
 20
-25.12528039046197
 10
31.55921878551771
 20
-25.12031327674801
 10
31.56409545881379
 20
-25.11542074700802
 10
31.56903914320979
 20
-25.11060395937998
 10
31.5737830783681
 20
-25.10611160383798
 10
31.57750524518979
 20
-25.10267264287497
  0
LWPOLYLINE
  5
2452
330
1E
100
AcDbEntity
  8
1
100
AcDbPolyline
 90
        2
 70
     0
 43
0.0
 10
32.2846194078
 20
47.55782500359995
 10
32.53209734337641
 20
47.64522297132597
  0
LWPOLYLINE
  5
2456
330
1E
100
AcDbEntity
  8
1
100
AcDbPolyline
 90
        2
 70
     0
 43
0.0
 10
31.825
 20
50.27438554940001
 10
31.5775225865063
 20
50.29722602682396
  0
LWPOLYLINE
  5
245A
330
1E
100
AcDbEntity
  8
SK1
100
AcDbPolyline
 90
       40
 70
     0
 43
0.0
 10
-9.499999999999996
 20
23.0
 10
-9.897097805872499
 20
22.82145105886598
 10
-10.27625920150226
 20
22.65615006219297
 10
-10.64725871935418
 20
22.49941668044395
 10
-10.99986621023798
 20
22.35514245843501
 10
-11.34395660543498
 20
22.21884529381497
 10
-11.67940082360299
 20
22.09032241312701
 10
-12.00606581240798
 20
21.96936376154201
 10
-12.32382171001198
 20
21.85574729403496
 10
-12.63254300629
 20
21.74923967625201
 10
-12.932105275544
 20
21.64959926764699
 10
-13.222381567111
 20
21.556579180678
 10
-13.51367078999897
 20
21.46677490581097
 10
-13.79550456777899
 20
21.38330418638096
 10
-14.06776903128998
 20
21.30589903178298
 10
-14.340875161577
 20
21.231481562233
 10
-14.604252662392
 20
21.16280639582498
 10
-14.868368009258
 20
21.09701451024901
 10
-15.12259233245599
 20
21.036621531989
 10
-15.377456616038
 20
20.97899211432995
 10
-15.632941249292
 20
20.92417833677598
 10
-15.87834465933001
 20
20.87433876434598
 10
-16.12428197446799
 20
20.82717809943598
 10
-16.37072990627699
 20
20.78273510781798
 10
-16.60691616071699
 20
20.74279980187398
 10
-16.84352229913299
 20
20.70541380292098
 10
-17.08052518265799
 20
20.67060780194498
 10
-17.31790167242698
 20
20.63841248993699
 10
-17.54481558272498
 20
20.61014418197697
 10
-17.77202869901898
 20
20.58430927912199
 10
-17.99952083160401
 20
20.56093439317297
 10
-18.227267135903
 20
20.54004029619298
 10
-18.45523507653497
 20
20.52163811181598
 10
-18.68339139764001
 20
20.50573805979599
 10
-18.91170284335601
 20
20.49235035989098
 10
-19.12925610824197
 20
20.48194526691601
 10
-19.34689118401395
 20
20.47383704919897
 10
-19.56457934300598
 20
20.46803453495102
 10
-19.782291857556
 20
20.46454655238098
 10
-19.99999
 20
20.46338192970301
  0
LWPOLYLINE
  5
2484
330
1E
100
AcDbEntity
  8
1
100
AcDbPolyline
 90
        2
 70
     0
 43
0.0
 10
32.2846194078
 20
30.282934176
 10
32.53209913299601
 20
30.49199206846398
  0
LWPOLYLINE
  5
2488
330
1E
100
AcDbEntity
  8
1
100
AcDbPolyline
 90
        2
 70
     0
 43
0.0
 10
31.825
 20
39.29132671179999
 10
31.57752110115849
 20
39.44686111594099
  0
LWPOLYLINE
  5
248C
330
1E
100
AcDbEntity
  8
1
100
AcDbPolyline
 90
      101
 70
     0
 43
0.0
 10
38.09999999999996
 20
1.281028687400001
 10
38.09992889269359
 20
1.286485229177991
 10
38.09971736751729
 20
1.291940962988995
 10
38.09936811958559
 20
1.297393704907984
 10
38.09888384401299
 20
1.302841271010004
 10
38.0982672359137
 20
1.308281477367978
 10
38.09752099040238
 20
1.313712140059004
 10
38.09664780259339
 20
1.319131075154978
 10
38.0956503676011
 20
1.324536098732999
 10
38.0945313805401
 20
1.329925026865988
 10
38.09329353652468
 20
1.335295675627995
 10
38.09193953066928
 20
1.340645861094992
 10
38.0904720580885
 20
1.345973399341993
 10
38.0888938138966
 20
1.351276106440982
 10
38.08720749320809
 20
1.356551798468978
 10
38.0854157911374
 20
1.361798291500003
 10
38.083521402799
 20
1.367013401607998
 10
38.08152702330728
 20
1.37219494486799
 10
38.0794353477767
 20
1.377340737354975
 10
38.0772490713217
 20
1.382448595141988
 10
38.0749708890567
 20
1.387516334304983
 10
38.0726034960962
 20
1.39254177091899
 10
38.07014958755449
 20
1.397522721056978
 10
38.0676118585461
 20
1.40245700079398
 10
38.06410249069811
 20
1.408959667357004
 10
38.06045528841929
 20
1.415370305076999
 10
38.05667620431069
 20
1.421684939239973
 10
38.05276953219
 20
1.427904170097967
 10
38.04873917128499
 20
1.434029686191019
 10
38.04458902082359
 20
1.440063176057999
 10
38.0403229800337
 20
1.446006328239995
 10
38.035944948143
 20
1.451860831275998
 10
38.03145882437959
 20
1.457628373705994
 10
38.02686850797128
 20
1.46331064406899
 10
38.02217789814599
 20
1.468909330906988
 10
38.0161795384766
 20
1.475792722504984
 10
38.01003817856599
 20
1.482551451117013
 10
38.00376143409378
 20
1.489188814669994
 10
37.9973569207394
 20
1.495708111096968
 10
37.9908322541822
 20
1.502112638324
 10
37.98285477496261
 20
1.509651219140003
 10
37.9747284016034
 20
1.517034980149978
 10
37.96646629399879
 20
1.524269620176989
 10
37.95808161204289
 20
1.531360838041984
 10
37.9495875156297
 20
1.538314332567004
 10
37.93955658614829
 20
1.546260154340977
 10
37.92940640403029
 20
1.554032616209999
 10
37.919141535854
 20
1.561635925072003
 10
37.9087662662366
 20
1.569074204216969
 10
37.8982848797955
 20
1.576351576930984
 10
37.887701661148
 20
1.58347216650298
 10
37.87702089491139
 20
1.590440096220978
 10
37.86470035520128
 20
1.598221803385988
 10
37.8522643983271
 20
1.605815658486017
 10
37.83971941998571
 20
1.613227816401995
 10
37.8270718158741
 20
1.62046443201097
 10
37.81432798168928
 20
1.627531660192994
 10
37.7998841066143
 20
1.635287484535006
 10
37.78533564128021
 20
1.642845481171967
 10
37.7706916920601
 20
1.650214413595984
 10
37.75431970016839
 20
1.65819101273501
 10
37.73785075050438
 20
1.665954816802008
 10
37.72128937744771
 20
1.673511553571979
 10
37.7029698505129
 20
1.681591100094999
 10
37.68454856680379
 20
1.689433505548003
 10
37.6660308039793
 20
1.697045794403968
 10
37.6457257756851
 20
1.705095916644005
 10
37.6253190619573
 20
1.712889660496006
 10
37.6048175146327
 20
1.720436145638979
 10
37.5825084348397
 20
1.728343057128989
 10
37.56010481018329
 20
1.735982080871985
 10
37.5358820884417
 20
1.74392243091497
 10
37.51157070078628
 20
1.751580023586988
 10
37.4854356563868
 20
1.759485993342985
 10
37.4592164703645
 20
1.767092271580985
 10
37.43116131825999
 20
1.774883380184995
 10
37.4030202851096
 20
1.782350349548999
 10
37.3747984555097
 20
1.789501871682995
 10
37.34472991991271
 20
1.796764449713004
 10
37.3145820115166
 20
1.803691155604008
 10
37.2825809609464
 20
1.810670812293004
 10
37.2487209532712
 20
1.817656074278993
 10
37.21478599726349
 20
1.824263154330983
 10
37.17899300763379
 20
1.830824749930959
 10
37.14313224524289
 20
1.836993148868988
 10
37.10541037476849
 20
1.843054725400969
 10
37.06762382749909
 20
1.848699162777018
 10
37.0297777383534
 20
1.853934824816995
 10
36.9900711870526
 20
1.858990480170995
 10
36.95031082777179
 20
1.86361629806799
 10
36.9086920553922
 20
1.868003229652993
 10
36.86702767131079
 20
1.871941858392995
 10
36.8235102164771
 20
1.875584525252969
 10
36.77995633462669
 20
1.878755279354999
 10
36.73637173595309
 20
1.881457534923008
 10
36.69276213038779
 20
1.883694704965983
 10
36.64913322786189
 20
1.885470202490973
 10
36.6054907383066
 20
1.886787440503974
 10
36.56002151976199
 20
1.887675944599969
 10
36.51455020784389
 20
1.888074766309978
 10
36.5000100000002
 20
1.888099598388004
  0
LWPOLYLINE
  5
24F3
330
1E
100
AcDbEntity
  8
1
100
AcDbPolyline
 90
      119
 70
     0
 43
0.0
 10
38.09999999999996
 20
45.95130304440004
 10
38.0998807751276
 20
45.97196621001296
 10
38.0995231983854
 20
45.99263342326199
 10
38.0989274165857
 20
46.01330142688499
 10
38.09809357654081
 20
46.03396696361796
 10
38.09702182506311
 20
46.054626776197
 10
38.09571230896489
 20
46.07527760735997
 10
38.0941651750586
 20
46.09591619984196
 10
38.09238057015639
 20
46.11653929637895
 10
38.09035864107079
 20
46.13714363970896
 10
38.08809953461411
 20
46.15772597256802
 10
38.0856033975985
 20
46.17828303769195
 10
38.0828703768366
 20
46.19881157781796
 10
38.0799006191405
 20
46.21930833568296
 10
38.07669427132271
 20
46.23977005402202
 10
38.07325148019538
 20
46.26019347557297
 10
38.06957239257111
 20
46.28057534307099
 10
38.06515115363561
 20
46.30345121825397
 10
38.06043124679138
 20
46.32626574133299
 10
38.05541298491689
 20
46.34901441983298
 10
38.0500970749314
 20
46.37169331266797
 10
38.04448431720328
 20
46.39429860951496
 10
38.0385755121011
 20
46.41682650005303
 10
38.03237145999339
 20
46.43927317395895
 10
38.02587296124869
 20
46.46163482091198
 10
38.01908081623551
 20
46.48390763058993
 10
38.01199582532222
 20
46.50608779266999
 10
38.0046187888775
 20
46.52817149683095
 10
37.9969505072697
 20
46.55015493275095
 10
37.9889917808675
 20
46.57203429010795
 10
37.98074341003921
 20
46.59380575857999
 10
37.97220619515349
 20
46.61546552784595
 10
37.9633809365789
 20
46.63700978758199
 10
37.95426843468379
 20
46.65843472746696
 10
37.94486948983671
 20
46.67973653717896
 10
37.93518503455199
 20
46.70091135262497
 10
37.925216521845
 20
46.72195509790799
 10
37.91496553286689
 20
46.742863644995
 10
37.90443364876878
 20
46.76363286584898
 10
37.89362245070179
 20
46.78425863243496
 10
37.8825335198171
 20
46.80473681671695
 10
37.8711684372657
 20
46.82506329066199
 10
37.85952878419879
 20
46.84523392623193
 10
37.8476161417675
 20
46.865244595394
 10
37.8354320911229
 20
46.88509117011099
 10
37.82297821341622
 20
46.90476952234797
 10
37.81025608979838
 20
46.92427552406999
 10
37.79726730142061
 20
46.94360504724097
 10
37.784013429434
 20
46.96275396382698
 10
37.77049605498981
 20
46.98171814579198
 10
37.7551696295775
 20
47.00256777466898
 10
37.7395224155224
 20
47.02317865488701
 10
37.72355780954249
 20
47.04354536116799
 10
37.7072793119921
 20
47.06366248826095
 10
37.69069042322549
 20
47.08352463091997
 10
37.673794643597
 20
47.103126383897
 10
37.65659547346089
 20
47.12246234194199
 10
37.63909641317168
 20
47.14152709980798
 10
37.6213009630835
 20
47.16031525224598
 10
37.60321262355079
 20
47.17882139400898
 10
37.58483489492778
 20
47.19704011984696
 10
37.56617127756889
 20
47.21496602451397
 10
37.54722527182838
 20
47.23259370275997
 10
37.52800037806061
 20
47.24991774933797
 10
37.50850009662122
 20
47.26693275899999
 10
37.48872822497471
 20
47.28363344290499
 10
37.4686896904362
 20
47.30001495488896
 10
37.45043130694628
 20
47.314481505283
 10
37.4319649229224
 20
47.32868223009199
 10
37.4132943261368
 20
47.342613673161
 10
37.39442330436211
 20
47.35627237833496
 10
37.37535564537049
 20
47.36965488945696
 10
37.35609513693461
 20
47.38275775037297
 10
37.33664556682679
 20
47.39557750492596
 10
37.31701072281949
 20
47.40811069696198
 10
37.29719439268512
 20
47.42035387032497
 10
37.27720036419611
 20
47.432303568859
 10
37.25703242512489
 20
47.44395633640896
 10
37.23896243125121
 20
47.45406228261199
 10
37.2207606796287
 20
47.463928458522
 10
37.20242983095801
 20
47.47355243737
 10
37.18397268342811
 20
47.48293198562699
 10
37.16539236906799
 20
47.492065338972
 10
37.14669206959721
 20
47.50095080292495
 10
37.127874966735
 20
47.50958668300599
 10
37.10894424220089
 20
47.51797128473298
 10
37.08990307771429
 20
47.52610291362699
 10
37.07075465499471
 20
47.53397987520595
 10
37.05150215576161
 20
47.54160047499
 10
37.0321487617342
 20
47.54896301849895
 10
37.01269765463211
 20
47.556065811252
 10
36.99315201617471
 20
47.56290715876795
 10
36.9735150280815
 20
47.56948536656799
 10
36.95378987207178
 20
47.57579874016895
 10
36.93397972986521
 20
47.58184558509296
 10
36.91408778318101
 20
47.58762420685695
 10
36.8941172137386
 20
47.593132910982
 10
36.87407120325762
 20
47.59837000298801
 10
36.85395295373361
 20
47.60333380462401
 10
36.83376626977321
 20
47.60802312006195
 10
36.813515645692
 20
47.61243730561098
 10
36.79574746158201
 20
47.61607354324294
 10
36.7779368293749
 20
47.61949825394596
 10
36.76008678523128
 20
47.62271102676795
 10
36.74220036531139
 20
47.62571145075995
 10
36.72428060577561
 20
47.62849911497098
 10
36.70633054278429
 20
47.631073608449
 10
36.68835321249789
 20
47.63343452024295
 10
36.67035165107671
 20
47.63558143940396
 10
36.65232889468111
 20
47.63751395497997
 10
36.6342879794715
 20
47.63923165601901
 10
36.61623194160821
 20
47.64073413157296
 10
36.59816381725171
 20
47.64202097068897
 10
36.58008664256231
 20
47.64309176241696
 10
36.5620034537004
 20
47.643946095805
 10
36.54391728682629
 20
47.64458355990401
 10
36.52583117810038
 20
47.64500374376199
 10
36.50774816368318
 20
47.645206236429
 10
36.5000100000011
 20
47.645226276967
  0
LWPOLYLINE
  5
256C
330
1E
100
AcDbEntity
  8
1
100
AcDbPolyline
 90
      119
 70
     0
 43
0.0
 10
38.09999999999996
 20
29.08761903159998
 10
38.0998884523891
 20
29.10412518019597
 10
38.0995542137116
 20
29.12063573966197
 10
38.09899789020029
 20
29.13714727076799
 10
38.098220088088
 20
29.15365633428399
 10
38.09722141360771
 20
29.17015949098299
 10
38.09600247299221
 20
29.18665330163298
 10
38.09456387247429
 20
29.20313432700499
 10
38.09290621828679
 20
29.21959912786997
 10
38.09103011666261
 20
29.23604426499801
 10
38.0889361738345
 20
29.25246629915901
 10
38.08662499603538
 20
29.26886179112398
 10
38.0840971894981
 20
29.28522730166401
 10
38.08135336045538
 20
29.30155939154897
 10
38.07839411514029
 20
29.31785462154797
 10
38.07522005978551
 20
29.334109552434
 10
38.0718318006239
 20
29.35032074497598
 10
38.06822994388829
 20
29.36648475994396
 10
38.06441509581161
 20
29.382598158109
 10
38.06038786263171
 20
29.39865750024797
 10
38.05614903505039
 20
29.41465958045199
 10
38.0517000757291
 20
29.43060204272498
 10
38.0470426002925
 20
29.446482724541
 10
38.04217822436539
 20
29.46229946337401
 10
38.0371085635725
 20
29.4780500967
 10
38.03183523353879
 20
29.493732461994
 10
38.02635984988889
 20
29.509344396729
 10
38.0206840282476
 20
29.52488373838198
 10
38.01480938423971
 20
29.54034832442697
 10
38.00873753348989
 20
29.555735992339
 10
38.0024700916231
 20
29.57104457959201
 10
37.996008674264
 20
29.58627192366197
 10
37.98838874879279
 20
29.60357234706498
 10
37.98051998944178
 20
29.620760604373
 10
37.9724048078725
 20
29.63783346756098
 10
37.9640456157464
 20
29.654787708603
 10
37.95544482472488
 20
29.67162009947299
 10
37.9466048464695
 20
29.68832741214399
 10
37.9375281509681
 20
29.70490650998097
 10
37.9282176227417
 20
29.721354905862
 10
37.9186763258284
 20
29.73767039394497
 10
37.90890732498651
 20
29.753850769515
 10
37.89891368497471
 20
29.76989382785898
 10
37.8886984705513
 20
29.78579736426198
 10
37.8782647464751
 20
29.80155917401001
 10
37.8662694355531
 20
29.81911905720801
 10
37.854005815876
 20
29.83649363813398
 10
37.84147825113311
 20
29.85367977765397
 10
37.82869110501361
 20
29.87067433663401
 10
37.815648741207
 20
29.88747417594101
 10
37.80235552340271
 20
29.90407615644098
 10
37.7888158152899
 20
29.92047713899902
 10
37.77503398055809
 20
29.93667398448298
 10
37.75944216265121
 20
29.95442724137999
 10
37.743562775922
 20
29.97192061396498
 10
37.72740169174761
 20
29.98915160041997
 10
37.7109647540163
 20
30.00611813215701
 10
37.69425780661328
 20
30.02281814064298
 10
37.67728669342371
 20
30.03924955734197
 10
37.6600572583329
 20
30.05541031371901
 10
37.642575345226
 20
30.07129834123697
 10
37.62484679798821
 20
30.08691157136297
 10
37.60687746050471
 20
30.10224793556003
 10
37.5886731766608
 20
30.11730536529398
 10
37.5702397903415
 20
30.132081792029
 10
37.55158314543218
 20
30.14657514722998
 10
37.53270908581801
 20
30.16078336236097
 10
37.51362345538411
 20
30.174704368888
 10
37.4943320514084
 20
30.18833618686199
 10
37.47484026631251
 20
30.20167760584601
 10
37.45515328439871
 20
30.21472781097898
 10
37.43527628825939
 20
30.22748599064701
 10
37.4152144604869
 20
30.23995133323797
 10
37.3949729836735
 20
30.25212302713998
 10
37.37660633802397
 20
30.26282581122401
 10
37.35810215266111
 20
30.27328949079798
 10
37.33946420569461
 20
30.28351347419698
 10
37.3206962752342
 20
30.29349716975398
 10
37.30180213938978
 20
30.30323998580399
 10
37.2827855762712
 20
30.31274133068196
 10
37.2636503639883
 20
30.32200061272101
 10
37.24440028065078
 20
30.331017240258
 10
37.22503910436861
 20
30.33979062162501
 10
37.20557061325147
 20
30.34832016515698
 10
37.18599846549038
 20
30.35660535203601
 10
37.16632583846978
 20
30.36464595551398
 10
37.1465557890886
 20
30.37244182203499
 10
37.1266913742461
 20
30.37999279804195
 10
37.1067356508415
 20
30.38729872997797
 10
37.0866916757739
 20
30.39435946428801
 10
37.0665625059424
 20
30.40117484741301
 10
37.04635119824628
 20
30.40774472579899
 10
37.0260608095847
 20
30.414068945888
 10
37.00569439685671
 20
30.42014735412296
 10
36.98525501696149
 20
30.42597979694898
 10
36.96474572679831
 20
30.43156612080798
 10
36.94416958326621
 20
30.436906172144
 10
36.9235296432644
 20
30.44199979740099
 10
36.9028289636921
 20
30.446846843021
 10
36.8820706014484
 20
30.45144715544898
 10
36.86125761346839
 20
30.45580058113998
 10
36.84039313708911
 20
30.45990699466599
 10
36.8194805610134
 20
30.46376635850001
 10
36.798523322933
 20
30.46737865224699
 10
36.77752486053929
 20
30.47074385551101
 10
36.7564886115241
 20
30.47386194789598
 10
36.7354180135787
 20
30.47673290900599
 10
36.71431650439478
 20
30.47935671844498
 10
36.6931875216639
 20
30.48173335581802
 10
36.6720345030776
 20
30.48386280072898
 10
36.6508608863274
 20
30.485745032782
 10
36.6296701091049
 20
30.48738003158098
 10
36.6084656091016
 20
30.48876777672997
 10
36.5872508240091
 20
30.48990824783398
 10
36.566029191519
 20
30.490801424496
 10
36.54480414932279
 20
30.49144728632199
 10
36.52357913511201
 20
30.49184581291399
 10
36.50235758657831
 20
30.49199698387801
 10
36.50001000000078
 20
30.49199851087297
  0
LWPOLYLINE
  5
25E5
330
1E
100
AcDbEntity
  8
1
100
AcDbPolyline
 90
       85
 70
     0
 43
0.0
 10
31.4310662389
 20
50.3277340065
 10
31.43109451605528
 20
50.32871621020095
 10
31.43119481863821
 20
50.32965268430899
 10
31.4313650906525
 20
50.33054461882495
 10
31.4316032761019
 20
50.331393203749
 10
31.4319073189899
 20
50.33219962908098
 10
31.4322751633203
 20
50.33296508482197
 10
31.43270475309661
 20
50.33369076097097
 10
31.43319403232248
 20
50.33437784753001
 10
31.43374094500171
 20
50.33502753449798
 10
31.43434343513781
 20
50.33564101187597
 10
31.4349994467345
 20
50.33621946966497
 10
31.4357069237954
 20
50.33676409786297
 10
31.43646381032429
 20
50.337276086472
 10
31.43726805032458
 20
50.33775662549197
 10
31.43811758780019
 20
50.33820690492397
 10
31.43901036675448
 20
50.33862811476697
 10
31.4399443311913
 20
50.33902144502196
 10
31.4409174251143
 20
50.33938808568898
 10
31.4419275925271
 20
50.33972922676897
 10
31.4429727774333
 20
50.34004605826097
 10
31.4440509238366
 20
50.34033977016697
 10
31.44515997574071
 20
50.340611552486
 10
31.44629787714911
 20
50.34086259521899
 10
31.44746257206561
 20
50.34109408836497
 10
31.4486520044938
 20
50.341307221926
 10
31.4498641184373
 20
50.34150318590199
 10
31.4517203197019
 20
50.34176754201896
 10
31.45361598939648
 20
50.34199996032
 10
31.4555441885336
 20
50.34220445705598
 10
31.4581537287591
 20
50.342440627496
 10
31.4607923151556
 20
50.34264381960197
 10
31.46476867638469
 20
50.34290759839397
 10
31.46806391480331
 20
50.34311027526399
 10
31.4706658037541
 20
50.34327409882997
 10
31.47323031717911
 20
50.34344360068399
 10
31.47575821097849
 20
50.343618654993
 10
31.47825034432778
 20
50.34379907801999
 10
31.4807075764021
 20
50.34398468602802
 10
31.4831307663768
 20
50.34417529527998
 10
31.485520773427
 20
50.34437072203896
 10
31.48787845672821
 20
50.344570782569
 10
31.49020467545549
 20
50.34477529313201
 10
31.49250028878419
 20
50.34498406999198
 10
31.49476615588969
 20
50.34519692941099
 10
31.49700313594721
 20
50.345413687652
 10
31.49921208813189
 20
50.34563416097899
 10
31.5019351730666
 20
50.34591469706596
 10
31.50461748498829
 20
50.34620039202399
 10
31.50726070197361
 20
50.34649088699196
 10
31.50986650209929
 20
50.34678582310898
 10
31.51243656344199
 20
50.34708484151299
 10
31.5149725640785
 20
50.34738758334396
 10
31.51747618208561
 20
50.34769368974099
 10
31.5204401413551
 20
50.34806495336598
 10
31.52336278578521
 20
50.34843992509296
 10
31.52624701509231
 20
50.34881798480999
 10
31.5295672653632
 20
50.34926213006097
 10
31.53284377986238
 20
50.34970864965297
 10
31.5365407206853
 20
50.35022060192197
 10
31.54064724482521
 20
50.35079688755097
 10
31.54605243446519
 20
50.35156233053399
 10
31.5544993431831
 20
50.35275614224698
 10
31.5695363960043
 20
50.35478089540096
 10
31.57579959971529
 20
50.35555147819499
 10
31.58078507148328
 20
50.35612361149198
 10
31.58583321940529
 20
50.35666544194498
 10
31.5914086141119
 20
50.35722320042697
 10
31.5970517954588
 20
50.357747530376
 10
31.6032375520983
 20
50.35827944163099
 10
31.60997810769401
 20
50.35881224126399
 10
31.61728465281421
 20
50.359339480797
 10
31.6251669064038
 20
50.35985512493596
 10
31.6341333324275
 20
50.36038156347597
 10
31.64420455000799
 20
50.36090535302196
 10
31.65641801280509
 20
50.36145771265601
 10
31.67338911836421
 20
50.36210089327102
 10
31.71131173698151
 20
50.36317990755196
 10
31.74189726987021
 20
50.36387805125095
 10
31.76342298684811
 20
50.36436217975499
 10
31.78980054595049
 20
50.36494422488599
 10
31.83096001191357
 20
50.365760074997
 10
31.88880444771471
 20
50.36651400837
 10
31.92934197521669
 20
50.366617431328
 10
31.9298346883562
 20
50.36661603455499
  0
LWPOLYLINE
  5
263C
330
1E
100
AcDbEntity
  8
1
100
AcDbPolyline
 90
        9
 70
     0
 43
0.0
 10
31.92984468829999
 20
50.36661600549997
 10
32.02107640924708
 20
50.36592627646998
 10
32.08745191224221
 20
50.36474420765999
 10
32.14175063616758
 20
50.36322673735301
 10
32.18468044205421
 20
50.36159156225499
 10
32.22049693766421
 20
50.35986070140602
 10
32.25203875787361
 20
50.358012957475
 10
32.28037135050328
 20
50.35606189386196
 10
32.28460943632878
 20
50.35574452672499
  0
LWPOLYLINE
  5
2647
330
1E
100
AcDbEntity
  8
1
100
AcDbPolyline
 90
       93
 70
     0
 43
0.0
 10
31.43112852959998
 20
47.68216270299997
 10
31.43115529685498
 20
47.68295404708596
 10
31.4311927838478
 20
47.68374389970897
 10
31.4312408946791
 20
47.68453223891196
 10
31.4313158268948
 20
47.68551550122295
 10
31.4314070217124
 20
47.68649632163196
 10
31.43151429182871
 20
47.68747465725595
 10
31.4316374499404
 20
47.68845046521494
 10
31.43177630874439
 20
47.68942370262799
 10
31.4319306809374
 20
47.69039432661394
 10
31.43210037921619
 20
47.69136229429197
 10
31.43228521627751
 20
47.69232756278095
 10
31.43248500481798
 20
47.69329008920001
 10
31.4326995575347
 20
47.69424983066698
 10
31.43292868712411
 20
47.69520674430298
 10
31.4331722062831
 20
47.69616078722497
 10
31.4334299277085
 20
47.69711191655296
 10
31.43370166409701
 20
47.69806008940601
 10
31.43398722814529
 20
47.69900526290299
 10
31.43428643255028
 20
47.69994739416199
 10
31.43459909000869
 20
47.70088644030397
 10
31.43492501321721
 20
47.70182235844596
 10
31.43526401487271
 20
47.70275510570797
 10
31.43561590767189
 20
47.70368463920796
 10
31.43598050431149
 20
47.70461091606699
 10
31.43635761748839
 20
47.705533893402
 10
31.43682641140681
 20
47.70663705045696
 10
31.4373126357622
 20
47.70773532035096
 10
31.4378159668945
 20
47.70882862898695
 10
31.43833608114368
 20
47.70991690226499
 10
31.43887265485001
 20
47.71100006608795
 10
31.43942536435321
 20
47.71207804635599
 10
31.4399938859934
 20
47.713150768972
 10
31.4405778961106
 20
47.71421815983694
 10
31.44117707104491
 20
47.715280144853
 10
31.44179108713611
 20
47.71633664992195
 10
31.44241962072431
 20
47.71738760094399
 10
31.44317082661739
 20
47.71860659191797
 10
31.4439408379398
 20
47.71981780469594
 10
31.44472914073121
 20
47.72102112161396
 10
31.4455352210317
 20
47.72221642500594
 10
31.44635856488121
 20
47.72340359720497
 10
31.44719865831948
 20
47.72458252054698
 10
31.44817861549951
 20
47.72591960992699
 10
31.44917901120471
 20
47.72724559596301
 10
31.45019907824111
 20
47.72856030301396
 10
31.4512380494146
 20
47.72986355543997
 10
31.45242853308969
 20
47.73131580386997
 10
31.45364087898077
 20
47.73275308266296
 10
31.45487399473561
 20
47.73417514173599
 10
31.45626715446431
 20
47.73573705291595
 10
31.45768310899069
 20
47.73727952252698
 10
31.4592651985898
 20
47.73895337466098
 10
31.46087106239409
 20
47.74060283081197
 10
31.46249870599851
 20
47.74222743438396
 10
31.46414613499838
 20
47.74382672877798
 10
31.46581135498871
 20
47.74540025739899
 10
31.4674923715647
 20
47.74694756364999
 10
31.46903262437261
 20
47.74833107985595
 10
31.470739127436
 20
47.74982749553397
 10
31.47245818610899
 20
47.75129765415299
 10
31.47418957556351
 20
47.75274199297596
 10
31.47593307097151
 20
47.75416094926499
 10
31.47768844750489
 20
47.75555496028498
 10
31.4794554803357
 20
47.75692446329697
 10
31.4813961822881
 20
47.75839102911199
 10
31.48335019674561
 20
47.75982951643999
 10
31.48531723182039
 20
47.76124049296694
 10
31.48729699562451
 20
47.76262452637999
 10
31.48928919626989
 20
47.763982184365
 10
31.4914611097285
 20
47.76542387499094
 10
31.49364690552939
 20
47.76683599912896
 10
31.49584621256261
 20
47.76821927854299
 10
31.49822938158471
 20
47.76967753363996
 10
31.50062732653161
 20
47.77110407422401
 10
31.50303958389578
 20
47.77249980176
 10
31.50563950116179
 20
47.77396205523795
 10
31.50825474631757
 20
47.77539108020197
 10
31.5110605935575
 20
47.776879997553
 10
31.51388254000719
 20
47.778333715394
 10
31.51689772417301
 20
47.77984122751003
 10
31.51992947187928
 20
47.78131213579696
 10
31.523156689087
 20
47.78283146492396
 10
31.5265812438721
 20
47.78439476147997
 10
31.5302048112216
 20
47.78599790201799
 10
31.53421138709648
 20
47.78771417385097
 10
31.5384213187663
 20
47.78945929077897
 10
31.5430195912084
 20
47.791303750797
 10
31.5481940090611
 20
47.79331091235197
 10
31.55413454249048
 20
47.79553788681002
 10
31.56140566368891
 20
47.79817050400295
 10
31.57132466696689
 20
47.80163773936798
 10
31.57750315763771
 20
47.80374852198999
  0
LWPOLYLINE
  5
26A6
330
1E
100
AcDbEntity
  8
1
100
AcDbPolyline
 90
        2
 70
     0
 43
0.0
 10
32.2846194078
 20
-25.7477757933
 10
32.3926793847946
 20
-25.64934087608301
  0
LWPOLYLINE
  5
26AA
330
1E
100
AcDbEntity
  8
1
100
AcDbPolyline
 90
        2
 70
     0
 43
0.0
 10
31.82499999999999
 20
-14.27344362559998
 10
31.57751982694449
 20
-14.03505499138302
  0
LWPOLYLINE
  5
2701
330
1E
100
AcDbEntity
  8
1
100
AcDbPolyline
 90
       67
 70
     0
 43
0.0
 10
31.57751262659999
 20
-14.035048052
 10
31.57263534014928
 20
-14.03028036232998
 10
31.56755691720278
 20
-14.02516943365603
 10
31.5625514764473
 20
-14.01997937194598
 10
31.55762031177999
 20
-14.01471155370798
 10
31.5527647170977
 20
-14.00936735544999
 10
31.54798598629739
 20
-14.00394815367801
 10
31.5432854132762
 20
-13.99845532489999
 10
31.53866429193079
 20
-13.99289024562202
 10
31.5343608493176
 20
-13.98755266613798
 10
31.5301309765766
 20
-13.98215264715699
 10
31.52597577386939
 20
-13.97669135908299
 10
31.52189634135739
 20
-13.97116997231703
 10
31.5181141083985
 20
-13.96590120082296
 10
31.5144013686989
 20
-13.96058085272099
 10
31.51075904905779
 20
-13.95520991398401
 10
31.50718807627429
 20
-13.94978937058303
 10
31.50368937714778
 20
-13.94432020848998
 10
31.50046333548839
 20
-13.93912923191104
 10
31.4973029084341
 20
-13.933896883654
 10
31.49420886866339
 20
-13.92862398572899
 10
31.49118198885489
 20
-13.92331136014698
 10
31.48822304168699
 20
-13.91795982891798
 10
31.4853327998382
 20
-13.91257021405599
 10
31.48268628361989
 20
-13.90748359344499
 10
31.4801014687154
 20
-13.90236490067698
 10
31.47757899179239
 20
-13.89721481306801
 10
31.47511948951819
 20
-13.89203400793198
 10
31.47272359856049
 20
-13.886823162588
 10
31.47039195558649
 20
-13.88158295434996
 10
31.46812519511019
 20
-13.87631406187503
 10
31.46592379079979
 20
-13.87101726379498
 10
31.4639282932554
 20
-13.86604924283701
 10
31.4619900512767
 20
-13.86105851936199
 10
31.4601092100281
 20
-13.856045875575
 10
31.45828591467389
 20
-13.85101209367801
 10
31.45652031037879
 20
-13.84595795587799
 10
31.4548125423069
 20
-13.84088424437598
 10
31.45316275562278
 20
-13.83579174137801
 10
31.45157109549078
 20
-13.83068122908801
 10
31.45003770707548
 20
-13.82555348970899
 10
31.44856273554109
 20
-13.82040930544499
 10
31.4471463260522
 20
-13.81524945850097
 10
31.4457886237731
 20
-13.81007473108101
 10
31.4444897738682
 20
-13.80488590538802
 10
31.44324992150199
 20
-13.79968376362799
 10
31.4420692118389
 20
-13.79446908800199
 10
31.44094779004328
 20
-13.789242660717
 10
31.43988580127958
 20
-13.78400526397601
 10
31.43888339071229
 20
-13.778757679982
 10
31.43794070350569
 20
-13.773500690941
 10
31.43705788482419
 20
-13.768235079055
 10
31.43623507983239
 20
-13.76296162652997
 10
31.4354724336945
 20
-13.75768111556803
 10
31.43477009157511
 20
-13.752394328375
 10
31.43412819863848
 20
-13.747102047154
 10
31.4335469000492
 20
-13.74180505410897
 10
31.4330263409715
 20
-13.73650413144398
 10
31.4325666665699
 20
-13.73120006136301
 10
31.43216802200879
 20
-13.72589362607098
 10
31.43183055245259
 20
-13.72058560777199
 10
31.4315544030657
 20
-13.71527678866796
 10
31.4313397190126
 20
-13.70996795096502
 10
31.43118664545769
 20
-13.70465987686698
 10
31.43109532756529
 20
-13.69935334857703
 10
31.4310659557906
 20
-13.69442792586798
 10
31.4310659076275
 20
-13.694059148305
  0
LWPOLYLINE
  5
2797
330
1E
100
AcDbEntity
  8
1
100
AcDbPolyline
 90
      164
 70
     0
 43
0.0
 10
32.2846194078
 20
-25.7477757933
 10
32.27872254228238
 20
-25.753056108001
 10
32.2727342366918
 20
-25.75824086887505
 10
32.2666567274904
 20
-25.76332925227005
 10
32.26049225114
 20
-25.76832043453502
 10
32.2542430441027
 20
-25.77321359201598
 10
32.2479113428406
 20
-25.77800790106099
 10
32.2414993838157
 20
-25.78270253801898
 10
32.23500940349
 20
-25.78729667923598
 10
32.2284436383254
 20
-25.79178950106101
 10
32.2218043247841
 20
-25.79618017984099
 10
32.2150936993281
 20
-25.80046789192401
 10
32.2083139984193
 20
-25.804651813657
 10
32.2014674585199
 20
-25.80873112138899
 10
32.1945563160917
 20
-25.812704991466
 10
32.18758280759689
 20
-25.81657260023801
 10
32.18054916949748
 20
-25.82033312404997
 10
32.1734576382554
 20
-25.82398573925198
 10
32.16631045033278
 20
-25.82752962219101
 10
32.15910984219159
 20
-25.83096394921402
 10
32.15185805029379
 20
-25.83428789667001
 10
32.1456031858525
 20
-25.83704851702
 10
32.1393137685179
 20
-25.83972691836098
 10
32.1329912066741
 20
-25.84232258200704
 10
32.12663690870548
 20
-25.84483498927401
 10
32.12025227269878
 20
-25.84726363470101
 10
32.113838500213
 20
-25.84960826520902
 10
32.1073966163669
 20
-25.85186885430502
 10
32.1009276400141
 20
-25.85404538354103
 10
32.09443259000799
 20
-25.85613783447101
 10
32.08791248520229
 20
-25.85814618864699
 10
32.08136834445019
 20
-25.86007042762199
 10
32.07480118660539
 20
-25.86191053294899
 10
32.06821203052129
 20
-25.86366648617998
 10
32.06160189505139
 20
-25.86533826886798
 10
32.05497179904928
 20
-25.86692586256701
 10
32.04832276136839
 20
-25.86842924882902
 10
32.04165580086219
 20
-25.86984840920601
 10
32.0349719363842
 20
-25.87118332525099
 10
32.02827218678789
 20
-25.87243397851799
 10
32.02155757092679
 20
-25.87360035055903
 10
32.0148291076545
 20
-25.87468242292598
 10
32.00808781582429
 20
-25.87568017717298
 10
32.00133471428979
 20
-25.87659359485197
 10
31.9945708219044
 20
-25.87742265751598
 10
31.98779715752178
 20
-25.87816734671802
 10
31.98101473999527
 20
-25.87882764401101
 10
31.97422458817849
 20
-25.87940353094703
 10
31.96742772092479
 20
-25.87989498907901
 10
31.9606251570878
 20
-25.88030199995998
 10
31.95381791552098
 20
-25.88062454514202
 10
31.94700701507779
 20
-25.88086260617902
 10
31.94019347461169
 20
-25.88101616462401
 10
31.93337831362379
 20
-25.88108520279602
 10
31.9265625731673
 20
-25.88106972858398
 10
31.91974732036278
 20
-25.88096978079599
 10
31.9129336238912
 20
-25.88078540009401
 10
31.90612255243371
 20
-25.88051662713699
 10
31.89931517467139
 20
-25.88016350258701
 10
31.89251255928528
 20
-25.87972606710499
 10
31.88571577495669
 20
-25.87920436135002
 10
31.8789258903665
 20
-25.87859842598398
 10
31.87214397419589
 20
-25.87790830166701
 10
31.8653710951259
 20
-25.87713402905901
 10
31.85860832183769
 20
-25.87627564882197
 10
31.85185672301239
 20
-25.87533320161596
 10
31.84511736733099
 20
-25.87430672810203
 10
31.83839132347471
 20
-25.87319626894001
 10
31.8316796601246
 20
-25.87200186479103
 10
31.8249834459617
 20
-25.87072355631599
 10
31.8183037496671
 20
-25.86936138417499
 10
31.811641639922
 20
-25.86791538902903
 10
31.80499818540739
 20
-25.86638561153804
 10
31.7983744548045
 20
-25.86477209236401
 10
31.79177151679429
 20
-25.86307487216599
 10
31.78519044005799
 20
-25.86129399160601
 10
31.77863229327648
 20
-25.85942949134401
 10
31.77209814513109
 20
-25.85748141204098
 10
31.76558906430289
 20
-25.85544979435699
 10
31.75910611947279
 20
-25.85333467895301
 10
31.75265037932209
 20
-25.85113610648996
 10
31.7462229141808
 20
-25.84885412083198
 10
31.73982485800729
 20
-25.84648888948001
 10
31.73345742713959
 20
-25.844040740005
 10
31.72712184339358
 20
-25.84151001062199
 10
31.7208193285854
 20
-25.83889703954802
 10
31.7145511045311
 20
-25.83620216499698
 10
31.70831839304649
 20
-25.83342572518498
 10
31.70109341028769
 20
-25.830083907192
 10
31.69392036730819
 20
-25.82663206723899
 10
31.68680120430639
 20
-25.8230707424
 10
31.67973786148099
 20
-25.81940046974798
 10
31.6727322790306
 20
-25.81562178635702
 10
31.66578639715369
 20
-25.81173522930001
 10
31.65890215604889
 20
-25.80774133565201
 10
31.65208149591469
 20
-25.80364064248599
 10
31.6453263569497
 20
-25.79943368687603
 10
31.63863867935249
 20
-25.79512100589598
 10
31.6320204033216
 20
-25.79070313661896
 10
31.6254734690556
 20
-25.78618061611901
 10
31.618999816753
 20
-25.78155398146899
 10
31.61260138661248
 20
-25.77682376974498
 10
31.6062801188326
 20
-25.77199051801798
 10
31.60003795361179
 20
-25.76705476336403
 10
31.5938768311487
 20
-25.76201704285502
 10
31.587798691642
 20
-25.75687789356598
 10
31.58180547981839
 20
-25.75163788889299
 10
31.57589919963728
 20
-25.74629807734501
 10
31.5700818966546
 20
-25.74085984107902
 10
31.5643556172882
 20
-25.73532456917301
 10
31.5587224079562
 20
-25.72969365070199
 10
31.5531843150765
 20
-25.723968474742
 10
31.5477433850672
 20
-25.71815043036801
 10
31.5424016643463
 20
-25.71224090665604
 10
31.53716119933189
 20
-25.706241292682
 10
31.53202403644189
 20
-25.70015297752203
 10
31.52699222209439
 20
-25.69397735025101
 10
31.52206780270748
 20
-25.68771579994498
 10
31.5172528246991
 20
-25.68136971568103
 10
31.51321435831589
 20
-25.67586398569503
 10
31.50925909004071
 20
-25.67029804442598
 10
31.50538830857989
 20
-25.66467276662704
 10
31.50160330263979
 20
-25.65898902705102
 10
31.4979053609269
 20
-25.65324770045096
 10
31.49429577214748
 20
-25.64744966158102
 10
31.4907758250081
 20
-25.641595785193
 10
31.4873468082151
 20
-25.63568694604104
 10
31.4840100104747
 20
-25.62972401887803
 10
31.4807667204935
 20
-25.62370787845801
 10
31.47761822697789
 20
-25.61763939953401
 10
31.47456581863419
 20
-25.61151945685802
 10
31.4716107679985
 20
-25.60534895391898
 10
31.46875402250428
 20
-25.59912937190798
 10
31.46599622854079
 20
-25.592862726967
 10
31.4633380211474
 20
-25.58655105541002
 10
31.46078003536379
 20
-25.58019639354601
 10
31.4583229062296
 20
-25.57380077768796
 10
31.45635280004118
 20
-25.568441282603
 10
31.4544535416921
 20
-25.56305593976898
 10
31.4526254986821
 20
-25.55764592760898
 10
31.4508690385109
 20
-25.55221242454301
 10
31.44918452867829
 20
-25.54675660899202
 10
31.44757233668387
 20
-25.54127965937599
 10
31.4460328300276
 20
-25.53578275411698
 10
31.4445663762091
 20
-25.53026707163601
 10
31.4431733427282
 20
-25.52473379035403
 10
31.4418540970847
 20
-25.51918408869202
 10
31.44060900677819
 20
-25.51361914507002
 10
31.43943843930848
 20
-25.50804013790898
 10
31.43834276217548
 20
-25.50244824563199
 10
31.43732234287879
 20
-25.49684464665701
 10
31.43637754891809
 20
-25.49123051940702
 10
31.43550874779339
 20
-25.48560704230304
 10
31.43471630700419
 20
-25.47997539376499
 10
31.43400059405049
 20
-25.47433675221399
 10
31.43336197643179
 20
-25.468692296071
 10
31.432800821648
 20
-25.46304320375802
 10
31.43231749719879
 20
-25.45739065369501
 10
31.4319123705841
 20
-25.45173582430201
 10
31.43158580930339
 20
-25.446079894002
 10
31.4313381808567
 20
-25.44042404121499
 10
31.4311698527436
 20
-25.43476944436198
 10
31.43108111029798
 20
-25.42911707657603
 10
31.43106576773548
 20
-25.42573607919601
  0
LWPOLYLINE
  5
2A29
330
1E
100
AcDbEntity
  8
1
100
AcDbPolyline
 90
       77
 70
     0
 43
0.0
 10
31.57751262659999
 20
-37.31350592469997
 10
31.57272707996209
 20
-37.31022759783698
 10
31.56797587238298
 20
-37.306885016682
 10
31.56349640698839
 20
-37.30364983731702
 10
31.55905252206478
 20
-37.30035625934899
 10
31.554646453508
 20
-37.29700408347302
 10
31.55028043721379
 20
-37.29359311038102
 10
31.545956709078
 20
-37.29012314076701
 10
31.54167750499649
 20
-37.28659397532497
 10
31.53744506086498
 20
-37.28300541474899
 10
31.53326161257938
 20
-37.27935725973104
 10
31.5291293960354
 20
-37.27564931096603
 10
31.52505064712889
 20
-37.27188136914604
 10
31.52102760175579
 20
-37.268053234966
 10
31.5170624958117
 20
-37.264164709119
 10
31.5131575651925
 20
-37.26021559229802
 10
31.509515691515
 20
-37.25641825171104
 10
31.50612929051828
 20
-37.252781624516
 10
31.50279615036129
 20
-37.249096037499
 10
31.499517872583
 20
-37.24536134790103
 10
31.49648398548348
 20
-37.24180136311904
 10
31.4935014500782
 20
-37.23819763714596
 10
31.49075314828639
 20
-37.23477931231704
 10
31.4880522535291
 20
-37.231322340405
 10
31.4853998659883
 20
-37.22782662333905
 10
31.48279708584588
 20
-37.22429206305103
 10
31.48041355182757
 20
-37.22095800838197
 10
31.47807508423479
 20
-37.21758995178603
 10
31.47578257755609
 20
-37.21418781352896
 10
31.47353692628039
 20
-37.210751513877
 10
31.4714944152401
 20
-37.207530006114
 10
31.469493792478
 20
-37.20427891027103
 10
31.46753577206539
 20
-37.20099820670096
 10
31.4656210422731
 20
-37.197688417024
 10
31.4637502740811
 20
-37.194350425608
 10
31.4620630103047
 20
-37.19124494223196
 10
31.4604143038775
 20
-37.18811688905097
 10
31.4588046822928
 20
-37.18496696690304
 10
31.4572346730437
 20
-37.18179587662501
 10
31.4557048036235
 20
-37.17860431905704
 10
31.4542156015255
 20
-37.17539299503604
 10
31.45276759424278
 20
-37.17216260539899
 10
31.45147689325099
 20
-37.16918526485004
 10
31.450221656892
 20
-37.166193032609
 10
31.4490022914701
 20
-37.16318644850096
 10
31.4478192032892
 20
-37.16016605235004
 10
31.44667279865358
 20
-37.15713238397797
 10
31.4455634838672
 20
-37.15408598321003
 10
31.44449166523438
 20
-37.15102738986904
 10
31.44345774905898
 20
-37.14795714377803
 10
31.44246214164529
 20
-37.14487578476203
 10
31.44150524929739
 20
-37.141783852643
 10
31.4406692847749
 20
-37.13896428450297
 10
31.43986595722539
 20
-37.136136829975
 10
31.43909557191098
 20
-37.13330189463504
 10
31.4383584340942
 20
-37.130459884062
 10
31.43765484903719
 20
-37.127611203834
 10
31.43698512200229
 20
-37.12475625952595
 10
31.43634955825179
 20
-37.12189545671803
 10
31.43574846304798
 20
-37.11902920098598
 10
31.4351821416531
 20
-37.116157897907
 10
31.43465089932949
 20
-37.11328195306002
 10
31.43415504133947
 20
-37.11040177202202
 10
31.43369487294529
 20
-37.107517760369
 10
31.4332706994093
 20
-37.10463032367997
 10
31.43291997112978
 20
-37.10202903746401
 10
31.4325988684842
 20
-37.09942560115204
 10
31.43230761400849
 20
-37.09682031041003
 10
31.4320464302389
 20
-37.09421346090401
 10
31.43181553971178
 20
-37.09160534830103
 10
31.43161516496329
 20
-37.088996268265
 10
31.43144552852948
 20
-37.08638651646404
 10
31.43130685294689
 20
-37.08377638856198
 10
31.43119936075139
 20
-37.081166180226
 10
31.43112327447939
 20
-37.078556187122
 10
31.43107881666699
 20
-37.075946704916
 10
31.43106603168539
 20
-37.073637833108
  0
LWPOLYLINE
  5
2A78
330
1E
100
AcDbEntity
  8
1
100
AcDbPolyline
 90
      106
 70
     0
 43
0.0
 10
31.8334002478
 20
-44.72011632880001
 10
31.82339070715038
 20
-44.71908182442398
 10
31.81339227398559
 20
-44.71793983544402
 10
31.80340612743119
 20
-44.71668941203399
 10
31.7934334466125
 20
-44.71532960436801
 10
31.78347541065478
 20
-44.71385946261899
 10
31.77353319868359
 20
-44.71227803696101
 10
31.76410382824059
 20
-44.71067174075098
 10
31.75469081405879
 20
-44.708963339238
 10
31.74529517685597
 20
-44.70715200545303
 10
31.73591838505269
 20
-44.705236334227
 10
31.72705438814498
 20
-44.70332323980199
 10
31.71821100219319
 20
-44.70131258572402
 10
31.70939004600247
 20
-44.699202440751
 10
31.70108137727998
 20
-44.697116432086
 10
31.69279586988019
 20
-44.69493833046199
 10
31.68453505600298
 20
-44.69266650896001
 10
31.67630046784847
 20
-44.69029934066397
 10
31.66857559650659
 20
-44.68798286171796
 10
31.6608765909027
 20
-44.68557912580897
 10
31.653204728442
 20
-44.68308677656497
 10
31.64556128652947
 20
-44.68050445761396
 10
31.63794754257038
 20
-44.67783081258303
 10
31.63083776535646
 20
-44.67524012153698
 10
31.62375626512821
 20
-44.67256685369004
 10
31.61670409443479
 20
-44.66980989142299
 10
31.60968230582569
 20
-44.66696811712099
 10
31.60269195185029
 20
-44.66404041316699
 10
31.59619691102879
 20
-44.66122937590504
 10
31.58973102591508
 20
-44.65834160213701
 10
31.58329519203249
 20
-44.65537615047803
 10
31.57734844256019
 20
-44.65255074877902
 10
31.57143473251839
 20
-44.649652163726
 10
31.56600942111158
 20
-44.64690801537003
 10
31.56062016823878
 20
-44.64409473450396
 10
31.55571493752969
 20
-44.64145238524602
 10
31.55084611824129
 20
-44.63874670795203
 10
31.54601663361669
 20
-44.63597519771698
 10
31.54166278626389
 20
-44.63339640739302
 10
31.5373460590772
 20
-44.63075925754199
 10
31.53306864833246
 20
-44.62806186619197
 10
31.52925440944209
 20
-44.62558115204704
 10
31.52547539693828
 20
-44.623048745935
 10
31.52173321190618
 20
-44.62046327589901
 10
31.51802945543098
 20
-44.617823369982
 10
31.51436572859769
 20
-44.61512765622797
 10
31.5107436324916
 20
-44.61237476267903
 10
31.50756023509928
 20
-44.60987863429298
 10
31.50441212066921
 20
-44.60733527922601
 10
31.50130041369461
 20
-44.604743733908
 10
31.4982262386687
 20
-44.60210303477
 10
31.49519072008479
 20
-44.599412218244
 10
31.49219498243609
 20
-44.59667032076104
 10
31.48924015021578
 20
-44.59387637875003
 10
31.48632734791738
 20
-44.591029428643
 10
31.48381400757748
 20
-44.58849410660199
 10
31.48133446065918
 20
-44.58591681698997
 10
31.47888946048509
 20
-44.58329691428899
 10
31.47647976037798
 20
-44.580633752983
 10
31.47410611366028
 20
-44.57792668755801
 10
31.4717693377216
 20
-44.575175140818
 10
31.46947121469807
 20
-44.57237956440704
 10
31.46721427253178
 20
-44.569541205317
 10
31.46500105853148
 20
-44.56666133119195
 10
31.46283412000637
 20
-44.56374120967903
 10
31.46101550653327
 20
-44.56120717564401
 10
31.45923436699688
 20
-44.558645301714
 10
31.45749230553378
 20
-44.55605638617405
 10
31.4557909262801
 20
-44.55344122730699
 10
31.45413183337219
 20
-44.55080062339797
 10
31.45251663094628
 20
-44.54813537273095
 10
31.45120531368139
 20
-44.545896079046
 10
31.449926518221
 20
-44.54364068589099
 10
31.44868117288487
 20
-44.541369655235
 10
31.44747020599249
 20
-44.53908344904899
 10
31.44629454586338
 20
-44.53678252930195
 10
31.44515512081737
 20
-44.53446735796497
 10
31.44405285917388
 20
-44.53213839700699
 10
31.44298868925269
 20
-44.529796108398
 10
31.4419635393733
 20
-44.52744095410801
 10
31.44097833785528
 20
-44.52507339610799
 10
31.4400340130183
 20
-44.52269389636599
 10
31.43930860818989
 20
-44.52078200896401
 10
31.43861043386149
 20
-44.51886301103599
 10
31.43793996533278
 20
-44.516937139112
 10
31.43729767790349
 20
-44.51500462972101
 10
31.43668404687308
 20
-44.513065719391
 10
31.43609954754138
 20
-44.51112064464999
 10
31.43554465520779
 20
-44.50916964202799
 10
31.43501984517219
 20
-44.50721294805297
 10
31.4345255927341
 20
-44.50525079925303
 10
31.4340623731933
 20
-44.50328343215701
 10
31.43363066184919
 20
-44.50131108329396
 10
31.43323093400149
 20
-44.49933398919204
 10
31.43286366494998
 20
-44.49735238637996
 10
31.43252932999418
 20
-44.49536651138699
 10
31.43222840443367
 20
-44.49337660074099
 10
31.43196136356828
 20
-44.49138289097096
 10
31.4317286826976
 20
-44.48938561860503
 10
31.43153083712109
 20
-44.487385020172
 10
31.4313683021386
 20
-44.48538133220099
 10
31.43124155304957
 20
-44.48337479122003
 10
31.43115106515378
 20
-44.48136563375803
 10
31.4310972956846
 20
-44.47935415827802
 10
31.4310804595585
 20
-44.47734149394703
 10
31.43108197274527
 20
-44.47684834336602
  0
LWPOLYLINE
  5
2AE4
330
1E
100
AcDbEntity
  8
1
100
AcDbPolyline
 90
       97
 70
     0
 43
0.0
 10
31.57751262659997
 20
-49.67611017419997
 10
31.57236398816739
 20
-49.67517991233497
 10
31.5664750798742
 20
-49.67410790114603
 10
31.55954755968739
 20
-49.672822970265
 10
31.54989232637548
 20
-49.670958423484
 10
31.54231996180778
 20
-49.66940848190703
 10
31.53631176334279
 20
-49.66810732881405
 10
31.5312308255683
 20
-49.666948797721
 10
31.52676160164139
 20
-49.66588031451401
 10
31.52274699132239
 20
-49.664877565183
 10
31.51887632866371
 20
-49.66386960605801
 10
31.51530339630988
 20
-49.66290130703503
 10
31.5118726868228
 20
-49.66193575773999
 10
31.50874081127509
 20
-49.66102254524898
 10
31.50559476880497
 20
-49.66007371559996
 10
31.5025913730526
 20
-49.65913769370999
 10
31.49973154730898
 20
-49.65821838090796
 10
31.4970165166356
 20
-49.65731984870203
 10
31.49428675011748
 20
-49.65639075989301
 10
31.49170317109339
 20
-49.65548741773202
 10
31.4891047611566
 20
-49.654555102844
 10
31.48665451587039
 20
-49.65365392301803
 10
31.48418976785728
 20
-49.65272570580303
 10
31.48170980691789
 20
-49.65176969003003
 10
31.47938082474921
 20
-49.650851656686
 10
31.47703739435069
 20
-49.64990812579095
 10
31.47467893830409
 20
-49.64893847848803
 10
31.4724749846007
 20
-49.64801416592703
 10
31.47025711491948
 20
-49.647066305528
 10
31.46802493278368
 20
-49.64609439136403
 10
31.46595433276579
 20
-49.64517498962996
 10
31.4638807010716
 20
-49.64423270788703
 10
31.46198307569028
 20
-49.64334753813997
 10
31.4602652123801
 20
-49.64252403918504
 10
31.45855836230698
 20
-49.64168171760301
 10
31.4568665007946
 20
-49.64081968438402
 10
31.45535992625769
 20
-49.640026266268
 10
31.45403598712348
 20
-49.63930647335801
 10
31.45272851002728
 20
-49.63857252878998
 10
31.45159957165128
 20
-49.63791836068502
 10
31.45048615888597
 20
-49.63725270429503
 10
31.44954519578988
 20
-49.63667276679505
 10
31.44861749971639
 20
-49.63608397286502
 10
31.44770392933519
 20
-49.63548613048097
 10
31.44695403063159
 20
-49.634980877941
 10
31.44621503465069
 20
-49.63446909727398
 10
31.44548743830779
 20
-49.63395067735397
 10
31.44477173851829
 20
-49.63342550705402
 10
31.44406843219778
 20
-49.63289347524701
 10
31.4433780162617
 20
-49.63235447080801
 10
31.44270098762538
 20
-49.631808382611
 10
31.44216933749937
 20
-49.63136633707003
 10
31.44164682769189
 20
-49.63091962990599
 10
31.44113371262359
 20
-49.63046820422202
 10
31.44063024671519
 20
-49.63001200312199
 10
31.44013668438739
 20
-49.62955096971004
 10
31.439653280061
 20
-49.629085047088
 10
31.43918028815648
 20
-49.62861417835902
 10
31.43871796309478
 20
-49.62813830662803
 10
31.43826655929649
 20
-49.62765737499704
 10
31.43782633118239
 20
-49.627171326571
 10
31.43739753317317
 20
-49.62668010445103
 10
31.43698041968946
 20
-49.626183651743
 10
31.4365752451521
 20
-49.62568191154801
 10
31.4361822639817
 20
-49.62517482697101
 10
31.43580173059897
 20
-49.62466234111403
 10
31.4354338994247
 20
-49.62414439708201
 10
31.43507902487947
 20
-49.62362093797699
 10
31.43482152480839
 20
-49.62322469015502
 10
31.43457156328657
 20
-49.622825284097
 10
31.43432924764779
 20
-49.62242269580102
 10
31.4340946852257
 20
-49.622016901261
 10
31.4338679833541
 20
-49.62160787647603
 10
31.43364924936669
 20
-49.62119559744198
 10
31.43343859059728
 20
-49.62078004015499
 10
31.43323611437948
 20
-49.62036118061301
 10
31.43304192804718
 20
-49.61993899481196
 10
31.432856138934
 20
-49.61951345875
 10
31.4326788543736
 20
-49.61908454842101
 10
31.43251018169998
 20
-49.61865223982496
 10
31.43235022824669
 20
-49.61821650895601
 10
31.43219910134738
 20
-49.617777331812
 10
31.43205690833609
 20
-49.61733468439001
 10
31.43192375654617
 20
-49.61688854268604
 10
31.43179975331169
 20
-49.61643888269701
 10
31.43168500596628
 20
-49.61598568042004
 10
31.43157962184357
 20
-49.61552891185104
 10
31.43148370827748
 20
-49.615068552988
 10
31.43139737260159
 20
-49.61460457982705
 10
31.4313207221497
 20
-49.61413696836403
 10
31.43125386425549
 20
-49.61366569459703
 10
31.4311969062528
 20
-49.61319073452203
 10
31.43114995547528
 20
-49.61271206413496
 10
31.43111311925669
 20
-49.61222965943504
 10
31.43108650493078
 20
-49.61174349641702
 10
31.43107021983129
 20
-49.61125355107803
 10
31.43106726165457
 20
-49.61109938932803
  0
LWPOLYLINE
  5
2B47
330
1E
100
AcDbEntity
  8
1
100
AcDbPolyline
 90
       93
 70
     0
 43
0.0
 10
36.9029418711
 20
50.2847007019
 10
36.9216668238215
 20
50.27969359575997
 10
36.9403347789534
 20
50.27445711375201
 10
36.958942635484
 20
50.268992331393
 10
36.97748729240149
 20
50.263300324197
 10
36.9959656486944
 20
50.25738216767901
 10
37.01437460335089
 20
50.251238937355
 10
37.0327110553592
 20
50.24487170873999
 10
37.05097190370761
 20
50.23828155734801
 10
37.0691540473845
 20
50.231469558696
 10
37.08725438537821
 20
50.224436788298
 10
37.10526981667689
 20
50.217184321668
 10
37.1231972402689
 20
50.20971323432394
 10
37.1410335551425
 20
50.20202460177902
 10
37.158775660286
 20
50.19411949954797
 10
37.17817946264811
 20
50.18517514823598
 10
37.1974613920236
 20
50.17597160177899
 10
37.2166175572846
 20
50.1665104417
 10
37.2356446876191
 20
50.15679364329699
 10
37.2545396129794
 20
50.14682324582704
 10
37.27329916331729
 20
50.136601288552
 10
37.29192016858521
 20
50.12612981072997
 10
37.3103994587349
 20
50.11541085162097
 10
37.32873386371871
 20
50.10444645048597
 10
37.34692021348871
 20
50.09323864658302
 10
37.36495533799679
 20
50.081789479172
 10
37.38283606719528
 20
50.07010098751297
 10
37.40055923103611
 20
50.05817521086502
 10
37.41971016396561
 20
50.04489704640104
 10
37.43866569289429
 20
50.03134156759099
 10
37.45742170223778
 20
50.01751142194899
 10
37.47597407641178
 20
50.00340925698999
 10
37.49431869983179
 20
49.98903772022599
 10
37.51245150747578
 20
49.97439953203503
 10
37.53036882950861
 20
49.95949798228997
 10
37.5480671819962
 20
49.94433662875999
 10
37.56554308208711
 20
49.92891903077397
 10
37.5842202363589
 20
49.91193159638299
 10
37.60262780237368
 20
49.894652133295
 10
37.6207613519921
 20
49.877085166884
 10
37.63861645707461
 20
49.85923522252395
 10
37.656188689482
 20
49.84110682559099
 10
37.6734736210748
 20
49.82270450145897
 10
37.6904668237136
 20
49.80403277550099
 10
37.7058900963703
 20
49.78656213572396
 10
37.721057539303
 20
49.76886936173301
 10
37.73596566966029
 20
49.75095801285699
 10
37.7506110045905
 20
49.73283164842603
 10
37.76499018895421
 20
49.71449390207698
 10
37.77910048506861
 20
49.695948766711
 10
37.792939341606
 20
49.677200343659
 10
37.80650420727727
 20
49.65825273427299
 10
37.81979253079351
 20
49.63911003990499
 10
37.83172838043521
 20
49.621394696174
 10
37.84342774891571
 20
49.603522032229
 10
37.85488867109279
 20
49.585495207157
 10
37.86610918182439
 20
49.56731738004297
 10
37.87708731596829
 20
49.54899170997297
 10
37.8878211083823
 20
49.53052135603299
 10
37.89830859392429
 20
49.51190947730896
 10
37.908547807452
 20
49.49315923288599
 10
37.91853678382329
 20
49.474273781851
 10
37.9282735578961
 20
49.45525628328897
 10
37.93775616452811
 20
49.43610989628599
 10
37.94698265730279
 20
49.41683779914401
 10
37.9559514295648
 20
49.39744351883896
 10
37.9646611704724
 20
49.377930885914
 10
37.97235324275689
 20
49.36009265785799
 10
37.9798291869406
 20
49.34216267741
 10
37.98708802559438
 20
49.32414383013401
 10
37.99412878128921
 20
49.30603900159701
 10
38.00095047659561
 20
49.28785107736397
 10
38.00755213408459
 20
49.26958294300298
 10
38.01393277632701
 20
49.25123748407802
 10
38.0200914258935
 20
49.23281758615599
 10
38.02602710535511
 20
49.21432613480298
 10
38.03173883728261
 20
49.19576601558397
 10
38.03722564424679
 20
49.17714011406598
 10
38.04248654881839
 20
49.15845131581499
 10
38.04752057356839
 20
49.139702506395
 10
38.05232674106761
 20
49.12089657137499
 10
38.05690407388672
 20
49.10203639631799
 10
38.06125159819529
 20
49.0831248663
 10
38.06536865407746
 20
49.06416482340796
 10
38.0692551349011
 20
49.04515903397101
 10
38.07291099038177
 20
49.02611025660299
 10
38.0763361702349
 20
49.00702124991699
 10
38.07953062417621
 20
48.98789477252499
 10
38.08249430192111
 20
48.96873358304198
 10
38.08522715318511
 20
48.94954044007896
 10
38.0877291276839
 20
48.93031810225
 10
38.09000017513291
 20
48.91106932816795
 10
38.09125089692161
 20
48.89951846759199
  0
LWPOLYLINE
  5
2BA6
330
1E
100
AcDbEntity
  8
1
100
AcDbPolyline
 90
       12
 70
     0
 43
0.0
 10
38.0912519377
 20
48.8995085219
 10
38.0928778466616
 20
48.88316777855798
 10
38.09433765234151
 20
48.86680780826299
 10
38.09563102222361
 20
48.85043116795499
 10
38.09675762379161
 20
48.83404041457096
 10
38.09771712452921
 20
48.81763810505097
 10
38.09850919192022
 20
48.80122679633299
 10
38.0991279713525
 20
48.78497659739696
 10
38.09958206880601
 20
48.76872256646599
 10
38.09987116184011
 20
48.75246718300299
 10
38.099994928014
 20
48.73621292646799
 10
38.09999999996861
 20
48.73220171530103
  0
LWPOLYLINE
  5
2BB4
330
1E
100
AcDbEntity
  8
1
100
AcDbPolyline
 90
        2
 70
     0
 43
0.0
 10
31.82499999999999
 20
-37.4804013329
 10
31.5775209110602
 20
-37.31351152538897
  0
LWPOLYLINE
  5
2CDD
330
1E
100
AcDbEntity
  8
1
100
AcDbPolyline
 90
        2
 70
     0
 43
0.0
 10
31.57751262659999
 20
47.80375173739997
 10
31.70118219831948
 20
47.84556954431095
  0
LWPOLYLINE
  5
2CE1
330
1E
100
AcDbEntity
  8
1
100
AcDbPolyline
 90
        2
 70
     0
 43
0.0
 10
31.70119167550001
 20
47.84557273539998
 10
31.82499051466361
 20
47.88708066543597
  0
LWPOLYLINE
  5
2CE5
330
1E
100
AcDbEntity
  8
1
100
AcDbPolyline
 90
        2
 70
     0
 43
0.0
 10
32.53210678120001
 20
50.3363981783
 10
32.28462937926968
 20
50.355743017055
  0
LWPOLYLINE
  5
2DF5
330
1E
100
AcDbEntity
  8
1
100
AcDbPolyline
 90
      163
 70
     0
 43
0.0
 10
31.43106589059998
 20
14.56753450530001
 10
31.4311048994805
 20
14.573294435771
 10
31.4312177228496
 20
14.57905741220901
 10
31.43140414398231
 20
14.58482237677
 10
31.43166394615358
 20
14.59058827161299
 10
31.43199691263848
 20
14.59635403889497
 10
31.4324028267119
 20
14.60211862077398
 10
31.43288147164899
 20
14.60788095940798
 10
31.4334326307246
 20
14.61363999695399
 10
31.43405608721389
 20
14.61939467557099
 10
31.4348993624382
 20
14.62629304668199
 10
31.4358460593532
 20
14.63318178969099
 10
31.4368958034583
 20
14.640059076645
 10
31.43804822025269
 20
14.64692307959299
 10
31.43930293523538
 20
14.65377197058398
 10
31.4406595739058
 20
14.66060392166701
 10
31.44211776176311
 20
14.66741710488996
 10
31.44367712430639
 20
14.67420969230102
 10
31.4453372870349
 20
14.68097985594999
 10
31.44709787544798
 20
14.68772576788501
 10
31.4489585150447
 20
14.69444560015397
 10
31.4509188313243
 20
14.701137524806
 10
31.452978449786
 20
14.70779971388997
 10
31.45513699592898
 20
14.71443033945497
 10
31.45739409525249
 20
14.72102757354798
 10
31.4597493732558
 20
14.72758958821899
 10
31.46220245543789
 20
14.73411455551597
 10
31.46475296729819
 20
14.74060064748799
 10
31.46740053433589
 20
14.74704603618299
 10
31.47014477305329
 20
14.75344890473599
 10
31.47298502048211
 20
14.75980778066198
 10
31.47592028672471
 20
14.76612159433397
 10
31.4789495633218
 20
14.77238929899999
 10
31.48207184181428
 20
14.77860984790497
 10
31.4852861137429
 20
14.78478219429697
 10
31.48859137064849
 20
14.79090529142296
 10
31.49198660407177
 20
14.79697809252797
 10
31.4954708055537
 20
14.80299955086097
 10
31.4990429666349
 20
14.80896861966598
 10
31.50270207885621
 20
14.81488425219198
 10
31.50644713375851
 20
14.82074540168496
 10
31.51027712288239
 20
14.82655102139096
 10
31.51419103776889
 20
14.83230006455798
 10
31.51886199925149
 20
14.83893437864699
 10
31.52364421900101
 20
14.845488598827
 10
31.52853609562169
 20
14.85196106289096
 10
31.53353602771749
 20
14.85835010863502
 10
31.53864241389278
 20
14.86465407385298
 10
31.54385365275148
 20
14.87087129633897
 10
31.54916814289789
 20
14.87700011388799
 10
31.554584282936
 20
14.88303886429399
 10
31.5601004714701
 20
14.88898588535301
 10
31.56571510710421
 20
14.894839514858
 10
31.57142658844239
 20
14.90059809060498
 10
31.57723331408889
 20
14.90625995038698
 10
31.58313362806278
 20
14.91182354853697
 10
31.5891256484969
 20
14.91728782164298
 10
31.59520743510141
 20
14.92265183102596
 10
31.60137704758639
 20
14.92791463800398
 10
31.60763254566189
 20
14.93307530389898
 10
31.61397198903809
 20
14.93813289002997
 10
31.6203934374251
 20
14.94308645771601
 10
31.6268949505328
 20
14.94793506827697
 10
31.63347458807139
 20
14.95267778303297
 10
31.64013040975111
 20
14.95731366330498
 10
31.64686047528169
 20
14.96184177041097
 10
31.6536628443736
 20
14.96626116567198
 10
31.66053557673659
 20
14.97057091040695
 10
31.66747673208099
 20
14.97477006593598
 10
31.6744843701168
 20
14.978857693579
 10
31.6805423610261
 20
14.98227189578698
 10
31.68664654896911
 20
14.985602878375
 10
31.6927957120723
 20
14.98885005022098
 10
31.698988628462
 20
14.99201282020298
 10
31.70522407626481
 20
14.99509059719797
 10
31.7115008336072
 20
14.998082790084
 10
31.7178176786156
 20
15.00098880773994
 10
31.72417338941651
 20
15.003808059042
 10
31.7305667441363
 20
15.00653995286797
 10
31.73699652090149
 20
15.00918389809697
 10
31.74346149726951
 20
15.01173932118799
 10
31.7499604428961
 20
15.01420589267499
 10
31.7564921216549
 20
15.01658346171697
 10
31.76305529728689
 20
15.01887188156197
 10
31.76964873353321
 20
15.02107100545797
 10
31.77627119413479
 20
15.02318068665399
 10
31.78292144283279
 20
15.02520077839801
 10
31.7895982433682
 20
15.027131133938
 10
31.79630035948219
 20
15.028971606523
 10
31.80302655491578
 20
15.03072204939998
 10
31.80977559340998
 20
15.032382315818
 10
31.81654623870601
 20
15.03395225902592
 10
31.82333725454471
 20
15.03543173227197
 10
31.83014740466721
 20
15.03682058880301
 10
31.8369754528147
 20
15.03811868186898
 10
31.8438201627281
 20
15.03932586471699
 10
31.85068029814859
 20
15.04044199059601
 10
31.85755462281711
 20
15.04146691275399
 10
31.86444190047481
 20
15.04240048443898
 10
31.8713408948628
 20
15.04324255890099
 10
31.878250369722
 20
15.04399298938599
 10
31.88516908879351
 20
15.04465162914297
 10
31.8920958158184
 20
15.045218331421
 10
31.89902931453791
 20
15.04569294946799
 10
31.90596834869278
 20
15.04607533653197
 10
31.91291168202428
 20
15.046365345862
 10
31.91985807827351
 20
15.04656283070497
 10
31.9268063011814
 20
15.04666764431001
 10
31.93375511579178
 20
15.04667964772099
 10
31.94070330983571
 20
15.04659883774599
 10
31.9476496903021
 20
15.04642532643598
 10
31.95459306479091
 20
15.04615922949897
 10
31.9615322409024
 20
15.04580066264298
 10
31.96846602623649
 20
15.04534974157598
 10
31.9753932283934
 20
15.04480658200497
 10
31.98231265497298
 20
15.044171299639
 10
31.9892231135756
 20
15.04344401018499
 10
31.9961234118011
 20
15.04262482935097
 10
32.00301235724959
 20
15.04171387284596
 10
32.0098887575212
 20
15.040711256378
 10
32.01675142021587
 20
15.03961709565299
 10
32.02359915293389
 20
15.03843150637998
 10
32.03043076327519
 20
15.03715460426797
 10
32.03724505883978
 20
15.03578650502299
 10
32.04404084722789
 20
15.03432732435398
 10
32.05081693603949
 20
15.03277717796899
 10
32.05757213287458
 20
15.03113618157598
 10
32.06430524533349
 20
15.02940445088196
 10
32.071015081016
 20
15.02758210159598
 10
32.07770044752229
 20
15.02566924942497
 10
32.08436015245251
 20
15.02366601007699
 10
32.0909930034066
 20
15.02157249926099
 10
32.09759780798469
 20
15.01938883268296
 10
32.10417337378689
 20
15.01711512605299
 10
32.1107185084132
 20
15.014751495078
 10
32.11723201946369
 20
15.01229805546597
 10
32.12371271452848
 20
15.00975492295699
 10
32.1301593611607
 20
15.007122341235
 10
32.13657059592398
 20
15.004400972586
 10
32.14294502863578
 20
15.00159156476598
 10
32.14928126911339
 20
14.99869486553401
 10
32.15557792717389
 20
14.99571162264698
 10
32.16183361263478
 20
14.99264258386198
 10
32.16804693531328
 20
14.98948849693598
 10
32.1742165050267
 20
14.98625010962897
 10
32.18034093159229
 20
14.98292816969598
 10
32.18742718534638
 20
14.97894796946001
 10
32.1944478945087
 20
14.97485625000899
 10
32.20140085152049
 20
14.97065419875593
 10
32.2082838488232
 20
14.96634300311098
 10
32.2150946788582
 20
14.96192385048598
 10
32.22183113406678
 20
14.95739792829098
 10
32.22849100689028
 20
14.95276642393801
 10
32.2350720897702
 20
14.94803052483797
 10
32.24157217514779
 20
14.94319141840299
 10
32.2479890554645
 20
14.93825029204298
 10
32.25432052316151
 20
14.93320833317
 10
32.2605643706803
 20
14.92806672919497
 10
32.26671839046209
 20
14.92282666752896
 10
32.27278037494849
 20
14.91748933558397
 10
32.2787481165807
 20
14.91205592077101
 10
32.2846194078
 20
14.90652761049997
 10
32.28461218513398
 20
14.90653452665497
  0
LWPOLYLINE
  5
2E9A
330
1E
100
AcDbEntity
  8
1
100
AcDbPolyline
 90
       64
 70
     0
 43
0.0
 10
31.43106421419998
 20
1.999807677499967
 10
31.43109432797379
 20
2.00592621586798
 10
31.43119256139328
 20
2.012047189373979
 10
31.43135886857779
 20
2.018169738483971
 10
31.43159320364699
 20
2.024293003664007
 10
31.4318955207204
 20
2.030416125376995
 10
31.4322657739175
 20
2.036538244090985
 10
31.43270391735779
 20
2.042658500268994
 10
31.4332099051609
 20
2.048776034377989
 10
31.4337836914463
 20
2.05488998688201
 10
31.43442523033339
 20
2.060999498246979
 10
31.43513447594189
 20
2.06710370893901
 10
31.43591138239129
 20
2.073201759420978
 10
31.43675590380111
 20
2.079292790160985
 10
31.43766799429079
 20
2.085375941622995
 10
31.43864760797988
 20
2.091450354271978
 10
31.439694698988
 20
2.097515168573969
 10
31.4408092214346
 20
2.103569524992987
 10
31.4419911294392
 20
2.109612563995991
 10
31.44324037712129
 20
2.115643426047991
 10
31.4445569186006
 20
2.121661251613
 10
31.44594070799639
 20
2.12766518115796
 10
31.44739169942839
 20
2.133654355146993
 10
31.448909847016
 20
2.139627914044972
 10
31.45049510487878
 20
2.145584998319002
 10
31.45214742713628
 20
2.151524748432986
 10
31.4538667679081
 20
2.157446304853003
 10
31.45565308131359
 20
2.163348808042993
 10
31.45750632147239
 20
2.169231398470025
 10
31.45942644250398
 20
2.17509321659801
 10
31.46141339852798
 20
2.180933402892968
 10
31.46346714366378
 20
2.186751097820998
 10
31.46558763203099
 20
2.192545441844993
 10
31.4677748177492
 20
2.198315575432979
 10
31.47002862367979
 20
2.204060640061975
 10
31.47234872310249
 20
2.209779785314021
 10
31.4747346697317
 20
2.215472164648979
 10
31.4773517540414
 20
2.22151358016699
 10
31.48004270667601
 20
2.227522551515983
 10
31.48280698509959
 20
2.233498051339974
 10
31.48564404677649
 20
2.23943905228301
 10
31.4885533491706
 20
2.245344526987957
 10
31.49153434974609
 20
2.251213448097979
 10
31.49458650596709
 20
2.257044788259003
 10
31.49770927529779
 20
2.262837520112976
 10
31.5009021152022
 20
2.268590616304003
 10
31.50437067730439
 20
2.274658702959009
 10
31.50791707929129
 20
2.280679652601004
 10
31.51154067041149
 20
2.286652232955983
 10
31.5152407999131
 20
2.292575211746984
 10
31.51901681704439
 20
2.298447356698964
 10
31.52286807105398
 20
2.30426743553698
 10
31.52679391118989
 20
2.31003421598299
 10
31.5310312561911
 20
2.316080755933958
 10
31.53535071820019
 20
2.322064698379957
 10
31.5397515247397
 20
2.32798458054099
 10
31.5442329033314
 20
2.333838939640993
 10
31.54879408149769
 20
2.339626312900002
 10
31.5534342867606
 20
2.345345237537963
 10
31.5581527466422
 20
2.350994250777997
 10
31.5632173862219
 20
2.356879636528979
 10
31.56836744770239
 20
2.362683776976975
 10
31.5736020225747
 20
2.368404951752003
 10
31.5775057375146
 20
2.372559212610974
  0
LWPOLYLINE
  5
2FA2
330
1E
100
AcDbEntity
  8
1
100
AcDbPolyline
 90
       98
 70
     0
 43
0.0
 10
36.49999999999999
 20
14.66931913759998
 10
36.54681935424939
 20
14.66907469016896
 10
36.5936383267902
 20
14.66833870292699
 10
36.6404506154616
 20
14.66710720844598
 10
36.68724991810288
 20
14.66537623929999
 10
36.7340299325534
 20
14.66314182806498
 10
36.77898665896111
 20
14.66051489249701
 10
36.8239141230522
 20
14.65741530128098
 10
36.86880671479039
 20
14.65383949122992
 10
36.9136581640606
 20
14.64978069037396
 10
36.956669943955
 20
14.64541828667498
 10
36.99784136334629
 20
14.64079850880098
 10
37.0389596332941
 20
14.63573863103999
 10
37.07823499043028
 20
14.63047756953897
 10
37.1174511816012
 20
14.62479566716497
 10
37.1566030550221
 20
14.61868403660297
 10
37.19391056590759
 20
14.61244117003198
 10
37.2311494826358
 20
14.60578930960998
 10
37.26654332384299
 20
14.59905911687001
 10
37.30009482439989
 20
14.59229392885498
 10
37.33356821928779
 20
14.58515312263996
 10
37.36520128965218
 20
14.578029516606
 10
37.39500115979399
 20
14.57097080247596
 10
37.4247221346929
 20
14.56358088834696
 10
37.45435906163759
 20
14.55585017320398
 10
37.4821712478871
 20
14.54825428754498
 10
37.5098999971852
 20
14.54033984851297
 10
37.53581219659849
 20
14.53261872801797
 10
37.55991347750279
 20
14.52513408357994
 10
37.5839242295448
 20
14.51736646122198
 10
37.6061303577169
 20
14.50988807270698
 10
37.62824223833021
 20
14.50214244851499
 10
37.64856281217699
 20
14.49474577342001
 10
37.66879030762339
 20
14.48710305971197
 10
37.6889185937309
 20
14.47920550667097
 10
37.7072771337626
 20
14.47173469733697
 10
37.7255424363165
 20
14.46403557832399
 10
37.7437097790092
 20
14.45610137083496
 10
37.76013638213529
 20
14.44867858135397
 10
37.7764704611897
 20
14.44104704740498
 10
37.7910829418736
 20
14.43399035944398
 10
37.80560346005049
 20
14.42674618579697
 10
37.82002390256249
 20
14.41930576188395
 10
37.83275150076029
 20
14.41252021302499
 10
37.8453879183011
 20
14.40556652148297
 10
37.8579274570546
 20
14.39843853161099
 10
37.87036441889046
 20
14.39113008776498
 10
37.88269310567859
 20
14.38363503430098
 10
37.893387407756
 20
14.37691894516199
 10
37.90399063181701
 20
14.37005114631699
 10
37.91449896055928
 20
14.36302751396398
 10
37.9249085766811
 20
14.35584392430198
 10
37.93521566288021
 20
14.34849625353098
 10
37.94541627699778
 20
14.34098032751697
 10
37.95406706547238
 20
14.33439906306897
 10
37.96261837172979
 20
14.32768208613698
 10
37.9710562809096
 20
14.32082215957298
 10
37.97936687815129
 20
14.31381204622498
 10
37.9875362485945
 20
14.30664450894195
 10
37.9942261368304
 20
14.30054608556599
 10
38.00080023522188
 20
14.29432912604895
 10
38.00725049118767
 20
14.28798944222596
 10
38.01356885214659
 20
14.28152284592895
 10
38.01974726551728
 20
14.27492514899498
 10
38.02458382261571
 20
14.26954978454099
 10
38.029321536684
 20
14.26408569091098
 10
38.0339562848007
 20
14.25853072376496
 10
38.0384839440441
 20
14.25288273876198
 10
38.0429003914926
 20
14.24713959156098
 10
38.0472015042246
 20
14.24129913782197
 10
38.05138315931849
 20
14.23535923320295
 10
38.0554412338526
 20
14.22931773336298
 10
38.05937160490549
 20
14.223172493962
 10
38.06316978266838
 20
14.21692211544199
 10
38.06682879874129
 20
14.21057022979398
 10
38.06947692704979
 20
14.20574313880696
 10
38.07203890614621
 20
14.20086457813097
 10
38.0745113620582
 20
14.19593696139897
 10
38.07689092081309
 20
14.19096270224096
 10
38.07917420843871
 20
14.18594421429099
 10
38.0813578509624
 20
14.18088391117799
 10
38.0834384744118
 20
14.17578420653598
 10
38.0854127048145
 20
14.17064751399597
 10
38.087277168198
 20
14.16547624718994
 10
38.0890284905899
 20
14.16027281974895
 10
38.09066329801778
 20
14.15503964530499
 10
38.0921782165091
 20
14.14977913748997
 10
38.0935698720915
 20
14.14449370993596
 10
38.0948348907925
 20
14.13918577627398
 10
38.0959698986397
 20
14.13385775013596
 10
38.0969715216606
 20
14.12851204515398
 10
38.09783638588278
 20
14.12315107496
 10
38.09856111733378
 20
14.11777725318497
 10
38.09914234204121
 20
14.11239299346097
 10
38.0995766860326
 20
14.10700070941998
 10
38.0998607753355
 20
14.10160281469295
 10
38.0999912359775
 20
14.096201722912
 10
38.0999999997291
 20
14.09441106569996
  0
LWPOLYLINE
  5
3006
330
1E
100
AcDbEntity
  8
1
100
AcDbPolyline
 90
        2
 70
     0
 43
0.0
 10
31.57751262659999
 20
30.87711768819997
 10
31.7630719778333
 20
31.03144892721198
  0
LWPOLYLINE
  5
300A
330
1E
100
AcDbEntity
  8
1
100
AcDbPolyline
 90
        2
 70
     0
 43
0.0
 10
31.7630796729
 20
31.03145531359999
 10
31.82499230046019
 20
31.082802011706
  0
LWPOLYLINE
  5
300E
330
1E
100
AcDbEntity
  8
1
100
AcDbPolyline
 90
        2
 70
     0
 43
0.0
 10
32.53210678120001
 20
39.73303271499996
 10
32.28462792691348
 20
39.88566894903995
  0
LWPOLYLINE
  5
3012
330
1E
100
AcDbEntity
  8
1
100
AcDbPolyline
 90
      112
 70
     0
 43
0.0
 10
36.6713758979
 20
39.7253770201
 10
36.69470146239911
 20
39.723144227064
 10
36.71799990986861
 20
39.72062599840496
 10
36.74126786652189
 20
39.71782193118797
 10
36.76239125646679
 20
39.71502439838899
 10
36.78348412436068
 20
39.71198999963899
 10
36.8045439354279
 20
39.70871843220697
 10
36.8255681548925
 20
39.705209393362
 10
36.8465542479787
 20
39.70146258037099
 10
36.86749966055439
 20
39.69747769508496
 10
36.88840147563428
 20
39.69325452523996
 10
36.90925645396839
 20
39.68879293485099
 10
36.93006134510389
 20
39.68409279058499
 10
36.95081289858801
 20
39.67915395910898
 10
36.9715078639681
 20
39.67397630708996
 10
36.99214299079129
 20
39.66855970119399
 10
37.012715028605
 20
39.66290400808897
 10
37.03322072695639
 20
39.65700909444097
 10
37.05365683539279
 20
39.65087482691796
 10
37.0740201034615
 20
39.64450107218599
 10
37.09430728070961
 20
39.63788769691199
 10
37.11451511668439
 20
39.631034567764
 10
37.13464036093329
 20
39.623941551407
 10
37.1546797630035
 20
39.61660851450997
 10
37.1746300724422
 20
39.60903532373799
 10
37.19448803879671
 20
39.60122184575899
 10
37.2142503242349
 20
39.59316797061898
 10
37.23391322837791
 20
39.58487368536997
 10
37.25347295683238
 20
39.57633900221702
 10
37.27292571520481
 20
39.56756393336599
 10
37.2922677091017
 20
39.55854849102399
 10
37.31149514412951
 20
39.54929268739697
 10
37.3306042258946
 20
39.53979653468996
 10
37.34959116000361
 20
39.53006004511097
 10
37.3684521520629
 20
39.52008323086396
 10
37.38718340767911
 20
39.50986610415596
 10
37.40578113245851
 20
39.49940867719296
 10
37.42424153200771
 20
39.48871096218096
 10
37.44256081193321
 20
39.47777297132596
 10
37.46073517784129
 20
39.46659471683398
 10
37.47876083533871
 20
39.455176210912
 10
37.49663399003178
 20
39.44351746576496
 10
37.51435070673351
 20
39.43161859605499
 10
37.53190630620061
 20
39.41948025789096
 10
37.54929586430611
 20
39.40710328558499
 10
37.56651445677461
 20
39.39448851355495
 10
37.58525156605641
 20
39.38033860152096
 10
37.6037692943334
 20
39.36590307208199
 10
37.6220610873948
 20
39.35118303584797
 10
37.64012039102999
 20
39.33617960343195
 10
37.6579406510284
 20
39.32089388544599
 10
37.6755153131791
 20
39.30532699250202
 10
37.69283782327168
 20
39.28948003521199
 10
37.7099016270953
 20
39.27335412418699
 10
37.72670017043941
 20
39.25695037004
 10
37.7432268990931
 20
39.240269883384
 10
37.7594752392987
 20
39.22331382638799
 10
37.77399896758571
 20
39.207662082553
 10
37.78828115423171
 20
39.19178732107999
 10
37.80231613257021
 20
39.17569233458399
 10
37.81609823593511
 20
39.15937991567697
 10
37.82962179765979
 20
39.14285285697395
 10
37.84156726661021
 20
39.12779729521096
 10
37.85329459583272
 20
39.11257217304596
 10
37.8647996543275
 20
39.097179526295
 10
37.8760783110949
 20
39.08162139077199
 10
37.88712643513511
 20
39.06589980229496
 10
37.8979398954485
 20
39.05001679667797
 10
37.9085145610352
 20
39.03397440973599
 10
37.9188463008955
 20
39.01777467728596
 10
37.92782279245811
 20
39.00324446836299
 10
37.93660117737291
 20
38.988592975426
 10
37.94517855742739
 20
38.973821639475
 10
37.95355216829761
 20
38.95893238120999
 10
37.96171942723679
 20
38.94392777189599
 10
37.96967776443481
 20
38.928810429148
 10
37.97742461008161
 20
38.91358297057897
 10
37.9849573943669
 20
38.89824801380399
 10
37.9922735474806
 20
38.88280817643797
 10
37.99937049961251
 20
38.86726607609399
 10
38.0062456809525
 20
38.85162433038597
 10
38.01289652169041
 20
38.83588555692995
 10
38.0185299577239
 20
38.82203659487199
 10
38.023987943901
 20
38.80811710365295
 10
38.02926875864961
 20
38.79412883686799
 10
38.03437068039781
 20
38.78007354811496
 10
38.03929198757339
 20
38.76595299098995
 10
38.04403095860449
 20
38.751768919092
 10
38.0485858719191
 20
38.73752308601596
 10
38.05295500594501
 20
38.72321724536099
 10
38.05713663911021
 20
38.70885315072199
 10
38.06112905350179
 20
38.69443256070399
 10
38.06493086852829
 20
38.67995769541899
 10
38.06854130853238
 20
38.66543160262996
 10
38.07195966083151
 20
38.65085741625699
 10
38.07518521274301
 20
38.636238270221
 10
38.07821725158421
 20
38.62157729844199
 10
38.08105506467271
 20
38.60687763484199
 10
38.08369793932579
 20
38.59214241334099
 10
38.086145162861
 20
38.57737476786001
 10
38.0883960225957
 20
38.56257783232101
 10
38.09044980584721
 20
38.54775474064399
 10
38.092305799933
 20
38.53290862674997
 10
38.09396329217061
 20
38.518042624559
 10
38.09542156987729
 20
38.50315986799298
 10
38.09667992037049
 20
38.48826349097299
 10
38.09773763096771
 20
38.473356627419
 10
38.09859398898629
 20
38.458442411252
 10
38.09924828174371
 20
38.44352397639399
 10
38.09969979655729
 20
38.42860445676399
 10
38.0999478207445
 20
38.41368698628397
 10
38.09999999995401
 20
38.40304464080199
  0
LWPOLYLINE
  5
3084
330
1E
100
AcDbEntity
  8
1
100
AcDbPolyline
 90
        2
 70
     0
 43
0.0
 10
31.82499999999999
 20
-49.72018690510002
 10
31.57752246759478
 20
-49.67611195038203
  0
LWPOLYLINE
  5
32B3
330
1E
100
AcDbEntity
  8
1
100
AcDbPolyline
 90
        2
 70
     0
 43
0.0
 10
31.57751262659999
 20
2.372566461099974
 10
31.8249931037991
 20
2.632699276786973
  0
LWPOLYLINE
  5
33D0
330
1E
100
AcDbEntity
  8
1
100
AcDbPolyline
 90
        2
 70
     0
 43
0.0
 10
32.5321067812
 20
14.6693191376
 10
32.28462663039
 20
14.90652069427297
  0
LWPOLYLINE
  5
33D4
330
1E
100
AcDbEntity
  8
1
100
AcDbPolyline
 90
      147
 70
     0
 43
0.0
 10
31.43106577060001
 20
39.66731139839998
 10
31.43109505639489
 20
39.67033584763399
 10
31.43117657010328
 20
39.67336084403298
 10
31.43130972966028
 20
39.67638578942402
 10
31.43149395300059
 20
39.67941008563395
 10
31.43172865805939
 20
39.68243313448999
 10
31.43201326277139
 20
39.68545433781899
 10
31.43234718507169
 20
39.68847309744699
 10
31.43272984289521
 20
39.69148881520199
 10
31.43316065417689
 20
39.69450089290996
 10
31.43363903685161
 20
39.69750873239796
 10
31.43416440885429
 20
39.70051173549299
 10
31.43473618812001
 20
39.70350930402299
 10
31.4353537925835
 20
39.70650083981299
 10
31.43624754280438
 20
39.71047913605897
 10
31.4372203455516
 20
39.71444422612496
 10
31.43827082111537
 20
39.71839469211796
 10
31.43939758978611
 20
39.72232911614699
 10
31.44059927185379
 20
39.72624608032
 10
31.44187448760871
 20
39.73014416674498
 10
31.4432218573412
 20
39.73402195752997
 10
31.44464000134139
 20
39.73787803478299
 10
31.44612753989948
 20
39.74171098061301
 10
31.4476830933059
 20
39.74551937712695
 10
31.44930528185061
 20
39.74930180643296
 10
31.45099272582399
 20
39.75305685063996
 10
31.45274404551619
 20
39.75678309185697
 10
31.4545578612175
 20
39.76047911218993
 10
31.4564327932182
 20
39.764143493748
 10
31.4583674618083
 20
39.76777481863896
 10
31.46036048727829
 20
39.77137166897099
 10
31.4624104899182
 20
39.77493262685296
 10
31.46451609001839
 20
39.77845627439299
 10
31.4672241721704
 20
39.78280620607799
 10
31.47001428234351
 20
39.78709288844596
 10
31.47288405037238
 20
39.79131496866499
 10
31.47583153255729
 20
39.79547295502697
 10
31.47885481521869
 20
39.79956748683297
 10
31.48195198467679
 20
39.80359920338401
 10
31.485121127252
 20
39.80756874398099
 10
31.4883603292645
 20
39.81147674792399
 10
31.49166767703461
 20
39.81532385451398
 10
31.4950412568826
 20
39.81911070305299
 10
31.49847915512889
 20
39.82283793284
 10
31.50268683884899
 20
39.827232811968
 10
31.50698107852531
 20
39.83154386539999
 10
31.5113585673192
 20
39.83577219784597
 10
31.5158159983922
 20
39.83991891401899
 10
31.5203500649057
 20
39.843985118631
 10
31.52495746002129
 20
39.84797191639297
 10
31.52963487690039
 20
39.85188041201701
 10
31.53437900870439
 20
39.85571171021499
 10
31.53918654859499
 20
39.85946691569799
 10
31.54405418973351
 20
39.863147133179
 10
31.5489786252814
 20
39.86675346736899
 10
31.55479117024059
 20
39.87086895078796
 10
31.5606712665898
 20
39.874887128716
 10
31.5666136631919
 20
39.878809755394
 10
31.57261310890961
 20
39.882638585064
 10
31.5786643601462
 20
39.88637537039599
 10
31.58476336228179
 20
39.89002161656296
 10
31.59090853599929
 20
39.89357831346899
 10
31.59709861102399
 20
39.89704638668799
 10
31.60333231708088
 20
39.90042676179196
 10
31.6096083838954
 20
39.90372036435596
 10
31.61592554119247
 20
39.90692811995199
 10
31.62228251869729
 20
39.91005095415598
 10
31.62867804613501
 20
39.91308979253999
 10
31.6351108532309
 20
39.91604556067699
 10
31.64250665182279
 20
39.91932305006196
 10
31.64994758692489
 20
39.92249463005999
 10
31.65743176238339
 20
39.92556168228496
 10
31.6649572820446
 20
39.92852558835099
 10
31.67252224975479
 20
39.93138772987395
 10
31.68012476936029
 20
39.93414948846596
 10
31.68776294470738
 20
39.93681224574297
 10
31.69543487964249
 20
39.93937738331697
 10
31.70313867801169
 20
39.94184628280502
 10
31.71087244366139
 20
39.944220325819
 10
31.71863428043788
 20
39.94650089397299
 10
31.7273975396467
 20
39.94895652175099
 10
31.7361912267588
 20
39.951297561197
 10
31.74501270050801
 20
39.95352592332596
 10
31.75386010002228
 20
39.95564277027396
 10
31.76273211984359
 20
39.95764873119599
 10
31.77162746641078
 20
39.95954442383099
 10
31.78054484616271
 20
39.96133046591599
 10
31.7894829655383
 20
39.96300747519097
 10
31.79844053097648
 20
39.96457606939296
 10
31.8074162489161
 20
39.96603686626002
 10
31.81640882579618
 20
39.96739048352996
 10
31.82541696805551
 20
39.96863753894197
 10
31.83443938213299
 20
39.969778650235
 10
31.84347477446769
 20
39.97081443514496
 10
31.85252185149838
 20
39.971745511411
 10
31.86157931966389
 20
39.97257249677199
 10
31.87064588540328
 20
39.97329600896599
 10
31.8797202551554
 20
39.97391666573
 10
31.88981046773788
 20
39.97448640278797
 10
31.89990694348269
 20
39.97493076785199
 10
31.91000790795761
 20
39.97525060829899
 10
31.92011158673051
 20
39.975446771506
 10
31.93021620537169
 20
39.97552010483796
 10
31.94032004774671
 20
39.97547113469695
 10
31.9504216065839
 20
39.975299237535
 10
31.96051942137021
 20
39.97500353236199
 10
31.97061203159219
 20
39.97458313818797
 10
31.9806979767368
 20
39.97403717402399
 10
31.9897684216116
 20
39.97343771579797
 10
31.99883122004369
 20
39.97273519003697
 10
32.00788530731911
 20
39.97192895449899
 10
32.01692961872359
 20
39.97101836694397
 10
32.02596308954301
 20
39.97000278513096
 10
32.0349846550633
 20
39.968881566817
 10
32.04399325057028
 20
39.96765406976096
 10
32.05298781134978
 20
39.96631965172299
 10
32.06196727268769
 20
39.96487767045999
 10
32.07093056986987
 20
39.96332748373097
 10
32.07987663818221
 20
39.96166844929499
 10
32.08880441291039
 20
39.95989992491097
 10
32.09771282934051
 20
39.95802126833699
 10
32.10660082275829
 20
39.95603183733096
 10
32.11546732844961
 20
39.953930989653
 10
32.1243112810386
 20
39.95171808275696
 10
32.1331310422294
 20
39.94939221072895
 10
32.1419233537763
 20
39.946951722968
 10
32.14971283382709
 20
39.94468473987899
 10
32.15747533817111
 20
39.94232453771097
 10
32.16520837876171
 20
39.93986986540599
 10
32.17290946755229
 20
39.93731947190499
 10
32.18057611649598
 20
39.93467210614796
 10
32.18820583754621
 20
39.93192651707801
 10
32.19579614265628
 20
39.92908145363396
 10
32.20334454377951
 20
39.92613566475799
 10
32.21084855286921
 20
39.92308789939102
 10
32.2183056818786
 20
39.91993690647399
 10
32.22571344276111
 20
39.916681434948
 10
32.23306934746998
 20
39.91332023375396
 10
32.23946126988781
 20
39.91029146784299
 10
32.24580991821488
 20
39.90717995670097
 10
32.25211362565458
 20
39.90398486221599
 10
32.25837072540999
 20
39.90070534627699
 10
32.26457955068399
 20
39.89734057077297
 10
32.27073843467989
 20
39.89388969758996
 10
32.27684571060071
 20
39.89035188861799
 10
32.2828997116496
 20
39.88672630574496
 10
32.28461088863061
 20
39.88567942267099
  0
LWPOLYLINE
  5
34E2
330
1E
100
AcDbEntity
  8
1
100
AcDbPolyline
 90
       71
 70
     0
 43
0.0
 10
31.43106888870001
 20
30.58103616389995
 10
31.4310940077742
 20
30.585100001819
 10
31.43116772118929
 20
30.589165719519
 10
31.43128982594911
 20
30.593232735312
 10
31.4314601190574
 20
30.597300467508
 10
31.43167839751811
 20
30.60136833441796
 10
31.43194445833489
 20
30.60543575435199
 10
31.4322580985116
 20
30.60950214562298
 10
31.432619115052
 20
30.61356692654101
 10
31.43302730495989
 20
30.617629515417
 10
31.43348246523911
 20
30.62168933056097
 10
31.43398439289351
 20
30.62574579028498
 10
31.4345328849268
 20
30.62979831289998
 10
31.43512773834271
 20
30.63384631671599
 10
31.43576875014519
 20
30.637889220045
 10
31.436455717338
 20
30.641926441197
 10
31.43718843692489
 20
30.645957398484
 10
31.43796670590971
 20
30.64998151021601
 10
31.43879032129619
 20
30.653998194704
 10
31.4396590800882
 20
30.65800687025901
 10
31.4405727792896
 20
30.66200695519197
 10
31.44153121590401
 20
30.665997867814
 10
31.4425341869353
 20
30.66997902643598
 10
31.44367075929951
 20
30.674280266505
 10
31.44485910141979
 20
30.67856863692696
 10
31.44609895520431
 20
30.682843398137
 10
31.4473900625614
 20
30.68710381056799
 10
31.44873216539899
 20
30.69134913465298
 10
31.4501250056255
 20
30.69557863082598
 10
31.4515683251491
 20
30.699791559521
 10
31.4530618658778
 20
30.70398718116998
 10
31.45460536971989
 20
30.70816475620799
 10
31.45619857858358
 20
30.71232354506799
 10
31.45784123437699
 20
30.71646280818399
 10
31.45953307900839
 20
30.72058180598798
 10
31.461273854386
 20
30.72467979891502
 10
31.46306330241777
 20
30.72875604739798
 10
31.46490116501219
 20
30.73280981187099
 10
31.46678718407728
 20
30.73684035276698
 10
31.4687211008596
 20
30.740846931486
 10
31.47085693021911
 20
30.74513423820301
 10
31.47304718936219
 20
30.74939270187499
 10
31.47529114424191
 20
30.75362200065399
 10
31.47758806081101
 20
30.75782181269099
 10
31.47993720502258
 20
30.76199181613798
 10
31.48233784282938
 20
30.76613168914698
 10
31.4849662629309
 20
30.77053346615198
 10
31.48765205007621
 20
30.77489988931498
 10
31.49039430141951
 20
30.77923056277898
 10
31.49319211411507
 20
30.78352509068301
 10
31.4962366713634
 20
30.78806563398799
 10
31.49934232212528
 20
30.792564120852
 10
31.5025079706805
 20
30.79702007084899
 10
31.50573252130858
 20
30.80143300355199
 10
31.5092219199397
 20
30.80607407299499
 10
31.51277526224751
 20
30.81066546133499
 10
31.51639123395601
 20
30.81520659231998
 10
31.5202867131583
 20
30.81995942946698
 10
31.52424937307499
 20
30.82465459263898
 10
31.52827765358861
 20
30.82929139779297
 10
31.53259919383208
 20
30.83412173614101
 10
31.5369902752534
 20
30.838885485465
 10
31.54168557678689
 20
30.84382713577698
 10
31.54621365210608
 20
30.84845168188701
 10
31.5508056674817
 20
30.85300718312097
 10
31.55545978806328
 20
30.85749283497499
 10
31.56017417900089
 20
30.86190783294501
 10
31.56494700544419
 20
30.86625137252998
 10
31.56952087076651
 20
30.87029965977598
 10
31.57414397545169
 20
30.87428240653301
 10
31.5775049450263
 20
30.87711128557498
  0
LINE
  5
35F3
330
1E
100
AcDbEntity
  8
SK4
100
AcDbLine
 10
0.0
 20
0.0
 30
0.0
 11
-46.0
 21
0.0000000000000056
 31
0.0
  0
DIMENSION
  5
109CA
330
1E
100
AcDbEntity
  8
2
100
AcDbDimension
  2
*D4
 10
35.21757899955228
 20
-55.63576133948803
 30
0.0
 11
35.00000000000004
 21
-81.25000000000001
 31
0.0
 70
    34
 71
     5
 42
1.04729527294075
  3
ISO-25
100
AcDb2LineAngularDimension
 13
32.88872399999998
 23
-52.35615200000005
 33
0.0
 14
34.78242100044769
 24
-55.63576133948803
 34
0.0
 15
37.11127599999997
 25
-52.35615200000005
 35
0.0
 16
30.20471012365486
 26
-83.2054271482286
 36
0.0
1001
ACAD
1000
DSTYLE
1002
{
1070
   271
1070
     0
1002
}
  0
TEXT
  5
168EF
330
1E
100
AcDbEntity
  8
6
100
AcDbText
 10
54.12172650088042
 20
-65.70739631699861
 30
0.0
 40
3.5
  1
17Y1E112064K8R00
100
AcDbText
  0
CIRCLE
  5
168F0
330
1E
100
AcDbEntity
  8
1
100
AcDbCircle
 10
0.0
 20
0.0
 30
0.0
 40
2.950972054112601
  0
HATCH
  5
168F1
330
1E
100
AcDbEntity
  8
1
100
AcDbHatch
 10
0.0
 20
0.0
 30
0.0
210
0.0
220
0.0
230
1.0
  2
SOLID
 70
     1
 71
     0
 91
        2
 92
        7
 72
     1
 73
     1
 93
        3
 10
0.0
 20
0.0
 42
0.0
 10
2.950972054112638
 20
0.0
 42
0.4142135623730966
 10
0.0
 20
2.950972054112583
 42
0.0
 97
        0
 92
        7
 72
     1
 73
     1
 93
        3
 10
0.0
 20
-2.950972054112611
 42
0.0
 10
0.0
 20
0.0
 42
0.0
 10
-2.950972054112638
 20
0.0
 42
0.4142135623730966
 97
        0
 75
     0
 76
     1
 47
0.1190009775223266
 98
        2
 10
0.7445530588120164
 20
0.9212244733764691
 10
-1.27946460185285
 20
-1.696796923046334
  0
LWPOLYLINE
  5
168F2
330
1E
100
AcDbEntity
  8
1
100
AcDbPolyline
 90
        3
 70
     1
 43
0.0
 10
0.0
 20
2.950972054112583
 10
0.0
 20
0.0
 10
2.950972054112638
 20
0.0
 42
0.4142135623730966
  0
TEXT
  5
168FB
330
1E
100
AcDbEntity
  8
6
100
AcDbText
 10
47.5923309352181
 20
62.28491970558002
 30
0.0
 40
2.5
  1
XNL434-100
100
AcDbText
  0
TEXT
  5
168FC
330
1E
100
AcDbEntity
  8
6
100
AcDbText
 10
65.36679740918839
 20
-4.793206204603619
 30
0.0
 40
3.5
  1
Z=11
 50
90.0
100
AcDbText
  0
LINE
  5
16A79
330
1E
100
AcDbEntity
  8
NOCUT
100
AcDbLine
 10
0.0
 20
47.5
 30
0.0
 11
0.0
 21
0.0
 31
0.0
  0
LINE
  5
16A92
330
1E
100
AcDbEntity
  8
NOCUT
100
AcDbLine
 10
38.10000000000002
 20
0.0
 30
0.0
 11
0.0
 21
0.0
 31
0.0
  0
LINE
  5
16A9D
330
1E
100
AcDbEntity
  8
NOCUT
100
AcDbLine
 10
38.10000000000002
 20
0.0
 30
0.0
 11
38.10000000000002
 21
48.90000000000004
 31
0.0
  0
LINE
  5
16A9F
330
1E
100
AcDbEntity
  8
NOCUT
100
AcDbLine
 10
36.5
 20
50.5
 30
0.0
 11
3.0
 21
50.5
 31
0.0
  0
ARC
  5
16AA8
330
1E
100
AcDbEntity
  8
NOCUT
100
AcDbCircle
 10
3.0
 20
47.5
 30
0.0
 40
3.0
100
AcDbArc
 50
90.0
 51
180.0
  0
ARC
  5
16AA9
330
1E
100
AcDbEntity
  8
NOCUT
100
AcDbCircle
 10
36.5
 20
48.90000000000004
 30
0.0
 40
1.6
100
AcDbArc
 50
0.0
 51
90.0
  0
SPLINE
  5
16ABC
330
1E
100
AcDbEntity
  8
CUT
100
AcDbSpline
210
0.0
220
0.0
230
1.0
 70
     8
 71
     3
 72
    36
 73
    32
 74
    30
 42
0.0000000001
 43
0.0000000001
 44
0.0000000001
 12
0.5001431835924423
 22
0.865942720915198
 32
0.0
 13
0.4999552344908926
 23
0.8660512476205763
 33
0.0
 40
0.0
 40
0.0
 40
0.0
 40
0.0
 40
0.1305636998595036
 40
0.2611299975629957
 40
0.3916988931277699
 40
0.5222686546500918
 40
0.6528401480933612
 40
0.7834142394323138
 40
0.9139891967403398
 40
1.044566751967165
 40
1.175145173170626
 40
1.305726192315851
 40
1.436308943431743
 40
1.566893926588303
 40
1.697479275674616
 40
1.828067222748633
 40
1.958656901823977
 40
2.089247446902878
 40
2.219840590003863
 40
2.350435465129202
 40
2.481031206269571
 40
2.611629545466517
 40
2.742228750686114
 40
2.872829687956911
 40
3.003432357286413
 40
3.13403725866842
 40
3.264643392138484
 40
3.395251257690286
 40
3.525859989285855
 40
3.65647131902411
 40
3.787083514813764
 40
3.787083514813764
 40
3.787083514813764
 40
3.787083514813764
 10
32.88872400000002
 20
52.35615200000001
 30
0.0
 10
32.9104908481698
 20
52.39383889516971
 30
0.0
 10
32.95402464963496
 20
52.46921362479844
 30
0.0
 10
33.01932470219741
 20
52.58227759445283
 30
0.0
 10
33.08462415060692
 20
52.69534424635373
 30
0.0
 10
33.14992442769435
 20
52.80841241966184
 30
0.0
 10
33.21522473708744
 20
52.92148257432515
 30
0.0
 10
33.28052408853466
 20
53.03455528220417
 30
0.0
 10
33.34582478540704
 20
53.14762954643508
 30
0.0
 10
33.41112409000364
 20
53.26070628135845
 30
0.0
 10
33.47642473117692
 20
53.37378457776629
 30
0.0
 10
33.54172444975371
 20
53.48686540695467
 30
0.0
 10
33.60702429582201
 20
53.59994868832724
 30
0.0
 10
33.67232532104483
 20
53.71303295546585
 30
0.0
 10
33.73762565207286
 20
53.82611962347471
 30
0.0
 10
33.80292545164519
 20
53.93920840588009
 30
0.0
 10
33.86822513956677
 20
54.05229925274587
 30
0.0
 10
33.93352572222854
 20
54.16539158298572
 30
0.0
 10
33.99882543576812
 20
54.2784864150618
 30
0.0
 10
34.06412513284877
 20
54.39158325662846
 30
0.0
 10
34.12942576493248
 20
54.50468155835275
 30
0.0
 10
34.19472512723545
 20
54.61778225987376
 30
0.0
 10
34.2600254581841
 20
54.73088440213316
 30
0.0
 10
34.32532549376968
 20
54.84398838159492
 30
0.0
 10
34.39062524811259
 20
54.95709471586675
 30
0.0
 10
34.45592661180392
 20
55.07020212101554
 30
0.0
 10
34.52122640272982
 20
55.1833124341691
 30
0.0
 10
34.58652614759349
 20
55.2964242481264
 30
0.0
 10
34.65182673887711
 20
55.40953757345262
 30
0.0
 10
34.71712621649399
 20
55.52265320835644
 30
0.0
 10
34.76065924967552
 20
55.59806438162728
 30
0.0
 10
34.78242599999997
 20
55.63576999999998
 30
0.0
 11
32.88872400000002
 21
52.35615200000001
 31
0.0
 11
32.95402399999999
 21
52.46921300000003
 31
0.0
 11
33.01932399999998
 21
52.58227700000002
 31
0.0
 11
33.08462400000002
 21
52.69534400000003
 31
0.0
 11
33.14992399999999
 21
52.80841200000002
 31
0.0
 11
33.21522400000003
 21
52.92148200000003
 31
0.0
 11
33.280524
 21
53.03455500000001
 31
0.0
 11
33.34582399999999
 21
53.14762899999998
 31
0.0
 11
33.41112400000003
 21
53.26070600000003
 31
0.0
 11
33.47642400000001
 21
53.37378399999999
 31
0.0
 11
33.54172399999999
 21
53.48686500000003
 31
0.0
 11
33.60702400000001
 21
53.59994799999999
 31
0.0
 11
33.672325
 21
53.713033
 31
0.0
 11
33.73762499999996
 21
53.82611899999999
 31
0.0
 11
33.80292500000001
 21
53.939208
 31
0.0
 11
33.86822499999999
 21
54.05229900000001
 31
0.0
 11
33.93352500000003
 21
54.16539100000001
 31
0.0
 11
33.99882500000001
 21
54.27848599999999
 31
0.0
 11
34.06412499999999
 21
54.39158300000002
 31
0.0
 11
34.12942500000001
 21
54.50468100000001
 31
0.0
 11
34.19472499999999
 21
54.61778200000003
 31
0.0
 11
34.26002499999997
 21
54.73088399999999
 31
0.0
 11
34.32532500000002
 21
54.84398800000001
 31
0.0
 11
34.390625
 21
54.95709399999999
 31
0.0
 11
34.45592600000003
 21
55.07020199999999
 31
0.0
 11
34.52122600000001
 21
55.183312
 31
0.0
 11
34.58652599999999
 21
55.296424
 31
0.0
 11
34.65182600000002
 21
55.409537
 31
0.0
 11
34.717126
 21
55.52265299999999
 31
0.0
 11
34.78242599999997
 21
55.63576999999998
 31
0.0
  0
SPLINE
  5
16ABD
330
1E
100
AcDbEntity
  8
CUT
100
AcDbSpline
210
0.0
220
0.0
230
1.0
 70
     8
 71
     3
 72
    36
 73
    32
 74
    30
 42
0.0000000001
 43
0.0000000001
 44
0.0000000001
 12
0.5236679563604173
 22
0.8519224562607234
 32
0.0
 13
0.523541320031148
 23
0.8520002853403532
 33
0.0
 40
0.0
 40
0.0
 40
0.0
 40
0.0
 40
0.0077396747347775
 40
0.0154798733110701
 40
0.0232195480458499
 40
0.0309600746429296
 40
0.0386997493776912
 40
0.0464407997586274
 40
0.054180474493349
 40
0.0619210010904301
 40
0.0696606758252001
 40
0.0774017262061303
 40
0.08514225280321
 40
0.092882779400285
 40
0.1006238297812053
 40
0.1083643563782827
 40
0.1161048829753177
 40
0.1238454095724248
 40
0.1315873117934462
 40
0.1393278383905236
 40
0.1470692168853452
 40
0.1548102672662679
 40
0.1625516457610895
 40
0.1702921723581631
 40
0.178033550852981
 40
0.1857754530740243
 40
0.1935168315687914
 40
0.2012582100636154
 40
0.2089995885584309
 40
0.2167414907794584
 40
0.2244828692743
 40
0.2244828692743
 40
0.2244828692743
 40
0.2244828692743
 10
34.78242599999997
 20
55.63576999999998
 30
0.0
 10
34.78377700655039
 20
55.63796786757022
 30
0.0
 10
34.78647997055107
 20
55.6423632231289
 30
0.0
 10
34.79053509636461
 20
55.64895573573591
 30
0.0
 10
34.79458924389914
 20
55.65554918338251
 30
0.0
 10
34.79864272890832
 20
55.66214283334222
 30
0.0
 10
34.80269718830724
 20
55.66873642251789
 30
0.0
 10
34.80675181030985
 20
55.67532957833282
 30
0.0
 10
34.81080627800491
 20
55.68192316240526
 30
0.0
 10
34.81485972982853
 20
55.68851683277842
 30
0.0
 10
34.81891415052629
 20
55.6951104457467
 30
0.0
 10
34.82296910928911
 20
55.70170372784019
 30
0.0
 10
34.82702301237945
 20
55.70829799238854
 30
0.0
 10
34.83107684119131
 20
55.7148923026068
 30
0.0
 10
34.8351321715543
 20
55.72148568955622
 30
0.0
 10
34.83918592389834
 20
55.72808004679294
 30
0.0
 10
34.84324004141817
 20
55.73467397453376
 30
0.0
 10
34.84729415057614
 20
55.74126844569897
 30
0.0
 10
34.85134879724069
 20
55.74786258638305
 30
0.0
 10
34.85540336816316
 20
55.75445710699668
 30
0.0
 10
34.85945647361698
 20
55.76105219524296
 30
0.0
 10
34.86351254235681
 20
55.76764579493655
 30
0.0
 10
34.8675655519667
 20
55.7742409421065
 30
0.0
 10
34.8716204148063
 20
55.78083507832481
 30
0.0
 10
34.87567377247661
 20
55.78743034480485
 30
0.0
 10
34.87972919253074
 20
55.79402467670729
 30
0.0
 10
34.88378290882575
 20
55.80062005605299
 30
0.0
 10
34.88783708075317
 20
55.80721495035202
 30
0.0
 10
34.89189085957597
 20
55.81381029126669
 30
0.0
 10
34.89594602950823
 20
55.82040477689986
 30
0.0
 10
34.89864902282802
 20
55.82480144777115
 30
0.0
 10
34.90000000000003
 20
55.82699999999999
 30
0.0
 11
34.78242599999997
 21
55.63576999999998
 31
0.0
 11
34.78647999999998
 21
55.64236299999999
 31
0.0
 11
34.79053500000003
 21
55.64895599999999
 31
0.0
 11
34.79458900000003
 21
55.65554900000001
 31
0.0
 11
34.79864300000002
 21
55.66214300000002
 31
0.0
 11
34.80269700000001
 21
55.66873600000001
 31
0.0
 11
34.80675200000002
 21
55.67533000000003
 31
0.0
 11
34.810806
 21
55.68192299999998
 31
0.0
 11
34.81486000000001
 21
55.68851699999999
 31
0.0
 11
34.818914
 21
55.69511
 31
0.0
 11
34.822969
 21
55.70170400000001
 31
0.0
 11
34.82702299999999
 21
55.70829800000002
 31
0.0
 11
34.83107699999999
 21
55.71489200000002
 31
0.0
 11
34.83513199999999
 21
55.72148600000002
 31
0.0
 11
34.83918599999998
 21
55.72808000000002
 31
0.0
 11
34.84323999999998
 21
55.73467399999998
 31
0.0
 11
34.84729400000003
 21
55.74126799999999
 31
0.0
 11
34.85134900000002
 21
55.74786299999999
 31
0.0
 11
34.85540300000002
 21
55.75445699999999
 31
0.0
 11
34.85945700000002
 21
55.761052
 31
0.0
 11
34.863512
 21
55.767646
 31
0.0
 11
34.86756600000001
 21
55.77424100000001
 31
0.0
 11
34.87162
 21
55.78083500000001
 31
0.0
 11
34.87567399999999
 21
55.78743000000002
 31
0.0
 11
34.87972899999999
 21
55.79402500000004
 31
0.0
 11
34.88378299999999
 21
55.80061999999998
 31
0.0
 11
34.88783699999999
 21
55.80721499999999
 31
0.0
 11
34.89189099999999
 21
55.81380999999999
 31
0.0
 11
34.89594599999998
 21
55.82040499999999
 31
0.0
 11
34.90000000000003
 21
55.82699999999999
 31
0.0
  0
SPLINE
  5
16ABE
330
1E
100
AcDbEntity
  8
CUT
100
AcDbSpline
210
0.0
220
0.0
230
1.0
 70
    24
 71
     3
 72
    36
 73
    32
 74
    30
 42
0.0000000001
 43
0.0000000001
 44
0.0000000001
 12
1.0
 22
0.0
 32
0.0
 13
1.0
 23
0.0
 33
0.0
 40
0.0
 40
0.0
 40
0.0
 40
0.0
 40
0.0068969999999737
 40
0.0137929999999642
 40
0.020689999999945
 40
0.0275859999999781
 40
0.0344829999999661
 40
0.0413789999999494
 40
0.0482759999999871
 40
0.0551719999999634
 40
0.0620689999999442
 40
0.0689659999999819
 40
0.0758619999999652
 40
0.0827589999999461
 40
0.0896549999999863
 40
0.0965519999999742
 40
0.1034479999999576
 40
0.1103449999999881
 40
0.1172409999999786
 40
0.1241379999999594
 40
0.1310339999999996
 40
0.1379309999999734
 40
0.1448279999999542
 40
0.1517239999999305
 40
0.1586209999999752
 40
0.1655169999999657
 40
0.1724139999999465
 40
0.1793099999999868
 40
0.1862069999999676
 40
0.1931029999999438
 40
0.1999999999999815
 40
0.1999999999999815
 40
0.1999999999999815
 40
0.1999999999999815
 10
34.90000000000003
 20
55.82699999999999
 30
0.0
 10
34.90229900000002
 20
55.82699999999999
 30
0.0
 10
34.90689666666668
 20
55.82699999999999
 30
0.0
 10
34.91379333333331
 20
55.82699999999999
 30
0.0
 10
34.92068966666666
 20
55.82699999999999
 30
0.0
 10
34.92758633333333
 20
55.82699999999999
 30
0.0
 10
34.93448266666666
 20
55.82699999999999
 30
0.0
 10
34.94137933333334
 20
55.82699999999999
 30
0.0
 10
34.94827566666666
 20
55.82699999999999
 30
0.0
 10
34.95517233333333
 20
55.82699999999999
 30
0.0
 10
34.962069
 20
55.82699999999999
 30
0.0
 10
34.96896566666666
 20
55.82699999999999
 30
0.0
 10
34.97586233333332
 20
55.82699999999999
 30
0.0
 10
34.98275866666666
 20
55.82699999999999
 30
0.0
 10
34.98965533333334
 20
55.82699999999999
 30
0.0
 10
34.99655166666666
 20
55.82699999999999
 30
0.0
 10
35.00344833333334
 20
55.82699999999999
 30
0.0
 10
35.01034466666666
 20
55.82699999999998
 30
0.0
 10
35.01724133333334
 20
55.82699999999999
 30
0.0
 10
35.02413766666667
 20
55.82699999999999
 30
0.0
 10
35.03103433333335
 20
55.82699999999999
 30
0.0
 10
35.03793100000001
 20
55.82700000000001
 30
0.0
 10
35.04482766666666
 20
55.82699999999999
 30
0.0
 10
35.05172433333331
 20
55.82699999999999
 30
0.0
 10
35.05862066666666
 20
55.82699999999999
 30
0.0
 10
35.06551733333332
 20
55.82699999999999
 30
0.0
 10
35.07241366666667
 20
55.82699999999999
 30
0.0
 10
35.07931033333333
 20
55.82699999999999
 30
0.0
 10
35.08620666666666
 20
55.82699999999998
 30
0.0
 10
35.09310333333334
 20
55.82700000000001
 30
0.0
 10
35.097701
 20
55.82699999999999
 30
0.0
 10
35.10000000000001
 20
55.82699999999999
 30
0.0
 11
34.90000000000003
 21
55.82699999999999
 31
0.0
 11
34.906897
 21
55.82699999999999
 31
0.0
 11
34.913793
 21
55.82699999999999
 31
0.0
 11
34.92068999999998
 21
55.82699999999999
 31
0.0
 11
34.92758600000001
 21
55.82699999999999
 31
0.0
 11
34.934483
 21
55.82699999999999
 31
0.0
 11
34.94137899999998
 21
55.82699999999999
 31
0.0
 11
34.94827600000002
 21
55.82699999999999
 31
0.0
 11
34.955172
 21
55.82699999999999
 31
0.0
 11
34.96206899999998
 21
55.82699999999999
 31
0.0
 11
34.96896600000001
 21
55.82699999999999
 31
0.0
 11
34.975862
 21
55.82699999999999
 31
0.0
 11
34.98275899999998
 21
55.82699999999999
 31
0.0
 11
34.98965500000002
 21
55.82699999999999
 31
0.0
 11
34.99655200000001
 21
55.82699999999999
 31
0.0
 11
35.00344799999999
 21
55.82699999999999
 31
0.0
 11
35.01034500000002
 21
55.82699999999999
 31
0.0
 11
35.01724100000001
 21
55.82699999999999
 31
0.0
 11
35.02413799999999
 21
55.82699999999999
 31
0.0
 11
35.03103400000003
 21
55.82699999999999
 31
0.0
 11
35.03793100000001
 21
55.82699999999999
 31
0.0
 11
35.04482799999999
 21
55.82699999999999
 31
0.0
 11
35.05172399999996
 21
55.82699999999999
 31
0.0
 11
35.05862100000001
 21
55.82699999999999
 31
0.0
 11
35.065517
 21
55.82699999999999
 31
0.0
 11
35.07241399999998
 21
55.82699999999999
 31
0.0
 11
35.07931000000002
 21
55.82699999999999
 31
0.0
 11
35.086207
 21
55.82699999999999
 31
0.0
 11
35.09310299999997
 21
55.82699999999999
 31
0.0
 11
35.10000000000001
 21
55.82699999999999
 31
0.0
  0
SPLINE
  5
16ABF
330
1E
100
AcDbEntity
  8
CUT
100
AcDbSpline
210
0.0
220
0.0
230
1.0
 70
     8
 71
     3
 72
    36
 73
    32
 74
    30
 42
0.0000000001
 43
0.0000000001
 44
0.0000000001
 12
0.523541320031148
 22
-0.8520002853403532
 32
0.0
 13
0.5236679563604173
 23
-0.8519224562607234
 33
0.0
 40
0.0
 40
0.0
 40
0.0
 40
0.0
 40
0.0077413784948155
 40
0.015483280715843
 40
0.0232246592106549
 40
0.0309660377054788
 40
0.0387074162002459
 40
0.0464493184212855
 40
0.0541906969161071
 40
0.0619312235131844
 40
0.0696726020079986
 40
0.0774136523889213
 40
0.0851550308837764
 40
0.0928955574808574
 40
0.1006374597018751
 40
0.1083779862989562
 40
0.1161185128959874
 40
0.1238590394930685
 40
0.1316000898739852
 40
0.1393406164710602
 40
0.1470811430681436
 40
0.1548221934490701
 40
0.1625618681838438
 40
0.1703023947809174
 40
0.1780420695156428
 40
0.1857831198966088
 40
0.1935227946313704
 40
0.2012633212284538
 40
0.2090029959632336
 40
0.2167431945395001
 40
0.2244828692742665
 40
0.2244828692742665
 40
0.2244828692742665
 40
0.2244828692742665
 10
35.10000000000001
 20
55.82699999999999
 30
0.0
 10
35.10135097717202
 20
55.82480144777115
 30
0.0
 10
35.10405397049177
 20
55.82040477689986
 30
0.0
 10
35.10810914042402
 20
55.81381029126669
 30
0.0
 10
35.11216291924682
 20
55.80721495035202
 30
0.0
 10
35.11621709117423
 20
55.80062005605299
 30
0.0
 10
35.12027080746924
 20
55.79402467670732
 30
0.0
 10
35.12432622752336
 20
55.78743034480485
 30
0.0
 10
35.12837958519369
 20
55.7808350783248
 30
0.0
 10
35.13243444803331
 20
55.77424094210651
 30
0.0
 10
35.13648745764316
 20
55.76764579493655
 30
0.0
 10
35.14054352638298
 20
55.76105219524293
 30
0.0
 10
35.14459663183689
 20
55.75445710699672
 30
0.0
 10
35.14865120275937
 20
55.74786258638303
 30
0.0
 10
35.15270584942391
 20
55.74126844569901
 30
0.0
 10
35.1567599585818
 20
55.73467397453374
 30
0.0
 10
35.16081407610165
 20
55.72808004679293
 30
0.0
 10
35.16486782844568
 20
55.72148568955622
 30
0.0
 10
35.16892315880868
 20
55.71489230260678
 30
0.0
 10
35.17297698762053
 20
55.70829799238853
 30
0.0
 10
35.1770308907109
 20
55.70170372784021
 30
0.0
 10
35.18108584947369
 20
55.69511044574669
 30
0.0
 10
35.18514027017145
 20
55.68851683277842
 30
0.0
 10
35.18919372199507
 20
55.68192316240526
 30
0.0
 10
35.19324818969014
 20
55.67532957833281
 30
0.0
 10
35.1973028116928
 20
55.66873642251791
 30
0.0
 10
35.20135727109173
 20
55.66214283334224
 30
0.0
 10
35.20541075610091
 20
55.65554918338252
 30
0.0
 10
35.20946490363545
 20
55.64895573573592
 30
0.0
 10
35.21352002944891
 20
55.64236322312889
 30
0.0
 10
35.21622299344959
 20
55.63796786757021
 30
0.0
 10
35.217574
 20
55.63576999999998
 30
0.0
 11
35.10000000000001
 21
55.82699999999999
 31
0.0
 11
35.10405400000002
 21
55.82040499999999
 31
0.0
 11
35.108109
 21
55.81380999999999
 31
0.0
 11
35.112163
 21
55.80721499999999
 31
0.0
 11
35.116217
 21
55.80061999999998
 31
0.0
 11
35.120271
 21
55.79402500000004
 31
0.0
 11
35.12432599999999
 21
55.78743000000002
 31
0.0
 11
35.12837999999999
 21
55.78083500000001
 31
0.0
 11
35.13243399999999
 21
55.77424100000001
 31
0.0
 11
35.13648799999998
 21
55.767646
 31
0.0
 11
35.14054299999996
 21
55.761052
 31
0.0
 11
35.14459700000003
 21
55.75445699999999
 31
0.0
 11
35.14865100000003
 21
55.74786299999999
 31
0.0
 11
35.15270600000001
 21
55.74126799999999
 31
0.0
 11
35.15676000000002
 21
55.73467399999998
 31
0.0
 11
35.160814
 21
55.72808000000002
 31
0.0
 11
35.16486800000001
 21
55.72148600000002
 31
0.0
 11
35.168923
 21
55.71489200000002
 31
0.0
 11
35.172977
 21
55.70829800000002
 31
0.0
 11
35.177031
 21
55.70170400000001
 31
0.0
 11
35.18108599999999
 21
55.69511
 31
0.0
 11
35.18513999999999
 21
55.68851699999999
 31
0.0
 11
35.18919399999997
 21
55.68192299999998
 31
0.0
 11
35.19324799999997
 21
55.67533000000003
 31
0.0
 11
35.19730300000003
 21
55.66873600000001
 31
0.0
 11
35.20135700000003
 21
55.66214300000002
 31
0.0
 11
35.20541100000002
 21
55.65554900000001
 31
0.0
 11
35.20946500000002
 21
55.64895599999999
 31
0.0
 11
35.21352000000002
 21
55.64236299999999
 31
0.0
 11
35.217574
 21
55.63576999999998
 31
0.0
  0
SPLINE
  5
16AC0
330
1E
100
AcDbEntity
  8
CUT
100
AcDbSpline
210
0.0
220
0.0
230
1.0
 70
     8
 71
     3
 72
    36
 73
    32
 74
    30
 42
0.0000000001
 43
0.0000000001
 44
0.0000000001
 12
-0.5001431835924423
 22
0.865942720915198
 32
0.0
 13
-0.4999552344908926
 23
0.8660512476205763
 33
0.0
 40
0.0
 40
0.0
 40
0.0
 40
0.0
 40
0.1305636998595355
 40
0.2611299975630241
 40
0.3916988931277984
 40
0.5222686546501203
 40
0.6528401480933577
 40
0.7834142394323458
 40
0.9139891967403682
 40
1.044566751967154
 40
1.175145173170651
 40
1.305726192315876
 40
1.436308943431743
 40
1.566893926588331
 40
1.697479275674645
 40
1.828067222748665
 40
1.958656901824009
 40
2.089247446902875
 40
2.219840590003888
 40
2.350435465129227
 40
2.481031206269571
 40
2.611629545466549
 40
2.742228750686146
 40
2.872829687956936
 40
3.003432357286438
 40
3.134037258668416
 40
3.264643392138509
 40
3.395251257690311
 40
3.525859989285851
 40
3.656471319024139
 40
3.787083514813796
 40
3.787083514813796
 40
3.787083514813796
 40
3.787083514813796
 10
37.11127600000003
 20
52.35615200000001
 30
0.0
 10
37.08950915183025
 20
52.39383889516972
 30
0.0
 10
37.04597535036498
 20
52.46921362479842
 30
0.0
 10
36.9806752978026
 20
52.58227759445283
 30
0.0
 10
36.91537584939306
 20
52.69534424635373
 30
0.0
 10
36.85007557230564
 20
52.80841241966181
 30
0.0
 10
36.78477526291262
 20
52.92148257432518
 30
0.0
 10
36.71947591146532
 20
53.03455528220415
 30
0.0
 10
36.65417521459293
 20
53.14762954643507
 30
0.0
 10
36.58887590999643
 20
53.26070628135848
 30
0.0
 10
36.52357526882306
 20
53.37378457776628
 30
0.0
 10
36.45827555024628
 20
53.48686540695464
 30
0.0
 10
36.39297570417805
 20
53.59994868832728
 30
0.0
 10
36.32767467895515
 20
53.71303295546583
 30
0.0
 10
36.26237434792713
 20
53.82611962347473
 30
0.0
 10
36.19707454835479
 20
53.93920840588009
 30
0.0
 10
36.13177486043319
 20
54.05229925274586
 30
0.0
 10
36.06647427777154
 20
54.16539158298576
 30
0.0
 10
36.00117456423186
 20
54.27848641506179
 30
0.0
 10
35.93587486715122
 20
54.39158325662846
 30
0.0
 10
35.87057423506758
 20
54.50468155835277
 30
0.0
 10
35.80527487276452
 20
54.61778225987373
 30
0.0
 10
35.73997454181589
 20
54.73088440213317
 30
0.0
 10
35.67467450623031
 20
54.8439883815949
 30
0.0
 10
35.60937475188741
 20
54.95709471586675
 30
0.0
 10
35.54407338819614
 20
55.07020212101557
 30
0.0
 10
35.47877359727017
 20
55.18331243416909
 30
0.0
 10
35.4134738524065
 20
55.29642424812637
 30
0.0
 10
35.34817326112298
 20
55.40953757345267
 30
0.0
 10
35.28287378350597
 20
55.5226532083564
 30
0.0
 10
35.23934075032446
 20
55.59806438162728
 30
0.0
 10
35.217574
 20
55.63576999999998
 30
0.0
 11
37.11127600000003
 21
52.35615200000001
 31
0.0
 11
37.04597599999999
 21
52.46921300000003
 31
0.0
 11
36.98067600000001
 21
52.58227700000002
 31
0.0
 11
36.91537599999997
 21
52.69534400000003
 31
0.0
 11
36.850076
 21
52.80841200000002
 31
0.0
 11
36.78477600000002
 21
52.92148200000003
 31
0.0
 11
36.71947599999997
 21
53.03455500000001
 31
0.0
 11
36.654176
 21
53.14762899999998
 31
0.0
 11
36.58887600000003
 21
53.26070600000003
 31
0.0
 11
36.52357599999999
 21
53.37378399999999
 31
0.0
 11
36.45827600000001
 21
53.48686500000003
 31
0.0
 11
36.39297600000003
 21
53.59994799999999
 31
0.0
 11
36.32767499999999
 21
53.713033
 31
0.0
 11
36.26237500000002
 21
53.82611899999999
 31
0.0
 11
36.19707499999997
 21
53.939208
 31
0.0
 11
36.13177499999999
 21
54.05229900000001
 31
0.0
 11
36.06647500000002
 21
54.16539100000001
 31
0.0
 11
36.00117499999999
 21
54.27848599999999
 31
0.0
 11
35.93587500000001
 21
54.39158300000002
 31
0.0
 11
35.87057500000003
 21
54.50468100000001
 31
0.0
 11
35.80527499999998
 21
54.61778200000003
 31
0.0
 11
35.739975
 21
54.73088399999999
 31
0.0
 11
35.67467499999998
 21
54.84398800000001
 31
0.0
 11
35.609375
 21
54.95709399999999
 31
0.0
 11
35.54407400000002
 21
55.07020199999999
 31
0.0
 11
35.47877399999999
 21
55.183312
 31
0.0
 11
35.41347400000001
 21
55.296424
 31
0.0
 11
35.34817400000003
 21
55.409537
 31
0.0
 11
35.28287399999999
 21
55.52265299999999
 31
0.0
 11
35.217574
 21
55.63576999999998
 31
0.0
  0
ENDSEC
  0
SECTION
  2
OBJECTS
  0
DICTIONARY
  5
C
330
0
100
AcDbDictionary
281
     1
  3
ACAD_COLOR
350
1668B
  3
ACAD_GROUP
350
D
  3
ACAD_LAYOUT
350
19
  3
ACAD_MATERIAL
350
1668A
  3
ACAD_MLINESTYLE
350
16
  3
ACAD_PLOTSETTINGS
350
18
  3
ACAD_PLOTSTYLENAME
350
16681
  3
ACAD_TABLESTYLE
350
1668C
  3
AcDbVariableDictionary
350
166BE
1001
ACAD
1000
TREAT_AS_HARD
1070
     0
1000
TREAT_AS_HARD
1070
     0
1000
TREAT_AS_HARD
1070
     0
1000
TREAT_AS_HARD
1070
     0
  0
DICTIONARY
  5
3627
330
1E
100
AcDbDictionary
281
     1
  3
ACAD_LAYOUTSELFREF
350
1382E
1001
ACAD
1000
TREAT_AS_HARD
1070
     0
1000
TREAT_AS_HARD
1070
     0
1000
TREAT_AS_HARD
1070
     0
  0
DICTIONARY
  5
3625
330
1A
100
AcDbDictionary
281
     1
  3
ACAD_LAYOUTSELFREF
350
1382D
1001
ACAD
1000
TREAT_AS_HARD
1070
     0
1000
TREAT_AS_HARD
1070
     0
1000
TREAT_AS_HARD
1070
     0
  0
DICTIONARY
  5
1668B
102
{ACAD_REACTORS
330
C
102
}
330
C
100
AcDbDictionary
281
     1
  0
DICTIONARY
  5
D
102
{ACAD_REACTORS
330
C
102
}
330
C
100
AcDbDictionary
281
     1
1001
ACAD
1000
TREAT_AS_HARD
1070
     0
1000
TREAT_AS_HARD
1070
     0
1000
TREAT_AS_HARD
1070
     0
1000
TREAT_AS_HARD
1070
     0
  0
DICTIONARY
  5
19
102
{ACAD_REACTORS
330
C
102
}
330
C
100
AcDbDictionary
281
     1
  3
Layout1
350
16684
  3
Model
350
16683
1001
ACAD
1000
TREAT_AS_HARD
1070
     0
1000
TREAT_AS_HARD
1070
     0
1000
TREAT_AS_HARD
1070
     0
1000
TREAT_AS_HARD
1070
     0
  0
DICTIONARY
  5
1668A
102
{ACAD_REACTORS
330
C
102
}
330
C
100
AcDbDictionary
281
     1
  0
DICTIONARY
  5
16
102
{ACAD_REACTORS
330
C
102
}
330
C
100
AcDbDictionary
281
     1
  3
STANDARD
350
17
1001
ACAD
1000
TREAT_AS_HARD
1070
     0
1000
TREAT_AS_HARD
1070
     0
1000
TREAT_AS_HARD
1070
     0
1000
TREAT_AS_HARD
1070
     0
  0
DICTIONARY
  5
18
102
{ACAD_REACTORS
330
C
102
}
330
C
100
AcDbDictionary
281
     1
1001
ACAD
1000
TREAT_AS_HARD
1070
     0
1000
TREAT_AS_HARD
1070
     0
1000
TREAT_AS_HARD
1070
     0
1000
TREAT_AS_HARD
1070
     0
  0
ACDBDICTIONARYWDFLT
  5
16681
102
{ACAD_REACTORS
330
C
102
}
330
C
100
AcDbDictionary
281
     1
  3
Normal
350
16682
100
AcDbDictionaryWithDefault
340
16682
  0
DICTIONARY
  5
1668C
102
{ACAD_REACTORS
330
C
102
}
330
C
100
AcDbDictionary
281
     1
  3
Standard
350
1668D
  0
DICTIONARY
  5
166BE
102
{ACAD_REACTORS
330
C
102
}
330
C
100
AcDbDictionary
281
     1
  3
CTABLESTYLE
350
166BF
  3
DIMASSOC
350
166C0
  3
PROJECTNAME
350
166C1
  0
XRECORD
  5
1382E
102
{ACAD_REACTORS
330
3627
102
}
330
3627
100
AcDbXrecord
280
     1
340
1E
  0
XRECORD
  5
1382D
102
{ACAD_REACTORS
330
3625
102
}
330
3625
100
AcDbXrecord
280
     1
340
1A
  0
LAYOUT
  5
16684
102
{ACAD_XDICTIONARY
360
166C6
102
}
102
{ACAD_REACTORS
330
19
102
}
330
19
100
AcDbPlotSettings
  1

  2
\\ingdom02\ITB3
  4

  6

 40
0.0
 41
0.0
 42
0.0
 43
0.0
 44
0.0
 45
0.0
 46
0.0
 47
0.0
 48
0.0
 49
0.0
140
0.0
141
0.0
142
1.0
143
1.0
 70
   688
 72
     0
 73
     0
 74
     5
  7

 75
    16
147
1.0
148
0.0
149
0.0
100
AcDbLayout
  1
Layout1
 70
     1
 71
     1
 10
0.0
 20
0.0
 11
12.0
 21
9.0
 12
0.0
 22
0.0
 32
0.0
 14
100.0
 24
100.0
 34
100.0
 15
-100.0
 25
-100.0
 35
-100.0
146
0.0
 13
0.0
 23
0.0
 33
0.0
 16
1.0
 26
0.0
 36
0.0
 17
0.0
 27
1.0
 37
0.0
 76
     0
330
1A
  0
LAYOUT
  5
16683
102
{ACAD_XDICTIONARY
360
166C4
102
}
102
{ACAD_REACTORS
330
19
102
}
330
19
100
AcDbPlotSettings
  1

  2
\\ingdom02\ITB3
  4

  6

 40
0.0
 41
0.0
 42
0.0
 43
0.0
 44
0.0
 45
0.0
 46
0.0
 47
0.0
 48
0.0
 49
0.0
140
0.0
141
0.0
142
1.0
143
1.0
 70
  1712
 72
     0
 73
     0
 74
     0
  7

 75
     0
147
1.0
148
0.0
149
0.0
100
AcDbLayout
  1
Model
 70
     1
 71
     0
 10
0.0
 20
0.0
 11
12.0
 21
9.0
 12
0.0
 22
0.0
 32
0.0
 14
0.0
 24
0.0
 34
0.0
 15
0.0
 25
0.0
 35
0.0
146
0.0
 13
0.0
 23
0.0
 33
0.0
 16
1.0
 26
0.0
 36
0.0
 17
0.0
 27
1.0
 37
0.0
 76
     0
330
1E
  0
MLINESTYLE
  5
17
102
{ACAD_REACTORS
330
16
102
}
330
16
100
AcDbMlineStyle
  2
STANDARD
 70
     0
  3

 62
   256
 51
90.0
 52
90.0
 71
     2
 49
0.5
 62
   256
  6
BYLAYER
 49
-0.5
 62
   256
  6
BYLAYER
  0
ACDBPLACEHOLDER
  5
16682
102
{ACAD_REACTORS
330
16681
102
}
330
16681
  0
TABLESTYLE
  5
1668D
102
{ACAD_REACTORS
330
1668C
102
}
330
1668C
100
AcDbTableStyle
  3
Standard
 70
     0
 71
     0
 40
0.06
 41
0.06
280
     0
281
     0
  7
STANDARD
140
0.18
170
     2
 62
     0
 63
     7
283
     0
274
    -2
284
     1
 64
     0
275
    -2
285
     1
 65
     0
276
    -2
286
     1
 66
     0
277
    -2
287
     1
 67
     0
278
    -2
288
     1
 68
     0
279
    -2
289
     1
 69
     0
  7
STANDARD
140
0.25
170
     5
 62
     0
 63
     7
283
     0
274
    -2
284
     1
 64
     0
275
    -2
285
     1
 65
     0
276
    -2
286
     1
 66
     0
277
    -2
287
     1
 67
     0
278
    -2
288
     1
 68
     0
279
    -2
289
     1
 69
     0
  7
STANDARD
140
0.18
170
     5
 62
     0
 63
     7
283
     0
274
    -2
284
     1
 64
     0
275
    -2
285
     1
 65
     0
276
    -2
286
     1
 66
     0
277
    -2
287
     1
 67
     0
278
    -2
288
     1
 68
     0
279
    -2
289
     1
 69
     0
  0
DICTIONARYVAR
  5
166BF
102
{ACAD_REACTORS
330
166BE
102
}
330
166BE
100
DictionaryVariables
280
     0
  1
STANDARD
  0
DICTIONARYVAR
  5
166C0
102
{ACAD_REACTORS
330
166BE
102
}
330
166BE
100
DictionaryVariables
280
     0
  1
1
  0
DICTIONARYVAR
  5
166C1
102
{ACAD_REACTORS
330
166BE
102
}
330
166BE
100
DictionaryVariables
280
     0
  1

  0
DICTIONARY
  5
166C6
330
16684
100
AcDbDictionary
280
     1
281
     1
  3
ACAD_XREC_ROUNDTRIP
360
166C7
  0
DICTIONARY
  5
166C4
330
16683
100
AcDbDictionary
280
     1
281
     1
  3
ACAD_XREC_ROUNDTRIP
360
166C5
  0
XRECORD
  5
166C7
102
{ACAD_REACTORS
330
166C6
102
}
330
166C6
100
AcDbXrecord
280
     1
102
SHADEPLOT
 70
     0
102
SHADEPLOTRESLEVEL
 70
     2
102
SHADEPLOTCUSTOMDPI
 70
   300
  0
XRECORD
  5
166C5
102
{ACAD_REACTORS
330
166C4
102
}
330
166C4
100
AcDbXrecord
280
     1
102
SHADEPLOT
 70
     0
102
SHADEPLOTRESLEVEL
 70
     2
102
SHADEPLOTCUSTOMDPI
 70
   300
  0
ENDSEC
  0
EOF
