  0
SECTION
  2
HEADER
  9
$ACADVER
  1
AC1015
  9
$ACADMAINTVER
 70
    20
  9
$DWGCODEPAGE
  3
ANSI_1252
  9
$INSBASE
 10
0.0
 20
0.0
 30
0.0
  9
$EXTMIN
 10
-54.51978913953053
 20
-59.63963587671128
 30
-0.0015258207003583
  9
$EXTMAX
 10
77.78070159254207
 20
56.50490639423356
 30
0.0000000349246037
  9
$LIMMIN
 10
0.0
 20
0.0
  9
$LIMMAX
 10
594.0
 20
420.0
  9
$ORTHOMODE
 70
     0
  9
$REGENMODE
 70
     1
  9
$FILLMODE
 70
     1
  9
$QTEXTMODE
 70
     0
  9
$MIRRTEXT
 70
     1
  9
$LTSCALE
 40
5.0
  9
$ATTMODE
 70
     1
  9
$TEXTSIZE
 40
0.2
  9
$TRACEWID
 40
0.05
  9
$TEXTSTYLE
  7
STANDARD
  9
$CLAYER
  8
0
  9
$CELTYPE
  6
BYLAYER
  9
$CECOLOR
 62
   256
  9
$CELTSCALE
 40
1.0
  9
$DISPSILH
 70
     0
  9
$DIMSCALE
 40
1.0
  9
$DIMASZ
 40
3.5
  9
$DIMEXO
 40
0.625
  9
$DIMDLI
 40
3.75
  9
$DIMRND
 40
0.0
  9
$DIMDLE
 40
0.0
  9
$DIMEXE
 40
2.0
  9
$DIMTP
 40
0.0
  9
$DIMTM
 40
0.0
  9
$DIMTXT
 40
3.5
  9
$DIMCEN
 40
2.5
  9
$DIMTSZ
 40
0.0
  9
$DIMTOL
 70
     0
  9
$DIMLIM
 70
     0
  9
$DIMTIH
 70
     0
  9
$DIMTOH
 70
     0
  9
$DIMSE1
 70
     0
  9
$DIMSE2
 70
     0
  9
$DIMTAD
 70
     1
  9
$DIMZIN
 70
     8
  9
$DIMBLK
  1

  9
$DIMASO
 70
     1
  9
$DIMSHO
 70
     1
  9
$DIMPOST
  1

  9
$DIMAPOST
  1

  9
$DIMALT
 70
     0
  9
$DIMALTD
 70
     3
  9
$DIMALTF
 40
0.03937007874016
  9
$DIMLFAC
 40
1.0
  9
$DIMTOFL
 70
     1
  9
$DIMTVP
 40
0.0
  9
$DIMTIX
 70
     0
  9
$DIMSOXD
 70
     0
  9
$DIMSAH
 70
     0
  9
$DIMBLK1
  1

  9
$DIMBLK2
  1

  9
$DIMSTYLE
  2
ISO-25
  9
$DIMCLRD
 70
   256
  9
$DIMCLRE
 70
   256
  9
$DIMCLRT
 70
   256
  9
$DIMTFAC
 40
1.0
  9
$DIMGAP
 40
0.625
  9
$DIMJUST
 70
     0
  9
$DIMSD1
 70
     0
  9
$DIMSD2
 70
     0
  9
$DIMTOLJ
 70
     0
  9
$DIMTZIN
 70
     8
  9
$DIMALTZ
 70
     0
  9
$DIMALTTZ
 70
     0
  9
$DIMUPT
 70
     0
  9
$DIMDEC
 70
     2
  9
$DIMTDEC
 70
     2
  9
$DIMALTU
 70
     2
  9
$DIMALTTD
 70
     3
  9
$DIMTXSTY
  7
STANDARD
  9
$DIMAUNIT
 70
     0
  9
$DIMADEC
 70
     0
  9
$DIMALTRND
 40
0.0
  9
$DIMAZIN
 70
     0
  9
$DIMDSEP
 70
    46
  9
$DIMATFIT
 70
     3
  9
$DIMFRAC
 70
     0
  9
$DIMLDRBLK
  1

  9
$DIMLUNIT
 70
     2
  9
$DIMLWD
 70
    -2
  9
$DIMLWE
 70
    -2
  9
$DIMTMOVE
 70
     0
  9
$LUNITS
 70
     2
  9
$LUPREC
 70
     4
  9
$SKETCHINC
 40
0.1
  9
$FILLETRAD
 40
0.0
  9
$AUNITS
 70
     0
  9
$AUPREC
 70
     0
  9
$MENU
  1

  9
$ELEVATION
 40
0.0
  9
$PELEVATION
 40
0.0
  9
$THICKNESS
 40
0.0
  9
$LIMCHECK
 70
     0
  9
$CHAMFERA
 40
0.0
  9
$CHAMFERB
 40
0.0
  9
$CHAMFERC
 40
0.0
  9
$CHAMFERD
 40
0.0
  9
$SKPOLY
 70
     0
  9
$TDCREATE
 40
2453402.478238310
  9
$TDUCREATE
 40
2453402.394904977
  9
$TDUPDATE
 40
2453908.635857280
  9
$TDUUPDATE
 40
2453908.552523947
  9
$TDINDWG
 40
0.0236343519
  9
$TDUSRTIMER
 40
0.0223010532
  9
$USRTIMER
 70
     1
  9
$ANGBASE
 50
0.0
  9
$ANGDIR
 70
     0
  9
$PDMODE
 70
     0
  9
$PDSIZE
 40
0.3125
  9
$PLINEWID
 40
0.0
  9
$SPLFRAME
 70
     0
  9
$SPLINETYPE
 70
     6
  9
$SPLINESEGS
 70
     8
  9
$HANDSEED
  5
F9E0
  9
$SURFTAB1
 70
     6
  9
$SURFTAB2
 70
     6
  9
$SURFTYPE
 70
     6
  9
$SURFU
 70
     6
  9
$SURFV
 70
     6
  9
$UCSBASE
  2

  9
$UCSNAME
  2

  9
$UCSORG
 10
0.0
 20
0.0
 30
0.0
  9
$UCSXDIR
 10
1.0
 20
0.0
 30
0.0
  9
$UCSYDIR
 10
0.0
 20
1.0
 30
0.0
  9
$UCSORTHOREF
  2

  9
$UCSORTHOVIEW
 70
     0
  9
$UCSORGTOP
 10
0.0
 20
0.0
 30
0.0
  9
$UCSORGBOTTOM
 10
0.0
 20
0.0
 30
0.0
  9
$UCSORGLEFT
 10
0.0
 20
0.0
 30
0.0
  9
$UCSORGRIGHT
 10
0.0
 20
0.0
 30
0.0
  9
$UCSORGFRONT
 10
0.0
 20
0.0
 30
0.0
  9
$UCSORGBACK
 10
0.0
 20
0.0
 30
0.0
  9
$PUCSBASE
  2

  9
$PUCSNAME
  2

  9
$PUCSORG
 10
0.0
 20
0.0
 30
0.0
  9
$PUCSXDIR
 10
1.0
 20
0.0
 30
0.0
  9
$PUCSYDIR
 10
0.0
 20
1.0
 30
0.0
  9
$PUCSORTHOREF
  2

  9
$PUCSORTHOVIEW
 70
     0
  9
$PUCSORGTOP
 10
0.0
 20
0.0
 30
0.0
  9
$PUCSORGBOTTOM
 10
0.0
 20
0.0
 30
0.0
  9
$PUCSORGLEFT
 10
0.0
 20
0.0
 30
0.0
  9
$PUCSORGRIGHT
 10
0.0
 20
0.0
 30
0.0
  9
$PUCSORGFRONT
 10
0.0
 20
0.0
 30
0.0
  9
$PUCSORGBACK
 10
0.0
 20
0.0
 30
0.0
  9
$USERI1
 70
     0
  9
$USERI2
 70
     0
  9
$USERI3
 70
     0
  9
$USERI4
 70
     0
  9
$USERI5
 70
     0
  9
$USERR1
 40
0.0
  9
$USERR2
 40
0.0
  9
$USERR3
 40
0.0
  9
$USERR4
 40
0.0
  9
$USERR5
 40
0.0
  9
$WORLDVIEW
 70
     1
  9
$SHADEDGE
 70
     3
  9
$SHADEDIF
 70
    70
  9
$TILEMODE
 70
     1
  9
$MAXACTVP
 70
    64
  9
$PINSBASE
 10
0.0
 20
0.0
 30
0.0
  9
$PLIMCHECK
 70
     0
  9
$PEXTMIN
 10
100.0
 20
100.0
 30
100.0
  9
$PEXTMAX
 10
-100.0
 20
-100.0
 30
-100.0
  9
$PLIMMIN
 10
0.0
 20
0.0
  9
$PLIMMAX
 10
12.0
 20
9.0
  9
$UNITMODE
 70
     0
  9
$VISRETAIN
 70
     1
  9
$PLINEGEN
 70
     1
  9
$PSLTSCALE
 70
     1
  9
$TREEDEPTH
 70
  3020
  9
$CMLSTYLE
  2
STANDARD
  9
$CMLJUST
 70
     0
  9
$CMLSCALE
 40
1.0
  9
$PROXYGRAPHICS
 70
     1
  9
$MEASUREMENT
 70
     0
  9
$CELWEIGHT
370
    -1
  9
$ENDCAPS
280
     0
  9
$JOINSTYLE
280
     0
  9
$LWDISPLAY
290
     0
  9
$INSUNITS
 70
     0
  9
$HYPERLINKBASE
  1

  9
$STYLESHEET
  1

  9
$XEDIT
290
     1
  9
$CEPSNTYPE
380
     0
  9
$PSTYLEMODE
290
     1
  9
$FINGERPRINTGUID
  2
{970548BE-BC36-4420-93AE-19EB8BA042B5}
  9
$VERSIONGUID
  2
{4C07FB39-A625-4561-AC3A-BCC2D3696C06}
  9
$EXTNAMES
290
     1
  9
$PSVPSCALE
 40
0.0
  9
$OLESTARTUP
290
     0
  0
ENDSEC
  0
SECTION
  2
CLASSES
  0
CLASS
  1
ACDBDICTIONARYWDFLT
  2
AcDbDictionaryWithDefault
  3
ObjectDBX Classes
 90
        0
280
     0
281
     0
  0
CLASS
  1
ACDBPLACEHOLDER
  2
AcDbPlaceHolder
  3
ObjectDBX Classes
 90
        0
280
     0
281
     0
  0
CLASS
  1
LAYOUT
  2
AcDbLayout
  3
ObjectDBX Classes
 90
        0
280
     0
281
     0
  0
CLASS
  1
TABLESTYLE
  2
AcDbTableStyle
  3
ObjectDBX Classes
 90
     2047
280
     0
281
     0
  0
CLASS
  1
DICTIONARYVAR
  2
AcDbDictionaryVar
  3
ObjectDBX Classes
 90
        0
280
     0
281
     0
  0
ENDSEC
  0
SECTION
  2
TABLES
  0
TABLE
  2
VPORT
  5
8
330
0
100
AcDbSymbolTable
 70
     2
  0
VPORT
  5
F9DA
330
8
100
AcDbSymbolTableRecord
100
AcDbViewportTableRecord
  2
*Active
 70
     0
 10
0.0
 20
0.0
 11
1.0
 21
1.0
 12
11.63045622650576
 22
-1.567364741238861
 13
0.0
 23
0.0
 14
1.0
 24
1.0
 15
0.0
 25
0.0
 16
0.0
 26
0.0
 36
1.0
 17
0.0
 27
0.0
 37
0.0
 40
117.0288915775764
 41
1.532401524777636
 42
50.0
 43
0.0
 44
0.0
 50
0.0
 51
0.0
 71
     0
 72
   100
 73
     1
 74
     1
 75
     0
 76
     0
 77
     0
 78
     0
281
     0
 65
     1
110
0.0
120
0.0
130
0.0
111
1.0
121
0.0
131
0.0
112
0.0
122
1.0
132
0.0
 79
     0
146
0.0
  0
ENDTAB
  0
TABLE
  2
LTYPE
  5
5
330
0
100
AcDbSymbolTable
 70
     2
  0
LTYPE
  5
13
330
5
100
AcDbSymbolTableRecord
100
AcDbLinetypeTableRecord
  2
BYBLOCK
 70
     0
  3

 72
    65
 73
     0
 40
0.0
  0
LTYPE
  5
14
330
5
100
AcDbSymbolTableRecord
100
AcDbLinetypeTableRecord
  2
BYLAYER
 70
     0
  3

 72
    65
 73
     0
 40
0.0
  0
LTYPE
  5
15
330
5
100
AcDbSymbolTableRecord
100
AcDbLinetypeTableRecord
  2
CONTINUOUS
 70
     0
  3
Solid line
 72
    65
 73
     0
 40
0.0
  0
LTYPE
  5
28
330
5
100
AcDbSymbolTableRecord
100
AcDbLinetypeTableRecord
  2
CENTER
 70
     0
  3
____ _ ____ _ ____ _ ____ _ ____ _ ____ _ ____
 72
    65
 73
     4
 40
0.6
 49
0.375
 74
     0
 49
-0.075
 74
     0
 49
0.075
 74
     0
 49
-0.075
 74
     0
  0
ENDTAB
  0
TABLE
  2
LAYER
  5
2
330
0
100
AcDbSymbolTable
 70
    11
  0
LAYER
  5
10
330
2
100
AcDbSymbolTableRecord
100
AcDbLayerTableRecord
  2
1
 70
     0
 62
     4
  6
CONTINUOUS
370
    -3
390
F557
  0
LAYER
  5
2C
330
2
100
AcDbSymbolTableRecord
100
AcDbLayerTableRecord
  2
2
 70
     0
 62
     7
  6
CONTINUOUS
370
    -3
390
F557
  0
LAYER
  5
2E
330
2
100
AcDbSymbolTableRecord
100
AcDbLayerTableRecord
  2
4
 70
     0
 62
     2
  6
CENTER
370
    -3
390
F557
  0
LAYER
  5
31
330
2
100
AcDbSymbolTableRecord
100
AcDbLayerTableRecord
  2
0
 70
     0
 62
     7
  6
CONTINUOUS
370
    -3
390
F557
  0
LAYER
  5
2165
330
2
100
AcDbSymbolTableRecord
100
AcDbLayerTableRecord
  2
DEFPOINTS
 70
     0
 62
     7
  6
CONTINUOUS
290
     0
370
    -3
390
F557
  0
LAYER
  5
2166
330
2
100
AcDbSymbolTableRecord
100
AcDbLayerTableRecord
  2
SK1
 70
     0
 62
     4
  6
CONTINUOUS
370
    -3
390
F557
  0
LAYER
  5
2167
330
2
100
AcDbSymbolTableRecord
100
AcDbLayerTableRecord
  2
SK4
 70
     0
 62
     2
  6
CENTER
370
    -3
390
F557
  0
LAYER
  5
F698
330
2
100
AcDbSymbolTableRecord
100
AcDbLayerTableRecord
  2
6
 70
     0
 62
     5
  6
CONTINUOUS
370
    -3
390
F557
  0
LAYER
  5
F699
330
2
100
AcDbSymbolTableRecord
100
AcDbLayerTableRecord
  2
CUT
 70
     0
 62
     1
  6
CONTINUOUS
370
    -3
390
F557
  0
LAYER
  5
F69A
330
2
100
AcDbSymbolTableRecord
100
AcDbLayerTableRecord
  2
NOCUT
 70
     0
 62
     7
  6
CONTINUOUS
370
    -3
390
F557
  0
LAYER
  5
F69B
330
2
100
AcDbSymbolTableRecord
100
AcDbLayerTableRecord
  2
SK2
 70
     0
 62
     7
  6
CONTINUOUS
370
    -3
390
F557
  0
ENDTAB
  0
TABLE
  2
STYLE
  5
3
330
0
100
AcDbSymbolTable
 70
     1
  0
STYLE
  5
11
330
3
100
AcDbSymbolTableRecord
100
AcDbTextStyleTableRecord
  2
STANDARD
 70
     0
 40
0.0
 41
0.8
 50
0.0
 71
     0
 42
0.2
  3
isocp.shx
  4

  0
ENDTAB
  0
TABLE
  2
VIEW
  5
6
330
0
100
AcDbSymbolTable
 70
     0
  0
ENDTAB
  0
TABLE
  2
UCS
  5
7
330
0
100
AcDbSymbolTable
 70
     0
  0
ENDTAB
  0
TABLE
  2
APPID
  5
9
330
0
100
AcDbSymbolTable
 70
     1
  0
APPID
  5
12
330
9
100
AcDbSymbolTableRecord
100
AcDbRegAppTableRecord
  2
ACAD
 70
     0
  0
ENDTAB
  0
TABLE
  2
DIMSTYLE
  5
A
330
0
100
AcDbSymbolTable
 70
     1
100
AcDbDimStyleTable
 71
     0
  0
DIMSTYLE
105
2168
102
{ACAD_REACTORS
330
66
330
64
330
63
330
65
102
}
330
A
100
AcDbSymbolTableRecord
100
AcDbDimStyleTableRecord
  2
ISO-25
 70
     0
 41
3.5
 42
0.625
 43
3.75
 44
2.0
 73
     0
 74
     0
 77
     1
 78
     8
140
3.5
141
2.5
143
0.03937007874016
147
0.625
171
     3
172
     1
176
   256
177
   256
178
   256
271
     2
272
     2
274
     3
283
     0
284
     8
340
11
  0
ENDTAB
  0
TABLE
  2
BLOCK_RECORD
  5
1
330
0
100
AcDbSymbolTable
 70
     4
  0
BLOCK_RECORD
  5
1E
102
{ACAD_XDICTIONARY
360
5D04
102
}
330
1
100
AcDbSymbolTableRecord
100
AcDbBlockTableRecord
  2
*MODEL_SPACE
340
F558
  0
BLOCK_RECORD
  5
1A
102
{ACAD_XDICTIONARY
360
5D02
102
}
330
1
100
AcDbSymbolTableRecord
100
AcDbBlockTableRecord
  2
*PAPER_SPACE
340
F559
  0
BLOCK_RECORD
  5
22E1
330
1
100
AcDbSymbolTableRecord
100
AcDbBlockTableRecord
  2
*D0
340
0
  0
BLOCK_RECORD
  5
22ED
330
1
100
AcDbSymbolTableRecord
100
AcDbBlockTableRecord
  2
*D1
340
0
  0
BLOCK_RECORD
  5
22F9
330
1
100
AcDbSymbolTableRecord
100
AcDbBlockTableRecord
  2
*D2
340
0
  0
BLOCK_RECORD
  5
2305
330
1
100
AcDbSymbolTableRecord
100
AcDbBlockTableRecord
  2
*D3
340
0
  0
ENDTAB
  0
ENDSEC
  0
SECTION
  2
BLOCKS
  0
BLOCK
  5
35
330
1E
100
AcDbEntity
  8
0
100
AcDbBlockBegin
  2
*MODEL_SPACE
 70
     0
 10
0.0
 20
0.0
 30
0.0
  3
*MODEL_SPACE
  1

  0
ENDBLK
  5
36
330
1E
100
AcDbEntity
  8
0
100
AcDbBlockEnd
  0
BLOCK
  5
33
330
1A
100
AcDbEntity
 67
     1
  8
0
100
AcDbBlockBegin
  2
*PAPER_SPACE
 70
     0
 10
0.0
 20
0.0
 30
0.0
  3
*PAPER_SPACE
  1

  0
ENDBLK
  5
34
330
1A
100
AcDbEntity
 67
     1
  8
0
100
AcDbBlockEnd
  0
BLOCK
  5
22EB
330
22E1
100
AcDbEntity
  8
0
100
AcDbBlockBegin
  2
*D0
 70
     1
 10
0.0
 20
0.0
 30
0.0
  3
*D0
  1

  0
LINE
  5
F57E
330
22E1
100
AcDbEntity
  8
2
370
    -2
100
AcDbLine
 10
25.625
 20
39.99999999999996
 30
0.0
 11
50.39850269189996
 21
39.99999999999996
 31
0.0
  0
LINE
  5
F57F
330
22E1
100
AcDbEntity
  8
2
370
    -2
100
AcDbLine
 10
25.625
 20
-40.0
 30
0.0
 11
50.39850269189996
 21
-40.0
 31
0.0
  0
LINE
  5
F580
330
22E1
100
AcDbEntity
  8
2
370
    -2
100
AcDbLine
 10
48.39850269189998
 20
36.49999999999997
 30
0.0
 11
48.39850269189995
 21
-36.5
 31
0.0
  0
SOLID
  5
F581
330
22E1
100
AcDbEntity
  8
2
100
AcDbTrace
 10
47.81516935856664
 20
36.49999999999997
 30
0.0
 11
48.98183602523332
 21
36.49999999999997
 31
0.0
 12
48.39850269189998
 22
39.99999999999996
 32
0.0
 13
48.39850269189998
 23
39.99999999999996
 33
0.0
  0
SOLID
  5
F582
330
22E1
100
AcDbEntity
  8
2
100
AcDbTrace
 10
47.81516935856664
 20
-36.5
 30
0.0
 11
48.98183602523332
 21
-36.5
 31
0.0
 12
48.39850269189995
 22
-40.0
 32
0.0
 13
48.39850269189995
 23
-40.0
 33
0.0
  0
MTEXT
  5
F583
330
22E1
100
AcDbEntity
  8
2
100
AcDbMText
 10
46.02350269189996
 20
-0.000000000000034
 30
0.0
 40
3.5
 41
0.0
 71
     5
 72
     1
  1
%%c80
 11
0.0000000000000001
 21
1.0
 31
0.0
 73
     1
 44
1.0
1001
ACAD
1000
MTEXTBEGIN
1070
    73
1070
     1
1070
    44
1040
1.0
1070
    74
1070
     0
1000
MTEXTEND
  0
POINT
  5
F584
330
22E1
100
AcDbEntity
  8
DEFPOINTS
 62
     0
100
AcDbPoint
 10
25.0
 20
39.99999999999996
 30
0.0
  0
POINT
  5
F585
330
22E1
100
AcDbEntity
  8
DEFPOINTS
 62
     0
100
AcDbPoint
 10
25.0
 20
-40.0
 30
0.0
  0
POINT
  5
F586
330
22E1
100
AcDbEntity
  8
DEFPOINTS
 62
     0
100
AcDbPoint
 10
48.39850269189995
 20
-40.0
 30
0.0
  0
ENDBLK
  5
22EC
330
22E1
100
AcDbEntity
  8
0
100
AcDbBlockEnd
  0
BLOCK
  5
22F7
330
22ED
100
AcDbEntity
  8
0
100
AcDbBlockBegin
  2
*D1
 70
     1
 10
0.0
 20
0.0
 30
0.0
  3
*D1
  1

  0
LINE
  5
F9C8
330
22ED
100
AcDbEntity
  8
SK2
370
    -2
100
AcDbLine
 10
2.374999999999995
 20
-34.5
 30
0.0
 11
-52.375
 21
-34.49999999999997
 31
0.0
  0
LINE
  5
F9C9
330
22ED
100
AcDbEntity
  8
SK2
370
    -2
100
AcDbLine
 10
2.375000000000003
 20
34.49999999999997
 30
0.0
 11
-52.37499999999999
 21
34.49999999999997
 31
0.0
  0
LINE
  5
F9CA
330
22ED
100
AcDbEntity
  8
SK2
370
    -2
100
AcDbLine
 10
-50.37500000000001
 20
-30.99999999999999
 30
0.0
 11
-50.37499999999999
 21
30.99999999999996
 31
0.0
  0
SOLID
  5
F9CB
330
22ED
100
AcDbEntity
  8
SK2
100
AcDbTrace
 10
-50.95833333333334
 20
-30.99999999999999
 30
0.0
 11
-49.79166666666667
 21
-30.99999999999999
 31
0.0
 12
-50.37500000000001
 22
-34.49999999999997
 32
0.0
 13
-50.37500000000001
 23
-34.49999999999997
 33
0.0
  0
SOLID
  5
F9CC
330
22ED
100
AcDbEntity
  8
SK2
100
AcDbTrace
 10
-50.95833333333333
 20
30.99999999999996
 30
0.0
 11
-49.79166666666666
 21
30.99999999999996
 31
0.0
 12
-50.37499999999999
 22
34.49999999999997
 32
0.0
 13
-50.37499999999999
 23
34.49999999999997
 33
0.0
  0
MTEXT
  5
F9CD
330
22ED
100
AcDbEntity
  8
SK2
100
AcDbMText
 10
-52.75
 20
-0.0000000000000219
 30
0.0
 40
3.5
 41
0.0
 71
     5
 72
     1
  1
%%c69
 11
0.0000000000000001
 21
1.0
 31
0.0
 73
     1
 44
1.0
1001
ACAD
1000
MTEXTBEGIN
1070
    73
1070
     1
1070
    44
1040
1.0
1070
    74
1070
     0
1000
MTEXTEND
  0
POINT
  5
F9CE
330
22ED
100
AcDbEntity
  8
DEFPOINTS
 62
     0
100
AcDbPoint
 10
2.999999999999995
 20
-34.5
 30
0.0
  0
POINT
  5
F9CF
330
22ED
100
AcDbEntity
  8
DEFPOINTS
 62
     0
100
AcDbPoint
 10
3.000000000000003
 20
34.49999999999997
 30
0.0
  0
POINT
  5
F9D0
330
22ED
100
AcDbEntity
  8
DEFPOINTS
 62
     0
100
AcDbPoint
 10
-50.37499999999999
 20
34.49999999999997
 30
0.0
  0
ENDBLK
  5
22F8
330
22ED
100
AcDbEntity
  8
0
100
AcDbBlockEnd
  0
BLOCK
  5
2303
330
22F9
100
AcDbEntity
  8
0
100
AcDbBlockBegin
  2
*D2
 70
     1
 10
0.0
 20
0.0
 30
0.0
  3
*D2
  1

  0
LINE
  5
F563
330
22F9
100
AcDbEntity
  8
2
370
    -2
100
AcDbLine
 10
28.17499999999998
 20
-31.5833177865
 30
0.0
 11
28.17499999999998
 21
54.37499999999997
 31
0.0
  0
LINE
  5
F564
330
22F9
100
AcDbEntity
  8
2
370
    -2
100
AcDbLine
 10
-0.0000000000000038
 20
-30.875
 30
0.0
 11
0.0000000000000014
 21
54.37499999999997
 31
0.0
  0
LINE
  5
F565
330
22F9
100
AcDbEntity
  8
2
370
    -2
100
AcDbLine
 10
24.67499999999998
 20
52.37499999999997
 30
0.0
 11
3.500000000000001
 21
52.37499999999997
 31
0.0
  0
SOLID
  5
F566
330
22F9
100
AcDbEntity
  8
2
100
AcDbTrace
 10
24.67499999999998
 20
52.9583333333333
 30
0.0
 11
24.67499999999998
 21
51.79166666666663
 31
0.0
 12
28.17499999999998
 22
52.37499999999997
 32
0.0
 13
28.17499999999998
 23
52.37499999999997
 33
0.0
  0
SOLID
  5
F567
330
22F9
100
AcDbEntity
  8
2
100
AcDbTrace
 10
3.500000000000001
 20
52.9583333333333
 30
0.0
 11
3.500000000000001
 21
51.79166666666663
 31
0.0
 12
0.0000000000000013
 22
52.37499999999997
 32
0.0
 13
0.0000000000000013
 23
52.37499999999997
 33
0.0
  0
MTEXT
  5
F568
330
22F9
100
AcDbEntity
  8
2
100
AcDbMText
 10
14.08749999999998
 20
54.75034448818895
 30
0.0
 40
3.5
 41
0.0
 71
     5
 72
     1
  1
28.17
 73
     1
 44
1.0
1001
ACAD
1000
MTEXTBEGIN
1070
    73
1070
     1
1070
    44
1040
1.0
1070
    74
1070
     0
1000
MTEXTEND
  0
POINT
  5
F569
330
22F9
100
AcDbEntity
  8
DEFPOINTS
 62
     0
100
AcDbPoint
 10
28.17499999999998
 20
-32.2083177865
 30
0.0
  0
POINT
  5
F56A
330
22F9
100
AcDbEntity
  8
DEFPOINTS
 62
     0
100
AcDbPoint
 10
-0.0000000000000039
 20
-31.5
 30
0.0
  0
POINT
  5
F56B
330
22F9
100
AcDbEntity
  8
DEFPOINTS
 62
     0
100
AcDbPoint
 10
0.0000000000000013
 20
52.37499999999997
 30
0.0
  0
ENDBLK
  5
2304
330
22F9
100
AcDbEntity
  8
0
100
AcDbBlockEnd
  0
BLOCK
  5
230F
330
2305
100
AcDbEntity
  8
0
100
AcDbBlockBegin
  2
*D3
 70
     1
 10
0.0
 20
0.0
 30
0.0
  3
*D3
  1

  0
LINE
  5
F575
330
2305
100
AcDbEntity
  8
2
370
    -2
100
AcDbLine
 10
-0.0000000000000035
 20
-28.70744368610002
 30
0.0
 11
-0.0000000000000054
 21
-59.625
 31
0.0
  0
LINE
  5
F576
330
2305
100
AcDbEntity
  8
2
370
    -2
100
AcDbLine
 10
25.0
 20
-40.625
 30
0.0
 11
25.0
 21
-59.625
 31
0.0
  0
LINE
  5
F577
330
2305
100
AcDbEntity
  8
2
370
    -2
100
AcDbLine
 10
3.499999999999993
 20
-57.625
 30
0.0
 11
21.49999999999999
 21
-57.625
 31
0.0
  0
SOLID
  5
F578
330
2305
100
AcDbEntity
  8
2
100
AcDbTrace
 10
3.499999999999993
 20
-57.04166666666665
 30
0.0
 11
3.499999999999993
 21
-58.20833333333332
 31
0.0
 12
-0.0000000000000052
 22
-57.625
 32
0.0
 13
-0.0000000000000052
 23
-57.625
 33
0.0
  0
SOLID
  5
F579
330
2305
100
AcDbEntity
  8
2
100
AcDbTrace
 10
21.49999999999999
 20
-57.04166666666665
 30
0.0
 11
21.49999999999999
 21
-58.20833333333332
 31
0.0
 12
25.0
 22
-57.625
 32
0.0
 13
25.0
 23
-57.625
 33
0.0
  0
MTEXT
  5
F57A
330
2305
100
AcDbEntity
  8
2
100
AcDbMText
 10
8.842106528672944
 20
-55.24965551181103
 30
0.0
 40
3.5
 41
0.0
 71
     5
 72
     1
  1
25
 73
     1
 44
1.0
1001
ACAD
1000
MTEXTBEGIN
1070
    73
1070
     1
1070
    44
1040
1.0
1070
    74
1070
     0
1000
MTEXTEND
  0
POINT
  5
F57B
330
2305
100
AcDbEntity
  8
DEFPOINTS
 62
     0
100
AcDbPoint
 10
-0.0000000000000034
 20
-28.08244368610002
 30
0.0
  0
POINT
  5
F57C
330
2305
100
AcDbEntity
  8
DEFPOINTS
 62
     0
100
AcDbPoint
 10
25.0
 20
-40.0
 30
0.0
  0
POINT
  5
F57D
330
2305
100
AcDbEntity
  8
DEFPOINTS
 62
     0
100
AcDbPoint
 10
25.0
 20
-57.625
 30
0.0
  0
ENDBLK
  5
2310
330
2305
100
AcDbEntity
  8
0
100
AcDbBlockEnd
  0
ENDSEC
  0
SECTION
  2
ENTITIES
  0
DIMENSION
  5
63
330
1E
100
AcDbEntity
  8
2
100
AcDbDimension
  2
*D2
 10
0.0000000000000013
 20
52.37499999999997
 30
0.0
 11
14.08749999999998
 21
52.37499999999997
 31
0.0
 70
   160
 71
     5
 42
28.17499999999998
  3
ISO-25
100
AcDbAlignedDimension
 13
28.17499999999998
 23
-32.2083177865
 33
0.0
 14
-0.0000000000000039
 24
-31.5
 34
0.0
 50
180.0
100
AcDbRotatedDimension
  0
DIMENSION
  5
64
330
1E
100
AcDbEntity
  8
SK2
100
AcDbDimension
  2
*D1
 10
-50.37499999999999
 20
34.49999999999997
 30
0.0
 11
-50.375
 21
-0.0000000000000222
 31
0.0
 70
   160
  1
%%c<>
 71
     5
 42
68.99999999999997
  3
ISO-25
100
AcDbAlignedDimension
 13
2.999999999999995
 23
-34.5
 33
0.0
 14
3.000000000000003
 24
34.49999999999997
 34
0.0
 50
89.99999999999998
100
AcDbRotatedDimension
  0
DIMENSION
  5
65
330
1E
100
AcDbEntity
  8
2
100
AcDbDimension
  2
*D3
 10
25.0
 20
-57.625
 30
0.0
 11
8.842106528672944
 21
-57.625
 31
0.0
 70
   160
 71
     5
 42
25.0
  3
ISO-25
100
AcDbAlignedDimension
 13
-0.0000000000000034
 23
-28.08244368610002
 33
0.0
 14
25.0
 24
-40.0
 34
0.0
100
AcDbRotatedDimension
  0
DIMENSION
  5
66
330
1E
100
AcDbEntity
  8
2
100
AcDbDimension
  2
*D0
 10
48.39850269189995
 20
-40.0
 30
0.0
 11
48.39850269189998
 21
-0.0000000000000343
 31
0.0
 70
   160
  1
%%c<>
 71
     5
 42
79.99999999999997
  3
ISO-25
100
AcDbAlignedDimension
 13
25.0
 23
39.99999999999996
 33
0.0
 14
25.0
 24
-40.0
 34
0.0
 50
270.0
100
AcDbRotatedDimension
  0
LINE
  5
6C
330
1E
100
AcDbEntity
  8
1
100
AcDbLine
 10
28.09149390079999
 20
-33.00808023740001
 30
0.0
 11
28.17499999999998
 21
-32.86622636870004
 31
0.0
  0
LINE
  5
6D
330
1E
100
AcDbEntity
  8
1
100
AcDbLine
 10
27.1112764355
 20
-33.0948451159
 30
0.0
 11
25.21757403269998
 21
-35.94689126920002
 31
0.0
  0
LINE
  5
6E
330
1E
100
AcDbEntity
  8
1
100
AcDbLine
 10
25.09999999999999
 20
-36.09552023430001
 30
0.0
 11
25.21757403269998
 21
-35.94689126920002
 31
0.0
  0
LINE
  5
6F
330
1E
100
AcDbEntity
  8
1
100
AcDbLine
 10
28.01626042649998
 20
-32.40898538280004
 30
0.0
 11
28.17499999999998
 21
-32.2083177865
 31
0.0
  0
LINE
  5
70
330
1E
100
AcDbEntity
  8
1
100
AcDbLine
 10
28.01626042649998
 20
33.41948802059997
 30
0.0
 11
27.82449547310001
 21
33.73078916529996
 31
0.0
  0
LINE
  5
71
330
1E
100
AcDbEntity
  8
1
100
AcDbLine
 10
25.1
 20
38.37851005999997
 30
0.0
 11
25.21757403269999
 21
38.17857859499996
 31
0.0
  0
LINE
  5
72
330
1E
100
AcDbEntity
  8
1
100
AcDbLine
 10
28.01626042649998
 20
33.41948802059997
 30
0.0
 11
28.17499999999999
 21
33.14955566599997
 31
0.0
  0
LINE
  5
73
330
1E
100
AcDbEntity
  8
1
100
AcDbLine
 10
27.11127643550002
 20
34.94046529649998
 30
0.0
 11
25.21757403269999
 21
38.17857859499996
 31
0.0
  0
LINE
  5
74
330
1E
100
AcDbEntity
  8
1
100
AcDbLine
 10
25.09999999999999
 20
-27.59756153350001
 30
0.0
 11
25.21757403269998
 21
-27.44893256840005
 31
0.0
  0
LINE
  5
75
330
1E
100
AcDbEntity
  8
1
100
AcDbLine
 10
28.09370438649997
 20
-23.81312738090002
 30
0.0
 11
28.17499999999998
 21
-23.71035908580001
 31
0.0
  0
LINE
  5
76
330
1E
100
AcDbEntity
  8
1
100
AcDbLine
 10
25.21757403269998
 20
-27.44893256840005
 30
0.0
 11
27.1112764355
 21
-25.51320336180003
 31
0.0
  0
LINE
  5
77
330
1E
100
AcDbEntity
  8
1
100
AcDbLine
 10
21.98373957349998
 20
-32.40898538280004
 30
0.0
 11
22.17550452689998
 21
-32.27334258900004
 31
0.0
  0
LINE
  5
78
330
1E
100
AcDbEntity
  8
1
100
AcDbLine
 10
24.89999999999997
 20
38.37851005999997
 30
0.0
 11
25.1
 21
38.37851005999997
 31
0.0
  0
LINE
  5
79
330
1E
100
AcDbEntity
  8
1
100
AcDbLine
 10
25.1
 20
28.13067405039999
 30
0.0
 11
25.21757403269999
 21
27.98680609029998
 31
0.0
  0
LINE
  5
7A
330
1E
100
AcDbEntity
  8
1
100
AcDbLine
 10
28.01626042649998
 20
24.56222930979999
 30
0.0
 11
28.17499999999999
 21
24.36798966269998
 31
0.0
  0
LINE
  5
7B
330
1E
100
AcDbEntity
  8
1
100
AcDbLine
 10
25.21757403269999
 20
27.98680609029998
 30
0.0
 11
27.11127643550002
 21
25.19396387129998
 31
0.0
  0
LINE
  5
7C
330
1E
100
AcDbEntity
  8
1
100
AcDbLine
 10
27.8244954731
 20
-24.53150147340001
 30
0.0
 11
27.89193664019999
 21
-24.31328879510004
 31
0.0
  0
LINE
  5
7E
330
1E
100
AcDbEntity
  8
1
100
AcDbLine
 10
27.11127643550002
 20
34.94046529649998
 30
0.0
 11
22.88872356439998
 21
34.94046529649998
 31
0.0
  0
LINE
  5
91
330
1E
100
AcDbEntity
  8
1
100
AcDbLine
 10
22.17550452689998
 20
24.40439806099996
 30
0.0
 11
21.98373957349998
 21
24.56222930979999
 31
0.0
  0
LINE
  5
92
330
1E
100
AcDbEntity
  8
1
100
AcDbLine
 10
28.01626042649998
 20
15.74006800499998
 30
0.0
 11
27.82449547310001
 21
16.36720071479996
 31
0.0
  0
LINE
  5
93
330
1E
100
AcDbEntity
  8
1
100
AcDbLine
 10
28.17499999999998
 20
-32.86622636870004
 30
0.0
 11
28.17499999999998
 21
-32.2083177865
 31
0.0
  0
LINE
  5
94
330
1E
100
AcDbEntity
  8
1
100
AcDbLine
 10
28.17499999999998
 20
-17.32785505590003
 30
0.0
 11
28.17499999999998
 21
-12.78385245539999
 31
0.0
  0
LINE
  5
95
330
1E
100
AcDbEntity
  8
1
100
AcDbLine
 10
28.17499999999998
 20
0.2081455956999854
 30
0.0
 11
28.17499999999998
 21
9.367773936899956
 31
0.0
  0
LINE
  5
96
330
1E
100
AcDbEntity
  8
1
100
AcDbLine
 10
28.17499999999999
 20
33.14955566599997
 30
0.0
 11
28.17499999999999
 21
24.36798966269998
 31
0.0
  0
LINE
  5
97
330
1E
100
AcDbEntity
  8
1
100
AcDbLine
 10
28.17499999999999
 20
24.36798966269998
 30
0.0
 11
28.17499999999998
 21
9.367773936899956
 31
0.0
  0
LINE
  5
98
330
1E
100
AcDbEntity
  8
1
100
AcDbLine
 10
28.17499999999998
 20
0.2081455956999854
 30
0.0
 11
28.17499999999998
 21
-12.78385245539999
 31
0.0
  0
LINE
  5
99
330
1E
100
AcDbEntity
  8
1
100
AcDbLine
 10
28.17499999999998
 20
-17.32785505590003
 30
0.0
 11
28.17499999999998
 21
-32.2083177865
 31
0.0
  0
LINE
  5
9A
330
1E
100
AcDbEntity
  8
1
100
AcDbLine
 10
28.09999999999999
 20
-23.7304647542
 30
0.0
 11
28.09999999999999
 21
-12.793276188
 31
0.0
  0
LINE
  5
9B
330
1E
100
AcDbEntity
  8
1
100
AcDbLine
 10
28.09999999999999
 20
-0.0925331528000335
 30
0.0
 11
28.09999999999999
 21
14.04560692079996
 31
0.0
  0
LINE
  5
9C
330
1E
100
AcDbEntity
  8
1
100
AcDbLine
 10
28.1
 20
24.45976245259998
 30
0.0
 11
28.1
 21
31.06471711269998
 31
0.0
  0
LINE
  5
9D
330
1E
100
AcDbEntity
  8
1
100
AcDbLine
 10
28.09999999999999
 20
-32.30312760230003
 30
0.0
 11
28.09999999999999
 21
-32.89975907080003
 31
0.0
  0
LINE
  5
B0
330
1E
100
AcDbEntity
  8
1
100
AcDbLine
 10
21.82499999999999
 20
34.49999999999997
 30
0.0
 11
11.34685875109997
 21
34.49999999999997
 31
0.0
  0
LINE
  5
B1
330
1E
100
AcDbEntity
  8
1
100
AcDbLine
 10
8.653141248799981
 20
34.49999999999997
 30
0.0
 11
3.000000000000003
 21
34.49999999999997
 31
0.0
  0
LINE
  5
B2
330
1E
100
AcDbEntity
  8
1
100
AcDbLine
 10
22.60085055299998
 20
34.44439156279997
 30
0.0
 11
22.53210678119998
 21
34.44439156279997
 31
0.0
  0
LINE
  5
B3
330
1E
100
AcDbEntity
  8
1
100
AcDbLine
 10
21.98373957349998
 20
33.41948802059997
 30
0.0
 11
28.01626042649998
 21
33.41948802059997
 31
0.0
  0
LINE
  5
B4
330
1E
100
AcDbEntity
  8
1
100
AcDbLine
 10
26.5
 20
32.76922123219998
 30
0.0
 11
22.53210678119998
 21
32.76922123219998
 31
0.0
  0
LINE
  5
B5
330
1E
100
AcDbEntity
  8
1
100
AcDbLine
 10
27.11127643550002
 20
17.32307759559997
 30
0.0
 11
25.21757403269999
 21
19.16464478549996
 31
0.0
  0
LINE
  5
B6
330
1E
100
AcDbEntity
  8
1
100
AcDbLine
 10
25.1
 20
19.30851274559998
 30
0.0
 11
25.21757403269999
 21
19.16464478549996
 31
0.0
  0
LINE
  5
B7
330
1E
100
AcDbEntity
  8
1
100
AcDbLine
 10
28.01626042649998
 20
15.74006800499998
 30
0.0
 11
28.17499999999999
 21
15.54582835779999
 31
0.0
  0
LINE
  5
B8
330
1E
100
AcDbEntity
  8
1
100
AcDbLine
 10
25.1
 20
28.13067405039999
 30
0.0
 11
25.1
 21
19.30851274559998
 31
0.0
  0
LINE
  5
B9
330
1E
100
AcDbEntity
  8
1
100
AcDbLine
 10
25.09999999999999
 20
-0.274139384400033
 30
0.0
 11
25.09999999999999
 21
-12.96640288750001
 31
0.0
  0
LINE
  5
BA
330
1E
100
AcDbEntity
  8
1
100
AcDbLine
 10
25.09999999999999
 20
-27.59756153350001
 30
0.0
 11
25.09999999999999
 21
-36.09552023430001
 31
0.0
  0
LINE
  5
BB
330
1E
100
AcDbEntity
  8
1
100
AcDbLine
 10
24.89999999999997
 20
28.13067405039999
 30
0.0
 11
24.89999999999997
 21
19.30851274559998
 31
0.0
  0
LINE
  5
BC
330
1E
100
AcDbEntity
  8
1
100
AcDbLine
 10
24.89999999999997
 20
-0.274139384400033
 30
0.0
 11
24.89999999999997
 21
-12.96640288750001
 31
0.0
  0
LINE
  5
BD
330
1E
100
AcDbEntity
  8
1
100
AcDbLine
 10
24.89999999999997
 20
-27.59756153350001
 30
0.0
 11
24.89999999999997
 21
-36.09552023430001
 31
0.0
  0
LINE
  5
BE
330
1E
100
AcDbEntity
  8
1
100
AcDbLine
 10
27.8244954731
 20
-0.6770528193000338
 30
0.0
 11
28.0130584625
 21
-0.1106310209000332
 31
0.0
  0
LINE
  5
BF
330
1E
100
AcDbEntity
  8
1
100
AcDbLine
 10
21.98373957349998
 20
-12.793276188
 30
0.0
 11
22.17550452689998
 21
-12.24000468790001
 31
0.0
  0
LINE
  5
C0
330
1E
100
AcDbEntity
  8
1
100
AcDbLine
 10
24.89999999999997
 20
28.13067405039999
 30
0.0
 11
25.1
 21
28.13067405039999
 31
0.0
  0
LINE
  5
DE
330
1E
100
AcDbEntity
  8
1
100
AcDbLine
 10
22.53210678119998
 20
24.58212596889998
 30
0.0
 11
22.53210678119998
 21
25.53896045439998
 31
0.0
  0
LINE
  5
DF
330
1E
100
AcDbEntity
  8
1
100
AcDbLine
 10
22.53210678119998
 20
34.32743589669996
 30
0.0
 11
22.53210678119998
 21
34.44439156279997
 31
0.0
  0
LINE
  5
E0
330
1E
100
AcDbEntity
  8
1
100
AcDbLine
 10
21.82499999999999
 20
16.33943798179998
 30
0.0
 11
21.82499999999999
 21
25.05811776189998
 31
0.0
  0
LINE
  5
E1
330
1E
100
AcDbEntity
  8
1
100
AcDbLine
 10
21.82499999999999
 20
32.14689430909996
 30
0.0
 11
21.82499999999999
 21
33.14955566599997
 31
0.0
  0
LINE
  5
E2
330
1E
100
AcDbEntity
  8
1
100
AcDbLine
 10
21.82499999999999
 20
33.14955566599997
 30
0.0
 11
21.82499999999999
 21
34.49999999999997
 31
0.0
  0
LINE
  5
E3
330
1E
100
AcDbEntity
  8
1
100
AcDbLine
 10
21.82499999999999
 20
16.33943798179998
 30
0.0
 11
21.82499999999999
 21
14.55196288629996
 31
0.0
  0
LINE
  5
E4
330
1E
100
AcDbEntity
  8
1
100
AcDbLine
 10
21.82499999999998
 20
0.2081455956999862
 30
0.0
 11
21.82499999999998
 21
-0.7982649831000144
 31
0.0
  0
LINE
  5
E5
330
1E
100
AcDbEntity
  8
1
100
AcDbLine
 10
21.82499999999998
 20
-0.7982649831000144
 30
0.0
 11
21.82499999999998
 21
-11.64210247859998
 31
0.0
  0
LINE
  5
E6
330
1E
100
AcDbEntity
  8
1
100
AcDbLine
 10
21.82499999999998
 20
-11.64210247859998
 30
0.0
 11
21.82499999999998
 21
-12.78385245539999
 31
0.0
  0
LINE
  5
E7
330
1E
100
AcDbEntity
  8
1
100
AcDbLine
 10
21.82499999999998
 20
-24.65448932680005
 30
0.0
 11
21.82499999999998
 21
-31.44387225260004
 31
0.0
  0
LINE
  5
E8
330
1E
100
AcDbEntity
  8
1
100
AcDbLine
 10
21.82499999999998
 20
-31.44387225260004
 30
0.0
 11
21.82499999999998
 21
-32.2083177865
 31
0.0
  0
LINE
  5
108
330
1E
100
AcDbEntity
  8
1
100
AcDbLine
 10
23.12265044149998
 20
25.53896045439998
 30
0.0
 11
22.53210678119998
 21
25.53896045439998
 31
0.0
  0
LINE
  5
109
330
1E
100
AcDbEntity
  8
1
100
AcDbLine
 10
28.01626042649998
 20
24.56222930979999
 30
0.0
 11
27.48492011969998
 21
24.56222930979999
 31
0.0
  0
LINE
  5
10A
330
1E
100
AcDbEntity
  8
1
100
AcDbLine
 10
22.51507988019996
 20
24.56222930979999
 30
0.0
 11
21.98373957349998
 21
24.56222930979999
 31
0.0
  0
LINE
  5
10C
330
1E
100
AcDbEntity
  8
1
100
AcDbLine
 10
28.01626042649998
 20
-12.793276188
 30
0.0
 11
27.8244954731
 21
-12.24000468790001
 31
0.0
  0
LINE
  5
10D
330
1E
100
AcDbEntity
  8
1
100
AcDbLine
 10
22.17550452689998
 20
-0.677052819300033
 30
0.0
 11
21.98373957349998
 21
-0.1010126849000157
 31
0.0
  0
LINE
  5
10F
330
1E
100
AcDbEntity
  8
1
100
AcDbLine
 10
27.1112764355
 20
-12.1627114729
 30
0.0
 11
25.21757403269998
 21
-12.95942298820003
 31
0.0
  0
LINE
  5
110
330
1E
100
AcDbEntity
  8
1
100
AcDbLine
 10
21.98373957349998
 20
15.74006800499998
 30
0.0
 11
22.17550452689998
 21
16.36720071479996
 31
0.0
  0
LINE
  5
111
330
1E
100
AcDbEntity
  8
1
100
AcDbLine
 10
28.17499999999998
 20
9.367773936899956
 30
0.0
 11
28.09999999999999
 21
9.27600114689997
 31
0.0
  0
LINE
  5
112
330
1E
100
AcDbEntity
  8
SK1
100
AcDbLine
 10
-30.0
 20
16.99999999999997
 30
0.0
 11
-35.602853411
 21
16.59999999999996
 31
0.0
  0
LINE
  5
113
330
1E
100
AcDbEntity
  8
1
100
AcDbLine
 10
24.89999999999997
 20
19.30851274559998
 30
0.0
 11
25.1
 21
19.30851274559998
 31
0.0
  0
LINE
  5
114
330
1E
100
AcDbEntity
  8
1
100
AcDbLine
 10
24.78242596729999
 20
19.16464478549996
 30
0.0
 11
25.21757403269999
 21
19.16464478549996
 31
0.0
  0
LINE
  5
115
330
1E
100
AcDbEntity
  8
1
100
AcDbLine
 10
27.11127643550002
 20
17.32307759559997
 30
0.0
 11
22.88872356439998
 21
17.32307759559997
 31
0.0
  0
LINE
  5
116
330
1E
100
AcDbEntity
  8
1
100
AcDbLine
 10
22.87458308519996
 20
17.32408538899996
 30
0.0
 11
22.88872356439998
 21
17.32307759559997
 31
0.0
  0
LINE
  5
11B
330
1E
100
AcDbEntity
  8
1
100
AcDbLine
 10
28.17499999999999
 20
24.56399241319997
 30
0.0
 11
28.1079701212
 21
24.45000991589998
 31
0.0
  0
LINE
  5
11C
330
1E
100
AcDbEntity
  8
1
100
AcDbLine
 10
27.12541691469999
 20
17.32408538899996
 30
0.0
 11
27.11127643550002
 21
17.32307759559997
 31
0.0
  0
LINE
  5
11D
330
1E
100
AcDbEntity
  8
SK1
100
AcDbLine
 10
-2.499999999999996
 20
16.99999999999997
 30
0.0
 11
-8.499999999999998
 21
16.99999999999997
 31
0.0
  0
LINE
  5
11E
330
1E
100
AcDbEntity
  8
SK1
100
AcDbLine
 10
-25.5
 20
16.99999999999997
 30
0.0
 11
-30.0
 21
16.99999999999997
 31
0.0
  0
LINE
  5
11F
330
1E
100
AcDbEntity
  8
SK1
100
AcDbLine
 10
-0.4000000000000039
 20
16.69999999999999
 30
0.0
 11
-1.301393259200009
 21
16.69999999999999
 31
0.0
  0
LINE
  5
120
330
1E
100
AcDbEntity
  8
1
100
AcDbLine
 10
21.98373957349998
 20
15.74006800499998
 30
0.0
 11
28.01626042649998
 21
15.74006800499998
 31
0.0
  0
LINE
  5
121
330
1E
100
AcDbEntity
  8
1
100
AcDbLine
 10
26.5
 20
15.27214487769998
 30
0.0
 11
22.53210678119998
 21
15.27214487769998
 31
0.0
  0
LINE
  5
122
330
1E
100
AcDbEntity
  8
SK1
100
AcDbLine
 10
-1.456684686300004
 20
16.72044450429999
 30
0.0
 11
-1.301393259200009
 21
16.69999999999999
 31
0.0
  0
LINE
  5
123
330
1E
100
AcDbEntity
  8
SK1
100
AcDbLine
 10
-1.456684686300004
 20
16.72044450429999
 30
0.0
 11
-2.499999999999996
 21
16.99999999999997
 31
0.0
  0
LINE
  5
124
330
1E
100
AcDbEntity
  8
1
100
AcDbLine
 10
28.17499999999998
 20
-17.32785505590003
 30
0.0
 11
28.09999999999999
 21
-17.2330452401
 31
0.0
  0
LINE
  5
138
330
1E
100
AcDbEntity
  8
1
100
AcDbLine
 10
24.78242596729999
 20
27.98680609029998
 30
0.0
 11
22.88872356439998
 21
25.19396387129998
 31
0.0
  0
LINE
  5
139
330
1E
100
AcDbEntity
  8
1
100
AcDbLine
 10
21.82499999999999
 20
15.54582835779999
 30
0.0
 11
21.98373957349998
 21
15.74006800499998
 31
0.0
  0
LINE
  5
13A
330
1E
100
AcDbEntity
  8
1
100
AcDbLine
 10
24.78242596729999
 20
19.16464478549996
 30
0.0
 11
24.89999999999997
 21
19.30851274559998
 31
0.0
  0
LINE
  5
13B
330
1E
100
AcDbEntity
  8
1
100
AcDbLine
 10
24.78242596729999
 20
-0.2671594850000392
 30
0.0
 11
22.88872356439998
 21
-0.8390279487000238
 31
0.0
  0
LINE
  5
14F
330
1E
100
AcDbEntity
  8
1
100
AcDbLine
 10
25.21757403269998
 20
-0.2671594850000392
 30
0.0
 11
27.1112764355
 21
-0.8390279487000245
 31
0.0
  0
LINE
  5
150
330
1E
100
AcDbEntity
  8
1
100
AcDbLine
 10
-0.0000000000000039
 20
-31.5
 30
0.0
 11
0.0000000000000039
 21
31.49999999999996
 31
0.0
  0
LINE
  5
151
330
1E
100
AcDbEntity
  8
1
100
AcDbLine
 10
22.88872356439998
 20
34.94046529649998
 30
0.0
 11
24.78242596729999
 21
38.17857859499996
 31
0.0
  0
LINE
  5
152
330
1E
100
AcDbEntity
  8
1
100
AcDbLine
 10
21.82499999999999
 20
33.14955566599997
 30
0.0
 11
21.98373957349998
 21
33.41948802059997
 31
0.0
  0
LINE
  5
153
330
1E
100
AcDbEntity
  8
1
100
AcDbLine
 10
24.78242596729999
 20
38.17857859499996
 30
0.0
 11
24.89999999999997
 21
38.37851005999997
 31
0.0
  0
LINE
  5
154
330
1E
100
AcDbEntity
  8
1
100
AcDbLine
 10
21.98373957349998
 20
33.41948802059997
 30
0.0
 11
22.17550452689998
 21
33.73078916529996
 31
0.0
  0
LINE
  5
155
330
1E
100
AcDbEntity
  8
1
100
AcDbLine
 10
21.82499999999999
 20
24.36798966269998
 30
0.0
 11
21.98373957349998
 21
24.56222930979999
 31
0.0
  0
LINE
  5
156
330
1E
100
AcDbEntity
  8
1
100
AcDbLine
 10
24.78242596729999
 20
27.98680609029998
 30
0.0
 11
24.89999999999997
 21
28.13067405039999
 31
0.0
  0
LINE
  5
157
330
1E
100
AcDbEntity
  8
1
100
AcDbLine
 10
22.88872356439998
 20
17.32307759559997
 30
0.0
 11
24.78242596729999
 21
19.16464478549996
 31
0.0
  0
LINE
  5
177
330
1E
100
AcDbEntity
  8
1
100
AcDbLine
 10
24.78242596729999
 20
-27.44893256840005
 30
0.0
 11
24.89999999999997
 21
-27.59756153350001
 31
0.0
  0
LINE
  5
178
330
1E
100
AcDbEntity
  8
1
100
AcDbLine
 10
22.88872356439998
 20
-33.0948451159
 30
0.0
 11
24.78242596729999
 21
-35.94689126920002
 31
0.0
  0
LINE
  5
17D
330
1E
100
AcDbEntity
  8
SK1
100
AcDbLine
 10
-2.500000000000002
 20
-17.00000000000001
 30
0.0
 11
-2.499999999999996
 21
16.99999999999997
 31
0.0
  0
LINE
  5
17E
330
1E
100
AcDbEntity
  8
1
100
AcDbLine
 10
27.82449547310001
 20
24.40439806099996
 30
0.0
 11
28.01626042649998
 21
24.56222930979999
 31
0.0
  0
LINE
  5
17F
330
1E
100
AcDbEntity
  8
SK1
100
AcDbLine
 10
-35.602853411
 20
-16.6
 30
0.0
 11
-36.1098123504
 21
-16.85830848140003
 31
0.0
  0
LINE
  5
181
330
1E
100
AcDbEntity
  8
1
100
AcDbLine
 10
22.08920804569999
 20
0.2175693282999846
 30
0.0
 11
21.98373957349998
 21
0.2175693282999846
 31
0.0
  0
LINE
  5
182
330
1E
100
AcDbEntity
  8
4
100
AcDbLine
 10
33.77350269189999
 20
-0.0000000000000325
 30
0.0
 11
0.0
 21
0.0
 31
0.0
  0
LINE
  5
183
330
1E
100
AcDbEntity
  8
1
100
AcDbLine
 10
22.4847429207
 20
-0.1010126849000157
 30
0.0
 11
21.98373957349998
 21
-0.1010126849000157
 31
0.0
  0
LINE
  5
184
330
1E
100
AcDbEntity
  8
1
100
AcDbLine
 10
26.5
 20
-0.148399782500039
 30
0.0
 11
22.53210678119998
 21
-0.1483997825000385
 31
0.0
  0
LINE
  5
185
330
1E
100
AcDbEntity
  8
1
100
AcDbLine
 10
25.21757403269998
 20
-0.2671594850000392
 30
0.0
 11
24.78242596729999
 21
-0.2671594850000392
 31
0.0
  0
LINE
  5
186
330
1E
100
AcDbEntity
  8
1
100
AcDbLine
 10
24.89999999999997
 20
-0.274139384400033
 30
0.0
 11
25.09999999999999
 21
-0.274139384400033
 31
0.0
  0
LINE
  5
187
330
1E
100
AcDbEntity
  8
1
100
AcDbLine
 10
28.17499999999998
 20
0.2081455956999854
 30
0.0
 11
28.09999999999999
 21
0.2125980452999805
 31
0.0
  0
LINE
  5
188
330
1E
100
AcDbEntity
  8
1
100
AcDbLine
 10
21.82499999999998
 20
-0.0915889523000173
 30
0.0
 11
21.98373957349998
 21
-0.1010126849000157
 31
0.0
  0
LINE
  5
189
330
1E
100
AcDbEntity
  8
1
100
AcDbLine
 10
24.78242596729999
 20
-0.2671594850000392
 30
0.0
 11
24.89999999999997
 21
-0.274139384400033
 31
0.0
  0
LINE
  5
18A
330
1E
100
AcDbEntity
  8
SK1
100
AcDbLine
 10
-35.602853411
 20
16.59999999999996
 30
0.0
 11
-36.1098123504
 21
16.85830848149999
 31
0.0
  0
LINE
  5
18B
330
1E
100
AcDbEntity
  8
1
100
AcDbLine
 10
24.78242596729999
 20
-27.44893256840005
 30
0.0
 11
22.88872356439998
 21
-25.51320336180003
 31
0.0
  0
LINE
  5
18C
330
1E
100
AcDbEntity
  8
1
100
AcDbLine
 10
21.82499999999998
 20
-32.2083177865
 30
0.0
 11
21.98373957349998
 21
-32.40898538280004
 31
0.0
  0
LINE
  5
18D
330
1E
100
AcDbEntity
  8
1
100
AcDbLine
 10
24.78242596729999
 20
-35.94689126920002
 30
0.0
 11
24.89999999999997
 21
-36.09552023430001
 31
0.0
  0
LINE
  5
197
330
1E
100
AcDbEntity
  8
1
100
AcDbLine
 10
21.98373957349998
 20
0.2175693282999846
 30
0.0
 11
21.82499999999998
 21
0.2081455956999862
 31
0.0
  0
LINE
  5
198
330
1E
100
AcDbEntity
  8
1
100
AcDbLine
 10
25.09999999999999
 20
-0.274139384400033
 30
0.0
 11
25.21757403269998
 21
-0.2671594850000392
 31
0.0
  0
LINE
  5
199
330
1E
100
AcDbEntity
  8
1
100
AcDbLine
 10
28.09370438649997
 20
-0.0964151472000232
 30
0.0
 11
28.17499999999998
 21
-0.0915889523000181
 31
0.0
  0
LINE
  5
19A
330
1E
100
AcDbEntity
  8
1
100
AcDbLine
 10
22.88872356439998
 20
-12.1627114729
 30
0.0
 11
24.78242596729999
 21
-12.95942298820003
 31
0.0
  0
LINE
  5
1A0
330
1E
100
AcDbEntity
  8
1
100
AcDbLine
 10
28.01626042649998
 20
-32.40898538280004
 30
0.0
 11
27.8244954731
 21
-32.27334258900004
 31
0.0
  0
LINE
  5
1A1
330
1E
100
AcDbEntity
  8
1
100
AcDbLine
 10
21.98373957349998
 20
-12.793276188
 30
0.0
 11
24.3875118878
 21
-12.793276188
 31
0.0
  0
LINE
  5
1A2
330
1E
100
AcDbEntity
  8
1
100
AcDbLine
 10
25.6124881122
 20
-12.793276188
 30
0.0
 11
28.01626042649998
 21
-12.793276188
 31
0.0
  0
LINE
  5
1A3
330
1E
100
AcDbEntity
  8
1
100
AcDbLine
 10
24.89999999999997
 20
-12.96640288750001
 30
0.0
 11
25.09999999999999
 21
-12.96640288750001
 31
0.0
  0
LINE
  5
1A4
330
1E
100
AcDbEntity
  8
1
100
AcDbLine
 10
21.82499999999998
 20
-12.78385245539999
 30
0.0
 11
21.98373957349998
 21
-12.793276188
 31
0.0
  0
LINE
  5
1A5
330
1E
100
AcDbEntity
  8
1
100
AcDbLine
 10
24.78242596729999
 20
-12.95942298820003
 30
0.0
 11
24.89999999999997
 21
-12.96640288750001
 31
0.0
  0
LINE
  5
1A6
330
1E
100
AcDbEntity
  8
SK1
100
AcDbLine
 10
-1.456684686300008
 20
-16.72044450420002
 30
0.0
 11
-2.500000000000002
 21
-17.00000000000001
 31
0.0
  0
LINE
  5
1A7
330
1E
100
AcDbEntity
  8
SK1
100
AcDbLine
 10
-1.456684686300008
 20
-16.72044450420002
 30
0.0
 11
-1.301393259200013
 21
-16.69999999999999
 31
0.0
  0
LINE
  5
1A8
330
1E
100
AcDbEntity
  8
1
100
AcDbLine
 10
25.09999999999999
 20
-12.96640288750001
 30
0.0
 11
25.21757403269998
 21
-12.95942298820003
 31
0.0
  0
LINE
  5
1A9
330
1E
100
AcDbEntity
  8
1
100
AcDbLine
 10
28.01626042649998
 20
-12.793276188
 30
0.0
 11
28.17499999999998
 21
-12.78385245539999
 31
0.0
  0
LINE
  5
1AA
330
1E
100
AcDbEntity
  8
SK1
100
AcDbLine
 10
-0.4000000000000079
 20
-16.69999999999999
 30
0.0
 11
-1.301393259200013
 21
-16.69999999999999
 31
0.0
  0
LINE
  5
1AB
330
1E
100
AcDbEntity
  8
SK1
100
AcDbLine
 10
-2.500000000000002
 20
-17.00000000000001
 30
0.0
 11
-8.500000000000001
 21
-17.00000000000001
 31
0.0
  0
LINE
  5
1AC
330
1E
100
AcDbEntity
  8
SK1
100
AcDbLine
 10
-25.50000000000001
 20
-17.00000000000001
 30
0.0
 11
-30.0
 21
-17.00000000000001
 31
0.0
  0
LINE
  5
1C0
330
1E
100
AcDbEntity
  8
SK1
100
AcDbLine
 10
-30.0
 20
-17.00000000000001
 30
0.0
 11
-35.602853411
 21
-16.6
 31
0.0
  0
LINE
  5
1D7
330
1E
100
AcDbEntity
  8
1
100
AcDbLine
 10
26.5
 20
-24.92008067250004
 30
0.0
 11
22.53210678119998
 21
-24.92008067250004
 31
0.0
  0
LINE
  5
1D8
330
1E
100
AcDbEntity
  8
1
100
AcDbLine
 10
27.1112764355
 20
-25.51320336180003
 30
0.0
 11
27.11498549949999
 21
-25.51331390960001
 31
0.0
  0
LINE
  5
1E2
330
1E
100
AcDbEntity
  8
SK1
100
AcDbLine
 10
-30.0
 20
-17.00000000000001
 30
0.0
 11
-30.0
 21
16.99999999999997
 31
0.0
  0
LINE
  5
1E3
330
1E
100
AcDbEntity
  8
1
100
AcDbLine
 10
22.88872356439998
 20
-25.51320336180003
 30
0.0
 11
22.88501450039999
 21
-25.51331390960001
 31
0.0
  0
LINE
  5
1E4
330
1E
100
AcDbEntity
  8
1
100
AcDbLine
 10
27.1112764355
 20
-25.51320336180003
 30
0.0
 11
22.88872356439998
 21
-25.51320336180003
 31
0.0
  0
LINE
  5
1E5
330
1E
100
AcDbEntity
  8
1
100
AcDbLine
 10
25.21757403269998
 20
-27.44893256840005
 30
0.0
 11
24.78242596729999
 21
-27.44893256840005
 31
0.0
  0
LINE
  5
1E6
330
1E
100
AcDbEntity
  8
1
100
AcDbLine
 10
24.89999999999997
 20
-27.59756153350001
 30
0.0
 11
25.09999999999999
 21
-27.59756153350001
 31
0.0
  0
LINE
  5
1E7
330
1E
100
AcDbEntity
  8
SK1
100
AcDbLine
 10
-35.602853411
 20
-16.6
 30
0.0
 11
-35.602853411
 21
16.59999999999996
 31
0.0
  0
LINE
  5
1E8
330
1E
100
AcDbEntity
  8
SK1
100
AcDbLine
 10
-38.0
 20
-15.7
 30
0.0
 11
-38.0
 21
15.69999999999998
 31
0.0
  0
LINE
  5
1E9
330
1E
100
AcDbEntity
  8
1
100
AcDbLine
 10
21.98373957349998
 20
-32.40898538280004
 30
0.0
 11
22.47329280449997
 21
-32.40898538280004
 31
0.0
  0
LINE
  5
1EA
330
1E
100
AcDbEntity
  8
1
100
AcDbLine
 10
27.52670719549998
 20
-32.40898538280004
 30
0.0
 11
28.01626042649998
 21
-32.40898538280004
 31
0.0
  0
LINE
  5
1EB
330
1E
100
AcDbEntity
  8
1
100
AcDbLine
 10
26.5
 20
-34.5
 30
0.0
 11
26.17828130239999
 21
-34.5
 31
0.0
  0
LINE
  5
1EC
330
1E
100
AcDbEntity
  8
1
100
AcDbLine
 10
23.82171869749999
 20
-34.5
 30
0.0
 11
2.999999999999995
 21
-34.5
 31
0.0
  0
LINE
  5
1EF
330
1E
100
AcDbEntity
  8
1
100
AcDbLine
 10
24.89999999999997
 20
-36.09552023430001
 30
0.0
 11
25.09999999999999
 21
-36.09552023430001
 31
0.0
  0
ARC
  5
1F2
330
1E
100
AcDbEntity
  8
SK1
100
AcDbCircle
 10
-0.4000000000000036
 20
17.29999999999997
 30
0.0
 40
0.6
100
AcDbArc
 50
270.0
 51
311.9669171767
  0
ARC
  5
1F3
330
1E
100
AcDbEntity
  8
SK1
100
AcDbCircle
 10
-0.4000000000000079
 20
-17.3
 30
0.0
 40
0.6
100
AcDbArc
 50
48.03308282329986
 51
90.0
  0
ARC
  5
1F4
330
1E
100
AcDbEntity
  8
1
100
AcDbCircle
 10
3.000000000000003
 20
31.49999999999996
 30
0.0
 40
3.0
100
AcDbArc
 50
90.0
 51
180.0
  0
ARC
  5
1F5
330
1E
100
AcDbEntity
  8
1
100
AcDbCircle
 10
2.999999999999996
 20
-31.5
 30
0.0
 40
3.0
100
AcDbArc
 50
180.0
 51
270.0
  0
ARC
  5
1F6
330
1E
100
AcDbEntity
  8
SK1
100
AcDbCircle
 10
-36.70000000000001
 20
-15.7
 30
0.0
 40
1.3
100
AcDbArc
 50
180.0
 51
297.0
  0
ARC
  5
1F7
330
1E
100
AcDbEntity
  8
SK1
100
AcDbCircle
 10
-36.70000000000001
 20
15.69999999999998
 30
0.0
 40
1.3
100
AcDbArc
 50
63.00000000000001
 51
180.0
  0
ARC
  5
1F8
330
1E
100
AcDbEntity
  8
1
100
AcDbCircle
 10
26.5
 20
-32.90000000000004
 30
0.0
 40
1.6
100
AcDbArc
 50
270.0
 51
0.0
  0
LWPOLYLINE
  5
52C
330
1E
100
AcDbEntity
  8
1
100
AcDbPolyline
 90
       85
 70
     0
 43
0.0
 10
27.45817079399998
 20
-11.88752298230002
 10
27.454919509999
 20
-11.88754946400502
 10
27.451667331777
 20
-11.88761598971601
 10
27.44841480659298
 20
-11.88772241841701
 10
27.44516248170498
 20
-11.88786860909399
 10
27.44191090436899
 20
-11.88805442073203
 10
27.438660621845
 20
-11.888279712317
 10
27.43541218138898
 20
-11.88854434283401
 10
27.43216613025998
 20
-11.88884817126802
 10
27.42892301571598
 20
-11.889191056606
 10
27.425683385013
 20
-11.88957285783101
 10
27.42244778541098
 20
-11.889993433931
 10
27.419216764167
 20
-11.89045264388902
 10
27.41599086853799
 20
-11.89095034669102
 10
27.41277064578298
 20
-11.891486401324
 10
27.40955664315999
 20
-11.892060666771
 10
27.40634940792498
 20
-11.89267300201902
 10
27.40269298484898
 20
-11.89341924891998
 10
27.39904693249599
 20
-11.894214824966
 10
27.395412067764
 20
-11.89505951966202
 10
27.39178920754997
 20
-11.89595312251501
 10
27.38817916875198
 20
-11.89689542303
 10
27.38458276826898
 20
-11.89788621071201
 10
27.38100081860798
 20
-11.89892527161602
 10
27.37743390333099
 20
-11.90001221172199
 10
27.37388226967198
 20
-11.901146372486
 10
27.37034613799798
 20
-11.90232707422602
 10
27.36682572867298
 20
-11.90355363726502
 10
27.36332126206397
 20
-11.90482538192201
 10
27.359832958536
 20
-11.906141628519
 10
27.35636103845499
 20
-11.907501697375
 10
27.35290572218598
 20
-11.908904908813
 10
27.34903861250998
 20
-11.910534244265
 10
27.34519310969599
 20
-11.91221635408101
 10
27.34136952750799
 20
-11.91395027051302
 10
27.33756817970999
 20
-11.91573502581501
 10
27.33378938006298
 20
-11.91756965224101
 10
27.33003344232997
 20
-11.919453182043
 10
27.32630068027499
 20
-11.921384647476
 10
27.32218072985199
 20
-11.923585763932
 10
27.31809020914099
 20
-11.92584353793
 10
27.31402954854099
 20
-11.92815664197402
 10
27.30999917845598
 20
-11.93052374856302
 10
27.305999529285
 20
-11.93294353019902
 10
27.30163591153999
 20
-11.93566454530801
 10
27.29731055975198
 20
-11.93844592404998
 10
27.29302404678799
 20
-11.941285899525
 10
27.288392819493
 20
-11.94444880771101
 10
27.28380923909599
 20
-11.947677054176
 10
27.27927404933399
 20
-11.95096834500102
 10
27.27441628968398
 20
-11.95460249573699
 10
27.26961606107499
 20
-11.95830605538702
 10
27.26487292094998
 20
-11.96207742978198
 10
27.26018642407598
 20
-11.96591502730001
 10
27.25520226334998
 20
-11.97012005918802
 10
27.25028272294098
 20
-11.97439806042599
 10
27.245082863785
 20
-11.97906034834101
 10
27.23995586379499
 20
-11.98380167504301
 10
27.23490103901298
 20
-11.98861959550501
 10
27.229588008403
 20
-11.99384037916001
 10
27.22435548887399
 20
-11.99914256024303
 10
27.21920265035298
 20
-12.00452317139802
 10
27.21381413769298
 20
-12.01032268775003
 10
27.20851364470599
 20
-12.01620383520201
 10
27.20330017574998
 20
-12.02216305452302
 10
27.198172735182
 20
-12.02819678648
 10
27.19313032736298
 20
-12.03430147184102
 10
27.187882883577
 20
-12.04083863758703
 10
27.18272848349698
 20
-12.04744724233603
 10
27.17766607926498
 20
-12.05412437876302
 10
27.17269470030398
 20
-12.06086789931702
 10
27.167813377231
 20
-12.06767566821201
 10
27.16302114066698
 20
-12.07454554966099
 10
27.15805824546498
 20
-12.08186211566802
 10
27.15319239006098
 20
-12.08924299574701
 10
27.14842243436697
 20
-12.09668567800401
 10
27.14374723829698
 20
-12.104187650546
 10
27.13892709788598
 20
-12.112145755676
 10
27.13420936129298
 20
-12.12016384340198
 10
27.12959269877498
 20
-12.12823898397502
 10
27.125075780591
 20
-12.13636824764602
 10
27.12043891135099
 20
-12.14495901879101
 10
27.11590900485798
 20
-12.15360283905303
 10
27.111484521769
 20
-12.16229631688201
 10
27.11128091396699
 20
-12.16270253179303
  0
LWPOLYLINE
  5
583
330
1E
100
AcDbEntity
  8
1
100
AcDbPolyline
 90
       85
 70
     0
 43
0.0
 10
22.5418292059
 20
-11.88752298230002
 10
22.54508048990098
 20
-11.88754946400502
 10
22.54833266812295
 20
-11.88761598971501
 10
22.55158519330798
 20
-11.887722418416
 10
22.55483751819697
 20
-11.887868609092
 10
22.55808909553198
 20
-11.88805442072998
 10
22.56133937805699
 20
-11.888279712314
 10
22.56458781851298
 20
-11.88854434283
 10
22.56783386964298
 20
-11.88884817126399
 10
22.57107698418797
 20
-11.88919105660001
 10
22.57431661489099
 20
-11.88957285782501
 10
22.57755221449396
 20
-11.88999343392302
 10
22.58078323573798
 20
-11.89045264388002
 10
22.58400913136799
 20
-11.89095034668101
 10
22.58722935412298
 20
-11.89148640131202
 10
22.59044335674697
 20
-11.89206066675801
 10
22.59365059198198
 20
-11.892673002005
 10
22.59730701505898
 20
-11.89341924890402
 10
22.600953067413
 20
-11.89421482494802
 10
22.60458793214598
 20
-11.89505951964201
 10
22.60821079236098
 20
-11.89595312249301
 10
22.61182083115896
 20
-11.89689542300601
 10
22.61541723164197
 20
-11.89788621068802
 10
22.61899918130398
 20
-11.89892527159003
 10
22.62256609658197
 20
-11.90001221169501
 10
22.62611773024099
 20
-11.90114637245702
 10
22.62965386191598
 20
-11.90232707419599
 10
22.63317427124099
 20
-11.90355363723301
 10
22.63667873785098
 20
-11.90482538189002
 10
22.64016704137998
 20
-11.906141628485
 10
22.64363896146198
 20
-11.907501697341
 10
22.64709427773098
 20
-11.90890490877703
 10
22.65096138740799
 20
-11.910534244229
 10
22.65480689022298
 20
-11.91221635404403
 10
22.65863047241097
 20
-11.91395027047501
 10
22.66243182020998
 20
-11.91573502577601
 10
22.66621061985798
 20
-11.91756965220102
 10
22.66996655759196
 20
-11.91945318200301
 10
22.67369931964799
 20
-11.92138464743502
 10
22.67781927007098
 20
-11.92358576388999
 10
22.68190979078298
 20
-11.92584353788801
 10
22.68597045138398
 20
-11.928156641931
 10
22.69000082146999
 20
-11.93052374851901
 10
22.69400047064198
 20
-11.93294353015403
 10
22.69836408838799
 20
-11.935664545263
 10
22.70268944017697
 20
-11.93844592400501
 10
22.70697595314197
 20
-11.94128589947901
 10
22.71160718043899
 20
-11.94444880766502
 10
22.71619076083698
 20
-11.947677054129
 10
22.72072595060098
 20
-11.950968344954
 10
22.72558371025296
 20
-11.95460249568901
 10
22.73038393886398
 20
-11.95830605533802
 10
22.73512707899097
 20
-11.96207742973202
 10
22.739813575867
 20
-11.96591502724902
 10
22.74479773659597
 20
-11.970120059136
 10
22.749717277006
 20
-11.97439806037303
 10
22.75491713616497
 20
-11.97906034828702
 10
22.76004413615698
 20
-11.98380167498803
 10
22.765098960941
 20
-11.98861959544901
 10
22.770411991553
 20
-11.99384037910302
 10
22.77564451108398
 20
-11.999142560186
 10
22.78079734960599
 20
-12.00452317134101
 10
22.78618586226698
 20
-12.01032268769202
 10
22.79148635525499
 20
-12.01620383514502
 10
22.796699824212
 20
-12.02216305446603
 10
22.80182726477894
 20
-12.02819678642401
 10
22.806869672598
 20
-12.03430147178502
 10
22.81211711638198
 20
-12.04083863753302
 10
22.81727151645998
 20
-12.04744724228401
 10
22.822333920689
 20
-12.05412437871402
 10
22.82730529964698
 20
-12.060867899272
 10
22.832186622715
 20
-12.06767566817001
 10
22.83697885927599
 20
-12.07454554962203
 10
22.841941754472
 20
-12.08186211563301
 10
22.84680760987098
 20
-12.089242995716
 10
22.85157756555995
 20
-12.09668567797803
 10
22.85625276162499
 20
-12.10418765052401
 10
22.86107290203096
 20
-12.11214575565801
 10
22.86579063861998
 20
-12.120163843388
 10
22.87040730113298
 20
-12.12823898396502
 10
22.87492421931398
 20
-12.13636824764003
 10
22.87956108855098
 20
-12.14495901878702
 10
22.88409099504298
 20
-12.15360283905201
 10
22.88851547813098
 20
-12.16229631688201
 10
22.88871908593398
 20
-12.16270253179303
  0
LWPOLYLINE
  5
5DA
330
1E
100
AcDbEntity
  8
1
100
AcDbPolyline
 90
       83
 70
     0
 43
0.0
 10
27.1112764355
 20
-0.8390279487000245
 10
27.115398379661
 20
-0.8466566916700378
 10
27.11941279442598
 20
-0.8538783507140157
 10
27.12351498104698
 20
-0.861054371973015
 10
27.12770610305398
 20
-0.8681819070420178
 10
27.13198732397597
 20
-0.8752581075140176
 10
27.13613899772997
 20
-0.8819303549280197
 10
27.14037403342099
 20
-0.8885512600300305
 10
27.14469342863198
 20
-0.8951183806670178
 10
27.14909818094199
 20
-0.9016292746860331
 10
27.15358928793198
 20
-0.9080814999370293
 10
27.157924581744
 20
-0.9141378028890333
 10
27.162339123029
 20
-0.9201371818790311
 10
27.16683376
 20
-0.9260775604160219
 10
27.17140934086998
 20
-0.9319568620130127
 10
27.17606671385098
 20
-0.9377730101820167
 10
27.180806727158
 20
-0.9435239284340218
 10
27.18536005196898
 20
-0.9488935851310348
 10
27.18998854523798
 20
-0.9542013038230296
 10
27.19469279505699
 20
-0.9594441107480268
 10
27.19947334224798
 20
-0.9646185744230168
 10
27.20433072745498
 20
-0.9697212616480362
 10
27.20926549132098
 20
-0.9747487392220396
 10
27.21398114415498
 20
-0.9794087044760175
 10
27.21876626967
 20
-0.9839961445750336
 10
27.22331582098098
 20
-0.9882284567180224
 10
27.22792719981899
 20
-0.9923921519230168
 10
27.23228726320698
 20
-0.996214279163016
 10
27.23670181072798
 20
-0.9999726614490247
 10
27.24117114434298
 20
-1.003665381278012
 10
27.245370559696
 20
-1.007033864633029
 10
27.24961771620698
 20
-1.010342542247032
 10
27.25391285564096
 20
-1.013589878858029
 10
27.25792039721099
 20
-1.016531647948025
 10
27.26196921979398
 20
-1.019418634471007
 10
27.26605951354798
 20
-1.022249630900035
 10
27.27019146862597
 20
-1.02502342971002
 10
27.27436527518398
 20
-1.027738823376014
 10
27.27822819229598
 20
-1.030175595628006
 10
27.282126399546
 20
-1.032561293522034
 10
27.28605916756299
 20
-1.034894733008032
 10
27.290025603011
 20
-1.03717468249502
 10
27.29402481255498
 20
-1.03939991039303
 10
27.29768814620999
 20
-1.041374322819025
 10
27.30137715642399
 20
-1.043301567636037
 10
27.305091172022
 20
-1.045180719531034
 10
27.30882952182698
 20
-1.047010853191012
 10
27.312591534663
 20
-1.048791043305018
 10
27.31637653935499
 20
-1.050520364560017
 10
27.31980214688598
 20
-1.05203249604503
 10
27.32324534487998
 20
-1.053501999698025
 10
27.32670564404898
 20
-1.054928200968018
 10
27.33018255510597
 20
-1.056310425301038
 10
27.33367558876298
 20
-1.057647998145029
 10
27.33718425573198
 20
-1.058940244946032
 10
27.34070806672699
 20
-1.060186491154015
 10
27.34424653245997
 20
-1.061386062214014
 10
27.34779916364299
 20
-1.062538283574017
 10
27.35096855446498
 20
-1.063522184656022
 10
27.35414840750197
 20
-1.064467666890011
 10
27.35733837911098
 20
-1.065374256516039
 10
27.360538125652
 20
-1.066241479773027
 10
27.36374730347999
 20
-1.06706886290303
 10
27.36696556895498
 20
-1.067855932144025
 10
27.370192578434
 20
-1.06860221373802
 10
27.37342798827498
 20
-1.069307233925032
 10
27.37667145483499
 20
-1.06997051894402
 10
27.37992263447299
 20
-1.070591595035012
 10
27.38318118259198
 20
-1.071169990891037
 10
27.38644667106697
 20
-1.071705450004029
 10
27.389718524334
 20
-1.072198095000034
 10
27.39299615178998
 20
-1.072648087186027
 10
27.39627896282998
 20
-1.073055587867032
 10
27.39956636684999
 20
-1.073420758350012
 10
27.40285777324399
 20
-1.07374375994203
 10
27.40615259140998
 20
-1.074024753949029
 10
27.40945023074297
 20
-1.07426390167703
 10
27.412750100637
 20
-1.074461364433035
 10
27.41605161048997
 20
-1.074617303523013
 10
27.41935416969599
 20
-1.074731880254035
 10
27.42265718765
 20
-1.074805255931011
 10
27.42596007374999
 20
-1.074837591863029
 10
27.42718850150096
 20
-1.074839180455031
  0
LWPOLYLINE
  5
62F
330
1E
100
AcDbEntity
  8
1
100
AcDbPolyline
 90
       83
 70
     0
 43
0.0
 10
22.88872356439998
 20
-0.8390279487000238
 10
22.88460162023997
 20
-0.8466566916680189
 10
22.88058720547597
 20
-0.8538783507100358
 10
22.87648501885598
 20
-0.8610543719680119
 10
22.87229389685096
 20
-0.8681819070350254
 10
22.86801267592898
 20
-0.8752581075050354
 10
22.863861002177
 20
-0.8819303549180144
 10
22.85962596648598
 20
-0.8885512600180362
 10
22.85530657127698
 20
-0.8951183806530337
 10
22.85090181896796
 20
-0.9016292746720207
 10
22.84641071197899
 20
-0.9080814999210275
 10
22.84207541816797
 20
-0.9141378028720367
 10
22.83766087688499
 20
-0.9201371818600163
 10
22.83316623991499
 20
-0.9260775603960123
 10
22.82859065904698
 20
-0.9319568619920374
 10
22.82393328606699
 20
-0.9377730101590227
 10
22.81919327276197
 20
-0.9435239284110279
 10
22.814639947952
 20
-0.9488935851070175
 10
22.81001145468498
 20
-0.9542013037980179
 10
22.80530720486698
 20
-0.9594441107220204
 10
22.80052665767797
 20
-0.964618574396016
 10
22.79566927247298
 20
-0.969721261621035
 10
22.79073450860797
 20
-0.9747487391930206
 10
22.78601885577598
 20
-0.9794087044470272
 10
22.78123373026196
 20
-0.98399614454502
 10
22.77668417895299
 20
-0.9882284566880372
 10
22.77207280011598
 20
-0.9923921518930312
 10
22.76771273672999
 20
-0.9962142791320356
 10
22.76329818920999
 20
-0.9999726614180159
 10
22.75882885559699
 20
-1.003665381247029
 10
22.754629440245
 20
-1.007033864602022
 10
22.75038228373497
 20
-1.01034254221503
 10
22.74608714430298
 20
-1.013589878826024
 10
22.74207960273499
 20
-1.016531647916028
 10
22.73803078015299
 20
-1.019418634438012
 10
22.73394048640099
 20
-1.022249630867009
 10
22.72980853132398
 20
-1.025023429677017
 10
22.72563472476798
 20
-1.027738823343016
 10
22.72177180765698
 20
-1.030175595595012
 10
22.71787360040895
 20
-1.032561293489012
 10
22.71394083239298
 20
-1.034894732975029
 10
22.70997439694596
 20
-1.037174682462024
 10
22.705975187403
 20
-1.039399910360029
 10
22.70231185374999
 20
-1.041374322787022
 10
22.69862284353698
 20
-1.043301567604034
 10
22.69490882794098
 20
-1.045180719498034
 10
22.69117047813697
 20
-1.047010853159034
 10
22.68740846530198
 20
-1.048791043273014
 10
22.68362346061199
 20
-1.050520364529037
 10
22.68019785308097
 20
-1.052032496014023
 10
22.67675465508898
 20
-1.05350199966702
 10
22.673294355921
 20
-1.054928200937014
 10
22.66981744486499
 20
-1.056310425271022
 10
22.66632441120997
 20
-1.057647998115017
 10
22.66281574424098
 20
-1.058940244918034
 10
22.65929193324696
 20
-1.060186491125024
 10
22.65575346751595
 20
-1.061386062186016
 10
22.65220083633399
 20
-1.062538283547014
 10
22.649031445513
 20
-1.063522184630017
 10
22.64585159247697
 20
-1.064467666865029
 10
22.64266162086798
 20
-1.065374256491027
 10
22.63946187432897
 20
-1.066241479750035
 10
22.63625269650199
 20
-1.06706886288003
 10
22.63303443102798
 20
-1.06785593212302
 10
22.62980742154999
 20
-1.06860221371801
 10
22.62657201170998
 20
-1.069307233906017
 10
22.62332854515098
 20
-1.069970518926028
 10
22.62007736551399
 20
-1.070591595019011
 10
22.61681881739598
 20
-1.071169990876029
 10
22.61355332892199
 20
-1.071705449991015
 10
22.61028147565598
 20
-1.072198094989029
 10
22.607003848201
 20
-1.072648087176022
 10
22.60372103716199
 20
-1.073055587858021
 10
22.60043363314298
 20
-1.073420758343021
 10
22.59714222674898
 20
-1.073743759936032
 10
22.59384740858398
 20
-1.074024753944029
 10
22.59054976925298
 20
-1.074263901674014
 10
22.58724989935897
 20
-1.074461364431017
 10
22.58394838950696
 20
-1.074617303522019
 10
22.58064583030198
 20
-1.074731880253013
 10
22.57734281234796
 20
-1.074805255931011
 10
22.57403992624998
 20
-1.074837591863029
 10
22.57281149849899
 20
-1.074839180455031
  0
LWPOLYLINE
  5
684
330
1E
100
AcDbEntity
  8
1
100
AcDbPolyline
 90
       94
 70
     0
 43
0.0
 10
27.8244954731
 20
-12.24000468790001
 10
27.82108286520798
 20
-12.23033197639399
 10
27.81756071462598
 20
-12.22069490602402
 10
27.81392723046098
 20
-12.21109627525501
 10
27.810180621814
 20
-12.20153888255602
 10
27.806525229806
 20
-12.19252508619701
 10
27.80276517770698
 20
-12.18355319238701
 10
27.79889894277197
 20
-12.17462558057901
 10
27.79492500225598
 20
-12.165744630223
 10
27.79107156757897
 20
-12.15740205538101
 10
27.78711942113996
 20
-12.14910522831599
 10
27.783067280148
 20
-12.14085615352902
 10
27.778913861809
 20
-12.13265683552001
 10
27.77465788333298
 20
-12.12450927878998
 10
27.77055741952898
 20
-12.11689006896003
 10
27.76636390079298
 20
-12.109320156831
 10
27.76207616910598
 20
-12.10180153555703
 10
27.75769278164698
 20
-12.09433723398702
 10
27.753212238423
 20
-12.08693048886201
 10
27.74892215806598
 20
-12.08004181662801
 10
27.74454413259198
 20
-12.073209242902
 10
27.74007692604698
 20
-12.06643543467601
 10
27.73551930247498
 20
-12.05972305894403
 10
27.73087002591998
 20
-12.05307478270001
 10
27.72644691945298
 20
-12.04692990960501
 10
27.72194189152198
 20
-12.04084536589802
 10
27.71735393725097
 20
-12.03482331994601
 10
27.71268205176198
 20
-12.02886594011101
 10
27.70792523017798
 20
-12.02297539475901
 10
27.70308246762096
 20
-12.01715385225503
 10
27.69815275921398
 20
-12.01140348096302
 10
27.69349644246
 20
-12.00612947310701
 10
27.68876348665997
 20
-12.00092044062301
 10
27.68395321497998
 20
-11.99577868637001
 10
27.679065236106
 20
-11.99070778012399
 10
27.67409919764598
 20
-11.985711464366
 10
27.66905474720998
 20
-11.98079348157502
 10
27.66432843023898
 20
-11.97632656801099
 10
27.65953472326799
 20
-11.971932532117
 10
27.654673349131
 20
-11.96761431745501
 10
27.65015740906099
 20
-11.96372507486999
 10
27.64558416339198
 20
-11.95990428388401
 10
27.64095339863498
 20
-11.956154211787
 10
27.63669351958998
 20
-11.95280833083198
 10
27.63238576727598
 20
-11.94952447248502
 10
27.62802998129497
 20
-11.94630434019801
 10
27.623626001253
 20
-11.94314963742002
 10
27.61962108072299
 20
-11.94036775505202
 10
27.61557687615098
 20
-11.93764149219598
 10
27.61149327061
 20
-11.93497209066701
 10
27.60737014716898
 20
-11.93236079228003
 10
27.603207388898
 20
-11.92980883885
 10
27.59900487886997
 20
-11.92731747219403
 10
27.59476250759698
 20
-11.92488793502701
 10
27.590958343002
 20
-11.92278130391499
 10
27.58712384236199
 20
-11.92072554083499
 10
27.58325991132898
 20
-11.91872163774303
 10
27.57936745555198
 20
-11.916770586594
 10
27.57544738068398
 20
-11.91487337934302
 10
27.57150059237599
 20
-11.91303100794401
 10
27.56752799627699
 20
-11.911244464354
 10
27.56353049803998
 20
-11.909514740527
 10
27.56001297150898
 20
-11.90804862194901
 10
27.55647767938199
 20
-11.906627430001
 10
27.55292522837498
 20
-11.90525182921402
 10
27.54935622520298
 20
-11.903922484122
 10
27.54577127658099
 20
-11.90264005925601
 10
27.54217098922598
 20
-11.90140521915002
 10
27.53855596985099
 20
-11.90021862833499
 10
27.53492682517398
 20
-11.89908095134401
 10
27.53128416190798
 20
-11.89799285271
 10
27.52762858676998
 20
-11.89695499696503
 10
27.52396070647498
 20
-11.89596804864101
 10
27.52028112773898
 20
-11.89503267227101
 10
27.51659045727498
 20
-11.89414953238699
 10
27.51341865724199
 20
-11.89343463505002
 10
27.51023953600698
 20
-11.89275902224801
 10
27.50705347564098
 20
-11.89212311246402
 10
27.503860858216
 20
-11.89152732417702
 10
27.50066206580498
 20
-11.89097207586901
 10
27.49745748047698
 20
-11.89045778602101
 10
27.49424748430498
 20
-11.88998487311403
 10
27.49103245935998
 20
-11.88955375562801
 10
27.48781280958798
 20
-11.88916473572499
 10
27.48458902188898
 20
-11.888817674428
 10
27.48136160282697
 20
-11.8885123282
 10
27.47813105896497
 20
-11.88824845350402
 10
27.47489789686698
 20
-11.888025806805
 10
27.471662623095
 20
-11.887844144565
 10
27.46842574421298
 20
-11.88770322324802
 10
27.46518776678498
 20
-11.88760279931801
 10
27.461949197373
 20
-11.88754262923703
 10
27.45871054254098
 20
-11.88752246947001
 10
27.45818079398298
 20
-11.88752296276202
  0
LWPOLYLINE
  5
6E4
330
1E
100
AcDbEntity
  8
1
100
AcDbPolyline
 90
       93
 70
     0
 43
0.0
 10
27.42719850149998
 20
-1.074839170200024
 10
27.43078073291599
 20
-1.074811406727039
 10
27.434363790947
 20
-1.074735645688037
 10
27.43794692760896
 20
-1.07461196161802
 10
27.44152939491698
 20
-1.074440429051012
 10
27.44511044488598
 20
-1.074221122523024
 10
27.44868932953298
 20
-1.07395411656702
 10
27.45226530087097
 20
-1.07363948571802
 10
27.455837610917
 20
-1.073277304511012
 10
27.45940551168598
 20
-1.072867647480024
 10
27.462968255193
 20
-1.072410589161024
 10
27.46652509345298
 20
-1.071906204087013
 10
27.470075278482
 20
-1.071354566794014
 10
27.473618062296
 20
-1.070755751815029
 10
27.477152696909
 20
-1.070109833687014
 10
27.48067843433699
 20
-1.069416886942033
 10
27.48419452659498
 20
-1.06867698611603
 10
27.487700225699
 20
-1.067890205744022
 10
27.49119478366699
 20
-1.067056620364015
 10
27.49467754112798
 20
-1.066176404520037
 10
27.49814815833198
 20
-1.065250093480017
 10
27.50160636756898
 20
-1.06427830381503
 10
27.50505190112699
 20
-1.063261652099017
 10
27.50848449129497
 20
-1.062200754902024
 10
27.51190387036398
 20
-1.061096228797025
 10
27.51587609142799
 20
-1.059753295488037
 10
27.51982954121698
 20
-1.058352796703019
 10
27.52376379461798
 20
-1.056895711536017
 10
27.52767842651599
 20
-1.055383019080012
 10
27.53157301179598
 20
-1.053815698429021
 10
27.53544712534298
 20
-1.05219472867603
 10
27.53930034204199
 20
-1.05052108891502
 10
27.54313223677899
 20
-1.048795758239012
 10
27.54694238444
 20
-1.047019715741017
 10
27.55073035990799
 20
-1.045193940515021
 10
27.55503177976998
 20
-1.043047699018019
 10
27.55930305020898
 20
-1.040839240809022
 10
27.56354353665098
 20
-1.038570027390024
 10
27.567752604524
 20
-1.036241520267024
 10
27.57192961925298
 20
-1.033855180941033
 10
27.57607394626399
 20
-1.031412470919037
 10
27.58069645199597
 20
-1.028598861287039
 10
27.58527588068
 20
-1.025717838138035
 10
27.58981132879199
 20
-1.022771482401025
 10
27.594301892809
 20
-1.019761875007022
 10
27.59923773835498
 20
-1.016346163792037
 10
27.60411687231898
 20
-1.012857042346015
 10
27.60893967685201
 20
-1.009296220415021
 10
27.61370654702699
 20
-1.005665398622025
 10
27.61841787791798
 20
-1.001966277591006
 10
27.62353666554398
 20
-0.9978203885310142
 10
27.62858925451499
 20
-0.9935961786790162
 10
27.63357617067498
 20
-0.9892959115630365
 10
27.63849793986496
 20
-0.9849218507140196
 10
27.64379346066297
 20
-0.9800686462990345
 10
27.649012759664
 20
-0.9751332537080122
 10
27.65458177786197
 20
-0.9696972396630235
 10
27.660063010496
 20
-0.9641719537970375
 10
27.665457325543
 20
-0.9585611323810246
 10
27.67076559097799
 20
-0.9528685116860378
 10
27.675988674775
 20
-0.9470978279810283
 10
27.68151926752898
 20
-0.9408002298670259
 10
27.686953160472
 20
-0.9344210968390347
 10
27.69229143776698
 20
-0.9279650454710155
 10
27.69753518558698
 20
-0.9214354824190172
 10
27.70268549216999
 20
-0.9148345693090252
 10
27.707743445852
 20
-0.9081644108080158
 10
27.71271013496598
 20
-0.9014271115860342
 10
27.71793154832896
 20
-0.8941364622010359
 10
27.72305078165897
 20
-0.8867737427290228
 10
27.72806917356098
 20
-0.8793415418180392
 10
27.73298806263699
 20
-0.8718424481190288
 10
27.73780878749096
 20
-0.8642790502800355
 10
27.74253268672598
 20
-0.8566539369490191
 10
27.74746629745399
 20
-0.8484553752170176
 10
27.75229288974699
 20
-0.8401926819400134
 10
27.75701408817297
 20
-0.8318689987790184
 10
27.76163151730099
 20
-0.8234874673940202
 10
27.76642565253399
 20
-0.8145222198630255
 10
27.77110632466099
 20
-0.8054987330630217
 10
27.77567491573398
 20
-0.7964193630830359
 10
27.78013267163899
 20
-0.7872861266050144
 10
27.78448083824898
 20
-0.7781010402710287
 10
27.78896671540901
 20
-0.7683213813630268
 10
27.79333260688698
 20
-0.7584882479420152
 10
27.7975799916
 20
-0.7486040338730257
 10
27.80171034846598
 20
-0.7386711330200379
 10
27.80572515640296
 20
-0.7286919392490212
 10
27.80983928705798
 20
-0.7181107688630313
 10
27.81382806053799
 20
-0.7074835016780165
 10
27.81769321619597
 20
-0.6968129531110244
 10
27.82143649338198
 20
-0.6861019385810359
 10
27.82449231445898
 20
-0.6770623073460379
  0
LWPOLYLINE
  5
743
330
1E
100
AcDbEntity
  8
1
100
AcDbPolyline
 90
       94
 70
     0
 43
0.0
 10
22.17550452689998
 20
-12.24000468790001
 10
22.17891713479099
 20
-12.23033197639503
 10
22.18243928536799
 20
-12.22069490602402
 10
22.18607276952897
 20
-12.21109627525501
 10
22.18981937816798
 20
-12.20153888255401
 10
22.19347477016898
 20
-12.19252508619303
 10
22.19723482225997
 20
-12.18355319238102
 10
22.201101057187
 20
-12.17462558057002
 10
22.205074997694
 20
-12.16574463021101
 10
22.20892843236299
 20
-12.15740205536701
 10
22.21288057879398
 20
-12.14910522830101
 10
22.21693271977998
 20
-12.14085615351202
 10
22.22108613811198
 20
-12.13265683550202
 10
22.22534211658398
 20
-12.124509278771
 10
22.22944258038296
 20
-12.11689006894101
 10
22.23363609911698
 20
-12.10932015681302
 10
22.23792383080299
 20
-12.10180153554103
 10
22.242307218262
 20
-12.09433723397302
 10
22.24678776148697
 20
-12.08693048885101
 10
22.25107784184698
 20
-12.08004181662102
 10
22.25545586732398
 20
-12.07320924289803
 10
22.25992307387298
 20
-12.06643543467601
 10
22.26448069744896
 20
-12.05972305894801
 10
22.26912997400797
 20
-12.05307478270901
 10
22.27355308047997
 20
-12.04692990961802
 10
22.27805810841497
 20
-12.04084536591601
 10
22.28264606269098
 20
-12.03482331996701
 10
22.28731794818398
 20
-12.02886594013603
 10
22.292074769772
 20
-12.02297539478903
 10
22.296917532333
 20
-12.01715385228901
 10
22.301847240743
 20
-12.01140348100003
 10
22.30650355749998
 20
-12.006129473146
 10
22.31123651330196
 20
-12.00092044066602
 10
22.316046784983
 20
-11.995778686414
 10
22.32093476385798
 20
-11.99070778017101
 10
22.32590080231798
 20
-11.98571146441401
 10
22.33094525275498
 20
-11.98079348162502
 10
22.33567156972497
 20
-11.97632656806101
 10
22.34046527669498
 20
-11.97193253216701
 10
22.34532665082999
 20
-11.96761431750601
 10
22.34984259089898
 20
-11.96372507492101
 10
22.35441583656596
 20
-11.95990428393399
 10
22.35904660132197
 20
-11.95615421183702
 10
22.36330648036499
 20
-11.95280833088099
 10
22.36761423267699
 20
-11.94952447253401
 10
22.37197001865499
 20
-11.94630434024601
 10
22.37637399869597
 20
-11.94314963746702
 10
22.380378919224
 20
-11.94036775509701
 10
22.38442312379298
 20
-11.93764149223998
 10
22.38850672933299
 20
-11.93497209070899
 10
22.39262985277199
 20
-11.93236079232101
 10
22.39679261103998
 20
-11.92980883889001
 10
22.40099512106599
 20
-11.92731747223203
 10
22.40523749233698
 20
-11.92488793506301
 10
22.40904165693098
 20
-11.92278130394901
 10
22.41287615756899
 20
-11.92072554086803
 10
22.41674008860099
 20
-11.91872163777401
 10
22.42063254437598
 20
-11.91677058662301
 10
22.42455261924197
 20
-11.91487337937002
 10
22.42849940754898
 20
-11.91303100797
 10
22.43247200364598
 20
-11.91124446437803
 10
22.43646950188196
 20
-11.909514740549
 10
22.43998702841198
 20
-11.90804862197001
 10
22.44352232053798
 20
-11.90662743002002
 10
22.44707477154398
 20
-11.90525182923102
 10
22.45064377471499
 20
-11.903922484138
 10
22.45422872333497
 20
-11.90264005926999
 10
22.45782901068996
 20
-11.90140521916202
 10
22.46144403006297
 20
-11.90021862834599
 10
22.46507317473998
 20
-11.89908095135401
 10
22.46871583800398
 20
-11.89799285271803
 10
22.47237141314097
 20
-11.89695499697202
 10
22.476039293436
 20
-11.89596804864702
 10
22.47971887217198
 20
-11.89503267227498
 10
22.48340954263396
 20
-11.894149532391
 10
22.48658134266698
 20
-11.89343463505301
 10
22.48976046390096
 20
-11.89275902225003
 10
22.49294652426698
 20
-11.892123112465
 10
22.49613914168997
 20
-11.89152732417799
 10
22.49933793410196
 20
-11.89097207586901
 10
22.50254251942898
 20
-11.89045778602101
 10
22.50575251560098
 20
-11.88998487311301
 10
22.508967540545
 20
-11.88955375562801
 10
22.51218719031697
 20
-11.88916473572402
 10
22.51541097801498
 20
-11.88881767442703
 10
22.51863839707598
 20
-11.88851232819901
 10
22.52186894093798
 20
-11.88824845350402
 10
22.52510210303498
 20
-11.88802580680402
 10
22.52833737680699
 20
-11.887844144565
 10
22.53157425568798
 20
-11.88770322324802
 10
22.53481223311597
 20
-11.887602799317
 10
22.53805080252698
 20
-11.88754262923703
 10
22.54128945735899
 20
-11.88752246947001
 10
22.54181920591698
 20
-11.88752296276202
  0
LWPOLYLINE
  5
7A3
330
1E
100
AcDbEntity
  8
1
100
AcDbPolyline
 90
       93
 70
     0
 43
0.0
 10
22.57280149849998
 20
-1.074839170200021
 10
22.56921926708398
 20
-1.074811406727038
 10
22.56563620905298
 20
-1.074735645689032
 10
22.56205307238999
 20
-1.074611961620038
 10
22.55847060508198
 20
-1.074440429054021
 10
22.554889555112
 20
-1.074221122526014
 10
22.55131067046499
 20
-1.073954116571032
 10
22.54773469912598
 20
-1.073639485724017
 10
22.54416238907998
 20
-1.073277304519025
 10
22.540594488311
 20
-1.07286764749003
 10
22.53703174480398
 20
-1.072410589172023
 10
22.53347490654296
 20
-1.071906204100032
 10
22.52992472151299
 20
-1.071354566808027
 10
22.526381937699
 20
-1.070755751832024
 10
22.52284730308598
 20
-1.070109833705034
 10
22.51932156565798
 20
-1.069416886962019
 10
22.51580547339896
 20
-1.068676986137035
 10
22.512299774295
 20
-1.067890205766021
 10
22.50880521632697
 20
-1.067056620387035
 10
22.505322458866
 20
-1.066176404543029
 10
22.50185184166198
 20
-1.065250093504034
 10
22.49839363242498
 20
-1.064278303840014
 10
22.49494809886797
 20
-1.06326165212303
 10
22.49151550869898
 20
-1.062200754927034
 10
22.48809612963099
 20
-1.061096228822006
 10
22.48412390856799
 20
-1.05975329551103
 10
22.48017045877898
 20
-1.058352796726014
 10
22.47623620537898
 20
-1.056895711558011
 10
22.47232157348098
 20
-1.055383019101014
 10
22.46842698820199
 20
-1.053815698449029
 10
22.46455287465598
 20
-1.052194728694016
 10
22.46069965795697
 20
-1.050521088932016
 10
22.456867763221
 20
-1.048795758254017
 10
22.45305761556099
 20
-1.047019715755024
 10
22.44926964009298
 20
-1.045193940527014
 10
22.444968220232
 20
-1.043047699029018
 10
22.44069694979399
 20
-1.040839240818032
 10
22.43645646335199
 20
-1.038570027398006
 10
22.43224739547998
 20
-1.03624152027203
 10
22.42807038075099
 20
-1.033855180946035
 10
22.42392605373998
 20
-1.031412470922022
 10
22.41930354800699
 20
-1.028598861289027
 10
22.41472411932298
 20
-1.025717838139029
 10
22.41018867120998
 20
-1.022771482401025
 10
22.40569810719198
 20
-1.019761875007022
 10
22.40076226164398
 20
-1.016346163792037
 10
22.39588312767799
 20
-1.012857042347033
 10
22.39106032314296
 20
-1.009296220418037
 10
22.38629345296498
 20
-1.005665398626035
 10
22.38158212207097
 20
-1.001966277597035
 10
22.376463334443
 20
-0.9978203885410179
 10
22.37141074546698
 20
-0.9935961786910382
 10
22.36642382930396
 20
-0.9892959115790375
 10
22.36150206010998
 20
-0.9849218507340278
 10
22.35620653930797
 20
-0.9800686463220271
 10
22.350987240302
 20
-0.9751332537350119
 10
22.34541822209996
 20
-0.9696972396940306
 10
22.33993698946096
 20
-0.9641719538320243
 10
22.33454267441098
 20
-0.9585611324210127
 10
22.32923440897298
 20
-0.9528685117290391
 10
22.32401132517298
 20
-0.9470978280280375
 10
22.31848073241598
 20
-0.9408002299170192
 10
22.31304683947198
 20
-0.9344210968910175
 10
22.307708562176
 20
-0.9279650455240215
 10
22.30246481435699
 20
-0.9214354824720231
 10
22.29731450777498
 20
-0.9148345693610366
 10
22.29225655409498
 20
-0.9081644108600272
 10
22.28728986498397
 20
-0.9014271116350327
 10
22.28206845162497
 20
-0.8941364622480161
 10
22.27694921829896
 20
-0.8867737427720239
 10
22.27193082640196
 20
-0.8793415418580277
 10
22.26701193733096
 20
-0.8718424481550385
 10
22.262191212483
 20
-0.8642790503110148
 10
22.25746731325297
 20
-0.8566539369760192
 10
22.25253370252997
 20
-0.8484553752400383
 10
22.24770711024298
 20
-0.8401926819580324
 10
22.24298591182197
 20
-0.831868998792035
 10
22.23836848269795
 20
-0.8234874674040241
 10
22.23357434746898
 20
-0.8145222198690218
 10
22.22889367534496
 20
-0.8054987330660335
 10
22.224325084274
 20
-0.7964193630840298
 10
22.21986732836997
 20
-0.7872861266040189
 10
22.21551916176
 20
-0.7781010402700331
 10
22.211033284601
 20
-0.7683213813610365
 10
22.20666739312198
 20
-0.7584882479400249
 10
22.20242000840797
 20
-0.7486040338710353
 10
22.19828965154098
 20
-0.738671133018019
 10
22.19427484360199
 20
-0.7286919392470309
 10
22.19016071294598
 20
-0.7181107688620357
 10
22.186171939464
 20
-0.7074835016780156
 10
22.18230678380598
 20
-0.6968129531110236
 10
22.17856350661898
 20
-0.686101938581035
 10
22.17550768554098
 20
-0.6770623073460371
  0
LWPOLYLINE
  5
802
330
1E
100
AcDbEntity
  8
1
100
AcDbPolyline
 90
        4
 70
     0
 43
0.0
 10
27.82449547310001
 20
33.73078916529996
 10
27.70732294944199
 20
33.92415177453194
 10
27.33215060706598
 20
34.55881790201599
 10
27.11128139430198
 20
34.94045661259097
  0
LWPOLYLINE
  5
808
330
1E
100
AcDbEntity
  8
1
100
AcDbPolyline
 90
        4
 70
     0
 43
0.0
 10
22.17550452689998
 20
33.73078916529996
 10
22.29267705052998
 20
33.92415177453997
 10
22.66784939292199
 20
34.55881790198398
 10
22.88871860559801
 20
34.94045661258997
  0
LWPOLYLINE
  5
80E
330
1E
100
AcDbEntity
  8
1
100
AcDbPolyline
 90
       77
 70
     0
 43
0.0
 10
27.7703708736
 20
-32.2570258668
 10
27.76707315667698
 20
-32.25700584045902
 10
27.76377934195099
 20
-32.257079061208
 10
27.76049209153998
 20
-32.25724417395304
 10
27.75721192914
 20
-32.25749835124401
 10
27.75393937571698
 20
-32.25783876375504
 10
27.75067495223999
 20
-32.25826258215704
 10
27.74741917967699
 20
-32.25876697712505
 10
27.74417257899497
 20
-32.25934911933001
 10
27.74093567116199
 20
-32.26000617944601
 10
27.73770897714499
 20
-32.26073532814501
 10
27.73449301791298
 20
-32.261533736101
 10
27.73128831443397
 20
-32.26239857398502
 10
27.72809538767399
 20
-32.26332701247098
 10
27.72491475860197
 20
-32.264316222231
 10
27.72174694818599
 20
-32.26536337393901
 10
27.718592477393
 20
-32.26646563826705
 10
27.71545186719098
 20
-32.26762018588704
 10
27.711286848279
 20
-32.269236022087
 10
27.70714863146898
 20
-32.270933069894
 10
27.70303845164898
 20
-32.27270462275602
 10
27.69895754370299
 20
-32.27454397411804
 10
27.693899453618
 20
-32.27692828794904
 10
27.68889143953299
 20
-32.279394967259
 10
27.68393494265998
 20
-32.28193380279601
 10
27.67805377222899
 20
-32.28507141634401
 10
27.67224313099899
 20
-32.288305065097
 10
27.66650073878798
 20
-32.29163130849503
 10
27.66082431541198
 20
-32.29504670597798
 10
27.65521158068699
 20
-32.298547816986
 10
27.64966025442999
 20
-32.30213120096005
 10
27.64325827860699
 20
-32.30641120941601
 10
27.63693316210299
 20
-32.31079305405403
 10
27.63068128407097
 20
-32.31527127139202
 10
27.623621315549
 20
-32.32050023290503
 10
27.61664687129196
 20
-32.32583977758901
 10
27.608896120016
 20
-32.33196879237601
 10
27.60123907421899
 20
-32.33821583042004
 10
27.59283186910499
 20
-32.34528139286203
 10
27.58369835733998
 20
-32.35319209162804
 10
27.57468132992698
 20
-32.36124114505901
 10
27.5649737606
 20
-32.37017203154602
 10
27.555397062303
 20
-32.37925128258302
 10
27.54516529742598
 20
-32.38924470634003
 10
27.53430703094199
 20
-32.40017803533703
 10
27.52285081243698
 20
-32.41207433386103
 10
27.51082468439298
 20
-32.42495296515404
 10
27.498255655359
 20
-32.43882848482201
 10
27.48516924114298
 20
-32.45370978930401
 10
27.47230080387097
 20
-32.46876771724799
 10
27.45894593254599
 20
-32.48484471966901
 10
27.44581755325997
 20
-32.50110031573103
 10
27.43223376051398
 20
-32.51839449377502
 10
27.41822036451298
 20
-32.53674408797503
 10
27.40380185875599
 20
-32.556163943358
 10
27.38900103849698
 20
-32.576666501538
 10
27.37383894165799
 20
-32.59826166552802
 10
27.35895495990698
 20
-32.62004997302302
 10
27.34374099838698
 20
-32.64294287375503
 10
27.32881758781198
 20
-32.666027767623
 10
27.31359940267998
 20
-32.690230169779
 10
27.29868304963297
 20
-32.714620621307
 10
27.28350566748898
 20
-32.74013748729702
 10
27.26864014942098
 20
-32.76583547983499
 10
27.25408343470297
 20
-32.79170764909098
 10
27.23931322450499
 20
-32.81871747605602
 10
27.22487408685799
 20
-32.84590536963701
 10
27.21076552553798
 20
-32.873266649159
 10
27.19698704431797
 20
-32.90079663394704
 10
27.18353815848098
 20
-32.92849064604604
 10
27.17088350063298
 20
-32.95534707722505
 10
27.15854369385697
 20
-32.98234967442903
 10
27.14696526063898
 20
-33.00848810209902
 10
27.13569198643698
 20
-33.03475774158204
 10
27.12514610673297
 20
-33.06013877286801
 10
27.11489410583398
 20
-33.08563726672598
 10
27.11128007265199
 20
-33.09483580079803
  0
LWPOLYLINE
  5
85D
330
1E
100
AcDbEntity
  8
1
100
AcDbPolyline
 90
       77
 70
     0
 43
0.0
 10
22.22962912629999
 20
-32.2570258668
 10
22.23292684322398
 20
-32.25700584046001
 10
22.23622065794998
 20
-32.257079061208
 10
22.23950790835999
 20
-32.25724417395201
 10
22.24278807076097
 20
-32.25749835124304
 10
22.24606062418398
 20
-32.25783876375203
 10
22.24932504766099
 20
-32.25826258215403
 10
22.25258082022496
 20
-32.25876697712005
 10
22.25582742090698
 20
-32.25934911932404
 10
22.25906432874097
 20
-32.26000617943805
 10
22.26229102275798
 20
-32.26073532813602
 10
22.26550698198999
 20
-32.261533736089
 10
22.26871168546998
 20
-32.26239857397104
 10
22.27190461223099
 20
-32.26332701245502
 10
22.27508524130298
 20
-32.26431622221304
 10
22.27825305171998
 20
-32.265363373919
 10
22.281407522514
 20
-32.26646563824402
 10
22.28454813271699
 20
-32.26762018586299
 10
22.28871315162999
 20
-32.26923602205904
 10
22.29285136844096
 20
-32.27093306986302
 10
22.29696154826299
 20
-32.27270462272201
 10
22.30104245620998
 20
-32.274543974082
 10
22.30610054629698
 20
-32.27692828791004
 10
22.31110856038298
 20
-32.27939496721603
 10
22.31606505725796
 20
-32.28193380275104
 10
22.321946227691
 20
-32.28507141629602
 10
22.32775686892298
 20
-32.28830506504602
 10
22.33349926113598
 20
-32.29163130844205
 10
22.33917568451399
 20
-32.29504670592302
 10
22.34478841924098
 20
-32.29854781692903
 10
22.35033974549898
 20
-32.30213120090201
 10
22.35674172132299
 20
-32.30641120935604
 10
22.36306683782899
 20
-32.31079305399298
 10
22.36931871586198
 20
-32.31527127133102
 10
22.376378684385
 20
-32.32050023284404
 10
22.38335312864298
 20
-32.32583977752904
 10
22.39110387991797
 20
-32.33196879231702
 10
22.39876092571497
 20
-32.338215830362
 10
22.40716813082696
 20
-32.34528139280604
 10
22.41630164258898
 20
-32.35319209157604
 10
22.42531866999899
 20
-32.361241145012
 10
22.43502623932198
 20
-32.37017203150401
 10
22.44460293761397
 20
-32.37925128254602
 10
22.45483470248598
 20
-32.389244706309
 10
22.46569296896399
 20
-32.40017803531202
 10
22.47714918746399
 20
-32.41207433384301
 10
22.48917531550298
 20
-32.42495296514005
 10
22.50174434453497
 20
-32.43882848481303
 10
22.51483075875098
 20
-32.45370978929702
 10
22.52769919602598
 20
-32.46876771724004
 10
22.54105406735698
 20
-32.48484471965598
 10
22.55418244665297
 20
-32.50110031571301
 10
22.56776623940897
 20
-32.51839449375001
 10
22.581779635423
 20
-32.53674408794103
 10
22.59619814119198
 20
-32.55616394331605
 10
22.610998961462
 20
-32.57666650148804
 10
22.62616105830899
 20
-32.59826166547203
 10
22.64104504006497
 20
-32.62004997296502
 10
22.65625900158699
 20
-32.64294287369699
 10
22.67118241216198
 20
-32.66602776756605
 10
22.68640059729296
 20
-32.69023016972403
 10
22.70131695033798
 20
-32.71462062125505
 10
22.716494332482
 20
-32.74013748724701
 10
22.73135985055198
 20
-32.76583547978702
 10
22.74591656527499
 20
-32.79170764904302
 10
22.76068677547697
 20
-32.81871747600702
 10
22.77512591312798
 20
-32.84590536958801
 10
22.78923447444999
 20
-32.87326664911002
 10
22.80301295566696
 20
-32.90079663390002
 10
22.81646184149696
 20
-32.92849064600404
 10
22.82911649933097
 20
-32.95534707719002
 10
22.84145630609099
 20
-32.98234967440203
 10
22.85303473929297
 20
-33.00848810208099
 10
22.86430801347998
 20
-33.03475774157102
 10
22.87485389317299
 20
-33.06013877286403
 10
22.88510589406598
 20
-33.08563726672502
 10
22.88871992724798
 20
-33.09483580079803
  0
LWPOLYLINE
  5
8AC
330
1E
100
AcDbEntity
  8
1
100
AcDbPolyline
 90
       53
 70
     0
 43
0.0
 10
27.8244954731
 20
-32.27334258900004
 10
27.82366037952698
 20
-32.27276063063504
 10
27.82281670040598
 20
-32.27218995218902
 10
27.82196463091799
 20
-32.27163051375601
 10
27.821104366246
 20
-32.27108227542601
 10
27.820236101571
 20
-32.27054519729103
 10
27.819360032074
 20
-32.27001923944202
 10
27.81847635293797
 20
-32.26950436197103
 10
27.81758525934398
 20
-32.26900052497001
 10
27.81668694647398
 20
-32.26850768852904
 10
27.815781609509
 20
-32.26802581274103
 10
27.81486944363098
 20
-32.267554857697
 10
27.81395064402298
 20
-32.26709478348801
 10
27.81302540586497
 20
-32.26664555020601
 10
27.81209392433899
 20
-32.26620711794203
 10
27.81110413622499
 20
-32.26575600200504
 10
27.810107838791
 20
-32.26531682913304
 10
27.80910526158697
 20
-32.26488955239101
 10
27.80809663416798
 20
-32.264474124841
 10
27.80708218608598
 20
-32.26407049955003
 10
27.80606214689298
 20
-32.26367862957799
 10
27.80503674614299
 20
-32.26329846799103
 10
27.80400621338698
 20
-32.26292996785304
 10
27.80297077817901
 20
-32.26257308222602
 10
27.80193067007099
 20
-32.262227764175
 10
27.800886118617
 20
-32.26189396676301
 10
27.79983735336699
 20
-32.26157164305401
 10
27.79878460387698
 20
-32.26126074611203
 10
27.79772809969699
 20
-32.26096122900003
 10
27.79661218606497
 20
-32.260658190233
 10
27.79549263420499
 20
-32.26036765394606
 10
27.79436971185399
 20
-32.26008956539402
 10
27.79324368675199
 20
-32.25982386983304
 10
27.792114826638
 20
-32.25957051251798
 10
27.79098339924999
 20
-32.25932943870702
 10
27.78984967232699
 20
-32.25910059365401
 10
27.78871391360998
 20
-32.25888392261504
 10
27.787576390835
 20
-32.25867937084604
 10
27.78643737174297
 20
-32.258486883604
 10
27.785297124073
 20
-32.25830640614304
 10
27.78415591556298
 20
-32.25813788371999
 10
27.78295690547997
 20
-32.25797374188498
 10
27.78175744119498
 20
-32.25782265675103
 10
27.78055783264897
 20
-32.25768456494302
 10
27.77935838978299
 20
-32.25755940308999
 10
27.77815942253897
 20
-32.25744710781798
 10
27.77696124085798
 20
-32.25734761575302
 10
27.77576415468198
 20
-32.25726086352206
 10
27.77456847395098
 20
-32.25718678775303
 10
27.77337450860699
 20
-32.257125325071
 10
27.77218256859097
 20
-32.25707641210401
 10
27.77093637952598
 20
-32.25703856124999
 10
27.77038087170598
 20
-32.25702606692903
  0
LWPOLYLINE
  5
8E3
330
1E
100
AcDbEntity
  8
1
100
AcDbPolyline
 90
       71
 70
     0
 43
0.0
 10
22.88501445029996
 20
-25.5132659162
 10
22.88293519221598
 20
-25.51325005744303
 10
22.88085740777597
 20
-25.51319858288604
 10
22.87878127978696
 20
-25.51311216326201
 10
22.87670699105299
 20
-25.51299146930301
 10
22.87463472438
 20
-25.51283717174202
 10
22.87256466257298
 20
-25.51264994131098
 10
22.87049698843897
 20
-25.51243044874304
 10
22.86843188478099
 20
-25.51217936477002
 10
22.86568272771798
 20
-25.51179660324601
 10
22.86293889869698
 20
-25.51136046152299
 10
22.86020083103398
 20
-25.51087252948605
 10
22.85746895804597
 20
-25.51033439701905
 10
22.85474371304998
 20
-25.50974765400702
 10
22.85202552936198
 20
-25.50911389033502
 10
22.84931484029797
 20
-25.50843469588704
 10
22.84661207917698
 20
-25.50771166054703
 10
22.84391767931298
 20
-25.50694637420106
 10
22.84123207402498
 20
-25.50614042673299
 10
22.83855569662799
 20
-25.50529540802698
 10
22.83522386173498
 20
-25.50418661280803
 10
22.83190796880198
 20
-25.50302235821801
 10
22.82860886414999
 20
-25.50180574950104
 10
22.82532739409997
 20
-25.50053989190002
 10
22.82206440497398
 20
-25.49922789065901
 10
22.81817440446499
 20
-25.49759695174806
 10
22.81431369763299
 20
-25.49590940340506
 10
22.81048352402399
 20
-25.49417016407
 10
22.806053412251
 20
-25.49207862792001
 10
22.80166377909398
 20
-25.48992173287603
 10
22.797313677212
 20
-25.48770143659004
 10
22.79300215926796
 20
-25.485419696716
 10
22.78872827792199
 20
-25.48307847090701
 10
22.78388871248397
 20
-25.48033245562301
 10
22.77909565360797
 20
-25.47751422357003
 10
22.77434768719098
 20
-25.47462669695802
 10
22.76964339913097
 20
-25.47167279799799
 10
22.76440152362297
 20
-25.46827396446805
 10
22.75921112537
 20
-25.46479898758605
 10
22.75350194185396
 20
-25.46085365882902
 10
22.74785106285598
 20
-25.456825170076
 10
22.74169914132297
 20
-25.45230459448704
 10
22.73506028333498
 20
-25.447275099399
 10
22.72794797161998
 20
-25.44172226004703
 10
22.71983684869999
 20
-25.43519639630102
 10
22.71129019217396
 20
-25.42811043918204
 10
22.70284885367797
 20
-25.42090162849603
 10
22.69399220236698
 20
-25.41311341998005
 10
22.68473699682598
 20
-25.40472912387106
 10
22.67509990664899
 20
-25.39573305012702
 10
22.66509732818198
 20
-25.38611084810401
 10
22.65474519004399
 20
-25.37584986510701
 10
22.64357674332898
 20
-25.36443990335204
 10
22.632103038797
 20
-25.35235851138504
 10
22.62033706549698
 20
-25.33960179846201
 10
22.608290760317
 20
-25.32616834412204
 10
22.59597847330196
 20
-25.31205052286201
 10
22.58341559100299
 20
-25.29723772452503
 10
22.57061679451698
 20
-25.28172046636701
 10
22.55759590929398
 20
-25.26549058612602
 10
22.54436575987496
 20
-25.24854141666305
 10
22.53052203678696
 20
-25.23031290659901
 10
22.516505228993
 20
-25.21134650274702
 10
22.50192226261998
 20
-25.19107636288504
 10
22.48720069995399
 20
-25.17005511177603
 10
22.47235694488898
 20
-25.14827600508903
 10
22.45778716373498
 20
-25.12631335107903
 10
22.44311314742398
 20
-25.10359107847405
 10
22.42835054429697
 20
-25.080104884072
 10
22.41351462111798
 20
-25.05585161736401
 10
22.40390994955498
 20
-25.03979437271203
  0
LWPOLYLINE
  5
92C
330
1E
100
AcDbEntity
  8
1
100
AcDbPolyline
 90
        5
 70
     0
 43
0.0
 10
22.40390484949998
 20
-25.03978577100002
 10
22.38946270828698
 20
-25.01509958377603
 10
22.37530787573098
 20
-24.99024592978202
 10
22.36144054120998
 20
-24.965231279634
 10
22.35532227927496
 20
-24.95397606638205
  0
LWPOLYLINE
  5
933
330
1E
100
AcDbEntity
  8
1
100
AcDbPolyline
 90
        5
 70
     0
 43
0.0
 10
22.35531752579999
 20
-24.95396726840005
 10
22.34173620265698
 20
-24.92848243296004
 10
22.32844503403998
 20
-24.90284360034304
 10
22.315443899602
 20
-24.87705705854699
 10
22.310311706904
 20
-24.86667620818503
  0
LWPOLYLINE
  5
93A
330
1E
100
AcDbEntity
  8
1
100
AcDbPolyline
 90
        7
 70
     0
 43
0.0
 10
22.31030729509999
 20
-24.86666723400003
 10
22.29766340580297
 20
-24.840578951081
 10
22.28557252494098
 20
-24.81490295506404
 10
22.27395905014998
 20
-24.78951153908004
 10
22.26287618509498
 20
-24.76455476769104
 10
22.25225074236698
 20
-24.73990250848205
 10
22.246837092904
 20
-24.72704799576002
  0
LWPOLYLINE
  5
943
330
1E
100
AcDbEntity
  8
1
100
AcDbPolyline
 90
       81
 70
     0
 43
0.0
 10
27.11498554969998
 20
-25.5132659162
 10
27.11748784596499
 20
-25.51324244541898
 10
27.11998795367998
 20
-25.51316758269702
 10
27.12373331459599
 20
-25.51296148656899
 10
27.12747195867298
 20
-25.51264633588903
 10
27.13120281035199
 20
-25.51222607704501
 10
27.13492479407298
 20
-25.51170465642901
 10
27.13863683427598
 20
-25.51108602042905
 10
27.14233785540198
 20
-25.51037411543405
 10
27.14602678189097
 20
-25.50957288783502
 10
27.14970253818298
 20
-25.50868628402098
 10
27.15336404871997
 20
-25.50771825038099
 10
27.15701023794098
 20
-25.50667273330597
 10
27.160640030287
 20
-25.50555367918303
 10
27.16425235019798
 20
-25.504365034403
 10
27.16784612211498
 20
-25.50311074535603
 10
27.17142027047898
 20
-25.501794758431
 10
27.17615341710998
 20
-25.49995095564097
 10
27.18084721584199
 20
-25.49801383794203
 10
27.185499117202
 20
-25.49599275974101
 10
27.19010693683998
 20
-25.49389634252202
 10
27.19467080695598
 20
-25.491728557763
 10
27.19919176538097
 20
-25.48949155906001
 10
27.20478420310698
 20
-25.48660125304901
 10
27.210313247296
 20
-25.48361035673503
 10
27.21578092904698
 20
-25.48052306816401
 10
27.22118927946198
 20
-25.47734358538401
 10
27.226540329638
 20
-25.47407610644
 10
27.231836110676
 20
-25.47072482937998
 10
27.23812095244798
 20
-25.46659859424404
 10
27.244332641184
 20
-25.46236498923303
 10
27.25047468662399
 20
-25.45803126857203
 10
27.25755706727797
 20
-25.45285840397202
 10
27.26455500615299
 20
-25.44757066409299
 10
27.27245640195401
 20
-25.44140164632205
 10
27.28123263474198
 20
-25.43432141103604
 10
27.289897325943
 20
-25.42710898308702
 10
27.29939797837598
 20
-25.41894770609502
 10
27.30876906110998
 20
-25.41063834772303
 10
27.31893239610198
 20
-25.40133584516103
 10
27.32894916469799
 20
-25.39187295420299
 10
27.339715676373
 20
-25.38137844352502
 10
27.35119780201099
 20
-25.36982203109801
 10
27.36336183405096
 20
-25.35717691962902
 10
27.37532784150098
 20
-25.34434447406904
 10
27.38794123901698
 20
-25.33041033264204
 10
27.40117035068399
 20
-25.31535465413099
 10
27.414175062553
 20
-25.30011023430403
 10
27.42775564209498
 20
-25.28371715222704
 10
27.44110152329298
 20
-25.26713372707604
 10
27.45498730790898
 20
-25.24938035100603
 10
27.46938332861101
 20
-25.230438767061
 10
27.48426170268899
 20
-25.210293892408
 10
27.49959653103198
 20
-25.18893409278899
 10
27.51464798249398
 20
-25.16737568201001
 10
27.53011867445698
 20
-25.14458669468201
 10
27.54529145158298
 20
-25.12159814580702
 10
27.56084252799499
 20
-25.09736139274202
 10
27.57608274363699
 20
-25.07292733512902
 10
27.59166230492898
 20
-25.04723207345501
 10
27.60691971201298
 20
-25.02134523520302
 10
27.62185859995298
 20
-24.99527443551903
 10
27.636480042356
 20
-24.96902496791602
 10
27.65078508275097
 20
-24.94260209864803
 10
27.66477476466898
 20
-24.91601109396798
 10
27.67845013163996
 20
-24.88925722013102
 10
27.69236218851
 20
-24.86122108437605
 10
27.70539704205499
 20
-24.834149975662
 10
27.71811229382697
 20
-24.80692758266201
 10
27.72999229076998
 20
-24.78069895545503
 10
27.74156797999799
 20
-24.75433422562002
 10
27.75283408395898
 20
-24.72783478161499
 10
27.763315802997
 20
-24.702362711945
 10
27.77350436768799
 20
-24.67676985737905
 10
27.78294697497397
 20
-24.65222857908202
 10
27.79167215798099
 20
-24.62875520168199
 10
27.80012572567298
 20
-24.60518424131703
 10
27.80789574088998
 20
-24.58270206232004
 10
27.81501427108099
 20
-24.56132301292603
 10
27.82188924586899
 20
-24.53986649166103
 10
27.82449252026799
 20
-24.53151102749802
  0
LWPOLYLINE
  5
996
330
1E
100
AcDbEntity
  8
1
100
AcDbPolyline
 90
       53
 70
     0
 43
0.0
 10
22.17550452689998
 20
-32.27334258900004
 10
22.17633962047198
 20
-32.27276063063504
 10
22.17718329959097
 20
-32.272189952191
 10
22.17803536907698
 20
-32.27163051375902
 10
22.178895633748
 20
-32.27108227543004
 10
22.17976389842197
 20
-32.27054519729501
 10
22.18063996791698
 20
-32.27001923944703
 10
22.18152364705098
 20
-32.269504361977
 10
22.18241474064396
 20
-32.26900052497603
 10
22.18331305351199
 20
-32.26850768853604
 10
22.18421839047598
 20
-32.26802581274802
 10
22.18513055635198
 20
-32.267554857704
 10
22.18604935595898
 20
-32.267094783495
 10
22.18697459411498
 20
-32.26664555021301
 10
22.18790607563896
 20
-32.26620711795003
 10
22.18889586375098
 20
-32.26575600201204
 10
22.18989216118298
 20
-32.26531682914099
 10
22.19089473838498
 20
-32.26488955239802
 10
22.19190336580197
 20
-32.26447412485004
 10
22.19291781388198
 20
-32.26407049955803
 10
22.19393785307298
 20
-32.26367862958602
 10
22.19496325382196
 20
-32.26329846799905
 10
22.195993786575
 20
-32.26292996786003
 10
22.19702922178099
 20
-32.26257308223301
 10
22.19806932988697
 20
-32.262227764182
 10
22.19911388133998
 20
-32.26189396677
 10
22.20016264658699
 20
-32.26157164306101
 10
22.20121539607597
 20
-32.26126074611801
 10
22.202271900254
 20
-32.26096122900703
 10
22.20338781388297
 20
-32.26065819023904
 10
22.20450736574099
 20
-32.26036765395202
 10
22.20563028808999
 20
-32.26008956539903
 10
22.20675631319
 20
-32.25982386983803
 10
22.207885173302
 20
-32.25957051252299
 10
22.20901660068798
 20
-32.259329438711
 10
22.21015032760797
 20
-32.25910059365804
 10
22.21128608632398
 20
-32.25888392261799
 10
22.21242360909597
 20
-32.25867937085002
 10
22.21356262818598
 20
-32.25848688360702
 10
22.21470287585398
 20
-32.25830640614602
 10
22.21584408436198
 20
-32.25813788372301
 10
22.21704309444298
 20
-32.25797374188704
 10
22.21824255872598
 20
-32.25782265675201
 10
22.21944216726898
 20
-32.25768456494501
 10
22.22064161013297
 20
-32.25755940309102
 10
22.22184057737498
 20
-32.25744710781798
 10
22.22303875905298
 20
-32.25734761575302
 10
22.22423584522798
 20
-32.25726086352206
 10
22.22543152595699
 20
-32.25718678775303
 10
22.22662549129798
 20
-32.257125325071
 10
22.22781743131199
 20
-32.25707641210401
 10
22.229063620375
 20
-32.25703856124999
 10
22.22961912819398
 20
-32.25702606692903
  0
LWPOLYLINE
  5
9CD
330
1E
100
AcDbEntity
  8
1
100
AcDbPolyline
 90
       78
 70
     0
 43
0.0
 10
27.11127643550002
 20
25.19396387129998
 10
27.12075285658698
 20
25.17000970912198
 10
27.13090994573098
 20
25.14516964619597
 10
27.14135392693498
 20
25.12044631843596
 10
27.15207997777699
 20
25.09584201257498
 10
27.16352910629201
 20
25.07038225101996
 10
27.17527268082699
 20
25.04505626914698
 10
27.18777376954501
 20
25.01890056584096
 10
27.20058216262101
 20
24.99289525148296
 10
27.21369816599501
 20
24.96704495827696
 10
27.22712288928999
 20
24.94135453904599
 10
27.24085744213198
 20
24.91582884661497
 10
27.25490293414399
 20
24.89047273380796
 10
27.26926047495098
 20
24.86529105344698
 10
27.28338226953296
 20
24.84121147292597
 10
27.29779801852898
 20
24.81730513388296
 10
27.31194304613201
 20
24.79449145810097
 10
27.32637278916199
 20
24.77185732098996
 10
27.340499201244
 20
24.75030638695097
 10
27.35489967981801
 20
24.72893828838996
 10
27.36896260408299
 20
24.70863996796096
 10
27.383287515116
 20
24.68852486866998
 10
27.39724119722299
 20
24.66946468235096
 10
27.41080119271201
 20
24.65144918223697
 10
27.423944549993
 20
24.63446657546096
 10
27.43732142471899
 20
24.61766707605198
 10
27.45025473585299
 20
24.60188823111497
 10
27.462717626412
 20
24.58711186155396
 10
27.47539243804698
 20
24.57251188240098
 10
27.48756416220599
 20
24.55889296607398
 10
27.49993782143298
 20
24.54544788275597
 10
27.51177767399401
 20
24.53296991663899
 10
27.52305840875801
 20
24.52144657841497
 10
27.533753199149
 20
24.51086009764196
 10
27.54383427999901
 20
24.50118853753798
 10
27.55327351175499
 20
24.49240690209296
 10
27.562845789065
 20
24.48377474979996
 10
27.57174121859099
 20
24.47600104085795
 10
27.580755920515
 20
24.46836761114298
 10
27.589057614064
 20
24.46155576408398
 10
27.59746352624498
 20
24.45487093140798
 10
27.60512136548197
 20
24.44897033695198
 10
27.61200682391101
 20
24.44382832945796
 10
27.61897080168199
 20
24.43879359908396
 10
27.62513219905398
 20
24.43448403578496
 10
27.63136011583497
 20
24.43027089569199
 10
27.63675353925798
 20
24.42674143242296
 10
27.64219991112
 20
24.42329190909598
 10
27.64770111313097
 20
24.41992652497399
 10
27.653259026998
 20
24.41664947932096
 10
27.65887553443199
 20
24.41346497139997
 10
27.66360207382698
 20
24.41088493290397
 10
27.668371698894
 20
24.40837450300695
 10
27.673185498584
 20
24.40593611183698
 10
27.678044561849
 20
24.40357218952296
 10
27.68294997764197
 20
24.40128516619398
 10
27.68790283491298
 20
24.39907747197997
 10
27.69290403578798
 20
24.39695197004198
 10
27.69693888388899
 20
24.39531620846397
 10
27.70100212068099
 20
24.39374467031098
 10
27.705092124521
 20
24.39224365075398
 10
27.70920727376298
 20
24.39081944496499
 10
27.71334594676199
 20
24.38947834811497
 10
27.71646441345499
 20
24.38853085265796
 10
27.71959451595499
 20
24.38763630278796
 10
27.72273557012999
 20
24.38679735428197
 10
27.72588689184797
 20
24.38601666291399
 10
27.72904779697701
 20
24.38529688446097
 10
27.73221760138699
 20
24.38464067469698
 10
27.73539562094597
 20
24.38405068939897
 10
27.73858117152196
 20
24.38352958434097
 10
27.74177356898297
 20
24.38308001529899
 10
27.74497212919901
 20
24.38270463804895
 10
27.748176168037
 20
24.38240610836598
 10
27.75138500136601
 20
24.38218708202498
 10
27.75459794505499
 20
24.38205021480198
 10
27.757814314972
 20
24.38199816247295
 10
27.75995012842399
 20
24.38201173649898
  0
LWPOLYLINE
  5
A1D
330
1E
100
AcDbEntity
  8
1
100
AcDbPolyline
 90
       78
 70
     0
 43
0.0
 10
22.88872356439998
 20
25.19396387129998
 10
22.87924714331399
 20
25.17000970912397
 10
22.86909005416998
 20
25.14516964619997
 10
22.858646072967
 20
25.12044631844196
 10
22.84792002212601
 20
25.09584201258198
 10
22.83647089361299
 20
25.07038225102997
 10
22.82472731907899
 20
25.04505626915798
 10
22.812226230362
 20
25.01890056585498
 10
22.79941783728698
 20
24.99289525149896
 10
22.78630183391399
 20
24.96704495829495
 10
22.77287711061898
 20
24.94135453906596
 10
22.75914255777898
 20
24.91582884663796
 10
22.74509706576798
 20
24.89047273383198
 10
22.73073952496296
 20
24.86529105347296
 10
22.71661773038401
 20
24.84121147295296
 10
22.70220198139
 20
24.81730513390997
 10
22.68805695378896
 20
24.79449145812898
 10
22.673627210761
 20
24.77185732101898
 10
22.65950079868098
 20
24.75030638698098
 10
22.64510032010798
 20
24.72893828842197
 10
22.631037395844
 20
24.70863996799496
 10
22.61671248481098
 20
24.68852486870696
 10
22.60275880270298
 20
24.66946468239197
 10
22.58919880721399
 20
24.65144918228196
 10
22.576055449932
 20
24.63446657550898
 10
22.56267857520596
 20
24.61766707610296
 10
22.54974526407298
 20
24.60188823116698
 10
22.53728237351698
 20
24.58711186160496
 10
22.524607561886
 20
24.57251188244998
 10
22.512435837732
 20
24.55889296611996
 10
22.50006217851198
 20
24.54544788279497
 10
22.48822232595995
 20
24.53296991667096
 10
22.47694159120399
 20
24.52144657843897
 10
22.46624680081998
 20
24.51086009765797
 10
22.45616571997698
 20
24.50118853754799
 10
22.44672648822799
 20
24.49240690209796
 10
22.43715421092298
 20
24.48377474980095
 10
22.42825878140198
 20
24.47600104085597
 10
22.41924407947999
 20
24.46836761113996
 10
22.41094238593299
 20
24.46155576408196
 10
22.402536473754
 20
24.45487093140698
 10
22.394878634516
 20
24.44897033695397
 10
22.38799317608598
 20
24.44382832946397
 10
22.38102919831499
 20
24.43879359909396
 10
22.374867800941
 20
24.43448403579898
 10
22.36863988415897
 20
24.43027089570998
 10
22.36324646073398
 20
24.42674143244397
 10
22.35780008886998
 20
24.42329190912098
 10
22.35229888685899
 20
24.41992652500198
 10
22.34674097298996
 20
24.41664947935196
 10
22.34112446555498
 20
24.41346497143296
 10
22.33639792615896
 20
24.41088493293898
 10
22.33162830109099
 20
24.40837450304297
 10
22.326814501401
 20
24.40593611187398
 10
22.32195543813601
 20
24.40357218955998
 10
22.31705002234298
 20
24.40128516623198
 10
22.31209716507199
 20
24.39907747201697
 10
22.30709596419798
 20
24.39695197007797
 10
22.30306111609797
 20
24.39531620849797
 10
22.29899787930598
 20
24.39374467034298
 10
22.294907875467
 20
24.39224365078397
 10
22.29079272622598
 20
24.39081944499199
 10
22.28665405322899
 20
24.38947834813896
 10
22.283535586536
 20
24.38853085267997
 10
22.28040548403698
 20
24.38763630280798
 10
22.27726442986298
 20
24.38679735429897
 10
22.27411310814598
 20
24.38601666292897
 10
22.270952203017
 20
24.38529688447396
 10
22.26778239860796
 20
24.38464067470798
 10
22.26460437904997
 20
24.38405068940696
 10
22.26141882847497
 20
24.38352958434796
 10
22.25822643101398
 20
24.38308001530399
 10
22.25502787079898
 20
24.38270463805198
 10
22.25182383196198
 20
24.38240610836797
 10
22.24861499863298
 20
24.38218708202597
 10
22.245402054945
 20
24.38205021480297
 10
22.24218568502796
 20
24.38199816247295
 10
22.24004987157599
 20
24.38201173649898
  0
LWPOLYLINE
  5
A6D
330
1E
100
AcDbEntity
  8
1
100
AcDbPolyline
 90
       82
 70
     0
 43
0.0
 10
27.82449547310001
 20
16.36720071479996
 10
27.81791643184901
 20
16.38827977946798
 10
27.81109735970296
 20
16.40928449487596
 10
27.80364624152699
 20
16.43137462312697
 10
27.79594259520499
 20
16.45338013731597
 10
27.78756909821801
 20
16.47645142355797
 10
27.77849468776897
 20
16.50057312075998
 10
27.76914133102499
 20
16.52458793799995
 10
27.75905408170098
 20
16.54963032600095
 10
27.74867782382798
 20
16.57455247661593
 10
27.73801638746198
 20
16.59935274896398
 10
27.72656955833397
 20
16.62514821069998
 10
27.71481955319298
 20
16.65080679282397
 10
27.702770725177
 20
16.67632661971498
 10
27.68988414972501
 20
16.70280603996697
 10
27.67668082324599
 20
16.72912957781996
 10
27.66316019008598
 20
16.75529186766198
 10
27.64932053874
 20
16.78128686432899
 10
27.63575659934398
 20
16.80603615975897
 10
27.62189659455201
 20
16.83062094020597
 10
27.60773901800599
 20
16.85503588510098
 10
27.59328235453001
 20
16.87927566611997
 10
27.57852306828498
 20
16.90333317722599
 10
27.56411483727299
 20
16.92616388927896
 10
27.549414635647
 20
16.94880740807596
 10
27.53510322189899
 20
16.97023764849596
 10
27.52051213426998
 20
16.99147909705098
 10
27.50634974998799
 20
17.01152538173197
 10
27.491921894382
 20
17.03138466105996
 10
27.47796311201698
 20
17.05006905361097
 10
27.46450145081299
 20
17.06759151684698
 10
27.45079697191599
 20
17.08492388795496
 10
27.43762055472799
 20
17.10110431374596
 10
27.42500336328399
 20
17.11615282608596
 10
27.41216862876598
 20
17.13101514428197
 10
27.399931325393
 20
17.14476942241793
 10
27.38748909903998
 20
17.15834082194698
 10
27.37568538714498
 20
17.17083383682096
 10
27.36368752181598
 20
17.18314352049898
 10
27.352361346344
 20
17.19439055901897
 10
27.34173864309898
 20
17.20459991710194
 10
27.33185236331598
 20
17.21380071096698
 10
27.32273575981599
 20
17.22202475108898
 10
27.31349124756297
 20
17.23010678939996
 10
27.30505784229498
 20
17.23725252113996
 10
27.29651341569999
 20
17.24427077195198
 10
27.28785445529799
 20
17.25115563998397
 10
27.27907744860798
 20
17.25790122338597
 10
27.271173311622
 20
17.26377370624395
 10
27.26417398800399
 20
17.26880344022998
 10
27.25810953581297
 20
17.27302296241498
 10
27.25198236152901
 20
17.27714872082296
 10
27.24578991426398
 20
17.28117205879697
 10
27.24057783989901
 20
17.28444035725797
 10
27.23531718941798
 20
17.28762650920899
 10
27.23000648661198
 20
17.29072550500998
 10
27.224644255274
 20
17.29373233501996
 10
27.21922901919498
 20
17.29664198959898
 10
27.21485767490698
 20
17.29889638047399
 10
27.21045070699398
 20
17.30108280796696
 10
27.20600735963699
 20
17.30319870714392
 10
27.20152687701798
 20
17.30524151306697
 10
27.197008503318
 20
17.30720866080198
 10
27.19245148271798
 20
17.30909758541199
 10
27.18785505939998
 20
17.31090572196196
 10
27.18321864162899
 20
17.31263024615997
 10
27.17854371537097
 20
17.31426504962697
 10
27.17501399967398
 20
17.31542724494298
 10
27.17146550117901
 20
17.31653072205497
 10
27.16789946014399
 20
17.31757193448296
 10
27.164317116826
 20
17.31854733574698
 10
27.16071971148198
 20
17.31945337936896
 10
27.15710848436799
 20
17.32028651886797
 10
27.15348467574298
 20
17.32104320776596
 10
27.14984952586197
 20
17.32171989958198
 10
27.14620427498298
 20
17.32231304783798
 10
27.14255016336299
 20
17.32281910605397
 10
27.13888843125798
 20
17.32323452774997
 10
27.13522031892698
 20
17.32355576644797
 10
27.13154706662598
 20
17.32377927566696
 10
27.12786991461098
 20
17.32390150892797
 10
27.12542692589298
 20
17.32392498230197
  0
LWPOLYLINE
  5
AC1
330
1E
100
AcDbEntity
  8
1
100
AcDbPolyline
 90
       82
 70
     0
 43
0.0
 10
22.17550452689998
 20
16.36720071479996
 10
22.18208356814796
 20
16.38827977946897
 10
22.18890264028498
 20
16.40928449488098
 10
22.196353758447
 20
16.43137462313697
 10
22.20405740475297
 20
16.45338013733196
 10
22.21243090172297
 20
16.47645142358097
 10
22.22150531215598
 20
16.50057312078897
 10
22.23085866888999
 20
16.52458793803296
 10
22.24094591821097
 20
16.54963032603396
 10
22.25132217608896
 20
16.57455247664697
 10
22.26198361246698
 20
16.59935274898997
 10
22.27343044161099
 20
16.62514821071997
 10
22.28518044677098
 20
16.65080679283596
 10
22.29722927480497
 20
16.67632661971996
 10
22.31011585027399
 20
16.70280603996397
 10
22.32331917676399
 20
16.72912957781198
 10
22.336839809932
 20
16.75529186765098
 10
22.35067946128102
 20
16.78128686431595
 10
22.36424340067598
 20
16.80603615974697
 10
22.378103405464
 20
16.83062094019598
 10
22.39226098200297
 20
16.85503588509597
 10
22.40671764546698
 20
16.87927566612196
 10
22.4214769317
 20
16.90333317723595
 10
22.43588516269898
 20
16.92616388929797
 10
22.45058536431299
 20
16.94880740810496
 10
22.46489677804999
 20
16.97023764853296
 10
22.47948786566998
 20
16.99147909709397
 10
22.493650249947
 20
17.01152538177797
 10
22.50807810555198
 20
17.03138466110598
 10
22.52203688791996
 20
17.05006905365496
 10
22.53549854913202
 20
17.06759151688498
 10
22.549203028037
 20
17.08492388798597
 10
22.56237944523499
 20
17.10110431376997
 10
22.57499663668798
 20
17.11615282610193
 10
22.58783137121501
 20
17.13101514429097
 10
22.60006867459599
 20
17.14476942242196
 10
22.61251090095598
 20
17.15834082194598
 10
22.62431461285399
 20
17.17083383681696
 10
22.636312478186
 20
17.18314352049195
 10
22.64763865365896
 20
17.19439055901196
 10
22.65826135690396
 20
17.20459991709494
 10
22.66814763668699
 20
17.21380071096097
 10
22.67726424018698
 20
17.22202475108298
 10
22.68650875243896
 20
17.23010678939598
 10
22.69494215770599
 20
17.23725252113698
 10
22.70348658429898
 20
17.24427077194897
 10
22.712145544701
 20
17.25115563998198
 10
22.72092255138999
 20
17.25790122338497
 10
22.72882668837599
 20
17.26377370624297
 10
22.73582601199299
 20
17.26880344022998
 10
22.74189046418399
 20
17.27302296241398
 10
22.74801763846898
 20
17.27714872082296
 10
22.754210085734
 20
17.28117205879697
 10
22.75942216009898
 20
17.28444035725797
 10
22.76468281057999
 20
17.28762650920899
 10
22.76999351338599
 20
17.29072550500998
 10
22.77535574472499
 20
17.29373233501996
 10
22.780770980803
 20
17.29664198959898
 10
22.78514232509099
 20
17.29889638047399
 10
22.78954929300399
 20
17.30108280796696
 10
22.79399264036197
 20
17.30319870714296
 10
22.798473122981
 20
17.30524151306697
 10
22.80299149668199
 20
17.30720866080095
 10
22.80754851728199
 20
17.30909758541199
 10
22.81214494059898
 20
17.31090572196196
 10
22.81678135836997
 20
17.31263024615997
 10
22.82145628462798
 20
17.31426504962697
 10
22.82498600032599
 20
17.31542724494298
 10
22.828534498821
 20
17.31653072205497
 10
22.83210053985498
 20
17.31757193448197
 10
22.83568288317399
 20
17.31854733574698
 10
22.83928028851798
 20
17.31945337936798
 10
22.842891515632
 20
17.32028651886797
 10
22.84651532425698
 20
17.32104320776596
 10
22.85015047413798
 20
17.32171989958198
 10
22.853795725017
 20
17.32231304783798
 10
22.85744983663698
 20
17.32281910605397
 10
22.86111156874198
 20
17.32323452774997
 10
22.864779681073
 20
17.32355576644797
 10
22.86845293337397
 20
17.32377927566696
 10
22.87213008538898
 20
17.32390150892797
 10
22.87457307410698
 20
17.32392498230197
  0
LWPOLYLINE
  5
B15
330
1E
100
AcDbEntity
  8
1
100
AcDbPolyline
 90
       58
 70
     0
 43
0.0
 10
27.7599601272
 20
24.38201189179997
 10
27.76126303702698
 20
24.38203936168997
 10
27.762496550381
 20
24.38207877539698
 10
27.76372979140298
 20
24.38213145892599
 10
27.76496327821098
 20
24.38219764997796
 10
27.76619752892397
 20
24.38227758625297
 10
27.76736435483599
 20
24.38236590951897
 10
27.76853235168696
 20
24.38246677896398
 10
27.76970128823899
 20
24.38258018837297
 10
27.77087092576698
 20
24.38270612921396
 10
27.77204102554299
 20
24.38284459295397
 10
27.773211348841
 20
24.38299557106399
 10
27.77438165693598
 20
24.38315905500997
 10
27.77555171110098
 20
24.38333503626195
 10
27.77672127260898
 20
24.38352350628695
 10
27.77789010273397
 20
24.38372445655498
 10
27.77905796275097
 20
24.38393787853296
 10
27.78022461393097
 20
24.38416376368996
 10
27.781389817551
 20
24.38440210349495
 10
27.78255333488198
 20
24.38465288941597
 10
27.78371492719799
 20
24.38491611291996
 10
27.78487435577499
 20
24.38519176547796
 10
27.78603138188397
 20
24.38547983855595
 10
27.78718576679898
 20
24.38578032362298
 10
27.78833727179501
 20
24.38609321214896
 10
27.78955310806102
 20
24.38643801573997
 10
27.79076516460897
 20
24.38679670524598
 10
27.791973158058
 20
24.38716927053798
 10
27.793176805027
 20
24.38755570148999
 10
27.79437582213398
 20
24.38795598797398
 10
27.79556992599799
 20
24.38837011986197
 10
27.79675883323899
 20
24.38879808702796
 10
27.797942260474
 20
24.38923987934296
 10
27.79911992432401
 20
24.38969548667998
 10
27.80029154140498
 20
24.39016489891097
 10
27.80145682833799
 20
24.39064810590997
 10
27.80261550174099
 20
24.39114509754798
 10
27.80376727823199
 20
24.39165586369897
 10
27.80491187443198
 20
24.39218039423397
 10
27.80604900695698
 20
24.39271867902698
 10
27.80717839242801
 20
24.39327070794897
 10
27.80829974746299
 20
24.39383647087296
 10
27.80941278868099
 20
24.39441595767297
 10
27.8105172327
 20
24.39500915821898
 10
27.81161279613999
 20
24.39561606238598
 10
27.812699195618
 20
24.39623666004499
 10
27.81377614775498
 20
24.39687094106798
 10
27.81484336916798
 20
24.39751889532996
 10
27.81590057647699
 20
24.39818051270096
 10
27.81694748629998
 20
24.39885578305498
 10
27.81798381525698
 20
24.39954469626397
 10
27.81900927996501
 20
24.40024724219997
 10
27.82002359704398
 20
24.40096341073598
 10
27.82102648311199
 20
24.40169319174498
 10
27.822017654788
 20
24.40243657509998
 10
27.82299682869199
 20
24.40319355067098
 10
27.82396372144101
 20
24.40396410833298
 10
27.824487751547
 20
24.40439170659995
  0
LWPOLYLINE
  5
B51
330
1E
100
AcDbEntity
  8
1
100
AcDbPolyline
 90
       58
 70
     0
 43
0.0
 10
22.24003987279997
 20
24.38201189179997
 10
22.23873696297399
 20
24.38203936168997
 10
22.23750344961897
 20
24.38207877539698
 10
22.23627020859697
 20
24.38213145892599
 10
22.23503672178896
 20
24.38219764997796
 10
22.23380247107598
 20
24.38227758625297
 10
22.23263564516398
 20
24.38236590951897
 10
22.23146764831298
 20
24.38246677896398
 10
22.23029871176098
 20
24.38258018837297
 10
22.22912907423296
 20
24.38270612921396
 10
22.22795897445699
 20
24.38284459295397
 10
22.22678865115898
 20
24.38299557106399
 10
22.22561834306397
 20
24.38315905500997
 10
22.22444828889897
 20
24.38333503626195
 10
22.22327872739096
 20
24.38352350628695
 10
22.22210989726598
 20
24.38372445655498
 10
22.22094203724898
 20
24.38393787853296
 10
22.21977538606898
 20
24.38416376368996
 10
22.21861018244899
 20
24.38440210349495
 10
22.21744666511799
 20
24.38465288941597
 10
22.21628507280199
 20
24.38491611291996
 10
22.21512564422599
 20
24.38519176547796
 10
22.21396861811598
 20
24.38547983855595
 10
22.21281423320097
 20
24.38578032362298
 10
22.211662728205
 20
24.38609321214896
 10
22.21044689193901
 20
24.38643801573997
 10
22.20923483539098
 20
24.38679670524598
 10
22.208026841942
 20
24.38716927053798
 10
22.20682319497298
 20
24.38755570148999
 10
22.20562417786598
 20
24.38795598797398
 10
22.20443007400196
 20
24.38837011986197
 10
22.20324116676099
 20
24.38879808702796
 10
22.20205773952599
 20
24.38923987934296
 10
22.20088007567698
 20
24.38969548667998
 10
22.19970845859497
 20
24.39016489891097
 10
22.19854317166198
 20
24.39064810590997
 10
22.197384498259
 20
24.39114509754798
 10
22.19623272176797
 20
24.39165586369897
 10
22.19508812556798
 20
24.39218039423397
 10
22.19395099304299
 20
24.39271867902698
 10
22.19282160757197
 20
24.39327070794897
 10
22.19170025253699
 20
24.39383647087296
 10
22.19058721131899
 20
24.39441595767297
 10
22.18948276729994
 20
24.39500915821898
 10
22.18838720386098
 20
24.39561606238598
 10
22.18730080438196
 20
24.39623666004499
 10
22.18622385224497
 20
24.39687094106798
 10
22.18515663083199
 20
24.39751889532996
 10
22.18409942352298
 20
24.39818051270096
 10
22.18305251369997
 20
24.39885578305498
 10
22.18201618474398
 20
24.39954469626397
 10
22.180990720035
 20
24.40024724219997
 10
22.17997640295698
 20
24.40096341073598
 10
22.17897351688799
 20
24.40169319174498
 10
22.177982345212
 20
24.40243657509998
 10
22.177003171308
 20
24.40319355067098
 10
22.17603627855897
 20
24.40396410833298
 10
22.17551224845301
 20
24.40439170659995
  0
LWPOLYLINE
  5
BCD
330
1E
100
AcDbEntity
  8
SK1
100
AcDbPolyline
 90
       43
 70
     0
 43
0.0
 10
-17.0
 20
-14.72243186430002
 10
-16.84016041595501
 20
-14.72330419759603
 10
-16.68031853105699
 20
-14.72591679161902
 10
-16.52049623938401
 20
-14.73026303757402
 10
-16.36071543501302
 20
-14.73633632666602
 10
-16.20099801202101
 20
-14.74413005010001
 10
-16.04136586448499
 20
-14.753637599079
 10
-15.88184088648401
 20
-14.76485236481001
 10
-15.72244497209399
 20
-14.777767738496
 10
-15.55435793943999
 20
-14.79323828012201
 10
-15.38646376316401
 20
-14.81058709080699
 10
-15.21878064807799
 20
-14.82979665069501
 10
-15.05132443148102
 20
-14.850846381283
 10
-14.88411094707902
 20
-14.87371569942
 10
-14.717156028575
 20
-14.898384021957
 10
-14.54171075198201
 20
-14.926271573258
 10
-14.36658798692499
 20
-14.95610566724801
 10
-14.19180620105799
 20
-14.98786229675502
 10
-14.01738376908999
 20
-15.02151734808401
 10
-13.834643812708
 20
-15.05886820413802
 10
-13.65233095670601
 20
-15.09824540311501
 10
-13.47045886455402
 20
-15.13961231161502
 10
-13.28041383084399
 20
-15.185043245158
 10
-13.09088324351801
 20
-15.23257557091501
 10
-12.893304734899
 20
-15.284469579171
 10
-12.69632357276099
 20
-15.33856618331602
 10
-12.49142990828101
 20
-15.39731031222001
 10
-12.287210274919
 20
-15.45834277689601
 10
-12.07520653633399
 20
-15.52429024594903
 10
-11.86395122929701
 20
-15.59259463984701
 10
-11.645049003101
 20
-15.66606228884602
 10
-11.41860438489898
 20
-15.74490276686002
 10
-11.184721571022
 20
-15.82932177135302
 10
-10.95180452526099
 20
-15.91636369380202
 10
-10.71158683086702
 20
-16.00918882755002
 10
-10.464175283396
 20
-16.10797949504902
 10
-10.20148760441099
 20
-16.21634197864501
 10
-9.931897056205004
 20
-16.33119885890601
 10
-9.655511357419015
 20
-16.452705355415
 10
-9.364371730002003
 20
-16.58471618169301
 10
-9.066733298259007
 20
-16.723836862157
 10
-8.754720288691002
 20
-16.87408177528701
 10
-8.500008944276006
 20
-16.999995527872
  0
LWPOLYLINE
  5
BFA
330
1E
100
AcDbEntity
  8
SK1
100
AcDbPolyline
 90
       43
 70
     0
 43
0.0
 10
-17.0
 20
14.72243186439996
 10
-17.15983964959199
 20
14.72330419946996
 10
-17.31968160584701
 20
14.72591679809997
 10
-17.47950396931701
 20
14.73026305041996
 10
-17.63928484055498
 20
14.73633634655996
 10
-17.79900232011101
 20
14.74413007665097
 10
-17.95863450853698
 20
14.75363763082397
 10
-18.11815950638401
 20
14.76485239920796
 10
-18.27755541420501
 20
14.77776777193398
 10
-18.44564240533201
 20
14.79323830743896
 10
-18.61353650617201
 20
14.81058709780398
 10
-18.781219523339
 20
14.82979661550197
 10
-18.94867562214301
 20
14.85084629089397
 10
-19.11588897134295
 20
14.87371554989397
 10
-19.28284373969901
 20
14.89838381841596
 10
-19.458288844804
 20
14.92627132835298
 10
-19.63341142741598
 20
14.95610540726596
 10
-19.80819302275499
 20
14.98786205855195
 10
-19.98261526831901
 20
15.02151716795398
 10
-20.16535510226501
 20
15.05886804554597
 10
-20.34766790069701
 20
15.09824522146198
 10
-20.529539972364
 20
15.13961207712497
 10
-20.71958499412398
 20
15.18504293952898
 10
-20.90911554777599
 20
15.23257519477996
 10
-21.10669396329601
 20
15.28446914849797
 10
-21.303674950018
 20
15.33856573450796
 10
-21.50856850276599
 20
15.39730985970396
 10
-21.71278812071599
 20
15.45834232127197
 10
-21.92479190067001
 20
15.52428978237398
 10
-22.13604726112098
 20
15.59259415797997
 10
-22.354949504934
 20
15.66606177095698
 10
-22.581394090574
 20
15.74490220578297
 10
-22.81527697332501
 20
15.82932122890596
 10
-23.04819416284601
 20
15.91636320741898
 10
-23.28841202566001
 20
16.00918839690598
 10
-23.53582370615697
 20
16.10797907705299
 10
-23.79851153235301
 20
16.21634159899298
 10
-24.068102256493
 20
16.33119855895196
 10
-24.344488122498
 20
16.45270512489597
 10
-24.63562790125601
 20
16.58471600861497
 10
-24.93326647451601
 20
16.72383675432496
 10
-25.24527961348002
 20
16.87408172746899
 10
-25.49999105572398
 20
16.99999552787296
  0
LWPOLYLINE
  5
DA5
330
1E
100
AcDbEntity
  8
1
100
AcDbPolyline
 90
       18
 70
     0
 43
0.0
 10
22.28461940769994
 20
15.03562525779997
 10
22.27948846215198
 20
15.03077587029093
 10
22.27436586958998
 20
15.02607037410597
 10
22.26925595329398
 20
15.02150643227199
 10
22.26416287670097
 20
15.01708167586699
 10
22.25909064772001
 20
15.01279370710195
 10
22.25396126350497
 20
15.00857365188593
 10
22.248858572681
 20
15.00448765518394
 10
22.24378623287596
 20
15.00053323344496
 10
22.23866338447098
 20
14.99664463680798
 10
22.23357625173099
 20
14.99288456122896
 10
22.228442251133
 20
14.98918925449598
 10
22.223349077661
 20
14.98561920650996
 10
22.21821249029297
 20
14.98211279833094
 10
22.21312156262097
 20
14.97872833805098
 10
22.20799049000198
 20
14.97540634006097
 10
22.20282016958198
 20
14.97214728099297
 10
22.20139559656499
 20
14.97126462258795
  0
LWPOLYLINE
  5
DB9
330
1E
100
AcDbEntity
  8
1
100
AcDbPolyline
 90
       44
 70
     0
 43
0.0
 10
21.44696756779997
 20
-12.54241478390001
 10
21.44832725870798
 20
-12.53733334467102
 10
21.44974246287496
 20
-12.53226520549
 10
21.45128790037496
 20
-12.52695867602702
 10
21.45289397729598
 20
-12.52166826093602
 10
21.454560404787
 20
-12.51639470344702
 10
21.45628689399698
 20
-12.51113874679103
 10
21.45807315607497
 20
-12.50590113419701
 10
21.45991890216998
 20
-12.50068260889801
 10
21.46182384342997
 20
-12.49548391412301
 10
21.46378769100498
 20
-12.49030579310201
 10
21.46581015604297
 20
-12.48514898906702
 10
21.46789094969198
 20
-12.48001424524801
 10
21.470133075099
 20
-12.47465946059
 10
21.47243856736
 20
-12.46933055738602
 10
21.47480709436398
 20
-12.46402839017901
 10
21.47723832399898
 20
-12.45875381351202
 10
21.47973192415297
 20
-12.45350768192702
 10
21.48228756271398
 20
-12.44829084996601
 10
21.48490490757096
 20
-12.44310417217302
 10
21.48758362661197
 20
-12.43794850309001
 10
21.49032338772399
 20
-12.43282469725903
 10
21.49325259004498
 20
-12.42750298736001
 10
21.49624776735696
 20
-12.422218013648
 10
21.49930849868598
 20
-12.41697072552901
 10
21.50243415502699
 20
-12.41176193680402
 10
21.50562404230099
 20
-12.40659241886
 10
21.50902035019696
 20
-12.40124084262902
 10
21.512485051352
 20
-12.39593374259301
 10
21.51601735713799
 20
-12.39067199517401
 10
21.51961647892898
 20
-12.38545647679601
 10
21.523435763885
 20
-12.38007374854102
 10
21.52732580176296
 20
-12.37474312358901
 10
21.53128570119098
 20
-12.36946559254302
 10
21.53531457079997
 20
-12.36424214600702
 10
21.53957680059098
 20
-12.358868199302
 10
21.54391166175396
 20
-12.35355493613401
 10
21.548318151622
 20
-12.34830347079901
 10
21.55296886111398
 20
-12.34291662935302
 10
21.55769461101998
 20
-12.33759888036902
 10
21.56267344882999
 20
-12.33215849037003
 10
21.567730528645
 20
-12.32679513931802
 10
21.57286459815299
 20
-12.32151021894202
 10
21.57750551102298
 20
-12.316865976282
  0
LWPOLYLINE
  5
EAC
330
1E
100
AcDbEntity
  8
1
100
AcDbPolyline
 90
        2
 70
     0
 43
0.0
 10
10.0
 20
34.49774213439996
 10
9.763612924794989
 20
34.49787027301997
  0
LWPOLYLINE
  5
EB0
330
1E
100
AcDbEntity
  8
1
100
AcDbPolyline
 90
        2
 70
     0
 43
0.0
 10
9.763602924799986
 20
34.49787028359998
 10
8.653151248799986
 20
34.49999999999898
  0
LWPOLYLINE
  5
EB4
330
1E
100
AcDbEntity
  8
1
100
AcDbPolyline
 90
        2
 70
     0
 43
0.0
 10
11.34685875109997
 20
34.49999999999997
 10
10.23699416039397
 20
34.49787093570498
  0
LWPOLYLINE
  5
EB8
330
1E
100
AcDbEntity
  8
1
100
AcDbPolyline
 90
        2
 70
     0
 43
0.0
 10
10.2369841604
 20
34.49787092509998
 10
10.00001
 20
34.49774213439996
  0
LWPOLYLINE
  5
F56
330
1E
100
AcDbEntity
  8
1
100
AcDbPolyline
 90
       12
 70
     0
 43
0.0
 10
22.28461940769994
 20
32.68592528459999
 10
22.27806723207299
 20
32.68373138179196
 10
22.27132706912199
 20
32.68155481394098
 10
22.264316173108
 20
32.67937323693397
 10
22.25703382380499
 20
32.67719191316897
 10
22.24939646900698
 20
32.67499232431998
 10
22.24140331632197
 20
32.67278169709395
 10
22.23313718652597
 20
32.67058906819197
 10
22.22459762191598
 20
32.66841958351199
 10
22.21578434344797
 20
32.66627817900499
 10
22.20661308826998
 20
32.66415039093497
 10
22.201396852426
 20
32.66298415245096
  0
LWPOLYLINE
  5
F64
330
1E
100
AcDbEntity
  8
1
100
AcDbPolyline
 90
       77
 70
     0
 43
0.0
 10
21.57751262659999
 20
25.22759926939996
 10
21.57274280913998
 20
25.23089596207498
 10
21.56800749777298
 20
25.23425562325896
 10
21.56330921796199
 20
25.23767852142796
 10
21.55865049517398
 20
25.24116492505998
 10
21.55403385487298
 20
25.24471510262898
 10
21.549461822524
 20
25.24832932261298
 10
21.54516201013497
 20
25.25182239541598
 10
21.54090690092496
 20
25.25537373898196
 10
21.53669866016698
 20
25.25898358349698
 10
21.53253945312996
 20
25.26265215914398
 10
21.52843144508497
 20
25.26637969610996
 10
21.52437680130298
 20
25.27016642457798
 10
21.52037768705501
 20
25.27401257473397
 10
21.51643626761097
 20
25.27791837676299
 10
21.51255470824198
 20
25.28188406084797
 10
21.50893462094698
 20
25.28569647078998
 10
21.50537204289297
 20
25.28956302760497
 10
21.50206185057298
 20
25.29326467028397
 10
21.49880614821102
 20
25.29701495009196
 10
21.49579312305399
 20
25.30058920262996
 10
21.49283103270897
 20
25.30420682208696
 10
21.48992117021498
 20
25.30786794592296
 10
21.48724175749999
 20
25.31133988257098
 10
21.48461045005998
 20
25.31485028956796
 10
21.48202831332397
 20
25.31839928017499
 10
21.47966362183499
 20
25.32174658231798
 10
21.477343557837
 20
25.32512768582498
 10
21.47506898756299
 20
25.32854268278398
 10
21.47284077724998
 20
25.33199166528297
 10
21.47081399306798
 20
25.33522480331098
 10
21.46882862303097
 20
25.33848739715097
 10
21.46688537071799
 20
25.34177925353796
 10
21.464984962269
 20
25.34509957804996
 10
21.46312812693
 20
25.34844749365396
 10
21.46145343009596
 20
25.35156160795398
 10
21.45981705558198
 20
25.35469779471998
 10
21.45821957695698
 20
25.35785536414298
 10
21.45666156778998
 20
25.36103362641398
 10
21.45514360165198
 20
25.36423189172399
 10
21.45366625211298
 20
25.36744947026297
 10
21.45223009274098
 20
25.37068567222198
 10
21.45095028760298
 20
25.37366796169397
 10
21.44970601740098
 20
25.37666478905296
 10
21.44849772392898
 20
25.37967562296696
 10
21.44732584898199
 20
25.38269993210799
 10
21.446190834353
 20
25.38573718514796
 10
21.44509312183898
 20
25.38878685075697
 10
21.44403315323299
 20
25.39184839760696
 10
21.44301137033099
 20
25.39492129436796
 10
21.44202821492696
 20
25.39800500971097
 10
21.44116832877497
 20
25.40081732822399
 10
21.44034106322098
 20
25.40363774940396
 10
21.43954675019299
 20
25.40646587405499
 10
21.43878572161697
 20
25.40930130298397
 10
21.43805830942
 20
25.41214363699296
 10
21.43736484553
 20
25.41499247688898
 10
21.43670566187199
 20
25.41784742347599
 10
21.43608109037498
 20
25.42070807755797
 10
21.43549146296398
 20
25.42357403993998
 10
21.43493711156698
 20
25.42644491142697
 10
21.43441836811099
 20
25.42932029282396
 10
21.43393556452199
 20
25.43219978493496
 10
21.43353204421599
 20
25.43479451255998
 10
21.43315814603798
 20
25.43739195550299
 10
21.43281411196396
 20
25.43999182274896
 10
21.43250018396599
 20
25.44259382328599
 10
21.43221660402198
 20
25.44519766609897
 10
21.43196361410395
 20
25.44780306017596
 10
21.43174145618798
 20
25.45040971450399
 10
21.43155037224798
 20
25.45301733806798
 10
21.43139060425898
 20
25.45562563985498
 10
21.43126239419598
 20
25.45823432885296
 10
21.43116598403398
 20
25.46084311404797
 10
21.43110161574598
 20
25.46345170442498
 10
21.43106953130899
 20
25.46605980897297
 10
21.43106573712799
 20
25.46749843889696
  0
LWPOLYLINE
  5
FB3
330
1E
100
AcDbEntity
  8
1
100
AcDbPolyline
 90
      116
 70
     0
 43
0.0
 10
26.5
 20
-24.92008067250004
 10
26.52418313081398
 20
-24.91994490346002
 10
26.54836932507398
 20
-24.91953735137502
 10
26.57255488892198
 20
-24.91885764879798
 10
26.59673612849999
 20
-24.91790542828204
 10
26.62090934994997
 20
-24.91668032237903
 10
26.64507085941199
 20
-24.91518196364304
 10
26.66921696302898
 20
-24.91340998462504
 10
26.69334396694198
 20
-24.91136401787902
 10
26.717448177292
 20
-24.90904369595801
 10
26.741525900222
 20
-24.90644865141399
 10
26.76557344187199
 20
-24.90357851679998
 10
26.78958710838398
 20
-24.90043292466799
 10
26.81356320590097
 20
-24.89701150757304
 10
26.837498040562
 20
-24.89331389806499
 10
26.86138791840397
 20
-24.88933972686799
 10
26.88522913250599
 20
-24.88508840402904
 10
26.90901795082399
 20
-24.88055891146103
 10
26.93275063842599
 20
-24.87575018195002
 10
26.95642346038296
 20
-24.87066114828003
 10
26.98003268176398
 20
-24.86529074323601
 10
27.00357456763899
 20
-24.85963789960301
 10
27.02704538307898
 20
-24.85370155016704
 10
27.050441393152
 20
-24.84748062771201
 10
27.07375886292997
 20
-24.84097406502399
 10
27.096994057481
 20
-24.834180794887
 10
27.12014324187498
 20
-24.82709975008602
 10
27.14320268118299
 20
-24.81972986340599
 10
27.16616864047398
 20
-24.81207006763304
 10
27.18903738481798
 20
-24.80411929555203
 10
27.21180501872499
 20
-24.795876445207
 10
27.23446639754998
 20
-24.78734014437304
 10
27.25497062469699
 20
-24.77932396253102
 10
27.27537799471698
 20
-24.77106289422602
 10
27.29568420009798
 20
-24.76255581279303
 10
27.31588493332298
 20
-24.75380159156503
 10
27.33597588687999
 20
-24.74479910387799
 10
27.35595275325499
 20
-24.73554722306705
 10
27.37581122493299
 20
-24.726044822466
 10
27.39554699439997
 20
-24.71629077541104
 10
27.415155754143
 20
-24.70628395523505
 10
27.43463319664698
 20
-24.69602323527505
 10
27.45397501439798
 20
-24.685507488864
 10
27.47317689988199
 20
-24.67473558933802
 10
27.49223454558498
 20
-24.66370641003203
 10
27.51114350525
 20
-24.65241884537006
 10
27.52989797812196
 20
-24.64087199567201
 10
27.54849139843297
 20
-24.62906507754702
 10
27.56691719177398
 20
-24.61699730891699
 10
27.585168783732
 20
-24.60466790770301
 10
27.60323959989698
 20
-24.59207609182902
 10
27.62112306585696
 20
-24.57922107921604
 10
27.638812607201
 20
-24.56610208778704
 10
27.65630164951898
 20
-24.55271833546403
 10
27.673583618398
 20
-24.53906904016902
 10
27.69065193942799
 20
-24.52515341982405
 10
27.70750003819799
 20
-24.51097069235102
 10
27.724121340295
 20
-24.496520075673
 10
27.74050927130998
 20
-24.48180078771202
 10
27.75665723732299
 20
-24.46681206327105
 10
27.77255755808897
 20
-24.45155407713901
 10
27.78820091625998
 20
-24.43602842068202
 10
27.80357785897999
 20
-24.42023680251503
 10
27.817181509432
 20
-24.40579836107399
 10
27.83055481542599
 20
-24.39114712021
 10
27.84369088582999
 20
-24.37628432550303
 10
27.85658282951098
 20
-24.36121122253398
 10
27.86922375533999
 20
-24.34592905688598
 10
27.88024383193398
 20
-24.33217040717704
 10
27.89105528872798
 20
-24.31824843111503
 10
27.90165328585898
 20
-24.30416400351306
 10
27.91203298346698
 20
-24.289917999181
 10
27.922189541688
 20
-24.27551129293102
 10
27.93211812066198
 20
-24.26094475957405
 10
27.940614808264
 20
-24.24806862243304
 10
27.948929971159
 20
-24.23507154689702
 10
27.95706015134399
 20
-24.221955355502
 10
27.96500182057798
 20
-24.20872227344801
 10
27.97275145048697
 20
-24.19537452669799
 10
27.98030551269699
 20
-24.18191434121502
 10
27.98766047883499
 20
-24.16834394296198
 10
27.99481282052698
 20
-24.15466555790102
 10
28.00175900940097
 20
-24.14088141199603
 10
28.008495517081
 20
-24.12699373120904
 10
28.01501881519499
 20
-24.11300474150301
 10
28.02043784159897
 20
-24.100935232587
 10
28.02569541001698
 20
-24.08879432980302
 10
28.03078929849798
 20
-24.07658343492203
 10
28.03571728509196
 20
-24.06430394971704
 10
28.04047714785099
 20
-24.05195727596099
 10
28.04506666482498
 20
-24.03954481542699
 10
28.049483614064
 20
-24.02706796988606
 10
28.05372577361799
 20
-24.01452814111105
 10
28.05779092153898
 20
-24.00192673087503
 10
28.06167685044698
 20
-23.98926516471703
 10
28.06538185498596
 20
-23.97654568699498
 10
28.06890484694298
 20
-23.96377154865604
 10
28.07224477600698
 20
-23.950946062468
 10
28.07540059186698
 20
-23.938072541199
 10
28.078371244213
 20
-23.92515429761903
 10
28.08115568273398
 20
-23.91219464449403
 10
28.08375285712
 20
-23.89919689459304
 10
28.08616171705898
 20
-23.88616436068502
 10
28.08838121224198
 20
-23.87310035553804
 10
28.090410292358
 20
-23.86000819192004
 10
28.092247907097
 20
-23.84689118260002
 10
28.093893006147
 20
-23.83375264034504
 10
28.09534453919797
 20
-23.820595877924
 10
28.09660145594
 20
-23.80742420810503
 10
28.09766270606198
 20
-23.79424094365598
 10
28.09852723925398
 20
-23.78104939734702
 10
28.09909665595498
 20
-23.77005250566504
 10
28.099528126476
 20
-23.75905408033601
 10
28.099821042998
 20
-23.74805603847101
 10
28.099974797703
 20
-23.73706029718005
 10
28.09999999994198
 20
-23.73047475420202
  0
LWPOLYLINE
  5
1029
330
1E
100
AcDbEntity
  8
1
100
AcDbPolyline
 90
        7
 70
     0
 43
0.0
 10
27.79382466559999
 20
33.78557653859997
 10
27.805536956173
 20
33.76925645657996
 10
27.81685915071998
 20
33.75305816736997
 10
27.82785961515001
 20
33.73690186269397
 10
27.83854260012498
 20
33.72079572336597
 10
27.8489124375
 20
33.70474763689196
 10
27.85497822085299
 20
33.69516199131098
  0
LWPOLYLINE
  5
1032
330
1E
100
AcDbEntity
  8
1
100
AcDbPolyline
 90
       10
 70
     0
 43
0.0
 10
27.85498353820001
 20
33.69515352219996
 10
27.86512818735401
 20
33.67877798979597
 10
27.87499932820999
 20
33.66240965224096
 10
27.88459948805898
 20
33.64605489431397
 10
27.89385616165498
 20
33.62985315773698
 10
27.902850199636
 20
33.61367892020796
 10
27.91158432193601
 20
33.59753790985497
 10
27.92006130416898
 20
33.58143567820897
 10
27.928283975683
 20
33.56537760341598
 10
27.92999800902598
 20
33.56197303248999
  0
LWPOLYLINE
  5
103E
330
1E
100
AcDbEntity
  8
1
100
AcDbPolyline
 90
       53
 70
     0
 43
0.0
 10
26.5
 20
-0.148399782500039
 10
26.92473275289898
 20
-0.1463662355620305
 10
27.33236917091796
 20
-0.140470408823038
 10
27.47474413381999
 20
-0.1369347019000349
 10
27.66534569662798
 20
-0.1300742746070148
 10
27.700888156481
 20
-0.1288573705720387
 10
27.73028358050999
 20
-0.1279428687550171
 10
27.75669755235699
 20
-0.1272100882290238
 10
27.83158797801599
 20
-0.1250996278180344
 10
27.84965089459698
 20
-0.1243752487190227
 10
27.86425510712899
 20
-0.1236678272150334
 10
27.87707112056498
 20
-0.1229347912030255
 10
27.88813509058698
 20
-0.12220132990004
 10
27.89749256541398
 20
-0.1214967296320174
 10
27.906721715402
 20
-0.120715756686028
 10
27.91430638893999
 20
-0.1200023042080181
 10
27.92178737353399
 20
-0.1192282243510226
 10
27.92915804442599
 20
-0.1183900667530258
 10
27.93641177685498
 20
-0.1174843810530353
 10
27.94354208730597
 20
-0.1165077761670295
 10
27.95195425484598
 20
-0.1152491467470361
 10
27.97563482094298
 20
-0.1114535436440212
 10
27.98276150335599
 20
-0.1103559583550327
 10
27.98857813716101
 20
-0.1095093562140369
 10
27.99302464542998
 20
-0.1088995777320213
 10
27.99755516880998
 20
-0.108316246146021
 10
28.00218049550798
 20
-0.1077637443970366
 10
28.00691141373098
 20
-0.1072464554220323
 10
28.01175871168698
 20
-0.1067687621630318
 10
28.01673317758199
 20
-0.1063350475580228
 10
28.02184559962398
 20
-0.1059496945460159
 10
28.02533585079999
 20
-0.1057218245040337
 10
28.02889540708298
 20
-0.1055186951260259
 10
28.03252746497898
 20
-0.1053416050600367
 10
28.03623522099499
 20
-0.1051918529550198
 10
28.04002187163698
 20
-0.1050707374600142
 10
28.04389061340899
 20
-0.1049795572220125
 10
28.04784464281899
 20
-0.1049196108920148
 10
28.05188715637097
 20
-0.1048921971170136
 10
28.05602135057299
 20
-0.1048986145470144
 10
28.06025042096499
 20
-0.1049401611920223
 10
28.066736938209
 20
-0.1050434437740398
 10
28.07321715390997
 20
-0.1050759117370353
 10
28.07742505068398
 20
-0.1049849747540213
 10
28.08146702751699
 20
-0.1047527033520373
 10
28.08527783670598
 20
-0.1043351530290158
 10
28.08879223054898
 20
-0.1036883792820367
 10
28.09194496134299
 20
-0.1027684376110221
 10
28.09467078138698
 20
-0.1015313835110339
 10
28.09690444297597
 20
-0.0999332724830174
 10
28.09858069840998
 20
-0.0979301600230293
 10
28.09963429998598
 20
-0.0954781016290304
 10
28.09999999633699
 20
-0.0925431501890195
  0
LWPOLYLINE
  5
1075
330
1E
100
AcDbEntity
  8
1
100
AcDbPolyline
 90
        2
 70
     0
 43
0.0
 10
21.57751262659999
 20
-12.31685895
 10
21.82499288540197
 20
-12.072452849768
  0
LWPOLYLINE
  5
1079
330
1E
100
AcDbEntity
  8
1
100
AcDbPolyline
 90
       28
 70
     0
 43
0.0
 10
21.44696756779997
 20
-12.54241478390001
 10
21.44580771699398
 20
-12.54646692516502
 10
21.444691948013
 20
-12.55053210056303
 10
21.44362026053796
 20
-12.55460974695602
 10
21.442592654251
 20
-12.55869930120399
 10
21.44160912883497
 20
-12.56280020017101
 10
21.440669683972
 20
-12.56691188071801
 10
21.43977431934299
 20
-12.57103377970602
 10
21.43892303463198
 20
-12.57516533399803
 10
21.43811582951897
 20
-12.57930598045601
 10
21.43735270368798
 20
-12.58345515594001
 10
21.43663365681998
 20
-12.58761229731401
 10
21.43595868859799
 20
-12.59177684143899
 10
21.43532778381898
 20
-12.59594823316001
 10
21.43474085948696
 20
-12.60012595368902
 10
21.43419781331297
 20
-12.60430949458497
 10
21.43369854300498
 20
-12.60849834740702
 10
21.43324294627598
 20
-12.61269200371501
 10
21.432830920832
 20
-12.61688995506901
 10
21.43246236438498
 20
-12.62109169303001
 10
21.43212898664799
 20
-12.62541039897
 10
21.431841240631
 20
-12.62973201187901
 10
21.43159901552297
 20
-12.63405598096901
 10
21.43140220051396
 20
-12.63838175544901
 10
21.43125068479298
 20
-12.64270878453203
 10
21.43114435671698
 20
-12.647036521479
 10
21.43108306450398
 20
-12.65136461457902
 10
21.43106627933597
 20
-12.654885638602
  0
LWPOLYLINE
  5
1119
330
1E
100
AcDbEntity
  8
1
100
AcDbPolyline
 90
       30
 70
     0
 43
0.0
 10
21.57751262659999
 20
-0.1986365868000374
 10
21.572841270916
 20
-0.1938346978930125
 10
21.56810804141698
 20
-0.1888312883940299
 10
21.56331908455299
 20
-0.1836223404850185
 10
21.55848083958898
 20
-0.1782039571130295
 10
21.55371813877099
 20
-0.1727106553740354
 10
21.549148307145
 20
-0.1672843973760249
 10
21.54476673564599
 20
-0.161932242878012
 10
21.54045629230497
 20
-0.1565175715910269
 10
21.53621793510097
 20
-0.1510420389620348
 10
21.53216129162498
 20
-0.1456536960260192
 10
21.528174782744
 20
-0.1402107504580127
 10
21.52436417540897
 20
-0.1348639561290125
 10
21.52062161454598
 20
-0.1294683250320387
 10
21.51704902484698
 20
-0.1241770888080137
 10
21.51354227221398
 20
-0.1188423152580382
 10
21.51010210517398
 20
-0.1134652978900332
 10
21.50682469765498
 20
-0.108202685782035
 10
21.50361151774899
 20
-0.102902615725017
 10
21.500463251642
 20
-0.0975662734910286
 10
21.497470309405
 20
-0.0923533177330312
 10
21.49453979248197
 20
-0.0871083933190305
 10
21.49167232827398
 20
-0.0818325844410338
 10
21.48895256567697
 20
-0.0766881787070331
 10
21.48629325435198
 20
-0.0715167400010186
 10
21.48369496637598
 20
-0.0663192569100231
 10
21.48123660743498
 20
-0.0612602918040208
 10
21.47883657446398
 20
-0.0561787111910261
 10
21.47649538756497
 20
-0.0510754138430256
 10
21.475609110823
 20
-0.0491034355970354
  0
LWPOLYLINE
  5
1139
330
1E
100
AcDbEntity
  8
1
100
AcDbPolyline
 90
        2
 70
     0
 43
0.0
 10
21.57751262659999
 20
-0.1986365868000374
 10
21.824992963081
 20
-0.4490142927480206
  0
LWPOLYLINE
  5
113D
330
1E
100
AcDbEntity
  8
1
100
AcDbPolyline
 90
        2
 70
     0
 43
0.0
 10
22.53210678119998
 20
-0.1483997825000385
 10
22.28462647625798
 20
0.0992252098229729
  0
LWPOLYLINE
  5
1208
330
1E
100
AcDbEntity
  8
1
100
AcDbPolyline
 90
        2
 70
     0
 43
0.0
 10
22.53210678119998
 20
-24.92008067250004
 10
22.28462761071097
 20
-24.74819363692001
  0
LWPOLYLINE
  5
14A1
330
1E
100
AcDbEntity
  8
1
100
AcDbPolyline
 90
      151
 70
     0
 43
0.0
 10
21.43106600039998
 20
15.15156715709997
 10
21.43122628941497
 20
15.12091887180096
 10
21.43166921870498
 20
15.09319047530297
 10
21.43236905812599
 20
15.06692675820397
 10
21.43329630527496
 20
15.04213053068298
 10
21.434497142065
 20
15.01734588877397
 10
21.43589071776601
 20
14.99403284628598
 10
21.43744651149798
 20
14.97219290954498
 10
21.43913523473198
 20
14.95182733406898
 10
21.44092337414599
 20
14.93293587153198
 10
21.44277429288498
 20
14.91551702297996
 10
21.44482869371498
 20
14.89811938909397
 10
21.44689992724599
 20
14.88219232774497
 10
21.44915964056
 20
14.86628711524798
 10
21.451384809688
 20
14.85184870167998
 10
21.45378241251596
 20
14.83743492072298
 10
21.45609689576501
 20
14.82448887809397
 10
21.45856821600298
 20
14.81157267225097
 10
21.46120451231797
 20
14.79869099341495
 10
21.46369296500199
 20
14.78727338950096
 10
21.46632391637798
 20
14.77589006613297
 10
21.46910308278699
 20
14.76454431740197
 10
21.47166092984198
 20
14.75465019980296
 10
21.47434046010697
 20
14.74478957910997
 10
21.47714550308299
 20
14.73496466210898
 10
21.48008007599997
 20
14.72517775443597
 10
21.48270464282996
 20
14.71682259737997
 10
21.48543832872499
 20
14.70850297307697
 10
21.48828913516598
 20
14.70022321471697
 10
21.49126506363399
 20
14.69198765549097
 10
21.493846356024
 20
14.68516157887796
 10
21.49652472577996
 20
14.67837171290196
 10
21.49930480338898
 20
14.67162056519399
 10
21.50219121933698
 20
14.66491064338796
 10
21.50518860411198
 20
14.65824445511697
 10
21.50830158819898
 20
14.65162450801398
 10
21.51087831865998
 20
14.64636352910298
 10
21.51353436700198
 20
14.64113503333297
 10
21.51627210403299
 20
14.63594030461197
 10
21.51909390056296
 20
14.63078062684897
 10
21.52200212739998
 20
14.62565728395096
 10
21.52499915535297
 20
14.62057155982796
 10
21.52808735523298
 20
14.61552473838596
 10
21.53126886096097
 20
14.61051909774595
 10
21.534544812581
 20
14.60556108736497
 10
21.537916089519
 20
14.60065825051097
 10
21.54138357119899
 20
14.59581813045699
 10
21.54494813704498
 20
14.59104827047596
 10
21.54861066648301
 20
14.58635621384098
 10
21.55237203893797
 20
14.58174950382397
 10
21.55623313383299
 20
14.57723568369897
 10
21.56019483059398
 20
14.57282229673697
 10
21.56425800864598
 20
14.56851688621298
 10
21.56737251830997
 20
14.56536322560597
 10
21.57054497688398
 20
14.56227772715396
 10
21.57377575537498
 20
14.55926357317596
 10
21.57706522479001
 20
14.55632394598896
 10
21.58041375613696
 20
14.55346202791096
 10
21.58382172042301
 20
14.55068100126098
 10
21.587289488654
 20
14.54798404835798
 10
21.59081743183996
 20
14.54537435151797
 10
21.59440592098599
 20
14.54285509306098
 10
21.59805532709998
 20
14.54042945530497
 10
21.60176602118898
 20
14.53810062056698
 10
21.60553837426097
 20
14.53587177116696
 10
21.60937275732297
 20
14.53374608942198
 10
21.61326905728598
 20
14.53172629581499
 10
21.61722469695499
 20
14.52981276003296
 10
21.62123631708797
 20
14.52800510567897
 10
21.625300558123
 20
14.52630295604598
 10
21.62941406049601
 20
14.52470593443297
 10
21.63357346464497
 20
14.52321366413596
 10
21.63777541100898
 20
14.52182576844998
 10
21.64201654002498
 20
14.52054187067199
 10
21.64629349212997
 20
14.51936159409797
 10
21.65060290776299
 20
14.51828456202497
 10
21.65494142736096
 20
14.51731039774898
 10
21.65930569136198
 20
14.51643872456597
 10
21.663692340203
 20
14.51566916577297
 10
21.66809801432298
 20
14.51500134466598
 10
21.67251935415796
 20
14.51443488454096
 10
21.67695300014699
 20
14.51396940869497
 10
21.68139559272697
 20
14.51360454042398
 10
21.68584377233598
 20
14.51333990302399
 10
21.69029417941195
 20
14.51317511979098
 10
21.69474345439197
 20
14.51310981402198
 10
21.69918823771499
 20
14.51314360901398
 10
21.703625169817
 20
14.51327612806096
 10
21.70805089113599
 20
14.51350699446197
 10
21.71246212650998
 20
14.51383577425797
 10
21.71685717346298
 20
14.51426096663797
 10
21.72123572121198
 20
14.51478012670998
 10
21.72559750700997
 20
14.51539077700297
 10
21.72994226810597
 20
14.51609044004297
 10
21.73426974175201
 20
14.51687663835798
 10
21.73857966519696
 20
14.51774689447498
 10
21.742871775694
 20
14.51869873092098
 10
21.74714581049198
 20
14.51972967022297
 10
21.75140150684299
 20
14.52083723490898
 10
21.75563860199598
 20
14.52201894750499
 10
21.75985683320301
 20
14.52327233053796
 10
21.76405593771498
 20
14.52459490653696
 10
21.76962453695798
 20
14.52646169265094
 10
21.77515804326398
 20
14.52844121155697
 10
21.78065583381898
 20
14.53052759072497
 10
21.78611728581099
 20
14.53271495762797
 10
21.79154177642598
 20
14.53499743973796
 10
21.796928682851
 20
14.53736916452597
 10
21.80227738227298
 20
14.53982425946496
 10
21.80890857913499
 20
14.54300142098196
 10
21.815477909419
 20
14.54628828350098
 10
21.82198509744398
 20
14.54967692014696
 10
21.82843111389098
 20
14.55316409788497
 10
21.83481701819399
 20
14.55674691794198
 10
21.84114386979098
 20
14.56042248154396
 10
21.84865963382196
 20
14.56495149786997
 10
21.85609371824799
 20
14.56960488158594
 10
21.86344795377797
 20
14.57437762360697
 10
21.87072417111598
 20
14.57926471485292
 10
21.87792420096698
 20
14.58426114624296
 10
21.88623038563098
 20
14.59022182734897
 10
21.89443826954899
 20
14.59631656038697
 10
21.90255075981196
 20
14.60253739111996
 10
21.91170909791698
 20
14.60979111361498
 10
21.92075072218298
 20
14.61718806938497
 10
21.92967835354396
 20
14.62472145223096
 10
21.93958850300998
 20
14.63335288014099
 10
21.94936047386298
 20
14.64214250117999
 10
21.96006008143998
 20
14.65208496379297
 10
21.97059750568298
 20
14.66220275912599
 10
21.98200663186399
 20
14.67352230057698
 10
21.99323076019698
 20
14.68502729079594
 10
22.00527119528798
 20
14.69777325641197
 10
22.01710601315396
 20
14.71070545354598
 10
22.02874079275197
 20
14.72381207544296
 10
22.04017943093398
 20
14.73708648425496
 10
22.05235440497097
 20
14.75164893306696
 10
22.06430857930598
 20
14.76639248005696
 10
22.07604683883999
 20
14.78130889965098
 10
22.08757406847599
 20
14.79638996627493
 10
22.09975760730997
 20
14.81280581194997
 10
22.111708134731
 20
14.82939282965799
 10
22.12343004053798
 20
14.84614248672496
 10
22.13492527742998
 20
14.86304872963899
 10
22.14619560653598
 20
14.88010569976998
 10
22.15724278898397
 20
14.89730753848297
 10
22.16806858590098
 20
14.91464838714696
 10
22.17942398470297
 20
14.93337547026796
 10
22.19052942976601
 20
14.95224819980596
 10
22.20138708719999
 20
14.97125936989997
 10
22.20138218347996
 20
14.97125065476693
  0
LWPOLYLINE
  5
153A
330
1E
100
AcDbEntity
  8
1
100
AcDbPolyline
 90
        3
 70
     0
 43
0.0
 10
21.82499540879998
 20
34.42028472539996
 10
21.879290012156
 20
34.41980511482899
 10
21.93061937012598
 20
34.41977123488297
  0
LWPOLYLINE
  5
153F
330
1E
100
AcDbEntity
  8
1
100
AcDbPolyline
 90
        8
 70
     0
 43
0.0
 10
21.93062937009996
 20
34.41977125769998
 10
22.02271013635697
 20
34.42041935213797
 10
22.09424221475297
 20
34.42165192881696
 10
22.15372358688397
 20
34.42327740901097
 10
22.20221388791898
 20
34.42509336091197
 10
22.24395953907999
 20
34.42708082294696
 10
22.281084887974
 20
34.42922583925997
 10
22.28460942809398
 20
34.42944947636997
  0
LWPOLYLINE
  5
1549
330
1E
100
AcDbEntity
  8
1
100
AcDbPolyline
 90
      140
 70
     0
 43
0.0
 10
21.43106606699999
 20
32.49680949179998
 10
21.43119953487099
 20
32.46917570085398
 10
21.43158298445599
 20
32.44398172745198
 10
21.432187180412
 20
32.42041772216497
 10
21.43297866897597
 20
32.39848536382197
 10
21.43396356122797
 20
32.37737361166097
 10
21.43503590290098
 20
32.35870787123597
 10
21.43619998941998
 20
32.34167697157698
 10
21.43742041884098
 20
32.32628033221796
 10
21.43873528456701
 20
32.31170690782198
 10
21.44012895603498
 20
32.29795636985298
 10
21.441583865599
 20
32.28502791975996
 10
21.44308098946098
 20
32.27292037267597
 10
21.44471354151598
 20
32.26082647771097
 10
21.44636729621697
 20
32.24955404948897
 10
21.44802418280896
 20
32.23910433771397
 10
21.44966439574996
 20
32.22947704344397
 10
21.451417460041
 20
32.21987087726899
 10
21.45312897662396
 20
32.21108650962696
 10
21.45494551047498
 20
32.20232503258898
 10
21.45669213678798
 20
32.19438198461897
 10
21.45853324401
 20
32.18646173089098
 10
21.46047249393898
 20
32.17856611730397
 10
21.46230475736798
 20
32.17148265803198
 10
21.46422215189799
 20
32.16442199811098
 10
21.466227407297
 20
32.15738551297596
 10
21.46808871842498
 20
32.15115369561897
 10
21.46978541069498
 20
32.14572203635096
 10
21.47155204693997
 20
32.14031333645495
 10
21.47339476992299
 20
32.13493064142298
 10
21.47503946191898
 20
32.13033990910898
 10
21.47674843575599
 20
32.12577243777197
 10
21.47852555976196
 20
32.12123014527298
 10
21.48006134639997
 20
32.11746551899997
 10
21.48164938449999
 20
32.11372081975095
 10
21.48329191267899
 20
32.10999715739897
 10
21.48499116955397
 20
32.10629564181697
 10
21.48674939374096
 20
32.10261738287699
 10
21.48856882385598
 20
32.09896349045296
 10
21.49045169851498
 20
32.09533507441696
 10
21.49240025633598
 20
32.09173324464197
 10
21.49400789881898
 20
32.08887166876396
 10
21.49566015741199
 20
32.08602838666698
 10
21.49735817828497
 20
32.08320396660496
 10
21.49910310760998
 20
32.08039897683397
 10
21.50089609155998
 20
32.07761398560697
 10
21.502738148774
 20
32.07484990298599
 10
21.50462952981099
 20
32.07210969761796
 10
21.50657019906998
 20
32.06939710510997
 10
21.50856012046398
 20
32.06671586236697
 10
21.51059925790698
 20
32.06406970629598
 10
21.51268757531298
 20
32.06146237380298
 10
21.514825036594
 20
32.05889760179298
 10
21.517011605666
 20
32.05637912717195
 10
21.51924724643998
 20
32.05391068684596
 10
21.52153192283198
 20
32.05149601772097
 10
21.52386559875299
 20
32.04913885670297
 10
21.52624823811899
 20
32.04684294069798
 10
21.52806732819598
 20
32.04516344371597
 10
21.52991392468698
 20
32.04352207556997
 10
21.53178801236899
 20
32.04192041276796
 10
21.53368957601699
 20
32.04036003181597
 10
21.53561860040897
 20
32.03884250922296
 10
21.53757507031897
 20
32.03736942149395
 10
21.53955897052497
 20
32.03594234513698
 10
21.54157028580098
 20
32.03456285665998
 10
21.54360900092497
 20
32.03323253256896
 10
21.54567510067098
 20
32.03195294937197
 10
21.54776856981698
 20
32.03072568357598
 10
21.54988939313799
 20
32.02955231168697
 10
21.55203755540998
 20
32.02843441021396
 10
21.55421304140998
 20
32.02737355566299
 10
21.55641583456799
 20
32.02637132195397
 10
21.55864557769801
 20
32.02542862742395
 10
21.56090112439001
 20
32.02454487140396
 10
21.563181216755
 20
32.02371923866996
 10
21.565484596908
 20
32.02295091399696
 10
21.56781000696099
 20
32.02223908216097
 10
21.57015618902698
 20
32.02158292793697
 10
21.57252188521999
 20
32.02098163610195
 10
21.57490583765198
 20
32.02043439142997
 10
21.57730678843698
 20
32.01994037869698
 10
21.57972347968898
 20
32.01949878267896
 10
21.58215465351899
 20
32.01910878815198
 10
21.584599052041
 20
32.01876957988996
 10
21.58705541736796
 20
32.01848034267097
 10
21.58952249161397
 20
32.01824026126897
 10
21.59199901689099
 20
32.01804852045996
 10
21.59448373531299
 20
32.01790430501898
 10
21.59697538899199
 20
32.01780679972298
 10
21.59947272004298
 20
32.01775518934599
 10
21.60197447057697
 20
32.01774865866497
 10
21.60447938270797
 20
32.01778639245498
 10
21.60698619855001
 20
32.01786757549098
 10
21.60949366021498
 20
32.01799139254998
 10
21.61200050981598
 20
32.01815702840596
 10
21.61450548946696
 20
32.01836366783698
 10
21.61700734128098
 20
32.01861049561596
 10
21.61950480736999
 20
32.01889669651999
 10
21.62199662984798
 20
32.01922145532398
 10
21.62448155082898
 20
32.01958395680398
 10
21.627781869014
 20
32.02012459391097
 10
21.63106469996799
 20
32.02072894743597
 10
21.63432706203298
 20
32.02139508499698
 10
21.63756617721098
 20
32.02212110314297
 10
21.64078129226997
 20
32.02290538608597
 10
21.64397281403398
 20
32.02374648284797
 10
21.64714116303599
 20
32.02464294439698
 10
21.65028675981
 20
32.02559332170199
 10
21.65341002488998
 20
32.02659616573396
 10
21.656511378809
 20
32.02765002745997
 10
21.65959124210099
 20
32.02875345785097
 10
21.66265003530098
 20
32.02990500787598
 10
21.66568817894098
 20
32.03110322850398
 10
21.66870609355596
 20
32.03234667070399
 10
21.67245068041399
 20
32.03396235878197
 10
21.67616513785898
 20
32.03564361131796
 10
21.67985028724598
 20
32.03738759817297
 10
21.68350694992899
 20
32.03919148920997
 10
21.68713594726397
 20
32.04105245429099
 10
21.69073810060598
 20
32.04296766327598
 10
21.69502640701298
 20
32.04533353117799
 10
21.69927866012096
 20
32.04776854442595
 10
21.70349627923398
 20
32.05026781254096
 10
21.70837495483798
 20
32.05325831194095
 10
21.71321067535096
 20
32.05632184697096
 10
21.71868750617699
 20
32.05990249915797
 10
21.72478958590899
 20
32.06401819986297
 10
21.732169021084
 20
32.06915128023995
 10
21.74012701554199
 20
32.07486026407996
 10
21.74799177758096
 20
32.08067828359799
 10
21.75641005240198
 20
32.08709968866799
 10
21.76472592048397
 20
32.09363958719197
 10
21.77357112707198
 20
32.10080942159098
 10
21.78292620487297
 20
32.10863055789298
 10
21.79216062568198
 20
32.11658826579297
 10
21.80188399468098
 20
32.12521849460299
 10
21.81207924153099
 20
32.13453866790995
 10
21.82273055659898
 20
32.14456415400798
 10
21.82507118747199
 20
32.14680576934398
  0
LWPOLYLINE
  5
15D7
330
1E
100
AcDbEntity
  8
1
100
AcDbPolyline
 90
       12
 70
     0
 43
0.0
 10
21.82507839909999
 20
32.14681269699998
 10
21.83642372153099
 20
32.15786987646399
 10
21.84823224881998
 20
32.16971243249497
 10
21.86063708391598
 20
32.18251520164798
 10
21.87346391592398
 20
32.19613669504298
 10
21.88684405347697
 20
32.21075055907699
 10
21.90090191324198
 20
32.22653486874097
 10
21.91589888636698
 20
32.24383755279498
 10
21.93194132493498
 20
32.26284511349297
 10
21.948430550002
 20
32.28290254334698
 10
21.965343894933
 20
32.30402845817798
 10
21.97105091079098
 20
32.31128395164998
  0
LWPOLYLINE
  5
15E5
330
1E
100
AcDbEntity
  8
1
100
AcDbPolyline
 90
       15
 70
     0
 43
0.0
 10
21.97105707629999
 20
32.31129182479998
 10
21.98855188289901
 20
32.33393511324198
 10
22.00651209558198
 20
32.35781243062599
 10
22.02466443084897
 20
32.38259630858497
 10
22.04299238095599
 20
32.40829241790597
 10
22.06099842173898
 20
32.43421641996099
 10
22.07892000582198
 20
32.46071022732099
 10
22.09674821346899
 20
32.48777413111997
 10
22.11447425642095
 20
32.51540786694798
 10
22.13164469969198
 20
32.54289576216196
 10
22.14826656244999
 20
32.57022678636099
 10
22.16413396281998
 20
32.59702735072798
 10
22.17947450594498
 20
32.62364611025196
 10
22.194295280804
 20
32.65007366123096
 10
22.20138229721499
 20
32.66297322014299
  0
LWPOLYLINE
  5
15F6
330
1E
100
AcDbEntity
  8
1
100
AcDbPolyline
 90
        2
 70
     0
 43
0.0
 10
22.28461940769994
 20
32.68592528459999
 10
22.40821810380498
 20
32.72779153304195
  0
LWPOLYLINE
  5
15FA
330
1E
100
AcDbEntity
  8
1
100
AcDbPolyline
 90
        2
 70
     0
 43
0.0
 10
22.40822758139997
 20
32.72779472289997
 10
22.53209729130398
 20
32.76921807912498
  0
LWPOLYLINE
  5
15FE
330
1E
100
AcDbEntity
  8
1
100
AcDbPolyline
 90
        2
 70
     0
 43
0.0
 10
22.53210678119998
 20
34.44439156279997
 10
22.28462938730499
 20
34.42945075304297
  0
LWPOLYLINE
  5
1602
330
1E
100
AcDbEntity
  8
1
100
AcDbPolyline
 90
      152
 70
     0
 43
0.0
 10
21.43106612179999
 20
-24.9933350448
 10
21.43110418394698
 20
-24.98917979886904
 10
21.43122060640098
 20
-24.98502302381501
 10
21.43141449331098
 20
-24.98086584409902
 10
21.43168494882297
 20
-24.97670938418003
 10
21.43203107708496
 20
-24.97255476852002
 10
21.432451982244
 20
-24.968403121579
 10
21.43294676844797
 20
-24.96425556781701
 10
21.43351453984498
 20
-24.96011323169403
 10
21.43415440058098
 20
-24.955977237672
 10
21.43486545480399
 20
-24.95184871021002
 10
21.43564680666098
 20
-24.94772877376902
 10
21.43649756029998
 20
-24.94361855281004
 10
21.43741681986897
 20
-24.93951917179203
 10
21.43840368951399
 20
-24.93543175517602
 10
21.43945727338399
 20
-24.93135742742401
 10
21.44057667562498
 20
-24.92729731299404
 10
21.44176100038498
 20
-24.92325253634799
 10
21.44300935181095
 20
-24.91922422194603
 10
21.44432083405098
 20
-24.91521349424903
 10
21.44569455125298
 20
-24.91122147771603
 10
21.447129607563
 20
-24.90724929680903
 10
21.448625107129
 20
-24.90329807598703
 10
21.45018015409899
 20
-24.89936893971202
 10
21.45179385261897
 20
-24.89546301244303
 10
21.45346530683898
 20
-24.89158141864204
 10
21.455193620903
 20
-24.88772528276804
 10
21.45697789896098
 20
-24.88389572928202
 10
21.45928558112399
 20
-24.87914788195304
 10
21.46167755754399
 20
-24.87444552278601
 10
21.46415207850998
 20
-24.86979084799305
 10
21.46670739430899
 20
-24.865186053787
 10
21.46934175529
 20
-24.86063333562702
 10
21.47205345649598
 20
-24.856134329452
 10
21.47484091690898
 20
-24.85168911976403
 10
21.47770257681
 20
-24.84729752436801
 10
21.480636876484
 20
-24.842959361071
 10
21.48364225621496
 20
-24.83867444767703
 10
21.48671715628699
 20
-24.83444260199202
 10
21.48986001698398
 20
-24.83026364182104
 10
21.49306927858898
 20
-24.82613738496901
 10
21.49700584563399
 20
-24.82125518859902
 10
21.50103308880698
 20
-24.81644830781601
 10
21.50514831291798
 20
-24.81171642778901
 10
21.50934882277698
 20
-24.80705923368402
 10
21.51363192319696
 20
-24.80247641066905
 10
21.51799491898596
 20
-24.79796764391303
 10
21.52243511495498
 20
-24.79353261858302
 10
21.52770932037098
 20
-24.788451203313
 10
21.53308065549598
 20
-24.78346922985401
 10
21.53854484047096
 20
-24.77858619826202
 10
21.54409759543395
 20
-24.77380160859603
 10
21.54973464052298
 20
-24.76911496091504
 10
21.55545169587898
 20
-24.76452575527503
 10
21.56124448163899
 20
-24.76003349173402
 10
21.56710871794397
 20
-24.755637670351
 10
21.57304012493098
 20
-24.75133779118403
 10
21.57903442867199
 20
-24.74713335400599
 10
21.58508819104099
 20
-24.74302381863306
 10
21.59119966494499
 20
-24.73900856403203
 10
21.59736730737699
 20
-24.735086959412
 10
21.60358957533496
 20
-24.73125837398401
 10
21.60986492581398
 20
-24.72752217695803
 10
21.61619181581099
 20
-24.72387773754201
 10
21.62256870232198
 20
-24.72032442494803
 10
21.62899404234298
 20
-24.71686160838402
 10
21.63546629286896
 20
-24.71348865706104
 10
21.64198391089797
 20
-24.71020494018903
 10
21.64854535342497
 20
-24.70700982697604
 10
21.65514907744698
 20
-24.70390268663403
 10
21.66179353995898
 20
-24.70088288837104
 10
21.668477197958
 20
-24.69794980139802
 10
21.67519850843896
 20
-24.69510279492506
 10
21.68195592839998
 20
-24.69234123815999
 10
21.68972093039398
 20
-24.68928899640701
 10
21.69752877717696
 20
-24.68634659696006
 10
21.70537716549099
 20
-24.68351309823203
 10
21.71326379207499
 20
-24.68078755863502
 10
21.72118635366998
 20
-24.67816903658198
 10
21.729142547018
 20
-24.67565659048403
 10
21.73713006885799
 20
-24.67324927875405
 10
21.74514666288597
 20
-24.67094618563005
 10
21.75319067152997
 20
-24.66874672463905
 10
21.761260850176
 20
-24.66665053643005
 10
21.76935596239898
 20
-24.66465726615302
 10
21.77747477177399
 20
-24.66276655896201
 10
21.78561604187398
 20
-24.66097806000703
 10
21.79377853627498
 20
-24.65929141444104
 10
21.80196101855099
 20
-24.65770626741403
 10
21.810162252276
 20
-24.65622226407798
 10
21.81838100102499
 20
-24.65483904958404
 10
21.826616028372
 20
-24.65355626908503
 10
21.83486609789198
 20
-24.65237356773201
 10
21.84312997315899
 20
-24.65129059067703
 10
21.85140641774796
 20
-24.65030698307003
 10
21.859694195233
 20
-24.64942239006302
 10
21.86799206918899
 20
-24.64863645680901
 10
21.87629880318997
 20
-24.64794882845906
 10
21.884613160811
 20
-24.64735915016403
 10
21.892933905625
 20
-24.64686706707505
 10
21.90125980120898
 20
-24.64647222434503
 10
21.909589611135
 20
-24.64617426712504
 10
21.91792209897896
 20
-24.64597284056598
 10
21.926256028316
 20
-24.64586758982103
 10
21.93459016514399
 20
-24.64585817347904
 10
21.94292333831898
 20
-24.64594459835701
 10
21.95125444373798
 20
-24.64612724271603
 10
21.95958238056696
 20
-24.646406502908
 10
21.96790604796999
 20
-24.64678277528701
 10
21.97622434511097
 20
-24.64725645620403
 10
21.98453617115299
 20
-24.64782794201203
 10
21.99284042526199
 20
-24.648497629063
 10
22.00113600660198
 20
-24.64926591370999
 10
22.009421814337
 20
-24.65013319230502
 10
22.01769674763098
 20
-24.65109986120104
 10
22.02595970564797
 20
-24.65216631675104
 10
22.03420958755399
 20
-24.65333295530502
 10
22.04244529251099
 20
-24.65460017321801
 10
22.05066571968399
 20
-24.65596836684103
 10
22.05886976823798
 20
-24.65743793252705
 10
22.06705633733699
 20
-24.65900926662902
 10
22.07522432614496
 20
-24.66068276549798
 10
22.08337263382599
 20
-24.66245882548804
 10
22.09150015954497
 20
-24.66433784295003
 10
22.09960580246598
 20
-24.66632021423703
 10
22.10768846175199
 20
-24.668406335702
 10
22.11574703656899
 20
-24.67059660369705
 10
22.12378042598698
 20
-24.67289141459104
 10
22.13178718217
 20
-24.67529122752103
 10
22.13976472905199
 20
-24.67779670575704
 10
22.14771026158998
 20
-24.68040855399705
 10
22.15562097474199
 20
-24.68312747694302
 10
22.163494063466
 20
-24.68595417929202
 10
22.17132672271898
 20
-24.68888936574501
 10
22.17911614746099
 20
-24.69193374100103
 10
22.18685953264798
 20
-24.69508800975802
 10
22.19359502272998
 20
-24.697938695922
 10
22.200291237008
 20
-24.70087453092804
 10
22.20694629632398
 20
-24.70389598686903
 10
22.21355832151898
 20
-24.70700353583799
 10
22.22012543343399
 20
-24.71019764993002
 10
22.22664575290898
 20
-24.71347880123703
 10
22.23311740078599
 20
-24.71684746185401
 10
22.23953849790598
 20
-24.72030410387303
 10
22.245907165109
 20
-24.723849199389
 10
22.25222152323698
 20
-24.72748322049501
 10
22.25847969312999
 20
-24.73120663928501
 10
22.26467979563
 20
-24.735019927851
 10
22.27081995157698
 20
-24.73892355828803
 10
22.276898281813
 20
-24.742918002689
 10
22.28291290717697
 20
-24.74700373314798
 10
22.284611204627
 20
-24.74818219836703
  0
LWPOLYLINE
  5
16A1
330
1E
100
AcDbEntity
  8
1
100
AcDbPolyline
 90
       20
 70
     0
 43
0.0
 10
21.43106589269998
 20
-0.2544951119000158
 10
21.431093845286
 20
-0.2493908335660277
 10
21.43117462234398
 20
-0.2442848809330397
 10
21.431308094342
 20
-0.2391780405470198
 10
21.43149413174898
 20
-0.234071098960018
 10
21.43173260503297
 20
-0.2289648427190255
 10
21.43202338466298
 20
-0.2238600583750125
 10
21.43236634110498
 20
-0.2187575324750268
 10
21.43276945027996
 20
-0.2135600196590159
 10
21.43322649065399
 20
-0.2083665028840213
 10
21.433737325078
 20
-0.2031778149550147
 10
21.43430181640197
 20
-0.1979947886760297
 10
21.43491982747798
 20
-0.1928182568540277
 10
21.43559122115598
 20
-0.187649052292019
 10
21.43631586028598
 20
-0.1824880077980166
 10
21.43709360771997
 20
-0.1773359561740361
 10
21.43794050851198
 20
-0.1720968069280131
 10
21.43884225316799
 20
-0.1668687384760145
 10
21.43979869662698
 20
-0.1616526316590265
 10
21.44073098608497
 20
-0.1568441422560366
  0
LWPOLYLINE
  5
16B7
330
1E
100
AcDbEntity
  8
1
100
AcDbPolyline
 90
      154
 70
     0
 43
0.0
 10
21.4407329375
 20
-0.1568343345000213
 10
21.442030344963
 20
-0.1505242060970344
 10
21.44340834773398
 20
-0.1442299444400161
 10
21.44486685511198
 20
-0.1379525855750243
 10
21.44640577639596
 20
-0.1316931655470368
 10
21.44802502088498
 20
-0.1254527204030208
 10
21.44972449787798
 20
-0.1192322861870165
 10
21.45150411667299
 20
-0.1130328989460194
 10
21.45336378656798
 20
-0.1068555947240126
 10
21.45530341686299
 20
-0.1007014095680202
 10
21.45732291685698
 20
-0.0945713795240151
 10
21.45942219584699
 20
-0.0884665406360367
 10
21.46160116313299
 20
-0.0823879289500296
 10
21.463859728014
 20
-0.0763365805120229
 10
21.46619779978796
 20
-0.0703135313680176
 10
21.46861528775298
 20
-0.0643198175630201
 10
21.47111204748298
 20
-0.0583564708710211
 10
21.47368758385096
 20
-0.052424495178033
 10
21.47634126102099
 20
-0.046524883182033
 10
21.47953513023196
 20
-0.0396842309590139
 10
21.48283348151098
 20
-0.0328905567750181
 10
21.48623530457097
 20
-0.0261454369470213
 10
21.48973958912698
 20
-0.0194504477960348
 10
21.49334532489298
 20
-0.012807165641024
 10
21.49705150158299
 20
-0.0062171668010391
 10
21.50085710891099
 20
0.0003179724039884
 10
21.50476113659098
 20
0.0067966756549796
 10
21.50876257433699
 20
0.0132173666329694
 10
21.51286041186398
 20
0.0195784690189643
 10
21.51705363888398
 20
0.0258784064919811
 10
21.52134124511198
 20
0.0321156027329695
 10
21.52572222026298
 20
0.0382884814239875
 10
21.53019555404898
 20
0.0443954662449616
 10
21.53476023618599
 20
0.0504349808759886
 10
21.53941525638798
 20
0.0564054489989846
 10
21.54415960436697
 20
0.0623052942929664
 10
21.54899226983896
 20
0.0681329404389689
 10
21.55462216396798
 20
0.0747026782429688
 10
21.56036458393298
 20
0.0811737032639686
 10
21.56621802166998
 20
0.0875436625109645
 10
21.57218096911298
 20
0.0938102029949706
 10
21.57825191808098
 20
0.0999709719009703
 10
21.58442922007398
 20
0.1060238284779845
 10
21.59071081373898
 20
0.1119672559199758
 10
21.59709456217099
 20
0.1177998515979626
 10
21.60357832846699
 20
0.1235202128859755
 10
21.61015997572298
 20
0.1291269371549762
 10
21.61599753015796
 20
0.1339385003729747
 10
21.62190695707797
 20
0.1386610467089868
 10
21.62788682492398
 20
0.1432936365149802
 10
21.63393570213798
 20
0.1478353301379772
 10
21.64005215716199
 20
0.1522851879269611
 10
21.64623475843598
 20
0.1566422702319672
 10
21.65248207440398
 20
0.160905637400984
 10
21.65879267350596
 20
0.1650743497839615
 10
21.66516512418297
 20
0.1691474677289734
 10
21.671597994877
 20
0.1731240515859697
 10
21.67808985402998
 20
0.1770031617019727
 10
21.68463927008397
 20
0.1807838584279837
 10
21.69124481147898
 20
0.184465202111963
 10
21.69790504665797
 20
0.1880462531029793
 10
21.70461854406096
 20
0.1915260717499878
 10
21.71138387213099
 20
0.1949037184019717
 10
21.718199599309
 20
0.1981782534069767
 10
21.725064294036
 20
0.2013487371159756
 10
21.73098620711297
 20
0.2039827659699797
 10
21.73694214308599
 20
0.2065390668839741
 10
21.74293119685799
 20
0.2090170554909862
 10
21.74895237622398
 20
0.2114163262199868
 10
21.755004599263
 20
0.213736657634965
 10
21.76108677994699
 20
0.215977836733967
 10
21.76719783224597
 20
0.2181396505169717
 10
21.77333667013098
 20
0.2202218859859757
 10
21.77950220757197
 20
0.2222243301389684
 10
21.78569335853898
 20
0.2241467699769801
 10
21.79190903700296
 20
0.2259889924989666
 10
21.79814815693498
 20
0.2277507847059867
 10
21.80440963230398
 20
0.2294319335969676
 10
21.81069237708197
 20
0.2310322261719735
 10
21.81699530523898
 20
0.2325514494319778
 10
21.82331733074597
 20
0.2339893903749699
 10
21.82965736757199
 20
0.2353458360029749
 10
21.83601432968798
 20
0.2366205733149771
 10
21.84238713106498
 20
0.2378133893109835
 10
21.84877468567396
 20
0.2389240709899782
 10
21.85517590748398
 20
0.2399524053539865
 10
21.861589710467
 20
0.2408981794009692
 10
21.86801500859198
 20
0.2417611801319853
 10
21.87445071582998
 20
0.2425411945459616
 10
21.88089574615299
 20
0.2432380096439859
 10
21.88734901352898
 20
0.2438514124259798
 10
21.89380943192998
 20
0.2443811898909844
 10
21.90027591532597
 20
0.2448271290389785
 10
21.90674737768699
 20
0.2451890168699693
 10
21.91322273298498
 20
0.2454666403849872
 10
21.91970089518898
 20
0.2456597865829879
 10
21.92618077827098
 20
0.2457682424639786
 10
21.93266129641198
 20
0.245791797058982
 10
21.93914137855998
 20
0.2457303806489763
 10
21.94561997779598
 20
0.2455841543679726
 10
21.95209604942498
 20
0.2453533006679693
 10
21.958568548757
 20
0.2450380020029827
 10
21.96503643109898
 20
0.2446384408279671
 10
21.97149865175799
 20
0.2441547995949777
 10
21.97795416604197
 20
0.2435872607579741
 10
21.98440192925898
 20
0.2429360067699777
 10
21.99084089671598
 20
0.2422012200859713
 10
21.99727002372199
 20
0.2413830831579817
 10
22.003688265584
 20
0.2404817784399684
 10
22.01009457760898
 20
0.2394974883859761
 10
22.01648791510598
 20
0.2384303954489697
 10
22.02286723338198
 20
0.2372806820829653
 10
22.029231487744
 20
0.2360485307419795
 10
22.03557963350096
 20
0.2347341238779821
 10
22.04191062595997
 20
0.233337643944961
 10
22.04822342042898
 20
0.2318592733979842
 10
22.05451697221598
 20
0.2302991946879702
 10
22.06079023662698
 20
0.2286575902709815
 10
22.06704216897198
 20
0.2269346425989882
 10
22.073271724557
 20
0.2251305341269729
 10
22.07947785868998
 20
0.2232454473069625
 10
22.08565952667997
 20
0.2212795645929732
 10
22.09181568383296
 20
0.2192330684389647
 10
22.097945285457
 20
0.2171061412969637
 10
22.10404728686099
 20
0.214898965622976
 10
22.11012064335098
 20
0.2126117238689717
 10
22.116164310236
 20
0.2102445984889671
 10
22.122177242823
 20
0.2077977719359838
 10
22.12815839654798
 20
0.205271479866977
 10
22.134106727719
 20
0.2026663207039662
 10
22.14002119300797
 20
0.1999830442709624
 10
22.14687720789299
 20
0.1967548245649739
 10
22.15368405070198
 20
0.1934224913479711
 10
22.16044006467299
 20
0.1899872361109631
 10
22.167143593041
 20
0.1864502503479714
 10
22.17379297904196
 20
0.1828127255519662
 10
22.18038656591298
 20
0.1790758532159744
 10
22.18692269688898
 20
0.175240824832966
 10
22.193399715206
 20
0.1713088318969626
 10
22.19981596410099
 20
0.1672810658989734
 10
22.20616978680998
 20
0.1631587183339862
 10
22.21245952656897
 20
0.1589429806929816
 10
22.21868352661398
 20
0.154635044470976
 10
22.22484013018199
 20
0.1502361011599733
 10
22.23092768050698
 20
0.1457473422529718
 10
22.23694452082698
 20
0.14116995924297
 10
22.24373220078899
 20
0.1358316735109754
 10
22.25042288781898
 20
0.1303809686399661
 10
22.25701410884598
 20
0.1248196231839786
 10
22.26350339079999
 20
0.1191494156999768
 10
22.26988826061099
 20
0.1133721247419687
 10
22.27616624520897
 20
0.1074895288649857
 10
22.28233487152198
 20
0.1015034066249683
 10
22.284612339066
 20
0.0992393569079839
  0
LWPOLYLINE
  5
1753
330
1E
100
AcDbEntity
  8
1
100
AcDbPolyline
 90
        2
 70
     0
 43
0.0
 10
22.28461940769994
 20
15.03562525779997
 10
22.34638242136897
 20
15.09479522386897
  0
LWPOLYLINE
  5
1757
330
1E
100
AcDbEntity
  8
1
100
AcDbPolyline
 90
        2
 70
     0
 43
0.0
 10
22.34638964519999
 20
15.09480213879996
 10
22.53209954054699
 20
15.27213798038594
  0
LWPOLYLINE
  5
175B
330
1E
100
AcDbEntity
  8
SK1
100
AcDbPolyline
 90
       43
 70
     0
 43
0.0
 10
-25.50000000000001
 20
-17.00000000000001
 10
-25.18141875944504
 20
-16.84296919302602
 10
-24.86904732895702
 20
-16.69346884118802
 10
-24.57106278172001
 20
-16.555089406271
 10
-24.28769853616199
 20
-16.42743276357202
 10
-24.01102657797101
 20
-16.30657741383101
 10
-23.74115553918702
 20
-16.192379638775
 10
-23.48643000302399
 20
-16.08800093787901
 10
-23.23879674957401
 20
-15.98976444158201
 10
-22.99836463450802
 20
-15.897494804265
 10
-22.76524053049601
 20
-15.811007740258
 10
-22.53952766682702
 20
-15.73010988607203
 10
-22.31291699493201
 20
-15.65174419742901
 10
-22.09385649474798
 20
-15.578747821222
 10
-21.88245075078901
 20
-15.51090968179701
 10
-21.670298337655
 20
-15.44544132335801
 10
-21.46593767788202
 20
-15.38488090505301
 10
-21.269461058262
 20
-15.32900152426601
 10
-21.072374923777
 20
-15.27528454050002
 10
-20.87469443176102
 20
-15.22377856571901
 10
-20.68506916771201
 20
-15.17662524960002
 10
-20.49493229808899
 20
-15.131580981417
 10
-20.31297522342601
 20
-15.09059028876801
 10
-20.13058002953001
 20
-15.05159625123901
 10
-19.94776040731801
 20
-15.014635487592
 10
-19.773264877765
 20
-14.98135807717602
 10
-19.598413607215
 20
-14.94998402070001
 10
-19.42322504259001
 20
-14.920537335362
 10
-19.247717648503
 20
-14.89304201801302
 10
-19.080707126134
 20
-14.86875077775902
 10
-18.91344135558802
 20
-14.84626287856903
 10
-18.745936167965
 20
-14.82559889474001
 10
-18.578207394363
 20
-14.806779400569
 10
-18.41027092998001
 20
-14.78982488768401
 10
-18.242146379377
 20
-14.77475106361203
 10
-18.08271989102602
 20
-14.76221303199602
 10
-17.923169179576
 20
-14.75137707325302
 10
-17.763516144465
 20
-14.74224979734603
 10
-17.603782685134
 20
-14.73483781423903
 10
-17.44399070102
 20
-14.72914773389502
 10
-17.28416209156199
 20
-14.72518616627803
 10
-17.12431875619901
 20
-14.72295972135001
 10
-17.00001
 20
-14.72243186430302
  0
LWPOLYLINE
  5
1788
330
1E
100
AcDbEntity
  8
SK1
100
AcDbPolyline
 90
       43
 70
     0
 43
0.0
 10
-8.499999999999998
 20
16.99999999999997
 10
-8.818581123367007
 20
16.84296924993597
 10
-9.130952426844002
 20
16.69346895731297
 10
-9.428936834886
 20
16.55508958480297
 10
-9.712300934631992
 20
16.42743299541697
 10
-9.988972723545002
 20
16.30657772077197
 10
-10.25884359208099
 20
16.19238001887197
 10
-10.513568994874
 20
16.08800134260297
 10
-10.761202104309
 20
15.98976487055898
 10
-11.00163405215801
 20
15.89749529219597
 10
-11.234758025383
 20
15.81100827850596
 10
-11.46047084247899
 20
15.73011043100497
 10
-11.687081546688
 20
15.65174469600597
 10
-11.90614201839102
 20
15.57874828863697
 10
-12.11754770963701
 20
15.51091013376196
 10
-12.32970009127902
 20
15.44544176862394
 10
-12.534060782961
 20
15.38488134710496
 10
-12.73053752801101
 20
15.32900196170797
 10
-12.92762382442302
 20
15.27528495371297
 10
-13.125304394989
 20
15.22377892084898
 10
-13.31492968657399
 20
15.17662553449096
 10
-13.50506656874901
 20
15.13158119849296
 10
-13.68702366997399
 20
15.09059045856398
 10
-13.869418932138
 20
15.05159640540497
 10
-14.05223869136301
 20
15.01463567215898
 10
-14.22673441114301
 20
14.98135831547696
 10
-14.401585870078
 20
14.94998427263996
 10
-14.57677461509599
 20
14.92053756753398
 10
-14.75228217819998
 20
14.89304220694197
 10
-14.91929284752099
 20
14.86875091291597
 10
-15.08655874880301
 20
14.84626295625497
 10
-15.25406404804999
 20
14.82559891977698
 10
-15.42179291126299
 20
14.80677938629797
 10
-15.58972943955899
 20
14.78982485480497
 10
-15.75785401833201
 20
14.77475102373196
 10
-15.91728050276099
 20
14.76221299136798
 10
-16.07683118599101
 20
14.75137703622198
 10
-16.236484173964
 20
14.74224976690499
 10
-16.39621757262599
 20
14.73483779202396
 10
-16.55600948792098
 20
14.72914772018899
 10
-16.71583802579399
 20
14.72518616000897
 10
-16.875681292188
 20
14.72295972009396
 10
-16.99998999999998
 20
14.72243186440397
  0
LWPOLYLINE
  5
17B5
330
1E
100
AcDbEntity
  8
1
100
AcDbPolyline
 90
        2
 70
     0
 43
0.0
 10
21.82499999999999
 20
25.05811776189998
 10
21.57752088729798
 20
25.22759363372196
  0
LWPOLYLINE
  5
17C7
330
1E
100
AcDbEntity
  8
1
100
AcDbPolyline
 90
      116
 70
     0
 43
0.0
 10
28.09999999999999
 20
14.04560692079996
 10
28.09990373749298
 20
14.05896336086397
 10
28.09961550764997
 20
14.07232409904695
 10
28.09913614698698
 20
14.08568608469298
 10
28.098466492021
 20
14.09904626714096
 10
28.09760737926799
 20
14.11240159573297
 10
28.09655964524298
 20
14.12574901980798
 10
28.09532412646399
 20
14.13908548870898
 10
28.093901659447
 20
14.15240795177498
 10
28.09229308070698
 20
14.16571335834896
 10
28.09049922676198
 20
14.17899865776996
 10
28.08852093412797
 20
14.19226079937996
 10
28.08635903932099
 20
14.20549673251898
 10
28.08401437885598
 20
14.21870340652898
 10
28.08148778925198
 20
14.23187777074996
 10
28.07878010702298
 20
14.24501677452197
 10
28.07589216868597
 20
14.25811736718793
 10
28.07282481075798
 20
14.27117649808798
 10
28.06957886975498
 20
14.28419111656293
 10
28.06615518219299
 20
14.29715817195297
 10
28.06255458458798
 20
14.31007461359993
 10
28.058777934039
 20
14.32293742121796
 10
28.05482659890397
 20
14.33574432901497
 10
28.05070248077498
 20
14.34849385811097
 10
28.04640750621898
 20
14.36118456649197
 10
28.04194360180398
 20
14.37381501214096
 10
28.03731269409999
 20
14.38638375304194
 10
28.03251670967497
 20
14.39888934717997
 10
28.02755757509697
 20
14.41133035253596
 10
28.02243721693598
 20
14.42370532709696
 10
28.01626226729498
 20
14.43805741802697
 10
28.00987355603598
 20
14.45231538109498
 10
28.00327414247798
 20
14.46647692643193
 10
27.99646708594099
 20
14.48053976416997
 10
27.98945544574297
 20
14.49450160444096
 10
27.982242281205
 20
14.50836015737698
 10
27.97483065164698
 20
14.52211313310996
 10
27.96722361638598
 20
14.53575824177096
 10
27.95942423474397
 20
14.54929319349298
 10
27.95143556603898
 20
14.56271569840696
 10
27.94326066958598
 20
14.57602347166296
 10
27.93369382070598
 20
14.59108960457498
 10
27.92389229575198
 20
14.60600216540296
 10
27.91386065949799
 20
14.62075991087496
 10
27.903603476717
 20
14.63536159772097
 10
27.89312531218198
 20
14.64980598266796
 10
27.88243073066899
 20
14.66409182244396
 10
27.87152429695098
 20
14.67821787377997
 10
27.86041057579998
 20
14.69218289340093
 10
27.84766554992597
 20
14.70769950923697
 10
27.83467045264201
 20
14.72300897559096
 10
27.82143178339998
 20
14.73810952225698
 10
27.80795604165498
 20
14.75299937902996
 10
27.79424972685898
 20
14.76767677570598
 10
27.77875796815598
 20
14.78373365957696
 10
27.76299849095599
 20
14.79952363332794
 10
27.74698001051097
 20
14.81504450906497
 10
27.73070981733198
 20
14.83029580846698
 10
27.71419458454698
 20
14.84527779403097
 10
27.69744098279298
 20
14.85999073123297
 10
27.680455682711
 20
14.87443488555098
 10
27.66324535493998
 20
14.88861052246396
 10
27.64581667011999
 20
14.90251790744897
 10
27.628176298889
 20
14.91615730598397
 10
27.61033091188898
 20
14.92952898354698
 10
27.59228717975798
 20
14.94263320561498
 10
27.57405177313497
 20
14.95547023766698
 10
27.55563136266099
 20
14.96804034518097
 10
27.53703261897499
 20
14.98034379363397
 10
27.51826221271699
 20
14.99238084850299
 10
27.49932673882798
 20
15.00415179825397
 10
27.48023166800801
 20
15.01565727272796
 10
27.46098160979898
 20
15.02689816325997
 10
27.441581151836
 20
15.03787536783898
 10
27.42203488175698
 20
15.04858978445096
 10
27.40234738719597
 20
15.05904231108396
 10
27.38252325578996
 20
15.06923384572496
 10
27.36256707517398
 20
15.07916528636099
 10
27.34248343298399
 20
15.08883753097896
 10
27.32227691685698
 20
15.09825147756597
 10
27.30195211442798
 20
15.10740802411097
 10
27.28151361333301
 20
15.11630806859898
 10
27.26096600120801
 20
15.12495250901898
 10
27.24031386568898
 20
15.13334224335797
 10
27.21956179441198
 20
15.14147816960297
 10
27.19871435744499
 20
15.14936118378797
 10
27.17777547934199
 20
15.15699211022896
 10
27.15674826712298
 20
15.16437168240297
 10
27.13563577523898
 20
15.17150062794897
 10
27.11444105813801
 20
15.17837967450498
 10
27.09316717027197
 20
15.18500954970797
 10
27.07181716608896
 20
15.19139098119796
 10
27.050394100039
 20
15.19752469661097
 10
27.02674798641301
 20
15.20398653993396
 10
27.003021229284
 20
15.21015049573298
 10
26.97921789412399
 20
15.21601753249498
 10
26.95534204640699
 20
15.22158861870497
 10
26.93139775160398
 20
15.22686472284896
 10
26.90738907518797
 20
15.23184681341396
 10
26.88332008262999
 20
15.23653585888698
 10
26.85919483939199
 20
15.24093282706297
 10
26.83501740764299
 20
15.24503851494793
 10
26.81079184197698
 20
15.24885332560196
 10
26.78652219591798
 20
15.25237760672098
 10
26.76221252299098
 20
15.25561170600497
 10
26.73786687672399
 20
15.25855597115096
 10
26.713489310642
 20
15.26121074985697
 10
26.68908387826899
 20
15.26357638982196
 10
26.66465463313199
 20
15.26565323874395
 10
26.640205628757
 20
15.26744164432096
 10
26.61574091866998
 20
15.26894195425096
 10
26.591264556395
 20
15.27015451623197
 10
26.566780595459
 20
15.27107967796297
 10
26.54229308938798
 20
15.27171778714096
 10
26.51780609170701
 20
15.27206919146496
 10
26.50001000000099
 20
15.27214487767597
  0
LWPOLYLINE
  5
183D
330
1E
100
AcDbEntity
  8
1
100
AcDbPolyline
 90
      118
 70
     0
 43
0.0
 10
28.1
 20
31.06471711269998
 10
28.099850402025
 20
31.08804141255395
 10
28.09940170814098
 20
31.11137029477498
 10
28.09865406841398
 20
31.13469919870297
 10
28.09760763290798
 20
31.15802356367499
 10
28.09626255168696
 20
31.18133882903296
 10
28.09461897481599
 20
31.20464043411598
 10
28.09267705235998
 20
31.22792381826198
 10
28.09043693438198
 20
31.25118442081197
 10
28.08789877094799
 20
31.27441768110498
 10
28.08506271212099
 20
31.29761903847998
 10
28.08192890796699
 20
31.32078393227796
 10
28.07849750854999
 20
31.34390780183597
 10
28.07476866393399
 20
31.36698608649598
 10
28.07074252418301
 20
31.39001422559497
 10
28.06641923936298
 20
31.41298765847496
 10
28.06179895953798
 20
31.43590182447396
 10
28.05688187508597
 20
31.45875221838298
 10
28.051668520161
 20
31.48153480786196
 10
28.04615960295899
 20
31.50424579996098
 10
28.04035583302598
 20
31.52688140359098
 10
28.03425791990898
 20
31.54943782766496
 10
28.02786657315499
 20
31.57191128109298
 10
28.02118250230999
 20
31.59429797278596
 10
28.01420641692098
 20
31.61659411165698
 10
28.006939026536
 20
31.63879590661496
 10
27.99938104070001
 20
31.66089956657399
 10
27.99153316896199
 20
31.68290130044397
 10
27.98339612086599
 20
31.70479731713598
 10
27.97497060596096
 20
31.72658382556096
 10
27.96625733379396
 20
31.74825703463199
 10
27.95725701390997
 20
31.76981315325898
 10
27.94797035585698
 20
31.79124839035398
 10
27.938398121952
 20
31.81255892979597
 10
27.92854154725199
 20
31.83374073122797
 10
27.91840211603402
 20
31.85478963607397
 10
27.90798131481698
 20
31.87570148469697
 10
27.89728063011601
 20
31.89647211746196
 10
27.88630154845099
 20
31.91709737472999
 10
27.87504555633898
 20
31.93757309686498
 10
27.86351414029697
 20
31.95789512422996
 10
27.85170878684298
 20
31.97805929718796
 10
27.83963098249497
 20
31.99806145610196
 10
27.827282213769
 20
32.01789744133498
 10
27.81466396718498
 20
32.03756309324997
 10
27.80177772925898
 20
32.05705425221097
 10
27.78862498650898
 20
32.07636675858097
 10
27.775207225453
 20
32.09549645272199
 10
27.76152593260798
 20
32.11443917499698
 10
27.74601739047898
 20
32.13526231962894
 10
27.73018860782098
 20
32.15584396127198
 10
27.71404299163998
 20
32.17617858010697
 10
27.69758394916399
 20
32.19626065634097
 10
27.68081488761898
 20
32.21608467018398
 10
27.66373921423198
 20
32.23564510184599
 10
27.64636033622899
 20
32.25493643153498
 10
27.628681660838
 20
32.27395313945998
 10
27.61070659528598
 20
32.29268970582999
 10
27.59243854679902
 20
32.31114061085597
 10
27.57388092260399
 20
32.32930033474497
 10
27.55503712992799
 20
32.34716335770698
 10
27.53591057599801
 20
32.36472415995098
 10
27.51650466804099
 20
32.38197722168499
 10
27.49682291734599
 20
32.39891705973198
 10
27.47686988792299
 20
32.41553856127497
 10
27.45868449536301
 20
32.43022168690895
 10
27.44028733742698
 20
32.44463942430996
 10
27.42168219245296
 20
32.45878820496597
 10
27.40287283878299
 20
32.47266446036997
 10
27.38386305475498
 20
32.48626462201196
 10
27.36465661871001
 20
32.49958512138098
 10
27.34525730898698
 20
32.51262238996996
 10
27.32566890392698
 20
32.52537285926797
 10
27.30589518186798
 20
32.53783296076497
 10
27.28593992115198
 20
32.54999912595298
 10
27.26580690011699
 20
32.56186778632297
 10
27.24776470499497
 20
32.57216506468797
 10
27.22958769627898
 20
32.58222195167599
 10
27.21127852761898
 20
32.59203594100898
 10
27.192839897928
 20
32.60160458557098
 10
27.17427486093201
 20
32.61092590201497
 10
27.15558663768698
 20
32.61999812569797
 10
27.13677845023099
 20
32.62881949326796
 10
27.11785352060299
 20
32.63738824136999
 10
27.09881507084298
 20
32.64570260664999
 10
27.07966632298901
 20
32.65376082575496
 10
27.06041049908102
 20
32.66156113532898
 10
27.04105082115699
 20
32.66910177201899
 10
27.02159051125599
 20
32.67638097247098
 10
27.002032791418
 20
32.68339697333098
 10
26.98238088368198
 20
32.69014801124498
 10
26.96263801008499
 20
32.69663232285898
 10
26.94280739266798
 20
32.70284814481797
 10
26.92289225346998
 20
32.70879371376897
 10
26.90289581452899
 20
32.71446726635699
 10
26.88282129788398
 20
32.71986703922896
 10
26.86267192560999
 20
32.72499126905795
 10
26.84498253887797
 20
32.72924770201098
 10
26.82724145952898
 20
32.73329143898598
 10
26.80945178286596
 20
32.73712205128497
 10
26.79161660419497
 20
32.74073911021398
 10
26.77373901881999
 20
32.74414218707497
 10
26.755822122046
 20
32.74733085317196
 10
26.73786900917799
 20
32.75030467980897
 10
26.71988277552101
 20
32.75306323828897
 10
26.70186651638
 20
32.75560609991497
 10
26.68382332705901
 20
32.75793283599097
 10
26.66575630286301
 20
32.76004301782097
 10
26.647668539097
 20
32.76193621670898
 10
26.62956313106599
 20
32.76361200395697
 10
26.611443174074
 20
32.76506995086998
 10
26.59331176342698
 20
32.76630962875096
 10
26.57517199442898
 20
32.76733060890399
 10
26.55702696238499
 20
32.76813246263197
 10
26.5388797626
 20
32.76871476123798
 10
26.520733490379
 20
32.76907707602696
 10
26.50259124102599
 20
32.76921897830197
 10
26.50001000000099
 20
32.76922123216599
  0
LWPOLYLINE
  5
1929
330
1E
100
AcDbEntity
  8
1
100
AcDbPolyline
 90
       94
 70
     0
 43
0.0
 10
26.90392286610001
 20
25.50166759549998
 10
26.928020557439
 20
25.49700054417698
 10
26.95206742272898
 20
25.49205175158798
 10
26.974461411221
 20
25.48717763242498
 10
26.99680368665198
 20
25.48205607532898
 10
27.01909065830098
 20
25.47668610995998
 10
27.04131873544397
 20
25.47106676597997
 10
27.06348432735898
 20
25.46519707305197
 10
27.08558384332401
 20
25.45907606083497
 10
27.10761369261599
 20
25.45270275899198
 10
27.12957028451199
 20
25.44607619718297
 10
27.15145002829098
 20
25.43919540507098
 10
27.17324933322899
 20
25.43205941231699
 10
27.19496460858499
 20
25.42466724857098
 10
27.21659204155899
 20
25.41701781395897
 10
27.238127046008
 20
25.40910955752996
 10
27.25956486753799
 20
25.40094083019198
 10
27.28090075175999
 20
25.39250998285796
 10
27.302129944282
 20
25.38381536643896
 10
27.32324769071198
 20
25.37485533184396
 10
27.342753081182
 20
25.36629620066898
 10
27.36215447174698
 20
25.35750547175396
 10
27.38144805577499
 20
25.34848182474798
 10
27.40063002663498
 20
25.33922393929596
 10
27.41969657769399
 20
25.32973049504596
 10
27.43864390231999
 20
25.32000017164298
 10
27.45746819388199
 20
25.31003164873698
 10
27.47616564574896
 20
25.29982360597196
 10
27.49473245128696
 20
25.28937472299597
 10
27.51316455880898
 20
25.27868370173498
 10
27.531456340766
 20
25.26774938737696
 10
27.54960154589797
 20
25.25657068181295
 10
27.56759392139199
 20
25.24514648707496
 10
27.58542721443598
 20
25.23347570519698
 10
27.60309517221998
 20
25.22155723820898
 10
27.62059154192999
 20
25.20938998814497
 10
27.637910070755
 20
25.19697285703597
 10
27.65373315058698
 20
25.18528815240998
 10
27.66939445151098
 20
25.17338873226197
 10
27.68488905552302
 20
25.16127373301298
 10
27.70021204461599
 20
25.14894229107996
 10
27.71535850078498
 20
25.13639354288199
 10
27.73032350602397
 20
25.12362662483698
 10
27.74510214232601
 20
25.11064067336497
 10
27.75968940800698
 20
25.09743487163499
 10
27.774078989142
 20
25.08400913593598
 10
27.78826352998596
 20
25.07036396460398
 10
27.80223564609896
 20
25.05649987200599
 10
27.81598795303998
 20
25.04241737250896
 10
27.82951306636999
 20
25.02811698047997
 10
27.84170519681599
 20
25.01481731455498
 10
27.85369452863899
 20
25.00133538678096
 10
27.86547537394099
 20
24.98767159335199
 10
27.87704204482098
 20
24.97382633045998
 10
27.88736656011897
 20
24.96108258771798
 10
27.89750509761701
 20
24.94818949531196
 10
27.907453383914
 20
24.93514735090798
 10
27.91720714560399
 20
24.92195645217296
 10
27.92676210928699
 20
24.90861709677198
 10
27.93518807233799
 20
24.89648499248299
 10
27.94344643134498
 20
24.88423309950896
 10
27.95153388502898
 20
24.87186228421697
 10
27.95944672089099
 20
24.85937484885596
 10
27.96718117106098
 20
24.84677328903098
 10
27.97473346766699
 20
24.83406010034595
 10
27.98209984283599
 20
24.82123777840598
 10
27.988488603684
 20
24.80975055834298
 10
27.99472484026399
 20
24.79818083411498
 10
28.000805906278
 20
24.78653035846397
 10
28.00672915542998
 20
24.77480088413298
 10
28.012491941424
 20
24.76299416386598
 10
28.01809161796199
 20
24.75111195040497
 10
28.023525538749
 20
24.73915599649396
 10
28.02879105748599
 20
24.72712805487498
 10
28.033885527877
 20
24.71502987829096
 10
28.03820079603298
 20
24.70438773704998
 10
28.04238130641599
 20
24.69369433830796
 10
28.046425286214
 20
24.68295085626798
 10
28.05033096261599
 20
24.67215846512897
 10
28.05409656280799
 20
24.66131833909297
 10
28.05772031397998
 20
24.65043165235996
 10
28.06120045068599
 20
24.63949958437396
 10
28.06453565550298
 20
24.62852363331998
 10
28.06772530887098
 20
24.61750579388397
 10
28.07076885166602
 20
24.60644810374196
 10
28.07366572476198
 20
24.59535260057696
 10
28.07641536903501
 20
24.58422132206498
 10
28.07901722535998
 20
24.57305630588896
 10
28.08147073461197
 20
24.56185958972497
 10
28.08377533766698
 20
24.55063321125498
 10
28.08593047539996
 20
24.53937920815798
 10
28.08793558868599
 20
24.52809961811297
 10
28.08979011839998
 20
24.51679647879998
 10
28.08978856502601
 20
24.51680635741599
  0
LWPOLYLINE
  5
1989
330
1E
100
AcDbEntity
  8
1
100
AcDbPolyline
 90
        7
 70
     0
 43
0.0
 10
28.08979011839998
 20
24.51679647879998
 10
28.09109953134298
 20
24.50818318694598
 10
28.09231436167499
 20
24.49960518736097
 10
28.09344183878198
 20
24.49101488997297
 10
28.09447581418099
 20
24.48246278146598
 10
28.09541733840598
 20
24.47395032357396
 10
28.09605237874801
 20
24.46770595159998
  0
LWPOLYLINE
  5
1992
330
1E
100
AcDbEntity
  8
1
100
AcDbPolyline
 90
        2
 70
     0
 43
0.0
 10
22.28461940769994
 20
-13.01477688010001
 10
22.50909542828599
 20
-12.79328348831202
  0
LWPOLYLINE
  5
1996
330
1E
100
AcDbEntity
  8
1
100
AcDbPolyline
 90
        2
 70
     0
 43
0.0
 10
21.82499999999998
 20
-0.8555781943000251
 10
21.57751969768898
 20
-0.6081303886460347
  0
LWPOLYLINE
  5
1A96
330
1E
100
AcDbEntity
  8
1
100
AcDbPolyline
 90
       45
 70
     0
 43
0.0
 10
21.44696756779997
 20
15.49167818709998
 10
21.44833592123096
 20
15.49658177435597
 10
21.44976047226597
 20
15.50147127709797
 10
21.45124090717098
 20
15.50634604033499
 10
21.45277691221397
 20
15.51120540907797
 10
21.454368173663
 20
15.51604872833496
 10
21.45601437778299
 20
15.52087534311496
 10
21.45771521084398
 20
15.52568459842896
 10
21.459470359112
 20
15.53047583928597
 10
21.46127950885396
 20
15.53524841069298
 10
21.46323689188699
 20
15.54023880099498
 10
21.46525310247099
 20
15.54520712786998
 10
21.46732777741996
 20
15.55015263308297
 10
21.46946055354999
 20
15.55507455840197
 10
21.47165106767598
 20
15.55997214559198
 10
21.47389895661298
 20
15.56484463642098
 10
21.47620385717599
 20
15.56969127265398
 10
21.47856540617998
 20
15.57451129605897
 10
21.48109977316298
 20
15.57953147430697
 10
21.48369549595499
 20
15.58452074086597
 10
21.48635215697999
 20
15.58947822394397
 10
21.48906933865699
 20
15.59440305174797
 10
21.49184662340998
 20
15.59929435248497
 10
21.49468359365896
 20
15.60415125436398
 10
21.49757982930299
 20
15.60897288816297
 10
21.50067050002399
 20
15.61397516037096
 10
21.50382458226098
 20
15.61893737534197
 10
21.50704128084198
 20
15.62385886112497
 10
21.51031980059398
 20
15.62873894576497
 10
21.51380591602999
 20
15.63378634085498
 10
21.51735757596698
 20
15.63878716131998
 10
21.520973876938
 20
15.64374064369497
 10
21.52480862026596
 20
15.64884936023597
 10
21.52871150211201
 20
15.65390502031798
 10
21.53268150130398
 20
15.65890676101298
 10
21.53688040084298
 20
15.66405044604599
 10
21.54114964132896
 20
15.66913390784498
 10
21.54565630309198
 20
15.67434810463999
 10
21.55023629557998
 20
15.67949522272897
 10
21.554888332412
 20
15.68457417507095
 10
21.55978738762299
 20
15.68976807491497
 10
21.56476110451899
 20
15.69488628477998
 10
21.56962655568198
 20
15.69974888349196
 10
21.57455881037998
 20
15.70453888775998
 10
21.57750534467396
 20
15.70733585596897
  0
LWPOLYLINE
  5
1AC5
330
1E
100
AcDbEntity
  8
1
100
AcDbPolyline
 90
        2
 70
     0
 43
0.0
 10
21.82499999999998
 20
-25.40392508880001
 10
21.57752088827999
 20
-25.235811009239
  0
LWPOLYLINE
  5
1AC9
330
1E
100
AcDbEntity
  8
1
100
AcDbPolyline
 90
       66
 70
     0
 43
0.0
 10
21.57751262659999
 20
-0.608123317600021
 10
21.572307465053
 20
-0.6028388885880274
 10
21.56717887129896
 20
-0.5974726716620211
 10
21.56212798525598
 20
-0.5920261713280324
 10
21.55715594684098
 20
-0.5865008920940255
 10
21.55226389597098
 20
-0.5808983384670256
 10
21.54745297256198
 20
-0.575220014952012
 10
21.54272431653299
 20
-0.5694674260580284
 10
21.53832145672097
 20
-0.563950463282029
 10
21.533994424772
 20
-0.5583694763540194
 10
21.529744189924
 20
-0.552725744512034
 10
21.52557172141198
 20
-0.547020546992033
 10
21.52170333600698
 20
-0.5415770193530163
 10
21.51790599729499
 20
-0.53608088455002
 10
21.51418052178299
 20
-0.5305332202390247
 10
21.510527725976
 20
-0.5249351040760386
 10
21.50694842637898
 20
-0.5192876137170144
 10
21.50344343949898
 20
-0.5135918268180176
 10
21.50021324384697
 20
-0.5081879326990331
 10
21.49705027937398
 20
-0.5027431099190124
 10
21.49395522680598
 20
-0.4972582569290322
 10
21.49092876686997
 20
-0.4917342721760205
 10
21.48797158028997
 20
-0.4861720541090363
 10
21.48508434779397
 20
-0.4805725011770247
 10
21.48226775010698
 20
-0.4749365118290169
 10
21.47969194588899
 20
-0.4696204791230258
 10
21.47717938224098
 20
-0.4642739521740139
 10
21.474730620065
 20
-0.4588976712800303
 10
21.47234622026198
 20
-0.4534923767420222
 10
21.47002674373398
 20
-0.4480588088580388
 10
21.467772732387
 20
-0.4425977159530164
 10
21.46558448655599
 20
-0.4371099484400273
 10
21.46346214025597
 20
-0.4315964270200282
 10
21.46140582421698
 20
-0.4260580737790206
 10
21.45941566917098
 20
-0.4204958108040301
 10
21.45749180584898
 20
-0.4149105601820253
 10
21.45563436498198
 20
-0.4093032440000312
 10
21.45384347730098
 20
-0.4036747843440222
 10
21.45211927353896
 20
-0.3980261033020182
 10
21.45046188442496
 20
-0.3923581229600214
 10
21.44887144069199
 20
-0.3866717654060236
 10
21.44734807307
 20
-0.3809679527260269
 10
21.44589191229198
 20
-0.3752476070070285
 10
21.44450308908699
 20
-0.3695116503360251
 10
21.44318173418699
 20
-0.3637610048000139
 10
21.442009456346
 20
-0.358381296452026
 10
21.44089617106698
 20
-0.3529903454010278
 10
21.43984198463698
 20
-0.3475889013390114
 10
21.43884700334798
 20
-0.342177713956036
 10
21.43791133348798
 20
-0.3367575329420189
 10
21.43703508134696
 20
-0.3313291079880142
 10
21.436218353214
 20
-0.3258931887860141
 10
21.43546125537798
 20
-0.3204505250260209
 10
21.43476389412799
 20
-0.3150018663990321
 10
21.434126375755
 20
-0.3095479625950216
 10
21.43354880654698
 20
-0.3040895633050153
 10
21.433031292794
 20
-0.2986274182210335
 10
21.43257394078497
 20
-0.2931622770330219
 10
21.43217685680999
 20
-0.2876948894310115
 10
21.43184014715698
 20
-0.2822260051070228
 10
21.43156391811698
 20
-0.2767563737510298
 10
21.43134827597799
 20
-0.2712867450550247
 10
21.43119332702998
 20
-0.265817868708015
 10
21.431099177562
 20
-0.2603504944020213
 10
21.43106593386396
 20
-0.2548853718270178
 10
21.43106588986899
 20
-0.2545051119050212
  0
LWPOLYLINE
  5
1B0D
330
1E
100
AcDbEntity
  8
1
100
AcDbPolyline
 90
        2
 70
     0
 43
0.0
 10
21.57751262659999
 20
32.91828145579998
 10
21.824990442956
 20
32.99553998091797
  0
LWPOLYLINE
  5
1B11
330
1E
100
AcDbEntity
  8
1
100
AcDbPolyline
 90
        9
 70
     0
 43
0.0
 10
21.44696756779997
 20
32.84509993979998
 10
21.44206368050299
 20
32.77902313653896
 10
21.43840988224599
 20
32.72194730025899
 10
21.43567295719698
 20
32.67110377922596
 10
21.43373861681197
 20
32.62685362060798
 10
21.43242798693397
 20
32.58781545864099
 10
21.43159520837397
 20
32.55225400913996
 10
21.43116173237499
 20
32.51947645297097
 10
21.43106606982797
 20
32.49681949179998
  0
LWPOLYLINE
  5
1C3E
330
1E
100
AcDbEntity
  8
1
100
AcDbPolyline
 90
        6
 70
     0
 43
0.0
 10
21.43106627379998
 20
-12.6548956386
 10
21.43108531066296
 20
-12.659126902265
 10
21.43114726606099
 20
-12.66337682361301
 10
21.43125254496399
 20
-12.66764475501301
 10
21.431400802534
 20
-12.67191124075202
 10
21.43147512665598
 20
-12.67368619945401
  0
LWPOLYLINE
  5
1C46
330
1E
100
AcDbEntity
  8
1
100
AcDbPolyline
 90
      148
 70
     0
 43
0.0
 10
21.43147556599998
 20
-12.67369618980001
 10
21.43179296364498
 20
-12.67988693879402
 10
21.43220004503498
 20
-12.68607291339002
 10
21.43269637196798
 20
-12.69225291565601
 10
21.43328150624298
 20
-12.698425747663
 10
21.43395500915598
 20
-12.70459021147601
 10
21.43471638213298
 20
-12.71074510879302
 10
21.43556501058799
 20
-12.71688924059702
 10
21.43650026664797
 20
-12.72302140779101
 10
21.43752152243997
 20
-12.72914041127703
 10
21.43862815009097
 20
-12.73524505195803
 10
21.43981952172699
 20
-12.74133413073601
 10
21.44109500947597
 20
-12.74740644851201
 10
21.442453985464
 20
-12.75346080619002
 10
21.44389582181799
 20
-12.75949600467103
 10
21.445419890663
 20
-12.76551084486402
 10
21.44702555287997
 20
-12.77150418612302
 10
21.44871213019698
 20
-12.77747509126501
 10
21.450478935831
 20
-12.78342266735202
 10
21.45232528299898
 20
-12.78934602144602
 10
21.45425048491698
 20
-12.79524426060703
 10
21.45625385480097
 20
-12.80111649189803
 10
21.45833470586798
 20
-12.80696182237801
 10
21.46049235133494
 20
-12.81277935911103
 10
21.46272610441597
 20
-12.81856820915601
 10
21.46503527832999
 20
-12.82432747957602
 10
21.46741918629197
 20
-12.83005627743202
 10
21.47029394994598
 20
-12.83670017824501
 10
21.47326838226196
 20
-12.84330011522502
 10
21.476341348234
 20
-12.84985490800601
 10
21.479511712364
 20
-12.85636337884301
 10
21.48277833915896
 20
-12.86282434998899
 10
21.48614009311998
 20
-12.86923664369703
 10
21.48959583875398
 20
-12.87559908222303
 10
21.49314444056298
 20
-12.88191048781901
 10
21.49678476305196
 20
-12.88816968273903
 10
21.50051567072498
 20
-12.89437548923703
 10
21.50433602808698
 20
-12.90052672956599
 10
21.508244699664
 20
-12.90662222651002
 10
21.512240553417
 20
-12.91266087777501
 10
21.516322464252
 20
-12.91864173279401
 10
21.52109143903194
 20
-12.92540502888803
 10
21.52596966829599
 20
-12.93209022683301
 10
21.530955473858
 20
-12.93869593507102
 10
21.53604717752898
 20
-12.94522076204401
 10
21.54124310112299
 20
-12.95166331619101
 10
21.54654156645196
 20
-12.95802220595501
 10
21.55194089532896
 20
-12.96429603977601
 10
21.557439409566
 20
-12.97048342609602
 10
21.56303543097596
 20
-12.97658297335501
 10
21.56872728115696
 20
-12.98259329595802
 10
21.57524306242097
 20
-12.98924669135502
 10
21.58187559514098
 20
-12.995783932261
 10
21.58862247710798
 20
-13.00220339259301
 10
21.594713760443
 20
-13.00780938748903
 10
21.60089180860998
 20
-13.01331989433301
 10
21.60715493445798
 20
-13.01873377107503
 10
21.61350145083898
 20
-13.02404987566402
 10
21.61992967060498
 20
-13.02926706605103
 10
21.62643790660498
 20
-13.03438420018301
 10
21.63302447169197
 20
-13.03940013601101
 10
21.63968767871697
 20
-13.04431373148499
 10
21.64642584052598
 20
-13.04912384458702
 10
21.65323726472298
 20
-13.05382938113302
 10
21.66012024322199
 20
-13.05842939000902
 10
21.66707306501999
 20
-13.06292294673502
 10
21.67409401910997
 20
-13.06730912683301
 10
21.68118139448798
 20
-13.07158700582201
 10
21.68833348014897
 20
-13.07575565922201
 10
21.69464329267899
 20
-13.07931290506902
 10
21.70100019279196
 20
-13.08278519794203
 10
21.70740303424698
 20
-13.08617191851101
 10
21.71385067080596
 20
-13.08947244744701
 10
21.72034195622799
 20
-13.09268616542101
 10
21.72687574427299
 20
-13.09581245310502
 10
21.73345088870198
 20
-13.09885069117001
 10
21.74006624291398
 20
-13.10180026083201
 10
21.74672063266299
 20
-13.10466058510201
 10
21.75341283704098
 20
-13.10743115752599
 10
21.760141630649
 20
-13.11011147844401
 10
21.76690578808498
 20
-13.11270104819701
 10
21.77370408394897
 20
-13.11519936712701
 10
21.78053529283896
 20
-13.11760593557502
 10
21.78739818935396
 20
-13.11992025388102
 10
21.79429154809501
 20
-13.12214182238702
 10
21.80121414365898
 20
-13.12427014143301
 10
21.808164750646
 20
-13.12630471136102
 10
21.81514214365396
 20
-13.128245032512
 10
21.82214509728399
 20
-13.13009060522603
 10
21.82917238613399
 20
-13.13184092984502
 10
21.83622278441498
 20
-13.13349550730802
 10
21.84329503478797
 20
-13.13505388734002
 10
21.85038782548099
 20
-13.13651570381603
 10
21.85749983933598
 20
-13.13788059894503
 10
21.86462975919098
 20
-13.13914821493801
 10
21.87177626788698
 20
-13.14031819400599
 10
21.878938048262
 20
-13.14139017835901
 10
21.88611378315598
 20
-13.14236381020801
 10
21.893302155409
 20
-13.14323873176302
 10
21.90050184786
 20
-13.14401458523602
 10
21.90771154334798
 20
-13.14469101283501
 10
21.91492992471399
 20
-13.145267656773
 10
21.92215567479598
 20
-13.14574415925901
 10
21.92938747631396
 20
-13.14612016267503
 10
21.936623973568
 20
-13.14639536346202
 10
21.94386371784597
 20
-13.146569588962
 10
21.95110524663097
 20
-13.14664268593801
 10
21.95731258301198
 20
-13.14662473428302
 10
21.96351923495595
 20
-13.14653227504101
 10
21.96972428146199
 20
-13.14636521171201
 10
21.97592680152698
 20
-13.14612344779902
 10
21.98212587415099
 20
-13.14580688680202
 10
21.98832057833198
 20
-13.14541543222301
 10
21.99450999306799
 20
-13.14494898756402
 10
22.00069319735696
 20
-13.144407456325
 10
22.00686927019899
 20
-13.14379074200902
 10
22.01303729059098
 20
-13.14309874811599
 10
22.019196337533
 20
-13.14233137814801
 10
22.025345490001
 20
-13.14148854479102
 10
22.03148382679898
 20
-13.140570238755
 10
22.03761042663799
 20
-13.13957649013201
 10
22.04372436823196
 20
-13.13850732931302
 10
22.04982473029298
 20
-13.13736278669002
 10
22.055910591534
 20
-13.13614289265802
 10
22.061981030667
 20
-13.13484767760601
 10
22.06803512640498
 20
-13.13347717193002
 10
22.074071957461
 20
-13.13203140601902
 10
22.08009060254598
 20
-13.13051041026901
 10
22.08609014037298
 20
-13.12891421507001
 10
22.09206964965598
 20
-13.12724285081503
 10
22.09802820910598
 20
-13.12549634789601
 10
22.10396489743597
 20
-13.123674736707
 10
22.10987879335795
 20
-13.12177804764002
 10
22.11576896717196
 20
-13.119806322683
 10
22.12163435646999
 20
-13.11775978672502
 10
22.12844442712098
 20
-13.11527810340803
 10
22.13521731363297
 20
-13.11269569348701
 10
22.14195115634598
 20
-13.11001315195801
 10
22.14864409559897
 20
-13.10723107381503
 10
22.155294271732
 20
-13.10435005405401
 10
22.161899825083
 20
-13.10137068766801
 10
22.16845889599099
 20
-13.09829356965301
 10
22.17496962479597
 20
-13.09511929500501
 10
22.18143015183698
 20
-13.09184845871701
 10
22.18783861745297
 20
-13.08848165578501
 10
22.194193161984
 20
-13.08501948120301
 10
22.20049192576798
 20
-13.08146252996701
 10
22.20137842822097
 20
-13.08095169411402
  0
LWPOLYLINE
  5
1D7F
330
1E
100
AcDbEntity
  8
1
100
AcDbPolyline
 90
        2
 70
     0
 43
0.0
 10
21.57751262659999
 20
15.70734270969998
 10
21.824992695909
 20
15.93951317050098
  0
LWPOLYLINE
  5
1D83
330
1E
100
AcDbEntity
  8
1
100
AcDbPolyline
 90
       10
 70
     0
 43
0.0
 10
21.44696756779997
 20
15.49167818709998
 10
21.442656107152
 20
15.43735876847196
 10
21.43922489082199
 20
15.38775366318196
 10
21.43653804559698
 20
15.34219491243396
 10
21.43447760164999
 20
15.30001125108796
 10
21.43297598637598
 20
15.26121156867898
 10
21.43195568071198
 20
15.22546385703398
 10
21.431341373479
 20
15.19209294627197
 10
21.43108030711498
 20
15.16042166855998
 10
21.43106600166498
 20
15.15157715709998
  0
LWPOLYLINE
  5
1E03
330
1E
100
AcDbEntity
  8
1
100
AcDbPolyline
 90
        2
 70
     0
 43
0.0
 10
22.53210678119998
 20
25.53896045439998
 10
22.28462772512996
 20
25.70478423029197
  0
LWPOLYLINE
  5
1EA6
330
1E
100
AcDbEntity
  8
1
100
AcDbPolyline
 90
       18
 70
     0
 43
0.0
 10
22.28461940769994
 20
-13.01477688010001
 10
22.27950439943398
 20
-13.01975115162602
 10
22.27439549515
 20
-13.02457965372298
 10
22.26929705143497
 20
-13.02926460255503
 10
22.264133338611
 20
-13.03387870185102
 10
22.25898642539197
 20
-13.03835163200901
 10
22.25386030772698
 20
-13.04268573653601
 10
22.248758834569
 20
-13.04688339426002
 10
22.243685711886
 20
-13.05094701596402
 10
22.238560078413
 20
-13.05494406067901
 10
22.23346824179198
 20
-13.058809977434
 10
22.22832758218598
 20
-13.06261020739202
 10
22.223225947521
 20
-13.06628244241901
 10
22.21807899531298
 20
-13.06988996743203
 10
22.21297601663797
 20
-13.07337269980402
 10
22.20783104086098
 20
-13.076791762154
 10
22.20273471740898
 20
-13.08008929728702
 10
22.20139553285598
 20
-13.08094133737603
  0
LWPOLYLINE
  5
1F32
330
1E
100
AcDbEntity
  8
1
100
AcDbPolyline
 90
       47
 70
     0
 43
0.0
 10
21.44696756779997
 20
32.84509993979998
 10
21.44801270308597
 20
32.84639108106097
 10
21.44907668106101
 20
32.84766572523398
 10
21.45025838093798
 20
32.84903768705297
 10
21.45146146036998
 20
32.85039055759197
 10
21.45268537424096
 20
32.85172461943496
 10
21.453929577438
 20
32.85304015516397
 10
21.45529972793899
 20
32.85444474041298
 10
21.45669235739798
 20
32.85582827413298
 10
21.45810677275
 20
32.85719111560498
 10
21.45965355842798
 20
32.85863606210097
 10
21.46122394117099
 20
32.86005787589896
 10
21.46293169617999
 20
32.86155608742197
 10
21.46466448127998
 20
32.86302881059796
 10
21.46642123179197
 20
32.86447659734899
 10
21.46832031462599
 20
32.86599403959198
 10
21.47024416128199
 20
32.86748440751498
 10
21.47219147963699
 20
32.86894837094497
 10
21.47428477812197
 20
32.87047564982697
 10
21.47640156541098
 20
32.87197468011896
 10
21.478666749171
 20
32.87353199156297
 10
21.48095468908401
 20
32.87505948775998
 10
21.48339239150899
 20
32.87664055282599
 10
21.48585123518198
 20
32.87819058211697
 10
21.48845995268799
 20
32.87978989597599
 10
21.49121897576298
 20
32.88143493381198
 10
21.49412807870195
 20
32.88312230900698
 10
21.49718628624597
 20
32.88484885800198
 10
21.500392938787
 20
32.88661130318698
 10
21.50361472494997
 20
32.88833476061398
 10
21.50698641323895
 20
32.89008957960397
 10
21.51037363576199
 20
32.89180416781396
 10
21.51391233954496
 20
32.89354580001194
 10
21.51760386736298
 20
32.89531084881898
 10
21.52131186777798
 20
32.89703282261896
 10
21.52517399114199
 20
32.89877450070695
 10
21.52919139893199
 20
32.90053264213696
 10
21.53336517444397
 20
32.90230417002897
 10
21.53783632324498
 20
32.90414288674696
 10
21.54246688529598
 20
32.90598631840598
 10
21.54725758972797
 20
32.90783214128998
 10
21.55235077575198
 20
32.90973032047897
 10
21.55774852206199
 20
32.91167464524995
 10
21.56359549487298
 20
32.91370835807896
 10
21.56989473477898
 20
32.91582204272498
 10
21.57679265563098
 20
32.91805323006997
 10
21.57750309249097
 20
32.91827843905898
  0
LWPOLYLINE
  5
1F63
330
1E
100
AcDbEntity
  8
1
100
AcDbPolyline
 90
       77
 70
     0
 43
0.0
 10
21.57751262659999
 20
-25.23580537500003
 10
21.57294378701898
 20
-25.23264976420206
 10
21.56840687979098
 20
-25.22943523227604
 10
21.56390414067197
 20
-25.22616161871702
 10
21.55943780542297
 20
-25.22282876302
 10
21.555010109801
 20
-25.21943650468102
 10
21.55062328956597
 20
-25.21598468319302
 10
21.54627958047498
 20
-25.21247313805202
 10
21.54198121828698
 20
-25.20890170875303
 10
21.53773043876098
 20
-25.20527023479003
 10
21.53352947765498
 20
-25.20157855565804
 10
21.52938057072798
 20
-25.19782651085199
 10
21.52528595373798
 20
-25.19401393986703
 10
21.52124786244398
 20
-25.19014068219803
 10
21.51726853260498
 20
-25.18620657734004
 10
21.513554871124
 20
-25.18242325743301
 10
21.50989785606197
 20
-25.17858504622604
 10
21.50649773499599
 20
-25.17490954424904
 10
21.50315143821998
 20
-25.17118484389003
 10
21.49986056717497
 20
-25.16741083018104
 10
21.49681534212195
 20
-25.16381366682503
 10
21.49382196761899
 20
-25.16017262336704
 10
21.49106395716299
 20
-25.15671920784102
 10
21.48835379204999
 20
-25.15322706259901
 10
21.48569257239397
 20
-25.14969610866302
 10
21.48325389755199
 20
-25.14636546791804
 10
21.480859712398
 20
-25.14300088748103
 10
21.47851091136498
 20
-25.13960230313801
 10
21.47620838888598
 20
-25.13616965067802
 10
21.473953039397
 20
-25.13270286589103
 10
21.47190180719297
 20
-25.12945309009698
 10
21.46989273701298
 20
-25.12617377710104
 10
21.46792654115698
 20
-25.12286491968001
 10
21.466003885709
 20
-25.11952704340405
 10
21.46412540612796
 20
-25.11616102685901
 10
21.46243118340898
 20
-25.11302972336904
 10
21.46077564203199
 20
-25.10987589236703
 10
21.45915928137298
 20
-25.106700229853
 10
21.45758260080897
 20
-25.10350343182405
 10
21.45604609971499
 20
-25.10028619427798
 10
21.454550277468
 20
-25.097049213216
 10
21.45309563344198
 20
-25.09379318463301
 10
21.45168266701495
 20
-25.09051880453001
 10
21.45042448690398
 20
-25.08750176256604
 10
21.44920213181398
 20
-25.08447042115403
 10
21.44801598639098
 20
-25.08142531639101
 10
21.446866435282
 20
-25.07836698437198
 10
21.445753863134
 20
-25.075295961194
 10
21.44467865459195
 20
-25.07221278295201
 10
21.44364119430397
 20
-25.06911798574305
 10
21.442641866917
 20
-25.06601210566306
 10
21.44168105707596
 20
-25.06289567880703
 10
21.44075914942999
 20
-25.05976924127101
 10
21.43995513333999
 20
-25.05691878948602
 10
21.43918387470498
 20
-25.05406091024303
 10
21.438445662514
 20
-25.05119600632002
 10
21.43774078575798
 20
-25.04832448049302
 10
21.43706953342698
 20
-25.04544673553903
 10
21.436432194513
 20
-25.04256317423403
 10
21.43582905800698
 20
-25.03967419935702
 10
21.435260412898
 20
-25.03678021368206
 10
21.43472654817798
 20
-25.03388161998806
 10
21.43422775283699
 20
-25.030978821051
 10
21.433764315866
 20
-25.02807221964804
 10
21.43333652625599
 20
-25.02516221855604
 10
21.43294467299798
 20
-25.02224922055104
 10
21.43258904508098
 20
-25.019333628411
 10
21.43230019147398
 20
-25.01670771039404
 10
21.43204112515197
 20
-25.01408031100102
 10
21.43181205678698
 20
-25.01145172385504
 10
21.43161319705398
 20
-25.00882224258305
 10
21.43144475662797
 20
-25.00619216080599
 10
21.43130694618298
 20
-25.00356177215105
 10
21.43119997639197
 20
-25.000931370241
 10
21.43112405793098
 20
-24.99830124870102
 10
21.431079401473
 20
-24.99567170115502
 10
21.431066125439
 20
-24.99334504480704
  0
LWPOLYLINE
  5
2016
330
1E
100
AcDbEntity
  8
1
100
AcDbPolyline
 90
      149
 70
     0
 43
0.0
 10
21.43106574549995
 20
25.46750843889998
 10
21.43110990504598
 20
25.47162478948397
 10
21.43123466794996
 20
25.47574278639896
 10
21.431439092407
 20
25.47986121384298
 10
21.43172223661597
 20
25.48397885600997
 10
21.43208315877199
 20
25.48809449709696
 10
21.43252091707299
 20
25.49220692129898
 10
21.43303456971398
 20
25.49631491281397
 10
21.43362317489398
 20
25.50041725583596
 10
21.43428579080798
 20
25.50451273456099
 10
21.43502147565399
 20
25.50860013318697
 10
21.435829287627
 20
25.51267823590797
 10
21.43670828492501
 20
25.51674582691997
 10
21.43765752574398
 20
25.52080169041996
 10
21.43867606828198
 20
25.52484461060397
 10
21.43976297073498
 20
25.52887337166697
 10
21.44091729129898
 20
25.53288675780598
 10
21.44213808817098
 20
25.53688355321597
 10
21.44342441954898
 20
25.54086254209298
 10
21.44477534362799
 20
25.54482250863398
 10
21.44618991860598
 20
25.54876223703496
 10
21.44766720267898
 20
25.55268051148996
 10
21.44920625404397
 20
25.55657611619696
 10
21.45080613089799
 20
25.56044783535196
 10
21.45246589143698
 20
25.56429445314998
 10
21.45418459385799
 20
25.56811475378697
 10
21.45596129635799
 20
25.57190752145896
 10
21.45779505713298
 20
25.57567154036297
 10
21.45968493438098
 20
25.57940559469296
 10
21.46212475995198
 20
25.58402917272497
 10
21.46464895648298
 20
25.58860165679996
 10
21.467255684516
 20
25.59312067230297
 10
21.46994310550196
 20
25.59758386262098
 10
21.472709431895
 20
25.60198987791097
 10
21.47555295312196
 20
25.60633888786398
 10
21.47847196499498
 20
25.61063118821298
 10
21.48146476332797
 20
25.61486707469398
 10
21.48452964393197
 20
25.61904684303897
 10
21.48766490262099
 20
25.62317078898397
 10
21.49086883520598
 20
25.62723920826099
 10
21.49413973750101
 20
25.63125239660598
 10
21.49747590531798
 20
25.63521064975097
 10
21.50156305769197
 20
25.63988845545697
 10
21.50573879355198
 20
25.64448809136198
 10
21.51000016806198
 20
25.64901006849396
 10
21.51434423638698
 20
25.65345489788197
 10
21.51876805368999
 20
25.65782309055296
 10
21.52326867513598
 20
25.66211515753797
 10
21.52784315588797
 20
25.66633160986296
 10
21.53248855111197
 20
25.67047295855698
 10
21.53720191597098
 20
25.67453971464995
 10
21.54278281898596
 20
25.67919066842796
 10
21.54844755168797
 20
25.68374160044696
 10
21.55419143778599
 20
25.68819332220098
 10
21.56000980098999
 20
25.69254664518396
 10
21.56589796500998
 20
25.69680238089096
 10
21.57185125355599
 20
25.70096134081399
 10
21.57786499037197
 20
25.70502433644898
 10
21.58393509848396
 20
25.70899217874897
 10
21.59005962329997
 20
25.71286567675199
 10
21.59623707986197
 20
25.71664563907097
 10
21.60246598320799
 20
25.72033287432097
 10
21.60874484837898
 20
25.72392819111496
 10
21.61507219041197
 20
25.72743239806797
 10
21.62144652434898
 20
25.73084630379398
 10
21.62786636522799
 20
25.73417071690596
 10
21.634330228089
 20
25.73740644601897
 10
21.640836627971
 20
25.74055429974697
 10
21.64738407991398
 20
25.74361508670298
 10
21.65397109895696
 20
25.74658961550095
 10
21.66059620013998
 20
25.74947869475698
 10
21.66725789850199
 20
25.75228313308298
 10
21.67491417602499
 20
25.75538560078996
 10
21.68261409778799
 20
25.75837978025498
 10
21.69035544717297
 20
25.76126687850697
 10
21.69813600756298
 20
25.76404810256998
 10
21.70595356233997
 20
25.76672465947499
 10
21.713805894887
 20
25.76929775624597
 10
21.72169078858599
 20
25.77176859991296
 10
21.729606026819
 20
25.77413839750099
 10
21.73754939296999
 20
25.77640835603898
 10
21.745518732071
 20
25.77857963860596
 10
21.75351254342098
 20
25.78065294187698
 10
21.761529720569
 20
25.78262868148198
 10
21.76956916249
 20
25.78450726918296
 10
21.77762976815599
 20
25.78628911674297
 10
21.78571043654198
 20
25.78797463592396
 10
21.79381006661998
 20
25.78956423848896
 10
21.80192755736498
 20
25.79105833619895
 10
21.81006180775098
 20
25.79245734081698
 10
21.81821171675001
 20
25.79376166410597
 10
21.82637618333798
 20
25.79497171782799
 10
21.835577238209
 20
25.79622085936597
 10
21.84479375636797
 20
25.79735179839897
 10
21.85402417014298
 20
25.79836512120496
 10
21.86326691186298
 20
25.79926141406398
 10
21.87252041385395
 20
25.80004126325396
 10
21.88178310844397
 20
25.80070525505496
 10
21.89105342796199
 20
25.80125397574397
 10
21.90032980473497
 20
25.80168801160098
 10
21.90961067109097
 20
25.80200794890597
 10
21.91889445935697
 20
25.80221437393499
 10
21.92817960186198
 20
25.80230787296997
 10
21.93746454468498
 20
25.80228895047696
 10
21.94674785928098
 20
25.80215736502597
 10
21.956028184157
 20
25.80191247629596
 10
21.96530415845201
 20
25.80155364019899
 10
21.97457442130298
 20
25.80108021264598
 10
21.98383761185098
 20
25.80049154954898
 10
21.99309236923296
 20
25.79978700682096
 10
22.00233733258798
 20
25.79896594037399
 10
22.01157114105498
 20
25.79802770611996
 10
22.02079243377198
 20
25.79697165996998
 10
22.02999984987897
 20
25.79579715783696
 10
22.03817147011298
 20
25.79465319072298
 10
22.046330095087
 20
25.79341466748497
 10
22.05447476902298
 20
25.79208113575996
 10
22.06260453614697
 20
25.79065214318399
 10
22.07071844068099
 20
25.78912723739398
 10
22.07881552684798
 20
25.78750596602697
 10
22.086894838874
 20
25.78578787671798
 10
22.09495542098
 20
25.78397251710399
 10
22.10299631739098
 20
25.78205943482196
 10
22.11101657233098
 20
25.78004817750799
 10
22.11901523002298
 20
25.77793829279798
 10
22.12699130304399
 20
25.77572931912996
 10
22.13494297326598
 20
25.77342055344598
 10
22.14286753035898
 20
25.77101103332196
 10
22.15076222002799
 20
25.76849978354996
 10
22.15862428797798
 20
25.76588582892298
 10
22.16645097991198
 20
25.76316819423396
 10
22.174239541535
 20
25.76034590427698
 10
22.181987218553
 20
25.75741798384396
 10
22.18969125666898
 20
25.75438345772798
 10
22.19734890158798
 20
25.75124135072198
 10
22.20495739901398
 20
25.74799068761998
 10
22.21157235271796
 20
25.74505654083998
 10
22.21814572395302
 20
25.74203788084298
 10
22.22467566755498
 20
25.73893405431598
 10
22.23116033836299
 20
25.73574440794796
 10
22.23759789121301
 20
25.73246828842497
 10
22.24398648094398
 20
25.72910504243496
 10
22.25032426239099
 20
25.72565401666496
 10
22.25660939039197
 20
25.72211455780399
 10
22.26284001978398
 20
25.71848601253796
 10
22.26901430540499
 20
25.71476772755497
 10
22.275130402092
 20
25.71095904954197
 10
22.28118646468197
 20
25.70705932518697
 10
22.28461109020897
 20
25.70479533341897
  0
LINE
  5
2311
330
1E
100
AcDbEntity
  8
SK4
100
AcDbLine
 10
0.0
 20
0.0
 30
0.0
 11
-41.0
 21
-0.0000000000000234
 31
0.0
  0
TEXT
  5
F7D8
330
1E
100
AcDbEntity
  8
6
100
AcDbText
 10
38.69146131458638
 20
-51.82561927978486
 30
0.0
 40
3.5
  1
17Y1E080064K6R00
100
AcDbText
  0
CIRCLE
  5
F7D9
330
1E
100
AcDbEntity
  8
1
100
AcDbCircle
 10
0.0000000000000142
 20
0.0000000000000853
 30
0.0
 40
2.950972054112601
  0
HATCH
  5
F7DA
330
1E
100
AcDbEntity
  8
1
100
AcDbHatch
 10
0.0
 20
0.0
 30
0.0
210
0.0
220
0.0
230
1.0
  2
SOLID
 70
     1
 71
     0
 91
        2
 92
        7
 72
     1
 73
     1
 93
        3
 10
0.0000000000000142
 20
0.0000000000000853
 42
0.0
 10
2.950972054112653
 20
0.0000000000000853
 42
0.4142135623730966
 10
0.0000000000000142
 20
2.950972054112666
 42
0.0
 97
        0
 92
        7
 72
     1
 73
     1
 93
        3
 10
0.0000000000000142
 20
-2.950972054112526
 42
0.0
 10
0.0000000000000142
 20
0.0000000000000853
 42
0.0
 10
-2.950972054112625
 20
0.0000000000000853
 42
0.4142135623730966
 97
        0
 75
     0
 76
     1
 47
0.1190009775223266
 98
        2
 10
0.7445530588120306
 20
0.9212244733765544
 10
-1.279464601852835
 20
-1.696796923046235
  0
LWPOLYLINE
  5
F7DB
330
1E
100
AcDbEntity
  8
1
100
AcDbPolyline
 90
        3
 70
     1
 43
0.0
 10
0.0000000000000142
 20
2.950972054112666
 10
0.0000000000000142
 20
0.0000000000000853
 10
2.950972054112653
 20
0.0000000000000853
 42
0.4142135623730966
  0
TEXT
  5
F7E4
330
1E
100
AcDbEntity
  8
6
100
AcDbText
 10
35.85589039641764
 20
47.34049279854796
 30
0.0
 40
2.5
  1
XNL434-100
100
AcDbText
  0
TEXT
  5
F7E5
330
1E
100
AcDbEntity
  8
6
100
AcDbText
 10
57.45961866063225
 20
-4.698019831510007
 30
0.0
 40
3.5
  1
Z=8
 50
90.0
100
AcDbText
  0
LINE
  5
F96A
330
1E
100
AcDbEntity
  8
NOCUT
100
AcDbLine
 10
0.0
 20
0.0
 30
0.0
 11
0.0000000000000284
 21
31.5
 31
0.0
  0
LINE
  5
F97B
330
1E
100
AcDbEntity
  8
NOCUT
100
AcDbLine
 10
28.09999999999999
 20
0.0
 30
0.0
 11
0.0
 21
0.0
 31
0.0
  0
LINE
  5
F984
330
1E
100
AcDbEntity
  8
NOCUT
100
AcDbLine
 10
28.09999999999999
 20
0.0
 30
0.0
 11
28.09999999999999
 21
32.89999999999997
 31
0.0
  0
LINE
  5
F985
330
1E
100
AcDbEntity
  8
NOCUT
100
AcDbLine
 10
26.50000000000003
 20
34.5
 30
0.0
 11
3.000000000000028
 21
34.5
 31
0.0
  0
ARC
  5
F98E
330
1E
100
AcDbEntity
  8
NOCUT
100
AcDbCircle
 10
3.000000000000028
 20
31.5
 30
0.0
 40
3.0
100
AcDbArc
 50
90.0
 51
180.0
  0
ARC
  5
F98F
330
1E
100
AcDbEntity
  8
NOCUT
100
AcDbCircle
 10
26.50000000000003
 20
32.89999999999997
 30
0.0
 40
1.6
100
AcDbArc
 50
0.0
 51
90.0
  0
SPLINE
  5
F9A3
330
1E
100
AcDbEntity
  8
CUT
100
AcDbSpline
210
0.0
220
0.0
230
1.0
 70
     8
 71
     3
 72
    36
 73
    32
 74
    30
 42
0.0000000001
 43
0.0000000001
 44
0.0000000001
 12
0.5002488391086616
 22
0.8658816887834253
 32
0.0
 13
0.4999655533459074
 23
0.8660452906560493
 33
0.0
 40
0.0
 40
0.0
 40
0.0
 40
0.0
 40
0.1305377223679841
 40
0.2610789083017154
 40
0.3916218260299615
 40
0.5221682073701106
 40
0.6527171864392683
 40
0.7832687632546975
 40
0.9138229378336854
 40
1.044380576124163
 40
1.174939946282016
 40
1.305502780197282
 40
1.436067346002884
 40
1.566635875737278
 40
1.69720563725962
 40
1.827777996666166
 40
1.958353819945269
 40
2.088931375172001
 40
2.219511528334767
 40
2.350094279450622
 40
2.480679628536967
 40
2.611266709613179
 40
2.741856388688486
 40
2.872448665780198
 40
3.003043540905591
 40
3.133641514094261
 40
3.264240719313942
 40
3.394841656584659
 40
3.525446057980623
 40
3.656052191450702
 40
3.786660057002508
 40
3.786660057002508
 40
3.786660057002508
 40
3.786660057002508
 10
22.88872399999998
 20
36.35665299999998
 30
0.0
 10
22.91049111469147
 20
36.39432974116462
 30
0.0
 10
22.95402486629453
 20
36.46968483287216
 30
0.0
 10
23.0193243386125
 20
36.58271947105183
 30
0.0
 10
23.08462495562355
 20
36.69575678129135
 30
0.0
 10
23.14992460338222
 20
36.80879765145183
 30
0.0
 10
23.21522467337424
 20
36.92184161102983
 30
0.0
 10
23.28052460122426
 20
37.03488865271488
 30
0.0
 10
23.34582496415777
 20
37.14793877642686
 30
0.0
 10
23.41112430635222
 20
37.260992489719
 30
0.0
 10
23.47642498653311
 20
37.37404876353124
 30
0.0
 10
23.54172436723691
 20
37.48710845456546
 30
0.0
 10
23.60702480390469
 20
37.60017106155161
 30
0.0
 10
23.67232553703535
 20
37.71323616399604
 30
0.0
 10
23.73762557929651
 20
37.82630466544365
 30
0.0
 10
23.80292596009784
 20
37.93937577887429
 30
0.0
 10
23.86822534407958
 20
38.05245046796567
 30
0.0
 10
23.93352569502962
 20
38.16552759863706
 30
0.0
 10
23.99882562898744
 20
38.27860763678528
 30
0.0
 10
24.06412568650375
 20
38.39169060358277
 30
0.0
 10
24.12942537807734
 20
38.50477644835287
 30
0.0
 10
24.19472568814139
 20
38.61786460265387
 30
0.0
 10
24.26002562235904
 20
38.73095564064741
 30
0.0
 10
24.32532571971721
 20
38.84404958444492
 30
0.0
 10
24.39062547934573
 20
38.95714691569497
 30
0.0
 10
24.45592661580402
 20
39.0702461186685
 30
0.0
 10
24.52122629987329
 20
39.18334849353499
 30
0.0
 10
24.58652698812028
 20
39.2964527628567
 30
0.0
 10
24.65182636638731
 20
39.40956045514582
 30
0.0
 10
24.71712643299678
 20
39.5226704166928
 30
0.0
 10
24.76065952207603
 20
39.59807789103874
 30
0.0
 10
24.78242600000001
 20
39.635782
 30
0.0
 11
22.88872399999998
 21
36.35665299999998
 31
0.0
 11
22.95402400000003
 21
36.46968400000004
 31
0.0
 11
23.019324
 21
36.58271899999999
 31
0.0
 11
23.08462399999999
 21
36.69575600000001
 31
0.0
 11
23.14992400000002
 21
36.80879700000003
 31
0.0
 11
23.215224
 21
36.92184100000004
 31
0.0
 11
23.28052399999998
 21
37.03488800000002
 31
0.0
 11
23.34582400000001
 21
37.14793800000001
 31
0.0
 11
23.41112399999999
 21
37.26099199999997
 31
0.0
 11
23.47642400000003
 21
37.37404800000001
 31
0.0
 11
23.541724
 21
37.48710799999996
 31
0.0
 11
23.60702399999999
 21
37.60016999999999
 31
0.0
 11
23.67232500000003
 21
37.71323599999997
 31
0.0
 11
23.73762500000001
 21
37.82630399999999
 31
0.0
 11
23.80292499999999
 21
37.93937499999997
 31
0.0
 11
23.86822500000002
 21
38.05245000000002
 31
0.0
 11
23.933525
 21
38.16552699999999
 31
0.0
 11
23.99882500000003
 21
38.27860700000002
 31
0.0
 11
24.06412500000001
 21
38.39168999999997
 31
0.0
 11
24.12942499999999
 21
38.50477599999999
 31
0.0
 11
24.19472500000003
 21
38.61786399999999
 31
0.0
 11
24.260025
 21
38.73095499999998
 31
0.0
 11
24.32532499999998
 21
38.84404899999998
 31
0.0
 11
24.39062500000003
 21
38.95714600000003
 31
0.0
 11
24.455926
 21
39.07024599999999
 31
0.0
 11
24.52122600000004
 21
39.18334800000002
 31
0.0
 11
24.58652600000002
 21
39.29645199999999
 31
0.0
 11
24.651826
 21
39.40955999999999
 31
0.0
 11
24.71712600000004
 21
39.52266999999999
 31
0.0
 11
24.78242600000001
 21
39.635782
 31
0.0
  0
SPLINE
  5
F9A4
330
1E
100
AcDbEntity
  8
CUT
100
AcDbSpline
210
0.0
220
0.0
230
1.0
 70
     8
 71
     3
 72
    36
 73
    32
 74
    30
 42
0.0000000001
 43
0.0000000001
 44
0.0000000001
 12
0.523805935939607
 22
0.8518376262377898
 32
0.0
 13
0.5235405674833597
 23
0.8520007477691564
 33
0.0
 40
0.0
 40
0.0
 40
0.0
 40
0.0
 40
0.0077388229079206
 40
0.0154790214841956
 40
0.0232178443920557
 40
0.0309575191268415
 40
0.0386971938616134
 40
0.0464365406686697
 40
0.0541762154034853
 40
0.0619158901382004
 40
0.0696555648729699
 40
0.0773966152539164
 40
0.0851362899886808
 40
0.0928759647234565
 40
0.1006170151043749
 40
0.1083566898391548
 40
0.1160972164361697
 40
0.1238377430332545
 40
0.1315787934141949
 40
0.1393193200112765
 40
0.1470598466083496
 40
0.1548008969892742
 40
0.1625422754841177
 40
0.1702828020811992
 40
0.1780241805760189
 40
0.1857652309568872
 40
0.1935066094517009
 40
0.2012479879465145
 40
0.208989366441325
 40
0.2167312686623818
 40
0.2244726471571899
 40
0.2244726471571899
 40
0.2244726471571899
 40
0.2244726471571899
 10
24.78242600000001
 20
39.635782
 30
0.0
 10
24.78377721379213
 20
39.63797940684525
 30
0.0
 10
24.78648019367105
 20
39.64237441923248
 30
0.0
 10
24.79053482272638
 20
39.64896657068366
 30
0.0
 10
24.7945892228137
 20
39.65555919632043
 30
0.0
 10
24.79864308695507
 20
39.66215194651847
 30
0.0
 10
24.80269652084553
 20
39.6687451663612
 30
0.0
 10
24.80675248608298
 20
39.67533682937832
 30
0.0
 10
24.81080587840026
 20
39.68193007478531
 30
0.0
 10
24.81486005756391
 20
39.68852296459971
 30
0.0
 10
24.81891413151986
 20
39.69511645743399
 30
0.0
 10
24.82296885750646
 20
39.70170954931457
 30
0.0
 10
24.82702299729123
 20
39.7083030016656
 30
0.0
 10
24.8310771533297
 20
39.71489644402248
 30
0.0
 10
24.83513183054942
 20
39.7214895658889
 30
0.0
 10
24.83918623202729
 20
39.72808319067441
 30
0.0
 10
24.84324004222973
 20
39.73467697403253
 30
0.0
 10
24.84729383920462
 20
39.7412713038289
 30
0.0
 10
24.85134914964725
 20
39.74786470302574
 30
0.0
 10
24.85540301350563
 20
39.75445899169726
 30
0.0
 10
24.85945679632833
 20
39.76105333018633
 30
0.0
 10
24.86351249866613
 20
39.7676468217956
 30
0.0
 10
24.86756555278801
 20
39.77424194160327
 30
0.0
 10
24.8716204552032
 20
39.78083605348404
 30
0.0
 10
24.87567346137278
 20
39.78743120277138
 30
0.0
 10
24.87972950429585
 20
39.79402481833427
 30
0.0
 10
24.88378286514236
 20
39.80062008291417
 30
0.0
 10
24.88783709240209
 20
39.807214943189
 30
0.0
 10
24.89189085666356
 20
39.81381029305765
 30
0.0
 10
24.89594602950805
 20
39.82040477689959
 30
0.0
 10
24.89864902476991
 20
39.82480144657788
 30
0.0
 10
24.9
 20
39.82699999999999
 30
0.0
 11
24.78242600000001
 21
39.635782
 31
0.0
 11
24.78648000000001
 21
39.64237400000001
 31
0.0
 11
24.790535
 21
39.64896700000003
 31
0.0
 11
24.794589
 21
39.65555899999997
 31
0.0
 11
24.798643
 21
39.66215199999999
 31
0.0
 11
24.80269699999999
 21
39.668745
 31
0.0
 11
24.80675199999998
 21
39.675337
 31
0.0
 11
24.81080600000004
 21
39.68193000000002
 31
0.0
 11
24.81486000000004
 21
39.68852299999996
 31
0.0
 11
24.81891400000004
 21
39.69511599999997
 31
0.0
 11
24.82296900000003
 21
39.70170999999999
 31
0.0
 11
24.82702300000001
 21
39.708303
 31
0.0
 11
24.83107700000001
 21
39.71489600000001
 31
0.0
 11
24.835132
 21
39.72149000000001
 31
0.0
 11
24.839186
 21
39.72808300000003
 31
0.0
 11
24.84323999999999
 21
39.73467699999996
 31
0.0
 11
24.847294
 21
39.74127099999997
 31
0.0
 11
24.851349
 21
39.74786499999999
 31
0.0
 11
24.85540299999999
 21
39.754459
 31
0.0
 11
24.85945699999999
 21
39.761053
 31
0.0
 11
24.86351199999998
 21
39.76764700000001
 31
0.0
 11
24.86756600000004
 21
39.77424200000001
 31
0.0
 11
24.87162000000003
 21
39.78083600000002
 31
0.0
 11
24.87567400000003
 21
39.78743100000002
 31
0.0
 11
24.87972900000002
 21
39.79402499999997
 31
0.0
 11
24.88378300000002
 21
39.80061999999997
 31
0.0
 11
24.88783700000002
 21
39.80721499999996
 31
0.0
 11
24.891891
 21
39.81380999999997
 31
0.0
 11
24.89594600000001
 21
39.820405
 31
0.0
 11
24.9
 21
39.82699999999999
 31
0.0
  0
SPLINE
  5
F9A5
330
1E
100
AcDbEntity
  8
CUT
100
AcDbSpline
210
0.0
220
0.0
230
1.0
 70
    24
 71
     3
 72
    36
 73
    32
 74
    30
 42
0.0000000001
 43
0.0000000001
 44
0.0000000001
 12
1.0
 22
0.0
 32
0.0
 13
1.0
 23
0.0
 33
0.0
 40
0.0
 40
0.0
 40
0.0
 40
0.0
 40
0.0068969999999915
 40
0.0137930000000104
 40
0.0206900000000019
 40
0.0275859999999924
 40
0.0344830000000194
 40
0.0413790000000098
 40
0.0482759999999836
 40
0.0551720000000344
 40
0.0620690000000117
 40
0.0689659999999925
 40
0.0758620000000363
 40
0.08275900000001
 40
0.0896550000000005
 40
0.0965520000000346
 40
0.1034480000000215
 40
0.1103450000000024
 40
0.117241000000039
 40
0.1241380000000198
 40
0.1310339999999996
 40
0.137930999999984
 40
0.1448280000000217
 40
0.1517240000000122
 40
0.1586209999999824
 40
0.1655170000000119
 40
0.1724140000000105
 40
0.1793099999999903
 40
0.1862070000000351
 40
0.1931030000000007
 40
0.1999999999999922
 40
0.1999999999999922
 40
0.1999999999999922
 40
0.1999999999999922
 10
24.9
 20
39.82699999999999
 30
0.0
 10
24.902299
 20
39.82699999999999
 30
0.0
 10
24.90689666666666
 20
39.82699999999999
 30
0.0
 10
24.91379333333333
 20
39.82699999999999
 30
0.0
 10
24.92068966666667
 20
39.827
 30
0.0
 10
24.92758633333334
 20
39.82699999999999
 30
0.0
 10
24.93448266666668
 20
39.82699999999999
 30
0.0
 10
24.94137933333334
 20
39.82699999999999
 30
0.0
 10
24.94827566666667
 20
39.82699999999999
 30
0.0
 10
24.95517233333334
 20
39.82699999999999
 30
0.0
 10
24.96206900000002
 20
39.82699999999999
 30
0.0
 10
24.96896566666668
 20
39.82699999999999
 30
0.0
 10
24.97586233333334
 20
39.82699999999998
 30
0.0
 10
24.98275866666669
 20
39.82699999999999
 30
0.0
 10
24.98965533333335
 20
39.82699999999999
 30
0.0
 10
24.99655166666669
 20
39.82699999999999
 30
0.0
 10
25.00344833333336
 20
39.827
 30
0.0
 10
25.01034466666668
 20
39.82699999999999
 30
0.0
 10
25.01724133333336
 20
39.82699999999999
 30
0.0
 10
25.02413766666669
 20
39.82699999999999
 30
0.0
 10
25.03103433333333
 20
39.82699999999999
 30
0.0
 10
25.03793100000001
 20
39.82699999999999
 30
0.0
 10
25.04482766666667
 20
39.82699999999999
 30
0.0
 10
25.05172433333334
 20
39.82699999999999
 30
0.0
 10
25.05862066666667
 20
39.82699999999999
 30
0.0
 10
25.06551733333333
 20
39.82699999999999
 30
0.0
 10
25.07241366666667
 20
39.827
 30
0.0
 10
25.07931033333334
 20
39.82699999999999
 30
0.0
 10
25.08620666666667
 20
39.827
 30
0.0
 10
25.09310333333333
 20
39.82699999999998
 30
0.0
 10
25.09770099999999
 20
39.82699999999999
 30
0.0
 10
25.09999999999999
 20
39.82699999999999
 30
0.0
 11
24.9
 21
39.82699999999999
 31
0.0
 11
24.90689699999999
 21
39.82699999999999
 31
0.0
 11
24.91379300000001
 21
39.82699999999999
 31
0.0
 11
24.92069
 21
39.82699999999999
 31
0.0
 11
24.92758599999999
 21
39.82699999999999
 31
0.0
 11
24.93448300000002
 21
39.82699999999999
 31
0.0
 11
24.94137900000001
 21
39.82699999999999
 31
0.0
 11
24.94827599999998
 21
39.82699999999999
 31
0.0
 11
24.95517200000004
 21
39.82699999999999
 31
0.0
 11
24.96206900000001
 21
39.82699999999999
 31
0.0
 11
24.96896599999999
 21
39.82699999999999
 31
0.0
 11
24.97586200000004
 21
39.82699999999999
 31
0.0
 11
24.98275900000001
 21
39.82699999999999
 31
0.0
 11
24.989655
 21
39.82699999999999
 31
0.0
 11
24.99655200000003
 21
39.82699999999999
 31
0.0
 11
25.00344800000002
 21
39.82699999999999
 31
0.0
 11
25.010345
 21
39.82699999999999
 31
0.0
 11
25.01724100000004
 21
39.82699999999999
 31
0.0
 11
25.02413800000002
 21
39.82699999999999
 31
0.0
 11
25.031034
 21
39.82699999999999
 31
0.0
 11
25.03793099999998
 21
39.82699999999999
 31
0.0
 11
25.04482800000002
 21
39.82699999999999
 31
0.0
 11
25.05172400000001
 21
39.82699999999999
 31
0.0
 11
25.05862099999998
 21
39.82699999999999
 31
0.0
 11
25.06551700000001
 21
39.82699999999999
 31
0.0
 11
25.07241400000001
 21
39.82699999999999
 31
0.0
 11
25.07930999999999
 21
39.82699999999999
 31
0.0
 11
25.08620700000003
 21
39.82699999999999
 31
0.0
 11
25.093103
 21
39.82699999999999
 31
0.0
 11
25.09999999999999
 21
39.82699999999999
 31
0.0
  0
SPLINE
  5
F9A6
330
1E
100
AcDbEntity
  8
CUT
100
AcDbSpline
210
0.0
220
0.0
230
1.0
 70
     8
 71
     3
 72
    36
 73
    32
 74
    30
 42
0.0000000001
 43
0.0000000001
 44
0.0000000001
 12
0.5235405674833597
 22
-0.8520007477691564
 32
0.0
 13
0.523805935939607
 23
-0.8518376262377898
 33
0.0
 40
0.0
 40
0.0
 40
0.0
 40
0.0
 40
0.0077413784948137
 40
0.015483280715891
 40
0.0232246592107107
 40
0.0309660377055225
 40
0.0387074162003362
 40
0.0464484665812026
 40
0.0541898450760223
 40
0.0619303716731076
 40
0.0696717501679175
 40
0.0774128005488458
 40
0.0851533271459152
 40
0.0928938537430005
 40
0.1006349041239372
 40
0.1083754307210164
 40
0.1161159573180351
 40
0.1238556320528409
 40
0.1315966824337632
 40
0.1393363571685388
 40
0.147076031903307
 40
0.1548170822842497
 40
0.1625567570190192
 40
0.1702964317537343
 40
0.178036106488522
 40
0.1857754532955782
 40
0.1935151280303539
 40
0.201254802765136
 40
0.2089936256729961
 40
0.2167338242492692
 40
0.2244726471572177
 40
0.2244726471572177
 40
0.2244726471572177
 40
0.2244726471572177
 10
25.09999999999999
 20
39.82699999999999
 30
0.0
 10
25.10135097523008
 20
39.82480144657788
 30
0.0
 10
25.10405397049196
 20
39.82040477689957
 30
0.0
 10
25.10810914333647
 20
39.81381029305765
 30
0.0
 10
25.11216290759798
 20
39.80721494318899
 30
0.0
 10
25.11621713485769
 20
39.80062008291417
 30
0.0
 10
25.1202704957042
 20
39.79402481833425
 30
0.0
 10
25.12432653862728
 20
39.7874312027714
 30
0.0
 10
25.12837954479685
 20
39.78083605348402
 30
0.0
 10
25.13243444721207
 20
39.7742419416033
 30
0.0
 10
25.13648750133386
 20
39.76764682179558
 30
0.0
 10
25.14054320367169
 20
39.76105333018636
 30
0.0
 10
25.14459698649436
 20
39.75445899169726
 30
0.0
 10
25.14865085035275
 20
39.74786470302575
 30
0.0
 10
25.15270616079537
 20
39.74127130382889
 30
0.0
 10
25.15675995777026
 20
39.73467697403253
 30
0.0
 10
25.1608137679727
 20
39.72808319067441
 30
0.0
 10
25.16486816945063
 20
39.72148956588893
 30
0.0
 10
25.16892284667034
 20
39.71489644402249
 30
0.0
 10
25.17297700270883
 20
39.70830300166559
 30
0.0
 10
25.1770311424936
 20
39.70170954931459
 30
0.0
 10
25.18108586848017
 20
39.69511645743398
 30
0.0
 10
25.18513994243614
 20
39.68852296459971
 30
0.0
 10
25.18919412159979
 20
39.68193007478531
 30
0.0
 10
25.19324751391701
 20
39.6753368293783
 30
0.0
 10
25.19730347915448
 20
39.66874516636121
 30
0.0
 10
25.20135691304492
 20
39.66215194651844
 30
0.0
 10
25.2054107771863
 20
39.65555919632043
 30
0.0
 10
25.20946517727362
 20
39.64896657068366
 30
0.0
 10
25.21351980632892
 20
39.64237441923246
 30
0.0
 10
25.21622278620791
 20
39.63797940684526
 30
0.0
 10
25.21757400000004
 20
39.635782
 30
0.0
 11
25.09999999999999
 21
39.82699999999999
 31
0.0
 11
25.10405399999999
 21
39.820405
 31
0.0
 11
25.10810900000004
 21
39.81380999999997
 31
0.0
 11
25.11216300000004
 21
39.80721499999996
 31
0.0
 11
25.11621700000004
 21
39.80061999999997
 31
0.0
 11
25.12027100000004
 21
39.79402499999997
 31
0.0
 11
25.12432600000002
 21
39.78743100000002
 31
0.0
 11
25.12838000000002
 21
39.78083600000002
 31
0.0
 11
25.13243400000002
 21
39.77424200000001
 31
0.0
 11
25.13648800000001
 21
39.76764700000001
 31
0.0
 11
25.14054300000001
 21
39.761053
 31
0.0
 11
25.144597
 21
39.754459
 31
0.0
 11
25.148651
 21
39.74786499999999
 31
0.0
 11
25.15270599999999
 21
39.74127099999997
 31
0.0
 11
25.15675999999999
 21
39.73467699999996
 31
0.0
 11
25.16081399999999
 21
39.72808300000003
 31
0.0
 11
25.16486800000004
 21
39.72149000000001
 31
0.0
 11
25.16892300000004
 21
39.71489600000001
 31
0.0
 11
25.17297700000004
 21
39.708303
 31
0.0
 11
25.17703100000002
 21
39.70170999999999
 31
0.0
 11
25.18108600000001
 21
39.69511599999997
 31
0.0
 11
25.18514000000001
 21
39.68852299999996
 31
0.0
 11
25.18919400000001
 21
39.68193000000002
 31
0.0
 11
25.19324800000001
 21
39.675337
 31
0.0
 11
25.197303
 21
39.668745
 31
0.0
 11
25.201357
 21
39.66215199999999
 31
0.0
 11
25.20541099999999
 21
39.65555899999997
 31
0.0
 11
25.20946499999999
 21
39.64896700000003
 31
0.0
 11
25.21351999999998
 21
39.64237400000001
 31
0.0
 11
25.21757400000004
 21
39.635782
 31
0.0
  0
SPLINE
  5
F9A7
330
1E
100
AcDbEntity
  8
CUT
100
AcDbSpline
210
0.0
220
0.0
230
1.0
 70
     8
 71
     3
 72
    36
 73
    32
 74
    30
 42
0.0000000001
 43
0.0000000001
 44
0.0000000001
 12
-0.5002488391086616
 22
0.8658816887834253
 32
0.0
 13
-0.4999655533459074
 23
0.8660452906560493
 33
0.0
 40
0.0
 40
0.0
 40
0.0
 40
0.0
 40
0.1305377223679539
 40
0.2610789083017118
 40
0.3916218260299526
 40
0.5221682073700748
 40
0.6527171864392646
 40
0.783268763254692
 40
0.913822937833655
 40
1.044380576124163
 40
1.174939946281986
 40
1.305502780197255
 40
1.436067346002878
 40
1.566635875737235
 40
1.69720563725961
 40
1.827777996666161
 40
1.958353819945233
 40
2.088931375171997
 40
2.219511528334737
 40
2.350094279450589
 40
2.480679628536963
 40
2.611266709613143
 40
2.741856388688482
 40
2.872448665780193
 40
3.00304354090555
 40
3.133641514094256
 40
3.264240719313915
 40
3.394841656584623
 40
3.525446057980614
 40
3.656052191450672
 40
3.786660057002478
 40
3.786660057002478
 40
3.786660057002478
 40
3.786660057002478
 10
27.111276
 20
36.35665299999998
 30
0.0
 10
27.08950888530852
 20
36.39432974116461
 30
0.0
 10
27.04597513370554
 20
36.46968483287219
 30
0.0
 10
26.98067566138748
 20
36.5827194710518
 30
0.0
 10
26.91537504437645
 20
36.69575678129134
 30
0.0
 10
26.85007539661785
 20
36.80879765145187
 30
0.0
 10
26.78477532662574
 20
36.92184161102981
 30
0.0
 10
26.71947539877573
 20
37.03488865271486
 30
0.0
 10
26.6541750358423
 20
37.1479387764269
 30
0.0
 10
26.58887569364774
 20
37.26099248971895
 30
0.0
 10
26.52357501346695
 20
37.37404876353128
 30
0.0
 10
26.45827563276313
 20
37.48710845456546
 30
0.0
 10
26.39297519609528
 20
37.60017106155159
 30
0.0
 10
26.32767446296475
 20
37.71323616399608
 30
0.0
 10
26.26237442070348
 20
37.82630466544363
 30
0.0
 10
26.19707403990213
 20
37.93937577887428
 30
0.0
 10
26.1317746559205
 20
38.0524504679657
 30
0.0
 10
26.06647430497035
 20
38.16552759863701
 30
0.0
 10
26.00117437101261
 20
38.27860763678529
 30
0.0
 10
25.93587431349631
 20
38.39169060358279
 30
0.0
 10
25.87057462192264
 20
38.50477644835283
 30
0.0
 10
25.80527431185869
 20
38.61786460265392
 30
0.0
 10
25.73997437764094
 20
38.73095564064739
 30
0.0
 10
25.67467428028277
 20
38.8440495844449
 30
0.0
 10
25.60937452065437
 20
38.957146915695
 30
0.0
 10
25.54407338419595
 20
39.07024611866848
 30
0.0
 10
25.47877370012676
 20
39.18334849353499
 30
0.0
 10
25.41347301187979
 20
39.29645276285673
 30
0.0
 10
25.34817363361265
 20
39.4095604551458
 30
0.0
 10
25.28287356700327
 20
39.52267041669283
 30
0.0
 10
25.23934047792402
 20
39.59807789103874
 30
0.0
 10
25.21757400000004
 20
39.635782
 30
0.0
 11
27.111276
 21
36.35665299999998
 31
0.0
 11
27.04597600000001
 21
36.46968400000004
 31
0.0
 11
26.98067599999999
 21
36.58271899999999
 31
0.0
 11
26.91537600000001
 21
36.69575600000001
 31
0.0
 11
26.85007600000004
 21
36.80879700000003
 31
0.0
 11
26.78477599999999
 21
36.92184100000004
 31
0.0
 11
26.71947600000001
 21
37.03488800000002
 31
0.0
 11
26.65417600000003
 21
37.14793800000001
 31
0.0
 11
26.58887599999999
 21
37.26099199999997
 31
0.0
 11
26.52357600000001
 21
37.37404800000001
 31
0.0
 11
26.45827600000004
 21
37.48710799999996
 31
0.0
 11
26.392976
 21
37.60016999999999
 31
0.0
 11
26.32767500000003
 21
37.71323599999997
 31
0.0
 11
26.26237499999999
 21
37.82630399999999
 31
0.0
 11
26.197075
 21
37.93937499999997
 31
0.0
 11
26.13177500000003
 21
38.05245000000002
 31
0.0
 11
26.06647499999999
 21
38.16552699999999
 31
0.0
 11
26.00117500000001
 21
38.27860700000002
 31
0.0
 11
25.93587500000003
 21
38.39168999999997
 31
0.0
 11
25.870575
 21
38.50477599999999
 31
0.0
 11
25.80527500000002
 21
38.61786399999999
 31
0.0
 11
25.73997499999999
 21
38.73095499999998
 31
0.0
 11
25.67467500000001
 21
38.84404899999998
 31
0.0
 11
25.60937500000003
 21
38.95714600000003
 31
0.0
 11
25.54407399999999
 21
39.07024599999999
 31
0.0
 11
25.478774
 21
39.18334800000002
 31
0.0
 11
25.41347400000003
 21
39.29645199999999
 31
0.0
 11
25.348174
 21
39.40955999999999
 31
0.0
 11
25.28287400000001
 21
39.52266999999999
 31
0.0
 11
25.21757400000004
 21
39.635782
 31
0.0
  0
ENDSEC
  0
SECTION
  2
OBJECTS
  0
DICTIONARY
  5
C
330
0
100
AcDbDictionary
281
     1
  3
ACAD_COLOR
350
F55F
  3
ACAD_GROUP
350
D
  3
ACAD_LAYOUT
350
19
  3
ACAD_MATERIAL
350
F55E
  3
ACAD_MLINESTYLE
350
16
  3
ACAD_PLOTSETTINGS
350
18
  3
ACAD_PLOTSTYLENAME
350
F556
  3
ACAD_TABLESTYLE
350
F560
  3
ACDBHEADERROUNDTRIPXREC
350
F9DB
  3
AcDbVariableDictionary
350
F592
1001
ACAD
1000
TREAT_AS_HARD
1070
     0
1000
TREAT_AS_HARD
1070
     0
1000
TREAT_AS_HARD
1070
     0
  0
DICTIONARY
  5
5D04
330
1E
100
AcDbDictionary
281
     1
  3
ACAD_LAYOUTSELFREF
350
D5E8
1001
ACAD
1000
TREAT_AS_HARD
1070
     0
1000
TREAT_AS_HARD
1070
     0
  0
DICTIONARY
  5
5D02
330
1A
100
AcDbDictionary
281
     1
  3
ACAD_LAYOUTSELFREF
350
D5E7
1001
ACAD
1000
TREAT_AS_HARD
1070
     0
1000
TREAT_AS_HARD
1070
     0
  0
DICTIONARY
  5
F55F
102
{ACAD_REACTORS
330
C
102
}
330
C
100
AcDbDictionary
281
     1
  0
DICTIONARY
  5
D
102
{ACAD_REACTORS
330
C
102
}
330
C
100
AcDbDictionary
281
     1
1001
ACAD
1000
TREAT_AS_HARD
1070
     0
1000
TREAT_AS_HARD
1070
     0
1000
TREAT_AS_HARD
1070
     0
  0
DICTIONARY
  5
19
102
{ACAD_REACTORS
330
C
102
}
330
C
100
AcDbDictionary
281
     1
  3
Layout1
350
F559
  3
Model
350
F558
1001
ACAD
1000
TREAT_AS_HARD
1070
     0
1000
TREAT_AS_HARD
1070
     0
1000
TREAT_AS_HARD
1070
     0
  0
DICTIONARY
  5
F55E
102
{ACAD_REACTORS
330
C
102
}
330
C
100
AcDbDictionary
281
     1
  0
DICTIONARY
  5
16
102
{ACAD_REACTORS
330
C
102
}
330
C
100
AcDbDictionary
281
     1
  3
STANDARD
350
17
1001
ACAD
1000
TREAT_AS_HARD
1070
     0
1000
TREAT_AS_HARD
1070
     0
1000
TREAT_AS_HARD
1070
     0
  0
DICTIONARY
  5
18
102
{ACAD_REACTORS
330
C
102
}
330
C
100
AcDbDictionary
281
     1
1001
ACAD
1000
TREAT_AS_HARD
1070
     0
1000
TREAT_AS_HARD
1070
     0
1000
TREAT_AS_HARD
1070
     0
  0
ACDBDICTIONARYWDFLT
  5
F556
102
{ACAD_REACTORS
330
C
102
}
330
C
100
AcDbDictionary
281
     1
  3
Normal
350
F557
100
AcDbDictionaryWithDefault
340
F557
  0
DICTIONARY
  5
F560
102
{ACAD_REACTORS
330
C
102
}
330
C
100
AcDbDictionary
281
     1
  3
Standard
350
F561
  0
DICTIONARY
  5
F9DB
102
{ACAD_REACTORS
330
C
102
}
330
C
100
AcDbDictionary
281
     1
  0
DICTIONARY
  5
F592
102
{ACAD_REACTORS
330
C
102
}
330
C
100
AcDbDictionary
281
     1
  3
CTABLESTYLE
350
F593
  3
DIMASSOC
350
F594
  3
PROJECTNAME
350
F595
  0
XRECORD
  5
D5E8
102
{ACAD_REACTORS
330
5D04
102
}
330
5D04
100
AcDbXrecord
280
     1
340
1E
  0
XRECORD
  5
D5E7
102
{ACAD_REACTORS
330
5D02
102
}
330
5D02
100
AcDbXrecord
280
     1
340
1A
  0
LAYOUT
  5
F559
102
{ACAD_XDICTIONARY
360
F9DE
102
}
102
{ACAD_REACTORS
330
19
102
}
330
19
100
AcDbPlotSettings
  1

  2
\\ingdom02\ITB3
  4

  6

 40
0.0
 41
0.0
 42
0.0
 43
0.0
 44
0.0
 45
0.0
 46
0.0
 47
0.0
 48
0.0
 49
0.0
140
0.0
141
0.0
142
1.0
143
1.0
 70
   688
 72
     0
 73
     0
 74
     5
  7

 75
    16
147
1.0
148
0.0
149
0.0
100
AcDbLayout
  1
Layout1
 70
     1
 71
     1
 10
0.0
 20
0.0
 11
12.0
 21
9.0
 12
0.0
 22
0.0
 32
0.0
 14
100.0
 24
100.0
 34
100.0
 15
-100.0
 25
-100.0
 35
-100.0
146
0.0
 13
0.0
 23
0.0
 33
0.0
 16
1.0
 26
0.0
 36
0.0
 17
0.0
 27
1.0
 37
0.0
 76
     0
330
1A
  0
LAYOUT
  5
F558
102
{ACAD_XDICTIONARY
360
F9DC
102
}
102
{ACAD_REACTORS
330
19
102
}
330
19
100
AcDbPlotSettings
  1

  2
\\ingdom02\ITB3
  4

  6

 40
0.0
 41
0.0
 42
0.0
 43
0.0
 44
0.0
 45
0.0
 46
0.0
 47
0.0
 48
0.0
 49
0.0
140
0.0
141
0.0
142
1.0
143
1.0
 70
  1712
 72
     0
 73
     0
 74
     0
  7

 75
     0
147
1.0
148
0.0
149
0.0
100
AcDbLayout
  1
Model
 70
     1
 71
     0
 10
0.0
 20
0.0
 11
12.0
 21
9.0
 12
0.0
 22
0.0
 32
0.0
 14
0.0
 24
0.0
 34
0.0
 15
0.0
 25
0.0
 35
0.0
146
0.0
 13
0.0
 23
0.0
 33
0.0
 16
1.0
 26
0.0
 36
0.0
 17
0.0
 27
1.0
 37
0.0
 76
     0
330
1E
  0
MLINESTYLE
  5
17
102
{ACAD_REACTORS
330
16
102
}
330
16
100
AcDbMlineStyle
  2
STANDARD
 70
     0
  3

 62
   256
 51
90.0
 52
90.0
 71
     2
 49
0.5
 62
   256
  6
BYLAYER
 49
-0.5
 62
   256
  6
BYLAYER
  0
ACDBPLACEHOLDER
  5
F557
102
{ACAD_REACTORS
330
F556
102
}
330
F556
  0
TABLESTYLE
  5
F561
102
{ACAD_REACTORS
330
F560
102
}
330
F560
100
AcDbTableStyle
  3
Standard
 70
     0
 71
     0
 40
0.06
 41
0.06
280
     0
281
     0
  7
STANDARD
140
0.18
170
     2
 62
     0
 63
     7
283
     0
274
    -2
284
     1
 64
     0
275
    -2
285
     1
 65
     0
276
    -2
286
     1
 66
     0
277
    -2
287
     1
 67
     0
278
    -2
288
     1
 68
     0
279
    -2
289
     1
 69
     0
  7
STANDARD
140
0.25
170
     5
 62
     0
 63
     7
283
     0
274
    -2
284
     1
 64
     0
275
    -2
285
     1
 65
     0
276
    -2
286
     1
 66
     0
277
    -2
287
     1
 67
     0
278
    -2
288
     1
 68
     0
279
    -2
289
     1
 69
     0
  7
STANDARD
140
0.18
170
     5
 62
     0
 63
     7
283
     0
274
    -2
284
     1
 64
     0
275
    -2
285
     1
 65
     0
276
    -2
286
     1
 66
     0
277
    -2
287
     1
 67
     0
278
    -2
288
     1
 68
     0
279
    -2
289
     1
 69
     0
  0
DICTIONARYVAR
  5
F593
102
{ACAD_REACTORS
330
F592
102
}
330
F592
100
DictionaryVariables
280
     0
  1
STANDARD
  0
DICTIONARYVAR
  5
F594
102
{ACAD_REACTORS
330
F592
102
}
330
F592
100
DictionaryVariables
280
     0
  1
1
  0
DICTIONARYVAR
  5
F595
102
{ACAD_REACTORS
330
F592
102
}
330
F592
100
DictionaryVariables
280
     0
  1

  0
DICTIONARY
  5
F9DE
330
F559
100
AcDbDictionary
280
     1
281
     1
  3
ACAD_XREC_ROUNDTRIP
360
F9DF
  0
DICTIONARY
  5
F9DC
330
F558
100
AcDbDictionary
280
     1
281
     1
  3
ACAD_XREC_ROUNDTRIP
360
F9DD
  0
XRECORD
  5
F9DF
102
{ACAD_REACTORS
330
F9DE
102
}
330
F9DE
100
AcDbXrecord
280
     1
102
SHADEPLOT
 70
     0
102
SHADEPLOTRESLEVEL
 70
     2
102
SHADEPLOTCUSTOMDPI
 70
   300
  0
XRECORD
  5
F9DD
102
{ACAD_REACTORS
330
F9DC
102
}
330
F9DC
100
AcDbXrecord
280
     1
102
SHADEPLOT
 70
     0
102
SHADEPLOTRESLEVEL
 70
     2
102
SHADEPLOTCUSTOMDPI
 70
   300
  0
ENDSEC
  0
EOF
