  0
SECTION
  2
HEADER
  9
$ACADVER
  1
AC1015
  9
$ACADMAINTVER
 70
    10
  9
$DWGCODEPAGE
  3
ANSI_1252
  9
$INSBASE
 10
0.0
 20
0.0
 30
0.0
  9
$EXTMIN
 10
-47.32637795275589
 20
-46.99999999999999
 30
0.0
  9
$EXTMAX
 10
72.78832038120635
 20
49.12568897637794
 30
0.0
  9
$LIMMIN
 10
0.0
 20
0.0
  9
$LIMMAX
 10
420.0
 20
297.0
  9
$ORTHOMODE
 70
     0
  9
$REGENMODE
 70
     1
  9
$FILLMODE
 70
     1
  9
$QTEXTMODE
 70
     0
  9
$MIRRTEXT
 70
     1
  9
$LTSCALE
 40
5.0
  9
$ATTMODE
 70
     1
  9
$TEXTSIZE
 40
0.2
  9
$TRACEWID
 40
0.05
  9
$TEXTSTYLE
  7
STANDARD
  9
$CLAYER
  8
0
  9
$CELTYPE
  6
BYLAYER
  9
$CECOLOR
 62
   256
  9
$CELTSCALE
 40
1.0
  9
$DISPSILH
 70
     0
  9
$DIMSCALE
 40
1.0
  9
$DIMASZ
 40
3.5
  9
$DIMEXO
 40
0.625
  9
$DIMDLI
 40
3.75
  9
$DIMRND
 40
0.0
  9
$DIMDLE
 40
0.0
  9
$DIMEXE
 40
2.0
  9
$DIMTP
 40
0.0
  9
$DIMTM
 40
0.0
  9
$DIMTXT
 40
3.5
  9
$DIMCEN
 40
2.5
  9
$DIMTSZ
 40
0.0
  9
$DIMTOL
 70
     0
  9
$DIMLIM
 70
     0
  9
$DIMTIH
 70
     0
  9
$DIMTOH
 70
     0
  9
$DIMSE1
 70
     0
  9
$DIMSE2
 70
     0
  9
$DIMTAD
 70
     1
  9
$DIMZIN
 70
     8
  9
$DIMBLK
  1

  9
$DIMASO
 70
     1
  9
$DIMSHO
 70
     1
  9
$DIMPOST
  1

  9
$DIMAPOST
  1

  9
$DIMALT
 70
     0
  9
$DIMALTD
 70
     3
  9
$DIMALTF
 40
0.03937007874016
  9
$DIMLFAC
 40
1.0
  9
$DIMTOFL
 70
     1
  9
$DIMTVP
 40
0.0
  9
$DIMTIX
 70
     0
  9
$DIMSOXD
 70
     0
  9
$DIMSAH
 70
     0
  9
$DIMBLK1
  1

  9
$DIMBLK2
  1

  9
$DIMSTYLE
  2
ISO-25
  9
$DIMCLRD
 70
   256
  9
$DIMCLRE
 70
   256
  9
$DIMCLRT
 70
   256
  9
$DIMTFAC
 40
1.0
  9
$DIMGAP
 40
0.625
  9
$DIMJUST
 70
     0
  9
$DIMSD1
 70
     0
  9
$DIMSD2
 70
     0
  9
$DIMTOLJ
 70
     0
  9
$DIMTZIN
 70
     8
  9
$DIMALTZ
 70
     0
  9
$DIMALTTZ
 70
     0
  9
$DIMUPT
 70
     0
  9
$DIMDEC
 70
     2
  9
$DIMTDEC
 70
     2
  9
$DIMALTU
 70
     2
  9
$DIMALTTD
 70
     3
  9
$DIMTXSTY
  7
STANDARD
  9
$DIMAUNIT
 70
     0
  9
$DIMADEC
 70
     0
  9
$DIMALTRND
 40
0.0
  9
$DIMAZIN
 70
     0
  9
$DIMDSEP
 70
    46
  9
$DIMATFIT
 70
     3
  9
$DIMFRAC
 70
     0
  9
$DIMLDRBLK
  1

  9
$DIMLUNIT
 70
     2
  9
$DIMLWD
 70
    -2
  9
$DIMLWE
 70
    -2
  9
$DIMTMOVE
 70
     0
  9
$LUNITS
 70
     2
  9
$LUPREC
 70
     4
  9
$SKETCHINC
 40
0.1
  9
$FILLETRAD
 40
0.0
  9
$AUNITS
 70
     0
  9
$AUPREC
 70
     0
  9
$MENU
  1

  9
$ELEVATION
 40
0.0
  9
$PELEVATION
 40
0.0
  9
$THICKNESS
 40
0.0
  9
$LIMCHECK
 70
     0
  9
$CHAMFERA
 40
0.0
  9
$CHAMFERB
 40
0.0
  9
$CHAMFERC
 40
0.0
  9
$CHAMFERD
 40
0.0
  9
$SKPOLY
 70
     0
  9
$TDCREATE
 40
2453402.422273310
  9
$TDUCREATE
 40
2453402.380606643
  9
$TDUPDATE
 40
2453777.312419027
  9
$TDUUPDATE
 40
2453777.270752361
  9
$TDINDWG
 40
0.0506304977
  9
$TDUSRTIMER
 40
0.0438979977
  9
$USRTIMER
 70
     1
  9
$ANGBASE
 50
0.0
  9
$ANGDIR
 70
     0
  9
$PDMODE
 70
     0
  9
$PDSIZE
 40
0.3125
  9
$PLINEWID
 40
0.0
  9
$SPLFRAME
 70
     0
  9
$SPLINETYPE
 70
     6
  9
$SPLINESEGS
 70
     8
  9
$HANDSEED
  5
E14C
  9
$SURFTAB1
 70
     6
  9
$SURFTAB2
 70
     6
  9
$SURFTYPE
 70
     6
  9
$SURFU
 70
     6
  9
$SURFV
 70
     6
  9
$UCSBASE
  2

  9
$UCSNAME
  2

  9
$UCSORG
 10
0.0
 20
0.0
 30
0.0
  9
$UCSXDIR
 10
1.0
 20
0.0
 30
0.0
  9
$UCSYDIR
 10
0.0
 20
1.0
 30
0.0
  9
$UCSORTHOREF
  2

  9
$UCSORTHOVIEW
 70
     0
  9
$UCSORGTOP
 10
0.0
 20
0.0
 30
0.0
  9
$UCSORGBOTTOM
 10
0.0
 20
0.0
 30
0.0
  9
$UCSORGLEFT
 10
0.0
 20
0.0
 30
0.0
  9
$UCSORGRIGHT
 10
0.0
 20
0.0
 30
0.0
  9
$UCSORGFRONT
 10
0.0
 20
0.0
 30
0.0
  9
$UCSORGBACK
 10
0.0
 20
0.0
 30
0.0
  9
$PUCSBASE
  2

  9
$PUCSNAME
  2

  9
$PUCSORG
 10
0.0
 20
0.0
 30
0.0
  9
$PUCSXDIR
 10
1.0
 20
0.0
 30
0.0
  9
$PUCSYDIR
 10
0.0
 20
1.0
 30
0.0
  9
$PUCSORTHOREF
  2

  9
$PUCSORTHOVIEW
 70
     0
  9
$PUCSORGTOP
 10
0.0
 20
0.0
 30
0.0
  9
$PUCSORGBOTTOM
 10
0.0
 20
0.0
 30
0.0
  9
$PUCSORGLEFT
 10
0.0
 20
0.0
 30
0.0
  9
$PUCSORGRIGHT
 10
0.0
 20
0.0
 30
0.0
  9
$PUCSORGFRONT
 10
0.0
 20
0.0
 30
0.0
  9
$PUCSORGBACK
 10
0.0
 20
0.0
 30
0.0
  9
$USERI1
 70
     0
  9
$USERI2
 70
     0
  9
$USERI3
 70
     0
  9
$USERI4
 70
     0
  9
$USERI5
 70
     0
  9
$USERR1
 40
0.0
  9
$USERR2
 40
0.0
  9
$USERR3
 40
0.0
  9
$USERR4
 40
0.0
  9
$USERR5
 40
0.0
  9
$WORLDVIEW
 70
     1
  9
$SHADEDGE
 70
     3
  9
$SHADEDIF
 70
    70
  9
$TILEMODE
 70
     1
  9
$MAXACTVP
 70
    64
  9
$PINSBASE
 10
0.0
 20
0.0
 30
0.0
  9
$PLIMCHECK
 70
     0
  9
$PEXTMIN
 10
100.0
 20
100.0
 30
100.0
  9
$PEXTMAX
 10
-100.0
 20
-100.0
 30
-100.0
  9
$PLIMMIN
 10
0.0
 20
0.0
  9
$PLIMMAX
 10
12.0
 20
9.0
  9
$UNITMODE
 70
     0
  9
$VISRETAIN
 70
     1
  9
$PLINEGEN
 70
     1
  9
$PSLTSCALE
 70
     1
  9
$TREEDEPTH
 70
  3020
  9
$CMLSTYLE
  2
STANDARD
  9
$CMLJUST
 70
     0
  9
$CMLSCALE
 40
1.0
  9
$PROXYGRAPHICS
 70
     1
  9
$MEASUREMENT
 70
     0
  9
$CELWEIGHT
370
    -1
  9
$ENDCAPS
280
     0
  9
$JOINSTYLE
280
     0
  9
$LWDISPLAY
290
     0
  9
$INSUNITS
 70
     0
  9
$HYPERLINKBASE
  1

  9
$STYLESHEET
  1

  9
$XEDIT
290
     1
  9
$CEPSNTYPE
380
     0
  9
$PSTYLEMODE
290
     1
  9
$FINGERPRINTGUID
  2
{6E3158BB-F8AA-463F-9A35-764DE4C3A30B}
  9
$VERSIONGUID
  2
{7A3A0209-E08E-4716-B411-DCF86D5C2E2D}
  9
$EXTNAMES
290
     1
  9
$PSVPSCALE
 40
0.0
  9
$OLESTARTUP
290
     0
  0
ENDSEC
  0
SECTION
  2
CLASSES
  0
CLASS
  1
ACDBDICTIONARYWDFLT
  2
AcDbDictionaryWithDefault
  3
AutoCAD 2000
 90
        0
280
     0
281
     0
  0
CLASS
  1
ACDBPLACEHOLDER
  2
AcDbPlaceHolder
  3
AutoCAD 2000
 90
        0
280
     0
281
     0
  0
CLASS
  1
LAYOUT
  2
AcDbLayout
  3
AutoCAD 2000
 90
        0
280
     0
281
     0
  0
CLASS
  1
TABLESTYLE
  2
AcDbTableStyle
  3
ObjectDBX Classes
 90
     2047
280
     0
281
     0
  0
CLASS
  1
DICTIONARYVAR
  2
AcDbDictionaryVar
  3
AutoCAD 2000
 90
        0
280
     0
281
     0
  0
ENDSEC
  0
SECTION
  2
TABLES
  0
TABLE
  2
VPORT
  5
8
330
0
100
AcDbSymbolTable
 70
     2
  0
VPORT
  5
E14B
330
8
100
AcDbSymbolTableRecord
100
AcDbViewportTableRecord
  2
*Active
 70
     0
 10
0.0
 20
0.0
 11
1.0
 21
1.0
 12
12.73097121422525
 22
0.9750000000000014
 13
0.0
 23
0.0
 14
1.0
 24
1.0
 15
0.0
 25
0.0
 16
0.0
 26
0.0
 36
1.0
 17
0.0
 27
0.0
 37
0.0
 40
96.66872659176029
 41
1.545
 42
50.0
 43
0.0
 44
0.0
 50
0.0
 51
0.0
 71
     0
 72
   100
 73
     1
 74
     1
 75
     0
 76
     0
 77
     0
 78
     0
281
     0
 65
     1
110
0.0
120
0.0
130
0.0
111
1.0
121
0.0
131
0.0
112
0.0
122
1.0
132
0.0
 79
     0
146
0.0
  0
ENDTAB
  0
TABLE
  2
LTYPE
  5
5
330
0
100
AcDbSymbolTable
 70
     7
  0
LTYPE
  5
13
330
5
100
AcDbSymbolTableRecord
100
AcDbLinetypeTableRecord
  2
BYBLOCK
 70
     0
  3

 72
    65
 73
     0
 40
0.0
  0
LTYPE
  5
14
330
5
100
AcDbSymbolTableRecord
100
AcDbLinetypeTableRecord
  2
BYLAYER
 70
     0
  3

 72
    65
 73
     0
 40
0.0
  0
LTYPE
  5
15
330
5
100
AcDbSymbolTableRecord
100
AcDbLinetypeTableRecord
  2
CONTINUOUS
 70
     0
  3
Solid line
 72
    65
 73
     0
 40
0.0
  0
LTYPE
  5
23
330
5
100
AcDbSymbolTableRecord
100
AcDbLinetypeTableRecord
  2
CENTER
 70
     0
  3
____ _ ____ _ ____ _ ____ _ ____ _ ____ _ ____
 72
    65
 73
     4
 40
0.6
 49
0.375
 74
     0
 49
-0.075
 74
     0
 49
0.075
 74
     0
 49
-0.075
 74
     0
  0
ENDTAB
  0
TABLE
  2
LAYER
  5
2
330
0
100
AcDbSymbolTable
 70
    38
  0
LAYER
  5
10
330
2
100
AcDbSymbolTableRecord
100
AcDbLayerTableRecord
  2
0
 70
     0
 62
     7
  6
CONTINUOUS
370
    -3
390
DCB9
  0
LAYER
  5
28
330
2
100
AcDbSymbolTableRecord
100
AcDbLayerTableRecord
  2
1
 70
     0
 62
     4
  6
CONTINUOUS
370
    -3
390
DCB9
  0
LAYER
  5
29
330
2
100
AcDbSymbolTableRecord
100
AcDbLayerTableRecord
  2
2
 70
     0
 62
     7
  6
CONTINUOUS
370
    -3
390
DCB9
  0
LAYER
  5
2B
330
2
100
AcDbSymbolTableRecord
100
AcDbLayerTableRecord
  2
4
 70
     0
 62
     2
  6
CENTER
370
    -3
390
DCB9
  0
LAYER
  5
49B
330
2
100
AcDbSymbolTableRecord
100
AcDbLayerTableRecord
  2
DEFPOINTS
 70
     0
 62
     7
  6
CONTINUOUS
290
     0
370
    -3
390
DCB9
  0
LAYER
  5
1D01
330
2
100
AcDbSymbolTableRecord
100
AcDbLayerTableRecord
  2
SK1
 70
     0
 62
     4
  6
CONTINUOUS
370
    -3
390
DCB9
  0
LAYER
  5
1D02
330
2
100
AcDbSymbolTableRecord
100
AcDbLayerTableRecord
  2
SK4
 70
     0
 62
     2
  6
CENTER
370
    -3
390
DCB9
  0
LAYER
  5
DE0A
330
2
100
AcDbSymbolTableRecord
100
AcDbLayerTableRecord
  2
6
 70
     0
 62
     5
  6
CONTINUOUS
370
    -3
390
DCB9
  0
LAYER
  5
DE0B
330
2
100
AcDbSymbolTableRecord
100
AcDbLayerTableRecord
  2
CUT
 70
     0
 62
     1
  6
CONTINUOUS
370
    -3
390
DCB9
  0
LAYER
  5
DE0C
330
2
100
AcDbSymbolTableRecord
100
AcDbLayerTableRecord
  2
NOCUT
 70
     0
 62
     7
  6
CONTINUOUS
370
    -3
390
DCB9
  0
LAYER
  5
DE0D
330
2
100
AcDbSymbolTableRecord
100
AcDbLayerTableRecord
  2
SK2
 70
     0
 62
     7
  6
CONTINUOUS
370
    -3
390
DCB9
  0
ENDTAB
  0
TABLE
  2
STYLE
  5
3
330
0
100
AcDbSymbolTable
 70
     1
  0
STYLE
  5
11
330
3
100
AcDbSymbolTableRecord
100
AcDbTextStyleTableRecord
  2
STANDARD
 70
     0
 40
0.0
 41
0.8
 50
0.0
 71
     0
 42
0.2
  3
ISOCP
  4

  0
ENDTAB
  0
TABLE
  2
VIEW
  5
6
330
0
100
AcDbSymbolTable
 70
     0
  0
ENDTAB
  0
TABLE
  2
UCS
  5
7
330
0
100
AcDbSymbolTable
 70
     0
  0
ENDTAB
  0
TABLE
  2
APPID
  5
9
330
0
100
AcDbSymbolTable
 70
     1
  0
APPID
  5
12
330
9
100
AcDbSymbolTableRecord
100
AcDbRegAppTableRecord
  2
ACAD
 70
     0
  0
ENDTAB
  0
TABLE
  2
DIMSTYLE
  5
A
330
0
100
AcDbSymbolTable
 70
     4
100
AcDbDimStyleTable
 71
     0
  0
DIMSTYLE
105
1D03
102
{ACAD_REACTORS
330
51E
330
51D
330
51B
330
51C
102
}
330
A
100
AcDbSymbolTableRecord
100
AcDbDimStyleTableRecord
  2
ISO-25
 70
     0
 41
3.5
 42
0.625
 43
3.75
 44
2.0
 73
     0
 74
     0
 77
     1
 78
     8
140
3.5
141
2.5
143
0.03937007874016
147
0.625
171
     3
172
     1
176
   256
177
   256
178
   256
271
     2
272
     2
274
     3
283
     0
284
     8
340
11
  0
ENDTAB
  0
TABLE
  2
BLOCK_RECORD
  5
1
330
0
100
AcDbSymbolTable
 70
    18
  0
BLOCK_RECORD
  5
1E
102
{ACAD_XDICTIONARY
360
5013
102
}
330
1
100
AcDbSymbolTableRecord
100
AcDbBlockTableRecord
  2
*MODEL_SPACE
340
DCBA
  0
BLOCK_RECORD
  5
1A
102
{ACAD_XDICTIONARY
360
5011
102
}
330
1
100
AcDbSymbolTableRecord
100
AcDbBlockTableRecord
  2
*PAPER_SPACE
340
DCBB
  0
BLOCK_RECORD
  5
1E7C
330
1
100
AcDbSymbolTableRecord
100
AcDbBlockTableRecord
  2
*D0
340
0
  0
BLOCK_RECORD
  5
1E88
330
1
100
AcDbSymbolTableRecord
100
AcDbBlockTableRecord
  2
*D1
340
0
  0
BLOCK_RECORD
  5
1E94
330
1
100
AcDbSymbolTableRecord
100
AcDbBlockTableRecord
  2
*D2
340
0
  0
BLOCK_RECORD
  5
1EA0
330
1
100
AcDbSymbolTableRecord
100
AcDbBlockTableRecord
  2
*D3
340
0
  0
ENDTAB
  0
ENDSEC
  0
SECTION
  2
BLOCKS
  0
BLOCK
  5
1F
330
1E
100
AcDbEntity
  8
0
100
AcDbBlockBegin
  2
*MODEL_SPACE
 70
     0
 10
0.0
 20
0.0
 30
0.0
  3
*MODEL_SPACE
  1

  0
ENDBLK
  5
20
330
1E
100
AcDbEntity
  8
0
100
AcDbBlockEnd
  0
BLOCK
  5
1B
330
1A
100
AcDbEntity
 67
     1
  8
0
100
AcDbBlockBegin
  2
*PAPER_SPACE
 70
     0
 10
0.0
 20
0.0
 30
0.0
  3
*PAPER_SPACE
  1

  0
ENDBLK
  5
1C
330
1A
100
AcDbEntity
 67
     1
  8
0
100
AcDbBlockEnd
  0
BLOCK
  5
1E86
330
1E7C
100
AcDbEntity
  8
0
100
AcDbBlockBegin
  2
*D0
 70
     1
 10
0.0
 20
0.0
 30
0.0
  3
*D0
  1

  0
LINE
  5
DCE2
330
1E7C
100
AcDbEntity
  8
2
370
    -2
100
AcDbLine
 10
-0.000000000000003
 20
-24.075
 30
0.0
 11
0.0000000000000014
 21
47.0
 31
0.0
  0
LINE
  5
DCE3
330
1E7C
100
AcDbEntity
  8
2
370
    -2
100
AcDbLine
 10
28.09999999999999
 20
-22.77499999999999
 30
0.0
 11
28.09999999999999
 21
47.0
 31
0.0
  0
LINE
  5
DCE4
330
1E7C
100
AcDbEntity
  8
2
370
    -2
100
AcDbLine
 10
3.500000000000001
 20
45.0
 30
0.0
 11
24.59999999999999
 21
45.0
 31
0.0
  0
SOLID
  5
DCE5
330
1E7C
100
AcDbEntity
  8
2
100
AcDbTrace
 10
3.500000000000001
 20
45.58333333333332
 30
0.0
 11
3.500000000000001
 21
44.41666666666665
 31
0.0
 12
0.0000000000000012
 22
45.0
 32
0.0
 13
0.0000000000000012
 23
45.0
 33
0.0
  0
SOLID
  5
DCE6
330
1E7C
100
AcDbEntity
  8
2
100
AcDbTrace
 10
24.59999999999999
 20
45.58333333333332
 30
0.0
 11
24.59999999999999
 21
44.41666666666665
 31
0.0
 12
28.09999999999999
 22
45.0
 32
0.0
 13
28.09999999999999
 23
45.0
 33
0.0
  0
MTEXT
  5
DCE7
330
1E7C
100
AcDbEntity
  8
2
100
AcDbMText
 10
14.04999999999999
 20
47.37534448818897
 30
0.0
 40
3.5
 41
0.0
 71
     5
 72
     1
  1
28.1
 73
     1
 44
1.0
1001
ACAD
1000
MTEXTBEGIN
1070
    73
1070
     1
1070
    44
1040
1.0
1070
    74
1070
     0
1000
MTEXTEND
  0
POINT
  5
DCE8
330
1E7C
100
AcDbEntity
  8
DEFPOINTS
 62
     0
100
AcDbPoint
 10
-0.000000000000003
 20
-24.7
 30
0.0
  0
POINT
  5
DCE9
330
1E7C
100
AcDbEntity
  8
DEFPOINTS
 62
     0
100
AcDbPoint
 10
28.09999999999999
 20
-23.39999999999999
 30
0.0
  0
POINT
  5
DCEA
330
1E7C
100
AcDbEntity
  8
DEFPOINTS
 62
     0
100
AcDbPoint
 10
28.09999999999999
 20
45.0
 30
0.0
  0
ENDBLK
  5
1E87
330
1E7C
100
AcDbEntity
  8
0
100
AcDbBlockEnd
  0
BLOCK
  5
1E92
330
1E88
100
AcDbEntity
  8
0
100
AcDbBlockBegin
  2
*D1
 70
     1
 10
0.0
 20
0.0
 30
0.0
  3
*D1
  1

  0
LINE
  5
E13D
330
1E88
100
AcDbEntity
  8
SK2
370
    -2
100
AcDbLine
 10
-0.625
 20
25.00000000000001
 30
0.0
 11
-45.375
 21
25.00000000000003
 31
0.0
  0
LINE
  5
E13E
330
1E88
100
AcDbEntity
  8
SK2
370
    -2
100
AcDbLine
 10
-0.6250000000000036
 20
-24.99999999999998
 30
0.0
 11
-45.375
 21
-24.99999999999996
 31
0.0
  0
LINE
  5
E13F
330
1E88
100
AcDbEntity
  8
SK2
370
    -2
100
AcDbLine
 10
-43.375
 20
21.50000000000003
 30
0.0
 11
-43.37500000000001
 21
-21.49999999999996
 31
0.0
  0
SOLID
  5
E140
330
1E88
100
AcDbEntity
  8
SK2
100
AcDbTrace
 10
-43.95833333333333
 20
21.50000000000003
 30
0.0
 11
-42.79166666666665
 21
21.50000000000003
 31
0.0
 12
-43.375
 22
25.00000000000003
 32
0.0
 13
-43.375
 23
25.00000000000003
 33
0.0
  0
SOLID
  5
E141
330
1E88
100
AcDbEntity
  8
SK2
100
AcDbTrace
 10
-43.95833333333334
 20
-21.49999999999996
 30
0.0
 11
-42.79166666666667
 21
-21.49999999999996
 31
0.0
 12
-43.37500000000001
 22
-24.99999999999996
 32
0.0
 13
-43.37500000000001
 23
-24.99999999999996
 33
0.0
  0
MTEXT
  5
E142
330
1E88
100
AcDbEntity
  8
SK2
100
AcDbMText
 10
-45.75000000000001
 20
0.0000000000000198
 30
0.0
 40
3.5
 41
0.0
 71
     5
 72
     1
  1
%%c50
 11
0.0000000000000001
 21
1.0
 31
0.0
 73
     1
 44
1.0
  0
POINT
  5
E143
330
1E88
100
AcDbEntity
  8
DEFPOINTS
 62
     0
100
AcDbPoint
 10
0.0
 20
25.00000000000001
 30
0.0
  0
POINT
  5
E144
330
1E88
100
AcDbEntity
  8
DEFPOINTS
 62
     0
100
AcDbPoint
 10
-0.0000000000000036
 20
-24.99999999999998
 30
0.0
  0
POINT
  5
E145
330
1E88
100
AcDbEntity
  8
DEFPOINTS
 62
     0
100
AcDbPoint
 10
-43.37500000000001
 20
-24.99999999999996
 30
0.0
  0
ENDBLK
  5
1E93
330
1E88
100
AcDbEntity
  8
0
100
AcDbBlockEnd
  0
BLOCK
  5
1E9E
330
1E94
100
AcDbEntity
  8
0
100
AcDbBlockBegin
  2
*D2
 70
     1
 10
0.0
 20
0.0
 30
0.0
  3
*D2
  1

  0
LINE
  5
DCC7
330
1E94
100
AcDbEntity
  8
2
370
    -2
100
AcDbLine
 10
-0.0000000000000023
 20
-18.70744368619996
 30
0.0
 11
-0.000000000000004
 21
-46.99999999999999
 31
0.0
  0
LINE
  5
DCC8
330
1E94
100
AcDbEntity
  8
2
370
    -2
100
AcDbLine
 10
25.0
 20
-30.62499999999999
 30
0.0
 11
25.0
 21
-46.99999999999999
 31
0.0
  0
LINE
  5
DCC9
330
1E94
100
AcDbEntity
  8
2
370
    -2
100
AcDbLine
 10
3.499999999999996
 20
-44.99999999999999
 30
0.0
 11
21.49999999999999
 21
-44.99999999999999
 31
0.0
  0
SOLID
  5
DCCA
330
1E94
100
AcDbEntity
  8
2
100
AcDbTrace
 10
3.499999999999996
 20
-44.41666666666665
 30
0.0
 11
3.499999999999996
 21
-45.58333333333332
 31
0.0
 12
-0.0000000000000039
 22
-44.99999999999999
 32
0.0
 13
-0.0000000000000039
 23
-44.99999999999999
 33
0.0
  0
SOLID
  5
DCCB
330
1E94
100
AcDbEntity
  8
2
100
AcDbTrace
 10
21.49999999999999
 20
-44.41666666666665
 30
0.0
 11
21.49999999999999
 21
-45.58333333333332
 31
0.0
 12
25.0
 22
-44.99999999999999
 32
0.0
 13
25.0
 23
-44.99999999999999
 33
0.0
  0
MTEXT
  5
DCCC
330
1E94
100
AcDbEntity
  8
2
100
AcDbMText
 10
8.819629062764072
 20
-42.624655511811
 30
0.0
 40
3.5
 41
0.0
 71
     5
 72
     1
  1
25
 73
     1
 44
1.0
1001
ACAD
1000
MTEXTBEGIN
1070
    73
1070
     1
1070
    44
1040
1.0
1070
    74
1070
     0
1000
MTEXTEND
  0
POINT
  5
DCCD
330
1E94
100
AcDbEntity
  8
DEFPOINTS
 62
     0
100
AcDbPoint
 10
-0.0000000000000022
 20
-18.08244368619996
 30
0.0
  0
POINT
  5
DCCE
330
1E94
100
AcDbEntity
  8
DEFPOINTS
 62
     0
100
AcDbPoint
 10
25.0
 20
-29.99999999999999
 30
0.0
  0
POINT
  5
DCCF
330
1E94
100
AcDbEntity
  8
DEFPOINTS
 62
     0
100
AcDbPoint
 10
25.0
 20
-44.99999999999999
 30
0.0
  0
ENDBLK
  5
1E9F
330
1E94
100
AcDbEntity
  8
0
100
AcDbBlockEnd
  0
BLOCK
  5
1EAA
330
1EA0
100
AcDbEntity
  8
0
100
AcDbBlockBegin
  2
*D3
 70
     1
 10
0.0
 20
0.0
 30
0.0
  3
*D3
  1

  0
LINE
  5
DCD0
330
1EA0
100
AcDbEntity
  8
2
370
    -2
100
AcDbLine
 10
25.625
 20
30.00000000000001
 30
0.0
 11
50.39850269190001
 21
30.0
 31
0.0
  0
LINE
  5
DCD1
330
1EA0
100
AcDbEntity
  8
2
370
    -2
100
AcDbLine
 10
25.625
 20
-29.99999999999999
 30
0.0
 11
50.3985026919
 21
-29.99999999999999
 31
0.0
  0
LINE
  5
DCD2
330
1EA0
100
AcDbEntity
  8
2
370
    -2
100
AcDbLine
 10
48.39850269190001
 20
26.5
 30
0.0
 11
48.3985026919
 21
-26.49999999999999
 31
0.0
  0
SOLID
  5
DCD3
330
1EA0
100
AcDbEntity
  8
2
100
AcDbTrace
 10
47.81516935856667
 20
26.5
 30
0.0
 11
48.98183602523334
 21
26.5
 31
0.0
 12
48.39850269190001
 22
30.0
 32
0.0
 13
48.39850269190001
 23
30.0
 33
0.0
  0
SOLID
  5
DCD4
330
1EA0
100
AcDbEntity
  8
2
100
AcDbTrace
 10
47.81516935856664
 20
-26.49999999999999
 30
0.0
 11
48.98183602523332
 21
-26.49999999999999
 31
0.0
 12
48.3985026919
 22
-29.99999999999999
 32
0.0
 13
48.3985026919
 23
-29.99999999999999
 33
0.0
  0
MTEXT
  5
DCD5
330
1EA0
100
AcDbEntity
  8
2
100
AcDbMText
 10
46.0235026919
 20
0.0000000000000086
 30
0.0
 40
3.5
 41
0.0
 71
     5
 72
     1
  1
%%c60
 11
0.0000000000000001
 21
1.0
 31
0.0
 73
     1
 44
1.0
1001
ACAD
1000
MTEXTBEGIN
1070
    73
1070
     1
1070
    44
1040
1.0
1070
    74
1070
     0
1000
MTEXTEND
  0
POINT
  5
DCD6
330
1EA0
100
AcDbEntity
  8
DEFPOINTS
 62
     0
100
AcDbPoint
 10
25.0
 20
30.00000000000001
 30
0.0
  0
POINT
  5
DCD7
330
1EA0
100
AcDbEntity
  8
DEFPOINTS
 62
     0
100
AcDbPoint
 10
25.0
 20
-29.99999999999999
 30
0.0
  0
POINT
  5
DCD8
330
1EA0
100
AcDbEntity
  8
DEFPOINTS
 62
     0
100
AcDbPoint
 10
48.3985026919
 20
-29.99999999999999
 30
0.0
  0
ENDBLK
  5
1EAB
330
1EA0
100
AcDbEntity
  8
0
100
AcDbBlockEnd
  0
ENDSEC
  0
SECTION
  2
ENTITIES
  0
DIMENSION
  5
51B
330
1E
100
AcDbEntity
  8
2
100
AcDbDimension
  2
*D2
 10
25.0
 20
-44.99999999999999
 30
0.0
 11
8.819629062764072
 21
-44.99999999999999
 31
0.0
 70
   160
 71
     5
 42
25.0
  3
ISO-25
100
AcDbAlignedDimension
 13
-0.0000000000000022
 23
-18.08244368619996
 33
0.0
 14
25.0
 24
-29.99999999999999
 34
0.0
100
AcDbRotatedDimension
  0
DIMENSION
  5
51C
330
1E
100
AcDbEntity
  8
2
100
AcDbDimension
  2
*D3
 10
48.3985026919
 20
-29.99999999999999
 30
0.0
 11
48.3985026919
 21
0.0000000000000083
 31
0.0
 70
   160
  1
%%c<>
 71
     5
 42
60.0
  3
ISO-25
100
AcDbAlignedDimension
 13
25.0
 23
30.00000000000001
 33
0.0
 14
25.0
 24
-29.99999999999999
 34
0.0
 50
270.0
100
AcDbRotatedDimension
  0
DIMENSION
  5
51D
330
1E
100
AcDbEntity
  8
SK2
100
AcDbDimension
  2
*D1
 10
-43.37500000000001
 20
-24.99999999999996
 30
0.0
 11
-43.37500000000001
 21
0.0000000000000195
 31
0.0
 70
   160
  1
%%c<>
 71
     5
 42
50.0
  3
ISO-25
100
AcDbAlignedDimension
 13
0.0
 23
25.00000000000001
 33
0.0
 14
-0.0000000000000036
 24
-24.99999999999998
 34
0.0
 50
270.0
100
AcDbRotatedDimension
  0
DIMENSION
  5
51E
330
1E
100
AcDbEntity
  8
2
100
AcDbDimension
  2
*D0
 10
28.09999999999999
 20
45.0
 30
0.0
 11
14.04999999999999
 21
45.0
 31
0.0
 70
   160
 71
     5
 42
28.09999999999999
  3
ISO-25
100
AcDbAlignedDimension
 13
-0.000000000000003
 23
-24.7
 33
0.0
 14
28.09999999999999
 24
-23.39999999999999
 34
0.0
100
AcDbRotatedDimension
  0
LINE
  5
51F
330
1E
100
AcDbEntity
  8
1
100
AcDbLine
 10
28.01626042649998
 20
24.6370784505
 30
0.0
 11
27.82449547310001
 21
24.87087978079999
 31
0.0
  0
LINE
  5
526
330
1E
100
AcDbEntity
  8
1
100
AcDbLine
 10
27.11127643549998
 20
-23.43229690830001
 30
0.0
 11
25.2175740327
 21
-26.19425649600001
 31
0.0
  0
LINE
  5
527
330
1E
100
AcDbEntity
  8
1
100
AcDbLine
 10
25.09999999999999
 20
-26.33567785219999
 30
0.0
 11
25.2175740327
 21
-26.19425649600001
 31
0.0
  0
LINE
  5
528
330
1E
100
AcDbEntity
  8
1
100
AcDbLine
 10
28.01626042649998
 20
-22.82791771830001
 30
0.0
 11
28.17499999999999
 21
-22.63698129079999
 31
0.0
  0
LINE
  5
529
330
1E
100
AcDbEntity
  8
1
100
AcDbLine
 10
25.1
 20
29.53672568629999
 30
0.0
 11
25.2175740327
 21
29.3391880182
 31
0.0
  0
LINE
  5
52A
330
1E
100
AcDbEntity
  8
1
100
AcDbLine
 10
28.01626042649998
 20
24.6370784505
 30
0.0
 11
28.17499999999999
 21
24.37037801960001
 31
0.0
  0
LINE
  5
52B
330
1E
100
AcDbEntity
  8
1
100
AcDbLine
 10
27.11127643549998
 20
26.05044208689998
 30
0.0
 11
25.2175740327
 21
29.3391880182
 31
0.0
  0
LINE
  5
52C
330
1E
100
AcDbEntity
  8
1
100
AcDbLine
 10
21.98373957349998
 20
-22.82791771830001
 30
0.0
 11
22.17550452689998
 21
-22.65906267099999
 31
0.0
  0
LINE
  5
52D
330
1E
100
AcDbEntity
  8
1
100
AcDbLine
 10
27.8244954731
 20
-14.47783721269998
 30
0.0
 11
28.0111502437
 21
-13.86445461649999
 31
0.0
  0
LINE
  5
52E
330
1E
100
AcDbEntity
  8
1
100
AcDbLine
 10
25.09999999999999
 20
-17.35542173109999
 30
0.0
 11
25.2175740327
 21
-17.21400037490001
 31
0.0
  0
LINE
  5
52F
330
1E
100
AcDbEntity
  8
1
100
AcDbLine
 10
28.02422839419998
 20
-13.83807750129999
 30
0.0
 11
28.17499999999999
 21
-13.65672516970001
 31
0.0
  0
LINE
  5
530
330
1E
100
AcDbEntity
  8
1
100
AcDbLine
 10
25.2175740327
 20
-17.21400037490001
 30
0.0
 11
27.11127643549998
 21
-15.42036284659998
 31
0.0
  0
LINE
  5
531
330
1E
100
AcDbEntity
  8
1
100
AcDbLine
 10
24.9
 20
29.53672568629999
 30
0.0
 11
25.1
 21
29.53672568629999
 31
0.0
  0
LINE
  5
533
330
1E
100
AcDbEntity
  8
1
100
AcDbLine
 10
25.1
 20
16.49518705250001
 30
0.0
 11
25.2175740327
 21
16.40438895250001
 31
0.0
  0
LINE
  5
534
330
1E
100
AcDbEntity
  8
1
100
AcDbLine
 10
28.01626042649998
 20
14.24306641309999
 30
0.0
 11
28.17499999999999
 21
14.12047768039998
 31
0.0
  0
LINE
  5
535
330
1E
100
AcDbEntity
  8
1
100
AcDbLine
 10
25.2175740327
 20
16.40438895250001
 30
0.0
 11
27.11127643549998
 21
14.33187376689998
 31
0.0
  0
LINE
  5
536
330
1E
100
AcDbEntity
  8
1
100
AcDbLine
 10
28.17499999999999
 20
-1.630153205599996
 30
0.0
 11
28.17499999999999
 21
-1.094405452700005
 31
0.0
  0
LINE
  5
537
330
1E
100
AcDbEntity
  8
1
100
AcDbLine
 10
28.17499999999999
 20
24.37037801960001
 30
0.0
 11
28.17499999999999
 21
14.12047768039998
 31
0.0
  0
LINE
  5
538
330
1E
100
AcDbEntity
  8
1
100
AcDbLine
 10
28.17499999999999
 20
14.12047768039998
 30
0.0
 11
28.17499999999999
 21
-1.094405452700005
 31
0.0
  0
LINE
  5
539
330
1E
100
AcDbEntity
  8
1
100
AcDbLine
 10
28.17499999999999
 20
-7.58373411100003
 30
0.0
 11
28.17499999999999
 21
-22.63698129079999
 31
0.0
  0
LINE
  5
53A
330
1E
100
AcDbEntity
  8
1
100
AcDbLine
 10
28.09999999999999
 20
14.17839742119998
 30
0.0
 11
28.1
 21
22.81117741219996
 31
0.0
  0
LINE
  5
53B
330
1E
100
AcDbEntity
  8
1
100
AcDbLine
 10
28.09999999999999
 20
2.088008968099992
 30
0.0
 11
28.09999999999999
 21
-13.49139607420001
 31
0.0
  0
LINE
  5
53C
330
1E
100
AcDbEntity
  8
1
100
AcDbLine
 10
28.09999999999999
 20
-22.72719340199996
 30
0.0
 11
28.09999999999999
 21
-23.39994975579999
 31
0.0
  0
LINE
  5
53D
330
1E
100
AcDbEntity
  8
1
100
AcDbLine
 10
27.11127643549998
 20
26.05044208689998
 30
0.0
 11
22.88872356439998
 21
26.05044208689998
 31
0.0
  0
LINE
  5
53E
330
1E
100
AcDbEntity
  8
1
100
AcDbLine
 10
22.17550452689998
 20
13.88774074539999
 30
0.0
 11
21.98373957349998
 21
14.24306641309999
 31
0.0
  0
LINE
  5
53F
330
1E
100
AcDbEntity
  8
1
100
AcDbLine
 10
28.01626042649998
 20
2.927283555900013
 30
0.0
 11
27.8244954731
 21
3.578795260599982
 31
0.0
  0
LINE
  5
540
330
1E
100
AcDbEntity
  8
1
100
AcDbLine
 10
25.1
 20
16.49518705250001
 30
0.0
 11
25.09999999999999
 21
5.179404195299992
 31
0.0
  0
LINE
  5
541
330
1E
100
AcDbEntity
  8
1
100
AcDbLine
 10
25.09999999999999
 20
-17.35542173109999
 30
0.0
 11
25.09999999999999
 21
-26.33567785219999
 31
0.0
  0
LINE
  5
542
330
1E
100
AcDbEntity
  8
1
100
AcDbLine
 10
24.9
 20
16.49518705250001
 30
0.0
 11
24.89999999999999
 21
5.179404195299992
 31
0.0
  0
LINE
  5
543
330
1E
100
AcDbEntity
  8
1
100
AcDbLine
 10
24.89999999999999
 20
-17.35542173109999
 30
0.0
 11
24.89999999999999
 21
-26.33567785219999
 31
0.0
  0
LINE
  5
545
330
1E
100
AcDbEntity
  8
1
100
AcDbLine
 10
21.82499999999999
 20
25.00000000000001
 30
0.0
 11
0.3000000000000002
 21
25.00000000000001
 31
0.0
  0
LINE
  5
546
330
1E
100
AcDbEntity
  8
1
100
AcDbLine
 10
21.98373957349998
 20
24.6370784505
 30
0.0
 11
28.01626042649998
 21
24.6370784505
 31
0.0
  0
LINE
  5
547
330
1E
100
AcDbEntity
  8
1
100
AcDbLine
 10
26.49999999999999
 20
24.50545625569998
 30
0.0
 11
22.53210678119998
 21
24.50545625569998
 31
0.0
  0
LINE
  5
548
330
1E
100
AcDbEntity
  8
1
100
AcDbLine
 10
21.82499999999998
 20
3.434731578500003
 30
0.0
 11
21.82499999999998
 21
14.1677755738
 31
0.0
  0
LINE
  5
549
330
1E
100
AcDbEntity
  8
1
100
AcDbLine
 10
21.82499999999999
 20
24.42541539299998
 30
0.0
 11
21.82499999999999
 21
25.00000000000001
 31
0.0
  0
LINE
  5
54A
330
1E
100
AcDbEntity
  8
1
100
AcDbLine
 10
21.82499999999998
 20
3.434731578500003
 30
0.0
 11
21.82499999999998
 21
2.458657972799993
 31
0.0
  0
LINE
  5
54B
330
1E
100
AcDbEntity
  8
1
100
AcDbLine
 10
21.82499999999998
 20
-14.32330871339997
 30
0.0
 11
21.82499999999998
 21
-22.41129032859998
 31
0.0
  0
LINE
  5
54C
330
1E
100
AcDbEntity
  8
1
100
AcDbLine
 10
21.82499999999998
 20
-22.41129032859998
 30
0.0
 11
21.82499999999998
 21
-22.63698129079999
 31
0.0
  0
LINE
  5
54D
330
1E
100
AcDbEntity
  8
1
100
AcDbLine
 10
21.98373957349998
 20
2.927283555900015
 30
0.0
 11
22.17550452689998
 21
3.578795260599985
 31
0.0
  0
LINE
  5
54E
330
1E
100
AcDbEntity
  8
1
100
AcDbLine
 10
27.8244954731
 20
13.88774074539999
 30
0.0
 11
28.01626042649998
 21
14.24306641309999
 31
0.0
  0
LINE
  5
550
330
1E
100
AcDbEntity
  8
1
100
AcDbLine
 10
28.17499999999999
 20
-1.094405452700005
 30
0.0
 11
28.09999999999999
 21
-1.152325193500007
 31
0.0
  0
LINE
  5
581
330
1E
100
AcDbEntity
  8
1
100
AcDbLine
 10
25.09999999999999
 20
5.179404195299992
 30
0.0
 11
25.2175740327
 21
5.088606095299991
 31
0.0
  0
LINE
  5
582
330
1E
100
AcDbEntity
  8
1
100
AcDbLine
 10
28.01626042649998
 20
2.927283555900013
 30
0.0
 11
28.17499999999999
 21
2.804694823199989
 31
0.0
  0
LINE
  5
583
330
1E
100
AcDbEntity
  8
1
100
AcDbLine
 10
28.17499999999999
 20
-7.58373411100003
 30
0.0
 11
28.09999999999999
 21
-7.493521999700011
 31
0.0
  0
LINE
  5
586
330
1E
100
AcDbEntity
  8
1
100
AcDbLine
 10
22.17550452689998
 20
-14.47783721269998
 30
0.0
 11
22.13660514889999
 21
-14.35000655829998
 31
0.0
  0
LINE
  5
591
330
1E
100
AcDbEntity
  8
1
100
AcDbLine
 10
28.17499999999999
 20
15.88761046479999
 30
0.0
 11
28.1
 21
15.7616019851
 31
0.0
  0
LINE
  5
594
330
1E
100
AcDbEntity
  8
SK1
100
AcDbLine
 10
-24.0
 20
14.00000000000001
 30
0.0
 11
-28.72686128689998
 21
13.6
 31
0.0
  0
LINE
  5
596
330
1E
100
AcDbEntity
  8
1
100
AcDbLine
 10
24.9
 20
16.49518705250001
 30
0.0
 11
25.1
 21
16.49518705250001
 31
0.0
  0
LINE
  5
597
330
1E
100
AcDbEntity
  8
1
100
AcDbLine
 10
23.27146061929999
 20
14.75075075469999
 30
0.0
 11
22.53210678119998
 21
14.75075075469999
 31
0.0
  0
LINE
  5
59A
330
1E
100
AcDbEntity
  8
1
100
AcDbLine
 10
28.01626042649998
 20
14.24306641309999
 30
0.0
 11
27.15004821179999
 21
14.24306641309999
 31
0.0
  0
LINE
  5
59B
330
1E
100
AcDbEntity
  8
1
100
AcDbLine
 10
22.8499517882
 20
14.24306641309999
 30
0.0
 11
21.98373957349998
 21
14.24306641309999
 31
0.0
  0
LINE
  5
59C
330
1E
100
AcDbEntity
  8
SK1
100
AcDbLine
 10
-2.499999999999996
 20
14.00000000000001
 30
0.0
 11
-6.499999999999997
 21
14.00000000000001
 31
0.0
  0
LINE
  5
59D
330
1E
100
AcDbEntity
  8
SK1
100
AcDbLine
 10
-19.5
 20
14.00000000000001
 30
0.0
 11
-24.0
 21
14.00000000000001
 31
0.0
  0
LINE
  5
59E
330
1E
100
AcDbEntity
  8
1
100
AcDbLine
 10
27.11127643549998
 20
4.236247886499977
 30
0.0
 11
25.2175740327
 21
5.088606095299991
 31
0.0
  0
LINE
  5
5A0
330
1E
100
AcDbEntity
  8
1
100
AcDbLine
 10
21.82499999999998
 20
2.80469482319999
 30
0.0
 11
21.98373957349998
 21
2.927283555900015
 31
0.0
  0
LINE
  5
5A1
330
1E
100
AcDbEntity
  8
1
100
AcDbLine
 10
24.7824259673
 20
5.088606095299991
 30
0.0
 11
24.89999999999999
 21
5.179404195299992
 31
0.0
  0
LINE
  5
5A2
330
1E
100
AcDbEntity
  8
SK1
100
AcDbLine
 10
-0.400000000000004
 20
13.7
 30
0.0
 11
-1.301393259200009
 21
13.7
 31
0.0
  0
LINE
  5
5A3
330
1E
100
AcDbEntity
  8
SK1
100
AcDbLine
 10
-1.45668468629999
 20
13.72044450420001
 30
0.0
 11
-1.301393259200009
 21
13.7
 31
0.0
  0
LINE
  5
5A4
330
1E
100
AcDbEntity
  8
SK1
100
AcDbLine
 10
-1.45668468629999
 20
13.72044450420001
 30
0.0
 11
-2.499999999999996
 21
14.00000000000001
 31
0.0
  0
LINE
  5
5AA
330
1E
100
AcDbEntity
  8
1
100
AcDbLine
 10
22.88872356439998
 20
26.05044208689998
 30
0.0
 11
24.7824259673
 21
29.3391880182
 31
0.0
  0
LINE
  5
5AB
330
1E
100
AcDbEntity
  8
1
100
AcDbLine
 10
21.85455384489999
 20
24.42003182040001
 30
0.0
 11
21.98373957349998
 21
24.6370784505
 31
0.0
  0
LINE
  5
5AC
330
1E
100
AcDbEntity
  8
1
100
AcDbLine
 10
24.7824259673
 20
29.3391880182
 30
0.0
 11
24.9
 21
29.53672568629999
 31
0.0
  0
LINE
  5
5AD
330
1E
100
AcDbEntity
  8
1
100
AcDbLine
 10
24.7824259673
 20
16.40438895250001
 30
0.0
 11
22.88872356439998
 21
14.33187376689998
 31
0.0
  0
LINE
  5
5AE
330
1E
100
AcDbEntity
  8
1
100
AcDbLine
 10
22.88872356439998
 20
4.236247886499977
 30
0.0
 11
24.7824259673
 21
5.088606095299991
 31
0.0
  0
LINE
  5
5AF
330
1E
100
AcDbEntity
  8
1
100
AcDbLine
 10
24.7824259673
 20
-17.21400037490001
 30
0.0
 11
24.89999999999999
 21
-17.35542173109999
 31
0.0
  0
LINE
  5
5B0
330
1E
100
AcDbEntity
  8
1
100
AcDbLine
 10
22.88872356439998
 20
-23.43229690830001
 30
0.0
 11
24.7824259673
 21
-26.19425649600001
 31
0.0
  0
LINE
  5
5B5
330
1E
100
AcDbEntity
  8
1
100
AcDbLine
 10
24.89999999999999
 20
5.179404195299992
 30
0.0
 11
25.09999999999999
 21
5.179404195299992
 31
0.0
  0
LINE
  5
5B7
330
1E
100
AcDbEntity
  8
1
100
AcDbLine
 10
27.11127643549998
 20
4.236247886499977
 30
0.0
 11
22.88872356439998
 21
4.236247886499977
 31
0.0
  0
LINE
  5
5B8
330
1E
100
AcDbEntity
  8
1
100
AcDbLine
 10
21.98373957349998
 20
2.927283555900015
 30
0.0
 11
28.01626042649998
 21
2.927283555900013
 31
0.0
  0
LINE
  5
5B9
330
1E
100
AcDbEntity
  8
1
100
AcDbLine
 10
26.49999999999999
 20
2.866783473400015
 30
0.0
 11
22.53210678119998
 21
2.866783473400015
 31
0.0
  0
LINE
  5
5BA
330
1E
100
AcDbEntity
  8
1
100
AcDbLine
 10
24.7824259673
 20
-17.21400037490001
 30
0.0
 11
22.88872356439998
 21
-15.42036284659998
 31
0.0
  0
LINE
  5
5BC
330
1E
100
AcDbEntity
  8
1
100
AcDbLine
 10
-0.000000000000003
 20
-24.7
 30
0.0
 11
0.000000000000003
 21
24.7
 31
0.0
  0
LINE
  5
5C8
330
1E
100
AcDbEntity
  8
1
100
AcDbLine
 10
21.98373957349998
 20
24.6370784505
 30
0.0
 11
22.17550452689998
 21
24.87087978079999
 31
0.0
  0
LINE
  5
5C9
330
1E
100
AcDbEntity
  8
1
100
AcDbLine
 10
21.82499999999998
 20
14.12047768039998
 30
0.0
 11
21.98373957349998
 21
14.24306641309999
 31
0.0
  0
LINE
  5
5CA
330
1E
100
AcDbEntity
  8
1
100
AcDbLine
 10
24.7824259673
 20
16.40438895250001
 30
0.0
 11
24.9
 21
16.49518705250001
 31
0.0
  0
LINE
  5
5CB
330
1E
100
AcDbEntity
  8
4
100
AcDbLine
 10
33.77350269189998
 20
0.0000000000000101
 30
0.0
 11
0.0
 21
0.0000000000000142
 31
0.0
  0
LINE
  5
5CC
330
1E
100
AcDbEntity
  8
1
100
AcDbLine
 10
28.01626042649998
 20
-22.82791771830001
 30
0.0
 11
27.8244954731
 21
-22.65906267099999
 31
0.0
  0
LINE
  5
5CD
330
1E
100
AcDbEntity
  8
1
100
AcDbLine
 10
21.82499999999998
 20
-22.63698129079999
 30
0.0
 11
21.98373957349998
 21
-22.82791771830001
 31
0.0
  0
LINE
  5
5CE
330
1E
100
AcDbEntity
  8
1
100
AcDbLine
 10
24.7824259673
 20
-26.19425649600001
 30
0.0
 11
24.89999999999999
 21
-26.33567785219999
 31
0.0
  0
LINE
  5
5D1
330
1E
100
AcDbEntity
  8
SK1
100
AcDbLine
 10
-2.5
 20
-13.99999999999998
 30
0.0
 11
-2.499999999999996
 21
14.00000000000001
 31
0.0
  0
LINE
  5
5D4
330
1E
100
AcDbEntity
  8
SK1
100
AcDbLine
 10
-28.72686128689998
 20
-13.59999999999997
 30
0.0
 11
-29.25521140029998
 21
-13.869207829
 31
0.0
  0
LINE
  5
5D5
330
1E
100
AcDbEntity
  8
SK1
100
AcDbLine
 10
-28.72686128689998
 20
13.6
 30
0.0
 11
-29.25521140029998
 21
13.86920782900001
 31
0.0
  0
LINE
  5
5D6
330
1E
100
AcDbEntity
  8
1
100
AcDbLine
 10
28.17499999999999
 20
-1.630153205599996
 30
0.0
 11
28.09999999999999
 21
-1.650110988099998
 31
0.0
  0
LINE
  5
5FE
330
1E
100
AcDbEntity
  8
SK1
100
AcDbLine
 10
-1.456684686299993
 20
-13.72044450420001
 30
0.0
 11
-2.5
 21
-13.99999999999998
 31
0.0
  0
LINE
  5
5FF
330
1E
100
AcDbEntity
  8
SK1
100
AcDbLine
 10
-1.456684686299993
 20
-13.72044450420001
 30
0.0
 11
-1.301393259200011
 21
-13.7
 31
0.0
  0
LINE
  5
601
330
1E
100
AcDbEntity
  8
SK1
100
AcDbLine
 10
-0.4000000000000074
 20
-13.7
 30
0.0
 11
-1.301393259200011
 21
-13.7
 31
0.0
  0
LINE
  5
603
330
1E
100
AcDbEntity
  8
SK1
100
AcDbLine
 10
-2.5
 20
-13.99999999999998
 30
0.0
 11
-6.5
 21
-13.99999999999998
 31
0.0
  0
LINE
  5
604
330
1E
100
AcDbEntity
  8
SK1
100
AcDbLine
 10
-19.5
 20
-13.99999999999998
 30
0.0
 11
-24.0
 21
-13.99999999999997
 31
0.0
  0
LINE
  5
605
330
1E
100
AcDbEntity
  8
1
100
AcDbLine
 10
26.49999999999999
 20
-14.63839849779996
 30
0.0
 11
22.53210678119998
 21
-14.63839849779996
 31
0.0
  0
LINE
  5
610
330
1E
100
AcDbEntity
  8
1
100
AcDbLine
 10
27.11127643549998
 20
-15.42036284659998
 30
0.0
 11
27.13078027879998
 21
-15.422144246
 31
0.0
  0
LINE
  5
611
330
1E
100
AcDbEntity
  8
1
100
AcDbLine
 10
22.88872356439998
 20
-15.42036284659998
 30
0.0
 11
22.86921972109998
 21
-15.422144246
 31
0.0
  0
LINE
  5
612
330
1E
100
AcDbEntity
  8
1
100
AcDbLine
 10
27.11127643549998
 20
-15.42036284659998
 30
0.0
 11
22.88872356439998
 21
-15.42036284659998
 31
0.0
  0
LINE
  5
614
330
1E
100
AcDbEntity
  8
1
100
AcDbLine
 10
24.89999999999999
 20
-17.35542173109999
 30
0.0
 11
25.09999999999999
 21
-17.35542173109999
 31
0.0
  0
LINE
  5
615
330
1E
100
AcDbEntity
  8
SK1
100
AcDbLine
 10
-24.0
 20
-13.99999999999997
 30
0.0
 11
-28.72686128689998
 21
-13.59999999999997
 31
0.0
  0
LINE
  5
616
330
1E
100
AcDbEntity
  8
1
100
AcDbLine
 10
21.98373957349998
 20
-22.82791771830001
 30
0.0
 11
22.53488169109998
 21
-22.82791771830001
 31
0.0
  0
LINE
  5
617
330
1E
100
AcDbEntity
  8
1
100
AcDbLine
 10
27.46511830889998
 20
-22.82791771830001
 30
0.0
 11
28.01626042649998
 21
-22.82791771830001
 31
0.0
  0
LINE
  5
618
330
1E
100
AcDbEntity
  8
SK1
100
AcDbLine
 10
-24.0
 20
-13.99999999999997
 30
0.0
 11
-24.0
 21
14.00000000000001
 31
0.0
  0
LINE
  5
619
330
1E
100
AcDbEntity
  8
1
100
AcDbLine
 10
26.49999999999999
 20
-24.99999999999999
 30
0.0
 11
26.03640078379998
 21
-24.99999999999999
 31
0.0
  0
LINE
  5
61A
330
1E
100
AcDbEntity
  8
1
100
AcDbLine
 10
23.96359921609998
 20
-24.99999999999999
 30
0.0
 11
0.2999999999999941
 21
-24.99999999999998
 31
0.0
  0
LINE
  5
61B
330
1E
100
AcDbEntity
  8
SK1
100
AcDbLine
 10
-28.72686128689998
 20
-13.59999999999997
 30
0.0
 11
-28.72686128689998
 21
13.6
 31
0.0
  0
LINE
  5
61C
330
1E
100
AcDbEntity
  8
1
100
AcDbLine
 10
24.89999999999999
 20
-26.33567785219999
 30
0.0
 11
25.09999999999999
 21
-26.33567785219999
 31
0.0
  0
LINE
  5
61F
330
1E
100
AcDbEntity
  8
SK1
100
AcDbLine
 10
-31.0
 20
-12.79999999999998
 30
0.0
 11
-31.0
 21
12.79999999999999
 31
0.0
  0
ARC
  5
620
330
1E
100
AcDbEntity
  8
SK1
100
AcDbCircle
 10
-29.8
 20
-12.79999999999998
 30
0.0
 40
1.199999999999999
100
AcDbArc
 50
180.0
 51
297.0
  0
ARC
  5
621
330
1E
100
AcDbEntity
  8
SK1
100
AcDbCircle
 10
-29.8
 20
12.79999999999999
 30
0.0
 40
1.199999999999999
100
AcDbArc
 50
63.00000000000001
 51
180.0
  0
ARC
  5
622
330
1E
100
AcDbEntity
  8
1
100
AcDbCircle
 10
26.49999999999999
 20
-23.39999999999999
 30
0.0
 40
1.6
100
AcDbArc
 50
270.0
 51
0.0
  0
ARC
  5
623
330
1E
100
AcDbEntity
  8
SK1
100
AcDbCircle
 10
-0.4000000000000039
 20
14.29999999999999
 30
0.0
 40
0.6
100
AcDbArc
 50
270.0
 51
311.9669171767
  0
ARC
  5
624
330
1E
100
AcDbEntity
  8
SK1
100
AcDbCircle
 10
-0.4000000000000077
 20
-14.29999999999999
 30
0.0
 40
0.6
100
AcDbArc
 50
48.03308282330003
 51
90.0
  0
ARC
  5
625
330
1E
100
AcDbEntity
  8
1
100
AcDbCircle
 10
0.3000000000000001
 20
24.7
 30
0.0
 40
0.3
100
AcDbArc
 50
90.0
 51
180.0
  0
ARC
  5
626
330
1E
100
AcDbEntity
  8
1
100
AcDbCircle
 10
0.2999999999999941
 20
-24.7
 30
0.0
 40
0.3
100
AcDbArc
 50
180.0
 51
270.0
  0
LWPOLYLINE
  5
7B1
330
1E
100
AcDbEntity
  8
1
100
AcDbPolyline
 90
       19
 70
     0
 43
0.0
 10
27.82449547310001
 20
24.87087978079999
 10
27.814958827162
 20
24.882687381612
 10
27.80474311516198
 20
24.89571860174399
 10
27.7930398211112
 20
24.911091200803
 10
27.7790848608206
 20
24.92995525148002
 10
27.75893201002539
 20
24.957966521773
 10
27.73358843120178
 20
24.99413010055398
 10
27.70326533871029
 20
25.038586637308
 10
27.6635742320253
 20
25.098359809054
 10
27.61563207730519
 20
25.17252739253398
 10
27.55536070652739
 20
25.26829091680501
 10
27.4868675694975
 20
25.38006097291502
 10
27.41262329580461
 20
25.504478847139
 10
27.33845330432921
 20
25.63214363301601
 10
27.27052856104871
 20
25.752254397789
 10
27.21264463188239
 20
25.857426324266
 10
27.16509984989389
 20
25.94623230821998
 10
27.12941884198098
 20
26.014775059732
 10
27.11128093763611
 20
26.05043315769101
  0
LWPOLYLINE
  5
7C6
330
1E
100
AcDbEntity
  8
1
100
AcDbPolyline
 90
       19
 70
     0
 43
0.0
 10
22.17550452689998
 20
24.87087978079999
 10
22.1850411728377
 20
24.882687381612
 10
22.19525688483737
 20
24.89571860174301
 10
22.20696017888789
 20
24.911091200802
 10
22.22091513917801
 20
24.92995525147799
 10
22.2410679899722
 20
24.95796652176998
 10
22.26641156879408
 20
24.99413010055
 10
22.29673466128458
 20
25.03858663730198
 10
22.33642576797338
 20
25.098359809044
 10
22.38436792269428
 20
25.17252739251999
 10
22.44463929343261
 20
25.26829091681101
 10
22.51313243041889
 20
25.38006097294199
 10
22.58737670416059
 20
25.50447884713098
 10
22.66154669566259
 20
25.632143632986
 10
22.7294714389356
 20
25.75225439775902
 10
22.78735536811109
 20
25.85742632422601
 10
22.8349001500621
 20
25.946232308195
 10
22.8705811579285
 20
26.01477505972899
 10
22.88871906226388
 20
26.05043315769101
  0
LWPOLYLINE
  5
7DB
330
1E
100
AcDbEntity
  8
1
100
AcDbPolyline
 90
       64
 70
     0
 43
0.0
 10
27.24224655049999
 20
4.289425879199978
 10
27.23994177151739
 20
4.289408726456013
 10
27.23763604029679
 20
4.289366316282988
 10
27.23532976710229
 20
4.289298415653982
 10
27.2330233621977
 20
4.289204791545992
 10
27.2307172358471
 20
4.289085210933002
 10
27.22841179831419
 20
4.288939440790993
 10
27.22625144105398
 20
4.288778788643991
 10
27.2240923878307
 20
4.288594721541993
 10
27.22193497669139
 20
4.288387047476996
 10
27.21977954568298
 20
4.288155574445007
 10
27.21762643285269
 20
4.287900110435979
 10
27.21547597624748
 20
4.287620463444973
 10
27.21332851391439
 20
4.287316441464987
 10
27.21118438390059
 20
4.286987852489981
 10
27.2090439242531
 20
4.286634504512004
 10
27.20704977161739
 20
4.286282205560988
 10
27.20505938559979
 20
4.285908015400005
 10
27.2030730410453
 20
4.285511777920001
 10
27.2010910127984
 20
4.285093337012975
 10
27.1991135757041
 20
4.284652536571011
 10
27.1971410046072
 20
4.284189220484998
 10
27.19517357435219
 20
4.283703232645996
 10
27.1932115597842
 20
4.283194416945985
 10
27.19125523574779
 20
4.282662617275017
 10
27.1893048770878
 20
4.282107677527001
 10
27.18736075864911
 20
4.281529441591013
 10
27.18542315446811
 20
4.280927757813011
 10
27.18349230801488
 20
4.280302642951007
 10
27.1815684235392
 20
4.279654329859006
 10
27.17965170271779
 20
4.278983065565008
 10
27.17774234722739
 20
4.278289097100987
 10
27.17584055874498
 20
4.277572671493981
 10
27.17394653894739
 20
4.276834035773001
 10
27.17206048951128
 20
4.276073436969008
 10
27.17004879604798
 20
4.275234418033003
 10
27.16804673180479
 20
4.274370773787023
 10
27.1660545448356
 20
4.273482808068004
 10
27.16407248319399
 20
4.272570824708973
 10
27.1621007949337
 20
4.271635127547006
 10
27.16013972810821
 20
4.270676020416981
 10
27.1580599101621
 20
4.269627512158998
 10
27.15599276032389
 20
4.268553083000005
 10
27.15393857963887
 20
4.267453101683013
 10
27.15189766915239
 20
4.266327936950015
 10
27.14987032990979
 20
4.26517795754601
 10
27.1477314887469
 20
4.263929327366987
 10
27.14560866919049
 20
4.26265354231999
 10
27.14350223233328
 20
4.261351044700016
 10
27.14141253926799
 20
4.260022276801985
 10
27.13921857453059
 20
4.258587203927
 10
27.1370442148402
 20
4.25712370013901
 10
27.13488988883369
 20
4.255632290461997
 10
27.13263808575198
 20
4.254028330387011
 10
27.130409585856
 20
4.252394480108997
 10
27.12820489326408
 20
4.250731357109013
 10
27.12591043819259
 20
4.248949755840992
 10
27.12364350896478
 20
4.247137123819026
 10
27.12129350132419
 20
4.245201251382987
 10
27.1189751698325
 20
4.243232795286993
 10
27.11668919514889
 20
4.241232589254008
 10
27.1144362579328
 20
4.239201467009005
 10
27.11232194131489
 20
4.237239084719996
 10
27.11128366838229
 20
4.236254792002975
  0
LWPOLYLINE
  5
81D
330
1E
100
AcDbEntity
  8
1
100
AcDbPolyline
 90
       64
 70
     0
 43
0.0
 10
22.7577534494
 20
4.289425879199979
 10
22.76005822838289
 20
4.289408726456014
 10
22.7623639596037
 20
4.289366316282988
 10
22.76467023279859
 20
4.289298415654978
 10
22.76697663770346
 20
4.289204791548011
 10
22.76928276405459
 20
4.289085210936018
 10
22.77158820158789
 20
4.288939440794006
 10
22.77374855884839
 20
4.288778788647998
 10
22.77590761207219
 20
4.288594721547023
 10
22.77806502321199
 20
4.288387047483989
 10
22.78022045422079
 20
4.288155574451973
 10
22.78237356705171
 20
4.28790011044499
 10
22.78452402365727
 20
4.287620463456003
 10
22.78667148599089
 20
4.287316441478006
 10
22.7888156160052
 20
4.286987852504021
 10
22.7909560756532
 20
4.286634504526984
 10
22.79295022828939
 20
4.286282205577018
 10
22.79494061430729
 20
4.285908015417001
 10
22.7969269588623
 20
4.285511777938988
 10
22.7989089871095
 20
4.285093337034008
 10
22.80088642420419
 20
4.284652536592981
 10
22.80285899530149
 20
4.284189220508018
 10
22.80482642555669
 20
4.283703232669986
 10
22.80678844012498
 20
4.283194416970996
 10
22.8087447641617
 20
4.282662617300995
 10
22.81069512282178
 20
4.282107677553973
 10
22.81263924126079
 20
4.281529441619008
 10
22.81457684544189
 20
4.280927757841008
 10
22.81650769189508
 20
4.280302642979004
 10
22.81843157637089
 20
4.279654329887998
 10
22.82034829719228
 20
4.278983065594995
 10
22.82225765268261
 20
4.278289097130008
 10
22.82415944116487
 20
4.277572671522997
 10
22.82605346096239
 20
4.276834035802989
 10
22.82793951039828
 20
4.276073436997998
 10
22.82995120386138
 20
4.275234418061995
 10
22.83195326810429
 20
4.27437077381601
 10
22.83394545507329
 20
4.273482808096
 10
22.83592751671459
 20
4.272570824736968
 10
22.8378992049746
 20
4.27163512757401
 10
22.83986027179969
 20
4.270676020443013
 10
22.84194008974539
 20
4.269627512183983
 10
22.84400723958309
 20
4.268553083023999
 10
22.8460614202677
 20
4.267453101704981
 10
22.84810233075369
 20
4.266327936972015
 10
22.85012966999599
 20
4.265177957566987
 10
22.8522685111584
 20
4.263929327385973
 10
22.85439133071419
 20
4.262653542337981
 10
22.85649776757089
 20
4.261351044716981
 10
22.85858746063579
 20
4.260022276816993
 10
22.86078142537269
 20
4.258587203941013
 10
22.86295578506261
 20
4.257123700150981
 10
22.8651101110686
 20
4.255632290472997
 10
22.86736191414977
 20
4.254028330397015
 10
22.86959041404539
 20
4.252394480117013
 10
22.87179510663689
 20
4.250731357116007
 10
22.87408956170798
 20
4.248949755846988
 10
22.8763564909355
 20
4.247137123823997
 10
22.87870649857578
 20
4.245201251386004
 10
22.88102483006739
 20
4.243232795289013
 10
22.88331080475089
 20
4.241232589255993
 10
22.88556374196698
 20
4.239201467010001
 10
22.88767805858499
 20
4.237239084720992
 10
22.8887163315177
 20
4.236254792002978
  0
LWPOLYLINE
  5
85F
330
1E
100
AcDbEntity
  8
1
100
AcDbPolyline
 90
       86
 70
     0
 43
0.0
 10
27.11127643549998
 20
14.33187376689998
 10
27.11830904295089
 20
14.314583715341
 10
27.12554101639769
 20
14.29737258198997
 10
27.13297321825479
 20
14.280244146398
 10
27.1406065109366
 20
14.263202188117
 10
27.1484417568576
 20
14.246250486696
 10
27.15647981843229
 20
14.22939282168699
 10
27.16472155807529
 20
14.21263297263998
 10
27.17279634372999
 20
14.19669682717097
 10
27.181059025139
 20
14.18085694256399
 10
27.18951038365239
 20
14.16511664816
 10
27.19815230611021
 20
14.14948017300899
 10
27.20698815805029
 20
14.13395294960299
 10
27.21560647453198
 20
14.11923849281699
 10
27.22440766874699
 20
14.104633405866
 10
27.2333947576251
 20
14.09014248668096
 10
27.242129477462
 20
14.07645214349498
 10
27.25103815182019
 20
14.062873850339
 10
27.2601233868372
 20
14.04941175185
 10
27.26892027311639
 20
14.03673415857898
 10
27.27788109186648
 20
14.02416872503298
 10
27.28700838095829
 20
14.01171979680598
 10
27.29581234448489
 20
14.000040613893
 10
27.30477278665599
 20
13.98848046817898
 10
27.3138933062231
 20
13.97704681587898
 10
27.322657358121
 20
13.966371233573
 10
27.3315704367652
 20
13.95582141230401
 10
27.34063557381979
 20
13.94540363334501
 10
27.3493090871944
 20
13.93572491027998
 10
27.35812250891429
 20
13.92617395280399
 10
27.3670783664979
 20
13.91675599765401
 10
27.3761791874632
 20
13.907476281569
 10
27.38484512144639
 20
13.89890678421901
 10
27.39364361381599
 20
13.89047016011401
 10
27.4019789480558
 20
13.88272540239398
 10
27.4098288385683
 20
13.87565390630298
 10
27.41717143190609
 20
13.869235477146
 10
27.42460905128728
 20
13.862927697014
 10
27.4315122972102
 20
13.85724767642499
 10
27.43849906933519
 20
13.85166988892
 10
27.4455711266722
 20
13.84619876184098
 10
27.45207575769299
 20
13.84132129200397
 10
27.45865364765728
 20
13.836538956565
 10
27.46530611813509
 20
13.83185508185199
 10
27.471358200182
 20
13.82772652773899
 10
27.47747272634128
 20
13.82368284603002
 10
27.4836506600377
 20
13.81972646161798
 10
27.48989296469559
 20
13.81585979939399
 10
27.49549637705969
 20
13.81250032973597
 10
27.50115091260759
 20
13.809218086537
 10
27.5068557620727
 20
13.80601820528299
 10
27.51188814045149
 20
13.80328991316
 10
27.5169578753095
 20
13.80063205942501
 10
27.52206442292687
 20
13.798048088089
 10
27.52720723958389
 20
13.79554144316199
 10
27.53164382319278
 20
13.793457046499
 10
27.53610631157469
 20
13.79143416019199
 10
27.54059436232878
 20
13.789474953066
 10
27.5451076330543
 20
13.78758159394401
 10
27.5496457813506
 20
13.78575625164799
 10
27.55420846481669
 20
13.78400109500299
 10
27.55802919615678
 20
13.782593643202
 10
27.56186652988247
 20
13.78123769266998
 10
27.5657202678451
 20
13.77993449851098
 10
27.5695902118959
 20
13.778685315834
 10
27.5734761638865
 20
13.777491399742
 10
27.5773779256681
 20
13.77635400534301
 10
27.58129529909229
 20
13.77527438774198
 10
27.58522808601028
 20
13.774253802046
 10
27.58917608827369
 20
13.77329350336101
 10
27.5931391077337
 20
13.77239474679197
 10
27.59711694286139
 20
13.77155878715399
 10
27.60110900834269
 20
13.77078684607799
 10
27.6051139867078
 20
13.77008008189496
 10
27.6091304781818
 20
13.76943964581798
 10
27.6123510201506
 20
13.76897582680999
 10
27.61557731796829
 20
13.768555783989
 10
27.6188086549501
 20
13.76818010677599
 10
27.6220443144112
 20
13.76784938459298
 10
27.62528357966689
 20
13.767564206863
 10
27.6285257340324
 20
13.76732516300499
 10
27.63177006082289
 20
13.76713284244299
 10
27.6350158433536
 20
13.76698783459799
 10
27.63826236493979
 20
13.76689072889099
 10
27.64150890889661
 20
13.76684211474399
 10
27.6431219652951
 20
13.76683617507201
  0
LWPOLYLINE
  5
8B7
330
1E
100
AcDbEntity
  8
1
100
AcDbPolyline
 90
       86
 70
     0
 43
0.0
 10
22.88872356439998
 20
14.33187376689998
 10
22.88169095694819
 20
14.31458371533998
 10
22.87445898349969
 20
14.29737258198997
 10
22.86702678164048
 20
14.28024414639899
 10
22.85939348895638
 20
14.263202188118
 10
22.85155824303339
 20
14.24625048669799
 10
22.84352018145738
 20
14.229392821689
 10
22.83527844181438
 20
14.21263297264099
 10
22.82720365616089
 20
14.19669682716998
 10
22.81894097475479
 20
14.18085694256001
 10
22.8104896162464
 20
14.16511664815199
 10
22.8018476937955
 20
14.149480172995
 10
22.79301184186379
 20
14.13395294958301
 10
22.78439352539078
 20
14.11923849278998
 10
22.77559233118478
 20
14.10463340583198
 10
22.76660524231519
 20
14.09014248664098
 10
22.7578705224857
 20
14.07645214344898
 10
22.74896184813369
 20
14.06287385028902
 10
22.73987661312109
 20
14.04941175179598
 10
22.7310797268442
 20
14.036734158524
 10
22.722118908094
 20
14.02416872497799
 10
22.71299161899959
 20
14.011719796754
 10
22.7041876554685
 20
14.00004061384499
 10
22.6952272132912
 20
13.98848046813498
 10
22.68610669371678
 20
13.97704681584099
 10
22.67734264181128
 20
13.96637123354197
 10
22.66842956315929
 20
13.95582141227797
 10
22.65936442609699
 20
13.94540363332499
 10
22.65069091271569
 20
13.93572491026499
 10
22.64187749098959
 20
13.92617395279299
 10
22.63292163340099
 20
13.91675599764599
 10
22.62382081243198
 20
13.90747628156197
 10
22.61515487844679
 20
13.89890678421298
 10
22.60635638607678
 20
13.89047016010599
 10
22.5980210518376
 20
13.88272540238398
 10
22.59017116132679
 20
13.87565390628999
 10
22.58282856799089
 20
13.86923547712999
 10
22.57539094861209
 20
13.862927696994
 10
22.56848770269179
 20
13.85724767640198
 10
22.56150093056939
 20
13.85166988889398
 10
22.55442887323519
 20
13.84619876181
 10
22.54792424221689
 20
13.84132129197
 10
22.54134635225498
 20
13.83653895652799
 10
22.53469388177929
 20
13.83185508181201
 10
22.5286417997342
 20
13.82772652769599
 10
22.52252727357638
 20
13.823682845985
 10
22.5163493398813
 20
13.81972646157098
 10
22.51010703522429
 20
13.81585979934599
 10
22.50450362286068
 20
13.81250032968697
 10
22.49884908731288
 20
13.809218086487
 10
22.4931442378477
 20
13.80601820523298
 10
22.4881118594686
 20
13.80328991311001
 10
22.48304212461019
 20
13.80063205937499
 10
22.47793557699219
 20
13.798048088039
 10
22.47279276033451
 20
13.79554144311398
 10
22.46835617672478
 20
13.79345704645096
 10
22.46389368834218
 20
13.79143416014599
 10
22.45940563758718
 20
13.78947495302099
 10
22.4548923668607
 20
13.78758159390001
 10
22.45035421856349
 20
13.78575625160599
 10
22.44579153509647
 20
13.78400109496199
 10
22.44197080375538
 20
13.78259364316299
 10
22.43813347002889
 20
13.78123769263199
 10
22.4342797320655
 20
13.77993449847599
 10
22.4304097880137
 20
13.77868531579999
 10
22.4265238360223
 20
13.77749139971
 10
22.42262207423978
 20
13.77635400531298
 10
22.41870470081479
 20
13.77527438771398
 10
22.41477191389598
 20
13.77425380202
 10
22.41082391163188
 20
13.77329350333699
 10
22.40686089217109
 20
13.77239474677099
 10
22.40288305704269
 20
13.77155878713498
 10
22.39889099156078
 20
13.770786846061
 10
22.3948860131951
 20
13.77008008187999
 10
22.3908695217206
 20
13.769439645806
 10
22.38764897975148
 20
13.7689758268
 10
22.38442268193348
 20
13.76855578397998
 10
22.38119134495139
 20
13.768180106769
 10
22.37795568548996
 20
13.76784938458799
 10
22.37471642023398
 20
13.76756420685899
 10
22.3714742658683
 20
13.76732516300298
 10
22.36822993907759
 20
13.76713284244198
 10
22.36498415654679
 20
13.766987834597
 10
22.36173763496038
 20
13.76689072889099
 10
22.3584910910035
 20
13.76684211474399
 10
22.35687803460489
 20
13.76683617507201
  0
LWPOLYLINE
  5
90F
330
1E
100
AcDbEntity
  8
1
100
AcDbPolyline
 90
       91
 70
     0
 43
0.0
 10
27.8244954731
 20
3.578795260599982
 10
27.81921639067709
 20
3.596364670218016
 10
27.81373907867939
 20
3.613875980246018
 10
27.8080644641465
 20
3.631326694968984
 10
27.8021934741178
 20
3.648714318674004
 10
27.79612703563278
 20
3.666036355649006
 10
27.78986607573109
 20
3.683290310178997
 10
27.78306646291429
 20
3.701376072404978
 10
27.77605342234549
 20
3.719380720810031
 10
27.76882803527779
 20
3.737301344515012
 10
27.7613912333607
 20
3.755134979532023
 10
27.75374244244229
 20
3.772878127306978
 10
27.74588021731169
 20
3.790526980051005
 10
27.7382120840217
 20
3.807202577776997
 10
27.73034876429839
 20
3.823786366381007
 10
27.7222890099604
 20
3.840275077934997
 10
27.71403157282599
 20
3.856665444509028
 10
27.7055752047139
 20
3.872954198171991
 10
27.6969186574426
 20
3.889138070994002
 10
27.6880606798685
 20
3.905213791497013
 10
27.67948129298279
 20
3.920339880532008
 10
27.67071604278228
 20
3.935359719337024
 10
27.6617614400497
 20
3.950267619848982
 10
27.65261399556758
 20
3.965057894003002
 10
27.6437945287431
 20
3.978913354458009
 10
27.63479700015338
 20
3.992654029747011
 10
27.6256184704082
 20
4.006275128126
 10
27.61625600011698
 20
4.019771857846998
 10
27.60727360216979
 20
4.032356760761993
 10
27.5981232129288
 20
4.044823256783991
 10
27.58880221621989
 20
4.057166892052016
 10
27.57990536882748
 20
4.068620346487004
 10
27.57085141089619
 20
4.079950728954012
 10
27.56163661438598
 20
4.091150011413995
 10
27.55225725125679
 20
4.102210165830008
 10
27.54335141456669
 20
4.112400370089012
 10
27.53429594349459
 20
4.122455857958993
 10
27.52508780700589
 20
4.132370102347985
 10
27.51572397406599
 20
4.142136576163986
 10
27.506886925069
 20
4.151067424472993
 10
27.49791058729121
 20
4.159860004451991
 10
27.48879252671228
 20
4.168509067408006
 10
27.48024724630969
 20
4.176358640965993
 10
27.47230218470759
 20
4.183431790585992
 10
27.46424686769748
 20
4.190379281634998
 10
27.45682553624048
 20
4.19657904854697
 10
27.44930813496239
 20
4.202661668873993
 10
27.4424583860746
 20
4.208030633705003
 10
27.4355271932461
 20
4.213294965349017
 10
27.4285128382414
 20
4.218450048010975
 10
27.42220665181029
 20
4.222936897047001
 10
27.41583219260347
 20
4.227330537033008
 10
27.4093882538493
 20
4.231627726149988
 10
27.4028736287761
 20
4.235825222576988
 10
27.39711439828329
 20
4.239413704291006
 10
27.3912993162002
 20
4.242921205006988
 10
27.3854275740843
 20
4.246345552957005
 10
27.37949840199639
 20
4.249684506291013
 10
27.3735120777515
 20
4.252933916022993
 10
27.36833653179099
 20
4.255643131890997
 10
27.36312097680928
 20
4.258277984981003
 10
27.35786634657989
 20
4.260834481297004
 10
27.35257357487599
 20
4.26330862684899
 10
27.34813446961219
 20
4.265304626503998
 10
27.34367006604539
 20
4.267238353183993
 10
27.33918090455349
 20
4.269107495547992
 10
27.33466752551477
 20
4.270909742259003
 10
27.33013046930729
 20
4.272642781978002
 10
27.3255702763091
 20
4.274304303366005
 10
27.32098748689839
 20
4.275891995084018
 10
27.31638264145329
 20
4.277403545794991
 10
27.31175628035189
 20
4.278836644159023
 10
27.3080400633324
 20
4.279925083941019
 10
27.3043106988084
 20
4.280960651560016
 10
27.3005684634537
 20
4.281942163609993
 10
27.2968136339417
 20
4.282868436685003
 10
27.29304648694598
 20
4.283738287379985
 10
27.28926729914029
 20
4.284550532289992
 10
27.2854763471982
 20
4.285303988008998
 10
27.28167390779328
 20
4.285997471132997
 10
27.27786025769538
 20
4.286629798293011
 10
27.27403589872209
 20
4.287199874084997
 10
27.27020203888049
 20
4.287706879123998
 10
27.2663600243322
 20
4.288150048027016
 10
27.26251120123849
 20
4.288528615410008
 10
27.2586569157611
 20
4.288841815887998
 10
27.25479851406129
 20
4.289088884078988
 10
27.2509373423006
 20
4.289269054596993
 10
27.2470747466406
 20
4.289381562060023
 10
27.24321207324271
 20
4.289425641082012
 10
27.24225655048539
 20
4.289425898938998
  0
LWPOLYLINE
  5
96C
330
1E
100
AcDbEntity
  8
1
100
AcDbPolyline
 90
       91
 70
     0
 43
0.0
 10
22.17550452689998
 20
3.578795260599985
 10
22.18078360932248
 20
3.596364670216992
 10
22.1862609213197
 20
3.613875980243005
 10
22.19193553585218
 20
3.631326694963985
 10
22.19780652588038
 20
3.648714318667981
 10
22.20387296436489
 20
3.666036355640993
 10
22.210133924266
 20
3.683290310168995
 10
22.21693353708209
 20
3.701376072394007
 10
22.22394657764998
 20
3.719380720797012
 10
22.23117196471659
 20
3.737301344500998
 10
22.23860876663251
 20
3.755134979516991
 10
22.2462575575496
 20
3.772878127291003
 10
22.25411978267878
 20
3.790526980033984
 10
22.26178791596739
 20
3.807202577758978
 10
22.26965123568928
 20
3.823786366361997
 10
22.27771099002619
 20
3.840275077915018
 10
22.2859684271597
 20
3.856665444487
 10
22.29442479527109
 20
3.872954198148006
 10
22.3030813425422
 20
3.889138070969018
 10
22.31193932011639
 20
3.90521379146902
 10
22.3205187070025
 20
3.920339880500997
 10
22.3292839572036
 20
3.935359719304027
 10
22.33823855993669
 20
3.950267619813001
 10
22.3473860044191
 20
3.965057893965004
 10
22.35620547124339
 20
3.978913354417993
 10
22.3652029998322
 20
3.992654029705998
 10
22.37438152957589
 20
4.006275128082998
 10
22.38374399986439
 20
4.019771857804993
 10
22.3927263978081
 20
4.032356760720981
 10
22.40187678704439
 20
4.044823256745991
 10
22.41119778374728
 20
4.057166892016975
 10
22.42009463113308
 20
4.068620346456988
 10
22.42914858905709
 20
4.079950728929001
 10
22.43836338555948
 20
4.091150011394015
 10
22.44774274868079
 20
4.102210165816
 10
22.45664858536378
 20
4.112400370080004
 10
22.4657040564291
 20
4.122455857953986
 10
22.4749121929116
 20
4.132370102346988
 10
22.4842760258461
 20
4.142136576166005
 10
22.4931130748392
 20
4.151067424475978
 10
22.50208941261408
 20
4.159860004456002
 10
22.51120747319139
 20
4.168509067412013
 10
22.51975275359369
 20
4.176358640966991
 10
22.5276978151965
 20
4.183431790585001
 10
22.5357531322078
 20
4.190379281631018
 10
22.5431744636666
 20
4.196579048537993
 10
22.55069186494659
 20
4.202661668861008
 10
22.55754161383638
 20
4.208030633689004
 10
22.56447280666697
 20
4.213294965328977
 10
22.57148716167379
 20
4.218450047986988
 10
22.5777933481067
 20
4.222936897019997
 10
22.58416780731529
 20
4.227330537002993
 10
22.590611746071
 20
4.231627726115998
 10
22.5971263711456
 20
4.235825222541006
 10
22.6028856016394
 20
4.239413704253006
 10
22.60870068372319
 20
4.242921204966002
 10
22.61457242583971
 20
4.246345552914998
 10
22.6205015979277
 20
4.249684506247984
 10
22.62648792217238
 20
4.252933915979023
 10
22.6316634681325
 20
4.255643131847003
 10
22.6368790231137
 20
4.258277984935983
 10
22.64213365334249
 20
4.260834481252982
 10
22.64742642504559
 20
4.263308626804994
 10
22.65186553030849
 20
4.265304626460999
 10
22.65632993387439
 20
4.267238353140991
 10
22.66081909536539
 20
4.269107495505986
 10
22.6653324744031
 20
4.270909742217991
 10
22.6698695306096
 20
4.272642781937986
 10
22.67442972360659
 20
4.274304303327975
 10
22.6790125130162
 20
4.275891995047981
 10
22.68361735846019
 20
4.277403545760003
 10
22.6882437195604
 20
4.27883664412597
 10
22.69195993657898
 20
4.279925083909983
 10
22.695689301102
 20
4.280960651530997
 10
22.69943153645589
 20
4.281942163581997
 10
22.70318636596698
 20
4.282868436659025
 10
22.70695351296179
 20
4.283738287355999
 10
22.7107327007666
 20
4.284550532267992
 10
22.71452365270789
 20
4.285303987990014
 10
22.718326092112
 20
4.285997471116001
 10
22.72213974220919
 20
4.286629798278008
 10
22.7259641011818
 20
4.287199874072008
 10
22.72979796102271
 20
4.287706879112998
 10
22.73363997557046
 20
4.288150048018997
 10
22.7374887986636
 20
4.288528615403986
 10
22.74134308414059
 20
4.288841815883995
 10
22.74520148584
 20
4.289088884076003
 10
22.74906265760019
 20
4.289269054596002
 10
22.75292525325978
 20
4.289381562059003
 10
22.75678792665739
 20
4.289425641082013
 10
22.7577434494146
 20
4.289425898938998
  0
LWPOLYLINE
  5
9C9
330
1E
100
AcDbEntity
  8
1
100
AcDbPolyline
 90
       84
 70
     0
 43
0.0
 10
27.64313196530001
 20
13.76683617619997
 10
27.64564387868329
 20
13.76685157805398
 10
27.64815668116129
 20
13.766897332948
 10
27.65044136342609
 20
13.76696556268999
 10
27.6527259270686
 20
13.767059430657
 10
27.65500996570239
 20
13.76717920021599
 10
27.65729307294108
 20
13.76732513473301
 10
27.6595748423984
 20
13.76749749757301
 10
27.66185486768799
 20
13.767696552104
 10
27.66413274242339
 20
13.76792256169101
 10
27.6664080602183
 20
13.76817578970001
 10
27.6686804146864
 20
13.76845649949798
 10
27.6709493994412
 20
13.76876495445098
 10
27.6732146080965
 20
13.76910141792598
 10
27.67547563426589
 20
13.76946615328701
 10
27.67750664591448
 20
13.76981880524799
 10
27.6795336443209
 20
13.77019476275801
 10
27.68155633322939
 20
13.77059421781198
 10
27.68357441638439
 20
13.77101736240299
 10
27.68558759753029
 20
13.77146438852399
 10
27.68759558041129
 20
13.77193548817098
 10
27.68959806877179
 20
13.77243085333699
 10
27.6915947795547
 20
13.77295061743799
 10
27.6935854905631
 20
13.773494643775
 10
27.6955699971302
 20
13.774062717846
 10
27.69754809459089
 20
13.77465462514497
 10
27.6995195782802
 20
13.77527015116003
 10
27.70148424353298
 20
13.775909081385
 10
27.70365895906348
 20
13.77664619233397
 10
27.7058247233506
 20
13.77741163829199
 10
27.70798125564629
 20
13.77820512500699
 10
27.71012827520308
 20
13.77902635822898
 10
27.7122655012732
 20
13.77987504370799
 10
27.71439265310889
 20
13.78075088719098
 10
27.71650944996248
 20
13.78165359442899
 10
27.71861561108619
 20
13.78258287116998
 10
27.72071085573228
 20
13.783538423165
 10
27.7227949031532
 20
13.784519956161
 10
27.7248674726011
 20
13.78552717590898
 10
27.72713370686251
 20
13.78666443464198
 10
27.7293853393967
 20
13.78783202665198
 10
27.73162199652839
 20
13.78902956029299
 10
27.73384330458248
 20
13.79025664391601
 10
27.7360488898835
 20
13.79151288587397
 10
27.73823837875649
 20
13.79279789451898
 10
27.7404113975262
 20
13.794111278203
 10
27.74256757251729
 20
13.79545264527898
 10
27.7449001140674
 20
13.79694740954999
 10
27.7472116802926
 20
13.79847450181097
 10
27.74950178606079
 20
13.80003341359699
 10
27.75176994623989
 20
13.80162363644099
 10
27.754015675698
 20
13.803244661881
 10
27.75623848930278
 20
13.804895981448
 10
27.75862011480569
 20
13.80671850733498
 10
27.7609736598497
 20
13.808575343538
 10
27.76329850763188
 20
13.81046584358899
 10
27.76559404134959
 20
13.812389361019
 10
27.7680326939997
 20
13.81449702199199
 10
27.77043645270559
 20
13.81664136751499
 10
27.7728055578749
 20
13.81882150331998
 10
27.77514026442539
 20
13.82103653388899
 10
27.77760385340878
 20
13.82344748602498
 10
27.780028560355
 20
13.82589636646501
 10
27.7824146988015
 20
13.828382073764
 10
27.78476258228629
 20
13.83090350647598
 10
27.78707252434709
 20
13.83345956315598
 10
27.7893448385216
 20
13.836049142358
 10
27.79157983834771
 20
13.838671142636
 10
27.79377783736309
 20
13.841324462545
 10
27.79608193979838
 20
13.844187950624
 10
27.79834468078858
 20
13.84708448353598
 10
27.8005664408524
 20
13.85001272453401
 10
27.80274760050859
 20
13.85297133686999
 10
27.80488854027578
 20
13.855958983798
 10
27.80698964067279
 20
13.85897432856998
 10
27.8090512822183
 20
13.862016034439
 10
27.81119896679529
 20
13.86527523567099
 10
27.81330299201628
 20
13.86856108366999
 10
27.8153638142995
 20
13.87187197505697
 10
27.81738189006279
 20
13.87520630645499
 10
27.8193576757244
 20
13.878562474485
 10
27.8212916277025
 20
13.88193887576898
 10
27.82329425152839
 20
13.88553416054498
 10
27.82449072360289
 20
13.88773194525098
  0
LWPOLYLINE
  5
A1F
330
1E
100
AcDbEntity
  8
1
100
AcDbPolyline
 90
       84
 70
     0
 43
0.0
 10
22.35686803459996
 20
13.76683617619997
 10
22.35435612121769
 20
13.76685157805398
 10
22.3518433187406
 20
13.766897332948
 10
22.3495586364766
 20
13.76696556268899
 10
22.34727407283489
 20
13.767059430657
 10
22.344990034202
 20
13.76717920021501
 10
22.34270692696396
 20
13.76732513473202
 10
22.34042515750748
 20
13.767497497572
 10
22.3381451322187
 20
13.767696552102
 10
22.33586725748409
 20
13.76792256168901
 10
22.33359193968998
 20
13.76817578969798
 10
22.33131958522269
 20
13.76845649949601
 10
22.3290506004686
 20
13.76876495444799
 10
22.32678539181419
 20
13.769101417922
 10
22.3245243656457
 20
13.76946615328299
 10
22.3224933539979
 20
13.76981880524398
 10
22.32046635559228
 20
13.77019476275399
 10
22.31844366668461
 20
13.770594217808
 10
22.31642558353039
 20
13.771017362398
 10
22.31441240238551
 20
13.77146438852
 10
22.31240441950539
 20
13.77193548816699
 10
22.31040193114578
 20
13.77243085333299
 10
22.30840522036388
 20
13.77295061743299
 10
22.3064145093565
 20
13.77349464376999
 10
22.30443000279048
 20
13.77406271784296
 10
22.30245190533089
 20
13.77465462514099
 10
22.30048042164268
 20
13.775270151157
 10
22.29851575639109
 20
13.775909081382
 10
22.29634104086178
 20
13.77664619233202
 10
22.29417527657609
 20
13.77741163828998
 10
22.2920187442817
 20
13.77820512500601
 10
22.28987172472639
 20
13.77902635822898
 10
22.28773449865768
 20
13.77987504370799
 10
22.28560734682348
 20
13.78075088719201
 10
22.28349054997138
 20
13.78165359443099
 10
22.2813843888491
 20
13.78258287117299
 10
22.27928914420448
 20
13.78353842316901
 10
22.27720509678506
 20
13.78451995616601
 10
22.27513252733879
 20
13.78552717591499
 10
22.27286629307899
 20
13.786664434649
 10
22.27061466054649
 20
13.78783202666
 10
22.2683780034165
 20
13.78902956030201
 10
22.2661566953643
 20
13.790256643927
 10
22.26395111006489
 20
13.79151288588598
 10
22.26176162119357
 20
13.792797894532
 10
22.25958860242569
 20
13.79411127821697
 10
22.2574324274363
 20
13.79545264529401
 10
22.255099885888
 20
13.796947409566
 10
22.2527883196646
 20
13.79847450182801
 10
22.25049821389828
 20
13.80003341361498
 10
22.2482300537209
 20
13.801623636461
 10
22.24598432426469
 20
13.80324466190099
 10
22.24376151066151
 20
13.80489598146898
 10
22.24137988516039
 20
13.80671850735698
 10
22.23902634011829
 20
13.808575343561
 10
22.23670149233778
 20
13.810465843613
 10
22.23440595862178
 20
13.81238936104299
 10
22.23196730597339
 20
13.81449702201599
 10
22.22956354726921
 20
13.81664136753998
 10
22.2271944421015
 20
13.81882150334399
 10
22.2248597355525
 20
13.82103653391401
 10
22.2223961465706
 20
13.82344748604898
 10
22.21997143962589
 20
13.825896366489
 10
22.2175853011807
 20
13.82838207378799
 10
22.21523741769721
 20
13.8309035065
 10
22.2129274756377
 20
13.833459563179
 10
22.21065516146428
 20
13.83604914237998
 10
22.20842016163929
 20
13.83867114265697
 10
22.20622216262499
 20
13.84132446256501
 10
22.2039180601907
 20
13.844187950644
 10
22.20165531920148
 20
13.847084483554
 10
22.19943355913859
 20
13.85001272455099
 10
22.19725239948329
 20
13.852971336885
 10
22.19511145971698
 20
13.85595898381197
 10
22.19301035932078
 20
13.858974328583
 10
22.19094871777599
 20
13.862016034451
 10
22.18880103319978
 20
13.865275235681
 10
22.1866970079796
 20
13.86856108367801
 10
22.18463618569719
 20
13.87187197506398
 10
22.18261810993455
 20
13.875206306461
 10
22.1806423242737
 20
13.878562474489
 10
22.1787083722963
 20
13.88193887577098
 10
22.1767057484711
 20
13.885534160546
 10
22.17550927639709
 20
13.88773194525098
  0
LWPOLYLINE
  5
A75
330
1E
100
AcDbEntity
  8
1
100
AcDbPolyline
 90
       79
 70
     0
 43
0.0
 10
27.75464470639999
 20
-22.63335389549998
 10
27.75146498253659
 20
-22.63336020078398
 10
27.74828757178269
 20
-22.633447768831
 10
27.74511319130069
 20
-22.633614116836
 10
27.74194255825289
 20
-22.63385676199401
 10
27.7387763898016
 20
-22.6341732215
 10
27.73561540310919
 20
-22.63456101255
 10
27.7324603153381
 20
-22.63501765233799
 10
27.7293118436507
 20
-22.63554065805997
 10
27.7261707052092
 20
-22.636127546911
 10
27.72303761717608
 20
-22.63677583608499
 10
27.7199132967137
 20
-22.63748304277802
 10
27.71679846098439
 20
-22.63824668418398
 10
27.7136938271505
 20
-22.63906427749998
 10
27.71060011237439
 20
-22.63993333992
 10
27.70751803381839
 20
-22.64085138863896
 10
27.7034279360705
 20
-22.64214736323999
 10
27.69936149983198
 20
-22.64352012555201
 10
27.6953204250431
 20
-22.64496379040898
 10
27.69130641164439
 20
-22.64647247264299
 10
27.6873210821242
 20
-22.648040448977
 10
27.6823803526832
 20
-22.65007900388896
 10
27.67748429547038
 20
-22.65220231341897
 10
27.6726320099385
 20
-22.65440770529099
 10
27.6678225955403
 20
-22.65669250722897
 10
27.6630551517283
 20
-22.65905404695899
 10
27.65832877795538
 20
-22.66148965220398
 10
27.65364257367419
 20
-22.66399665068898
 10
27.64899563833728
 20
-22.66657237013899
 10
27.6434698829691
 20
-22.66975018258801
 10
27.6379978219469
 20
-22.67301848745697
 10
27.63257789912509
 20
-22.67637266705498
 10
27.62720855835778
 20
-22.67980810368898
 10
27.6210061814978
 20
-22.68391265247499
 10
27.61486806324509
 20
-22.68811418319998
 10
27.60792858503898
 20
-22.69302527958499
 10
27.60106612023939
 20
-22.69804252318301
 10
27.59343333235799
 20
-22.70380025724601
 10
27.58505649376278
 20
-22.71032598913198
 10
27.57678618094038
 20
-22.71698085240398
 10
27.56861947562849
 20
-22.72375941418899
 10
27.5597522835145
 20
-22.73135221980497
 10
27.55100304118428
 20
-22.73908089569699
 10
27.5415883702669
 20
-22.74765864096598
 10
27.532304404056
 20
-22.75638008942198
 10
27.5223884219414
 20
-22.765979601924
 10
27.5118672492603
 20
-22.77648013631098
 10
27.50076701707989
 20
-22.787901282342
 10
27.4891125551098
 20
-22.80025813371397
 10
27.4769288715464
 20
-22.81356486555202
 10
27.46494377381119
 20
-22.82704506671
 10
27.45246342067878
 20
-22.84149837501102
 10
27.44019178541569
 20
-22.85612763191601
 10
27.4274569165126
 20
-22.87174997831601
 10
27.41428515561199
 20
-22.88838255299602
 10
27.40134308751999
 20
-22.90519509387498
 10
27.3879903793029
 20
-22.92302764754797
 10
27.37424972342319
 20
-22.941890590081
 10
27.36014689674709
 20
-22.96179715603301
 10
27.3463068848211
 20
-22.981886285679
 10
27.33213950311269
 20
-23.00303509461501
 10
27.31824628632299
 20
-23.02436539983296
 10
27.3040591172036
 20
-23.04676794762002
 10
27.29015586103298
 20
-23.06934787497695
 10
27.27599020844878
 20
-23.093008442211
 10
27.2621180231072
 20
-23.11684053327398
 10
27.2485373842806
 20
-23.14083885339196
 10
27.23524702667399
 20
-23.164998769789
 10
27.22224568499278
 20
-23.18931564968798
 10
27.20953209394219
 20
-23.21378486031199
 10
27.1966327266841
 20
-23.23935145978401
 10
27.1840408949649
 20
-23.26507215073402
 10
27.1722064434241
 20
-23.28998151943998
 10
27.16066188357829
 20
-23.315026517275
 10
27.14941213404578
 20
-23.34020436325399
 10
27.13887766629047
 20
-23.36453652365102
 10
27.1286246874146
 20
-23.388986466162
 10
27.11865757005178
 20
-23.41355171849897
 10
27.11128005754579
 20
-23.43228758731398
  0
LWPOLYLINE
  5
AC6
330
1E
100
AcDbEntity
  8
1
100
AcDbPolyline
 90
       79
 70
     0
 43
0.0
 10
22.24535529349999
 20
-22.63335389549998
 10
22.24853501736346
 20
-22.63336020078398
 10
22.2517124281176
 20
-22.63344776882998
 10
22.25488680859989
 20
-22.63361411683398
 10
22.258057441648
 20
-22.63385676199198
 10
22.26122361009959
 20
-22.63417322149698
 10
22.26438459679228
 20
-22.634561012545
 10
22.26753968456378
 20
-22.63501765233198
 10
22.27068815625171
 20
-22.63554065805201
 10
22.2738292946936
 20
-22.63612754690098
 10
22.27696238272718
 20
-22.636775836073
 10
22.2800867031901
 20
-22.63748304276401
 10
22.28320153891997
 20
-22.63824668416801
 10
22.2863061727545
 20
-22.63906427748198
 10
22.2893998875312
 20
-22.63993333989998
 10
22.29248196608778
 20
-22.640851388617
 10
22.29657206383659
 20
-22.64214736321497
 10
22.3006385000762
 20
-22.64352012552401
 10
22.30467957486609
 20
-22.64496379037796
 10
22.30869358826589
 20
-22.64647247260901
 10
22.31267891778728
 20
-22.64804044893999
 10
22.3176196472298
 20
-22.65007900385002
 10
22.3225157044441
 20
-22.65220231337698
 10
22.32736798997739
 20
-22.65440770524699
 10
22.3321774043771
 20
-22.65669250718298
 10
22.3369448481905
 20
-22.65905404691
 10
22.34167122196478
 20
-22.661489652153
 10
22.34635742624737
 20
-22.66399665063701
 10
22.35100436158548
 20
-22.66657237008498
 10
22.3565301169551
 20
-22.66975018253297
 10
22.36200217797848
 20
-22.67301848740097
 10
22.36742210080139
 20
-22.676372666998
 10
22.3727914415696
 20
-22.679808103631
 10
22.37899381843046
 20
-22.68391265241699
 10
22.3851319366836
 20
-22.688114183142
 10
22.39207141488988
 20
-22.69302527952798
 10
22.39893387968928
 20
-22.69804252312698
 10
22.40656666756968
 20
-22.70380025719198
 10
22.4149435061631
 20
-22.71032598908098
 10
22.423213818983
 20
-22.71698085235596
 10
22.43138052429178
 20
-22.72375941414598
 10
22.44024771640219
 20
-22.73135221976696
 10
22.44899695872838
 20
-22.73908089566401
 10
22.45841162964139
 20
-22.74765864093798
 10
22.46769559584789
 20
-22.75638008939897
 10
22.47761157795828
 20
-22.765979601907
 10
22.4881327506358
 20
-22.77648013629798
 10
22.49923298281389
 20
-22.78790128233298
 10
22.5108874447835
 20
-22.800258133707
 10
22.5230711283493
 20
-22.813564865544
 10
22.53505622608928
 20
-22.82704506670002
 10
22.54753657922897
 20
-22.841498374997
 10
22.55980821450079
 20
-22.856127631896
 10
22.57254308341419
 20
-22.87174997828798
 10
22.58571484432578
 20
-22.88838255296
 10
22.59865691242838
 20
-22.90519509383102
 10
22.61200962065498
 20
-22.92302764749702
 10
22.62575027654198
 20
-22.94189059002501
 10
22.63985310322269
 20
-22.96179715597499
 10
22.6536931151509
 20
-22.98188628561998
 10
22.6678604968597
 20
-23.00303509455698
 10
22.6817537136488
 20
-23.02436539977696
 10
22.6959408827671
 20
-23.04676794756701
 10
22.7098441389371
 20
-23.06934787492698
 10
22.72400979152239
 20
-23.09300844216199
 10
22.737881976867
 20
-23.11684053322502
 10
22.75146261569779
 20
-23.14083885334296
 10
22.76475297330859
 20
-23.16499876973996
 10
22.7777543149929
 20
-23.18931564963801
 10
22.79046790604458
 20
-23.21378486026301
 10
22.80336727330028
 20
-23.23935145973698
 10
22.81595910501239
 20
-23.26507215069097
 10
22.82779355654148
 20
-23.28998151940298
 10
22.83933811637259
 20
-23.31502651724601
 10
22.85058786588939
 20
-23.34020436323299
 10
22.86112233363029
 20
-23.36453652363899
 10
22.8713753124945
 20
-23.38898646615501
 10
22.88134242984989
 20
-23.413551718497
 10
22.88871994235419
 20
-23.43228758731398
  0
LWPOLYLINE
  5
B17
330
1E
100
AcDbEntity
  8
1
100
AcDbPolyline
 90
       61
 70
     0
 43
0.0
 10
27.8244954731
 20
-22.65906267099999
 10
27.8234745393957
 20
-22.65817741832499
 10
27.8224391302208
 20
-22.65730668703199
 10
27.82138957323039
 20
-22.65645053258702
 10
27.82032619607969
 20
-22.65560901045599
 10
27.81924932642389
 20
-22.65478217610401
 10
27.8181592919182
 20
-22.65397008499701
 10
27.81705642021769
 20
-22.6531727926
 10
27.8159410389775
 20
-22.65239035437998
 10
27.814813475853
 20
-22.65162282580198
 10
27.81367405849921
 20
-22.65087026233099
 10
27.8125231145713
 20
-22.65013271943302
 10
27.81136097172448
 20
-22.64941025257499
 10
27.81018795761398
 20
-22.64870291721996
 10
27.80907042413709
 20
-22.64804882215701
 10
27.80794376204529
 20
-22.64740832022198
 10
27.80680824736229
 20
-22.64678145813998
 10
27.8056641561117
 20
-22.64616828263703
 10
27.80451176431709
 20
-22.64556884043701
 10
27.80335134800219
 20
-22.64498317826797
 10
27.8021831831906
 20
-22.64441134285298
 10
27.80100754590598
 20
-22.64385338091801
 10
27.79982471217198
 20
-22.64330933918896
 10
27.7986349580122
 20
-22.64277926439199
 10
27.7974385594503
 20
-22.64226320325096
 10
27.7962357925098
 20
-22.64176120249199
 10
27.79502693321449
 20
-22.64127330883997
 10
27.793812257588
 20
-22.64079956902198
 10
27.79259204165398
 20
-22.64034002976198
 10
27.79136656143589
 20
-22.63989473778498
 10
27.79013609295759
 20
-22.63946373981798
 10
27.78890091224258
 20
-22.63904708258601
 10
27.7876612953146
 20
-22.63864481281298
 10
27.78649079177389
 20
-22.63827939068498
 10
27.7853168332055
 20
-22.63792679350298
 10
27.784139649732
 20
-22.63758706022398
 10
27.78295947147619
 20
-22.63726022980098
 10
27.7817765285606
 20
-22.636946341191
 10
27.7805910511082
 20
-22.63664543334898
 10
27.77940326924138
 20
-22.63635754523002
 10
27.7782134130831
 20
-22.63608271578898
 10
27.77702171275588
 20
-22.63582098398198
 10
27.77582839838248
 20
-22.635572388764
 10
27.7746337000857
 20
-22.63533696909
 10
27.7734378479881
 20
-22.63511476391601
 10
27.77224107221239
 20
-22.634905812196
 10
27.77104360288129
 20
-22.63471015288698
 10
27.7698456701176
 20
-22.63452782494299
 10
27.76864750404389
 20
-22.63435886731997
 10
27.7674493347829
 20
-22.634203318972
 10
27.76625138988221
 20
-22.63406121735898
 10
27.765053761213
 20
-22.63393252102598
 10
27.76385634051778
 20
-22.63381707212699
 10
27.7626590034591
 20
-22.63371470346301
 10
27.76146162569989
 20
-22.63362524783194
 10
27.7601892281601
 20
-22.63354416305799
 10
27.75891649517019
 20
-22.63347726658698
 10
27.7576432775925
 20
-22.63342435786797
 10
27.75636942628898
 20
-22.633385236351
 10
27.75501978607429
 20
-22.63335861826397
 10
27.75465470575898
 20
-22.63335400642598
  0
LWPOLYLINE
  5
B56
330
1E
100
AcDbEntity
  8
1
100
AcDbPolyline
 90
       83
 70
     0
 43
0.0
 10
22.86921996639998
 20
-15.42192698269998
 10
22.86557850968219
 20
-15.421873021856
 10
22.86193922201738
 20
-15.42172153165997
 10
22.85830342244711
 20
-15.421475764393
 10
22.85467243001308
 20
-15.42113897233599
 10
22.85104756375679
 20
-15.42071440777
 10
22.84743014272
 20
-15.42020532297696
 10
22.8438214859444
 20
-15.41961497023699
 10
22.84022291247139
 20
-15.41894660183298
 10
22.83663574134279
 20
-15.41820347004501
 10
22.8330612916002
 20
-15.41738882715498
 10
22.8295008822852
 20
-15.41650592544398
 10
22.82595583243949
 20
-15.41555801719299
 10
22.82242746110469
 20
-15.41454835468297
 10
22.81891708732228
 20
-15.41348019019598
 10
22.8142668649637
 20
-15.41197058903098
 10
22.80965365936489
 20
-15.41036987670501
 10
22.8050777020227
 20
-15.40868191525099
 10
22.8005383990553
 20
-15.406909469927
 10
22.7960351559402
 20
-15.40505530513898
 10
22.79156737815458
 20
-15.40312218529398
 10
22.787134471176
 20
-15.40111287479798
 10
22.7827358404817
 20
-15.399030138057
 10
22.7783708915492
 20
-15.39687673947797
 10
22.77403902985569
 20
-15.39465544346599
 10
22.76866982595078
 20
-15.39178755408799
 10
22.76335023073839
 20
-15.388823293589
 10
22.75807908304139
 20
-15.38576806119898
 10
22.75285522168289
 20
-15.382627256149
 10
22.74767748548589
 20
-15.37940627767101
 10
22.74152345232548
 20
-15.37544287668898
 10
22.7354321607888
 20
-15.371381130735
 10
22.7284022755371
 20
-15.36653057703001
 10
22.72046526066498
 20
-15.36085771815
 10
22.71262786543438
 20
-15.35506331150098
 10
22.70488723896379
 20
-15.34915337458899
 10
22.6962913988695
 20
-15.34237201943398
 10
22.68781089461448
 20
-15.33545615054801
 10
22.67944194772248
 20
-15.32841196430299
 10
22.67026936104679
 20
-15.32044213153999
 10
22.66122465162909
 20
-15.31233003194999
 10
22.65141698347819
 20
-15.30325254875801
 10
22.64087892071477
 20
-15.29317853508298
 10
22.62964241149838
 20
-15.282079877392
 10
22.61773785506999
 20
-15.26993302546097
 10
22.60602445652379
 20
-15.25760474383999
 10
22.593678735758
 20
-15.244206546444
 10
22.5815378971525
 20
-15.23062223335701
 10
22.56880598935848
 20
-15.21593837867301
 10
22.55629152803478
 20
-15.201066181612
 10
22.54322412679369
 20
-15.18507162305
 10
22.5303833783155
 20
-15.16889258341997
 10
22.5170235585352
 20
-15.15157686784301
 10
22.50317278253799
 20
-15.13311127435899
 10
22.48957037306138
 20
-15.11446675757498
 10
22.4755142754086
 20
-15.09465573274799
 10
22.46172108231869
 20
-15.07466267561598
 10
22.44751445152748
 20
-15.05348288239598
 10
22.43358377360039
 20
-15.03212063558798
 10
22.4192779497089
 20
-15.00955562382499
 10
22.40525898683039
 20
-14.98681135981199
 10
22.39090156756469
 20
-14.96285244324696
 10
22.37684622744378
 20
-14.93871562854799
 10
22.36309116351989
 20
-14.914406582012
 10
22.34963457387129
 20
-14.88993096903799
 10
22.3364746565761
 20
-14.86529445502798
 10
22.3236096097127
 20
-14.84050270537896
 10
22.31103763135937
 20
-14.81556138549201
 10
22.29875771236096
 20
-14.79047566709497
 10
22.28677262788198
 20
-14.76524836534899
 10
22.27508628101956
 20
-14.73988159302699
 10
22.26370257506459
 20
-14.71437746278199
 10
22.25310060183767
 20
-14.68985562635999
 10
22.24278251225098
 20
-14.66521189836297
 10
22.2327517225408
 20
-14.64044812768197
 10
22.22344935371439
 20
-14.61669966417999
 10
22.2144219309619
 20
-14.59284492688799
 10
22.20608883329819
 20
-14.57002863471901
 10
22.19841908209039
 20
-14.54826619953299
 10
22.19099696933319
 20
-14.52642011423399
 10
22.18420040205276
 20
-14.50564762082699
 10
22.17763858321359
 20
-14.48480190218698
 10
22.17550743815778
 20
-14.47784677954798
  0
LWPOLYLINE
  5
BAB
330
1E
100
AcDbEntity
  8
1
100
AcDbPolyline
 90
       83
 70
     0
 43
0.0
 10
27.13078003349998
 20
-15.42192698269998
 10
27.13442149021798
 20
-15.421873021856
 10
27.13806077788289
 20
-15.42172153165997
 10
27.14169657745328
 20
-15.42147576439201
 10
27.14532756988738
 20
-15.42113897233501
 10
27.14895243614368
 20
-15.42071440776901
 10
27.15256985718049
 20
-15.420205322975
 10
27.1561785139562
 20
-15.41961497023597
 10
27.15977708742919
 20
-15.41894660183099
 10
27.16336425855789
 20
-15.41820347004296
 10
27.1669387083007
 20
-15.417388827153
 10
27.1704991176159
 20
-15.416505925441
 10
27.17404416746189
 20
-15.41555801718998
 10
27.17757253879709
 20
-15.414548354681
 10
27.18108291257989
 20
-15.41348019019397
 10
27.18573313493929
 20
-15.41197058902999
 10
27.19034634053908
 20
-15.41036987670501
 10
27.1949222978825
 20
-15.40868191525198
 10
27.19946160085128
 20
-15.40690946992999
 10
27.20396484396798
 20
-15.40505530514399
 10
27.2084326217552
 20
-15.403122185301
 10
27.21286552873559
 20
-15.40111287480798
 10
27.21726415943169
 20
-15.39903013806899
 10
27.22162910836619
 20
-15.39687673949298
 10
27.2259609700617
 20
-15.39465544348398
 10
27.23133017396909
 20
-15.39178755411001
 10
27.23664976918398
 20
-15.38882329361401
 10
27.24192091688328
 20
-15.38576806122797
 10
27.24714477824409
 20
-15.38262725618098
 10
27.25232251444329
 20
-15.37940627770701
 10
27.2584765476061
 20
-15.375442876728
 10
27.26456783914469
 20
-15.37138113077701
 10
27.271597724398
 20
-15.36653057707498
 10
27.2795347392712
 20
-15.36085771819598
 10
27.28737213450179
 20
-15.35506331154799
 10
27.2951127609714
 20
-15.349153374635
 10
27.3037086010637
 20
-15.34237201947799
 10
27.31218910531589
 20
-15.335456150588
 10
27.32055805220449
 20
-15.32841196433797
 10
27.329730638876
 20
-15.320442131569
 10
27.33877534828929
 20
-15.31233003197299
 10
27.3485830164355
 20
-15.30325254877397
 10
27.35912107919419
 20
-15.29317853509199
 10
27.37035758840678
 20
-15.28207987739397
 10
27.382262144833
 20
-15.26993302545797
 10
27.3939755433799
 20
-15.25760474383496
 10
27.40632126414888
 20
-15.244206546439
 10
27.41846210275998
 20
-15.23062223335496
 10
27.43119401056198
 20
-15.21593837867702
 10
27.4437084718951
 20
-15.201066181622
 10
27.45677587314721
 20
-15.18507162306798
 10
27.4696166216366
 20
-15.16889258344697
 10
27.48297644142828
 20
-15.15157686787897
 10
27.4968272174359
 20
-15.13311127440199
 10
27.51042962692089
 20
-15.11446675762301
 10
27.52448572458019
 20
-15.09465573279898
 10
27.53827891767409
 20
-15.074662675667
 10
27.5524855484667
 20
-15.053482882446
 10
27.56641622639238
 20
-15.03212063563498
 10
27.58072205027938
 20
-15.00955562386697
 10
27.5947410131501
 20
-14.98681135984698
 10
27.60909843240428
 20
-14.962852443273
 10
27.62315377251148
 20
-14.93871562856399
 10
27.6369088364211
 20
-14.91440658201899
 10
27.6503654260563
 20
-14.88993096903597
 10
27.6635253433406
 20
-14.865294455018
 10
27.6763903901972
 20
-14.84050270536398
 10
27.68896236854929
 20
-14.81556138547399
 10
27.70124228755329
 20
-14.79047566707801
 10
27.7132273720433
 20
-14.76524836533497
 10
27.72491371892039
 20
-14.73988159301699
 10
27.73629742489189
 20
-14.71437746277898
 10
27.74689939813459
 20
-14.68985562636198
 10
27.7572174877351
 20
-14.66521189837
 10
27.76724827745598
 20
-14.64044812769198
 10
27.77655064628829
 20
-14.61669966419101
 10
27.78557806904329
 20
-14.59284492689799
 10
27.79391116670709
 20
-14.57002863472702
 10
27.8015809179136
 20
-14.54826619953998
 10
27.8090030306691
 20
-14.526420114238
 10
27.81579959794788
 20
-14.505647620829
 10
27.8223614167864
 20
-14.48480190218698
 10
27.82449256184229
 20
-14.47784677954798
  0
LWPOLYLINE
  5
C00
330
1E
100
AcDbEntity
  8
1
100
AcDbPolyline
 90
       61
 70
     0
 43
0.0
 10
22.17550452689998
 20
-22.65906267099999
 10
22.1765254606029
 20
-22.65817741832598
 10
22.1775608697765
 20
-22.65730668703398
 10
22.1786104267654
 20
-22.65645053258996
 10
22.17967380391459
 20
-22.65560901045998
 10
22.18075067356889
 20
-22.65478217610902
 10
22.18184070807311
 20
-22.65397008500298
 10
22.1829435797721
 20
-22.65317279260798
 10
22.1840589610106
 20
-22.652390354389
 10
22.1851865241335
 20
-22.65162282581199
 10
22.1863259414856
 20
-22.65087026234199
 10
22.18747688541189
 20
-22.65013271944498
 10
22.18863902825698
 20
-22.64941025258699
 10
22.18981204236578
 20
-22.64870291723398
 10
22.19092957584109
 20
-22.64804882217202
 10
22.19205623793119
 20
-22.64740832023701
 10
22.19319175261259
 20
-22.64678145815601
 10
22.19433584386139
 20
-22.64616828265299
 10
22.19548823565428
 20
-22.645568840455
 10
22.1966486519675
 20
-22.64498317828601
 10
22.1978168167773
 20
-22.64441134287101
 10
22.19899245406019
 20
-22.64385338093699
 10
22.20017528779237
 20
-22.64330933920902
 10
22.20136504195048
 20
-22.642779264412
 10
22.2025614405106
 20
-22.64226320327098
 10
22.20376420744929
 20
-22.641761202512
 10
22.20497306674269
 20
-22.64127330886096
 10
22.20618774236739
 20
-22.64079956904298
 10
22.20740795829969
 20
-22.64034002978302
 10
22.20863343851589
 20
-22.63989473780698
 10
22.20986390699239
 20
-22.63946373983999
 10
22.21109908770559
 20
-22.63904708260696
 10
22.21233870463179
 20
-22.63864481283496
 10
22.21350920817069
 20
-22.63827939070601
 10
22.21468316673739
 20
-22.63792679352501
 10
22.2158603502091
 20
-22.63758706024499
 10
22.21704052846328
 20
-22.63726022982198
 10
22.2182234713771
 20
-22.63694634121198
 10
22.21940894882779
 20
-22.63664543336897
 10
22.22059673069288
 20
-22.63635754524998
 10
22.2217865868495
 20
-22.63608271580796
 10
22.22297828717497
 20
-22.63582098400101
 10
22.2241716015466
 20
-22.63557238878199
 10
22.22536629984179
 20
-22.635336969107
 10
22.2265621519377
 20
-22.63511476393198
 10
22.2277589277117
 20
-22.63490581221098
 10
22.2289563970411
 20
-22.63471015290098
 10
22.23015432980319
 20
-22.63452782495602
 10
22.2313524958752
 20
-22.63435886733098
 10
22.23255066513459
 20
-22.63420331898298
 10
22.23374861003369
 20
-22.63406121736801
 10
22.2349462387012
 20
-22.63393252103397
 10
22.2361436593948
 20
-22.63381707213399
 10
22.23734099645179
 20
-22.63371470346802
 10
22.23853837420939
 20
-22.63362524783598
 10
22.23981077174737
 20
-22.63354416306099
 10
22.2410835047356
 20
-22.63347726658801
 10
22.24235672231159
 20
-22.63342435786797
 10
22.24363057361327
 20
-22.633385236351
 10
22.24498021382617
 20
-22.63335861826397
 10
22.24534529414098
 20
-22.63335400642598
  0
LWPOLYLINE
  5
C7B
330
1E
100
AcDbEntity
  8
SK1
100
AcDbPolyline
 90
       41
 70
     0
 43
0.0
 10
-13.0
 20
-12.3995967676
 10
-12.86504744002699
 20
-12.400334408515
 10
-12.730094538559
 20
-12.402543891147
 10
-12.59515996195899
 20
-12.40622005532999
 10
-12.46026237658798
 20
-12.41135774089498
 10
-12.32542044880899
 20
-12.41795178767397
 10
-12.19065284498199
 20
-12.42599703549997
 10
-12.05597823146999
 20
-12.43548832420499
 10
-11.92141527463399
 20
-12.44642049362099
 10
-11.78698242281001
 20
-12.45878810052902
 10
-11.645984218907
 20
-12.47330793117598
 10
-11.50515982974801
 20
-12.48938333124099
 10
-11.36452309816201
 20
-12.50699824532399
 10
-11.22408786697698
 20
-12.52613661802699
 10
-11.08386797902198
 20
-12.54678239395097
 10
-10.93721700555396
 20
-12.570010592261
 10
-10.79083348112299
 20
-12.59485709327897
 10
-10.644732915987
 20
-12.62130285944799
 10
-10.498927876231
 20
-12.649324662561
 10
-10.34682354478
 20
-12.680278087736
 10
-10.195067399041
 20
-12.712898011449
 10
-10.04367230755699
 20
-12.74715577078699
 10
-9.886093682123004
 20
-12.78461819474797
 10
-9.728936821687399
 20
-12.82380019466997
 10
-9.565694232625588
 20
-12.86640757714399
 10
-9.402932528451202
 20
-12.91080542687
 10
-9.234179146405296
 20
-12.95883572334899
 10
-9.065963680856995
 20
-13.00871474705
 10
-8.891857460910301
 20
-13.06242094003001
 10
-8.711936461817101
 20
-13.12011746946102
 10
-8.526276718627912
 20
-13.18196456703002
 10
-8.34131976956
 20
-13.24587840727197
 10
-8.150728493395702
 20
-13.314106558878
 10
-7.954582724159918
 20
-13.38679322963001
 10
-7.752962566953412
 20
-13.46407783757497
 10
-7.545946757517297
 20
-13.54609503817099
 10
-7.333615796162803
 20
-13.63297142368399
 10
-7.109849173836012
 20
-13.727486048827
 10
-6.880986861144792
 20
-13.82723117225499
 10
-6.640969853733293
 20
-13.93510904162297
 10
-6.500009070092803
 20
-13.99999578889399
  0
LWPOLYLINE
  5
CA6
330
1E
100
AcDbEntity
  8
SK1
100
AcDbPolyline
 90
       41
 70
     0
 43
0.0
 10
-19.5
 20
-13.99999999999998
 10
-19.25455973656201
 20
-13.887747001793
 10
-19.02018408395898
 20
-13.78378086569499
 10
-18.79083198956199
 20
-13.685164682983
 10
-18.572828002612
 20
-13.59435217562499
 10
-18.36006831233699
 20
-13.50852778730897
 10
-18.15263503392999
 20
-13.42757015934499
 10
-17.95060883215001
 20
-13.35134929448499
 10
-17.7540697198
 20
-13.279727995344
 10
-17.56309977539798
 20
-13.212564875609
 10
-17.37777875476298
 20
-13.14971244815098
 10
-17.19818309866997
 20
-13.091017513183
 10
-17.02438674611299
 20
-13.036322367825
 10
-16.849995207833
 20
-12.98354659883101
 10
-16.68150960395
 20
-12.934586357616
 10
-16.51249064648699
 20
-12.88749722751997
 10
-16.34947791866101
 20
-12.84402545067801
 10
-16.185988691329
 20
-12.802364793058
 10
-16.02860162442199
 20
-12.76411021260501
 10
-15.87080066143099
 20
-12.72759287431298
 10
-15.71919990747399
 20
-12.69425738118899
 10
-15.567245378044
 20
-12.662575913085
 10
-15.41494996676199
 20
-12.63257711576299
 10
-15.26896901255
 20
-12.60548355195096
 10
-15.12269960333201
 20
-12.57998030063897
 10
-14.976156238499
 20
-12.55608783451499
 10
-14.836032990187
 20
-12.53480097202199
 10
-14.69568846333499
 20
-12.515014650569
 10
-14.55513650179199
 20
-12.496744913226
 10
-14.41439094940499
 20
-12.48000780306399
 10
-14.27346565002499
 20
-12.46481936315298
 10
-14.139096633869
 20
-12.45180866767198
 10
-14.004590101041
 20
-12.44022977099699
 10
-13.86996347994799
 20
-12.43008944137899
 10
-13.73523544091798
 20
-12.42139283713
 10
-13.600424654328
 20
-12.414145116499
 10
-13.465549790557
 20
-12.408351437733
 10
-13.33062951998199
 20
-12.40401695908099
 10
-13.19568251298099
 20
-12.401146838791
 10
-13.060727439932
 20
-12.39974623511101
 10
-13.00001
 20
-12.39959676760393
  0
LWPOLYLINE
  5
CD1
330
1E
100
AcDbEntity
  8
SK1
100
AcDbPolyline
 90
       41
 70
     0
 43
0.0
 10
-13.0
 20
12.39959676759998
 10
-13.13495261235699
 20
12.40033440582499
 10
-13.26990556005199
 20
12.40254388171798
 10
-13.404840172709
 20
12.40622003711099
 10
-13.539737779953
 20
12.41135771383101
 10
-13.674579711407
 20
12.41795175371001
 10
-13.809347296696
 20
12.42599699857702
 10
-13.944021865443
 20
12.43548829026098
 10
-14.078584747273
 20
12.44642047059299
 10
-14.213017496502
 20
12.45878809012501
 10
-14.354015591484
 20
12.47330790330102
 10
-14.49483987295299
 20
12.489383261908
 10
-14.63547649694
 20
12.50699812304399
 10
-14.77591161947199
 20
12.52613644380899
 10
-14.91613139657999
 20
12.54678218130101
 10
-15.06278225032299
 20
12.57001036745099
 10
-15.20916565005299
 20
12.59485689921798
 10
-15.35526611042099
 20
12.62130271339999
 10
-15.50107110399498
 20
12.649324518168
 10
-15.65317542734999
 20
12.68027790976101
 10
-15.80493158113497
 20
12.712897780879
 10
-15.95632667150799
 20
12.74715548594601
 10
-16.11390525865299
 20
12.78461787024299
 10
-16.271062015479
 20
12.82379986691299
 10
-16.434304520425
 20
12.866407257641
 10
-16.59706621694099
 20
12.910805103121
 10
-16.76581963641399
 20
12.95883538593098
 10
-16.934035148779
 20
13.00871439067101
 10
-17.10814138722098
 20
13.06242056285698
 10
-17.28806237097399
 20
13.12011708084598
 10
-17.47372217920599
 20
13.18196419701401
 10
-17.658679245114
 20
13.24587807061599
 10
-17.849270647013
 20
13.31410625166201
 10
-18.045416509209
 20
13.38679293296299
 10
-18.24703678361596
 20
13.46407757824501
 10
-18.45405272900396
 20
13.54609483309899
 10
-18.66638381276301
 20
13.632971260079
 10
-18.890150553633
 20
13.727485930186
 10
-19.11901297870398
 20
13.82723110139902
 10
-19.35903008942898
 20
13.935109015658
 10
-19.49999092990698
 20
13.99999578889399
  0
LWPOLYLINE
  5
DF8
330
1E
100
AcDbEntity
  8
1
100
AcDbPolyline
 90
       29
 70
     0
 43
0.0
 10
22.28461940779998
 20
24.45171507659999
 10
22.2744047499258
 20
24.449494537478
 10
22.26365415377979
 20
24.44728025562501
 10
22.25236594977911
 20
24.44508404431501
 10
22.24053886955271
 20
24.44291700548099
 10
22.228172113019
 20
24.44078935197102
 10
22.21474867145039
 20
24.438629851278
 10
22.2007839222029
 20
24.436537515977
 10
22.18576086230608
 20
24.43444872183599
 10
22.16916080303848
 20
24.43231897244301
 10
22.15150291492749
 20
24.430241746578
 10
22.1338265761283
 20
24.42834995210299
 10
22.11561290682339
 20
24.42659230117099
 10
22.0968623699371
 20
24.42498108048799
 10
22.07757572437598
 20
24.42352832547901
 10
22.05827583052669
 20
24.42227684453802
 10
22.03844288178848
 20
24.42119603243502
 10
22.01755608150619
 20
24.42027597260198
 10
21.99561594010139
 20
24.419539401265
 10
21.9726231948133
 20
24.41900617652801
 10
21.94805635708128
 20
24.41868970209998
 10
21.9213942973538
 20
24.41862163422301
 10
21.8926397747934
 20
24.41884373073502
 10
21.864934052614
 20
24.419336509632
 10
21.84037238494169
 20
24.420029518427
 10
21.81843348258289
 20
24.42087771685699
 10
21.79807284855419
 20
24.421878058556
 10
21.7792902613149
 20
24.42299832722501
 10
21.7641794931951
 20
24.424046821473
  0
LWPOLYLINE
  5
E17
330
1E
100
AcDbEntity
  8
1
100
AcDbPolyline
 90
       71
 70
     0
 43
0.0
 10
21.57751262659999
 20
14.3728825779
 10
21.5726387167183
 20
14.376967063635
 10
21.56781722967828
 20
14.38112172763699
 10
21.563049940509
 20
14.385345955807
 10
21.55833862423919
 20
14.38963913404602
 10
21.55368505589789
 20
14.39400064825302
 10
21.54909101051387
 20
14.39842988433101
 10
21.54432142911139
 20
14.40316472515698
 10
21.5396218382216
 20
14.40797320736901
 10
21.53499430815078
 20
14.41285461471101
 10
21.53066678657819
 20
14.41755884621398
 10
21.5264079433752
 20
14.42232763212702
 10
21.52243820995799
 20
14.426904420197
 10
21.51853321820719
 20
14.43153807298999
 10
21.51469447737619
 20
14.43622806835499
 10
21.5111311923216
 20
14.440708772163
 10
21.50762961909521
 20
14.44523882653901
 10
21.5041910291239
 20
14.449817791612
 10
21.50101338269599
 20
14.454171691528
 10
21.4978937139071
 20
14.458568160816
 10
21.49483308275399
 20
14.46300683275599
 10
21.4918325492336
 20
14.467487340624
 10
21.48907507255251
 20
14.47172548615098
 10
21.4863722211046
 20
14.47599977705199
 10
21.48372486830069
 20
14.480309911157
 10
21.48113388755099
 20
14.484655586296
 10
21.47860015226619
 20
14.48903650029798
 10
21.47628774179178
 20
14.49315685061701
 10
21.47402654414269
 20
14.497307000557
 10
21.4718170870328
 20
14.501486138923
 10
21.46965989715019
 20
14.50569345133799
 10
21.46755550118269
 20
14.509928123426
 10
21.4655044258186
 20
14.51418934081003
 10
21.46350719774579
 20
14.51847628911401
 10
21.46156434365229
 20
14.522788153961
 10
21.4598094121283
 20
14.52681362709999
 10
21.45810224012059
 20
14.53085923017501
 10
21.45644324932499
 20
14.53492431115002
 10
21.45483286143748
 20
14.539008217989
 10
21.45327149815398
 20
14.54311029865699
 10
21.45175958117039
 20
14.54722990111902
 10
21.45029753218259
 20
14.551366373339
 10
21.44888577288659
 20
14.555519063282
 10
21.44752472497819
 20
14.55968731891199
 10
21.44621481015346
 20
14.563870488195
 10
21.4450514070904
 20
14.56774454830501
 10
21.44393226403548
 20
14.57163024748101
 10
21.44285771266388
 20
14.575527072881
 10
21.44182808465078
 20
14.57943451166001
 10
21.44084371167167
 20
14.58335205097599
 10
21.43990492540158
 20
14.58727917798501
 10
21.43901205751589
 20
14.591215379843
 10
21.4381654396899
 20
14.59516014370801
 10
21.43736540359871
 20
14.59911295673399
 10
21.43661228091771
 20
14.60307330608002
 10
21.4359064033221
 20
14.60704067890199
 10
21.4352481024872
 20
14.611014562356
 10
21.43463771008819
 20
14.614994443598
 10
21.4341205532265
 20
14.618647498957
 10
21.43364418693269
 20
14.62230476817301
 10
21.43320886668111
 20
14.62596585622597
 10
21.43281484794619
 20
14.62963036809701
 10
21.43246234453239
 20
14.633297914897
 10
21.43215128591247
 20
14.636968149574
 10
21.4318814828155
 20
14.64064074254999
 10
21.4316527455733
 20
14.64431536430399
 10
21.4314648845178
 20
14.647991685316
 10
21.43131770998079
 20
14.65166937606399
 10
21.43120333587599
 20
14.655682577309
 10
21.43113691012938
 20
14.65969658868998
 10
21.4311181740793
 20
14.66370098240799
  0
LWPOLYLINE
  5
E60
330
1E
100
AcDbEntity
  8
1
100
AcDbPolyline
 90
       19
 70
     0
 43
0.0
 10
21.7642002954
 20
2.472667805599976
 10
21.76005280208879
 20
2.474334976977993
 10
21.75583982118819
 20
2.47608265576299
 10
21.7515627890134
 20
2.477912853341971
 10
21.74730490128179
 20
2.479790961417998
 10
21.74298525667738
 20
2.481753645598995
 10
21.73860545249748
 20
2.483802788802004
 10
21.73416715837139
 20
2.485940225868016
 10
21.72967211862689
 20
2.488167738880016
 10
21.72512215469998
 20
2.490487052388016
 10
21.7204400461422
 20
2.492941888336996
 10
21.7157078843272
 20
2.495493604243004
 10
21.7109277936035
 20
2.498143705453979
 10
21.706024425552
 20
2.500938427108998
 10
21.70107877009619
 20
2.503836102673016
 10
21.69601688952599
 20
2.506884584963995
 10
21.6908432000334
 20
2.510087695675998
 10
21.68556238471829
 20
2.513449108634979
 10
21.68489518219129
 20
2.513880470806026
  0
LWPOLYLINE
  5
E75
330
1E
100
AcDbEntity
  8
1
100
AcDbPolyline
 90
       78
 70
     0
 43
0.0
 10
21.6848867888
 20
2.513885906899997
 10
21.67890002096321
 20
2.517823084776985
 10
21.6729682999201
 20
2.52184284178399
 10
21.6670915421711
 20
2.525943534246986
 10
21.6612696642165
 20
2.530123518489979
 10
21.65506122816541
 20
2.534711830081004
 10
21.6489162385577
 20
2.539388142184984
 10
21.64283459110469
 20
2.544150401893015
 10
21.6363887121788
 20
2.549345866195985
 10
21.6300152994705
 20
2.554635113194005
 10
21.623714224709
 20
2.560015617895015
 10
21.61707266626409
 20
2.565852564234016
 10
21.610513447201
 20
2.571787665411005
 10
21.6040385362635
 20
2.57781950565599
 10
21.5976504937188
 20
2.583947128243985
 10
21.59135188021228
 20
2.590169576744994
 10
21.58476045519769
 20
2.596883759526983
 10
21.57865437612071
 20
2.603298765867017
 10
21.5726455680584
 20
2.609805669048009
 10
21.56710292947598
 20
2.615988501239979
 10
21.56165014347021
 20
2.622250473452004
 10
21.55628931994787
 20
2.628590797607991
 10
21.55102256881578
 20
2.635008685633021
 10
21.54619366992929
 20
2.64106799908502
 10
21.54145027194271
 20
2.647193552048984
 10
21.53679409028848
 20
2.653384703791016
 10
21.53222684039888
 20
2.659640813578995
 10
21.5280669523128
 20
2.665507662285004
 10
21.5239865977809
 20
2.671429455256014
 10
21.5199871502746
 20
2.677405679484973
 10
21.51606998326478
 20
2.683435821961985
 10
21.51223647022278
 20
2.689519369681999
 10
21.5087732796826
 20
2.695181909636015
 10
21.50538359066478
 20
2.700889093341981
 10
21.50206795624299
 20
2.706640129967985
 10
21.4988265013246
 20
2.712433914105
 10
21.4956593369296
 20
2.718269330141005
 10
21.49256657407808
 20
2.724145262464995
 10
21.48954832378989
 20
2.730060595466009
 10
21.4866046970852
 20
2.736014213531984
 10
21.48373580498379
 20
2.742005001049999
 10
21.48094175850578
 20
2.748031842410009
 10
21.47822266867119
 20
2.754093621998986
 10
21.47557864649998
 20
2.760189224207019
 10
21.47300980301197
 20
2.766317533420997
 10
21.4705162492275
 20
2.772477434030018
 10
21.46809809616619
 20
2.778667810421989
 10
21.46575545484828
 20
2.784887546986009
 10
21.4634884362937
 20
2.791135528110014
 10
21.46129715152239
 20
2.797410638181001
 10
21.4591817115545
 20
2.803711761589977
 10
21.4571422274097
 20
2.810037782723025
 10
21.45517881010829
 20
2.816387585969021
 10
21.4532915706702
 20
2.822760055718001
 10
21.45148062011529
 20
2.829154076356029
 10
21.4497460694636
 20
2.835568532272001
 10
21.44808802973519
 20
2.842002307855988
 10
21.44650661195008
 20
2.848454287494018
 10
21.4450019271281
 20
2.854923355575987
 10
21.44357408628889
 20
2.861408396492021
 10
21.44222319131729
 20
2.867908334714013
 10
21.44094931155398
 20
2.87442223751999
 10
21.43975250909569
 20
2.880949203971972
 10
21.43863284603888
 20
2.887488333133017
 10
21.4375903844802
 20
2.894038724067013
 10
21.43662518651621
 20
2.900599475836978
 10
21.43573731424328
 20
2.90716968750699
 10
21.43492682975808
 20
2.913748458140002
 10
21.4341937951573
 20
2.920334886799008
 10
21.43353827253728
 20
2.92692807254799
 10
21.43296032399469
 20
2.933527114449998
 10
21.4324600116261
 20
2.940131111568982
 10
21.43203739752798
 20
2.946739162967001
 10
21.43169254379698
 20
2.953350367709003
 10
21.4314255125296
 20
2.959963824856981
 10
21.43123636582239
 20
2.966578633475005
 10
21.431125165772
 20
2.973193892627005
 10
21.43109176050498
 20
2.979247506498989
  0
LWPOLYLINE
  5
F0E
330
1E
100
AcDbEntity
  8
1
100
AcDbPolyline
 90
       92
 70
     0
 43
0.0
 10
22.28461940779998
 20
2.60377291309997
 10
22.27915949607669
 20
2.59804516921299
 10
22.2736084490011
 20
2.59239962908101
 10
22.26796776295949
 20
2.586837881049016
 10
22.26223893433858
 20
2.58136151345898
 10
22.25642345952479
 20
2.575972114657
 10
22.2505228349046
 20
2.570671272984025
 10
22.24453855686459
 20
2.565460576785009
 10
22.23890813127578
 20
2.560704178518999
 10
22.23320806429498
 20
2.556028148985979
 10
22.227439554013
 20
2.55143375990199
 10
22.22160379852048
 20
2.546922282985015
 10
22.2157019959084
 20
2.542494989950975
 10
22.2097353442675
 20
2.538153152518002
 10
22.20417114364779
 20
2.53422225054599
 10
22.19855365024019
 20
2.530366246646008
 10
22.19288380637549
 20
2.526586141058015
 10
22.18716255438458
 20
2.522882934022
 10
22.18139083659829
 20
2.519257625776003
 10
22.17556959534757
 20
2.515711216562019
 10
22.1696997729919
 20
2.512244706618997
 10
22.16378237355171
 20
2.508859099285996
 10
22.1583173162666
 20
2.505827561706019
 10
22.15281423618719
 20
2.502865637676006
 10
22.14727408339109
 20
2.499974108896005
 10
22.14169780795578
 20
2.497153757062998
 10
22.13608635995878
 20
2.494405363876985
 10
22.13044068947789
 20
2.491729711035
 10
22.12476174659049
 20
2.489127580235997
 10
22.1190504813743
 20
2.486599753178985
 10
22.11330784390677
 20
2.48414701156103
 10
22.1080608400006
 20
2.481983061017996
 10
22.10278940760948
 20
2.479882397891014
 10
22.0974942605407
 20
2.477845609481998
 10
22.09217611260159
 20
2.475873283092009
 10
22.08683567759959
 20
2.473966006021993
 10
22.081473669342
 20
2.472124365574993
 10
22.0760908016361
 20
2.470348949050996
 10
22.07068778828918
 20
2.46864034375299
 10
22.06526534310878
 20
2.466999136982004
 10
22.0598241799022
 20
2.465425916040015
 10
22.05436501247659
 20
2.463921268228017
 10
22.04888855463948
 20
2.462485780848004
 10
22.04339552019819
 20
2.461120041200994
 10
22.0378866229601
 20
2.459824636589029
 10
22.0329156422691
 20
2.458719349876965
 10
22.02737856397078
 20
2.457558376639989
 10
22.021827672209
 20
2.456467384122003
 10
22.01626366777229
 20
2.45544566612697
 10
22.01068725144949
 20
2.454492516463017
 10
22.00509912402929
 20
2.453607228936002
 10
21.9994999863005
 20
2.452789097352999
 10
21.99389053905169
 20
2.452037415521016
 10
21.98827148307179
 20
2.451351477245975
 10
21.98264351914938
 20
2.450730576335995
 10
21.9770073480733
 20
2.450174006595017
 10
21.9713636706321
 20
2.449681061832006
 10
21.96514779198661
 20
2.449211466599999
 10
21.95892461134359
 20
2.44881706315301
 10
21.9526950614529
 20
2.44849691154702
 10
21.94646007506439
 20
2.448250071839976
 10
21.94022058492769
 20
2.448075604087998
 10
21.9339775237927
 20
2.447972568348018
 10
21.9277318244092
 20
2.447940024675979
 10
21.921484419527
 20
2.447977033129015
 10
21.91466821966578
 20
2.44809562541199
 10
21.90785231113248
 20
2.448294651559006
 10
21.90103790488989
 20
2.448572891268025
 10
21.89422621215137
 20
2.448929125766976
 10
21.8874185579743
 20
2.449362831858973
 10
21.8806165609449
 20
2.449875279777995
 10
21.87382188631619
 20
2.450468024885974
 10
21.8676012893419
 20
2.451083241808996
 10
21.8613895271623
 20
2.451768435639004
 10
21.85518788244638
 20
2.452524804402011
 10
21.84899763786289
 20
2.453353546124001
 10
21.84282007608099
 20
2.454255858830987
 10
21.8366564797693
 20
2.45523294054798
 10
21.83106640852239
 20
2.456187086960009
 10
21.8254899027315
 20
2.457204916141999
 10
21.819927926085
 20
2.458287328187005
 10
21.8143814422708
 20
2.45943522319099
 10
21.80885141497719
 20
2.460649501247996
 10
21.80333880789218
 20
2.461931062453015
 10
21.79784458470409
 20
2.46328080689899
 10
21.79236970910078
 20
2.464699634682015
 10
21.78691514477069
 20
2.466188445896997
 10
21.7820241995003
 20
2.467588955751987
 10
21.77715118947709
 20
2.46904753743099
 10
21.7722968172299
 20
2.47056484710499
 10
21.76746178528709
 20
2.472141540941018
 10
21.76425898345768
 20
2.473222747407
  0
LWPOLYLINE
  5
F6C
330
1E
100
AcDbEntity
  8
1
100
AcDbPolyline
 90
        6
 70
     0
 43
0.0
 10
21.76424952219999
 20
2.473225985400017
 10
21.7602275375835
 20
2.474626395150985
 10
21.75623779342959
 20
2.47606347752399
 10
21.75229820901857
 20
2.477530379810994
 10
21.74839204841288
 20
2.479032927802006
 10
21.74696014814121
 20
2.47959594667598
  0
LWPOLYLINE
  5
FAC
330
1E
100
AcDbEntity
  8
1
100
AcDbPolyline
 90
        2
 70
     0
 43
0.0
 10
21.7466567429
 20
-22.89297211220002
 10
21.76386122649469
 20
-22.89568235308498
  0
LWPOLYLINE
  5
FB0
330
1E
100
AcDbEntity
  8
1
100
AcDbPolyline
 90
        2
 70
     0
 43
0.0
 10
21.74667564889998
 20
-22.8928546218
 10
21.76384032785438
 20
-22.89567643789299
  0
LWPOLYLINE
  5
FE3
330
1E
100
AcDbEntity
  8
1
100
AcDbPolyline
 90
        6
 70
     0
 43
0.0
 10
21.76416803070001
 20
24.4239305388
 10
21.74231002074308
 20
24.42589197494202
 10
21.72441361128711
 20
24.42768123706601
 10
21.7088207638301
 20
24.42940047638002
 10
21.6948989422277
 20
24.43107920675602
 10
21.68540267258161
 20
24.432310045883
  0
LWPOLYLINE
  5
FEB
330
1E
100
AcDbEntity
  8
1
100
AcDbPolyline
 90
       14
 70
     0
 43
0.0
 10
21.68539276049998
 20
24.432311369
 10
21.67328116925939
 20
24.43399074164497
 10
21.66208811091589
 20
24.43566107125299
 10
21.6516336095881
 20
24.437332800004
 10
21.6419173292245
 20
24.43899054010002
 10
21.63257913878678
 20
24.440684743446
 10
21.62379820547929
 20
24.44237376745899
 10
21.6153944281203
 20
24.44408232712
 10
21.60665355495358
 20
24.44595672727798
 10
21.59686524919369
 20
24.44816366469702
 10
21.58532451614498
 20
24.450894013013
 10
21.57080030680619
 20
24.454493360916
 10
21.54712508366351
 20
24.460634087336
 10
21.50726474344148
 20
24.47121588045401
  0
LWPOLYLINE
  5
FFB
330
1E
100
AcDbEntity
  8
1
100
AcDbPolyline
 90
       87
 70
     0
 43
0.0
 10
21.5072550712
 20
24.4712184197
 10
21.50413159305779
 20
24.47204499821701
 10
21.5004986392409
 20
24.47302919958501
 10
21.4974179858149
 20
24.47389050714899
 10
21.4946159443224
 20
24.474701004451
 10
21.49210024193768
 20
24.47545488798998
 10
21.48977868993549
 20
24.47617594070099
 10
21.4876538989106
 20
24.476859899003
 10
21.48563092650771
 20
24.477534758782
 10
21.48371100086289
 20
24.47819870996601
 10
21.48189482522258
 20
24.47884972906702
 10
21.48018264619798
 20
24.47948562302299
 10
21.47857431860728
 20
24.48010407085599
 10
21.47697561165597
 20
24.48074062123602
 10
21.47548073576319
 20
24.48135690712901
 10
21.47399630401157
 20
24.48199046318999
 10
21.47261496337188
 20
24.48260063917702
 10
21.47124438907499
 20
24.48322701343399
 10
21.4699755774216
 20
24.48382667898898
 10
21.46871743764787
 20
24.48444128576601
 10
21.46747059405701
 20
24.485071234806
 10
21.46632347111327
 20
24.485670275619
 10
21.4651871263995
 20
24.48628321211197
 10
21.46406205976759
 20
24.486910365382
 10
21.4629487710694
 20
24.48755205652399
 10
21.46193200603061
 20
24.488157567935
 10
21.460926095684
 20
24.488775992794
 10
21.45993143317669
 20
24.48940758365099
 10
21.45894841165588
 20
24.490052593057
 10
21.45797742426847
 20
24.49071127356301
 10
21.45709825992399
 20
24.49132728940502
 10
21.45622984077041
 20
24.49195519951
 10
21.45537246963121
 20
24.49259519840599
 10
21.4545264493298
 20
24.493247480622
 10
21.45369208268939
 20
24.49391224068601
 10
21.4528696725334
 20
24.494589673127
 10
21.4520595216851
 20
24.49527997247402
 10
21.45133391397379
 20
24.495918846521
 10
21.4506189157047
 20
24.496568661294
 10
21.44991475439347
 20
24.49722956294499
 10
21.44922165755578
 20
24.49790169762501
 10
21.4485398527072
 20
24.498585211487
 10
21.44786956736357
 20
24.49928025068401
 10
21.4472110290404
 20
24.49998696136701
 10
21.44656446525338
 20
24.500705489688
 10
21.44599298411529
 20
24.50136239005199
 10
21.44543155249809
 20
24.50202908763201
 10
21.44488033626071
 20
24.50270568897099
 10
21.44433950126201
 20
24.503392300616
 10
21.443809213361
 20
24.504089029111
 10
21.44328964036798
 20
24.50479596181101
 10
21.44278097462807
 20
24.505512944817
 10
21.44228342523978
 20
24.506239659488
 10
21.4418506606624
 20
24.50689353771001
 10
21.44142699192868
 20
24.507554624837
 10
21.44101256612269
 20
24.50822269484298
 10
21.44060753032837
 20
24.50889752169699
 10
21.44021203162989
 20
24.50957887937299
 10
21.43982621711109
 20
24.510266541841
 10
21.43945023385608
 20
24.510960283074
 10
21.43908422894888
 20
24.51165987704198
 10
21.43872834947361
 20
24.51236509771598
 10
21.43838274251419
 20
24.51307571907001
 10
21.43808887872539
 20
24.51370176531002
 10
21.43780309097758
 20
24.51433162196998
 10
21.43752547780548
 20
24.51496513762899
 10
21.43725613774411
 20
24.51560216086501
 10
21.43699516932799
 20
24.51624254025701
 10
21.43674267109211
 20
24.51688612438401
 10
21.4364987415713
 20
24.517532761824
 10
21.43626347930019
 20
24.51818230115499
 10
21.43603698281371
 20
24.51883459095701
 10
21.43581935064669
 20
24.51948947980699
 10
21.4356106813339
 20
24.52014681628502
 10
21.43541107341011
 20
24.52080644896902
 10
21.43522062541009
 20
24.52146822643799
 10
21.43503943586869
 20
24.52213199726998
 10
21.43486760332078
 20
24.52279761004301
 10
21.43470522630121
 20
24.52346491333701
 10
21.43457364651828
 20
24.52403811832501
 10
21.4344491480982
 20
24.52461235872401
 10
21.4343317930918
 20
24.52518753917901
 10
21.43422164355019
 20
24.52576356433199
 10
21.43411876152461
 20
24.526340338829
 10
21.43402320906598
 20
24.526917767314
 10
21.4339350482255
 20
24.527495754431
 10
21.43386861268179
 20
24.52796785848601
  0
LWPOLYLINE
  5
1054
330
1E
100
AcDbEntity
  8
1
100
AcDbPolyline
 90
      116
 70
     0
 43
0.0
 10
26.49999999999999
 20
-14.63839849779996
 10
26.52602867511939
 20
-14.63824702982797
 10
26.55205943850029
 20
-14.63779231419898
 10
26.57808803246239
 20
-14.63703388334097
 10
26.60411019932499
 20
-14.63597126968601
 10
26.6301216814077
 20
-14.63460400566098
 10
26.65611822103008
 20
-14.63293162369699
 10
26.6820955605115
 20
-14.63095365622297
 10
26.7080494421715
 20
-14.62866963566999
 10
26.7339756083297
 20
-14.62607909446496
 10
26.75986980130538
 20
-14.62318156503902
 10
26.78572776341828
 20
-14.61997657982198
 10
26.81154523698789
 20
-14.616463671243
 10
26.837317974949
 20
-14.612642239971
 10
26.8630417798869
 20
-14.60851107042098
 10
26.88871246889029
 20
-14.60406876698401
 10
26.9121937004387
 20
-14.59972214105799
 10
26.93562356313639
 20
-14.59511182853698
 10
26.95899883507809
 20
-14.59023675442999
 10
26.9823162943584
 20
-14.58509584374799
 10
27.00557271907189
 20
-14.57968802150098
 10
27.0287648873132
 20
-14.574012212699
 10
27.05188957717699
 20
-14.56806734235301
 10
27.07494356675788
 20
-14.561852335474
 10
27.09792363415048
 20
-14.55536611707097
 10
27.1208265523807
 20
-14.54860761004501
 10
27.1436485860743
 20
-14.54157552570602
 10
27.16638506440379
 20
-14.53426818603098
 10
27.18903121597398
 20
-14.526683871146
 10
27.21158226938989
 20
-14.51882086117199
 10
27.23403345325609
 20
-14.51067743623497
 10
27.25637999617759
 20
-14.502251876458
 10
27.2786171267592
 20
-14.49354246196499
 10
27.30074007360589
 20
-14.48454747287898
 10
27.32274406532229
 20
-14.47526518932399
 10
27.34462433051339
 20
-14.46569389142298
 10
27.36637609778409
 20
-14.45583185930097
 10
27.38603491020848
 20
-14.44661263829898
 10
27.40557989961339
 20
-14.43715041847998
 10
27.42500632771768
 20
-14.42744380150098
 10
27.44430881470799
 20
-14.41749132996299
 10
27.46348197171089
 20
-14.40729154563398
 10
27.4825204098532
 20
-14.39684299028097
 10
27.50141874026128
 20
-14.38614420567297
 10
27.5201715740621
 20
-14.375193733577
 10
27.5387735223822
 20
-14.36399011576098
 10
27.5572191963481
 20
-14.35253189399297
 10
27.5755032070866
 20
-14.34081761003996
 10
27.59362016572428
 20
-14.328845805671
 10
27.61156468338779
 20
-14.31661502265301
 10
27.6293313712039
 20
-14.30412380275298
 10
27.64691467559588
 20
-14.29137073308198
 10
27.66430738973189
 20
-14.278354855879
 10
27.68150135245628
 20
-14.265075476104
 10
27.6984883910692
 20
-14.25153190189199
 10
27.71526033287079
 20
-14.23772344137999
 10
27.731809005161
 20
-14.22364940270701
 10
27.7481262352401
 20
-14.20930909400799
 10
27.7642038504081
 20
-14.19470182341997
 10
27.78003367796519
 20
-14.17982689908098
 10
27.79560754521139
 20
-14.164683629126
 10
27.81091727944689
 20
-14.14927132169397
 10
27.8244634517981
 20
-14.135169646136
 10
27.83778307708946
 20
-14.12084900945898
 10
27.8508693007348
 20
-14.106309907223
 10
27.86371410884459
 20
-14.09155412776696
 10
27.87492250319198
 20
-14.07825749513198
 10
27.885928070024
 20
-14.06479246253199
 10
27.8967251248989
 20
-14.05116034845697
 10
27.9073079833754
 20
-14.03736247139399
 10
27.91767096101189
 20
-14.02340014983501
 10
27.927808373367
 20
-14.00927470226598
 10
27.93648910643179
 20
-13.99678215784801
 10
27.94498898079588
 20
-13.98416661283301
 10
27.95330418832749
 20
-13.97142895050497
 10
27.96143092089478
 20
-13.95857005415
 10
27.96936537036639
 20
-13.94559080705299
 10
27.97710372861039
 20
-13.93249209249701
 10
27.98464218379639
 20
-13.91927490259199
 10
27.9919768872037
 20
-13.90594131480601
 10
27.99910396892351
 20
-13.89249402998999
 10
28.0050447125474
 20
-13.88087934523001
 10
28.01082763721889
 20
-13.86918482321497
 10
28.0164503057519
 20
-13.85741216945
 10
28.0219102809603
 20
-13.84556308943901
 10
28.02720512565819
 20
-13.83363928868398
 10
28.03233240265949
 20
-13.82164247268998
 10
28.0372896747782
 20
-13.80957434696002
 10
28.0420745048281
 20
-13.79743661699698
 10
28.04668445562329
 20
-13.78523098830499
 10
28.0511170899776
 20
-13.77295916638799
 10
28.0553699707052
 20
-13.76062285674898
 10
28.05944066061988
 20
-13.74822376489099
 10
28.0633267225356
 20
-13.73576359631899
 10
28.06702571926638
 20
-13.72324405653499
 10
28.0705352184637
 20
-13.71066685818998
 10
28.0738532376111
 20
-13.69803437844099
 10
28.07697860304688
 20
-13.68535018931602
 10
28.0799102255956
 20
-13.67261798764699
 10
28.08220446056139
 20
-13.66197381042597
 10
28.0843627651742
 20
-13.651300997777
 10
28.08638450912429
 20
-13.64060168907401
 10
28.08826906210189
 20
-13.62987802368597
 10
28.0900157937973
 20
-13.61913214098699
 10
28.0916240739007
 20
-13.60836618034598
 10
28.09309327210229
 20
-13.59758228113601
 10
28.09442275809228
 20
-13.58678258272699
 10
28.0956119015612
 20
-13.57596922449199
 10
28.0966600721989
 20
-13.56514434580098
 10
28.0975666396959
 20
-13.554310086025
 10
28.0983309737423
 20
-13.54346858453799
 10
28.09895244402839
 20
-13.53262198070798
 10
28.09943042024448
 20
-13.52177241390897
 10
28.0997642720807
 20
-13.51092202351098
 10
28.0999533692273
 20
-13.50007294888597
 10
28.09999999993799
 20
-13.491406074202
  0
LWPOLYLINE
  5
10CA
330
1E
100
AcDbEntity
  8
1
100
AcDbPolyline
 90
      108
 70
     0
 43
0.0
 10
28.09999999999999
 20
2.088008968099992
 10
28.09995419975878
 20
2.093776293604018
 10
28.09981735461938
 20
2.099545698959995
 10
28.09959029795789
 20
2.105315865406998
 10
28.09927386315048
 20
2.111085474189005
 10
28.09886888357329
 20
2.116853206544996
 10
28.0983761926026
 20
2.12261774371701
 10
28.0975842717661
 20
2.130296543657987
 10
28.09663987653109
 20
2.137964192864
 10
28.09554498230778
 20
2.14561756538999
 10
28.09430156450629
 20
2.153253535289004
 10
28.092911598537
 20
2.160868976612996
 10
28.09137705980999
 20
2.168460763416967
 10
28.08969992373539
 20
2.17602576975299
 10
28.0878821657235
 20
2.183560869674987
 10
28.08592576118439
 20
2.191062937234999
 10
28.08383268552828
 20
2.198528846487997
 10
28.0816049141655
 20
2.205955471485974
 10
28.07924442250611
 20
2.213339686283017
 10
28.07675318596039
 20
2.22067836493199
 10
28.07413317993839
 20
2.227968381484976
 10
28.0713863798504
 20
2.235206609997998
 10
28.0685147732554
 20
2.242389977650995
 10
28.0655206675426
 20
2.249516810314996
 10
28.0624067141352
 20
2.256586938395013
 10
28.05917558145349
 20
2.263600266629004
 10
28.055829937918
 20
2.270556699754004
 10
28.05237245194919
 20
2.277456142508023
 10
28.04880579196757
 20
2.284298499630021
 10
28.0451326263935
 20
2.291083675855996
 10
28.04039546110839
 20
2.299484590381019
 10
28.03550126200079
 20
2.307795824851984
 10
28.03045524082939
 20
2.316017193210009
 10
28.0252626093531
 20
2.324148509397029
 10
28.0199285793304
 20
2.332189587355013
 10
28.01445836252019
 20
2.340140241023997
 10
28.008857170681
 20
2.348000284344984
 10
28.00313021557169
 20
2.355769531260999
 10
27.99609920008018
 20
2.364972514334009
 10
27.98890359633119
 20
2.374044161147998
 10
27.98155241024229
 20
2.382984150195009
 10
27.9740538522012
 20
2.391792515864985
 10
27.9664130688682
 20
2.400470663174
 10
27.95732494706029
 20
2.410432901395985
 10
27.94805624398319
 20
2.420223014371978
 10
27.93861396133598
 20
2.429843757095009
 10
27.9290051008181
 20
2.439297884556005
 10
27.91923666412869
 20
2.44858815174499
 10
27.90931565296689
 20
2.457717313654975
 10
27.89924906903221
 20
2.466688125276002
 10
27.88757513107469
 20
2.476750117201997
 10
27.8757306538431
 20
2.486612995024993
 10
27.86372608885328
 20
2.496280871149973
 10
27.8515718876215
 20
2.505757857986004
 10
27.83927850166378
 20
2.515048067938021
 10
27.82685550977019
 20
2.524155492460985
 10
27.8143084409227
 20
2.533083561730999
 10
27.8000501003801
 20
2.54291732248897
 10
27.7856464376937
 20
2.552532874490998
 10
27.7711036536492
 20
2.561934870055018
 10
27.7564279490325
 20
2.571127961499978
 10
27.74162552462939
 20
2.58011680114499
 10
27.72670258122589
 20
2.588906041308983
 10
27.70998772543399
 20
2.598443424071017
 10
27.6931402419229
 20
2.60774651310701
 10
27.67616863657149
 20
2.616821690196994
 10
27.65908141525889
 20
2.625675337126021
 10
27.64016207255259
 20
2.635166089958015
 10
27.62112241016319
 20
2.644403875277969
 10
27.60196768725288
 20
2.653393819344993
 10
27.5827026790901
 20
2.662140779586005
 10
27.5633321609431
 20
2.670649613429
 10
27.5420859641097
 20
2.679666103200001
 10
27.52072608423659
 20
2.68841128988098
 10
27.499258720921
 20
2.696891479733019
 10
27.4776900737602
 20
2.705112979019995
 10
27.4542169337387
 20
2.713734992250985
 10
27.4306400840296
 20
2.722068822315983
 10
27.40696740687539
 20
2.730122487074005
 10
27.3813749868851
 20
2.738490966867979
 10
27.35568572450319
 20
2.746549636655013
 10
27.32990428391829
 20
2.754303875510976
 10
27.30403532858639
 20
2.761759061857
 10
27.27808352196348
 20
2.768920574114995
 10
27.2501913735202
 20
2.776273845128977
 10
27.2222152044805
 20
2.783302779706
 10
27.19416075069149
 20
2.790013993069986
 10
27.16415617546338
 20
2.796829874752017
 10
27.13407601690009
 20
2.803299815381003
 10
27.1039270254587
 20
2.80943157673199
 10
27.07371397741639
 20
2.815230422566013
 10
27.0415465620649
 20
2.821031279846988
 10
27.00931542817679
 20
2.826465366977015
 10
26.9770249972889
 20
2.831537343293018
 10
26.944679690938
 20
2.836251868133027
 10
26.91228393066079
 20
2.840613600832977
 10
26.87793245821078
 20
2.844852552915008
 10
26.84353462712079
 20
2.848706741670988
 10
26.8090956831479
 20
2.852181680169005
 10
26.77462065520968
 20
2.855281525267978
 10
26.7401142066731
 20
2.858008147510997
 10
26.70558096574729
 20
2.860363197546018
 10
26.67102556064119
 20
2.862348326021002
 10
26.63645261956379
 20
2.863965183587008
 10
26.59994504919128
 20
2.86527416201299
 10
26.56342854024639
 20
2.866176594372983
 10
26.5269085359536
 20
2.866674421989995
 10
26.5000100000002
 20
2.866783473385006
  0
LWPOLYLINE
  5
11C4
330
1E
100
AcDbEntity
  8
1
100
AcDbPolyline
 90
        2
 70
     0
 43
0.0
 10
22.28461940779998
 20
2.60377291309997
 10
22.5320999189356
 20
2.86677619952
  0
LWPOLYLINE
  5
1246
330
1E
100
AcDbEntity
  8
1
100
AcDbPolyline
 90
        2
 70
     0
 43
0.0
 10
21.82499999999998
 20
14.1677755738
 10
21.5775203348618
 20
14.37287620744498
  0
LWPOLYLINE
  5
13E0
330
1E
100
AcDbEntity
  8
1
100
AcDbPolyline
 90
        2
 70
     0
 43
0.0
 10
21.57751262659999
 20
-22.52604860239999
 10
21.82499094219719
 20
-22.411294566077
  0
LWPOLYLINE
  5
13E4
330
1E
100
AcDbEntity
  8
1
100
AcDbPolyline
 90
        2
 70
     0
 43
0.0
 10
22.53210678119998
 20
-14.63839849779996
 10
22.28462710863269
 20
-14.43428744093397
  0
LWPOLYLINE
  5
13E8
330
1E
100
AcDbEntity
  8
1
100
AcDbPolyline
 90
      155
 70
     0
 43
0.0
 10
21.4311106193
 20
-14.72551731569997
 10
21.43116165666639
 20
-14.72004229677198
 10
21.43130193386999
 20
-14.71456532028899
 10
21.43153109710659
 20
-14.709087979177
 10
21.43184879257229
 20
-14.70361186636498
 10
21.43225466646279
 20
-14.69813857477801
 10
21.432748364974
 20
-14.69266969734499
 10
21.43332953430189
 20
-14.68720682699297
 10
21.4339978206422
 20
-14.681751556649
 10
21.43475287019089
 20
-14.67630547923898
 10
21.43559432914389
 20
-14.67087018769198
 10
21.4365218436971
 20
-14.66544727493497
 10
21.43753506004629
 20
-14.660038333894
 10
21.43863362438748
 20
-14.654644957498
 10
21.43981718291639
 20
-14.64926873867197
 10
21.44108538182897
 20
-14.64391127034598
 10
21.44243786732129
 20
-14.63857414544396
 10
21.44387428558899
 20
-14.633258956896
 10
21.445394282828
 20
-14.62796729762801
 10
21.44699750523428
 20
-14.62270076056701
 10
21.44868359900369
 20
-14.617460938641
 10
21.4504521352582
 20
-14.61224933381702
 10
21.45230221417257
 20
-14.607066877467
 10
21.45423275371407
 20
-14.60191428020097
 10
21.4562426714554
 20
-14.596792252149
 10
21.45833088496928
 20
-14.59170150344401
 10
21.4604963118285
 20
-14.586642744216
 10
21.4627378696056
 20
-14.58161668459799
 10
21.46505447587327
 20
-14.57662403471998
 10
21.46744504820439
 20
-14.571665504715
 10
21.46990850417159
 20
-14.566741804714
 10
21.47244376134748
 20
-14.561853644848
 10
21.47504973730489
 20
-14.55700173524799
 10
21.47772534961637
 20
-14.552186786047
 10
21.48102648031998
 20
-14.54645863459701
 10
21.484424458244
 20
-14.54078595581599
 10
21.48791741295389
 20
-14.535169976813
 10
21.4915034740153
 20
-14.52961192469401
 10
21.4951807709939
 20
-14.52411302656698
 10
21.4989474334553
 20
-14.51867450953899
 10
21.5028015909651
 20
-14.51329760071699
 10
21.506741373089
 20
-14.50798352720802
 10
21.51076490939249
 20
-14.50273351611999
 10
21.51487032944138
 20
-14.497548794559
 10
21.51905576280119
 20
-14.49243058963297
 10
21.52403740097198
 20
-14.48654505726499
 10
21.52912255091949
 20
-14.480753372612
 10
21.5343087958786
 20
-14.47505607509798
 10
21.5395938158776
 20
-14.46945345768297
 10
21.54497529094489
 20
-14.463945813323
 10
21.5504509011087
 20
-14.45853343497698
 10
21.55601832639749
 20
-14.45321661560198
 10
21.5616752468395
 20
-14.44799564815601
 10
21.56741934246308
 20
-14.44287082559698
 10
21.5732482932967
 20
-14.43784244088298
 10
21.57915977936848
 20
-14.43291078697098
 10
21.58515148070689
 20
-14.42807615681898
 10
21.59122107734019
 20
-14.42333884338599
 10
21.59736624929679
 20
-14.41869913962797
 10
21.60358467660498
 20
-14.41415733850297
 10
21.6098740392931
 20
-14.40971373296999
 10
21.61623201738949
 20
-14.405368615986
 10
21.62265629092249
 20
-14.40112228050897
 10
21.62914453992039
 20
-14.39697501949599
 10
21.63569444441157
 20
-14.39292712590598
 10
21.64230368442439
 20
-14.38897889269598
 10
21.64896994044019
 20
-14.38513061261697
 10
21.65569108518551
 20
-14.38138249065699
 10
21.66246548143837
 20
-14.37773450808396
 10
21.66929156892719
 20
-14.37418661103801
 10
21.67616778737979
 20
-14.37073874566
 10
21.6830925765243
 20
-14.36739085808896
 10
21.69006437608879
 20
-14.36414289446399
 10
21.6970816258012
 20
-14.360994800927
 10
21.7041427653897
 20
-14.35794652361598
 10
21.71124623458229
 20
-14.35499800867198
 10
21.71839047310699
 20
-14.35214920223496
 10
21.7255739206919
 20
-14.34940005044397
 10
21.732795017065
 20
-14.34675049944
 10
21.7400522019545
 20
-14.34420049536201
 10
21.74734391508819
 20
-14.34174998435
 10
21.75466859619439
 20
-14.33939891254401
 10
21.76202468500089
 20
-14.33714722608401
 10
21.76941062123599
 20
-14.334994871109
 10
21.7768248446276
 20
-14.33294179376099
 10
21.7842657949038
 20
-14.33098794017799
 10
21.79173191179269
 20
-14.329133256501
 10
21.79922163502221
 20
-14.32737768886902
 10
21.80673340515589
 20
-14.32572118345599
 10
21.8142657570101
 20
-14.32416369025899
 10
21.82181740488329
 20
-14.32270516655599
 10
21.8293870832059
 20
-14.32134557043799
 10
21.8369735264084
 20
-14.32008485999999
 10
21.8445754689211
 20
-14.31892299333497
 10
21.8521916451746
 20
-14.31785992853697
 10
21.859820789599
 20
-14.31689562369898
 10
21.86746163662498
 20
-14.316030036914
 10
21.87511292068289
 20
-14.315263126276
 10
21.88277337620298
 20
-14.31459484987799
 10
21.89044173761588
 20
-14.31402516581401
 10
21.89811673935178
 20
-14.313554032177
 10
21.90579711584129
 20
-14.31318140706001
 10
21.91348160151469
 20
-14.31290724855701
 10
21.92116893080239
 20
-14.31273151476196
 10
21.92885783813478
 20
-14.31265416376699
 10
21.93654705794239
 20
-14.31267515366597
 10
21.9442353246556
 20
-14.31279444255302
 10
21.95192137270459
 20
-14.31301198852098
 10
21.95960393652009
 20
-14.31332774966397
 10
21.96728175053221
 20
-14.31374168407399
 10
21.9749535491716
 20
-14.314253749846
 10
21.98261806476898
 20
-14.31486391678298
 10
21.99027401103369
 20
-14.31557225856001
 10
21.9979200919373
 20
-14.31637890316697
 10
22.00555501136599
 20
-14.31728397906899
 10
22.01317747320648
 20
-14.31828761472998
 10
22.0207861813451
 20
-14.31938993861597
 10
22.02837983966819
 20
-14.32059107919199
 10
22.03595715206239
 20
-14.32189116492198
 10
22.04351682241397
 20
-14.32329032427001
 10
22.05105755460949
 20
-14.32478868570301
 10
22.05857805253539
 20
-14.32638637768401
 10
22.06607702007809
 20
-14.32808352867799
 10
22.07355316112398
 20
-14.32988026715098
 10
22.08100517955958
 20
-14.33177672156698
 10
22.08843177927128
 20
-14.33377302039001
 10
22.09583166414549
 20
-14.33586929208699
 10
22.10320353806879
 20
-14.33806566511999
 10
22.11054610492748
 20
-14.34036226795599
 10
22.11785806860819
 20
-14.34275922905898
 10
22.12513813299707
 20
-14.34525667689397
 10
22.13238500198078
 20
-14.34785473992498
 10
22.13959737944569
 20
-14.35055354661798
 10
22.14677396026489
 20
-14.353353221142
 10
22.15391307305719
 20
-14.35625371311302
 10
22.16101256128339
 20
-14.359254740927
 10
22.16807023501929
 20
-14.36235600707099
 10
22.17508390434069
 20
-14.36555721402901
 10
22.18205137932319
 20
-14.368858064288
 10
22.1889704700426
 20
-14.37225826033098
 10
22.1958389865746
 20
-14.37575750464499
 10
22.20265473899489
 20
-14.37935549971498
 10
22.20941553737919
 20
-14.38305194802599
 10
22.21611919180339
 20
-14.38684655206398
 10
22.22276351234298
 20
-14.39073901431298
 10
22.22934630907389
 20
-14.394729037261
 10
22.2358653920717
 20
-14.39881632339099
 10
22.24231857141219
 20
-14.403000575189
 10
22.2487036571711
 20
-14.40728149514099
 10
22.25501845942407
 20
-14.41165878573199
 10
22.26126078824699
 20
-14.41613214944702
 10
22.26742845371548
 20
-14.42070128877197
 10
22.27351926590527
 20
-14.425365906192
 10
22.2795310348921
 20
-14.430125704192
 10
22.28461170689698
 20
-14.43427468214597
  0
LWPOLYLINE
  5
1485
330
1E
100
AcDbEntity
  8
1
100
AcDbPolyline
 90
       90
 70
     0
 43
0.0
 10
21.43179954359998
 20
-22.68632600400001
 10
21.4317810701031
 20
-22.68496493564601
 10
21.4317790939816
 20
-22.68360257773502
 10
21.43179372680128
 20
-22.68223930362601
 10
21.43182508012798
 20
-22.680875486678
 10
21.43187326552749
 20
-22.67951150025099
 10
21.43193839456569
 20
-22.67814771770398
 10
21.4320205788082
 20
-22.67678451239598
 10
21.432119929821
 20
-22.67542225768599
 10
21.43223655916977
 20
-22.67406132693498
 10
21.43237057842048
 20
-22.67270209350101
 10
21.43252209913889
 20
-22.67134493074299
 10
21.4326912328907
 20
-22.66999021202098
 10
21.43287809124179
 20
-22.66863831069497
 10
21.4330827857579
 20
-22.66728960012303
 10
21.4333054280049
 20
-22.665944453665
 10
21.43354612954869
 20
-22.66460324467999
 10
21.43380500195489
 20
-22.663266346528
 10
21.4340821567894
 20
-22.66193413256702
 10
21.4343777049511
 20
-22.66060697545499
 10
21.43469165542039
 20
-22.65928514037101
 10
21.43502380665768
 20
-22.65796867049898
 10
21.4353739310831
 20
-22.65665758156099
 10
21.4357418011162
 20
-22.65535188927999
 10
21.43612718917689
 20
-22.65405160937997
 10
21.43652986768509
 20
-22.65275675758198
 10
21.43694960906048
 20
-22.65146734960898
 10
21.4373861857231
 20
-22.650183401184
 10
21.43783937009259
 20
-22.64890492803
 10
21.43838877187079
 20
-22.64742031712597
 10
21.43896010743258
 20
-22.64594320503995
 10
21.43955301538919
 20
-22.64447361674096
 10
21.44016713435171
 20
-22.64301157719498
 10
21.4408021029312
 20
-22.64155711136798
 10
21.44145755973889
 20
-22.64011024422901
 10
21.44213314338569
 20
-22.63867100074298
 10
21.442828492483
 20
-22.63723940587901
 10
21.4435432456417
 20
-22.63581548460297
 10
21.444277041473
 20
-22.63439926188096
 10
21.44513851924919
 20
-22.63279018045798
 10
21.4460238576202
 20
-22.63119122416901
 10
21.4469325171366
 20
-22.62960243028302
 10
21.44786395834919
 20
-22.62802383606798
 10
21.4488176418086
 20
-22.62645547879198
 10
21.4497930280656
 20
-22.624897395725
 10
21.45078957767089
 20
-22.623349624135
 10
21.451935321114
 20
-22.62162075293701
 10
21.4531063985961
 20
-22.61990503243401
 10
21.4543020420342
 20
-22.61820251568998
 10
21.45552148334519
 20
-22.61651325576898
 10
21.4569033950182
 20
-22.61465191296796
 10
21.45831268491857
 20
-22.61280707491596
 10
21.45974829943451
 20
-22.61097881440299
 10
21.46135662284698
 20
-22.60898696177299
 10
21.46299412181646
 20
-22.60701535292498
 10
21.4648121110817
 20
-22.60488770870299
 10
21.46666133210819
 20
-22.60278439733697
 10
21.4686977874481
 20
-22.60053341485896
 10
21.47092684019169
 20
-22.59814156527299
 10
21.47335327031139
 20
-22.59561624475896
 10
21.47581569867348
 20
-22.59312982873198
 10
21.47814330660529
 20
-22.59084449098601
 10
21.48049628427588
 20
-22.58859345710999
 10
21.48287183420879
 20
-22.586376899084
 10
21.4854405029685
 20
-22.58404000413001
 10
21.4880329121616
 20
-22.581741766868
 10
21.49064857421
 20
-22.57948152343798
 10
21.49328700153578
 20
-22.57725860997799
 10
21.4961258670492
 20
-22.57492790022898
 10
21.49898948789478
 20
-22.57263810268296
 10
21.50187727233348
 20
-22.57038841166
 10
21.50478862862619
 20
-22.56817802147898
 10
21.50790711056328
 20
-22.565871642787
 10
21.5110508251266
 20
-22.56360775513702
 10
21.51421906254719
 20
-22.561385392145
 10
21.51759960714789
 20
-22.55907648837901
 10
21.5210060062399
 20
-22.55681190763597
 10
21.52462876768428
 20
-22.55446833429501
 10
21.52827840648617
 20
-22.55217151824099
 10
21.5321480787357
 20
-22.54980284743
 10
21.53604527829699
 20
-22.54748291673496
 10
21.54016569950879
 20
-22.54509772424702
 10
21.54451205786358
 20
-22.542652740744
 10
21.54908685649739
 20
-22.540153232327
 10
21.55389233851519
 20
-22.537604195502
 10
21.55893043714978
 20
-22.53501028932298
 10
21.56420272375349
 20
-22.53237576457801
 10
21.56971035362278
 20
-22.529704390031
 10
21.5756597044743
 20
-22.52690394448197
 10
21.5775035401641
 20
-22.52605277812399
  0
LWPOLYLINE
  5
14E1
330
1E
100
AcDbEntity
  8
SK1
100
AcDbPolyline
 90
       41
 70
     0
 43
0.0
 10
-6.499999999999997
 20
14.00000000000001
 10
-6.74544016695108
 20
13.88774704533999
 10
-6.979815717203787
 20
13.78378095272098
 10
-7.209167697595501
 20
13.68516481752301
 10
-7.427171570733702
 20
13.59435234862802
 10
-7.63993113002341
 20
13.50852801037599
 10
-7.847364277797793
 20
13.42757043201599
 10
-8.049390379660206
 20
13.35134958791799
 10
-8.245929380154509
 20
13.27972830848
 10
-8.43689919618451
 20
13.212565223168
 10
-8.622220121633301
 20
13.14971282359898
 10
-8.801815755815693
 20
13.091017892733
 10
-8.975612119127301
 20
13.03632272881999
 10
-9.15000362010309
 20
12.98354693959399
 10
-9.318489178765402
 20
12.934586681867
 10
-9.487508118425903
 20
12.887497542326
 10
-9.650520888575892
 20
12.84402576688298
 10
-9.814010230230008
 20
12.80236511818501
 10
-9.971397360080985
 20
12.76411051276601
 10
-10.12919833670798
 20
12.727593124178
 10
-10.280799083556
 20
12.69425757684701
 10
-10.432753611306
 20
12.66257606579201
 10
-10.58504905115098
 20
12.63257725366899
 10
-10.731030083871
 20
12.60548371761497
 10
-10.877299617267
 20
12.57998051460499
 10
-11.023843103596
 20
12.556088052302
 10
-11.16396646431401
 20
12.53480116195801
 10
-11.304311100885
 20
12.515014794143
 10
-11.44486317024298
 20
12.49674500399301
 10
-11.58560882932198
 20
12.48000784664299
 10
-11.72653423505801
 20
12.46481937722899
 10
-11.860903352906
 20
12.45180868112901
 10
-11.995409971966
 20
12.44022979781799
 10
-12.13003664787599
 20
12.43008947376098
 10
-12.26476471433501
 20
12.421392869016
 10
-12.39957550501298
 20
12.414145143601
 10
-12.53445035357799
 20
12.40835145753601
 10
-12.66937059369999
 20
12.40401697083901
 10
-12.80431755904699
 20
12.40114684353001
 10
-12.939272583288
 20
12.399746235627
 10
-12.99999000000001
 20
12.39959676760399
  0
LWPOLYLINE
  5
150C
330
1E
100
AcDbEntity
  8
1
100
AcDbPolyline
 90
        3
 70
     0
 43
0.0
 10
22.28461940779998
 20
24.45171507659999
 10
22.50683522039039
 20
24.50010396381002
 10
22.53209699700259
 20
24.50545418942798
  0
LWPOLYLINE
  5
1511
330
1E
100
AcDbEntity
  8
1
100
AcDbPolyline
 90
      119
 70
     0
 43
0.0
 10
28.1
 20
22.81117741219996
 10
28.0998815358358
 20
22.83185712386598
 10
28.09952618381361
 20
22.85253997682001
 10
28.0989340046389
 20
22.87322273706699
 10
28.098105059017
 20
22.89390217061002
 10
28.09703940765349
 20
22.91457504345399
 10
28.09573711125379
 20
22.93523812160298
 10
28.09419823052339
 20
22.95588817106001
 10
28.0924228261677
 20
22.97652195783102
 10
28.09041095889219
 20
22.99713624791798
 10
28.08816268940228
 20
23.01772780732601
 10
28.08567807840348
 20
23.03829340206003
 10
28.0826004646555
 20
23.06139463353001
 10
28.0792238944497
 20
23.08445430577898
 10
28.07554845422028
 20
23.10746781415101
 10
28.0715742304015
 20
23.13043055399099
 10
28.0673013278059
 20
23.15333794874097
 10
28.06273013017861
 20
23.17618584823001
 10
28.0578612380177
 20
23.19897043362698
 10
28.05269525751599
 20
23.22168789480501
 10
28.04723279486569
 20
23.24433442163897
 10
28.04147445625948
 20
23.26690620400201
 10
28.0354208478899
 20
23.28939943176802
 10
28.02907257594928
 20
23.31181029481102
 10
28.02243024663028
 20
23.334134983005
 10
28.01549446612551
 20
23.356369686223
 10
28.0082658406272
 20
23.37851059433899
 10
28.00074497632799
 20
23.40055389722698
 10
27.9929324794205
 20
23.42249578476101
 10
27.98482895609711
 20
23.44433244681401
 10
27.97643503863648
 20
23.466060059789
 10
27.9677517248785
 20
23.48767461128998
 10
27.9587802819215
 20
23.50917194986398
 10
27.94952198312278
 20
23.53054792082601
 10
27.9399781018402
 20
23.55179836948902
 10
27.93014991143108
 20
23.57291914116698
 10
27.9200386852532
 20
23.59390608117401
 10
27.90964569666391
 20
23.61475503482298
 10
27.89897221902089
 20
23.635461847428
 10
27.88801952568169
 20
23.65602236430301
 10
27.87678889000389
 20
23.676432430763
 10
27.86528158534498
 20
23.69668789211997
 10
27.85349888506261
 20
23.71678459368798
 10
27.8414420625143
 20
23.73671838078199
 10
27.82911245604319
 20
23.75648510637899
 10
27.8165119281749
 20
23.77608068528
 10
27.8036425947236
 20
23.79550106215701
 10
27.7905065731488
 20
23.81474218187502
 10
27.77710598090981
 20
23.83379998930301
 10
27.76190871046988
 20
23.85475540282298
 10
27.74639032833599
 20
23.87547393593699
 10
27.73055373911651
 20
23.89595002604897
 10
27.7144018474196
 20
23.91617811056001
 10
27.69793755785351
 20
23.93615262687301
 10
27.6811637750265
 20
23.955868012392
 10
27.6640834035468
 20
23.97531870451801
 10
27.6466993480226
 20
23.99449914065499
 10
27.6290146636574
 20
24.01340379931401
 10
27.61103326091389
 20
24.03202739247702
 10
27.592759351789
 20
24.050364714438
 10
27.57419714861959
 20
24.06841055958397
 10
27.5553508637423
 20
24.08615972230201
 10
27.53622470949379
 20
24.10360699697899
 10
27.51682289821089
 20
24.12074717800199
 10
27.4971496422302
 20
24.13757505975798
 10
27.47720915388839
 20
24.15408543663298
 10
27.4590377122084
 20
24.16866900670898
 10
27.44065629510211
 20
24.182987386394
 10
27.422067973363
 20
24.19703678079601
 10
27.4032758178407
 20
24.21081339505501
 10
27.38428312173311
 20
24.22431356437898
 10
27.36509390546971
 20
24.23753404938199
 10
27.34571233792221
 20
24.25047169751
 10
27.32614258796278
 20
24.263123356212
 10
27.30638882446319
 20
24.27548587293399
 10
27.2864552162955
 20
24.28755609512498
 10
27.26634593233149
 20
24.29933087023198
 10
27.24832690250878
 20
24.30954675877599
 10
27.2301752889742
 20
24.31952450260499
 10
27.21189401965981
 20
24.32926188758001
 10
27.19348602249748
 20
24.338756699563
 10
27.17495422541928
 20
24.34800672441398
 10
27.1563015563572
 20
24.357009747996
 10
27.1375309432433
 20
24.36576355617102
 10
27.11864531747429
 20
24.37426594163101
 10
27.09964775996521
 20
24.38251499188901
 10
27.08054155489771
 20
24.39050919526001
 10
27.0613300009874
 20
24.39824706871501
 10
27.04201639694989
 20
24.40572712922498
 10
27.02260404150048
 20
24.41294789376199
 10
27.00309623335469
 20
24.41990787929602
 10
26.9834962712281
 20
24.42660560279998
 10
26.96380745383619
 20
24.43303958124501
 10
26.94403307989428
 20
24.43920833160099
 10
26.9241764481181
 20
24.44511037084
 10
26.9042408572229
 20
24.45074421593399
 10
26.88422960592428
 20
24.45610838385398
 10
26.8641459929378
 20
24.461201391572
 10
26.84399331697878
 20
24.466021756057
 10
26.8237748767628
 20
24.47056799428299
 10
26.8060324473209
 20
24.474319964607
 10
26.78824502708911
 20
24.477860418491
 10
26.77041564442639
 20
24.48118900518598
 10
26.75254732960798
 20
24.484305375445
 10
26.73464311290919
 20
24.48720918002301
 10
26.7167060246056
 20
24.48990006967398
 10
26.69873909497229
 20
24.492377695152
 10
26.68074535428471
 20
24.49464170721102
 10
26.66272783281828
 20
24.49669175660601
 10
26.6446895608482
 20
24.49852749409
 10
26.62663356864989
 20
24.500148570418
 10
26.60856288649871
 20
24.501554636345
 10
26.59048054467
 20
24.50274534262401
 10
26.57238957343901
 20
24.50372034000902
 10
26.55429300308119
 20
24.50447927925499
 10
26.53619386387189
 20
24.50502181111601
 10
26.51809518608641
 20
24.50534758634602
 10
26.49999999999999
 20
24.50545625569998
 10
26.50001000000099
 20
24.505456255667
  0
LWPOLYLINE
  5
158A
330
1E
100
AcDbEntity
  8
1
100
AcDbPolyline
 90
      104
 70
     0
 43
0.0
 10
21.43386727200001
 20
24.52797776829999
 10
21.4337838610071
 20
24.528645895248
 10
21.4337136645354
 20
24.529318514519
 10
21.43365681621959
 20
24.52999478977499
 10
21.43362302009961
 20
24.53050389234501
 10
21.43359686386369
 20
24.53101422813402
 10
21.43357840388909
 20
24.53152544431201
 10
21.43356769655269
 20
24.53203718804802
 10
21.43356479823181
 20
24.53254910651001
 10
21.43356976530339
 20
24.53306084686898
 10
21.43358265414438
 20
24.53357205629301
 10
21.4336035211321
 20
24.53408238195201
 10
21.43363242264348
 20
24.53459147101502
 10
21.4336694150556
 20
24.53509897065102
 10
21.43371455474548
 20
24.53560452802902
 10
21.43376789809028
 20
24.53610779031901
 10
21.4338295014671
 20
24.53660840469
 10
21.43389942125288
 20
24.537106018312
 10
21.4339777138249
 20
24.53760027835299
 10
21.43406443555999
 20
24.53809083198201
 10
21.43415964283537
 20
24.53857732637
 10
21.43426339202811
 20
24.53905940868502
 10
21.43437573155698
 20
24.539536748022
 10
21.4344966262975
 20
24.540009243655
 10
21.4346259912013
 20
24.54047693240402
 10
21.4347637405491
 20
24.54093985293798
 10
21.4349097886222
 20
24.541398043927
 10
21.4350640497014
 20
24.54185154403801
 10
21.43522643806778
 20
24.54230039194099
 10
21.4353968680025
 20
24.54274462630401
 10
21.43557525378648
 20
24.54318428579601
 10
21.43576150970079
 20
24.54361940908601
 10
21.4359555500264
 20
24.544050034842
 10
21.43615728904431
 20
24.54447620173401
 10
21.43636664103548
 20
24.54489794842901
 10
21.43665747127069
 20
24.54545346833099
 10
21.43696148010568
 20
24.54600129051099
 10
21.4372784643548
 20
24.546541506628
 10
21.43760822083228
 20
24.54707420833998
 10
21.43795054635249
 20
24.547599487308
 10
21.43830523772971
 20
24.548117435191
 10
21.4386720917781
 20
24.54862814364699
 10
21.4390509053121
 20
24.549131704337
 10
21.43944147514579
 20
24.549628208919
 10
21.43984359809361
 20
24.550117749053
 10
21.44025707096989
 20
24.55060041639701
 10
21.44068169058868
 20
24.551076302612
 10
21.44111725376439
 20
24.551545499357
 10
21.4415635573113
 20
24.55200809828999
 10
21.44202039804369
 20
24.55246419107099
 10
21.44248757277591
 20
24.552913869359
 10
21.44296487832201
 20
24.553357224814
 10
21.44345211149646
 20
24.55379434909501
 10
21.44394906911359
 20
24.55422533386
 10
21.44445554798746
 20
24.55465027077099
 10
21.44497134493249
 20
24.555069251484
 10
21.44549625676299
 20
24.55548236766101
 10
21.44616490481797
 20
24.55599065551301
 10
21.4468470805566
 20
24.55649010226501
 10
21.44754238713169
 20
24.55698088693999
 10
21.4482504276963
 20
24.55746318856002
 10
21.44897080540328
 20
24.55793718614498
 10
21.44970312340539
 20
24.558403058719
 10
21.4504469848556
 20
24.55886098530301
 10
21.45120199290678
 20
24.55931114491899
 10
21.4519677507118
 20
24.55975371659
 10
21.45290029099228
 20
24.560275038569
 10
21.45384705370669
 20
24.56078600104801
 10
21.45480735310309
 20
24.561286913377
 10
21.45578050342987
 20
24.561778084906
 10
21.4569311727608
 20
24.56233921977299
 10
21.45809731130298
 20
24.56288800862498
 10
21.45927783010769
 20
24.56342494269701
 10
21.4606432060391
 20
24.564024695739
 10
21.46219798076669
 20
24.56468258988302
 10
21.46394604931689
 20
24.565393910335
 10
21.4658902314777
 20
24.56615409871898
 10
21.46785263742278
 20
24.56689281125501
 10
21.4700092627078
 20
24.56767642628502
 10
21.4725390616992
 20
24.56856451016498
 10
21.4754377069121
 20
24.56954981331997
 10
21.47923326474448
 20
24.57080448681999
 10
21.48228005965099
 20
24.57179643401299
 10
21.4851166226708
 20
24.57271536916898
 10
21.48792357662039
 20
24.57362058714601
 10
21.49087505698906
 20
24.574567488145
 10
21.49396723773119
 20
24.57555352428999
 10
21.49719659527701
 20
24.57657604487902
 10
21.50055999896778
 20
24.57763230444702
 10
21.50422033806199
 20
24.578770686
 10
21.50817042156328
 20
24.57998483687701
 10
21.51256622676362
 20
24.581316682505
 10
21.5177189520695
 20
24.582849227478
 10
21.52361323629448
 20
24.58456033330502
 10
21.5296129011191
 20
24.58625121950801
 10
21.5357327435184
 20
24.58791827320201
 10
21.5419904644573
 20
24.58955801068301
 10
21.54840686483239
 20
24.59116709490702
 10
21.5550060464392
 20
24.592742353411
 10
21.56181561796269
 20
24.59428079668398
 10
21.56757731233851
 20
24.595512678572
 10
21.57227024580668
 20
24.59646884703501
 10
21.57652408875828
 20
24.59729930185001
 10
21.57750280133781
 20
24.59748554470401
  0
LWPOLYLINE
  5
166A
330
1E
100
AcDbEntity
  8
1
100
AcDbPolyline
 90
       51
 70
     0
 43
0.0
 10
22.28461940779998
 20
-22.84249491739998
 10
22.2782997426923
 20
-22.84519878818598
 10
22.2719464461067
 20
-22.84782377428999
 10
22.2655608975741
 20
-22.85037147259598
 10
22.25914447662557
 20
-22.85284347998499
 10
22.2522015412262
 20
-22.85542282502099
 10
22.2452261240615
 20
-22.85791823298202
 10
22.23821994813237
 20
-22.86033169833499
 10
22.23068115578028
 20
-22.86282888880401
 10
22.22311115077248
 20
-22.86523675517901
 10
22.21551205232479
 20
-22.867557750567
 10
22.20737666763198
 20
-22.86994049180399
 10
22.19921316420929
 20
-22.87223016141898
 10
22.19051150883829
 20
-22.87456428656502
 10
22.18178409848988
 20
-22.87680027451199
 10
22.1725186674481
 20
-22.87906479359198
 10
22.16271473646459
 20
-22.88134451487398
 10
22.15288847324929
 20
-22.88351295790098
 10
22.14304102241959
 20
-22.88557134087402
 10
22.13317352083048
 20
-22.88752087274397
 10
22.12328710533739
 20
-22.88936276246297
 10
22.11286116861169
 20
-22.89118663342398
 10
22.1024168602968
 20
-22.89289398292496
 10
22.09195550636479
 20
-22.89448622102598
 10
22.08147843278739
 20
-22.89596475778999
 10
22.0709869655368
 20
-22.89733100327898
 10
22.0599568845945
 20
-22.89864625042898
 10
22.04891393148978
 20
-22.89984088336298
 10
22.03785964120079
 20
-22.90091653440599
 10
22.02626839108519
 20
-22.90191772184401
 10
22.01466748707209
 20
-22.90279328559797
 10
22.00253001050779
 20
-22.90357803160901
 10
21.9903841720826
 20
-22.90423310148399
 10
21.9777025487718
 20
-22.90478261408197
 10
21.96448550872639
 20
-22.90521416887301
 10
21.95073371705409
 20
-22.90551583004698
 10
21.93644817030309
 20
-22.90567624669396
 10
21.92163023232539
 20
-22.90568477777596
 10
21.9062816715186
 20
-22.90553162191903
 10
21.89040470635098
 20
-22.905207860228
 10
21.8750606567209
 20
-22.90473583354498
 10
21.86078136048498
 20
-22.90414552688602
 10
21.84756814983248
 20
-22.903459988859
 10
21.83489335091838
 20
-22.90266829842197
 10
21.82275777456909
 20
-22.90177995757197
 10
21.8111617767789
 20
-22.90080550030296
 10
21.80010531246119
 20
-22.89975631032199
 10
21.7895879868615
 20
-22.89864444668701
 10
21.77908426054359
 20
-22.89741839776997
 10
21.76911945210739
 20
-22.89614403722501
 10
21.7638904632536
 20
-22.89543055210799
  0
LWPOLYLINE
  5
169F
330
1E
100
AcDbEntity
  8
1
100
AcDbPolyline
 90
        3
 70
     0
 43
0.0
 10
21.76388055909999
 20
-22.89542917089999
 10
21.75508904467999
 20
-22.89415783762698
 10
21.74666491551279
 20
-22.89285288629101
  0
LWPOLYLINE
  5
16F0
330
1E
100
AcDbEntity
  8
1
100
AcDbPolyline
 90
        3
 70
     0
 43
0.0
 10
21.7469508491
 20
2.479599624700009
 10
21.7586020056665
 20
2.474880322775002
 10
21.7640578768613
 20
2.472619882723996
  0
LWPOLYLINE
  5
174E
330
1E
100
AcDbEntity
  8
1
100
AcDbPolyline
 90
      156
 70
     0
 43
0.0
 10
21.4311181865
 20
14.66371098240002
 10
21.43116918550838
 20
14.66916563830698
 10
21.43130831616379
 20
14.674622445796
 10
21.43153533904579
 20
14.68007978619501
 10
21.43185001473419
 20
14.685536040836
 10
21.43225210380852
 20
14.69098959104799
 10
21.4327413668485
 20
14.69643881816101
 10
21.43331756443378
 20
14.70188210350501
 10
21.4339804571441
 20
14.70731782840899
 10
21.43472980555888
 20
14.712744374205
 10
21.43556537025808
 20
14.71816012221998
 10
21.43648691182119
 20
14.72356345378601
 10
21.43749419082789
 20
14.728952750232
 10
21.43858696785789
 20
14.73432639288899
 10
21.43976500349078
 20
14.73968276308501
 10
21.4410280583063
 20
14.74502024215198
 10
21.4423758928841
 20
14.750337211418
 10
21.4438082678038
 20
14.755632052214
 10
21.4453249436451
 20
14.76090314586999
 10
21.4469256809876
 20
14.76614887371501
 10
21.44861024041099
 20
14.771367617079
 10
21.45037830563679
 20
14.77655783438599
 10
21.45222900963959
 20
14.78171853649099
 10
21.45416124515179
 20
14.78684897522398
 10
21.456173903907
 20
14.79194840341999
 10
21.4582658776389
 20
14.79701607391301
 10
21.4604360580812
 20
14.802051239535
 10
21.46268333696748
 20
14.80705315312199
 10
21.4650066060317
 20
14.812021067505
 10
21.4674047570072
 20
14.81695423551899
 10
21.46987668162779
 20
14.82185190999699
 10
21.4724212716272
 20
14.826713343773
 10
21.47503741873899
 20
14.831537789681
 10
21.47772401469711
 20
14.83632450055299
 10
21.48047995123488
 20
14.84107272922499
 10
21.4838770442066
 20
14.84671875511498
 10
21.4873704766256
 20
14.852306999611
 10
21.49095833340758
 20
14.85783617161098
 10
21.49463869946849
 20
14.86330498001099
 10
21.498409659724
 20
14.86871213370799
 10
21.50226929908988
 20
14.87405634159697
 10
21.50621570248198
 20
14.879336312575
 10
21.51024695481609
 20
14.88455075553899
 10
21.5143611410081
 20
14.88969837938499
 10
21.5185563459737
 20
14.89477789301001
 10
21.52355059557129
 20
14.900616186019
 10
21.5286495548252
 20
14.90635822641699
 10
21.53385065599198
 20
14.912003471012
 10
21.53915144828371
 20
14.91755174897899
 10
21.54454948093301
 20
14.92300288955699
 10
21.5500423031727
 20
14.92835672198701
 10
21.55562746423539
 20
14.93361307551002
 10
21.56130251335409
 20
14.938771779366
 10
21.5670649997613
 20
14.94383266279599
 10
21.57291247269
 20
14.94879555503898
 10
21.5788424813728
 20
14.95366028533699
 10
21.58485257504251
 20
14.95842668293001
 10
21.5909403029318
 20
14.96309457705798
 10
21.59710321427348
 20
14.96766379696102
 10
21.6033388583004
 20
14.97213417188099
 10
21.6096447842451
 20
14.976505531057
 10
21.61601854134049
 20
14.98077770372999
 10
21.6224576788193
 20
14.98495051913998
 10
21.62895974591428
 20
14.98902380652801
 10
21.63552229185819
 20
14.99299739513499
 10
21.64214286588378
 20
14.9968711142
 10
21.64881901755728
 20
15.00064479309501
 10
21.65554851322809
 20
15.00431834636499
 10
21.66232970921289
 20
15.00789192035299
 10
21.66916106124748
 20
15.01136570046002
 10
21.67604102506748
 20
15.01473987208901
 10
21.68296805640872
 20
15.01801462064499
 10
21.68994061100679
 20
15.02119013152899
 10
21.69695714459739
 20
15.02426659014501
 10
21.70401611291619
 20
15.027244181896
 10
21.71111597169899
 20
15.030123092186
 10
21.71825517668139
 20
15.03290350641601
 10
21.72543218359912
 20
15.03558560999
 10
21.73264544818767
 20
15.03816958831099
 10
21.739893426183
 20
15.04065562678199
 10
21.74717457332079
 20
15.04304391080599
 10
21.75448734533659
 20
15.04533462578599
 10
21.7618301979661
 20
15.04752795712598
 10
21.7692015869451
 20
15.049624090227
 10
21.77659996800918
 20
15.051623210494
 10
21.78402379689408
 20
15.05352550332899
 10
21.79147152933559
 20
15.055331154135
 10
21.79894162106929
 20
15.05704034831601
 10
21.8064325284542
 20
15.05865327107501
 10
21.81394281435379
 20
15.06017007371
 10
21.82147126774867
 20
15.06159083552498
 10
21.82901670650728
 20
15.06291562662898
 10
21.83657794849789
 20
15.06414451713196
 10
21.84415381158889
 20
15.06527757714098
 10
21.85174311364839
 20
15.06631487676501
 10
21.85934467254488
 20
15.06725648611299
 10
21.86695730614669
 20
15.06810247529397
 10
21.8745798323221
 20
15.068852914415
 10
21.88221106893939
 20
15.06950787358699
 10
21.88984983386689
 20
15.07006742291699
 10
21.89749494497298
 20
15.07053163251399
 10
21.90514522012589
 20
15.07090057248698
 10
21.91279947719408
 20
15.071174312943
 10
21.9204565340458
 20
15.07135292399301
 10
21.92811520854927
 20
15.07143647574499
 10
21.93577431857288
 20
15.07142503830599
 10
21.94343268198509
 20
15.07131868178698
 10
21.95108911665398
 20
15.07111747629401
 10
21.95874244044798
 20
15.070821491938
 10
21.9663914712355
 20
15.07043079882699
 10
21.97403502688478
 20
15.06994546706899
 10
21.98167192306687
 20
15.06936555516
 10
21.98930094541498
 20
15.06869096283899
 10
21.99692085780911
 20
15.06792147487298
 10
22.0045304236436
 20
15.06705687346499
 10
22.0121284063128
 20
15.066096940815
 10
22.01971356921109
 20
15.06504145912498
 10
22.02728467573269
 20
15.06389021059598
 10
22.034840489272
 20
15.062642977428
 10
22.0423797732233
 20
15.06129954182499
 10
22.04990129098098
 20
15.05985968598596
 10
22.05740380593931
 20
15.05832319211299
 10
22.0648860814926
 20
15.05668984240597
 10
22.07234688103528
 20
15.05495941906898
 10
22.07978496796158
 20
15.05313170430001
 10
22.08719910566578
 20
15.05120648030301
 10
22.09458805754239
 20
15.049183529277
 10
22.10195058698559
 20
15.04706263342499
 10
22.1092854573897
 20
15.04484357494698
 10
22.11659143214907
 20
15.04252613604499
 10
22.12386727465808
 20
15.04011009891997
 10
22.1311117483111
 20
15.037595245773
 10
22.13832361650229
 20
15.03498135880501
 10
22.14550164094571
 20
15.03226822083199
 10
22.1526442870007
 20
15.02945572298198
 10
22.15974938605579
 20
15.02654398808699
 10
22.16681468778749
 20
15.02353316884498
 10
22.17383794187228
 20
15.02042341795398
 10
22.18081689798649
 20
15.01721488810898
 10
22.1877493058066
 20
15.01390773200999
 10
22.1946329150092
 20
15.010502102353
 10
22.2014654752705
 20
15.00699815183599
 10
22.20824473626699
 20
15.003396033155
 10
22.2149684476753
 20
14.99969589900898
 10
22.22163435917159
 20
14.99589790209398
 10
22.2282402204326
 20
14.99200219510798
 10
22.23478378113448
 20
14.98800893074899
 10
22.24126279095397
 20
14.98391826171298
 10
22.24767499956729
 20
14.97973034069797
 10
22.254018156651
 20
14.975445320402
 10
22.26029001188139
 20
14.97106335352098
 10
22.2664883149351
 20
14.96658459275298
 10
22.27261081548848
 20
14.96200919079499
 10
22.27865526321789
 20
14.95733730034498
 10
22.28461940779998
 20
14.95256907409999
 10
22.2846116489671
 20
14.952575382869
  0
LWPOLYLINE
  5
1835
330
1E
100
AcDbEntity
  8
1
100
AcDbPolyline
 90
        2
 70
     0
 43
0.0
 10
21.74691874919998
 20
24.42537510239999
 10
21.76415806709139
 20
24.42393139115201
  0
LWPOLYLINE
  5
1839
330
1E
100
AcDbEntity
  8
1
100
AcDbPolyline
 90
       64
 70
     0
 43
0.0
 10
21.4310917594
 20
2.979257506499985
 10
21.43112450086499
 20
2.985382805564011
 10
21.4312240677953
 20
2.991507567057007
 10
21.43139060728997
 20
2.997631234710024
 10
21.43162426644839
 20
3.003753252254977
 10
21.43192519236928
 20
3.009873063422995
 10
21.43229353215188
 20
3.015990111947001
 10
21.43272943289528
 20
3.022103841557008
 10
21.4332330416986
 20
3.028213695984997
 10
21.43380450566089
 20
3.034319118963008
 10
21.4344439714205
 20
3.04041955371299
 10
21.43515151166011
 20
3.046514361645004
 10
21.43592704441761
 20
3.052602733099984
 10
21.4367704683235
 20
3.058683836947988
 10
21.43768168200839
 20
3.064756842061011
 10
21.4386605841025
 20
3.070820917309001
 10
21.43970707323649
 20
3.076875231563984
 10
21.4408210480406
 20
3.082918953694993
 10
21.44200240714528
 20
3.088951252575991
 10
21.4432510491812
 20
3.094971297075015
 10
21.44456687277857
 20
3.100978256065002
 10
21.44594977656788
 20
3.106971298416973
 10
21.44739965917969
 20
3.112949593000005
 10
21.44891641924429
 20
3.118912308686998
 10
21.4504999553922
 20
3.124858614348008
 10
21.45215016625388
 20
3.130787678853987
 10
21.45386695045979
 20
3.136698671077009
 10
21.45565020664029
 20
3.142590759887024
 10
21.45749983342578
 20
3.148463114155002
 10
21.4594157294469
 20
3.154314902752
 10
21.461397793334
 20
3.160145294548993
 10
21.46344592371739
 20
3.165953458418024
 10
21.46556001922769
 20
3.171738563228995
 10
21.4677399784953
 20
3.177499777851986
 10
21.4699857001507
 20
3.183236271160023
 10
21.47245350713339
 20
3.189327012524995
 10
21.4749958987385
 20
3.195387672203008
 10
21.47761275194068
 20
3.201417241511005
 10
21.4803039437149
 20
3.207414711767008
 10
21.48306933478
 20
3.213379073148
 10
21.48590854351819
 20
3.219309298825987
 10
21.48882100222158
 20
3.225204348921021
 10
21.49180613842199
 20
3.231063183215988
 10
21.49486337965099
 20
3.236884761494973
 10
21.49799215344049
 20
3.242668043540998
 10
21.50119188732219
 20
3.248411989138992
 10
21.5044620088278
 20
3.25411555807197
 10
21.50801299654399
 20
3.260130195713013
 10
21.5116421123712
 20
3.266096829876981
 10
21.51534866965519
 20
3.272014212864983
 10
21.51913198174149
 20
3.277881096974973
 10
21.5229913619756
 20
3.283696234506986
 10
21.5269261237031
 20
3.28945837775897
 10
21.5309355802697
 20
3.295166279031983
 10
21.5352615389077
 20
3.301149430706977
 10
21.53966965356269
 20
3.307068891408003
 10
21.54415910913848
 20
3.312923180047997
 10
21.5487290905385
 20
3.318710815537013
 10
21.55337878266639
 20
3.324430316786003
 10
21.5581073704257
 20
3.330080202705013
 10
21.56318334887039
 20
3.335966810584988
 10
21.5683453658217
 20
3.341772461105998
 10
21.57359246264678
 20
3.347495412364008
 10
21.57750572994709
 20
3.351651147312006
  0
LWPOLYLINE
  5
18F2
330
1E
100
AcDbEntity
  8
1
100
AcDbPolyline
 90
        2
 70
     0
 43
0.0
 10
21.57751262659999
 20
3.351658388600025
 10
21.82499308494028
 20
3.610841598392977
  0
LWPOLYLINE
  5
18F6
330
1E
100
AcDbEntity
  8
1
100
AcDbPolyline
 90
       72
 70
     0
 43
0.0
 10
21.57751262659999
 20
-15.01270342859998
 10
21.57289323671679
 20
-15.00892237680598
 10
21.56831983520608
 20
-15.00507766945601
 10
21.56354400309679
 20
-15.00095086178198
 10
21.55882304990857
 20
-14.99675427535701
 10
21.55415884420949
 20
-14.99248849872097
 10
21.5495532545673
 20
-14.98815412041999
 10
21.54500814955
 20
-14.98375172899501
 10
21.5405253977253
 20
-14.97928191299097
 10
21.53610686766139
 20
-14.974745260949
 10
21.53175442792587
 20
-14.97014236141397
 10
21.52746994708689
 20
-14.96547380292899
 10
21.52347534648379
 20
-14.960990925128
 10
21.5195450053003
 20
-14.95645014660597
 10
21.5156805123229
 20
-14.95185196778301
 10
21.51209260769729
 20
-14.94745698879798
 10
21.5085661936316
 20
-14.94301167808997
 10
21.50510260855349
 20
-14.938516457223
 10
21.5019013564012
 20
-14.93424044598897
 10
21.4987580604445
 20
-14.92992094856798
 10
21.49567383653909
 20
-14.92555831642198
 10
21.49283701835988
 20
-14.92142948624099
 10
21.4900540191451
 20
-14.91726334317801
 10
21.48732575833139
 20
-14.91306017682798
 10
21.4846531553556
 20
-14.908820276784
 10
21.48203712965436
 20
-14.90454393264398
 10
21.47964736204309
 20
-14.90052005291097
 10
21.47730842746748
 20
-14.89646491532099
 10
21.47502099725548
 20
-14.89237894105899
 10
21.47278558867771
 20
-14.88826292678801
 10
21.47060270027628
 20
-14.88411771481199
 10
21.46847283059359
 20
-14.87994414743899
 10
21.46639647817158
 20
-14.87574306697298
 10
21.46451679219919
 20
-14.87181816448598
 10
21.46268408023819
 20
-14.86787093964697
 10
21.46089874144919
 20
-14.86390206685298
 10
21.45916117499309
 20
-14.859912220502
 10
21.45747178003069
 20
-14.855902074989
 10
21.4558309557226
 20
-14.85187230471399
 10
21.45423910122978
 20
-14.84782358407296
 10
21.45269661571289
 20
-14.84375658746198
 10
21.45120389833269
 20
-14.839671989281
 10
21.44976134825009
 20
-14.83557046392498
 10
21.44836936462579
 20
-14.831452685792
 10
21.44712968333728
 20
-14.82763781751101
 10
21.44593374232579
 20
-14.82381020577601
 10
21.44478185554219
 20
-14.81997038101796
 10
21.44367433693728
 20
-14.81611887366999
 10
21.4426115004617
 20
-14.81225621416301
 10
21.4415936600662
 20
-14.80838293292896
 10
21.44062112970171
 20
-14.8044995604
 10
21.43969422331879
 20
-14.80060662700599
 10
21.43881325486828
 20
-14.79670466318099
 10
21.43797853830109
 20
-14.79279419935499
 10
21.43719038756771
 20
-14.78887576595998
 10
21.43644911661918
 20
-14.78494989342898
 10
21.43575503940609
 20
-14.78101711219198
 10
21.43510846987918
 20
-14.77707795268098
 10
21.43455778346499
 20
-14.77346190635297
 10
21.4340475223316
 20
-14.76984135478097
 10
21.43357792830119
 20
-14.766216706532
 10
21.4331492431958
 20
-14.76258837017299
 10
21.43276170883729
 20
-14.75895675427297
 10
21.4324154976822
 20
-14.75532225259199
 10
21.4321104772426
 20
-14.75168519378998
 10
21.43184643125678
 20
-14.74804588864698
 10
21.43162314346068
 20
-14.74440464794199
 10
21.43144039759039
 20
-14.74076178245199
 10
21.43129797738179
 20
-14.73711760295599
 10
21.43118834700969
 20
-14.73314100097799
 10
21.43112616936619
 20
-14.72916360855099
 10
21.4311106079391
 20
-14.725527315693
  0
LWPOLYLINE
  5
19C5
330
1E
100
AcDbEntity
  8
1
100
AcDbPolyline
 90
       11
 70
     0
 43
0.0
 10
21.76387109959998
 20
-22.89568394109998
 10
21.75561037611009
 20
-22.894319131468
 10
21.74728311252189
 20
-22.89285551287701
 10
21.7389701328566
 20
-22.891306003211
 10
21.7306727736711
 20
-22.88967080781899
 10
21.72239237152169
 20
-22.88795013204797
 10
21.71405166846289
 20
-22.88612657243497
 10
21.70573098421448
 20
-22.88421631704101
 10
21.6974316938851
 20
-22.88221957713397
 10
21.68915517258369
 20
-22.880136563986
 10
21.68511340606599
 20
-22.87908577125701
  0
LWPOLYLINE
  5
19D2
330
1E
100
AcDbEntity
  8
1
100
AcDbPolyline
 90
       96
 70
     0
 43
0.0
 10
21.68510373429997
 20
-22.87908323019999
 10
21.67662091277699
 20
-22.87680504835496
 10
21.66816153955678
 20
-22.87443419275799
 10
21.659727269754
 20
-22.87197116477598
 10
21.65131975848339
 20
-22.86941646577397
 10
21.64261897776599
 20
-22.86666701904699
 10
21.63395069192171
 20
-22.86381981622001
 10
21.6253167544794
 20
-22.86087541876201
 10
21.61671901896809
 20
-22.85783438814398
 10
21.60847603103039
 20
-22.85481386515601
 10
21.6009020238966
 20
-22.851939337377
 10
21.59399159578021
 20
-22.84922530914296
 10
21.58742666939078
 20
-22.84655894995299
 10
21.5812049741031
 20
-22.84394641167898
 10
21.57532384513999
 20
-22.841394603332
 10
21.56978029707571
 20
-22.83891103738298
 10
21.5645710936652
 20
-22.83650368378399
 10
21.5593887339475
 20
-22.83403376536499
 10
21.55453681855147
 20
-22.83164972979597
 10
21.54971075152379
 20
-22.829205946127
 10
21.5452106817149
 20
-22.82685876971301
 10
21.54073503916599
 20
-22.82445550748402
 10
21.5365805410901
 20
-22.82216033577398
 10
21.53244871452719
 20
-22.81981339554401
 10
21.52834023179388
 20
-22.81741328122298
 10
21.52454670203279
 20
-22.81513576252898
 10
21.52077441836528
 20
-22.81281005741801
 10
21.51702391908539
 20
-22.81043504050998
 10
21.51329574248728
 20
-22.80800958642598
 10
21.50987462726099
 20
-22.80572496576201
 10
21.5064734197897
 20
-22.80339552476401
 10
21.50309368795219
 20
-22.80102032671098
 10
21.4997395602048
 20
-22.79859831949001
 10
21.49641551437609
 20
-22.79612843524394
 10
21.49339872287649
 20
-22.79382140402196
 10
21.49041442023289
 20
-22.791472422978
 10
21.48746605551339
 20
-22.78908066959095
 10
21.48455707778639
 20
-22.78664532133798
 10
21.48169093611998
 20
-22.78416555569499
 10
21.47912542687149
 20
-22.78187198714696
 10
21.4766007611317
 20
-22.77954041226902
 10
21.47436562490489
 20
-22.77740898871099
 10
21.47216755998639
 20
-22.775245828965
 10
21.47024637325589
 20
-22.77329601338198
 10
21.46835729680919
 20
-22.77132044993798
 10
21.46650165741029
 20
-22.76931882222898
 10
21.46468078182319
 20
-22.76729081385298
 10
21.46311707588659
 20
-22.76549441739799
 10
21.46158189062539
 20
-22.76367736903498
 10
21.4600761148679
 20
-22.761839456798
 10
21.4586006374422
 20
-22.75998046872298
 10
21.45715634717679
 20
-22.75810019284399
 10
21.45574413289969
 20
-22.75619841719698
 10
21.4545598671351
 20
-22.75455105105201
 10
21.45340038014798
 20
-22.75288759994702
 10
21.45226623166708
 20
-22.75120793039998
 10
21.45115798142089
 20
-22.74951190892902
 10
21.45007618913798
 20
-22.747799402051
 10
21.44902141454689
 20
-22.74607027628398
 10
21.44799421737638
 20
-22.74432439814702
 10
21.44699515735478
 20
-22.74256163415599
 10
21.44602479421089
 20
-22.740781850829
 10
21.4450836876732
 20
-22.73898491468501
 10
21.44417239747029
 20
-22.73717069223998
 10
21.44343616883189
 20
-22.73564553989796
 10
21.44272129736678
 20
-22.73410836821996
 10
21.4420279142266
 20
-22.732559587862
 10
21.44135613322819
 20
-22.73099965335397
 10
21.440706068189
 20
-22.72942901922401
 10
21.44007783292579
 20
-22.72784814000299
 10
21.43947154125589
 20
-22.726257470221
 10
21.43888730699619
 20
-22.72465746440599
 10
21.43832524396398
 20
-22.72304857708899
 10
21.4377854659763
 20
-22.72143126279996
 10
21.43726808685028
 20
-22.71980597606701
 10
21.43677322040289
 20
-22.71817317142101
 10
21.43630098045139
 20
-22.71653330339097
 10
21.4358514808127
 20
-22.714886826506
 10
21.43542483530409
 20
-22.71323419529799
 10
21.43502115774257
 20
-22.71157586429399
 10
21.4346405619453
 20
-22.70991228802496
 10
21.43428316172927
 20
-22.70824392102002
 10
21.43394907091169
 20
-22.70657121780899
 10
21.4336384033096
 20
-22.70489463292201
 10
21.43335127274009
 20
-22.703214620889
 10
21.4330877930203
 20
-22.70153163623802
 10
21.43284807796729
 20
-22.69984613349897
 10
21.43263224139821
 20
-22.69815856720297
 10
21.4324403971301
 20
-22.696469391879
 10
21.43227265898008
 20
-22.69477906205596
 10
21.43212914076527
 20
-22.69308803226401
 10
21.43200995630278
 20
-22.69139675703299
 10
21.43191521940969
 20
-22.68970569089196
 10
21.43184504390299
 20
-22.68801528837101
 10
21.43179954359998
 20
-22.68632600400001
 10
21.43179974016689
 20
-22.68633600210398
  0
LWPOLYLINE
  5
1A34
330
1E
100
AcDbEntity
  8
1
100
AcDbPolyline
 90
        3
 70
     0
 43
0.0
 10
21.57751262659999
 20
24.59748740529998
 10
21.80270552846138
 20
24.63894226969999
 10
21.82499015440128
 20
24.64291587841801
  0
LWPOLYLINE
  5
1A39
330
1E
100
AcDbEntity
  8
1
100
AcDbPolyline
 90
        2
 70
     0
 43
0.0
 10
21.74691655819998
 20
24.42541539299998
 10
21.7641504438983
 20
24.4239124738
  0
LWPOLYLINE
  5
1ADC
330
1E
100
AcDbEntity
  8
1
100
AcDbPolyline
 90
       70
 70
     0
 43
0.0
 10
26.73682178959998
 20
14.74264879589999
 10
26.7722510169059
 20
14.74002155281397
 10
26.80765211834291
 20
14.73702079109699
 10
26.8430234580602
 20
14.73364387338397
 10
26.87836032144419
 20
14.72988596897099
 10
26.91224579340599
 20
14.72591467697298
 10
26.9460888228364
 20
14.721582007966
 10
26.97988418287209
 20
14.71688293597899
 10
27.0122218348685
 20
14.71203118709901
 10
27.04450630644401
 20
14.70683389330199
 10
27.07673299724798
 20
14.70128663105097
 10
27.10889730692989
 20
14.69538497680898
 10
27.13960034822511
 20
14.68940382156399
 10
27.1702362045488
 20
14.683086853878
 10
27.19941103453371
 20
14.67673608632598
 10
27.22851337630311
 20
14.67006446518202
 10
27.25615746177778
 20
14.66340559202398
 10
27.28372604767639
 20
14.65644282616698
 10
27.3112143775952
 20
14.64916989003499
 10
27.33724962172461
 20
14.64196758779499
 10
27.36320406415611
 20
14.63447430912999
 10
27.38907362686779
 20
14.62668467180299
 10
27.413499148479
 20
14.61902632469099
 10
27.43783749677339
 20
14.61108913299401
 10
27.4607365680359
 20
14.60332918001699
 10
27.48354421134379
 20
14.59530572589797
 10
27.50492076198371
 20
14.587507103568
 10
27.52620490509139
 20
14.57946272444299
 10
27.54739110396521
 20
14.57116660354598
 10
27.5671592884592
 20
14.56315503520498
 10
27.5868319608101
 20
14.55491201774101
 10
27.60640455891589
 20
14.54643261968301
 10
27.6258725206748
 20
14.53771190956201
 10
27.64394406879072
 20
14.52935041381699
 10
27.66191407953328
 20
14.52076817195399
 10
27.6785020785459
 20
14.51259425357299
 10
27.69498814170949
 20
14.50421655039902
 10
27.71136530535608
 20
14.495628556991
 10
27.7263800085184
 20
14.48750890431498
 10
27.7412905109067
 20
14.47919940962299
 10
27.75609133540729
 20
14.47069495620801
 10
27.77077700490679
 20
14.46199042736399
 10
27.7841330303055
 20
14.45383114519098
 10
27.79738347244709
 20
14.44549550345798
 10
27.8105241125594
 20
14.43697956099998
 10
27.8235507318705
 20
14.42827937664998
 10
27.83645907519439
 20
14.419391006008
 10
27.84808548828829
 20
14.41114384999598
 10
27.85959954166589
 20
14.40273424356401
 10
27.87099206887548
 20
14.394158693167
 10
27.88225390346539
 20
14.385413705264
 10
27.89337587898399
 20
14.37649578630999
 10
27.90325850137229
 20
14.368318915789
 10
27.9130137307436
 20
14.35999659455498
 10
27.9226348847545
 20
14.35152627581298
 10
27.93211528106189
 20
14.34290541277199
 10
27.9414482373223
 20
14.33413145863698
 10
27.95062707119239
 20
14.32520186661699
 10
27.959645100329
 20
14.31611408991799
 10
27.96752072756628
 20
14.30790121030899
 10
27.97525932611219
 20
14.29955954429899
 10
27.982856123271
 20
14.29108731381697
 10
27.98938165371859
 20
14.28356582366497
 10
27.99578718442599
 20
14.27594242991698
 10
28.00206647455659
 20
14.26821634816699
 10
28.0082132832738
 20
14.26038679401
 10
28.01337180140619
 20
14.25359279740798
 10
28.0184244710612
 20
14.24672170999599
 10
28.0233673621492
 20
14.23977303780399
 10
28.0249842314167
 20
14.23744771303899
  0
LWPOLYLINE
  5
1B24
330
1E
100
AcDbEntity
  8
1
100
AcDbPolyline
 90
        3
 70
     0
 43
0.0
 10
28.02498991799998
 20
14.23743948729998
 10
28.02852751170039
 20
14.23225526041
 10
28.031821151092
 20
14.22730228683198
  0
LWPOLYLINE
  5
1B29
330
1E
100
AcDbEntity
  8
1
100
AcDbPolyline
 90
        2
 70
     0
 43
0.0
 10
22.53210678119998
 20
14.75075075469999
 10
22.28462716656179
 20
14.952562765248
  0
LWPOLYLINE
  5
1B86
330
1E
100
AcDbEntity
  8
1
100
AcDbPolyline
 90
        3
 70
     0
 43
0.0
 10
21.7469714128
 20
2.479390650200013
 10
21.75938640444799
 20
2.474576204190992
 10
21.7641910070337
 20
2.472671510495996
  0
LWPOLYLINE
  5
1CC9
330
1E
100
AcDbEntity
  8
1
100
AcDbPolyline
 90
        2
 70
     0
 43
0.0
 10
22.28461940779998
 20
-22.84249491739998
 10
22.31801676735349
 20
-22.82793546269803
  0
LWPOLYLINE
  5
1CCD
330
1E
100
AcDbEntity
  8
1
100
AcDbPolyline
 90
        2
 70
     0
 43
0.0
 10
21.82499999999998
 20
-15.21169861859998
 10
21.57752040612109
 20
-15.01270971183599
  0
LINE
  5
1EAC
330
1E
100
AcDbEntity
  8
SK4
100
AcDbLine
 10
0.0
 20
0.0000000000000142
 30
0.0
 11
-34.0
 21
0.0000000000000184
 31
0.0
  0
TEXT
  5
DF4A
330
1E
100
AcDbEntity
  8
6
100
AcDbText
 10
33.74306447569461
 20
-42.42292860459929
 30
0.0
 40
3.5
  1
17Y1E060064K5R00
100
AcDbText
  0
CIRCLE
  5
DF4B
330
1E
100
AcDbEntity
  8
1
100
AcDbCircle
 10
0.0
 20
0.0
 30
0.0
 40
2.950972054112601
  0
HATCH
  5
DF4C
330
1E
100
AcDbEntity
  8
1
100
AcDbHatch
 10
0.0
 20
0.0
 30
0.0
210
0.0
220
0.0
230
1.0
  2
SOLID
 70
     1
 71
     0
 91
        2
 92
        7
 72
     1
 73
     1
 93
        3
 10
0.0
 20
0.0
 42
0.0
 10
2.950972054112638
 20
0.0
 42
0.4142135623730966
 10
0.0
 20
2.950972054112583
 42
0.0
 97
        0
 92
        7
 72
     1
 73
     1
 93
        3
 10
0.0
 20
-2.950972054112611
 42
0.0
 10
0.0
 20
0.0
 42
0.0
 10
-2.950972054112638
 20
0.0
 42
0.4142135623730966
 97
        0
 75
     0
 76
     1
 47
0.1190009775223266
 98
        2
 10
0.7445530588120164
 20
0.9212244733764691
 10
-1.27946460185285
 20
-1.696796923046334
  0
LWPOLYLINE
  5
DF4D
330
1E
100
AcDbEntity
  8
1
100
AcDbPolyline
 90
        3
 70
     1
 43
0.0
 10
0.0
 20
2.950972054112583
 10
0.0
 20
0.0
 10
2.950972054112638
 20
0.0
 42
0.4142135623730966
  0
TEXT
  5
DF56
330
1E
100
AcDbEntity
  8
6
100
AcDbText
 10
39.48418569943851
 20
37.91736704579078
 30
0.0
 40
2.5
  1
XNL434-100
100
AcDbText
  0
TEXT
  5
DF57
330
1E
100
AcDbEntity
  8
6
100
AcDbText
 10
56.70754829529176
 20
-3.296160982512049
 30
0.0
 40
3.5
  1
Z=5
 50
90.0
100
AcDbText
  0
LINE
  5
E0DC
330
1E
100
AcDbEntity
  8
NOCUT
100
AcDbLine
 10
0.0
 20
0.0
 30
0.0
 11
-0.0000000000000284
 21
24.69999999999998
 31
0.0
  0
LINE
  5
E0EE
330
1E
100
AcDbEntity
  8
NOCUT
100
AcDbLine
 10
28.09999999999993
 20
0.0
 30
0.0
 11
0.0
 21
0.0
 31
0.0
  0
LINE
  5
E0F6
330
1E
100
AcDbEntity
  8
NOCUT
100
AcDbLine
 10
26.49999999999996
 20
25.0
 30
0.0
 11
0.2999999999999261
 21
25.0
 31
0.0
  0
LINE
  5
E0FA
330
1E
100
AcDbEntity
  8
NOCUT
100
AcDbLine
 10
28.09999999999993
 20
0.0
 30
0.0
 11
28.09999999999993
 21
23.39999999999996
 31
0.0
  0
ARC
  5
E103
330
1E
100
AcDbEntity
  8
NOCUT
100
AcDbCircle
 10
0.2999999999999261
 20
24.69999999999998
 30
0.0
 40
0.3
100
AcDbArc
 50
90.0
 51
180.0
  0
ARC
  5
E104
330
1E
100
AcDbEntity
  8
NOCUT
100
AcDbCircle
 10
26.49999999999996
 20
23.39999999999996
 30
0.0
 40
1.6
100
AcDbArc
 50
0.0
 51
90.0
  0
SPLINE
  5
E118
330
1E
100
AcDbEntity
  8
CUT
100
AcDbSpline
210
0.0
220
0.0
230
1.0
 70
     8
 71
     3
 72
    36
 73
    32
 74
    30
 42
0.0000000001
 43
0.0000000001
 44
0.0000000001
 12
0.5003731811184334
 22
0.8658098403329795
 32
0.0
 13
0.4999826786114559
 23
0.8660354040618164
 33
0.0
 40
0.0
 40
0.0
 40
0.0
 40
0.0
 40
0.1305039542082736
 40
0.261011371683301
 40
0.3915231182848919
 40
0.522039194061018
 40
0.652559599059636
 40
0.7830834674707488
 40
0.9136116651906089
 40
1.044143326392047
 40
1.174678451105681
 40
1.305218771145083
 40
1.435761688873325
 40
1.566309436326149
 40
1.696859281308799
 40
1.827413455887766
 40
1.957971960111024
 40
2.088533062143703
 40
2.219097627949315
 40
2.349665657558403
 40
2.480238016964958
 40
2.610812974273007
 40
2.74139139547653
 40
2.871972414621696
 40
3.002557763708062
 40
3.133146210831061
 40
3.263737621915383
 40
3.39433163102765
 40
3.524929104203791
 40
3.655530041474579
 40
3.786133576836324
 40
3.786133576836324
 40
3.786133576836324
 40
3.786133576836324
 10
22.88872399999996
 20
26.357276
 30
0.0
 10
22.9104908929052
 20
26.39493986925197
 30
0.0
 10
22.95402486644205
 20
26.47026883260947
 30
0.0
 10
23.01932510471427
 20
26.58326502826997
 30
0.0
 10
23.08462506848778
 20
26.69626604923189
 30
0.0
 10
23.14992511938026
 20
26.80927201985319
 30
0.0
 10
23.21522480748962
 20
26.92228286675784
 30
0.0
 10
23.28052513766957
 20
27.03529800933562
 30
0.0
 10
23.3458248506928
 20
27.14831784183611
 30
0.0
 10
23.41112480195146
 20
27.26134187000839
 30
0.0
 10
23.47642542820733
 20
27.37437017490024
 30
0.0
 10
23.54172456000494
 20
27.48740367649074
 30
0.0
 10
23.60702503534256
 20
27.60044126112898
 30
0.0
 10
23.67232571858892
 20
27.71348239234821
 30
0.0
 10
23.7376260655672
 20
27.82652805115882
 30
0.0
 10
23.80292614378063
 20
27.9395780060117
 30
0.0
 10
23.86822556720025
 20
28.05263267239264
 30
0.0
 10
23.93352591843004
 20
28.16569080287576
 30
0.0
 10
23.99882581185611
 20
28.27875286444565
 30
0.0
 10
24.06412617555949
 20
28.39181898775139
 30
0.0
 10
24.12942554900161
 20
28.50488968294874
 30
0.0
 10
24.19472595913961
 20
28.61796377944245
 30
0.0
 10
24.2600255225002
 20
28.73104169827016
 30
0.0
 10
24.32532628144189
 20
28.84412292670045
 30
0.0
 10
24.39062535341877
 20
28.95720898840136
 30
0.0
 10
24.45592713543241
 20
29.07029748524335
 30
0.0
 10
24.52122651253461
 20
29.18339070406899
 30
0.0
 10
24.58652691701815
 20
29.29648680386741
 30
0.0
 10
24.65182687132515
 20
29.40958683027064
 30
0.0
 10
24.71712664951185
 20
29.52269062501311
 30
0.0
 10
24.76065949818455
 20
29.59809457149365
 30
0.0
 10
24.78242599999997
 20
29.63579699999996
 30
0.0
 11
22.88872399999996
 21
26.357276
 31
0.0
 11
22.95402399999999
 21
26.47026799999996
 31
0.0
 11
23.01932399999997
 21
26.58326399999998
 31
0.0
 11
23.08462399999996
 21
26.69626499999998
 31
0.0
 11
23.14992399999999
 21
26.80927099999996
 31
0.0
 11
23.21522399999996
 21
26.92228199999999
 31
0.0
 11
23.28052399999994
 21
27.03529700000001
 31
0.0
 11
23.34582399999999
 21
27.14831699999996
 31
0.0
 11
23.41112399999996
 21
27.26134100000001
 31
0.0
 11
23.47642400000001
 21
27.374369
 31
0.0
 11
23.54172399999999
 21
27.48740299999996
 31
0.0
 11
23.60702399999996
 21
27.60043999999999
 31
0.0
 11
23.672325
 21
27.713482
 31
0.0
 11
23.73762499999996
 21
27.82652699999999
 31
0.0
 11
23.80292499999995
 21
27.93957699999998
 31
0.0
 11
23.86822499999999
 21
28.05263200000002
 31
0.0
 11
23.93352499999996
 21
28.16568999999998
 31
0.0
 11
23.99882500000001
 21
28.27875199999999
 31
0.0
 11
24.06412499999999
 21
28.391818
 31
0.0
 11
24.12942499999996
 21
28.50488899999999
 31
0.0
 11
24.19472499999999
 21
28.61796299999996
 31
0.0
 11
24.26002499999998
 21
28.73104099999999
 31
0.0
 11
24.32532499999996
 21
28.84412199999996
 31
0.0
 11
24.390625
 21
28.95720799999998
 31
0.0
 11
24.45592599999996
 21
29.07029699999998
 31
0.0
 11
24.52122599999995
 21
29.18338999999996
 31
0.0
 11
24.58652599999999
 21
29.29648600000001
 31
0.0
 11
24.65182599999996
 21
29.40958599999999
 31
0.0
 11
24.717126
 21
29.52269000000001
 31
0.0
 11
24.78242599999997
 21
29.63579699999996
 31
0.0
  0
SPLINE
  5
E119
330
1E
100
AcDbEntity
  8
CUT
100
AcDbSpline
210
0.0
220
0.0
230
1.0
 70
     8
 71
     3
 72
    36
 73
    32
 74
    30
 42
0.0000000001
 43
0.0000000001
 44
0.0000000001
 12
0.5237410678997579
 22
0.8518775110279772
 32
0.0
 13
0.5235443494994675
 23
0.8519984237703608
 33
0.0
 40
0.0
 40
0.0
 40
0.0
 40
0.0
 40
0.007737971116532
 40
0.0154764661898705
 40
0.0232152890977911
 40
0.0309541120056603
 40
0.0386929349135731
 40
0.0464322817206482
 40
0.0541711046285674
 40
0.0619099275365185
 40
0.069648750444387
 40
0.0773889490206517
 40
0.0851277719285698
 40
0.0928674466633545
 40
0.100607645239627
 40
0.108347319974388
 40
0.1160878465714218
 40
0.1238275213061839
 40
0.1315677198824625
 40
0.1393082464795429
 40
0.1470487730766221
 40
0.1547898234575444
 40
0.1625303500546527
 40
0.1702708766516809
 40
0.1780114032487571
 40
0.1857533054697834
 40
0.1934938320668687
 40
0.2012352105616854
 40
0.2089765890565021
 40
0.2167184912775345
 40
0.2244598697723438
 40
0.2244598697723438
 40
0.2244598697723438
 40
0.2244598697723438
 10
24.78242599999997
 20
29.63579699999996
 30
0.0
 10
24.78377689775196
 20
29.63799426785834
 30
0.0
 10
24.78647997061558
 20
29.64238822316663
 30
0.0
 10
24.79053540837621
 20
29.64897887708852
 30
0.0
 10
24.79458888818623
 20
29.65557106878005
 30
0.0
 10
24.79864309611769
 20
29.66216294087943
 30
0.0
 10
24.80269681881639
 20
29.66875531646116
 30
0.0
 10
24.8067521775504
 20
29.67534668577382
 30
0.0
 10
24.81080592204612
 20
29.68193904794638
 30
0.0
 10
24.81486004279068
 20
29.68853097368183
 30
0.0
 10
24.8189141469987
 20
29.69512344793344
 30
0.0
 10
24.82296881054304
 20
29.70171557817676
 30
0.0
 10
24.82702331819598
 20
29.70830813766123
 30
0.0
 10
24.83107680900848
 20
29.71490132244433
 30
0.0
 10
24.83513214328602
 20
29.72149370688826
 30
0.0
 10
24.83918621774717
 20
29.72808719946309
 30
0.0
 10
24.84323978659441
 20
29.73468079786758
 30
0.0
 10
24.8472938350086
 20
29.74127430645651
 30
0.0
 10
24.851349422259
 20
29.74786686869713
 30
0.0
 10
24.85540296837522
 20
29.75446101945108
 30
0.0
 10
24.8594568529368
 20
29.76105529538327
 30
0.0
 10
24.86351216857999
 20
29.76764869138543
 30
0.0
 10
24.86756592405058
 20
29.77424304669916
 30
0.0
 10
24.87162004378356
 20
29.78083697307948
 30
0.0
 10
24.87567414096175
 20
29.78743145161013
 30
0.0
 10
24.879728833337
 20
29.79402556419
 30
0.0
 10
24.8837832334145
 20
29.80062018984381
 30
0.0
 10
24.88783703385101
 20
29.8072149791854
 30
0.0
 10
24.8918908713024
 20
29.81381028405754
 30
0.0
 10
24.89594602950857
 20
29.82040477690059
 30
0.0
 10
24.89864901501053
 20
29.82480145257486
 30
0.0
 10
24.89999999999996
 20
29.82699999999999
 30
0.0
 11
24.78242599999997
 21
29.63579699999996
 31
0.0
 11
24.78647999999997
 21
29.64238799999998
 31
0.0
 11
24.79053499999996
 21
29.648979
 31
0.0
 11
24.79458899999996
 21
29.65557100000001
 31
0.0
 11
24.79864299999996
 21
29.66216299999996
 31
0.0
 11
24.80269699999996
 21
29.66875499999996
 31
0.0
 11
24.80675199999996
 21
29.67534699999998
 31
0.0
 11
24.81080599999994
 21
29.681939
 31
0.0
 11
24.81486000000001
 21
29.688531
 31
0.0
 11
24.818914
 21
29.69512299999996
 31
0.0
 11
24.822969
 21
29.70171599999996
 31
0.0
 11
24.82702299999999
 21
29.70830799999998
 31
0.0
 11
24.83107699999999
 21
29.714901
 31
0.0
 11
24.83513199999999
 21
29.72149400000001
 31
0.0
 11
24.83918599999998
 21
29.72808700000001
 31
0.0
 11
24.84323999999998
 21
29.73468099999996
 31
0.0
 11
24.84729399999996
 21
29.74127399999996
 31
0.0
 11
24.85134899999996
 21
29.74786699999998
 31
0.0
 11
24.85540299999996
 21
29.75446099999999
 31
0.0
 11
24.85945699999996
 21
29.761055
 31
0.0
 11
24.86351199999996
 21
29.767649
 31
0.0
 11
24.86756600000001
 21
29.774243
 31
0.0
 11
24.87162
 21
29.78083699999996
 31
0.0
 11
24.875674
 21
29.78743099999996
 31
0.0
 11
24.87972899999999
 21
29.79402599999996
 31
0.0
 11
24.88378299999999
 21
29.80061999999998
 31
0.0
 11
24.88783699999999
 21
29.80721499999998
 31
0.0
 11
24.89189099999999
 21
29.81380999999998
 31
0.0
 11
24.89594599999998
 21
29.82040499999999
 31
0.0
 11
24.89999999999996
 21
29.82699999999999
 31
0.0
  0
SPLINE
  5
E11A
330
1E
100
AcDbEntity
  8
CUT
100
AcDbSpline
210
0.0
220
0.0
230
1.0
 70
    24
 71
     3
 72
    36
 73
    32
 74
    30
 42
0.0000000001
 43
0.0000000001
 44
0.0000000001
 12
1.0
 22
0.0
 32
0.0
 13
1.0
 23
0.0
 33
0.0
 40
0.0
 40
0.0
 40
0.0
 40
0.0
 40
0.0068969999999808
 40
0.0137930000000317
 40
0.0206900000000161
 40
0.0275859999999959
 40
0.0344830000000336
 40
0.0413790000000134
 40
0.0482759999999942
 40
0.0551720000000344
 40
0.0620690000000153
 40
0.0689659999999961
 40
0.0758620000000327
 40
0.0827590000000136
 40
0.0896550000000005
 40
0.0965520000000417
 40
0.1034480000000251
 40
0.1103449999999988
 40
0.1172409999999822
 40
0.1241380000000234
 40
0.1310339999999996
 40
0.1379309999999805
 40
0.1448280000000253
 40
0.1517240000000015
 40
0.1586209999999966
 40
0.1655170000000332
 40
0.1724140000000141
 40
0.1793099999999939
 40
0.1862070000000351
 40
0.1931030000000149
 40
0.1999999999999957
 40
0.1999999999999957
 40
0.1999999999999957
 40
0.1999999999999957
 10
24.89999999999996
 20
29.82699999999999
 30
0.0
 10
24.90229899999996
 20
29.82699999999999
 30
0.0
 10
24.90689666666664
 20
29.82699999999999
 30
0.0
 10
24.9137933333333
 20
29.82699999999999
 30
0.0
 10
24.92068966666664
 20
29.82699999999999
 30
0.0
 10
24.92758633333332
 20
29.82699999999999
 30
0.0
 10
24.93448266666664
 20
29.82699999999999
 30
0.0
 10
24.9413793333333
 20
29.82699999999999
 30
0.0
 10
24.94827566666664
 20
29.82699999999999
 30
0.0
 10
24.95517233333331
 20
29.82699999999999
 30
0.0
 10
24.96206899999998
 20
29.82699999999999
 30
0.0
 10
24.96896566666665
 20
29.82699999999999
 30
0.0
 10
24.97586233333331
 20
29.82699999999999
 30
0.0
 10
24.98275866666665
 20
29.82699999999999
 30
0.0
 10
24.98965533333331
 20
29.82699999999998
 30
0.0
 10
24.99655166666666
 20
29.82699999999999
 30
0.0
 10
25.00344833333331
 20
29.82699999999998
 30
0.0
 10
25.01034466666664
 20
29.82699999999999
 30
0.0
 10
25.01724133333329
 20
29.82699999999999
 30
0.0
 10
25.02413766666664
 20
29.82699999999999
 30
0.0
 10
25.03103433333329
 20
29.82699999999998
 30
0.0
 10
25.03793099999997
 20
29.82699999999999
 30
0.0
 10
25.04482766666663
 20
29.82699999999999
 30
0.0
 10
25.0517243333333
 20
29.82699999999999
 30
0.0
 10
25.05862066666665
 20
29.82699999999999
 30
0.0
 10
25.06551733333331
 20
29.82699999999999
 30
0.0
 10
25.07241366666664
 20
29.82699999999999
 30
0.0
 10
25.07931033333332
 20
29.82699999999999
 30
0.0
 10
25.08620666666664
 20
29.82699999999998
 30
0.0
 10
25.09310333333331
 20
29.82699999999999
 30
0.0
 10
25.09770099999997
 20
29.82699999999999
 30
0.0
 10
25.09999999999996
 20
29.82699999999999
 30
0.0
 11
24.89999999999996
 21
29.82699999999999
 31
0.0
 11
24.90689699999995
 21
29.82699999999999
 31
0.0
 11
24.913793
 21
29.82699999999999
 31
0.0
 11
24.92068999999998
 21
29.82699999999999
 31
0.0
 11
24.92758599999996
 21
29.82699999999999
 31
0.0
 11
24.934483
 21
29.82699999999999
 31
0.0
 11
24.94137899999998
 21
29.82699999999999
 31
0.0
 11
24.94827599999996
 21
29.82699999999999
 31
0.0
 11
24.955172
 21
29.82699999999999
 31
0.0
 11
24.96206899999998
 21
29.82699999999999
 31
0.0
 11
24.96896599999996
 21
29.82699999999999
 31
0.0
 11
24.975862
 21
29.82699999999999
 31
0.0
 11
24.98275899999998
 21
29.82699999999999
 31
0.0
 11
24.98965499999997
 21
29.82699999999999
 31
0.0
 11
24.99655200000001
 21
29.82699999999999
 31
0.0
 11
25.00344799999999
 21
29.82699999999999
 31
0.0
 11
25.01034499999996
 21
29.82699999999999
 31
0.0
 11
25.01724099999995
 21
29.82699999999999
 31
0.0
 11
25.02413799999999
 21
29.82699999999999
 31
0.0
 11
25.03103399999996
 21
29.82699999999999
 31
0.0
 11
25.03793099999994
 21
29.82699999999999
 31
0.0
 11
25.04482799999999
 21
29.82699999999999
 31
0.0
 11
25.05172399999997
 21
29.82699999999999
 31
0.0
 11
25.05862099999996
 21
29.82699999999999
 31
0.0
 11
25.065517
 21
29.82699999999999
 31
0.0
 11
25.07241399999998
 21
29.82699999999999
 31
0.0
 11
25.07930999999996
 21
29.82699999999999
 31
0.0
 11
25.086207
 21
29.82699999999999
 31
0.0
 11
25.09310299999998
 21
29.82699999999999
 31
0.0
 11
25.09999999999996
 21
29.82699999999999
 31
0.0
  0
SPLINE
  5
E11B
330
1E
100
AcDbEntity
  8
CUT
100
AcDbSpline
210
0.0
220
0.0
230
1.0
 70
     8
 71
     3
 72
    36
 73
    32
 74
    30
 42
0.0000000001
 43
0.0000000001
 44
0.0000000001
 12
0.5235443494994675
 22
-0.8519984237703608
 32
0.0
 13
0.5237410678997579
 23
-0.8518775110279772
 33
0.0
 40
0.0
 40
0.0
 40
0.0
 40
0.0
 40
0.0077413784948167
 40
0.0154832807158472
 40
0.02322465921069
 40
0.0309660377055085
 40
0.038706564302592
 40
0.0464484665236183
 40
0.0541889931206945
 40
0.0619295197177283
 40
0.0696700463148068
 40
0.0774110966957216
 40
0.0851516232928008
 40
0.092892149889883
 40
0.1006323484661598
 40
0.1083720232009294
 40
0.1161125497979632
 40
0.1238522245327222
 40
0.1315924231090209
 40
0.1393320978438056
 40
0.1470709207517292
 40
0.1548111193279902
 40
0.1625499422358624
 40
0.1702887651437744
 40
0.1780275880517011
 40
0.1857669348587707
 40
0.1935057577666852
 40
0.2012445806745544
 40
0.2089834035824732
 40
0.2167218986558191
 40
0.2244598697723437
 40
0.2244598697723437
 40
0.2244598697723437
 40
0.2244598697723437
 10
25.09999999999996
 20
29.82699999999999
 30
0.0
 10
25.10135098498939
 20
29.82480145257486
 30
0.0
 10
25.10405397049138
 20
29.8204047769006
 30
0.0
 10
25.10810912869751
 20
29.81381028405751
 30
0.0
 10
25.11216296614898
 20
29.80721497918542
 30
0.0
 10
25.11621676658549
 20
29.80062018984381
 30
0.0
 10
25.12027116666298
 20
29.79402556418999
 30
0.0
 10
25.12432585903823
 20
29.78743145161013
 30
0.0
 10
25.12837995621641
 20
29.78083697307948
 30
0.0
 10
25.13243407594942
 20
29.77424304669918
 30
0.0
 10
25.13648783141994
 20
29.76764869138541
 30
0.0
 10
25.14054314706313
 20
29.76105529538327
 30
0.0
 10
25.1445970316247
 20
29.75446101945107
 30
0.0
 10
25.14865057774094
 20
29.74786686869713
 30
0.0
 10
25.15270616499131
 20
29.74127430645651
 30
0.0
 10
25.15676021340554
 20
29.73468079786757
 30
0.0
 10
25.16081378225276
 20
29.72808719946309
 30
0.0
 10
25.16486785671391
 20
29.72149370688825
 30
0.0
 10
25.16892319099152
 20
29.71490132244434
 30
0.0
 10
25.172976681804
 20
29.70830813766122
 30
0.0
 10
25.17703118945695
 20
29.70171557817677
 30
0.0
 10
25.18108585300128
 20
29.69512344793342
 30
0.0
 10
25.18513995720933
 20
29.68853097368186
 30
0.0
 10
25.18919407795378
 20
29.68193904794635
 30
0.0
 10
25.19324782244954
 20
29.67534668577383
 30
0.0
 10
25.19730318118353
 20
29.66875531646115
 30
0.0
 10
25.20135690388223
 20
29.66216294087945
 30
0.0
 10
25.2054111118137
 20
29.65557106878005
 30
0.0
 10
25.2094645916237
 20
29.64897887708852
 30
0.0
 10
25.21352002938437
 20
29.64238822316664
 30
0.0
 10
25.21622310224796
 20
29.63799426785834
 30
0.0
 10
25.21757399999994
 20
29.63579699999996
 30
0.0
 11
25.09999999999996
 21
29.82699999999999
 31
0.0
 11
25.10405399999996
 21
29.82040499999999
 31
0.0
 11
25.10810899999995
 21
29.81380999999998
 31
0.0
 11
25.112163
 21
29.80721499999998
 31
0.0
 11
25.116217
 21
29.80061999999998
 31
0.0
 11
25.120271
 21
29.79402599999996
 31
0.0
 11
25.12432599999999
 21
29.78743099999996
 31
0.0
 11
25.12837999999999
 21
29.78083699999996
 31
0.0
 11
25.13243399999999
 21
29.774243
 31
0.0
 11
25.13648799999998
 21
29.767649
 31
0.0
 11
25.14054299999996
 21
29.761055
 31
0.0
 11
25.14459699999996
 21
29.75446099999999
 31
0.0
 11
25.14865099999996
 21
29.74786699999998
 31
0.0
 11
25.15270599999996
 21
29.74127399999996
 31
0.0
 11
25.15675999999996
 21
29.73468099999996
 31
0.0
 11
25.16081399999996
 21
29.72808700000001
 31
0.0
 11
25.16486799999995
 21
29.72149400000001
 31
0.0
 11
25.168923
 21
29.714901
 31
0.0
 11
25.172977
 21
29.70830799999998
 31
0.0
 11
25.177031
 21
29.70171599999996
 31
0.0
 11
25.18108599999999
 21
29.69512299999996
 31
0.0
 11
25.18513999999999
 21
29.688531
 31
0.0
 11
25.18919399999997
 21
29.681939
 31
0.0
 11
25.19324799999997
 21
29.67534699999998
 31
0.0
 11
25.19730299999996
 21
29.66875499999996
 31
0.0
 11
25.20135699999996
 21
29.66216299999996
 31
0.0
 11
25.20541099999996
 21
29.65557100000001
 31
0.0
 11
25.20946499999996
 21
29.648979
 31
0.0
 11
25.21351999999996
 21
29.64238799999998
 31
0.0
 11
25.21757399999994
 21
29.63579699999996
 31
0.0
  0
SPLINE
  5
E11C
330
1E
100
AcDbEntity
  8
CUT
100
AcDbSpline
210
0.0
220
0.0
230
1.0
 70
     8
 71
     3
 72
    36
 73
    32
 74
    30
 42
0.0000000001
 43
0.0000000001
 44
0.0000000001
 12
-0.5003731811184334
 22
0.8658098403329795
 32
0.0
 13
-0.4999826786114559
 23
0.8660354040618164
 33
0.0
 40
0.0
 40
0.0
 40
0.0
 40
0.0
 40
0.1305039542082435
 40
0.2610113716832939
 40
0.3915231182848848
 40
0.5220391940609859
 40
0.652559599059636
 40
0.7830834674707488
 40
0.9136116651905787
 40
1.044143326392045
 40
1.174678451105646
 40
1.305218771145078
 40
1.435761688873325
 40
1.566309436326117
 40
1.696859281308799
 40
1.827413455887766
 40
1.957971960110992
 40
2.088533062143701
 40
2.219097627949279
 40
2.349665657558367
 40
2.480238016964956
 40
2.610812974272977
 40
2.74139139547653
 40
2.871972414621691
 40
3.002557763708027
 40
3.133146210831061
 40
3.263737621915377
 40
3.394331631027615
 40
3.524929104203787
 40
3.655530041474548
 40
3.786133576836324
 40
3.786133576836324
 40
3.786133576836324
 40
3.786133576836324
 10
27.11127599999997
 20
26.357276
 30
0.0
 10
27.08950910709473
 20
26.39493986925196
 30
0.0
 10
27.04597513355795
 20
26.4702688326095
 30
0.0
 10
26.98067489528567
 20
26.58326502826995
 30
0.0
 10
26.91537493151215
 20
26.69626604923188
 30
0.0
 10
26.85007488061974
 20
26.80927201985321
 30
0.0
 10
26.78477519251028
 20
26.92228286675782
 30
0.0
 10
26.71947486233033
 20
27.0352980093356
 30
0.0
 10
26.65417514930721
 20
27.14831784183616
 30
0.0
 10
26.58887519804843
 20
27.26134187000835
 30
0.0
 10
26.5235745717927
 20
27.37437017490028
 30
0.0
 10
26.45827543999498
 20
27.48740367649071
 30
0.0
 10
26.39297496465736
 20
27.60044126112896
 30
0.0
 10
26.32767428141108
 20
27.71348239234824
 30
0.0
 10
26.26237393443271
 20
27.8265280511588
 30
0.0
 10
26.19707385621929
 20
27.93957800601168
 30
0.0
 10
26.13177443279976
 20
28.05263267239268
 30
0.0
 10
26.06647408156985
 20
28.16569080287571
 30
0.0
 10
26.0011741881439
 20
28.27875286444567
 30
0.0
 10
25.93587382444051
 20
28.39181898775142
 30
0.0
 10
25.87057445099829
 20
28.5048896829487
 30
0.0
 10
25.8052740408604
 20
28.61796377944248
 30
0.0
 10
25.7399744774997
 20
28.73104169827015
 30
0.0
 10
25.67467371855803
 20
28.84412292670043
 30
0.0
 10
25.60937464658125
 20
28.95720898840139
 30
0.0
 10
25.5440728645675
 20
29.07029748524333
 30
0.0
 10
25.47877348746531
 20
29.18339070406898
 30
0.0
 10
25.41347308298187
 20
29.29648680386743
 30
0.0
 10
25.34817312867474
 20
29.40958683027061
 30
0.0
 10
25.28287335048818
 20
29.52269062501315
 30
0.0
 10
25.23934050181538
 20
29.59809457149365
 30
0.0
 10
25.21757399999994
 20
29.63579699999996
 30
0.0
 11
27.11127599999997
 21
26.357276
 31
0.0
 11
27.04597599999999
 21
26.47026799999996
 31
0.0
 11
26.98067599999996
 21
26.58326399999998
 31
0.0
 11
26.91537599999998
 21
26.69626499999998
 31
0.0
 11
26.850076
 21
26.80927099999996
 31
0.0
 11
26.78477599999996
 21
26.92228199999999
 31
0.0
 11
26.71947599999998
 21
27.03529700000001
 31
0.0
 11
26.654176
 21
27.14831699999996
 31
0.0
 11
26.58887599999996
 21
27.26134100000001
 31
0.0
 11
26.52357599999999
 21
27.374369
 31
0.0
 11
26.45827599999995
 21
27.48740299999996
 31
0.0
 11
26.39297599999996
 21
27.60043999999999
 31
0.0
 11
26.32767499999999
 21
27.713482
 31
0.0
 11
26.26237499999996
 21
27.82652699999999
 31
0.0
 11
26.19707499999998
 21
27.93957699999998
 31
0.0
 11
26.131775
 21
28.05263200000002
 31
0.0
 11
26.06647499999996
 21
28.16568999999998
 31
0.0
 11
26.00117499999999
 21
28.27875199999999
 31
0.0
 11
25.93587500000001
 21
28.391818
 31
0.0
 11
25.87057499999996
 21
28.50488899999999
 31
0.0
 11
25.80527499999999
 21
28.61796299999996
 31
0.0
 11
25.73997499999995
 21
28.73104099999999
 31
0.0
 11
25.67467499999998
 21
28.84412199999996
 31
0.0
 11
25.609375
 21
28.95720799999998
 31
0.0
 11
25.54407399999996
 21
29.07029699999998
 31
0.0
 11
25.47877399999999
 21
29.18338999999996
 31
0.0
 11
25.41347400000001
 21
29.29648600000001
 31
0.0
 11
25.34817399999997
 21
29.40958599999999
 31
0.0
 11
25.28287399999999
 21
29.52269000000001
 31
0.0
 11
25.21757399999994
 21
29.63579699999996
 31
0.0
  0
ENDSEC
  0
SECTION
  2
OBJECTS
  0
DICTIONARY
  5
C
330
0
100
AcDbDictionary
281
     1
  3
ACAD_COLOR
350
DCC3
  3
ACAD_GROUP
350
D
  3
ACAD_LAYOUT
350
19
  3
ACAD_MATERIAL
350
DCC2
  3
ACAD_MLINESTYLE
350
16
  3
ACAD_PLOTSETTINGS
350
18
  3
ACAD_PLOTSTYLENAME
350
DCB8
  3
ACAD_TABLESTYLE
350
DCC4
  3
AcDbVariableDictionary
350
DCF6
1001
ACAD
1000
TREAT_AS_HARD
1070
     0
1000
TREAT_AS_HARD
1070
     0
1000
TREAT_AS_HARD
1070
     0
1000
TREAT_AS_HARD
1070
     0
  0
DICTIONARY
  5
5013
330
1E
100
AcDbDictionary
281
     1
  3
ACAD_LAYOUTSELFREF
350
C5FA
1001
ACAD
1000
TREAT_AS_HARD
1070
     0
1000
TREAT_AS_HARD
1070
     0
1000
TREAT_AS_HARD
1070
     0
  0
DICTIONARY
  5
5011
330
1A
100
AcDbDictionary
281
     1
  3
ACAD_LAYOUTSELFREF
350
C5F9
1001
ACAD
1000
TREAT_AS_HARD
1070
     0
1000
TREAT_AS_HARD
1070
     0
1000
TREAT_AS_HARD
1070
     0
  0
DICTIONARY
  5
DCC3
102
{ACAD_REACTORS
330
C
102
}
330
C
100
AcDbDictionary
281
     1
  0
DICTIONARY
  5
D
102
{ACAD_REACTORS
330
C
102
}
330
C
100
AcDbDictionary
281
     1
1001
ACAD
1000
TREAT_AS_HARD
1070
     0
1000
TREAT_AS_HARD
1070
     0
1000
TREAT_AS_HARD
1070
     0
1000
TREAT_AS_HARD
1070
     0
  0
DICTIONARY
  5
19
102
{ACAD_REACTORS
330
C
102
}
330
C
100
AcDbDictionary
281
     1
  3
Layout1
350
DCBB
  3
Model
350
DCBA
1001
ACAD
1000
TREAT_AS_HARD
1070
     0
1000
TREAT_AS_HARD
1070
     0
1000
TREAT_AS_HARD
1070
     0
1000
TREAT_AS_HARD
1070
     0
  0
DICTIONARY
  5
DCC2
102
{ACAD_REACTORS
330
C
102
}
330
C
100
AcDbDictionary
281
     1
  0
DICTIONARY
  5
16
102
{ACAD_REACTORS
330
C
102
}
330
C
100
AcDbDictionary
281
     1
  3
STANDARD
350
17
1001
ACAD
1000
TREAT_AS_HARD
1070
     0
1000
TREAT_AS_HARD
1070
     0
1000
TREAT_AS_HARD
1070
     0
1000
TREAT_AS_HARD
1070
     0
  0
DICTIONARY
  5
18
102
{ACAD_REACTORS
330
C
102
}
330
C
100
AcDbDictionary
281
     1
1001
ACAD
1000
TREAT_AS_HARD
1070
     0
1000
TREAT_AS_HARD
1070
     0
1000
TREAT_AS_HARD
1070
     0
1000
TREAT_AS_HARD
1070
     0
  0
ACDBDICTIONARYWDFLT
  5
DCB8
102
{ACAD_REACTORS
330
C
102
}
330
C
100
AcDbDictionary
281
     1
  3
Normal
350
DCB9
100
AcDbDictionaryWithDefault
340
DCB9
  0
DICTIONARY
  5
DCC4
102
{ACAD_REACTORS
330
C
102
}
330
C
100
AcDbDictionary
281
     1
  3
Standard
350
DCC5
  0
DICTIONARY
  5
DCF6
102
{ACAD_REACTORS
330
C
102
}
330
C
100
AcDbDictionary
281
     1
  3
CTABLESTYLE
350
DCF7
  3
DIMASSOC
350
DCF8
  3
PROJECTNAME
350
DCF9
  0
XRECORD
  5
C5FA
102
{ACAD_REACTORS
330
5013
102
}
330
5013
100
AcDbXrecord
280
     1
340
1E
  0
XRECORD
  5
C5F9
102
{ACAD_REACTORS
330
5011
102
}
330
5011
100
AcDbXrecord
280
     1
340
1A
  0
LAYOUT
  5
DCBB
102
{ACAD_XDICTIONARY
360
DCFE
102
}
102
{ACAD_REACTORS
330
19
102
}
330
19
100
AcDbPlotSettings
  1

  2
\\ingdom02\ITB3
  4

  6

 40
0.0
 41
0.0
 42
0.0
 43
0.0
 44
0.0
 45
0.0
 46
0.0
 47
0.0
 48
0.0
 49
0.0
140
0.0
141
0.0
142
1.0
143
1.0
 70
   688
 72
     0
 73
     0
 74
     5
  7

 75
    16
147
1.0
148
0.0
149
0.0
100
AcDbLayout
  1
Layout1
 70
     1
 71
     1
 10
0.0
 20
0.0
 11
12.0
 21
9.0
 12
0.0
 22
0.0
 32
0.0
 14
100.0
 24
100.0
 34
100.0
 15
-100.0
 25
-100.0
 35
-100.0
146
0.0
 13
0.0
 23
0.0
 33
0.0
 16
1.0
 26
0.0
 36
0.0
 17
0.0
 27
1.0
 37
0.0
 76
     0
330
1A
  0
LAYOUT
  5
DCBA
102
{ACAD_XDICTIONARY
360
DCFC
102
}
102
{ACAD_REACTORS
330
19
102
}
330
19
100
AcDbPlotSettings
  1

  2
\\ingdom02\ITB3
  4

  6

 40
0.0
 41
0.0
 42
0.0
 43
0.0
 44
0.0
 45
0.0
 46
0.0
 47
0.0
 48
0.0
 49
0.0
140
0.0
141
0.0
142
1.0
143
1.0
 70
  1712
 72
     0
 73
     0
 74
     0
  7

 75
     0
147
1.0
148
0.0
149
0.0
100
AcDbLayout
  1
Model
 70
     1
 71
     0
 10
0.0
 20
0.0
 11
12.0
 21
9.0
 12
0.0
 22
0.0
 32
0.0
 14
0.0
 24
0.0
 34
0.0
 15
0.0
 25
0.0
 35
0.0
146
0.0
 13
0.0
 23
0.0
 33
0.0
 16
1.0
 26
0.0
 36
0.0
 17
0.0
 27
1.0
 37
0.0
 76
     0
330
1E
  0
MLINESTYLE
  5
17
102
{ACAD_REACTORS
330
16
102
}
330
16
100
AcDbMlineStyle
  2
STANDARD
 70
     0
  3

 62
   256
 51
90.0
 52
90.0
 71
     2
 49
0.5
 62
   256
  6
BYLAYER
 49
-0.5
 62
   256
  6
BYLAYER
  0
ACDBPLACEHOLDER
  5
DCB9
102
{ACAD_REACTORS
330
DCB8
102
}
330
DCB8
  0
TABLESTYLE
  5
DCC5
102
{ACAD_REACTORS
330
DCC4
102
}
330
DCC4
100
AcDbTableStyle
  3
Standard
 70
     0
 71
     0
 40
0.06
 41
0.06
280
     0
281
     0
  7
STANDARD
140
0.18
170
     2
 62
     0
 63
     7
283
     0
274
    -2
284
     1
 64
     0
275
    -2
285
     1
 65
     0
276
    -2
286
     1
 66
     0
277
    -2
287
     1
 67
     0
278
    -2
288
     1
 68
     0
279
    -2
289
     1
 69
     0
  7
STANDARD
140
0.25
170
     5
 62
     0
 63
     7
283
     0
274
    -2
284
     1
 64
     0
275
    -2
285
     1
 65
     0
276
    -2
286
     1
 66
     0
277
    -2
287
     1
 67
     0
278
    -2
288
     1
 68
     0
279
    -2
289
     1
 69
     0
  7
STANDARD
140
0.18
170
     5
 62
     0
 63
     7
283
     0
274
    -2
284
     1
 64
     0
275
    -2
285
     1
 65
     0
276
    -2
286
     1
 66
     0
277
    -2
287
     1
 67
     0
278
    -2
288
     1
 68
     0
279
    -2
289
     1
 69
     0
  0
DICTIONARYVAR
  5
DCF7
102
{ACAD_REACTORS
330
DCF6
102
}
330
DCF6
100
DictionaryVariables
280
     0
  1
STANDARD
  0
DICTIONARYVAR
  5
DCF8
102
{ACAD_REACTORS
330
DCF6
102
}
330
DCF6
100
DictionaryVariables
280
     0
  1
1
  0
DICTIONARYVAR
  5
DCF9
102
{ACAD_REACTORS
330
DCF6
102
}
330
DCF6
100
DictionaryVariables
280
     0
  1

  0
DICTIONARY
  5
DCFE
330
DCBB
100
AcDbDictionary
280
     1
281
     1
  3
ACAD_XREC_ROUNDTRIP
360
DCFF
  0
DICTIONARY
  5
DCFC
330
DCBA
100
AcDbDictionary
280
     1
281
     1
  3
ACAD_XREC_ROUNDTRIP
360
DCFD
  0
XRECORD
  5
DCFF
102
{ACAD_REACTORS
330
DCFE
102
}
330
DCFE
100
AcDbXrecord
280
     1
102
SHADEPLOT
 70
     0
102
SHADEPLOTRESLEVEL
 70
     2
102
SHADEPLOTCUSTOMDPI
 70
   300
  0
XRECORD
  5
DCFD
102
{ACAD_REACTORS
330
DCFC
102
}
330
DCFC
100
AcDbXrecord
280
     1
102
SHADEPLOT
 70
     0
102
SHADEPLOTRESLEVEL
 70
     2
102
SHADEPLOTCUSTOMDPI
 70
   300
  0
ENDSEC
  0
EOF
