  0
SECTION
  2
HEADER
  9
$ACADVER
  1
AC1015
  9
$ACADMAINTVER
 70
    10
  9
$DWGCODEPAGE
  3
ANSI_1252
  9
$INSBASE
 10
0.0
 20
0.0
 30
0.0
  9
$EXTMIN
 10
-42.32637795275592
 20
-57.74066780559564
 30
0.0
  9
$EXTMAX
 10
81.51821405945705
 20
42.00068897637789
 30
0.0
  9
$LIMMIN
 10
0.0
 20
0.0
  9
$LIMMAX
 10
420.0
 20
297.0
  9
$ORTHOMODE
 70
     0
  9
$REGENMODE
 70
     1
  9
$FILLMODE
 70
     1
  9
$QTEXTMODE
 70
     0
  9
$MIRRTEXT
 70
     1
  9
$LTSCALE
 40
5.0
  9
$ATTMODE
 70
     1
  9
$TEXTSIZE
 40
0.2
  9
$TRACEWID
 40
0.05
  9
$TEXTSTYLE
  7
STANDARD
  9
$CLAYER
  8
0
  9
$CELTYPE
  6
BYLAYER
  9
$CECOLOR
 62
   256
  9
$CELTSCALE
 40
1.0
  9
$DISPSILH
 70
     0
  9
$DIMSCALE
 40
1.0
  9
$DIMASZ
 40
2.5
  9
$DIMEXO
 40
2.625
  9
$DIMDLI
 40
15.96
  9
$DIMRND
 40
0.0
  9
$DIMDLE
 40
0.0
  9
$DIMEXE
 40
7.559999999999997
  9
$DIMTP
 40
0.0
  9
$DIMTM
 40
0.0
  9
$DIMTXT
 40
3.5
  9
$DIMCEN
 40
3.779999999999998
  9
$DIMTSZ
 40
0.0
  9
$DIMTOL
 70
     0
  9
$DIMLIM
 70
     0
  9
$DIMTIH
 70
     1
  9
$DIMTOH
 70
     1
  9
$DIMSE1
 70
     0
  9
$DIMSE2
 70
     0
  9
$DIMTAD
 70
     0
  9
$DIMZIN
 70
     0
  9
$DIMBLK
  1
_FILLED
  9
$DIMASO
 70
     1
  9
$DIMSHO
 70
     1
  9
$DIMPOST
  1

  9
$DIMAPOST
  1

  9
$DIMALT
 70
     0
  9
$DIMALTD
 70
     2
  9
$DIMALTF
 40
25.4
  9
$DIMLFAC
 40
1.0
  9
$DIMTOFL
 70
     0
  9
$DIMTVP
 40
0.0
  9
$DIMTIX
 70
     0
  9
$DIMSOXD
 70
     0
  9
$DIMSAH
 70
     0
  9
$DIMBLK1
  1

  9
$DIMBLK2
  1

  9
$DIMSTYLE
  2
STANDARD
  9
$DIMCLRD
 70
     0
  9
$DIMCLRE
 70
     0
  9
$DIMCLRT
 70
     0
  9
$DIMTFAC
 40
1.0
  9
$DIMGAP
 40
0.09
  9
$DIMJUST
 70
     0
  9
$DIMSD1
 70
     0
  9
$DIMSD2
 70
     0
  9
$DIMTOLJ
 70
     1
  9
$DIMTZIN
 70
     0
  9
$DIMALTZ
 70
     0
  9
$DIMALTTZ
 70
     0
  9
$DIMUPT
 70
     0
  9
$DIMDEC
 70
     4
  9
$DIMTDEC
 70
     4
  9
$DIMALTU
 70
     2
  9
$DIMALTTD
 70
     2
  9
$DIMTXSTY
  7
STANDARD
  9
$DIMAUNIT
 70
     0
  9
$DIMADEC
 70
     0
  9
$DIMALTRND
 40
0.0
  9
$DIMAZIN
 70
     0
  9
$DIMDSEP
 70
    46
  9
$DIMATFIT
 70
     3
  9
$DIMFRAC
 70
     0
  9
$DIMLDRBLK
  1
_FILLED
  9
$DIMLUNIT
 70
     2
  9
$DIMLWD
 70
    -2
  9
$DIMLWE
 70
    -2
  9
$DIMTMOVE
 70
     0
  9
$LUNITS
 70
     2
  9
$LUPREC
 70
     4
  9
$SKETCHINC
 40
0.1
  9
$FILLETRAD
 40
0.0
  9
$AUNITS
 70
     0
  9
$AUPREC
 70
     0
  9
$MENU
  1

  9
$ELEVATION
 40
0.0
  9
$PELEVATION
 40
0.0
  9
$THICKNESS
 40
0.0
  9
$LIMCHECK
 70
     0
  9
$CHAMFERA
 40
0.0
  9
$CHAMFERB
 40
0.0
  9
$CHAMFERC
 40
0.0
  9
$CHAMFERD
 40
0.0
  9
$SKPOLY
 70
     0
  9
$TDCREATE
 40
2453402.436553784
  9
$TDUCREATE
 40
2453402.394887118
  9
$TDUPDATE
 40
2453783.387024652
  9
$TDUUPDATE
 40
2453783.345357986
  9
$TDINDWG
 40
0.6581668634
  9
$TDUSRTIMER
 40
0.6565866319
  9
$USRTIMER
 70
     1
  9
$ANGBASE
 50
0.0
  9
$ANGDIR
 70
     0
  9
$PDMODE
 70
     0
  9
$PDSIZE
 40
0.3125
  9
$PLINEWID
 40
0.0
  9
$SPLFRAME
 70
     0
  9
$SPLINETYPE
 70
     6
  9
$SPLINESEGS
 70
     8
  9
$HANDSEED
  5
B115
  9
$SURFTAB1
 70
     6
  9
$SURFTAB2
 70
     6
  9
$SURFTYPE
 70
     6
  9
$SURFU
 70
     6
  9
$SURFV
 70
     6
  9
$UCSBASE
  2

  9
$UCSNAME
  2

  9
$UCSORG
 10
0.0
 20
0.0
 30
0.0
  9
$UCSXDIR
 10
1.0
 20
0.0
 30
0.0
  9
$UCSYDIR
 10
0.0
 20
1.0
 30
0.0
  9
$UCSORTHOREF
  2

  9
$UCSORTHOVIEW
 70
     0
  9
$UCSORGTOP
 10
0.0
 20
0.0
 30
0.0
  9
$UCSORGBOTTOM
 10
0.0
 20
0.0
 30
0.0
  9
$UCSORGLEFT
 10
0.0
 20
0.0
 30
0.0
  9
$UCSORGRIGHT
 10
0.0
 20
0.0
 30
0.0
  9
$UCSORGFRONT
 10
0.0
 20
0.0
 30
0.0
  9
$UCSORGBACK
 10
0.0
 20
0.0
 30
0.0
  9
$PUCSBASE
  2

  9
$PUCSNAME
  2

  9
$PUCSORG
 10
0.0
 20
0.0
 30
0.0
  9
$PUCSXDIR
 10
1.0
 20
0.0
 30
0.0
  9
$PUCSYDIR
 10
0.0
 20
1.0
 30
0.0
  9
$PUCSORTHOREF
  2

  9
$PUCSORTHOVIEW
 70
     0
  9
$PUCSORGTOP
 10
0.0
 20
0.0
 30
0.0
  9
$PUCSORGBOTTOM
 10
0.0
 20
0.0
 30
0.0
  9
$PUCSORGLEFT
 10
0.0
 20
0.0
 30
0.0
  9
$PUCSORGRIGHT
 10
0.0
 20
0.0
 30
0.0
  9
$PUCSORGFRONT
 10
0.0
 20
0.0
 30
0.0
  9
$PUCSORGBACK
 10
0.0
 20
0.0
 30
0.0
  9
$USERI1
 70
     0
  9
$USERI2
 70
     0
  9
$USERI3
 70
     0
  9
$USERI4
 70
     0
  9
$USERI5
 70
     0
  9
$USERR1
 40
0.0
  9
$USERR2
 40
0.0
  9
$USERR3
 40
0.0
  9
$USERR4
 40
0.0
  9
$USERR5
 40
0.0
  9
$WORLDVIEW
 70
     1
  9
$SHADEDGE
 70
     3
  9
$SHADEDIF
 70
    70
  9
$TILEMODE
 70
     1
  9
$MAXACTVP
 70
    64
  9
$PINSBASE
 10
0.0
 20
0.0
 30
0.0
  9
$PLIMCHECK
 70
     0
  9
$PEXTMIN
 10
100.0
 20
100.0
 30
100.0
  9
$PEXTMAX
 10
-100.0
 20
-100.0
 30
-100.0
  9
$PLIMMIN
 10
0.0
 20
0.0
  9
$PLIMMAX
 10
12.0
 20
9.0
  9
$UNITMODE
 70
     0
  9
$VISRETAIN
 70
     1
  9
$PLINEGEN
 70
     1
  9
$PSLTSCALE
 70
     1
  9
$TREEDEPTH
 70
  3020
  9
$CMLSTYLE
  2
STANDARD
  9
$CMLJUST
 70
     0
  9
$CMLSCALE
 40
1.0
  9
$PROXYGRAPHICS
 70
     1
  9
$MEASUREMENT
 70
     0
  9
$CELWEIGHT
370
    -1
  9
$ENDCAPS
280
     0
  9
$JOINSTYLE
280
     0
  9
$LWDISPLAY
290
     0
  9
$INSUNITS
 70
     0
  9
$HYPERLINKBASE
  1

  9
$STYLESHEET
  1

  9
$XEDIT
290
     1
  9
$CEPSNTYPE
380
     0
  9
$PSTYLEMODE
290
     1
  9
$FINGERPRINTGUID
  2
{552D588F-3311-4979-BAEA-2E0D6A14D9BC}
  9
$VERSIONGUID
  2
{81850B45-1CE2-4CFF-9B1F-CAEF9A8D7680}
  9
$EXTNAMES
290
     1
  9
$PSVPSCALE
 40
0.0
  9
$OLESTARTUP
290
     0
  0
ENDSEC
  0
SECTION
  2
CLASSES
  0
CLASS
  1
ACDBDICTIONARYWDFLT
  2
AcDbDictionaryWithDefault
  3
AutoCAD 2000
 90
        0
280
     0
281
     0
  0
CLASS
  1
ACDBPLACEHOLDER
  2
AcDbPlaceHolder
  3
AutoCAD 2000
 90
        0
280
     0
281
     0
  0
CLASS
  1
LAYOUT
  2
AcDbLayout
  3
AutoCAD 2000
 90
        0
280
     0
281
     0
  0
CLASS
  1
TABLESTYLE
  2
AcDbTableStyle
  3
ObjectDBX Classes
 90
     2047
280
     0
281
     0
  0
CLASS
  1
DICTIONARYVAR
  2
AcDbDictionaryVar
  3
AutoCAD 2000
 90
        0
280
     0
281
     0
  0
ENDSEC
  0
SECTION
  2
TABLES
  0
TABLE
  2
VPORT
  5
8
330
0
100
AcDbSymbolTable
 70
     2
  0
VPORT
  5
B114
330
8
100
AcDbSymbolTableRecord
100
AcDbViewportTableRecord
  2
*Active
 70
     0
 10
0.0
 20
0.0
 11
1.0
 21
1.0
 12
19.60426987317676
 22
-7.83828790605645
 13
0.0
 23
0.0
 14
1.0
 24
1.0
 15
0.0
 25
0.0
 16
0.0
 26
0.0
 36
1.0
 17
0.0
 27
0.0
 37
0.0
 40
100.459611322281
 41
1.544999999999999
 42
50.0
 43
0.0
 44
0.0
 50
0.0
 51
0.0
 71
     0
 72
   100
 73
     1
 74
     1
 75
     0
 76
     0
 77
     0
 78
     0
281
     0
 65
     1
110
0.0
120
0.0
130
0.0
111
1.0
121
0.0
131
0.0
112
0.0
122
1.0
132
0.0
 79
     0
146
0.0
  0
ENDTAB
  0
TABLE
  2
LTYPE
  5
5
330
0
100
AcDbSymbolTable
 70
     2
  0
LTYPE
  5
13
330
5
100
AcDbSymbolTableRecord
100
AcDbLinetypeTableRecord
  2
BYBLOCK
 70
     0
  3

 72
    65
 73
     0
 40
0.0
  0
LTYPE
  5
14
330
5
100
AcDbSymbolTableRecord
100
AcDbLinetypeTableRecord
  2
BYLAYER
 70
     0
  3

 72
    65
 73
     0
 40
0.0
  0
LTYPE
  5
15
330
5
100
AcDbSymbolTableRecord
100
AcDbLinetypeTableRecord
  2
CONTINUOUS
 70
     0
  3
Solid line
 72
    65
 73
     0
 40
0.0
  0
LTYPE
  5
23
330
5
100
AcDbSymbolTableRecord
100
AcDbLinetypeTableRecord
  2
CENTER
 70
     0
  3
____ _ ____ _ ____ _ ____ _ ____ _ ____ _ ____
 72
    65
 73
     4
 40
0.6
 49
0.375
 74
     0
 49
-0.075
 74
     0
 49
0.075
 74
     0
 49
-0.075
 74
     0
  0
ENDTAB
  0
TABLE
  2
LAYER
  5
2
330
0
100
AcDbSymbolTable
 70
    11
  0
LAYER
  5
10
330
2
100
AcDbSymbolTableRecord
100
AcDbLayerTableRecord
  2
0
 70
     0
 62
     7
  6
CONTINUOUS
370
    -3
390
AC96
  0
LAYER
  5
28
330
2
100
AcDbSymbolTableRecord
100
AcDbLayerTableRecord
  2
1
 70
     0
 62
     4
  6
CONTINUOUS
370
    -3
390
AC96
  0
LAYER
  5
29
330
2
100
AcDbSymbolTableRecord
100
AcDbLayerTableRecord
  2
2
 70
     0
 62
     7
  6
CONTINUOUS
370
    -3
390
AC96
  0
LAYER
  5
2B
330
2
100
AcDbSymbolTableRecord
100
AcDbLayerTableRecord
  2
4
 70
     0
 62
     2
  6
CENTER
370
    -3
390
AC96
  0
LAYER
  5
2D
330
2
100
AcDbSymbolTableRecord
100
AcDbLayerTableRecord
  2
6
 70
     0
 62
     5
  6
CONTINUOUS
370
    -3
390
AC96
  0
LAYER
  5
1736
330
2
100
AcDbSymbolTableRecord
100
AcDbLayerTableRecord
  2
DEFPOINTS
 70
     0
 62
     7
  6
CONTINUOUS
290
     0
370
    -3
390
AC96
  0
LAYER
  5
1737
330
2
100
AcDbSymbolTableRecord
100
AcDbLayerTableRecord
  2
SK1
 70
     0
 62
     4
  6
CONTINUOUS
370
    -3
390
AC96
  0
LAYER
  5
1738
330
2
100
AcDbSymbolTableRecord
100
AcDbLayerTableRecord
  2
SK4
 70
     0
 62
     2
  6
CENTER
370
    -3
390
AC96
  0
LAYER
  5
ADC8
330
2
100
AcDbSymbolTableRecord
100
AcDbLayerTableRecord
  2
CUT
 70
     0
 62
     1
  6
CONTINUOUS
370
    -3
390
AC96
  0
LAYER
  5
ADC9
330
2
100
AcDbSymbolTableRecord
100
AcDbLayerTableRecord
  2
NOCUT
 70
     0
 62
     7
  6
CONTINUOUS
370
    -3
390
AC96
  0
LAYER
  5
ADCA
330
2
100
AcDbSymbolTableRecord
100
AcDbLayerTableRecord
  2
SK2
 70
     0
 62
     7
  6
CONTINUOUS
370
    -3
390
AC96
  0
ENDTAB
  0
TABLE
  2
STYLE
  5
3
330
0
100
AcDbSymbolTable
 70
     1
  0
STYLE
  5
11
330
3
100
AcDbSymbolTableRecord
100
AcDbTextStyleTableRecord
  2
STANDARD
 70
     0
 40
0.0
 41
0.8
 50
0.0
 71
     0
 42
0.2
  3
ISOCP
  4

  0
ENDTAB
  0
TABLE
  2
VIEW
  5
6
330
0
100
AcDbSymbolTable
 70
     0
  0
ENDTAB
  0
TABLE
  2
UCS
  5
7
330
0
100
AcDbSymbolTable
 70
     0
  0
ENDTAB
  0
TABLE
  2
APPID
  5
9
330
0
100
AcDbSymbolTable
 70
     1
  0
APPID
  5
12
330
9
100
AcDbSymbolTableRecord
100
AcDbRegAppTableRecord
  2
ACAD
 70
     0
  0
ENDTAB
  0
TABLE
  2
DIMSTYLE
  5
A
330
0
100
AcDbSymbolTable
 70
     2
100
AcDbDimStyleTable
 71
     0
  0
DIMSTYLE
105
2F
330
A
100
AcDbSymbolTableRecord
100
AcDbDimStyleTableRecord
  2
STANDARD
 70
     0
340
11
  0
DIMSTYLE
105
1739
102
{ACAD_REACTORS
330
4F4
330
4F3
330
4F1
330
4F2
330
89A1
102
}
330
A
100
AcDbSymbolTableRecord
100
AcDbDimStyleTableRecord
  2
ISO-25
 70
     0
 41
3.5
 42
0.625
 43
3.75
 44
2.0
 73
     0
 74
     0
 77
     1
 78
     8
140
3.5
141
2.5
143
0.03937007874016
147
0.625
171
     3
172
     1
176
   256
177
   256
178
   256
271
     2
272
     2
274
     3
283
     0
284
     8
340
11
  0
ENDTAB
  0
TABLE
  2
BLOCK_RECORD
  5
1
330
0
100
AcDbSymbolTable
 70
     6
  0
BLOCK_RECORD
  5
1E
102
{ACAD_XDICTIONARY
360
18E6
102
}
330
1
100
AcDbSymbolTableRecord
100
AcDbBlockTableRecord
  2
*MODEL_SPACE
340
AC97
  0
BLOCK_RECORD
  5
1A
102
{ACAD_XDICTIONARY
360
18E4
102
}
330
1
100
AcDbSymbolTableRecord
100
AcDbBlockTableRecord
  2
*PAPER_SPACE
340
AC98
  0
BLOCK_RECORD
  5
34
330
1
100
AcDbSymbolTableRecord
100
AcDbBlockTableRecord
  2
_FILLED
340
0
102
{BLKREFS
331
48F
331
490
331
499
331
49A
331
4A4
331
4A5
331
4AF
331
4B0
331
4BB
331
4BC
331
4C5
331
4C6
331
4CF
331
4D0
331
ACE7
331
ACE8
331
B0E9
331
B0EA
331
B0F4
331
B0F5
102
}
  0
BLOCK_RECORD
  5
18B2
330
1
100
AcDbSymbolTableRecord
100
AcDbBlockTableRecord
  2
*D1
340
0
  0
BLOCK_RECORD
  5
18BE
330
1
100
AcDbSymbolTableRecord
100
AcDbBlockTableRecord
  2
*D2
340
0
  0
BLOCK_RECORD
  5
18CA
330
1
100
AcDbSymbolTableRecord
100
AcDbBlockTableRecord
  2
*D3
340
0
  0
BLOCK_RECORD
  5
18D6
330
1
100
AcDbSymbolTableRecord
100
AcDbBlockTableRecord
  2
*D4
340
0
  0
BLOCK_RECORD
  5
89A2
330
1
100
AcDbSymbolTableRecord
100
AcDbBlockTableRecord
  2
*D5
340
0
  0
ENDTAB
  0
ENDSEC
  0
SECTION
  2
BLOCKS
  0
BLOCK
  5
1F
330
1E
100
AcDbEntity
  8
0
100
AcDbBlockBegin
  2
*MODEL_SPACE
 70
     0
 10
0.0
 20
0.0
 30
0.0
  3
*MODEL_SPACE
  1

  0
ENDBLK
  5
20
330
1E
100
AcDbEntity
  8
0
100
AcDbBlockEnd
  0
BLOCK
  5
1B
330
1A
100
AcDbEntity
 67
     1
  8
0
100
AcDbBlockBegin
  2
*PAPER_SPACE
 70
     0
 10
0.0
 20
0.0
 30
0.0
  3
*PAPER_SPACE
  1

  0
ENDBLK
  5
1C
330
1A
100
AcDbEntity
 67
     1
  8
0
100
AcDbBlockEnd
  0
BLOCK
  5
35
330
34
100
AcDbEntity
  8
0
100
AcDbBlockBegin
  2
_FILLED
 70
     0
 10
0.0
 20
0.0
 30
0.0
  3
_FILLED
  1

  0
SOLID
  5
36
330
34
100
AcDbEntity
  8
0
  6
ByBlock
 62
     0
100
AcDbTrace
 10
0.0
 20
0.0
 30
0.0
 11
-1.0
 21
0.132
 31
0.0
 12
-1.0
 22
-0.132
 32
0.0
 13
-1.0
 23
-0.132
 33
0.0
  0
ENDBLK
  5
37
330
34
100
AcDbEntity
  8
0
100
AcDbBlockEnd
  0
BLOCK
  5
18BC
330
18B2
100
AcDbEntity
  8
0
100
AcDbBlockBegin
  2
*D1
 70
     1
 10
0.0
 20
0.0
 30
0.0
  3
*D1
  1

  0
LINE
  5
ACBD
330
18B2
100
AcDbEntity
  8
2
370
    -2
100
AcDbLine
 10
-0.0000000000000003
 20
20.32500000000007
 30
0.0
 11
0.0000000000000008
 21
39.87499999999996
 31
0.0
  0
LINE
  5
ACBE
330
18B2
100
AcDbEntity
  8
2
370
    -2
100
AcDbLine
 10
28.09563021324999
 20
20.05038958719989
 30
0.0
 11
28.09563021324999
 21
39.87499999999996
 31
0.0
  0
LINE
  5
ACBF
330
18B2
100
AcDbEntity
  8
2
370
    -2
100
AcDbLine
 10
3.5
 20
37.87499999999996
 30
0.0
 11
24.59563021324999
 21
37.87499999999996
 31
0.0
  0
SOLID
  5
ACC0
330
18B2
100
AcDbEntity
  8
2
100
AcDbTrace
 10
3.5
 20
38.4583333333333
 30
0.0
 11
3.5
 21
37.29166666666661
 31
0.0
 12
0.0000000000000007
 22
37.87499999999996
 32
0.0
 13
0.0000000000000007
 23
37.87499999999996
 33
0.0
  0
SOLID
  5
ACC1
330
18B2
100
AcDbEntity
  8
2
100
AcDbTrace
 10
24.59563021324999
 20
38.4583333333333
 30
0.0
 11
24.59563021324999
 21
37.29166666666661
 31
0.0
 12
28.09563021324999
 22
37.87499999999996
 32
0.0
 13
28.09563021324999
 23
37.87499999999996
 33
0.0
  0
MTEXT
  5
ACC2
330
18B2
100
AcDbEntity
  8
2
100
AcDbMText
 10
14.04999999999999
 20
40.25034448818892
 30
0.0
 40
3.5
 41
0.0
 71
     5
 72
     1
  1
28.1
 73
     1
 44
1.0
1001
ACAD
1000
MTEXTBEGIN
1070
    73
1070
     1
1070
    44
1040
1.0
1070
    74
1070
     0
1000
MTEXTEND
  0
POINT
  5
ACC3
330
18B2
100
AcDbEntity
  8
DEFPOINTS
 62
     0
100
AcDbPoint
 10
-0.0000000000000004
 20
19.70000000000007
 30
0.0
  0
POINT
  5
ACC4
330
18B2
100
AcDbEntity
  8
DEFPOINTS
 62
     0
100
AcDbPoint
 10
28.09563021324999
 20
19.42538958719989
 30
0.0
  0
POINT
  5
ACC5
330
18B2
100
AcDbEntity
  8
DEFPOINTS
 62
     0
100
AcDbPoint
 10
28.09563021324999
 20
37.87499999999996
 30
0.0
  0
ENDBLK
  5
18BD
330
18B2
100
AcDbEntity
  8
0
100
AcDbBlockEnd
  0
BLOCK
  5
18C8
330
18BE
100
AcDbEntity
  8
0
100
AcDbBlockBegin
  2
*D2
 70
     1
 10
0.0
 20
0.0
 30
0.0
  3
*D2
  1

  0
LINE
  5
B0FA
330
18BE
100
AcDbEntity
  8
SK2
370
    -2
100
AcDbLine
 10
25.375
 20
19.99999999999996
 30
0.0
 11
-40.37499999999999
 21
19.99999999999998
 31
0.0
  0
LINE
  5
B0FB
330
18BE
100
AcDbEntity
  8
SK2
370
    -2
100
AcDbLine
 10
28.33055059699999
 20
-20.00000000000011
 30
0.0
 11
-40.375
 21
-20.00000000000007
 31
0.0
  0
LINE
  5
B0FC
330
18BE
100
AcDbEntity
  8
SK2
370
    -2
100
AcDbLine
 10
-38.37499999999999
 20
16.49999999999997
 30
0.0
 11
-38.375
 21
-16.50000000000009
 31
0.0
  0
SOLID
  5
B0FD
330
18BE
100
AcDbEntity
  8
SK2
100
AcDbTrace
 10
-38.95833333333333
 20
16.49999999999997
 30
0.0
 11
-37.79166666666665
 21
16.49999999999997
 31
0.0
 12
-38.37499999999999
 22
19.99999999999998
 32
0.0
 13
-38.37499999999999
 23
19.99999999999998
 33
0.0
  0
SOLID
  5
B0FE
330
18BE
100
AcDbEntity
  8
SK2
100
AcDbTrace
 10
-38.95833333333334
 20
-16.50000000000009
 30
0.0
 11
-37.79166666666667
 21
-16.50000000000009
 31
0.0
 12
-38.375
 22
-20.00000000000009
 32
0.0
 13
-38.375
 23
-20.00000000000009
 33
0.0
  0
MTEXT
  5
B0FF
330
18BE
100
AcDbEntity
  8
SK2
100
AcDbMText
 10
-40.75
 20
-0.0000000000000234
 30
0.0
 40
3.5
 41
0.0
 71
     5
 72
     1
  1
%%c40
 11
0.0000000000000001
 21
1.0
 31
0.0
 73
     1
 44
1.0
  0
POINT
  5
B100
330
18BE
100
AcDbEntity
  8
DEFPOINTS
 62
     0
100
AcDbPoint
 10
26.0
 20
19.99999999999996
 30
0.0
  0
POINT
  5
B101
330
18BE
100
AcDbEntity
  8
DEFPOINTS
 62
     0
100
AcDbPoint
 10
28.95555059699999
 20
-20.00000000000011
 30
0.0
  0
POINT
  5
B102
330
18BE
100
AcDbEntity
  8
DEFPOINTS
 62
     0
100
AcDbPoint
 10
-38.375
 20
-20.00000000000009
 30
0.0
  0
ENDBLK
  5
18C9
330
18BE
100
AcDbEntity
  8
0
100
AcDbBlockEnd
  0
BLOCK
  5
18D4
330
18CA
100
AcDbEntity
  8
0
100
AcDbBlockBegin
  2
*D3
 70
     1
 10
0.0
 20
0.0
 30
0.0
  3
*D3
  1

  0
LINE
  5
ACA2
330
18CA
100
AcDbEntity
  8
2
370
    -2
100
AcDbLine
 10
-0.0000000000000017
 20
-14.2074436861001
 30
0.0
 11
-0.0000000000000036
 21
-45.12500000000001
 31
0.0
  0
LINE
  5
ACA3
330
18CA
100
AcDbEntity
  8
2
370
    -2
100
AcDbLine
 10
25.0
 20
-26.62500000000012
 30
0.0
 11
25.0
 21
-45.12500000000001
 31
0.0
  0
LINE
  5
ACA4
330
18CA
100
AcDbEntity
  8
2
370
    -2
100
AcDbLine
 10
3.499999999999996
 20
-43.12500000000002
 30
0.0
 11
21.49999999999999
 21
-43.12500000000002
 31
0.0
  0
SOLID
  5
ACA5
330
18CA
100
AcDbEntity
  8
2
100
AcDbTrace
 10
3.499999999999996
 20
-42.54166666666669
 30
0.0
 11
3.499999999999996
 21
-43.70833333333336
 31
0.0
 12
-0.0000000000000035
 22
-43.12500000000002
 32
0.0
 13
-0.0000000000000035
 23
-43.12500000000002
 33
0.0
  0
SOLID
  5
ACA6
330
18CA
100
AcDbEntity
  8
2
100
AcDbTrace
 10
21.49999999999999
 20
-42.54166666666669
 30
0.0
 11
21.49999999999999
 21
-43.70833333333336
 31
0.0
 12
25.0
 22
-43.12500000000002
 32
0.0
 13
25.0
 23
-43.12500000000002
 33
0.0
  0
MTEXT
  5
ACA7
330
18CA
100
AcDbEntity
  8
2
100
AcDbMText
 10
18.61645892016539
 20
-40.74965551181104
 30
0.0
 40
3.5
 41
0.0
 71
     5
 72
     1
  1
25
 73
     1
 44
1.0
1001
ACAD
1000
MTEXTBEGIN
1070
    73
1070
     1
1070
    44
1040
1.0
1070
    74
1070
     0
1000
MTEXTEND
  0
POINT
  5
ACA8
330
18CA
100
AcDbEntity
  8
DEFPOINTS
 62
     0
100
AcDbPoint
 10
-0.0000000000000017
 20
-13.5824436861001
 30
0.0
  0
POINT
  5
ACA9
330
18CA
100
AcDbEntity
  8
DEFPOINTS
 62
     0
100
AcDbPoint
 10
25.0
 20
-26.00000000000012
 30
0.0
  0
POINT
  5
ACAA
330
18CA
100
AcDbEntity
  8
DEFPOINTS
 62
     0
100
AcDbPoint
 10
25.0
 20
-43.12500000000002
 30
0.0
  0
ENDBLK
  5
18D5
330
18CA
100
AcDbEntity
  8
0
100
AcDbBlockEnd
  0
BLOCK
  5
18E0
330
18D6
100
AcDbEntity
  8
0
100
AcDbBlockBegin
  2
*D4
 70
     1
 10
0.0
 20
0.0
 30
0.0
  3
*D4
  1

  0
LINE
  5
ACAB
330
18D6
100
AcDbEntity
  8
2
370
    -2
100
AcDbLine
 10
26.12500000000001
 20
25.49999999999997
 30
0.0
 11
50.39850269190001
 21
25.49999999999996
 31
0.0
  0
LINE
  5
ACAC
330
18D6
100
AcDbEntity
  8
2
370
    -2
100
AcDbLine
 10
26.125
 20
-25.50000000000011
 30
0.0
 11
50.3985026919
 21
-25.50000000000012
 31
0.0
  0
LINE
  5
ACAD
330
18D6
100
AcDbEntity
  8
2
370
    -2
100
AcDbLine
 10
48.39850269190002
 20
21.99999999999996
 30
0.0
 11
48.3985026919
 21
-22.00000000000012
 31
0.0
  0
SOLID
  5
ACAE
330
18D6
100
AcDbEntity
  8
2
100
AcDbTrace
 10
47.81516935856667
 20
21.99999999999996
 30
0.0
 11
48.98183602523335
 21
21.99999999999996
 31
0.0
 12
48.39850269190002
 22
25.49999999999996
 32
0.0
 13
48.39850269190002
 23
25.49999999999996
 33
0.0
  0
SOLID
  5
ACAF
330
18D6
100
AcDbEntity
  8
2
100
AcDbTrace
 10
47.81516935856664
 20
-22.00000000000012
 30
0.0
 11
48.98183602523332
 21
-22.00000000000012
 31
0.0
 12
48.3985026919
 22
-25.50000000000012
 32
0.0
 13
48.3985026919
 23
-25.50000000000012
 33
0.0
  0
MTEXT
  5
ACB0
330
18D6
100
AcDbEntity
  8
2
100
AcDbMText
 10
46.0235026919
 20
-0.000000000000034
 30
0.0
 40
3.5
 41
0.0
 71
     5
 72
     1
  1
%%c51
 11
0.0000000000000001
 21
1.0
 31
0.0
 73
     1
 44
1.0
1001
ACAD
1000
MTEXTBEGIN
1070
    73
1070
     1
1070
    44
1040
1.0
1070
    74
1070
     0
1000
MTEXTEND
  0
POINT
  5
ACB1
330
18D6
100
AcDbEntity
  8
DEFPOINTS
 62
     0
100
AcDbPoint
 10
25.50000000000001
 20
25.49999999999997
 30
0.0
  0
POINT
  5
ACB2
330
18D6
100
AcDbEntity
  8
DEFPOINTS
 62
     0
100
AcDbPoint
 10
25.5
 20
-25.50000000000011
 30
0.0
  0
POINT
  5
ACB3
330
18D6
100
AcDbEntity
  8
DEFPOINTS
 62
     0
100
AcDbPoint
 10
48.3985026919
 20
-25.50000000000012
 30
0.0
  0
ENDBLK
  5
18E1
330
18D6
100
AcDbEntity
  8
0
100
AcDbBlockEnd
  0
BLOCK
  5
89AE
330
89A2
100
AcDbEntity
  8
0
100
AcDbBlockBegin
  2
*D5
 70
     1
 10
0.0
 20
0.0
 30
0.0
  3
*D5
  1

  0
LINE
  5
B109
330
89A2
100
AcDbEntity
  8
2
370
    -2
100
AcDbLine
 10
24.6852048935009
 20
-25.60412378419596
 30
0.0
 11
7.687192473427558
 21
-55.04554492305599
 31
0.0
  0
LINE
  5
B10A
330
89A2
100
AcDbEntity
  8
2
370
    -2
100
AcDbLine
 10
25.31483352072156
 20
-25.60142492568821
 30
0.0
 11
42.56461382200164
 21
-54.89604532715871
 31
0.0
  0
ARC
  5
B10B
330
89A2
100
AcDbEntity
  8
2
370
    -2
100
AcDbCircle
 10
24.99770489350404
 20
-25.0628579068325
 30
0.0
 40
32.62102483980563
100
AcDbArc
 50
246.1503751622529
 51
294.3408104296097
  0
SOLID
  5
B10C
330
89A2
100
AcDbEntity
  8
2
100
AcDbTrace
 10
11.54365227118177
 20
-55.41846803496293
 30
0.0
 11
12.07194328302372
 21
-54.37826626707455
 31
0.0
 12
8.68719247343759
 22
-53.3134941154929
 32
0.0
 13
8.68719247343759
 23
-53.3134941154929
 33
0.0
  0
SOLID
  5
B10D
330
89A2
100
AcDbEntity
  8
2
100
AcDbTrace
 10
38.17430375538881
 20
-54.26638034799862
 30
0.0
 11
38.71149269304211
 21
-55.302015011562
 31
0.0
 12
41.5498022149056
 22
-53.17263086682041
 32
0.0
 13
41.5498022149056
 23
-53.17263086682041
 33
0.0
  0
MTEXT
  5
B10E
330
89A2
100
AcDbEntity
  8
2
100
AcDbMText
 10
25.12735114533358
 20
-55.30860488817727
 30
0.0
 40
3.5
 41
0.0
 71
     5
 72
     1
  1
60°
 11
0.9999908133891201
 21
0.0042863897823336
 31
0.0
 73
     1
 44
1.0
  0
POINT
  5
B10F
330
89A2
100
AcDbEntity
  8
DEFPOINTS
 62
     0
100
AcDbPoint
 10
19.42494809400624
 20
-57.20435201107208
 30
0.0
  0
POINT
  5
B110
330
89A2
100
AcDbEntity
  8
DEFPOINTS
 62
     0
100
AcDbPoint
 10
30.77350269189996
 20
-15.05888266590012
 30
0.0
  0
POINT
  5
B111
330
89A2
100
AcDbEntity
  8
DEFPOINTS
 62
     0
100
AcDbPoint
 10
23.48536546017298
 20
-22.49451159494812
 30
0.0
  0
POINT
  5
B112
330
89A2
100
AcDbEntity
  8
DEFPOINTS
 62
     0
100
AcDbPoint
 10
24.53517693951997
 20
-24.27736495559611
 30
0.0
  0
POINT
  5
B113
330
89A2
100
AcDbEntity
  8
DEFPOINTS
 62
     0
100
AcDbPoint
 10
27.46577868279997
 20
-20.7880287070001
 30
0.0
  0
ENDBLK
  5
89AF
330
89A2
100
AcDbEntity
  8
0
100
AcDbBlockEnd
  0
ENDSEC
  0
SECTION
  2
ENTITIES
  0
DIMENSION
  5
4F1
330
1E
100
AcDbEntity
  8
2
100
AcDbDimension
  2
*D3
 10
25.0
 20
-43.12500000000002
 30
0.0
 11
18.61645892016539
 21
-40.74965551181104
 31
0.0
 70
    32
 71
     5
 42
25.0
  3
ISO-25
100
AcDbAlignedDimension
 13
-0.0000000000000017
 23
-13.5824436861001
 33
0.0
 14
25.0
 24
-26.00000000000012
 34
0.0
100
AcDbRotatedDimension
1001
ACAD
1000
DSTYLE
1002
{
1070
   280
1070
     2
1002
}
  0
DIMENSION
  5
4F2
330
1E
100
AcDbEntity
  8
2
100
AcDbDimension
  2
*D4
 10
48.3985026919
 20
-25.50000000000012
 30
0.0
 11
48.39850269190001
 21
-0.0000000000000343
 31
0.0
 70
   160
  1
%%c<>
 71
     5
 42
51.00000000000008
  3
ISO-25
100
AcDbAlignedDimension
 13
25.50000000000001
 23
25.49999999999997
 33
0.0
 14
25.5
 24
-25.50000000000011
 34
0.0
 50
270.0
100
AcDbRotatedDimension
  0
DIMENSION
  5
4F3
330
1E
100
AcDbEntity
  8
SK2
100
AcDbDimension
  2
*D2
 10
-38.375
 20
-20.00000000000009
 30
0.0
 11
-38.375
 21
-0.0000000000000237
 31
0.0
 70
   160
  1
%%c<>
 71
     5
 42
40.00000000000007
  3
ISO-25
100
AcDbAlignedDimension
 13
26.0
 23
19.99999999999996
 33
0.0
 14
28.95555059699999
 24
-20.00000000000011
 34
0.0
 50
270.0
100
AcDbRotatedDimension
  0
DIMENSION
  5
4F4
330
1E
100
AcDbEntity
  8
2
100
AcDbDimension
  2
*D1
 10
28.09563021324999
 20
37.87499999999996
 30
0.0
 11
14.04999999999999
 21
37.87499999999996
 31
0.0
 70
   160
 71
     5
 42
28.09563021324999
  3
ISO-25
100
AcDbAlignedDimension
 13
-0.0000000000000004
 23
19.70000000000007
 33
0.0
 14
28.09563021324999
 24
19.42538958719989
 34
0.0
100
AcDbRotatedDimension
  0
LINE
  5
4F5
330
1E
100
AcDbEntity
  8
1
100
AcDbLine
 10
25.2175740327
 20
-24.22621850180011
 30
0.0
 11
27.1112764355
 21
-20.9332050502001
 31
0.0
  0
LINE
  5
4FA
330
1E
100
AcDbEntity
  8
1
100
AcDbLine
 10
25.09999999999999
 20
-24.42234143350013
 30
0.0
 11
25.2175740327
 21
-24.22621850180011
 31
0.0
  0
LINE
  5
4FB
330
1E
100
AcDbEntity
  8
1
100
AcDbLine
 10
28.01626042649998
 20
-19.55778476750003
 30
0.0
 11
28.17499999999999
 21
-19.29299440670012
 31
0.0
  0
LINE
  5
4FC
330
1E
100
AcDbEntity
  8
1
100
AcDbLine
 10
27.8244954731
 20
-19.76695454350012
 30
0.0
 11
28.01626042649998
 21
-19.55778476750003
 31
0.0
  0
LINE
  5
4FD
330
1E
100
AcDbEntity
  8
1
100
AcDbLine
 10
27.82449547310001
 20
19.76695454349987
 30
0.0
 11
28.01626042649998
 21
19.55778476759996
 31
0.0
  0
LINE
  5
4FE
330
1E
100
AcDbEntity
  8
1
100
AcDbLine
 10
27.11127643550001
 20
18.71302044859987
 30
0.0
 11
25.2175740327
 21
21.73770247000007
 31
0.0
  0
LINE
  5
4FF
330
1E
100
AcDbEntity
  8
1
100
AcDbLine
 10
25.1
 20
24.42234143359987
 30
0.0
 11
25.2175740327
 21
24.22621850189985
 31
0.0
  0
LINE
  5
500
330
1E
100
AcDbEntity
  8
1
100
AcDbLine
 10
28.01626042649998
 20
19.55778476759996
 30
0.0
 11
28.17499999999999
 21
19.29299440679985
 31
0.0
  0
LINE
  5
501
330
1E
100
AcDbEntity
  8
1
100
AcDbLine
 10
25.1
 20
21.93382540169996
 30
0.0
 11
25.2175740327
 21
21.73770247000007
 31
0.0
  0
LINE
  5
502
330
1E
100
AcDbEntity
  8
1
100
AcDbLine
 10
28.01626042649998
 20
17.06926873569994
 30
0.0
 11
28.17499999999999
 21
16.80447837489985
 31
0.0
  0
LINE
  5
503
330
1E
100
AcDbEntity
  8
1
100
AcDbLine
 10
25.2175740327
 20
24.22621850189985
 30
0.0
 11
27.11127643550001
 21
20.93320505019997
 31
0.0
  0
LINE
  5
504
330
1E
100
AcDbEntity
  8
1
100
AcDbLine
 10
28.01626042649998
 20
17.06926873569994
 30
0.0
 11
27.82449547310001
 21
17.49985765469984
 31
0.0
  0
LINE
  5
505
330
1E
100
AcDbEntity
  8
1
100
AcDbLine
 10
28.17499999999999
 20
-19.29299440670012
 30
0.0
 11
28.17499999999999
 21
-11.63855532510009
 31
0.0
  0
LINE
  5
506
330
1E
100
AcDbEntity
  8
1
100
AcDbLine
 10
28.17499999999999
 20
2.498135536499852
 30
0.0
 11
28.17499999999999
 21
8.382463183099869
 31
0.0
  0
LINE
  5
507
330
1E
100
AcDbEntity
  8
1
100
AcDbLine
 10
28.17499999999999
 20
19.29299440679985
 30
0.0
 11
28.17499999999999
 21
8.382463183099869
 31
0.0
  0
LINE
  5
508
330
1E
100
AcDbEntity
  8
1
100
AcDbLine
 10
28.17499999999999
 20
2.498135536499852
 30
0.0
 11
28.17499999999999
 21
-11.63855532510009
 31
0.0
  0
LINE
  5
509
330
1E
100
AcDbEntity
  8
1
100
AcDbLine
 10
28.09999999999999
 20
-18.37285424860003
 30
0.0
 11
28.09999999999999
 21
-11.66355397570004
 31
0.0
  0
LINE
  5
50A
330
1E
100
AcDbEntity
  8
1
100
AcDbLine
 10
28.09999999999999
 20
0.999112985099881
 30
0.0
 11
28.1
 21
14.60010445839994
 31
0.0
  0
LINE
  5
50B
330
1E
100
AcDbEntity
  8
1
100
AcDbLine
 10
25.1
 20
24.42234143359987
 30
0.0
 11
25.1
 21
21.93382540169996
 31
0.0
  0
LINE
  5
50C
330
1E
100
AcDbEntity
  8
1
100
AcDbLine
 10
25.09999999999999
 20
-0.209693836400024
 30
0.0
 11
25.09999999999999
 21
-12.6635000000001
 31
0.0
  0
LINE
  5
50D
330
1E
100
AcDbEntity
  8
1
100
AcDbLine
 10
27.8244954731
 20
0.144375020300057
 30
0.0
 11
28.01626042649998
 21
0.7623405032998642
 31
0.0
  0
LINE
  5
50E
330
1E
100
AcDbEntity
  8
1
100
AcDbLine
 10
27.1112764355
 20
-11.32167689440012
 30
0.0
 11
25.2175740327
 21
-12.62431077110011
 31
0.0
  0
LINE
  5
50F
330
1E
100
AcDbEntity
  8
1
100
AcDbLine
 10
24.9
 20
24.42234143359987
 30
0.0
 11
25.1
 21
24.42234143359987
 31
0.0
  0
LINE
  5
510
330
1E
100
AcDbEntity
  8
1
100
AcDbLine
 10
24.9
 20
24.42234143359987
 30
0.0
 11
24.9
 21
21.93382540169996
 31
0.0
  0
LINE
  5
511
330
1E
100
AcDbEntity
  8
1
100
AcDbLine
 10
24.89999999999999
 20
-0.2096938364000239
 30
0.0
 11
24.89999999999999
 21
-12.6635000000001
 31
0.0
  0
LINE
  5
512
330
1E
100
AcDbEntity
  8
1
100
AcDbLine
 10
21.98373957350001
 20
-11.69146566020009
 30
0.0
 11
22.17550452690001
 21
-11.20133657910011
 31
0.0
  0
LINE
  5
513
330
1E
100
AcDbEntity
  8
1
100
AcDbLine
 10
24.9
 20
21.93382540169996
 30
0.0
 11
25.1
 21
21.93382540169996
 31
0.0
  0
LINE
  5
514
330
1E
100
AcDbEntity
  8
1
100
AcDbLine
 10
24.78242596730002
 20
21.73770247000007
 30
0.0
 11
25.2175740327
 21
21.73770247000007
 31
0.0
  0
LINE
  5
51E
330
1E
100
AcDbEntity
  8
1
100
AcDbLine
 10
21.82499999999999
 20
17.04138962689986
 30
0.0
 11
21.82499999999999
 21
19.99994454679985
 31
0.0
  0
LINE
  5
51F
330
1E
100
AcDbEntity
  8
1
100
AcDbLine
 10
21.82499999999999
 20
17.04138962689986
 30
0.0
 11
21.82499999999999
 21
15.86316277620005
 31
0.0
  0
LINE
  5
520
330
1E
100
AcDbEntity
  8
1
100
AcDbLine
 10
21.82499999999998
 20
1.068492421499849
 30
0.0
 11
21.82499999999998
 21
0.1218515636998889
 31
0.0
  0
LINE
  5
521
330
1E
100
AcDbEntity
  8
1
100
AcDbLine
 10
21.82499999999998
 20
0.1218515636998889
 30
0.0
 11
21.82499999999998
 21
-10.45303024850014
 31
0.0
  0
LINE
  5
522
330
1E
100
AcDbEntity
  8
1
100
AcDbLine
 10
21.82499999999998
 20
-10.45303024850014
 30
0.0
 11
21.82499999999998
 21
-11.63855532510009
 31
0.0
  0
LINE
  5
523
330
1E
100
AcDbEntity
  8
1
100
AcDbLine
 10
21.82499999999998
 20
-19.97143685910007
 30
0.0
 11
21.82499999999998
 21
-19.99994454670012
 31
0.0
  0
LINE
  5
524
330
1E
100
AcDbEntity
  8
1
100
AcDbLine
 10
28.17499999999999
 20
8.382463183099869
 30
0.0
 11
28.09999999999999
 21
8.257357158099859
 31
0.0
  0
LINE
  5
525
330
1E
100
AcDbEntity
  8
1
100
AcDbLine
 10
25.09999999999999
 20
-12.6635000000001
 30
0.0
 11
25.2175740327
 21
-12.62431077110011
 31
0.0
  0
LINE
  5
526
330
1E
100
AcDbEntity
  8
1
100
AcDbLine
 10
28.01626042649998
 20
-11.69146566020009
 30
0.0
 11
28.17499999999999
 21
-11.63855532510009
 31
0.0
  0
LINE
  5
530
330
1E
100
AcDbEntity
  8
1
100
AcDbLine
 10
21.77880512139999
 20
19.99999999999996
 30
0.0
 11
0.2999999999999996
 21
19.99999999999996
 31
0.0
  0
LINE
  5
532
330
1E
100
AcDbEntity
  8
1
100
AcDbLine
 10
28.01626042649998
 20
-11.69146566020009
 30
0.0
 11
27.8244954731
 21
-11.20133657910011
 31
0.0
  0
LINE
  5
533
330
1E
100
AcDbEntity
  8
1
100
AcDbLine
 10
22.17550452690001
 20
0.1443750203000577
 30
0.0
 11
21.98373957350001
 21
0.762340503299865
 31
0.0
  0
LINE
  5
534
330
1E
100
AcDbEntity
  8
1
100
AcDbLine
 10
21.98373957350001
 20
17.06926873569994
 30
0.0
 11
28.01626042649998
 21
17.06926873569994
 31
0.0
  0
LINE
  5
535
330
1E
100
AcDbEntity
  8
1
100
AcDbLine
 10
26.5
 20
16.33195965799985
 30
0.0
 11
22.53210678119998
 21
16.33195965799985
 31
0.0
  0
LINE
  5
536
330
1E
100
AcDbEntity
  8
SK1
100
AcDbLine
 10
-20.49999999999989
 20
9.999999999999886
 30
0.0
 11
-23.72686128689991
 21
9.599999999999962
 31
0.0
  0
LINE
  5
537
330
1E
100
AcDbEntity
  8
1
100
AcDbLine
 10
21.98373957350001
 20
17.06926873569994
 30
0.0
 11
22.17550452690002
 21
17.49985765469984
 31
0.0
  0
LINE
  5
538
330
1E
100
AcDbEntity
  8
SK1
100
AcDbLine
 10
-2.499999999999996
 20
9.999999999999886
 30
0.0
 11
-5.499999999999999
 21
9.999999999999886
 31
0.0
  0
LINE
  5
539
330
1E
100
AcDbEntity
  8
SK1
100
AcDbLine
 10
-16.5
 20
9.999999999999886
 30
0.0
 11
-20.49999999999989
 21
9.999999999999886
 31
0.0
  0
LINE
  5
53A
330
1E
100
AcDbEntity
  8
1
100
AcDbLine
 10
28.17499999999999
 20
2.498135536499852
 30
0.0
 11
28.09999999999999
 21
2.523134187099965
 31
0.0
  0
LINE
  5
53D
330
1E
100
AcDbEntity
  8
1
100
AcDbLine
 10
24.78242596730002
 20
24.22621850189985
 30
0.0
 11
22.88872356439998
 21
20.93320505019997
 31
0.0
  0
LINE
  5
53E
330
1E
100
AcDbEntity
  8
1
100
AcDbLine
 10
21.82499999999999
 20
16.80447837489985
 30
0.0
 11
21.98373957350001
 21
17.06926873569994
 31
0.0
  0
LINE
  5
53F
330
1E
100
AcDbEntity
  8
1
100
AcDbLine
 10
24.78242596730002
 20
21.73770247000007
 30
0.0
 11
24.9
 21
21.93382540169996
 31
0.0
  0
LINE
  5
540
330
1E
100
AcDbEntity
  8
1
100
AcDbLine
 10
22.88872356439998
 20
18.71302044859987
 30
0.0
 11
24.78242596730002
 21
21.73770247000007
 31
0.0
  0
LINE
  5
541
330
1E
100
AcDbEntity
  8
1
100
AcDbLine
 10
25.09999999999999
 20
-0.209693836400024
 30
0.0
 11
25.2175740327
 21
-0.1705046076001255
 31
0.0
  0
LINE
  5
542
330
1E
100
AcDbEntity
  8
1
100
AcDbLine
 10
28.01626042649998
 20
0.7623405032998642
 30
0.0
 11
28.17499999999999
 21
0.8152508383999725
 31
0.0
  0
LINE
  5
543
330
1E
100
AcDbEntity
  8
SK1
100
AcDbLine
 10
-0.4000000000000047
 20
9.699999999999905
 30
0.0
 11
-1.301393259200023
 21
9.699999999999905
 31
0.0
  0
LINE
  5
544
330
1E
100
AcDbEntity
  8
SK1
100
AcDbLine
 10
-1.45668468629999
 20
9.720444504299962
 30
0.0
 11
-1.301393259200023
 21
9.699999999999905
 31
0.0
  0
LINE
  5
545
330
1E
100
AcDbEntity
  8
SK1
100
AcDbLine
 10
-1.45668468629999
 20
9.720444504299962
 30
0.0
 11
-2.499999999999996
 21
9.999999999999886
 31
0.0
  0
LINE
  5
548
330
1E
100
AcDbEntity
  8
1
100
AcDbLine
 10
24.78242596730001
 20
-24.22621850180011
 30
0.0
 11
22.88872356439998
 21
-20.9332050502001
 31
0.0
  0
LINE
  5
54B
330
1E
100
AcDbEntity
  8
1
100
AcDbLine
 10
21.82499999999999
 20
19.29299440679985
 30
0.0
 11
21.98373957350001
 21
19.55778476759996
 31
0.0
  0
LINE
  5
54C
330
1E
100
AcDbEntity
  8
1
100
AcDbLine
 10
24.78242596730002
 20
24.22621850189985
 30
0.0
 11
24.9
 21
24.42234143359987
 31
0.0
  0
LINE
  5
57E
330
1E
100
AcDbEntity
  8
1
100
AcDbLine
 10
21.82499999999998
 20
0.8152508383999732
 30
0.0
 11
21.98373957350001
 21
0.762340503299865
 31
0.0
  0
LINE
  5
57F
330
1E
100
AcDbEntity
  8
1
100
AcDbLine
 10
24.78242596730001
 20
-0.1705046076001254
 30
0.0
 11
24.89999999999999
 21
-0.2096938364000239
 31
0.0
  0
LINE
  5
580
330
1E
100
AcDbEntity
  8
1
100
AcDbLine
 10
24.78242596730001
 20
-24.22621850180011
 30
0.0
 11
24.89999999999999
 21
-24.42234143350013
 31
0.0
  0
LINE
  5
591
330
1E
100
AcDbEntity
  8
1
100
AcDbLine
 10
22.88872356439998
 20
-11.32167689440012
 30
0.0
 11
24.78242596730001
 21
-12.62431077110011
 31
0.0
  0
LINE
  5
592
330
1E
100
AcDbEntity
  8
1
100
AcDbLine
 10
22.17550452690002
 20
19.76695454349987
 30
0.0
 11
21.98373957350001
 21
19.55778476759996
 31
0.0
  0
LINE
  5
594
330
1E
100
AcDbEntity
  8
1
100
AcDbLine
 10
28.01626042649998
 20
0.7623405032998642
 30
0.0
 11
27.5856892133
 21
0.7623405032998642
 31
0.0
  0
LINE
  5
595
330
1E
100
AcDbEntity
  8
1
100
AcDbLine
 10
22.44830891569998
 20
0.762340503299865
 30
0.0
 11
21.98373957350001
 21
0.762340503299865
 31
0.0
  0
LINE
  5
596
330
1E
100
AcDbEntity
  8
1
100
AcDbLine
 10
26.5
 20
0.676262426899879
 30
0.0
 11
22.53210678119998
 21
0.6762624268998795
 31
0.0
  0
LINE
  5
597
330
1E
100
AcDbEntity
  8
4
100
AcDbLine
 10
33.77350269189998
 20
-0.0000000000000325
 30
0.0
 11
0.0
 21
-0.0000000000000284
 31
0.0
  0
LINE
  5
598
330
1E
100
AcDbEntity
  8
1
100
AcDbLine
 10
25.2175740327
 20
-0.1705046076001255
 30
0.0
 11
24.78242596730001
 21
-0.1705046076001254
 31
0.0
  0
LINE
  5
599
330
1E
100
AcDbEntity
  8
1
100
AcDbLine
 10
24.89999999999999
 20
-0.2096938364000239
 30
0.0
 11
25.09999999999999
 21
-0.209693836400024
 31
0.0
  0
LINE
  5
59A
330
1E
100
AcDbEntity
  8
1
100
AcDbLine
 10
25.2175740327
 20
-0.1705046076001255
 30
0.0
 11
27.1112764355
 21
-0.2107383583001227
 31
0.0
  0
LINE
  5
59B
330
1E
100
AcDbEntity
  8
1
100
AcDbLine
 10
-0.0000000000000024
 20
-19.70000000000004
 30
0.0
 11
0.0000000000000024
 21
19.70000000000007
 31
0.0
  0
LINE
  5
59C
330
1E
100
AcDbEntity
  8
1
100
AcDbLine
 10
24.78242596730001
 20
-0.1705046076001254
 30
0.0
 11
22.88872356439998
 21
-0.2107383583001222
 31
0.0
  0
LINE
  5
59D
330
1E
100
AcDbEntity
  8
SK1
100
AcDbLine
 10
-2.5
 20
-10.0
 30
0.0
 11
-2.499999999999996
 21
9.999999999999886
 31
0.0
  0
LINE
  5
59E
330
1E
100
AcDbEntity
  8
SK1
100
AcDbLine
 10
-23.72686128689991
 20
-9.600000000000019
 30
0.0
 11
-24.25521140029998
 21
-9.869207829
 31
0.0
  0
LINE
  5
59F
330
1E
100
AcDbEntity
  8
1
100
AcDbLine
 10
21.82499999999998
 20
-11.63855532510009
 30
0.0
 11
21.98373957350001
 21
-11.69146566020009
 31
0.0
  0
LINE
  5
5A0
330
1E
100
AcDbEntity
  8
1
100
AcDbLine
 10
24.78242596730001
 20
-12.62431077110011
 30
0.0
 11
24.89999999999999
 21
-12.6635000000001
 31
0.0
  0
LINE
  5
5A1
330
1E
100
AcDbEntity
  8
SK1
100
AcDbLine
 10
-23.72686128689991
 20
9.599999999999962
 30
0.0
 11
-24.25521140029998
 21
9.869207829099966
 31
0.0
  0
LINE
  5
5A2
330
1E
100
AcDbEntity
  8
SK1
100
AcDbLine
 10
-1.456684686299993
 20
-9.720444504200116
 30
0.0
 11
-2.5
 21
-10.0
 31
0.0
  0
LINE
  5
5A3
330
1E
100
AcDbEntity
  8
SK1
100
AcDbLine
 10
-1.456684686299993
 20
-9.720444504200116
 30
0.0
 11
-1.301393259200024
 21
-9.700000000000043
 31
0.0
  0
LINE
  5
5A4
330
1E
100
AcDbEntity
  8
SK1
100
AcDbLine
 10
-0.4000000000000071
 20
-9.700000000000043
 30
0.0
 11
-1.301393259200024
 21
-9.700000000000043
 31
0.0
  0
LINE
  5
5A5
330
1E
100
AcDbEntity
  8
SK1
100
AcDbLine
 10
-2.5
 20
-10.0
 30
0.0
 11
-5.5
 21
-10.0
 31
0.0
  0
LINE
  5
5A6
330
1E
100
AcDbEntity
  8
SK1
100
AcDbLine
 10
-16.5
 20
-10.0
 30
0.0
 11
-20.49999999999989
 21
-10.0
 31
0.0
  0
LINE
  5
5A7
330
1E
100
AcDbEntity
  8
1
100
AcDbLine
 10
21.98373957350001
 20
-11.69146566020009
 30
0.0
 11
23.42630352979999
 21
-11.69146566020009
 31
0.0
  0
LINE
  5
5A8
330
1E
100
AcDbEntity
  8
1
100
AcDbLine
 10
26.5736964702
 20
-11.69146566020009
 30
0.0
 11
28.01626042649998
 21
-11.69146566020009
 31
0.0
  0
LINE
  5
5A9
330
1E
100
AcDbEntity
  8
1
100
AcDbLine
 10
24.89999999999999
 20
-12.6635000000001
 30
0.0
 11
25.09999999999999
 21
-12.6635000000001
 31
0.0
  0
LINE
  5
5AA
330
1E
100
AcDbEntity
  8
SK1
100
AcDbLine
 10
-20.49999999999989
 20
-10.0
 30
0.0
 11
-23.72686128689991
 21
-9.600000000000019
 31
0.0
  0
LINE
  5
5C7
330
1E
100
AcDbEntity
  8
1
100
AcDbLine
 10
28.01626042649998
 20
-19.55778476750003
 30
0.0
 11
27.5856892133
 21
-19.55778476750003
 31
0.0
  0
LINE
  5
5C8
330
1E
100
AcDbEntity
  8
1
100
AcDbLine
 10
26.5
 20
-19.98856345840001
 30
0.0
 11
22.53210678119998
 21
-19.98856345840001
 31
0.0
  0
LINE
  5
5C9
330
1E
100
AcDbEntity
  8
1
100
AcDbLine
 10
21.43111559780001
 20
-20.00000000000011
 30
0.0
 11
0.2999999999999947
 21
-20.00000000000011
 31
0.0
  0
LINE
  5
5E6
330
1E
100
AcDbEntity
  8
SK1
100
AcDbLine
 10
-20.49999999999989
 20
-10.0
 30
0.0
 11
-20.49999999999989
 21
9.999999999999886
 31
0.0
  0
LINE
  5
5E9
330
1E
100
AcDbEntity
  8
1
100
AcDbLine
 10
24.89999999999999
 20
-24.42234143350013
 30
0.0
 11
25.09999999999999
 21
-24.42234143350013
 31
0.0
  0
LINE
  5
5EA
330
1E
100
AcDbEntity
  8
SK1
100
AcDbLine
 10
-23.72686128689991
 20
-9.600000000000019
 30
0.0
 11
-23.72686128689991
 21
9.599999999999962
 31
0.0
  0
LINE
  5
5EB
330
1E
100
AcDbEntity
  8
SK1
100
AcDbLine
 10
-26.0
 20
-8.800000000000036
 30
0.0
 11
-26.0
 21
8.799999999999956
 31
0.0
  0
ARC
  5
5EC
330
1E
100
AcDbEntity
  8
SK1
100
AcDbCircle
 10
-0.4000000000000047
 20
10.29999999999992
 30
0.0
 40
0.6
100
AcDbArc
 50
270.0
 51
311.9669171767
  0
ARC
  5
5ED
330
1E
100
AcDbEntity
  8
SK1
100
AcDbCircle
 10
-0.4000000000000071
 20
-10.30000000000004
 30
0.0
 40
0.6
100
AcDbArc
 50
48.03308282330003
 51
90.0
  0
ARC
  5
5EE
330
1E
100
AcDbEntity
  8
1
100
AcDbCircle
 10
0.2999999999999995
 20
19.70000000000007
 30
0.0
 40
0.3
100
AcDbArc
 50
90.0
 51
180.0
  0
ARC
  5
5EF
330
1E
100
AcDbEntity
  8
SK1
100
AcDbCircle
 10
-24.8
 20
-8.800000000000036
 30
0.0
 40
1.199999999999999
100
AcDbArc
 50
180.0
 51
297.0
  0
ARC
  5
5F0
330
1E
100
AcDbEntity
  8
1
100
AcDbCircle
 10
0.2999999999999947
 20
-19.70000000000004
 30
0.0
 40
0.3
100
AcDbArc
 50
180.0
 51
270.0
  0
ARC
  5
5F1
330
1E
100
AcDbEntity
  8
SK1
100
AcDbCircle
 10
-24.8
 20
8.799999999999956
 30
0.0
 40
1.199999999999999
100
AcDbArc
 50
63.00000000000001
 51
180.0
  0
LWPOLYLINE
  5
736
330
1E
100
AcDbEntity
  8
1
100
AcDbPolyline
 90
       24
 70
     0
 43
0.0
 10
27.1112764355
 20
-20.9332050502001
 10
27.13681643194901
 20
-20.8816720444831
 10
27.16730477170829
 20
-20.82189545032812
 10
27.20611591332039
 20
-20.74792246081102
 10
27.25097707799648
 20
-20.66476163846201
 10
27.3034413856805
 20
-20.57015150526001
 10
27.36039537158809
 20
-20.47021032206814
 10
27.42059239709069
 20
-20.36739741553612
 10
27.47917684061628
 20
-20.26999791643612
 10
27.53458980485709
 20
-20.18028859080204
 10
27.58447656637739
 20
-20.10165791398895
 10
27.62858232792559
 20
-20.03395710627896
 10
27.6643846317871
 20
-19.98046937086511
 10
27.6962000618025
 20
-19.93421201902902
 10
27.72148756656799
 20
-19.89842847940903
 10
27.74240752013938
 20
-19.86961747488303
 10
27.76124583681788
 20
-19.84436489467512
 10
27.7770804502196
 20
-19.82369820577401
 10
27.7889637725871
 20
-19.80863775878711
 10
27.79847272327629
 20
-19.79694737343612
 10
27.8072753569195
 20
-19.78645519537903
 10
27.81534516020889
 20
-19.77714093832011
 10
27.8226489373902
 20
-19.768977138455
 10
27.82448871541319
 20
-19.7669619146361
  0
LWPOLYLINE
  5
750
330
1E
100
AcDbEntity
  8
1
100
AcDbPolyline
 90
       12
 70
     0
 43
0.0
 10
22.88872356439998
 20
-20.9332050502001
 10
22.863287588036
 20
-20.88187901200814
 10
22.83277453056419
 20
-20.82204882973293
 10
22.79423355666171
 20
-20.7485795935411
 10
22.7496978503989
 20
-20.66599623092995
 10
22.69799107044119
 20
-20.57270094826813
 10
22.64129846421329
 20
-20.4731439675331
 10
22.58145314465339
 20
-20.37084547054895
 10
22.52295173341028
 20
-20.27349103351802
 10
22.46745492096771
 20
-20.18355574857706
 10
22.41722577865478
 20
-20.10430624014504
 10
22.39901420204029
 20
-20.07610590354714
  0
LWPOLYLINE
  5
75E
330
1E
100
AcDbEntity
  8
1
100
AcDbPolyline
 90
        3
 70
     0
 43
0.0
 10
22.39900875709998
 20
-20.07609751590003
 10
22.35941654035481
 20
-20.01586896189891
 10
22.33570229815291
 20
-19.98059746609603
  0
LWPOLYLINE
  5
763
330
1E
100
AcDbEntity
  8
1
100
AcDbPolyline
 90
       86
 70
     0
 43
0.0
 10
27.5291358576
 20
-10.94645317330014
 10
27.52559748552199
 20
-10.94646998658513
 10
27.52205885323161
 20
-10.94653522926208
 10
27.51852071032899
 20
-10.94664888264903
 10
27.5149838064147
 20
-10.94681092806891
 10
27.5114488910891
 20
-10.94702134684001
 10
27.5079167139525
 20
-10.94728012028213
 10
27.50438802460539
 20
-10.94758722971602
 10
27.5008635726481
 20
-10.94794265646102
 10
27.4973441076811
 20
-10.94834638183811
 10
27.4938303793046
 20
-10.9487983871661
 10
27.49032313637069
 20
-10.94929865267414
 10
27.48682300122222
 20
-10.94984697416413
 10
27.48333032831171
 20
-10.95044275689802
 10
27.4798454379713
 20
-10.9510853564001
 10
27.47636865053339
 20
-10.95177412819214
 10
27.47290028633019
 20
-10.95250842779501
 10
27.46944066569378
 20
-10.95328761073411
 10
27.4659901089565
 20
-10.9541110325281
 10
27.46254893645048
 20
-10.95497804870211
 10
27.4591174685081
 20
-10.95588801477813
 10
27.45512678208859
 20
-10.95700306596813
 10
27.4511502493419
 20
-10.95817467613402
 10
27.44718837894357
 20
-10.95940182186814
 10
27.44324167956939
 20
-10.9606834797661
 10
27.4393106598949
 20
-10.96201862641893
 10
27.435395828596
 20
-10.96340623842109
 10
27.43149769434821
 20
-10.96484529236499
 10
27.42761676582738
 20
-10.9663347648451
 10
27.42375355170919
 20
-10.96787363245513
 10
27.41936079349359
 20
-10.96969150930078
 10
27.4149925961557
 20
-10.97157103788913
 10
27.41064971900148
 20
-10.97351069056713
 10
27.4063329213369
 20
-10.97550893968709
 10
27.4020429624681
 20
-10.97756425759609
 10
27.3977806017009
 20
-10.97967511664309
 10
27.39301937961879
 20
-10.98211431998513
 10
27.38829512850198
 20
-10.98461970903613
 10
27.3836089294717
 20
-10.98718910868405
 10
27.3789617838533
 20
-10.98982040272713
 10
27.37435390209709
 20
-10.99251205883501
 10
27.3692797896459
 20
-10.99557212517112
 10
27.36425351422898
 20
-10.99870359396198
 10
27.3592747372065
 20
-11.00190482637711
 10
27.35434311993858
 20
-11.00517418358412
 10
27.3494583237854
 20
-11.0085100267501
 10
27.3441387222376
 20
-11.01225428957109
 10
27.33887491375478
 20
-11.01607483613213
 10
27.33366644760728
 20
-11.01996948514801
 10
27.32804707260929
 20
-11.02430014357511
 10
27.3224924379888
 20
-11.0287135622361
 10
27.31700195857619
 20
-11.03320690923003
 10
27.31112565789179
 20
-11.0381616142181
 10
27.3053232197189
 20
-11.04320319992001
 10
27.29915619041261
 20
-11.04872563250714
 10
27.2930730320552
 20
-11.05434015346108
 10
27.28664737775527
 20
-11.0604527924651
 10
27.2798970054351
 20
-11.06707753875608
 10
27.27325228772079
 20
-11.07380394481012
 10
27.2667119370838
 20
-11.08062788821301
 10
27.26027471314509
 20
-11.08754647347008
 10
27.25393937594748
 20
-11.0945568160721
 10
27.24731833086639
 20
-11.10210261748209
 10
27.24080941928658
 20
-11.10974528812713
 10
27.23441115392569
 20
-11.11748136814304
 10
27.2281220475012
 20
-11.12530739766791
 10
27.22194061273068
 20
-11.13321991683893
 10
27.21551126965499
 20
-11.14168830396002
 10
27.2091992051641
 20
-11.1502456693281
 10
27.2030026537725
 20
-11.1588879058951
 10
27.19691984999439
 20
-11.16761090661402
 10
27.19062056398778
 20
-11.176901599468
 10
27.1844439749303
 20
-11.186272882491
 10
27.1783882777639
 20
-11.19572073342808
 10
27.17245213784889
 20
-11.2052425309771
 10
27.16633131627999
 20
-11.21534263699913
 10
27.1603400409252
 20
-11.22551903897289
 10
27.1544768106593
 20
-11.23576884492202
 10
27.14874012435689
 20
-11.24608916287008
 10
27.14312848089248
 20
-11.2564771008431
 10
27.13736919009678
 20
-11.26745404740111
 10
27.1317443662992
 20
-11.27849900880909
 10
27.12625227175939
 20
-11.28960863724308
 10
27.12089116873711
 20
-11.30077958487901
 10
27.1154133782462
 20
-11.31254460332701
 10
27.11128052109438
 20
-11.32166776708108
  0
LWPOLYLINE
  5
7BB
330
1E
100
AcDbEntity
  8
1
100
AcDbPolyline
 90
       86
 70
     0
 43
0.0
 10
22.47086414239999
 20
-10.94645317330014
 10
22.4744025144776
 20
-10.94646998658513
 10
22.47794114676769
 20
-10.94653522926208
 10
22.48147928966989
 20
-10.94664888265114
 10
22.48501619358369
 20
-10.94681092807211
 10
22.48855110890887
 20
-10.94702134684413
 10
22.49208328604499
 20
-10.94728012028812
 10
22.49561197539171
 20
-10.94758722972311
 10
22.4991364273485
 20
-10.9479426564699
 10
22.50265589231509
 20
-10.94834638184912
 10
22.50616962069109
 20
-10.9487983871781
 10
22.5096768636247
 20
-10.94929865268811
 10
22.51317699877279
 20
-10.9498469741791
 10
22.516669671683
 20
-10.95044275691509
 10
22.52015456202298
 20
-10.9510853564171
 10
22.52363134946058
 20
-10.95177412821012
 10
22.5270997136636
 20
-10.95250842781413
 10
22.53055933429978
 20
-10.95328761075202
 10
22.53400989103701
 20
-10.9541110325471
 10
22.53745106354279
 20
-10.9549780487211
 10
22.54088253148519
 20
-10.9558880147961
 10
22.54487321790449
 20
-10.95700306598611
 10
22.5488497506511
 20
-10.95817467615201
 10
22.5528116210494
 20
-10.95940182188613
 10
22.55675832042359
 20
-10.960683479782
 10
22.56068934009801
 20
-10.96201862643414
 10
22.564604171397
 20
-10.96340623843514
 10
22.56850230564471
 20
-10.96484529237901
 10
22.57238323416559
 20
-10.96633476485791
 10
22.57624644828389
 20
-10.96787363246592
 10
22.58063920649939
 20
-10.96969150931013
 10
22.58500740383739
 20
-10.97157103789603
 10
22.58935028099159
 20
-10.97351069057401
 10
22.59366707865619
 20
-10.9755089396911
 10
22.59795703752498
 20
-10.977564257598
 10
22.60221939829219
 20
-10.97967511664512
 10
22.60698062037428
 20
-10.98211431998513
 10
22.611704871491
 20
-10.98461970903412
 10
22.61639107052098
 20
-10.98718910868002
 10
22.62103821613928
 20
-10.98982040272113
 10
22.62564609789521
 20
-10.99251205882809
 10
22.63072021034608
 20
-10.9955721251631
 10
22.63574648576259
 20
-10.99870359395313
 10
22.64072526278469
 20
-11.00190482636711
 10
22.6456568800522
 20
-11.005174183573
 10
22.65054167620485
 20
-11.0085100267391
 10
22.65586127775208
 20
-11.01225428956001
 10
22.66112508623428
 20
-11.01607483612113
 10
22.6663335523813
 20
-11.01996948513608
 10
22.67195292737871
 20
-11.02430014356309
 10
22.67750756199859
 20
-11.02871356222409
 10
22.6829980414107
 20
-11.0332069092181
 10
22.68887434209458
 20
-11.03816161420513
 10
22.6946767802671
 20
-11.04320319990691
 10
22.7008438095731
 20
-11.04872563249409
 10
22.70692696793028
 20
-11.05434015344701
 10
22.7133526222301
 20
-11.06045279245111
 10
22.7201029945505
 20
-11.06707753874099
 10
22.72674771226526
 20
-11.07380394479511
 10
22.73328806290288
 20
-11.08062788819714
 10
22.7397252868425
 20
-11.08754647345313
 10
22.74606062404099
 20
-11.0945568160531
 10
22.7526816691231
 20
-11.10210261746212
 10
22.75919058070389
 20
-11.10974528810513
 10
22.76558884606556
 20
-11.11748136812001
 10
22.77187795249071
 20
-11.12530739764312
 10
22.77805938726138
 20
-11.13321991681291
 10
22.78448873033699
 20
-11.14168830393301
 10
22.7908007948271
 20
-11.15024566930002
 10
22.79699734621729
 20
-11.15888790586611
 10
22.8030801499933
 20
-11.16761090658511
 10
22.80937943599679
 20
-11.17690159944003
 10
22.81555602504989
 20
-11.18627288246401
 10
22.82161172221099
 20
-11.19572073340214
 10
22.82754786211989
 20
-11.20524253095313
 10
22.83366868368158
 20
-11.21534263697802
 10
22.83965995902846
 20
-11.22551903895508
 10
22.84552318928628
 20
-11.23576884490609
 10
22.85125987558071
 20
-11.24608916285809
 10
22.8568715190372
 20
-11.2564771008341
 10
22.86263080982498
 20
-11.26745404739512
 10
22.8682556336156
 20
-11.27849900880508
 10
22.87374772814949
 20
-11.28960863724109
 10
22.87910883116711
 20
-11.30077958487901
 10
22.8845866216548
 20
-11.31254460332701
 10
22.88871947880559
 20
-11.32166776708108
  0
LWPOLYLINE
  5
813
330
1E
100
AcDbEntity
  8
1
100
AcDbPolyline
 90
       78
 70
     0
 43
0.0
 10
27.1112764355
 20
-0.2107383583001227
 10
27.11454863386359
 20
-0.2157985844389462
 10
27.1178861995381
 20
-0.2208215453681281
 10
27.1212897790746
 20
-0.2258047242020529
 10
27.12458491386069
 20
-0.2304996035160547
 10
27.12794076400629
 20
-0.2351541500830511
 10
27.13135788384799
 20
-0.2397662059871412
 10
27.13483682772257
 20
-0.2443336133129354
 10
27.13837814996678
 20
-0.2488542141451295
 10
27.14198240491719
 20
-0.2533258505671403
 10
27.1456501469107
 20
-0.2577463646631235
 10
27.14918391506229
 20
-0.2618851073431505
 10
27.15277563213129
 20
-0.2659741958281392
 10
27.15642576945358
 20
-0.2700117953071161
 10
27.16013479836489
 20
-0.2739960709691364
 10
27.16390319020069
 20
-0.2779251880050173
 10
27.167731416297
 20
-0.2817973116041263
 10
27.1716199479893
 20
-0.2856106069561439
 10
27.17534824810779
 20
-0.289156382346025
 10
27.17913115681179
 20
-0.2926465021051318
 10
27.18296907116469
 20
-0.2960794205470199
 10
27.18663182854099
 20
-0.2992567650760269
 10
27.19034374385548
 20
-0.3023806575868126
 10
27.1938677586191
 20
-0.3052591936481155
 10
27.1974338166721
 20
-0.3080876950050457
 10
27.20079952754149
 20
-0.3106811598159458
 10
27.2042008273531
 20
-0.3132285047791219
 10
27.20763721624209
 20
-0.3157285065551354
 10
27.21110819434379
 20
-0.3181799418050308
 10
27.2143617799751
 20
-0.3204117183640311
 10
27.21764435875279
 20
-0.3225995843911311
 10
27.22095553045698
 20
-0.3247425604121507
 10
27.22403702886619
 20
-0.3266800018591343
 10
27.2271422346797
 20
-0.3285775888680324
 10
27.23027083311379
 20
-0.3304345510571272
 10
27.23342250938479
 20
-0.3322501180431378
 10
27.23659694870878
 20
-0.3340235194440344
 10
27.23979383630229
 20
-0.3357539848761381
 10
27.2427437679301
 20
-0.3373018688391231
 10
27.24571205537039
 20
-0.338812433933956
 10
27.2486984561597
 20
-0.3402850867721303
 10
27.25170272783428
 20
-0.3417192339609618
 10
27.25472462793069
 20
-0.3431142821101251
 10
27.2577639139852
 20
-0.3444696378291245
 10
27.26054178426938
 20
-0.3456668362241294
 10
27.26333364056449
 20
-0.3468302947281392
 10
27.2661393007038
 20
-0.3479595675180495
 10
27.26895858252089
 20
-0.3490542087700168
 10
27.27179130384929
 20
-0.3501137726611352
 10
27.2746372825225
 20
-0.3511378133670495
 10
27.277496336374
 20
-0.3521258850651099
 10
27.28036825429329
 20
-0.3530775775309427
 10
27.28325258898228
 20
-0.3539927710350274
 10
27.28614877789221
 20
-0.3548714875980498
 10
27.2890562576963
 20
-0.3557137501981377
 10
27.2919744650674
 20
-0.3565195818129358
 10
27.29490283667883
 20
-0.3572890054210267
 10
27.29784080920348
 20
-0.3580220440001402
 10
27.30078781931458
 20
-0.3587187205280347
 10
27.30374330368519
 20
-0.3593790579841174
 10
27.30670669898838
 20
-0.3600030793441282
 10
27.30967744189728
 20
-0.3605908075880426
 10
27.31265496908501
 20
-0.361142265692141
 10
27.3156387172246
 20
-0.3616574766360576
 10
27.31862812298919
 20
-0.3621364633971527
 10
27.32162262305179
 20
-0.3625792489531284
 10
27.32462165408561
 20
-0.3629858562830212
 10
27.32762465276371
 20
-0.3633563083631121
 10
27.33063105575911
 20
-0.3636906281730352
 10
27.33364029974501
 20
-0.3639888386891276
 10
27.33665182139439
 20
-0.3642509628910522
 10
27.3396650573805
 20
-0.3644770237571355
 10
27.3426794443762
 20
-0.3646670442631181
 10
27.34569441905489
 20
-0.3648210473891173
 10
27.3487094180894
 20
-0.3649390561121241
 10
27.35172387815289
 20
-0.3650210934101527
 10
27.3547372359186
 20
-0.365067182261132
 10
27.35623332544619
 20
-0.3650767192590398
  0
LWPOLYLINE
  5
863
330
1E
100
AcDbEntity
  8
1
100
AcDbPolyline
 90
       78
 70
     0
 43
0.0
 10
22.88872356439998
 20
-0.2107383583001222
 10
22.88545136603619
 20
-0.2157985844389457
 10
22.88211380036139
 20
-0.2208215453681276
 10
22.87871022082458
 20
-0.2258047242020524
 10
22.87541508603821
 20
-0.2304996035160542
 10
22.87205923589229
 20
-0.2351541500830506
 10
22.86864211605018
 20
-0.2397662059871407
 10
22.86516317217521
 20
-0.2443336133117981
 10
22.8616218499306
 20
-0.2488542141430258
 10
22.8580175949797
 20
-0.2533258505650366
 10
22.85434985298589
 20
-0.2577463646611335
 10
22.85081608483399
 20
-0.2618851073410467
 10
22.84722436776469
 20
-0.2659741958260354
 10
22.8435742304421
 20
-0.2700117953037902
 10
22.8398652015307
 20
-0.2739960709671464
 10
22.8360968096947
 20
-0.2779251880030556
 10
22.83226858359838
 20
-0.281797311603131
 10
22.8283800519061
 20
-0.2856106069551202
 10
22.82465175178779
 20
-0.2891563823460245
 10
22.82086884308389
 20
-0.2926465021051313
 10
22.8170309287314
 20
-0.2960794205491224
 10
22.81336817135538
 20
-0.2992567650791243
 10
22.80965625604137
 20
-0.3023806575921269
 10
22.80613224127839
 20
-0.3052591936551351
 10
22.80256618322588
 20
-0.3080876950121222
 10
22.79920047235719
 20
-0.3106811598251254
 10
22.79579917254618
 20
-0.3132285047900353
 10
22.79236278365789
 20
-0.3157285065680383
 10
22.78889180555689
 20
-0.3181799418190422
 10
22.78563821992619
 20
-0.3204117183810267
 10
22.78235564114929
 20
-0.3225995844090363
 10
22.77904446944579
 20
-0.3247425604321307
 10
22.77596297103722
 20
-0.3266800018800239
 10
22.77285776522429
 20
-0.3285775888900303
 10
22.76972916679079
 20
-0.3304345510811145
 10
22.76657749052039
 20
-0.3322501180691147
 10
22.76340305119699
 20
-0.3340235194709491
 10
22.76020616360399
 20
-0.335753984904133
 10
22.75725623197669
 20
-0.3373018688670327
 10
22.75428794453689
 20
-0.338812433964054
 10
22.75130154374799
 20
-0.3402850868021431
 10
22.74829727207371
 20
-0.3417192339920545
 10
22.74527537197769
 20
-0.3431142821420138
 10
22.74223608592349
 20
-0.3444696378609563
 10
22.73945821563937
 20
-0.3456668362560178
 10
22.73666635934448
 20
-0.346830294761051
 10
22.73386069920539
 20
-0.3479595675501371
 10
22.7310414173883
 20
-0.3490542088020191
 10
22.72820869605989
 20
-0.3501137726931375
 10
22.72536271738669
 20
-0.3511378133989381
 10
22.72250366353519
 20
-0.3521258850961173
 10
22.71963174561569
 20
-0.3530775775610407
 10
22.71674741092648
 20
-0.3539927710640454
 10
22.71385122201631
 20
-0.3548714876260447
 10
22.71094374221199
 20
-0.3557137502250241
 10
22.7080255348406
 20
-0.356519581838117
 10
22.70509716322878
 20
-0.3572890054451278
 10
22.70215919070378
 20
-0.3580220440231328
 10
22.69921218059228
 20
-0.358718720550118
 10
22.69625669622129
 20
-0.3593790580031309
 10
22.6932933009176
 20
-0.3600030793621185
 10
22.69032255800829
 20
-0.360590807604015
 10
22.68734503082009
 20
-0.3611422657069482
 10
22.6843612826801
 20
-0.3616574766501257
 10
22.68137187691498
 20
-0.3621364634090325
 10
22.67837737685189
 20
-0.3625792489640417
 10
22.67537834581772
 20
-0.3629858562911209
 10
22.67237534713919
 20
-0.3633563083701317
 10
22.66936894414329
 20
-0.3636906281789463
 10
22.6663597001571
 20
-0.3639888386940441
 10
22.66334817850727
 20
-0.3642509628949453
 10
22.6603349425209
 20
-0.3644770237591245
 10
22.65732055552478
 20
-0.3646670442651354
 10
22.65430558084589
 20
-0.3648210473900263
 10
22.65129058181109
 20
-0.3649390561121236
 10
22.6482761217473
 20
-0.3650210934101521
 10
22.64526276398148
 20
-0.3650671822611315
 10
22.6437666744538
 20
-0.3650767192590393
  0
LWPOLYLINE
  5
8B3
330
1E
100
AcDbEntity
  8
1
100
AcDbPolyline
 90
       91
 70
     0
 43
0.0
 10
27.8244954731
 20
-11.20133657910011
 10
27.82158930528878
 20
-11.19403229757403
 10
27.8185967256357
 20
-11.18675874103008
 10
27.8156804961409
 20
-11.1798987539601
 10
27.8126839256067
 20
-11.17307098837508
 10
27.80960565877269
 20
-11.16627770429696
 10
27.80644434037879
 20
-11.15952116174713
 10
27.803381170653
 20
-11.15317575585111
 10
27.80024157042769
 20
-11.14686704226605
 10
27.7970243980028
 20
-11.1405969248821
 10
27.79372851167849
 20
-11.13436730758911
 10
27.7905535737945
 20
-11.12854284008713
 10
27.787306946928
 20
-11.1227575218761
 10
27.78398767923619
 20
-11.11701294023992
 10
27.78059481887661
 20
-11.11131068246612
 10
27.7771274140065
 20
-11.10565233584009
 10
27.77380817392669
 20
-11.10038892766402
 10
27.770421795336
 20
-11.0951668162291
 10
27.76696749394039
 20
-11.08998730941709
 10
27.76344448842989
 20
-11.08485189849403
 10
27.7598520128857
 20
-11.07976302047612
 10
27.75618930633621
 20
-11.07472341639103
 10
27.75245560781211
 20
-11.0697358274109
 10
27.74890610067949
 20
-11.0651300917321
 10
27.7452934700643
 20
-11.06057428352601
 10
27.74161709727021
 20
-11.05607063146478
 10
27.73787636360099
 20
-11.05162136422413
 10
27.73407065036058
 20
-11.04722871047602
 10
27.73019933885279
 20
-11.04289489889404
 10
27.72626181038161
 20
-11.03862215815013
 10
27.7222574462506
 20
-11.03441271691999
 10
27.7184787221383
 20
-11.03056257702113
 10
27.71464134048899
 20
-11.0267707228681
 10
27.71074480593989
 20
-11.02303893885914
 10
27.70678862312839
 20
-11.01936900939708
 10
27.70308339142928
 20
-11.01603782586211
 10
27.69932652347459
 20
-11.01276227070802
 10
27.6955176296482
 20
-11.00954374741411
 10
27.69165632033372
 20
-11.0063836594591
 10
27.68807042644569
 20
-11.00353945153411
 10
27.68444041458799
 20
-11.00074681757212
 10
27.68076710238668
 20
-10.99800726642711
 10
27.67705133857278
 20
-10.99532231885513
 10
27.67363724747661
 20
-10.99293012037003
 10
27.67018941149739
 20
-10.99058544819891
 10
27.66670846829919
 20
-10.98828944491009
 10
27.66319505554589
 20
-10.98604325307113
 10
27.6596498109016
 20
-10.983848015249
 10
27.65643240148409
 20
-10.98191681122792
 10
27.6531901895998
 20
-10.98002863837413
 10
27.64992364010559
 20
-10.9781843296179
 10
27.6466332178587
 20
-10.97638471789412
 10
27.64331938771608
 20
-10.97463063613304
 10
27.63998261453489
 20
-10.9729229172669
 10
27.63662336317207
 20
-10.971262394228
 10
27.6336188671851
 20
-10.96982666829109
 10
27.63059730443799
 20
-10.96842947599878
 10
27.62755900141479
 20
-10.96707140234602
 10
27.6245042845993
 20
-10.96575303232609
 10
27.62143348047569
 20
-10.96447495093613
 10
27.61834691552769
 20
-10.96323774316914
 10
27.61524491623949
 20
-10.96204199402103
 10
27.612127809095
 20
-10.96088828848613
 10
27.60899592057809
 20
-10.95977721156009
 10
27.60584957717279
 20
-10.95870934823591
 10
27.60268910536308
 20
-10.9576852835111
 10
27.5999123594825
 20
-10.95682561529713
 10
27.59712526522539
 20
-10.95600032017205
 10
27.59432805322309
 20
-10.95520976909813
 10
27.59152110881299
 20
-10.95445406110709
 10
27.5887049254283
 20
-10.95373310523211
 10
27.58587999871529
 20
-10.95304680661191
 10
27.58304682432028
 20
-10.95239507038914
 10
27.5802058978896
 20
-10.95177780170413
 10
27.57735771506949
 20
-10.951194905698
 10
27.5745027715064
 20
-10.95064628751305
 10
27.5716415628465
 20
-10.95013185228913
 10
27.56877458473612
 20
-10.94965150516711
 10
27.56590233282169
 20
-10.94920515128913
 10
27.56302530274939
 20
-10.94879269579613
 10
27.5597320533902
 20
-10.94836270463104
 10
27.5564339504034
 20
-10.94797672341209
 10
27.553131733646
 20
-10.94763461054409
 10
27.54982614297489
 20
-10.94733622442814
 10
27.54651791824699
 20
-10.9470814234691
 10
27.5432077993191
 20
-10.94687006606803
 10
27.53989652604809
 20
-10.9467020106301
 10
27.536584838291
 20
-10.94657711555711
 10
27.53327347590469
 20
-10.9464952392521
 10
27.52996317874588
 20
-10.946456240119
 10
27.52914585758709
 20
-10.94645319443209
  0
LWPOLYLINE
  5
910
330
1E
100
AcDbEntity
  8
1
100
AcDbPolyline
 90
       94
 70
     0
 43
0.0
 10
27.3562433254
 20
-0.3650767532000463
 10
27.3599080472469
 20
-0.3650627689361305
 10
27.36357269863709
 20
-0.3649959764621291
 10
27.36723646506848
 20
-0.3648762114489476
 10
27.37089853203899
 20
-0.3647033095710445
 10
27.37455808504661
 20
-0.3644771064999508
 10
27.37821430958929
 20
-0.3641974379091299
 10
27.38186639116479
 20
-0.3638641394700277
 10
27.3855135598241
 20
-0.3634771523121321
 10
27.3891552907188
 20
-0.3630369977171346
 10
27.3927911428389
 20
-0.3625443954141223
 10
27.39642067524739
 20
-0.3620000653040198
 10
27.40004344700762
 20
-0.3614047272860466
 10
27.40365901718269
 20
-0.3607591012641113
 10
27.40726694483578
 20
-0.3600639071360409
 10
27.41086678902998
 20
-0.3593198648061422
 10
27.41445810882869
 20
-0.358527694172128
 10
27.4180404632948
 20
-0.35768811513714
 10
27.42161341149158
 20
-0.3568018476011365
 10
27.42588791221328
 20
-0.3556777113580301
 10
27.43014747101928
 20
-0.3544886243201155
 10
27.43439132597079
 20
-0.3532358304769366
 10
27.43861871512879
 20
-0.3519205738171286
 10
27.4428288765547
 20
-0.3505440983301219
 10
27.44702104830949
 20
-0.3491076480041249
 10
27.45119446845439
 20
-0.3476124668281136
 10
27.45534837505058
 20
-0.3460597987898131
 10
27.45948200615922
 20
-0.3444508878811268
 10
27.46359459984129
 20
-0.3427869780890125
 10
27.46768539415809
 20
-0.3410693134031282
 10
27.47242941904589
 20
-0.3389990906670482
 10
27.47714152556119
 20
-0.3368593701631289
 10
27.4818205037735
 20
-0.3346521272990264
 10
27.48646514375209
 20
-0.3323793374841307
 10
27.4910742355663
 20
-0.3300429761250177
 10
27.495646803469
 20
-0.3276448861660447
 10
27.50082783590809
 20
-0.3248303025231144
 10
27.50596140428859
 20
-0.3219385709759626
 10
27.51104780011099
 20
-0.3189714537471423
 10
27.5160873148755
 20
-0.3159307130560228
 10
27.5210802400826
 20
-0.3128181111250432
 10
27.5260268672326
 20
-0.3096354101741417
 10
27.53092748782579
 20
-0.3063843724231424
 10
27.53638605673309
 20
-0.3026474652940328
 10
27.5417871825685
 20
-0.2988288088131446
 10
27.5471312803786
 20
-0.2949309120807902
 10
27.55241876520978
 20
-0.2909562841951219
 10
27.5582278552292
 20
-0.2864530894249276
 10
27.56396813442161
 20
-0.2818617043271308
 10
27.56964017212379
 20
-0.2771855707401335
 10
27.5758012741782
 20
-0.2719480471211318
 10
27.5818812507138
 20
-0.2666167235391333
 10
27.5884223195126
 20
-0.2606991387389462
 10
27.5948687278825
 20
-0.2546813235960349
 10
27.60174666087198
 20
-0.248055419142961
 10
27.60851594506478
 20
-0.2413229156511284
 10
27.61517788015359
 20
-0.2344871186871307
 10
27.62173376587679
 20
-0.227551329868138
 10
27.62818490197229
 20
-0.2205188508120307
 10
27.63501662409677
 20
-0.2128410659781286
 10
27.6417299921762
 20
-0.2050590960920181
 10
27.64832662955239
 20
-0.1971770647960261
 10
27.65480815956689
 20
-0.1891990957309451
 10
27.66117620556121
 20
-0.1811293125377949
 10
27.66743239087709
 20
-0.17297183885913
 10
27.6740131597656
 20
-0.1641390638240557
 10
27.68046937733
 20
-0.1552154293610249
 10
27.68680304020938
 20
-0.1462060073690486
 10
27.693016129322
 20
-0.1371157972941182
 10
27.69911032024849
 20
-0.1279483914161153
 10
27.7054813138881
 20
-0.1180873461491421
 10
27.71172030422721
 20
-0.1081438580661461
 10
27.7178289764224
 20
-0.098120681340024
 10
27.72380901562979
 20
-0.0880205701431328
 10
27.72966210700579
 20
-0.0778462786471187
 10
27.73574380435559
 20
-0.0669578949721233
 10
27.741686113171
 20
-0.0559921814241341
 10
27.74749105473448
 20
-0.0449524415321355
 10
27.75316065032859
 20
-0.0338419788209626
 10
27.75901847544899
 20
-0.0220045453901355
 10
27.76472922866698
 20
-0.010095449170027
 10
27.77029524621799
 20
0.0018814600269616
 10
27.77571809613439
 20
0.0139232042598644
 10
27.7809988340819
 20
0.0260273870958622
 10
27.7861385064016
 20
0.0381916226829412
 10
27.79141183345378
 20
0.0510941626719694
 10
27.79653038196119
 20
0.0640581489879503
 10
27.8014953825228
 20
0.0770807756379634
 10
27.80630806573739
 20
0.0901592366290595
 10
27.81096966220399
 20
0.1032907259689716
 10
27.81548140252151
 20
0.1164724376658592
 10
27.81984451728891
 20
0.1297015657269719
 10
27.82427805745649
 20
0.1436751045338804
 10
27.82449250931601
 20
0.1443654695929661
  0
LWPOLYLINE
  5
970
330
1E
100
AcDbEntity
  8
1
100
AcDbPolyline
 90
       91
 70
     0
 43
0.0
 10
22.17550452690001
 20
-11.20133657910011
 10
22.17841069471119
 20
-11.19403229757403
 10
22.18140327436441
 20
-11.18675874103008
 10
22.1843195038591
 20
-11.1798987539601
 10
22.18731607439341
 20
-11.17307098837508
 10
22.1903943412273
 20
-11.16627770429696
 10
22.19355565962129
 20
-11.15952116174713
 10
22.19661882934699
 20
-11.15317575585111
 10
22.19975842957239
 20
-11.14686704226605
 10
22.20297560199719
 20
-11.1405969248821
 10
22.20627148832153
 20
-11.13436730758911
 10
22.2094464262055
 20
-11.12854284008713
 10
22.21269305307201
 20
-11.1227575218761
 10
22.21601232076378
 20
-11.11701294023992
 10
22.2194051811234
 20
-11.11131068246612
 10
22.2228725859935
 20
-11.10565233584009
 10
22.22619182607329
 20
-11.10038892766402
 10
22.22957820466398
 20
-11.0951668162291
 10
22.23303250605958
 20
-11.08998730941709
 10
22.23655551156996
 20
-11.08485189849403
 10
22.24014798711429
 20
-11.07976302047612
 10
22.24381069366379
 20
-11.07472341639103
 10
22.2475443921879
 20
-11.0697358274109
 10
22.25109389932041
 20
-11.0651300917321
 10
22.25470652993569
 20
-11.06057428352601
 10
22.25838290272978
 20
-11.05607063146478
 10
22.26212363639898
 20
-11.05162136422413
 10
22.26592934963939
 20
-11.04722871047602
 10
22.26980066114709
 20
-11.04289489889292
 10
22.27373818961839
 20
-11.03862215815013
 10
22.2777425537494
 20
-11.03441271691999
 10
22.2815212778617
 20
-11.03056257702113
 10
22.28535865951099
 20
-11.0267707228681
 10
22.28925519405998
 20
-11.02303893885914
 10
22.29321137687159
 20
-11.01936900939708
 10
22.29691660857068
 20
-11.01603782586211
 10
22.30067347652528
 20
-11.01276227070802
 10
22.30448237035179
 20
-11.00954374741411
 10
22.30834367966619
 20
-11.0063836594591
 10
22.31192957355428
 20
-11.00353945153411
 10
22.31555958541198
 20
-11.00074681757212
 10
22.3192328976133
 20
-10.99800726642711
 10
22.32294866142706
 20
-10.99532231885513
 10
22.32636275252338
 20
-10.99293012037003
 10
22.32981058850258
 20
-10.99058544819891
 10
22.33329153170078
 20
-10.98828944491009
 10
22.33680494445408
 20
-10.98604325307113
 10
22.34035018909839
 20
-10.983848015249
 10
22.34356759851589
 20
-10.98191681122792
 10
22.34680981040019
 20
-10.98002863837413
 10
22.35007635989439
 20
-10.9781843296179
 10
22.35336678214129
 20
-10.97638471789412
 10
22.35668061228378
 20
-10.97463063613304
 10
22.3600173854651
 20
-10.9729229172669
 10
22.36337663682788
 20
-10.971262394228
 10
22.36638113281489
 20
-10.96982666829109
 10
22.36940269556196
 20
-10.96842947599878
 10
22.3724409985852
 20
-10.96707140234602
 10
22.37549571540069
 20
-10.96575303232609
 10
22.3785665195243
 20
-10.96447495093613
 10
22.38165308447229
 20
-10.96323774316914
 10
22.38475508376049
 20
-10.96204199402103
 10
22.387872190905
 20
-10.96088828848613
 10
22.39100407942189
 20
-10.95977721156009
 10
22.39415042282719
 20
-10.95870934823591
 10
22.39731089463699
 20
-10.9576852835111
 10
22.40008764051748
 20
-10.95682561529713
 10
22.40287473477461
 20
-10.95600032017205
 10
22.40567194677689
 20
-10.95520976909813
 10
22.40847889118698
 20
-10.95445406110709
 10
22.41129507457169
 20
-10.95373310523211
 10
22.4141200012847
 20
-10.95304680661191
 10
22.41695317567971
 20
-10.95239507038914
 10
22.4197941021104
 20
-10.95177780170413
 10
22.4226422849305
 20
-10.951194905698
 10
22.42549722849357
 20
-10.95064628751305
 10
22.42835843715349
 20
-10.95013185228913
 10
22.43122541526389
 20
-10.94965150516711
 10
22.43409766717828
 20
-10.94920515128913
 10
22.4369746972506
 20
-10.94879269579613
 10
22.44026794660978
 20
-10.94836270463104
 10
22.44356604959659
 20
-10.94797672341209
 10
22.44686826635397
 20
-10.94763461054409
 10
22.4501738570251
 20
-10.94733622442814
 10
22.45348208175298
 20
-10.9470814234691
 10
22.45679220068089
 20
-10.94687006606803
 10
22.46010347395178
 20
-10.9467020106301
 10
22.46341516170899
 20
-10.94657711555711
 10
22.46672652409528
 20
-10.9464952392521
 10
22.47003682125409
 20
-10.946456240119
 10
22.4708541424128
 20
-10.94645319443209
  0
LWPOLYLINE
  5
9CD
330
1E
100
AcDbEntity
  8
1
100
AcDbPolyline
 90
       94
 70
     0
 43
0.0
 10
22.64375667449999
 20
-0.3650767532000458
 10
22.64009195265348
 20
-0.36506276893613
 10
22.63642730126369
 20
-0.3649959764621285
 10
22.6327635348327
 20
-0.364876211448947
 10
22.62910146786259
 20
-0.3647033095720388
 10
22.62544191485527
 20
-0.3644771065011156
 10
22.6217856903131
 20
-0.3641974379091294
 10
22.61813360873798
 20
-0.3638641394700271
 10
22.6144864400791
 20
-0.3634771523121314
 10
22.61084470918488
 20
-0.3630369977171341
 10
22.60720885706539
 20
-0.3625443954141217
 10
22.60357932465739
 20
-0.3620000653021151
 10
22.5999565528977
 20
-0.3614047272851081
 10
22.59634098272319
 20
-0.3607591012609559
 10
22.59273305507069
 20
-0.3600639071331414
 10
22.58913321087701
 20
-0.3593198648011393
 10
22.585541891079
 20
-0.3585276941660167
 10
22.58195953661358
 20
-0.3576881151301194
 10
22.57838658841739
 20
-0.3568018475930357
 10
22.5741120876966
 20
-0.3556777113490198
 10
22.5698525288915
 20
-0.3544886243101387
 10
22.565608673941
 20
-0.353235830464942
 10
22.5613812847839
 20
-0.3519205738031444
 10
22.55717112335898
 20
-0.3505440983141197
 10
22.5529789516052
 20
-0.3491076479860196
 10
22.54880553146139
 20
-0.3476124668081324
 10
22.54465162486638
 20
-0.3460597987690362
 10
22.54051799375889
 20
-0.344450887858133
 10
22.53640540007798
 20
-0.3427869780638018
 10
22.53231460576228
 20
-0.3410693133761269
 10
22.52757058087601
 20
-0.3389990906381143
 10
22.52285847436219
 20
-0.3368593701321485
 10
22.5181794961515
 20
-0.3346521272660567
 10
22.5135348561745
 20
-0.3323793374490292
 10
22.50892576436198
 20
-0.3300429760879552
 10
22.50435319646098
 20
-0.3276448861271346
 10
22.49917216402379
 20
-0.3248303024821011
 10
22.49403859564528
 20
-0.32193857093404
 10
22.48895219982489
 20
-0.3189714537031163
 10
22.48391268506237
 20
-0.3159307130109453
 10
22.4789197598572
 20
-0.3128181110781183
 10
22.47397313270908
 20
-0.3096354101250567
 10
22.4690725121176
 20
-0.3063843723730343
 10
22.46361394321229
 20
-0.3026474652430437
 10
22.45821281737856
 20
-0.2988288087619281
 10
22.45286871957008
 20
-0.2949309120291188
 10
22.44758123474039
 20
-0.2909562841430243
 10
22.44177214472239
 20
-0.2864530893721478
 10
22.4360318655311
 20
-0.2818617042751184
 10
22.43035982782977
 20
-0.277185570688121
 10
22.42419872577589
 20
-0.2719480470701141
 10
22.41811874924029
 20
-0.2666167234887978
 10
22.411577680441
 20
-0.2606991386911402
 10
22.40513127206998
 20
-0.254681323549792
 10
22.3982533390786
 20
-0.2480554191000436
 10
22.39148405488311
 20
-0.2413229156121047
 10
22.38482211979099
 20
-0.2344871186511197
 10
22.37826623406419
 20
-0.2275513298361061
 10
22.3718150979646
 20
-0.220518850785143
 10
22.36498337583569
 20
-0.2128410659561011
 10
22.35827000775159
 20
-0.2050590960761296
 10
22.35167337037089
 20
-0.1971770647841167
 10
22.34519184035228
 20
-0.1891990957240379
 10
22.33882379435407
 20
-0.1811293125351227
 10
22.33256760903509
 20
-0.172971838860124
 10
22.32598684014399
 20
-0.1641390638300236
 10
22.31953062257808
 20
-0.1552154293700339
 10
22.31319695969829
 20
-0.1462060073811271
 10
22.306983870587
 20
-0.1371157973071347
 10
22.30088967966307
 20
-0.1279483914291318
 10
22.29451868602779
 20
-0.1180873461620449
 10
22.28827969569397
 20
-0.1081438580769456
 10
22.28217102350519
 20
-0.0981206813490331
 10
22.27619098430498
 20
-0.0880205701490439
 10
22.27033789293667
 20
-0.0778462786501307
 10
22.26425619559547
 20
-0.0669578949721226
 10
22.25831388678869
 20
-0.055992181420808
 10
22.25250894523369
 20
-0.0449524415251146
 10
22.24683934964758
 20
-0.0338419788110427
 10
22.24098152453489
 20
-0.0220045453761229
 10
22.2352707713235
 20
-0.0100954491550481
 10
22.22970475377779
 20
0.0018814600438732
 10
22.22428190386509
 20
0.0139232042779698
 10
22.21900116592009
 20
0.0260273871129728
 10
22.2138614936019
 20
0.0381916226988581
 10
22.2085881665503
 20
0.0510941626869483
 10
22.2034696180428
 20
0.0640581490008829
 10
22.19850461748059
 20
0.0770807756489633
 10
22.19369193426508
 20
0.0901592366378709
 10
22.18903033779739
 20
0.1032907259761914
 10
22.18451859747899
 20
0.1164724376698673
 10
22.18015548271107
 20
0.1297015657288769
 10
22.1757219425435
 20
0.1436751045338811
 10
22.17550749068398
 20
0.1443654695929668
  0
LWPOLYLINE
  5
A2D
330
1E
100
AcDbEntity
  8
1
100
AcDbPolyline
 90
       24
 70
     0
 43
0.0
 10
27.11127643550001
 20
20.93320505019997
 10
27.1368164319595
 20
20.88167204448896
 10
27.16730477174159
 20
20.82189545034589
 10
27.20611591335798
 20
20.74792246083096
 10
27.25097707800621
 20
20.66476163846687
 10
27.3034413856857
 20
20.57015150526487
 10
27.3603953716262
 20
20.47021032209197
 10
27.4205923971193
 20
20.36739741555388
 10
27.47917684061528
 20
20.26999791643695
 10
27.53458980487812
 20
20.18028859081895
 10
27.58447656642289
 20
20.10165791402187
 10
27.62858232795001
 20
20.03395710629594
 10
27.6643846317865
 20
19.98046937086687
 10
27.6962000618047
 20
19.93421201903387
 10
27.72148756659349
 20
19.89842847943195
 10
27.7424075201833
 20
19.86961747491982
 10
27.76124583686678
 20
19.84436489471496
 10
27.77708045025908
 20
19.82369820580585
 10
27.78896377261399
 20
19.80863775880887
 10
27.79847272329261
 20
19.79694737344896
 10
27.80727535692741
 20
19.78645519538497
 10
27.81534516021129
 20
19.77714093832194
 10
27.82264893739039
 20
19.76897713845487
 10
27.8244887154132
 20
19.76696191463584
  0
LWPOLYLINE
  5
A47
330
1E
100
AcDbEntity
  8
1
100
AcDbPolyline
 90
       24
 70
     0
 43
0.0
 10
22.88872356439998
 20
20.93320505019997
 10
22.86318356793788
 20
20.88167204449288
 10
22.83269522815428
 20
20.82189545035388
 10
22.79388408656231
 20
20.74792246082887
 10
22.74902292196351
 20
20.66476163844296
 10
22.69655861428869
 20
20.57015150524287
 10
22.63960462829639
 20
20.47021032210488
 10
22.57940760280509
 20
20.36739741556988
 10
22.5208231593641
 20
20.26999791642589
 10
22.46541019513391
 20
20.18028859079197
 10
22.4155234335791
 20
20.10165791400487
 10
22.37141767201098
 20
20.03395710631088
 10
22.33561536814451
 20
19.98046937090505
 10
22.30379993812698
 20
19.93421201907285
 10
22.27851243336131
 20
19.89842847945698
 10
22.25759247979499
 20
19.86961747492886
 10
22.23875416312798
 20
19.84436489471396
 10
22.22291954974219
 20
19.82369820580089
 10
22.2110362273883
 20
19.80863775880407
 10
22.20152727670908
 20
19.79694737344587
 10
22.19272464307337
 20
19.78645519538385
 10
22.18465483978889
 20
19.77714093832105
 10
22.17735106260958
 20
19.76897713845487
 10
22.17551128458678
 20
19.76696191463584
  0
LWPOLYLINE
  5
A61
330
1E
100
AcDbEntity
  8
1
100
AcDbPolyline
 90
       21
 70
     0
 43
0.0
 10
27.82449547310001
 20
17.49985765469984
 10
27.81113354868709
 20
17.52938973624284
 10
27.79504140985071
 20
17.56387285698786
 10
27.77549140322228
 20
17.60451811382796
 10
27.749219903929
 20
17.65756471576786
 10
27.71785424878022
 20
17.71908873310687
 10
27.67922304130959
 20
17.79272071128485
 10
27.6343937520808
 20
17.87582627839498
 10
27.58245374888887
 20
17.96950056619686
 10
27.52524529036469
 20
18.06991270171885
 10
27.4654385497112
 20
18.17207893025786
 10
27.40661120621529
 20
18.26991031085696
 10
27.35107317458039
 20
18.35984562550694
 10
27.30124990817079
 20
18.43839357593695
 10
27.25739844896319
 20
18.50570046838084
 10
27.22055520989179
 20
18.56074728232405
 10
27.18860689043347
 20
18.60719818644087
 10
27.16258180623321
 20
18.64403940429496
 10
27.14186793171672
 20
18.67254568001305
 10
27.12414484345439
 20
18.69624891283887
 10
27.1112825672698
 20
18.71301254914396
  0
LWPOLYLINE
  5
A78
330
1E
100
AcDbEntity
  8
1
100
AcDbPolyline
 90
       21
 70
     0
 43
0.0
 10
22.17550452690002
 20
17.49985765469984
 10
22.18886645131247
 20
17.52938973624188
 10
22.20495859014837
 20
17.56387285698481
 10
22.22450859677578
 20
17.60451811382286
 10
22.25078009606701
 20
17.65756471576287
 10
22.28214575121329
 20
17.71908873309985
 10
22.32077695868599
 20
17.79272071127203
 10
22.36560624791998
 20
17.87582627837485
 10
22.41754625109118
 20
17.96950056618387
 10
22.4747547095613
 20
18.06991270173207
 10
22.5345614502069
 20
18.17207893026886
 10
22.59338879374948
 20
18.26991031083488
 10
22.64892682540329
 20
18.35984562546886
 10
22.6987500918045
 20
18.43839357589887
 10
22.74260155101449
 20
18.50570046833587
 10
22.77944479009109
 20
18.56074728227287
 10
22.81139310953751
 20
18.60719818639605
 10
22.8374181937101
 20
18.64403940426796
 10
22.85813206820221
 20
18.67254568000186
 10
22.87585515644971
 20
18.69624891283693
 10
22.8887174326302
 20
18.71301254914396
  0
LWPOLYLINE
  5
A8F
330
1E
100
AcDbEntity
  8
1
100
AcDbPolyline
 90
        2
 70
     0
 43
0.0
 10
24.782426
 20
-24.22681900000013
 10
22.88872898581399
 20
-20.93427466842901
  0
LWPOLYLINE
  5
A93
330
1E
100
AcDbEntity
  8
1
100
AcDbPolyline
 90
        2
 70
     0
 43
0.0
 10
24.782426
 20
-24.22681900000013
 10
24.89999486718231
 20
-24.42323341779812
  0
LWPOLYLINE
  5
A97
330
1E
100
AcDbEntity
  8
1
100
AcDbPolyline
 90
        2
 70
     0
 43
0.0
 10
24.89999999999999
 20
-24.42324200000003
 10
25.09998999999999
 20
-24.42324200000003
  0
LWPOLYLINE
  5
A9B
330
1E
100
AcDbEntity
  8
1
100
AcDbPolyline
 90
        2
 70
     0
 43
0.0
 10
25.09999999999999
 20
-24.42324200000003
 10
25.21756886487949
 20
-24.22682758082412
  0
LWPOLYLINE
  5
A9F
330
1E
100
AcDbEntity
  8
1
100
AcDbPolyline
 90
        2
 70
     0
 43
0.0
 10
25.217574
 20
-24.22681900000013
 10
27.111271014186
 20
-20.93427466842901
  0
LWPOLYLINE
  5
AB7
330
1E
100
AcDbEntity
  8
1
100
AcDbPolyline
 90
        2
 70
     0
 43
0.0
 10
24.78242600000001
 20
24.22681899999989
 10
22.88872898581387
 20
20.93427466842888
  0
LWPOLYLINE
  5
ABB
330
1E
100
AcDbEntity
  8
1
100
AcDbPolyline
 90
        2
 70
     0
 43
0.0
 10
24.78242600000001
 20
24.22681899999989
 10
24.89999486718231
 20
24.42323341779896
  0
LWPOLYLINE
  5
ABF
330
1E
100
AcDbEntity
  8
1
100
AcDbPolyline
 90
        2
 70
     0
 43
0.0
 10
24.9
 20
24.42324200000007
 10
25.09999
 20
24.42324200000007
  0
LWPOLYLINE
  5
AC3
330
1E
100
AcDbEntity
  8
1
100
AcDbPolyline
 90
        2
 70
     0
 43
0.0
 10
25.1
 20
24.42324200000007
 10
25.2175688648795
 20
24.22682758082387
  0
LWPOLYLINE
  5
AC7
330
1E
100
AcDbEntity
  8
1
100
AcDbPolyline
 90
        2
 70
     0
 43
0.0
 10
25.217574
 20
24.22681899999989
 10
27.111271014186
 20
20.93427466842888
  0
LWPOLYLINE
  5
ADF
330
1E
100
AcDbEntity
  8
SK1
100
AcDbPolyline
 90
       46
 70
     0
 43
0.0
 10
-10.9999999999999
 20
-8.35164654420012
 10
-10.907148873022
 20
-8.352166357993128
 10
-10.81429487089299
 20
-8.353722751916105
 10
-10.72145123864891
 20
-8.356311154781108
 10
-10.6286312213239
 20
-8.359926995402016
 10
-10.5358480639538
 20
-8.364565702594031
 10
-10.443115011574
 20
-8.370222705169025
 10
-10.35044530921891
 20
-8.376893431942134
 10
-10.2578522019229
 20
-8.384573311726111
 10
-10.165348934722
 20
-8.393257773335106
 10
-10.0729487526519
 20
-8.402942245582121
 10
-9.980664410359011
 20
-8.413621547962035
 10
-9.882749399814995
 20
-8.426047469581018
 10
-9.784984475949004
 20
-8.439571497750138
 10
-9.687378635695012
 20
-8.454179588503105
 10
-9.589940875989896
 20
-8.469857697871132
 10
-9.492680193767911
 20
-8.486591781889044
 10
-9.389901301902002
 20
-8.505445592035128
 10
-9.287341699272902
 20
-8.525450847283133
 10
-9.185012065735906
 20
-8.546590876675109
 10
-9.082923028901904
 20
-8.568848967090101
 10
-8.975432783603011
 20
-8.59353620713912
 10
-8.868226945341904
 20
-8.619424448751031
 10
-8.761312122314921
 20
-8.646489281122111
 10
-8.649091860820904
 20
-8.676222853038124
 10
-8.537209083451912
 20
-8.707204607086021
 10
-8.420103817924996
 20
-8.741047651629026
 10
-8.303388048499002
 20
-8.776202467687108
 10
-8.181541511968005
 20
-8.814402404240036
 10
-8.060137029554013
 20
-8.853968520937025
 10
-7.933688687740713
 20
-8.896753673592113
 10
-7.802261772393802
 20
-8.942902202057037
 10
-7.671367202166011
 20
-8.990538500833132
 10
-7.535587086252007
 20
-9.041689909340018
 10
-7.394993358447009
 20
-9.096486439051801
 10
-7.249657009773994
 20
-9.15505575526012
 10
-7.099647687709777
 20
-9.217522244660957
 10
-6.9450364595901
 20
-9.284003134577147
 10
-6.78589579141207
 20
-9.354607114761103
 10
-6.622297991714602
 20
-9.429435869961107
 10
-6.449076846495995
 20
-9.511092685168023
 10
-6.271593149964315
 20
-9.597282450887037
 10
-6.084739201103204
 20
-9.690706073796119
 10
-5.888670387692473
 20
-9.791613190295036
 10
-5.68354177180909
 20
-9.900238732718122
 10
-5.500008762166086
 20
-9.999995180825122
  0
LWPOLYLINE
  5
B0F
330
1E
100
AcDbEntity
  8
SK1
100
AcDbPolyline
 90
       46
 70
     0
 43
0.0
 10
-10.9999999999999
 20
8.351646544299882
 10
-11.09285118571
 20
8.352166361266855
 10
-11.1857052549029
 20
8.353722763534959
 10
-11.278548958433
 20
8.356311178152878
 10
-11.37136904715589
 20
8.359927032170871
 10
-11.46415227193001
 20
8.364565752638892
 10
-11.556885383609
 20
8.370222766605879
 10
-11.64955513304898
 20
8.376893501122962
 10
-11.74214827110698
 20
8.384573383238889
 10
-11.83465154863889
 20
8.393257840002862
 10
-11.92705171649887
 20
8.402942298465887
 10
-12.01933601809989
 20
8.413621574869209
 10
-12.11725096037389
 20
8.426047454247964
 10
-12.2150157925069
 20
8.439571430630879
 10
-12.3126215198299
 20
8.454179465846863
 10
-12.41005914767581
 20
8.469857521726881
 10
-12.50731968137699
 20
8.486591560103875
 10
-12.61009840034501
 20
8.505445336920987
 10
-12.712657816632
 20
8.525450581018871
 10
-12.81498725307601
 20
8.546590628322862
 10
-12.917076092449
 20
8.568848766156207
 10
-13.02456619911289
 20
8.593536032182951
 10
-13.131771966506
 20
8.619424267211885
 10
-13.2386867626699
 20
8.646489067724871
 10
-13.350907017302
 20
8.676222586809956
 10
-13.4627897825189
 20
8.707204276587871
 10
-13.579894999265
 20
8.741047250635887
 10
-13.696610651434
 20
8.776202002793214
 10
-13.81845701004999
 20
8.81440189442287
 10
-13.9398614108359
 20
8.853968002122885
 10
-14.066309751537
 20
8.896753167610969
 10
-14.19773671672101
 20
8.942901713252867
 10
-14.328631345996
 20
8.990538011584961
 10
-14.4644114863369
 20
9.041689377392883
 10
-14.605005189935
 20
9.096485828553882
 10
-14.750341599576
 20
9.155055155510863
 10
-14.90035105371491
 20
9.217521717710956
 10
-15.05496244134491
 20
9.284002684177981
 10
-15.2141032432189
 20
9.354606674887977
 10
-15.377701176062
 20
9.429435455570882
 10
-15.55092248145899
 20
9.511092355797961
 10
-15.728406335319
 20
9.597282201732866
 10
-15.91526042804889
 20
9.690705881183047
 10
-16.111329378958
 20
9.791613067844881
 10
-16.316458122049
 20
9.900238676073882
 10
-16.49999123783391
 20
9.99999518082498
  0
LWPOLYLINE
  5
C09
330
1E
100
AcDbEntity
  8
1
100
AcDbPolyline
 90
       43
 70
     0
 43
0.0
 10
22.28461940779998
 20
16.17366534439986
 10
22.2793422752831
 20
16.17029627971384
 10
22.27402097445569
 20
16.16699515624403
 10
22.26865672440789
 20
16.16376152660788
 10
22.26325074422979
 20
16.16059494342287
 10
22.25780425301151
 20
16.15749495930594
 10
22.25231846984307
 20
16.15446112687584
 10
22.24653064414307
 20
16.15135329057985
 10
22.24070243493398
 20
16.14831705074388
 10
22.23483524388659
 20
16.14535189298095
 10
22.22893047267129
 20
16.14245730290588
 10
22.22298952295878
 20
16.13963276613195
 10
22.21701379641979
 20
16.13687776827396
 10
22.21100469472469
 20
16.13419179494496
 10
22.2046882882248
 20
16.13145697565004
 10
22.19833853712529
 20
16.12879644847686
 10
22.19195704305338
 20
16.12620962565886
 10
22.1855454076363
 20
16.12369591943092
 10
22.17910523250119
 20
16.12125474202603
 10
22.1723563541151
 20
16.11878411825188
 10
22.16557996402257
 20
16.11639115946086
 10
22.15877788197329
 20
16.11407519783983
 10
22.1519519250509
 20
16.11183556633397
 10
22.14510359837751
 20
16.10967168678882
 10
22.1382338068284
 20
16.10758315209895
 10
22.13134338709378
 20
16.10556957458896
 10
22.12414483325001
 20
16.10355138711696
 10
22.1169257499541
 20
16.10161367455386
 10
22.1096870829006
 20
16.09975599871597
 10
22.10242977778429
 20
16.09797792142083
 10
22.09515478029989
 20
16.09627900448696
 10
22.0878630361421
 20
16.09465880973186
 10
22.0805554910054
 20
16.09311689897387
 10
22.07293989895379
 20
16.09159588442696
 10
22.06530930320488
 20
16.09015857501795
 10
22.05766476753658
 20
16.08880447784996
 10
22.05000735572669
 20
16.08753310002887
 10
22.04233813155317
 20
16.08634394865886
 10
22.03465815879389
 20
16.08523653084394
 10
22.02696850122689
 20
16.08421035368985
 10
22.01897397726107
 20
16.08323016750895
 10
22.01097134765917
 20
16.08233650792583
 10
22.00326851726669
 20
16.08155816476483
  0
LWPOLYLINE
  5
C36
330
1E
100
AcDbEntity
  8
1
100
AcDbPolyline
 90
       40
 70
     0
 43
0.0
 10
21.455804695
 20
-11.31012981060013
 10
21.45746749237939
 20
-11.30564738715402
 10
21.4591823546795
 20
-11.30118301258613
 10
21.460948852358
 20
-11.29673723102893
 10
21.46276655587239
 20
-11.29231058661713
 10
21.4646350356803
 20
-11.28790362348192
 10
21.46655386223947
 20
-11.2835168857601
 10
21.4686132734511
 20
-11.27895296678911
 10
21.47072675211509
 20
-11.27441237017413
 10
21.47289380741239
 20
-11.26989571767109
 10
21.47511394852371
 20
-11.26540363103814
 10
21.47738668463001
 20
-11.26093673203212
 10
21.47981377928771
 20
-11.25630314663311
 10
21.48229704975169
 20
-11.2516983701341
 10
21.48483593835929
 20
-11.24712310897
 10
21.48742988744769
 20
-11.24257806957413
 10
21.49018986606741
 20
-11.23787655202912
 10
21.49300835371378
 20
-11.23320939219913
 10
21.4958847200714
 20
-11.22857738854911
 10
21.4988183348247
 20
-11.22398133954914
 10
21.50192934571229
 20
-11.21924044758904
 10
21.50510088568809
 20
-11.21454020594703
 10
21.50833221446152
 20
-11.20988143329809
 10
21.51175020406447
 20
-11.20508796762413
 10
21.51523079470157
 20
-11.200340391503
 10
21.51877301955579
 20
-11.19563927150295
 10
21.5225105047372
 20
-11.19081371064803
 10
21.5263121561515
 20
-11.18603935202614
 10
21.5303160752092
 20
-11.18114913252511
 10
21.53438647101058
 20
-11.17631521771508
 10
21.53866590486698
 20
-11.17137461391609
 10
21.54301387087539
 20
-11.16649579330291
 10
21.54757735716489
 20
-11.16152007755299
 10
21.55236177194241
 20
-11.15645483159209
 10
21.5572194833419
 20
-11.15146262238311
 10
21.5619937689979
 20
-11.14669695862011
 10
21.56683386798027
 20
-11.14200158084409
 10
21.57173831697348
 20
-11.13737734657513
 10
21.57654444942589
 20
-11.13297082694714
 10
21.57750519138119
 20
-11.132104370221
  0
LWPOLYLINE
  5
CC0
330
1E
100
AcDbEntity
  8
1
100
AcDbPolyline
 90
      118
 70
     0
 43
0.0
 10
26.5
 20
-19.98856345840001
 10
26.52017938437849
 20
-19.98843449737887
 10
26.54036226139448
 20
-19.98804783790412
 10
26.5605447786441
 20
-19.98740381535903
 10
26.58072308372358
 20
-19.98650276512901
 10
26.6008933242292
 20
-19.98534502259514
 10
26.621051647757
 20
-19.98393092314404
 10
26.64119420190337
 20
-19.98226080215713
 10
26.66131713426459
 20
-19.98033499501912
 10
26.6814165924367
 20
-19.97815383711403
 10
26.7014887240161
 20
-19.97571766382503
 10
26.72152967659878
 20
-19.97302681053602
 10
26.74153559778129
 20
-19.97008161263102
 10
26.7615026351595
 20
-19.96688240549301
 10
26.78142693632989
 20
-19.96342952450604
 10
26.80130464888847
 20
-19.95972330505412
 10
26.82113192508798
 20
-19.95576408596202
 10
26.8409052371496
 20
-19.95155244254012
 10
26.86062157811039
 20
-19.9470893350241
 10
26.8802779888464
 20
-19.94237575900814
 10
26.89987151023369
 20
-19.93741271008713
 10
26.91939918314828
 20
-19.93220118385514
 10
26.93885804846621
 20
-19.9267421759051
 10
26.95824514706361
 20
-19.92103668183204
 10
26.9775575198165
 20
-19.91508569723004
 10
26.99679220760089
 20
-19.90889021769413
 10
27.01594625129289
 20
-19.90245123881603
 10
27.0350166917685
 20
-19.89576975619212
 10
27.0540005699037
 20
-19.88884676541508
 10
27.07289492657469
 20
-19.88168326207892
 10
27.09169680265739
 20
-19.87428024177911
 10
27.110403239028
 20
-19.86663870010804
 10
27.12901127936521
 20
-19.85875965234912
 10
27.14751801297859
 20
-19.85064443430712
 10
27.1659205662952
 20
-19.8422946425131
 10
27.1842160668189
 20
-19.8337118810639
 10
27.20466696677251
 20
-19.82377980017912
 10
27.2249746525919
 20
-19.81355718121598
 10
27.24513503433669
 20
-19.80304630813104
 10
27.26514402206609
 20
-19.79224946488304
 10
27.28499752583981
 20
-19.78116893542912
 10
27.3046914557172
 20
-19.76980700372612
 10
27.32422172175769
 20
-19.75816595373211
 10
27.34358423402079
 20
-19.74624806940403
 10
27.362774902566
 20
-19.73405563470002
 10
27.38178963745269
 20
-19.72159093357712
 10
27.40062435007748
 20
-19.70885625153712
 10
27.4192751494527
 20
-19.69585410213912
 10
27.43773854935399
 20
-19.6825874660631
 10
27.45601111312829
 20
-19.66905938119809
 10
27.4740894041218
 20
-19.65527288543113
 10
27.49394436339659
 20
-19.63965517720112
 10
27.51355052274798
 20
-19.62372636084404
 10
27.532903167974
 20
-19.60749060355712
 10
27.5519975848721
 20
-19.59095207253801
 10
27.5708290592401
 20
-19.5741149349871
 10
27.58939287687589
 20
-19.55698335810203
 10
27.6076843235771
 20
-19.53956150908001
 10
27.6256986851416
 20
-19.5218535551211
 10
27.6434312519046
 20
-19.5038636672101
 10
27.66087764684111
 20
-19.4855962939421
 10
27.67803404660698
 20
-19.46705634600012
 10
27.69489668023458
 20
-19.44824877777611
 10
27.71146177675598
 20
-19.42917854366314
 10
27.7277255652036
 20
-19.40985059805503
 10
27.74368427460959
 20
-19.39026989534312
 10
27.75933413400619
 20
-19.37044138992103
 10
27.7746713724257
 20
-19.35037003618101
 10
27.788204479363
 20
-19.33210227731112
 10
27.80147855978951
 20
-19.3136454361141
 10
27.81449086466968
 20
-19.29500312434413
 10
27.82723864496812
 20
-19.27617895375212
 10
27.83971916010939
 20
-19.2571765413231
 10
27.85192999892859
 20
-19.23799970774308
 10
27.8638691784801
 20
-19.2186525385001
 10
27.8755347444672
 20
-19.1991391368011
 10
27.88692474259319
 20
-19.17946360585114
 10
27.89803721856159
 20
-19.15963004885394
 10
27.90887021807549
 20
-19.13964256901694
 10
27.91942178683858
 20
-19.1195052695431
 10
27.92968997055401
 20
-19.09922225364002
 10
27.9396728149252
 20
-19.07879762451212
 10
27.9493683656555
 20
-19.05823548536411
 10
27.9587746684482
 20
-19.03753993940304
 10
27.96689142117769
 20
-19.01903521979002
 10
27.97477671562628
 20
-19.000431216174
 10
27.98242918175501
 20
-18.98173081028612
 10
27.98984764910779
 20
-18.96293687730213
 10
27.9970312879076
 20
-18.94405228121203
 10
28.00397930167688
 20
-18.92507988491603
 10
28.01069089393799
 20
-18.90602255130892
 10
28.01716526821339
 20
-18.88688314329203
 10
28.0234016280254
 20
-18.86766452376113
 10
28.0293991768966
 20
-18.8483695556151
 10
28.03515711834922
 20
-18.82900110175114
 10
28.04067465590579
 20
-18.80956202506698
 10
28.04595099308869
 20
-18.7900551884621
 10
28.0509853334203
 20
-18.77048345483301
 10
28.05577688042308
 20
-18.75084968707811
 10
28.06032483761939
 20
-18.731156748095
 10
28.06462840853178
 20
-18.7114075007821
 10
28.0686867966825
 20
-18.69160480803691
 10
28.0724992440894
 20
-18.67175158483303
 10
28.07606534035909
 20
-18.6518512163491
 10
28.0793848595261
 20
-18.6319073372521
 10
28.08245757731979
 20
-18.61192358450201
 10
28.0852832694698
 20
-18.59190359505912
 10
28.08786171170529
 20
-18.57185100588101
 10
28.09019267975569
 20
-18.55176945392901
 10
28.09227594935049
 20
-18.53166257616314
 10
28.09411129621898
 20
-18.5115340095411
 10
28.09569849609069
 20
-18.491387391024
 10
28.09703732469489
 20
-18.47122635757094
 10
28.09812755776098
 20
-18.45105454614204
 10
28.09896897101848
 20
-18.43087559369701
 10
28.0995613401966
 20
-18.41069313719412
 10
28.099904441025
 20
-18.39051081359511
 10
28.0999999999693
 20
-18.37286424860101
  0
LWPOLYLINE
  5
D38
330
1E
100
AcDbEntity
  8
1
100
AcDbPolyline
 90
       77
 70
     0
 43
0.0
 10
26.5
 20
0.676262426899879
 10
26.582294151851
 20
0.6766862927008756
 10
26.66290350705489
 20
0.6779318693569647
 10
26.74349717041498
 20
0.6800116799439561
 10
26.82238663421029
 20
0.6828683910738646
 10
26.89788645050461
 20
0.686379731678951
 10
26.9716682501876
 20
0.6905758480108626
 10
27.04205075571479
 20
0.6953127412318703
 10
27.11070682396569
 20
0.7006515355589582
 10
27.17595946167929
 20
0.7064118525929609
 10
27.23613370508228
 20
0.7123620748388613
 10
27.29290137036
 20
0.7185818214779795
 10
27.34626372666459
 20
0.7250031933188519
 10
27.3962248001505
 20
0.7315519988389634
 10
27.4427897862176
 20
0.738152570721976
 10
27.48762127882669
 20
0.7449983533759588
 10
27.52906048546071
 20
0.7517889767999544
 10
27.56876912044219
 20
0.7587433635499645
 10
27.60509914093921
 20
0.7655142414488659
 10
27.63971005285799
 20
0.7723487012990484
 10
27.67096015104749
 20
0.7788672433819637
 10
27.69885429166289
 20
0.7850103060269441
 10
27.72340287962339
 20
0.7907073368649799
 10
27.74625188915079
 20
0.7962837745719435
 10
27.7674072782641
 20
0.801705867683861
 10
27.78687710715419
 20
0.8069351762798609
 10
27.8062859263669
 20
0.8123941809108679
 10
27.82401949735579
 20
0.8176119900698745
 10
27.84169370011728
 20
0.8230453765318623
 10
27.85770350399509
 20
0.8281827498098797
 10
27.87364904978899
 20
0.8335209297069601
 10
27.88793740002708
 20
0.838506956989047
 10
27.9021593627004
 20
0.8436742131038636
 10
27.9163081458795
 20
0.8490314969608581
 10
27.9288179167156
 20
0.8539601696728842
 10
27.94125973006549
 20
0.8590521197391998
 10
27.95362881574028
 20
0.8643135269148521
 10
27.96592040355109
 20
0.8697505709528707
 10
27.97660822041688
 20
0.8746569197088513
 10
27.98722804124079
 20
0.8797094258558752
 10
27.9947582492169
 20
0.8834287186728568
 10
28.00222581831711
 20
0.8872652231989624
 10
28.00814491362291
 20
0.8904339157098741
 10
28.0140070172187
 20
0.8937035033589461
 10
28.01980461673609
 20
0.8970854882108733
 10
28.02553019980649
 20
0.900591372329867
 10
28.02977260715681
 20
0.9033090135228826
 10
28.03396711026779
 20
0.9061076703969456
 10
28.03811053985889
 20
0.9089921953859592
 10
28.0421997266499
 20
0.9119674409229752
 10
28.0462315013601
 20
0.9150382594418678
 10
28.0502026947091
 20
0.9182095033748643
 10
28.05411013741639
 20
0.9214860251558679
 10
28.0579506602015
 20
0.9248726772178736
 10
28.06172109378378
 20
0.9283743119948974
 10
28.06541826888302
 20
0.931995781918882
 10
28.06903901621849
 20
0.9357419394238739
 10
28.07257813807128
 20
0.9396166390998775
 10
28.07601608032939
 20
0.9436166732418731
 10
28.07932709465639
 20
0.9477357870428839
 10
28.08145119473579
 20
0.9505449235489567
 10
28.08349979146949
 20
0.9534023422569612
 10
28.08546524848469
 20
0.9563061863299498
 10
28.08733992940878
 20
0.9592545989328831
 10
28.0891161978688
 20
0.9622457232288718
 10
28.0907864174922
 20
0.9652777023819647
 10
28.09234295190611
 20
0.9683486795562112
 10
28.09377816473769
 20
0.9714567979128752
 10
28.09508441961437
 20
0.974600200618962
 10
28.09625408016339
 20
0.9777770308368724
 10
28.09727951001178
 20
0.9809854317302006
 10
28.09815307278709
 20
0.9842235464628535
 10
28.09886713211628
 20
0.9874895181988811
 10
28.09941405162678
 20
0.9907814901018772
 10
28.09978619494589
 20
0.9940976053349819
 10
28.0999759257007
 20
0.9974360070619599
 10
28.09999999914089
 20
0.9991029851859671
  0
LWPOLYLINE
  5
E3D
330
1E
100
AcDbEntity
  8
1
100
AcDbPolyline
 90
        2
 70
     0
 43
0.0
 10
21.57751262659999
 20
-11.13209768310011
 10
21.82499257598629
 20
-10.9091441635539
  0
LWPOLYLINE
  5
E41
330
1E
100
AcDbEntity
  8
1
100
AcDbPolyline
 90
       59
 70
     0
 43
0.0
 10
21.455804695
 20
-11.31012981060013
 10
21.45496039665798
 20
-11.31116792445211
 10
21.4541311946695
 20
-11.31221886260411
 10
21.45331711192452
 20
-11.31328229622899
 10
21.4525181713129
 20
-11.31435789650111
 10
21.4517343957247
 20
-11.31544533459214
 10
21.4509658080498
 20
-11.31654428167711
 10
21.4502124311782
 20
-11.31765440892803
 10
21.44947428799997
 20
-11.31877538751993
 10
21.44875140140498
 20
-11.31990688862478
 10
21.44808757165441
 20
-11.3209769350711
 10
21.44743718998908
 20
-11.32205566986712
 10
21.44680027526979
 20
-11.32314282206799
 10
21.44617684635729
 20
-11.3242381207311
 10
21.44556692211228
 20
-11.32534129490911
 10
21.44497052139548
 20
-11.32645207365803
 10
21.4443876630679
 20
-11.32757018603393
 10
21.44381836598998
 20
-11.32869536109111
 10
21.44326264902255
 20
-11.32982732788514
 10
21.44272053102648
 20
-11.33096581547101
 10
21.44219203086239
 20
-11.33211055290411
 10
21.4416771673912
 20
-11.33326126924009
 10
21.44117595947347
 20
-11.33441769353314
 10
21.44068842597009
 20
-11.33557955483914
 10
21.44021456903798
 20
-11.33674659570701
 10
21.43975429732098
 20
-11.3379186342291
 10
21.43927817517008
 20
-11.33917414182411
 10
21.4388172186421
 20
-11.34043496971411
 10
21.4383712773524
 20
-11.34170092904903
 10
21.4379402009165
 20
-11.34297183097902
 10
21.4375238389498
 20
-11.34424748665611
 10
21.43712204106769
 20
-11.34552770722976
 10
21.43673465688548
 20
-11.346812303852
 10
21.43633868611828
 20
-11.34818177137813
 10
21.43595863691629
 20
-11.34955573934109
 10
21.43559432889869
 20
-11.3509339812229
 10
21.43524558168479
 20
-11.35231627050611
 10
21.4349122148938
 20
-11.35370238067292
 10
21.434594048145
 20
-11.35509208520591
 10
21.43427353276141
 20
-11.35656720306107
 10
21.43396964190749
 20
-11.35804582774611
 10
21.43368216146157
 20
-11.35952769037199
 10
21.43341087730191
 20
-11.3610125220501
 10
21.43314185617339
 20
-11.36258276831813
 10
21.43289039050491
 20
-11.36415570686202
 10
21.4326562284683
 20
-11.36573102144103
 10
21.43243911823538
 20
-11.36730839581701
 10
21.43222872602879
 20
-11.3689706680129
 10
21.4320366687223
 20
-11.37063457339712
 10
21.43186269352657
 20
-11.37229995278213
 10
21.43170655095578
 20
-11.37396666389902
 10
21.4315615206348
 20
-11.37571798818314
 10
21.43143558691348
 20
-11.3774704591611
 10
21.4313284609809
 20
-11.37922391214009
 10
21.43123609165479
 20
-11.381061736691
 10
21.43116371494589
 20
-11.38290026888503
 10
21.43111099878857
 20
-11.38473931936599
 10
21.43107654736748
 20
-11.38666231167712
 10
21.43106303456659
 20
-11.38849183252514
  0
LWPOLYLINE
  5
F0B
330
1E
100
AcDbEntity
  8
1
100
AcDbPolyline
 90
        2
 70
     0
 43
0.0
 10
22.53210678119998
 20
0.6762624268998795
 10
22.28462637587091
 20
0.9306791771138847
  0
LWPOLYLINE
  5
FD9
330
1E
100
AcDbEntity
  8
1
100
AcDbPolyline
 90
        2
 70
     0
 43
0.0
 10
21.82499998589998
 20
19.97143527529987
 10
21.8924583691332
 20
19.97094435981695
  0
LWPOLYLINE
  5
FDD
330
1E
100
AcDbEntity
  8
1
100
AcDbPolyline
 90
        7
 70
     0
 43
0.0
 10
21.892468369
 20
19.97094430820007
 10
21.98464902472821
 20
19.97088872167987
 10
22.06074367778287
 20
19.97165107467387
 10
22.14271114282571
 20
19.97329936946396
 10
22.2152488749217
 20
19.97546670222087
 10
22.271688946262
 20
19.97773073774487
 10
22.28460941927669
 20
19.97833335843987
  0
LWPOLYLINE
  5
FE6
330
1E
100
AcDbEntity
  8
1
100
AcDbPolyline
 90
        3
 70
     0
 43
0.0
 10
22.53210678119998
 20
-19.98856345840001
 10
22.34375622410369
 20
-19.98107582885302
 10
22.2846293963229
 20
-19.97833431636803
  0
LWPOLYLINE
  5
FEB
330
1E
100
AcDbEntity
  8
1
100
AcDbPolyline
 90
      137
 70
     0
 43
0.0
 10
21.43106352609998
 20
16.09783176379997
 10
21.43116657297839
 20
16.07608228157095
 10
21.43148626941449
 20
16.05537042125796
 10
21.43200418752719
 20
16.03569069258204
 10
21.4327008727594
 20
16.01704052928687
 10
21.43350841808771
 20
16.00046363704197
 10
21.43437787629199
 20
15.98596698501886
 10
21.43533445070598
 20
15.97251810609384
 10
21.43635515120628
 20
15.96011853459184
 10
21.43751731457619
 20
15.94773703667186
 10
21.43871459920688
 20
15.93640643696395
 10
21.4400452662992
 20
15.92509711414996
 10
21.44137654997398
 20
15.91483682591788
 10
21.44282905519659
 20
15.90459871526094
 10
21.44424675855219
 20
15.89540504122098
 10
21.44560329558705
 20
15.88725032042495
 10
21.44705829761321
 20
15.87911288483192
 10
21.44861923029469
 20
15.87099357618797
 10
21.4500778116352
 20
15.86390471261188
 10
21.4516282134442
 20
15.85683093584796
 10
21.45327543713341
 20
15.84977280979987
 10
21.45476819662309
 20
15.84373587161587
 10
21.4563389146388
 20
15.83771120132587
 10
21.45799074075759
 20
15.83169915404289
 10
21.45972682455628
 20
15.82570008487818
 10
21.46155031561209
 20
15.81971434894387
 10
21.46346436350198
 20
15.81374230135083
 10
21.46513085103369
 20
15.80877630759198
 10
21.46686423587901
 20
15.80382027292896
 10
21.46866763713902
 20
15.79887647802103
 10
21.47054813115981
 20
15.79395353776496
 10
21.47211329437407
 20
15.79003679991004
 10
21.47373681617251
 20
15.78614472160188
 10
21.4754227050961
 20
15.78228233064987
 10
21.47717496968569
 20
15.77845465486396
 10
21.47899761848248
 20
15.77466672205096
 10
21.4808946600274
 20
15.77092356001986
 10
21.48287010286149
 20
15.76723019658095
 10
21.48440554722089
 20
15.76449587886807
 10
21.48598903821302
 20
15.76179452211198
 10
21.48762226694107
 20
15.75912824741996
 10
21.4893069245083
 20
15.75649917589784
 10
21.49104470201801
 20
15.75390942865293
 10
21.49283729057321
 20
15.75136112679189
 10
21.49468638127729
 20
15.74885639142221
 10
21.49659366523358
 20
15.74639734364986
 10
21.49856083354519
 20
15.74398610458185
 10
21.50058957731528
 20
15.74162479532486
 10
21.50268158764729
 20
15.73931553698685
 10
21.50483855564429
 20
15.73706045067288
 10
21.50706217240959
 20
15.73486165749088
 10
21.50935407649907
 20
15.73272127888688
 10
21.51171393135089
 20
15.73064144902787
 10
21.5141388731289
 20
15.72862431836287
 10
21.5166258729101
 20
15.72667203840683
 10
21.51917190177139
 20
15.72478676066983
 10
21.52177393078968
 20
15.72297063666488
 10
21.52442893104197
 20
15.72122581790589
 10
21.52713387360529
 20
15.71955445590396
 10
21.52988572955639
 20
15.71795870217187
 10
21.53268146997239
 20
15.71644070822196
 10
21.53551806593009
 20
15.71500262556796
 10
21.53839248850649
 20
15.71364660572085
 10
21.54130170877859
 20
15.71237480019496
 10
21.54424269782329
 20
15.71118936050086
 10
21.54721242671759
 20
15.71009243815288
 10
21.55020786653831
 20
15.70908618466184
 10
21.55221761450242
 20
15.70846678306489
 10
21.55423654589819
 20
15.70788927244987
 10
21.55626376326706
 20
15.70735429030395
 10
21.55829836915041
 20
15.70686247411186
 10
21.5603394660893
 20
15.70641446135789
 10
21.56238615662529
 20
15.70601088952796
 10
21.56443754329946
 20
15.70565239610687
 10
21.56649272865339
 20
15.70533961858098
 10
21.5685508152283
 20
15.70507319443388
 10
21.57061094141381
 20
15.70485366879887
 10
21.57267260826499
 20
15.70468065251493
 10
21.57473552746099
 20
15.70455321381285
 10
21.57679941327689
 20
15.70447041423597
 10
21.57886397998781
 20
15.70443131532694
 10
21.58092894186889
 20
15.70443497862797
 10
21.58402650061141
 20
15.70451859985094
 10
21.58712334128428
 20
15.70469315722784
 10
21.59021849956619
 20
15.70495548346686
 10
21.59331101113556
 20
15.70530241127604
 10
21.59639991167107
 20
15.70573077336197
 10
21.5994842368511
 20
15.70623740243397
 10
21.60256302235429
 20
15.70681913119796
 10
21.60563530385905
 20
15.70747279236418
 10
21.60870011704409
 20
15.70819521863788
 10
21.61175649758779
 20
15.7089832427282
 10
21.6148034811689
 20
15.70983369734284
 10
21.61784010346579
 20
15.71074341518885
 10
21.62086540015699
 20
15.71170922897587
 10
21.62387840692109
 20
15.71272797141006
 10
21.62687815943669
 20
15.71379647519886
 10
21.630855545009
 20
15.71529307913889
 10
21.63480536732451
 20
15.71686500931298
 10
21.63872534058409
 20
15.71850475806586
 10
21.6426131789889
 20
15.72020481774288
 10
21.64742435916708
 20
15.72240337419287
 10
21.65217989054998
 20
15.72467491517786
 10
21.65688133059278
 20
15.72701669818497
 10
21.6615304954449
 20
15.72942649280786
 10
21.66704304715449
 20
15.73240488127689
 10
21.6724860761513
 20
15.73547414054786
 10
21.67786272074189
 20
15.73863041648085
 10
21.68317611923261
 20
15.74186985493398
 10
21.68842940992991
 20
15.74518860176698
 10
21.69448646633469
 20
15.74915556822296
 10
21.70047096445207
 20
15.75321911604985
 10
21.70638788779647
 20
15.75737312501297
 10
21.7130737341308
 20
15.76222348153986
 10
21.7196852675657
 20
15.76717486187396
 10
21.7270436779051
 20
15.77285454470088
 10
21.73513238464543
 20
15.77928677056297
 10
21.74313478468719
 20
15.78583778977187
 10
21.7518404907738
 20
15.7931739451632
 10
21.76122526760639
 20
15.80132330404184
 10
21.77049663164857
 20
15.80961524827795
 10
21.78041719446058
 20
15.81874709639484
 10
21.7909629369344
 20
15.82873988111495
 10
21.8028478925501
 20
15.84034087086697
 10
21.8160162926161
 20
15.85359302847396
 10
21.82969767721397
 20
15.86777858788084
 10
21.84386962421299
 20
15.88291088618796
 10
21.85851067317551
 20
15.89900761337285
 10
21.87360175076447
 20
15.91608408300897
 10
21.88979612572798
 20
15.93494306570588
 10
21.90704881233779
 20
15.95562087720385
 10
21.92531861946348
 20
15.97814895386384
 10
21.9432813390859
 20
16.00092734849186
 10
21.96157123634429
 20
16.02476673212786
 10
21.9801654980198
 20
16.04967517458186
 10
21.99904229596401
 20
16.07565792390319
 10
22.0032527596247
 20
16.08154906666786
  0
LWPOLYLINE
  5
1076
330
1E
100
AcDbEntity
  8
1
100
AcDbPolyline
 90
        2
 70
     0
 43
0.0
 10
21.82499999999998
 20
-19.99994454670012
 10
21.77881512139999
 20
-19.99999999999713
  0
LWPOLYLINE
  5
107A
330
1E
100
AcDbEntity
  8
1
100
AcDbPolyline
 90
       35
 70
     0
 43
0.0
 10
21.43231810889996
 20
-19.9933046507001
 10
21.4326653378352
 20
-19.99303542599903
 10
21.43320586883589
 20
-19.99266009112903
 10
21.43375636007839
 20
-19.99230360919304
 10
21.4343164138362
 20
-19.9919653045851
 10
21.4348856323826
 20
-19.99164450169901
 10
21.43546361799109
 20
-19.9913405249291
 10
21.4360499729352
 20
-19.99105269866814
 10
21.43664429948819
 20
-19.99078034731201
 10
21.43724619992358
 20
-19.99052279525295
 10
21.43785527651478
 20
-19.99027936688503
 10
21.43847113153529
 20
-19.99004938660311
 10
21.43909336725839
 20
-19.98983217880113
 10
21.4397215859577
 20
-19.98962706787114
 10
21.4403553899065
 20
-19.98943337821014
 10
21.44099438137828
 20
-19.98925043420912
 10
21.44185375205899
 20
-19.9890220566341
 10
21.44272069517402
 20
-19.9888099799431
 10
21.44359426796409
 20
-19.98861260269814
 10
21.44447352767
 20
-19.98842832346501
 10
21.4455791632929
 20
-19.98821395381202
 10
21.4469131182754
 20
-19.98797601796104
 10
21.4486987054656
 20
-19.98768266017012
 10
21.45226966403299
 20
-19.98713664545303
 10
21.4562742108764
 20
-19.98656383411701
 10
21.46048733268409
 20
-19.98600398848503
 10
21.46490798178278
 20
-19.98546144509711
 10
21.46975538469959
 20
-19.98491633921011
 10
21.47502714389649
 20
-19.9843786438281
 10
21.48072154254069
 20
-19.98385705855001
 10
21.48727410156019
 20
-19.98332510770604
 10
21.49490013019828
 20
-19.98278549837513
 10
21.50490363105999
 20
-19.98218173622211
 10
21.56974381615758
 20
-19.97914999025703
 10
21.65063213576991
 20
-19.97533978903095
  0
LWPOLYLINE
  5
109F
330
1E
100
AcDbEntity
  8
1
100
AcDbPolyline
 90
        6
 70
     0
 43
0.0
 10
21.65064212299998
 20
-19.97533928370009
 10
21.6726292971734
 20
-19.97434197489002
 10
21.69849307495247
 20
-19.97343380626114
 10
21.73186291619559
 20
-19.97260438859814
 10
21.79547877538089
 20
-19.97171170613978
 10
21.89245836913328
 20
-19.97094435971701
  0
LWPOLYLINE
  5
10A7
330
1E
100
AcDbEntity
  8
1
100
AcDbPolyline
 90
        7
 70
     0
 43
0.0
 10
21.892468369
 20
-19.9709443081001
 10
21.98464902472891
 20
-19.9708887216841
 10
22.06074367778509
 20
-19.97165107464298
 10
22.14271114282857
 20
-19.97329936936412
 10
22.21524887492278
 20
-19.97546670217112
 10
22.271688946262
 20
-19.9777307377431
 10
22.28460941927669
 20
-19.97833335844007
  0
LWPOLYLINE
  5
10B0
330
1E
100
AcDbEntity
  8
1
100
AcDbPolyline
 90
      161
 70
     0
 43
0.0
 10
21.43107893049998
 20
0.5671544329998685
 10
21.43112594488818
 20
0.5742700133988851
 10
21.43126925110057
 20
0.5813873130618649
 10
21.43150877526557
 20
0.5885048770698491
 10
21.43184444351108
 20
0.595621250499872
 10
21.43227618196559
 20
0.6027349784340547
 10
21.43280391675721
 20
0.6098446059518753
 10
21.43342757401409
 20
0.6169486781308794
 10
21.43414707986456
 20
0.6240457400530748
 10
21.4349623604368
 20
0.6311343367970581
 10
21.43587334185898
 20
0.6382130134428765
 10
21.43687995025929
 20
0.6452803150699511
 10
21.437982111766
 20
0.6523347867579591
 10
21.4391797525074
 20
0.6593749735869754
 10
21.44047279861148
 20
0.6663994206358811
 10
21.4418611762067
 20
0.6734066729858883
 10
21.44334481142109
 20
0.6803952757150542
 10
21.44492363038301
 20
0.6873637739039654
 10
21.44659755922059
 20
0.6943107126308778
 10
21.44836652406199
 20
0.7012346369779694
 10
21.45023044866757
 20
0.7081340930388623
 10
21.452189099105
 20
0.7150076945239592
 10
21.4542419875892
 20
0.7218541639919609
 10
21.45638860335769
 20
0.7286722338560569
 10
21.45862843564809
 20
0.7354606365239791
 10
21.46096097369809
 20
0.7422181044090596
 10
21.4633857067452
 20
0.7489433699208777
 10
21.46590212402708
 20
0.7556351654709747
 10
21.46850971478128
 20
0.7622922234708911
 10
21.47120796824558
 20
0.7689132763308609
 10
21.4739963736573
 20
0.7754970564618562
 10
21.47687442025428
 20
0.7820422962748781
 10
21.47984159727401
 20
0.7885477281809561
 10
21.48289739395409
 20
0.7950120845908632
 10
21.48604129953219
 20
0.8014340979159698
 10
21.48927280324589
 20
0.8078125005679595
 10
21.49259139433279
 20
0.8141460249558718
 10
21.49599656203049
 20
0.820433403491873
 10
21.49948779557659
 20
0.8266733685869642
 10
21.50366899763919
 20
0.833891711445969
 10
21.5079658386083
 20
0.8410417811289477
 10
21.51237750741199
 20
0.8481215647528841
 10
21.51690319297859
 20
0.8551290494319488
 10
21.5215420842362
 20
0.86206222228287
 10
21.52629336991799
 20
0.8689190705038896
 10
21.5311560886335
 20
0.8756976458508598
 10
21.53612886097568
 20
0.8823961798348678
 10
21.54121023535669
 20
0.889012935004953
 10
21.54639876018868
 20
0.8955461739128878
 10
21.55169298388379
 20
0.9019941591058655
 10
21.557091454854
 20
0.9083551531358835
 10
21.5625927215115
 20
0.9146274185508762
 10
21.56819533226829
 20
0.9208092179028682
 10
21.57389783553669
 20
0.9268988137398508
 10
21.57969877972868
 20
0.9328944686128551
 10
21.58644710804498
 20
0.9396293870588838
 10
21.5924541090732
 20
0.9454178892669606
 10
21.59855498889169
 20
0.9511069899538686
 10
21.6047482959125
 20
0.9566949516678535
 10
21.61103257854789
 20
0.9621800369599473
 10
21.61740638520968
 20
0.9675605083800428
 10
21.62386826431019
 20
0.972834628476076
 10
21.63041676426157
 20
0.978000659799872
 10
21.63705043347579
 20
0.9830568649010416
 10
21.64376782036505
 20
0.9880015063288823
 10
21.65056747334149
 20
0.9928328466329475
 10
21.6574478363881
 20
0.9975492379268727
 10
21.66340802661898
 20
1.001499396853855
 10
21.66942473183979
 20
1.005363420310854
 10
21.67549663014928
 20
1.009140563890948
 10
21.6816223996461
 20
1.012830083188984
 10
21.68780071842901
 20
1.01643123379588
 10
21.6940302645967
 20
1.019943271306882
 10
21.70030971624789
 20
1.02336545131396
 10
21.70663775148141
 20
1.026697029409969
 10
21.71301304839579
 20
1.029937261188959
 10
21.7194342850899
 20
1.033085402243951
 10
21.7259001396624
 20
1.036140708167944
 10
21.73240929021198
 20
1.039102434553877
 10
21.73896041483739
 20
1.04196983699506
 10
21.7455521916373
 20
1.044742171084859
 10
21.7521832987105
 20
1.047418692416864
 10
21.7588524141556
 20
1.049998656583051
 10
21.76555821607148
 20
1.052481319177982
 10
21.77229938255669
 20
1.054865935792971
 10
21.77907459171009
 20
1.057151762023889
 10
21.78588252163028
 20
1.059338053461881
 10
21.792721850416
 20
1.061424065699949
 10
21.79959125616598
 20
1.063409054332874
 10
21.80648941697898
 20
1.065292274951981
 10
21.8134149830959
 20
1.067073049729964
 10
21.82036643959949
 20
1.068751095547864
 10
21.82734221093878
 20
1.07032627419988
 10
21.83434072147011
 20
1.071798447699957
 10
21.8413603955497
 20
1.073167478059952
 10
21.84839965753389
 20
1.074433227296192
 10
21.8554569317789
 20
1.075595557422071
 10
21.86253064264098
 20
1.076654330450049
 10
21.86961921447657
 20
1.077609408395967
 10
21.8767210716419
 20
1.078460653271857
 10
21.8838346384931
 20
1.079207927093954
 10
21.89095833938658
 20
1.079851091874954
 10
21.89809059867869
 20
1.080390009627872
 10
21.90522984072547
 20
1.080824542368954
 10
21.91237448988351
 20
1.081154552109859
 10
21.9195229705089
 20
1.081379900866887
 10
21.92667370695791
 20
1.081500450651982
 10
21.93382512358688
 20
1.081516063479877
 10
21.94097564475219
 20
1.081426601364849
 10
21.9481236948099
 20
1.081231926319954
 10
21.95526769811649
 20
1.080931900359866
 10
21.96240607902809
 20
1.08052638549895
 10
21.96953726190109
 20
1.080015243749951
 10
21.97665967109179
 20
1.079398337127881
 10
21.98377174052859
 20
1.078675563674064
 10
21.9908719979344
 20
1.077847174454884
 10
21.99795902416008
 20
1.076913620498056
 10
22.00503140066219
 20
1.075875355114869
 10
22.01208770889749
 20
1.074732831612972
 10
22.01912653032259
 20
1.073486503302884
 10
22.02614644639429
 20
1.072136823492877
 10
22.03314603856929
 20
1.070684245494869
 10
22.04012388830419
 20
1.069129222615964
 10
22.04707857705569
 20
1.067472208165974
 10
22.05400868628049
 20
1.065713655454852
 10
22.0609127974354
 20
1.063854017792972
 10
22.06778949197691
 20
1.061893748487956
 10
22.0746373513619
 20
1.059833300850864
 10
22.0814549570469
 20
1.057673128189857
 10
22.08824089048859
 20
1.05541368381588
 10
22.09499373314391
 20
1.053055421036867
 10
22.10171206646919
 20
1.050598793162943
 10
22.10839447192148
 20
1.048044253504055
 10
22.11503953095729
 20
1.045392255368962
 10
22.12164582503319
 20
1.042643252066877
 10
22.12821193560607
 20
1.039797696907949
 10
22.13473644413257
 20
1.036856043200879
 10
22.14121793206939
 20
1.033818744257044
 10
22.1476549833397
 20
1.030686266529949
 10
22.15404624325898
 20
1.027459403693879
 10
22.16039042124279
 20
1.024139291070862
 10
22.1666862297148
 20
1.020727080018952
 10
22.1729323810987
 20
1.017223921891849
 10
22.1791275878184
 20
1.013630968047859
 10
22.1852705622975
 20
1.009949369842867
 10
22.19136001695989
 20
1.006180278632962
 10
22.19739466422928
 20
1.002324845774944
 10
22.20436409782679
 20
0.9977192505549767
 10
22.211255135315
 20
0.9929995301938532
 10
22.21806573207059
 20
0.9881675130029602
 10
22.22479384347009
 20
0.9832250272938807
 10
22.23143742489019
 20
0.9781739013780535
 10
22.23799443170759
 20
0.9730159635658679
 10
22.24446281929878
 20
0.9677530421698719
 10
22.25084054304049
 20
0.9623869655018751
 10
22.25712555830928
 20
0.9569195618720668
 10
22.26331582048178
 20
0.9513526595918591
 10
22.26940928493458
 20
0.9456880869739419
 10
22.27540390704439
 20
0.9399276723288746
 10
22.28129764218779
 20
0.934073243967984
 10
22.28461243965357
 20
0.9306935222199655
  0
LWPOLYLINE
  5
1153
330
1E
100
AcDbEntity
  8
1
100
AcDbPolyline
 90
        2
 70
     0
 43
0.0
 10
22.28461940779998
 20
16.17366534439986
 10
22.53209832642129
 20
16.33195431789484
  0
LWPOLYLINE
  5
1157
330
1E
100
AcDbEntity
  8
1
100
AcDbPolyline
 90
        2
 70
     0
 43
0.0
 10
22.33554502069999
 20
19.98070630220006
 10
22.2846293963229
 20
19.97833431636797
  0
LWPOLYLINE
  5
115B
330
1E
100
AcDbEntity
  8
SK1
100
AcDbPolyline
 90
       46
 70
     0
 43
0.0
 10
-16.5
 20
-10.0
 10
-16.28576974541299
 20
-9.883792836373144
 10
-16.08044949175799
 20
-9.775528840441122
 10
-15.88419347307801
 20
-9.674985399547116
 10
-15.69715759858989
 20
-9.581924974322133
 10
-15.51949839012489
 20
-9.496096381882116
 10
-15.34610368697999
 20
-9.414807793880036
 10
-15.182339992819
 20
-9.340340870228118
 10
-15.02303664564591
 20
-9.270102730398942
 10
-14.86826672678191
 20
-9.203991239053117
 10
-14.7181029001249
 20
-9.141896171585036
 10
-14.572616413722
 20
-9.083698804380953
 10
-14.431877291464
 20
-9.029273488752119
 10
-14.29595772504399
 20
-8.978492091075136
 10
-14.16492980657601
 20
-8.931223225991939
 10
-14.0388623433009
 20
-8.887330603203107
 10
-13.9123084129299
 20
-8.844857662024024
 10
-13.79080340494
 20
-8.805598806582022
 10
-13.66885703008999
 20
-8.767714599881115
 10
-13.55204781172491
 20
-8.732869186776126
 10
-13.434851161598
 20
-8.699343396892116
 10
-13.322883299533
 20
-8.668671080996798
 10
-13.210579881946
 20
-8.639254051704137
 10
-13.10358787196401
 20
-8.612496507678111
 10
-12.9963066355469
 20
-8.586921951384111
 10
-12.88874280439101
 20
-8.56255478640713
 10
-12.78658610160891
 20
-8.540605524921117
 10
-12.6841917101548
 20
-8.519779029176133
 10
-12.581570304937
 20
-8.500091965147133
 10
-12.47873256301589
 20
-8.481560997066022
 10
-12.38141900870991
 20
-8.465136083835032
 10
-12.2839310056589
 20
-8.449771282028107
 10
-12.1862775484429
 20
-8.435480629946138
 10
-12.088467631642
 20
-8.422278165890045
 10
-11.99051024983597
 20
-8.410177928161111
 10
-11.89818854217999
 20
-8.399808760461125
 10
-11.805754728027
 20
-8.390436311777017
 10
-11.71322194486391
 20
-8.382065293559035
 10
-11.62060344181891
 20
-8.374700278811955
 10
-11.52791246801889
 20
-8.368345840543126
 10
-11.435162272593
 20
-8.363006551756138
 10
-11.3423661046679
 20
-8.358686985459142
 10
-11.24953721337089
 20
-8.355391714656034
 10
-11.156688847831
 20
-8.353125312354105
 10
-11.06383425717591
 20
-8.351892351558117
 10
-11.00001
 20
-8.351646544206115
  0
LWPOLYLINE
  5
118B
330
1E
100
AcDbEntity
  8
SK1
100
AcDbPolyline
 90
       46
 70
     0
 43
0.0
 10
-5.499999999999999
 20
9.999999999999886
 10
-5.714230135409206
 20
9.883792899835979
 10
-5.919550264533921
 20
9.775528968676868
 10
-6.115806148076812
 20
9.674985594672961
 10
-6.302841879467789
 20
9.581925225713973
 10
-6.480500930615403
 20
9.496096718213976
 10
-6.653895477934995
 20
9.414808206861943
 10
-6.817659045328196
 20
9.34034129361305
 10
-6.976962249650195
 20
9.270103183542858
 10
-7.131732011498214
 20
9.203991772598866
 10
-7.281895718561711
 20
9.141896768079872
 10
-7.427382164041004
 20
9.083699391457855
 10
-7.568121308959901
 20
9.029273995554977
 10
-7.704040837876918
 20
8.978492568660042
 10
-7.835068696983907
 20
8.931223709402956
 10
-7.961136121549003
 20
8.887331103434863
 10
-8.087690068732992
 20
8.844858171136962
 10
-8.209195179055011
 20
8.805599299548871
 10
-8.331141730779803
 20
8.767715041361951
 10
-8.447951045774996
 20
8.732869563001857
 10
-8.565147733582003
 20
8.699343703669882
 10
-8.677115605337915
 20
8.668671326532859
 10
-8.789419034528901
 20
8.639254249225956
 10
-8.896411081912898
 20
8.612496679405865
 10
-9.003692405000006
 20
8.586922123874986
 10
-9.111256395259998
 20
8.562554993343892
 10
-9.213413298473897
 20
8.540605773270867
 10
-9.315807883272
 20
8.519779286948963
 10
-9.4184294709389
 20
8.500092206186879
 10
-9.521267381362005
 20
8.481561201670871
 10
-9.618581079251994
 20
8.465136241752956
 10
-9.716069208154999
 20
8.449771386875967
 10
-9.813722770918911
 20
8.435480680778882
 10
-9.911532770392891
 20
8.422278167196965
 10
-10.00949020942599
 20
8.410177889866874
 10
-10.10181194516198
 20
8.399808698222955
 10
-10.194245761241
 20
8.390436237175862
 10
-10.28677852381097
 20
8.382065215927896
 10
-10.3793969878389
 20
8.374700205529991
 10
-10.4720879082939
 20
8.36834577703587
 10
-10.56483804014199
 20
8.363006501497892
 10
-10.65763413835101
 20
8.358686949967877
 10
-10.75046295788901
 20
8.355391693500054
 10
-10.84331125372401
 20
8.353125303145873
 10
-10.93616578082389
 20
8.351892349958887
 10
-10.99999000000001
 20
8.35164654430588
  0
LWPOLYLINE
  5
11BB
330
1E
100
AcDbEntity
  8
1
100
AcDbPolyline
 90
        2
 70
     0
 43
0.0
 10
21.82499999999999
 20
19.99994454679985
 10
21.77881512139999
 20
19.99999999999687
  0
LWPOLYLINE
  5
11BF
330
1E
100
AcDbEntity
  8
1
100
AcDbPolyline
 90
      118
 70
     0
 43
0.0
 10
28.1
 20
14.60010445839994
 10
28.09985442816179
 20
14.62364609120085
 10
28.09941764935511
 20
14.64719113509891
 10
28.09868956864148
 20
14.67073525175697
 10
28.0976700910825
 20
14.69427410283802
 10
28.09635912173979
 20
14.71780335000588
 10
28.09475656567498
 20
14.74131865492404
 10
28.0928623279496
 20
14.76481567925394
 10
28.09067631362539
 20
14.78829008465885
 10
28.0881984277639
 20
14.81173753280386
 10
28.0854285754266
 20
14.83515368534994
 10
28.08236666167529
 20
14.85853420396097
 10
28.0790125915715
 20
14.88187475029985
 10
28.0753662701769
 20
14.90517098602997
 10
28.07142760255301
 20
14.92841857281418
 10
28.06719651619649
 20
14.95161320661505
 10
28.06267318059239
 20
14.97475095335587
 10
28.05785791285221
 20
14.99782810465605
 10
28.05275103219271
 20
15.02084095535488
 10
28.04735285783101
 20
15.04378580029085
 10
28.04166370898379
 20
15.06665893430186
 10
28.0356839048682
 20
15.08945665222896
 10
28.029413764701
 20
15.11217524890794
 10
28.02285360769911
 20
15.13481101917994
 10
28.01600375307949
 20
15.15736025788297
 10
28.0088645200591
 20
15.17981925985489
 10
28.0014362278547
 20
15.20218431993495
 10
27.99371919568339
 20
15.22445173296285
 10
27.98571374276189
 20
15.24661779377584
 10
27.9774202241518
 20
15.26867876909185
 10
27.96883936239471
 20
15.29063063731796
 10
27.9599720956649
 20
15.31246920768287
 10
27.9508193648793
 20
15.33419028726888
 10
27.94138211095448
 20
15.35578968315197
 10
27.9316612748072
 20
15.37726320241386
 10
27.9216577973542
 20
15.39860665213319
 10
27.91137261951218
 20
15.41981583938797
 10
27.90080668219788
 20
15.44088657125796
 10
27.88996092632811
 20
15.46181465482418
 10
27.87883629281941
 20
15.48259589716288
 10
27.86743372258851
 20
15.50322610535497
 10
27.85575415655229
 20
15.52370108648005
 10
27.84379853562739
 20
15.54401664761596
 10
27.83156791230871
 20
15.56416858678385
 10
27.81906391567889
 20
15.58415265519283
 10
27.80628836051828
 20
15.60396458897393
 10
27.79324306169709
 20
15.62360012425186
 10
27.7799298340852
 20
15.64305499715286
 10
27.7663504925528
 20
15.66232494379996
 10
27.75095243376179
 20
15.68351392075785
 10
27.73523056938028
 20
15.70446348071796
 10
27.719187388942
 20
15.72516777474485
 10
27.7028253819806
 20
15.74562095390086
 10
27.6861470380296
 20
15.76581716924896
 10
27.6691548466228
 20
15.78575057185088
 10
27.65185129729381
 20
15.80541531277097
 10
27.63423910733969
 20
15.82480556752394
 10
27.61632197366749
 20
15.84391561679594
 10
27.5981038564956
 20
15.86273976954385
 10
27.57958871604611
 20
15.88127233472488
 10
27.56078051254089
 20
15.89950762129293
 10
27.54168320620209
 20
15.91743993820493
 10
27.52230075725162
 20
15.93506359441884
 10
27.50263712591149
 20
15.95237289888896
 10
27.48269627240372
 20
15.96936216057321
 10
27.4645157524168
 20
15.98437415585796
 10
27.4461167772558
 20
15.99911815796985
 10
27.42750223392248
 20
16.01359001813688
 10
27.40867501151479
 20
16.02778558851585
 10
27.3896383796118
 20
16.04170088966585
 10
27.37039642727491
 20
16.05533230484885
 10
27.35095335002561
 20
16.06867626444715
 10
27.33131334338561
 20
16.08172919884085
 10
27.31148060287651
 20
16.09448753841186
 10
27.29145932401989
 20
16.10694771354285
 10
27.27350774431211
 20
16.11777022815394
 10
27.2554134576625
 20
16.12835182855086
 10
27.23717941071988
 20
16.13869000767602
 10
27.21880855013338
 20
16.14878225847087
 10
27.20030382255171
 20
16.15862607388089
 10
27.181668174624
 20
16.16821894684696
 10
27.1629045529991
 20
16.17755837031285
 10
27.14401590432589
 20
16.18664183722188
 10
27.12500518172062
 20
16.19546685038985
 10
27.1058755589618
 20
16.20403124951397
 10
27.08663047985599
 20
16.21233328653897
 10
27.06727340467649
 20
16.22037123854988
 10
27.04780779369639
 20
16.22814338263097
 10
27.02823710718909
 20
16.23564799586385
 10
27.00856480542778
 20
16.24288335533594
 10
26.98879434868569
 20
16.24984773812889
 10
26.968929197236
 20
16.25653942132683
 10
26.94897281135189
 20
16.26295668201494
 10
26.9289286513068
 20
16.26909779727688
 10
26.90880017737379
 20
16.27496104419687
 10
26.89112131918069
 20
16.27986209193595
 10
26.87338287555148
 20
16.28454792339996
 10
26.85558716459921
 20
16.28901738436784
 10
26.83773650443628
 20
16.29326932062187
 10
26.8198332145659
 20
16.29730257904984
 10
26.80187988254381
 20
16.30111622019995
 10
26.7838796813913
 20
16.30470977127486
 10
26.76583586143109
 20
16.30808282109385
 10
26.7477516729858
 20
16.31123495847606
 10
26.7296303663782
 20
16.31416577223983
 10
26.71147519193089
 20
16.31687485120385
 10
26.69328939996639
 20
16.31936178418794
 10
26.6750762408076
 20
16.32162616001088
 10
26.65683896477696
 20
16.32366756748984
 10
26.63858082219729
 20
16.32548559544584
 10
26.6203050633911
 20
16.32707983269597
 10
26.60201493868108
 20
16.32844986805996
 10
26.58371369838999
 20
16.32959529035687
 10
26.56540459284039
 20
16.33051568840496
 10
26.54709087235489
 20
16.33121065102385
 10
26.52877578725629
 20
16.33167976703084
 10
26.51046258786708
 20
16.33192262524695
 10
26.5000100000011
 20
16.33195965796588
  0
LWPOLYLINE
  5
1237
330
1E
100
AcDbEntity
  8
1
100
AcDbPolyline
 90
       51
 70
     0
 43
0.0
 10
22.28461940779998
 20
-11.7648862863001
 10
22.27946586378708
 20
-11.76940806455914
 10
22.2742451399787
 20
-11.77385678652502
 10
22.26895868349489
 20
-11.77823197063713
 10
22.26360794145569
 20
-11.78253313533693
 10
22.25819436098106
 20
-11.78675979906512
 10
22.2527193891912
 20
-11.79091148026109
 10
22.24743734028459
 20
-11.79480405871311
 10
22.24210193142259
 20
-11.79862745869709
 10
22.23671442122459
 20
-11.80238126138104
 10
22.23127606830987
 20
-11.80606504793509
 10
22.22578813129769
 20
-11.80967839952612
 10
22.22025186880749
 20
-11.81322089732208
 10
22.21466853945851
 20
-11.81669212249109
 10
22.20903940187
 20
-11.82009165620311
 10
22.20336571466138
 20
-11.82341907962501
 10
22.1979219365912
 20
-11.82652062979089
 10
22.19243997954979
 20
-11.82955603210402
 10
22.1869209307799
 20
-11.83252492476012
 10
22.18136587752419
 20
-11.83542694595701
 10
22.17577590702529
 20
-11.83826173389211
 10
22.17015210652597
 20
-11.8410289267631
 10
22.16449556326899
 20
-11.84372816276813
 10
22.15880736449689
 20
-11.84635908010304
 10
22.1530885961121
 20
-11.84892131994291
 10
22.14734028329528
 20
-11.85141465829303
 10
22.14156336696877
 20
-11.85383905825713
 10
22.1357587818478
 20
-11.85619449672091
 10
22.1299274626474
 20
-11.85848095057113
 10
22.12407034408298
 20
-11.86069839669113
 10
22.11818836086969
 20
-11.86284681196903
 10
22.11228244772289
 20
-11.864926173289
 10
22.10635353935757
 20
-11.866936457537
 10
22.10040257048928
 20
-11.86887764160002
 10
22.09443047583298
 20
-11.87074970236311
 10
22.0884381901041
 20
-11.87255261671108
 10
22.08242664801769
 20
-11.87428636153103
 10
22.0763967842892
 20
-11.87595091370811
 10
22.0703495336337
 20
-11.87754625012811
 10
22.06458939222028
 20
-11.87899768758003
 10
22.05881520408721
 20
-11.88038661713209
 10
22.05302777063598
 20
-11.8817130189681
 10
22.0472278932682
 20
-11.88297687327002
 10
22.0414163733852
 20
-11.88417816022001
 10
22.03559401238851
 20
-11.88531686000101
 10
22.0297616116795
 20
-11.88639295279503
 10
22.02391997265991
 20
-11.88740641878401
 10
22.0180698967309
 20
-11.88835723815208
 10
22.0122121852942
 20
-11.88924539108012
 10
22.00634763975109
 20
-11.890070857751
 10
22.00326847989841
 20
-11.89047884272613
  0
LWPOLYLINE
  5
126C
330
1E
100
AcDbEntity
  8
1
100
AcDbPolyline
 90
      178
 70
     0
 43
0.0
 10
21.57751262659999
 20
-19.99894439370001
 10
21.5765012995407
 20
-19.99893187262603
 10
21.57536017027639
 20
-19.99891315408012
 10
21.574234151992
 20
-19.99888988602612
 10
21.57312268088058
 20
-19.99886222828012
 10
21.57202519313503
 20
-19.99883034065712
 10
21.57080653190729
 20
-19.99878961004492
 10
21.56960405204441
 20
-19.9987439558101
 10
21.56841695078191
 20
-19.99869360550411
 10
21.5671150096245
 20
-19.998632429742
 10
21.56582996214079
 20
-19.9985660494251
 10
21.56443460783669
 20
-19.99848739235193
 10
21.56293247452047
 20
-19.9983953212881
 10
21.5613266508918
 20
-19.9982888109849
 10
21.55949846256929
 20
-19.99815804388103
 10
21.5574539960419
 20
-19.99800092038602
 10
21.55484305446758
 20
-19.99778592453995
 10
21.5499277146412
 20
-19.99735027698307
 10
21.54233498908779
 20
-19.9966575299351
 10
21.5397237771578
 20
-19.99643080697191
 10
21.53767903856
 20
-19.99626188198311
 10
21.5358505644492
 20
-19.99611871834903
 10
21.5342444584618
 20
-19.99599996027603
 10
21.53274203592778
 20
-19.99589534392401
 10
21.53134639240598
 20
-19.99580414156412
 10
21.53006106199187
 20
-19.99572548868403
 10
21.5287588188517
 20
-19.99565121392291
 10
21.52757142951459
 20
-19.99558836791609
 10
21.52636864614453
 20
-19.99552954856804
 10
21.52514966597721
 20
-19.99547498343012
 10
21.52405188177389
 20
-19.99543023647379
 10
21.52294010201108
 20
-19.99538919047603
 10
21.52181376288178
 20
-19.99535200525295
 10
21.52067230057891
 20
-19.99531884061812
 10
21.51966067210828
 20
-19.99529324533913
 10
21.51863665558649
 20
-19.99527095774513
 10
21.51759987330668
 20
-19.99525208490002
 10
21.51654994756229
 20
-19.99523673387
 10
21.51548650064659
 20
-19.99522501171603
 10
21.51440915485291
 20
-19.9952170255031
 10
21.51347436692069
 20
-19.99521323483793
 10
21.51252885221292
 20
-19.99521233502804
 10
21.51157237287369
 20
-19.9952143934931
 10
21.51060469104679
 20
-19.9952194776571
 10
21.50962556887609
 20
-19.99522765494115
 10
21.5086347685056
 20
-19.99523899276798
 10
21.50763205207907
 20
-19.99525355855911
 10
21.50661718174049
 20
-19.99527141973712
 10
21.50558991963378
 20
-19.99529264372412
 10
21.50455002790278
 20
-19.99531729794205
 10
21.50349726869137
 20
-19.99534544981304
 10
21.50260996842189
 20
-19.99537163016512
 10
21.5017134295761
 20
-19.99540032528094
 10
21.50080751450571
 20
-19.99543157417812
 10
21.49989208556259
 20
-19.99546541587511
 10
21.49896700509848
 20
-19.99550188938712
 10
21.49803213546528
 20
-19.99554103373313
 10
21.49708733901478
 20
-19.99558288793112
 10
21.49613247809869
 20
-19.99562749099612
 10
21.49516741506876
 20
-19.9956748819481
 10
21.4941920122769
 20
-19.995725099802
 10
21.4932061320748
 20
-19.99577818357804
 10
21.49220963681439
 20
-19.99583417229103
 10
21.4912023888473
 20
-19.99589310496014
 10
21.4901842505254
 20
-19.99595502060201
 10
21.4891550842005
 20
-19.99601995823512
 10
21.48811475222439
 20
-19.9960879568751
 10
21.48706311694879
 20
-19.9961590555401
 10
21.48600004072557
 20
-19.99623329324814
 10
21.48492538590659
 20
-19.99631070901503
 10
21.48383901484347
 20
-19.9963913418601
 10
21.48274078988807
 20
-19.99647523079994
 10
21.48163057339221
 20
-19.99656241485294
 10
21.4807336737868
 20
-19.99663456079514
 10
21.47982894102468
 20
-19.99670886055712
 10
21.47891630463008
 20
-19.99678533411614
 10
21.4779956941272
 20
-19.99686400144812
 10
21.47706705274108
 20
-19.99694487817311
 10
21.47589543065909
 20
-19.9970489268061
 10
21.4747129575576
 20
-19.99715587906212
 10
21.47328146877858
 20
-19.9972874744501
 10
21.4715969302498
 20
-19.99744458734312
 10
21.4696569652161
 20
-19.99762748799403
 10
21.4596592456602
 20
-19.99855901941202
 10
21.457975166138
 20
-19.99870674921202
 10
21.45654416212618
 20
-19.99882843490512
 10
21.45536215739878
 20
-19.99892581257714
 10
21.45419106223771
 20
-19.99901908980211
 10
21.4532629011796
 20
-19.99909048239393
 10
21.45234319684369
 20
-19.9991587760731
 10
21.45143260460739
 20
-19.99922375989113
 10
21.45053177984859
 20
-19.9992852229021
 10
21.44964137794469
 20
-19.99934295416091
 10
21.4487620542735
 20
-19.9993967427221
 10
21.44811022586089
 20
-19.99943436984912
 10
21.44746527409157
 20
-19.99946957155802
 10
21.4468274754529
 20
-19.9995022588561
 10
21.44619710643229
 20
-19.99953234275103
 10
21.4455744435173
 20
-19.99955973424903
 10
21.4449597631953
 20
-19.99958434435814
 10
21.44435334195381
 20
-19.99960608408392
 10
21.44375545628008
 20
-19.9996248644341
 10
21.4431663826618
 20
-19.99964059641713
 10
21.44258639758621
 20
-19.99965319103912
 10
21.4420157775409
 20
-19.99966255930712
 10
21.44145479901319
 20
-19.99966861222812
 10
21.44090373849059
 20
-19.9996712608091
 10
21.44036287246057
 20
-19.99967041605811
 10
21.4398324774105
 20
-19.99966598898094
 10
21.43931282982789
 20
-19.99965789058612
 10
21.43880420620007
 20
-19.99964603188002
 10
21.43830688301459
 20
-19.99963032386992
 10
21.437821136759
 20
-19.99961067756314
 10
21.4373472439205
 20
-19.99958700396613
 10
21.43688548098658
 20
-19.99955921408701
 10
21.43643612444479
 20
-19.99952721893112
 10
21.43599945078257
 20
-19.99949092950814
 10
21.43557573648728
 20
-19.99945025682303
 10
21.4353005964757
 20
-19.99942066260712
 10
21.43503142098839
 20
-19.99938905435493
 10
21.4347682919474
 20
-19.99935540569794
 10
21.43451129127489
 20
-19.99931969026695
 10
21.43426050089328
 20
-19.99928188169515
 10
21.43401600272459
 20
-19.99924195361312
 10
21.43377787869109
 20
-19.99919987965212
 10
21.43354621071507
 20
-19.99915563344601
 10
21.43332108071857
 20
-19.99910918862491
 10
21.4331025706239
 20
-19.99906051882094
 10
21.4328907623532
 20
-19.99900959766512
 10
21.43268573782878
 20
-19.99895639879111
 10
21.43248757897278
 20
-19.9989008958281
 10
21.43229636770739
 20
-19.9988430624101
 10
21.43211218595479
 20
-19.99878287216805
 10
21.43193511563719
 20
-19.99872029873311
 10
21.431765238677
 20
-19.99865531573709
 10
21.43160263699609
 20
-19.99858789681312
 10
21.4314473925169
 20
-19.99851801559098
 10
21.43129958716158
 20
-19.99844564570413
 10
21.43115930285229
 20
-19.99837076078311
 10
21.43102662151127
 20
-19.99829333446013
 10
21.43090162506069
 20
-19.99821334036712
 10
21.43078439542289
 20
-19.99813075213512
 10
21.43067501451989
 20
-19.99804554339587
 10
21.43057356427401
 20
-19.99795768778312
 10
21.43048012660738
 20
-19.99786715892594
 10
21.43039478344229
 20
-19.99777393045704
 10
21.4303176167009
 20
-19.99767797600912
 10
21.4302487083054
 20
-19.99757926921293
 10
21.43018814017801
 20
-19.9974777837001
 10
21.43013599424099
 20
-19.9973734931031
 10
21.4300923524164
 20
-19.99726637105212
 10
21.43005729662657
 20
-19.9971563911811
 10
21.43003090879369
 20
-19.99704352712011
 10
21.43001327084005
 20
-19.99692775250212
 10
21.43000446468757
 20
-19.99680904095814
 10
21.43000457225878
 20
-19.9966873661191
 10
21.4300136754757
 20
-19.99656270161803
 10
21.43003185626058
 20
-19.9964350210871
 10
21.43005919653559
 20
-19.99630429815613
 10
21.43009577822299
 20
-19.99617050645801
 10
21.43014168324488
 20
-19.99603361962513
 10
21.4301969935237
 20
-19.99589361128802
 10
21.43026179098139
 20
-19.99575045507903
 10
21.43033615754039
 20
-19.99560412462992
 10
21.43042017512269
 20
-19.9954545935721
 10
21.43051392565057
 20
-19.99530183553687
 10
21.43061749104627
 20
-19.99514582415812
 10
21.43073095323207
 20
-19.99498653306491
 10
21.43085439413009
 20
-19.99482393589102
 10
21.43098789566241
 20
-19.99465800626612
 10
21.43113153975139
 20
-19.99448871782414
 10
21.43128540831928
 20
-19.99431604419513
 10
21.43144958328807
 20
-19.99413995901202
 10
21.4316241465802
 20
-19.99396043590611
 10
21.43180918011779
 20
-19.99377744850915
 10
21.43200476582298
 20
-19.9935909704521
 10
21.43221098561807
 20
-19.99340097536802
 10
21.43231065328531
 20
-19.99331130583901
  0
LWPOLYLINE
  5
1398
330
1E
100
AcDbEntity
  8
1
100
AcDbPolyline
 90
       42
 70
     0
 43
0.0
 10
21.455804695
 20
16.49487689159996
 10
21.45720106201629
 20
16.49746444632494
 10
21.45863033027978
 20
16.50003468791683
 10
21.46009195396819
 20
16.50258751767484
 10
21.46158538725901
 20
16.50512283689798
 10
21.4632007343401
 20
16.50778809698004
 10
21.4648504835512
 20
16.51043349805593
 10
21.46653398697111
 20
16.51305892296284
 10
21.46834692157697
 20
16.51580840367018
 10
21.47019598110879
 20
16.51853535863985
 10
21.47208040354829
 20
16.52123965007685
 10
21.47410137213559
 20
16.52406163701596
 10
21.47615979087778
 20
16.52685819860785
 10
21.47836046379389
 20
16.52976704839186
 10
21.48060041675058
 20
16.53264750348796
 10
21.48298804337807
 20
16.53563446531689
 10
21.4854164679102
 20
16.53858984570683
 10
21.48799761309169
 20
16.54164556203505
 10
21.4907356827938
 20
16.54479682042688
 10
21.49351788991189
 20
16.54790969584686
 10
21.49646130082819
 20
16.55111115976285
 10
21.49956961840648
 20
16.55439584473985
 10
21.50284632533709
 20
16.55775810204884
 10
21.50617064091558
 20
16.56107029453085
 10
21.50954076495521
 20
16.56433237722206
 10
21.51295542560189
 20
16.56754478416917
 10
21.51641339028099
 20
16.57070798503193
 10
21.5199134264179
 20
16.57382244946985
 10
21.5235862131702
 20
16.57700128921096
 10
21.52730154526607
 20
16.58012874446296
 10
21.5310580480434
 20
16.58320533902587
 10
21.53499064771061
 20
16.58633875293087
 10
21.53896440945948
 20
16.58941875220097
 10
21.5429778060195
 20
16.59244591878698
 10
21.54702931012028
 20
16.59542083463986
 10
21.55125899688719
 20
16.59844396881205
 10
21.5555261394234
 20
16.60141245365196
 10
21.5598290469542
 20
16.60432693341186
 10
21.5643111618613
 20
16.60728251150189
 10
21.56882779491279
 20
16.61018182293389
 10
21.57352435431101
 20
16.61311639565997
 10
21.57750406140157
 20
16.61554181074887
  0
LWPOLYLINE
  5
13C4
330
1E
100
AcDbEntity
  8
1
100
AcDbPolyline
 90
       64
 70
     0
 43
0.0
 10
21.57751262659999
 20
0.2054826888998749
 10
21.5722597570503
 20
0.2109328070928856
 10
21.56708697478028
 20
0.2164655193609776
 10
21.56199534971869
 20
0.2220792215448712
 10
21.55698595179428
 20
0.2277723094908853
 10
21.55205985093599
 20
0.2335431790418712
 10
21.54747082452351
 20
0.239080613523865
 10
21.54295842780118
 20
0.2446850538289001
 10
21.538523570497
 20
0.2503551359898752
 10
21.5341671623393
 20
0.2560894960430433
 10
21.52989011305581
 20
0.2618867700198822
 10
21.52592436557609
 20
0.2674185121948627
 10
21.5220309820819
 20
0.2730040063809698
 10
21.51821072894739
 20
0.2786421035438851
 10
21.51446437254671
 20
0.2843316546518766
 10
21.51079267925398
 20
0.2900715106709671
 10
21.50719641544339
 20
0.2958605225668665
 10
21.50367634748902
 20
0.3016975413078713
 10
21.50043363322641
 20
0.3072340309518867
 10
21.49725973205048
 20
0.3128110699059593
 10
21.4941552828924
 20
0.3184277002099494
 10
21.4911209246833
 20
0.3240829639100556
 10
21.4881572963541
 20
0.3297759030489802
 10
21.48526503683599
 20
0.3355055596689711
 10
21.48244478506009
 20
0.3412709758149762
 10
21.47986676486679
 20
0.3467076784699517
 10
21.47735312073269
 20
0.3521741791068652
 10
21.4749043002258
 20
0.357669673090979
 10
21.47252049195759
 20
0.3631933055689532
 10
21.47020183147759
 20
0.3687442113958897
 10
21.46794845433528
 20
0.3743215254279707
 10
21.46576049607991
 20
0.3799243825189623
 10
21.46363809226099
 20
0.3855519175238813
 10
21.46158137842788
 20
0.3912032652988815
 10
21.45959049013009
 20
0.3968775606989797
 10
21.45766556291689
 20
0.4025739385791927
 10
21.45580673233769
 20
0.4082915337938833
 10
21.45401413394206
 20
0.4140294811988927
 10
21.4522879032793
 20
0.4197869156498629
 10
21.4506281758987
 20
0.4255629720008731
 10
21.44903508734989
 20
0.4313567851078778
 10
21.44750877318207
 20
0.4371674898250692
 10
21.44604936894479
 20
0.4429942210088857
 10
21.4446570101875
 20
0.4488361135138609
 10
21.44333183245938
 20
0.454692302194869
 10
21.44207397131009
 20
0.4605619219069557
 10
21.44088356228889
 20
0.4664441075058764
 10
21.4397607409452
 20
0.472337993846961
 10
21.43870564282849
 20
0.4782427157839467
 10
21.43771840348809
 20
0.4841574081728741
 10
21.43679915847349
 20
0.4900812058698679
 10
21.435948043334
 20
0.4960132437288653
 10
21.43516519361909
 20
0.5019526566049679
 10
21.43445074487809
 20
0.5078985793528804
 10
21.4338048326606
 20
0.5138501468298644
 10
21.43322759251578
 20
0.5198064938888909
 10
21.43271915999329
 20
0.5257667553858855
 10
21.43227963795259
 20
0.5317301126608786
 10
21.43190889892669
 20
0.5376960745839743
 10
21.431606716466
 20
0.5436642907748679
 10
21.43137286373789
 20
0.5496344114039548
 10
21.4312071139103
 20
0.555606086635888
 10
21.4311092401507
 20
0.5615789666388739
 10
21.43107893221958
 20
0.5671444330008601
  0
LWPOLYLINE
  5
1469
330
1E
100
AcDbEntity
  8
1
100
AcDbPolyline
 90
      106
 70
     0
 43
0.0
 10
21.43106301169999
 20
-11.38850183249989
 10
21.43108444704729
 20
-11.39175109148513
 10
21.43116228873009
 20
-11.39499998748908
 10
21.431294819583
 20
-11.39824766139412
 10
21.43148032244102
 20
-11.40149325408211
 10
21.43171708013871
 20
-11.40473590643412
 10
21.43200337551089
 20
-11.4079747593311
 10
21.43233751313457
 20
-11.41120897114912
 10
21.43271814981539
 20
-11.41443798363303
 10
21.4331442279575
 20
-11.41766146830113
 10
21.4336146981975
 20
-11.42087910329109
 10
21.4342636137457
 20
-11.42489243058514
 10
21.43497820277838
 20
-11.42889548621804
 10
21.43575641575769
 20
-11.43288764155309
 10
21.43659620314569
 20
-11.43686826795802
 10
21.43749551540441
 20
-11.44083673679801
 10
21.4384523029958
 20
-11.44479241943901
 10
21.43946451638189
 20
-11.44873468724693
 10
21.44053010602479
 20
-11.45266291158711
 10
21.44187638450568
 20
-11.4573573583021
 10
21.44329310372659
 20
-11.46202963222002
 10
21.44477778022378
 20
-11.4666792552751
 10
21.44632864664569
 20
-11.47130616101809
 10
21.44794395173402
 20
-11.47591029225289
 10
21.4496219442305
 20
-11.48049159178211
 10
21.45136087287708
 20
-11.48505000240803
 10
21.4534643031255
 20
-11.49033914280112
 10
21.45564550965457
 20
-11.49559696017414
 10
21.4579017115313
 20
-11.50082336370113
 10
21.4602301278224
 20
-11.50601826255314
 10
21.4626279775947
 20
-11.51118156590501
 10
21.46544983054599
 20
-11.5170436791391
 10
21.46835465368701
 20
-11.52286427685302
 10
21.47133948243309
 20
-11.52864333828514
 10
21.4744022994409
 20
-11.53438093433209
 10
21.47754111711046
 20
-11.54007713877001
 10
21.48116065673519
 20
-11.54643598471611
 10
21.48487103914098
 20
-11.5527426428251
 10
21.48866943432758
 20
-11.55899721814208
 10
21.49255301229428
 20
-11.56519981571114
 10
21.4969645625865
 20
-11.57203075699413
 10
21.50147390094628
 20
-11.57879780199704
 10
21.50607714534269
 20
-11.58550109481389
 10
21.51124461302201
 20
-11.59280125213604
 10
21.51651731025796
 20
-11.60002457354311
 10
21.5218926467664
 20
-11.60717114211613
 10
21.5273680733989
 20
-11.6142410391991
 10
21.53345242306896
 20
-11.62186630626701
 10
21.5396495450739
 20
-11.62940053034213
 10
21.5459561299259
 20
-11.636843817032
 10
21.5529079508923
 20
-11.6448048797851
 10
21.5599801468981
 20
-11.65265947562611
 10
21.56772615225129
 20
-11.66099935861214
 10
21.57560184369029
 20
-11.6692160215601
 10
21.58360368391269
 20
-11.67730909603312
 10
21.59172877762839
 20
-11.68527801324209
 10
21.59997423195509
 20
-11.69312220364912
 10
21.60833715400998
 20
-11.70084109771311
 10
21.61681465091048
 20
-11.70843412589712
 10
21.62540382977407
 20
-11.7159007186609
 10
21.6341017977182
 20
-11.7232403064661
 10
21.64290566186008
 20
-11.73045231977311
 10
21.65181258449157
 20
-11.73753615093402
 10
21.66082031392539
 20
-11.744490787534
 10
21.66992695181598
 20
-11.7513149731041
 10
21.67913060468878
 20
-11.7580074478111
 10
21.68776206672701
 20
-11.76410285242089
 10
21.69647403077838
 20
-11.77008259503393
 10
21.70526498082119
 20
-11.77594566695508
 10
21.7141334008337
 20
-11.78169105949302
 10
21.72307777479439
 20
-11.78731776395213
 10
21.73209658750546
 20
-11.79282476729511
 10
21.7411883678977
 20
-11.79821082368511
 10
21.75035171041537
 20
-11.80347434167805
 10
21.75887248615739
 20
-11.80822281124177
 10
21.76745194347339
 20
-11.81286421574101
 10
21.77608898103299
 20
-11.81739728142308
 10
21.78478249750589
 20
-11.8218207345341
 10
21.7935313915617
 20
-11.82613330132402
 10
21.80233456187019
 20
-11.830333708041
 10
21.81119090710089
 20
-11.834420680932
 10
21.82009932588357
 20
-11.83839294478491
 10
21.82905871252909
 20
-11.84224906670013
 10
21.83731530622209
 20
-11.84568034139908
 10
21.84561293255871
 20
-11.8490112140769
 10
21.85395073293028
 20
-11.85224032740612
 10
21.86232784872831
 20
-11.855366324057
 10
21.87074342134398
 20
-11.85838784670208
 10
21.87919659216877
 20
-11.86130353801203
 10
21.88768650259409
 20
-11.86411204065908
 10
21.89621229401119
 20
-11.86681199731498
 10
21.90399342738349
 20
-11.86917116840811
 10
21.91180285680338
 20
-11.87143848883613
 10
21.91963970697348
 20
-11.8736128081669
 10
21.92750271953858
 20
-11.87569275857301
 10
21.93539059930191
 20
-11.87767695132004
 10
21.94330205106628
 20
-11.87956399767205
 10
21.95123577963498
 20
-11.88135250889411
 10
21.9591904898112
 20
-11.88304109625
 10
21.96636659776379
 20
-11.88447424217613
 10
21.97355770751029
 20
-11.88582431250714
 10
21.98076287485219
 20
-11.88709029485491
 10
21.987981155591
 20
-11.8882711768311
 10
21.99521160552798
 20
-11.88936594604909
 10
22.00245328046479
 20
-11.89037359012013
 10
22.00324864841009
 20
-11.89047882354091
  0
LWPOLYLINE
  5
156A
330
1E
100
AcDbEntity
  8
1
100
AcDbPolyline
 90
        2
 70
     0
 43
0.0
 10
21.57751262659999
 20
16.61554697189987
 10
21.82499137709342
 20
16.76277274236284
  0
LWPOLYLINE
  5
156E
330
1E
100
AcDbEntity
  8
1
100
AcDbPolyline
 90
       12
 70
     0
 43
0.0
 10
21.455804695
 20
16.49487689159996
 10
21.44941035074328
 20
16.43072362512993
 10
21.44448522014579
 20
16.37562437293184
 10
21.44059159099329
 20
16.32642759447296
 10
21.43760646386419
 20
16.28314796062997
 10
21.43536701812998
 20
16.24500564899596
 10
21.433710000687
 20
16.21081882471996
 10
21.4325079480041
 20
16.17940127080688
 10
21.43170300438248
 20
16.15075760435785
 10
21.43124738065401
 20
16.12529089613985
 10
21.43107008533919
 20
16.10220937360687
 10
21.43106353091169
 20
16.09784176379885
  0
LWPOLYLINE
  5
157C
330
1E
100
AcDbEntity
  8
1
100
AcDbPolyline
 90
        2
 70
     0
 43
0.0
 10
22.28461940779998
 20
-11.7648862863001
 10
22.367020961929
 20
-11.69147537342303
  0
LWPOLYLINE
  5
15FA
330
1E
100
AcDbEntity
  8
1
100
AcDbPolyline
 90
        2
 70
     0
 43
0.0
 10
21.82499999999998
 20
-0.0470970042001424
 10
21.57751962078509
 20
0.2054755417759653
  0
LWPOLYLINE
  5
1701
330
1E
100
AcDbEntity
  8
1
100
AcDbPolyline
 90
        3
 70
     0
 43
0.0
 10
21.77880512139999
 20
-20.00000000000011
 10
21.58677175485
 20
-19.99903936572803
 10
21.5775226260489
 20
-19.99894449868503
  0
LINE
  5
18E2
330
1E
100
AcDbEntity
  8
SK4
100
AcDbLine
 10
0.0
 20
-0.0000000000000284
 30
0.0
 11
-29.0
 21
-0.0000000000000248
 31
0.0
  0
DIMENSION
  5
89A1
330
1E
100
AcDbEntity
  8
2
100
AcDbDimension
  2
*D5
 10
27.46577868279997
 20
-20.7880287070001
 30
0.0
 11
25.12735114533358
 21
-55.30860488817727
 31
0.0
 70
    34
 71
     5
 42
1.055770357024542
  3
ISO-25
100
AcDb2LineAngularDimension
 13
23.48536546017298
 23
-22.49451159494813
 33
0.0
 14
24.53517693951998
 24
-24.27736495559611
 34
0.0
 15
30.77350269189996
 25
-15.05888266590013
 35
0.0
 16
19.42494809400624
 26
-57.20435201107208
 36
0.0
1001
ACAD
1000
DSTYLE
1002
{
1070
   271
1070
     0
1002
}
  0
TEXT
  5
AF07
330
1E
100
AcDbEntity
  8
6
100
AcDbText
 10
42.82295815394525
 20
-33.38153701032023
 30
0.0
 40
3.5
  1
17Y1E051064K4R00
100
AcDbText
  0
CIRCLE
  5
AF08
330
1E
100
AcDbEntity
  8
1
100
AcDbCircle
 10
0.0
 20
0.0
 30
0.0
 40
2.950972054112601
  0
HATCH
  5
AF09
330
1E
100
AcDbEntity
  8
1
100
AcDbHatch
 10
0.0
 20
0.0
 30
0.0
210
0.0
220
0.0
230
1.0
  2
SOLID
 70
     1
 71
     0
 91
        2
 92
        7
 72
     1
 73
     1
 93
        3
 10
0.0
 20
0.0
 42
0.0
 10
2.950972054112638
 20
0.0
 42
0.4142135623730966
 10
0.0
 20
2.950972054112583
 42
0.0
 97
        0
 92
        7
 72
     1
 73
     1
 93
        3
 10
0.0
 20
-2.950972054112611
 42
0.0
 10
0.0
 20
0.0
 42
0.0
 10
-2.950972054112638
 20
0.0
 42
0.4142135623730966
 97
        0
 75
     0
 76
     1
 47
0.1190009775223266
 98
        2
 10
0.7445530588120164
 20
0.9212244733764691
 10
-1.27946460185285
 20
-1.696796923046334
  0
LWPOLYLINE
  5
AF0A
330
1E
100
AcDbEntity
  8
1
100
AcDbPolyline
 90
        3
 70
     1
 43
0.0
 10
0.0
 20
2.950972054112583
 10
0.0
 20
0.0
 10
2.950972054112638
 20
0.0
 42
0.4142135623730966
  0
TEXT
  5
AF13
330
1E
100
AcDbEntity
  8
6
100
AcDbText
 10
33.58928904144466
 20
32.44592540490703
 30
0.0
 40
2.5
  1
XNL434-100
100
AcDbText
  0
TEXT
  5
AF14
330
1E
100
AcDbEntity
  8
6
100
AcDbText
 10
55.12313825965907
 20
-3.516818028061948
 30
0.0
 40
3.5
  1
Z=4
 50
90.0
100
AcDbText
  0
LINE
  5
B07A
330
1E
100
AcDbEntity
  8
NOCUT
100
AcDbLine
 10
0.0
 20
0.0
 30
0.0
 11
28.10000000000002
 21
0.0
 31
0.0
  0
LINE
  5
B097
330
1E
100
AcDbEntity
  8
NOCUT
100
AcDbLine
 10
0.0
 20
0.0
 30
0.0
 11
0.0000000000000568
 21
19.69999999999998
 31
0.0
  0
LINE
  5
B0B1
330
1E
100
AcDbEntity
  8
NOCUT
100
AcDbLine
 10
26.50000000000005
 20
20.0
 30
0.0
 11
0.3000000000000114
 21
20.0
 31
0.0
  0
LINE
  5
B0B7
330
1E
100
AcDbEntity
  8
NOCUT
100
AcDbLine
 10
28.10000000000002
 20
0.0
 30
0.0
 11
28.10000000000002
 21
18.39999999999997
 31
0.0
  0
ARC
  5
B0C0
330
1E
100
AcDbEntity
  8
NOCUT
100
AcDbCircle
 10
0.3000000000000114
 20
19.69999999999998
 30
0.0
 40
0.3
100
AcDbArc
 50
90.0
 51
180.0
  0
ARC
  5
B0C1
330
1E
100
AcDbEntity
  8
NOCUT
100
AcDbCircle
 10
26.50000000000005
 20
18.39999999999997
 30
0.0
 40
1.6
100
AcDbArc
 50
0.0
 51
90.0
  0
SPLINE
  5
B0D5
330
1E
100
AcDbEntity
  8
CUT
100
AcDbSpline
210
0.0
220
0.0
230
1.0
 70
     8
 71
     3
 72
    36
 73
    32
 74
    30
 42
0.0000000001
 43
0.0000000001
 44
0.0000000001
 12
0.5020338569120267
 22
0.8648479672832879
 32
0.0
 13
0.5011590226997278
 23
0.8653552068177864
 33
0.0
 40
0.0
 40
0.0
 40
0.0
 40
0.0
 40
0.1300747478029559
 40
0.2601581442684435
 40
0.390251054486526
 40
0.5203526137738627
 40
0.6504636872610651
 40
0.7805842751824465
 40
0.9107126478150266
 40
1.040849670310489
 40
1.170995342862509
 40
1.301149665664287
 40
1.431311773856341
 40
1.561483034317341
 40
1.691661578847515
 40
1.821847909255135
 40
1.952042025696701
 40
2.082243063188716
 40
2.212452752167723
 40
2.342669362475315
 40
2.472893759425319
 40
2.60312507796663
 40
2.733363318222703
 40
2.86360848031712
 40
2.993861429627294
 40
3.12412093708067
 40
3.254386865431099
 40
3.384659716113809
 40
3.514939489252223
 40
3.645224454313472
 40
3.775517207388941
 40
3.775517207388941
 40
3.775517207388941
 40
3.775517207388941
 10
22.88872400000002
 20
21.87138499999996
 30
0.0
 10
22.9104913091088
 20
21.90888329374405
 30
0.0
 10
22.95402617082332
 20
21.98388307329901
 30
0.0
 10
23.01932643728009
 20
22.09638925210678
 30
0.0
 10
23.08462611739887
 20
22.20890610454246
 30
0.0
 10
23.14992640627866
 20
22.32143327035445
 30
0.0
 10
23.2152264382555
 20
22.43397125194686
 30
0.0
 10
23.2805258760424
 20
22.54651991158014
 30
0.0
 10
23.34582621136945
 20
22.659078050472
 30
0.0
 10
23.41112615519694
 20
22.77164608317349
 30
0.0
 10
23.47642618865266
 20
22.88422406387819
 30
0.0
 10
23.5417259657569
 20
22.99681185992937
 30
0.0
 10
23.60702603923765
 20
23.10940934403548
 30
0.0
 10
23.6723271105487
 20
23.22201558285524
 30
0.0
 10
23.73762687674476
 20
23.33463191182239
 30
0.0
 10
23.80292701485319
 20
23.44725683183562
 30
0.0
 10
23.86822663500584
 20
23.55989071879697
 30
0.0
 10
23.933527292702
 20
23.67253300428383
 30
0.0
 10
23.99882663223462
 20
23.7851847205594
 30
0.0
 10
24.06412702505312
 20
23.89784482628369
 30
0.0
 10
24.12942669232553
 20
24.01051368587585
 30
0.0
 10
24.19472676230226
 20
24.12319064539205
 30
0.0
 10
24.26002667015193
 20
24.23587569885791
 30
0.0
 10
24.32532711302965
 20
24.34856877565882
 30
0.0
 10
24.39062623998077
 20
24.46127080802893
 30
0.0
 10
24.45592797276094
 20
24.57397933062158
 30
0.0
 10
24.52122763207829
 20
24.68669672119773
 30
0.0
 10
24.58652782499251
 20
24.799421609512
 30
0.0
 10
24.65182718827227
 20
24.9121543117204
 30
0.0
 10
24.71712795164827
 20
25.02489386961162
 30
0.0
 10
24.76066020373459
 20
25.10005682923847
 30
0.0
 10
24.78242599999997
 20
25.13763999999996
 30
0.0
 11
22.88872400000002
 21
21.87138499999996
 31
0.0
 11
22.95402399999999
 21
21.98388099999998
 31
0.0
 11
23.01932399999997
 21
22.09638699999998
 31
0.0
 11
23.08462400000002
 21
22.20890400000001
 31
0.0
 11
23.14992399999999
 21
22.32143100000001
 31
0.0
 11
23.21522399999996
 21
22.43396899999999
 31
0.0
 11
23.28052400000001
 21
22.54651799999999
 31
0.0
 11
23.34582399999999
 21
22.65907600000002
 31
0.0
 11
23.41112399999996
 21
22.77164399999996
 31
0.0
 11
23.47642400000001
 21
22.88422200000002
 31
0.0
 11
23.54172399999999
 21
22.99680999999998
 31
0.0
 11
23.60702400000002
 21
23.10940699999996
 31
0.0
 11
23.672325
 21
23.222014
 31
0.0
 11
23.73762499999996
 21
23.33462999999999
 31
0.0
 11
23.802925
 21
23.44725499999998
 31
0.0
 11
23.86822499999999
 21
23.55988899999999
 31
0.0
 11
23.93352499999996
 21
23.67253099999999
 31
0.0
 11
23.99882500000001
 21
23.785183
 31
0.0
 11
24.06412499999999
 21
23.89784300000001
 31
0.0
 11
24.12942499999996
 21
24.01051199999999
 31
0.0
 11
24.19472499999999
 21
24.12318900000002
 31
0.0
 11
24.26002499999998
 21
24.23587400000002
 31
0.0
 11
24.32532500000002
 21
24.348567
 31
0.0
 11
24.390625
 21
24.46126900000001
 31
0.0
 11
24.45592599999996
 21
24.57397800000001
 31
0.0
 11
24.521226
 21
24.68669499999998
 31
0.0
 11
24.58652599999999
 21
24.79941999999999
 31
0.0
 11
24.65182599999996
 21
24.91215299999999
 31
0.0
 11
24.717126
 21
25.02489200000002
 31
0.0
 11
24.78242599999997
 21
25.13763999999996
 31
0.0
  0
SPLINE
  5
B0D6
330
1E
100
AcDbEntity
  8
CUT
100
AcDbSpline
210
0.0
220
0.0
230
1.0
 70
     8
 71
     3
 72
    36
 73
    32
 74
    30
 42
0.0000000001
 43
0.0000000001
 44
0.0000000001
 12
0.5274950874921133
 22
0.849558080811246
 32
0.0
 13
0.5272658805726911
 23
0.8497003537623747
 33
0.0
 40
0.0
 40
0.0
 40
0.0
 40
0.0
 40
0.0076835307639269
 40
0.0153675891968042
 40
0.023051119960725
 40
0.0307355002220108
 40
0.0384190309859598
 40
0.0461039388578865
 40
0.0537883191191637
 40
0.0614735489140459
 40
0.0691579291753249
 40
0.0768436865225214
 40
0.0845289163173859
 40
0.0922141461122591
 40
0.0998999034594575
 40
0.1075859828241227
 40
0.1152712126189958
 40
0.1229572919836562
 40
0.130643898842335
 40
0.138329978207034
 40
0.1460169071776949
 40
0.1537035140363742
 40
0.1613904430070291
 40
0.1690773719776783
 40
0.1767651505905157
 40
0.1844526069968781
 40
0.1921403856097608
 40
0.1998273145804217
 40
0.20751509319325
 40
0.2152042488035752
 40
0.2228920274164051
 40
0.2228920274164051
 40
0.2228920274164051
 40
0.2228920274164051
 10
24.78242599999997
 20
25.13763999999996
 30
0.0
 10
24.78377700824417
 20
25.13981586854985
 30
0.0
 10
24.78647997256326
 20
25.14416722413503
 30
0.0
 10
24.79053509416007
 20
25.15069373443315
 30
0.0
 10
24.79458924332635
 20
25.15722118222208
 30
0.0
 10
24.79864273608773
 20
25.16374883056833
 30
0.0
 10
24.80269715815136
 20
25.17027644214909
 30
0.0
 10
24.8067520845967
 20
25.17680374041948
 30
0.0
 10
24.81080624553134
 20
25.18333218087407
 30
0.0
 10
24.81485973679216
 20
25.18986083010664
 30
0.0
 10
24.81891415315967
 20
25.19638944523085
 30
0.0
 10
24.82296910367856
 20
25.20291772861433
 30
0.0
 10
24.82702302492378
 20
25.20944698452433
 30
0.0
 10
24.83107679662282
 20
25.2159763332905
 30
0.0
 10
24.83513249465364
 20
25.22250481919507
 30
0.0
 10
24.8391855645848
 20
25.22903493701411
 30
0.0
 10
24.8432404074084
 20
25.23556408037919
 30
0.0
 10
24.8472937947363
 20
25.24209433441745
 30
0.0
 10
24.85134911946965
 20
25.24862371884744
 30
0.0
 10
24.85540332023999
 20
25.25515413453542
 30
0.0
 10
24.85945649568782
 20
25.26168518671966
 30
0.0
 10
24.86351250654514
 20
25.26821481189315
 30
0.0
 10
24.86756581792947
 20
25.27474611303029
 30
0.0
 10
24.87162042773515
 20
25.28127706783076
 30
0.0
 10
24.87567345995492
 20
25.28780920882301
 30
0.0
 10
24.87972954190845
 20
25.29433979002139
 30
0.0
 10
24.8837825629478
 20
25.30087193794704
 30
0.0
 10
24.88783736685333
 20
25.30740310563078
 30
0.0
 10
24.89189110778893
 20
25.31393547332434
 30
0.0
 10
24.89594580358504
 20
25.32046758167934
 30
0.0
 10
24.89864883221331
 20
25.324822563931
 30
0.0
 10
24.89999999999996
 20
25.327
 30
0.0
 11
24.78242599999997
 21
25.13763999999996
 31
0.0
 11
24.78647999999997
 21
25.14416699999998
 31
0.0
 11
24.79053499999996
 21
25.15069399999998
 31
0.0
 11
24.79458899999996
 21
25.15722099999999
 31
0.0
 11
24.79864299999996
 21
25.16374899999999
 31
0.0
 11
24.80269700000002
 21
25.170276
 31
0.0
 11
24.80675200000002
 21
25.176804
 31
0.0
 11
24.81080600000001
 21
25.183332
 31
0.0
 11
24.81486000000001
 21
25.18986100000001
 31
0.0
 11
24.818914
 21
25.19638900000001
 31
0.0
 11
24.822969
 21
25.20291800000001
 31
0.0
 11
24.82702299999999
 21
25.20944700000001
 31
0.0
 11
24.83107699999999
 21
25.21597600000001
 31
0.0
 11
24.83513199999999
 21
25.22250500000001
 31
0.0
 11
24.83918599999998
 21
25.22903500000001
 31
0.0
 11
24.84323999999998
 21
25.23556400000001
 31
0.0
 11
24.84729399999996
 21
25.24209400000001
 31
0.0
 11
24.85134899999996
 21
25.24862399999999
 31
0.0
 11
24.85540300000002
 21
25.255154
 31
0.0
 11
24.85945700000002
 21
25.261685
 31
0.0
 11
24.86351200000001
 21
25.268215
 31
0.0
 11
24.86756600000001
 21
25.27474599999999
 31
0.0
 11
24.87162
 21
25.28127699999998
 31
0.0
 11
24.875674
 21
25.28780899999998
 31
0.0
 11
24.87972899999999
 21
25.29433999999996
 31
0.0
 11
24.88378299999999
 21
25.30087200000002
 31
0.0
 11
24.88783699999999
 21
25.30740300000001
 31
0.0
 11
24.89189099999999
 21
25.313935
 31
0.0
 11
24.89594599999998
 21
25.32046799999999
 31
0.0
 11
24.89999999999996
 21
25.327
 31
0.0
  0
SPLINE
  5
B0D7
330
1E
100
AcDbEntity
  8
CUT
100
AcDbSpline
210
0.0
220
0.0
230
1.0
 70
    24
 71
     3
 72
    36
 73
    32
 74
    30
 42
0.0000000001
 43
0.0000000001
 44
0.0000000001
 12
1.0
 22
0.0
 32
0.0
 13
1.0
 23
0.0
 33
0.0
 40
0.0
 40
0.0
 40
0.0
 40
0.0
 40
0.0068970000000412
 40
0.0137930000000317
 40
0.0206900000000161
 40
0.0275860000000421
 40
0.0344830000000336
 40
0.0413790000000134
 40
0.0482760000000511
 40
0.0551720000000344
 40
0.0620690000000153
 40
0.0689660000000529
 40
0.0758620000000327
 40
0.0827590000000136
 40
0.0896550000000005
 40
0.0965520000000417
 40
0.1034480000000251
 40
0.1103449999999988
 40
0.1172410000000426
 40
0.1241380000000234
 40
0.1310339999999996
 40
0.1379310000000444
 40
0.1448280000000253
 40
0.1517240000000015
 40
0.1586210000000427
 40
0.1655170000000332
 40
0.1724140000000141
 40
0.1793100000000507
 40
0.1862070000000351
 40
0.1931030000000149
 40
0.2000000000000526
 40
0.2000000000000526
 40
0.2000000000000526
 40
0.2000000000000526
 10
24.89999999999996
 20
25.327
 30
0.0
 10
24.90229899999998
 20
25.327
 30
0.0
 10
24.90689666666666
 20
25.327
 30
0.0
 10
24.91379333333332
 20
25.327
 30
0.0
 10
24.92068966666666
 20
25.327
 30
0.0
 10
24.92758633333334
 20
25.327
 30
0.0
 10
24.93448266666666
 20
25.32699999999999
 30
0.0
 10
24.94137933333334
 20
25.327
 30
0.0
 10
24.94827566666666
 20
25.32699999999999
 30
0.0
 10
24.95517233333333
 20
25.327
 30
0.0
 10
24.962069
 20
25.327
 30
0.0
 10
24.96896566666666
 20
25.32699999999999
 30
0.0
 10
24.97586233333332
 20
25.327
 30
0.0
 10
24.98275866666665
 20
25.327
 30
0.0
 10
24.98965533333331
 20
25.327
 30
0.0
 10
24.99655166666665
 20
25.327
 30
0.0
 10
25.00344833333331
 20
25.32699999999999
 30
0.0
 10
25.01034466666665
 20
25.327
 30
0.0
 10
25.01724133333332
 20
25.32699999999999
 30
0.0
 10
25.02413766666665
 20
25.327
 30
0.0
 10
25.03103433333332
 20
25.32699999999999
 30
0.0
 10
25.03793099999998
 20
25.327
 30
0.0
 10
25.04482766666665
 20
25.327
 30
0.0
 10
25.05172433333332
 20
25.327
 30
0.0
 10
25.05862066666665
 20
25.32699999999999
 30
0.0
 10
25.06551733333333
 20
25.327
 30
0.0
 10
25.07241366666666
 20
25.32699999999999
 30
0.0
 10
25.07931033333333
 20
25.327
 30
0.0
 10
25.08620666666666
 20
25.32699999999999
 30
0.0
 10
25.09310333333333
 20
25.327
 30
0.0
 10
25.097701
 20
25.327
 30
0.0
 10
25.10000000000002
 20
25.327
 30
0.0
 11
24.89999999999996
 21
25.327
 31
0.0
 11
24.906897
 21
25.327
 31
0.0
 11
24.913793
 21
25.327
 31
0.0
 11
24.92068999999998
 21
25.327
 31
0.0
 11
24.92758600000001
 21
25.327
 31
0.0
 11
24.934483
 21
25.327
 31
0.0
 11
24.94137899999998
 21
25.327
 31
0.0
 11
24.94827600000002
 21
25.327
 31
0.0
 11
24.955172
 21
25.327
 31
0.0
 11
24.96206899999998
 21
25.327
 31
0.0
 11
24.96896600000002
 21
25.327
 31
0.0
 11
24.975862
 21
25.327
 31
0.0
 11
24.98275899999998
 21
25.327
 31
0.0
 11
24.98965499999997
 21
25.327
 31
0.0
 11
24.99655200000001
 21
25.327
 31
0.0
 11
25.00344799999999
 21
25.327
 31
0.0
 11
25.01034499999996
 21
25.327
 31
0.0
 11
25.01724100000001
 21
25.327
 31
0.0
 11
25.02413799999999
 21
25.327
 31
0.0
 11
25.03103399999996
 21
25.327
 31
0.0
 11
25.03793100000001
 21
25.327
 31
0.0
 11
25.04482799999999
 21
25.327
 31
0.0
 11
25.05172399999997
 21
25.327
 31
0.0
 11
25.05862100000001
 21
25.327
 31
0.0
 11
25.065517
 21
25.327
 31
0.0
 11
25.07241399999998
 21
25.327
 31
0.0
 11
25.07931000000001
 21
25.327
 31
0.0
 11
25.086207
 21
25.327
 31
0.0
 11
25.09310299999998
 21
25.327
 31
0.0
 11
25.10000000000002
 21
25.327
 31
0.0
  0
SPLINE
  5
B0D8
330
1E
100
AcDbEntity
  8
CUT
100
AcDbSpline
210
0.0
220
0.0
230
1.0
 70
     8
 71
     3
 72
    36
 73
    32
 74
    30
 42
0.0000000001
 43
0.0000000001
 44
0.0000000001
 12
0.5272658805726911
 22
-0.8497003537623747
 32
0.0
 13
0.5274950874921133
 23
-0.849558080811246
 33
0.0
 40
0.0
 40
0.0
 40
0.0
 40
0.0
 40
0.0076877786128374
 40
0.0153769342231626
 40
0.0230647128359853
 40
0.0307516418066481
 40
0.0384394204195289
 40
0.0461268768258913
 40
0.0538146554387287
 40
0.0615015844093836
 40
0.0691885133800347
 40
0.0768751202387103
 40
0.0845620492093712
 40
0.0922481285740421
 40
0.099934735432749
 40
0.1076208147974168
 40
0.1153060445922844
 40
0.1229921239569552
 40
0.130677881304148
 40
0.1383631110990212
 40
0.1460483408938913
 40
0.1537340982410841
 40
0.1614184785023669
 40
0.1691037082972435
 40
0.1767880885585262
 40
0.1844729964304455
 40
0.1921565271943663
 40
0.1998409074556521
 40
0.2075244382196011
 40
0.2152084966524859
 40
0.2228920274164071
 40
0.2228920274164071
 40
0.2228920274164071
 40
0.2228920274164071
 10
25.10000000000002
 20
25.327
 30
0.0
 10
25.10135116778666
 20
25.324822563931
 30
0.0
 10
25.10405419641495
 20
25.32046758167934
 30
0.0
 10
25.10810889221106
 20
25.31393547332434
 30
0.0
 10
25.11216263314666
 20
25.30740310563078
 30
0.0
 10
25.1162174370522
 20
25.30087193794704
 30
0.0
 10
25.12027045809152
 20
25.29433979002139
 30
0.0
 10
25.12432654004506
 20
25.28780920882302
 30
0.0
 10
25.12837957226484
 20
25.28127706783075
 30
0.0
 10
25.13243418207052
 20
25.27474611303029
 30
0.0
 10
25.13648749345485
 20
25.26821481189314
 30
0.0
 10
25.14054350431215
 20
25.26168518671966
 30
0.0
 10
25.14459667976002
 20
25.25515413453543
 30
0.0
 10
25.14865088053026
 20
25.2486237188474
 30
0.0
 10
25.15270620526369
 20
25.24209433441748
 30
0.0
 10
25.15675959259158
 20
25.23556408037919
 30
0.0
 10
25.16081443541517
 20
25.22903493701411
 30
0.0
 10
25.16486750534636
 20
25.22250481919507
 30
0.0
 10
25.16892320337715
 20
25.21597633329049
 30
0.0
 10
25.1729769750762
 20
25.20944698452432
 30
0.0
 10
25.17703089632144
 20
25.20291772861435
 30
0.0
 10
25.18108584684032
 20
25.19638944523085
 30
0.0
 10
25.18514026320783
 20
25.18986083010664
 30
0.0
 10
25.18919375446864
 20
25.18333218087406
 30
0.0
 10
25.1932479154033
 20
25.17680374041949
 30
0.0
 10
25.19730284184862
 20
25.1702764421491
 30
0.0
 10
25.20135726391218
 20
25.16374883056831
 30
0.0
 10
25.20541075667358
 20
25.15722118222207
 30
0.0
 10
25.2094649058399
 20
25.15069373443316
 30
0.0
 10
25.21352002743675
 20
25.14416722413505
 30
0.0
 10
25.21622299175582
 20
25.13981586854985
 30
0.0
 10
25.21757400000001
 20
25.13763999999996
 30
0.0
 11
25.10000000000002
 21
25.327
 31
0.0
 11
25.10405400000002
 21
25.32046799999999
 31
0.0
 11
25.108109
 21
25.313935
 31
0.0
 11
25.112163
 21
25.30740300000001
 31
0.0
 11
25.116217
 21
25.30087200000002
 31
0.0
 11
25.120271
 21
25.29433999999996
 31
0.0
 11
25.12432599999999
 21
25.28780899999998
 31
0.0
 11
25.12837999999999
 21
25.28127699999998
 31
0.0
 11
25.13243399999999
 21
25.27474599999999
 31
0.0
 11
25.13648799999998
 21
25.268215
 31
0.0
 11
25.14054299999996
 21
25.261685
 31
0.0
 11
25.14459699999996
 21
25.255154
 31
0.0
 11
25.14865099999996
 21
25.24862399999999
 31
0.0
 11
25.15270600000002
 21
25.24209400000001
 31
0.0
 11
25.15676000000002
 21
25.23556400000001
 31
0.0
 11
25.160814
 21
25.22903500000001
 31
0.0
 11
25.164868
 21
25.22250500000001
 31
0.0
 11
25.168923
 21
25.21597600000001
 31
0.0
 11
25.172977
 21
25.20944700000001
 31
0.0
 11
25.177031
 21
25.20291800000001
 31
0.0
 11
25.18108599999999
 21
25.19638900000001
 31
0.0
 11
25.18513999999999
 21
25.18986100000001
 31
0.0
 11
25.18919399999997
 21
25.183332
 31
0.0
 11
25.19324799999997
 21
25.176804
 31
0.0
 11
25.19730299999996
 21
25.170276
 31
0.0
 11
25.20135699999996
 21
25.16374899999999
 31
0.0
 11
25.20541099999996
 21
25.15722099999999
 31
0.0
 11
25.20946500000002
 21
25.15069399999998
 31
0.0
 11
25.21352000000002
 21
25.14416699999998
 31
0.0
 11
25.21757400000001
 21
25.13763999999996
 31
0.0
  0
SPLINE
  5
B0D9
330
1E
100
AcDbEntity
  8
CUT
100
AcDbSpline
210
0.0
220
0.0
230
1.0
 70
     8
 71
     3
 72
    36
 73
    32
 74
    30
 42
0.0000000001
 43
0.0000000001
 44
0.0000000001
 12
-0.5020338569120267
 22
0.8648479672832879
 32
0.0
 13
-0.5011590226997278
 23
0.8653552068177864
 33
0.0
 40
0.0
 40
0.0
 40
0.0
 40
0.0
 40
0.1300747478029541
 40
0.2601581442684417
 40
0.3902510544865189
 40
0.5203526137738592
 40
0.6504636872610651
 40
0.7805842751824429
 40
0.9107126478150249
 40
1.040849670310516
 40
1.170995342862502
 40
1.30114966566428
 40
1.431311773856341
 40
1.561483034317338
 40
1.691661578847515
 40
1.821847909255133
 40
1.952042025696698
 40
2.082243063188743
 40
2.212452752167716
 40
2.342669362475308
 40
2.472893759425346
 40
2.603125077966629
 40
2.733363318222701
 40
2.863608480317114
 40
2.993861429627287
 40
3.12412093708067
 40
3.254386865431093
 40
3.384659716113803
 40
3.514939489252248
 40
3.645224454313471
 40
3.77551720738894
 40
3.77551720738894
 40
3.77551720738894
 40
3.77551720738894
 10
27.11127599999997
 20
21.87138499999996
 30
0.0
 10
27.08950869089117
 20
21.90888329374405
 30
0.0
 10
27.04597382917667
 20
21.98388307329901
 30
0.0
 10
26.98067356271989
 20
22.09638925210677
 30
0.0
 10
26.91537388260112
 20
22.20890610454246
 30
0.0
 10
26.85007359372132
 20
22.32143327035446
 30
0.0
 10
26.78477356174448
 20
22.43397125194686
 30
0.0
 10
26.71947412395757
 20
22.54651991158014
 30
0.0
 10
26.65417378863054
 20
22.65907805047202
 30
0.0
 10
26.58887384480296
 20
22.77164608317346
 30
0.0
 10
26.52357381134735
 20
22.88422406387821
 30
0.0
 10
26.45827403424308
 20
22.99681185992936
 30
0.0
 10
26.39297396076232
 20
23.10940934403546
 30
0.0
 10
26.32767288945128
 20
23.22201558285525
 30
0.0
 10
26.26237312325521
 20
23.33463191182238
 30
0.0
 10
26.1970729851468
 20
23.44725683183562
 30
0.0
 10
26.13177336499417
 20
23.55989071879699
 30
0.0
 10
26.06647270729789
 20
23.6725330042838
 30
0.0
 10
26.0011733677654
 20
23.78518472055942
 30
0.0
 10
25.93587297494688
 20
23.89784482628371
 30
0.0
 10
25.87057330767438
 20
24.01051368587582
 30
0.0
 10
25.80527323769774
 20
24.12319064539207
 30
0.0
 10
25.73997332984804
 20
24.2358756988579
 30
0.0
 10
25.67467288697035
 20
24.34856877565882
 30
0.0
 10
25.60937376001923
 20
24.46127080802893
 30
0.0
 10
25.54407202723904
 20
24.57397933062157
 30
0.0
 10
25.47877236792171
 20
24.68669672119773
 30
0.0
 10
25.41347217500749
 20
24.79942160951202
 30
0.0
 10
25.34817281172763
 20
24.91215431172037
 30
0.0
 10
25.28287204835173
 20
25.02489386961164
 30
0.0
 10
25.23933979626539
 20
25.10005682923847
 30
0.0
 10
25.21757400000001
 20
25.13763999999996
 30
0.0
 11
27.11127599999997
 21
21.87138499999996
 31
0.0
 11
27.04597599999999
 21
21.98388099999998
 31
0.0
 11
26.98067600000001
 21
22.09638699999998
 31
0.0
 11
26.91537599999998
 21
22.20890400000001
 31
0.0
 11
26.850076
 21
22.32143100000001
 31
0.0
 11
26.78477600000002
 21
22.43396899999999
 31
0.0
 11
26.71947599999998
 21
22.54651799999999
 31
0.0
 11
26.654176
 21
22.65907600000002
 31
0.0
 11
26.58887599999996
 21
22.77164399999996
 31
0.0
 11
26.52357599999999
 21
22.88422200000002
 31
0.0
 11
26.458276
 21
22.99680999999998
 31
0.0
 11
26.39297599999996
 21
23.10940699999996
 31
0.0
 11
26.32767499999999
 21
23.222014
 31
0.0
 11
26.26237500000002
 21
23.33462999999999
 31
0.0
 11
26.19707499999998
 21
23.44725499999998
 31
0.0
 11
26.131775
 21
23.55988899999999
 31
0.0
 11
26.06647499999996
 21
23.67253099999999
 31
0.0
 11
26.00117499999999
 21
23.785183
 31
0.0
 11
25.93587500000001
 21
23.89784300000001
 31
0.0
 11
25.87057499999996
 21
24.01051199999999
 31
0.0
 11
25.80527499999999
 21
24.12318900000002
 31
0.0
 11
25.739975
 21
24.23587400000002
 31
0.0
 11
25.67467499999998
 21
24.348567
 31
0.0
 11
25.609375
 21
24.46126900000001
 31
0.0
 11
25.54407400000002
 21
24.57397800000001
 31
0.0
 11
25.47877399999999
 21
24.68669499999998
 31
0.0
 11
25.41347400000001
 21
24.79941999999999
 31
0.0
 11
25.34817399999997
 21
24.91215299999999
 31
0.0
 11
25.28287399999999
 21
25.02489200000002
 31
0.0
 11
25.21757400000001
 21
25.13763999999996
 31
0.0
  0
ENDSEC
  0
SECTION
  2
OBJECTS
  0
DICTIONARY
  5
C
330
0
100
AcDbDictionary
281
     1
  3
ACAD_COLOR
350
AC9F
  3
ACAD_GROUP
350
D
  3
ACAD_LAYOUT
350
19
  3
ACAD_MATERIAL
350
AC9E
  3
ACAD_MLINESTYLE
350
16
  3
ACAD_PLOTSETTINGS
350
18
  3
ACAD_PLOTSTYLENAME
350
AC95
  3
ACAD_TABLESTYLE
350
ACA0
  3
AcDbVariableDictionary
350
ACD1
1001
ACAD
1000
TREAT_AS_HARD
1070
     0
1000
TREAT_AS_HARD
1070
     0
1000
TREAT_AS_HARD
1070
     0
1000
TREAT_AS_HARD
1070
     0
  0
DICTIONARY
  5
18E6
330
1E
100
AcDbDictionary
281
     1
  3
ACAD_LAYOUTSELFREF
350
9B52
1001
ACAD
1000
TREAT_AS_HARD
1070
     0
1000
TREAT_AS_HARD
1070
     0
1000
TREAT_AS_HARD
1070
     0
  0
DICTIONARY
  5
18E4
330
1A
100
AcDbDictionary
281
     1
  3
ACAD_LAYOUTSELFREF
350
9B51
1001
ACAD
1000
TREAT_AS_HARD
1070
     0
1000
TREAT_AS_HARD
1070
     0
1000
TREAT_AS_HARD
1070
     0
  0
DICTIONARY
  5
AC9F
102
{ACAD_REACTORS
330
C
102
}
330
C
100
AcDbDictionary
281
     1
  0
DICTIONARY
  5
D
102
{ACAD_REACTORS
330
C
102
}
330
C
100
AcDbDictionary
281
     1
1001
ACAD
1000
TREAT_AS_HARD
1070
     0
1000
TREAT_AS_HARD
1070
     0
1000
TREAT_AS_HARD
1070
     0
1000
TREAT_AS_HARD
1070
     0
  0
DICTIONARY
  5
19
102
{ACAD_REACTORS
330
C
102
}
330
C
100
AcDbDictionary
281
     1
  3
Layout1
350
AC98
  3
Model
350
AC97
1001
ACAD
1000
TREAT_AS_HARD
1070
     0
1000
TREAT_AS_HARD
1070
     0
1000
TREAT_AS_HARD
1070
     0
1000
TREAT_AS_HARD
1070
     0
  0
DICTIONARY
  5
AC9E
102
{ACAD_REACTORS
330
C
102
}
330
C
100
AcDbDictionary
281
     1
  0
DICTIONARY
  5
16
102
{ACAD_REACTORS
330
C
102
}
330
C
100
AcDbDictionary
281
     1
  3
STANDARD
350
17
1001
ACAD
1000
TREAT_AS_HARD
1070
     0
1000
TREAT_AS_HARD
1070
     0
1000
TREAT_AS_HARD
1070
     0
1000
TREAT_AS_HARD
1070
     0
  0
DICTIONARY
  5
18
102
{ACAD_REACTORS
330
C
102
}
330
C
100
AcDbDictionary
281
     1
1001
ACAD
1000
TREAT_AS_HARD
1070
     0
1000
TREAT_AS_HARD
1070
     0
1000
TREAT_AS_HARD
1070
     0
1000
TREAT_AS_HARD
1070
     0
  0
ACDBDICTIONARYWDFLT
  5
AC95
102
{ACAD_REACTORS
330
C
102
}
330
C
100
AcDbDictionary
281
     1
  3
Normal
350
AC96
100
AcDbDictionaryWithDefault
340
AC96
  0
DICTIONARY
  5
ACA0
102
{ACAD_REACTORS
330
C
102
}
330
C
100
AcDbDictionary
281
     1
  3
Standard
350
ACA1
  0
DICTIONARY
  5
ACD1
102
{ACAD_REACTORS
330
C
102
}
330
C
100
AcDbDictionary
281
     1
  3
CTABLESTYLE
350
ACD2
  3
DIMASSOC
350
ACD3
  3
PROJECTNAME
350
ACD4
  0
XRECORD
  5
9B52
102
{ACAD_REACTORS
330
18E6
102
}
330
18E6
100
AcDbXrecord
280
     1
340
1E
  0
XRECORD
  5
9B51
102
{ACAD_REACTORS
330
18E4
102
}
330
18E4
100
AcDbXrecord
280
     1
340
1A
  0
LAYOUT
  5
AC98
102
{ACAD_XDICTIONARY
360
ACD9
102
}
102
{ACAD_REACTORS
330
19
102
}
330
19
100
AcDbPlotSettings
  1

  2
\\ingdom02\ITB3
  4

  6

 40
0.0
 41
0.0
 42
0.0
 43
0.0
 44
0.0
 45
0.0
 46
0.0
 47
0.0
 48
0.0
 49
0.0
140
0.0
141
0.0
142
1.0
143
1.0
 70
   688
 72
     0
 73
     0
 74
     5
  7

 75
    16
147
1.0
148
0.0
149
0.0
100
AcDbLayout
  1
Layout1
 70
     1
 71
     1
 10
0.0
 20
0.0
 11
12.0
 21
9.0
 12
0.0
 22
0.0
 32
0.0
 14
100.0
 24
100.0
 34
100.0
 15
-100.0
 25
-100.0
 35
-100.0
146
0.0
 13
0.0
 23
0.0
 33
0.0
 16
1.0
 26
0.0
 36
0.0
 17
0.0
 27
1.0
 37
0.0
 76
     0
330
1A
  0
LAYOUT
  5
AC97
102
{ACAD_XDICTIONARY
360
ACD7
102
}
102
{ACAD_REACTORS
330
19
102
}
330
19
100
AcDbPlotSettings
  1

  2
\\ingdom02\ITB3
  4

  6

 40
0.0
 41
0.0
 42
0.0
 43
0.0
 44
0.0
 45
0.0
 46
0.0
 47
0.0
 48
0.0
 49
0.0
140
0.0
141
0.0
142
1.0
143
1.0
 70
  1712
 72
     0
 73
     0
 74
     0
  7

 75
     0
147
1.0
148
0.0
149
0.0
100
AcDbLayout
  1
Model
 70
     1
 71
     0
 10
0.0
 20
0.0
 11
12.0
 21
9.0
 12
0.0
 22
0.0
 32
0.0
 14
0.0
 24
0.0
 34
0.0
 15
0.0
 25
0.0
 35
0.0
146
0.0
 13
0.0
 23
0.0
 33
0.0
 16
1.0
 26
0.0
 36
0.0
 17
0.0
 27
1.0
 37
0.0
 76
     0
330
1E
  0
MLINESTYLE
  5
17
102
{ACAD_REACTORS
330
16
102
}
330
16
100
AcDbMlineStyle
  2
STANDARD
 70
     0
  3

 62
   256
 51
90.0
 52
90.0
 71
     2
 49
0.5
 62
   256
  6
BYLAYER
 49
-0.5
 62
   256
  6
BYLAYER
  0
ACDBPLACEHOLDER
  5
AC96
102
{ACAD_REACTORS
330
AC95
102
}
330
AC95
  0
TABLESTYLE
  5
ACA1
102
{ACAD_REACTORS
330
ACA0
102
}
330
ACA0
100
AcDbTableStyle
  3
Standard
 70
     0
 71
     0
 40
0.06
 41
0.06
280
     0
281
     0
  7
STANDARD
140
0.18
170
     2
 62
     0
 63
     7
283
     0
274
    -2
284
     1
 64
     0
275
    -2
285
     1
 65
     0
276
    -2
286
     1
 66
     0
277
    -2
287
     1
 67
     0
278
    -2
288
     1
 68
     0
279
    -2
289
     1
 69
     0
  7
STANDARD
140
0.25
170
     5
 62
     0
 63
     7
283
     0
274
    -2
284
     1
 64
     0
275
    -2
285
     1
 65
     0
276
    -2
286
     1
 66
     0
277
    -2
287
     1
 67
     0
278
    -2
288
     1
 68
     0
279
    -2
289
     1
 69
     0
  7
STANDARD
140
0.18
170
     5
 62
     0
 63
     7
283
     0
274
    -2
284
     1
 64
     0
275
    -2
285
     1
 65
     0
276
    -2
286
     1
 66
     0
277
    -2
287
     1
 67
     0
278
    -2
288
     1
 68
     0
279
    -2
289
     1
 69
     0
  0
DICTIONARYVAR
  5
ACD2
102
{ACAD_REACTORS
330
ACD1
102
}
330
ACD1
100
DictionaryVariables
280
     0
  1
STANDARD
  0
DICTIONARYVAR
  5
ACD3
102
{ACAD_REACTORS
330
ACD1
102
}
330
ACD1
100
DictionaryVariables
280
     0
  1
1
  0
DICTIONARYVAR
  5
ACD4
102
{ACAD_REACTORS
330
ACD1
102
}
330
ACD1
100
DictionaryVariables
280
     0
  1

  0
DICTIONARY
  5
ACD9
330
AC98
100
AcDbDictionary
280
     1
281
     1
  3
ACAD_XREC_ROUNDTRIP
360
ACDA
  0
DICTIONARY
  5
ACD7
330
AC97
100
AcDbDictionary
280
     1
281
     1
  3
ACAD_XREC_ROUNDTRIP
360
ACD8
  0
XRECORD
  5
ACDA
102
{ACAD_REACTORS
330
ACD9
102
}
330
ACD9
100
AcDbXrecord
280
     1
102
SHADEPLOT
 70
     0
102
SHADEPLOTRESLEVEL
 70
     2
102
SHADEPLOTCUSTOMDPI
 70
   300
  0
XRECORD
  5
ACD8
102
{ACAD_REACTORS
330
ACD7
102
}
330
ACD7
100
AcDbXrecord
280
     1
102
SHADEPLOT
 70
     0
102
SHADEPLOTRESLEVEL
 70
     2
102
SHADEPLOTCUSTOMDPI
 70
   300
  0
ENDSEC
  0
EOF
