  0
SECTION
  2
HEADER
  9
$ACADVER
  1
AC1015
  9
$ACADMAINTVER
 70
    10
  9
$DWGCODEPAGE
  3
ANSI_1252
  9
$INSBASE
 10
0.0
 20
0.0
 30
0.0
  9
$EXTMIN
 10
-39.50068897637796
 20
-46.67096964377068
 30
0.0
  9
$EXTMAX
 10
69.65569263497816
 20
35.50068897637794
 30
0.0
  9
$LIMMIN
 10
0.0
 20
0.0
  9
$LIMMAX
 10
420.0
 20
297.0
  9
$ORTHOMODE
 70
     0
  9
$REGENMODE
 70
     1
  9
$FILLMODE
 70
     1
  9
$QTEXTMODE
 70
     0
  9
$MIRRTEXT
 70
     1
  9
$LTSCALE
 40
5.0
  9
$ATTMODE
 70
     1
  9
$TEXTSIZE
 40
0.2
  9
$TRACEWID
 40
0.05
  9
$TEXTSTYLE
  7
STANDARD
  9
$CLAYER
  8
0
  9
$CELTYPE
  6
BYLAYER
  9
$CECOLOR
 62
   256
  9
$CELTSCALE
 40
1.0
  9
$DISPSILH
 70
     0
  9
$DIMSCALE
 40
1.0
  9
$DIMASZ
 40
3.5
  9
$DIMEXO
 40
0.625
  9
$DIMDLI
 40
3.75
  9
$DIMRND
 40
0.0
  9
$DIMDLE
 40
0.0
  9
$DIMEXE
 40
2.0
  9
$DIMTP
 40
0.0
  9
$DIMTM
 40
0.0
  9
$DIMTXT
 40
3.5
  9
$DIMCEN
 40
2.5
  9
$DIMTSZ
 40
0.0
  9
$DIMTOL
 70
     0
  9
$DIMLIM
 70
     0
  9
$DIMTIH
 70
     0
  9
$DIMTOH
 70
     0
  9
$DIMSE1
 70
     0
  9
$DIMSE2
 70
     0
  9
$DIMTAD
 70
     1
  9
$DIMZIN
 70
     8
  9
$DIMBLK
  1

  9
$DIMASO
 70
     1
  9
$DIMSHO
 70
     1
  9
$DIMPOST
  1

  9
$DIMAPOST
  1

  9
$DIMALT
 70
     0
  9
$DIMALTD
 70
     3
  9
$DIMALTF
 40
0.03937007874016
  9
$DIMLFAC
 40
1.0
  9
$DIMTOFL
 70
     1
  9
$DIMTVP
 40
0.0
  9
$DIMTIX
 70
     0
  9
$DIMSOXD
 70
     0
  9
$DIMSAH
 70
     0
  9
$DIMBLK1
  1

  9
$DIMBLK2
  1

  9
$DIMSTYLE
  2
ISO-25
  9
$DIMCLRD
 70
   256
  9
$DIMCLRE
 70
   256
  9
$DIMCLRT
 70
   256
  9
$DIMTFAC
 40
1.0
  9
$DIMGAP
 40
0.625
  9
$DIMJUST
 70
     0
  9
$DIMSD1
 70
     0
  9
$DIMSD2
 70
     0
  9
$DIMTOLJ
 70
     0
  9
$DIMTZIN
 70
     8
  9
$DIMALTZ
 70
     0
  9
$DIMALTTZ
 70
     0
  9
$DIMUPT
 70
     0
  9
$DIMDEC
 70
     2
  9
$DIMTDEC
 70
     2
  9
$DIMALTU
 70
     2
  9
$DIMALTTD
 70
     3
  9
$DIMTXSTY
  7
STANDARD
  9
$DIMAUNIT
 70
     0
  9
$DIMADEC
 70
     0
  9
$DIMALTRND
 40
0.0
  9
$DIMAZIN
 70
     0
  9
$DIMDSEP
 70
    46
  9
$DIMATFIT
 70
     3
  9
$DIMFRAC
 70
     0
  9
$DIMLDRBLK
  1

  9
$DIMLUNIT
 70
     2
  9
$DIMLWD
 70
    -2
  9
$DIMLWE
 70
    -2
  9
$DIMTMOVE
 70
     0
  9
$LUNITS
 70
     2
  9
$LUPREC
 70
     4
  9
$SKETCHINC
 40
0.1
  9
$FILLETRAD
 40
0.0
  9
$AUNITS
 70
     0
  9
$AUPREC
 70
     0
  9
$MENU
  1
ACAD
  9
$ELEVATION
 40
0.0
  9
$PELEVATION
 40
0.0
  9
$THICKNESS
 40
0.0
  9
$LIMCHECK
 70
     0
  9
$CHAMFERA
 40
0.0
  9
$CHAMFERB
 40
0.0
  9
$CHAMFERC
 40
0.0
  9
$CHAMFERD
 40
0.0
  9
$SKPOLY
 70
     0
  9
$TDCREATE
 40
2311949.301187905
  9
$TDUCREATE
 40
2311949.259521238
  9
$TDUPDATE
 40
2453783.384766123
  9
$TDUUPDATE
 40
2453783.343099456
  9
$TDINDWG
 40
0.1139074421
  9
$TDUSRTIMER
 40
0.1139064583
  9
$USRTIMER
 70
     1
  9
$ANGBASE
 50
0.0
  9
$ANGDIR
 70
     0
  9
$PDMODE
 70
     0
  9
$PDSIZE
 40
0.3125
  9
$PLINEWID
 40
0.0
  9
$SPLFRAME
 70
     0
  9
$SPLINETYPE
 70
     6
  9
$SPLINESEGS
 70
     8
  9
$HANDSEED
  5
DB3C
  9
$SURFTAB1
 70
     6
  9
$SURFTAB2
 70
     6
  9
$SURFTYPE
 70
     6
  9
$SURFU
 70
     6
  9
$SURFV
 70
     6
  9
$UCSBASE
  2

  9
$UCSNAME
  2

  9
$UCSORG
 10
0.0
 20
0.0
 30
0.0
  9
$UCSXDIR
 10
1.0
 20
0.0
 30
0.0
  9
$UCSYDIR
 10
0.0
 20
1.0
 30
0.0
  9
$UCSORTHOREF
  2

  9
$UCSORTHOVIEW
 70
     0
  9
$UCSORGTOP
 10
0.0
 20
0.0
 30
0.0
  9
$UCSORGBOTTOM
 10
0.0
 20
0.0
 30
0.0
  9
$UCSORGLEFT
 10
0.0
 20
0.0
 30
0.0
  9
$UCSORGRIGHT
 10
0.0
 20
0.0
 30
0.0
  9
$UCSORGFRONT
 10
0.0
 20
0.0
 30
0.0
  9
$UCSORGBACK
 10
0.0
 20
0.0
 30
0.0
  9
$PUCSBASE
  2

  9
$PUCSNAME
  2

  9
$PUCSORG
 10
0.0
 20
0.0
 30
0.0
  9
$PUCSXDIR
 10
1.0
 20
0.0
 30
0.0
  9
$PUCSYDIR
 10
0.0
 20
1.0
 30
0.0
  9
$PUCSORTHOREF
  2

  9
$PUCSORTHOVIEW
 70
     0
  9
$PUCSORGTOP
 10
0.0
 20
0.0
 30
0.0
  9
$PUCSORGBOTTOM
 10
0.0
 20
0.0
 30
0.0
  9
$PUCSORGLEFT
 10
0.0
 20
0.0
 30
0.0
  9
$PUCSORGRIGHT
 10
0.0
 20
0.0
 30
0.0
  9
$PUCSORGFRONT
 10
0.0
 20
0.0
 30
0.0
  9
$PUCSORGBACK
 10
0.0
 20
0.0
 30
0.0
  9
$USERI1
 70
     0
  9
$USERI2
 70
     0
  9
$USERI3
 70
     0
  9
$USERI4
 70
     0
  9
$USERI5
 70
     0
  9
$USERR1
 40
0.0
  9
$USERR2
 40
0.0
  9
$USERR3
 40
0.0
  9
$USERR4
 40
0.0
  9
$USERR5
 40
0.0
  9
$WORLDVIEW
 70
     1
  9
$SHADEDGE
 70
     3
  9
$SHADEDIF
 70
    70
  9
$TILEMODE
 70
     1
  9
$MAXACTVP
 70
    16
  9
$PINSBASE
 10
0.0
 20
0.0
 30
0.0
  9
$PLIMCHECK
 70
     0
  9
$PEXTMIN
 10
0.0
 20
0.0
 30
0.0
  9
$PEXTMAX
 10
0.0
 20
0.0
 30
0.0
  9
$PLIMMIN
 10
0.0
 20
0.0
  9
$PLIMMAX
 10
12.0
 20
9.0
  9
$UNITMODE
 70
     0
  9
$VISRETAIN
 70
     0
  9
$PLINEGEN
 70
     1
  9
$PSLTSCALE
 70
     0
  9
$TREEDEPTH
 70
  3020
  9
$CMLSTYLE
  2
STANDARD
  9
$CMLJUST
 70
     0
  9
$CMLSCALE
 40
1.0
  9
$PROXYGRAPHICS
 70
     1
  9
$MEASUREMENT
 70
     0
  9
$CELWEIGHT
370
    -1
  9
$ENDCAPS
280
     0
  9
$JOINSTYLE
280
     0
  9
$LWDISPLAY
290
     0
  9
$INSUNITS
 70
     0
  9
$HYPERLINKBASE
  1

  9
$STYLESHEET
  1

  9
$XEDIT
290
     1
  9
$CEPSNTYPE
380
     0
  9
$PSTYLEMODE
290
     1
  9
$FINGERPRINTGUID
  2
{F6AFF764-7BAC-4A37-BCBE-AC8FED597A83}
  9
$VERSIONGUID
  2
{C510C1D4-AB78-4A56-917E-5CAB0B80B65C}
  9
$EXTNAMES
290
     1
  9
$PSVPSCALE
 40
0.0
  9
$OLESTARTUP
290
     0
  0
ENDSEC
  0
SECTION
  2
CLASSES
  0
CLASS
  1
ACDBDICTIONARYWDFLT
  2
AcDbDictionaryWithDefault
  3
AutoCAD 2000
 90
        0
280
     0
281
     0
  0
CLASS
  1
ACDBPLACEHOLDER
  2
AcDbPlaceHolder
  3
AutoCAD 2000
 90
        0
280
     0
281
     0
  0
CLASS
  1
LAYOUT
  2
AcDbLayout
  3
AutoCAD 2000
 90
        0
280
     0
281
     0
  0
CLASS
  1
TABLESTYLE
  2
AcDbTableStyle
  3
ObjectDBX Classes
 90
     2047
280
     0
281
     0
  0
CLASS
  1
DICTIONARYVAR
  2
AcDbDictionaryVar
  3
AutoCAD 2000
 90
        0
280
     0
281
     0
  0
ENDSEC
  0
SECTION
  2
TABLES
  0
TABLE
  2
VPORT
  5
8
330
0
100
AcDbSymbolTable
 70
     2
  0
VPORT
  5
DB3B
330
8
100
AcDbSymbolTableRecord
100
AcDbViewportTableRecord
  2
*Active
 70
     0
 10
0.0
 20
0.0
 11
1.0
 21
1.0
 12
15.07828717689906
 22
-5.44823747020689
 13
0.0
 23
0.0
 14
1.0
 24
1.0
 15
0.0
 25
0.0
 16
0.0
 26
0.0
 36
1.0
 17
0.0
 27
0.0
 37
0.0
 40
82.51890977574452
 41
1.544999999999999
 42
50.0
 43
0.0
 44
0.0
 50
0.0
 51
0.0
 71
     0
 72
   100
 73
     1
 74
     1
 75
     0
 76
     0
 77
     0
 78
     0
281
     0
 65
     1
110
0.0
120
0.0
130
0.0
111
1.0
121
0.0
131
0.0
112
0.0
122
1.0
132
0.0
 79
     0
146
0.0
  0
ENDTAB
  0
TABLE
  2
LTYPE
  5
5
330
0
100
AcDbSymbolTable
 70
     2
  0
LTYPE
  5
13
330
5
100
AcDbSymbolTableRecord
100
AcDbLinetypeTableRecord
  2
BYBLOCK
 70
     0
  3

 72
    65
 73
     0
 40
0.0
  0
LTYPE
  5
14
330
5
100
AcDbSymbolTableRecord
100
AcDbLinetypeTableRecord
  2
BYLAYER
 70
     0
  3

 72
    65
 73
     0
 40
0.0
  0
LTYPE
  5
15
330
5
100
AcDbSymbolTableRecord
100
AcDbLinetypeTableRecord
  2
CONTINUOUS
 70
     0
  3
Solid line
 72
    65
 73
     0
 40
0.0
  0
LTYPE
  5
23
330
5
100
AcDbSymbolTableRecord
100
AcDbLinetypeTableRecord
  2
CENTER
 70
     0
  3
____ _ ____ _ ____ _ ____ _ ____ _ ____ _ ____
 72
    65
 73
     4
 40
0.6
 49
0.375
 74
     0
 49
-0.075
 74
     0
 49
0.075
 74
     0
 49
-0.075
 74
     0
  0
ENDTAB
  0
TABLE
  2
LAYER
  5
2
330
0
100
AcDbSymbolTable
 70
    11
  0
LAYER
  5
10
330
2
100
AcDbSymbolTableRecord
100
AcDbLayerTableRecord
  2
0
 70
     0
 62
     7
  6
CONTINUOUS
370
    -3
390
D6AB
  0
LAYER
  5
28
330
2
100
AcDbSymbolTableRecord
100
AcDbLayerTableRecord
  2
1
 70
     0
 62
     4
  6
CONTINUOUS
370
    -3
390
D6AB
  0
LAYER
  5
29
330
2
100
AcDbSymbolTableRecord
100
AcDbLayerTableRecord
  2
2
 70
     0
 62
     7
  6
CONTINUOUS
370
    -3
390
D6AB
  0
LAYER
  5
2B
330
2
100
AcDbSymbolTableRecord
100
AcDbLayerTableRecord
  2
4
 70
     0
 62
     2
  6
CENTER
370
    -3
390
D6AB
  0
LAYER
  5
1B62
330
2
100
AcDbSymbolTableRecord
100
AcDbLayerTableRecord
  2
DEFPOINTS
 70
     0
 62
     7
  6
CONTINUOUS
290
     0
370
    -3
390
D6AB
  0
LAYER
  5
1BB0
330
2
100
AcDbSymbolTableRecord
100
AcDbLayerTableRecord
  2
SK1
 70
     0
 62
     4
  6
CONTINUOUS
370
    -3
390
D6AB
  0
LAYER
  5
1BB3
330
2
100
AcDbSymbolTableRecord
100
AcDbLayerTableRecord
  2
SK4
 70
     0
 62
     2
  6
CENTER
370
    -3
390
D6AB
  0
LAYER
  5
D7E7
330
2
100
AcDbSymbolTableRecord
100
AcDbLayerTableRecord
  2
6
 70
     0
 62
     5
  6
CONTINUOUS
370
    -3
390
D6AB
  0
LAYER
  5
D7E8
330
2
100
AcDbSymbolTableRecord
100
AcDbLayerTableRecord
  2
CUT
 70
     0
 62
     1
  6
CONTINUOUS
370
    -3
390
D6AB
  0
LAYER
  5
D7E9
330
2
100
AcDbSymbolTableRecord
100
AcDbLayerTableRecord
  2
NOCUT
 70
     0
 62
     7
  6
CONTINUOUS
370
    -3
390
D6AB
  0
LAYER
  5
D7EA
330
2
100
AcDbSymbolTableRecord
100
AcDbLayerTableRecord
  2
SK2
 70
     0
 62
     7
  6
CONTINUOUS
370
    -3
390
D6AB
  0
ENDTAB
  0
TABLE
  2
STYLE
  5
3
330
0
100
AcDbSymbolTable
 70
     1
  0
STYLE
  5
11
330
3
100
AcDbSymbolTableRecord
100
AcDbTextStyleTableRecord
  2
STANDARD
 70
     0
 40
0.0
 41
0.8
 50
0.0
 71
     0
 42
0.2
  3
ISOCP
  4

  0
ENDTAB
  0
TABLE
  2
VIEW
  5
6
330
0
100
AcDbSymbolTable
 70
     0
  0
ENDTAB
  0
TABLE
  2
UCS
  5
7
330
0
100
AcDbSymbolTable
 70
     0
  0
ENDTAB
  0
TABLE
  2
APPID
  5
9
330
0
100
AcDbSymbolTable
 70
     1
  0
APPID
  5
12
330
9
100
AcDbSymbolTableRecord
100
AcDbRegAppTableRecord
  2
ACAD
 70
     0
  0
ENDTAB
  0
TABLE
  2
DIMSTYLE
  5
A
330
0
100
AcDbSymbolTable
 70
     1
100
AcDbDimStyleTable
 71
     0
  0
DIMSTYLE
105
1B63
102
{ACAD_REACTORS
330
61
330
62
330
63
330
868A
330
64
102
}
330
A
100
AcDbSymbolTableRecord
100
AcDbDimStyleTableRecord
  2
ISO-25
 70
     0
 41
3.5
 42
0.625
 43
3.75
 44
2.0
 73
     0
 74
     0
 77
     1
 78
     8
140
3.5
141
2.5
143
0.03937007874016
147
0.625
171
     3
172
     1
176
   256
177
   256
178
   256
271
     2
272
     2
274
     3
283
     0
284
     8
340
11
  0
ENDTAB
  0
TABLE
  2
BLOCK_RECORD
  5
1
330
0
100
AcDbSymbolTable
 70
     5
  0
BLOCK_RECORD
  5
1E
102
{ACAD_XDICTIONARY
360
373B
102
}
330
1
100
AcDbSymbolTableRecord
100
AcDbBlockTableRecord
  2
*MODEL_SPACE
340
D6B0
  0
BLOCK_RECORD
  5
1A
102
{ACAD_XDICTIONARY
360
3739
102
}
330
1
100
AcDbSymbolTableRecord
100
AcDbBlockTableRecord
  2
*PAPER_SPACE
340
D6B1
  0
BLOCK_RECORD
  5
1B7F
330
1
100
AcDbSymbolTableRecord
100
AcDbBlockTableRecord
  2
*D0
340
0
  0
BLOCK_RECORD
  5
1B8B
330
1
100
AcDbSymbolTableRecord
100
AcDbBlockTableRecord
  2
*D1
340
0
  0
BLOCK_RECORD
  5
1B97
330
1
100
AcDbSymbolTableRecord
100
AcDbBlockTableRecord
  2
*D2
340
0
  0
BLOCK_RECORD
  5
1BA3
330
1
100
AcDbSymbolTableRecord
100
AcDbBlockTableRecord
  2
*D3
340
0
  0
BLOCK_RECORD
  5
868B
330
1
100
AcDbSymbolTableRecord
100
AcDbBlockTableRecord
  2
*D4
340
0
  0
ENDTAB
  0
ENDSEC
  0
SECTION
  2
BLOCKS
  0
BLOCK
  5
1F
330
1E
100
AcDbEntity
  8
0
100
AcDbBlockBegin
  2
*MODEL_SPACE
 70
     0
 10
0.0
 20
0.0
 30
0.0
  3
*MODEL_SPACE
  1

  0
ENDBLK
  5
20
330
1E
100
AcDbEntity
  8
0
100
AcDbBlockEnd
  0
BLOCK
  5
1B
330
1A
100
AcDbEntity
 67
     1
  8
0
100
AcDbBlockBegin
  2
*PAPER_SPACE
 70
     0
 10
0.0
 20
0.0
 30
0.0
  3
*PAPER_SPACE
  1

  0
ENDBLK
  5
1C
330
1A
100
AcDbEntity
 67
     1
  8
0
100
AcDbBlockEnd
  0
BLOCK
  5
1B89
330
1B7F
100
AcDbEntity
  8
0
100
AcDbBlockBegin
  2
*D0
 70
     1
 10
0.0
 20
0.0
 30
0.0
  3
*D0
  1

  0
LINE
  5
DB22
330
1B7F
100
AcDbEntity
  8
SK2
370
    -2
100
AcDbLine
 10
-1.560664097699995
 20
16.0
 30
0.0
 11
-37.37499999999999
 21
16.00000000000001
 31
0.0
  0
LINE
  5
DB23
330
1B7F
100
AcDbEntity
  8
SK2
370
    -2
100
AcDbLine
 10
-1.346645886000034
 20
-16.0
 30
0.0
 11
-37.375
 21
-15.99999999999998
 31
0.0
  0
LINE
  5
DB24
330
1B7F
100
AcDbEntity
  8
SK2
370
    -2
100
AcDbLine
 10
-35.375
 20
12.5
 30
0.0
 11
-35.375
 21
-12.49999999999999
 31
0.0
  0
SOLID
  5
DB25
330
1B7F
100
AcDbEntity
  8
SK2
100
AcDbTrace
 10
-35.95833333333333
 20
12.5
 30
0.0
 11
-34.79166666666666
 21
12.5
 31
0.0
 12
-35.37499999999999
 22
16.00000000000001
 32
0.0
 13
-35.37499999999999
 23
16.00000000000001
 33
0.0
  0
SOLID
  5
DB26
330
1B7F
100
AcDbEntity
  8
SK2
100
AcDbTrace
 10
-35.95833333333333
 20
-12.49999999999999
 30
0.0
 11
-34.79166666666666
 21
-12.49999999999999
 31
0.0
 12
-35.375
 22
-15.99999999999999
 32
0.0
 13
-35.375
 23
-15.99999999999999
 33
0.0
  0
MTEXT
  5
DB27
330
1B7F
100
AcDbEntity
  8
SK2
100
AcDbMText
 10
-37.75034448818898
 20
0.0000000000000046
 30
0.0
 40
3.5
 41
0.0
 71
     5
 72
     1
  1
%%c32
 11
0.0000000000000001
 21
1.0
 31
0.0
 73
     1
 44
1.0
  0
POINT
  5
DB28
330
1B7F
100
AcDbEntity
  8
DEFPOINTS
 62
     0
100
AcDbPoint
 10
-0.9356640976999964
 20
16.0
 30
0.0
  0
POINT
  5
DB29
330
1B7F
100
AcDbEntity
  8
DEFPOINTS
 62
     0
100
AcDbPoint
 10
-0.7216458860000352
 20
-16.0
 30
0.0
  0
POINT
  5
DB2A
330
1B7F
100
AcDbEntity
  8
DEFPOINTS
 62
     0
100
AcDbPoint
 10
-35.375
 20
-15.99999999999999
 30
0.0
  0
ENDBLK
  5
1B8A
330
1B7F
100
AcDbEntity
  8
0
100
AcDbBlockEnd
  0
BLOCK
  5
1B95
330
1B8B
100
AcDbEntity
  8
0
100
AcDbBlockBegin
  2
*D1
 70
     1
 10
0.0
 20
0.0
 30
0.0
  3
*D1
  1

  0
LINE
  5
D6BC
330
1B8B
100
AcDbEntity
  8
2
370
    -2
100
AcDbLine
 10
0.0000000000000021
 20
17.31830280669997
 30
0.0
 11
0.0000000000000031
 21
33.375
 31
0.0
  0
LINE
  5
D6BD
330
1B8B
100
AcDbEntity
  8
2
370
    -2
100
AcDbLine
 10
22.5
 20
15.92718443089998
 30
0.0
 11
22.5
 21
33.375
 31
0.0
  0
LINE
  5
D6BE
330
1B8B
100
AcDbEntity
  8
2
370
    -2
100
AcDbLine
 10
3.500000000000003
 20
31.375
 30
0.0
 11
19.0
 21
31.375
 31
0.0
  0
SOLID
  5
D6BF
330
1B8B
100
AcDbEntity
  8
2
100
AcDbTrace
 10
3.500000000000003
 20
31.95833333333332
 30
0.0
 11
3.500000000000003
 21
30.79166666666667
 31
0.0
 12
0.0000000000000029
 22
31.375
 32
0.0
 13
0.0000000000000029
 23
31.375
 33
0.0
  0
SOLID
  5
D6C0
330
1B8B
100
AcDbEntity
  8
2
100
AcDbTrace
 10
19.0
 20
31.95833333333332
 30
0.0
 11
19.0
 21
30.79166666666667
 31
0.0
 12
22.5
 22
31.375
 32
0.0
 13
22.5
 23
31.375
 33
0.0
  0
MTEXT
  5
D6C1
330
1B8B
100
AcDbEntity
  8
2
100
AcDbMText
 10
11.25
 20
33.75034448818896
 30
0.0
 40
3.5
 41
0.0
 71
     5
 72
     1
  1
22.5
 73
     1
 44
1.0
1001
ACAD
1000
MTEXTBEGIN
1070
    73
1070
     1
1070
    44
1040
1.0
1070
    74
1070
     0
1000
MTEXTEND
  0
POINT
  5
D6C2
330
1B8B
100
AcDbEntity
  8
DEFPOINTS
 62
     0
100
AcDbPoint
 10
0.000000000000002
 20
16.69330280669997
 30
0.0
  0
POINT
  5
D6C3
330
1B8B
100
AcDbEntity
  8
DEFPOINTS
 62
     0
100
AcDbPoint
 10
22.5
 20
15.30218443089998
 30
0.0
  0
POINT
  5
D6C4
330
1B8B
100
AcDbEntity
  8
DEFPOINTS
 62
     0
100
AcDbPoint
 10
22.5
 20
31.375
 30
0.0
  0
ENDBLK
  5
1B96
330
1B8B
100
AcDbEntity
  8
0
100
AcDbBlockEnd
  0
BLOCK
  5
1BA1
330
1B97
100
AcDbEntity
  8
0
100
AcDbBlockBegin
  2
*D2
 70
     1
 10
0.0
 20
0.0
 30
0.0
  3
*D2
  1

  0
LINE
  5
D6C5
330
1B97
100
AcDbEntity
  8
2
370
    -2
100
AcDbLine
 10
20.0
 20
-20.56611733409997
 30
0.0
 11
20.0
 21
-38.625
 31
0.0
  0
LINE
  5
D6C6
330
1B97
100
AcDbEntity
  8
2
370
    -2
100
AcDbLine
 10
-0.0000000000000021
 20
-17.42554731859997
 30
0.0
 11
-0.0000000000000034
 21
-38.625
 31
0.0
  0
LINE
  5
D6C7
330
1B97
100
AcDbEntity
  8
2
370
    -2
100
AcDbLine
 10
3.499999999999996
 20
-36.625
 30
0.0
 11
16.49999999999999
 21
-36.625
 31
0.0
  0
SOLID
  5
D6C8
330
1B97
100
AcDbEntity
  8
2
100
AcDbTrace
 10
3.499999999999996
 20
-36.04166666666666
 30
0.0
 11
3.499999999999996
 21
-37.20833333333334
 31
0.0
 12
-0.0000000000000033
 22
-36.625
 32
0.0
 13
-0.0000000000000033
 23
-36.625
 33
0.0
  0
SOLID
  5
D6C9
330
1B97
100
AcDbEntity
  8
2
100
AcDbTrace
 10
16.49999999999999
 20
-36.04166666666666
 30
0.0
 11
16.49999999999999
 21
-37.20833333333334
 31
0.0
 12
20.0
 22
-36.625
 32
0.0
 13
20.0
 23
-36.625
 33
0.0
  0
MTEXT
  5
D6CA
330
1B97
100
AcDbEntity
  8
2
100
AcDbMText
 10
13.6733464566929
 20
-34.24965551181102
 30
0.0
 40
3.5
 41
0.0
 71
     5
 72
     1
  1
20
 73
     1
 44
1.0
1001
ACAD
1000
MTEXTBEGIN
1070
    73
1070
     1
1070
    44
1040
1.0
1070
    74
1070
     0
1000
MTEXTEND
  0
POINT
  5
D6CB
330
1B97
100
AcDbEntity
  8
DEFPOINTS
 62
     0
100
AcDbPoint
 10
20.0
 20
-19.94111733409997
 30
0.0
  0
POINT
  5
D6CC
330
1B97
100
AcDbEntity
  8
DEFPOINTS
 62
     0
100
AcDbPoint
 10
-0.0000000000000021
 20
-16.80054731859997
 30
0.0
  0
POINT
  5
D6CD
330
1B97
100
AcDbEntity
  8
DEFPOINTS
 62
     0
100
AcDbPoint
 10
-0.0000000000000033
 20
-36.625
 30
0.0
  0
ENDBLK
  5
1BA2
330
1B97
100
AcDbEntity
  8
0
100
AcDbBlockEnd
  0
BLOCK
  5
1BAD
330
1BA3
100
AcDbEntity
  8
0
100
AcDbBlockBegin
  2
*D3
 70
     1
 10
0.0
 20
0.0
 30
0.0
  3
*D3
  1

  0
LINE
  5
D6CE
330
1BA3
100
AcDbEntity
  8
2
370
    -2
100
AcDbLine
 10
21.125
 20
19.0
 30
0.0
 11
45.39850269189996
 21
18.99999999999998
 31
0.0
  0
LINE
  5
D6CF
330
1BA3
100
AcDbEntity
  8
2
370
    -2
100
AcDbLine
 10
21.125
 20
-19.0
 30
0.0
 11
45.39850269189996
 21
-19.00000000000001
 31
0.0
  0
LINE
  5
D6D0
330
1BA3
100
AcDbEntity
  8
2
370
    -2
100
AcDbLine
 10
43.39850269189995
 20
15.49999999999999
 30
0.0
 11
43.39850269189995
 21
-15.5
 31
0.0
  0
SOLID
  5
D6D1
330
1BA3
100
AcDbEntity
  8
2
100
AcDbTrace
 10
42.81516935856662
 20
15.49999999999999
 30
0.0
 11
43.98183602523327
 21
15.49999999999999
 31
0.0
 12
43.39850269189995
 22
18.99999999999998
 32
0.0
 13
43.39850269189995
 23
18.99999999999998
 33
0.0
  0
SOLID
  5
D6D2
330
1BA3
100
AcDbEntity
  8
2
100
AcDbTrace
 10
42.81516935856662
 20
-15.5
 30
0.0
 11
43.98183602523327
 21
-15.5
 31
0.0
 12
43.39850269189994
 22
-19.00000000000001
 32
0.0
 13
43.39850269189994
 23
-19.00000000000001
 33
0.0
  0
MTEXT
  5
D6D3
330
1BA3
100
AcDbEntity
  8
2
100
AcDbMText
 10
41.02350269189996
 20
-0.000000000000005
 30
0.0
 40
3.5
 41
0.0
 71
     5
 72
     1
  1
%%c38
 11
0.0000000000000001
 21
1.0
 31
0.0
 73
     1
 44
1.0
1001
ACAD
1000
MTEXTBEGIN
1070
    73
1070
     1
1070
    44
1040
1.0
1070
    74
1070
     0
1000
MTEXTEND
  0
POINT
  5
D6D4
330
1BA3
100
AcDbEntity
  8
DEFPOINTS
 62
     0
100
AcDbPoint
 10
20.5
 20
19.0
 30
0.0
  0
POINT
  5
D6D5
330
1BA3
100
AcDbEntity
  8
DEFPOINTS
 62
     0
100
AcDbPoint
 10
20.5
 20
-19.0
 30
0.0
  0
POINT
  5
D6D6
330
1BA3
100
AcDbEntity
  8
DEFPOINTS
 62
     0
100
AcDbPoint
 10
43.39850269189994
 20
-19.00000000000001
 30
0.0
  0
ENDBLK
  5
1BAE
330
1BA3
100
AcDbEntity
  8
0
100
AcDbBlockEnd
  0
BLOCK
  5
8697
330
868B
100
AcDbEntity
  8
0
100
AcDbBlockBegin
  2
*D4
 70
     1
 10
0.0
 20
0.0
 30
0.0
  3
*D4
  1

  0
LINE
  5
DB30
330
868B
100
AcDbEntity
  8
2
370
    -2
100
AcDbLine
 10
19.6852048935009
 20
-19.54524111829587
 30
0.0
 11
5.187192466144966
 21
-44.65653525090543
 31
0.0
  0
LINE
  5
DB31
330
868B
100
AcDbEntity
  8
2
370
    -2
100
AcDbLine
 10
20.31483352072154
 20
-19.54254225978813
 30
0.0
 11
35.0275848116772
 21
-44.52862652300715
 31
0.0
  0
ARC
  5
DB32
330
868B
100
AcDbEntity
  8
2
370
    -2
100
AcDbCircle
 10
19.99770489350403
 20
-19.0039752409324
 30
0.0
 40
27.62102485442096
100
AcDbArc
 50
247.2651046172289
 51
293.2260809746331
  0
SOLID
  5
DB33
330
868B
100
AcDbEntity
  8
2
100
AcDbTrace
 10
9.063993656863454
 20
-45.00157199251214
 30
0.0
 11
9.582140905745092
 21
-43.95628038746237
 31
0.0
 12
6.187192466154998
 22
-42.92448444334233
 32
0.0
 13
6.187192466154998
 23
-42.92448444334233
 33
0.0
  0
SOLID
  5
DB34
330
868B
100
AcDbEntity
  8
2
100
AcDbTrace
 10
30.62679479462492
 20
-43.86607396936917
 30
0.0
 11
31.15388397571456
 21
-44.90688524250632
 31
0.0
 12
34.01277320458118
 22
-42.80521206266883
 32
0.0
 13
34.01277320458118
 23
-42.80521206266883
 33
0.0
  0
MTEXT
  5
DB35
330
868B
100
AcDbEntity
  8
2
100
AcDbMText
 10
20.10591919648445
 20
-44.24976816994676
 30
0.0
 40
3.5
 41
0.0
 71
     5
 72
     1
  1
60°
 11
0.9999908133891201
 21
0.0042863897823283
 31
0.0
 73
     1
 44
1.0
  0
POINT
  5
DB36
330
868B
100
AcDbEntity
  8
DEFPOINTS
 62
     0
100
AcDbPoint
 10
15.27911451130525
 20
-46.21896961560685
 30
0.0
  0
POINT
  5
DB37
330
868B
100
AcDbEntity
  8
DEFPOINTS
 62
     0
100
AcDbPoint
 10
25.77350269189996
 20
-9.000000000000003
 30
0.0
  0
POINT
  5
DB38
330
868B
100
AcDbEntity
  8
DEFPOINTS
 62
     0
100
AcDbPoint
 10
18.48536546017298
 20
-16.43562892904799
 30
0.0
  0
POINT
  5
DB39
330
868B
100
AcDbEntity
  8
DEFPOINTS
 62
     0
100
AcDbPoint
 10
19.53517693951996
 20
-18.21848228969598
 30
0.0
  0
POINT
  5
DB3A
330
868B
100
AcDbEntity
  8
DEFPOINTS
 62
     0
100
AcDbPoint
 10
22.46577868279997
 20
-14.72914604109998
 30
0.0
  0
ENDBLK
  5
8698
330
868B
100
AcDbEntity
  8
0
100
AcDbBlockEnd
  0
ENDSEC
  0
SECTION
  2
ENTITIES
  0
DIMENSION
  5
61
330
1E
100
AcDbEntity
  8
SK2
100
AcDbDimension
  2
*D0
 10
-35.375
 20
-15.99999999999999
 30
0.0
 11
-35.375
 21
0.0000000000000043
 31
0.0
 70
   160
  1
%%c<>
 71
     5
 42
32.0
  3
ISO-25
100
AcDbAlignedDimension
 13
-0.9356640976999964
 23
16.0
 33
0.0
 14
-0.7216458860000352
 24
-16.0
 34
0.0
 50
270.0
100
AcDbRotatedDimension
  0
DIMENSION
  5
62
330
1E
100
AcDbEntity
  8
2
100
AcDbDimension
  2
*D1
 10
22.5
 20
31.375
 30
0.0
 11
11.25
 21
31.375
 31
0.0
 70
   160
 71
     5
 42
22.5
  3
ISO-25
100
AcDbAlignedDimension
 13
0.000000000000002
 23
16.69330280669997
 33
0.0
 14
22.5
 24
15.30218443089998
 34
0.0
100
AcDbRotatedDimension
  0
DIMENSION
  5
63
330
1E
100
AcDbEntity
  8
2
100
AcDbDimension
  2
*D2
 10
-0.0000000000000033
 20
-36.625
 30
0.0
 11
13.6733464566929
 21
-34.24965551181102
 31
0.0
 70
    32
 71
     5
 42
20.0
  3
ISO-25
100
AcDbAlignedDimension
 13
20.0
 23
-19.94111733409997
 33
0.0
 14
-0.0000000000000021
 24
-16.80054731859997
 34
0.0
 50
180.0
100
AcDbRotatedDimension
1001
ACAD
1000
DSTYLE
1002
{
1070
   280
1070
     1
1002
}
  0
DIMENSION
  5
64
330
1E
100
AcDbEntity
  8
2
100
AcDbDimension
  2
*D3
 10
43.39850269189994
 20
-19.00000000000001
 30
0.0
 11
43.39850269189995
 21
-0.0000000000000053
 31
0.0
 70
   160
  1
%%c<>
 71
     5
 42
38.0
  3
ISO-25
100
AcDbAlignedDimension
 13
20.5
 23
19.0
 33
0.0
 14
20.5
 24
-19.0
 34
0.0
 50
270.0
100
AcDbRotatedDimension
  0
LINE
  5
6B
330
1E
100
AcDbEntity
  8
1
100
AcDbLine
 10
20.09999999999998
 20
18.4810949827
 30
0.0
 11
20.21647989849998
 21
18.31317100979998
 31
0.0
  0
LINE
  5
6C
330
1E
100
AcDbEntity
  8
1
100
AcDbLine
 10
21.85442285349997
 20
15.68245859410001
 30
0.0
 11
20.21647989849998
 21
18.31317100979998
 31
0.0
  0
LINE
  5
6D
330
1E
100
AcDbEntity
  8
1
100
AcDbLine
 10
22.5
 20
-14.4
 30
0.0
 11
22.5
 21
14.39999999999999
 31
0.0
  0
LINE
  5
6E
330
1E
100
AcDbEntity
  8
1
100
AcDbLine
 10
22.381
 20
-6.342336437799987
 30
0.0
 11
22.381
 21
5.196608282999985
 31
0.0
  0
LINE
  5
6F
330
1E
100
AcDbEntity
  8
1
100
AcDbLine
 10
20.89999999999998
 20
-16.0
 30
0.0
 11
20.89999999999998
 21
-6.285890891399986
 31
0.0
  0
LINE
  5
70
330
1E
100
AcDbEntity
  8
1
100
AcDbLine
 10
20.89999999999998
 20
5.249165226699995
 30
0.0
 11
20.89999999999998
 21
16.0
 31
0.0
  0
LINE
  5
71
330
1E
100
AcDbEntity
  8
1
100
AcDbLine
 10
20.09999999999998
 20
5.355800963600012
 30
0.0
 11
20.09999999999998
 21
-6.129471644000003
 31
0.0
  0
LINE
  5
72
330
1E
100
AcDbEntity
  8
1
100
AcDbLine
 10
19.9
 20
5.355800963600012
 30
0.0
 11
19.9
 21
-6.129471644000003
 31
0.0
  0
LINE
  5
73
330
1E
100
AcDbEntity
  8
1
100
AcDbLine
 10
19.9
 20
18.4810949827
 30
0.0
 11
20.09999999999998
 21
18.4810949827
 31
0.0
  0
LINE
  5
77
330
1E
100
AcDbEntity
  8
1
100
AcDbLine
 10
17.61899999999998
 20
-5.621420477400024
 30
0.0
 11
17.61899999999998
 21
4.552510541599985
 31
0.0
  0
LINE
  5
78
330
1E
100
AcDbEntity
  8
1
100
AcDbLine
 10
17.61899999999998
 20
4.552074944899997
 30
0.0
 11
17.61899999999998
 21
5.130557962599991
 31
0.0
  0
LINE
  5
79
330
1E
100
AcDbEntity
  8
1
100
AcDbLine
 10
17.61899999999998
 20
-5.621420477400024
 30
0.0
 11
17.61899999999998
 21
-6.677340851500017
 31
0.0
  0
LINE
  5
7B
330
1E
100
AcDbEntity
  8
1
100
AcDbLine
 10
20.89999999999998
 20
16.0
 30
0.0
 11
17.98065491779996
 21
16.0
 31
0.0
  0
LINE
  5
7C
330
1E
100
AcDbEntity
  8
1
100
AcDbLine
 10
17.98065491779996
 20
16.0
 30
0.0
 11
0.2999999999999848
 21
16.0
 31
0.0
  0
LINE
  5
7D
330
1E
100
AcDbEntity
  8
SK1
100
AcDbLine
 10
-17.5
 20
8.000000000000001
 30
0.0
 11
-20.72686128690003
 21
7.599999999999996
 31
0.0
  0
LINE
  5
7E
330
1E
100
AcDbEntity
  8
1
100
AcDbLine
 10
20.21647989849998
 20
5.345682375600001
 30
0.0
 11
21.97508049739999
 21
4.661161868799974
 31
0.0
  0
LINE
  5
7F
330
1E
100
AcDbEntity
  8
SK1
100
AcDbLine
 10
-1.999999999999999
 20
8.0
 30
0.0
 11
-5.499999999999999
 21
8.0
 31
0.0
  0
LINE
  5
80
330
1E
100
AcDbEntity
  8
SK1
100
AcDbLine
 10
-14.5
 20
8.000000000000001
 30
0.0
 11
-17.5
 21
8.000000000000001
 31
0.0
  0
LINE
  5
81
330
1E
100
AcDbEntity
  8
1
100
AcDbLine
 10
18.34328583769996
 20
16.0
 30
0.0
 11
19.78352010149998
 21
18.31317100979998
 31
0.0
  0
LINE
  5
82
330
1E
100
AcDbEntity
  8
SK1
100
AcDbLine
 10
-0.4999999999999992
 20
7.800000000000013
 30
0.0
 11
-1.174598339900028
 21
7.800000000000013
 31
0.0
  0
LINE
  5
83
330
1E
100
AcDbEntity
  8
1
100
AcDbLine
 10
20.09999999999998
 20
5.355800963600012
 30
0.0
 11
20.21647989849998
 21
5.345682375600001
 31
0.0
  0
LINE
  5
84
330
1E
100
AcDbEntity
  8
SK1
100
AcDbLine
 10
-1.329889767000022
 20
7.820444504199997
 30
0.0
 11
-1.174598339900028
 21
7.800000000000013
 31
0.0
  0
LINE
  5
85
330
1E
100
AcDbEntity
  8
SK1
100
AcDbLine
 10
-1.329889767000022
 20
7.820444504199997
 30
0.0
 11
-1.999999999999999
 21
8.0
 31
0.0
  0
LINE
  5
89
330
1E
100
AcDbEntity
  8
1
100
AcDbLine
 10
19.78352010149998
 20
18.31317100979998
 30
0.0
 11
19.9
 21
18.4810949827
 31
0.0
  0
LINE
  5
8A
330
1E
100
AcDbEntity
  8
1
100
AcDbLine
 10
19.9
 20
5.355800963600012
 30
0.0
 11
20.09999999999998
 21
5.355800963600012
 31
0.0
  0
LINE
  5
8B
330
1E
100
AcDbEntity
  8
1
100
AcDbLine
 10
20.89999999999998
 20
5.249165226699995
 30
0.0
 11
20.46444195989999
 21
5.249165226699995
 31
0.0
  0
LINE
  5
8C
330
1E
100
AcDbEntity
  8
1
100
AcDbLine
 10
19.53555804009996
 20
5.249165226699995
 30
0.0
 11
18.32610678119996
 21
5.249165226699995
 31
0.0
  0
LINE
  5
8D
330
1E
100
AcDbEntity
  8
1
100
AcDbLine
 10
22.381
 20
5.13055796259999
 30
0.0
 11
20.76915570269997
 21
5.13055796259999
 31
0.0
  0
LINE
  5
8E
330
1E
100
AcDbEntity
  8
1
100
AcDbLine
 10
19.23084429719995
 20
5.13055796259999
 30
0.0
 11
17.61899999999998
 21
5.130557962599991
 31
0.0
  0
LINE
  5
92
330
1E
100
AcDbEntity
  8
1
100
AcDbLine
 10
19.78352010149998
 20
5.345682375600001
 30
0.0
 11
19.9
 21
5.355800963600012
 31
0.0
  0
LINE
  5
93
330
1E
100
AcDbEntity
  8
1
100
AcDbLine
 10
19.78352010149998
 20
5.345682375600001
 30
0.0
 11
18.02491950249996
 21
4.661161868799976
 31
0.0
  0
LINE
  5
94
330
1E
100
AcDbEntity
  8
4
100
AcDbLine
 10
25.11570271699997
 20
-0.0000000000000031
 30
0.0
 11
0.0
 21
0.0
 31
0.0
  0
LINE
  5
96
330
1E
100
AcDbEntity
  8
1
100
AcDbLine
 10
-0.0000000000000019
 20
-15.69999999999998
 30
0.0
 11
0.0000000000000019
 21
15.69999999999998
 31
0.0
  0
LINE
  5
97
330
1E
100
AcDbEntity
  8
SK1
100
AcDbLine
 10
-0.500000000000001
 20
-7.800000000000013
 30
0.0
 11
-0.4999999999999992
 21
7.800000000000013
 31
0.0
  0
LINE
  5
98
330
1E
100
AcDbEntity
  8
1
100
AcDbLine
 10
18.02491950249996
 20
-5.760608366199987
 30
0.0
 11
19.78352010149998
 21
-6.139590232000018
 31
0.0
  0
LINE
  5
99
330
1E
100
AcDbEntity
  8
SK1
100
AcDbLine
 10
-1.174598339900029
 20
-7.800000000000013
 30
0.0
 11
-1.174598339900028
 21
7.800000000000013
 31
0.0
  0
LINE
  5
9B
330
1E
100
AcDbEntity
  8
SK1
100
AcDbLine
 10
-2.0
 20
-8.0
 30
0.0
 11
-1.999999999999999
 21
8.0
 31
0.0
  0
LINE
  5
9C
330
1E
100
AcDbEntity
  8
SK1
100
AcDbLine
 10
-20.72686128690003
 20
-7.599999999999991
 30
0.0
 11
-21.25521140030002
 21
-7.869207828999998
 31
0.0
  0
LINE
  5
9D
330
1E
100
AcDbEntity
  8
SK1
100
AcDbLine
 10
-20.72686128690003
 20
7.599999999999996
 30
0.0
 11
-21.25521140030002
 21
7.869207829000003
 31
0.0
  0
LINE
  5
9E
330
1E
100
AcDbEntity
  8
1
100
AcDbLine
 10
22.381
 20
-6.061754821700018
 30
0.0
 11
20.57766182169998
 21
-6.061754821700018
 31
0.0
  0
LINE
  5
9F
330
1E
100
AcDbEntity
  8
1
100
AcDbLine
 10
19.42233817829998
 20
-6.061754821700018
 30
0.0
 11
17.61899999999998
 21
-6.061754821700017
 31
0.0
  0
LINE
  5
A0
330
1E
100
AcDbEntity
  8
1
100
AcDbLine
 10
19.9
 20
-6.129471644000003
 30
0.0
 11
20.09999999999998
 21
-6.129471644000003
 31
0.0
  0
LINE
  5
A1
330
1E
100
AcDbEntity
  8
1
100
AcDbLine
 10
19.78352010149998
 20
-6.139590232000018
 30
0.0
 11
20.21647989849998
 21
-6.139590232000018
 31
0.0
  0
LINE
  5
A2
330
1E
100
AcDbEntity
  8
1
100
AcDbLine
 10
20.89999999999998
 20
-6.285890891399986
 30
0.0
 11
18.32610678119996
 21
-6.285890891399986
 31
0.0
  0
LINE
  5
A4
330
1E
100
AcDbEntity
  8
1
100
AcDbLine
 10
20.09999999999998
 20
-6.129471644000003
 30
0.0
 11
20.21647989849998
 21
-6.139590232000018
 31
0.0
  0
LINE
  5
A5
330
1E
100
AcDbEntity
  8
SK1
100
AcDbLine
 10
-1.329889767000024
 20
-7.820444504300012
 30
0.0
 11
-2.0
 21
-8.0
 31
0.0
  0
LINE
  5
A6
330
1E
100
AcDbEntity
  8
SK1
100
AcDbLine
 10
-1.329889767000024
 20
-7.820444504300012
 30
0.0
 11
-1.174598339900029
 21
-7.800000000000013
 31
0.0
  0
LINE
  5
A7
330
1E
100
AcDbEntity
  8
1
100
AcDbLine
 10
19.78352010149998
 20
-6.139590232000018
 30
0.0
 11
19.9
 21
-6.129471644000003
 31
0.0
  0
LINE
  5
A8
330
1E
100
AcDbEntity
  8
SK1
100
AcDbLine
 10
-0.500000000000001
 20
-7.800000000000013
 30
0.0
 11
-1.174598339900029
 21
-7.800000000000013
 31
0.0
  0
LINE
  5
A9
330
1E
100
AcDbEntity
  8
SK1
100
AcDbLine
 10
-2.0
 20
-8.0
 30
0.0
 11
-5.5
 21
-7.999999999999999
 31
0.0
  0
LINE
  5
AA
330
1E
100
AcDbEntity
  8
SK1
100
AcDbLine
 10
-14.5
 20
-7.999999999999997
 30
0.0
 11
-17.5
 21
-7.999999999999997
 31
0.0
  0
LINE
  5
AB
330
1E
100
AcDbEntity
  8
1
100
AcDbLine
 10
21.97508049739999
 20
-5.760608366199987
 30
0.0
 11
20.21647989849998
 21
-6.139590232000018
 31
0.0
  0
LINE
  5
AC
330
1E
100
AcDbEntity
  8
SK1
100
AcDbLine
 10
-17.5
 20
-7.999999999999997
 30
0.0
 11
-20.72686128690003
 21
-7.599999999999991
 31
0.0
  0
LINE
  5
AD
330
1E
100
AcDbEntity
  8
1
100
AcDbLine
 10
20.89999999999998
 20
-16.0
 30
0.0
 11
0.2999999999999809
 21
-16.0
 31
0.0
  0
LINE
  5
B0
330
1E
100
AcDbEntity
  8
SK1
100
AcDbLine
 10
-17.5
 20
-7.999999999999997
 30
0.0
 11
-17.5
 21
8.000000000000001
 31
0.0
  0
LINE
  5
B1
330
1E
100
AcDbEntity
  8
SK1
100
AcDbLine
 10
-20.72686128690003
 20
-7.599999999999991
 30
0.0
 11
-20.72686128690003
 21
7.599999999999996
 31
0.0
  0
LINE
  5
B3
330
1E
100
AcDbEntity
  8
SK1
100
AcDbLine
 10
-23.0
 20
-6.800000000000008
 30
0.0
 11
-23.0
 21
6.800000000000013
 31
0.0
  0
ARC
  5
B4
330
1E
100
AcDbEntity
  8
1
100
AcDbCircle
 10
20.89999999999998
 20
-14.4
 30
0.0
 40
1.6
100
AcDbArc
 50
270.0
 51
0.0
  0
ARC
  5
B5
330
1E
100
AcDbEntity
  8
1
100
AcDbCircle
 10
20.89999999999998
 20
14.4
 30
0.0
 40
1.6
100
AcDbArc
 50
0.0
 51
90.0
  0
ARC
  5
B6
330
1E
100
AcDbEntity
  8
1
100
AcDbCircle
 10
0.2999999999999809
 20
-15.69999999999998
 30
0.0
 40
0.3
100
AcDbArc
 50
180.0
 51
270.0
  0
ARC
  5
B7
330
1E
100
AcDbEntity
  8
1
100
AcDbCircle
 10
0.2999999999999848
 20
15.69999999999998
 30
0.0
 40
0.3
100
AcDbArc
 50
90.0
 51
180.0
  0
ARC
  5
B8
330
1E
100
AcDbEntity
  8
SK1
100
AcDbCircle
 10
-0.500000000000001
 20
-8.400000000000002
 30
0.0
 40
0.6
100
AcDbArc
 50
33.34498802279995
 51
90.0
  0
ARC
  5
B9
330
1E
100
AcDbEntity
  8
SK1
100
AcDbCircle
 10
-0.499999999999999
 20
8.400000000000002
 30
0.0
 40
0.6
100
AcDbArc
 50
270.0
 51
326.6550119771999
  0
ARC
  5
BA
330
1E
100
AcDbEntity
  8
SK1
100
AcDbCircle
 10
-21.80000000000001
 20
6.800000000000013
 30
0.0
 40
1.199999999999999
100
AcDbArc
 50
63.00000000000001
 51
180.0
  0
ARC
  5
BB
330
1E
100
AcDbEntity
  8
SK1
100
AcDbCircle
 10
-21.80000000000001
 20
-6.800000000000008
 30
0.0
 40
1.199999999999999
100
AcDbArc
 50
180.0
 51
297.0
  0
LWPOLYLINE
  5
BC
330
1E
100
AcDbEntity
  8
1
100
AcDbPolyline
 90
      159
 70
     0
 43
0.0
 10
22.19667037289997
 20
-5.653413642700003
 10
22.19652940090798
 20
-5.653414154301004
 10
22.19636351223996
 20
-5.653415678032986
 10
22.19617333714697
 20
-5.65341821386798
 10
22.195959505877
 20
-5.653421761776995
 10
22.19572264867898
 20
-5.653426321731982
 10
22.19546339580297
 20
-5.653431893702016
 10
22.19518237749797
 20
-5.653438477660016
 10
22.19488022401197
 20
-5.653446073576018
 10
22.19455756559597
 20
-5.653454681422008
 10
22.19421503249797
 20
-5.653464301169011
 10
22.19385325496696
 20
-5.653474932788013
 10
22.19347286325296
 20
-5.653486576250005
 10
22.193074487605
 20
-5.653499231525985
 10
22.19265875827198
 20
-5.653512898587987
 10
22.19222630550196
 20
-5.653527577406007
 10
22.19177775954598
 20
-5.653543267952017
 10
22.19131375065299
 20
-5.653559970196996
 10
22.19083490907097
 20
-5.653577684113005
 10
22.19034186504998
 20
-5.653596409669004
 10
22.18983524883899
 20
-5.653616146838006
 10
22.189315690688
 20
-5.653636895589982
 10
22.18878382084398
 20
-5.653658655896975
 10
22.18824026955798
 20
-5.653681427730021
 10
22.18768566707898
 20
-5.653705211060015
 10
22.18683442104298
 20
-5.653742782549017
 10
22.18596185497298
 20
-5.653782629743004
 10
22.18507009596098
 20
-5.653824752546002
 10
22.18416127109795
 20
-5.653869150861027
 10
22.18323750747399
 20
-5.653915824589002
 10
22.18230093218098
 20
-5.653964773634982
 10
22.18103591231297
 20
-5.654033578241016
 10
22.17943560719296
 20
-5.654125271696018
 10
22.17556485402098
 20
-5.654371117636999
 10
22.17396408495496
 20
-5.654484294676024
 10
22.17269849743499
 20
-5.654579385078986
 10
22.17176138177998
 20
-5.654653356181002
 10
22.17083697327498
 20
-5.654729601425005
 10
22.16992659411995
 20
-5.654808119793018
 10
22.16902999366698
 20
-5.654888908473994
 10
22.168146737477
 20
-5.654971964447017
 10
22.16727639111196
 20
-5.655057284689972
 10
22.16641852013299
 20
-5.655144866182014
 10
22.16557269010198
 20
-5.655234705899995
 10
22.16446289620799
 20
-5.655357999766009
 10
22.16337270632698
 20
-5.655485295722995
 10
22.16230109067796
 20
-5.655616586610023
 10
22.16124701947998
 20
-5.655751865262971
 10
22.16020946295398
 20
-5.655891124520989
 10
22.159187391318
 20
-5.656034357221983
 10
22.15817977479197
 20
-5.656181556202995
 10
22.15693901282596
 20
-5.656371121598995
 10
22.15571721664696
 20
-5.656566859127992
 10
22.15451237496498
 20
-5.656768754800991
 10
22.15308611298498
 20
-5.657019138662009
 10
22.15144470061598
 20
-5.657322403281026
 10
22.14913148522096
 20
-5.657776395404028
 10
22.14638426071198
 20
-5.658353277484025
 10
22.14364201384898
 20
-5.658964985867982
 10
22.14087694055697
 20
-5.659611327176008
 10
22.13877343984497
 20
-5.66011869452399
 10
22.13640553928998
 20
-5.660705055988985
 10
22.13376869032097
 20
-5.661377423597004
 10
22.13086046054198
 20
-5.662143445015002
 10
22.12792666332498
 20
-5.662943219515992
 10
22.12497498895999
 20
-5.66377655092799
 10
22.12201312773498
 20
-5.664643243077988
 10
22.11880186849296
 20
-5.665619578717015
 10
22.11559745677198
 20
-5.666634587241017
 10
22.11240967009698
 20
-5.667688019235982
 10
22.10924800853097
 20
-5.668779610358003
 10
22.10611625741497
 20
-5.66990878883499
 10
22.10301283502098
 20
-5.671074694163022
 10
22.09970031638996
 20
-5.672370357904012
 10
22.09641634175798
 20
-5.673706516442992
 10
22.09315867599396
 20
-5.675082081068977
 10
22.08969497523799
 20
-5.676598392102022
 10
22.08625616102998
 20
-5.678157350850002
 10
22.08261242557497
 20
-5.679865738690977
 10
22.07899070205896
 20
-5.681619766992982
 10
22.07561368338996
 20
-5.683306357594005
 10
22.07225343521496
 20
-5.685035420545997
 10
22.06913148819898
 20
-5.686688957313013
 10
22.06602253487
 20
-5.688382213013
 10
22.06314660268299
 20
-5.689991234639022
 10
22.06028057752297
 20
-5.691636687913017
 10
22.05742383504698
 20
-5.69331962448601
 10
22.05479454112097
 20
-5.694907283086021
 10
22.05217222024598
 20
-5.696528496636997
 10
22.04912407085998
 20
-5.698459646099023
 10
22.04544748121398
 20
-5.700852170688022
 10
22.04159597448798
 20
-5.70342842300499
 10
22.03842832493799
 20
-5.705597965288006
 10
22.03572026062996
 20
-5.707487383898015
 10
22.03325577541198
 20
-5.709233614438998
 10
22.03102988213498
 20
-5.710832050785002
 10
22.02903656058001
 20
-5.712280174691017
 10
22.02726913536797
 20
-5.713577111260972
 10
22.02552854645796
 20
-5.714866037510009
 10
22.02343511482498
 20
-5.716432940288997
 10
22.02006339327599
 20
-5.719004794721995
 10
22.01764627732898
 20
-5.720892980065999
 10
22.01597070215998
 20
-5.722226838105004
 10
22.01447411299298
 20
-5.723436747839995
 10
22.01315553475696
 20
-5.724517823293981
 10
22.012016309497
 20
-5.725463491912987
 10
22.01086685566598
 20
-5.726428724399997
 10
22.009705366903
 20
-5.727415411125972
 10
22.00872696304898
 20
-5.728255402530011
 10
22.00773790183597
 20
-5.729112699434011
 10
22.00673713791697
 20
-5.729988395802992
 10
22.00572362594297
 20
-5.730883585601987
 10
22.00469632056598
 20
-5.731799362797007
 10
22.00386384253997
 20
-5.732547542621007
 10
22.00302133249496
 20
-5.733310158627007
 10
22.00216825521198
 20
-5.734087770922999
 10
22.00130407547296
 20
-5.734880939619982
 10
22.00042825805998
 20
-5.735690224828005
 10
21.99954032119298
 20
-5.736516129667021
 10
21.99864096979197
 20
-5.737357891706012
 10
21.99750358116199
 20
-5.738429335344023
 10
21.99612429888897
 20
-5.739737988824994
 10
21.99427141780998
 20
-5.741510366080008
 10
21.99080459564795
 20
-5.744864748064005
 10
21.98943878857498
 20
-5.746198327700996
 10
21.988316888681
 20
-5.747298422092995
 10
21.98721377660098
 20
-5.748384032551002
 10
21.98634733068896
 20
-5.749239394737999
 10
21.98549722301899
 20
-5.750080862496989
 10
21.98466537094398
 20
-5.750906380401004
 10
21.98405461552896
 20
-5.751513815269022
 10
21.98345601627798
 20
-5.752110255031001
 10
21.98287038207494
 20
-5.75269483255599
 10
21.98229852180196
 20
-5.753266680710027
 10
21.98174124434197
 20
-5.75382493235901
 10
21.98119935857897
 20
-5.75436872037102
 10
21.98067367339298
 20
-5.754897177611013
 10
21.98016499766898
 20
-5.755409436945997
 10
21.979674140289
 20
-5.755904631244022
 10
21.97920191013496
 20
-5.756381893371012
 10
21.97874911609095
 20
-5.756840356194005
 10
21.97831656703795
 20
-5.757279152578012
 10
21.97790507186098
 20
-5.757697415391988
 10
21.97751543944097
 20
-5.758094277502008
 10
21.97726822991899
 20
-5.758346534747004
 10
21.97703133635099
 20
-5.758588638247008
 10
21.97680499840497
 20
-5.758820331073994
 10
21.97658945574997
 20
-5.759041356299009
 10
21.97638494805598
 20
-5.75925145699401
 10
21.97619171499098
 20
-5.759450376230007
 10
21.97600999622398
 20
-5.759637857079013
 10
21.97584003142396
 20
-5.759813642612985
 10
21.97568206026098
 20
-5.759977475901989
 10
21.97553632240297
 20
-5.760129100019981
 10
21.975403057519
 20
-5.760268258036999
 10
21.97528250527696
 20
-5.760394693025006
 10
21.97517490534798
 20
-5.760508148055007
 10
21.97508049739999
 20
-5.760608366199987
 10
21.97508223243396
 20
-5.760606516978984
  0
LWPOLYLINE
  5
15D
330
1E
100
AcDbEntity
  8
1
100
AcDbPolyline
 90
      140
 70
     0
 43
0.0
 10
21.97508049739999
 20
4.661161868799974
 10
21.97521332356001
 20
4.660997749576973
 10
21.97536192517298
 20
4.660815151836994
 10
21.97552597496297
 20
4.660614483360996
 10
21.97570514565696
 20
4.660396151926986
 10
21.97589910997899
 20
4.660160565313983
 10
21.97610754065598
 20
4.659908131300988
 10
21.97633011041298
 20
4.659639257667999
 10
21.97656649197596
 20
4.659354352194007
 10
21.97681635806998
 20
4.659053822656995
 10
21.97707938142098
 20
4.658738076838001
 10
21.97735523475498
 20
4.658407522514007
 10
21.97764359079596
 20
4.658062567465999
 10
21.97794412227096
 20
4.657703619471985
 10
21.97825650190498
 20
4.657331086310985
 10
21.97858040242397
 20
4.656945375762997
 10
21.97908713894798
 20
4.656342994357001
 10
21.97961795654498
 20
4.655713257585997
 10
21.98017175066197
 20
4.655057541705983
 10
21.98074741674898
 20
4.654377222971983
 10
21.98134385025495
 20
4.653673677637012
 10
21.98195994662798
 20
4.652948281956009
 10
21.98259460131799
 20
4.652202412183978
 10
21.98324670977196
 20
4.651437444575003
 10
21.98391516744098
 20
4.650654755385
 10
21.98459886977198
 20
4.649855720867003
 10
21.98529671221398
 20
4.649041717275988
 10
21.98624725543294
 20
4.647935472641985
 10
21.98721835478598
 20
4.646808325231
 10
21.98845714738399
 20
4.645374966245011
 10
21.98971885434898
 20
4.643920415456983
 10
21.99151400382195
 20
4.641860573557999
 10
21.99593266947698
 20
4.636844616916985
 10
21.99748393272296
 20
4.635104889648996
 10
21.99876285769698
 20
4.633680399622985
 10
21.99977328677797
 20
4.632561943793997
 10
22.00076984749101
 20
4.631465479449015
 10
22.00175228143097
 20
4.630391344810018
 10
22.00272131874696
 20
4.629338653178987
 10
22.00367769544097
 20
4.628306510609997
 10
22.004622147514
 20
4.627294023154997
 10
22.00555541096699
 20
4.626300296868004
 10
22.00647822179996
 20
4.625324437803011
 10
22.00761815759697
 20
4.624128377879995
 10
22.00874434867998
 20
4.622957092708983
 10
22.00985823254999
 20
4.62180883630199
 10
22.01096124670895
 20
4.620681862668985
 10
22.01227253968297
 20
4.61935512921698
 10
22.01357273427999
 20
4.618053511665005
 10
22.01507891477998
 20
4.616562676472992
 10
22.01679096663796
 20
4.614889550324985
 10
22.01913926034998
 20
4.612629795508008
 10
22.02343809106896
 20
4.608585874303993
 10
22.02584596168097
 20
4.606363974380993
 10
22.02785173244796
 20
4.60453182092601
 10
22.03011903733699
 20
4.602480140553976
 10
22.03242399342298
 20
4.600415772897998
 10
22.03499915098696
 20
4.598135397024003
 10
22.03785104521096
 20
4.595642742432997
 10
22.04122736760897
 20
4.592737646982978
 10
22.04538632698699
 20
4.589230459906981
 10
22.05009327455798
 20
4.585361450109013
 10
22.05358900166697
 20
4.582561299212978
 10
22.05684902445497
 20
4.580009048769992
 10
22.060122966763
 20
4.577502978624007
 10
22.06366644785198
 20
4.574853803146988
 10
22.06723054584298
 20
4.57225403601799
 10
22.071074736068
 20
4.569520954706002
 10
22.07520744191997
 20
4.566662480030995
 10
22.07937681431697
 20
4.563859504986988
 10
22.08385073803498
 20
4.560938685932992
 10
22.08837171682796
 20
4.558076612048973
 10
22.09266921029997
 20
4.555439429411986
 10
22.09673495683897
 20
4.553019426659001
 10
22.10083585798196
 20
4.550652472159011
 10
22.10469464871397
 20
4.548493230888988
 10
22.10858323395398
 20
4.546384123628991
 10
22.11222038040598
 20
4.544472206164979
 10
22.11588198195499
 20
4.542606329027985
 10
22.119566373568
 20
4.540787213326976
 10
22.12327182936598
 20
4.539015544176998
 10
22.12670945355497
 20
4.537422862093987
 10
22.13016219789897
 20
4.535871730473981
 10
22.13362870494596
 20
4.534362688178981
 10
22.13710761724498
 20
4.532896274072978
 10
22.14059757734199
 20
4.531473027017992
 10
22.14409804851098
 20
4.530093509935988
 10
22.14761217689197
 20
4.528758393700993
 10
22.15084902766098
 20
4.527574140889978
 10
22.15410408432296
 20
4.526428326339978
 10
22.15738056561496
 20
4.525321490111987
 10
22.16068169027098
 20
4.524254172267001
 10
22.16401067702698
 20
4.523226912862976
 10
22.16737074461997
 20
4.522240251961985
 10
22.17076511178498
 20
4.521294729624994
 10
22.17419476626897
 20
4.520390867910998
 10
22.177649098144
 20
4.519529095306973
 10
22.18079872495497
 20
4.518782524330981
 10
22.18394607758698
 20
4.518071365960988
 10
22.18708036065299
 20
4.517395919338976
 10
22.19019077876697
 20
4.516756483610999
 10
22.19296082814997
 20
4.516212028012998
 10
22.19539316315598
 20
4.515752934602997
 10
22.19749381364498
 20
4.515370552389978
 10
22.19927088953396
 20
4.515057233231996
 10
22.20102382868398
 20
4.514757308764981
 10
22.20275070757698
 20
4.514470842626987
 10
22.20502028830898
 20
4.514109906855988
 10
22.20783244302299
 20
4.51369264761399
 10
22.21065373457398
 20
4.513313234228997
 10
22.21265514085196
 20
4.51307025928099
 10
22.21410673368896
 20
4.512908147470991
 10
22.21558224691997
 20
4.512755595864999
 10
22.21678318462199
 20
4.512640453006008
 10
22.21800509612199
 20
4.512531454529007
 10
22.21925049908398
 20
4.512428611924002
 10
22.22020148211196
 20
4.512355526671993
 10
22.22116815741298
 20
4.512285915407995
 10
22.22215158712898
 20
4.512219782978001
 10
22.22315283339898
 20
4.512157134230985
 10
22.22417295836299
 20
4.512097974013014
 10
22.22521302416097
 20
4.512042307171978
 10
22.22627409293199
 20
4.511990138554008
 10
22.22735722681798
 20
4.511941473006995
 10
22.22846348795698
 20
4.511896315378006
 10
22.22959393849098
 20
4.511854670513992
 10
22.23074964055697
 20
4.511816543262991
 10
22.23193165629698
 20
4.511781938470985
 10
22.23314012926397
 20
4.511750860772985
 10
22.23516421275899
 20
4.511706903817009
 10
22.23595233044798
 20
4.511692062956992
 10
22.23671517202796
 20
4.511678787955981
 10
22.23744408322396
 20
4.511667078180008
 10
22.23813040975599
 20
4.511656932990999
 10
22.23876549734899
 20
4.511648351753986
 10
22.23934069172398
 20
4.511641333834
 10
22.23984733860496
 20
4.511635878594001
 10
22.24027678371196
 20
4.511631985398987
 10
22.24062037276997
 20
4.511629653612996
 10
22.24086628371196
 20
4.511628882650991
  0
LWPOLYLINE
  5
1EB
330
1E
100
AcDbEntity
  8
1
100
AcDbPolyline
 90
      140
 70
     0
 43
0.0
 10
18.02491950249996
 20
4.661161868799976
 10
18.02478667633997
 20
4.660997749576976
 10
18.02463807472696
 20
4.660815151836997
 10
18.02447402493696
 20
4.660614483360997
 10
18.024294854244
 20
4.660396151925991
 10
18.02410088992196
 20
4.660160565312987
 10
18.02389245924498
 20
4.659908131299997
 10
18.02366988948798
 20
4.659639257666976
 10
18.02343350792597
 20
4.659354352191994
 10
18.02318364183198
 20
4.659053822654978
 10
18.02292061848098
 20
4.658738076834991
 10
18.02264476514898
 20
4.658407522509999
 10
18.02235640910798
 20
4.658062567460999
 10
18.02205587763296
 20
4.657703619465988
 10
18.02174349799996
 20
4.657331086304988
 10
18.02141959748198
 20
4.656945375756005
 10
18.02091286095796
 20
4.656342994347991
 10
18.02038204336296
 20
4.655713257575992
 10
18.01982824924698
 20
4.655057541695009
 10
18.01925258316098
 20
4.654377222958997
 10
18.01865614965598
 20
4.653673677621978
 10
18.01804005328397
 20
4.652948281938987
 10
18.01740539859599
 20
4.652202412165988
 10
18.016753290144
 20
4.651437444554998
 10
18.01608483247698
 20
4.650654755362976
 10
18.01540113014698
 20
4.64985572084299
 10
18.014703287706
 20
4.649041717251003
 10
18.01375274448996
 20
4.647935472613991
 10
18.012781645139
 20
4.64680832520099
 10
18.01154285254398
 20
4.645374966212012
 10
18.01028114558199
 20
4.643920415422
 10
18.00848599611296
 20
4.64186057351901
 10
18.00406733046898
 20
4.636844616870997
 10
18.00251606722596
 20
4.635104889600991
 10
18.00123714225496
 20
4.633680399573986
 10
18.000226713176
 20
4.632561943744999
 10
17.99923015246598
 20
4.63146547939999
 10
17.99824771852795
 20
4.630391344760991
 10
17.99727868121395
 20
4.629338653129988
 10
17.99632230452198
 20
4.628306510560004
 10
17.99537785244999
 20
4.627294023104978
 10
17.99444458899898
 20
4.626300296819007
 10
17.99352177816698
 20
4.625324437753985
 10
17.99238184237096
 20
4.624128377831991
 10
17.99125565128898
 20
4.622957092662996
 10
17.99014176742
 20
4.621808836255972
 10
17.98903875326198
 20
4.620681862623994
 10
17.98772746028697
 20
4.619355129172985
 10
17.98642726569099
 20
4.618053511621978
 10
17.98492108519098
 20
4.616562676432007
 10
17.98320903333296
 20
4.614889550285991
 10
17.98086073961996
 20
4.612629795471004
 10
17.97656190889898
 20
4.608585874270998
 10
17.97415403828496
 20
4.606363974349986
 10
17.972148267518
 20
4.604531820895995
 10
17.96988096262796
 20
4.602480140524986
 10
17.96757600654098
 20
4.600415772869976
 10
17.96500084897695
 20
4.598135396997999
 10
17.96214895475299
 20
4.595642742406992
 10
17.95877263235499
 20
4.592737646957995
 10
17.95461367297798
 20
4.589230459882996
 10
17.94990672540896
 20
4.585361450084999
 10
17.94641099830198
 20
4.582561299187996
 10
17.94315097551497
 20
4.58000904874501
 10
17.939877033209
 20
4.577502978598002
 10
17.93633355212098
 20
4.574853803119988
 10
17.93276945413096
 20
4.572254035990992
 10
17.92892526390696
 20
4.569520954679002
 10
17.92479255805598
 20
4.566662480005983
 10
17.920623185658
 20
4.563859504965986
 10
17.91614926193699
 20
4.560938685919007
 10
17.91162828314097
 20
4.558076612044001
 10
17.90733078966499
 20
4.55543942941699
 10
17.90326504312295
 20
4.55301942667199
 10
17.89916414197596
 20
4.550652472178992
 10
17.89530535124296
 20
4.548493230914002
 10
17.89141676600095
 20
4.546384123657983
 10
17.88777961954898
 20
4.544472206193997
 10
17.88411801800299
 20
4.542606329053991
 10
17.88043362639296
 20
4.54078721334798
 10
17.87672817059895
 20
4.539015544191981
 10
17.87329054641396
 20
4.537422862102997
 10
17.86983780207296
 20
4.535871730476996
 10
17.86637129502897
 20
4.534362688176994
 10
17.86289238273397
 20
4.53289627406701
 10
17.85940242263794
 20
4.531473027010004
 10
17.85590195147096
 20
4.530093509928003
 10
17.85238782309098
 20
4.528758393695992
 10
17.84915097232095
 20
4.527574140887987
 10
17.84589591565798
 20
4.52642832634299
 10
17.84261943436698
 20
4.525321490119976
 10
17.83931830970998
 20
4.524254172278003
 10
17.83598932295298
 20
4.523226912878976
 10
17.83262925535999
 20
4.522240251981995
 10
17.82923488819498
 20
4.521294729645997
 10
17.82580523371199
 20
4.520390867932998
 10
17.82235090183798
 20
4.519529095327978
 10
17.81920127502798
 20
4.518782524350994
 10
17.816053922397
 20
4.51807136597699
 10
17.81291963933199
 20
4.517395919351993
 10
17.80980922121898
 20
4.516756483621006
 10
17.80703917183799
 20
4.516212028019988
 10
17.80460683683299
 20
4.515752934606976
 10
17.80250618634396
 20
4.515370552391995
 10
17.80072911045596
 20
4.515057233232992
 10
17.79897617130696
 20
4.514757308763986
 10
17.79724929241496
 20
4.514470842624999
 10
17.79497971168399
 20
4.514109906852977
 10
17.79216755697098
 20
4.513692647610007
 10
17.78934626542098
 20
4.513313234224993
 10
17.78734485914198
 20
4.513070259277011
 10
17.78589326630501
 20
4.512908147467008
 10
17.78441775307598
 20
4.51275559586099
 10
17.78321681537397
 20
4.512640453002997
 10
17.78199490387396
 20
4.512531454525995
 10
17.78074950091098
 20
4.512428611920993
 10
17.77979851788398
 20
4.51235552666901
 10
17.778831842583
 20
4.512285915405012
 10
17.77784841286696
 20
4.512219782976978
 10
17.77684716659698
 20
4.512157134229991
 10
17.77582704163298
 20
4.51209797401199
 10
17.77478697583598
 20
4.512042307171011
 10
17.77372590706397
 20
4.511990138552986
 10
17.77264277317897
 20
4.511941473006
 10
17.77153651203896
 20
4.511896315378008
 10
17.77040606150601
 20
4.511854670513993
 10
17.76925035943995
 20
4.511816543262993
 10
17.76806834369998
 20
4.511781938470986
 10
17.76685987073398
 20
4.511750860772986
 10
17.76483578723897
 20
4.511706903817009
 10
17.76404766955099
 20
4.511692062956994
 10
17.76328482797098
 20
4.511678787955981
 10
17.76255591677496
 20
4.51166707818001
 10
17.76186959024298
 20
4.511656932990999
 10
17.76123450264998
 20
4.511648351753988
 10
17.76065930827498
 20
4.511641333834002
 10
17.76015266139498
 20
4.511635878594002
 10
17.75972321628798
 20
4.51163198539899
 10
17.75937962722997
 20
4.511629653612996
 10
17.75913371628797
 20
4.511628882650992
  0
LWPOLYLINE
  5
279
330
1E
100
AcDbEntity
  8
1
100
AcDbPolyline
 90
      159
 70
     0
 43
0.0
 10
17.80332962709997
 20
-5.653413642700003
 10
17.80347059909198
 20
-5.653414154301004
 10
17.80363648775998
 20
-5.653415678032986
 10
17.80382666285297
 20
-5.653418213867977
 10
17.804040494123
 20
-5.653421761776995
 10
17.80427735131999
 20
-5.653426321731982
 10
17.80453660419595
 20
-5.653431893702016
 10
17.80481762250198
 20
-5.653438477660016
 10
17.80511977598698
 20
-5.653446073576017
 10
17.80544243440298
 20
-5.653454681422005
 10
17.80578496750098
 20
-5.653464301169011
 10
17.80614674503095
 20
-5.653474932788013
 10
17.80652713674498
 20
-5.653486576250002
 10
17.80692551239297
 20
-5.653499231525985
 10
17.80734124172698
 20
-5.653512898587987
 10
17.807773694496
 20
-5.653527577406007
 10
17.80822224045095
 20
-5.653543267952017
 10
17.80868624934399
 20
-5.653559970198017
 10
17.80916509092596
 20
-5.653577684113002
 10
17.80965813494696
 20
-5.653596409669003
 10
17.810164751157
 20
-5.653616146838003
 10
17.81068430930901
 20
-5.653636895589982
 10
17.81121617915198
 20
-5.653658655896975
 10
17.81175973043798
 20
-5.653681427730019
 10
17.81231433291596
 20
-5.653705211060012
 10
17.81316557895198
 20
-5.653742782549017
 10
17.81403814502098
 20
-5.653782629743004
 10
17.81492990403296
 20
-5.653824752546994
 10
17.81583872889598
 20
-5.653869150861027
 10
17.81676249251898
 20
-5.653915824590003
 10
17.81769906781198
 20
-5.653964773634982
 10
17.81896408767999
 20
-5.654033578241013
 10
17.82056439279897
 20
-5.654125271696018
 10
17.824435145969
 20
-5.654371117636003
 10
17.82603591503496
 20
-5.654484294675
 10
17.827301502555
 20
-5.654579385078986
 10
17.82823861820898
 20
-5.654653356181002
 10
17.82916302671398
 20
-5.654729601423977
 10
17.83007340586896
 20
-5.654808119791995
 10
17.83097000632294
 20
-5.654888908473027
 10
17.83185326251197
 20
-5.654971964445993
 10
17.83272360887699
 20
-5.655057284688976
 10
17.83358147985596
 20
-5.655144866179997
 10
17.83442730988697
 20
-5.655234705898008
 10
17.83553710378098
 20
-5.655357999762999
 10
17.83662729366198
 20
-5.655485295719982
 10
17.83769890931097
 20
-5.655616586607011
 10
17.83875298050798
 20
-5.655751865260012
 10
17.83979053703398
 20
-5.655891124518007
 10
17.84081260867
 20
-5.656034357218004
 10
17.84182022519599
 20
-5.656181556198986
 10
17.84306098716098
 20
-5.656371121594986
 10
17.84428278333998
 20
-5.656566859122986
 10
17.845487625022
 20
-5.656768754795987
 10
17.84691388700197
 20
-5.657019138657005
 10
17.84855529937098
 20
-5.657322403275999
 10
17.85086851476498
 20
-5.657776395399026
 10
17.85361573927298
 20
-5.658353277477997
 10
17.85635798613498
 20
-5.658964985863007
 10
17.859123059425
 20
-5.659611327172003
 10
17.86122656013697
 20
-5.660118694520007
 10
17.86359446069098
 20
-5.660705055987022
 10
17.86623130965796
 20
-5.661377423597004
 10
17.86913953943598
 20
-5.662143445017021
 10
17.87207333665098
 20
-5.662943219520997
 10
17.87502501101396
 20
-5.663776550936007
 10
17.87798687223696
 20
-5.664643243088987
 10
17.88119813147696
 20
-5.665619578730995
 10
17.88440254319596
 20
-5.666634587258982
 10
17.88759032986797
 20
-5.667688019257012
 10
17.89075199143098
 20
-5.668779610381987
 10
17.89388374254496
 20
-5.669908788860992
 10
17.89698716493598
 20
-5.671074694191017
 10
17.90029968356498
 20
-5.672370357934996
 10
17.903583658194
 20
-5.67370651647499
 10
17.90684132395696
 20
-5.675082081101011
 10
17.91030502471198
 20
-5.676598392132972
 10
17.91374383891897
 20
-5.678157350879017
 10
17.91738757437498
 20
-5.679865738717012
 10
17.92100929789198
 20
-5.681619767011992
 10
17.92438631656398
 20
-5.683306357605997
 10
17.92774656474196
 20
-5.685035420551004
 10
17.93086851176096
 20
-5.686688957311019
 10
17.93397746509298
 20
-5.688382213003992
 10
17.93685339728098
 20
-5.689991234625012
 10
17.93971942244198
 20
-5.691636687894997
 10
17.94257616491796
 20
-5.693319624464978
 10
17.94520545884398
 20
-5.694907283063002
 10
17.94782777971598
 20
-5.696528496615003
 10
17.95087592909796
 20
-5.698459646080007
 10
17.95455251873798
 20
-5.700852170674012
 10
17.95840402545598
 20
-5.703428422998994
 10
17.96157167499899
 20
-5.705597965289002
 10
17.96427973930298
 20
-5.707487383905005
 10
17.96674422451597
 20
-5.70923361445
 10
17.96897011778996
 20
-5.710832050798982
 10
17.97096343934398
 20
-5.71228017470699
 10
17.97273086455396
 20
-5.713577111277997
 10
17.97447145346396
 20
-5.714866037526007
 10
17.97656488509798
 20
-5.716432940302013
 10
17.97993660665198
 20
-5.719004794729016
 10
17.982353722602
 20
-5.720892980065996
 10
17.98402929777401
 20
-5.722226838099032
 10
17.985525886944
 20
-5.723436747829027
 10
17.98684446518294
 20
-5.724517823279
 10
17.98798369044495
 20
-5.725463491894004
 10
17.98913314427798
 20
-5.726428724377027
 10
17.99029463304198
 20
-5.727415411099996
 10
17.991273036898
 20
-5.728255402499997
 10
17.99226209811196
 20
-5.729112699401015
 10
17.99326286203196
 20
-5.729988395767009
 10
17.994276374007
 20
-5.730883585564012
 10
17.99530367938398
 20
-5.731799362755992
 10
17.99613615741
 20
-5.732547542578998
 10
17.99697866745497
 20
-5.733310158582982
 10
17.99783174473796
 20
-5.734087770877978
 10
17.99869592447595
 20
-5.734880939573031
 10
17.99957174188799
 20
-5.735690224780002
 10
18.00045967875398
 20
-5.736516129617997
 10
18.00135903015398
 20
-5.737357891656983
 10
18.00249641878298
 20
-5.738429335293997
 10
18.00387570105296
 20
-5.739737988774978
 10
18.00572858213001
 20
-5.741510366032004
 10
18.00919540428498
 20
-5.744864748020999
 10
18.01056121135497
 20
-5.746198327660037
 10
18.01168311124698
 20
-5.747298422055022
 10
18.01278622332395
 20
-5.748384032516011
 10
18.013652669235
 20
-5.749239394704997
 10
18.01450277690298
 20
-5.750080862466007
 10
18.01533462897596
 20
-5.750906380372017
 10
18.01594538438999
 20
-5.751513815241994
 10
18.01654398363996
 20
-5.752110255005987
 10
18.01712961784098
 20
-5.752694832532992
 10
18.01770147811296
 20
-5.753266680688025
 10
18.01825875557097
 20
-5.753824932339027
 10
18.01880064133398
 20
-5.754368720352034
 10
18.01932632651798
 20
-5.754897177593987
 10
18.01983500224094
 20
-5.755409436931982
 10
18.02032585961995
 20
-5.755904631231002
 10
18.02079808977294
 20
-5.756381893360012
 10
18.02125088381598
 20
-5.756840356184
 10
18.02168343286798
 20
-5.757279152569992
 10
18.02209492804396
 20
-5.75769741538502
 10
18.02248456046296
 20
-5.758094277495986
 10
18.022731769985
 20
-5.758346534742002
 10
18.02296866355298
 20
-5.758588638242994
 10
18.02319500149798
 20
-5.758820331069982
 10
18.02341054415196
 20
-5.759041356295997
 10
18.023615051846
 20
-5.759251456990996
 10
18.02380828491098
 20
-5.759450376227986
 10
18.02399000367696
 20
-5.759637857076996
 10
18.02415996847696
 20
-5.759813642610994
 10
18.02431793963995
 20
-5.759977475901989
 10
18.02446367749796
 20
-5.760129100018987
 10
18.024596942382
 20
-5.760268258036004
 10
18.02471749462299
 20
-5.760394693025006
 10
18.024825094552
 20
-5.760508148055007
 10
18.02491950249996
 20
-5.760608366199987
 10
18.024917767466
 20
-5.760606516978982
  0
LWPOLYLINE
  5
31A
330
1E
100
AcDbEntity
  8
1
100
AcDbPolyline
 90
      174
 70
     0
 43
0.0
 10
17.75913054849996
 20
4.511628882600003
 10
17.75908132867098
 20
4.511629063053985
 10
17.75902097582396
 20
4.511629600046001
 10
17.75894967508696
 20
4.511630493045002
 10
17.75886761159296
 20
4.511631741521993
 10
17.75877497047298
 20
4.511633344943985
 10
17.75867193685598
 20
4.511635302782988
 10
17.75855869587496
 20
4.511637614505016
 10
17.75843543265898
 20
4.511640279581994
 10
17.75830233233994
 20
4.511643297481978
 10
17.75815958004898
 20
4.511646667674993
 10
17.75800736091596
 20
4.51165038962901
 10
17.75784586007296
 20
4.511654462813991
 10
17.757675262649
 20
4.511658886699985
 10
17.75749575377699
 20
4.511663660755002
 10
17.757307518586
 20
4.511668784449992
 10
17.75711074220795
 20
4.511674257251993
 10
17.75690560977398
 20
4.511680078631995
 10
17.75669230641496
 20
4.511686248057996
 10
17.75647101725999
 20
4.511692765000985
 10
17.75624192744197
 20
4.511699628927995
 10
17.75600522209097
 20
4.511706839309992
 10
17.75576108633798
 20
4.511714395615994
 10
17.75550970531298
 20
4.511722297314999
 10
17.75525126414896
 20
4.51173054387601
 10
17.75498594797396
 20
4.511739134768985
 10
17.75471394192194
 20
4.511748069463004
 10
17.75443543112098
 20
4.511757347425993
 10
17.75415060070301
 20
4.511766968129988
 10
17.75385963579998
 20
4.511776931040996
 10
17.75341209125596
 20
4.51179251588999
 10
17.75295178548097
 20
4.511808867722007
 10
17.75247934328898
 20
4.511825984746988
 10
17.75199538949896
 20
4.511843865173996
 10
17.75150054892498
 20
4.51186250721099
 10
17.75099544638598
 20
4.511881909067992
 10
17.75048070669798
 20
4.511902068951995
 10
17.74995695467699
 20
4.511922985073992
 10
17.74942481514
 20
4.511944655640998
 10
17.74888491290396
 20
4.511967078862991
 10
17.74833787278498
 20
4.511990252948007
 10
17.74759846251696
 20
4.512022316642001
 10
17.74684895451199
 20
4.512055707772986
 10
17.74609082981598
 20
4.512090422097001
 10
17.74513331300896
 20
4.512135669270998
 10
17.74377956605801
 20
4.512202461760009
 10
17.73989335703498
 20
4.512415262094999
 10
17.73874204544096
 20
4.512485390618988
 10
17.737794325316
 20
4.512546029274996
 10
17.73704589417996
 20
4.512595973065
 10
17.73630758905397
 20
4.512647186841998
 10
17.73557966038498
 20
4.512699674495988
 10
17.73486184962797
 20
4.512753443277998
 10
17.73415389536397
 20
4.512808500463986
 10
17.73345553617398
 20
4.512864853323006
 10
17.73276651063798
 20
4.51292250912999
 10
17.732086557336
 20
4.512981475156006
 10
17.731415414851
 20
4.513041758674001
 10
17.73075282176199
 20
4.513103366957007
 10
17.73009851665099
 20
4.513166307277
 10
17.72945223809698
 20
4.513230586905988
 10
17.728655278996
 20
4.513312830924998
 10
17.72786994233996
 20
4.513397193181985
 10
17.72709571754399
 20
4.513483687881999
 10
17.726332094024
 20
4.513572329227
 10
17.72557856119497
 20
4.513663131422985
 10
17.72483460847297
 20
4.513756108673985
 10
17.72395379204396
 20
4.513870572444996
 10
17.72308515343698
 20
4.513988213291978
 10
17.72222781036298
 20
4.514109055760995
 10
17.72124067600496
 20
4.514254117879998
 10
17.72026631418296
 20
4.514403610143997
 10
17.71916660039698
 20
4.514579933112994
 10
17.71780965852897
 20
4.514808634047992
 10
17.71606872623198
 20
4.515119903416999
 10
17.713817622476
 20
4.515551142547987
 10
17.71157692468596
 20
4.516010316683004
 10
17.70945956587101
 20
4.516468499037981
 10
17.70772136035096
 20
4.516859678211998
 10
17.70636728296798
 20
4.517172289198978
 10
17.70499526763899
 20
4.517495066713988
 10
17.70346671229899
 20
4.517861363454981
 10
17.70177887993797
 20
4.518273649082001
 10
17.69964398725095
 20
4.518806372020971
 10
17.69676414890597
 20
4.51954400347699
 10
17.69313147345894
 20
4.520504472362001
 10
17.688616612374
 20
4.521744003730016
 10
17.68500196944096
 20
4.522773538304986
 10
17.68271541543298
 20
4.523442607758992
 10
17.68087923445301
 20
4.523990410880996
 10
17.67934393227998
 20
4.524456006133986
 10
17.677965016781
 20
4.524880338945986
 10
17.67673925449798
 20
4.525262687171986
 10
17.67552890754494
 20
4.525645278370997
 10
17.67406837826198
 20
4.526114482481004
 10
17.67223341513098
 20
4.526717399955994
 10
17.66938522351798
 20
4.527687907769003
 10
17.66732500793196
 20
4.528419981446002
 10
17.66564834415197
 20
4.529036262984986
 10
17.66409228194294
 20
4.529625547883993
 10
17.66278554644796
 20
4.530133666207997
 10
17.66146648207498
 20
4.530659011584985
 10
17.66026628599098
 20
4.531147891458003
 10
17.65905145401001
 20
4.531653220236986
 10
17.657957535988
 20
4.532117165745999
 10
17.656848766823
 20
4.532595871765008
 10
17.65586519522297
 20
4.533027500284985
 10
17.65486803269297
 20
4.533471621384988
 10
17.65400171919097
 20
4.533862661194999
 10
17.65312400663096
 20
4.534263637939
 10
17.65223424245098
 20
4.534674901791985
 10
17.65133177408995
 20
4.535096802926996
 10
17.65056954174801
 20
4.535456765543012
 10
17.64979765624898
 20
4.535824560984986
 10
17.64901573995398
 20
4.536200391899994
 10
17.64822341522298
 20
4.536584460935981
 10
17.64742030441496
 20
4.536976970739995
 10
17.64660627172499
 20
4.537377982923994
 10
17.64578227549697
 20
4.537786921001978
 10
17.64478211298796
 20
4.538287043210995
 10
17.64360235255398
 20
4.538881821912011
 10
17.64189948251696
 20
4.539748675042001
 10
17.63915527500596
 20
4.541163800453002
 10
17.63676268484498
 20
4.542413512400994
 10
17.63541039477895
 20
4.543125693720978
 10
17.63440726601698
 20
4.543656530345994
 10
17.63341607582796
 20
4.544183085745997
 10
17.63260078408896
 20
4.544617667963986
 10
17.63179657186796
 20
4.545047611988988
 10
17.63116203120699
 20
4.545387719089967
 10
17.63053604177398
 20
4.545723985827999
 10
17.62991925261099
 20
4.546056024685978
 10
17.62931231275494
 20
4.546383448141993
 10
17.62871587124598
 20
4.546705868678995
 10
17.62813057712298
 20
4.547022898776985
 10
17.62769931244196
 20
4.547256900756988
 10
17.62727495706298
 20
4.547487489151987
 10
17.62685778480096
 20
4.547714500475988
 10
17.62644806946896
 20
4.547937771243992
 10
17.62604608487998
 20
4.548157137972988
 10
17.62565210484797
 20
4.548372437175997
 10
17.62526640318596
 20
4.548583505370997
 10
17.62488925370896
 20
4.548790179070972
 10
17.62452093022798
 20
4.548992294793005
 10
17.62416170655898
 20
4.549189689050988
 10
17.62381185651397
 20
4.549382198360998
 10
17.62347165390596
 20
4.54956965923901
 10
17.62314137255001
 20
4.549751908198996
 10
17.62282128625801
 20
4.549928781758008
 10
17.62251166884496
 20
4.55010011643
 10
17.62221279412298
 20
4.550265748729994
 10
17.62192493590696
 20
4.550425515174991
 10
17.62164836800897
 20
4.550579252278991
 10
17.62138336424297
 20
4.550726796557991
 10
17.621130198423
 20
4.550867984527
 10
17.62088914436198
 20
4.55100265270198
 10
17.62066047587298
 20
4.55113063759799
 10
17.62044446677098
 20
4.551251775728978
 10
17.62024139086799
 20
4.551365903612999
 10
17.62011332725898
 20
4.551438013551997
 10
17.619991214565
 20
4.551506886726992
 10
17.61987513391398
 20
4.551572474695005
 10
17.61976516643598
 20
4.551634729017986
 10
17.61966139326099
 20
4.551693601255972
 10
17.61956389551897
 20
4.551749042967996
 10
17.61947275434097
 20
4.55180100571499
 10
17.61938805085498
 20
4.551849441056985
 10
17.61930986619197
 20
4.551894300553978
 10
17.619238281483
 20
4.551935535765971
 10
17.61917337785498
 20
4.551973098252996
 10
17.61911523644098
 20
4.552006939575986
 10
17.61906393836898
 20
4.552037011293999
 10
17.61901956476896
 20
4.552063264967012
 10
17.61900127007999
 20
4.55207418418399
  0
LWPOLYLINE
  5
3CA
330
1E
100
AcDbEntity
  8
1
100
AcDbPolyline
 90
      146
 70
     0
 43
0.0
 10
22.381
 20
-5.722045752000012
 10
22.38093137073599
 20
-5.721992960658982
 10
22.38085249608996
 20
-5.721932747850987
 10
22.38076352512698
 20
-5.72186522932603
 10
22.38066460691098
 20
-5.721790520838995
 10
22.38055589050497
 20
-5.721708738139003
 10
22.38043752497199
 20
-5.721619996980026
 10
22.38030965937695
 20
-5.721524413113032
 10
22.38017244278299
 20
-5.721422102290008
 10
22.38002602425399
 20
-5.721313180262995
 10
22.37987055285298
 20
-5.721197762784982
 10
22.37970617764398
 20
-5.721075965606987
 10
22.37953304769098
 20
-5.720947904481022
 10
22.37935131205698
 20
-5.720813695158996
 10
22.37916111980597
 20
-5.720673453393032
 10
22.37896262000196
 20
-5.720527294935012
 10
22.37875596170797
 20
-5.720375335536997
 10
22.37843100317499
 20
-5.720136772886009
 10
22.37808852652398
 20
-5.719885809225018
 10
22.37772903484398
 20
-5.719622835215996
 10
22.37735303122498
 20
-5.719348241524017
 10
22.37696101875698
 20
-5.719062418810009
 10
22.37655350052997
 20
-5.71876575773899
 10
22.37613097963297
 20
-5.718458648972019
 10
22.37569395915699
 20
-5.718141483171988
 10
22.37524294219098
 20
-5.717814651003013
 10
22.37477843182497
 20
-5.717478543128009
 10
22.37430093114898
 20
-5.717133550209013
 10
22.37381094325296
 20
-5.716780062910005
 10
22.37330897122598
 20
-5.716418471892013
 10
22.37279551815898
 20
-5.71604916782002
 10
22.37227108714198
 20
-5.715672541357013
 10
22.37173618126297
 20
-5.715288983163987
 10
22.37119130361398
 20
-5.714898883904994
 10
22.37063695728398
 20
-5.714502634244015
 10
22.36988396932197
 20
-5.713965409287995
 10
22.36911623503995
 20
-5.713418870810017
 10
22.36833494694896
 20
-5.712863944825017
 10
22.36754129755599
 20
-5.712301557350995
 10
22.36653366944898
 20
-5.711589491013002
 10
22.36551091922398
 20
-5.710869021622017
 10
22.36426693716097
 20
-5.709995912864004
 10
22.36279771089396
 20
-5.708969453600017
 10
22.35769939114598
 20
-5.70545251230098
 10
22.35600997666898
 20
-5.704305082725
 10
22.35475611814198
 20
-5.703460373174013
 10
22.35372312565999
 20
-5.702769354812004
 10
22.35270342631996
 20
-5.702091998617022
 10
22.35169897360797
 20
-5.701429823833992
 10
22.35070975324498
 20
-5.700782833797007
 10
22.34973510879296
 20
-5.700150537137004
 10
22.34877438345898
 20
-5.699532442210993
 10
22.34782692044797
 20
-5.698928057372995
 10
22.34689206296596
 20
-5.698336890982004
 10
22.34578594851797
 20
-5.697644247425983
 10
22.34469590530696
 20
-5.696969080904014
 10
22.34362079839198
 20
-5.69631054185601
 10
22.34255949283098
 20
-5.695667780721007
 10
22.34151085368398
 20
-5.695039947938996
 10
22.34030193615696
 20
-5.694325210735995
 10
22.33910691200198
 20
-5.69362828726298
 10
22.33775587048696
 20
-5.692851885437987
 10
22.33641793123797
 20
-5.692094974701008
 10
22.33492506123095
 20
-5.691264240680993
 10
22.33311275088798
 20
-5.690274755985002
 10
22.33097936886698
 20
-5.689135285460023
 10
22.32752431229698
 20
-5.687342012149003
 10
22.32519428843997
 20
-5.686163614825998
 10
22.32333751928796
 20
-5.685239046001012
 10
22.32162448476699
 20
-5.684395643387007
 10
22.31988811900797
 20
-5.683549839709995
 10
22.31795323337697
 20
-5.682618150008012
 10
22.31581534390298
 20
-5.681602067824027
 10
22.313289274536
 20
-5.680419803068017
 10
22.31036612984098
 20
-5.679076947838012
 10
22.30666826419497
 20
-5.677418213360025
 10
22.30237219011698
 20
-5.675549872102013
 10
22.29880239953597
 20
-5.67404823160598
 10
22.29579098456397
 20
-5.672819662252012
 10
22.29315796972098
 20
-5.671775857930982
 10
22.29052985768498
 20
-5.670763763689992
 10
22.28790421500498
 20
-5.669783225824998
 10
22.28527770652998
 20
-5.668833647561003
 10
22.28245884042499
 20
-5.667849919952003
 10
22.27963104971996
 20
-5.666900313620996
 10
22.27679023232596
 20
-5.66598409455901
 10
22.27393228615298
 20
-5.665100528760008
 10
22.27086030862897
 20
-5.664193222705987
 10
22.26775919668097
 20
-5.663321342858012
 10
22.26462397189296
 20
-5.662483998401997
 10
22.26184896002698
 20
-5.661778967841993
 10
22.25844404501597
 20
-5.660957402452994
 10
22.255218566108
 20
-5.660219413331987
 10
22.25198793683298
 20
-5.659516286948018
 10
22.24876692036397
 20
-5.658848691379004
 10
22.24557027987597
 20
-5.658217294700988
 10
22.24300114932998
 20
-5.657731400341987
 10
22.24085331854797
 20
-5.65733953402599
 10
22.23911733132196
 20
-5.657032219693973
 10
22.23759263423397
 20
-5.656769206497985
 10
22.23608717959096
 20
-5.656515838030997
 10
22.23478714232598
 20
-5.656302117962981
 10
22.23350448671096
 20
-5.656095902022999
 10
22.23224044451298
 20
-5.655897246114991
 10
22.23099476444298
 20
-5.655706192574004
 10
22.22923927384496
 20
-5.655446463861014
 10
22.22680681792598
 20
-5.655108964630016
 10
22.224371895432
 20
-5.654801971099996
 10
22.22261162269996
 20
-5.654601386089015
 10
22.22136109757298
 20
-5.654470254458005
 10
22.22027335931198
 20
-5.654363940976
 10
22.21935360744998
 20
-5.654279639229998
 10
22.21842004831299
 20
-5.65419924172801
 10
22.21747107563396
 20
-5.654122750043002
 10
22.216699720327
 20
-5.654064369938994
 10
22.21591664992998
 20
-5.654008491369014
 10
22.21512104203398
 20
-5.653955115139011
 10
22.21431207423
 20
-5.653904242053982
 10
22.21348892410698
 20
-5.653855872918002
 10
22.21265076925499
 20
-5.653810008536996
 10
22.21201181153297
 20
-5.653777254481015
 10
22.21136360409099
 20
-5.653745910143016
 10
22.21070579997598
 20
-5.65371597586102
 10
22.21003805223298
 20
-5.65368745197699
 10
22.20936001390898
 20
-5.653660338829013
 10
22.20867133804898
 20
-5.653634636757005
 10
22.20797167769898
 20
-5.653610346101006
 10
22.20726068590598
 20
-5.653587467199995
 10
22.20653801571399
 20
-5.653566000394024
 10
22.20580332016996
 20
-5.653545946024022
 10
22.20505625231996
 20
-5.653527304427997
 10
22.20429646520897
 20
-5.653510075946997
 10
22.20352361188397
 20
-5.653494260918987
 10
22.20273734539095
 20
-5.653479859686004
 10
22.20193731877498
 20
-5.653466872584997
 10
22.20004838796398
 20
-5.653442071217003
 10
22.19952883268296
 20
-5.653436400765005
 10
22.19903075751497
 20
-5.653431359886012
 10
22.19856100333096
 20
-5.653426948797007
 10
22.198126411005
 20
-5.653423167712018
 10
22.19773382140798
 20
-5.653420016847007
 10
22.19739007541396
 20
-5.653417496417007
 10
22.19710201389398
 20
-5.653415606637991
 10
22.19687647772297
 20
-5.653414347725006
 10
22.19672030777098
 20
-5.653413719892996
 10
22.19667240139398
 20
-5.653413642811017
  0
LWPOLYLINE
  5
45E
330
1E
100
AcDbEntity
  8
1
100
AcDbPolyline
 90
      174
 70
     0
 43
0.0
 10
22.24086945149996
 20
4.511628882600002
 10
22.24091867132897
 20
4.511629063053983
 10
22.24097902417596
 20
4.511629600046001
 10
22.24105032491296
 20
4.511630493044999
 10
22.24113238840698
 20
4.511631741521991
 10
22.24122502952698
 20
4.511633344943983
 10
22.24132806314397
 20
4.511635302781991
 10
22.24144130412497
 20
4.511637614505016
 10
22.24156456734097
 20
4.511640279581992
 10
22.24169766765997
 20
4.511643297481978
 10
22.24184041995098
 20
4.511646667674992
 10
22.24199263908396
 20
4.511650389629007
 10
22.24215413992796
 20
4.511654462813988
 10
22.24232473735098
 20
4.511658886699983
 10
22.24250424622295
 20
4.511663660755
 10
22.24269248141399
 20
4.511668784448994
 10
22.242889257792
 20
4.511674257251992
 10
22.24309439022599
 20
4.511680078630996
 10
22.24330769358598
 20
4.511686248057994
 10
22.24352898273996
 20
4.511692764999987
 10
22.24375807255796
 20
4.511699628927994
 10
22.24399477790897
 20
4.51170683930999
 10
22.24423891366197
 20
4.511714395614996
 10
22.24449029468698
 20
4.511722297314003
 10
22.244748735852
 20
4.511730543874985
 10
22.24501405202596
 20
4.511739134767987
 10
22.24528605807898
 20
4.511748069461983
 10
22.24556456887899
 20
4.511757347425993
 10
22.24584939929698
 20
4.511766968128992
 10
22.24614036420097
 20
4.511776931040993
 10
22.24658790874396
 20
4.511792515888
 10
22.24704821451998
 20
4.511808867721009
 10
22.24752065671097
 20
4.511825984745993
 10
22.24800461050199
 20
4.511843865172007
 10
22.24849945107498
 20
4.511862507209992
 10
22.24900455361398
 20
4.511881909065972
 10
22.24951929330297
 20
4.511902068950996
 10
22.25004304532399
 20
4.511922985072994
 10
22.25057518486099
 20
4.511944655639974
 10
22.25111508709696
 20
4.511967078861995
 10
22.25166212721596
 20
4.511990252947008
 10
22.25240153748397
 20
4.51202231663998
 10
22.25315104548896
 20
4.512055707771988
 10
22.25390917018398
 20
4.512090422094981
 10
22.25486668699096
 20
4.512135669270002
 10
22.25622043394199
 20
4.512202461758985
 10
22.26010664296496
 20
4.512415262094004
 10
22.26125795455796
 20
4.512485390617992
 10
22.26220567468299
 20
4.512546029274995
 10
22.26295410581798
 20
4.512595973064999
 10
22.26369241094498
 20
4.512647186841997
 10
22.26442033961299
 20
4.512699674495988
 10
22.26513815036998
 20
4.51275344327899
 10
22.26584610463399
 20
4.512808500464981
 10
22.26654446382396
 20
4.512864853324993
 10
22.26723348935898
 20
4.512922509132003
 10
22.26791344265997
 20
4.512981475158988
 10
22.26858458514498
 20
4.513041758677013
 10
22.26924717823397
 20
4.513103366960018
 10
22.26990148334498
 20
4.513166307280013
 10
22.27054776189797
 20
4.513230586909995
 10
22.271344720998
 20
4.51331283093
 10
22.27213005765398
 20
4.513397193188009
 10
22.27290428244895
 20
4.513483687887995
 10
22.27366790596894
 20
4.513572329233988
 10
22.27442143879698
 20
4.513663131430997
 10
22.27516539151896
 20
4.513756108681998
 10
22.27604620794698
 20
4.513870572453978
 10
22.27691484655298
 20
4.513988213302006
 10
22.27777218962798
 20
4.514109055771993
 10
22.27875932398398
 20
4.514254117891991
 10
22.27973368580598
 20
4.514403610156985
 10
22.28083339959197
 20
4.514579933127005
 10
22.28219034145797
 20
4.514808634062996
 10
22.28393127375396
 20
4.515119903433995
 10
22.28618237750997
 20
4.515551142566999
 10
22.28842307529999
 20
4.516010316702985
 10
22.29054043411598
 20
4.516468499057988
 10
22.29227863963696
 20
4.516859678232998
 10
22.29363271702097
 20
4.517172289219981
 10
22.29500473235098
 20
4.517495066734991
 10
22.29653328769296
 20
4.517861363473993
 10
22.29822112005499
 20
4.518273649100986
 10
22.30035601274396
 20
4.518806372037997
 10
22.30323585108995
 20
4.519544003491001
 10
22.306868526539
 20
4.520504472371012
 10
22.31138338762496
 20
4.52174400373499
 10
22.31499803055896
 20
4.522773538305981
 10
22.31728458456696
 20
4.52344260775899
 10
22.31912076554599
 20
4.52399041088
 10
22.32065606771997
 20
4.524456006132988
 10
22.32203498321795
 20
4.524880338944993
 10
22.32326074549998
 20
4.525262687171985
 10
22.32447109245295
 20
4.525645278370996
 10
22.32593162173595
 20
4.526114482482991
 10
22.32776658486498
 20
4.526717399960001
 10
22.33061477647598
 20
4.527687907776988
 10
22.33267499206096
 20
4.528419981457995
 10
22.33435165583998
 20
4.529036263001978
 10
22.33590771804898
 20
4.529625547904
 10
22.33721445354197
 20
4.530133666230992
 10
22.33853351791597
 20
4.530659011610023
 10
22.33973371399997
 20
4.531147891485995
 10
22.34094854597996
 20
4.531653220267994
 10
22.34204246400198
 20
4.532117165778995
 10
22.34315123316699
 20
4.532595871799995
 10
22.34413480476697
 20
4.533027500321988
 10
22.34513196729797
 20
4.533471621423981
 10
22.34599828080098
 20
4.533862661236009
 10
22.34687599336098
 20
4.534263637980978
 10
22.34776575754199
 20
4.534674901834983
 10
22.34866822590399
 20
4.535096802971988
 10
22.34943045824697
 20
4.535456765588002
 10
22.35020234374599
 20
4.535824561031001
 10
22.35098426004199
 20
4.536200391947001
 10
22.35177658477399
 20
4.536584460983982
 10
22.35257969558298
 20
4.536976970788993
 10
22.35339372827497
 20
4.537377982972993
 10
22.35421772450297
 20
4.537786921051004
 10
22.35521788701399
 20
4.538287043259995
 10
22.35639764744901
 20
4.538881821961007
 10
22.35810051748696
 20
4.539748675089978
 10
22.36084472499896
 20
4.541163800498988
 10
22.36323731516198
 20
4.542413512443996
 10
22.36458960522799
 20
4.543125693760992
 10
22.36559273398998
 20
4.543656530383993
 10
22.36658392417898
 20
4.544183085783001
 10
22.36739921591696
 20
4.544617667999003
 10
22.36820342813797
 20
4.545047612021985
 10
22.368837968799
 20
4.545387719121003
 10
22.36946395823096
 20
4.54572398585898
 10
22.37008074739498
 20
4.546056024714
 10
22.37068768725098
 20
4.546383448168993
 10
22.37128412875998
 20
4.546705868705
 10
22.37186942288198
 20
4.547022898800999
 10
22.37230068756298
 20
4.547256900781002
 10
22.37272504294199
 20
4.547487489174012
 10
22.37314221520398
 20
4.547714500496991
 10
22.37355193053596
 20
4.547937771264
 10
22.37395391512496
 20
4.548157137992003
 10
22.37434789515595
 20
4.548372437194013
 10
22.37473359681797
 20
4.548583505387992
 10
22.37511074629498
 20
4.548790179086974
 10
22.37547906977496
 20
4.548992294808011
 10
22.37583829344498
 20
4.549189689064998
 10
22.37618814348996
 20
4.549382198374017
 10
22.37652834609697
 20
4.549569659251
 10
22.37685862745296
 20
4.549751908209994
 10
22.37717871374397
 20
4.549928781767983
 10
22.37748833115698
 20
4.550100116439009
 10
22.377787205879
 20
4.550265748739004
 10
22.37807506409498
 20
4.550425515182973
 10
22.37835163199297
 20
4.55057925228598
 10
22.37861663575797
 20
4.550726796563988
 10
22.37886980157797
 20
4.550867984532994
 10
22.37911085563899
 20
4.551002652707007
 10
22.379339524128
 20
4.551130637601997
 10
22.37955553322998
 20
4.55125177573299
 10
22.37975860913298
 20
4.55136590361499
 10
22.37988667274098
 20
4.551438013554983
 10
22.38000878543598
 20
4.551506886728983
 10
22.38012486608699
 20
4.551572474696992
 10
22.38023483356497
 20
4.551634729019976
 10
22.38033860673896
 20
4.551693601256995
 10
22.38043610448098
 20
4.551749042968988
 10
22.38052724565898
 20
4.551801005715983
 10
22.38061194914497
 20
4.551849441058005
 10
22.38069013380797
 20
4.551894300553978
 10
22.38076171851699
 20
4.551935535765971
 10
22.38082662214498
 20
4.551973098252995
 10
22.38088476355897
 20
4.552006939575985
 10
22.38093606163098
 20
4.552037011293998
 10
22.38098043523098
 20
4.552063264967012
 10
22.38099872991998
 20
4.55207418418399
  0
LWPOLYLINE
  5
50E
330
1E
100
AcDbEntity
  8
1
100
AcDbPolyline
 90
      146
 70
     0
 43
0.0
 10
17.61899999999998
 20
-5.722045752000012
 10
17.61906862926396
 20
-5.721992960658982
 10
17.61914750390996
 20
-5.721932747849987
 10
17.61923647487196
 20
-5.721865229326027
 10
17.61933539308898
 20
-5.721790520837997
 10
17.61944410949499
 20
-5.721708738138003
 10
17.61956247502701
 20
-5.721619996979002
 10
17.61969034062298
 20
-5.721524413111013
 10
17.61982755721698
 20
-5.721422102288014
 10
17.61997397574599
 20
-5.721313180261007
 10
17.62012944714697
 20
-5.721197762782027
 10
17.62029382235598
 20
-5.721075965604027
 10
17.62046695230898
 20
-5.720947904477012
 10
17.620648687943
 20
-5.720813695154987
 10
17.62083888019394
 20
-5.720673453387972
 10
17.62103737999797
 20
-5.720527294930007
 10
17.62124403829198
 20
-5.720375335531996
 10
17.62156899682398
 20
-5.720136772878987
 10
17.62191147347498
 20
-5.719885809217002
 10
17.62227096515498
 20
-5.719622835206988
 10
17.62264696877396
 20
-5.719348241514014
 10
17.62303898124199
 20
-5.719062418799014
 10
17.62344649946899
 20
-5.718765757726034
 10
17.62386902036598
 20
-5.718458648956981
 10
17.62430604084194
 20
-5.718141483156016
 10
17.62475705780798
 20
-5.717814650985982
 10
17.62522156817396
 20
-5.717478543109022
 10
17.62569906884996
 20
-5.717133550189005
 10
17.62618905674596
 20
-5.716780062888002
 10
17.62669102877199
 20
-5.716418471869017
 10
17.62720448183898
 20
-5.716049167796027
 10
17.62772891285598
 20
-5.715672541329977
 10
17.62826381873398
 20
-5.715288983135992
 10
17.62880869638398
 20
-5.714898883876005
 10
17.629363042714
 20
-5.714502634212977
 10
17.63011603067499
 20
-5.713965409254995
 10
17.63088376495596
 20
-5.713418870775003
 10
17.63166505304798
 20
-5.71286394478801
 10
17.63245870243997
 20
-5.712301557311008
 10
17.63346633054698
 20
-5.711589490971987
 10
17.63448908077095
 20
-5.710869021577992
 10
17.63573306283396
 20
-5.709995912816991
 10
17.637202289099
 20
-5.708969453550992
 10
17.64230060884396
 20
-5.705452512246012
 10
17.64399002331896
 20
-5.704305082667985
 10
17.64524388184397
 20
-5.703460373116997
 10
17.64627687432596
 20
-5.702769354756012
 10
17.64729657366396
 20
-5.702091998561031
 10
17.648301026376
 20
-5.701429823778996
 10
17.64929024673796
 20
-5.700782833743001
 10
17.65026489118898
 20
-5.700150537084001
 10
17.65122561652197
 20
-5.699532442159012
 10
17.65217307953196
 20
-5.698928057323
 10
17.653107937014
 20
-5.698336890933003
 10
17.65421405146196
 20
-5.697644247379002
 10
17.655304094673
 20
-5.696969080860013
 10
17.65637920158896
 20
-5.696310541813999
 10
17.65744050714999
 20
-5.695667780680992
 10
17.658489146297
 20
-5.695039947901986
 10
17.65969806382496
 20
-5.694325210702004
 10
17.66089308798098
 20
-5.693628287232031
 10
17.66224412949699
 20
-5.692851885410987
 10
17.66358206874794
 20
-5.692094974677019
 10
17.66507493875598
 20
-5.691264240661013
 10
17.66688724910098
 20
-5.690274755969991
 10
17.66902063112498
 20
-5.689135285450022
 10
17.67247568769897
 20
-5.687342012144996
 10
17.67480571155798
 20
-5.686163614825004
 10
17.67666248071196
 20
-5.685239046001012
 10
17.678375515232
 20
-5.684395643387972
 10
17.68011188099197
 20
-5.683549839710992
 10
17.68204676662398
 20
-5.682618150007018
 10
17.68418465609698
 20
-5.681602067821981
 10
17.68671072546297
 20
-5.680419803063017
 10
17.68963387015696
 20
-5.679076947829003
 10
17.69333173579997
 20
-5.677418213344992
 10
17.69762780987596
 20
-5.675549872080012
 10
17.70119760045398
 20
-5.674048231577982
 10
17.70420901542398
 20
-5.672819662220008
 10
17.70684203026497
 20
-5.671775857896987
 10
17.70947014229997
 20
-5.670763763653981
 10
17.71209578497996
 20
-5.669783225787996
 10
17.71472229345396
 20
-5.668833647523995
 10
17.71754115955896
 20
-5.667849919915995
 10
17.72036895026498
 20
-5.666900313585019
 10
17.72320976765994
 20
-5.665984094524986
 10
17.72606771383398
 20
-5.665100528727011
 10
17.72913969136001
 20
-5.664193222676003
 10
17.73224080330998
 20
-5.663321342830017
 10
17.73537602809898
 20
-5.662483998376981
 10
17.73815103996699
 20
-5.661778967818973
 10
17.74155595498001
 20
-5.660957402434009
 10
17.74478143388899
 20
-5.660219413315017
 10
17.74801206316496
 20
-5.659516286934007
 10
17.75123307963395
 20
-5.658848691367977
 10
17.75442972012196
 20
-5.658217294693002
 10
17.75699885066799
 20
-5.657731400335991
 10
17.75914668144998
 20
-5.657339534020992
 10
17.76088266867597
 20
-5.657032219691019
 10
17.762407365765
 20
-5.656769206496022
 10
17.76391282040696
 20
-5.656515838028981
 10
17.76521285767198
 20
-5.656302117962979
 10
17.76649551328698
 20
-5.656095902022999
 10
17.76775955548498
 20
-5.655897246114987
 10
17.76900523555498
 20
-5.655706192574994
 10
17.77076072615296
 20
-5.655446463862007
 10
17.77319318207198
 20
-5.655108964632004
 10
17.77562810456696
 20
-5.654801971100995
 10
17.77738837729899
 20
-5.654601386091003
 10
17.77863890242598
 20
-5.654470254460022
 10
17.77972664068596
 20
-5.654363940978012
 10
17.78064639254894
 20
-5.654279639231987
 10
17.78157995168498
 20
-5.654199241729997
 10
17.78252892436501
 20
-5.654122750044026
 10
17.78330027967196
 20
-5.654064369939987
 10
17.78408335006901
 20
-5.654008491371
 10
17.78487895796397
 20
-5.653955115140009
 10
17.78568792576899
 20
-5.653904242055006
 10
17.78651107589197
 20
-5.653855872918995
 10
17.78734923074398
 20
-5.653810008538017
 10
17.78798818846598
 20
-5.653777254482008
 10
17.78863639590795
 20
-5.653745910143014
 10
17.78929420002298
 20
-5.653715975862013
 10
17.78996194776598
 20
-5.65368745197699
 10
17.79063998608995
 20
-5.653660338829013
 10
17.79132866194998
 20
-5.653634636757002
 10
17.79202832229998
 20
-5.653610346101006
 10
17.792739314094
 20
-5.653587467199995
 10
17.79346198428501
 20
-5.653566000395017
 10
17.79419667982898
 20
-5.653545946024022
 10
17.79494374767898
 20
-5.653527304427997
 10
17.79570353478999
 20
-5.653510075946997
 10
17.79647638811499
 20
-5.653494260918987
 10
17.797262654609
 20
-5.653479859686002
 10
17.79806268122496
 20
-5.653466872586022
 10
17.79995161203598
 20
-5.653442071217003
 10
17.80047116731595
 20
-5.653436400765004
 10
17.80096924248496
 20
-5.653431359886012
 10
17.80143899666899
 20
-5.653426948797005
 10
17.80187358899496
 20
-5.653423167712017
 10
17.80226617859199
 20
-5.653420016847007
 10
17.80260992458598
 20
-5.653417496417007
 10
17.80289798610598
 20
-5.653415606637991
 10
17.80312352227698
 20
-5.653414347725004
 10
17.80327969222898
 20
-5.653413719892996
 10
17.80332759860598
 20
-5.653413642811017
  0
LWPOLYLINE
  5
5A2
330
1E
100
AcDbEntity
  8
1
100
AcDbPolyline
 90
       92
 70
     0
 43
0.0
 10
19.78351999999998
 20
-17.83947999999998
 10
19.77916876719097
 20
-17.83191698056898
 10
19.77509212842596
 20
-17.82483125712698
 10
19.77127736632198
 20
-17.81820072491901
 10
19.76771176349398
 20
-17.81200327919198
 10
19.76438260256099
 20
-17.80621681519298
 10
19.761277166138
 20
-17.80081922816799
 10
19.75838273684198
 20
-17.79578841336399
 10
19.75568659728898
 20
-17.79110226602699
 10
19.753176030096
 20
-17.78673868140296
 10
19.75083831788096
 20
-17.782675554739
 10
19.748660743258
 20
-17.778890781282
 10
19.74663058884598
 20
-17.77536225627702
 10
19.74473513725999
 20
-17.77206787497202
 10
19.742961671117
 20
-17.76898553261401
 10
19.74129747303296
 20
-17.76609312444701
 10
19.73972982562596
 20
-17.763368545719
 10
19.73824601151198
 20
-17.76078969167701
 10
19.73683331330798
 20
-17.75833445756697
 10
19.73547901362898
 20
-17.75598073863496
 10
19.733529242071
 20
-17.75259214704798
 10
19.72656581440199
 20
-17.74049033181
 10
19.72522087712897
 20
-17.73815296317798
 10
19.72381988193095
 20
-17.735718166943
 10
19.72235023060093
 20
-17.73316404549498
 10
19.72080551883598
 20
-17.730479467061
 10
19.71918842984898
 20
-17.727669095194
 10
19.71750237154298
 20
-17.72473885305001
 10
19.715750751819
 20
-17.72169466378796
 10
19.71393697857796
 20
-17.71854245056498
 10
19.71206445972397
 20
-17.71528813653801
 10
19.71013660315897
 20
-17.71193764486596
 10
19.70815681678296
 20
-17.70849689870499
 10
19.70509722361297
 20
-17.70317950920698
 10
19.70193995781896
 20
-17.69769236487201
 10
19.69869652107196
 20
-17.69205545635698
 10
19.69537841503996
 20
-17.68628877431996
 10
19.69199714139396
 20
-17.68041230941799
 10
19.68741039522598
 20
-17.67244080128798
 10
19.68041769443996
 20
-17.66028788698996
 10
19.66520672149496
 20
-17.63385216857298
 10
19.66062065487496
 20
-17.625881909007
 10
19.65611296287995
 20
-17.61804788130401
 10
19.65167789043096
 20
-17.610340082476
 10
19.64622504181996
 20
-17.60086349941798
 10
19.64085997828698
 20
-17.59153950926101
 10
19.63451768856398
 20
-17.58051722552798
 10
19.62618336512695
 20
-17.56603303481202
 10
19.59103984852598
 20
-17.50495768372
 10
19.57415373827496
 20
-17.475611828326
 10
18.88761284368498
 20
-16.282808376827
 10
18.87719275621194
 20
-16.26470910908099
 10
18.86795393114798
 20
-16.24866169038998
 10
18.84650441451998
 20
-16.21140518263399
 10
18.84025593100398
 20
-16.200552092288
 10
18.83496332326297
 20
-16.19135934405798
 10
18.83065950903596
 20
-16.18388408255
 10
18.82628312988495
 20
-16.17628282942902
 10
18.82182441554798
 20
-16.16853861842602
 10
18.81727359576593
 20
-16.16063448327099
 10
18.81379415930694
 20
-16.154591225409
 10
18.81025527422998
 20
-16.14844474464402
 10
18.80546318133496
 20
-16.14012168488702
 10
18.78733910483697
 20
-16.10864355992998
 10
18.78379796759098
 20
-16.10249331884102
 10
18.78032061568697
 20
-16.09645387317101
 10
18.77692243168995
 20
-16.09055193754099
 10
18.77361879816896
 20
-16.084814226572
 10
18.77147650019198
 20
-16.081093514255
 10
18.769387619144
 20
-16.07746557928502
 10
18.76735671281997
 20
-16.07393833710602
 10
18.76538833901894
 20
-16.07051970316101
 10
18.76348705553796
 20
-16.06721759289402
 10
18.76165742017598
 20
-16.06403992174701
 10
18.75990399072898
 20
-16.06099460516599
 10
18.75823132499596
 20
-16.05808955859199
 10
18.75664398077397
 20
-16.05533269746899
 10
18.75514651585998
 20
-16.05273193724102
 10
18.75374348805296
 20
-16.05029519335201
 10
18.75243942875195
 20
-16.0480303354
 10
18.75122474563698
 20
-16.04592070392601
 10
18.74825759538896
 20
-16.04076744554199
 10
18.74695928804898
 20
-16.03851259525001
 10
18.74551771356896
 20
-16.03600893238999
 10
18.74387981661095
 20
-16.03316431408001
 10
18.74199254184194
 20
-16.02988659744301
 10
18.73980283392398
 20
-16.026083639598
 10
18.73725763752297
 20
-16.02166329766601
 10
18.734303897302
 20
-16.01653342876801
 10
18.73088855792596
 20
-16.01060189002498
 10
18.72695856405998
 20
-16.00377653855598
 10
18.72479458080798
 20
-16.00001827849701
  0
LWPOLYLINE
  5
600
330
1E
100
AcDbEntity
  8
1
100
AcDbPolyline
 90
       62
 70
     0
 43
0.0
 10
19.78351999999998
 20
-17.83947999999998
 10
19.78359035988597
 20
-17.83959689846598
 10
19.78369430042596
 20
-17.839769606651
 10
19.78382915507796
 20
-17.839993693628
 10
19.78399225729899
 20
-17.840264728471
 10
19.78418094054798
 20
-17.84057828025098
 10
19.78439253828296
 20
-17.84092991804198
 10
19.78462438395997
 20
-17.84131521091596
 10
19.78487381103798
 20
-17.84172972794602
 10
19.78513815297498
 20
-17.84216903820498
 10
19.78541474322796
 20
-17.84262871076596
 10
19.78570091525497
 20
-17.84310431470002
 10
19.78599400251496
 20
-17.843591419082
 10
19.78718217302596
 20
-17.84556622253098
 10
19.78746983831196
 20
-17.84604436523798
 10
19.78774866917298
 20
-17.84650783747599
 10
19.78801833468295
 20
-17.84695608839302
 10
19.78827954243396
 20
-17.847390292395
 10
19.78853300759698
 20
-17.847811636474
 10
19.78877944534097
 20
-17.84822130762502
 10
19.78901957083498
 20
-17.84862049284001
 10
19.78936948804298
 20
-17.84920220607698
 10
19.78970922551798
 20
-17.84976700279301
 10
19.79004119696
 20
-17.85031888908801
 10
19.79058378056296
 20
-17.851220890522
 10
19.79144888133296
 20
-17.85265893835398
 10
19.79189165279694
 20
-17.853394871711
 10
19.792343671623
 20
-17.85414612401296
 10
19.79291937977398
 20
-17.85510289750598
 10
19.79362193662598
 20
-17.85627044531798
 10
19.79704522943798
 20
-17.86196021379901
 10
19.88776980346696
 20
-18.01280630020198
 10
19.89048891005096
 20
-18.01732803841801
 10
19.89106634718396
 20
-18.01828823914696
 10
19.89152017594997
 20
-18.01904292359299
 10
19.89196512280896
 20
-18.019782878091
 10
19.89240084484498
 20
-18.02050754244699
 10
19.89348192148696
 20
-18.02230570154496
 10
19.89381381368394
 20
-18.02285777276696
 10
19.89415348305298
 20
-18.023422787556
 10
19.89450333916996
 20
-18.02400474941399
 10
19.89474342579996
 20
-18.02440411606301
 10
19.89498982474495
 20
-18.02481398029998
 10
19.89524324995396
 20
-18.02523552834896
 10
19.89550441537496
 20
-18.02566994643298
 10
19.89577403495798
 20
-18.02611842077396
 10
19.89605281414496
 20
-18.026582123454
 10
19.89634040067997
 20
-18.02706046788896
 10
19.89678292103597
 20
-18.02779650171902
 10
19.89767512501495
 20
-18.029280445647
 10
19.89796488798296
 20
-18.02976237975502
 10
19.89824639503894
 20
-18.03023057840198
 10
19.89851698414596
 20
-18.03068061446998
 10
19.89877399326395
 20
-18.03110806084299
 10
19.89901476035598
 20
-18.031508490404
 10
19.89923662338197
 20
-18.03187747603598
 10
19.89943692030395
 20
-18.03221059062198
 10
19.89961298908296
 20
-18.03250340704601
 10
19.89976216767995
 20
-18.03275149819
 10
19.89988179405696
 20
-18.03295043693801
 10
19.89996920617494
 20
-18.03309579617399
 10
19.89999882637496
 20
-18.03314504858002
  0
LWPOLYLINE
  5
640
330
1E
100
AcDbEntity
  8
1
100
AcDbPolyline
 90
       68
 70
     0
 43
0.0
 10
19.89999999999998
 20
-18.03314699999998
 10
19.90011135713196
 20
-18.03314699999998
 10
19.90028227671295
 20
-18.03314699999998
 10
19.90050803102198
 20
-18.03314699999998
 10
19.90078389233396
 20
-18.03314699999998
 10
19.90110513292896
 20
-18.03314699999998
 10
19.90146702508399
 20
-18.03314699999998
 10
19.90186484107598
 20
-18.03314699999998
 10
19.90229385318395
 20
-18.03314699999998
 10
19.90274933368396
 20
-18.03314699999998
 10
19.90322655485396
 20
-18.03314699999998
 10
19.90372078897296
 20
-18.03314699999998
 10
19.90422730831699
 20
-18.03314699999998
 10
19.90499978023898
 20
-18.03314699999998
 10
19.90602861568196
 20
-18.03314699999998
 10
19.90653191297696
 20
-18.03314699999998
 10
19.90702151008395
 20
-18.03314699999998
 10
19.90749461485398
 20
-18.03314699999998
 10
19.90795208531798
 20
-18.03314699999998
 10
19.90839518849698
 20
-18.03314699999998
 10
19.90882519140899
 20
-18.03314699999998
 10
19.90924336107396
 20
-18.03314699999998
 10
19.90965096450999
 20
-18.03314699999998
 10
19.91004926873598
 20
-18.03314699999998
 10
19.91063206066096
 20
-18.03314699999998
 10
19.91120105634598
 20
-18.03314699999998
 10
19.91194564738596
 20
-18.03314699999998
 10
19.91361159899696
 20
-18.03314699999998
 10
19.91417895277398
 20
-18.03314699999998
 10
19.91475588499096
 20
-18.03314699999998
 10
19.91553809448797
 20
-18.03314699999998
 10
19.91633263369794
 20
-18.03314699999998
 10
19.91754162060695
 20
-18.03314699999998
 10
19.92261694343
 20
-18.03314699999998
 10
20.07919835362698
 20
-18.03314699999998
 10
20.08346712320296
 20
-18.03314699999998
 10
20.08446190551196
 20
-18.03314699999998
 10
20.08524411500896
 20
-18.03314699999998
 10
20.08582104722596
 20
-18.03314699999998
 10
20.08638840100297
 20
-18.03314699999998
 10
20.08713197214598
 20
-18.03314699999998
 10
20.08879894365398
 20
-18.03314699999998
 10
20.08936793933898
 20
-18.03314699999998
 10
20.08995073126399
 20
-18.03314699999998
 10
20.09034903548996
 20
-18.03314699999998
 10
20.09075663892598
 20
-18.03314699999998
 10
20.09117480859095
 20
-18.03314699999998
 10
20.09160481150296
 20
-18.03314699999998
 10
20.09204791468198
 20
-18.03314699999998
 10
20.09250538514598
 20
-18.03314699999998
 10
20.09297848991598
 20
-18.03314699999998
 10
20.09346808702298
 20
-18.03314699999998
 10
20.09397138431797
 20
-18.03314699999998
 10
20.09474170820698
 20
-18.03314699999998
 10
20.09577269168298
 20
-18.03314699999998
 10
20.09627921102699
 20
-18.03314699999998
 10
20.09677344514597
 20
-18.03314699999998
 10
20.097250666316
 20
-18.03314699999998
 10
20.09770614681595
 20
-18.03314699999998
 10
20.09813515892397
 20
-18.03314699999998
 10
20.09853297491598
 20
-18.03314699999998
 10
20.09889486707098
 20
-18.03314699999998
 10
20.09921610766598
 20
-18.03314699999998
 10
20.09949196897796
 20
-18.03314699999998
 10
20.09971772328696
 20
-18.03314699999998
 10
20.09988864286796
 20
-18.03314699999998
 10
20.09999999999998
 20
-18.03314699999998
 10
20.09999797992199
 20
-18.03314699999998
  0
LWPOLYLINE
  5
686
330
1E
100
AcDbEntity
  8
1
100
AcDbPolyline
 90
       62
 70
     0
 43
0.0
 10
20.09999999999998
 20
-18.03314699999998
 10
20.10007030672396
 20
-18.03303009069
 10
20.10017415872598
 20
-18.03285738830902
 10
20.10030889396797
 20
-18.03263331997298
 10
20.10047185041098
 20
-18.03236231279898
 10
20.10066036601596
 20
-18.03204879390401
 10
20.10087177874499
 20
-18.03169719040599
 10
20.10110342655897
 20
-18.03131192942
 10
20.10135264741899
 20
-18.03089743806302
 10
20.10161677928698
 20
-18.03045814345298
 10
20.10189316012298
 20
-18.02999847270598
 10
20.10217912788895
 20
-18.02952285293898
 10
20.10247202054697
 20
-18.02903571126797
 10
20.10365959931998
 20
-18.02706046788896
 10
20.10394718585498
 20
-18.026582123454
 10
20.10422596504198
 20
-18.02611842077396
 10
20.104495584625
 20
-18.02566994643298
 10
20.10475675004596
 20
-18.02523552834896
 10
20.10501017525498
 20
-18.02481398029998
 10
20.10525657419998
 20
-18.02440411606301
 10
20.10549666083
 20
-18.02400474941399
 10
20.10584651694697
 20
-18.023422787556
 10
20.10618618631596
 20
-18.02285777276696
 10
20.10651807851297
 20
-18.02230570154496
 10
20.10706049410298
 20
-18.02140347260898
 10
20.10792519027498
 20
-18.01996529731002
 10
20.10836769468198
 20
-18.01922939235001
 10
20.10881944690998
 20
-18.01847815231101
 10
20.10939482814098
 20
-18.017521364285
 10
20.11009700735896
 20
-18.01635375017896
 10
20.11363524877798
 20
-18.01046921128897
 10
20.20424390369697
 20
-17.85981731567098
 10
20.20696429420396
 20
-17.855296216178
 10
20.20754205641599
 20
-17.85433603702597
 10
20.20799615089399
 20
-17.85358134540296
 10
20.20844136622398
 20
-17.85284136412601
 10
20.20887732890999
 20
-17.852116704497
 10
20.21006874628898
 20
-17.85013611419098
 10
20.21040303821898
 20
-17.84958036954501
 10
20.21074590074996
 20
-17.84901037911003
 10
20.21109974757897
 20
-17.848422136787
 10
20.21134293980197
 20
-17.84801785697898
 10
20.21159280185897
 20
-17.84760249773798
 10
20.21185004891998
 20
-17.84717487207098
 10
20.21211539615399
 20
-17.84673379298598
 10
20.21238955873198
 20
-17.846278073489
 10
20.21267302548696
 20
-17.84580690259101
 10
20.21296423282998
 20
-17.84532287892398
 10
20.21340974343996
 20
-17.84458240547599
 10
20.21415323885995
 20
-17.84334670626799
 10
20.21444320182097
 20
-17.84286479824402
 10
20.21472491627898
 20
-17.84239660613101
 10
20.21499571569197
 20
-17.84194656085498
 10
20.21525293351698
 20
-17.84151909334497
 10
20.21549390321295
 20
-17.84111863452702
 10
20.21571595823599
 20
-17.84074961532796
 10
20.21591643204597
 20
-17.84041646667701
 10
20.21609265809896
 20
-17.84012361949902
 10
20.216241969853
 20
-17.83987550472301
 10
20.21636170076698
 20
-17.83967655327598
 10
20.21644918429799
 20
-17.839531196085
 10
20.21647882561397
 20
-17.83948195097198
  0
LWPOLYLINE
  5
6C6
330
1E
100
AcDbEntity
  8
1
100
AcDbPolyline
 90
       99
 70
     0
 43
0.0
 10
20.21647999999998
 20
-17.83947999999998
 10
20.22107673099899
 20
-17.83149027218398
 10
20.22536748908098
 20
-17.824032381898
 10
20.22936687134696
 20
-17.81708095716598
 10
20.23308947489999
 20
-17.81061062601
 10
20.23654989683996
 20
-17.804596016455
 10
20.23976273426999
 20
-17.79901175652399
 10
20.24274258428897
 20
-17.79383247424098
 10
20.245504044
 20
-17.789032797629
 10
20.24806171050298
 20
-17.78458735471198
 10
20.25043018090098
 20
-17.78047077351398
 10
20.25262405229497
 20
-17.77665768205698
 10
20.25465792178497
 20
-17.77312270836698
 10
20.25654638647397
 20
-17.76984048046498
 10
20.25830404346196
 20
-17.76678562637696
 10
20.25994548985099
 20
-17.76393277412398
 10
20.26148532274298
 20
-17.76125655173196
 10
20.26293813923797
 20
-17.75873158722302
 10
20.26431853643898
 20
-17.75633250862202
 10
20.26564111144598
 20
-17.75403394395198
 10
20.26754848850197
 20
-17.75071905936696
 10
20.27253401024097
 20
-17.74205471458
 10
20.27450627158799
 20
-17.73862713530101
 10
20.27589176469498
 20
-17.73621929092601
 10
20.27735079829298
 20
-17.73368363221001
 10
20.27889326462099
 20
-17.73100296485699
 10
20.28051712105596
 20
-17.728180838968
 10
20.28221845599099
 20
-17.72522405318596
 10
20.28399335781898
 20
-17.72213940615397
 10
20.28583791493395
 20
-17.71893369651297
 10
20.28774821573097
 20
-17.715613722906
 10
20.28972034860399
 20
-17.71218628397599
 10
20.29175040194599
 20
-17.708658178364
 10
20.29383446414998
 20
-17.70503620471198
 10
20.29705326743698
 20
-17.69944211369201
 10
20.30037158788098
 20
-17.69367506194596
 10
20.30377622381198
 20
-17.68775799489298
 10
20.307253973559
 20
-17.68171385795001
 10
20.31198188812096
 20
-17.673497003166
 10
20.31799388898698
 20
-17.66304848196003
 10
20.33493249435597
 20
-17.63361022340999
 10
20.33966600424198
 20
-17.625383714962
 10
20.34431223644897
 20
-17.617308913437
 10
20.34887817796297
 20
-17.60937367466096
 10
20.35337221393797
 20
-17.60156342433501
 10
20.35890141599698
 20
-17.59195417340498
 10
20.36542850684095
 20
-17.58061072215999
 10
20.37399457171396
 20
-17.565723790747
 10
20.40796230373998
 20
-17.50669182246798
 10
20.42313791871696
 20
-17.48031855836
 10
21.11624629466696
 20
-16.27610519911601
 10
21.12694880308696
 20
-16.25751540463099
 10
21.157700037263
 20
-16.20410240561199
 10
21.16420793328498
 20
-16.19279879546796
 10
21.16971832010297
 20
-16.18322784127897
 10
21.17532574857198
 20
-16.17348841150501
 10
21.17989279004598
 20
-16.165556067295
 10
21.18454118739298
 20
-16.15748247362096
 10
21.18927847385799
 20
-16.14925454962397
 10
21.19530360391296
 20
-16.13878991886499
 10
21.21228229864598
 20
-16.10930114370599
 10
21.21702499039997
 20
-16.10106405536297
 10
21.22051373658198
 20
-16.09500482937198
 10
21.22392899744596
 20
-16.08907324256199
 10
21.22725730366699
 20
-16.08329268627798
 10
21.23048518591699
 20
-16.07768655186302
 10
21.23257466480299
 20
-16.074057581239
 10
21.23460953353498
 20
-16.070523458368
 10
21.23658580119998
 20
-16.06709111401698
 10
21.23849947688796
 20
-16.06376747895598
 10
21.24034656968694
 20
-16.06055948395303
 10
21.24212308868498
 20
-16.057474059776
 10
21.24382504297197
 20
-16.05451813719398
 10
21.24544844163398
 20
-16.05169864697598
 10
21.24698929376096
 20
-16.04902251988997
 10
21.24844491145196
 20
-16.04649442378502
 10
21.24982455345497
 20
-16.04409827892502
 10
21.25114389628696
 20
-16.04180685992301
 10
21.253044276574
 20
-16.03850630311199
 10
21.25802572825997
 20
-16.0298546203
 10
21.26001291545898
 20
-16.02640334211798
 10
21.26141643469196
 20
-16.023965769059
 10
21.26290129719396
 20
-16.021386931628
 10
21.264483241015
 20
-16.01863949757702
 10
21.26617800420396
 20
-16.01569613465801
 10
21.26800132481
 20
-16.012529510623
 10
21.26996894088198
 20
-16.00911229322503
 10
21.27209659046897
 20
-16.00541715021597
 10
21.27440001161898
 20
-16.00141674934798
 10
21.276894942381
 20
-15.99708375837397
 10
21.27959712080499
 20
-15.99239084504501
 10
21.28252228493896
 20
-15.98731067711297
 10
21.28568617283298
 20
-15.981815922332
 10
21.28910452253399
 20
-15.975879248452
 10
21.29279307209297
 20
-15.96947332322699
 10
21.29676755955697
 20
-15.96257081440899
 10
21.30104372297696
 20
-15.95514438974899
 10
21.30563730039998
 20
-15.94716671700001
 10
21.30562640635898
 20
-15.947185636692
  0
LWPOLYLINE
  5
BAE
330
1E
100
AcDbEntity
  8
SK1
100
AcDbPolyline
 90
      244
 70
     0
 43
0.0
 10
-10.0
 20
-6.614378277700011
 10
-9.95543774324301
 20
-6.614385178629984
 10
-9.912385610995043
 20
-6.614405876702985
 10
-9.870819556915023
 20
-6.614440364842976
 10
-9.830715534660042
 20
-6.614488635973994
 10
-9.792049497887999
 20
-6.614550683017994
 10
-9.75479740025699
 20
-6.614626498900974
 10
-9.718935195426038
 20
-6.614716076546018
 10
-9.684438837051004
 20
-6.614819408876995
 10
-9.651284278790026
 20
-6.614936488816992
 10
-9.619447474302036
 20
-6.615067309290987
 10
-9.588904377245027
 20
-6.615211863221015
 10
-9.559630941275033
 20
-6.615370143533022
 10
-9.531603120052011
 20
-6.615542143148982
 10
-9.504796867232011
 20
-6.615727854994018
 10
-9.479188136474988
 20
-6.615927271991012
 10
-9.454752881436007
 20
-6.616140387064999
 10
-9.431467055776039
 20
-6.616367193138017
 10
-9.409306613150024
 20
-6.616607683134985
 10
-9.388247507218011
 20
-6.61686184998001
 10
-9.368265691636024
 20
-6.617129686595998
 10
-9.349337120063037
 20
-6.617411185907028
 10
-9.331437746157007
 20
-6.61770634083703
 10
-9.31454352357602
 20
-6.61801514430999
 10
-9.298630405977036
 20
-6.618337589249986
 10
-9.283674347018003
 20
-6.618673668580011
 10
-9.269651300357026
 20
-6.619023375224001
 10
-9.256537219653012
 20
-6.619386702106027
 10
-9.244308058561015
 20
-6.619763642149987
 10
-9.232939770742007
 20
-6.620154188279
 10
-9.222408309851999
 20
-6.620558333418016
 10
-9.212689629550027
 20
-6.620976070490002
 10
-9.203759683492023
 20
-6.621407392417976
 10
-9.195594425338015
 20
-6.62185229212798
 10
-9.188169808744019
 20
-6.622310762541982
 10
-9.181461787370011
 20
-6.622782796584997
 10
-9.175446314872033
 20
-6.623268387180016
 10
-9.17009934490801
 20
-6.623767527249978
 10
-9.165396831137002
 20
-6.624280209720976
 10
-9.161314727215
 20
-6.624806427514981
 10
-9.157828986802027
 20
-6.625346173557002
 10
-9.154915563554991
 20
-6.625899440769018
 10
-9.152550411131015
 20
-6.626466222076996
 10
-9.150709483189018
 20
-6.627046510402972
 10
-9.14936873338601
 20
-6.627640298671987
 10
-9.14850411538103
 20
-6.628247579808002
 10
-9.148091582831
 20
-6.62886834673301
 10
-9.148107089393024
 20
-6.629502592372995
 10
-9.148526588727008
 20
-6.630150309649986
 10
-9.149326034489035
 20
-6.630811491488992
 10
-9.150481380338019
 20
-6.631486130814007
 10
-9.151968579931008
 20
-6.632174220546999
 10
-9.153763586926004
 20
-6.632875753613996
 10
-9.155842354981015
 20
-6.633590722937013
 10
-9.158180837754033
 20
-6.634319121440991
 10
-9.160754988903022
 20
-6.635060942050015
 10
-9.163540762086
 20
-6.635816177685992
 10
-9.168063611800024
 20
-6.636974168839994
 10
-9.172927350414026
 20
-6.638162304003001
 10
-9.178050821525003
 20
-6.639380559294009
 10
-9.186946698565037
 20
-6.641477853530997
 10
-9.201274067460019
 20
-6.645007137757003
 10
-9.20807233284202
 20
-6.646851788856992
 10
-9.212853356918003
 20
-6.648270234676997
 10
-9.217271914388019
 20
-6.649718617528008
 10
-9.219976171793037
 20
-6.650700825985977
 10
-9.222459217074032
 20
-6.651696322099978
 10
-9.22469700388703
 20
-6.652705098794027
 10
-9.226665485891004
 20
-6.653727148992996
 10
-9.228340616743023
 20
-6.654762465619992
 10
-9.229698350102012
 20
-6.655811041599005
 10
-9.230714639625032
 20
-6.65687286985303
 10
-9.231365438969989
 20
-6.657947943306987
 10
-9.231626722980022
 20
-6.659036254872003
 10
-9.231482341457024
 20
-6.660137793242991
 10
-9.230935769203
 20
-6.66125253659598
 10
-9.229993487185023
 20
-6.66238046150002
 10
-9.228661976373018
 20
-6.663521544522009
 10
-9.226947717732995
 20
-6.664675762229987
 10
-9.224857192234992
 20
-6.665843091189994
 10
-9.222396880847014
 20
-6.667023507970011
 10
-9.219573264536023
 20
-6.668216989136992
 10
-9.21639282427202
 20
-6.669423511259987
 10
-9.212862041021992
 20
-6.670643050904003
 10
-9.208987395755002
 20
-6.671875584639026
 10
-9.204775369438037
 20
-6.673121089030986
 10
-9.200232443040022
 20
-6.674379540647006
 10
-9.195365097530043
 20
-6.675650916055982
 10
-9.190179813875003
 20
-6.676935191822988
 10
-9.184683073043032
 20
-6.678232344518021
 10
-9.178881356003984
 20
-6.679542350707007
 10
-9.172781143724023
 20
-6.680865186957022
 10
-9.166388917173007
 20
-6.682200829836005
 10
-9.159711157319007
 20
-6.683549255912024
 10
-9.152754345129011
 20
-6.684910441752004
 10
-9.145524961572988
 20
-6.68628436392299
 10
-9.138029487617016
 20
-6.687670998992985
 10
-9.130274404231014
 20
-6.68907032352797
 10
-9.122266192383023
 20
-6.690482314098002
 10
-9.11401133304102
 20
-6.691906947267992
 10
-9.105516307173019
 20
-6.693344199606029
 10
-9.096787595747002
 20
-6.694794047680001
 10
-9.087831679732033
 20
-6.696256468058009
 10
-9.078655040096007
 20
-6.697731437305971
 10
-9.069264157807026
 20
-6.69921893199199
 10
-9.05966551383301
 20
-6.700718928683014
 10
-9.049865589142996
 20
-6.702231403946994
 10
-9.039870864704028
 20
-6.703756334350995
 10
-9.024527705636018
 20
-6.706067032087014
 10
-9.008782702581044
 20
-6.708405622078995
 10
-8.992657728805994
 20
-6.71077202524398
 10
-8.976174657580003
 20
-6.713166162495977
 10
-8.959355362169015
 20
-6.71558795474999
 10
-8.942221715842038
 20
-6.71803732292099
 10
-8.924795591866994
 20
-6.720514187924008
 10
-8.907098863511007
 20
-6.723018470674017
 10
-8.889153404042019
 20
-6.725550092087016
 10
-8.870981086728022
 20
-6.728108973077012
 10
-8.846436245975011
 20
-6.731563081492991
 10
-8.821578835942005
 20
-6.735065323324021
 10
-8.790146509650012
 20
-6.739510527642011
 10
-8.752032561234017
 20
-6.744943145835006
 10
-8.636795767397018
 20
-6.761878780591016
 10
-8.598668473727997
 20
-6.767734476635011
 10
-8.567219929247016
 20
-6.772693838062022
 10
-8.542346208348021
 20
-6.776713175042996
 10
-8.517782091119016
 20
-6.780778395910003
 10
-8.499593370265017
 20
-6.783857310091008
 10
-8.481629839099014
 20
-6.786961849426002
 10
-8.463913136356012
 20
-6.790091935101001
 10
-8.44645379278603
 20
-6.793247501171008
 10
-8.429246639041025
 20
-6.796428499873994
 10
-8.412285318211019
 20
-6.799634884823997
 10
-8.395563473386005
 20
-6.802866609637987
 10
-8.379074747656034
 20
-6.806123627928003
 10
-8.362812784112009
 20
-6.809405893311008
 10
-8.346771225844005
 20
-6.812713359401015
 10
-8.325714346885007
 20
-6.817162435114026
 10
-8.305022930123044
 20
-6.821656119669992
 10
-8.284681907327012
 20
-6.826194303119021
 10
-8.264676210266001
 20
-6.830776875511016
 10
-8.244990770708993
 20
-6.835403726896003
 10
-8.225610520427011
 20
-6.840074747322003
 10
-8.206520391185987
 20
-6.844789826839986
 10
-8.187705314758005
 20
-6.849548855498992
 10
-8.164550306731001
 20
-6.855559277300981
 10
-8.141772094472997
 20
-6.861637983092006
 10
-8.119341247845994
 20
-6.867784758124996
 10
-8.097228336711992
 20
-6.873999387655002
 10
-8.071071080566042
 20
-6.881546208660011
 10
-8.041011515195007
 20
-6.890473442448011
 10
-8.007161786163035
 20
-6.900836956365987
 10
-7.965429133989997
 20
-6.914031501810994
 10
-7.883000850488032
 20
-6.94121457455699
 10
-7.804549930047016
 20
-6.968008664939985
 10
-7.766865329418008
 20
-6.981027075843994
 10
-7.732908183763012
 20
-6.992773443195003
 10
-7.694183716382043
 20
-7.006179769324998
 10
-7.650576621611037
 20
-7.021306034448
 10
-7.601997497703022
 20
-7.038214618023003
 10
-7.539408959554037
 20
-7.060124941393013
 10
-7.444386247401012
 20
-7.09375952022702
 10
-7.316730510911042
 20
-7.139912027653987
 10
-7.189611956503001
 20
-7.187377041406021
 10
-7.122353073253035
 20
-7.213276156656005
 10
-7.060362458765013
 20
-7.237723355837997
 10
-6.972881689635018
 20
-7.273207846166001
 10
-6.877504290083011
 20
-7.31321008224799
 10
-6.799620438101015
 20
-7.346868528660022
 10
-6.73014480985199
 20
-7.377612054921001
 10
-6.664531872367033
 20
-7.407231022746994
 10
-6.602658217590005
 20
-7.43564479892299
 10
-6.548988047291003
 20
-7.460640403739999
 10
-6.454071611511012
 20
-7.505531763600995
 10
-6.382023586859021
 20
-7.540095211953993
 10
-6.342011166114017
 20
-7.559445839995984
 10
-6.311289303610011
 20
-7.574371809794992
 10
-6.285302441245987
 20
-7.58704092356498
 10
-6.259689603147022
 20
-7.599564866249012
 10
-6.238668526847022
 20
-7.609869963763003
 10
-6.217972911625023
 20
-7.620037847768028
 10
-6.197632631122018
 20
-7.630051972695013
 10
-6.181636322802002
 20
-7.637941447477003
 10
-6.165901843134007
 20
-7.645713455952996
 10
-6.150444487420998
 20
-7.653359526789016
 10
-6.135279550968022
 20
-7.660871188655021
 10
-6.120422329076006
 20
-7.668239970217994
 10
-6.105883690879037
 20
-7.675459872141995
 10
-6.08808551125
 20
-7.684316204581986
 10
-6.021475199309008
 20
-7.717816444794006
 10
-6.007095869471012
 20
-7.725152697183996
 10
-5.992404027167025
 20
-7.732693102297019
 10
-5.981129621617013
 20
-7.73851059319099
 10
-5.969596893687023
 20
-7.744489084814005
 10
-5.957770471610047
 20
-7.750648362090003
 10
-5.945614983623016
 20
-7.757008209942994
 10
-5.933095057959035
 20
-7.763588413296019
 10
-5.920175322854023
 20
-7.77040875707402
 10
-5.911322582222028
 20
-7.775098834606008
 10
-5.902265947198002
 20
-7.779910296715002
 10
-5.892994937258007
 20
-7.784849005601016
 10
-5.883499071879016
 20
-7.789920823463002
 10
-5.873767870539013
 20
-7.795131612500994
 10
-5.86379085271301
 20
-7.800487234915006
 10
-5.853557537880022
 20
-7.805993552904026
 10
-5.843057445517017
 20
-7.811656428669008
 10
-5.832280095099007
 20
-7.817481724407994
 10
-5.821215006104011
 20
-7.823475302322004
 10
-5.809851698010022
 20
-7.829643024610018
 10
-5.798179690292017
 20
-7.835990753473025
 10
-5.786188502429013
 20
-7.842524351109004
 10
-5.773868234145027
 20
-7.849249353492012
 10
-5.761242335503991
 20
-7.856152546481012
 10
-5.748385124568046
 20
-7.863192117089992
 10
-5.722291160942002
 20
-7.877503512463985
 10
-5.696215133521007
 20
-7.891829782206995
 10
-5.683380342842042
 20
-7.898887945777999
 10
-5.670785832559032
 20
-7.905817168912986
 10
-5.658510201455015
 20
-7.912573231938011
 10
-5.646632048310009
 20
-7.919111915175021
 10
-5.635229971907022
 20
-7.925388998950013
 10
-5.624382571027013
 20
-7.931360263586012
 10
-5.614168444452018
 20
-7.936981489407996
 10
-5.604666190964023
 20
-7.942208456738994
 10
-5.595954409344042
 20
-7.946996945903004
 10
-5.588111698375032
 20
-7.951302737225998
 10
-5.581216656836998
 20
-7.955081611030005
 10
-5.575347883512987
 20
-7.958289347640997
 10
-5.570583977185036
 20
-7.960881727382003
 10
-5.567003536632995
 20
-7.962814530577015
 10
-5.564685160641033
 20
-7.96404353755099
 10
-5.563707447989002
 20
-7.964524528627006
 10
-5.564148997459001
 20
-7.964213284130011
 10
-5.566088407834032
 20
-7.963065584383992
 10
-5.569599603029018
 20
-7.961039839263999
 10
-5.574202587416006
 20
-7.958406031288973
 10
-5.578347827957004
 20
-7.956035744052001
 10
-5.580363777322018
 20
-7.954869192621996
 10
-5.578578888184011
 20
-7.955846592067985
 10
-5.57132161321104
 20
-7.959908157460999
 10
-5.556920405075999
 20
-7.967994103866995
 10
-5.533703716449025
 20
-7.981044646356988
 10
-5.5
 20
-7.999999999999999
 10
-5.500041484887018
 20
-7.99997666482602
  0
LWPOLYLINE
  5
CA4
330
1E
100
AcDbEntity
  8
SK1
100
AcDbPolyline
 90
      243
 70
     0
 43
0.0
 10
-10.0
 20
6.614378277599997
 10
-10.04456239970304
 20
6.614385178626007
 10
-10.087614865517
 20
6.614405876982003
 10
-10.12918143898499
 20
6.614440365586005
 10
-10.16928616164999
 20
6.614488637353987
 10
-10.20795307505304
 20
6.614550685203996
 10
-10.24520622073697
 20
6.614626502052997
 10
-10.28106964024501
 20
6.614716080817997
 10
-10.31556737511903
 20
6.614819414417012
 10
-10.3487234669
 20
6.614936495767012
 10
-10.38056195713304
 20
6.615067317783997
 10
-10.411106887359
 20
6.615211873386982
 10
-10.44038229911999
 20
6.615370155492
 10
-10.46841223395901
 20
6.615542157016987
 10
-10.49522073341899
 20
6.615727870878004
 10
-10.52083183904102
 20
6.615927289994004
 10
-10.545269592368
 20
6.616140407280994
 10
-10.56855803494201
 20
6.616367215656992
 10
-10.590721208307
 20
6.616607708038003
 10
-10.61178315400401
 20
6.616861877343013
 10
-10.63176791357502
 20
6.617129716486997
 10
-10.65069952856301
 20
6.617411218389007
 10
-10.66860204051101
 20
6.617706375966007
 10
-10.685499490961
 20
6.618015182134996
 10
-10.70141592145499
 20
6.618337629812997
 10
-10.71637537353601
 20
6.618673711917012
 10
-10.730401888745
 20
6.619023421364003
 10
-10.74351950862602
 20
6.619386751072995
 10
-10.755752274721
 20
6.619763693958987
 10
-10.767124228572
 20
6.620154242940995
 10
-10.77765941172198
 20
6.620558390935995
 10
-10.78738186571299
 20
6.620976130860015
 10
-10.79631563208699
 20
6.621407455630987
 10
-10.80448475238702
 20
6.621852358165996
 10
-10.81191326815502
 20
6.622310831381978
 10
-10.81862522093399
 20
6.622782868197987
 10
-10.824644652266
 20
6.623268461528994
 10
-10.82999560369302
 20
6.623767604292992
 10
-10.83470211675802
 20
6.62428028940701
 10
-10.838788233003
 20
6.624806509788982
 10
-10.84227799397103
 20
6.625346258355985
 10
-10.84519544120398
 20
6.625899528024008
 10
-10.84756461624402
 20
6.626466311711991
 10
-10.849409560634
 20
6.627046602336007
 10
-10.85075431591602
 20
6.627640392813987
 10
-10.85162292363301
 20
6.628247676063012
 10
-10.852039425327
 20
6.628868444999991
 10
-10.85202786254001
 20
6.629502692541991
 10
-10.85161227681499
 20
6.630150411606988
 10
-10.85081670969404
 20
6.630811595111992
 10
-10.84966520271898
 20
6.631486235973
 10
-10.84818179743401
 20
6.632174327108995
 10
-10.84639053538003
 20
6.632875861436986
 10
-10.84431545809902
 20
6.633590831872992
 10
-10.84198060713501
 20
6.634319231333988
 10
-10.839410024029
 20
6.635061052739986
 10
-10.83662775032401
 20
6.635816289004992
 10
-10.83211001076801
 20
6.63697428077299
 10
-10.82725120104001
 20
6.638162416135996
 10
-10.82213246134503
 20
6.639380671189996
 10
-10.81324398717798
 20
6.641477964000982
 10
-10.79892704115902
 20
6.64500724303599
 10
-10.79213324943798
 20
6.646851890088012
 10
-10.78735522633299
 20
6.648270332191001
 10
-10.78293934817102
 20
6.649718710718985
 10
-10.78023669026802
 20
6.650700915946996
 10
-10.77775508953003
 20
6.651696408545005
 10
-10.77551858749902
 20
6.652705181430007
 10
-10.77355122571602
 20
6.653727227519993
 10
-10.77187704572401
 20
6.654762539732987
 10
-10.77052008906701
 20
6.655811110984982
 10
-10.76950439728499
 20
6.656872934192987
 10
-10.768854011921
 20
6.657948002276014
 10
-10.768592961136
 20
6.659036308141992
 10
-10.76873782467899
 20
6.660137840713017
 10
-10.76928536378902
 20
6.661252578298982
 10
-10.77022907976401
 20
6.662380497462009
 10
-10.77156247390499
 20
6.663521574767004
 10
-10.77327904751004
 20
6.664675786775005
 10
-10.775372301879
 20
6.665843110051013
 10
-10.77783573831101
 20
6.667023521157996
 10
-10.78066285810601
 20
6.668216996659992
 10
-10.783847162563
 20
6.669423513118005
 10
-10.78738215298201
 20
6.670643047097001
 10
-10.79126133066103
 20
6.671875575160012
 10
-10.79547819690102
 20
6.673121073871017
 10
-10.80002625300102
 20
6.674379519792013
 10
-10.80489900025901
 20
6.675650889487004
 10
-10.81008993997699
 20
6.676935159519017
 10
-10.81559257345199
 20
6.678232306451008
 10
-10.82140040198501
 20
6.679542306847991
 10
-10.82750692687499
 20
6.680865137271013
 10
-10.83390564942101
 20
6.68220077428498
 10
-10.84059007092202
 20
6.683549194452012
 10
-10.847553692679
 20
6.684910374336992
 10
-10.85479001599
 20
6.686284290500992
 10
-10.86229254215501
 20
6.687670919509997
 10
-10.87005477247299
 20
6.689070237924995
 10
-10.87807020824401
 20
6.690482222310007
 10
-10.88633235076698
 20
6.691906849227987
 10
-10.894834701342
 20
6.693344095242992
 10
-10.90357076126801
 20
6.694793936919013
 10
-10.91253403184403
 20
6.696256350816982
 10
-10.92171801437
 20
6.697731313501972
 10
-10.93111621014497
 20
6.699218801537996
 10
-10.94072212046802
 20
6.700718791485997
 10
-10.95052924664001
 20
6.702231259911004
 10
-10.960531089959
 20
6.703756183374992
 10
-10.97588473368201
 20
6.706066870504002
 10
-10.99163993579501
 20
6.708405449640991
 10
-11.007774763185
 20
6.710771841686011
 10
-11.02426728273701
 20
6.713165967543002
 10
-11.04109556133701
 20
6.715587748110007
 10
-11.05823766586903
 20
6.718037104289977
 10
-11.07567166321999
 20
6.720513956984007
 10
-11.09337562027499
 20
6.723018227092012
 10
-11.11132760391899
 20
6.725549835516997
 10
-11.129505681039
 20
6.728108703157999
 10
-11.154056909073
 20
6.731562793193007
 10
-11.178919099254
 20
6.735065015943007
 10
-11.21035492458801
 20
6.739510195378981
 10
-11.248469074444
 20
6.744942782116992
 10
-11.36367567960201
 20
6.761878310970987
 10
-11.40178105013202
 20
6.767733967499991
 10
-11.43320620614501
 20
6.772693294251014
 10
-11.45805766603801
 20
6.776712602302012
 10
-11.48259621282301
 20
6.780777793146
 10
-11.50076349868702
 20
6.783856684071992
 10
-11.51870359366
 20
6.786961199505013
 10
-11.536395003946
 20
6.790091260856002
 10
-11.55382895896099
 20
6.793246804303008
 10
-11.57101106264602
 20
6.796427782708008
 10
-11.58794769006598
 20
6.799634149827991
 10
-11.60464521628201
 20
6.802865859419997
 10
-11.62111001635798
 20
6.806122865239982
 10
-11.63734846535702
 20
6.809405121047007
 10
-11.65336693834301
 20
6.812712580594991
 10
-11.67439373603999
 20
6.817161652555992
 10
-11.695055909975
 20
6.821655339347982
 10
-11.71536857140901
 20
6.826193531355981
 10
-11.73534683160099
 20
6.830776118968994
 10
-11.75500580181201
 20
6.835402992571999
 10
-11.774360593304
 20
6.840074042552997
 10
-11.793426317338
 20
6.844789159298984
 10
-11.81221808517301
 20
6.849548233196003
 10
-11.835345565124
 20
6.855558723321991
 10
-11.85809811404203
 20
6.861637511138981
 10
-11.88050524610801
 20
6.867784382557005
 10
-11.902596475502
 20
6.873999123487977
 10
-11.928730515217
 20
6.881546098927997
 10
-11.95876704119102
 20
6.890473542936009
 10
-11.99259605783
 20
6.900837338943007
 10
-12.03431175129199
 20
6.914032303705996
 10
-12.11673844486202
 20
6.941216457459007
 10
-12.19523184800201
 20
6.968011906003992
 10
-12.23295288868402
 20
6.981031083503976
 10
-12.26694749082599
 20
6.992778104762011
 10
-12.30571096090599
 20
7.006184925952992
 10
-12.349357221328
 20
7.021311426495995
 10
-12.39797420897102
 20
7.038219870212004
 10
-12.46060276924802
 20
7.060129382523002
 10
-12.555667640481
 20
7.093761335931987
 10
-12.68334438043103
 20
7.139907509908001
 10
-12.80593205845502
 20
7.185647525833987
 10
-12.87321443675701
 20
7.211519478698987
 10
-12.93522800132701
 20
7.235941391320013
 10
-13.01838249821601
 20
7.269597563431005
 10
-13.11380445920101
 20
7.309504186087989
 10
-13.19602200930302
 20
7.344965648948996
 10
-13.26549676191101
 20
7.375672797127005
 10
-13.33110246232902
 20
7.405255811423982
 10
-13.39296342368899
 20
7.433634300703999
 10
-13.44661889997101
 20
7.458598746787004
 10
-13.53701206888699
 20
7.501295902755996
 10
-13.61809531562002
 20
7.540162918764991
 10
-13.65808796909303
 20
7.559501763845987
 10
-13.688789358829
 20
7.574415825870002
 10
-13.71475543537101
 20
7.587072991977009
 10
-13.74034474834999
 20
7.599583515033004
 10
-13.76134429830798
 20
7.609876397449991
 10
-13.78201678568001
 20
7.620031207121995
 10
-13.80233247354999
 20
7.630031472551991
 10
-13.81830814499197
 20
7.637909344196002
 10
-13.83402120782202
 20
7.645669332360992
 10
-13.84945643673701
 20
7.653303003639988
 10
-13.86459860643299
 20
7.660801924628002
 10
-13.87943249160801
 20
7.668157661917009
 10
-13.89394870270101
 20
7.675365041340992
 10
-13.91172615378799
 20
7.684209818330002
 10
-13.97832295538198
 20
7.717702737894994
 10
-13.992709989636
 20
7.725043362350985
 10
-14.00741232757801
 20
7.732589703621018
 10
-14.018696201885
 20
7.738412541341004
 10
-14.03023958455799
 20
7.744397044039002
 10
-14.04207768276001
 20
7.750562904258997
 10
-14.054245703651
 20
7.756929814545004
 10
-14.06677885439302
 20
7.763517467441003
 10
-14.079712342145
 20
7.770345555490987
 10
-14.08857446301601
 20
7.775040913991007
 10
-14.09764059082601
 20
7.779857719627982
 10
-14.10692115732601
 20
7.784801807231987
 10
-14.116426594269
 20
7.789879011630003
 10
-14.12616733340402
 20
7.795095167650003
 10
-14.136153806484
 20
7.800456110120991
 10
-14.14639644526002
 20
7.805967673868988
 10
-14.156905681483
 20
7.81163569372299
 10
-14.16769194690502
 20
7.817466004511003
 10
-14.17876567327701
 20
7.823464441059996
 10
-14.19013729235101
 20
7.829636838200004
 10
-14.20181723587799
 20
7.835989030755995
 10
-14.21381593560804
 20
7.842526853559007
 10
-14.22614323212201
 20
7.849255809066987
 10
-14.23877553887402
 20
7.856162606443009
 10
-14.251638599193
 20
7.863205467240987
 10
-14.27774304209703
 20
7.877522757246993
 10
-14.30382868397102
 20
7.891854435368997
 10
-14.31666824300102
 20
7.898915281314003
 10
-14.32926764795
 20
7.905847257896001
 10
-14.34154841420903
 20
7.912606209650987
 10
-14.35343205717001
 20
7.919147981112987
 10
-14.36484009222598
 20
7.925428416821008
 10
-14.375694034768
 20
7.931403361308013
 10
-14.385915400188
 20
7.937028659111009
 10
-14.39542570387803
 20
7.942260154766016
 10
-14.40414646123002
 20
7.947053692808991
 10
-14.41199918763703
 20
7.951365117775994
 10
-14.41890539848901
 20
7.955150274201002
 10
-14.42478660918002
 20
7.958365006621987
 10
-14.42956433510102
 20
7.960965159573987
 10
-14.43316009164401
 20
7.962906577591977
 10
-14.43549539420101
 20
7.964145105212992
 10
-14.43649175816402
 20
7.964636586972999
 10
-14.43607069892601
 20
7.964336867406982
 10
-14.43415373187701
 20
7.963201791051004
 10
-14.43066597599298
 20
7.961189229409995
 10
-14.42606443029001
 20
7.958556229716972
 10
-14.42189512777702
 20
7.95617240691098
 10
-14.41983741810402
 20
7.954982364836012
 10
-14.42157065091802
 20
7.955930707337985
 10
-14.428774175867
 20
7.959962038260981
 10
-14.44312734259801
 20
7.968020961448988
 10
-14.46630950075999
 20
7.981052080746991
 10
-14.499958515108
 20
7.999976664823007
  0
LWPOLYLINE
  5
F19
330
1E
100
AcDbEntity
  8
1
100
AcDbPolyline
 90
      152
 70
     0
 43
0.0
 10
17.37151262659998
 20
4.7965387337
 10
17.37108037811296
 20
4.796969049736983
 10
17.37063083293998
 20
4.797424970513983
 10
17.37016423760297
 20
4.797906204193988
 10
17.36968083862399
 20
4.79841245893999
 10
17.36918088252397
 20
4.798943442916991
 10
17.36866461582499
 20
4.799498864288007
 10
17.36813228504897
 20
4.800078431216998
 10
17.367584136717
 20
4.800681851866981
 10
17.367020417351
 20
4.801308834401991
 10
17.36644137347298
 20
4.801959086984991
 10
17.36584725160398
 20
4.802632317780986
 10
17.36523829826596
 20
4.803328234952995
 10
17.36461475998
 20
4.804046546663982
 10
17.363976883269
 20
4.804786961079001
 10
17.36332491465296
 20
4.805549186360988
 10
17.36265910065498
 20
4.806332930672992
 10
17.36197968779598
 20
4.807137902178988
 10
17.36128692259899
 20
4.807963809042998
 10
17.36040256493498
 20
4.809025188375981
 10
17.35949821091898
 20
4.810118253218003
 10
17.35857434203799
 20
4.811242433577003
 10
17.35763143977997
 20
4.812397159459004
 10
17.35666998563299
 20
4.813581860872002
 10
17.35569046108398
 20
4.814795967824007
 10
17.354693347621
 20
4.816038910320001
 10
17.35367912673196
 20
4.817310118368991
 10
17.35264827990397
 20
4.818609021977005
 10
17.35160128862398
 20
4.819935051150988
 10
17.35053863438096
 20
4.821287635898981
 10
17.349460798661
 20
4.822666206227976
 10
17.34836826295298
 20
4.824070192144999
 10
17.34726150874499
 20
4.82549902365599
 10
17.34591531320799
 20
4.827245615105992
 10
17.34455016838199
 20
4.829026178474999
 10
17.34316690627898
 20
4.83083972881499
 10
17.34176635890799
 20
4.832685281180002
 10
17.34034935828097
 20
4.834561850620983
 10
17.33891673640799
 20
4.836468452190983
 10
17.33746932529899
 20
4.838404100941997
 10
17.33576309704497
 20
4.840697756203009
 10
17.33403919265799
 20
4.843028043221973
 10
17.33229893334197
 20
4.845393397936983
 10
17.330543640298
 20
4.847792256289007
 10
17.32852087729497
 20
4.850572827175992
 10
17.32648217622698
 20
4.853392780369997
 10
17.32442950926798
 20
4.856249781178997
 10
17.32210602092098
 20
4.859505283603992
 10
17.31950997937899
 20
4.863169992367996
 10
17.31690251626497
 20
4.866880276184983
 10
17.31376390752799
 20
4.871386355435985
 10
17.31035916719798
 20
4.876325451958986
 10
17.30617439058898
 20
4.882471989466976
 10
17.299941627093
 20
4.891793091852004
 10
17.29482225554098
 20
4.89961340445498
 10
17.29104711682095
 20
4.90548655481899
 10
17.28783119035897
 20
4.910568828278994
 10
17.28491638547396
 20
4.915244617256003
 10
17.282295651123
 20
4.919510729444992
 10
17.27996008752097
 20
4.923367122731006
 10
17.27789958170999
 20
4.926816152798008
 10
17.27588130508098
 20
4.930241155019981
 10
17.27412500312297
 20
4.93326274258899
 10
17.27240625829998
 20
4.936260383976983
 10
17.27072704278498
 20
4.939231744491988
 10
17.26929144115897
 20
4.941808699884997
 10
17.26768922454897
 20
4.94472824900299
 10
17.26612750659996
 20
4.947622062026992
 10
17.26460572693198
 20
4.950491714115001
 10
17.26312332516201
 20
4.953338780420976
 10
17.26167974090697
 20
4.956164836101004
 10
17.26027441378497
 20
4.958971456311983
 10
17.25890678341399
 20
4.961760216208003
 10
17.25757628941098
 20
4.964532690945985
 10
17.256282371394
 20
4.967290455681988
 10
17.25502446897996
 20
4.970035085569999
 10
17.25365168092298
 20
4.973109055202
 10
17.25232296799296
 20
4.976170637350006
 10
17.25103753229899
 20
4.979222074766992
 10
17.249794575955
 20
4.982265610202998
 10
17.24859330107198
 20
4.985303486408009
 10
17.24743290976197
 20
4.988337946135997
 10
17.24631260413599
 20
4.991371232134978
 10
17.24511386372799
 20
4.994742901126981
 10
17.24396253227499
 20
4.998118966376009
 10
17.24285751528097
 20
5.001502504360016
 10
17.24179771824796
 20
5.004896591553998
 10
17.24078204667998
 20
5.008304304434002
 10
17.23971446658396
 20
5.012072198043993
 10
17.23869749718397
 20
5.015864396060005
 10
17.23772968170496
 20
5.019684993270995
 10
17.23680956336997
 20
5.023538084468011
 10
17.23585848451696
 20
5.027783327547976
 10
17.23496054423399
 20
5.032077430443986
 10
17.23418249777196
 20
5.036061153789967
 10
17.23344605648398
 20
5.04009449478701
 10
17.23281144223196
 20
5.043807670713985
 10
17.232267754128
 20
5.047190025588004
 10
17.23174925779398
 20
5.050613071419967
 10
17.23125515534198
 20
5.054079050961999
 10
17.23083578695399
 20
5.057197777850996
 10
17.23043450193296
 20
5.060353774876001
 10
17.23005073989497
 20
5.063548617195006
 10
17.22968394045798
 20
5.066783879961999
 10
17.22937646504998
 20
5.06964913056498
 10
17.22908117217798
 20
5.072547589282972
 10
17.22879768642998
 20
5.075480311348
 10
17.22852563239396
 20
5.07844835199199
 10
17.22826463465597
 20
5.081452766446002
 10
17.22804943765197
 20
5.084057729301998
 10
17.22784185141898
 20
5.086690855564993
 10
17.22764163954497
 20
5.089352809751995
 10
17.227448565619
 20
5.092044256382988
 10
17.22726239322898
 20
5.094765859976999
 10
17.22708288596499
 20
5.097518285051988
 10
17.22690980741501
 20
5.100302196128009
 10
17.22674292116798
 20
5.103118257722994
 10
17.22658199081196
 20
5.105967134356004
 10
17.22642678877798
 20
5.108849249308004
 10
17.22595430531799
 20
5.118526975210981
 10
17.22586922898597
 20
5.120431632092985
 10
17.22578765206398
 20
5.122312190326992
 10
17.22572885848998
 20
5.123703235796993
 10
17.22567218490897
 20
5.125074902827967
 10
17.22561769628298
 20
5.126424695870976
 10
17.22556545757297
 20
5.127750119375003
 10
17.22551553373895
 20
5.129048677791017
 10
17.22546798974195
 20
5.130317875569995
 10
17.22542289054293
 20
5.131555217160007
 10
17.22539421471196
 20
5.132361181302
 10
17.22536667357596
 20
5.133151138582005
 10
17.225340286385
 20
5.133924349578988
 10
17.22531507238497
 20
5.134680074869999
 10
17.22529105082393
 20
5.13541757503398
 10
17.22526824094996
 20
5.136136110648005
 10
17.22524666201098
 20
5.136834942289991
 10
17.22522633325397
 20
5.137513330538011
 10
17.22520727392699
 20
5.138170535970001
 10
17.22518950327798
 20
5.138805819161998
 10
17.22517304055401
 20
5.139418440695004
 10
17.22515790500295
 20
5.140007661143978
 10
17.22514411587297
 20
5.14057274108799
 10
17.22513169241099
 20
5.141112941105004
 10
17.22512065386496
 20
5.141627521772986
 10
17.22511101948298
 20
5.142115743668993
 10
17.22510280851298
 20
5.142576867371016
 10
17.22509604020098
 20
5.143010153457991
 10
17.225090733797
 20
5.143414862505975
 10
17.22508690854597
 20
5.143790255093986
 10
17.22508458369799
 20
5.144135591798995
 10
17.22508377849996
 20
5.144450133199993
 10
17.22508377913396
 20
5.144446255375011
  0
LWPOLYLINE
  5
FB3
330
1E
100
AcDbEntity
  8
1
100
AcDbPolyline
 90
      174
 70
     0
 43
0.0
 10
18.07861940779996
 20
-6.539311859099997
 10
18.07471598612195
 20
-6.543278716731975
 10
18.070835499845
 20
-6.547157532680019
 10
18.06697627108098
 20
-6.550950085434977
 10
18.06313662193598
 20
-6.554658153489981
 10
18.05931487452196
 20
-6.558283515340007
 10
18.05550935094696
 20
-6.561827949475032
 10
18.05171837331895
 20
-6.565293234391018
 10
18.047940263749
 20
-6.568681148578972
 10
18.04417334434599
 20
-6.571993470531992
 10
18.04041593721898
 20
-6.575231978744001
 10
18.03666636447594
 20
-6.578398451706989
 10
18.03292294822798
 20
-6.581494667914992
 10
18.02918401058298
 20
-6.584522405858987
 10
18.02544787365096
 20
-6.587483444034007
 10
18.02171285954097
 20
-6.590379560932007
 10
18.01704311470999
 20
-6.593911120932007
 10
18.01236922545299
 20
-6.597347493951986
 10
18.00768791463997
 20
-6.600692153609004
 10
18.00299590513996
 20
-6.603948573524007
 10
17.99828991982396
 20
-6.607120227316016
 10
17.99356668156002
 20
-6.61021058860302
 10
17.988822913218
 20
-6.613223131003992
 10
17.98309867730498
 20
-6.616740351813009
 10
17.97733449613096
 20
-6.620156517852024
 10
17.97152470681298
 20
-6.623477631533999
 10
17.96566364647196
 20
-6.626709695274995
 10
17.95875338698396
 20
-6.630375894921996
 10
17.951756641678
 20
-6.633938589266022
 10
17.94466441810896
 20
-6.637407309916994
 10
17.93746790473098
 20
-6.640791419495997
 10
17.930164420218
 20
-6.644094554030002
 10
17.92275876071195
 20
-6.647313364410022
 10
17.91417677209
 20
-6.650883910871018
 10
17.90547602382098
 20
-6.654333759864018
 10
17.89777160957997
 20
-6.657248940676994
 10
17.88998751962298
 20
-6.660063627647017
 10
17.88212900378198
 20
-6.662774047845996
 10
17.87420131188798
 20
-6.665376428347999
 10
17.86620969377298
 20
-6.667866996224999
 10
17.85931283479796
 20
-6.669909915023992
 10
17.85237617265497
 20
-6.671865537872009
 10
17.84540301335997
 20
-6.673731488814014
 10
17.83839666292798
 20
-6.675505391895002
 10
17.83136042737799
 20
-6.677184871162975
 10
17.824297612723
 20
-6.678767550661008
 10
17.81721152498198
 20
-6.680251054436977
 10
17.81010547016898
 20
-6.681633006535976
 10
17.80298275430197
 20
-6.682911031002987
 10
17.79703681567896
 20
-6.683894948096991
 10
17.79108351592698
 20
-6.684803668282
 10
17.78512476825098
 20
-6.685635816586001
 10
17.77916248585299
 20
-6.686390018036009
 10
17.77319835091298
 20
-6.687065195697018
 10
17.76723316561998
 20
-6.687661407877016
 10
17.76126752267096
 20
-6.688178983146996
 10
17.75530201476396
 20
-6.688618250077014
 10
17.74933723459398
 20
-6.688979537237996
 10
17.74337377485795
 20
-6.689263173200004
 10
17.73741222825394
 20
-6.689469486532034
 10
17.731453187477
 20
-6.689598805805021
 10
17.72549724522496
 20
-6.689651459588017
 10
17.71954499419399
 20
-6.689627776453022
 10
17.71359702708099
 20
-6.689528084970022
 10
17.70765393658197
 20
-6.68935271370799
 10
17.70171631539496
 20
-6.689101991236982
 10
17.69578475621598
 20
-6.688776246128012
 10
17.68985985174196
 20
-6.688375806950999
 10
17.68394219466896
 20
-6.687901002275992
 10
17.67685140726896
 20
-6.687233536836005
 10
17.66977293378996
 20
-6.686460025988992
 10
17.66270779841194
 20
-6.685581037503991
 10
17.65565702531498
 20
-6.684597139151009
 10
17.64862163867998
 20
-6.683508898698987
 10
17.64160266268496
 20
-6.682316883916995
 10
17.63460112151096
 20
-6.681021662575004
 10
17.62761803933898
 20
-6.679623802441001
 10
17.62065444034696
 20
-6.678123871285011
 10
17.61371134875401
 20
-6.676522436889996
 10
17.60678988544198
 20
-6.674820102297017
 10
17.59989147639898
 20
-6.673017581830036
 10
17.59301760766595
 20
-6.67111561172001
 10
17.58616976528498
 20
-6.669114928194997
 10
17.57934943529497
 20
-6.66701626748298
 10
17.57255810373698
 20
-6.664820365816012
 10
17.56579725665099
 20
-6.662527959420002
 10
17.55906838007899
 20
-6.660139784524997
 10
17.55237296005896
 20
-6.657656577359999
 10
17.545712482634
 20
-6.655079074154995
 10
17.539088433844
 20
-6.652408011136995
 10
17.53250229972898
 20
-6.649644124537017
 10
17.52595556632999
 20
-6.646788150583007
 10
17.51944971968597
 20
-6.643840825503986
 10
17.51298624583998
 20
-6.640802885528982
 10
17.50656663083097
 20
-6.637675066885972
 10
17.50019236069999
 20
-6.634458105806002
 10
17.49386492148699
 20
-6.631152738517982
 10
17.48758579923296
 20
-6.627759701249003
 10
17.48135647997898
 20
-6.624279730229003
 10
17.47517844976496
 20
-6.620713561687012
 10
17.46803755402999
 20
-6.616445069837991
 10
17.46097085082197
 20
-6.612061424777977
 10
17.45398065425299
 20
-6.607563762889982
 10
17.44706877815497
 20
-6.602952862066986
 10
17.44023672753496
 20
-6.598229278904994
 10
17.43348600284699
 20
-6.593393566738996
 10
17.42681810454095
 20
-6.588446278899994
 10
17.42023453306899
 20
-6.583387968722007
 10
17.41373678888499
 20
-6.578219189537009
 10
17.40732637243999
 20
-6.572940494680012
 10
17.40100478418596
 20
-6.567552437480999
 10
17.39477352457497
 20
-6.562055571276004
 10
17.38863409406
 20
-6.556450449394987
 10
17.38258799309297
 20
-6.550737625172986
 10
17.37663672212397
 20
-6.544917651941974
 10
17.370781781608
 20
-6.538991083035003
 10
17.365024671995
 20
-6.532958471786002
 10
17.35936689373898
 20
-6.526820371525984
 10
17.35380994728997
 20
-6.52057733558999
 10
17.34835533310197
 20
-6.514229917308996
 10
17.34300455162594
 20
-6.507778670017017
 10
17.33775910331397
 20
-6.501224147046999
 10
17.332620488619
 20
-6.494566901730991
 10
17.32759019671496
 20
-6.487807593473007
 10
17.32266943811197
 20
-6.480949502662014
 10
17.31785913349996
 20
-6.473998635587009
 10
17.31316019006098
 20
-6.466961125599027
 10
17.30857351497397
 20
-6.459843106050982
 10
17.30410001542193
 20
-6.452650710292997
 10
17.299740598586
 20
-6.445390071678017
 10
17.29549617164497
 20
-6.438067323555968
 10
17.29195030163899
 20
-6.431745897400017
 10
17.28849015179298
 20
-6.425387208307994
 10
17.28511629339197
 20
-6.418995118682999
 10
17.28182929772097
 20
-6.412573490924981
 10
17.27862973606798
 20
-6.406126187438017
 10
17.27551817971697
 20
-6.399657070624018
 10
17.27249519995497
 20
-6.393170002885026
 10
17.26956136806899
 20
-6.386668846622995
 10
17.26671725534296
 20
-6.380157464239996
 10
17.26396343306399
 20
-6.373639718138009
 10
17.261300472518
 20
-6.367119470719982
 10
17.25872894498996
 20
-6.360600584387015
 10
17.25624942176799
 20
-6.354086921542004
 10
17.25386247413601
 20
-6.347582344587012
 10
17.25156867338099
 20
-6.341090715923995
 10
17.24936859078896
 20
-6.334615897955017
 10
17.24726279753497
 20
-6.328161749668994
 10
17.24525175649997
 20
-6.321728780097997
 10
17.24333561960096
 20
-6.315307879057004
 10
17.24151448328498
 20
-6.308888220504995
 10
17.23978844399897
 20
-6.302458978401973
 10
17.23815759819098
 20
-6.296009326710017
 10
17.23662204230999
 20
-6.289528439388987
 10
17.23518187280097
 20
-6.283005490396987
 10
17.23383718611398
 20
-6.276429653697022
 10
17.23258807869598
 20
-6.269790103247002
 10
17.23143464699396
 20
-6.263076013008997
 10
17.23037698745497
 20
-6.256276556941997
 10
17.229415196529
 20
-6.249380909005992
 10
17.22868700663897
 20
-6.243553245373987
 10
17.22802551496599
 20
-6.237644998680988
 10
17.22743077732497
 20
-6.231649903857003
 10
17.22690284952897
 20
-6.225561695833022
 10
17.22652864788898
 20
-6.220619877784002
 10
17.22619726884897
 20
-6.215611249926976
 10
17.22590874098496
 20
-6.210532604547013
 10
17.22566309287597
 20
-6.205380733927992
 10
17.22546035309699
 20
-6.200152430354987
 10
17.22530055022696
 20
-6.194844486113026
 10
17.22518371284198
 20
-6.189453693484979
 10
17.22510986951899
 20
-6.183976844756019
 10
17.22507904883497
 20
-6.178410732211997
 10
17.225078066305
 20
-6.177016779379982
  0
LWPOLYLINE
  5
1063
330
1E
100
AcDbEntity
  8
1
100
AcDbPolyline
 90
      112
 70
     0
 43
0.0
 10
22.381
 20
-6.342336437799987
 10
22.37669475044798
 20
-6.341736056591005
 10
22.37248687944398
 20
-6.341154174940982
 10
22.36837380976296
 20
-6.340590363519027
 10
22.36435296417996
 20
-6.340044192992022
 10
22.36042176547098
 20
-6.339515234028993
 10
22.35657763641196
 20
-6.339003057299008
 10
22.35281799977796
 20
-6.338507233469019
 10
22.34914027834398
 20
-6.338027333208005
 10
22.34554189488596
 20
-6.337562927183997
 10
22.34202027218
 20
-6.337113586066012
 10
22.33857283300096
 20
-6.336678880521017
 10
22.33519700012398
 20
-6.336258381217988
 10
22.33189019632598
 20
-6.33585165882499
 10
22.32864984438097
 20
-6.335458284010002
 10
22.32547336706496
 20
-6.335077827442004
 10
22.322358187155
 20
-6.334709859789002
 10
22.31779471224297
 20
-6.334180385862
 10
22.31335465960496
 20
-6.333676597001985
 10
22.30902933110696
 20
-6.333197044216009
 10
22.30481002861597
 20
-6.332740278507005
 10
22.30068805400096
 20
-6.332304850882993
 10
22.29665470912698
 20
-6.33188931234699
 10
22.29270129586398
 20
-6.331492213906019
 10
22.28881911607796
 20
-6.331112106565027
 10
22.28373865018397
 20
-6.330629222942008
 10
22.27874874043993
 20
-6.330170535074016
 10
22.27138856717698
 20
-6.329520357009017
 10
22.24709771673297
 20
-6.327541629693002
 10
22.24087537492599
 20
-6.327057608679012
 10
22.23580125638497
 20
-6.326664585839012
 10
22.23063830605596
 20
-6.326265711563992
 10
22.22539000869997
 20
-6.325861384206008
 10
22.22005985342599
 20
-6.325452002811007
 10
22.21328736207998
 20
-6.324933776747997
 10
22.20639923414398
 20
-6.324409056642992
 10
22.19940228428796
 20
-6.323878621882019
 10
22.19230332717998
 20
-6.323343251848004
 10
22.18365952413497
 20
-6.322695390623011
 10
22.17489041952096
 20
-6.322042891694994
 10
22.16600778908798
 20
-6.321387101842988
 10
22.15551694631298
 20
-6.320619651057995
 10
22.1433818159
 20
-6.319742067633995
 10
22.12803539718098
 20
-6.318649019438026
 10
22.10319940741297
 20
-6.316923925653981
 10
22.04556052499998
 20
-6.313175118592
 10
22.02406324237097
 20
-6.311887647423017
 10
22.00127824585897
 20
-6.310591180662982
 10
21.97572946477098
 20
-6.309217069486012
 10
21.94599021405497
 20
-6.307716863000988
 10
21.90627197300397
 20
-6.305863474962992
 10
21.73165278922196
 20
-6.299071133881002
 10
21.67141334217696
 20
-6.297085133312013
 10
21.62537598731998
 20
-6.295694121943993
 10
21.58634686812396
 20
-6.294603892737002
 10
21.55297243919599
 20
-6.293737565739975
 10
21.52077873757498
 20
-6.292959909936002
 10
21.38481437893199
 20
-6.290209325332003
 10
21.36206085284196
 20
-6.289817359236994
 10
21.34406284829196
 20
-6.28951893054901
 10
21.32775461268499
 20
-6.289256943875017
 10
21.313108223498
 20
-6.289028198105002
 10
21.30008846670596
 20
-6.288829865901989
 10
21.28865564533898
 20
-6.288659470052977
 10
21.27736485299796
 20
-6.288494542546005
 10
21.26622567618098
 20
-6.288335002666995
 10
21.25661080483796
 20
-6.288199761358979
 10
21.24712577600098
 20
-6.288068529085992
 10
21.23777701187596
 20
-6.287941251776005
 10
21.22987710921397
 20
-6.287835263778985
 10
21.22208601034297
 20
-6.287732107826005
 10
21.21313017665598
 20
-6.287615310283002
 10
21.20304526516599
 20
-6.287486507509982
 10
21.19061497684397
 20
-6.287332525332974
 10
21.12914406304198
 20
-6.286679685270994
 10
21.11906592186497
 20
-6.286593345448012
 10
21.11011731896998
 20
-6.286521898959986
 10
21.10233227733596
 20
-6.286463705860025
 10
21.09442616630198
 20
-6.286408325472992
 10
21.08773494289096
 20
-6.286364323978007
 10
21.08094144236797
 20
-6.286322276153982
 10
21.07403739148697
 20
-6.286282182182986
 10
21.06701451700098
 20
-6.286244042247998
 10
21.06130510479597
 20
-6.286214937326009
 10
21.05551011470498
 20
-6.286187083195981
 10
21.04962531082696
 20
-6.286160479951008
 10
21.04364645725798
 20
-6.286135127682002
 10
21.03756931809797
 20
-6.286111026483014
 10
21.03138965744496
 20
-6.286088176446982
 10
21.025103239396
 20
-6.286066577667011
 10
21.01870582805096
 20
-6.286046230236022
 10
21.01219318750596
 20
-6.286027134245982
 10
21.007230539776
 20
-6.286013633567988
 10
21.002198905905
 20
-6.286000836917994
 10
20.99709649887397
 20
-6.285988744333992
 10
20.99192153165899
 20
-6.28597735585498
 10
20.98667221724098
 20
-6.285966671521975
 10
20.98134676859796
 20
-6.285956691372008
 10
20.97594339871
 20
-6.285947415446002
 10
20.97046032055396
 20
-6.285938843782989
 10
20.96489574711
 20
-6.285930976419988
 10
20.95924789135799
 20
-6.285923813399024
 10
20.95351496627498
 20
-6.285917354757995
 10
20.94769518483996
 20
-6.285911600535994
 10
20.94178676003398
 20
-6.285906550772009
 10
20.93578790483396
 20
-6.285902205506007
 10
20.92969683221898
 20
-6.285898564776997
 10
20.92351175516796
 20
-6.285895628623991
 10
20.91723088666097
 20
-6.285893397085003
 10
20.91085243967496
 20
-6.285891870200998
 10
20.90437462719096
 20
-6.285891048011023
 10
20.90001482755698
 20
-6.285890891402002
  0
LWPOLYLINE
  5
13EB
330
1E
100
AcDbEntity
  8
1
100
AcDbPolyline
 90
      110
 70
     0
 43
0.0
 10
18.07861940779996
 20
-6.539311859099997
 10
18.07906959549598
 20
-6.538850632242002
 10
18.079543587117
 20
-6.538365020301027
 10
18.08004114151501
 20
-6.537855270466991
 10
18.08056201754598
 20
-6.537321629930007
 10
18.08110597406096
 20
-6.536764345881008
 10
18.08167276991698
 20
-6.536183665511002
 10
18.08226216396498
 20
-6.535579836011009
 10
18.08287391506096
 20
-6.534953104571004
 10
18.08350778205698
 20
-6.534303718382004
 10
18.08416352380796
 20
-6.533631924634024
 10
18.08497894905096
 20
-6.532796542204009
 10
18.08582510998997
 20
-6.531929675989997
 10
18.08670158992398
 20
-6.531031753137026
 10
18.08760797215196
 20
-6.530103200792011
 10
18.08854383997395
 20
-6.529144446097972
 10
18.089508776689
 20
-6.528155916202022
 10
18.09050236559598
 20
-6.527138038249007
 10
18.09152418999596
 20
-6.526091239384982
 10
18.09257383318598
 20
-6.525015946756012
 10
18.09365087846694
 20
-6.523912587505972
 10
18.09475490913796
 20
-6.522781588781012
 10
18.09588550849796
 20
-6.521623377726026
 10
18.09704225984796
 20
-6.52043838148799
 10
18.09822474648498
 20
-6.519227027211004
 10
18.09943255171001
 20
-6.517989742041011
 10
18.10087310176398
 20
-6.516514038766017
 10
18.10234688434896
 20
-6.515004300348008
 10
18.10385323775799
 20
-6.513461205078018
 10
18.10539150028694
 20
-6.511885431246982
 10
18.10696101022998
 20
-6.510277657146986
 10
18.10856110588199
 20
-6.508638561069003
 10
18.11019112553794
 20
-6.506968821304012
 10
18.11185040749396
 20
-6.505269116142982
 10
18.11353829004296
 20
-6.503540123878022
 10
18.11550147097096
 20
-6.501529141068004
 10
18.11750015577398
 20
-6.499481804137986
 10
18.119533356717
 20
-6.497399125580017
 10
18.12160008606497
 20
-6.495282117887994
 10
18.12369935608298
 20
-6.493131793553997
 10
18.12609870127896
 20
-6.490674115553018
 10
18.12853657429396
 20
-6.488176994230003
 10
18.13101156876398
 20
-6.485641871201011
 10
18.13380338959898
 20
-6.482782251338987
 10
18.136637373968
 20
-6.479879473088004
 10
18.13951159270198
 20
-6.47693551397498
 10
18.14271740153799
 20
-6.473651955230027
 10
18.14596699193598
 20
-6.470323592532992
 10
18.14955891511198
 20
-6.46664464553601
 10
18.15350164800497
 20
-6.462606447141978
 10
18.15780280651198
 20
-6.45820121473599
 10
18.16246876930596
 20
-6.453422435801996
 10
18.16782082098899
 20
-6.447941091259988
 10
18.17419198508898
 20
-6.441416176604009
 10
18.18257089450199
 20
-6.432835346010022
 10
18.22977751700796
 20
-6.384497892006979
 10
18.23615117164496
 20
-6.377972410625002
 10
18.241506150615
 20
-6.372490006641012
 10
18.24617540825897
 20
-6.36770973878001
 10
18.25048031416995
 20
-6.363302563269996
 10
18.25442716320898
 20
-6.359262015208996
 10
18.25802347371299
 20
-6.355580380083012
 10
18.26127761569194
 20
-6.352249074079026
 10
18.26448851378296
 20
-6.348962076337017
 10
18.26736785088296
 20
-6.346014530227026
 10
18.27020744521398
 20
-6.343107698148005
 10
18.27300539010099
 20
-6.340243530399018
 10
18.27548635435698
 20
-6.337703869352995
 10
18.27793064819099
 20
-6.335201767927005
 10
18.28033688163398
 20
-6.332738647892003
 10
18.28244268020696
 20
-6.330583082354992
 10
18.28451633191098
 20
-6.328460438856015
 10
18.28655686052798
 20
-6.326371715949025
 10
18.28856328983994
 20
-6.32431791218801
 10
18.29053464362996
 20
-6.322300026127011
 10
18.29246994567998
 20
-6.32031905631999
 10
18.29413299384296
 20
-6.318616775599028
 10
18.29576703848698
 20
-6.316944192355013
 10
18.29737142561998
 20
-6.31530197554298
 10
18.29894550125498
 20
-6.313690794113997
 10
18.30048861140096
 20
-6.312111317023012
 10
18.30200010206796
 20
-6.310564213221995
 10
18.30347931926698
 20
-6.309050151664988
 10
18.30492560900796
 20
-6.307569801304026
 10
18.30633831730199
 20
-6.306123831092977
 10
18.30752198629896
 20
-6.304912298926013
 10
18.30868009088796
 20
-6.303726938384019
 10
18.30981221922796
 20
-6.302568170735011
 10
18.31091795947596
 20
-6.301436417241008
 10
18.31199689978996
 20
-6.300332099168005
 10
18.31304862832896
 20
-6.299255637782012
 10
18.31407273325098
 20
-6.298207454345998
 10
18.31506880271396
 20
-6.297187970126999
 10
18.31603642487597
 20
-6.296197606388004
 10
18.31697518789498
 20
-6.295236784394999
 10
18.31788467992998
 20
-6.294305925413026
 10
18.31876448913797
 20
-6.293405450705987
 10
18.31961420367698
 20
-6.292535781540977
 10
18.320433411707
 20
-6.291697339179986
 10
18.32122170138399
 20
-6.290890544891031
 10
18.32185469413896
 20
-6.290242695848013
 10
18.32246569147996
 20
-6.289617360964002
 10
18.32305445507398
 20
-6.289014784026987
 10
18.32362074658496
 20
-6.288435208825007
 10
18.32416432767896
 20
-6.287878879145012
 10
18.32468496002197
 20
-6.287346038774985
 10
18.32518240527996
 20
-6.286836931502985
 10
18.32565642511696
 20
-6.286351801114991
 10
18.32610678119996
 20
-6.285890891399986
 10
18.32610430527196
 20
-6.285893425341982
  0
LWPOLYLINE
  5
14CC
330
1E
100
AcDbEntity
  8
1
100
AcDbPolyline
 90
      111
 70
     0
 43
0.0
 10
17.61899999999998
 20
4.552510541599985
 10
17.61855795796796
 20
4.552946593384002
 10
17.61809198224496
 20
4.553406252662993
 10
17.617602314105
 20
4.553889281325976
 10
17.617089194827
 20
4.55439544126099
 10
17.61655286568696
 20
4.554924494356978
 10
17.61599356796199
 20
4.555476202500981
 10
17.615411542928
 20
4.556050327581997
 10
17.61480703186196
 20
4.556646631488002
 10
17.61418027604196
 20
4.557264876108003
 10
17.61353151674296
 20
4.557904823330001
 10
17.61272430071096
 20
4.558701072168981
 10
17.61188616403497
 20
4.559527818416992
 10
17.61101752364098
 20
4.560384650616978
 10
17.61011879645698
 20
4.561271157312002
 10
17.60919039940698
 20
4.562186927043992
 10
17.60823274941799
 20
4.563131548356972
 10
17.60724626341598
 20
4.564104609792988
 10
17.60623135832796
 20
4.565105699895978
 10
17.605188451081
 20
4.566134407209003
 10
17.60411795859897
 20
4.567190320273992
 10
17.60302029780898
 20
4.568273027633976
 10
17.60189588563798
 20
4.56938211783301
 10
17.60074513901198
 20
4.570517179413995
 10
17.59956847485696
 20
4.571677800918988
 10
17.59836631009997
 20
4.572863570890999
 10
17.59693211084398
 20
4.57427820513399
 10
17.59546443198101
 20
4.575725855816981
 10
17.59396393557398
 20
4.577205869562986
 10
17.59243128368697
 20
4.578717592993994
 10
17.59086713838297
 20
4.580260372728981
 10
17.589272161726
 20
4.581833555391993
 10
17.587647015778
 20
4.583436487602993
 10
17.58599236260397
 20
4.585068515984001
 10
17.58430886426597
 20
4.586728987156986
 10
17.58235039485197
 20
4.588660658251993
 10
17.58035610312899
 20
4.590627650416988
 10
17.57832697736498
 20
4.592628988346999
 10
17.57626400583097
 20
4.594663696736999
 10
17.57416817679597
 20
4.596730800279995
 10
17.57177232466196
 20
4.599093799727993
 10
17.56933754515697
 20
4.601495176254983
 10
17.56686524540997
 20
4.60393354119199
 10
17.56435683254397
 20
4.606407505871996
 10
17.561529063704
 20
4.609196419296009
 10
17.558660378175
 20
4.61202566372199
 10
17.55545986902697
 20
4.615182141406988
 10
17.55221475535998
 20
4.618382579269988
 10
17.54862677894297
 20
4.621921123177
 10
17.54468722045699
 20
4.62580636045001
 10
17.54038820226799
 20
4.630046046294007
 10
17.53572306482396
 20
4.634646732345996
 10
17.53037011723997
 20
4.639925638836981
 10
17.52399541473596
 20
4.646212041460981
 10
17.51593223649396
 20
4.654163325960007
 10
17.50157213414598
 20
4.668323536611008
 10
17.47408907640098
 20
4.69542160228701
 10
17.46602714849498
 20
4.703370027911999
 10
17.45965406704596
 20
4.709653221641016
 10
17.45430302799499
 20
4.714928682514992
 10
17.44964004142699
 20
4.719525733109007
 10
17.44534347196897
 20
4.723761487062002
 10
17.44140660535799
 20
4.727642579576976
 10
17.43782150009798
 20
4.731176853428988
 10
17.43457936674294
 20
4.734372985287988
 10
17.431382191599
 20
4.737524766640998
 10
17.42851686057997
 20
4.740349390239964
 10
17.425692769823
 20
4.743133336400003
 10
17.42318795619598
 20
4.745602524953991
 10
17.42071954069499
 20
4.748035815671012
 10
17.41828894130198
 20
4.750431811606999
 10
17.415897575998
 20
4.752789115811988
 10
17.41380600152297
 20
4.754850886069986
 10
17.41174754309497
 20
4.756880000203975
 10
17.409723196605
 20
4.758875477092
 10
17.40773395794798
 20
4.760836335613983
 10
17.40578082301595
 20
4.762761594650011
 10
17.404102229192
 20
4.764416222310016
 10
17.40245270693296
 20
4.76604218566899
 10
17.40083292341097
 20
4.767638827451005
 10
17.39924354579497
 20
4.769205490383993
 10
17.39768524125597
 20
4.770741517191991
 10
17.39615867696497
 20
4.772246250600996
 10
17.39466452009199
 20
4.773719033337012
 10
17.39320343780796
 20
4.775159208125981
 10
17.39177609728297
 20
4.776566117693985
 10
17.39058002396097
 20
4.777745065554992
 10
17.38940965081098
 20
4.778898676856012
 10
17.38826539797499
 20
4.780026537687002
 10
17.387147685597
 20
4.78112823413701
 10
17.38605693381797
 20
4.782203352295992
 10
17.38499356277998
 20
4.783251478253985
 10
17.38395799262798
 20
4.784272198101002
 10
17.38295064350097
 20
4.78526509792601
 10
17.38197193554396
 20
4.786229763818992
 10
17.381022288898
 20
4.787165781868988
 10
17.38010212370497
 20
4.788072738166985
 10
17.37921186010896
 20
4.788950218801997
 10
17.37835191825098
 20
4.789797809864008
 10
17.37752271827301
 20
4.790615097442978
 10
17.376855504785
 20
4.791272723314985
 10
17.37621017472901
 20
4.791908778132007
 10
17.37558697124196
 20
4.792523022362983
 10
17.37498613746299
 20
4.793115216476988
 10
17.37440791653
 20
4.793685120940976
 10
17.37385255158
 20
4.79423249622499
 10
17.37332028575198
 20
4.794757102797005
 10
17.372811362183
 20
4.795258701126012
 10
17.37232602401098
 20
4.795737051678994
 10
17.371864514375
 20
4.796191914926991
 10
17.37151510240698
 20
4.796536293560988
  0
LWPOLYLINE
  5
153D
330
1E
100
AcDbEntity
  8
SK1
100
AcDbPolyline
 90
      243
 70
     0
 43
0.0
 10
-14.5
 20
-7.999999999999997
 10
-14.46631038949101
 20
-7.981052580630002
 10
-14.443130538013
 20
-7.968022758823022
 10
-14.428780558927
 20
-7.959965628678017
 10
-14.421580565592
 20
-7.955936284295001
 10
-14.41985067137198
 20
-7.954989819772973
 10
-14.42191098962601
 20
-7.956181329211002
 10
-14.42608163371602
 20
-7.958565906708995
 10
-14.43068271700302
 20
-7.961198646365996
 10
-14.43416840636101
 20
-7.963210045670985
 10
-14.43608314109303
 20
-7.964343866423972
 10
-14.43650188416202
 20
-7.96464228320701
 10
-14.43550314116601
 20
-7.964149463291017
 10
-14.43316541770498
 20
-7.962909573946004
 10
-14.429567219381
 20
-7.96096678244299
 10
-14.42478705179301
 20
-7.958365256052013
 10
-14.418903420541
 20
-7.955149162043992
 10
-14.41199483122503
 20
-7.95136266768901
 10
-14.40413978944499
 20
-7.94704994025798
 10
-14.39541680080103
 20
-7.942255147020995
 10
-14.38590437089303
 20
-7.937022455249997
 10
-14.375681005322
 20
-7.931396032214022
 10
-14.36482520968601
 20
-7.925420045184009
 10
-14.35341548958703
 20
-7.919138661431013
 10
-14.34153035062402
 20
-7.912596048225022
 10
-14.32924829839802
 20
-7.905836372836003
 10
-14.316647838508
 20
-7.898903802536008
 10
-14.303807476554
 20
-7.891842504594987
 10
-14.28426884825401
 20
-7.881105809258993
 10
-14.25161712010398
 20
-7.863193381827013
 10
-14.238754831833
 20
-7.856150954738009
 10
-14.22612367509898
 20
-7.849244803631018
 10
-14.21379783380197
 20
-7.842516666043021
 10
-14.201800594025
 20
-7.835979663889983
 10
-14.19012208934299
 20
-7.829628280178977
 10
-14.178751886455
 20
-7.82345667921299
 10
-14.16767955205902
 20
-7.817459025293
 10
-14.15689465285402
 20
-7.811629482719973
 10
-14.14638675553899
 20
-7.805962215795031
 10
-14.13614542681002
 20
-7.800451388818997
 10
-14.12616023336902
 20
-7.795091166094005
 10
-14.11642074191101
 20
-7.789875711921008
 10
-14.106916519137
 20
-7.784799190600007
 10
-14.09763713174498
 20
-7.779855766434022
 10
-14.08857214643299
 20
-7.775039603724021
 10
-14.07971112990002
 20
-7.770344866769985
 10
-14.06677922371201
 20
-7.763517669040989
 10
-14.05424755995602
 20
-7.756930853460002
 10
-14.04208092623901
 20
-7.750564724542013
 10
-14.030244110167
 20
-7.744399586804004
 10
-14.018701899348
 20
-7.738415744761992
 10
-14.00741908138999
 20
-7.732593502934006
 10
-13.99271796319303
 20
-7.725047850363011
 10
-13.97833192163798
 20
-7.71770778727699
 10
-13.95716104523399
 20
-7.706981048203996
 10
-13.90111078277902
 20
-7.678926090035017
 10
-13.88673824560501
 20
-7.671784397339017
 10
-13.87206307375802
 20
-7.664502780336982
 10
-13.85707218415699
 20
-7.657073862298996
 10
-13.84178066254799
 20
-7.649505998690981
 10
-13.82620373493202
 20
-7.641807623311986
 10
-13.81035662731201
 20
-7.633987169957999
 10
-13.79019099801701
 20
-7.624052779482012
 10
-13.76965674137599
 20
-7.613957292244973
 10
-13.74878359567299
 20
-7.603717180510016
 10
-13.72333035877201
 20
-7.591261335035023
 10
-13.69748333250702
 20
-7.578649414411017
 10
-13.66689931918602
 20
-7.563776219425021
 10
-13.63148017051601
 20
-7.546623579529007
 10
-13.57767640510701
 20
-7.520727534494022
 10
-13.45111572814899
 20
-7.460704430301006
 10
-13.39740885782902
 20
-7.435690327754027
 10
-13.33989667500401
 20
-7.409262036378008
 10
-13.278572724977
 20
-7.381524604449988
 10
-13.209021778664
 20
-7.350660772718009
 10
-13.13111014779098
 20
-7.316886808838003
 10
-13.04012685832802
 20
-7.278571094053999
 10
-12.94402937763099
 20
-7.239454530784994
 10
-12.882120535587
 20
-7.214992011649995
 10
-12.81944945013703
 20
-7.190797435497016
 10
-12.71979395825803
 20
-7.153341321226999
 10
-12.58754277799602
 20
-7.105164414249
 10
-12.47411318283502
 20
-7.064878901369008
 10
-12.406874015065
 20
-7.04132350570202
 10
-12.35375293722702
 20
-7.022837012742001
 10
-12.31005074680401
 20
-7.007686758787992
 10
-12.271230031374
 20
-6.994257795303977
 10
-12.23717908154
 20
-6.982490485030008
 10
-12.19940221463001
 20
-6.969448113772016
 10
-12.137310997265
 20
-6.948176675260008
 10
-12.05500280308999
 20
-6.920729362375991
 10
-12.00517104473799
 20
-6.904767852577999
 10
-11.96727236435199
 20
-6.893048411117005
 10
-11.937361178791
 20
-6.884083335287014
 10
-11.91135294090099
 20
-6.876503970235997
 10
-11.88494925947603
 20
-6.86902190551299
 10
-11.86260732342401
 20
-6.862861445106003
 10
-11.839925844495
 20
-6.856769025352004
 10
-11.81687530936801
 20
-6.85074486033599
 10
-11.79814932785001
 20
-6.845974815596998
 10
-11.77915315101599
 20
-6.841248700513997
 10
-11.759871668046
 20
-6.836566624695018
 10
-11.74028976811799
 20
-6.831928697752994
 10
-11.72039234041098
 20
-6.827335029296982
 10
-11.70016427410402
 20
-6.822785728937982
 10
-11.67959045837503
 20
-6.818280906286017
 10
-11.65865578240402
 20
-6.813820670951992
 10
-11.642708870787
 20
-6.810504820815987
 10
-11.626544100569
 20
-6.807214158944016
 10
-11.61015509687203
 20
-6.803948731577005
 10
-11.593535484818
 20
-6.800708584958981
 10
-11.57667888953002
 20
-6.797493765330012
 10
-11.559578936129
 20
-6.794304318932002
 10
-11.542229249738
 20
-6.791140292008007
 10
-11.52462350233999
 20
-6.788001730854003
 10
-11.50676363963901
 20
-6.784888691369014
 10
-11.48866931148504
 20
-6.781801250004005
 10
-11.46421672450099
 20
-6.777724617532012
 10
-11.43943828906403
 20
-6.77369382094599
 10
-11.408086220868
 20
-6.768720067568009
 10
-11.37004186890202
 20
-6.762847002355012
 10
-11.25484359008898
 20
-6.745858614360003
 10
-11.210347211563
 20
-6.739510203401978
 10
-11.178911647145
 20
-6.735065023389011
 10
-11.15404971548598
 20
-6.731562800168005
 10
-11.12949878850702
 20
-6.728108709659007
 10
-11.11132096413099
 20
-6.725549841660008
 10
-11.09336925558503
 20
-6.723018232876992
 10
-11.07566559531101
 20
-6.720513962410018
 10
-11.058231915751
 20
-6.718037109360007
 10
-11.04109014934701
 20
-6.715587752824996
 10
-11.02426222854202
 20
-6.713165971906021
 10
-11.00777008577602
 20
-6.710771845703018
 10
-10.99163565349299
 20
-6.708405453316003
 10
-10.97588086413403
 20
-6.706066873843012
 10
-10.96052765014204
 20
-6.703756186385986
 10
-10.95052610240798
 20
-6.702231262706987
 10
-10.94071927886798
 20
-6.700718794071004
 10
-10.93111367802299
 20
-6.699218803916012
 10
-10.92171579837502
 20
-6.697731315677994
 10
-10.91253213842499
 20
-6.69625635279601
 10
-10.90356919667399
 20
-6.694793938703978
 10
-10.89483347162399
 20
-6.693344096841994
 10
-10.88633146177599
 20
-6.691906850643983
 10
-10.87806966563098
 20
-6.69048222354999
 10
-10.87005458168998
 20
-6.689070238995013
 10
-10.86229270845601
 20
-6.687670920415993
 10
-10.854790544429
 20
-6.686284291250981
 10
-10.84755458811001
 20
-6.684910374935981
 10
-10.84059133800201
 20
-6.683549194909002
 10
-10.83390729260401
 20
-6.682200774606027
 10
-10.82750895041999
 20
-6.680865137465016
 10
-10.82140280994899
 20
-6.679542306922003
 10
-10.81559536969398
 20
-6.678232306414995
 10
-10.81009312815501
 20
-6.676935159379011
 10
-10.804902583835
 20
-6.675650889254
 10
-10.800030235234
 20
-6.674379519473997
 10
-10.79548258085301
 20
-6.673121073477995
 10
-10.79126611919501
 20
-6.67187557470299
 10
-10.787387348759
 20
-6.670643046585011
 10
-10.78385276804903
 20
-6.669423512560991
 10
-10.78066887556498
 20
-6.668216996067996
 10
-10.77784216980802
 20
-6.667023520542981
 10
-10.775379149279
 20
-6.665843109424026
 10
-10.77328631248102
 20
-6.664675786147991
 10
-10.77157015791502
 20
-6.663521574149993
 10
-10.77023718408
 20
-6.662380496868022
 10
-10.76929388948101
 20
-6.661252577739982
 10
-10.76874677261602
 20
-6.660137840201995
 10
-10.768602331988
 20
-6.65903630769199
 10
-10.76886379506902
 20
-6.657948001893003
 10
-10.769514563921
 20
-6.656872933876003
 10
-10.770530610704
 20
-6.655811110730011
 10
-10.77188789447899
 20
-6.654762539538011
 10
-10.773562374306
 20
-6.653727227382002
 10
-10.775530009247
 20
-6.652705181346018
 10
-10.77776675836201
 20
-6.651696408512008
 10
-10.78024858071202
 20
-6.650700915963025
 10
-10.78295143535801
 20
-6.649718710782022
 10
-10.787367563326
 20
-6.648270332318985
 10
-10.79214578367702
 20
-6.646851890275002
 10
-10.79720495824102
 20
-6.645463408554004
 10
-10.8042473254
 20
-6.643658745857007
 10
-10.82387530830402
 20
-6.638971241456968
 10
-10.82891630657701
 20
-6.637763023670997
 10
-10.83367029187402
 20
-6.636584933540008
 10
-10.83805612602401
 20
-6.635436994967986
 10
-10.84073541881197
 20
-6.634688465257991
 10
-10.84319098651999
 20
-6.633953353948011
 10
-10.84539878820899
 20
-6.63323166812199
 10
-10.84733478293997
 20
-6.632523414860996
 10
-10.84897492977401
 20
-6.631828601248002
 10
-10.85029518777201
 20
-6.631147234366972
 10
-10.851271515994
 20
-6.630479321301007
 10
-10.85187987350102
 20
-6.62982486913199
 10
-10.85209621935401
 20
-6.629183884942021
 10
-10.85189651261398
 20
-6.628556375816001
 10
-10.851256712342
 20
-6.627942348834976
 10
-10.85015277759799
 20
-6.627341811082002
 10
-10.84856066744302
 20
-6.626754769640995
 10
-10.846456340938
 20
-6.62618123159302
 10
-10.84381575714401
 20
-6.625621204023016
 10
-10.84061487512201
 20
-6.625074694012989
 10
-10.836829653932
 20
-6.624541708645009
 10
-10.83243605263499
 20
-6.624022255002016
 10
-10.82741003029098
 20
-6.623516340167012
 10
-10.82172754596302
 20
-6.623023971224028
 10
-10.81536455871001
 20
-6.622545155254017
 10
-10.80829702759398
 20
-6.622079899341994
 10
-10.80050091167402
 20
-6.621628210568016
 10
-10.79195217001301
 20
-6.621190096016986
 10
-10.78262676167
 20
-6.620765562770996
 10
-10.77250064570699
 20
-6.620354617913021
 10
-10.761549781184
 20
-6.619957268526007
 10
-10.74975012716202
 20
-6.619573521693011
 10
-10.73707764270203
 20
-6.619203384495986
 10
-10.72350828686501
 20
-6.618846864018022
 10
-10.709018018711
 20
-6.618503967342008
 10
-10.69358279730102
 20
-6.618174701552018
 10
-10.67717858169699
 20
-6.617859073729023
 10
-10.65978133095802
 20
-6.617557090956976
 10
-10.64136700414602
 20
-6.617268760317981
 10
-10.62191156032102
 20
-6.616994088894981
 10
-10.60139095854501
 20
-6.616733083771006
 10
-10.57978115787702
 20
-6.616485752029007
 10
-10.55705811738002
 20
-6.616252100751975
 10
-10.533197796113
 20
-6.616032137023013
 10
-10.50817615313698
 20
-6.615825867924001
 10
-10.481969147514
 20
-6.615633300537974
 10
-10.45455273830403
 20
-6.615454441948001
 10
-10.42590288456699
 20
-6.615289299235992
 10
-10.39599554536499
 20
-6.615137879487005
 10
-10.364806679758
 20
-6.615000189781991
 10
-10.33231224680801
 20
-6.614876237204012
 10
-10.29848820557401
 20
-6.614766028837006
 10
-10.26331051511901
 20
-6.614669571762018
 10
-10.22675513450101
 20
-6.614586873063017
 10
-10.188798022784
 20
-6.614517939823
 10
-10.14941513902599
 20
-6.61446277912398
 10
-10.10858244228902
 20
-6.614421398049016
 10
-10.06627589163403
 20
-6.614393803682014
 10
-10.02247144612103
 20
-6.614380003104028
 10
-10.00004760450001
 20
-6.614378277708024
  0
LWPOLYLINE
  5
1632
330
1E
100
AcDbEntity
  8
SK1
100
AcDbPolyline
 90
      243
 70
     0
 43
0.0
 10
-5.499999999999999
 20
8.0
 10
-5.533704865335009
 20
7.981044000144008
 10
-5.556924538326
 20
7.967991778974007
 10
-5.571329875881016
 20
7.959903509777999
 10
-5.578591734911014
 20
7.955839365847992
 10
-5.580380972324004
 20
7.954859520474002
 10
-5.578368445028983
 20
7.956024146944997
 10
-5.57422500993499
 20
7.958393418551992
 10
-5.569621523953027
 20
7.961027508585996
 10
-5.566107731029033
 20
7.963054714821992
 10
-5.564165525198034
 20
7.964203986919982
 10
-5.563721101617001
 20
7.964516848025994
 10
-5.564695884803025
 20
7.964037504713985
 10
-5.56701129927299
 20
7.962810163554991
 10
-5.570588769543005
 20
7.960879031122003
 10
-5.57534972013101
 20
7.958288313986003
 10
-5.581215575555003
 20
7.955082218720009
 10
-5.588107760330019
 20
7.951304951894996
 10
-5.59594769897401
 20
7.947000720083992
 10
-5.604656816005016
 20
7.942213729858987
 10
-5.614156535939032
 20
7.936988187791992
 10
-5.624368283293987
 20
7.931368300455003
 10
-5.635213482584988
 20
7.925398274418996
 10
-5.646613558332034
 20
7.919122316256986
 10
-5.658489935050026
 20
7.912584632542007
 10
-5.67076403725701
 20
7.905829429844002
 10
-5.683357289469994
 20
7.898900914736995
 10
-5.696191116206021
 20
7.891843293791992
 10
-5.715721049671031
 20
7.881111490804017
 10
-5.748360658720026
 20
7.863205883073987
 10
-5.761218725826013
 20
7.856165831520995
 10
-5.773845914559016
 20
7.849261913562003
 10
-5.786167823739016
 20
7.842535988904982
 10
-5.798160658631014
 20
7.836001465473003
 10
-5.809834289488008
 20
7.829652824170012
 10
-5.821199195090001
 20
7.823484203774
 10
-5.832265854221016
 20
7.817489743064014
 10
-5.843044745663005
 20
7.811663580817993
 10
-5.853546348198022
 20
7.805999855815002
 10
-5.863781140609032
 20
7.800492706831986
 10
-5.873759601678016
 20
7.795136272648988
 10
-5.883492210188022
 20
7.789924692043
 10
-5.892989444920996
 20
7.784852103792986
 10
-5.902261784658999
 20
7.779912646677986
 10
-5.911319708185
 20
7.775100459474997
 10
-5.920173694281003
 20
7.770409680961987
 10
-5.933095213081027
 20
7.763588333067986
 10
-5.945616815815012
 20
7.757007185355007
 10
-5.95777386837403
 20
7.750646456203012
 10
-5.969601736649021
 20
7.744486363986991
 10
-5.981135786529021
 20
7.738507127085001
 10
-5.992411383907009
 20
7.732688963874012
 10
-6.007104602747005
 20
7.725147781539987
 10
-6.021485053424012
 20
7.717810895330019
 10
-6.042652667825023
 20
7.707086049871008
 10
-6.09873296594503
 20
7.679014427667
 10
-6.113123786133003
 20
7.671862528045013
 10
-6.127820372471002
 20
7.664568943781007
 10
-6.142832308214987
 20
7.657128251658009
 10
-6.158144353316996
 20
7.649548892145987
 10
-6.173741213413022
 20
7.641839336047977
 10
-6.18960759413903
 20
7.63400805416799
 10
-6.209796283427007
 20
7.624060679677
 10
-6.230352329454007
 20
7.613952888820986
 10
-6.251245860414995
 20
7.603701226138981
 10
-6.276721518183022
 20
7.591232614819007
 10
-6.302588520383012
 20
7.578609241168011
 10
-6.333192441030006
 20
7.563724510192997
 10
-6.368629411516987
 20
7.546561336905001
 10
-6.422448897215017
 20
7.520655417439003
 10
-6.544484990930043
 20
7.462751752199013
 10
-6.598207876550016
 20
7.437705936717008
 10
-6.655733922863018
 20
7.411243942552006
 10
-6.717066918140002
 20
7.383471945787987
 10
-6.786621107922027
 20
7.352570683080017
 10
-6.864527881790023
 20
7.318757071806999
 10
-6.955494948164043
 20
7.280398122669992
 10
-7.051564298268995
 20
7.241239404121981
 10
-7.113449833649043
 20
7.216751555644972
 10
-7.176097348219994
 20
7.192531924343001
 10
-7.275725607586021
 20
7.155034792391003
 10
-7.407961229372031
 20
7.106800499260002
 10
-7.525905426850013
 20
7.064874788877999
 10
-7.593104740634995
 20
7.041318434508012
 10
-7.646186545018989
 20
7.022831747978982
 10
-7.68985115536901
 20
7.007681702521012
 10
-7.728634385286024
 20
6.994253201401987
 10
-7.762649179654003
 20
6.982486511708997
 10
-7.800389461403992
 20
6.969444900171994
 10
-7.862442550251016
 20
6.948174550783987
 10
-7.944740966578019
 20
6.920728373239994
 10
-7.994587411154041
 20
6.904767386961991
 10
-8.028264269934991
 20
6.894339695436004
 10
-8.058135391115996
 20
6.885356036047992
 10
-8.084103504963991
 20
6.877760649538997
 10
-8.11046157462502
 20
6.870262479015991
 10
-8.132761206728018
 20
6.864088533515994
 10
-8.15539639054802
 20
6.857982571572986
 10
-8.178396557480027
 20
6.851944807938991
 10
-8.197079256765022
 20
6.847163844128004
 10
-8.216029450208026
 20
6.842426774631007
 10
-8.235262206685007
 20
6.837733709399994
 10
-8.25479259507
 20
6.833084758387997
 10
-8.27463568423704
 20
6.828480031548989
 10
-8.294806543060047
 20
6.823919638836996
 10
-8.315320240415019
 20
6.819403690203984
 10
-8.336191845174028
 20
6.81493229560499
 10
-8.357436426213013
 20
6.810505564991982
 10
-8.373623692546004
 20
6.807214893916977
 10
-8.390035591459023
 20
6.803949454568991
 10
-8.406678480134019
 20
6.800709293335982
 10
-8.423558715751994
 20
6.797494456604
 10
-8.440682655494015
 20
6.794304990758007
 10
-8.458056656542025
 20
6.791140942187012
 10
-8.475686953663029
 20
6.788002357418007
 10
-8.493570021606046
 20
6.784889294284
 10
-8.511685625771036
 20
6.781801829968004
 10
-8.536163680539031
 20
6.777725167953007
 10
-8.560964395930026
 20
6.773694342999987
 10
-8.59234004178003
 20
6.768720555756003
 10
-8.630406777297025
 20
6.762847452140986
 10
-8.745638035535021
 20
6.745858962316987
 10
-8.790135349841987
 20
6.739510516629993
 10
-8.821568154246023
 20
6.735065313299997
 10
-8.846426028192041
 20
6.731563072260994
 10
-8.870971403037001
 20
6.728108964632982
 10
-8.889144165755991
 20
6.725550084231003
 10
-8.907090108110024
 20
6.723018463402012
 10
-8.924787355977031
 20
6.720514181227997
 10
-8.942214035231017
 20
6.718037316793012
 10
-8.95934827175202
 20
6.715587949182006
 10
-8.976168191415039
 20
6.713166157475995
 10
-8.99265192009801
 20
6.710772020760997
 10
-9.008777583677042
 20
6.708405618118008
 10
-9.024523308029015
 20
6.706067028633015
 10
-9.039867219031007
 20
6.703756331387013
 10
-9.049862461357008
 20
6.702231401299003
 10
-9.059662916919023
 20
6.700718926342997
 10
-9.069262104492992
 20
6.699218929949977
 10
-9.078653542858999
 20
6.697731435553976
 10
-9.087830750794012
 20
6.696256466584997
 10
-9.096787247078022
 20
6.694794046476999
 10
-9.105516550488033
 20
6.69334419866101
 10
-9.114012179802015
 20
6.691906946568987
 10
-9.122267653800008
 20
6.690482313633992
 10
-9.130276491260046
 20
6.689070323286983
 10
-9.138032210959011
 20
6.687670998962005
 10
-9.145528331676047
 20
6.686284364089002
 10
-9.152758372189992
 20
6.684910442101992
 10
-9.159715851278008
 20
6.683549256432002
 10
-9.166394287720008
 20
6.68220083051099
 10
-9.172787200293015
 20
6.680865187771987
 10
-9.178888107775007
 20
6.679542351647
 10
-9.184690528946019
 20
6.678232345567008
 10
-9.190187982584005
 20
6.676935192965999
 10
-9.195373987466012
 20
6.675650917274992
 10
-9.200242062371046
 20
6.674379541926013
 10
-9.204785726078
 20
6.673121090351003
 10
-9.208998497365
 20
6.671875585983003
 10
-9.212873895009007
 20
6.670643052253977
 10
-9.216405437789999
 20
6.669423512595982
 10
-9.219586644486014
 20
6.668216990441011
 10
-9.222411033875003
 20
6.667023509220994
 10
-9.224872124736037
 20
6.665843092367992
 10
-9.226963435846043
 20
6.664675763314987
 10
-9.228678485985
 20
6.663521545492982
 10
-9.230010793930032
 20
6.662380462336018
 10
-9.230953878460011
 20
6.661252537274007
 10
-9.231501258353006
 20
6.660137793739978
 10
-9.231646452387023
 20
6.659036255165996
 10
-9.231385963455011
 20
6.657947943386004
 10
-9.230735902402015
 20
6.656872869728005
 10
-9.229720294755024
 20
6.655811041278981
 10
-9.228363188059006
 20
6.65476246511599
 10
-9.226688629857024
 20
6.653727148314002
 10
-9.224720667691002
 20
6.652705097949991
 10
-9.222483349106026
 20
6.651696321100017
 10
-9.220000721644023
 20
6.650700824838992
 10
-9.217296832848036
 20
6.649718616244002
 10
-9.212878738656002
 20
6.648270233201997
 10
-9.208098073895
 20
6.646851787211004
 10
-9.203035999023027
 20
6.645463302151994
 10
-9.195989094136024
 20
6.643658635908992
 10
-9.176345089053
 20
6.638971126682007
 10
-9.171298923146023
 20
6.637762908724994
 10
-9.166539470338024
 20
6.636584818869009
 10
-9.162147891088011
 20
6.635436880998014
 10
-9.159464625025037
 20
6.634688351978978
 10
-9.157004977179012
 20
6.633953241531997
 10
-9.154792995093004
 20
6.633231556731996
 10
-9.15285272631101
 20
6.632523304655991
 10
-9.151208218376011
 20
6.631828492380007
 10
-9.149883518831016
 20
6.631147126980009
 10
-9.148902675219003
 20
6.630479215532004
 10
-9.148289735083011
 20
6.629824765110982
 10
-9.148068745968032
 20
6.629183782794003
 10
-9.148263755415996
 20
6.628556275655995
 10
-9.148898810969996
 20
6.627942250774992
 10
-9.14999796017301
 20
6.627341715224987
 10
-9.151585250570008
 20
6.626754676082983
 10
-9.153684729702007
 20
6.626181140424987
 10
-9.156320445115023
 20
6.625621115326992
 10
-9.159516444349037
 20
6.625074607864007
 10
-9.163296774949998
 20
6.624541625112983
 10
-9.167685484460037
 20
6.624022174151009
 10
-9.172706620422019
 20
6.623516262050997
 10
-9.178384230380032
 20
6.623023895892004
 10
-9.184742361878022
 20
6.622545082749012
 10
-9.191805062457008
 20
6.622079829696987
 10
-9.199596379662011
 20
6.621628143813012
 10
-9.208140361035015
 20
6.621190032173017
 10
-9.217461054121033
 20
6.620765501852987
 10
-9.227582506462026
 20
6.620354559928982
 10
-9.238528765601014
 20
6.619957213476991
 10
-9.250323879082003
 20
6.619573469572997
 10
-9.262991894449015
 20
6.619203335291985
 10
-9.276556859243015
 20
6.618846817710987
 10
-9.291042821010023
 20
6.618503923906986
 10
-9.306473827291
 20
6.618174660953997
 10
-9.322873925630004
 20
6.617859035929003
 10
-9.340267163571011
 20
6.617557055907981
 10
-9.358677588656007
 20
6.617268727967002
 10
-9.378129248428988
 20
6.61699405918199
 10
-9.398646190433023
 20
6.616733056627992
 10
-9.420252462212003
 20
6.616485727383007
 10
-9.442972111308023
 20
6.616252078521995
 10
-9.466829185265991
 20
6.616032117120995
 10
-9.491847731627016
 20
6.61582585025499
 10
-9.518051797936037
 20
6.61563328500199
 10
-9.545465431736003
 20
6.615454428435982
 10
-9.57411268057001
 20
6.615289287634992
 10
-9.604017591981005
 20
6.615137869672992
 10
-9.635204213511995
 20
6.615000181628004
 10
-9.667696592708011
 20
6.614876230573997
 10
-9.701518777110036
 20
6.614766023588996
 10
-9.736694814263016
 20
6.614669567747
 10
-9.773248751709019
 20
6.614586870126005
 10
-9.811204636992016
 20
6.614517937800997
 10
-9.850586517654988
 20
6.614462777846995
 10
-9.891418441240999
 20
6.614421397341997
 10
-9.933724455293996
 20
6.614393803360997
 10
-9.977528607357042
 20
6.614380002979004
 10
-9.999952395522996
 20
6.614378277607982
  0
LWPOLYLINE
  5
1727
330
1E
100
AcDbEntity
  8
1
100
AcDbPolyline
 90
      111
 70
     0
 43
0.0
 10
18.32610678119996
 20
5.249165226699995
 10
18.32566527499199
 20
5.249599655091994
 10
18.32519982724397
 20
5.250057639288992
 10
18.32471067922798
 20
5.250538941777985
 10
18.32419807221597
 20
5.251043325045993
 10
18.32366224747996
 20
5.25157055157899
 10
18.32310344629397
 20
5.252120383864988
 10
18.32252190992998
 20
5.252692584389987
 10
18.32191787965896
 20
5.253286915639985
 10
18.32129159675398
 20
5.253903140103001
 10
18.32064330248798
 20
5.254541020264976
 10
18.31983663408296
 20
5.255334727563989
 10
18.31899903366896
 20
5.256158866627994
 10
18.31813091816394
 20
5.257013027034983
 10
18.31723270448597
 20
5.257896798360005
 10
18.31630480955598
 20
5.258809770182973
 10
18.31534765028996
 20
5.259751532078976
 10
18.31436164360798
 20
5.260721673625991
 10
18.31334720642896
 20
5.261719784400009
 10
18.31230475567096
 20
5.262745453980012
 10
18.31123470825198
 20
5.263798271941988
 10
18.31013748109296
 20
5.264877827864006
 10
18.30901349110999
 20
5.265983711322003
 10
18.307863155224
 20
5.267115511892992
 10
18.30668689035197
 20
5.268272819156004
 10
18.30548511341297
 20
5.269455222685988
 10
18.30405135211296
 20
5.270865864818
 10
18.30258409557896
 20
5.272309455391985
 10
18.30108400586397
 20
5.273785342670999
 10
18.29955174501796
 20
5.275292874919978
 10
18.29798797509196
 20
5.276831400400988
 10
18.29639335813898
 20
5.278400267377998
 10
18.29476855620898
 20
5.279998824116001
 10
18.29311423135396
 20
5.281626418878
 10
18.29143104562499
 20
5.283282399926997
 10
18.28947291422599
 20
5.285208872369988
 10
18.28747893996396
 20
5.287170596678999
 10
18.28545011108996
 20
5.289166599999983
 10
18.28338741585599
 20
5.291195909477999
 10
18.28129184251496
 20
5.293257552259997
 10
18.27889625338096
 20
5.29561433747298
 10
18.27646171074798
 20
5.298009428076992
 10
18.27398962171596
 20
5.300441438895996
 10
18.27148139338697
 20
5.302908984750981
 10
18.26865379884898
 20
5.305690694501999
 10
18.26578525523498
 20
5.308512664467992
 10
18.26258486474398
 20
5.311661064203003
 10
18.25933983045396
 20
5.314853350627995
 10
18.25575189577998
 20
5.318382925734991
 10
18.25181232963001
 20
5.322258366269973
 10
18.24751324159498
 20
5.326487419874974
 10
18.24284795832697
 20
5.331076634562003
 10
18.23749475655498
 20
5.336342460496007
 10
18.23111963381998
 20
5.342613396551991
 10
18.22305574564799
 20
5.350545285408995
 10
18.20869389395697
 20
5.364671406860987
 10
18.181205827686
 20
5.391705769788978
 10
18.17314211403898
 20
5.399635797623001
 10
18.16676755692298
 20
5.405904504148988
 10
18.16141524771898
 20
5.411167827571997
 10
18.15675113926198
 20
5.41575431320299
 10
18.15245352988998
 20
5.419980336071996
 10
18.148515710307
 20
5.423852510330019
 10
18.14492974131798
 20
5.427378657144
 10
18.14168683363996
 20
5.430567431488978
 10
18.13848890444097
 20
5.433711946796985
 10
18.13562290844494
 20
5.436530046890988
 10
18.13279817497599
 20
5.439307550053992
 10
18.13029280411197
 20
5.441771010674981
 10
18.12782385344798
 20
5.444198642269978
 10
18.12539274287797
 20
5.446589049597971
 10
18.12300089229697
 20
5.448940837416981
 10
18.12090890975596
 20
5.450997766230013
 10
18.11885006658099
 20
5.453022098526985
 10
18.11682536000996
 20
5.455012854386009
 10
18.11483578727797
 20
5.456969053881974
 10
18.11288234562498
 20
5.458889717093993
 10
18.111203506913
 20
5.460540376196
 10
18.10955376263697
 20
5.462162421105997
 10
18.10793378086898
 20
5.463755195349983
 10
18.10634422967899
 20
5.46531804245799
 10
18.10478577713897
 20
5.466850305956993
 10
18.10325909131796
 20
5.46835132937701
 10
18.10176484028801
 20
5.469820456243976
 10
18.10030369211898
 20
5.471257030087993
 10
18.099078132989
 20
5.472461971930012
 10
18.09787780586496
 20
5.473642101555011
 10
18.09670313145698
 20
5.474797005555981
 10
18.09555453047396
 20
5.47592627052998
 10
18.09443242362599
 20
5.47702948307099
 10
18.09333723162296
 20
5.478106229773995
 10
18.09226937517198
 20
5.479156097234006
 10
18.09122927498501
 20
5.480178672046999
 10
18.09021735176898
 20
5.481173540806988
 10
18.089234026235
 20
5.482140290110006
 10
18.08827971909196
 20
5.483078506549983
 10
18.08735485104898
 20
5.483987776723009
 10
18.08645984281598
 20
5.484867687222983
 10
18.08559511510097
 20
5.485717824645998
 10
18.08476108861498
 20
5.486537775585984
 10
18.08408982239098
 20
5.48719771066598
 10
18.08344041208998
 20
5.487836156586011
 10
18.08281310117797
 20
5.488452874105997
 10
18.08220813311998
 20
5.489047623987996
 10
18.08162575138297
 20
5.489620166991013
 10
18.08106619943296
 20
5.490170263879004
 10
18.08052972073697
 20
5.490697675409988
 10
18.08001655875898
 20
5.491202162346973
 10
18.07952695696596
 20
5.491683485450008
 10
18.079061158824
 20
5.492141405480986
 10
18.07862188362896
 20
5.492573249260995
  0
LWPOLYLINE
  5
1894
330
1E
100
AcDbEntity
  8
1
100
AcDbPolyline
 90
      169
 70
     0
 43
0.0
 10
17.22508377849996
 20
5.144450133199993
 10
17.22510552397997
 20
5.149863801772991
 10
17.22517216341299
 20
5.155190254974
 10
17.22528366698398
 20
5.160432884117992
 10
17.22544000487499
 20
5.165595080516991
 10
17.22564114727296
 20
5.170680235483983
 10
17.22588706435998
 20
5.175691740331981
 10
17.22617772632099
 20
5.180632986374999
 10
17.22651310334097
 20
5.185507364924998
 10
17.22699515974397
 20
5.191511472155978
 10
17.227546978605
 20
5.197423021514991
 10
17.22816850169095
 20
5.203248636659988
 10
17.22885967076698
 20
5.208994941251002
 10
17.229780924371
 20
5.215795142939978
 10
17.23080228371699
 20
5.222502121178986
 10
17.23192364817696
 20
5.22912732165099
 10
17.23314491712099
 20
5.235682190038998
 10
17.23446598992197
 20
5.242178172022983
 10
17.23588676595298
 20
5.248626713284973
 10
17.237407144584
 20
5.255039259508004
 10
17.23902702518896
 20
5.261427256372994
 10
17.24074630713797
 20
5.267802149561985
 10
17.24256488980397
 20
5.274175384756002
 10
17.24448267255499
 20
5.280558407546006
 10
17.24649943961497
 20
5.286959857241011
 10
17.24861455812196
 20
5.293378207963
 10
17.250827300806
 20
5.299809632924988
 10
17.25313694039598
 20
5.306250305341988
 10
17.25554274962397
 20
5.31269639842699
 10
17.258044001217
 20
5.319144085392988
 10
17.26063996790696
 20
5.325589539453996
 10
17.26332992242197
 20
5.332028933824002
 10
17.26611313749399
 20
5.338458441715997
 10
17.26898888585097
 20
5.344874236343993
 10
17.27195644022399
 20
5.351272490921981
 10
17.27501507334096
 20
5.357649378663007
 10
17.27816405793399
 20
5.364001072780008
 10
17.28140266673198
 20
5.370323746487994
 10
17.28473017246398
 20
5.376613572998988
 10
17.28814584786098
 20
5.382866725528
 10
17.291648965652
 20
5.389079377287994
 10
17.29523879856699
 20
5.395247701492987
 10
17.29891461933596
 20
5.401367871355998
 10
17.302675700689
 20
5.407436060090981
 10
17.30652131535598
 20
5.413448440911986
 10
17.31111373626097
 20
5.420387244864993
 10
17.31581907162498
 20
5.427238802568976
 10
17.32063616656899
 20
5.433997037227978
 10
17.32556382719397
 20
5.440656296366991
 10
17.330600537136
 20
5.44721443384699
 10
17.33574462101098
 20
5.453671032694979
 10
17.34099440231597
 20
5.460025688101008
 10
17.34634820454698
 20
5.466277995256
 10
17.35180435119997
 20
5.472427549349983
 10
17.35736116577098
 20
5.478473945576008
 10
17.36301697175798
 20
5.484416779121994
 10
17.36877009265498
 20
5.490255645180979
 10
17.37461885196097
 20
5.495990138942
 10
17.38056157316995
 20
5.501619855597992
 10
17.38659657977999
 20
5.507144390337002
 10
17.39272219528598
 20
5.512563338351976
 10
17.39893674318598
 20
5.517876294832998
 10
17.40523854697497
 20
5.523082854969996
 10
17.41162593014998
 20
5.528182613955006
 10
17.418097216207
 20
5.533175166978988
 10
17.424650728643
 20
5.538060109230995
 10
17.43128479095398
 20
5.542837035903001
 10
17.43799772663599
 20
5.547505542185999
 10
17.44478785918596
 20
5.552065223270001
 10
17.45165349366498
 20
5.556515657285981
 10
17.45859265195898
 20
5.560856160299973
 10
17.46560313415199
 20
5.565085843115011
 10
17.47268273440201
 20
5.569203811045976
 10
17.47982924686198
 20
5.573209169408981
 10
17.48704046568994
 20
5.577101023517993
 10
17.49327133931597
 20
5.580345880161983
 10
17.49954674258998
 20
5.583506125188987
 10
17.50586528640801
 20
5.586581195182984
 10
17.51222558166796
 20
5.589570526728005
 10
17.51862623926498
 20
5.592473556404993
 10
17.52506587009799
 20
5.595289720798999
 10
17.53154308506196
 20
5.598018456493004
 10
17.53805649505397
 20
5.600659200069996
 10
17.54460471097098
 20
5.603211388114
 10
17.55118634371098
 20
5.605674457206983
 10
17.55780000416899
 20
5.608047843932007
 10
17.56444430324198
 20
5.610330984874988
 10
17.57111785182699
 20
5.612523316616001
 10
17.57781926082099
 20
5.614624275739996
 10
17.58454714112097
 20
5.616633298829978
 10
17.59130010362301
 20
5.61854982246899
 10
17.59807675922499
 20
5.620373283241003
 10
17.60487571892497
 20
5.622103117752996
 10
17.61169570089696
 20
5.623738788281993
 10
17.61853573323298
 20
5.625279831338983
 10
17.62539489972098
 20
5.626725796770981
 10
17.63227228414496
 20
5.628076234426995
 10
17.63916697029498
 20
5.629330694153988
 10
17.64607804195398
 20
5.630488725801992
 10
17.65300458291196
 20
5.631549879218992
 10
17.65994567695398
 20
5.63251370425399
 10
17.66690040786595
 20
5.633379750753982
 10
17.673867859436
 20
5.634147568569001
 10
17.68084711544998
 20
5.634816707546005
 10
17.68783725969496
 20
5.635386717533968
 10
17.69483737595696
 20
5.635857148381003
 10
17.70184654802298
 20
5.636227549936987
 10
17.70886385967997
 20
5.636497472048999
 10
17.71588839471498
 20
5.636666464565987
 10
17.72291923691296
 20
5.636734077335996
 10
17.72995547006198
 20
5.636699860207014
 10
17.73699617794798
 20
5.636563363029009
 10
17.74404044435797
 20
5.636324135649002
 10
17.75108735307898
 20
5.635981727916001
 10
17.75813598789699
 20
5.635535689678984
 10
17.76518543259899
 20
5.634985570784974
 10
17.77223477097098
 20
5.634330921083996
 10
17.77928298176701
 20
5.63357141273698
 10
17.786327890899
 20
5.632708060436977
 10
17.79336661164396
 20
5.631742708758987
 10
17.80039624672896
 20
5.630677214568008
 10
17.80741389887998
 20
5.629513434729002
 10
17.814416670821
 20
5.628253226109988
 10
17.82140166527996
 20
5.626898445574991
 10
17.82836598498098
 20
5.625450949989978
 10
17.83530673265098
 20
5.623912596220005
 10
17.84222101101497
 20
5.622285241131999
 10
17.849105922798
 20
5.620570741590992
 10
17.85595857072697
 20
5.618770954462005
 10
17.86390868344898
 20
5.616565886030993
 10
17.87180633720396
 20
5.614250207752998
 10
17.879646931227
 20
5.611826868258988
 10
17.88742586475398
 20
5.609298816185002
 10
17.89513853702196
 20
5.606669000164001
 10
17.90278034726398
 20
5.603940368829992
 10
17.91142117300398
 20
5.600704717181995
 10
17.91995656748898
 20
5.597348253371984
 10
17.92837966310498
 20
5.593875378857998
 10
17.93668359223898
 20
5.590290495102006
 10
17.94384701263398
 20
5.587064721924004
 10
17.95192060854196
 20
5.583271122860024
 10
17.95889438121096
 20
5.579849072825989
 10
17.96579147410997
 20
5.576322735587009
 10
17.97164795506196
 20
5.573211021086986
 10
17.97745839203496
 20
5.570011643298981
 10
17.98322753526298
 20
5.566719504935004
 10
17.98896013498198
 20
5.563329508711998
 10
17.99371281329496
 20
5.56042608188798
 10
17.998446161925
 20
5.557448208616984
 10
18.00316292985097
 20
5.554392939081988
 10
18.00786586605299
 20
5.551257323464992
 10
18.01255771950798
 20
5.548038411947996
 10
18.01724123919698
 20
5.544733254713007
 10
18.02191917409797
 20
5.541338901941995
 10
18.02659427318992
 20
5.537852403817989
 10
18.03126928545199
 20
5.534270810521998
 10
18.03501108005699
 20
5.531335085084005
 10
18.03875598591597
 20
5.528335100546994
 10
18.04250541050398
 20
5.525269346601985
 10
18.0462607613
 20
5.522136312943983
 10
18.050023445779
 20
5.518934489265996
 10
18.05379487142096
 20
5.515662365260988
 10
18.05757644570098
 20
5.512318430622993
 10
18.06136957609696
 20
5.508901175044
 10
18.06517567008697
 20
5.505409088216991
 10
18.06899613514696
 20
5.501840659836997
 10
18.07283237875498
 20
5.498194379596011
 10
18.07668580838796
 20
5.494468737187983
 10
18.078611100512
 20
5.492583849786993
  0
LWPOLYLINE
  5
193F
330
1E
100
AcDbEntity
  8
1
100
AcDbPolyline
 90
      114
 70
     0
 43
0.0
 10
20.89999999999998
 20
5.249165226699995
 10
20.90654181058896
 20
5.249164896860004
 10
20.91298094651798
 20
5.249163907384991
 10
20.919319273095
 20
5.249162258342972
 10
20.92555865562698
 20
5.249159949801986
 10
20.93170095942296
 20
5.249156981829994
 10
20.93774804978997
 20
5.249153354494976
 10
20.94370179203699
 20
5.249149067862983
 10
20.94956405146997
 20
5.249144122003993
 10
20.95533669339797
 20
5.249138516984996
 10
20.96102158312797
 20
5.249132252874
 10
20.966620585968
 20
5.249125329738996
 10
20.97213556722695
 20
5.249117747647
 10
20.97756839221099
 20
5.249109506666994
 10
20.98292092622898
 20
5.249100606865991
 10
20.98819503458897
 20
5.24909104831101
 10
20.99339258259698
 20
5.249080831072001
 10
20.99851543556296
 20
5.249069955215983
 10
21.00356545879398
 20
5.249058420809996
 10
21.00854451759698
 20
5.249046227922003
 10
21.01345447727998
 20
5.24903337662098
 10
21.01989682666098
 20
5.249015217470994
 10
21.02622407073599
 20
5.248995888087986
 10
21.032440630975
 20
5.248975388635011
 10
21.03855092884796
 20
5.248953719270983
 10
21.04455938582594
 20
5.248930880158009
 10
21.05047042337996
 20
5.248906871455996
 10
21.05628846297798
 20
5.24888169332598
 10
21.06201792609295
 20
5.248855345928
 10
21.06766323419396
 20
5.248827829424978
 10
21.07460826216498
 20
5.248791789984006
 10
21.08143734215896
 20
5.248753924379994
 10
21.08815910985899
 20
5.248714232926997
 10
21.09478220095098
 20
5.248672715938991
 10
21.10261181618099
 20
5.248620486287987
 10
21.11032669494095
 20
5.248565628860996
 10
21.11920228080895
 20
5.248498308036997
 10
21.13045225552298
 20
5.248406499611997
 10
21.14770232788397
 20
5.248251944081996
 10
21.18939994731896
 20
5.247817119489007
 10
21.20064520635898
 20
5.247687924545
 10
21.20951609493896
 20
5.247583362957978
 10
21.21852191680396
 20
5.247475235224978
 10
21.22636117719298
 20
5.247379707670996
 10
21.23564402969498
 20
5.247264898839001
 10
21.24506817799098
 20
5.247146424379987
 10
21.25462701219396
 20
5.247024234788992
 10
21.26431392241698
 20
5.246898280560995
 10
21.27553302558398
 20
5.246749659610995
 10
21.28690091174296
 20
5.246595983030995
 10
21.29985534070296
 20
5.246416961813988
 10
21.31297153723798
 20
5.246231343327988
 10
21.327717729564
 20
5.246017235058983
 10
21.34412617799096
 20
5.245771986465991
 10
21.36373734150796
 20
5.245468750910018
 10
21.38814077604498
 20
5.245075168750983
 10
21.42668234205696
 20
5.244413868671982
 10
21.52571295911896
 20
5.242449106784983
 10
21.55774042351797
 20
5.241715076357988
 10
21.59395780963797
 20
5.240822444708008
 10
21.63427460088098
 20
5.239751702146969
 10
21.68451278802498
 20
5.238306682756981
 10
21.76198197793499
 20
5.235849747270999
 10
21.914825760219
 20
5.230153457180985
 10
21.95029427604996
 20
5.228580442169995
 10
21.97868009958698
 20
5.227227046026992
 10
22.00435825580098
 20
5.225923922910988
 10
22.02726907943298
 20
5.224694323057003
 10
22.04889175916596
 20
5.223473632889003
 10
22.12825321496799
 20
5.21855981912898
 10
22.14201253820998
 20
5.217652869655974
 10
22.15410086350299
 20
5.216845196375995
 10
22.164546487162
 20
5.216139651413976
 10
22.17338784743899
 20
5.215537277795985
 10
22.18211391291994
 20
5.214938362041971
 10
22.19071342776098
 20
5.214344099422983
 10
22.19777489896398
 20
5.213853297380008
 10
22.20473415741996
 20
5.213367248435983
 10
22.21158468933197
 20
5.212886644298002
 10
22.21831998089899
 20
5.212412176674002
 10
22.22362086383298
 20
5.212037485692002
 10
22.22884048905098
 20
5.211667518924993
 10
22.23397552148696
 20
5.211302630527992
 10
22.23902290606698
 20
5.210943133286003
 10
22.24522058857098
 20
5.210499402304999
 10
22.25375630765296
 20
5.209878296278983
 10
22.27317730310998
 20
5.208377313662988
 10
22.27937174636797
 20
5.207861709213995
 10
22.28441646430999
 20
5.20742611949998
 10
22.28956178173298
 20
5.206966687456992
 10
22.29349863983498
 20
5.206604632486997
 10
22.29751147871297
 20
5.206226164445008
 10
22.30160860989498
 20
5.205829996861973
 10
22.30579834491001
 20
5.205414843269007
 10
22.310088995287
 20
5.204979417195997
 10
22.31448887255499
 20
5.204522432175985
 10
22.31900628824098
 20
5.204042601736997
 10
22.32364955387598
 20
5.20353863941099
 10
22.32681908539495
 20
5.203188622629991
 10
22.33005070691195
 20
5.202826927626001
 10
22.33334688110198
 20
5.202453173223002
 10
22.33671007064097
 20
5.202066978244001
 10
22.34014273820298
 20
5.201667961514
 10
22.34364734646394
 20
5.201255741856011
 10
22.34722635809896
 20
5.200829938094011
 10
22.35088223578299
 20
5.200390169053997
 10
22.35461744219096
 20
5.199936053556992
 10
22.35843443999895
 20
5.199467210428987
 10
22.36233569188097
 20
5.198983258492
 10
22.36632366051199
 20
5.198483816572002
 10
22.37040080856897
 20
5.197968503492
 10
22.37456959872596
 20
5.197436938076004
 10
22.37883249365697
 20
5.196888739148985
 10
22.38098529821598
 20
5.196610189082999
  0
LWPOLYLINE
  5
1A4F
330
1E
100
AcDbEntity
  8
1
100
AcDbPolyline
 90
      149
 70
     0
 43
0.0
 10
17.22507806929999
 20
-6.177004880699994
 10
17.22507891171598
 20
-6.176669286478982
 10
17.22508125905698
 20
-6.176298456586009
 10
17.22508508902296
 20
-6.175893349070007
 10
17.22509037931398
 20
-6.175454921977006
 10
17.22509710763196
 20
-6.174984133354
 10
17.22510525167696
 20
-6.174481941248017
 10
17.22511478914796
 20
-6.173949303707018
 10
17.22512569774798
 20
-6.173387178777997
 10
17.22513795517497
 20
-6.172796524508012
 10
17.22515153912996
 20
-6.172178298944002
 10
17.22516642731497
 20
-6.171533460133017
 10
17.22518259742796
 20
-6.170862966122997
 10
17.22520002717198
 20
-6.170167774961012
 10
17.225218694245
 20
-6.169448844692992
 10
17.22523857634996
 20
-6.168707133368003
 10
17.22525965118498
 20
-6.167943599030992
 10
17.22528189645197
 20
-6.167159199730972
 10
17.22530528985098
 20
-6.166354893515007
 10
17.22532980908297
 20
-6.165531638429002
 10
17.22535543184699
 20
-6.164690392521007
 10
17.22538213584499
 20
-6.163832113838989
 10
17.22542417037399
 20
-6.162514855089995
 10
17.22546851224299
 20
-6.161164661613012
 10
17.22551508619196
 20
-6.159784766817012
 10
17.22556381695798
 20
-6.158378404112028
 10
17.22561462928197
 20
-6.156948806905035
 10
17.22566744790199
 20
-6.155499208608007
 10
17.225740863553
 20
-6.153540886677005
 10
17.22583718892999
 20
-6.151062741259011
 10
17.22622070967799
 20
-6.142085365152012
 10
17.226359904188
 20
-6.139140440199016
 10
17.226504836521
 20
-6.136228469197987
 10
17.22665573638797
 20
-6.133348802180021
 10
17.22681283350198
 20
-6.130500789178992
 10
17.22697635757697
 20
-6.127683780224002
 10
17.22714653832499
 20
-6.124897125348012
 10
17.22732360545895
 20
-6.122140174583022
 10
17.22750778869097
 20
-6.119412277961004
 10
17.22773196954898
 20
-6.116265585983994
 10
17.227966513648
 20
-6.113156523118022
 10
17.22821178576398
 20
-6.110084057237997
 10
17.22846815067299
 20
-6.107047156218983
 10
17.22873597314998
 20
-6.104044787934983
 10
17.22901561796996
 20
-6.101075920260995
 10
17.22935015632296
 20
-6.097722625779
 10
17.22970115704995
 20
-6.094410198448001
 10
17.23006916465698
 20
-6.091137097601007
 10
17.23045472364599
 20
-6.08790178257399
 10
17.23091013486998
 20
-6.084305300723004
 10
17.231389223982
 20
-6.080752498002027
 10
17.23189276626498
 20
-6.077241180768991
 10
17.23248188029097
 20
-6.073385704916007
 10
17.23316714889196
 20
-6.069197117361992
 10
17.233892806754
 20
-6.065059578879012
 10
17.23473216059099
 20
-6.060599415537977
 10
17.23562310325098
 20
-6.056190038628982
 10
17.23656747243697
 20
-6.051826248409012
 10
17.23756710585198
 20
-6.047502845129996
 10
17.23853355409898
 20
-6.043570763316012
 10
17.23954939933096
 20
-6.039664243393016
 10
17.24061605704497
 20
-6.035779280231023
 10
17.24173494274096
 20
-6.031911868702992
 10
17.24279862446098
 20
-6.028407900592012
 10
17.24390770312195
 20
-6.024912118827017
 10
17.24506324220999
 20
-6.021421514296974
 10
17.24626630520899
 20
-6.017933077888982
 10
17.24751795560598
 20
-6.014443800489996
 10
17.24868686215796
 20
-6.011300244753981
 10
17.24989676120597
 20
-6.008151376792002
 10
17.251148428031
 20
-6.004995002962004
 10
17.25244263791296
 20
-6.001828929619986
 10
17.25378016613398
 20
-5.998650963124986
 10
17.25516178797397
 20
-5.995458909831992
 10
17.25658827871498
 20
-5.992250576099023
 10
17.25806041363699
 20
-5.989023768283996
 10
17.25940792333099
 20
-5.986138212193994
 10
17.26079265463499
 20
-5.983234785383984
 10
17.26221515205497
 20
-5.980311947187999
 10
17.26367596009399
 20
-5.977368156941992
 10
17.26517562325699
 20
-5.974401873978986
 10
17.266714686049
 20
-5.971411557634014
 10
17.26829369297397
 20
-5.968395667241026
 10
17.26991318853598
 20
-5.965352662136012
 10
17.27157369219298
 20
-5.962281041243017
 10
17.27327469600797
 20
-5.959180927384977
 10
17.27501432553995
 20
-5.956054603279994
 10
17.27701512687198
 20
-5.952509187669988
 10
17.27905951821496
 20
-5.948937141150024
 10
17.28137877830298
 20
-5.944941178897012
 10
17.28374454620897
 20
-5.940921364920995
 10
17.28639601747897
 20
-5.936477690525006
 10
17.28958912784293
 20
-5.931204923319996
 10
17.29309080648997
 20
-5.925512304850995
 10
17.29767226620398
 20
-5.918192026052026
 10
17.30440490236196
 20
-5.907668444979007
 10
17.30911408025999
 20
-5.900456489584002
 10
17.312787339902
 20
-5.894909396497012
 10
17.315934407257
 20
-5.890208936139967
 10
17.31881205048597
 20
-5.885951535607008
 10
17.32141769774198
 20
-5.882129284819995
 10
17.32375103002496
 20
-5.878732498786008
 10
17.32581340431301
 20
-5.87575043017398
 10
17.32786271682596
 20
-5.872805997985977
 10
17.32989699851498
 20
-5.869901634475014
 10
17.33166311708797
 20
-5.867395097314981
 10
17.33341490102699
 20
-5.864922729350014
 10
17.33515103122397
 20
-5.862486160003014
 10
17.33687018857199
 20
-5.860087018690991
 10
17.33832924310297
 20
-5.858061636642987
 10
17.33977402795398
 20
-5.856065975977029
 10
17.34120371243099
 20
-5.854101062799004
 10
17.342617465844
 20
-5.852167923216994
 10
17.34401445750097
 20
-5.850267583338021
 10
17.34539385670797
 20
-5.848401069268986
 10
17.34675483277598
 20
-5.846569407117017
 10
17.347874306964
 20
-5.845070385269027
 10
17.34897992970999
 20
-5.843596872527997
 10
17.35007122029097
 20
-5.842149462705007
 10
17.35114769798197
 20
-5.840728749613987
 10
17.35220888205799
 20
-5.839335327065017
 10
17.35325429179499
 20
-5.837969788870992
 10
17.35428344646899
 20
-5.836632728843992
 10
17.35529586535497
 20
-5.835324740797005
 10
17.35629106772899
 20
-5.834046418539997
 10
17.35726857286499
 20
-5.832798355886978
 10
17.35822790004098
 20
-5.831581146647978
 10
17.359168568531
 20
-5.830395384637003
 10
17.36009009760999
 20
-5.829241663665012
 10
17.36099200655496
 20
-5.828120577544013
 10
17.36169908416798
 20
-5.827247604781009
 10
17.36239305109896
 20
-5.826396202395017
 10
17.36307366121897
 20
-5.825566674416991
 10
17.36374066839698
 20
-5.824759324879011
 10
17.36439382650098
 20
-5.823974457812
 10
17.36503288939997
 20
-5.823212377248977
 10
17.365657610965
 20
-5.822473387220012
 10
17.36626774506297
 20
-5.821757791757987
 10
17.366863045564
 20
-5.821065894895012
 10
17.36744326633695
 20
-5.820398000662007
 10
17.36800816125099
 20
-5.819754413091002
 10
17.36855748417498
 20
-5.819135436213997
 10
17.36909098897799
 20
-5.818541374062987
 10
17.36960842952899
 20
-5.817972530667987
 10
17.37010955969799
 20
-5.817429210063012
 10
17.37059413335399
 20
-5.816911716278982
 10
17.371061904365
 20
-5.816420353347012
 10
17.37151262659998
 20
-5.815955425299987
 10
17.37150984616698
 20
-5.815958265615988
  0
LWPOLYLINE
  5
1AE6
330
1E
100
AcDbEntity
  8
1
100
AcDbPolyline
 90
      110
 70
     0
 43
0.0
 10
17.37151262659998
 20
-5.815955425299987
 10
17.37196216741199
 20
-5.815496232765013
 10
17.37243552197398
 20
-5.815012717554027
 10
17.37293244913995
 20
-5.814505126111981
 10
17.373452707765
 20
-5.813973704886024
 10
17.37399605670298
 20
-5.813418700320027
 10
17.37456225480696
 20
-5.812840358861992
 10
17.37515106093297
 20
-5.812238926957007
 10
17.37576223393497
 20
-5.811614651052027
 10
17.37639553266598
 20
-5.810967777591034
 10
17.37705071598097
 20
-5.810298553020999
 10
17.37786548407598
 20
-5.809466327067982
 10
17.37871100202301
 20
-5.808602696259982
 10
17.37958685312099
 20
-5.807708086453002
 10
17.38049262066996
 20
-5.806782923507995
 10
17.381427887971
 20
-5.805827633281014
 10
17.38239223832297
 20
-5.804842641632006
 10
17.38338525502594
 20
-5.803828374420023
 10
17.38440652138197
 20
-5.802785257503017
 10
17.38545562068901
 20
-5.801713716738022
 10
17.38653213624798
 20
-5.800614177986972
 10
17.38763565135896
 20
-5.799487067104991
 10
17.38876574932197
 20
-5.798332809952994
 10
17.38992201343799
 20
-5.797151832388012
 10
17.39110402700598
 20
-5.795944560270013
 10
17.39231137332598
 20
-5.794711419457
 10
17.39375140589697
 20
-5.793240628158004
 10
17.395224690279
 20
-5.791735882578991
 10
17.39673056476896
 20
-5.790197858968012
 10
17.39826836766397
 20
-5.788627233572012
 10
17.39983743725798
 20
-5.787024682639012
 10
17.40143711184896
 20
-5.785390882416011
 10
17.40306672973096
 20
-5.783726509151986
 10
17.404725629202
 20
-5.782032239093013
 10
17.406656520484
 20
-5.780060189623982
 10
17.408623805106
 20
-5.778050983986021
 10
17.41062649533501
 20
-5.776005631619995
 10
17.41266360343797
 20
-5.773925141971004
 10
17.41473414168197
 20
-5.771810524478977
 10
17.41683712233299
 20
-5.769662788587994
 10
17.41924052453799
 20
-5.767208255746991
 10
17.42168233020399
 20
-5.764714522280995
 10
17.42416113296697
 20
-5.762183025461012
 10
17.42695703939196
 20
-5.759327708987002
 10
17.42979495583099
 20
-5.756429517067004
 10
17.43267295311698
 20
-5.753490421268992
 10
17.435882741053
 20
-5.750212524976004
 10
17.43913612480398
 20
-5.746890144743987
 10
17.44273197434397
 20
-5.743218079725977
 10
17.44667871135698
 20
-5.739187743987002
 10
17.45098389188399
 20
-5.734791437995991
 10
17.45565383013698
 20
-5.730022733081026
 10
17.46100996985396
 20
-5.724553418710033
 10
17.46738537552197
 20
-5.718043452776982
 10
17.47609307114601
 20
-5.709152250583002
 10
17.522340786558
 20
-5.661936057102026
 10
17.52903682619799
 20
-5.655100622836982
 10
17.53439333517397
 20
-5.649632735422017
 10
17.53906394456598
 20
-5.644865100811982
 10
17.54337010379399
 20
-5.640469560428017
 10
17.54731810171993
 20
-5.636439675721021
 10
17.55091545386199
 20
-5.632767758757013
 10
17.55417052998896
 20
-5.629445252061003
 10
17.55738233812999
 20
-5.626166946064985
 10
17.56026247811598
 20
-5.623227205511995
 10
17.56310284881598
 20
-5.620328085050005
 10
17.56590154041197
 20
-5.617471532578009
 10
17.568383148749
 20
-5.614938640921026
 10
17.57082805780098
 20
-5.612443227151001
 10
17.57323487531002
 20
-5.609986711286013
 10
17.57534116504496
 20
-5.607836944619974
 10
17.57741527987596
 20
-5.605720031413992
 10
17.57945624197597
 20
-5.603636968992987
 10
17.581463073517
 20
-5.601588754680022
 10
17.58343479667297
 20
-5.599576385798004
 10
17.58537043361499
 20
-5.597600859673005
 10
17.58703374526598
 20
-5.595903280914996
 10
17.58866802469398
 20
-5.594235341598023
 10
17.59027261682999
 20
-5.592597709849002
 10
17.59184686660697
 20
-5.590991053799997
 10
17.59339011895795
 20
-5.589416041577978
 10
17.59490171881401
 20
-5.587873341311992
 10
17.59638101110698
 20
-5.586363621132988
 10
17.59782734077097
 20
-5.584887549168001
 10
17.59924005273598
 20
-5.583445793548007
 10
17.60042369521098
 20
-5.582237822477994
 10
17.60158174517298
 20
-5.581055975032
 10
17.602713790102
 20
-5.579900671957006
 10
17.60381941747796
 20
-5.578772333997989
 10
17.60489821478
 20
-5.577671381902004
 10
17.60594976948598
 20
-5.576598236413987
 10
17.60697366907598
 20
-5.575553318279988
 10
17.60796950102896
 20
-5.57453704824698
 10
17.60893685282397
 20
-5.573549847060006
 10
17.60987531194096
 20
-5.572592135466011
 10
17.61078446585798
 20
-5.571664334210027
 10
17.61166390205598
 20
-5.570766864039001
 10
17.61251320801196
 20
-5.569900145698995
 10
17.61333197120598
 20
-5.569064599934987
 10
17.614119779118
 20
-5.568260647494011
 10
17.61475234170096
 20
-5.567615124462006
 10
17.61536288235999
 20
-5.566992076910024
 10
17.61595116236795
 20
-5.566391748324009
 10
17.61651694299597
 20
-5.565814382192002
 10
17.61705998551896
 20
-5.565260222001993
 10
17.61758005120798
 20
-5.564729511240981
 10
17.61807690133596
 20
-5.564222493394995
 10
17.61855029717596
 20
-5.563739411952011
 10
17.61899999999998
 20
-5.563280510400004
 10
17.61899752411497
 20
-5.56328303692402
  0
LINE
  5
1BAF
330
1E
100
AcDbEntity
  8
SK4
100
AcDbLine
 10
0.0
 20
0.0
 30
0.0
 11
-26.0
 21
0.0000000000000032
 31
0.0
  0
DIMENSION
  5
868A
330
1E
100
AcDbEntity
  8
2
100
AcDbDimension
  2
*D4
 10
22.46577868279997
 20
-14.72914604109998
 30
0.0
 11
20.10591919648445
 21
-44.24976816994676
 31
0.0
 70
    34
 71
     5
 42
1.055770357024533
  3
ISO-25
100
AcDb2LineAngularDimension
 13
18.48536546017298
 23
-16.43562892904799
 33
0.0
 14
19.53517693951996
 24
-18.21848228969598
 34
0.0
 15
25.77350269189996
 25
-9.000000000000001
 35
0.0
 16
15.27911451130525
 26
-46.21896961560685
 36
0.0
1001
ACAD
1000
DSTYLE
1002
{
1070
   271
1070
     0
1002
}
  0
TEXT
  5
D927
330
1E
100
AcDbEntity
  8
6
100
AcDbText
 10
30.61043672946634
 20
-30.80274790708708
 30
0.0
 40
3.5
  1
17Y1B038050K3R00
100
AcDbText
  0
CIRCLE
  5
D928
330
1E
100
AcDbEntity
  8
1
100
AcDbCircle
 10
0.0
 20
0.0
 30
0.0
 40
2.950972054112601
  0
HATCH
  5
D929
330
1E
100
AcDbEntity
  8
1
100
AcDbHatch
 10
0.0
 20
0.0
 30
0.0
210
0.0
220
0.0
230
1.0
  2
SOLID
 70
     1
 71
     0
 91
        2
 92
        7
 72
     1
 73
     1
 93
        3
 10
0.0
 20
0.0
 42
0.0
 10
2.950972054112638
 20
0.0
 42
0.4142135623730966
 10
0.0
 20
2.950972054112583
 42
0.0
 97
        0
 92
        7
 72
     1
 73
     1
 93
        3
 10
0.0
 20
-2.950972054112611
 42
0.0
 10
0.0
 20
0.0
 42
0.0
 10
-2.950972054112638
 20
0.0
 42
0.4142135623730966
 97
        0
 75
     0
 76
     1
 47
0.1190009775223266
 98
        2
 10
0.7445530588120164
 20
0.9212244733764691
 10
-1.27946460185285
 20
-1.696796923046334
  0
LWPOLYLINE
  5
D92A
330
1E
100
AcDbEntity
  8
1
100
AcDbPolyline
 90
        3
 70
     1
 43
0.0
 10
0.0
 20
2.950972054112583
 10
0.0
 20
0.0
 10
2.950972054112638
 20
0.0
 42
0.4142135623730966
  0
TEXT
  5
D933
330
1E
100
AcDbEntity
  8
6
100
AcDbText
 10
27.54608968200841
 20
24.33503295955357
 30
0.0
 40
2.5
  1
XNL323-100
100
AcDbText
  0
TEXT
  5
D934
330
1E
100
AcDbEntity
  8
6
100
AcDbText
 10
49.33582679745473
 20
-3.277745564742303
 30
0.0
 40
3.5
  1
Z=3
 50
90.0
100
AcDbText
  0
LINE
  5
DA9D
330
1E
100
AcDbEntity
  8
NOCUT
100
AcDbLine
 10
0.0
 20
0.0
 30
0.0
 11
22.3
 21
0.0
 31
0.0
  0
LINE
  5
DAC1
330
1E
100
AcDbEntity
  8
NOCUT
100
AcDbLine
 10
0.0
 20
0.0
 30
0.0
 11
0.0
 21
15.69999999999998
 31
0.0
  0
LINE
  5
DAD9
330
1E
100
AcDbEntity
  8
NOCUT
100
AcDbLine
 10
20.69999999999998
 20
16.0
 30
0.0
 11
0.3000000000000114
 21
16.0
 31
0.0
  0
LINE
  5
DADF
330
1E
100
AcDbEntity
  8
NOCUT
100
AcDbLine
 10
22.3
 20
0.0
 30
0.0
 11
22.3
 21
14.39999999999997
 31
0.0
  0
ARC
  5
DAE8
330
1E
100
AcDbEntity
  8
NOCUT
100
AcDbCircle
 10
0.3000000000000114
 20
15.69999999999998
 30
0.0
 40
0.3
100
AcDbArc
 50
90.0
 51
180.0
  0
ARC
  5
DAE9
330
1E
100
AcDbEntity
  8
NOCUT
100
AcDbCircle
 10
20.69999999999998
 20
14.39999999999997
 30
0.0
 40
1.6
100
AcDbArc
 50
0.0
 51
90.0
  0
SPLINE
  5
DAFD
330
1E
100
AcDbEntity
  8
CUT
100
AcDbSpline
210
0.0
220
0.0
230
1.0
 70
     8
 71
     3
 72
    36
 73
    32
 74
    30
 42
0.0000000001
 43
0.0000000001
 44
0.0000000001
 12
0.5096689523912139
 22
0.8603705939700883
 32
0.0
 13
0.5059904620604547
 23
0.8625390729142928
 33
0.0
 40
0.0
 40
0.0
 40
0.0
 40
0.0
 40
0.1190001805923254
 40
0.2380373612124511
 40
0.3571129157692476
 40
0.4762241085346743
 40
0.5953711007921421
 40
0.7145528782667028
 40
0.8337682316445199
 40
0.9530185337993064
 40
1.072301048884268
 40
1.191615935587492
 40
1.310963041668823
 40
1.430341155751828
 40
1.549749927037686
 40
1.66918834247426
 40
1.788657420147088
 40
1.908154424168114
 40
2.027680726219161
 40
2.147235112391284
 40
2.266816570427245
 40
2.386426116756096
 40
2.506061015552437
 40
2.625721775745574
 40
2.745409768075636
 40
2.86512225685602
 40
2.98485939474149
 40
3.104621032827306
 40
3.224406816979651
 40
3.344216392577809
 40
3.46404874888023
 40
3.46404874888023
 40
3.46404874888023
 40
3.46404874888023
 10
18.02491999999994
 20
15.65713199999999
 30
0.0
 10
18.04513689912556
 20
15.69126008535291
 30
0.0
 10
18.0855704259366
 20
15.75953075200701
 30
0.0
 10
18.14621152181443
 20
15.86196422810847
 30
0.0
 10
18.20685342663141
 20
15.96444022569331
 30
0.0
 10
18.26749370344266
 20
16.06695971661461
 30
0.0
 10
18.32813623027031
 20
16.16951901302353
 30
0.0
 10
18.38877644800018
 20
16.27212000792759
 30
0.0
 10
18.44941765950709
 20
16.37476041499818
 30
0.0
 10
18.51005954214923
 20
16.47743942593028
 30
0.0
 10
18.57069979876347
 20
16.58015792676653
 30
0.0
 10
18.63134257521177
 20
16.68291241017205
 30
0.0
 10
18.69198284075503
 20
16.78570537536147
 30
0.0
 10
18.75262346713978
 20
16.88853446031789
 30
0.0
 10
18.81326589228851
 20
16.99139781823577
 30
0.0
 10
18.8739064660581
 20
17.09429746387697
 30
0.0
 10
18.93454830582999
 20
17.19723050022769
 30
0.0
 10
18.99518952623325
 20
17.30019790164039
 30
0.0
 10
19.05582974974732
 20
17.40319888959573
 30
0.0
 10
19.11647224924476
 20
17.50623120452505
 30
0.0
 10
19.17711278652314
 20
17.60929687034146
 30
0.0
 10
19.23775469733191
 20
17.71239286515727
 30
0.0
 10
19.29839552920687
 20
17.81552016126804
 30
0.0
 10
19.35903665321068
 20
17.91867761868451
 30
0.0
 10
19.41967856173207
 20
18.02186461517281
 30
0.0
 10
19.48031881808438
 20
18.1250821113985
 30
0.0
 10
19.54096156987877
 20
18.22832661256997
 30
0.0
 10
19.6016020888334
 20
18.33160075858628
 30
0.0
 10
19.66224274970623
 20
18.43490282083314
 30
0.0
 10
19.72288493131246
 20
18.53823132384885
 30
0.0
 10
19.7633086568882
 20
18.60712863682989
 30
0.0
 10
19.78351999999994
 20
18.64158199999996
 30
0.0
 11
18.02491999999994
 21
15.65713199999999
 31
0.0
 11
18.08556099999998
 21
15.759522
 31
0.0
 11
18.14620199999994
 21
15.86195499999996
 31
0.0
 11
18.20684399999999
 21
15.96443199999998
 31
0.0
 11
18.26748499999996
 21
16.06695100000001
 31
0.0
 11
18.32812699999998
 21
16.169511
 31
0.0
 11
18.38876799999997
 21
16.27211199999998
 31
0.0
 11
18.44940899999993
 21
16.37475199999999
 31
0.0
 11
18.51005099999996
 21
16.47743200000001
 31
0.0
 11
18.57069199999995
 21
16.58014999999999
 31
0.0
 11
18.63133399999998
 21
16.68290499999999
 31
0.0
 11
18.69197499999994
 21
16.78569799999996
 31
0.0
 11
18.75261599999999
 21
16.88852700000001
 31
0.0
 11
18.81325799999996
 21
16.99139100000001
 31
0.0
 11
18.87389899999998
 21
17.09429
 31
0.0
 11
18.93454099999996
 21
17.197224
 31
0.0
 11
18.995182
 21
17.30019099999998
 31
0.0
 11
19.05582299999996
 21
17.40319199999999
 31
0.0
 11
19.11646499999994
 21
17.50622499999997
 31
0.0
 11
19.17710599999998
 21
17.60928999999998
 31
0.0
 11
19.23774799999995
 21
17.71238699999996
 31
0.0
 11
19.29838899999998
 21
17.815514
 31
0.0
 11
19.35902999999996
 21
17.91867100000001
 31
0.0
 11
19.41967199999998
 21
18.02185899999999
 31
0.0
 11
19.48031299999996
 21
18.12507599999998
 31
0.0
 11
19.54095499999999
 21
18.22832099999998
 31
0.0
 11
19.60159599999997
 21
18.33159499999998
 31
0.0
 11
19.66223699999994
 21
18.43489699999996
 31
0.0
 11
19.72287899999997
 21
18.538226
 31
0.0
 11
19.78351999999994
 21
18.64158199999996
 31
0.0
  0
SPLINE
  5
DAFE
330
1E
100
AcDbEntity
  8
CUT
100
AcDbSpline
210
0.0
220
0.0
230
1.0
 70
     8
 71
     3
 72
    36
 73
    32
 74
    30
 42
0.0000000001
 43
0.0000000001
 44
0.0000000001
 12
0.532438271371875
 22
0.8464688341448429
 32
0.0
 13
0.5317800571114722
 23
0.8468825012116614
 33
0.0
 40
0.0
 40
0.0
 40
0.0
 40
0.0
 40
0.0075468940631514
 40
0.015093255901809
 40
0.0226401499649536
 40
0.0301873584555232
 40
0.037735099110792
 40
0.0452831542908009
 40
0.0528317415758417
 40
0.0603797967558386
 40
0.0679283840408805
 40
0.0754778179931739
 40
0.0830275666645038
 40
0.0905770006167822
 40
0.0981267492881218
 40
0.1056778766873752
 40
0.1132276253586334
 40
0.1207795995376766
 40
0.1283301950108734
 40
0.1358821691898752
 40
0.1434341433688321
 40
0.1509855856813889
 40
0.1585384066775612
 40
0.1660915427811783
 40
0.1736443637773442
 40
0.1811974998809597
 40
0.1887511677317288
 40
0.1963051507870534
 40
0.2038596655299395
 40
0.211413648585266
 40
0.2189690102575809
 40
0.2189690102575809
 40
0.2189690102575809
 40
0.2189690102575809
 10
19.78351999999994
 20
18.64158199999996
 30
0.0
 10
19.78485941840968
 20
18.64371140353965
 30
0.0
 10
19.787537025055
 20
18.6479707747399
 30
0.0
 10
19.79155276543132
 20
18.65436035699809
 30
0.0
 10
19.79557053559204
 20
18.66074878712466
 30
0.0
 10
19.79958567146639
 20
18.66713941602201
 30
0.0
 10
19.80360355091075
 20
18.67352877757413
 30
0.0
 10
19.80761870420007
 20
18.67992039539368
 30
0.0
 10
19.81163625429209
 20
18.68631063069634
 30
0.0
 10
19.81565180673232
 20
18.69270233095497
 30
0.0
 10
19.81966923525121
 20
18.69909318546064
 30
0.0
 10
19.82368645381111
 20
18.7054848387685
 30
0.0
 10
19.82770143454692
 20
18.71187823138399
 30
0.0
 10
19.83171952893943
 20
18.71826979155808
 30
0.0
 10
19.83573502898265
 20
18.72466352454297
 30
0.0
 10
19.83975187766549
 20
18.73105653411059
 30
0.0
 10
19.84376838809258
 20
18.73745063227011
 30
0.0
 10
19.84778484325021
 20
18.74384455575055
 30
0.0
 10
19.85180116684858
 20
18.75023943790685
 30
0.0
 10
19.85581795600222
 20
18.75663402763075
 30
0.0
 10
19.85983515928607
 20
18.76302869060734
 30
0.0
 10
19.86385099118527
 20
18.76942454819944
 30
0.0
 10
19.86786854850418
 20
18.77581977960486
 30
0.0
 10
19.87188339440477
 20
18.78221725623964
 30
0.0
 10
19.87590159459675
 20
18.78861275067158
 30
0.0
 10
19.87991665654451
 20
18.79501042493673
 30
0.0
 10
19.88393455070472
 20
18.80140677831125
 30
0.0
 10
19.88794972018916
 20
18.80780538492243
 30
0.0
 10
19.89196718972701
 20
18.81420267163746
 30
0.0
 10
19.89598319980541
 20
18.82060141714276
 30
0.0
 10
19.8986607364461
 20
18.82486716546978
 30
0.0
 10
19.89999999999997
 20
18.82699999999998
 30
0.0
 11
19.78351999999994
 21
18.64158199999996
 31
0.0
 11
19.78753699999998
 21
18.64797099999998
 31
0.0
 11
19.79155299999996
 21
18.65435999999998
 31
0.0
 11
19.79556999999998
 21
18.660749
 31
0.0
 11
19.79958599999997
 21
18.66713900000002
 31
0.0
 11
19.80360299999994
 21
18.67352899999997
 31
0.0
 11
19.80761899999999
 21
18.67991999999998
 31
0.0
 11
19.81163599999996
 21
18.68631099999999
 31
0.0
 11
19.815652
 21
18.69270199999998
 31
0.0
 11
19.81966899999997
 21
18.69909299999999
 31
0.0
 11
19.82368599999994
 21
18.70548500000001
 31
0.0
 11
19.82770199999998
 21
18.71187800000001
 31
0.0
 11
19.83171899999996
 21
18.71827000000001
 31
0.0
 11
19.835735
 21
18.72466300000001
 31
0.0
 11
19.83975199999997
 21
18.73105700000001
 31
0.0
 11
19.84376799999995
 21
18.73744999999996
 31
0.0
 11
19.84778499999998
 21
18.74384500000001
 31
0.0
 11
19.85180099999996
 21
18.75023900000002
 31
0.0
 11
19.855818
 21
18.75663400000002
 31
0.0
 11
19.85983499999997
 21
18.76302900000001
 31
0.0
 11
19.86385099999995
 21
18.76942400000001
 31
0.0
 11
19.86786799999998
 21
18.77582000000001
 31
0.0
 11
19.87188399999996
 21
18.782217
 31
0.0
 11
19.875901
 21
18.78861299999998
 31
0.0
 11
19.87991699999997
 21
18.79500999999998
 31
0.0
 11
19.88393399999995
 21
18.80140699999998
 31
0.0
 11
19.88794999999998
 21
18.80780499999996
 31
0.0
 11
19.89196699999996
 21
18.81420300000002
 31
0.0
 11
19.89598299999999
 21
18.82060100000001
 31
0.0
 11
19.89999999999997
 21
18.82699999999998
 31
0.0
  0
SPLINE
  5
DAFF
330
1E
100
AcDbEntity
  8
CUT
100
AcDbSpline
210
0.0
220
0.0
230
1.0
 70
    24
 71
     3
 72
    36
 73
    32
 74
    30
 42
0.0000000001
 43
0.0000000001
 44
0.0000000001
 12
1.0
 22
0.0
 32
0.0
 13
1.0
 23
0.0
 33
0.0
 40
0.0
 40
0.0
 40
0.0
 40
0.0
 40
0.0068969999999808
 40
0.0137930000000282
 40
0.0206900000000125
 40
0.0275859999999924
 40
0.03448300000003
 40
0.0413790000000098
 40
0.0482759999999907
 40
0.0551719999999705
 40
0.0620690000000117
 40
0.0689659999999925
 40
0.0758619999999795
 40
0.08275900000001
 40
0.0896550000000005
 40
0.0965519999999813
 40
0.103448000000018
 40
0.1103449999999988
 40
0.1172409999999786
 40
0.1241380000000163
 40
0.1310339999999996
 40
0.1379309999999805
 40
0.1448280000000182
 40
0.151723999999998
 40
0.1586209999999788
 40
0.1655170000000297
 40
0.1724140000000105
 40
0.1793099999999903
 40
0.1862069999999711
 40
0.1931030000000113
 40
0.1999999999999922
 40
0.1999999999999922
 40
0.1999999999999922
 40
0.1999999999999922
 10
19.89999999999997
 20
18.82699999999998
 30
0.0
 10
19.90229899999996
 20
18.82699999999998
 30
0.0
 10
19.90689666666663
 20
18.82699999999999
 30
0.0
 10
19.91379333333331
 20
18.82699999999999
 30
0.0
 10
19.92068966666664
 20
18.82699999999998
 30
0.0
 10
19.92758633333331
 20
18.82699999999998
 30
0.0
 10
19.93448266666664
 20
18.82699999999999
 30
0.0
 10
19.94137933333331
 20
18.82699999999998
 30
0.0
 10
19.94827566666662
 20
18.82699999999998
 30
0.0
 10
19.95517233333329
 20
18.82699999999998
 30
0.0
 10
19.96206899999996
 20
18.82699999999999
 30
0.0
 10
19.96896566666662
 20
18.82699999999998
 30
0.0
 10
19.97586233333329
 20
18.82699999999999
 30
0.0
 10
19.98275866666663
 20
18.82699999999998
 30
0.0
 10
19.98965533333329
 20
18.82699999999998
 30
0.0
 10
19.99655166666664
 20
18.82699999999999
 30
0.0
 10
20.0034483333333
 20
18.82699999999999
 30
0.0
 10
20.01034466666663
 20
18.82699999999998
 30
0.0
 10
20.0172413333333
 20
18.82699999999999
 30
0.0
 10
20.02413766666662
 20
18.82699999999998
 30
0.0
 10
20.0310343333333
 20
18.82699999999998
 30
0.0
 10
20.03793099999997
 20
18.82699999999999
 30
0.0
 10
20.04482766666663
 20
18.82699999999998
 30
0.0
 10
20.0517243333333
 20
18.82699999999998
 30
0.0
 10
20.05862066666664
 20
18.82699999999999
 30
0.0
 10
20.0655173333333
 20
18.82699999999998
 30
0.0
 10
20.07241366666665
 20
18.82699999999998
 30
0.0
 10
20.07931033333329
 20
18.82699999999998
 30
0.0
 10
20.08620666666662
 20
18.82699999999998
 30
0.0
 10
20.09310333333329
 20
18.82699999999999
 30
0.0
 10
20.09770099999996
 20
18.82699999999998
 30
0.0
 10
20.09999999999996
 20
18.82699999999998
 30
0.0
 11
19.89999999999997
 21
18.82699999999998
 31
0.0
 11
19.90689699999995
 21
18.82699999999998
 31
0.0
 11
19.913793
 21
18.82699999999998
 31
0.0
 11
19.92068999999998
 21
18.82699999999998
 31
0.0
 11
19.92758599999996
 21
18.82699999999998
 31
0.0
 11
19.934483
 21
18.82699999999998
 31
0.0
 11
19.94137899999998
 21
18.82699999999998
 31
0.0
 11
19.94827599999996
 21
18.82699999999998
 31
0.0
 11
19.95517199999994
 21
18.82699999999998
 31
0.0
 11
19.96206899999998
 21
18.82699999999998
 31
0.0
 11
19.96896599999996
 21
18.82699999999998
 31
0.0
 11
19.97586199999995
 21
18.82699999999998
 31
0.0
 11
19.98275899999998
 21
18.82699999999998
 31
0.0
 11
19.98965499999997
 21
18.82699999999998
 31
0.0
 11
19.99655199999995
 21
18.82699999999998
 31
0.0
 11
20.00344799999998
 21
18.82699999999998
 31
0.0
 11
20.01034499999997
 21
18.82699999999998
 31
0.0
 11
20.01724099999994
 21
18.82699999999998
 31
0.0
 11
20.02413799999998
 21
18.82699999999998
 31
0.0
 11
20.03103399999996
 21
18.82699999999998
 31
0.0
 11
20.03793099999995
 21
18.82699999999998
 31
0.0
 11
20.04482799999999
 21
18.82699999999998
 31
0.0
 11
20.05172399999997
 21
18.82699999999998
 31
0.0
 11
20.05862099999994
 21
18.82699999999998
 31
0.0
 11
20.065517
 21
18.82699999999998
 31
0.0
 11
20.07241399999998
 21
18.82699999999998
 31
0.0
 11
20.07930999999996
 21
18.82699999999998
 31
0.0
 11
20.08620699999994
 21
18.82699999999998
 31
0.0
 11
20.09310299999998
 21
18.82699999999998
 31
0.0
 11
20.09999999999996
 21
18.82699999999998
 31
0.0
  0
SPLINE
  5
DB00
330
1E
100
AcDbEntity
  8
CUT
100
AcDbSpline
210
0.0
220
0.0
230
1.0
 70
     8
 71
     3
 72
    36
 73
    32
 74
    30
 42
0.0000000001
 43
0.0000000001
 44
0.0000000001
 12
0.5317800571114722
 22
-0.8468825012116614
 32
0.0
 13
0.532438271371875
 23
-0.8464688341448429
 33
0.0
 40
0.0
 40
0.0
 40
0.0
 40
0.0
 40
0.0075553616723508
 40
0.0151093447276414
 40
0.0226638594705275
 40
0.0302178425258558
 40
0.0377715103766212
 40
0.0453246464802726
 40
0.0528774674764026
 40
0.0604306035800178
 40
0.067983424576192
 40
0.0755348668887469
 40
0.0830868410677416
 40
0.0906388152467075
 40
0.0981894107199024
 40
0.1057413848989474
 40
0.1132911335702038
 40
0.1208422609694949
 40
0.1283920096407968
 40
0.135941443593077
 40
0.1434911922644088
 40
0.1510406262167003
 40
0.1585892135017782
 40
0.1661372686817373
 40
0.1736858559667837
 40
0.1812339111467908
 40
0.1887816518020576
 40
0.1963288602926253
 40
0.2038757543557699
 40
0.2114221161944294
 40
0.2189690102575827
 40
0.2189690102575827
 40
0.2189690102575827
 40
0.2189690102575827
 10
20.09999999999996
 20
18.82699999999998
 30
0.0
 10
20.10133926355383
 20
18.82486716546977
 30
0.0
 10
20.10401680019461
 20
18.82060141714281
 30
0.0
 10
20.1080328102729
 20
18.81420267163743
 30
0.0
 10
20.11205027981076
 20
18.80780538492243
 30
0.0
 10
20.11606544929522
 20
18.80140677831125
 30
0.0
 10
20.12008334345539
 20
18.79501042493671
 30
0.0
 10
20.12409840540326
 20
18.78861275067163
 30
0.0
 10
20.12811660559514
 20
18.78221725623961
 30
0.0
 10
20.13213145149574
 20
18.77581977960486
 30
0.0
 10
20.13614900881467
 20
18.76942454819944
 30
0.0
 10
20.14016484071383
 20
18.76302869060731
 30
0.0
 10
20.1441820439978
 20
18.7566340276308
 30
0.0
 10
20.14819883315134
 20
18.75023943790683
 30
0.0
 10
20.15221515674971
 20
18.74384455575055
 30
0.0
 10
20.15623161190736
 20
18.73745063227011
 30
0.0
 10
20.1602481223344
 20
18.73105653411055
 30
0.0
 10
20.16426497101737
 20
18.72466352454302
 30
0.0
 10
20.16828047106047
 20
18.71826979155805
 30
0.0
 10
20.17229856545302
 20
18.71187823138399
 30
0.0
 10
20.17631354618882
 20
18.7054848387685
 30
0.0
 10
20.18033076474871
 20
18.69909318546063
 30
0.0
 10
20.1843481932677
 20
18.69270233095502
 30
0.0
 10
20.18836374570781
 20
18.68631063069631
 30
0.0
 10
20.19238129579988
 20
18.67992039539369
 30
0.0
 10
20.19639644908918
 20
18.67352877757414
 30
0.0
 10
20.20041432853353
 20
18.66713941602201
 30
0.0
 10
20.20442946440788
 20
18.66074878712467
 30
0.0
 10
20.2084472345686
 20
18.65436035699809
 30
0.0
 10
20.21246297494493
 20
18.6479707747399
 30
0.0
 10
20.21514058159024
 20
18.64371140353965
 30
0.0
 10
20.21647999999998
 20
18.64158199999996
 30
0.0
 11
20.09999999999996
 21
18.82699999999998
 31
0.0
 11
20.104017
 21
18.82060100000001
 31
0.0
 11
20.10803299999996
 21
18.81420300000002
 31
0.0
 11
20.11204999999995
 21
18.80780499999996
 31
0.0
 11
20.11606599999999
 21
18.80140699999998
 31
0.0
 11
20.12008299999996
 21
18.79500999999998
 31
0.0
 11
20.12409899999999
 21
18.78861299999998
 31
0.0
 11
20.12811599999996
 21
18.782217
 31
0.0
 11
20.13213199999995
 21
18.77582000000001
 31
0.0
 11
20.13614899999998
 21
18.76942400000001
 31
0.0
 11
20.14016499999996
 21
18.76302900000001
 31
0.0
 11
20.144182
 21
18.75663400000002
 31
0.0
 11
20.14819899999996
 21
18.75023900000002
 31
0.0
 11
20.15221499999995
 21
18.74384500000001
 31
0.0
 11
20.15623199999998
 21
18.73744999999996
 31
0.0
 11
20.16024799999996
 21
18.73105700000001
 31
0.0
 11
20.164265
 21
18.72466300000001
 31
0.0
 11
20.16828099999997
 21
18.71827000000001
 31
0.0
 11
20.17229799999995
 21
18.71187800000001
 31
0.0
 11
20.17631399999998
 21
18.70548500000001
 31
0.0
 11
20.18033099999996
 21
18.69909299999999
 31
0.0
 11
20.184348
 21
18.69270199999998
 31
0.0
 11
20.18836399999996
 21
18.68631099999999
 31
0.0
 11
20.19238099999995
 21
18.67991999999998
 31
0.0
 11
20.19639699999998
 21
18.67352899999997
 31
0.0
 11
20.20041399999996
 21
18.66713900000002
 31
0.0
 11
20.20442999999994
 21
18.660749
 31
0.0
 11
20.20844699999996
 21
18.65435999999998
 31
0.0
 11
20.21246299999995
 21
18.64797099999998
 31
0.0
 11
20.21647999999998
 21
18.64158199999996
 31
0.0
  0
SPLINE
  5
DB01
330
1E
100
AcDbEntity
  8
CUT
100
AcDbSpline
210
0.0
220
0.0
230
1.0
 70
     8
 71
     3
 72
    36
 73
    32
 74
    30
 42
0.0000000001
 43
0.0000000001
 44
0.0000000001
 12
-0.5096689523912139
 22
0.8603705939700883
 32
0.0
 13
-0.5059904620604547
 23
0.8625390729142928
 33
0.0
 40
0.0
 40
0.0
 40
0.0
 40
0.0
 40
0.1190001805923308
 40
0.2380373612124566
 40
0.3571129157692495
 40
0.4762241085346797
 40
0.5953711007921476
 40
0.7145528782667046
 40
0.8337682316445253
 40
0.9530185337993117
 40
1.072301048884268
 40
1.19161593558749
 40
1.310963041668829
 40
1.430341155751828
 40
1.549749927037684
 40
1.669188342474261
 40
1.788657420147093
 40
1.908154424168083
 40
2.027680726219163
 40
2.147235112391289
 40
2.266816570427243
 40
2.386426116756096
 40
2.50606101555244
 40
2.625721775745573
 40
2.745409768075638
 40
2.865122256856023
 40
2.984859394741496
 40
3.104621032827308
 40
3.224406816979656
 40
3.344216392577812
 40
3.464048748880232
 40
3.464048748880232
 40
3.464048748880232
 40
3.464048748880232
 10
21.97507999999999
 20
15.65713199999999
 30
0.0
 10
21.95486310087437
 20
15.69126008535291
 30
0.0
 10
21.9144295740633
 20
15.75953075200701
 30
0.0
 10
21.8537884781855
 20
15.86196422810847
 30
0.0
 10
21.79314657336852
 20
15.96444022569331
 30
0.0
 10
21.73250629655726
 20
16.06695971661461
 30
0.0
 10
21.67186376972961
 20
16.16951901302353
 30
0.0
 10
21.61122355199974
 20
16.27212000792759
 30
0.0
 10
21.55058234049283
 20
16.37476041499817
 30
0.0
 10
21.4899404578507
 20
16.47743942593028
 30
0.0
 10
21.42930020123646
 20
16.58015792676653
 30
0.0
 10
21.36865742478816
 20
16.68291241017205
 30
0.0
 10
21.30801715924489
 20
16.78570537536146
 30
0.0
 10
21.24737653286014
 20
16.8885344603179
 30
0.0
 10
21.18673410771143
 20
16.99139781823577
 30
0.0
 10
21.12609353394184
 20
17.09429746387697
 30
0.0
 10
21.06545169416991
 20
17.19723050022765
 30
0.0
 10
21.00481047376677
 20
17.30019790164043
 30
0.0
 10
20.94417025025259
 20
17.4031988895957
 30
0.0
 10
20.88352775075517
 20
17.50623120452504
 30
0.0
 10
20.82288721347679
 20
17.60929687034147
 30
0.0
 10
20.76224530266802
 20
17.71239286515727
 30
0.0
 10
20.70160447079306
 20
17.81552016126803
 30
0.0
 10
20.64096334678926
 20
17.91867761868451
 30
0.0
 10
20.58032143826786
 20
18.0218646151728
 30
0.0
 10
20.51968118191554
 20
18.1250821113985
 30
0.0
 10
20.45903843012115
 20
18.22832661256997
 30
0.0
 10
20.39839791116653
 20
18.33160075858629
 30
0.0
 10
20.33775725029369
 20
18.43490282083313
 30
0.0
 10
20.27711506868747
 20
18.53823132384885
 30
0.0
 10
20.23669134311173
 20
18.60712863682989
 30
0.0
 10
20.21647999999998
 20
18.64158199999996
 30
0.0
 11
21.97507999999999
 21
15.65713199999999
 31
0.0
 11
21.91443899999995
 21
15.759522
 31
0.0
 11
21.85379799999997
 21
15.86195499999996
 31
0.0
 11
21.79315599999994
 21
15.96443199999998
 31
0.0
 11
21.73251499999997
 21
16.06695100000001
 31
0.0
 11
21.67187299999994
 21
16.169511
 31
0.0
 11
21.61123199999996
 21
16.27211199999998
 31
0.0
 11
21.55059099999999
 21
16.37475199999999
 31
0.0
 11
21.48994899999995
 21
16.47743200000001
 31
0.0
 11
21.42930799999998
 21
16.58014999999999
 31
0.0
 11
21.36866599999996
 21
16.68290499999999
 31
0.0
 11
21.30802499999997
 21
16.78569799999996
 31
0.0
 11
21.24738399999995
 21
16.88852700000001
 31
0.0
 11
21.18674199999998
 21
16.99139100000001
 31
0.0
 11
21.12610099999995
 21
17.09429
 31
0.0
 11
21.06545899999996
 21
17.197224
 31
0.0
 11
21.004818
 21
17.30019099999998
 31
0.0
 11
20.94417699999997
 21
17.40319199999999
 31
0.0
 11
20.88353499999998
 21
17.50622499999997
 31
0.0
 11
20.82289399999996
 21
17.60928999999998
 31
0.0
 11
20.76225199999999
 21
17.71238699999996
 31
0.0
 11
20.70161099999995
 21
17.815514
 31
0.0
 11
20.64096999999998
 21
17.91867100000001
 31
0.0
 11
20.58032799999994
 21
18.02185899999999
 31
0.0
 11
20.51968699999997
 21
18.12507599999998
 31
0.0
 11
20.45904499999994
 21
18.22832099999998
 31
0.0
 11
20.39840399999997
 21
18.33159499999998
 31
0.0
 11
20.33776299999999
 21
18.43489699999996
 31
0.0
 11
20.27712099999996
 21
18.538226
 31
0.0
 11
20.21647999999998
 21
18.64158199999996
 31
0.0
  0
ENDSEC
  0
SECTION
  2
OBJECTS
  0
DICTIONARY
  5
C
330
0
100
AcDbDictionary
281
     1
  3
ACAD_COLOR
350
D6AD
  3
ACAD_GROUP
350
D
  3
ACAD_LAYOUT
350
19
  3
ACAD_MATERIAL
350
D6AC
  3
ACAD_MLINESTYLE
350
16
  3
ACAD_PLOTSETTINGS
350
18
  3
ACAD_PLOTSTYLENAME
350
D6AA
  3
ACAD_TABLESTYLE
350
D6AE
  3
AcDbVariableDictionary
350
D6E2
1001
ACAD
1000
TREAT_AS_HARD
1070
     0
1000
TREAT_AS_HARD
1070
     0
1000
TREAT_AS_HARD
1070
     0
  0
DICTIONARY
  5
373B
330
1E
100
AcDbDictionary
281
     1
  3
ACAD_LAYOUTSELFREF
350
BC36
1001
ACAD
1000
TREAT_AS_HARD
1070
     0
1000
TREAT_AS_HARD
1070
     1
  0
DICTIONARY
  5
3739
330
1A
100
AcDbDictionary
281
     1
  3
ACAD_LAYOUTSELFREF
350
BC35
1001
ACAD
1000
TREAT_AS_HARD
1070
     0
1000
TREAT_AS_HARD
1070
     1
  0
DICTIONARY
  5
D6AD
102
{ACAD_REACTORS
330
C
102
}
330
C
100
AcDbDictionary
281
     1
  0
DICTIONARY
  5
D
102
{ACAD_REACTORS
330
C
102
}
330
C
100
AcDbDictionary
281
     1
1001
ACAD
1000
TREAT_AS_HARD
1070
     0
1000
TREAT_AS_HARD
1070
     0
1000
TREAT_AS_HARD
1070
     0
  0
DICTIONARY
  5
19
102
{ACAD_REACTORS
330
C
102
}
330
C
100
AcDbDictionary
281
     1
  3
Layout1
350
D6B1
  3
Model
350
D6B0
1001
ACAD
1000
TREAT_AS_HARD
1070
     0
1000
TREAT_AS_HARD
1070
     0
1000
TREAT_AS_HARD
1070
     0
  0
DICTIONARY
  5
D6AC
102
{ACAD_REACTORS
330
C
102
}
330
C
100
AcDbDictionary
281
     1
  0
DICTIONARY
  5
16
102
{ACAD_REACTORS
330
C
102
}
330
C
100
AcDbDictionary
281
     1
  3
STANDARD
350
17
1001
ACAD
1000
TREAT_AS_HARD
1070
     0
1000
TREAT_AS_HARD
1070
     0
1000
TREAT_AS_HARD
1070
     0
  0
DICTIONARY
  5
18
102
{ACAD_REACTORS
330
C
102
}
330
C
100
AcDbDictionary
281
     1
1001
ACAD
1000
TREAT_AS_HARD
1070
     0
1000
TREAT_AS_HARD
1070
     0
1000
TREAT_AS_HARD
1070
     0
  0
ACDBDICTIONARYWDFLT
  5
D6AA
102
{ACAD_REACTORS
330
C
102
}
330
C
100
AcDbDictionary
281
     1
  3
Normal
350
D6AB
100
AcDbDictionaryWithDefault
340
D6AB
  0
DICTIONARY
  5
D6AE
102
{ACAD_REACTORS
330
C
102
}
330
C
100
AcDbDictionary
281
     1
  3
Standard
350
D6AF
  0
DICTIONARY
  5
D6E2
102
{ACAD_REACTORS
330
C
102
}
330
C
100
AcDbDictionary
281
     1
  3
CTABLESTYLE
350
D6E3
  3
DIMASSOC
350
D6E4
  3
PROJECTNAME
350
D6E5
  0
XRECORD
  5
BC36
102
{ACAD_REACTORS
330
373B
102
}
330
373B
100
AcDbXrecord
280
     1
340
1E
  0
XRECORD
  5
BC35
102
{ACAD_REACTORS
330
3739
102
}
330
3739
100
AcDbXrecord
280
     1
340
1A
  0
LAYOUT
  5
D6B1
102
{ACAD_XDICTIONARY
360
D6EA
102
}
102
{ACAD_REACTORS
330
19
102
}
330
19
100
AcDbPlotSettings
  1

  2
\\ingdom02\ITB3
  4

  6

 40
0.0
 41
0.0
 42
0.0
 43
0.0
 44
0.0
 45
0.0
 46
0.0
 47
0.0
 48
0.0
 49
0.0
140
0.0
141
0.0
142
1.0
143
1.0
 70
   688
 72
     0
 73
     0
 74
     5
  7
^A
 75
    16
147
1.0
148
0.0
149
0.0
100
AcDbLayout
  1
Layout1
 70
     0
 71
     1
 10
0.0
 20
0.0
 11
12.0
 21
9.0
 12
0.0
 22
0.0
 32
0.0
 14
0.0
 24
0.0
 34
0.0
 15
0.0
 25
0.0
 35
0.0
146
0.0
 13
0.0
 23
0.0
 33
0.0
 16
1.0
 26
0.0
 36
0.0
 17
0.0
 27
1.0
 37
0.0
 76
     0
330
1A
  0
LAYOUT
  5
D6B0
102
{ACAD_XDICTIONARY
360
D6E8
102
}
102
{ACAD_REACTORS
330
19
102
}
330
19
100
AcDbPlotSettings
  1

  2
\\ingdom02\ITB3
  4

  6

 40
0.0
 41
0.0
 42
0.0
 43
0.0
 44
0.0
 45
0.0
 46
0.0
 47
0.0
 48
0.0
 49
0.0
140
0.0
141
0.0
142
1.0
143
1.0
 70
  1712
 72
     0
 73
     0
 74
     0
  7
^A
 75
     0
147
1.0
148
0.0
149
0.0
100
AcDbLayout
  1
Model
 70
     1
 71
     0
 10
0.0
 20
0.0
 11
12.0
 21
9.0
 12
0.0
 22
0.0
 32
0.0
 14
0.0
 24
0.0
 34
0.0
 15
0.0
 25
0.0
 35
0.0
146
0.0
 13
0.0
 23
0.0
 33
0.0
 16
1.0
 26
0.0
 36
0.0
 17
0.0
 27
1.0
 37
0.0
 76
     0
330
1E
  0
MLINESTYLE
  5
17
102
{ACAD_REACTORS
330
16
102
}
330
16
100
AcDbMlineStyle
  2
STANDARD
 70
     0
  3

 62
   256
 51
90.0
 52
90.0
 71
     2
 49
0.5
 62
   256
  6
BYLAYER
 49
-0.5
 62
   256
  6
BYLAYER
  0
ACDBPLACEHOLDER
  5
D6AB
102
{ACAD_REACTORS
330
D6AA
102
}
330
D6AA
  0
TABLESTYLE
  5
D6AF
102
{ACAD_REACTORS
330
D6AE
102
}
330
D6AE
100
AcDbTableStyle
  3
Standard
 70
     0
 71
     0
 40
0.06
 41
0.06
280
     0
281
     0
  7
STANDARD
140
0.18
170
     2
 62
     0
 63
     7
283
     0
274
    -2
284
     1
 64
     0
275
    -2
285
     1
 65
     0
276
    -2
286
     1
 66
     0
277
    -2
287
     1
 67
     0
278
    -2
288
     1
 68
     0
279
    -2
289
     1
 69
     0
  7
STANDARD
140
0.25
170
     5
 62
     0
 63
     7
283
     0
274
    -2
284
     1
 64
     0
275
    -2
285
     1
 65
     0
276
    -2
286
     1
 66
     0
277
    -2
287
     1
 67
     0
278
    -2
288
     1
 68
     0
279
    -2
289
     1
 69
     0
  7
STANDARD
140
0.18
170
     5
 62
     0
 63
     7
283
     0
274
    -2
284
     1
 64
     0
275
    -2
285
     1
 65
     0
276
    -2
286
     1
 66
     0
277
    -2
287
     1
 67
     0
278
    -2
288
     1
 68
     0
279
    -2
289
     1
 69
     0
  0
DICTIONARYVAR
  5
D6E3
102
{ACAD_REACTORS
330
D6E2
102
}
330
D6E2
100
DictionaryVariables
280
     0
  1
STANDARD
  0
DICTIONARYVAR
  5
D6E4
102
{ACAD_REACTORS
330
D6E2
102
}
330
D6E2
100
DictionaryVariables
280
     0
  1
1
  0
DICTIONARYVAR
  5
D6E5
102
{ACAD_REACTORS
330
D6E2
102
}
330
D6E2
100
DictionaryVariables
280
     0
  1

  0
DICTIONARY
  5
D6EA
330
D6B1
100
AcDbDictionary
280
     1
281
     1
  3
ACAD_XREC_ROUNDTRIP
360
D6EB
  0
DICTIONARY
  5
D6E8
330
D6B0
100
AcDbDictionary
280
     1
281
     1
  3
ACAD_XREC_ROUNDTRIP
360
D6E9
  0
XRECORD
  5
D6EB
102
{ACAD_REACTORS
330
D6EA
102
}
330
D6EA
100
AcDbXrecord
280
     1
102
SHADEPLOT
 70
     0
102
SHADEPLOTRESLEVEL
 70
     2
102
SHADEPLOTCUSTOMDPI
 70
   300
  0
XRECORD
  5
D6E9
102
{ACAD_REACTORS
330
D6E8
102
}
330
D6E8
100
AcDbXrecord
280
     1
102
SHADEPLOT
 70
     0
102
SHADEPLOTRESLEVEL
 70
     2
102
SHADEPLOTCUSTOMDPI
 70
   300
  0
ENDSEC
  0
EOF
