  0
SECTION
  2
HEADER
  9
$ACADVER
  1
AC1018
  9
$ACADMAINTVER
 70
   104
  9
$DWGCODEPAGE
  3
ANSI_1252
  9
$LASTSAVEDBY
  1
Bernd Dutschke
  9
$INSBASE
 10
0.0
 20
0.0
 30
0.0
  9
$EXTMIN
 10
-81.84168697282245
 20
-39.02050657077928
 30
-0.0000000000000023
  9
$EXTMAX
 10
132.7715488316877
 20
79.85152868227749
 30
0.0000000000000132
  9
$LIMMIN
 10
0.0
 20
0.0
  9
$LIMMAX
 10
210.0
 20
297.0
  9
$ORTHOMODE
 70
     0
  9
$REGENMODE
 70
     1
  9
$FILLMODE
 70
     1
  9
$QTEXTMODE
 70
     0
  9
$MIRRTEXT
 70
     1
  9
$LTSCALE
 40
1.0
  9
$ATTMODE
 70
     1
  9
$TEXTSIZE
 40
3.5
  9
$TRACEWID
 40
1.0
  9
$TEXTSTYLE
  7
STANDARD
  9
$CLAYER
  8
0
  9
$CELTYPE
  6
ByLayer
  9
$CECOLOR
 62
   256
  9
$CELTSCALE
 40
1.0
  9
$DISPSILH
 70
     0
  9
$DIMSCALE
 40
1.0
  9
$DIMASZ
 40
2.5
  9
$DIMEXO
 40
0.0
  9
$DIMDLI
 40
10.0
  9
$DIMRND
 40
0.0
  9
$DIMDLE
 40
0.0
  9
$DIMEXE
 40
1.0
  9
$DIMTP
 40
0.1
  9
$DIMTM
 40
0.1
  9
$DIMTXT
 40
3.5
  9
$DIMCEN
 40
0.0
  9
$DIMTSZ
 40
0.0
  9
$DIMTOL
 70
     0
  9
$DIMLIM
 70
     0
  9
$DIMTIH
 70
     0
  9
$DIMTOH
 70
     0
  9
$DIMSE1
 70
     0
  9
$DIMSE2
 70
     0
  9
$DIMTAD
 70
     1
  9
$DIMZIN
 70
     8
  9
$DIMBLK
  1

  9
$DIMASO
 70
     1
  9
$DIMSHO
 70
     1
  9
$DIMPOST
  1

  9
$DIMAPOST
  1
"
  9
$DIMALT
 70
     0
  9
$DIMALTD
 70
     2
  9
$DIMALTF
 40
0.0393701
  9
$DIMLFAC
 40
1.0
  9
$DIMTOFL
 70
     1
  9
$DIMTVP
 40
0.0
  9
$DIMTIX
 70
     0
  9
$DIMSOXD
 70
     0
  9
$DIMSAH
 70
     0
  9
$DIMBLK1
  1

  9
$DIMBLK2
  1

  9
$DIMSTYLE
  2
AM_DIN
  9
$DIMCLRD
 70
   256
  9
$DIMCLRE
 70
   256
  9
$DIMCLRT
 70
     2
  9
$DIMTFAC
 40
0.71
  9
$DIMGAP
 40
1.5
  9
$DIMJUST
 70
     0
  9
$DIMSD1
 70
     0
  9
$DIMSD2
 70
     0
  9
$DIMTOLJ
 70
     1
  9
$DIMTZIN
 70
     0
  9
$DIMALTZ
 70
     0
  9
$DIMALTTZ
 70
     0
  9
$DIMUPT
 70
     0
  9
$DIMDEC
 70
     4
  9
$DIMTDEC
 70
     4
  9
$DIMALTU
 70
     2
  9
$DIMALTTD
 70
     2
  9
$DIMTXSTY
  7
STANDARD
  9
$DIMAUNIT
 70
     0
  9
$DIMADEC
 70
     0
  9
$DIMALTRND
 40
0.0
  9
$DIMAZIN
 70
     0
  9
$DIMDSEP
 70
    46
  9
$DIMATFIT
 70
     3
  9
$DIMFRAC
 70
     0
  9
$DIMLDRBLK
  1

  9
$DIMLUNIT
 70
     2
  9
$DIMLWD
 70
    -2
  9
$DIMLWE
 70
    -2
  9
$DIMTMOVE
 70
     0
  9
$LUNITS
 70
     2
  9
$LUPREC
 70
     2
  9
$SKETCHINC
 40
1.0
  9
$FILLETRAD
 40
5.0
  9
$AUNITS
 70
     0
  9
$AUPREC
 70
     0
  9
$MENU
  1
.
  9
$ELEVATION
 40
0.0
  9
$PELEVATION
 40
0.0
  9
$THICKNESS
 40
0.0
  9
$LIMCHECK
 70
     0
  9
$CHAMFERA
 40
2.5
  9
$CHAMFERB
 40
2.5
  9
$CHAMFERC
 40
0.0
  9
$CHAMFERD
 40
0.0
  9
$SKPOLY
 70
     0
  9
$TDCREATE
 40
2453447.471737477
  9
$TDUCREATE
 40
2453447.388404144
  9
$TDUPDATE
 40
2454988.402483901
  9
$TDUUPDATE
 40
2454988.319150567
  9
$TDINDWG
 40
0.3892332292
  9
$TDUSRTIMER
 40
0.3892087153
  9
$USRTIMER
 70
     1
  9
$ANGBASE
 50
0.0
  9
$ANGDIR
 70
     0
  9
$PDMODE
 70
     0
  9
$PDSIZE
 40
0.0
  9
$PLINEWID
 40
0.0
  9
$SPLFRAME
 70
     0
  9
$SPLINETYPE
 70
     6
  9
$SPLINESEGS
 70
     8
  9
$HANDSEED
  5
23E2F
  9
$SURFTAB1
 70
     6
  9
$SURFTAB2
 70
     6
  9
$SURFTYPE
 70
     6
  9
$SURFU
 70
     6
  9
$SURFV
 70
     6
  9
$UCSBASE
  2

  9
$UCSNAME
  2

  9
$UCSORG
 10
0.0
 20
0.0
 30
0.0
  9
$UCSXDIR
 10
1.0
 20
0.0
 30
0.0
  9
$UCSYDIR
 10
0.0
 20
1.0
 30
0.0
  9
$UCSORTHOREF
  2

  9
$UCSORTHOVIEW
 70
     0
  9
$UCSORGTOP
 10
0.0
 20
0.0
 30
0.0
  9
$UCSORGBOTTOM
 10
0.0
 20
0.0
 30
0.0
  9
$UCSORGLEFT
 10
0.0
 20
0.0
 30
0.0
  9
$UCSORGRIGHT
 10
0.0
 20
0.0
 30
0.0
  9
$UCSORGFRONT
 10
0.0
 20
0.0
 30
0.0
  9
$UCSORGBACK
 10
0.0
 20
0.0
 30
0.0
  9
$PUCSBASE
  2

  9
$PUCSNAME
  2

  9
$PUCSORG
 10
0.0
 20
0.0
 30
0.0
  9
$PUCSXDIR
 10
1.0
 20
0.0
 30
0.0
  9
$PUCSYDIR
 10
0.0
 20
1.0
 30
0.0
  9
$PUCSORTHOREF
  2

  9
$PUCSORTHOVIEW
 70
     0
  9
$PUCSORGTOP
 10
0.0
 20
0.0
 30
0.0
  9
$PUCSORGBOTTOM
 10
0.0
 20
0.0
 30
0.0
  9
$PUCSORGLEFT
 10
0.0
 20
0.0
 30
0.0
  9
$PUCSORGRIGHT
 10
0.0
 20
0.0
 30
0.0
  9
$PUCSORGFRONT
 10
0.0
 20
0.0
 30
0.0
  9
$PUCSORGBACK
 10
0.0
 20
0.0
 30
0.0
  9
$USERI1
 70
     0
  9
$USERI2
 70
     0
  9
$USERI3
 70
     0
  9
$USERI4
 70
     0
  9
$USERI5
 70
     0
  9
$USERR1
 40
0.0
  9
$USERR2
 40
0.0
  9
$USERR3
 40
0.0
  9
$USERR4
 40
0.0
  9
$USERR5
 40
0.0
  9
$WORLDVIEW
 70
     1
  9
$SHADEDGE
 70
     3
  9
$SHADEDIF
 70
    70
  9
$TILEMODE
 70
     1
  9
$MAXACTVP
 70
    64
  9
$PINSBASE
 10
0.0
 20
0.0
 30
0.0
  9
$PLIMCHECK
 70
     0
  9
$PEXTMIN
 10
1.000000000000000E+20
 20
1.000000000000000E+20
 30
1.000000000000000E+20
  9
$PEXTMAX
 10
-1.000000000000000E+20
 20
-1.000000000000000E+20
 30
-1.000000000000000E+20
  9
$PLIMMIN
 10
0.0
 20
0.0
  9
$PLIMMAX
 10
420.0
 20
297.0
  9
$UNITMODE
 70
     0
  9
$VISRETAIN
 70
     1
  9
$PLINEGEN
 70
     0
  9
$PSLTSCALE
 70
     1
  9
$TREEDEPTH
 70
  3020
  9
$CMLSTYLE
  2
Standard
  9
$CMLJUST
 70
     0
  9
$CMLSCALE
 40
1.0
  9
$PROXYGRAPHICS
 70
     1
  9
$MEASUREMENT
 70
     0
  9
$CELWEIGHT
370
    -1
  9
$ENDCAPS
280
     0
  9
$JOINSTYLE
280
     0
  9
$LWDISPLAY
290
     0
  9
$INSUNITS
 70
     0
  9
$HYPERLINKBASE
  1

  9
$STYLESHEET
  1

  9
$XEDIT
290
     1
  9
$CEPSNTYPE
380
     0
  9
$PSTYLEMODE
290
     1
  9
$FINGERPRINTGUID
  2
{881B52C8-02E6-4D4C-B2D5-94F37D47A41B}
  9
$VERSIONGUID
  2
{B85BFB88-2B47-40C8-8523-E7843E47F44F}
  9
$EXTNAMES
290
     1
  9
$PSVPSCALE
 40
0.0
  9
$OLESTARTUP
290
     0
  9
$SORTENTS
280
   127
  9
$INDEXCTL
280
     0
  9
$HIDETEXT
280
     0
  9
$XCLIPFRAME
290
     0
  9
$HALOGAP
280
     0
  9
$OBSCOLOR
 70
   257
  9
$OBSLTYPE
280
     0
  9
$INTERSECTIONDISPLAY
280
     0
  9
$INTERSECTIONCOLOR
 70
   257
  9
$DIMASSOC
280
     1
  9
$PROJECTNAME
  1

  0
ENDSEC
  0
SECTION
  2
CLASSES
  0
CLASS
  1
ACDBDICTIONARYWDFLT
  2
AcDbDictionaryWithDefault
  3
ObjectDBX Classes
 90
        0
 91
        1
280
     0
281
     0
  0
CLASS
  1
MATERIAL
  2
AcDbMaterial
  3
ObjectDBX Classes
 90
     1153
 91
        3
280
     0
281
     0
  0
CLASS
  1
VISUALSTYLE
  2
AcDbVisualStyle
  3
ObjectDBX Classes
 90
     4095
 91
       16
280
     0
281
     0
  0
CLASS
  1
SCALE
  2
AcDbScale
  3
ObjectDBX Classes
 90
     1153
 91
       33
280
     0
281
     0
  0
CLASS
  1
TABLESTYLE
  2
AcDbTableStyle
  3
ObjectDBX Classes
 90
     4095
 91
        1
280
     0
281
     0
  0
CLASS
  1
MLEADERSTYLE
  2
AcDbMLeaderStyle
  3
ACDB_MLEADERSTYLE_CLASS
 90
     4095
 91
        1
280
     0
281
     0
  0
CLASS
  1
AMGSETTINGSOBJ
  2
AmgSettingsObj
  3
"AcadM|Product Description: AutoCAD Mechanical|Company: Autodesk, Inc."
 90
     1024
 91
        2
280
     0
281
     0
  0
CLASS
  1
ACME_DOCUMENT
  2
AcMeDbDoc
  3
AcMeServices
 90
     1024
 91
        2
280
     0
281
     0
  0
CLASS
  1
ACMESCOPE
  2
AcMeScope
  3
AcMeServices
 90
     1024
 91
        1
280
     0
281
     0
  0
CLASS
  1
ACMECOMMANDHISTORY
  2
AcMeCommandHistory
  3
AcMeServices
 90
     1024
 91
        1
280
     0
281
     0
  0
CLASS
  1
ACIMSYSVARMAN
  2
AcImSysVarManager
  3
AcMeServices
 90
     1024
 91
        6
280
     0
281
     0
  0
CLASS
  1
ACIMINTSYSVAR
  2
AcImIntSysVar
  3
AcMeServices
 90
     1024
 91
       53
280
     0
281
     0
  0
CLASS
  1
ACMEDRAWINGMAN
  2
AcMeDrawingMan
  3
AcMeServices
 90
     1024
 91
        1
280
     0
281
     0
  0
CLASS
  1
ACMEVIEW
  2
AcMeView
  3
AcMeServices
 90
     1024
 91
        1
280
     0
281
     0
  0
CLASS
  1
ACDBENTITYCACHE
  2
AcMeEntityCache
  3
AcMeServices
 90
     1024
 91
        1
280
     0
281
     0
  0
CLASS
  1
GSMANAGER
  2
AcMeGSManager
  3
AcMeServices
 90
     1024
 91
        1
280
     0
281
     0
  0
CLASS
  1
AMDTINTERNALREACTOR
  2
AmdtInternalReactor
  3
AcMeServices
 90
     1024
 91
        2
280
     0
281
     0
  0
CLASS
  1
ACMESTATEMGR
  2
AcMeStateMgr
  3
AcMeServices
 90
     1024
 91
        1
280
     0
281
     0
  0
CLASS
  1
ACGREFMASTER
  2
AcGrefMaster
  3
AcAttribServices
 90
     1024
 91
        1
280
     0
281
     0
  0
CLASS
  1
AM_DRAWING_MGR
  2
AcDmDwgMgr
  3
AcMechDwgViewMgmt
 90
     1024
 91
        1
280
     0
281
     0
  0
CLASS
  1
AM_DWG_DOCUMENT
  2
AcDmDwgDocument
  3
AcMechDwgViewMgmt
 90
     1024
 91
        1
280
     0
281
     0
  0
CLASS
  1
AM_DWG_SHEET
  2
AcDmSheet
  3
AcMechDwgViewMgmt
 90
     1024
 91
        1
280
     0
281
     0
  0
CLASS
  1
AM_VIEWDIMPARMAP
  2
AcDmViewDimParMap
  3
AcMechDwgViewMgmt
 90
     1024
 91
        1
280
     0
281
     0
  0
CLASS
  1
ACIMREALSYSVAR
  2
AcImRealSysVar
  3
AcMeServices
 90
     1024
 91
        2
280
     0
281
     0
  0
CLASS
  1
AM_DWGMGR_NAME
  2
AcDmDwgMgrName
  3
AcMechDwgViewMgmt
 90
     1024
 91
        1
280
     0
281
     0
  0
CLASS
  1
ACME_DATABASE
  2
AcMeDbDatabase
  3
AcMeServices
 90
     1024
 91
        1
280
     0
281
     0
  0
CLASS
  1
ACRFINSADJUSTERMGR
  2
AcRfInsAdjusterMgr
  3
AcMeServices
 90
     1024
 91
        1
280
     0
281
     0
  0
CLASS
  1
ACGREFACADMASTER
  2
AcGrefacadMaster
  3
AcGrefServices
 90
     1024
 91
        1
280
     0
281
     0
  0
CLASS
  1
AMDTMENUSTATEMGR
  2
AmdtMenuStateMgr
  3
McadcomServices
 90
     1024
 91
        1
280
     0
281
     0
  0
CLASS
  1
AMDTMCOMMENUSTATE
  2
AmdtMcomMenuState
  3
McadcomServices
 90
     1024
 91
        1
280
     0
281
     0
  0
CLASS
  1
AMIMASTER
  2
AmiMaster
  3
AmiServices
 90
     1024
 91
        1
280
     0
281
     0
  0
CLASS
  1
MAPIAMMOUDLE
  2
MApiAmModule
  3
MApiAmServices
 90
     1024
 91
        1
280
     0
281
     0
  0
CLASS
  1
ACIMSTRSYSVAR
  2
AcImStrSysVar
  3
AcMeServices
 90
     1024
 91
        6
280
     0
281
     0
  0
CLASS
  1
AMDTADMENUSTATE
  2
AmdtAdMenuState
  3
DesignerServices
 90
     1024
 91
        1
280
     0
281
     0
  0
CLASS
  1
ADAPPL
  2
AcAdAppl
  3
DesignerServices
 90
     1024
 91
        1
280
     0
281
     0
  0
CLASS
  1
DEPMGR
  2
AcAdDepMgr
  3
DesignerServices
 90
     1024
 91
        1
280
     0
281
     0
  0
CLASS
  1
PARAMMGR
  2
AcAdParamMgr
  3
DesignerServices
 90
     1024
 91
        1
280
     0
281
     0
  0
CLASS
  1
PARAMSCOPE
  2
AcAdParamScope
  3
DesignerServices
 90
     1024
 91
        1
280
     0
281
     0
  0
CLASS
  1
NAMEDAPPL
  2
AcAdNamedAppl
  3
DesignerServices
 90
     1024
 91
        1
280
     0
281
     0
  0
CLASS
  1
AMDTDMMENUSTATE
  2
AmdtDmMenuState
  3
AcMechDwgViewMgmt
 90
     1024
 91
        1
280
     0
281
     0
  0
CLASS
  1
AMDTAMMENUSTATE
  2
AmdtAmMenuState
  3
DesignerAssemblies
 90
     1024
 91
        1
280
     0
281
     0
  0
CLASS
  1
ACAMPROJECT
  2
AcAmProject
  3
DesignerAssemblies
 90
     1024
 91
        1
280
     0
281
     0
  0
CLASS
  1
ACAMGRCOMPDEF
  2
AcAmGrCompDef
  3
DesignerAssemblies
 90
     1024
 91
        1
280
     0
281
     0
  0
CLASS
  1
ACCMCONTEXT
  2
AcCmContext
  3
DesignerAssemblies
 90
     1024
 91
        1
280
     0
281
     0
  0
CLASS
  1
ACAMCOMPDEF
  2
AcAmCompDef
  3
DesignerAssemblies
 90
     1024
 91
        1
280
     0
281
     0
  0
CLASS
  1
ACAMCOMPDEFMGR
  2
AcAmCompDefMgr
  3
DesignerAssemblies
 90
     1024
 91
        1
280
     0
281
     0
  0
CLASS
  1
AMCONTEXTMGR
  2
AcAmContextMgr
  3
DesignerAssemblies
 90
     1024
 91
        1
280
     0
281
     0
  0
CLASS
  1
ACAMCONTEXTMODELER
  2
AcAmContextModeler
  3
DesignerAssemblies
 90
     1024
 91
        1
280
     0
281
     0
  0
CLASS
  1
ACMDATADICTIONARY
  2
AcmDataDictionary
  3
"AcmSymBB|Product Description: AutoCAD Mechanical|Company: Autodesk, Inc."
 90
     1024
 91
        1
280
     0
281
     0
  0
CLASS
  1
CATALOGSTATE
  2
AcAmCatalogState
  3
DesignerAssemblies
 90
     1024
 91
        1
280
     0
281
     0
  0
CLASS
  1
ACAMGRCOMPDEFSET
  2
AcAmGrCompDefSet
  3
DesignerAssemblies
 90
     1024
 91
        1
280
     0
281
     0
  0
CLASS
  1
AMDTBROWSERDBTAB
  2
AmdtBrowserDbTab
  3
McadcomServices
 90
     1024
 91
        1
280
     0
281
     0
  0
CLASS
  1
CBROWSERAPPOBJECT
  2
CBrowserAppObject
  3
McadcomServices
 90
     1024
 91
        3
280
     0
281
     0
  0
CLASS
  1
DM_PLACEHOLDER
  2
AcDmSelsetPlaceholder
  3
AcMechDwgViewMgmt
 90
     1024
 91
        1
280
     0
281
     0
  0
CLASS
  1
ACMSTANDARDANSI
  2
AcmStandardANSI
  3
"Amdt_StdImp|Product Description: AutoCAD Mechanical|Company: Autodesk, Inc."
 90
     1024
 91
        1
280
     0
281
     0
  0
CLASS
  1
ACMSURFSTANDARDANSI
  2
AcmSurfTextStdANSI
  3
"Amdt_StdImp|Product Description: AutoCAD Mechanical|Company: Autodesk, Inc."
 90
     1024
 91
        1
280
     0
281
     0
  0
CLASS
  1
ACMFCFSTANDARDANSI
  2
AcmFCFStdANSI
  3
"Amdt_StdImp|Product Description: AutoCAD Mechanical|Company: Autodesk, Inc."
 90
     1024
 91
        1
280
     0
281
     0
  0
CLASS
  1
ACMWELDSTANDARDANSI
  2
AcmWeldingStdANSI
  3
"Amdt_StdImp|Product Description: AutoCAD Mechanical|Company: Autodesk, Inc."
 90
     1024
 91
        1
280
     0
281
     0
  0
CLASS
  1
ACMIDSTANDARDANSI
  2
AcmIdStdANSI
  3
"Amdt_StdImp|Product Description: AutoCAD Mechanical|Company: Autodesk, Inc."
 90
     1024
 91
        1
280
     0
281
     0
  0
CLASS
  1
ACMDATUMSTANDARDANSI
  2
AcmDatumStdANSI
  3
"Amdt_StdImp|Product Description: AutoCAD Mechanical|Company: Autodesk, Inc."
 90
     1024
 91
        1
280
     0
281
     0
  0
CLASS
  1
ACMBOMSTANDARDANSI
  2
AcmBOMStdANSI
  3
"Amdt_StdImp|Product Description: AutoCAD Mechanical|Company: Autodesk, Inc."
 90
     1024
 91
        1
280
     0
281
     0
  0
CLASS
  1
ACMDETAILSTANDARDANSI
  2
AmdtDetailSymStdANSI
  3
"Amdt_StdImp|Product Description: AutoCAD Mechanical|Company: Autodesk, Inc."
 90
     1024
 91
        1
280
     0
281
     0
  0
CLASS
  1
ACMSECTIONSTANDARDANSI
  2
AmdtSectionSymStdANSI
  3
"Amdt_StdImp|Product Description: AutoCAD Mechanical|Company: Autodesk, Inc."
 90
     1024
 91
        1
280
     0
281
     0
  0
CLASS
  1
ACMCENTERLINESTANDARDANSI
  2
AmdtCenterLineStdANSI
  3
"Amdt_StdImp|Product Description: AutoCAD Mechanical|Company: Autodesk, Inc."
 90
     1024
 91
        1
280
     0
281
     0
  0
CLASS
  1
ACMTHREADLINESTANDARDANSI
  2
AmdtThreadLineStdANSI
  3
"Amdt_StdImp|Product Description: AutoCAD Mechanical|Company: Autodesk, Inc."
 90
     1024
 91
        1
280
     0
281
     0
  0
CLASS
  1
ACMNOTESTANDARDANSI
  2
AmdtNoteStdANSI
  3
"Amdt_StdImp|Product Description: AutoCAD Mechanical|Company: Autodesk, Inc."
 90
     1024
 91
        1
280
     0
281
     0
  0
CLASS
  1
ACMTAPERSTANDARDANSI
  2
AcmTaperStdANSI
  3
"Amdt_StdImp|Product Description: AutoCAD Mechanical|Company: Autodesk, Inc."
 90
     1024
 91
        1
280
     0
281
     0
  0
CLASS
  1
ACMANOOTATIONVIEWSTANDARDANSI
  2
AmdtAnViewStdANSI
  3
"Amdt_StdImp|Product Description: AutoCAD Mechanical|Company: Autodesk, Inc."
 90
     1024
 91
        1
280
     0
281
     0
  0
CLASS
  1
ACAMGLAYSTD
  2
AcAmgLayStd
  3
"AmgLay|Product Description: AutoCAD Mechanical|Company: Autodesk, Inc."
 90
     1024
 91
        1
280
     0
281
     0
  0
CLASS
  1
ACAMGDIMSTD
  2
AcAmgDimStd
  3
"AmgDim|Product Description: AutoCAD Mechanical|Company: Autodesk, Inc."
 90
     1024
 91
        1
280
     0
281
     0
  0
CLASS
  1
AMGOBJPROPCFG
  2
AmgObjPropCfg
  3
"AmgLay|Product Description: AutoCAD Mechanical|Company: Autodesk, Inc."
 90
     1025
 91
        1
280
     0
281
     0
  0
CLASS
  1
ACAMGHOLECHARTSTDANSI
  2
AcAmgHoleChartStdANSI
  3
AmgDim|Product Description: AutoCAD Mechanical|Company: Autodesk, Inc.
 90
     1024
 91
        1
280
     0
281
     0
  0
CLASS
  1
ACAMGTITLESTD
  2
AcAmgTitleStd
  3
"AmgTitle|Product Description: AutoCAD Mechanical|Company: Autodesk, Inc."
 90
     4095
 91
        1
280
     0
281
     0
  0
CLASS
  1
AMDTNOTETEMPLATEDB
  2
AmdtNoteTemplateDB
  3
AcmSymBB|Product Description: AutoCAD Mechanical|Company: Autodesk, Inc.
 90
     1024
 91
        6
280
     0
281
     0
  0
CLASS
  1
ACAMGFILTERDAT
  2
AcAmgFilterDat
  3
"AcadM|Product Description: AutoCAD Mechanical|Company: Autodesk, Inc."
 90
     1024
 91
        6
280
     0
281
     0
  0
CLASS
  1
CAMSSTRUCTBTNSTATE
  2
StructBtnState
  3
DesignerAssemblies
 90
     1024
 91
        1
280
     0
281
     0
  0
CLASS
  1
CELLSTYLEMAP
  2
AcDbCellStyleMap
  3
ObjectDBX Classes
 90
     1152
 91
        3
280
     0
281
     0
  0
CLASS
  1
DICTIONARYVAR
  2
AcDbDictionaryVar
  3
ObjectDBX Classes
 90
        0
 91
        7
280
     0
281
     0
  0
CLASS
  1
SORTENTSTABLE
  2
AcDbSortentsTable
  3
ObjectDBX Classes
 90
        0
 91
        1
280
     0
281
     0
  0
ENDSEC
  0
SECTION
  2
TABLES
  0
TABLE
  2
VPORT
  5
2356B
330
0
100
AcDbSymbolTable
 70
     1
  0
VPORT
  5
235DB
330
2356B
100
AcDbSymbolTableRecord
100
AcDbViewportTableRecord
  2
*ACTIVE
 70
     0
 10
0.0
 20
0.0
 11
1.0
 21
1.0
 12
64.0791565135888
 22
128.9897467146103
 13
0.0
 23
0.0
 14
2.5
 24
2.5
 15
10.0
 25
10.0
 16
0.0
 26
0.0
 36
1.0
 17
0.0
 27
0.0
 37
0.0
 40
340.0049394550177
 41
1.792079207920792
 42
50.0
 43
0.0
 44
0.0
 50
0.0
 51
0.0
 71
    16
 72
 10000
 73
     1
 74
     3
 75
     0
 76
     0
 77
     0
 78
     0
281
     0
 65
     1
110
0.0
120
0.0
130
0.0
111
1.0
121
0.0
131
0.0
112
0.0
122
1.0
132
0.0
 79
     0
146
0.0
  0
ENDTAB
  0
TABLE
  2
LTYPE
  5
23568
330
0
100
AcDbSymbolTable
 70
    11
  0
LTYPE
  5
235C5
330
23568
100
AcDbSymbolTableRecord
100
AcDbLinetypeTableRecord
  2
ByBlock
 70
     0
  3

 72
    65
 73
     0
 40
0.0
  0
LTYPE
  5
235C6
330
23568
100
AcDbSymbolTableRecord
100
AcDbLinetypeTableRecord
  2
ByLayer
 70
     0
  3

 72
    65
 73
     0
 40
0.0
  0
LTYPE
  5
235C7
330
23568
100
AcDbSymbolTableRecord
100
AcDbLinetypeTableRecord
  2
CONTINUOUS
 70
     0
  3
Solid line
 72
    65
 73
     0
 40
0.0
  0
LTYPE
  5
235DC
330
23568
100
AcDbSymbolTableRecord
100
AcDbLinetypeTableRecord
  2
AMCONSTR
 70
     0
  3
_______________________
 72
    65
 73
     2
 40
9999.0
 49
9999.0
 74
     0
 49
0.0
 74
     0
  0
LTYPE
  5
235DD
330
23568
100
AcDbSymbolTableRecord
100
AcDbLinetypeTableRecord
  2
CENTER
 70
     0
  3
__ . __
 72
    65
 73
     4
 40
7.0
 49
4.0
 74
     0
 49
-1.0
 74
     0
 49
1.0
 74
     0
 49
-1.0
 74
     0
  0
LTYPE
  5
235DE
330
23568
100
AcDbSymbolTableRecord
100
AcDbLinetypeTableRecord
  2
PHANTOM2
 70
     0
  3
Phantom (.5x) ___ _ _ ___ _ _ ___ _ _ ___ _ _
 72
    65
 73
     6
 40
1.25
 49
0.625
 74
     0
 49
-0.125
 74
     0
 49
0.125
 74
     0
 49
-0.125
 74
     0
 49
0.125
 74
     0
 49
-0.125
 74
     0
  0
LTYPE
  5
235DF
330
23568
100
AcDbSymbolTableRecord
100
AcDbLinetypeTableRecord
  2
DASHED
 70
     0
  3
__ __ __ __ __ __ __ __ __ __ __ __ __ __ __ __
 72
    65
 73
     2
 40
19.05
 49
12.7
 74
     0
 49
-6.349999999999997
 74
     0
  0
LTYPE
  5
235E9
330
23568
100
AcDbSymbolTableRecord
100
AcDbLinetypeTableRecord
  2
HIDDEN
 70
     0
  3
Verdeckt
 72
    65
 73
     2
 40
9.525
 49
6.349999999999998
 74
     0
 49
-3.174999999999998
 74
     0
  0
LTYPE
  5
236EE
330
23568
100
AcDbSymbolTableRecord
100
AcDbLinetypeTableRecord
  2
CENTER2
 70
     0
  3
Center (.5x) ___ _ ___ _ ___ _ ___ _ ___ _ ___
 72
    65
 73
     4
 40
1.125
 49
0.75
 74
     0
 49
-0.125
 74
     0
 49
0.125
 74
     0
 49
-0.125
 74
     0
  0
LTYPE
  5
236EF
330
23568
100
AcDbSymbolTableRecord
100
AcDbLinetypeTableRecord
  2
HIDDEN2
 70
     0
  3
Hidden (.5x) _ _ _ _ _ _ _ _ _ _ _ _ _ _ _ _ _
 72
    65
 73
     2
 40
0.1875
 49
0.125
 74
     0
 49
-0.0625
 74
     0
  0
LTYPE
  5
236F2
330
23568
100
AcDbSymbolTableRecord
100
AcDbLinetypeTableRecord
  2
Amzigzag2
 70
     0
  3
/\/-/\/-/\/-/\/-/\/-/\/
 72
    65
 73
     2
 40
0.4401
 49
0.0001
 74
     4
 75
   136
340
236F1
 46
0.0016
 50
0.0
 44
0.0
 45
0.0
 49
-0.4400000000000001
 74
     0
  0
LTYPE
  5
236FC
330
23568
100
AcDbSymbolTableRecord
100
AcDbLinetypeTableRecord
  2
ACANSTGB
 70
     0
  3
__ . . __ . .
 72
    65
 73
     6
 40
0.35433070866
 49
0.15748031496
 74
     0
 49
-0.03937007874
 74
     0
 49
0.03937007874
 74
     0
 49
-0.03937007874
 74
     0
 49
0.03937007874
 74
     0
 49
-0.03937007874
 74
     0
  0
LTYPE
  5
236FD
330
23568
100
AcDbSymbolTableRecord
100
AcDbLinetypeTableRecord
  2
ACANSTGL
 70
     0
  3
_ _ _ _ _
 72
    65
 73
     2
 40
0.11811023622
 49
0.07874015748
 74
     0
 49
-0.03937007874
 74
     0
  0
ENDTAB
  0
TABLE
  2
LAYER
  5
23565
330
0
100
AcDbSymbolTable
 70
    14
  0
LAYER
  5
235BF
102
{ACAD_XDICTIONARY
360
2370B
102
}
330
23565
100
AcDbSymbolTableRecord
100
AcDbLayerTableRecord
  2
0
 70
     0
 62
     7
  6
CONTINUOUS
370
    -3
390
23572
  0
LAYER
  5
235EA
330
23565
100
AcDbSymbolTableRecord
100
AcDbLayerTableRecord
  2
DEFPOINTS
 70
     0
 62
     7
  6
CONTINUOUS
290
     0
370
    -3
390
23572
  0
LAYER
  5
235EB
102
{ACAD_XDICTIONARY
360
2370D
102
}
330
23565
100
AcDbSymbolTableRecord
100
AcDbLayerTableRecord
  2
1
 70
     0
 62
     4
  6
CONTINUOUS
370
    -3
390
23572
  0
LAYER
  5
235ED
102
{ACAD_XDICTIONARY
360
23711
102
}
330
23565
100
AcDbSymbolTableRecord
100
AcDbLayerTableRecord
  2
SK1
 70
     0
 62
     4
  6
CONTINUOUS
370
    -3
390
23572
  0
LAYER
  5
235EE
102
{ACAD_XDICTIONARY
360
23713
102
}
330
23565
100
AcDbSymbolTableRecord
100
AcDbLayerTableRecord
  2
SK2
 70
     0
 62
     7
  6
CONTINUOUS
370
    -3
390
23572
  0
LAYER
  5
235EF
102
{ACAD_XDICTIONARY
360
23715
102
}
330
23565
100
AcDbSymbolTableRecord
100
AcDbLayerTableRecord
  2
SK3
 70
     0
 62
     1
  6
DASHED
370
    -3
390
23572
  0
LAYER
  5
235F0
102
{ACAD_XDICTIONARY
360
23717
102
}
330
23565
100
AcDbSymbolTableRecord
100
AcDbLayerTableRecord
  2
SK4
 70
     0
 62
     2
  6
CENTER
370
    -3
390
23572
  0
LAYER
  5
235F1
102
{ACAD_XDICTIONARY
360
23719
102
}
330
23565
100
AcDbSymbolTableRecord
100
AcDbLayerTableRecord
  2
NOCUT
 70
     0
 62
     7
  6
CONTINUOUS
370
    -3
390
23572
  0
LAYER
  5
235F2
102
{ACAD_XDICTIONARY
360
2371B
102
}
330
23565
100
AcDbSymbolTableRecord
100
AcDbLayerTableRecord
  2
4
 70
     0
 62
     2
  6
CENTER
370
    -3
390
23572
  0
LAYER
  5
235F3
102
{ACAD_XDICTIONARY
360
2371D
102
}
330
23565
100
AcDbSymbolTableRecord
100
AcDbLayerTableRecord
  2
6
 70
     0
 62
     5
  6
CONTINUOUS
370
    -3
390
23572
  0
LAYER
  5
235F4
102
{ACAD_XDICTIONARY
360
2371F
102
}
330
23565
100
AcDbSymbolTableRecord
100
AcDbLayerTableRecord
  2
CUT
 70
     0
 62
     1
  6
CONTINUOUS
370
    -3
390
23572
  0
LAYER
  5
235F5
102
{ACAD_XDICTIONARY
360
23721
102
}
330
23565
100
AcDbSymbolTableRecord
100
AcDbLayerTableRecord
  2
SK6
 70
     0
 62
     5
  6
CONTINUOUS
370
    -3
390
23572
  0
LAYER
  5
239AB
102
{ACAD_XDICTIONARY
360
239AC
102
}
330
23565
100
AcDbSymbolTableRecord
100
AcDbLayerTableRecord
  2
2
 70
     0
 62
     7
  6
CONTINUOUS
370
    -3
390
23572
  0
ENDTAB
  0
TABLE
  2
STYLE
  5
23566
330
0
100
AcDbSymbolTable
 70
     3
  0
STYLE
  5
235C0
330
23566
100
AcDbSymbolTableRecord
100
AcDbTextStyleTableRecord
  2
STANDARD
 70
     0
 40
0.0
 41
1.0
 50
0.0
 71
     0
 42
3.5
  3
ISOCP.SHX
  4

  0
STYLE
  5
236F1
330
23566
100
AcDbSymbolTableRecord
100
AcDbTextStyleTableRecord
  2

 70
     1
 40
0.0
 41
1.0
 50
0.0
 71
     0
 42
3.5
  3
genltshp.shx
  4

  0
STYLE
  5
236FB
330
23566
100
AcDbSymbolTableRecord
100
AcDbTextStyleTableRecord
  2
ACANSGDT
 70
     0
 40
0.0
 41
1.0
 50
0.0
 71
     0
 42
3.5
  3
amgdt.shx
  4

  0
ENDTAB
  0
TABLE
  2
VIEW
  5
23569
330
0
100
AcDbSymbolTable
 70
     6
  0
VIEW
  5
235F7
330
23569
100
AcDbSymbolTableRecord
100
AcDbViewTableRecord
  2
AM_VIEW1
 70
     0
 40
148.5
 10
131.508173076923
 20
222.75
 41
263.0163461538461
 11
0.0
 21
0.0
 31
1.0
 12
0.0
 22
0.0
 32
0.0
 42
50.0
 43
0.0
 44
0.0
 50
0.0
 71
    16
281
     0
 72
     1
110
0.0
120
0.0
130
0.0
111
1.0
121
0.0
131
0.0
112
0.0
122
1.0
132
0.0
 79
     0
146
0.0
  0
VIEW
  5
235F8
330
23569
100
AcDbSymbolTableRecord
100
AcDbViewTableRecord
  2
AM_VIEW2
 70
     0
 40
148.5
 10
78.4918269230769
 20
222.75
 41
263.0163461538461
 11
0.0
 21
0.0
 31
1.0
 12
0.0
 22
0.0
 32
0.0
 42
50.0
 43
0.0
 44
0.0
 50
0.0
 71
    16
281
     0
 72
     1
110
0.0
120
0.0
130
0.0
111
1.0
121
0.0
131
0.0
112
0.0
122
1.0
132
0.0
 79
     0
146
0.0
  0
VIEW
  5
235F9
330
23569
100
AcDbSymbolTableRecord
100
AcDbViewTableRecord
  2
AM_VIEW3
 70
     0
 40
148.5
 10
131.508173076923
 20
74.25
 41
263.0163461538461
 11
0.0
 21
0.0
 31
1.0
 12
0.0
 22
0.0
 32
0.0
 42
50.0
 43
0.0
 44
0.0
 50
0.0
 71
    16
281
     0
 72
     1
110
0.0
120
0.0
130
0.0
111
1.0
121
0.0
131
0.0
112
0.0
122
1.0
132
0.0
 79
     0
146
0.0
  0
VIEW
  5
235FA
330
23569
100
AcDbSymbolTableRecord
100
AcDbViewTableRecord
  2
AM_VIEW4
 70
     0
 40
148.5
 10
78.4918269230769
 20
74.25
 41
263.0163461538461
 11
0.0
 21
0.0
 31
1.0
 12
0.0
 22
0.0
 32
0.0
 42
50.0
 43
0.0
 44
0.0
 50
0.0
 71
    16
281
     0
 72
     1
110
0.0
120
0.0
130
0.0
111
1.0
121
0.0
131
0.0
112
0.0
122
1.0
132
0.0
 79
     0
146
0.0
  0
VIEW
  5
235FB
330
23569
100
AcDbSymbolTableRecord
100
AcDbViewTableRecord
  2
AM_VIEW5
 70
     0
 40
148.5
 10
105.0
 20
148.5
 41
263.0163461538461
 11
0.0
 21
0.0
 31
1.0
 12
0.0
 22
0.0
 32
0.0
 42
50.0
 43
0.0
 44
0.0
 50
0.0
 71
    16
281
     0
 72
     1
110
0.0
120
0.0
130
0.0
111
1.0
121
0.0
131
0.0
112
0.0
122
1.0
132
0.0
 79
     0
146
0.0
  0
VIEW
  5
235FC
330
23569
100
AcDbSymbolTableRecord
100
AcDbViewTableRecord
  2
AM_VIEW6
 70
     0
 40
296.9970299999999
 10
105.0
 20
148.5
 41
526.0274319807693
 11
0.0
 21
0.0
 31
1.0
 12
0.0
 22
0.0
 32
0.0
 42
50.0
 43
0.0
 44
0.0
 50
0.0
 71
    16
281
     0
 72
     1
110
0.0
120
0.0
130
0.0
111
1.0
121
0.0
131
0.0
112
0.0
122
1.0
132
0.0
 79
     0
146
0.0
  0
ENDTAB
  0
TABLE
  2
UCS
  5
2356A
330
0
100
AcDbSymbolTable
 70
     0
  0
ENDTAB
  0
TABLE
  2
APPID
  5
2356C
330
0
100
AcDbSymbolTable
 70
    83
  0
APPID
  5
235C1
330
2356C
100
AcDbSymbolTableRecord
100
AcDbRegAppTableRecord
  2
ACAD
 70
     0
  0
APPID
  5
235C8
330
2356C
100
AcDbSymbolTableRecord
100
AcDbRegAppTableRecord
  2
ACADANNOTATIVE
 70
     0
  0
APPID
  5
235D2
330
2356C
100
AcDbSymbolTableRecord
100
AcDbRegAppTableRecord
  2
ACAD_MLEADERVER
 70
     0
  0
APPID
  5
235FD
330
2356C
100
AcDbSymbolTableRecord
100
AcDbRegAppTableRecord
  2
MCAD_NO_VIS
 70
     0
  0
APPID
  5
235FE
330
2356C
100
AcDbSymbolTableRecord
100
AcDbRegAppTableRecord
  2
ACAD_TEMP_GRAPHIC
 70
     0
  0
APPID
  5
235FF
330
2356C
100
AcDbSymbolTableRecord
100
AcDbRegAppTableRecord
  2
ACATTRIBSERVICES
 70
     0
  0
APPID
  5
23600
330
2356C
100
AcDbSymbolTableRecord
100
AcDbRegAppTableRecord
  2
GENIUS_GENDIMSH_14
 70
     0
  0
APPID
  5
23601
330
2356C
100
AcDbSymbolTableRecord
100
AcDbRegAppTableRecord
  2
GENIUS_GENBLLY_14
 70
     0
  0
APPID
  5
23602
330
2356C
100
AcDbSymbolTableRecord
100
AcDbRegAppTableRecord
  2
GENIUS_GENTRA_14
 70
     0
  0
APPID
  5
23603
330
2356C
100
AcDbSymbolTableRecord
100
AcDbRegAppTableRecord
  2
GENIUS_GENODEF_13
 70
     0
  0
APPID
  5
23604
330
2356C
100
AcDbSymbolTableRecord
100
AcDbRegAppTableRecord
  2
GENIUS_GENOLIS_13
 70
     0
  0
APPID
  5
23605
330
2356C
100
AcDbSymbolTableRecord
100
AcDbRegAppTableRecord
  2
GENIUS_GENOENT_13
 70
     0
  0
APPID
  5
23606
330
2356C
100
AcDbSymbolTableRecord
100
AcDbRegAppTableRecord
  2
GENIUS_GENOBJ-N-TIT_13
 70
     0
  0
APPID
  5
23607
330
2356C
100
AcDbSymbolTableRecord
100
AcDbRegAppTableRecord
  2
GENIUS_GENTITLE_13
 70
     0
  0
APPID
  5
23608
330
2356C
100
AcDbSymbolTableRecord
100
AcDbRegAppTableRecord
  2
GENIUS_GENOREF_13
 70
     0
  0
APPID
  5
23609
330
2356C
100
AcDbSymbolTableRecord
100
AcDbRegAppTableRecord
  2
GENIUS_GENSCREG_15
 70
     0
  0
APPID
  5
2360A
330
2356C
100
AcDbSymbolTableRecord
100
AcDbRegAppTableRecord
  2
GENIUS_GENOBJ-N-SDF_13
 70
     0
  0
APPID
  5
2360B
330
2356C
100
AcDbSymbolTableRecord
100
AcDbRegAppTableRecord
  2
ACADIGES
 70
     0
  0
APPID
  5
2360C
330
2356C
100
AcDbSymbolTableRecord
100
AcDbRegAppTableRecord
  2
GENIUS_GENOBJ-N-HTC_13
 70
     0
  0
APPID
  5
2360D
330
2356C
100
AcDbSymbolTableRecord
100
AcDbRegAppTableRecord
  2
GENIUS_GENHATCH_13
 70
     0
  0
APPID
  5
2360E
330
2356C
100
AcDbSymbolTableRecord
100
AcDbRegAppTableRecord
  2
GENIUS_GENOBJ-N-CRS_13
 70
     0
  0
APPID
  5
2360F
330
2356C
100
AcDbSymbolTableRecord
100
AcDbRegAppTableRecord
  2
GENIUS_GENOBJ-N-FIL_13
 70
     0
  0
APPID
  5
23610
330
2356C
100
AcDbSymbolTableRecord
100
AcDbRegAppTableRecord
  2
GENIUS_GENFIL_13
 70
     0
  0
APPID
  5
23611
330
2356C
100
AcDbSymbolTableRecord
100
AcDbRegAppTableRecord
  2
GENIUS_GENOBJ-N-CHA_13
 70
     0
  0
APPID
  5
23612
330
2356C
100
AcDbSymbolTableRecord
100
AcDbRegAppTableRecord
  2
GENIUS12
 70
     0
  0
APPID
  5
23613
330
2356C
100
AcDbSymbolTableRecord
100
AcDbRegAppTableRecord
  2
GENIUS_GENCFG_13
 70
     0
  0
APPID
  5
23614
330
2356C
100
AcDbSymbolTableRecord
100
AcDbRegAppTableRecord
  2
GENIUS_GEFCFG0_13
 70
     0
  0
APPID
  5
23615
330
2356C
100
AcDbSymbolTableRecord
100
AcDbRegAppTableRecord
  2
GENIUS_GENCFG0_13
 70
     0
  0
APPID
  5
23616
330
2356C
100
AcDbSymbolTableRecord
100
AcDbRegAppTableRecord
  2
GENIUS_GENCFG1_13
 70
     0
  0
APPID
  5
23617
330
2356C
100
AcDbSymbolTableRecord
100
AcDbRegAppTableRecord
  2
GENIUS_GENCFG2_13
 70
     0
  0
APPID
  5
23618
330
2356C
100
AcDbSymbolTableRecord
100
AcDbRegAppTableRecord
  2
GENIUS_GENCFG3_13
 70
     0
  0
APPID
  5
23619
330
2356C
100
AcDbSymbolTableRecord
100
AcDbRegAppTableRecord
  2
GENIUS_GENCFG4_13
 70
     0
  0
APPID
  5
2361A
330
2356C
100
AcDbSymbolTableRecord
100
AcDbRegAppTableRecord
  2
GENIUS_GEVCFG0_13
 70
     0
  0
APPID
  5
2361B
330
2356C
100
AcDbSymbolTableRecord
100
AcDbRegAppTableRecord
  2
GENIUS_GENOBJ-F-SUF_13
 70
     0
  0
APPID
  5
2361C
330
2356C
100
AcDbSymbolTableRecord
100
AcDbRegAppTableRecord
  2
GENIUS_GENDIM_13
 70
     0
  0
APPID
  5
2361D
330
2356C
100
AcDbSymbolTableRecord
100
AcDbRegAppTableRecord
  2
GENIUS_GENDTOL_13
 70
     0
  0
APPID
  5
2361E
330
2356C
100
AcDbSymbolTableRecord
100
AcDbRegAppTableRecord
  2
GENIUS_GE3DTOL_13
 70
     0
  0
APPID
  5
2361F
330
2356C
100
AcDbSymbolTableRecord
100
AcDbRegAppTableRecord
  2
AD_DRAW
 70
     0
  0
APPID
  5
23620
330
2356C
100
AcDbSymbolTableRecord
100
AcDbRegAppTableRecord
  2
ASURF_PCURVE_APPNAME
 70
     0
  0
APPID
  5
23621
330
2356C
100
AcDbSymbolTableRecord
100
AcDbRegAppTableRecord
  2
AMG_3D2D_5_00
 70
     0
  0
APPID
  5
23622
330
2356C
100
AcDbSymbolTableRecord
100
AcDbRegAppTableRecord
  2
DESIGNERASSEMBLIES
 70
     0
  0
APPID
  5
23623
330
2356C
100
AcDbSymbolTableRecord
100
AcDbRegAppTableRecord
  2
ACADM_DIM_EDIT
 70
     0
  0
APPID
  5
23624
330
2356C
100
AcDbSymbolTableRecord
100
AcDbRegAppTableRecord
  2
AMDT_DM_ADJ
 70
     0
  0
APPID
  5
23625
330
2356C
100
AcDbSymbolTableRecord
100
AcDbRegAppTableRecord
  2
GEV_VCCNULL_SWITCH_OFF
 70
     0
  0
APPID
  5
23626
330
2356C
100
AcDbSymbolTableRecord
100
AcDbRegAppTableRecord
  2
GENIUS_GENOBJ-N-CEN_13
 70
     0
  0
APPID
  5
23627
330
2356C
100
AcDbSymbolTableRecord
100
AcDbRegAppTableRecord
  2
AD_SKETCHDIM
 70
     0
  0
APPID
  5
23628
330
2356C
100
AcDbSymbolTableRecord
100
AcDbRegAppTableRecord
  2
ACAD_DSTYLE_DIMARC_LENGTH0
 70
     0
  0
APPID
  5
23629
330
2356C
100
AcDbSymbolTableRecord
100
AcDbRegAppTableRecord
  2
ACAD_DSTYLE_DIMJOGGED_JOG0
 70
     0
  0
APPID
  5
2362A
330
2356C
100
AcDbSymbolTableRecord
100
AcDbRegAppTableRecord
  2
ACAECLAYERSTANDARD
 70
     0
  0
APPID
  5
2362B
330
2356C
100
AcDbSymbolTableRecord
100
AcDbRegAppTableRecord
  2
ACAD_EXEMPT_FROM_CAD_STANDARDS
 70
     0
  0
APPID
  5
2362C
330
2356C
100
AcDbSymbolTableRecord
100
AcDbRegAppTableRecord
  2
ACAD_DSTYLE_DIMINSPECT
 70
     0
  0
APPID
  5
2362D
330
2356C
100
AcDbSymbolTableRecord
100
AcDbRegAppTableRecord
  2
GENIUS_GENOBJ-N-RSBK_13
 70
     0
  0
APPID
  5
2362E
330
2356C
100
AcDbSymbolTableRecord
100
AcDbRegAppTableRecord
  2
GENIUS_GENOBJ-N-DIM12_13
 70
     0
  0
APPID
  5
2362F
330
2356C
100
AcDbSymbolTableRecord
100
AcDbRegAppTableRecord
  2
GENIUS_GENSCALE_13
 70
     0
  0
APPID
  5
23630
330
2356C
100
AcDbSymbolTableRecord
100
AcDbRegAppTableRecord
  2
GENIUS_GENHINW_13
 70
     0
  0
APPID
  5
23631
330
2356C
100
AcDbSymbolTableRecord
100
AcDbRegAppTableRecord
  2
GENIUS_GENOBJ-F-TOLL_13
 70
     0
  0
APPID
  5
23632
330
2356C
100
AcDbSymbolTableRecord
100
AcDbRegAppTableRecord
  2
GENIUS_GEFTOLC_13
 70
     0
  0
APPID
  5
23633
330
2356C
100
AcDbSymbolTableRecord
100
AcDbRegAppTableRecord
  2
GENIUS_GENOBJ-F-TOL_13
 70
     0
  0
APPID
  5
23634
330
2356C
100
AcDbSymbolTableRecord
100
AcDbRegAppTableRecord
  2
GENIUS_GENOBJ-N-RSSYM_13
 70
     0
  0
APPID
  5
23635
330
2356C
100
AcDbSymbolTableRecord
100
AcDbRegAppTableRecord
  2
GENIUS_GENSYMENT_13
 70
     0
  0
APPID
  5
23636
330
2356C
100
AcDbSymbolTableRecord
100
AcDbRegAppTableRecord
  2
GENIUS_GENSCSYM_13
 70
     0
  0
APPID
  5
23637
330
2356C
100
AcDbSymbolTableRecord
100
AcDbRegAppTableRecord
  2
ACAD_PSEXT
 70
     0
  0
APPID
  5
23638
330
2356C
100
AcDbSymbolTableRecord
100
AcDbRegAppTableRecord
  2
GENIUS_GENREC_14
 70
     0
  0
APPID
  5
23639
330
2356C
100
AcDbSymbolTableRecord
100
AcDbRegAppTableRecord
  2
GENIUS_GENOBJ-N-REC_13
 70
     0
  0
APPID
  5
2363A
330
2356C
100
AcDbSymbolTableRecord
100
AcDbRegAppTableRecord
  2
ACAD_DSTYLE_DIMTEXT_FILL
 70
     0
  0
APPID
  5
2363B
330
2356C
100
AcDbSymbolTableRecord
100
AcDbRegAppTableRecord
  2
ACAD_DSTYLE_DIMEXT_LENGTH
 70
     0
  0
APPID
  5
2363C
330
2356C
100
AcDbSymbolTableRecord
100
AcDbRegAppTableRecord
  2
ACAD_DSTYLE_DIMEXT_ENABLED
 70
     0
  0
APPID
  5
2363D
330
2356C
100
AcDbSymbolTableRecord
100
AcDbRegAppTableRecord
  2
ACAD_DSTYLE_DIM_LINETYPE
 70
     0
  0
APPID
  5
2363E
330
2356C
100
AcDbSymbolTableRecord
100
AcDbRegAppTableRecord
  2
ACAD_DSTYLE_DIM_EXT1_LINETYPE
 70
     0
  0
APPID
  5
2363F
330
2356C
100
AcDbSymbolTableRecord
100
AcDbRegAppTableRecord
  2
ACAD_DSTYLE_DIM_EXT2_LINETYPE
 70
     0
  0
APPID
  5
23640
330
2356C
100
AcDbSymbolTableRecord
100
AcDbRegAppTableRecord
  2
ACAD_DSTYLE_DIMARC_LENGTH_
 70
     0
  0
APPID
  5
23641
330
2356C
100
AcDbSymbolTableRecord
100
AcDbRegAppTableRecord
  2
ACAD_DSTYLE_DIMJOGGED_JOGA
 70
     0
  0
APPID
  5
23642
330
2356C
100
AcDbSymbolTableRecord
100
AcDbRegAppTableRecord
  2
AMG_3D2D_5_0
 70
     0
  0
APPID
  5
23643
330
2356C
100
AcDbSymbolTableRecord
100
AcDbRegAppTableRecord
  2
ACAD_DSTYLE_DIMANGULAR_EXT
 70
     0
  0
APPID
  5
23644
330
2356C
100
AcDbSymbolTableRecord
100
AcDbRegAppTableRecord
  2
DCO15
 70
     0
  0
APPID
  5
23645
330
2356C
100
AcDbSymbolTableRecord
100
AcDbRegAppTableRecord
  2
GENIUS_GE3CFG0_13
 70
     0
  0
APPID
  5
23646
330
2356C
100
AcDbSymbolTableRecord
100
AcDbRegAppTableRecord
  2
GENIUS_GENZVEED_13
 70
     0
  0
APPID
  5
23647
330
2356C
100
AcDbSymbolTableRecord
100
AcDbRegAppTableRecord
  2
GENIUS_GENSCREG_13
 70
     0
  0
APPID
  5
23648
330
2356C
100
AcDbSymbolTableRecord
100
AcDbRegAppTableRecord
  2
GENIUS_GENOBJ-F-TOLS_13
 70
     0
  0
APPID
  5
23649
330
2356C
100
AcDbSymbolTableRecord
100
AcDbRegAppTableRecord
  2
GENIUS_GENCEN_19
 70
     0
  0
APPID
  5
2364A
330
2356C
100
AcDbSymbolTableRecord
100
AcDbRegAppTableRecord
  2
ACAD_DSTYLE_DIMJAG
 70
     0
  0
APPID
  5
2364B
330
2356C
100
AcDbSymbolTableRecord
100
AcDbRegAppTableRecord
  2
ACAD_DSTYLE_DIMTALN
 70
     0
  0
APPID
  5
23E2C
330
2356C
100
AcDbSymbolTableRecord
100
AcDbRegAppTableRecord
  2
ACAD_DSTYLE_DIMARC_LENGTH_SYMBOL
 70
     0
  0
ENDTAB
  0
TABLE
  2
DIMSTYLE
  5
2356D
330
0
100
AcDbSymbolTable
 70
     9
100
AcDbDimStyleTable
 71
     1
340
2364C
  0
DIMSTYLE
105
235C2
330
2356D
100
AcDbSymbolTableRecord
100
AcDbDimStyleTableRecord
  2
STANDARD
 70
     0
271
     2
272
     2
279
     2
284
     8
285
     8
286
     8
340
235C0
  0
DIMSTYLE
105
2364C
330
2356D
100
AcDbSymbolTableRecord
100
AcDbDimStyleTableRecord
  2
AM_DIN
 70
     0
  4
"
 41
3.5
 42
1.0
 43
10.0
 44
1.0
 47
0.1
 48
0.1
 73
     0
 74
     0
 77
     1
 78
     8
140
3.5
141
0.0
143
0.0393701
146
0.71
147
1.5
172
     1
176
   256
177
   256
178
   140
271
     2
272
     2
279
     2
284
     8
285
     8
286
     8
340
235C0
  0
DIMSTYLE
105
236E7
102
{ACAD_REACTORS
330
236D7
102
}
330
2356D
100
AcDbSymbolTableRecord
100
AcDbDimStyleTableRecord
  2
AM_ANSI
 70
     0
  4
mm
 41
0.12
 42
0.05
 43
0.5
 44
0.1
 47
0.1
 48
0.1
 78
     7
 79
     2
140
0.12
141
0.0
146
0.71
147
0.06
176
   256
177
   256
178
     2
274
     4
284
     7
340
235C0
371
    -1
372
    -1
1001
ACAD_DSTYLE_DIMARC_LENGTH_SYMBOL
1070
   379
1070
     1
1001
ACAD_DSTYLE_DIM_LINETYPE
1070
   380
1005
235C5
1001
ACAD_DSTYLE_DIM_EXT1_LINETYPE
1070
   381
1005
235C5
1001
ACAD_DSTYLE_DIM_EXT2_LINETYPE
1070
   382
1005
235C5
  0
DIMSTYLE
105
236F3
330
2356D
100
AcDbSymbolTableRecord
100
AcDbDimStyleTableRecord
  2
AM_ANSI$3
 70
     0
  4
mm
 41
0.12
 42
0.05
 43
0.5
 44
0.1
 47
0.1
 48
0.1
 78
     7
 79
     2
140
0.12
141
0.0
146
0.71
147
0.06
176
   256
177
   256
178
     2
274
     4
284
     7
288
     1
289
     0
340
235C0
371
    -1
372
    -1
1001
ACAD_DSTYLE_DIMARC_LENGTH_SYMBOL
1070
   379
1070
     1
1001
ACAD_DSTYLE_DIM_LINETYPE
1070
   380
1005
235C5
1001
ACAD_DSTYLE_DIM_EXT1_LINETYPE
1070
   381
1005
235C5
1001
ACAD_DSTYLE_DIM_EXT2_LINETYPE
1070
   382
1005
235C5
  0
DIMSTYLE
105
236F4
330
2356D
100
AcDbSymbolTableRecord
100
AcDbDimStyleTableRecord
  2
AM_ANSI$4
 70
     0
  4
mm
 41
0.12
 42
0.05
 43
0.5
 44
0.1
 47
0.1
 48
0.1
 78
     7
 79
     2
140
0.12
141
0.0
146
0.71
147
0.06
176
   256
177
   256
178
     2
274
     4
284
     7
288
     1
289
     0
340
235C0
371
    -1
372
    -1
1001
ACAD_DSTYLE_DIMARC_LENGTH_SYMBOL
1070
   379
1070
     1
1001
ACAD_DSTYLE_DIM_LINETYPE
1070
   380
1005
235C5
1001
ACAD_DSTYLE_DIM_EXT1_LINETYPE
1070
   381
1005
235C5
1001
ACAD_DSTYLE_DIM_EXT2_LINETYPE
1070
   382
1005
235C5
  0
DIMSTYLE
105
236F5
330
2356D
100
AcDbSymbolTableRecord
100
AcDbDimStyleTableRecord
  2
AM_ANSI$7
 70
     0
  4
mm
 41
0.12
 42
0.05
 43
0.5
 44
0.1
 47
0.1
 48
0.1
 78
     7
 79
     2
140
0.12
141
0.0
146
0.71
147
0.06
176
   256
177
   256
178
     2
274
     4
284
     7
340
235C0
371
    -1
372
    -1
1001
ACAD_DSTYLE_DIMARC_LENGTH_SYMBOL
1070
   379
1070
     1
1001
ACAD_DSTYLE_DIM_LINETYPE
1070
   380
1005
235C5
1001
ACAD_DSTYLE_DIM_EXT1_LINETYPE
1070
   381
1005
235C5
1001
ACAD_DSTYLE_DIM_EXT2_LINETYPE
1070
   382
1005
235C5
  0
DIMSTYLE
105
236F6
330
2356D
100
AcDbSymbolTableRecord
100
AcDbDimStyleTableRecord
  2
AM_ANSI$SF
 70
     0
  4
mm
 41
0.12
 42
0.05
 43
0.5
 44
0.1
 47
0.1
 48
0.1
 75
     1
 76
     1
 78
     7
 79
     2
140
0.12
141
0.0
146
0.71
147
0.06
176
   256
177
   256
178
     2
274
     4
284
     7
340
235C0
371
    -1
372
    -1
1001
ACAD_DSTYLE_DIMARC_LENGTH_SYMBOL
1070
   379
1070
     1
1001
ACAD_DSTYLE_DIM_LINETYPE
1070
   380
1005
235C5
1001
ACAD_DSTYLE_DIM_EXT1_LINETYPE
1070
   381
1005
235C5
1001
ACAD_DSTYLE_DIM_EXT2_LINETYPE
1070
   382
1005
235C5
  0
DIMSTYLE
105
236F7
330
2356D
100
AcDbSymbolTableRecord
100
AcDbDimStyleTableRecord
  2
AM_ANSI$SH
 70
     0
  4
mm
 41
0.12
 42
0.05
 43
0.5
 44
0.1
 47
0.1
 48
0.1
 75
     1
 76
     1
 78
     7
 79
     2
140
0.12
141
0.0
146
0.71
147
0.06
173
     1
176
   256
177
   256
178
     2
274
     4
284
     7
340
235C0
343
2365B
371
    -1
372
    -1
1001
ACAD_DSTYLE_DIMARC_LENGTH_SYMBOL
1070
   379
1070
     1
1001
ACAD_DSTYLE_DIM_LINETYPE
1070
   380
1005
235C5
1001
ACAD_DSTYLE_DIM_EXT1_LINETYPE
1070
   381
1005
235C5
1001
ACAD_DSTYLE_DIM_EXT2_LINETYPE
1070
   382
1005
235C5
  0
DIMSTYLE
105
239B7
102
{ACAD_REACTORS
330
23B7B
330
23BB5
330
23BDD
330
23BFD
330
23C6E
330
23D8C
330
23DBD
102
}
330
2356D
100
AcDbSymbolTableRecord
100
AcDbDimStyleTableRecord
  2
AM_DIN$0
 70
     0
  4
"
 41
2.5
 42
0.0
 43
10.0
 44
1.0
 47
0.1
 48
0.1
 73
     0
 74
     0
 77
     1
 78
     8
140
3.5
141
0.0
143
0.0393701
146
0.71
147
1.5
172
     1
176
   256
177
   256
178
     2
271
     2
272
     2
279
     2
284
     8
285
     8
286
     8
340
235C0
  0
ENDTAB
  0
TABLE
  2
BLOCK_RECORD
  5
23564
330
0
100
AcDbSymbolTable
 70
    11
  0
BLOCK_RECORD
  5
235D7
102
{ACAD_XDICTIONARY
360
2373E
102
}
330
23564
100
AcDbSymbolTableRecord
100
AcDbBlockTableRecord
  2
*Model_Space
340
235DA
  0
BLOCK_RECORD
  5
235D3
330
23564
100
AcDbSymbolTableRecord
100
AcDbBlockTableRecord
  2
*Paper_Space
340
235D6
  0
BLOCK_RECORD
  5
2365B
330
23564
100
AcDbSymbolTableRecord
100
AcDbBlockTableRecord
  2
GENAXEH
340
0
  0
BLOCK_RECORD
  5
23B7C
330
23564
100
AcDbSymbolTableRecord
100
AcDbBlockTableRecord
  2
*D2
340
0
  0
BLOCK_RECORD
  5
23BB6
330
23564
100
AcDbSymbolTableRecord
100
AcDbBlockTableRecord
  2
*D3
340
0
  0
BLOCK_RECORD
  5
23BDE
330
23564
100
AcDbSymbolTableRecord
100
AcDbBlockTableRecord
  2
*D4
340
0
  0
BLOCK_RECORD
  5
23BFE
330
23564
100
AcDbSymbolTableRecord
100
AcDbBlockTableRecord
  2
*D5
340
0
  0
BLOCK_RECORD
  5
23C6F
330
23564
100
AcDbSymbolTableRecord
100
AcDbBlockTableRecord
  2
*D6
340
0
  0
BLOCK_RECORD
  5
23D8D
330
23564
100
AcDbSymbolTableRecord
100
AcDbBlockTableRecord
  2
*D9
340
0
  0
BLOCK_RECORD
  5
23DBE
330
23564
100
AcDbSymbolTableRecord
100
AcDbBlockTableRecord
  2
*D10
340
0
  0
ENDTAB
  0
ENDSEC
  0
SECTION
  2
BLOCKS
  0
BLOCK
  5
235D8
330
235D7
100
AcDbEntity
  8
0
100
AcDbBlockBegin
  2
*Model_Space
 70
     0
 10
0.0
 20
0.0
 30
0.0
  3
*Model_Space
  1

  0
ENDBLK
  5
235D9
330
235D7
100
AcDbEntity
  8
0
100
AcDbBlockEnd
  0
BLOCK
  5
235D4
330
235D3
100
AcDbEntity
 67
     1
  8
0
100
AcDbBlockBegin
  2
*Paper_Space
 70
     0
 10
0.0
 20
0.0
 30
0.0
  3
*Paper_Space
  1

  0
ENDBLK
  5
235D5
330
235D3
100
AcDbEntity
 67
     1
  8
0
100
AcDbBlockEnd
  0
BLOCK
  5
2365C
330
2365B
100
AcDbEntity
  8
0
100
AcDbBlockBegin
  2
GENAXEH
 70
     0
 10
0.0
 20
0.0
 30
0.0
  3
GENAXEH
  1

  0
LINE
  5
22E7A
330
2365B
100
AcDbEntity
  8
0
100
AcDbLine
 10
-1.0
 20
0.0
 30
0.0
 11
1.0
 21
0.0
 31
0.0
  0
ENDBLK
  5
22E7B
330
2365B
100
AcDbEntity
  8
0
100
AcDbBlockEnd
  0
BLOCK
  5
23B7D
330
23B7C
100
AcDbEntity
  8
0
100
AcDbBlockBegin
  2
*D2
 70
     1
 10
0.0
 20
0.0
 30
0.0
  3
*D2
  1

  0
LINE
  5
23D02
330
23B7C
100
AcDbEntity
  8
2
370
    -2
100
AcDbLine
 10
95.0
 20
29.00000000000036
 30
0.0
 11
118.3707830063888
 21
29.00000000000036
 31
0.0
  0
LINE
  5
23D03
330
23B7C
100
AcDbEntity
  8
2
370
    -2
100
AcDbLine
 10
81.98399999999997
 20
-28.99999999999961
 30
0.0
 11
118.3707830063888
 21
-28.99999999999962
 31
0.0
  0
LINE
  5
23D04
330
23B7C
100
AcDbEntity
  8
2
370
    -2
100
AcDbLine
 10
117.3707830063888
 20
26.50000000000036
 30
0.0
 11
117.3707830063888
 21
-26.49999999999962
 31
0.0
  0
SOLID
  5
23D05
330
23B7C
100
AcDbEntity
  8
2
100
AcDbTrace
 10
116.9541163397221
 20
26.50000000000036
 30
0.0
 11
117.7874496730555
 21
26.50000000000036
 31
0.0
 12
117.3707830063888
 22
29.00000000000036
 32
0.0
 13
117.3707830063888
 23
29.00000000000036
 33
0.0
  0
SOLID
  5
23D06
330
23B7C
100
AcDbEntity
  8
2
100
AcDbTrace
 10
116.9541163397221
 20
-26.49999999999962
 30
0.0
 11
117.7874496730555
 21
-26.49999999999962
 31
0.0
 12
117.3707830063888
 22
-28.99999999999962
 32
0.0
 13
117.3707830063888
 23
-28.99999999999962
 33
0.0
  0
MTEXT
  5
23D07
330
23B7C
100
AcDbEntity
  8
2
 62
     2
100
AcDbMText
 10
114.1207830063888
 20
0.0000000000003893
 30
0.0
 40
3.5
 41
0.0
 71
     5
 72
     1
  1
\A1;%%c58
 11
0.0000000000000001
 21
1.0
 31
0.0
 73
     1
 44
1.0
  0
POINT
  5
23D08
330
23B7C
100
AcDbEntity
  8
DEFPOINTS
 62
     0
100
AcDbPoint
 10
95.0
 20
29.00000000000036
 30
0.0
  0
POINT
  5
23D09
330
23B7C
100
AcDbEntity
  8
DEFPOINTS
 62
     0
100
AcDbPoint
 10
81.98399999999997
 20
-28.99999999999961
 30
0.0
  0
POINT
  5
23D0A
330
23B7C
100
AcDbEntity
  8
DEFPOINTS
 62
     0
100
AcDbPoint
 10
117.3707830063888
 20
-28.99999999999962
 30
0.0
  0
ENDBLK
  5
23B7E
330
23B7C
100
AcDbEntity
  8
0
100
AcDbBlockEnd
  0
BLOCK
  5
23BB7
330
23BB6
100
AcDbEntity
  8
0
100
AcDbBlockBegin
  2
*D3
 70
     1
 10
0.0
 20
0.0
 30
0.0
  3
*D3
  1

  0
LINE
  5
23D0B
330
23BB6
100
AcDbEntity
  8
2
370
    -2
100
AcDbLine
 10
95.0
 20
29.00000000000036
 30
0.0
 11
95.0
 21
46.00000000000039
 31
0.0
  0
LINE
  5
23D0C
330
23BB6
100
AcDbEntity
  8
2
370
    -2
100
AcDbLine
 10
68.5
 20
29.0000000000004
 30
0.0
 11
68.5
 21
46.00000000000039
 31
0.0
  0
LINE
  5
23D0D
330
23BB6
100
AcDbEntity
  8
2
370
    -2
100
AcDbLine
 10
92.5
 20
45.00000000000039
 30
0.0
 11
71.0
 21
45.00000000000039
 31
0.0
  0
SOLID
  5
23D0E
330
23BB6
100
AcDbEntity
  8
2
100
AcDbTrace
 10
92.5
 20
45.41666666666706
 30
0.0
 11
92.5
 21
44.58333333333373
 31
0.0
 12
95.0
 22
45.00000000000039
 32
0.0
 13
95.0
 23
45.00000000000039
 33
0.0
  0
SOLID
  5
23D0F
330
23BB6
100
AcDbEntity
  8
2
100
AcDbTrace
 10
71.0
 20
45.41666666666706
 30
0.0
 11
71.0
 21
44.58333333333373
 31
0.0
 12
68.5
 22
45.00000000000039
 32
0.0
 13
68.5
 23
45.00000000000039
 33
0.0
  0
MTEXT
  5
23D10
330
23BB6
100
AcDbEntity
  8
2
 62
     2
100
AcDbMText
 10
82.25611881374176
 20
48.25034448818938
 30
0.0
 40
3.5
 41
0.0
 71
     5
 72
     1
  1
\A1;26.5
 73
     1
 44
1.0
  0
POINT
  5
23D11
330
23BB6
100
AcDbEntity
  8
DEFPOINTS
 62
     0
100
AcDbPoint
 10
95.0
 20
29.00000000000036
 30
0.0
  0
POINT
  5
23D12
330
23BB6
100
AcDbEntity
  8
DEFPOINTS
 62
     0
100
AcDbPoint
 10
68.5
 20
29.0000000000004
 30
0.0
  0
POINT
  5
23D13
330
23BB6
100
AcDbEntity
  8
DEFPOINTS
 62
     0
100
AcDbPoint
 10
68.5
 20
45.00000000000039
 30
0.0
  0
ENDBLK
  5
23BB8
330
23BB6
100
AcDbEntity
  8
0
100
AcDbBlockEnd
  0
BLOCK
  5
23BDF
330
23BDE
100
AcDbEntity
  8
0
100
AcDbBlockBegin
  2
*D4
 70
     1
 10
0.0
 20
0.0
 30
0.0
  3
*D4
  1

  0
LINE
  5
23D14
330
23BDE
100
AcDbEntity
  8
2
370
    -2
100
AcDbLine
 10
95.0
 20
29.00000000000036
 30
0.0
 11
95.0
 21
76.0000000000004
 31
0.0
  0
LINE
  5
23D15
330
23BDE
100
AcDbEntity
  8
2
370
    -2
100
AcDbLine
 10
0.0
 20
39.00000000000002
 30
0.0
 11
0.0000000000000023
 21
76.0000000000004
 31
0.0
  0
LINE
  5
23D16
330
23BDE
100
AcDbEntity
  8
2
370
    -2
100
AcDbLine
 10
92.5
 20
75.00000000000039
 30
0.0
 11
2.500000000000002
 21
75.00000000000039
 31
0.0
  0
SOLID
  5
23D17
330
23BDE
100
AcDbEntity
  8
2
100
AcDbTrace
 10
92.5
 20
75.41666666666706
 30
0.0
 11
92.5
 21
74.58333333333373
 31
0.0
 12
95.0
 22
75.00000000000039
 32
0.0
 13
95.0
 23
75.00000000000039
 33
0.0
  0
SOLID
  5
23D18
330
23BDE
100
AcDbEntity
  8
2
100
AcDbTrace
 10
2.500000000000002
 20
75.41666666666706
 30
0.0
 11
2.500000000000002
 21
74.58333333333373
 31
0.0
 12
0.0000000000000022
 22
75.00000000000039
 32
0.0
 13
0.0000000000000022
 23
75.00000000000039
 33
0.0
  0
MTEXT
  5
23D19
330
23BDE
100
AcDbEntity
  8
2
 62
     2
100
AcDbMText
 10
49.69632382565586
 20
78.2500000000004
 30
0.0
 40
3.5
 41
0.0
 71
     5
 72
     1
  1
\A1;95
 73
     1
 44
1.0
  0
POINT
  5
23D1A
330
23BDE
100
AcDbEntity
  8
DEFPOINTS
 62
     0
100
AcDbPoint
 10
95.0
 20
29.00000000000036
 30
0.0
  0
POINT
  5
23D1B
330
23BDE
100
AcDbEntity
  8
DEFPOINTS
 62
     0
100
AcDbPoint
 10
0.0
 20
39.00000000000002
 30
0.0
  0
POINT
  5
23D1C
330
23BDE
100
AcDbEntity
  8
DEFPOINTS
 62
     0
100
AcDbPoint
 10
0.0000000000000022
 20
75.00000000000039
 30
0.0
  0
ENDBLK
  5
23BE0
330
23BDE
100
AcDbEntity
  8
0
100
AcDbBlockEnd
  0
BLOCK
  5
23BFF
330
23BFE
100
AcDbEntity
  8
0
100
AcDbBlockBegin
  2
*D5
 70
     1
 10
0.0
 20
0.0
 30
0.0
  3
*D5
  1

  0
LINE
  5
23D1D
330
23BFE
100
AcDbEntity
  8
2
370
    -2
100
AcDbLine
 10
95.0
 20
29.00000000000036
 30
0.0
 11
95.0
 21
61.00000000000039
 31
0.0
  0
LINE
  5
23D1E
330
23BFE
100
AcDbEntity
  8
2
370
    -2
100
AcDbLine
 10
20.0
 20
16.57761746078248
 30
0.0
 11
20.0
 21
61.00000000000039
 31
0.0
  0
LINE
  5
23D1F
330
23BFE
100
AcDbEntity
  8
2
370
    -2
100
AcDbLine
 10
92.5
 20
60.00000000000039
 30
0.0
 11
22.5
 21
60.00000000000039
 31
0.0
  0
SOLID
  5
23D20
330
23BFE
100
AcDbEntity
  8
2
100
AcDbTrace
 10
92.5
 20
60.41666666666706
 30
0.0
 11
92.5
 21
59.58333333333373
 31
0.0
 12
95.0
 22
60.00000000000039
 32
0.0
 13
95.0
 23
60.00000000000039
 33
0.0
  0
SOLID
  5
23D21
330
23BFE
100
AcDbEntity
  8
2
100
AcDbTrace
 10
22.5
 20
60.41666666666706
 30
0.0
 11
22.5
 21
59.58333333333373
 31
0.0
 12
20.0
 22
60.00000000000039
 32
0.0
 13
20.0
 23
60.00000000000039
 33
0.0
  0
MTEXT
  5
23D22
330
23BFE
100
AcDbEntity
  8
2
 62
     2
100
AcDbMText
 10
57.12913752632494
 20
63.25000000000039
 30
0.0
 40
3.5
 41
0.0
 71
     5
 72
     1
  1
\A1;75
 73
     1
 44
1.0
  0
POINT
  5
23D23
330
23BFE
100
AcDbEntity
  8
DEFPOINTS
 62
     0
100
AcDbPoint
 10
95.0
 20
29.00000000000036
 30
0.0
  0
POINT
  5
23D24
330
23BFE
100
AcDbEntity
  8
DEFPOINTS
 62
     0
100
AcDbPoint
 10
20.0
 20
16.57761746078248
 30
0.0
  0
POINT
  5
23D25
330
23BFE
100
AcDbEntity
  8
DEFPOINTS
 62
     0
100
AcDbPoint
 10
20.0
 20
60.00000000000039
 30
0.0
  0
ENDBLK
  5
23C00
330
23BFE
100
AcDbEntity
  8
0
100
AcDbBlockEnd
  0
BLOCK
  5
23C70
330
23C6F
100
AcDbEntity
  8
0
100
AcDbBlockBegin
  2
*D6
 70
     1
 10
0.0
 20
0.0
 30
0.0
  3
*D6
  1

  0
LINE
  5
23D26
330
23C6F
100
AcDbEntity
  8
2
370
    -2
100
AcDbLine
 10
59.61336803859343
 20
-16.50000000000076
 30
0.0
 11
56.26833337805941
 21
-16.50000000000076
 31
0.0
  0
LINE
  5
23D27
330
23C6F
100
AcDbEntity
  8
2
370
    -2
100
AcDbLine
 10
59.61336803859351
 20
16.49999999999999
 30
0.0
 11
56.26833337805943
 21
16.49999999999999
 31
0.0
  0
LINE
  5
23D28
330
23C6F
100
AcDbEntity
  8
2
370
    -2
100
AcDbLine
 10
57.26833337805942
 20
-14.00000000000076
 30
0.0
 11
57.26833337805942
 21
13.99999999999999
 31
0.0
  0
SOLID
  5
23D29
330
23C6F
100
AcDbEntity
  8
2
100
AcDbTrace
 10
56.85166671139276
 20
-14.00000000000076
 30
0.0
 11
57.68500004472609
 21
-14.00000000000076
 31
0.0
 12
57.26833337805942
 22
-16.50000000000076
 32
0.0
 13
57.26833337805942
 23
-16.50000000000076
 33
0.0
  0
SOLID
  5
23D2A
330
23C6F
100
AcDbEntity
  8
2
100
AcDbTrace
 10
56.85166671139276
 20
13.99999999999999
 30
0.0
 11
57.68500004472609
 21
13.99999999999999
 31
0.0
 12
57.26833337805943
 22
16.49999999999999
 32
0.0
 13
57.26833337805943
 23
16.49999999999999
 33
0.0
  0
MTEXT
  5
23D2B
330
23C6F
100
AcDbEntity
  8
2
 62
     2
100
AcDbMText
 10
54.01833337805943
 20
6.99301985203283
 30
0.0
 40
3.5
 41
0.0
 71
     5
 72
     1
  1
\A1;%%c33
 11
0.0000000000000001
 21
1.0
 31
0.0
 73
     1
 44
1.0
  0
POINT
  5
23D2C
330
23C6F
100
AcDbEntity
  8
DEFPOINTS
 62
     0
100
AcDbPoint
 10
59.61336803859343
 20
-16.50000000000076
 30
0.0
  0
POINT
  5
23D2D
330
23C6F
100
AcDbEntity
  8
DEFPOINTS
 62
     0
100
AcDbPoint
 10
59.61336803859351
 20
16.49999999999999
 30
0.0
  0
POINT
  5
23D2E
330
23C6F
100
AcDbEntity
  8
DEFPOINTS
 62
     0
100
AcDbPoint
 10
57.26833337805943
 20
16.49999999999999
 30
0.0
  0
ENDBLK
  5
23C71
330
23C6F
100
AcDbEntity
  8
0
100
AcDbBlockEnd
  0
BLOCK
  5
23D8E
330
23D8D
100
AcDbEntity
  8
0
100
AcDbBlockBegin
  2
*D9
 70
     1
 10
0.0
 20
0.0
 30
0.0
  3
*D9
  1

  0
LINE
  5
23DF8
330
23D8D
100
AcDbEntity
  8
SK2
370
    -2
100
AcDbLine
 10
0.0
 20
39.00000000000002
 30
0.0
 11
-77.99752210968425
 21
39.00000000000004
 31
0.0
  0
LINE
  5
23DF9
330
23D8D
100
AcDbEntity
  8
SK2
370
    -2
100
AcDbLine
 10
0.0000000000000853
 20
-38.99999999999923
 30
0.0
 11
-77.99752210968428
 21
-38.9999999999992
 31
0.0
  0
LINE
  5
23DFA
330
23D8D
100
AcDbEntity
  8
SK2
370
    -2
100
AcDbLine
 10
-76.99752210968425
 20
36.50000000000004
 30
0.0
 11
-76.99752210968428
 21
-36.4999999999992
 31
0.0
  0
SOLID
  5
23DFB
330
23D8D
100
AcDbEntity
  8
SK2
100
AcDbTrace
 10
-77.41418877635092
 20
36.50000000000004
 30
0.0
 11
-76.58085544301759
 21
36.50000000000004
 31
0.0
 12
-76.99752210968425
 22
39.00000000000004
 32
0.0
 13
-76.99752210968425
 23
39.00000000000004
 33
0.0
  0
SOLID
  5
23DFC
330
23D8D
100
AcDbEntity
  8
SK2
100
AcDbTrace
 10
-77.41418877635095
 20
-36.4999999999992
 30
0.0
 11
-76.58085544301761
 21
-36.4999999999992
 31
0.0
 12
-76.99752210968428
 22
-38.9999999999992
 32
0.0
 13
-76.99752210968428
 23
-38.9999999999992
 33
0.0
  0
MTEXT
  5
23DFD
330
23D8D
100
AcDbEntity
  8
SK2
 62
     2
100
AcDbMText
 10
-80.24752210968427
 20
0.0000000000004101
 30
0.0
 40
3.5
 41
0.0
 71
     5
 72
     1
  1
\A1;%%c78
 11
0.0000000000000001
 21
1.0
 31
0.0
 73
     1
 44
1.0
  0
POINT
  5
23DFE
330
23D8D
100
AcDbEntity
  8
DEFPOINTS
 62
     0
100
AcDbPoint
 10
0.0
 20
39.00000000000002
 30
0.0
  0
POINT
  5
23DFF
330
23D8D
100
AcDbEntity
  8
DEFPOINTS
 62
     0
100
AcDbPoint
 10
0.0000000000000853
 20
-38.99999999999923
 30
0.0
  0
POINT
  5
23E00
330
23D8D
100
AcDbEntity
  8
DEFPOINTS
 62
     0
100
AcDbPoint
 10
-76.99752210968428
 20
-38.9999999999992
 30
0.0
  0
ENDBLK
  5
23D8F
330
23D8D
100
AcDbEntity
  8
0
100
AcDbBlockEnd
  0
BLOCK
  5
23DBF
330
23DBE
100
AcDbEntity
  8
0
100
AcDbBlockBegin
  2
*D10
 70
     1
 10
0.0
 20
0.0
 30
0.0
  3
*D10
  1

  0
LINE
  5
23E0A
330
23DBE
100
AcDbEntity
  8
SK2
370
    -2
100
AcDbLine
 10
-41.49999999999709
 20
18.50000000000108
 30
0.0
 11
-63.43972246021053
 21
18.50000000000108
 31
0.0
  0
LINE
  5
23E0B
330
23DBE
100
AcDbEntity
  8
SK2
370
    -2
100
AcDbLine
 10
-41.49999999999709
 20
-18.50000000000028
 30
0.0
 11
-63.43972246021054
 21
-18.50000000000028
 31
0.0
  0
LINE
  5
23E0C
330
23DBE
100
AcDbEntity
  8
SK2
370
    -2
100
AcDbLine
 10
-62.43972246021052
 20
16.00000000000108
 30
0.0
 11
-62.43972246021054
 21
-16.00000000000028
 31
0.0
  0
SOLID
  5
23E0D
330
23DBE
100
AcDbEntity
  8
SK2
100
AcDbTrace
 10
-62.85638912687719
 20
16.00000000000108
 30
0.0
 11
-62.02305579354386
 21
16.00000000000108
 31
0.0
 12
-62.43972246021052
 22
18.50000000000108
 32
0.0
 13
-62.43972246021052
 23
18.50000000000108
 33
0.0
  0
SOLID
  5
23E0E
330
23DBE
100
AcDbEntity
  8
SK2
100
AcDbTrace
 10
-62.8563891268772
 20
-16.00000000000028
 30
0.0
 11
-62.02305579354387
 21
-16.00000000000028
 31
0.0
 12
-62.43972246021054
 22
-18.50000000000028
 32
0.0
 13
-62.43972246021054
 23
-18.50000000000028
 33
0.0
  0
MTEXT
  5
23E0F
330
23DBE
100
AcDbEntity
  8
SK2
 62
     2
100
AcDbMText
 10
-65.68972246021053
 20
0.0000000000003915
 30
0.0
 40
3.5
 41
0.0
 71
     5
 72
     1
  1
\A1;%%c37
 11
0.0000000000000001
 21
1.0
 31
0.0
 73
     1
 44
1.0
  0
POINT
  5
23E10
330
23DBE
100
AcDbEntity
  8
DEFPOINTS
 62
     0
100
AcDbPoint
 10
-41.49999999999709
 20
18.50000000000108
 30
0.0
  0
POINT
  5
23E11
330
23DBE
100
AcDbEntity
  8
DEFPOINTS
 62
     0
100
AcDbPoint
 10
-41.49999999999709
 20
-18.50000000000028
 30
0.0
  0
POINT
  5
23E12
330
23DBE
100
AcDbEntity
  8
DEFPOINTS
 62
     0
100
AcDbPoint
 10
-62.43972246021054
 20
-18.50000000000028
 30
0.0
  0
ENDBLK
  5
23DC0
330
23DBE
100
AcDbEntity
  8
0
100
AcDbBlockEnd
  0
ENDSEC
  0
SECTION
  2
ENTITIES
  0
LINE
  5
E654
330
235D7
100
AcDbEntity
  8
SK4
100
AcDbLine
 10
-17.0000000000004
 20
-19.28796704189091
 30
0.0
 11
-17.0000000000004
 21
18.90336743726283
 31
0.0
  0
LINE
  5
E655
330
235D7
100
AcDbEntity
  8
SK3
 48
0.3
100
AcDbLine
 10
-15.0000000000004
 20
4.000000000000497
 30
0.0
 11
-15.0000000000004
 21
17.50000000000108
 31
0.0
  0
LINE
  5
E656
330
235D7
100
AcDbEntity
  8
SK3
 48
0.3
100
AcDbLine
 10
-19.0000000000004
 20
4.000000000000524
 30
0.0
 11
-19.00000000000041
 21
17.50000000000106
 31
0.0
  0
LINE
  5
E659
330
235D7
100
AcDbEntity
  8
SK1
100
AcDbLine
 10
-44.73167463378496
 20
-18.14836444149725
 30
0.0
 11
-41.49999999999709
 21
-18.50000000000028
 31
0.0
  0
LINE
  5
E65A
330
235D7
100
AcDbEntity
  8
SK1
100
AcDbLine
 10
-41.49999999999709
 20
-18.50000000000028
 30
0.0
 11
-37.49999999999722
 21
-18.50000000000022
 31
0.0
  0
LINE
  5
E65B
330
235D7
100
AcDbEntity
  8
SK1
100
AcDbLine
 10
-37.49999999999722
 20
-18.50000000000022
 30
0.0
 11
-34.75252258054259
 21
-17.50000000000023
 31
0.0
  0
LINE
  5
E65C
330
235D7
100
AcDbEntity
  8
SK1
100
AcDbLine
 10
-34.75252258054259
 20
-17.50000000000023
 30
0.0
 11
-13.24999999999721
 21
-17.50000000000028
 31
0.0
  0
LINE
  5
E65D
330
235D7
100
AcDbEntity
  8
SK1
100
AcDbLine
 10
-13.24999999999721
 20
-17.50000000000028
 30
0.0
 11
-10.50252258054269
 21
-18.49999999999965
 31
0.0
  0
LINE
  5
E65E
330
235D7
100
AcDbEntity
  8
SK1
100
AcDbLine
 10
-10.50252258054269
 20
-18.49999999999965
 30
0.0
 11
-0.0000000000003979
 21
-18.49999999999965
 31
0.0
  0
LINE
  5
E65F
330
235D7
100
AcDbEntity
  8
SK1
100
AcDbLine
 10
-24.4487445164319
 20
-7.529928896589921
 30
0.0
 11
-27.38419982071318
 21
-6.062201244449112
 31
0.0
  0
ARC
  5
E660
330
235D7
100
AcDbEntity
  8
SK1
100
AcDbCircle
 10
-24.92796406340412
 20
-2.193751222622609
 30
0.0
 40
4.582357435518665
100
AcDbArc
 50
182.623083198114
 51
237.586880455113
  0
LINE
  5
E661
330
235D7
100
AcDbEntity
  8
SK1
100
AcDbLine
 10
-24.4487445164319
 20
-7.529928896589921
 30
0.0
 11
-30.31965512499548
 21
-7.529928896589979
 31
0.0
  0
ARC
  5
E662
330
235D7
100
AcDbEntity
  8
SK1
100
AcDbCircle
 10
-26.3671769523838
 20
0.4641217807624117
 30
0.0
 40
8.917787278077957
100
AcDbArc
 50
182.9832780029468
 51
243.6909441531722
  0
ARC
  5
E663
330
235D7
100
AcDbEntity
  8
SK1
100
AcDbCircle
 10
-36.91327260048988
 20
-0.6729670902918771
 30
0.0
 40
14.22611632074264
100
AcDbArc
 50
331.1840138781263
 51
2.711391384690688
  0
LINE
  5
E664
330
235D7
100
AcDbEntity
  8
SK1
100
AcDbLine
 10
-24.4487445164319
 20
7.529928896590146
 30
0.0
 11
-27.38419982071318
 21
6.062201244449339
 31
0.0
  0
ARC
  5
E665
330
235D7
100
AcDbEntity
  8
SK1
100
AcDbCircle
 10
-24.92796406340412
 20
2.193751222622835
 30
0.0
 40
4.582357435518665
100
AcDbArc
 50
122.413119544887
 51
177.3769168018892
  0
LINE
  5
E666
330
235D7
100
AcDbEntity
  8
SK1
100
AcDbLine
 10
-24.4487445164319
 20
7.529928896590146
 30
0.0
 11
-30.31965512499548
 21
7.529928896590204
 31
0.0
  0
ARC
  5
E667
330
235D7
100
AcDbEntity
  8
SK1
100
AcDbCircle
 10
-26.3671769523838
 20
-0.4641217807621844
 30
0.0
 40
8.917787278077957
100
AcDbArc
 50
116.309055846826
 51
177.016721997226
  0
ARC
  5
E668
330
235D7
100
AcDbEntity
  8
SK1
100
AcDbCircle
 10
-36.91327260048988
 20
0.6729670902921045
 30
0.0
 40
14.22611632074264
100
AcDbArc
 50
357.2886086153092
 51
28.81598612187159
  0
LINE
  5
E669
330
235D7
100
AcDbEntity
  8
SK3
100
AcDbLine
 10
-0.0000000000005116
 20
-20.11473670974833
 30
0.0
 11
9.499999999999488
 21
-20.11473670974833
 31
0.0
  0
LINE
  5
E66A
330
235D7
100
AcDbEntity
  8
SK3
100
AcDbLine
 10
9.499999999999488
 20
-20.11473670974833
 30
0.0
 11
9.499999999999488
 21
-30.11473670974833
 31
0.0
  0
LINE
  5
E66B
330
235D7
100
AcDbEntity
  8
SK3
100
AcDbLine
 10
9.499999999999488
 20
-30.11473670974833
 30
0.0
 11
-0.0000000000005116
 21
-30.11473670974833
 31
0.0
  0
LINE
  5
E66C
330
235D7
100
AcDbEntity
  8
SK3
100
AcDbLine
 10
9.499999999999488
 20
-30.11473670974833
 30
0.0
 11
12.50430309513734
 21
-25.11473670974833
 31
0.0
  0
LINE
  5
E66D
330
235D7
100
AcDbEntity
  8
SK3
100
AcDbLine
 10
12.50430309513734
 20
-25.11473670974833
 30
0.0
 11
9.499999999999488
 21
-20.11473670974833
 31
0.0
  0
LINE
  5
E66E
330
235D7
100
AcDbEntity
  8
SK1
100
AcDbLine
 10
-29.50552016427272
 20
2.40346486131591
 30
0.0
 11
-29.50552016427272
 21
-2.40346486131591
 31
0.0
  0
ARC
  5
E66F
330
235D7
100
AcDbEntity
  8
SK1
100
AcDbCircle
 10
-45.62153484342553
 20
-17.07097533172415
 30
0.0
 40
1.39736125842933
100
AcDbArc
 50
189.4332210734334
 51
309.5547087049577
  0
LINE
  5
E670
330
235D7
100
AcDbEntity
  8
SK1
100
AcDbLine
 10
-46.99999999999721
 20
-17.29999999999589
 30
0.0
 11
-46.99999999999717
 21
17.29999999999686
 31
0.0
  0
LINE
  5
E675
330
235D7
100
AcDbEntity
  8
SK1
100
AcDbLine
 10
-44.73167463378496
 20
18.14836444149804
 30
0.0
 11
-41.49999999999709
 21
18.50000000000108
 31
0.0
  0
LINE
  5
E676
330
235D7
100
AcDbEntity
  8
SK1
100
AcDbLine
 10
-41.49999999999709
 20
18.50000000000108
 30
0.0
 11
-37.49999999999722
 21
18.50000000000102
 31
0.0
  0
LINE
  5
E677
330
235D7
100
AcDbEntity
  8
SK1
100
AcDbLine
 10
-37.49999999999722
 20
18.50000000000102
 30
0.0
 11
-34.75252258054259
 21
17.50000000000102
 31
0.0
  0
LINE
  5
E678
330
235D7
100
AcDbEntity
  8
SK1
100
AcDbLine
 10
-34.75252258054259
 20
17.50000000000102
 30
0.0
 11
-13.24999999999721
 21
17.50000000000108
 31
0.0
  0
LINE
  5
E679
330
235D7
100
AcDbEntity
  8
SK1
100
AcDbLine
 10
-13.24999999999721
 20
17.50000000000108
 30
0.0
 11
-10.50252258054269
 21
18.50000000000045
 31
0.0
  0
LINE
  5
E67A
330
235D7
100
AcDbEntity
  8
SK1
100
AcDbLine
 10
-10.50252258054269
 20
18.50000000000045
 30
0.0
 11
-0.0000000000003979
 21
18.50000000000045
 31
0.0
  0
ARC
  5
E67B
330
235D7
100
AcDbEntity
  8
SK1
100
AcDbCircle
 10
-45.62153484342553
 20
17.07097533172494
 30
0.0
 40
1.39736125842933
100
AcDbArc
 50
50.44529129504232
 51
170.5667789265648
  0
LINE
  5
E67C
330
235D7
100
AcDbEntity
  8
SK1
100
AcDbLine
 10
-44.73167463378496
 20
18.14836444149804
 30
0.0
 11
-44.73167463378496
 21
-18.14836444149721
 31
0.0
  0
LINE
  5
E67D
330
235D7
100
AcDbEntity
  8
SK1
100
AcDbLine
 10
-41.49999999999709
 20
-18.50000000000028
 30
0.0
 11
-41.49999999999709
 21
18.50000000000108
 31
0.0
  0
LINE
  5
E67E
330
235D7
100
AcDbEntity
  8
SK1
100
AcDbLine
 10
-37.49999999999722
 20
18.50000000000102
 30
0.0
 11
-37.49999999999722
 21
-18.50000000000022
 31
0.0
  0
LINE
  5
E67F
330
235D7
100
AcDbEntity
  8
SK1
100
AcDbLine
 10
-34.75252258054259
 20
-17.50000000000023
 30
0.0
 11
-34.75252258054259
 21
-2.571155576147119
 31
0.0
  0
LINE
  5
E680
330
235D7
100
AcDbEntity
  8
SK1
100
AcDbLine
 10
-34.75252258054259
 20
2.571155576147346
 30
0.0
 11
-34.75252258054259
 21
17.50000000000102
 31
0.0
  0
LINE
  5
E681
330
235D7
100
AcDbEntity
  8
SK1
100
AcDbLine
 10
-13.24999999999721
 20
17.50000000000108
 30
0.0
 11
-13.24999999999721
 21
-17.50000000000028
 31
0.0
  0
LINE
  5
E682
330
235D7
100
AcDbEntity
  8
SK1
100
AcDbLine
 10
-10.50252258054269
 20
-18.49999999999965
 30
0.0
 11
-10.50252258054269
 21
18.50000000000045
 31
0.0
  0
LINE
  5
E683
330
235D7
100
AcDbEntity
  8
SK1
100
AcDbLine
 10
-2.273635519671812
 20
-18.49999999999965
 30
0.0
 11
-2.273635519671812
 21
18.50000000000045
 31
0.0
  0
LINE
  5
E687
330
235D7
100
AcDbEntity
  8
SK4
100
AcDbLine
 10
-0.0000000000003979
 20
0.0000000000003979
 30
0.0
 11
-49.03530140593566
 21
0.0000000000000568
 31
0.0
  0
LINE
  5
E688
330
235D7
100
AcDbEntity
  8
SK3
 48
0.3
100
AcDbLine
 10
44.09796380135548
 20
-3.999999999999488
 30
0.0
 11
-46.99999999999721
 21
-3.999999999999928
 31
0.0
  0
LINE
  5
E689
330
235D7
100
AcDbEntity
  8
SK3
100
AcDbLine
 10
-0.0000000000005116
 20
20.11473670974913
 30
0.0
 11
9.499999999999488
 21
20.11473670974913
 31
0.0
  0
LINE
  5
E68A
330
235D7
100
AcDbEntity
  8
SK3
100
AcDbLine
 10
9.499999999999488
 20
20.11473670974913
 30
0.0
 11
9.499999999999488
 21
30.11473670974913
 31
0.0
  0
LINE
  5
E68B
330
235D7
100
AcDbEntity
  8
SK3
100
AcDbLine
 10
9.499999999999488
 20
30.11473670974913
 30
0.0
 11
-0.0000000000005116
 21
30.11473670974913
 31
0.0
  0
LINE
  5
E68C
330
235D7
100
AcDbEntity
  8
SK3
100
AcDbLine
 10
9.499999999999488
 20
30.11473670974913
 30
0.0
 11
12.50430309513734
 21
25.11473670974913
 31
0.0
  0
LINE
  5
E68D
330
235D7
100
AcDbEntity
  8
SK3
100
AcDbLine
 10
12.50430309513734
 20
25.11473670974913
 30
0.0
 11
9.499999999999488
 21
20.11473670974913
 31
0.0
  0
LINE
  5
E691
330
235D7
100
AcDbEntity
  8
SK1
100
AcDbLine
 10
-2.086652350555027
 20
-2.086652350555056
 30
0.0
 11
2.086652350555027
 21
2.086652350554999
 31
0.0
  0
CIRCLE
  5
E692
330
235D7
100
AcDbEntity
  8
SK1
100
AcDbCircle
 10
0.0
 20
0.0
 30
0.0
 40
2.950972054112602
  0
LINE
  5
E693
330
235D7
100
AcDbEntity
  8
SK1
100
AcDbLine
 10
-2.086652350555027
 20
2.086652350555027
 30
0.0
 11
2.086652350555027
 21
-2.086652350555027
 31
0.0
  0
TEXT
  5
E696
330
235D7
100
AcDbEntity
  8
SK6
100
AcDbText
 10
-32.40443961868877
 20
23.94483715927222
 30
0.0
 40
2.5
  1
modular 50
100
AcDbText
  0
LINE
  5
E697
330
235D7
100
AcDbEntity
  8
SK3
 48
0.3
100
AcDbLine
 10
44.09796380135548
 20
4.000000000000284
 30
0.0
 11
-46.99999999999721
 21
4.000000000000709
 31
0.0
  0
LINE
  5
E698
330
235D7
100
AcDbEntity
  8
SK3
 48
0.3
100
AcDbLine
 10
-15.00000000000031
 20
-3.999999999999913
 30
0.0
 11
-15.00000000000011
 21
-17.50000000000048
 31
0.0
  0
LINE
  5
E699
330
235D7
100
AcDbEntity
  8
SK3
 48
0.3
100
AcDbLine
 10
-19.00000000000031
 20
-4.0
 30
0.0
 11
-19.00000000000013
 21
-17.50000000000054
 31
0.0
  0
CIRCLE
  5
E69A
330
235D7
100
AcDbEntity
  8
SK1
100
AcDbCircle
 10
-17.0000000000004
 20
0.0000000000002842
 30
0.0
 40
2.0
  0
LINE
  5
15202
330
235D7
100
AcDbEntity
  8
SK4
100
AcDbLine
 10
14.10268407675626
 20
-25.11473670974399
 30
0.0
 11
-1.937563179959209
 21
-25.11473670973972
 31
0.0
  0
LINE
  5
152F9
330
235D7
100
AcDbEntity
  8
SK4
100
AcDbLine
 10
14.10268407675626
 20
25.11473670974411
 30
0.0
 11
-1.937563179959209
 21
25.11473670973983
 31
0.0
  0
LINE
  5
23156
330
235D7
100
AcDbEntity
  8
1
100
AcDbLine
 10
0.0
 20
39.00000000000002
 30
0.0
 11
0.0
 21
0.0
 31
0.0
  0
LINE
  5
23157
330
235D7
100
AcDbEntity
  8
NOCUT
100
AcDbLine
 10
-0.0000000000000284
 20
0.0000000000000568
 30
0.0
 11
94.09999999999993
 21
0.0000000000000853
 31
0.0
  0
LINE
  5
23158
330
235D7
100
AcDbEntity
  8
1
100
AcDbLine
 10
0.0
 20
39.00000000000002
 30
0.0
 11
12.63234453519339
 21
39.00000000000002
 31
0.0
  0
LINE
  5
2315A
330
235D7
100
AcDbEntity
  8
1
100
AcDbLine
 10
20.8775819834099
 20
16.50000000000008
 30
0.0
 11
68.45000000000007
 21
16.49999999999996
 31
0.0
  0
LINE
  5
2315B
330
235D7
100
AcDbEntity
  8
1
100
AcDbLine
 10
69.45000000000007
 20
17.49999999999997
 30
0.0
 11
69.44999999999996
 21
27.67500000000031
 31
0.0
  0
LINE
  5
2315C
330
235D7
100
AcDbEntity
  8
1
100
AcDbLine
 10
69.44999999999996
 20
27.67500000000031
 30
0.0
 11
80.77600000000002
 21
27.67500000000031
 31
0.0
  0
LINE
  5
2315D
330
235D7
100
AcDbEntity
  8
1
100
AcDbLine
 10
94.09999999999993
 20
14.77600000000035
 30
0.0
 11
94.09999999999993
 21
0.0000000000000284
 31
0.0
  0
ARC
  5
2315E
330
235D7
100
AcDbEntity
  8
1
100
AcDbCircle
 10
12.63234453519339
 20
38.00000000000002
 30
0.0
 40
1.0
100
AcDbArc
 50
0.4374324929097239
 51
90.0
1001
GENIUS_GENOBJ-N-FIL_13
1002
{
1000
OWNER
1000
GEN
1002
}
1001
GENIUS_GENODEF_13
1002
{
1000
HIER
1070
     0
1002
}
1002
{
1000
MANEDIT
1070
     0
1002
}
1002
{
1000
NOSEL
1070
     0
1002
}
1002
{
1000
BEHIND
1070
     0
1002
}
1002
{
1000
OTHER
1070
     0
1002
}
1002
{
1000
REACTOR
1002
}
  0
ARC
  5
2315F
330
235D7
100
AcDbEntity
  8
1
100
AcDbCircle
 10
68.45000000000007
 20
17.49999999999997
 30
0.0
 40
1.0
100
AcDbArc
 50
270.0
 51
0.0000000000016284
1001
GENIUS_GENODEF_13
1002
{
1000
HIER
1070
     0
1002
}
1002
{
1000
MANEDIT
1070
     0
1002
}
1002
{
1000
NOSEL
1070
     0
1002
}
1002
{
1000
BEHIND
1070
     0
1002
}
1002
{
1000
OTHER
1070
     0
1002
}
1002
{
1000
REACTOR
1002
}
1001
GENIUS_GENOBJ-N-FIL_13
1002
{
1000
OWNER
1000
GEN
1002
}
  0
LINE
  5
23161
330
235D7
100
AcDbEntity
  8
NOCUT
100
AcDbLine
 10
0.0000000000000853
 20
-39.00000000000002
 30
0.0
 11
-0.0000000000000284
 21
0.0
 31
0.0
  0
LINE
  5
23168
330
235D7
100
AcDbEntity
  8
NOCUT
100
AcDbLine
 10
69.4499999999951
 20
-17.50000000000409
 30
0.0
 11
69.44999999999992
 21
-27.67499999999965
 31
0.0
  0
LINE
  5
23169
330
235D7
100
AcDbEntity
  8
NOCUT
100
AcDbLine
 10
69.44999999999992
 20
-27.67499999999965
 30
0.0
 11
94.09999999999993
 21
-27.67499999999965
 31
0.0
  0
LINE
  5
2316A
330
235D7
100
AcDbEntity
  8
NOCUT
100
AcDbLine
 10
94.09999999999993
 20
-27.67499999999965
 30
0.0
 11
94.09999999999993
 21
0.0000000000000853
 31
0.0
  0
LINE
  5
2316B
330
235D7
100
AcDbEntity
  8
1
100
AcDbLine
 10
0.0
 20
-39.00000000000002
 30
0.0
 11
0.0
 21
0.0
 31
0.0
  0
LINE
  5
23172
330
235D7
100
AcDbEntity
  8
1
100
AcDbLine
 10
69.44999999999502
 20
-17.5000000000033
 30
0.0
 11
69.44999999999994
 21
-27.6749999999997
 31
0.0
  0
LINE
  5
23173
330
235D7
100
AcDbEntity
  8
1
100
AcDbLine
 10
69.44999999999994
 20
-27.6749999999997
 30
0.0
 11
94.09999999999993
 21
-27.6749999999997
 31
0.0
  0
LINE
  5
23174
330
235D7
100
AcDbEntity
  8
1
100
AcDbLine
 10
94.09999999999993
 20
-27.6749999999997
 30
0.0
 11
94.09999999999993
 21
0.0000000000000284
 31
0.0
  0
TEXT
  5
23380
330
235D7
100
AcDbEntity
  8
6
100
AcDbText
 10
126.4758081836006
 20
-7.633321964444444
 30
0.0
 40
3.5
  1
(Z=4)
 50
90.0
100
AcDbText
  0
TEXT
  5
23381
330
235D7
100
AcDbEntity
  8
6
100
AcDbText
 10
132.9243345786979
 20
-10.23830135170861
 30
0.0
 40
3.5
  1
Zeff.=2
 50
90.0
100
AcDbText
  0
LINE
  5
23383
330
235D7
100
AcDbEntity
  8
SK1
100
AcDbLine
 10
95.0
 20
29.46376936984917
 30
0.0
 11
95.0
 21
28.53623063015155
 31
0.0
  0
LINE
  5
23384
330
235D7
100
AcDbEntity
  8
SK1
100
AcDbLine
 10
94.53623063015117
 20
29.00000000000036
 30
0.0
 11
95.46376936984882
 21
29.00000000000036
 31
0.0
  0
CIRCLE
  5
23385
330
235D7
100
AcDbEntity
  8
SK1
100
AcDbCircle
 10
95.0
 20
29.00000000000036
 30
0.0
 40
0.4637693698488209
  0
LINE
  5
23386
330
235D7
100
AcDbEntity
  8
SK1
100
AcDbLine
 10
68.5
 20
29.46376936984922
 30
0.0
 11
68.5
 21
28.53623063015158
 31
0.0
  0
LINE
  5
23387
330
235D7
100
AcDbEntity
  8
SK1
100
AcDbLine
 10
68.03623063015118
 20
29.0000000000004
 30
0.0
 11
68.96376936984882
 21
29.0000000000004
 31
0.0
  0
CIRCLE
  5
23388
330
235D7
100
AcDbEntity
  8
SK1
100
AcDbCircle
 10
68.5
 20
29.0000000000004
 30
0.0
 40
0.4637693698488209
  0
LINE
  5
23389
330
235D7
100
AcDbEntity
  8
SK1
100
AcDbLine
 10
68.49999999999998
 20
-28.53623063015078
 30
0.0
 11
68.49999999999998
 21
-29.46376936984842
 31
0.0
  0
LINE
  5
2338A
330
235D7
100
AcDbEntity
  8
SK1
100
AcDbLine
 10
68.03623063015116
 20
-28.9999999999996
 30
0.0
 11
68.9637693698488
 21
-28.9999999999996
 31
0.0
  0
CIRCLE
  5
2338B
330
235D7
100
AcDbEntity
  8
SK1
100
AcDbCircle
 10
68.49999999999998
 20
-28.9999999999996
 30
0.0
 40
0.4637693698488209
  0
LINE
  5
2338C
330
235D7
100
AcDbEntity
  8
1
100
AcDbLine
 10
80.77600000000002
 20
28.26000000000036
 30
0.0
 11
80.77600000000002
 21
15.51600000000035
 31
0.0
  0
ARC
  5
2338D
330
235D7
100
AcDbEntity
  8
1
100
AcDbCircle
 10
81.51599999999996
 20
28.26000000000036
 30
0.0
 40
0.7400000000000002
100
AcDbArc
 50
90.0
 51
180.0
1001
GENIUS_GENODEF_13
1002
{
1000
HIER
1070
     0
1002
}
1002
{
1000
MANEDIT
1070
     0
1002
}
1002
{
1000
NOSEL
1070
     0
1002
}
1002
{
1000
BEHIND
1070
     0
1002
}
1002
{
1000
OTHER
1070
     0
1002
}
1002
{
1000
REACTOR
1002
}
1001
GENIUS_GENOBJ-N-FIL_13
1002
{
1000
OWNER
1000
GEN
1002
}
  0
LINE
  5
2338E
330
235D7
100
AcDbEntity
  8
1
100
AcDbLine
 10
95.0
 20
28.26000000000036
 30
0.0
 11
95.0
 21
15.51600000000035
 31
0.0
  0
ARC
  5
2338F
330
235D7
100
AcDbEntity
  8
1
100
AcDbCircle
 10
94.26
 20
28.26000000000036
 30
0.0
 40
0.7400000000000002
100
AcDbArc
 50
0.0
 51
90.0
1001
GENIUS_GENODEF_13
1002
{
1000
HIER
1070
     0
1002
}
1002
{
1000
MANEDIT
1070
     0
1002
}
1002
{
1000
NOSEL
1070
     0
1002
}
1002
{
1000
BEHIND
1070
     0
1002
}
1002
{
1000
OTHER
1070
     0
1002
}
1002
{
1000
REACTOR
1002
}
1001
GENIUS_GENOBJ-N-FIL_13
1002
{
1000
OWNER
1000
GEN
1002
}
  0
ARC
  5
23390
330
235D7
100
AcDbEntity
  8
1
100
AcDbCircle
 10
94.26
 20
15.51600000000035
 30
0.0
 40
0.7400000000000002
100
AcDbArc
 50
270.0
 51
0.0
1001
GENIUS_GENODEF_13
1002
{
1000
HIER
1070
     0
1002
}
1002
{
1000
MANEDIT
1070
     0
1002
}
1002
{
1000
NOSEL
1070
     0
1002
}
1002
{
1000
BEHIND
1070
     0
1002
}
1002
{
1000
OTHER
1070
     0
1002
}
1002
{
1000
REACTOR
1002
}
1001
GENIUS_GENOBJ-N-FIL_13
1002
{
1000
OWNER
1000
GEN
1002
}
  0
LINE
  5
23391
330
235D7
100
AcDbEntity
  8
1
100
AcDbLine
 10
81.51600000000001
 20
14.77600000000035
 30
0.0
 11
94.26
 21
14.77600000000035
 31
0.0
  0
ARC
  5
23392
330
235D7
100
AcDbEntity
  8
1
100
AcDbCircle
 10
81.51600000000001
 20
15.51600000000035
 30
0.0
 40
0.7400000000000002
100
AcDbArc
 50
180.0
 51
270.0
1001
GENIUS_GENODEF_13
1002
{
1000
HIER
1070
     0
1002
}
1002
{
1000
MANEDIT
1070
     0
1002
}
1002
{
1000
NOSEL
1070
     0
1002
}
1002
{
1000
BEHIND
1070
     0
1002
}
1002
{
1000
OTHER
1070
     0
1002
}
1002
{
1000
REACTOR
1002
}
1001
GENIUS_GENOBJ-N-FIL_13
1002
{
1000
OWNER
1000
GEN
1002
}
  0
LINE
  5
23393
330
235D7
100
AcDbEntity
  8
1
100
AcDbLine
 10
81.51599999999996
 20
29.00000000000036
 30
0.0
 11
94.26
 21
29.00000000000036
 31
0.0
  0
CIRCLE
  5
23394
330
235D7
100
AcDbEntity
  8
1
100
AcDbCircle
 10
87.88800000000003
 20
21.88800000000035
 30
0.0
 40
3.946031257147443
  0
LINE
  5
23395
330
235D7
100
AcDbEntity
  8
SK3
100
AcDbLine
 10
68.49999999999998
 20
-15.51599999999959
 30
0.0
 11
68.49999999999998
 21
-16.50125078223163
 31
0.0
  0
LINE
  5
23396
330
235D7
100
AcDbEntity
  8
1
100
AcDbLine
 10
68.49999999999998
 20
-16.50125078223163
 30
0.0
 11
68.49999999999998
 21
-28.25999999999961
 31
0.0
  0
ARC
  5
23397
330
235D7
100
AcDbEntity
  8
SK3
100
AcDbCircle
 10
69.23999999999994
 20
-15.51599999999959
 30
0.0
 40
0.7400000000000002
100
AcDbArc
 50
90.0
 51
180.0
1001
GENIUS_GENODEF_13
1002
{
1000
HIER
1070
     0
1002
}
1002
{
1000
MANEDIT
1070
     0
1002
}
1002
{
1000
NOSEL
1070
     0
1002
}
1002
{
1000
BEHIND
1070
     0
1002
}
1002
{
1000
OTHER
1070
     0
1002
}
1002
{
1000
REACTOR
1002
}
1001
GENIUS_GENOBJ-N-FIL_13
1002
{
1000
OWNER
1000
GEN
1002
}
  0
LINE
  5
23398
330
235D7
100
AcDbEntity
  8
SK3
 48
0.3
100
AcDbLine
 10
82.72399999999992
 20
-15.51599999999959
 30
0.0
 11
82.72399999999992
 21
-26.82823424428621
 31
0.0
  0
ARC
  5
23399
330
235D7
100
AcDbEntity
  8
SK3
100
AcDbCircle
 10
81.98399999999997
 20
-15.51599999999959
 30
0.0
 40
0.7400000000000002
100
AcDbArc
 50
0.0
 51
90.0
1001
GENIUS_GENODEF_13
1002
{
1000
HIER
1070
     0
1002
}
1002
{
1000
MANEDIT
1070
     0
1002
}
1002
{
1000
NOSEL
1070
     0
1002
}
1002
{
1000
BEHIND
1070
     0
1002
}
1002
{
1000
OTHER
1070
     0
1002
}
1002
{
1000
REACTOR
1002
}
1001
GENIUS_GENOBJ-N-FIL_13
1002
{
1000
OWNER
1000
GEN
1002
}
  0
ARC
  5
2339A
330
235D7
100
AcDbEntity
  8
1
100
AcDbCircle
 10
81.98399999999997
 20
-28.2599999999996
 30
0.0
 40
0.7400000000000002
100
AcDbArc
 50
270.0
 51
0.0
1001
GENIUS_GENODEF_13
1002
{
1000
HIER
1070
     0
1002
}
1002
{
1000
MANEDIT
1070
     0
1002
}
1002
{
1000
NOSEL
1070
     0
1002
}
1002
{
1000
BEHIND
1070
     0
1002
}
1002
{
1000
OTHER
1070
     0
1002
}
1002
{
1000
REACTOR
1002
}
1001
GENIUS_GENOBJ-N-FIL_13
1002
{
1000
OWNER
1000
GEN
1002
}
  0
LINE
  5
2339B
330
235D7
100
AcDbEntity
  8
1
100
AcDbLine
 10
69.23999999999999
 20
-28.9999999999996
 30
0.0
 11
81.98399999999997
 21
-28.9999999999996
 31
0.0
  0
ARC
  5
2339C
330
235D7
100
AcDbEntity
  8
1
100
AcDbCircle
 10
69.23999999999999
 20
-28.2599999999996
 30
0.0
 40
0.7400000000000002
100
AcDbArc
 50
180.0
 51
270.0
1001
GENIUS_GENODEF_13
1002
{
1000
HIER
1070
     0
1002
}
1002
{
1000
MANEDIT
1070
     0
1002
}
1002
{
1000
NOSEL
1070
     0
1002
}
1002
{
1000
BEHIND
1070
     0
1002
}
1002
{
1000
OTHER
1070
     0
1002
}
1002
{
1000
REACTOR
1002
}
1001
GENIUS_GENOBJ-N-FIL_13
1002
{
1000
OWNER
1000
GEN
1002
}
  0
LINE
  5
2339D
330
235D7
100
AcDbEntity
  8
SK3
 48
0.3
100
AcDbLine
 10
69.23999999999994
 20
-14.77599999999959
 30
0.0
 11
81.98399999999997
 21
-14.77599999999959
 31
0.0
  0
CIRCLE
  5
2339E
330
235D7
100
AcDbEntity
  8
SK3
 48
0.3
100
AcDbCircle
 10
75.61199999999995
 20
-21.88799999999959
 30
0.0
 40
3.946031257147443
  0
LINE
  5
2339F
330
235D7
100
AcDbEntity
  8
CUT
100
AcDbLine
 10
80.77600000000002
 20
28.26000000000036
 30
0.0
 11
80.77600000000002
 21
15.51600000000035
 31
0.0
  0
ARC
  5
233A0
330
235D7
100
AcDbEntity
  8
CUT
100
AcDbCircle
 10
81.51599999999996
 20
28.26000000000036
 30
0.0
 40
0.7400000000000002
100
AcDbArc
 50
90.0
 51
180.0
1001
GENIUS_GENODEF_13
1002
{
1000
HIER
1070
     0
1002
}
1002
{
1000
MANEDIT
1070
     0
1002
}
1002
{
1000
NOSEL
1070
     0
1002
}
1002
{
1000
BEHIND
1070
     0
1002
}
1002
{
1000
OTHER
1070
     0
1002
}
1002
{
1000
REACTOR
1002
}
1001
GENIUS_GENOBJ-N-FIL_13
1002
{
1000
OWNER
1000
GEN
1002
}
  0
LINE
  5
233A1
330
235D7
100
AcDbEntity
  8
CUT
100
AcDbLine
 10
95.0
 20
28.26000000000036
 30
0.0
 11
95.0
 21
15.51600000000035
 31
0.0
  0
ARC
  5
233A2
330
235D7
100
AcDbEntity
  8
CUT
100
AcDbCircle
 10
94.26
 20
28.26000000000036
 30
0.0
 40
0.7400000000000002
100
AcDbArc
 50
0.0
 51
90.0
1001
GENIUS_GENODEF_13
1002
{
1000
HIER
1070
     0
1002
}
1002
{
1000
MANEDIT
1070
     0
1002
}
1002
{
1000
NOSEL
1070
     0
1002
}
1002
{
1000
BEHIND
1070
     0
1002
}
1002
{
1000
OTHER
1070
     0
1002
}
1002
{
1000
REACTOR
1002
}
1001
GENIUS_GENOBJ-N-FIL_13
1002
{
1000
OWNER
1000
GEN
1002
}
  0
ARC
  5
233A3
330
235D7
100
AcDbEntity
  8
CUT
100
AcDbCircle
 10
94.26
 20
15.51600000000035
 30
0.0
 40
0.7400000000000002
100
AcDbArc
 50
270.0
 51
0.0
1001
GENIUS_GENODEF_13
1002
{
1000
HIER
1070
     0
1002
}
1002
{
1000
MANEDIT
1070
     0
1002
}
1002
{
1000
NOSEL
1070
     0
1002
}
1002
{
1000
BEHIND
1070
     0
1002
}
1002
{
1000
OTHER
1070
     0
1002
}
1002
{
1000
REACTOR
1002
}
1001
GENIUS_GENOBJ-N-FIL_13
1002
{
1000
OWNER
1000
GEN
1002
}
  0
LINE
  5
233A4
330
235D7
100
AcDbEntity
  8
CUT
100
AcDbLine
 10
81.51600000000001
 20
14.77600000000035
 30
0.0
 11
94.26
 21
14.77600000000035
 31
0.0
  0
ARC
  5
233A5
330
235D7
100
AcDbEntity
  8
CUT
100
AcDbCircle
 10
81.51600000000001
 20
15.51600000000035
 30
0.0
 40
0.7400000000000002
100
AcDbArc
 50
180.0
 51
270.0
1001
GENIUS_GENODEF_13
1002
{
1000
HIER
1070
     0
1002
}
1002
{
1000
MANEDIT
1070
     0
1002
}
1002
{
1000
NOSEL
1070
     0
1002
}
1002
{
1000
BEHIND
1070
     0
1002
}
1002
{
1000
OTHER
1070
     0
1002
}
1002
{
1000
REACTOR
1002
}
1001
GENIUS_GENOBJ-N-FIL_13
1002
{
1000
OWNER
1000
GEN
1002
}
  0
LINE
  5
233A6
330
235D7
100
AcDbEntity
  8
CUT
100
AcDbLine
 10
81.51599999999996
 20
29.00000000000036
 30
0.0
 11
94.26
 21
29.00000000000036
 31
0.0
  0
LINE
  5
233A7
330
235D7
100
AcDbEntity
  8
1
100
AcDbLine
 10
94.10000000000001
 20
11.09299928738326
 30
0.0
 11
72.96520104517596
 21
11.09299928738326
 31
0.0
  0
ARC
  5
233A8
330
235D7
100
AcDbEntity
  8
1
100
AcDbCircle
 10
72.14060179974075
 20
17.34110450717533
 30
0.0
 40
6.302283931493828
100
AcDbArc
 50
187.6695941097167
 51
277.518212561161
  0
LINE
  5
233A9
330
235D7
100
AcDbEntity
  8
SK3
 48
0.3
100
AcDbLine
 10
94.09999999999996
 20
-7.092999287382808
 30
0.0
 11
72.96520104517594
 21
-7.09299928738276
 31
0.0
  0
ARC
  5
233AA
330
235D7
100
AcDbEntity
  8
SK3
 48
0.3
100
AcDbCircle
 10
77.56408244122086
 20
-17.82282024993002
 30
0.0
 40
11.67384974989859
100
AcDbArc
 50
113.200334986798
 51
173.4935636915669
  0
LINE
  5
233AB
330
235D7
100
AcDbEntity
  8
SK4
100
AcDbLine
 10
69.60198659094686
 20
1.012212975921847
 30
0.0
 11
79.76761685387669
 21
13.46051710003203
 31
0.0
  0
TEXT
  5
233AD
330
235D7
100
AcDbEntity
  8
6
100
AcDbText
 10
98.95741985313556
 20
33.92083085875774
 30
0.0
 40
2.5
  1
SHLT140508N
100
AcDbText
  0
LINE
  5
23449
330
235D7
100
AcDbEntity
  8
4
100
AcDbLine
 10
99.39264765131129
 20
0.0000000000003979
 30
0.0
 11
0.0000000000004263
 21
0.0000000000003979
 31
0.0
  0
TEXT
  5
23450
330
235D7
100
AcDbEntity
  8
6
100
AcDbText
 10
24.4095298625044
 20
-36.20546128873423
 30
0.0
 40
3.5
  1
15T1J058027Z5R00
100
AcDbText
  0
LINE
  5
23787
330
235D7
100
AcDbEntity
  8
SK4
100
AcDbLine
 10
69.60198659094676
 20
-1.012212975920696
 30
0.0
 11
79.76761685387581
 21
-13.46051710003128
 31
0.0
  0
LINE
  5
23903
330
235D7
100
AcDbEntity
  8
1
100
AcDbLine
 10
13.63231539149193
 20
38.00763456308916
 30
0.0
 11
15.92144247999796
 21
20.83918139953585
 31
0.0
  0
ARC
  5
23904
330
235D7
100
AcDbEntity
  8
1
100
AcDbCircle
 10
20.87758198340991
 20
21.50000000000009
 30
0.0
 40
5.0
100
AcDbArc
 50
187.5946433686971
 51
269.9999999999998
1001
GENIUS_GENOBJ-N-FIL_13
1002
{
1000
OWNER
1000
GEN
1002
}
1001
GENIUS_GENODEF_13
1002
{
1000
HIER
1070
     0
1002
}
1002
{
1000
MANEDIT
1070
     0
1002
}
1002
{
1000
NOSEL
1070
     0
1002
}
1002
{
1000
BEHIND
1070
     0
1002
}
1002
{
1000
OTHER
1070
     0
1002
}
1002
{
1000
REACTOR
1002
}
  0
LINE
  5
23906
330
235D7
100
AcDbEntity
  8
1
100
AcDbLine
 10
13.63231539149193
 20
-38.00763456308837
 30
0.0
 11
15.92144247999796
 21
-20.83918139953505
 31
0.0
  0
ARC
  5
23907
330
235D7
100
AcDbEntity
  8
1
100
AcDbCircle
 10
20.87758198340991
 20
-21.49999999999929
 30
0.0
 40
5.0
100
AcDbArc
 50
90.00000000000017
 51
172.4053566313028
1001
GENIUS_GENOBJ-N-FIL_13
1002
{
1000
OWNER
1000
GEN
1002
}
1001
GENIUS_GENODEF_13
1002
{
1000
HIER
1070
     0
1002
}
1002
{
1000
MANEDIT
1070
     0
1002
}
1002
{
1000
NOSEL
1070
     0
1002
}
1002
{
1000
BEHIND
1070
     0
1002
}
1002
{
1000
OTHER
1070
     0
1002
}
1002
{
1000
REACTOR
1002
}
  0
ARC
  5
23908
330
235D7
100
AcDbEntity
  8
1
100
AcDbCircle
 10
68.44999999999501
 20
-17.50000000000329
 30
0.0
 40
1.0
100
AcDbArc
 50
359.9999999999994
 51
89.99999999998371
1001
GENIUS_GENODEF_13
1002
{
1000
HIER
1070
     0
1002
}
1002
{
1000
MANEDIT
1070
     0
1002
}
1002
{
1000
NOSEL
1070
     0
1002
}
1002
{
1000
BEHIND
1070
     0
1002
}
1002
{
1000
OTHER
1070
     0
1002
}
1002
{
1000
REACTOR
1002
}
1001
GENIUS_GENOBJ-N-FIL_13
1002
{
1000
OWNER
1000
GEN
1002
}
  0
LINE
  5
23909
330
235D7
100
AcDbEntity
  8
1
100
AcDbLine
 10
20.87758198340513
 20
-16.49999999998966
 30
0.0
 11
68.44999999999529
 21
-16.50000000000329
 31
0.0
  0
LINE
  5
2390A
330
235D7
100
AcDbEntity
  8
1
100
AcDbLine
 10
0.0
 20
-38.99999999999923
 30
0.0
 11
12.63234453519339
 21
-38.99999999999923
 31
0.0
  0
ARC
  5
2390B
330
235D7
100
AcDbEntity
  8
1
100
AcDbCircle
 10
12.63234453519339
 20
-37.99999999999922
 30
0.0
 40
1.0
100
AcDbArc
 50
270.0
 51
359.5625675070902
1001
GENIUS_GENOBJ-N-FIL_13
1002
{
1000
OWNER
1000
GEN
1002
}
1001
GENIUS_GENODEF_13
1002
{
1000
HIER
1070
     0
1002
}
1002
{
1000
MANEDIT
1070
     0
1002
}
1002
{
1000
NOSEL
1070
     0
1002
}
1002
{
1000
BEHIND
1070
     0
1002
}
1002
{
1000
OTHER
1070
     0
1002
}
1002
{
1000
REACTOR
1002
}
  0
LINE
  5
2390C
330
235D7
100
AcDbEntity
  8
NOCUT
100
AcDbLine
 10
13.63231539149202
 20
-38.00763456308916
 30
0.0
 11
15.92144247999804
 21
-20.83918139953584
 31
0.0
  0
ARC
  5
2390D
330
235D7
100
AcDbEntity
  8
NOCUT
100
AcDbCircle
 10
20.87758198341
 20
-21.50000000000008
 30
0.0
 40
5.0
100
AcDbArc
 50
90.00000000000019
 51
172.4053566313027
1001
GENIUS_GENOBJ-N-FIL_13
1002
{
1000
OWNER
1000
GEN
1002
}
1001
GENIUS_GENODEF_13
1002
{
1000
HIER
1070
     0
1002
}
1002
{
1000
MANEDIT
1070
     0
1002
}
1002
{
1000
NOSEL
1070
     0
1002
}
1002
{
1000
BEHIND
1070
     0
1002
}
1002
{
1000
OTHER
1070
     0
1002
}
1002
{
1000
REACTOR
1002
}
  0
ARC
  5
2390E
330
235D7
100
AcDbEntity
  8
NOCUT
100
AcDbCircle
 10
68.4499999999951
 20
-17.50000000000408
 30
0.0
 40
1.0
100
AcDbArc
 50
359.9999999999994
 51
89.99999999998371
1001
GENIUS_GENODEF_13
1002
{
1000
HIER
1070
     0
1002
}
1002
{
1000
MANEDIT
1070
     0
1002
}
1002
{
1000
NOSEL
1070
     0
1002
}
1002
{
1000
BEHIND
1070
     0
1002
}
1002
{
1000
OTHER
1070
     0
1002
}
1002
{
1000
REACTOR
1002
}
1001
GENIUS_GENOBJ-N-FIL_13
1002
{
1000
OWNER
1000
GEN
1002
}
  0
LINE
  5
2390F
330
235D7
100
AcDbEntity
  8
NOCUT
100
AcDbLine
 10
20.87758198340522
 20
-16.49999999999045
 30
0.0
 11
68.44999999999538
 21
-16.50000000000408
 31
0.0
  0
LINE
  5
23910
330
235D7
100
AcDbEntity
  8
NOCUT
100
AcDbLine
 10
0.0000000000000853
 20
-39.00000000000002
 30
0.0
 11
12.63234453519348
 21
-39.00000000000002
 31
0.0
  0
ARC
  5
23911
330
235D7
100
AcDbEntity
  8
NOCUT
100
AcDbCircle
 10
12.63234453519348
 20
-38.00000000000002
 30
0.0
 40
1.0
100
AcDbArc
 50
270.0
 51
359.5625675070902
1001
GENIUS_GENOBJ-N-FIL_13
1002
{
1000
OWNER
1000
GEN
1002
}
1001
GENIUS_GENODEF_13
1002
{
1000
HIER
1070
     0
1002
}
1002
{
1000
MANEDIT
1070
     0
1002
}
1002
{
1000
NOSEL
1070
     0
1002
}
1002
{
1000
BEHIND
1070
     0
1002
}
1002
{
1000
OTHER
1070
     0
1002
}
1002
{
1000
REACTOR
1002
}
  0
DIMENSION
  5
23B7B
330
235D7
100
AcDbEntity
  8
2
100
AcDbDimension
  2
*D2
 10
117.3707830063888
 20
-28.99999999999962
 30
0.0
 11
114.1207830063888
 21
0.0000000000003893
 31
0.0
 70
    32
  1
%%c<>
 71
     5
 42
57.99999999999997
  3
AM_DIN$0
100
AcDbAlignedDimension
 13
95.0
 23
29.00000000000036
 33
0.0
 14
81.98399999999997
 24
-28.99999999999961
 34
0.0
 50
90.00000000000003
100
AcDbRotatedDimension
1001
ACAD
1000
DSTYLE
1002
{
1070
    41
1040
2.5
1070
    42
1040
0.0
1070
   178
1070
     2
1070
   271
1070
     4
1070
   272
1070
     4
1070
   279
1070
     0
1070
   284
1070
     0
1070
   285
1070
     0
1070
   286
1070
     0
1002
}
1001
ACAD_DSTYLE_DIMINSPECT
1070
   396
1000
100%
1070
   395
1000

1070
   394
1070
    33
1070
   393
1070
     0
  0
DIMENSION
  5
23BB5
330
235D7
100
AcDbEntity
  8
2
100
AcDbDimension
  2
*D3
 10
68.5
 20
45.00000000000039
 30
0.0
 11
82.25611881374176
 21
45.00000000000039
 31
0.0
 70
   160
 71
     5
 42
26.5
  3
AM_DIN$0
100
AcDbAlignedDimension
 13
95.0
 23
29.00000000000036
 33
0.0
 14
68.5
 24
29.0000000000004
 34
0.0
 50
0.0000000000000114
100
AcDbRotatedDimension
1001
ACAD
1000
DSTYLE
1002
{
1070
    41
1040
2.5
1070
    42
1040
0.0
1070
   178
1070
     2
1070
   271
1070
     4
1070
   272
1070
     4
1070
   279
1070
     0
1070
   284
1070
     0
1070
   285
1070
     0
1070
   286
1070
     0
1002
}
1001
ACAD_DSTYLE_DIMINSPECT
1070
   396
1000
100%
1070
   395
1000

1070
   394
1070
    33
1070
   393
1070
     0
  0
DIMENSION
  5
23BDD
330
235D7
100
AcDbEntity
  8
2
100
AcDbDimension
  2
*D4
 10
0.0000000000000022
 20
75.00000000000039
 30
0.0
 11
49.69632382565586
 21
75.00000000000039
 31
0.0
 70
   160
 71
     5
 42
95.0
  3
AM_DIN$0
100
AcDbAlignedDimension
 13
95.0
 23
29.00000000000036
 33
0.0
 14
0.0
 24
39.00000000000002
 34
0.0
 50
0.0000000000000114
100
AcDbRotatedDimension
1001
ACAD
1000
DSTYLE
1002
{
1070
    41
1040
2.5
1070
    42
1040
0.0
1070
   178
1070
     2
1070
   271
1070
     4
1070
   272
1070
     4
1070
   279
1070
     0
1070
   284
1070
     0
1070
   285
1070
     0
1070
   286
1070
     0
1002
}
1001
ACAD_DSTYLE_DIMINSPECT
1070
   396
1000
100%
1070
   395
1000

1070
   394
1070
    33
1070
   393
1070
     0
  0
DIMENSION
  5
23BFD
330
235D7
100
AcDbEntity
  8
2
100
AcDbDimension
  2
*D5
 10
20.0
 20
60.00000000000039
 30
0.0
 11
57.12913752632494
 21
60.00000000000039
 31
0.0
 70
   160
 71
     5
 42
75.0
  3
AM_DIN$0
100
AcDbAlignedDimension
 13
95.0
 23
29.00000000000036
 33
0.0
 14
20.0
 24
16.57761746078248
 34
0.0
 50
0.0000000000000114
100
AcDbRotatedDimension
1001
ACAD
1000
DSTYLE
1002
{
1070
    41
1040
2.5
1070
    42
1040
0.0
1070
   178
1070
     2
1070
   271
1070
     4
1070
   272
1070
     4
1070
   279
1070
     0
1070
   284
1070
     0
1070
   285
1070
     0
1070
   286
1070
     0
1002
}
1001
ACAD_DSTYLE_DIMINSPECT
1070
   396
1000
100%
1070
   395
1000

1070
   394
1070
    33
1070
   393
1070
     0
  0
DIMENSION
  5
23C6E
330
235D7
100
AcDbEntity
  8
2
100
AcDbDimension
  2
*D6
 10
57.26833337805943
 20
16.49999999999999
 30
0.0
 11
57.26833337805942
 21
6.99301985203283
 31
0.0
 70
   160
  1
%%c<>
 71
     5
 42
33.00000000000075
  3
AM_DIN$0
100
AcDbAlignedDimension
 13
59.61336803859343
 23
-16.50000000000076
 33
0.0
 14
59.61336803859351
 24
16.49999999999999
 34
0.0
 50
89.99999999998355
100
AcDbRotatedDimension
1001
ACAD
1000
DSTYLE
1002
{
1070
    41
1040
2.5
1070
    42
1040
0.0
1070
   178
1070
     2
1070
   271
1070
     4
1070
   272
1070
     4
1070
   279
1070
     0
1070
   284
1070
     0
1070
   285
1070
     0
1070
   286
1070
     0
1002
}
1001
ACAD_DSTYLE_DIMINSPECT
1070
   396
1000
100%
1070
   395
1000

1070
   394
1070
    33
1070
   393
1070
     0
  0
LINE
  5
23CBB
330
235D7
100
AcDbEntity
  8
1
100
AcDbLine
 10
13.3367469191015
 20
38.70980087457301
 30
0.0
 11
13.33674691910159
 21
-38.70980087457301
 31
0.0
  0
DIMENSION
  5
23D8C
330
235D7
100
AcDbEntity
  8
SK2
100
AcDbDimension
  2
*D9
 10
-76.99752210968428
 20
-38.9999999999992
 30
0.0
 11
-80.24752210968427
 21
0.0000000000004101
 31
0.0
 70
    32
  1
%%c<>
 71
     5
 42
77.99999999999925
  3
AM_DIN$0
100
AcDbAlignedDimension
 13
0.0
 23
39.00000000000002
 33
0.0
 14
0.0000000000000853
 24
-38.99999999999923
 34
0.0
 50
90.00000000000003
100
AcDbRotatedDimension
1001
ACAD
1000
DSTYLE
1002
{
1070
    41
1040
2.5
1070
    42
1040
0.0
1070
   178
1070
     2
1070
   271
1070
     4
1070
   272
1070
     4
1070
   279
1070
     0
1070
   284
1070
     0
1070
   285
1070
     0
1070
   286
1070
     0
1002
}
1001
ACAD_DSTYLE_DIMINSPECT
1070
   396
1000
100%
1070
   395
1000

1070
   394
1070
    33
1070
   393
1070
     0
  0
DIMENSION
  5
23DBD
330
235D7
100
AcDbEntity
  8
SK2
100
AcDbDimension
  2
*D10
 10
-62.43972246021054
 20
-18.50000000000028
 30
0.0
 11
-65.68972246021053
 21
0.0000000000003915
 31
0.0
 70
    32
  1
%%c<>
 71
     5
 42
37.00000000000136
  3
AM_DIN$0
100
AcDbAlignedDimension
 13
-41.49999999999709
 23
18.50000000000108
 33
0.0
 14
-41.49999999999709
 24
-18.50000000000028
 34
0.0
 50
90.0
100
AcDbRotatedDimension
1001
ACAD
1000
DSTYLE
1002
{
1070
   271
1070
     4
1070
   272
1070
     4
1070
   279
1070
     0
1070
   285
1070
     0
1002
}
1001
ACAD_DSTYLE_DIMINSPECT
1070
   396
1000
100%
1070
   395
1000

1070
   394
1070
    33
1070
   393
1070
     0
  0
ENDSEC
  0
SECTION
  2
OBJECTS
  0
DICTIONARY
  5
2356F
330
0
100
AcDbDictionary
281
     1
  3
ACAD_COLOR
350
235CD
  3
ACAD_GROUP
350
23570
  3
ACAD_LAYOUT
350
235CC
  3
ACAD_MATERIAL
350
23573
  3
ACAD_MLEADERSTYLE
350
235D0
  3
ACAD_MLINESTYLE
350
235C9
  3
ACAD_PLOTSETTINGS
350
235CB
  3
ACAD_PLOTSTYLENAME
350
23571
  3
ACAD_SCALELIST
350
2359D
  3
ACAD_TABLESTYLE
350
235CE
  3
ACAD_VISUALSTYLE
350
2358C
  3
ACDB_RECOMPOSE_DATA
350
23D33
  3
AcDbVariableDictionary
350
23D34
  3
AcmDictionary
350
236CD
  3
AcmSystemVariableManager
350
23E2D
  3
AMG
350
2367A
  3
AMGSNAPSETTINGS
350
23704
  0
DICTIONARY
  5
2370B
330
235BF
100
AcDbDictionary
280
     1
281
     1
  3
ADSK_XREC_LAYER_RECONCILED
360
2370C
  0
DICTIONARY
  5
2370D
330
235EB
100
AcDbDictionary
280
     1
281
     1
  3
ADSK_XREC_LAYER_RECONCILED
360
2370E
  0
DICTIONARY
  5
23711
330
235ED
100
AcDbDictionary
280
     1
281
     1
  3
ADSK_XREC_LAYER_RECONCILED
360
23712
  0
DICTIONARY
  5
23713
330
235EE
100
AcDbDictionary
280
     1
281
     1
  3
ADSK_XREC_LAYER_RECONCILED
360
23714
  0
DICTIONARY
  5
23715
330
235EF
100
AcDbDictionary
280
     1
281
     1
  3
ADSK_XREC_LAYER_RECONCILED
360
23716
  0
DICTIONARY
  5
23717
330
235F0
100
AcDbDictionary
280
     1
281
     1
  3
ADSK_XREC_LAYER_RECONCILED
360
23718
  0
DICTIONARY
  5
23719
330
235F1
100
AcDbDictionary
280
     1
281
     1
  3
ADSK_XREC_LAYER_RECONCILED
360
2371A
  0
DICTIONARY
  5
2371B
330
235F2
100
AcDbDictionary
280
     1
281
     1
  3
ADSK_XREC_LAYER_RECONCILED
360
2371C
  0
DICTIONARY
  5
2371D
330
235F3
100
AcDbDictionary
280
     1
281
     1
  3
ADSK_XREC_LAYER_RECONCILED
360
2371E
  0
DICTIONARY
  5
2371F
330
235F4
100
AcDbDictionary
280
     1
281
     1
  3
ADSK_XREC_LAYER_RECONCILED
360
23720
  0
DICTIONARY
  5
23721
330
235F5
100
AcDbDictionary
280
     1
281
     1
  3
ADSK_XREC_LAYER_RECONCILED
360
23722
  0
DICTIONARY
  5
239AC
330
239AB
100
AcDbDictionary
280
     1
281
     1
  0
DICTIONARY
  5
2373E
330
235D7
100
AcDbDictionary
280
     1
281
     1
  3
ACAD_SORTENTS
360
2373F
  0
DICTIONARY
  5
235CD
102
{ACAD_REACTORS
330
2356F
102
}
330
2356F
100
AcDbDictionary
281
     1
  0
DICTIONARY
  5
23570
102
{ACAD_REACTORS
330
2356F
102
}
330
2356F
100
AcDbDictionary
281
     1
  0
DICTIONARY
  5
235CC
102
{ACAD_REACTORS
330
2356F
102
}
330
2356F
100
AcDbDictionary
281
     1
  3
Layout1
350
235D6
  3
Model
350
235DA
  0
DICTIONARY
  5
23573
102
{ACAD_REACTORS
330
2356F
102
}
330
2356F
100
AcDbDictionary
281
     1
  3
ByBlock
350
2357C
  3
ByLayer
350
23574
  3
Global
350
23584
  0
DICTIONARY
  5
235D0
102
{ACAD_REACTORS
330
2356F
102
}
330
2356F
100
AcDbDictionary
281
     1
  3
Standard
350
235D1
  0
DICTIONARY
  5
235C9
102
{ACAD_REACTORS
330
2356F
102
}
330
2356F
100
AcDbDictionary
281
     1
  3
Standard
350
235CA
  0
DICTIONARY
  5
235CB
102
{ACAD_REACTORS
330
2356F
102
}
330
2356F
100
AcDbDictionary
281
     1
  0
ACDBDICTIONARYWDFLT
  5
23571
102
{ACAD_REACTORS
330
2356F
102
}
330
2356F
100
AcDbDictionary
281
     1
  3
Normal
350
23572
100
AcDbDictionaryWithDefault
340
23572
  0
DICTIONARY
  5
2359D
102
{ACAD_REACTORS
330
2356F
102
}
330
2356F
100
AcDbDictionary
281
     1
  3
A0
350
2359E
  3
A1
350
2359F
  3
A2
350
235A0
  3
A3
350
235A1
  3
A4
350
235A2
  3
A5
350
235A3
  3
A6
350
235A4
  3
A7
350
235A5
  3
A8
350
235A6
  3
A9
350
235A7
  3
B0
350
235A8
  3
B1
350
235A9
  3
B2
350
235AA
  3
B3
350
235AB
  3
B4
350
235AC
  3
B5
350
235AD
  3
B6
350
235AE
  3
B7
350
235AF
  3
B8
350
235B0
  3
B9
350
235B1
  3
C0
350
235B2
  3
C1
350
235B3
  3
C2
350
235B4
  3
C3
350
235B5
  3
C4
350
235B6
  3
C5
350
235B7
  3
C6
350
235B8
  3
C7
350
235B9
  3
C8
350
235BA
  3
C9
350
235BB
  3
D0
350
235BC
  3
D1
350
235BD
  3
D2
350
235BE
  0
DICTIONARY
  5
235CE
102
{ACAD_REACTORS
330
2356F
102
}
330
2356F
100
AcDbDictionary
281
     1
  3
Standard
350
235CF
  0
DICTIONARY
  5
2358C
102
{ACAD_REACTORS
330
2356F
102
}
330
2356F
100
AcDbDictionary
281
     1
  3
2dWireframe
350
23592
  3
3D Hidden
350
23594
  3
3dWireframe
350
23593
  3
Basic
350
23591
  3
Brighten
350
23598
  3
ColorChange
350
2359C
  3
Conceptual
350
23595
  3
Dim
350
23597
  3
Facepattern
350
2359B
  3
Flat
350
2358D
  3
FlatWithEdges
350
2358E
  3
Gouraud
350
2358F
  3
GouraudWithEdges
350
23590
  3
Linepattern
350
2359A
  3
Realistic
350
23596
  3
Thicken
350
23599
  0
XRECORD
  5
23D33
102
{ACAD_REACTORS
330
2356F
102
}
330
2356F
100
AcDbXrecord
280
     1
 90
        1
330
235CF
  0
DICTIONARY
  5
23D34
102
{ACAD_REACTORS
330
2356F
102
}
330
2356F
100
AcDbDictionary
281
     1
  3
CANNOSCALE
350
23D38
  3
CMLEADERSTYLE
350
23D36
  3
CTABLESTYLE
350
23D35
  3
LAYEREVAL
350
23D3A
  3
LAYERNOTIFY
350
23D3B
  3
LIGHTINGUNITS
350
23D39
  3
MSLTSCALE
350
23D37
  0
DICTIONARY
  5
236CD
102
{ACAD_REACTORS
330
2356F
102
}
330
2356F
100
AcDbDictionary
281
     1
  3
AcmStdDictionary
350
236D6
  3
AMDTSECTSYM_ARROWCOLOR
350
23D2F
  0
DICTIONARY
  5
2367A
102
{ACAD_REACTORS
330
2356F
102
}
330
2356F
100
AcDbDictionary
281
     1
  0
DICTIONARY
  5
23704
102
{ACAD_REACTORS
330
2356F
102
}
330
2356F
100
AcDbDictionary
281
     1
  0
XRECORD
  5
2370C
102
{ACAD_REACTORS
330
2370B
102
}
330
2370B
100
AcDbXrecord
280
     1
290
     1
  0
XRECORD
  5
2370E
102
{ACAD_REACTORS
330
2370D
102
}
330
2370D
100
AcDbXrecord
280
     1
290
     1
  0
XRECORD
  5
23712
102
{ACAD_REACTORS
330
23711
102
}
330
23711
100
AcDbXrecord
280
     1
290
     1
  0
XRECORD
  5
23714
102
{ACAD_REACTORS
330
23713
102
}
330
23713
100
AcDbXrecord
280
     1
290
     1
  0
XRECORD
  5
23716
102
{ACAD_REACTORS
330
23715
102
}
330
23715
100
AcDbXrecord
280
     1
290
     1
  0
XRECORD
  5
23718
102
{ACAD_REACTORS
330
23717
102
}
330
23717
100
AcDbXrecord
280
     1
290
     1
  0
XRECORD
  5
2371A
102
{ACAD_REACTORS
330
23719
102
}
330
23719
100
AcDbXrecord
280
     1
290
     1
  0
XRECORD
  5
2371C
102
{ACAD_REACTORS
330
2371B
102
}
330
2371B
100
AcDbXrecord
280
     1
290
     1
  0
XRECORD
  5
2371E
102
{ACAD_REACTORS
330
2371D
102
}
330
2371D
100
AcDbXrecord
280
     1
290
     1
  0
XRECORD
  5
23720
102
{ACAD_REACTORS
330
2371F
102
}
330
2371F
100
AcDbXrecord
280
     1
290
     1
  0
XRECORD
  5
23722
102
{ACAD_REACTORS
330
23721
102
}
330
23721
100
AcDbXrecord
280
     1
290
     1
  0
SORTENTSTABLE
  5
2373F
102
{ACAD_REACTORS
330
2373E
102
}
330
2373E
100
AcDbSortentsTable
330
235D7
331
23392
  5
23392
331
2339A
  5
2339A
331
233A2
  5
233A4
331
2315B
  5
2315B
331
233AA
  5
233AC
331
E692
  5
E692
331
E65B
  5
E65B
331
E69A
  5
E69A
331
2390A
  5
2390E
331
E663
  5
E663
331
15202
  5
15202
331
E66B
  5
E66B
331
2316B
  5
2316B
331
23173
  5
23173
331
23383
  5
23382
331
2338B
  5
2338B
331
E67B
  5
E67B
331
E683
  5
E683
331
E68B
  5
E68B
331
23393
  5
23393
331
2339B
  5
2339B
331
2315C
  5
2315C
331
233A3
  5
233A5
331
233AB
  5
233AD
331
E654
  5
E654
331
E693
  5
E693
331
23903
  5
23907
331
E65C
  5
E65C
331
E664
  5
E664
331
2390B
  5
2390F
331
E66C
  5
E66C
331
23174
  5
23174
331
23384
  5
23384
331
2338C
  5
2338C
331
E67C
  5
E67C
331
23B7B
  5
23BFD
331
E68C
  5
E68C
331
23394
  5
23394
331
2339C
  5
2339C
331
233A4
  5
233A6
331
2315D
  5
2315D
331
E655
  5
E655
331
23904
  5
23908
331
E65D
  5
E65D
331
2390C
  5
23910
331
E665
  5
E665
331
E66D
  5
E66D
331
23385
  5
23385
331
2338D
  5
2338D
331
E675
  5
E675
331
E67D
  5
E67D
331
E68D
  5
E68D
331
23CBB
  5
23CCC
331
23395
  5
23395
331
2339D
  5
2339D
331
23156
  5
23156
331
233A5
  5
233A7
331
2315E
  5
2315E
331
233AD
  5
23450
331
E656
  5
E656
331
E65E
  5
E65E
331
2390D
  5
23911
331
E666
  5
E666
331
E66E
  5
E66E
331
23386
  5
23386
331
2338E
  5
2338E
331
E676
  5
E676
331
E67E
  5
E67E
331
23BB5
  5
23C6E
331
23396
  5
23396
331
2339E
  5
2339E
331
23157
  5
23158
331
233A6
  5
233A8
331
2315F
  5
2315F
331
E696
  5
E696
331
23906
  5
2390A
331
E65F
  5
E65F
331
23BDD
  5
23CBB
331
2390E
  5
23A4E
331
E667
  5
E667
331
E66F
  5
E66F
331
23BFD
  5
23CCA
331
23387
  5
23387
331
2338F
  5
2338F
331
E677
  5
E677
331
E67F
  5
E67F
331
E687
  5
E687
331
23787
  5
23906
331
23397
  5
23397
331
23158
  5
23159
331
2339F
  5
2339F
331
233A7
  5
233A9
331
E697
  5
E697
331
23907
  5
2390B
331
E660
  5
E660
331
2390F
  5
23BB5
331
E668
  5
E668
331
23168
  5
23168
331
23380
  5
2337D
331
23388
  5
23388
331
E670
  5
E670
331
E678
  5
E678
331
E680
  5
E680
331
E688
  5
E688
331
23C6E
  5
23CCB
331
23390
  5
23390
331
23398
  5
23398
331
233A0
  5
233A0
331
233A8
  5
233AA
331
23161
  5
23160
331
E659
  5
E659
331
E698
  5
E698
331
23908
  5
2390C
331
E661
  5
E661
331
E669
  5
E669
331
23910
  5
23BDD
331
23169
  5
23169
331
23450
  5
23904
331
23381
  5
23381
331
23389
  5
23389
331
E679
  5
E679
331
E681
  5
E681
331
E689
  5
E689
331
23391
  5
23391
331
23399
  5
23399
331
2315A
  5
23909
331
233A1
  5
233A1
331
233A9
  5
233AB
331
E691
  5
E691
331
E699
  5
E699
331
E65A
  5
E65A
331
23909
  5
2390D
331
E662
  5
E662
331
23911
  5
23BFC
331
E66A
  5
E66A
331
152F9
  5
152F9
331
23449
  5
2373D
331
2316A
  5
2316A
331
23172
  5
23172
331
2338A
  5
2338A
331
E67A
  5
E67A
331
E682
  5
E682
331
E68A
  5
E68A
  0
LAYOUT
  5
235D6
102
{ACAD_REACTORS
330
235CC
102
}
330
235CC
100
AcDbPlotSettings
  1

  2
C:\Dokumente und Einstellungen\Bernd Dutschke\Anwendungsdaten\Autodesk\Autodesk Mechanical Desktop 2009\R17.2\deu\plotters\Default Windows System Printer.pc3
  4

  6

 40
0.0
 41
0.0
 42
0.0
 43
0.0
 44
0.0
 45
0.0
 46
0.0
 47
0.0
 48
0.0
 49
0.0
140
0.0
141
0.0
142
1.0
143
1.0
 70
   688
 72
     0
 73
     0
 74
     5
  7

 75
    16
147
1.0
 76
     0
 77
     2
 78
   300
148
0.0
149
0.0
100
AcDbLayout
  1
Layout1
 70
     1
 71
     1
 10
0.0
 20
0.0
 11
420.0
 21
297.0
 12
0.0
 22
0.0
 32
0.0
 14
1.000000000000000E+20
 24
1.000000000000000E+20
 34
1.000000000000000E+20
 15
-1.000000000000000E+20
 25
-1.000000000000000E+20
 35
-1.000000000000000E+20
146
0.0
 13
0.0
 23
0.0
 33
0.0
 16
1.0
 26
0.0
 36
0.0
 17
0.0
 27
1.0
 37
0.0
 76
     0
330
235D3
  0
LAYOUT
  5
235DA
102
{ACAD_REACTORS
330
235CC
102
}
330
235CC
100
AcDbPlotSettings
  1

  2
C:\Dokumente und Einstellungen\Bernd Dutschke\Anwendungsdaten\Autodesk\Autodesk Mechanical Desktop 2009\R17.2\deu\plotters\Default Windows System Printer.pc3
  4

  6

 40
0.0
 41
0.0
 42
0.0
 43
0.0
 44
0.0
 45
0.0
 46
0.0
 47
0.0
 48
0.0
 49
0.0
140
0.0
141
0.0
142
1.0
143
1.0
 70
  1712
 72
     0
 73
     0
 74
     0
  7

 75
     0
147
1.0
 76
     0
 77
     2
 78
   300
148
0.0
149
0.0
100
AcDbLayout
  1
Model
 70
     1
 71
     0
 10
0.0
 20
0.0
 11
12.0
 21
9.0
 12
0.0
 22
0.0
 32
0.0
 14
0.0
 24
0.0
 34
0.0
 15
0.0
 25
0.0
 35
0.0
146
0.0
 13
0.0
 23
0.0
 33
0.0
 16
1.0
 26
0.0
 36
0.0
 17
0.0
 27
1.0
 37
0.0
 76
     0
330
235D7
331
235DB
  0
MATERIAL
  5
2357C
102
{ACAD_XDICTIONARY
360
2357D
102
}
102
{ACAD_REACTORS
330
23573
102
}
330
23573
100
AcDbMaterial
  1
ByBlock
 72
     0
 43
0.0208333333333333
 43
0.0
 43
0.0
 43
0.0
 43
0.0
 43
0.0208333333333333
 43
0.0
 43
0.0
 43
0.0
 43
0.0
 43
1.0
 43
0.0
 43
0.0
 43
0.0
 43
0.0
 43
1.0
 77
     0
 47
0.0208333333333333
 47
0.0
 47
0.0
 47
0.0
 47
0.0
 47
0.0208333333333333
 47
0.0
 47
0.0
 47
0.0
 47
0.0
 47
1.0
 47
0.0
 47
0.0
 47
0.0
 47
0.0
 47
1.0
171
     0
 49
0.0208333333333333
 49
0.0
 49
0.0
 49
0.0
 49
0.0
 49
0.0208333333333333
 49
0.0
 49
0.0
 49
0.0
 49
0.0
 49
1.0
 49
0.0
 49
0.0
 49
0.0
 49
0.0
 49
1.0
175
     0
142
0.0208333333333333
142
0.0
142
0.0
142
0.0
142
0.0
142
0.0208333333333333
142
0.0
142
0.0
142
0.0
142
0.0
142
1.0
142
0.0
142
0.0
142
0.0
142
0.0
142
1.0
179
     0
144
0.0208333333333333
144
0.0
144
0.0
144
0.0
144
0.0
144
0.0208333333333333
144
0.0
144
0.0
144
0.0
144
0.0
144
1.0
144
0.0
144
0.0
144
0.0
144
0.0
144
1.0
147
0.0208333333333333
147
0.0
147
0.0
147
0.0
147
0.0
147
0.0208333333333333
147
0.0
147
0.0
147
0.0
147
0.0
147
1.0
147
0.0
147
0.0
147
0.0
147
0.0
147
1.0
  0
MATERIAL
  5
23574
102
{ACAD_XDICTIONARY
360
23575
102
}
102
{ACAD_REACTORS
330
23573
102
}
330
23573
100
AcDbMaterial
  1
ByLayer
 72
     0
 43
0.0208333333333333
 43
0.0
 43
0.0
 43
0.0
 43
0.0
 43
0.0208333333333333
 43
0.0
 43
0.0
 43
0.0
 43
0.0
 43
1.0
 43
0.0
 43
0.0
 43
0.0
 43
0.0
 43
1.0
 77
     0
 47
0.0208333333333333
 47
0.0
 47
0.0
 47
0.0
 47
0.0
 47
0.0208333333333333
 47
0.0
 47
0.0
 47
0.0
 47
0.0
 47
1.0
 47
0.0
 47
0.0
 47
0.0
 47
0.0
 47
1.0
171
     0
 49
0.0208333333333333
 49
0.0
 49
0.0
 49
0.0
 49
0.0
 49
0.0208333333333333
 49
0.0
 49
0.0
 49
0.0
 49
0.0
 49
1.0
 49
0.0
 49
0.0
 49
0.0
 49
0.0
 49
1.0
175
     0
142
0.0208333333333333
142
0.0
142
0.0
142
0.0
142
0.0
142
0.0208333333333333
142
0.0
142
0.0
142
0.0
142
0.0
142
1.0
142
0.0
142
0.0
142
0.0
142
0.0
142
1.0
179
     0
144
0.0208333333333333
144
0.0
144
0.0
144
0.0
144
0.0
144
0.0208333333333333
144
0.0
144
0.0
144
0.0
144
0.0
144
1.0
144
0.0
144
0.0
144
0.0
144
0.0
144
1.0
147
0.0208333333333333
147
0.0
147
0.0
147
0.0
147
0.0
147
0.0208333333333333
147
0.0
147
0.0
147
0.0
147
0.0
147
1.0
147
0.0
147
0.0
147
0.0
147
0.0
147
1.0
  0
MATERIAL
  5
23584
102
{ACAD_XDICTIONARY
360
23585
102
}
102
{ACAD_REACTORS
330
23573
102
}
330
23573
100
AcDbMaterial
  1
Global
 72
     0
 43
0.0208333333333333
 43
0.0
 43
0.0
 43
0.0
 43
0.0
 43
0.0208333333333333
 43
0.0
 43
0.0
 43
0.0
 43
0.0
 43
1.0
 43
0.0
 43
0.0
 43
0.0
 43
0.0
 43
1.0
 77
     0
 47
0.0208333333333333
 47
0.0
 47
0.0
 47
0.0
 47
0.0
 47
0.0208333333333333
 47
0.0
 47
0.0
 47
0.0
 47
0.0
 47
1.0
 47
0.0
 47
0.0
 47
0.0
 47
0.0
 47
1.0
171
     0
 49
0.0208333333333333
 49
0.0
 49
0.0
 49
0.0
 49
0.0
 49
0.0208333333333333
 49
0.0
 49
0.0
 49
0.0
 49
0.0
 49
1.0
 49
0.0
 49
0.0
 49
0.0
 49
0.0
 49
1.0
175
     0
142
0.0208333333333333
142
0.0
142
0.0
142
0.0
142
0.0
142
0.0208333333333333
142
0.0
142
0.0
142
0.0
142
0.0
142
1.0
142
0.0
142
0.0
142
0.0
142
0.0
142
1.0
179
     0
144
0.0208333333333333
144
0.0
144
0.0
144
0.0
144
0.0
144
0.0208333333333333
144
0.0
144
0.0
144
0.0
144
0.0
144
1.0
144
0.0
144
0.0
144
0.0
144
0.0
144
1.0
147
0.0208333333333333
147
0.0
147
0.0
147
0.0
147
0.0
147
0.0208333333333333
147
0.0
147
0.0
147
0.0
147
0.0
147
1.0
147
0.0
147
0.0
147
0.0
147
0.0
147
1.0
  0
MLEADERSTYLE
  5
235D1
102
{ACAD_REACTORS
330
235D0
102
}
330
235D0
100
AcDbMLeaderStyle
170
     2
171
     1
172
     0
 90
        2
 40
0.0
 41
0.0
173
     1
 91
-1056964608
340
235C5
 92
       -2
290
     1
 42
0.09
291
     1
 43
0.36
  3
Standard
 44
0.18
300

342
235C0
174
     1
178
     6
175
     1
176
     0
 93
-1056964608
 45
0.18
292
     0
297
     0
 46
0.18
 94
-1056964608
 47
1.0
 49
1.0
140
1.0
293
     1
141
0.0
294
     1
177
     0
142
1.0
295
     0
296
     0
143
0.125
1001
ACAD_MLEADERVER
1070
     2
  0
MLINESTYLE
  5
235CA
102
{ACAD_REACTORS
330
235C9
102
}
330
235C9
100
AcDbMlineStyle
  2
STANDARD
 70
     0
  3

 62
   256
 51
90.0
 52
90.0
 71
     2
 49
0.5
 62
   256
  6
BYLAYER
 49
-0.5
 62
   256
  6
BYLAYER
  0
ACDBPLACEHOLDER
  5
23572
102
{ACAD_REACTORS
330
23571
102
}
330
23571
  0
SCALE
  5
2359E
102
{ACAD_REACTORS
330
2359D
102
}
330
2359D
100
AcDbScale
 70
     0
300
1:1
140
1.0
141
1.0
290
     1
  0
SCALE
  5
2359F
102
{ACAD_REACTORS
330
2359D
102
}
330
2359D
100
AcDbScale
 70
     0
300
1:2
140
1.0
141
2.0
290
     0
  0
SCALE
  5
235A0
102
{ACAD_REACTORS
330
2359D
102
}
330
2359D
100
AcDbScale
 70
     0
300
1:4
140
1.0
141
4.0
290
     0
  0
SCALE
  5
235A1
102
{ACAD_REACTORS
330
2359D
102
}
330
2359D
100
AcDbScale
 70
     0
300
1:5
140
1.0
141
5.0
290
     0
  0
SCALE
  5
235A2
102
{ACAD_REACTORS
330
2359D
102
}
330
2359D
100
AcDbScale
 70
     0
300
1:8
140
1.0
141
8.0
290
     0
  0
SCALE
  5
235A3
102
{ACAD_REACTORS
330
2359D
102
}
330
2359D
100
AcDbScale
 70
     0
300
1:10
140
1.0
141
10.0
290
     0
  0
SCALE
  5
235A4
102
{ACAD_REACTORS
330
2359D
102
}
330
2359D
100
AcDbScale
 70
     0
300
1:16
140
1.0
141
16.0
290
     0
  0
SCALE
  5
235A5
102
{ACAD_REACTORS
330
2359D
102
}
330
2359D
100
AcDbScale
 70
     0
300
1:20
140
1.0
141
20.0
290
     0
  0
SCALE
  5
235A6
102
{ACAD_REACTORS
330
2359D
102
}
330
2359D
100
AcDbScale
 70
     0
300
1:30
140
1.0
141
30.0
290
     0
  0
SCALE
  5
235A7
102
{ACAD_REACTORS
330
2359D
102
}
330
2359D
100
AcDbScale
 70
     0
300
1:40
140
1.0
141
40.0
290
     0
  0
SCALE
  5
235A8
102
{ACAD_REACTORS
330
2359D
102
}
330
2359D
100
AcDbScale
 70
     0
300
1:50
140
1.0
141
50.0
290
     0
  0
SCALE
  5
235A9
102
{ACAD_REACTORS
330
2359D
102
}
330
2359D
100
AcDbScale
 70
     0
300
1:100
140
1.0
141
100.0
290
     0
  0
SCALE
  5
235AA
102
{ACAD_REACTORS
330
2359D
102
}
330
2359D
100
AcDbScale
 70
     0
300
2:1
140
2.0
141
1.0
290
     0
  0
SCALE
  5
235AB
102
{ACAD_REACTORS
330
2359D
102
}
330
2359D
100
AcDbScale
 70
     0
300
4:1
140
4.0
141
1.0
290
     0
  0
SCALE
  5
235AC
102
{ACAD_REACTORS
330
2359D
102
}
330
2359D
100
AcDbScale
 70
     0
300
8:1
140
8.0
141
1.0
290
     0
  0
SCALE
  5
235AD
102
{ACAD_REACTORS
330
2359D
102
}
330
2359D
100
AcDbScale
 70
     0
300
10:1
140
10.0
141
1.0
290
     0
  0
SCALE
  5
235AE
102
{ACAD_REACTORS
330
2359D
102
}
330
2359D
100
AcDbScale
 70
     0
300
100:1
140
100.0
141
1.0
290
     0
  0
SCALE
  5
235AF
102
{ACAD_REACTORS
330
2359D
102
}
330
2359D
100
AcDbScale
 70
     0
300
1/128" = 1'-0"
140
0.0078125
141
12.0
290
     0
  0
SCALE
  5
235B0
102
{ACAD_REACTORS
330
2359D
102
}
330
2359D
100
AcDbScale
 70
     0
300
1/64" = 1'-0"
140
0.015625
141
12.0
290
     0
  0
SCALE
  5
235B1
102
{ACAD_REACTORS
330
2359D
102
}
330
2359D
100
AcDbScale
 70
     0
300
1/32" = 1'-0"
140
0.03125
141
12.0
290
     0
  0
SCALE
  5
235B2
102
{ACAD_REACTORS
330
2359D
102
}
330
2359D
100
AcDbScale
 70
     0
300
1/16" = 1'-0"
140
0.0625
141
12.0
290
     0
  0
SCALE
  5
235B3
102
{ACAD_REACTORS
330
2359D
102
}
330
2359D
100
AcDbScale
 70
     0
300
3/32" = 1'-0"
140
0.09375
141
12.0
290
     0
  0
SCALE
  5
235B4
102
{ACAD_REACTORS
330
2359D
102
}
330
2359D
100
AcDbScale
 70
     0
300
1/8" = 1'-0"
140
0.125
141
12.0
290
     0
  0
SCALE
  5
235B5
102
{ACAD_REACTORS
330
2359D
102
}
330
2359D
100
AcDbScale
 70
     0
300
3/16" = 1'-0"
140
0.1875
141
12.0
290
     0
  0
SCALE
  5
235B6
102
{ACAD_REACTORS
330
2359D
102
}
330
2359D
100
AcDbScale
 70
     0
300
1/4" = 1'-0"
140
0.25
141
12.0
290
     0
  0
SCALE
  5
235B7
102
{ACAD_REACTORS
330
2359D
102
}
330
2359D
100
AcDbScale
 70
     0
300
3/8" = 1'-0"
140
0.375
141
12.0
290
     0
  0
SCALE
  5
235B8
102
{ACAD_REACTORS
330
2359D
102
}
330
2359D
100
AcDbScale
 70
     0
300
1/2" = 1'-0"
140
0.5
141
12.0
290
     0
  0
SCALE
  5
235B9
102
{ACAD_REACTORS
330
2359D
102
}
330
2359D
100
AcDbScale
 70
     0
300
3/4" = 1'-0"
140
0.75
141
12.0
290
     0
  0
SCALE
  5
235BA
102
{ACAD_REACTORS
330
2359D
102
}
330
2359D
100
AcDbScale
 70
     0
300
1" = 1'-0"
140
1.0
141
12.0
290
     0
  0
SCALE
  5
235BB
102
{ACAD_REACTORS
330
2359D
102
}
330
2359D
100
AcDbScale
 70
     0
300
1-1/2" = 1'-0"
140
1.5
141
12.0
290
     0
  0
SCALE
  5
235BC
102
{ACAD_REACTORS
330
2359D
102
}
330
2359D
100
AcDbScale
 70
     0
300
3" = 1'-0"
140
3.0
141
12.0
290
     0
  0
SCALE
  5
235BD
102
{ACAD_REACTORS
330
2359D
102
}
330
2359D
100
AcDbScale
 70
     0
300
6" = 1'-0"
140
6.0
141
12.0
290
     0
  0
SCALE
  5
235BE
102
{ACAD_REACTORS
330
2359D
102
}
330
2359D
100
AcDbScale
 70
     0
300
1'-0" = 1'-0"
140
12.0
141
12.0
290
     0
  0
TABLESTYLE
  5
235CF
102
{ACAD_XDICTIONARY
360
23D31
102
}
102
{ACAD_REACTORS
330
235CE
102
}
330
235CE
100
AcDbTableStyle
  3
Standard
 70
     0
 71
     0
 40
0.06
 41
0.06
280
     0
281
     0
  7
STANDARD
140
0.18
170
     2
 62
     0
 63
     7
283
     0
274
    -2
284
     1
 64
     0
275
    -2
285
     1
 65
     0
276
    -2
286
     1
 66
     0
277
    -2
287
     1
 67
     0
278
    -2
288
     1
 68
     0
279
    -2
289
     1
 69
     0
  7
STANDARD
140
0.25
170
     5
 62
     0
 63
     7
283
     0
274
    -2
284
     1
 64
     0
275
    -2
285
     1
 65
     0
276
    -2
286
     1
 66
     0
277
    -2
287
     1
 67
     0
278
    -2
288
     1
 68
     0
279
    -2
289
     1
 69
     0
  7
STANDARD
140
0.18
170
     5
 62
     0
 63
     7
283
     0
274
    -2
284
     1
 64
     0
275
    -2
285
     1
 65
     0
276
    -2
286
     1
 66
     0
277
    -2
287
     1
 67
     0
278
    -2
288
     1
 68
     0
279
    -2
289
     1
 69
     0
  0
VISUALSTYLE
  5
23592
102
{ACAD_REACTORS
330
2358C
102
}
330
2358C
100
AcDbVisualStyle
  2
2dWireframe
 70
     4
 71
     0
 72
     2
 73
     0
 90
        0
 40
-0.6
 41
-30.0
 62
     5
 63
     7
421
 16777215
 74
     1
 91
        4
 64
     7
 65
   257
 75
     1
175
     1
 42
1.0
 92
        0
 66
   257
 43
1.0
 76
     1
 77
     6
 78
     2
 67
     7
 79
     5
170
     0
171
     0
290
     0
174
     0
 93
        1
 44
0.0
173
     0
291
     0
 45
0.0
1001
ACAD
1000
AcDbSavedByObjectVersion
1070
     0
  0
VISUALSTYLE
  5
23594
102
{ACAD_REACTORS
330
2358C
102
}
330
2358C
100
AcDbVisualStyle
  2
3D Hidden
 70
     6
 71
     1
 72
     2
 73
     2
 90
        0
 40
-0.6
 41
-30.0
 62
     5
 63
     7
421
 16777215
 74
     2
 91
        2
 64
     7
 65
   257
 75
     2
175
     1
 42
40.0
 92
        0
 66
   257
 43
1.0
 76
     1
 77
     6
 78
     2
 67
     7
 79
     3
170
     0
171
     0
290
     0
174
     0
 93
        1
 44
0.0
173
     0
291
     0
 45
0.0
1001
ACAD
1000
AcDbSavedByObjectVersion
1070
     0
  0
VISUALSTYLE
  5
23593
102
{ACAD_REACTORS
330
2358C
102
}
330
2358C
100
AcDbVisualStyle
  2
3dWireframe
 70
     5
 71
     0
 72
     2
 73
     0
 90
        0
 40
-0.6
 41
-30.0
 62
     5
 63
     7
421
 16777215
 74
     1
 91
        4
 64
     7
 65
   257
 75
     1
175
     1
 42
1.0
 92
        0
 66
   257
 43
1.0
 76
     1
 77
     6
 78
     2
 67
     7
 79
     5
170
     0
171
     0
290
     0
174
     0
 93
        1
 44
0.0
173
     0
291
     0
 45
0.0
1001
ACAD
1000
AcDbSavedByObjectVersion
1070
     0
  0
VISUALSTYLE
  5
23591
102
{ACAD_REACTORS
330
2358C
102
}
330
2358C
100
AcDbVisualStyle
  2
Basic
 70
     7
 71
     1
 72
     0
 73
     1
 90
        0
 40
-0.6
 41
-30.0
 62
     5
 63
     7
421
 16777215
 74
     0
 91
        4
 64
     7
 65
   257
 75
     1
175
     1
 42
1.0
 92
        8
 66
     7
 43
1.0
 76
     1
 77
     6
 78
     2
 67
     7
 79
     5
170
     0
171
     0
290
     0
174
     0
 93
        1
 44
0.0
173
     0
291
     1
 45
0.0
1001
ACAD
1000
AcDbSavedByObjectVersion
1070
     0
  0
VISUALSTYLE
  5
23598
102
{ACAD_REACTORS
330
2358C
102
}
330
2358C
100
AcDbVisualStyle
  2
Brighten
 70
    12
 71
     2
 72
     2
 73
     0
 90
        0
 40
-0.6
 41
-30.0
 62
     5
 63
     7
421
 16777215
 74
     1
 91
        4
 64
     7
 65
   257
 75
     1
175
     1
 42
1.0
 92
        8
 66
     7
 43
1.0
 76
     1
 77
     6
 78
     2
 67
     7
 79
     5
170
     0
171
     0
290
     0
174
     0
 93
        1
 44
50.0
173
     0
291
     1
 45
0.0
1001
ACAD
1000
AcDbSavedByObjectVersion
1070
     0
  0
VISUALSTYLE
  5
2359C
102
{ACAD_REACTORS
330
2358C
102
}
330
2358C
100
AcDbVisualStyle
  2
ColorChange
 70
    16
 71
     2
 72
     2
 73
     3
 90
        0
 40
-0.6
 41
-30.0
 62
     5
 63
     8
421
  8421504
 74
     1
 91
        4
 64
     7
 65
   257
 75
     1
175
     1
 42
1.0
 92
        8
 66
     8
424
  8421504
 43
1.0
 76
     1
 77
     6
 78
     2
 67
     7
 79
     5
170
     0
171
     0
290
     0
174
     0
 93
        1
 44
0.0
173
     0
291
     1
 45
0.0
1001
ACAD
1000
AcDbSavedByObjectVersion
1070
     0
  0
VISUALSTYLE
  5
23595
102
{ACAD_REACTORS
330
2358C
102
}
330
2358C
100
AcDbVisualStyle
  2
Conceptual
 70
     9
 71
     3
 72
     2
 73
     0
 90
        0
 40
-0.6
 41
-30.0
 62
     5
 63
     7
421
 16777215
 74
     2
 91
        2
 64
     7
 65
   257
 75
     1
175
     1
 42
40.0
 92
        8
 66
     7
 43
1.0
 76
     1
 77
     6
 78
     2
 67
     7
 79
     3
170
     0
171
     0
290
     0
174
     0
 93
        1
 44
0.0
173
     0
291
     0
 45
0.0
1001
ACAD
1000
AcDbSavedByObjectVersion
1070
     0
  0
VISUALSTYLE
  5
23597
102
{ACAD_REACTORS
330
2358C
102
}
330
2358C
100
AcDbVisualStyle
  2
Dim
 70
    11
 71
     2
 72
     2
 73
     0
 90
        0
 40
-0.6
 41
-30.0
 62
     5
 63
     7
421
 16777215
 74
     1
 91
        4
 64
     7
 65
   257
 75
     1
175
     1
 42
1.0
 92
        8
 66
     7
 43
1.0
 76
     1
 77
     6
 78
     2
 67
     7
 79
     5
170
     0
171
     0
290
     0
174
     0
 93
        1
 44
-50.0
173
     0
291
     1
 45
0.0
1001
ACAD
1000
AcDbSavedByObjectVersion
1070
     0
  0
VISUALSTYLE
  5
2359B
102
{ACAD_REACTORS
330
2358C
102
}
330
2358C
100
AcDbVisualStyle
  2
Facepattern
 70
    15
 71
     2
 72
     2
 73
     0
 90
        0
 40
-0.6
 41
-30.0
 62
     5
 63
     7
421
 16777215
 74
     1
 91
        4
 64
     7
 65
   257
 75
     1
175
     1
 42
1.0
 92
        8
 66
     7
 43
1.0
 76
     1
 77
     6
 78
     2
 67
     7
 79
     5
170
     0
171
     0
290
     0
174
     0
 93
        1
 44
0.0
173
     0
291
     1
 45
0.0
1001
ACAD
1000
AcDbSavedByObjectVersion
1070
     0
  0
VISUALSTYLE
  5
2358D
102
{ACAD_REACTORS
330
2358C
102
}
330
2358C
100
AcDbVisualStyle
  2
Flat
 70
     0
 71
     2
 72
     1
 73
     1
 90
        2
 40
-0.6
 41
30.0
 62
     5
 63
     7
421
 16777215
 74
     0
 91
        4
 64
     7
 65
   257
 75
     1
175
     1
 42
1.0
 92
        8
 66
     7
 43
1.0
 76
     1
 77
     6
 78
     2
 67
     7
 79
     5
170
     0
171
     0
290
     0
174
     0
 93
       13
 44
0.0
173
     0
291
     1
 45
0.0
1001
ACAD
1000
AcDbSavedByObjectVersion
1070
     0
  0
VISUALSTYLE
  5
2358E
102
{ACAD_REACTORS
330
2358C
102
}
330
2358C
100
AcDbVisualStyle
  2
FlatWithEdges
 70
     1
 71
     2
 72
     1
 73
     1
 90
        2
 40
-0.6
 41
30.0
 62
     5
 63
     7
421
 16777215
 74
     1
 91
        4
 64
     7
 65
   257
 75
     1
175
     1
 42
1.0
 92
        0
 66
   257
 43
1.0
 76
     1
 77
     6
 78
     2
 67
     7
 79
     5
170
     0
171
     0
290
     0
174
     0
 93
       13
 44
0.0
173
     0
291
     1
 45
0.0
1001
ACAD
1000
AcDbSavedByObjectVersion
1070
     0
  0
VISUALSTYLE
  5
2358F
102
{ACAD_REACTORS
330
2358C
102
}
330
2358C
100
AcDbVisualStyle
  2
Gouraud
 70
     2
 71
     2
 72
     2
 73
     1
 90
        2
 40
-0.6
 41
30.0
 62
     5
 63
     7
421
 16777215
 74
     0
 91
        4
 64
     7
 65
   257
 75
     1
175
     1
 42
1.0
 92
        0
 66
     7
 43
1.0
 76
     1
 77
     6
 78
     2
 67
     7
 79
     5
170
     0
171
     0
290
     0
174
     0
 93
       13
 44
0.0
173
     0
291
     1
 45
0.0
1001
ACAD
1000
AcDbSavedByObjectVersion
1070
     0
  0
VISUALSTYLE
  5
23590
102
{ACAD_REACTORS
330
2358C
102
}
330
2358C
100
AcDbVisualStyle
  2
GouraudWithEdges
 70
     3
 71
     2
 72
     2
 73
     1
 90
        2
 40
-0.6
 41
30.0
 62
     5
 63
     7
421
 16777215
 74
     1
 91
        4
 64
     7
 65
   257
 75
     1
175
     1
 42
1.0
 92
        0
 66
   257
 43
1.0
 76
     1
 77
     6
 78
     2
 67
     7
 79
     5
170
     0
171
     0
290
     0
174
     0
 93
       13
 44
0.0
173
     0
291
     1
 45
0.0
1001
ACAD
1000
AcDbSavedByObjectVersion
1070
     0
  0
VISUALSTYLE
  5
2359A
102
{ACAD_REACTORS
330
2358C
102
}
330
2358C
100
AcDbVisualStyle
  2
Linepattern
 70
    14
 71
     2
 72
     2
 73
     0
 90
        0
 40
-0.6
 41
-30.0
 62
     5
 63
     7
421
 16777215
 74
     1
 91
        4
 64
     7
 65
   257
 75
     7
175
     7
 42
1.0
 92
        8
 66
     7
 43
1.0
 76
     1
 77
     6
 78
     2
 67
     7
 79
     5
170
     0
171
     0
290
     0
174
     0
 93
        1
 44
0.0
173
     0
291
     1
 45
0.0
1001
ACAD
1000
AcDbSavedByObjectVersion
1070
     0
  0
VISUALSTYLE
  5
23596
102
{ACAD_REACTORS
330
2358C
102
}
330
2358C
100
AcDbVisualStyle
  2
Realistic
 70
     8
 71
     2
 72
     2
 73
     0
 90
        0
 40
-0.6
 41
-30.0
 62
     5
 63
     7
421
 16777215
 74
     1
 91
        0
 64
     7
 65
   257
 75
     1
175
     1
 42
1.0
 92
        8
 66
     8
424
  7895160
 43
1.0
 76
     1
 77
     6
 78
     2
 67
     7
 79
     5
170
     0
171
     0
290
     0
174
     0
 93
       13
 44
0.0
173
     0
291
     0
 45
0.0
1001
ACAD
1000
AcDbSavedByObjectVersion
1070
     0
  0
VISUALSTYLE
  5
23599
102
{ACAD_REACTORS
330
2358C
102
}
330
2358C
100
AcDbVisualStyle
  2
Thicken
 70
    13
 71
     2
 72
     2
 73
     0
 90
        0
 40
-0.6
 41
-30.0
 62
     5
 63
     7
421
 16777215
 74
     1
 91
        4
 64
     7
 65
   257
 75
     1
175
     1
 42
1.0
 92
       12
 66
     7
 43
1.0
 76
     1
 77
     6
 78
     2
 67
     7
 79
     5
170
     0
171
     0
290
     0
174
     0
 93
        1
 44
0.0
173
     0
291
     1
 45
0.0
1001
ACAD
1000
AcDbSavedByObjectVersion
1070
     0
  0
DICTIONARYVAR
  5
23D38
102
{ACAD_REACTORS
330
23D34
102
}
330
23D34
100
DictionaryVariables
280
     0
  1
1:1
  0
DICTIONARYVAR
  5
23D36
102
{ACAD_REACTORS
330
23D34
102
}
330
23D34
100
DictionaryVariables
280
     0
  1
STANDARD
  0
DICTIONARYVAR
  5
23D35
102
{ACAD_REACTORS
330
23D34
102
}
330
23D34
100
DictionaryVariables
280
     0
  1
STANDARD
  0
DICTIONARYVAR
  5
23D3A
102
{ACAD_REACTORS
330
23D34
102
}
330
23D34
100
DictionaryVariables
280
     0
  1
1
  0
DICTIONARYVAR
  5
23D3B
102
{ACAD_REACTORS
330
23D34
102
}
330
23D34
100
DictionaryVariables
280
     0
  1
15
  0
DICTIONARYVAR
  5
23D39
102
{ACAD_REACTORS
330
23D34
102
}
330
23D34
100
DictionaryVariables
280
     0
  1
0
  0
DICTIONARYVAR
  5
23D37
102
{ACAD_REACTORS
330
23D34
102
}
330
23D34
100
DictionaryVariables
280
     0
  1
0
  0
DICTIONARY
  5
236D6
102
{ACAD_REACTORS
330
236CD
102
}
330
236CD
100
AcDbDictionary
281
     1
  0
XRECORD
  5
23D2F
102
{ACAD_REACTORS
330
236CD
102
}
330
236CD
100
AcDbXrecord
280
     1
 90
-1023410169
  0
DICTIONARY
  5
2357D
330
2357C
100
AcDbDictionary
280
     1
281
     1
  3
ACAD_XREC_ROUNDTRIP
360
23E29
  3
BUMPTILE
360
2357F
  3
DIFFUSETILE
360
2357E
  3
OPACITYTILE
360
23582
  3
REFLECTIONTILE
360
23581
  3
REFRACTIONTILE
360
23583
  3
SPECULARTILE
360
23580
  0
DICTIONARY
  5
23575
330
23574
100
AcDbDictionary
280
     1
281
     1
  3
ACAD_XREC_ROUNDTRIP
360
23E28
  3
BUMPTILE
360
23577
  3
DIFFUSETILE
360
23576
  3
OPACITYTILE
360
2357A
  3
REFLECTIONTILE
360
23579
  3
REFRACTIONTILE
360
2357B
  3
SPECULARTILE
360
23578
  0
DICTIONARY
  5
23585
330
23584
100
AcDbDictionary
280
     1
281
     1
  3
ACAD_XREC_ROUNDTRIP
360
23E2A
  3
BUMPTILE
360
23587
  3
DIFFUSETILE
360
23586
  3
OPACITYTILE
360
2358A
  3
REFLECTIONTILE
360
23589
  3
REFRACTIONTILE
360
2358B
  3
SPECULARTILE
360
23588
  0
DICTIONARY
  5
23D31
330
235CF
100
AcDbDictionary
280
     1
281
     1
  3
ACAD_ROUNDTRIP_2008_TABLESTYLE_CELLSTYLEMAP
360
23E27
  3
ACAD_XREC_ROUNDTRIP
360
23E2B
  0
XRECORD
  5
23E29
102
{ACAD_REACTORS
330
2357D
102
}
330
2357D
100
AcDbXrecord
280
     1
102
MATERIAL
148
0.0
149
0.0
149
0.0
 93
        0
 94
      127
282
     0
 72
     0
 77
     0
171
     0
175
     0
179
     0
273
     0
  0
XRECORD
  5
2357F
102
{ACAD_REACTORS
330
2357D
102
}
330
2357D
100
AcDbXrecord
280
     1
270
     1
271
     1
  0
XRECORD
  5
2357E
102
{ACAD_REACTORS
330
2357D
102
}
330
2357D
100
AcDbXrecord
280
     1
270
     1
271
     1
  0
XRECORD
  5
23582
102
{ACAD_REACTORS
330
2357D
102
}
330
2357D
100
AcDbXrecord
280
     1
270
     1
271
     1
  0
XRECORD
  5
23581
102
{ACAD_REACTORS
330
2357D
102
}
330
2357D
100
AcDbXrecord
280
     1
270
     1
271
     1
  0
XRECORD
  5
23583
102
{ACAD_REACTORS
330
2357D
102
}
330
2357D
100
AcDbXrecord
280
     1
270
     1
271
     1
  0
XRECORD
  5
23580
102
{ACAD_REACTORS
330
2357D
102
}
330
2357D
100
AcDbXrecord
280
     1
270
     1
271
     1
  0
XRECORD
  5
23E28
102
{ACAD_REACTORS
330
23575
102
}
330
23575
100
AcDbXrecord
280
     1
102
MATERIAL
148
0.0
149
0.0
149
0.0
 93
        0
 94
      127
282
     0
 72
     0
 77
     0
171
     0
175
     0
179
     0
273
     0
  0
XRECORD
  5
23577
102
{ACAD_REACTORS
330
23575
102
}
330
23575
100
AcDbXrecord
280
     1
270
     1
271
     1
  0
XRECORD
  5
23576
102
{ACAD_REACTORS
330
23575
102
}
330
23575
100
AcDbXrecord
280
     1
270
     1
271
     1
  0
XRECORD
  5
2357A
102
{ACAD_REACTORS
330
23575
102
}
330
23575
100
AcDbXrecord
280
     1
270
     1
271
     1
  0
XRECORD
  5
23579
102
{ACAD_REACTORS
330
23575
102
}
330
23575
100
AcDbXrecord
280
     1
270
     1
271
     1
  0
XRECORD
  5
2357B
102
{ACAD_REACTORS
330
23575
102
}
330
23575
100
AcDbXrecord
280
     1
270
     1
271
     1
  0
XRECORD
  5
23578
102
{ACAD_REACTORS
330
23575
102
}
330
23575
100
AcDbXrecord
280
     1
270
     1
271
     1
  0
XRECORD
  5
23E2A
102
{ACAD_REACTORS
330
23585
102
}
330
23585
100
AcDbXrecord
280
     1
102
MATERIAL
148
0.0
149
0.0
149
0.0
 93
        0
 94
      127
282
     0
 72
     0
 77
     0
171
     0
175
     0
179
     0
273
     0
  0
XRECORD
  5
23587
102
{ACAD_REACTORS
330
23585
102
}
330
23585
100
AcDbXrecord
280
     1
270
     1
271
     1
  0
XRECORD
  5
23586
102
{ACAD_REACTORS
330
23585
102
}
330
23585
100
AcDbXrecord
280
     1
270
     1
271
     1
  0
XRECORD
  5
2358A
102
{ACAD_REACTORS
330
23585
102
}
330
23585
100
AcDbXrecord
280
     1
270
     1
271
     1
  0
XRECORD
  5
23589
102
{ACAD_REACTORS
330
23585
102
}
330
23585
100
AcDbXrecord
280
     1
270
     1
271
     1
  0
XRECORD
  5
2358B
102
{ACAD_REACTORS
330
23585
102
}
330
23585
100
AcDbXrecord
280
     1
270
     1
271
     1
  0
XRECORD
  5
23588
102
{ACAD_REACTORS
330
23585
102
}
330
23585
100
AcDbXrecord
280
     1
270
     1
271
     1
  0
CELLSTYLEMAP
  5
23E27
102
{ACAD_REACTORS
330
23D31
102
}
330
23D31
100
AcDbCellStyleMap
 90
        3
300
CELLSTYLE
  1
TABLEFORMAT_BEGIN
 90
        5
170
     1
 91
        0
 92
    32768
 62
   257
 93
        1
300
CONTENTFORMAT
  1
CONTENTFORMAT_BEGIN
 90
        0
 91
        0
 92
      512
 93
        0
300

 40
0.0
140
1.0
 94
        5
 62
     0
340
235C0
144
0.25
309
CONTENTFORMAT_END
171
     0
 94
        0
309
TABLEFORMAT_END
  1
CELLSTYLE_BEGIN
 90
        1
 91
        1
300
_TITLE
309
CELLSTYLE_END
300
CELLSTYLE
  1
TABLEFORMAT_BEGIN
 90
        5
170
     1
 91
        0
 92
        0
 62
   257
 93
        1
300
CONTENTFORMAT
  1
CONTENTFORMAT_BEGIN
 90
        0
 91
        0
 92
      512
 93
        0
300

 40
0.0
140
1.0
 94
        5
 62
     0
340
235C0
144
0.18
309
CONTENTFORMAT_END
171
     0
 94
        0
309
TABLEFORMAT_END
  1
CELLSTYLE_BEGIN
 90
        2
 91
        1
300
_HEADER
309
CELLSTYLE_END
300
CELLSTYLE
  1
TABLEFORMAT_BEGIN
 90
        5
170
     1
 91
        0
 92
        0
 62
   257
 93
        1
300
CONTENTFORMAT
  1
CONTENTFORMAT_BEGIN
 90
        0
 91
        0
 92
      512
 93
        0
300

 40
0.0
140
1.0
 94
        2
 62
     0
340
235C0
144
0.18
309
CONTENTFORMAT_END
171
     0
 94
        0
309
TABLEFORMAT_END
  1
CELLSTYLE_BEGIN
 90
        3
 91
        2
300
_DATA
309
CELLSTYLE_END
  0
XRECORD
  5
23E2B
102
{ACAD_REACTORS
330
23D31
102
}
330
23D31
100
AcDbXrecord
280
     1
102
ACAD_ROUNDTRIP_PRE2007_TABLESTYLE
 90
      512
 91
        0
  1

 92
      512
 93
        0
  2

 94
      512
 95
        0
  3

  0
ENDSEC
  0
EOF
