  0
SECTION
  2
HEADER
  9
$ACADVER
  1
AC1015
  9
$ACADMAINTVER
 70
    10
  9
$DWGCODEPAGE
  3
ANSI_1252
  9
$INSBASE
 10
0.0
 20
0.0
 30
0.0
  9
$EXTMIN
 10
-80.00360831454486
 20
-46.2977971715228
 30
-0.0000000000112498
  9
$EXTMAX
 10
127.7009507019754
 20
54.05818586882481
 30
0.0000000000002956
  9
$LIMMIN
 10
0.0
 20
0.0
  9
$LIMMAX
 10
594.0
 20
420.0
  9
$ORTHOMODE
 70
     0
  9
$REGENMODE
 70
     1
  9
$FILLMODE
 70
     1
  9
$QTEXTMODE
 70
     0
  9
$MIRRTEXT
 70
     1
  9
$LTSCALE
 40
32.67
  9
$ATTMODE
 70
     1
  9
$TEXTSIZE
 40
0.2
  9
$TRACEWID
 40
0.05
  9
$TEXTSTYLE
  7
STANDARD
  9
$CLAYER
  8
0
  9
$CELTYPE
  6
BYLAYER
  9
$CECOLOR
 62
   256
  9
$CELTSCALE
 40
1.0
  9
$DISPSILH
 70
     0
  9
$DIMSCALE
 40
1.0
  9
$DIMASZ
 40
2.5
  9
$DIMEXO
 40
3.712499999999999
  9
$DIMDLI
 40
22.572
  9
$DIMRND
 40
0.0
  9
$DIMDLE
 40
0.0
  9
$DIMEXE
 40
10.692
  9
$DIMTP
 40
0.01
  9
$DIMTM
 40
0.01
  9
$DIMTXT
 40
3.5
  9
$DIMCEN
 40
5.346
  9
$DIMTSZ
 40
0.0
  9
$DIMTOL
 70
     1
  9
$DIMLIM
 70
     0
  9
$DIMTIH
 70
     1
  9
$DIMTOH
 70
     1
  9
$DIMSE1
 70
     0
  9
$DIMSE2
 70
     0
  9
$DIMTAD
 70
     0
  9
$DIMZIN
 70
     0
  9
$DIMBLK
  1
_ARROW_FILLED
  9
$DIMASO
 70
     1
  9
$DIMSHO
 70
     1
  9
$DIMPOST
  1

  9
$DIMAPOST
  1

  9
$DIMALT
 70
     0
  9
$DIMALTD
 70
     2
  9
$DIMALTF
 40
25.4
  9
$DIMLFAC
 40
1.0
  9
$DIMTOFL
 70
     0
  9
$DIMTVP
 40
0.0
  9
$DIMTIX
 70
     0
  9
$DIMSOXD
 70
     0
  9
$DIMSAH
 70
     0
  9
$DIMBLK1
  1

  9
$DIMBLK2
  1

  9
$DIMSTYLE
  2
STANDARD
  9
$DIMCLRD
 70
     0
  9
$DIMCLRE
 70
     0
  9
$DIMCLRT
 70
     0
  9
$DIMTFAC
 40
1.0
  9
$DIMGAP
 40
0.09
  9
$DIMJUST
 70
     0
  9
$DIMSD1
 70
     0
  9
$DIMSD2
 70
     0
  9
$DIMTOLJ
 70
     1
  9
$DIMTZIN
 70
     0
  9
$DIMALTZ
 70
     0
  9
$DIMALTTZ
 70
     0
  9
$DIMUPT
 70
     0
  9
$DIMDEC
 70
     4
  9
$DIMTDEC
 70
     4
  9
$DIMALTU
 70
     2
  9
$DIMALTTD
 70
     2
  9
$DIMTXSTY
  7
STANDARD
  9
$DIMAUNIT
 70
     0
  9
$DIMADEC
 70
     0
  9
$DIMALTRND
 40
0.0
  9
$DIMAZIN
 70
     0
  9
$DIMDSEP
 70
    46
  9
$DIMATFIT
 70
     3
  9
$DIMFRAC
 70
     0
  9
$DIMLDRBLK
  1
_ARROW_FILLED
  9
$DIMLUNIT
 70
     2
  9
$DIMLWD
 70
    -2
  9
$DIMLWE
 70
    -2
  9
$DIMTMOVE
 70
     0
  9
$LUNITS
 70
     2
  9
$LUPREC
 70
     4
  9
$SKETCHINC
 40
0.1
  9
$FILLETRAD
 40
0.0
  9
$AUNITS
 70
     0
  9
$AUPREC
 70
     0
  9
$MENU
  1
.
  9
$ELEVATION
 40
0.0
  9
$PELEVATION
 40
0.0
  9
$THICKNESS
 40
0.0
  9
$LIMCHECK
 70
     0
  9
$CHAMFERA
 40
0.0
  9
$CHAMFERB
 40
0.0
  9
$CHAMFERC
 40
0.0
  9
$CHAMFERD
 40
0.0
  9
$SKPOLY
 70
     0
  9
$TDCREATE
 40
2455237.563664768
  9
$TDUCREATE
 40
2455237.521998101
  9
$TDUPDATE
 40
2455237.600774028
  9
$TDUUPDATE
 40
2455237.559107361
  9
$TDINDWG
 40
0.0200392477
  9
$TDUSRTIMER
 40
0.0200392477
  9
$USRTIMER
 70
     1
  9
$ANGBASE
 50
0.0
  9
$ANGDIR
 70
     0
  9
$PDMODE
 70
     3
  9
$PDSIZE
 40
0.15
  9
$PLINEWID
 40
0.0
  9
$SPLFRAME
 70
     0
  9
$SPLINETYPE
 70
     6
  9
$SPLINESEGS
 70
     8
  9
$HANDSEED
  5
1724
  9
$SURFTAB1
 70
     6
  9
$SURFTAB2
 70
     6
  9
$SURFTYPE
 70
     6
  9
$SURFU
 70
     6
  9
$SURFV
 70
     6
  9
$UCSBASE
  2

  9
$UCSNAME
  2

  9
$UCSORG
 10
0.0
 20
0.0
 30
0.0
  9
$UCSXDIR
 10
1.0
 20
0.0
 30
0.0
  9
$UCSYDIR
 10
0.0
 20
1.0
 30
0.0
  9
$UCSORTHOREF
  2

  9
$UCSORTHOVIEW
 70
     0
  9
$UCSORGTOP
 10
0.0
 20
0.0
 30
0.0
  9
$UCSORGBOTTOM
 10
0.0
 20
0.0
 30
0.0
  9
$UCSORGLEFT
 10
0.0
 20
0.0
 30
0.0
  9
$UCSORGRIGHT
 10
0.0
 20
0.0
 30
0.0
  9
$UCSORGFRONT
 10
0.0
 20
0.0
 30
0.0
  9
$UCSORGBACK
 10
0.0
 20
0.0
 30
0.0
  9
$PUCSBASE
  2

  9
$PUCSNAME
  2

  9
$PUCSORG
 10
0.0
 20
0.0
 30
0.0
  9
$PUCSXDIR
 10
1.0
 20
0.0
 30
0.0
  9
$PUCSYDIR
 10
0.0
 20
1.0
 30
0.0
  9
$PUCSORTHOREF
  2

  9
$PUCSORTHOVIEW
 70
     0
  9
$PUCSORGTOP
 10
0.0
 20
0.0
 30
0.0
  9
$PUCSORGBOTTOM
 10
0.0
 20
0.0
 30
0.0
  9
$PUCSORGLEFT
 10
0.0
 20
0.0
 30
0.0
  9
$PUCSORGRIGHT
 10
0.0
 20
0.0
 30
0.0
  9
$PUCSORGFRONT
 10
0.0
 20
0.0
 30
0.0
  9
$PUCSORGBACK
 10
0.0
 20
0.0
 30
0.0
  9
$USERI1
 70
     0
  9
$USERI2
 70
     0
  9
$USERI3
 70
     0
  9
$USERI4
 70
     0
  9
$USERI5
 70
     0
  9
$USERR1
 40
0.0
  9
$USERR2
 40
0.0
  9
$USERR3
 40
0.0
  9
$USERR4
 40
0.0
  9
$USERR5
 40
0.0
  9
$WORLDVIEW
 70
     1
  9
$SHADEDGE
 70
     3
  9
$SHADEDIF
 70
    70
  9
$TILEMODE
 70
     1
  9
$MAXACTVP
 70
    64
  9
$PINSBASE
 10
0.0
 20
0.0
 30
0.0
  9
$PLIMCHECK
 70
     0
  9
$PEXTMIN
 10
1.000000000000000E+20
 20
1.000000000000000E+20
 30
1.000000000000000E+20
  9
$PEXTMAX
 10
-1.000000000000000E+20
 20
-1.000000000000000E+20
 30
-1.000000000000000E+20
  9
$PLIMMIN
 10
0.0
 20
0.0
  9
$PLIMMAX
 10
12.0
 20
9.0
  9
$UNITMODE
 70
     0
  9
$VISRETAIN
 70
     1
  9
$PLINEGEN
 70
     0
  9
$PSLTSCALE
 70
     1
  9
$TREEDEPTH
 70
  3020
  9
$CMLSTYLE
  2
STANDARD
  9
$CMLJUST
 70
     0
  9
$CMLSCALE
 40
1.0
  9
$PROXYGRAPHICS
 70
     1
  9
$MEASUREMENT
 70
     1
  9
$CELWEIGHT
370
    -1
  9
$ENDCAPS
280
     0
  9
$JOINSTYLE
280
     0
  9
$LWDISPLAY
290
     0
  9
$INSUNITS
 70
     0
  9
$HYPERLINKBASE
  1

  9
$STYLESHEET
  1

  9
$XEDIT
290
     1
  9
$CEPSNTYPE
380
     0
  9
$PSTYLEMODE
290
     1
  9
$FINGERPRINTGUID
  2
{D3EA4543-E04E-4C35-A719-539B053161DB}
  9
$VERSIONGUID
  2
{43E9AE41-A185-42F7-BB7F-85D14CFF692E}
  9
$EXTNAMES
290
     1
  9
$PSVPSCALE
 40
0.0
  9
$OLESTARTUP
290
     0
  0
ENDSEC
  0
SECTION
  2
CLASSES
  0
CLASS
  1
ACDBDICTIONARYWDFLT
  2
AcDbDictionaryWithDefault
  3
AutoCAD 2000
 90
        0
280
     0
281
     0
  0
CLASS
  1
ACDBPLACEHOLDER
  2
AcDbPlaceHolder
  3
AutoCAD 2000
 90
        0
280
     0
281
     0
  0
CLASS
  1
LAYOUT
  2
AcDbLayout
  3
AutoCAD 2000
 90
        0
280
     0
281
     0
  0
ENDSEC
  0
SECTION
  2
TABLES
  0
TABLE
  2
VPORT
  5
8
330
0
100
AcDbSymbolTable
 70
     2
  0
VPORT
  5
1723
330
8
100
AcDbSymbolTableRecord
100
AcDbViewportTableRecord
  2
*Active
 70
     0
 10
0.0
 20
0.0
 11
1.0
 21
1.0
 12
23.84867119371529
 22
3.880194348651002
 13
0.0
 23
0.0
 14
1.0
 24
1.0
 15
0.0
 25
0.0
 16
0.0
 26
0.0
 36
1.0
 17
0.0
 27
0.0
 37
0.0
 40
101.8281979504749
 41
2.475490196078431
 42
50.0
 43
0.0
 44
0.0
 50
0.0
 51
0.0
 71
     0
 72
  1000
 73
     1
 74
     1
 75
     0
 76
     0
 77
     0
 78
     0
281
     0
 65
     1
110
0.0
120
0.0
130
0.0
111
1.0
121
0.0
131
0.0
112
0.0
122
1.0
132
0.0
 79
     0
146
0.0
  0
ENDTAB
  0
TABLE
  2
LTYPE
  5
5
330
0
100
AcDbSymbolTable
 70
     3
  0
LTYPE
  5
14
330
5
100
AcDbSymbolTableRecord
100
AcDbLinetypeTableRecord
  2
BYBLOCK
 70
     0
  3

 72
    65
 73
     0
 40
0.0
  0
LTYPE
  5
15
330
5
100
AcDbSymbolTableRecord
100
AcDbLinetypeTableRecord
  2
BYLAYER
 70
     0
  3

 72
    65
 73
     0
 40
0.0
  0
LTYPE
  5
16
330
5
100
AcDbSymbolTableRecord
100
AcDbLinetypeTableRecord
  2
CONTINUOUS
 70
     0
  3
Solid line
 72
    65
 73
     0
 40
0.0
  0
LTYPE
  5
1F5
330
5
100
AcDbSymbolTableRecord
100
AcDbLinetypeTableRecord
  2
CENTER
 70
     0
  3
____ _ ____ _ ____ _ ____ _ ____ _ ____ _ ____
 72
    65
 73
     4
 40
0.6
 49
0.375
 74
     0
 49
-0.075
 74
     0
 49
0.075
 74
     0
 49
-0.075
 74
     0
  0
LTYPE
  5
1F6
330
5
100
AcDbSymbolTableRecord
100
AcDbLinetypeTableRecord
  2
HIDDEN
 70
     0
  3
- - - - - - - - - - - - - - - - - - - -
 72
    65
 73
     2
 40
0.2
 49
0.1
 74
     0
 49
-0.1
 74
     0
  0
ENDTAB
  0
TABLE
  2
LAYER
  5
2
330
0
100
AcDbSymbolTable
 70
    12
  0
LAYER
  5
10
330
2
100
AcDbSymbolTableRecord
100
AcDbLayerTableRecord
  2
0
 70
     0
 62
     7
  6
CONTINUOUS
370
    -3
390
1291
  0
LAYER
  5
12BC
330
2
100
AcDbSymbolTableRecord
100
AcDbLayerTableRecord
  2
Defpoints
 70
     0
 62
     7
  6
CONTINUOUS
290
     0
370
    -3
390
1291
  0
LAYER
  5
12BD
330
2
100
AcDbSymbolTableRecord
100
AcDbLayerTableRecord
  2
2
 70
     0
 62
     7
  6
CONTINUOUS
370
    -3
390
1291
  0
LAYER
  5
12BE
330
2
100
AcDbSymbolTableRecord
100
AcDbLayerTableRecord
  2
1
 70
     0
 62
     4
  6
CONTINUOUS
370
    -3
390
1291
  0
LAYER
  5
12BF
330
2
100
AcDbSymbolTableRecord
100
AcDbLayerTableRecord
  2
3
 70
     0
 62
     1
  6
HIDDEN
370
    -3
390
1291
  0
LAYER
  5
12C0
330
2
100
AcDbSymbolTableRecord
100
AcDbLayerTableRecord
  2
4
 70
     0
 62
     2
  6
CENTER
370
    -3
390
1291
  0
LAYER
  5
12C1
330
2
100
AcDbSymbolTableRecord
100
AcDbLayerTableRecord
  2
6
 70
     0
 62
     5
  6
CONTINUOUS
370
    -3
390
1291
  0
LAYER
  5
12C2
330
2
100
AcDbSymbolTableRecord
100
AcDbLayerTableRecord
  2
CUT
 70
     0
 62
     1
  6
CONTINUOUS
370
    -3
390
1291
  0
LAYER
  5
12C3
330
2
100
AcDbSymbolTableRecord
100
AcDbLayerTableRecord
  2
SK1
 70
     0
 62
     4
  6
CONTINUOUS
370
    -3
390
1291
  0
LAYER
  5
12C4
330
2
100
AcDbSymbolTableRecord
100
AcDbLayerTableRecord
  2
SK4
 70
     0
 62
     2
  6
CENTER
370
    -3
390
1291
  0
LAYER
  5
1687
330
2
100
AcDbSymbolTableRecord
100
AcDbLayerTableRecord
  2
SK2
 70
     0
 62
     7
  6
CONTINUOUS
370
    -3
390
1291
  0
LAYER
  5
1722
330
2
100
AcDbSymbolTableRecord
100
AcDbLayerTableRecord
  2
NOCUT
 70
     0
 62
     7
  6
CONTINUOUS
370
    -3
390
1291
  0
ENDTAB
  0
TABLE
  2
STYLE
  5
3
330
0
100
AcDbSymbolTable
 70
     1
  0
STYLE
  5
11
330
3
100
AcDbSymbolTableRecord
100
AcDbTextStyleTableRecord
  2
STANDARD
 70
     0
 40
0.0
 41
0.8
 50
0.0
 71
     0
 42
0.2
  3
isocp.shx
  4

  0
ENDTAB
  0
TABLE
  2
VIEW
  5
6
330
0
100
AcDbSymbolTable
 70
     0
  0
ENDTAB
  0
TABLE
  2
UCS
  5
7
330
0
100
AcDbSymbolTable
 70
     0
  0
ENDTAB
  0
TABLE
  2
APPID
  5
9
330
0
100
AcDbSymbolTable
 70
     1
  0
APPID
  5
228
330
9
100
AcDbSymbolTableRecord
100
AcDbRegAppTableRecord
  2
ACAD
 70
     0
  0
ENDTAB
  0
TABLE
  2
DIMSTYLE
  5
A
330
0
100
AcDbSymbolTable
 70
     2
100
AcDbDimStyleTable
 71
     2
340
12C7
340
24D
  0
DIMSTYLE
105
24D
330
A
100
AcDbSymbolTableRecord
100
AcDbDimStyleTableRecord
  2
STANDARD
 70
     0
 41
2.5
 47
0.01
 48
0.01
 71
     1
 73
     0
 74
     0
 77
     1
 78
     8
140
3.5
178
     5
271
     3
272
     3
284
     8
340
11
341
22A
342
22A
343
22A
344
22A
  0
DIMSTYLE
105
12C7
102
{ACAD_REACTORS
330
1565
330
1557
330
1615
330
1647
330
1667
102
}
330
A
100
AcDbSymbolTableRecord
100
AcDbDimStyleTableRecord
  2
ISO-25
 70
     0
 41
2.5
 42
0.625
 43
3.75
 44
1.25
 73
     0
 74
     0
 77
     1
 78
     8
140
2.5
141
2.5
143
0.03937007874016
147
0.625
171
     3
172
     1
271
     2
272
     2
274
     3
278
    44
283
     0
284
     8
340
11
  0
ENDTAB
  0
TABLE
  2
BLOCK_RECORD
  5
1
330
0
100
AcDbSymbolTable
 70
     7
  0
BLOCK_RECORD
  5
1F
330
1
100
AcDbSymbolTableRecord
100
AcDbBlockTableRecord
  2
*MODEL_SPACE
340
1294
  0
BLOCK_RECORD
  5
1B
330
1
100
AcDbSymbolTableRecord
100
AcDbBlockTableRecord
  2
*PAPER_SPACE
340
1295
  0
BLOCK_RECORD
  5
22A
330
1
100
AcDbSymbolTableRecord
100
AcDbBlockTableRecord
  2
_ARROW_FILLED
340
0
102
{BLKREFS
331
748
331
752
331
753
331
75D
331
76A
331
76B
331
777
331
778
331
784
331
785
331
78D
331
78E
331
798
331
799
331
79E
331
7A9
331
7AA
331
7B2
331
7B3
331
7BB
331
7BC
331
7C5
331
7C6
331
7D1
331
7D2
331
7D7
331
7DC
331
7E1
331
7EC
331
7ED
331
7F5
331
7F6
331
7FB
331
805
331
806
331
80B
331
815
331
816
331
820
331
821
331
832
331
833
331
161B
331
161C
331
164D
331
164E
331
166D
331
166E
102
}
  0
BLOCK_RECORD
  5
15E0
330
1
100
AcDbSymbolTableRecord
100
AcDbBlockTableRecord
  2
*D1
340
0
  0
BLOCK_RECORD
  5
15EC
330
1
100
AcDbSymbolTableRecord
100
AcDbBlockTableRecord
  2
*D2
340
0
  0
BLOCK_RECORD
  5
1616
330
1
100
AcDbSymbolTableRecord
100
AcDbBlockTableRecord
  2
*D3
340
0
  0
BLOCK_RECORD
  5
1648
330
1
100
AcDbSymbolTableRecord
100
AcDbBlockTableRecord
  2
*D4
340
0
  0
BLOCK_RECORD
  5
1668
330
1
100
AcDbSymbolTableRecord
100
AcDbBlockTableRecord
  2
*D5
340
0
  0
ENDTAB
  0
ENDSEC
  0
SECTION
  2
BLOCKS
  0
BLOCK
  5
20
330
1F
100
AcDbEntity
  8
0
100
AcDbBlockBegin
  2
*MODEL_SPACE
 70
     0
 10
0.0
 20
0.0
 30
0.0
  3
*MODEL_SPACE
  1

  0
ENDBLK
  5
21
330
1F
100
AcDbEntity
  8
0
100
AcDbBlockEnd
  0
BLOCK
  5
1C
330
1B
100
AcDbEntity
 67
     1
  8
0
100
AcDbBlockBegin
  2
*PAPER_SPACE
 70
     0
 10
0.0
 20
0.0
 30
0.0
  3
*PAPER_SPACE
  1

  0
ENDBLK
  5
1D
330
1B
100
AcDbEntity
 67
     1
  8
0
100
AcDbBlockEnd
  0
BLOCK
  5
73A
330
22A
100
AcDbEntity
  8
0
100
AcDbBlockBegin
  2
_ARROW_FILLED
 70
     0
 10
0.0
 20
0.0
 30
0.0
  3
_ARROW_FILLED
  1

  0
SOLID
  5
73B
330
22A
100
AcDbEntity
  8
0
  6
ByBlock
 62
     0
100
AcDbTrace
 10
0.0
 20
0.0
 30
0.0
 11
-1.0
 21
0.132
 31
0.0
 12
-1.0
 22
-0.132
 32
0.0
 13
-1.0
 23
-0.132
 33
0.0
  0
ENDBLK
  5
73C
330
22A
100
AcDbEntity
  8
0
  6
ByBlock
 62
     0
100
AcDbBlockEnd
  0
BLOCK
  5
15EA
330
15E0
100
AcDbEntity
  8
0
100
AcDbBlockBegin
  2
*D1
 70
     1
 10
0.0
 20
0.0
 30
0.0
  3
*D1
  1

  0
LINE
  5
1703
330
15E0
100
AcDbEntity
  8
2
 62
     0
370
    -2
100
AcDbLine
 10
81.0
 20
25.60000000000007
 30
0.0
 11
81.0
 21
40.83493057595904
 31
0.0
  0
LINE
  5
1704
330
15E0
100
AcDbEntity
  8
2
 62
     0
370
    -2
100
AcDbLine
 10
60.04142398165857
 20
13.8529899696237
 30
0.0
 11
60.04142398165857
 21
40.83493057595904
 31
0.0
  0
LINE
  5
1705
330
15E0
100
AcDbEntity
  8
2
 62
     0
370
    -2
100
AcDbLine
 10
78.5
 20
39.58493057595905
 30
0.0
 11
62.54142398165857
 21
39.58493057595905
 31
0.0
  0
SOLID
  5
1706
330
15E0
100
AcDbEntity
  8
2
 62
     0
100
AcDbTrace
 10
78.5
 20
40.0015972426257
 30
0.0
 11
78.5
 21
39.16826390929238
 31
0.0
 12
81.0
 22
39.58493057595905
 32
0.0
 13
81.0
 23
39.58493057595905
 33
0.0
  0
SOLID
  5
1707
330
15E0
100
AcDbEntity
  8
2
 62
     0
100
AcDbTrace
 10
62.54142398165857
 20
40.0015972426257
 30
0.0
 11
62.54142398165857
 21
39.16826390929238
 31
0.0
 12
60.04142398165857
 22
39.58493057595905
 32
0.0
 13
60.04142398165857
 23
39.58493057595905
 33
0.0
  0
MTEXT
  5
1708
330
15E0
100
AcDbEntity
  8
2
 62
     0
100
AcDbMText
 10
69.53773120300832
 20
41.96027506414803
 30
0.0
 40
3.5
 41
0.0
 71
     5
 72
     1
  1
21
 73
     1
 44
1.0
  0
POINT
  5
1709
330
15E0
100
AcDbEntity
  8
Defpoints
 62
     0
100
AcDbPoint
 10
81.0
 20
24.97500000000007
 30
0.0
  0
POINT
  5
170A
330
15E0
100
AcDbEntity
  8
Defpoints
 62
     0
100
AcDbPoint
 10
60.04142398165857
 20
13.2279899696237
 30
0.0
  0
POINT
  5
170B
330
15E0
100
AcDbEntity
  8
Defpoints
 62
     0
100
AcDbPoint
 10
60.04142398165857
 20
39.58493057595905
 30
0.0
  0
ENDBLK
  5
15EB
330
15E0
100
AcDbEntity
  8
0
100
AcDbBlockEnd
  0
BLOCK
  5
15F6
330
15EC
100
AcDbEntity
  8
0
100
AcDbBlockBegin
  2
*D2
 70
     1
 10
0.0
 20
0.0
 30
0.0
  3
*D2
  1

  0
LINE
  5
170C
330
15EC
100
AcDbEntity
  8
2
 62
     0
370
    -2
100
AcDbLine
 10
0.0
 20
16.60695119180007
 30
0.0
 11
0.0000000000000022
 21
51.35802938305317
 31
0.0
  0
LINE
  5
170D
330
15EC
100
AcDbEntity
  8
2
 62
     0
370
    -2
100
AcDbLine
 10
81.0
 20
25.60000000000007
 30
0.0
 11
81.0
 21
51.35802938305317
 31
0.0
  0
LINE
  5
170E
330
15EC
100
AcDbEntity
  8
2
 62
     0
370
    -2
100
AcDbLine
 10
2.500000000000002
 20
50.10802938305317
 30
0.0
 11
78.5
 21
50.10802938305317
 31
0.0
  0
SOLID
  5
170F
330
15EC
100
AcDbEntity
  8
2
 62
     0
100
AcDbTrace
 10
2.500000000000002
 20
50.52469604971983
 30
0.0
 11
2.500000000000002
 21
49.6913627163865
 31
0.0
 12
0.0000000000000021
 22
50.10802938305317
 32
0.0
 13
0.0000000000000021
 23
50.10802938305317
 33
0.0
  0
SOLID
  5
1710
330
15EC
100
AcDbEntity
  8
2
 62
     0
100
AcDbTrace
 10
78.5
 20
50.52469604971983
 30
0.0
 11
78.5
 21
49.6913627163865
 31
0.0
 12
81.0
 22
50.10802938305317
 32
0.0
 13
81.0
 23
50.10802938305317
 33
0.0
  0
MTEXT
  5
1711
330
15EC
100
AcDbEntity
  8
2
 62
     0
100
AcDbMText
 10
41.70729896152193
 20
52.48302938305318
 30
0.0
 40
3.5
 41
0.0
 71
     5
 72
     1
  1
81
 73
     1
 44
1.0
  0
POINT
  5
1712
330
15EC
100
AcDbEntity
  8
Defpoints
 62
     0
100
AcDbPoint
 10
0.0
 20
15.98195119180006
 30
0.0
  0
POINT
  5
1713
330
15EC
100
AcDbEntity
  8
Defpoints
 62
     0
100
AcDbPoint
 10
81.0
 20
24.97500000000007
 30
0.0
  0
POINT
  5
1714
330
15EC
100
AcDbEntity
  8
Defpoints
 62
     0
100
AcDbPoint
 10
81.0
 20
50.10802938305317
 30
0.0
  0
ENDBLK
  5
15F7
330
15EC
100
AcDbEntity
  8
0
100
AcDbBlockEnd
  0
BLOCK
  5
1621
330
1616
100
AcDbEntity
  8
0
100
AcDbBlockBegin
  2
*D3
 70
     1
 10
0.0
 20
0.0
 30
0.0
  3
*D3
  1

  0
LINE
  5
16FA
330
1616
100
AcDbEntity
  8
2
 62
     0
370
    -2
100
AcDbLine
 10
80.86811700332701
 20
24.95432168121924
 30
0.0
 11
114.0979475905925
 21
24.95432168121924
 31
0.0
  0
LINE
  5
16FB
330
1616
100
AcDbEntity
  8
2
 62
     0
370
    -2
100
AcDbLine
 10
74.05631437440002
 20
-24.95333450439989
 30
0.0
 11
114.0979475905925
 21
-24.9533345043999
 31
0.0
  0
LINE
  5
16FC
330
1616
100
AcDbEntity
  8
2
 62
     0
370
    -2
100
AcDbLine
 10
112.8479475905924
 20
22.45432168121924
 30
0.0
 11
112.8479475905924
 21
-22.4533345043999
 31
0.0
  0
SOLID
  5
16FD
330
1616
100
AcDbEntity
  8
2
 62
     0
100
AcDbTrace
 10
112.4312809239258
 20
22.45432168121924
 30
0.0
 11
113.2646142572591
 21
22.45432168121924
 31
0.0
 12
112.8479475905924
 22
24.95432168121924
 32
0.0
 13
112.8479475905924
 23
24.95432168121924
 33
0.0
  0
SOLID
  5
16FE
330
1616
100
AcDbEntity
  8
2
 62
     0
100
AcDbTrace
 10
112.4312809239258
 20
-22.4533345043999
 30
0.0
 11
113.2646142572591
 21
-22.4533345043999
 31
0.0
 12
112.8479475905924
 22
-24.9533345043999
 32
0.0
 13
112.8479475905924
 23
-24.9533345043999
 33
0.0
  0
MTEXT
  5
16FF
330
1616
100
AcDbEntity
  8
2
 62
     0
100
AcDbMText
 10
110.4729475905924
 20
0.00049358840969
 30
0.0
 40
3.5
 41
0.0
 71
     5
 72
     1
  1
%%C50
 11
0.0000000000000001
 21
1.0
 31
0.0
 73
     1
 44
1.0
  0
POINT
  5
1700
330
1616
100
AcDbEntity
  8
Defpoints
 62
     0
100
AcDbPoint
 10
80.24311700332701
 20
24.95432168121924
 30
0.0
  0
POINT
  5
1701
330
1616
100
AcDbEntity
  8
Defpoints
 62
     0
100
AcDbPoint
 10
73.43131437440002
 20
-24.95333450439989
 30
0.0
  0
POINT
  5
1702
330
1616
100
AcDbEntity
  8
Defpoints
 62
     0
100
AcDbPoint
 10
112.8479475905924
 20
-24.9533345043999
 30
0.0
  0
ENDBLK
  5
1622
330
1616
100
AcDbEntity
  8
0
100
AcDbBlockEnd
  0
BLOCK
  5
1653
330
1648
100
AcDbEntity
  8
0
100
AcDbBlockBegin
  2
*D4
 70
     1
 10
0.0
 20
0.0
 30
0.0
  3
*D4
  1

  0
LINE
  5
16F1
330
1648
100
AcDbEntity
  8
SK2
 62
     0
370
    -2
100
AcDbLine
 10
-0.125
 20
39.00000000000011
 30
0.0
 11
-77.2816756494303
 21
39.00000000000013
 31
0.0
  0
LINE
  5
16F2
330
1648
100
AcDbEntity
  8
SK2
 62
     0
370
    -2
100
AcDbLine
 10
-0.125
 20
-38.99999999999991
 30
0.0
 11
-77.28167564943031
 21
-38.99999999999989
 31
0.0
  0
LINE
  5
16F3
330
1648
100
AcDbEntity
  8
SK2
 62
     0
370
    -2
100
AcDbLine
 10
-76.0316756494303
 20
36.50000000000013
 30
0.0
 11
-76.03167564943031
 21
-36.49999999999989
 31
0.0
  0
SOLID
  5
16F4
330
1648
100
AcDbEntity
  8
SK2
 62
     0
100
AcDbTrace
 10
-76.44834231609697
 20
36.50000000000013
 30
0.0
 11
-75.61500898276363
 21
36.50000000000013
 31
0.0
 12
-76.0316756494303
 22
39.00000000000013
 32
0.0
 13
-76.0316756494303
 23
39.00000000000013
 33
0.0
  0
SOLID
  5
16F5
330
1648
100
AcDbEntity
  8
SK2
 62
     0
100
AcDbTrace
 10
-76.44834231609698
 20
-36.49999999999989
 30
0.0
 11
-75.61500898276365
 21
-36.49999999999989
 31
0.0
 12
-76.03167564943031
 22
-38.99999999999989
 32
0.0
 13
-76.03167564943031
 23
-38.99999999999989
 33
0.0
  0
MTEXT
  5
16F6
330
1648
100
AcDbEntity
  8
SK2
 62
     0
100
AcDbMText
 10
-78.40667564943031
 20
0.0000000000001115
 30
0.0
 40
3.5
 41
0.0
 71
     5
 72
     1
  1
%%C78
 11
0.0000000000000001
 21
1.0
 31
0.0
 73
     1
 44
1.0
  0
POINT
  5
16F7
330
1648
100
AcDbEntity
  8
Defpoints
 62
     0
100
AcDbPoint
 10
0.5
 20
39.00000000000011
 30
0.0
  0
POINT
  5
16F8
330
1648
100
AcDbEntity
  8
Defpoints
 62
     0
100
AcDbPoint
 10
0.5
 20
-38.99999999999991
 30
0.0
  0
POINT
  5
16F9
330
1648
100
AcDbEntity
  8
Defpoints
 62
     0
100
AcDbPoint
 10
-76.03167564943031
 20
-38.99999999999989
 30
0.0
  0
ENDBLK
  5
1654
330
1648
100
AcDbEntity
  8
0
100
AcDbBlockEnd
  0
BLOCK
  5
1673
330
1668
100
AcDbEntity
  8
0
100
AcDbBlockBegin
  2
*D5
 70
     1
 10
0.0
 20
0.0
 30
0.0
  3
*D5
  1

  0
LINE
  5
16E8
330
1668
100
AcDbEntity
  8
SK2
 62
     0
370
    -2
100
AcDbLine
 10
-21.63812693269994
 20
18.50000000000011
 30
0.0
 11
-58.9653753272722
 21
18.50000000000012
 31
0.0
  0
LINE
  5
16E9
330
1668
100
AcDbEntity
  8
SK2
 62
     0
370
    -2
100
AcDbLine
 10
-20.31758240359998
 20
-18.5000000000125
 30
0.0
 11
-58.96537532727222
 21
-18.50000000001248
 31
0.0
  0
LINE
  5
16EA
330
1668
100
AcDbEntity
  8
SK2
 62
     0
370
    -2
100
AcDbLine
 10
-57.71537532727221
 20
16.00000000000012
 30
0.0
 11
-57.71537532727221
 21
-16.00000000001249
 31
0.0
  0
SOLID
  5
16EB
330
1668
100
AcDbEntity
  8
SK2
 62
     0
100
AcDbTrace
 10
-58.13204199393886
 20
16.00000000000012
 30
0.0
 11
-57.29870866060553
 21
16.00000000000012
 31
0.0
 12
-57.71537532727221
 22
18.50000000000012
 32
0.0
 13
-57.71537532727221
 23
18.50000000000012
 33
0.0
  0
SOLID
  5
16EC
330
1668
100
AcDbEntity
  8
SK2
 62
     0
100
AcDbTrace
 10
-58.13204199393889
 20
-16.00000000001249
 30
0.0
 11
-57.29870866060556
 21
-16.00000000001249
 31
0.0
 12
-57.71537532727221
 22
-18.50000000001248
 32
0.0
 13
-57.71537532727221
 23
-18.50000000001248
 33
0.0
  0
MTEXT
  5
16ED
330
1668
100
AcDbEntity
  8
SK2
 62
     0
100
AcDbMText
 10
-60.09037532727221
 20
-0.0000000000061921
 30
0.0
 40
3.5
 41
0.0
 71
     5
 72
     1
  1
%%C37
 11
0.0000000000000001
 21
1.0
 31
0.0
 73
     1
 44
1.0
  0
POINT
  5
16EE
330
1668
100
AcDbEntity
  8
Defpoints
 62
     0
100
AcDbPoint
 10
-21.01312693269994
 20
18.50000000000011
 30
0.0
  0
POINT
  5
16EF
330
1668
100
AcDbEntity
  8
Defpoints
 62
     0
100
AcDbPoint
 10
-19.6925824036
 20
-18.5000000000125
 30
0.0
  0
POINT
  5
16F0
330
1668
100
AcDbEntity
  8
Defpoints
 62
     0
100
AcDbPoint
 10
-57.71537532727221
 20
-18.50000000001248
 30
0.0
  0
ENDBLK
  5
1674
330
1668
100
AcDbEntity
  8
0
100
AcDbBlockEnd
  0
ENDSEC
  0
SECTION
  2
ENTITIES
  0
MTEXT
  5
8DD
330
1F
100
AcDbEntity
  8
6
100
AcDbMText
 10
86.10442434169101
 20
-41.31627534058647
 30
0.0
 40
5.0
 41
64.0
 71
     2
 72
     1
  1
15T1J050021Z5R00
 73
     1
 44
1.0
  0
LINE
  5
1552
330
1F
100
AcDbEntity
  8
1
100
AcDbLine
 10
58.71974430969999
 20
13.50000000000011
 30
0.0
 11
22.66933934690007
 21
13.50000000000011
 31
0.0
  0
LINE
  5
1553
330
1F
100
AcDbEntity
  8
1
100
AcDbLine
 10
58.80298237969999
 20
-13.49999999999988
 30
0.0
 11
22.66933934690007
 21
-13.49999999999988
 31
0.0
  0
LINE
  5
1554
330
1F
100
AcDbEntity
  8
SK4
100
AcDbLine
 10
70.43936162117176
 20
0.0
 30
0.0
 11
0.5
 21
0.0000000000001137
 31
0.0
  0
LINE
  5
1555
330
1F
100
AcDbEntity
  8
3
100
AcDbLine
 10
63.08395694590001
 20
4.000000000000113
 30
0.0
 11
-45.49999999999999
 21
4.000000000000113
 31
0.0
  0
LINE
  5
1556
330
1F
100
AcDbEntity
  8
3
100
AcDbLine
 10
63.08395694590001
 20
-3.999999999999886
 30
0.0
 11
-45.49999999999999
 21
-3.999999999999886
 31
0.0
  0
DIMENSION
  5
1557
330
1F
100
AcDbEntity
  8
2
100
AcDbDimension
  2
*D2
 10
81.0
 20
50.10802938305317
 30
0.0
 11
41.70729896152193
 21
50.10802938305317
 31
0.0
 70
   160
 71
     5
 42
81.0
  3
ISO-25
100
AcDbAlignedDimension
 13
0.0
 23
15.98195119180006
 33
0.0
 14
81.0
 24
24.97500000000007
 34
0.0
100
AcDbRotatedDimension
1001
ACAD
1000
DSTYLE
1002
{
1070
   140
1040
3.5
1002
}
  0
LINE
  5
1558
330
1F
100
AcDbEntity
  8
1
100
AcDbLine
 10
60.94999999999993
 20
-23.18526173059603
 30
0.0
 11
60.95000000000005
 21
11.88119297349992
 31
0.0
  0
LINE
  5
155A
330
1F
100
AcDbEntity
  8
1
100
AcDbLine
 10
80.10000000000003
 20
-23.1749163729999
 30
0.0
 11
80.10000000000003
 21
1.283298495364646
 31
0.0
  0
LINE
  5
155B
330
1F
100
AcDbEntity
  8
1
100
AcDbLine
 10
60.17643782849996
 20
-11.37174225599989
 30
0.0
 11
60.05003712459995
 21
-24.09741952989985
 31
0.0
  0
LINE
  5
155C
330
1F
100
AcDbEntity
  8
1
100
AcDbLine
 10
80.10000000000003
 20
-2.944088146199873
 30
0.0
 11
80.10000000000003
 21
-23.1560235172999
 31
0.0
  0
LINE
  5
155D
330
1F
100
AcDbEntity
  8
1
100
AcDbLine
 10
79.59999999999991
 20
-23.67500000000005
 30
0.0
 11
61.43589562594013
 21
-23.67500000000001
 31
0.0
  0
LINE
  5
155E
330
1F
100
AcDbEntity
  8
1
100
AcDbLine
 10
60.7857633379
 20
-24.85128045049993
 30
0.0
 11
73.43131437440002
 21
-24.95333450439989
 31
0.0
  0
LINE
  5
155F
330
1F
100
AcDbEntity
  8
1
100
AcDbLine
 10
79.60000000000002
 20
-23.67499999999989
 30
0.0
 11
74.18722583420003
 21
-23.67499999999989
 31
0.0
  0
ARC
  5
1560
330
1F
100
AcDbEntity
  8
1
100
AcDbCircle
 10
79.60000000000002
 20
-23.17499999999989
 30
0.0
 40
0.5
100
AcDbArc
 50
270.0
 51
0.000000000000007
  0
ELLIPSE
  5
1561
330
1F
100
AcDbEntity
  8
1
100
AcDbEllipse
 10
73.41094423699995
 20
-24.17698744449989
 30
0.0
 11
-0.4984640432
 21
0.6092197305
 31
0.0
210
0.0
220
0.0
230
-0.9999999999999998
 40
0.9654725041999999
 41
-3.999378163899998
 42
-2.464997958
  0
LINE
  5
1562
330
1F
100
AcDbEntity
  8
1
100
AcDbLine
 10
74.18189723670002
 20
-24.21146862189987
 30
0.0
 11
74.18722583414717
 21
-23.67499999999983
 31
0.0
  0
ELLIPSE
  5
1563
330
1F
100
AcDbEntity
  8
1
100
AcDbEllipse
 10
60.82155146349997
 20
-24.07538660759991
 30
0.0
 11
0.5154714812
 21
0.5968097784000001
 31
0.0
210
0.0
220
0.0
230
-1.0
 40
0.9619364689999999
 41
-3.8268386618
 42
-2.292458455999998
  0
SPLINE
  5
1564
330
1F
100
AcDbEntity
  8
1
100
AcDbSpline
210
0.0
220
0.0
230
1.0
 70
     8
 71
     3
 72
    11
 73
     7
 74
     5
 42
0.0000000001
 43
0.0000000001
 44
0.0000000001
 12
-0.0000000000000019
 22
-1.0
 32
0.0
 13
0.9998940201900825
 23
0.0145584473112656
 33
0.0
 40
0.0
 40
0.0
 40
0.0
 40
0.0
 40
0.1955771840182541
 40
0.3907530684257426
 40
0.5854372024953925
 40
0.7798360056125912
 40
0.7798360056125912
 40
0.7798360056125912
 40
0.7798360056125912
 10
60.94999999999993
 20
-23.17821295940001
 30
0.0
 10
60.94999999999993
 20
-23.24340535407276
 30
0.0
 10
60.97568351854139
 20
-23.37511176021251
 30
0.0
 10
61.08688783825283
 20
-23.54158807862182
 30
0.0
 10
61.25366098626614
 20
-23.65175070634002
 30
0.0
 10
61.38520726641027
 20
-23.67594338157752
 30
0.0
 10
61.44999999999993
 20
-23.67500000000001
 30
0.0
 11
60.94999999999993
 21
-23.17821295940001
 31
0.0
 11
60.98786992729992
 21
-23.37008870959998
 31
0.0
 11
61.0963119723999
 21
-23.5323660916
 31
0.0
 11
61.25887117329989
 21
-23.6394941377
 31
0.0
 11
61.44999999999993
 21
-23.67500000000001
 31
0.0
  0
DIMENSION
  5
1565
330
1F
100
AcDbEntity
  8
2
100
AcDbDimension
  2
*D1
 10
60.04142398165857
 20
39.58493057595905
 30
0.0
 11
69.53773120300832
 21
39.58493057595905
 31
0.0
 70
   160
  1
21
 71
     5
 42
20.95857601834143
  3
ISO-25
100
AcDbAlignedDimension
 13
81.0
 23
24.97500000000007
 33
0.0
 14
60.04142398165857
 24
13.2279899696237
 34
0.0
 50
180.0
100
AcDbRotatedDimension
1001
ACAD
1000
DSTYLE
1002
{
1070
   140
1040
3.5
1002
}
  0
SPLINE
  5
1566
330
1F
100
AcDbEntity
  8
CUT
100
AcDbSpline
210
0.0
220
0.0
230
1.0
 70
     8
 71
     3
 72
    36
 73
    32
 74
    30
 42
0.0000000001
 43
0.0000000001
 44
0.0000000001
 12
-0.0102713765161084
 22
0.9999472480208465
 32
0.0
 13
-0.0100105073632319
 23
0.9999498936158406
 33
0.0
 40
0.0
 40
0.0
 40
0.0
 40
0.0
 40
0.4250273531267733
 40
0.8510076460137005
 40
1.277848904143718
 40
1.705469121725853
 40
2.133794292563354
 40
2.56276144038006
 40
2.99231555793103
 40
3.422405637784086
 40
3.852986702581372
 40
4.284020744189467
 40
4.715470754443246
 40
5.147305755166931
 40
5.579495737819284
 40
6.012015693622442
 40
6.444842643922417
 40
6.877953569765888
 40
7.311329492259294
 40
7.744952402265278
 40
8.178807290508963
 40
8.612879177851448
 40
9.047154054962657
 40
9.481618912474798
 40
9.916262771013018
 40
10.35107462110563
 40
10.78604545319098
 40
11.22116628776683
 40
11.6564281152695
 40
12.09182292609414
 40
12.52734474056621
 40
12.52734474056621
 40
12.52734474056621
 40
12.52734474056621
 10
60.17643800000668
 20
11.70841599999976
 30
0.0
 10
60.17498279468213
 20
11.85008431069733
 30
0.0
 10
60.17207395277782
 20
12.13373861156115
 30
0.0
 10
60.16771689361244
 20
12.55966596143349
 30
0.0
 10
60.1633580391186
 20
12.98645762624871
 30
0.0
 10
60.15899907831749
 20
13.41403095666732
 30
0.0
 10
60.15464207324199
 20
13.84231297363101
 30
0.0
 10
60.15028301976496
 20
14.27123963639821
 30
0.0
 10
60.14592395150524
 20
14.70075463237444
 30
0.0
 10
60.14156685017013
 20
15.13080764826952
 30
0.0
 10
60.13720770674527
 20
15.56135397679223
 30
0.0
 10
60.13284856859588
 20
15.99235363872376
 30
0.0
 10
60.12849138667985
 20
16.42377132040914
 30
0.0
 10
60.12413221971466
 20
16.85557431536666
 30
0.0
 10
60.11977297157999
 20
17.28773397619188
 30
0.0
 10
60.11541590846615
 20
17.72022432569465
 30
0.0
 10
60.11105611726437
 20
18.15302164435669
 30
0.0
 10
60.10669903289593
 20
18.58610432695828
 30
0.0
 10
60.10233975067171
 20
19.01945232076815
 30
0.0
 10
60.09798050316418
 20
19.4530483149422
 30
0.0
 10
60.09362324365508
 20
19.88687632908498
 30
0.0
 10
60.08926398101884
 20
20.32092165643422
 30
0.0
 10
60.08490471459684
 20
20.75517031709035
 30
0.0
 10
60.08054743522053
 20
21.18960966434545
 30
0.0
 10
60.07618815885103
 20
21.62422799156404
 30
0.0
 10
60.07182886901552
 20
22.05901498532404
 30
0.0
 10
60.06747158522935
 20
22.49396099918419
 30
0.0
 10
60.06311228200063
 20
22.9290569928068
 30
0.0
 10
60.0587530464942
 20
23.36429432044887
 30
0.0
 10
60.05439553108402
 20
23.79966533197613
 30
0.0
 10
60.05149026478354
 20
24.08995633598352
 30
0.0
 10
60.05003700000667
 20
24.23512299999976
 30
0.0
 11
60.17643800000668
 21
11.70841599999976
 31
0.0
 11
60.17207900000665
 21
12.13342099999971
 31
0.0
 11
60.16772100000672
 21
12.55937899999975
 31
0.0
 11
60.16336200000671
 21
12.98619799999976
 31
0.0
 11
60.15900300000668
 21
13.41379599999976
 31
0.0
 11
60.15464500000678
 21
13.84209899999973
 31
0.0
 11
60.15028600000675
 21
14.27104399999973
 31
0.0
 11
60.14592700000672
 21
14.70057599999972
 31
0.0
 11
60.14156900000671
 21
15.13064399999973
 31
0.0
 11
60.1372100000068
 21
15.56120299999968
 31
0.0
 11
60.13285100000678
 21
15.9922149999997
 31
0.0
 11
60.12849300000663
 21
16.42364299999968
 31
0.0
 11
60.12413400000673
 21
16.85545599999971
 31
0.0
 11
60.11977500000671
 21
17.28762399999975
 31
0.0
 11
60.11541700000669
 21
17.72012199999972
 31
0.0
 11
60.11105800000668
 21
18.15292699999969
 31
0.0
 11
60.10670000000676
 21
18.58601599999968
 31
0.0
 11
60.10234100000673
 21
19.01936999999969
 31
0.0
 11
60.09798200000671
 21
19.45297099999976
 31
0.0
 11
60.0936240000068
 21
19.88680399999969
 31
0.0
 11
60.08926500000677
 21
20.32085399999977
 31
0.0
 11
60.08490600000675
 21
20.75510699999971
 31
0.0
 11
60.08054800000672
 21
21.18954999999977
 31
0.0
 11
60.07618900000672
 21
21.62417199999976
 31
0.0
 11
60.07183000000679
 21
22.05896199999972
 31
0.0
 11
60.06747200000666
 21
22.49391099999973
 31
0.0
 11
60.06311300000664
 21
22.92900999999971
 31
0.0
 11
60.05875400000672
 21
23.36424999999968
 31
0.0
 11
60.0543960000067
 21
23.7996229999997
 31
0.0
 11
60.05003700000667
 21
24.23512299999976
 31
0.0
  0
SPLINE
  5
1567
330
1F
100
AcDbEntity
  8
CUT
100
AcDbSpline
210
0.0
220
0.0
230
1.0
 70
     8
 71
     3
 72
    36
 73
    32
 74
    30
 42
0.0000000001
 43
0.0000000001
 44
0.0000000001
 12
0.0116102147552511
 22
0.9999325991852336
 32
0.0
 13
0.0115403776729023
 23
0.9999334076243112
 33
0.0
 40
0.0
 40
0.0
 40
0.0
 40
0.0
 40
0.4359723531715699
 40
0.872150680882841
 40
1.308514007752827
 40
1.745044323403372
 40
2.181725628916943
 40
2.618543925239364
 40
3.055487201603701
 40
3.492543481972669
 40
3.929703755375935
 40
4.366960022352188
 40
4.804304283439502
 40
5.241729539108378
 40
5.679229778199751
 40
6.116799024240902
 40
6.554432266005009
 40
6.992125503760673
 40
7.429874737775954
 40
7.867674956831402
 40
8.305524184170035
 40
8.743418408505078
 40
9.181355629970653
 40
9.6193318488342
 40
10.0573460536141
 40
10.49539426767507
 40
10.93347647946866
 40
11.37158968919534
 40
11.80973189698869
 40
12.24790310284888
 40
12.68609929549896
 40
12.68609929549896
 40
12.68609929549896
 40
12.68609929549896
 10
66.69931700000677
 20
11.54650699999973
 30
0.0
 10
66.70100424422265
 20
11.69182132275964
 30
0.0
 10
66.70437736133199
 20
11.98251864700963
 30
0.0
 10
66.70943476025382
 20
12.41866066171581
 30
0.0
 10
66.71449404417017
 20
12.85498865456196
 30
0.0
 10
66.71955287791902
 20
13.2914843231604
 30
0.0
 10
66.72461170042933
 20
13.728131658552
 30
0.0
 10
66.72967108865157
 20
14.16491665020108
 30
0.0
 10
66.73472828634321
 20
14.60182666721077
 30
0.0
 10
66.73978770157098
 20
15.03885065854582
 30
0.0
 10
66.74484652221578
 20
15.47597899395688
 30
0.0
 10
66.74990554184629
 20
15.91320332706439
 30
0.0
 10
66.75496436820835
 20
16.35051599574028
 30
0.0
 10
66.76002379972387
 20
16.78790998689729
 30
0.0
 10
66.76508103417129
 20
17.22537900345898
 30
0.0
 10
66.77014046071909
 20
17.66291732800635
 30
0.0
 10
66.77519934648794
 20
18.10051999599467
 30
0.0
 10
66.78025823383257
 20
18.53818266396341
 30
0.0
 10
66.78531765593598
 20
18.97590098856816
 30
0.0
 10
66.79037492151016
 20
19.41367133809168
 30
0.0
 10
66.79543434885971
 20
19.85148999596885
 30
0.0
 10
66.80049325052801
 20
20.2893543304389
 30
0.0
 10
66.80555213150661
 20
20.72726099848036
 30
0.0
 10
66.81061158645983
 20
21.16520765604299
 30
0.0
 10
66.81566882736984
 20
21.60319133917661
 30
0.0
 10
66.82072829757415
 20
22.04121032989633
 30
0.0
 10
66.82578714877957
 20
22.47926233161497
 30
0.0
 10
66.83084618504726
 20
22.91734566452958
 30
0.0
 10
66.835905123278
 20
23.35545866524299
 30
0.0
 10
66.84096431090025
 20
23.79359932589504
 30
0.0
 10
66.84433635015397
 20
24.08570232929153
 30
0.0
 10
66.84602200000664
 20
24.23175799999973
 30
0.0
 11
66.69931700000677
 21
11.54650699999973
 31
0.0
 11
66.70437600000671
 21
11.98244999999968
 31
0.0
 11
66.70943400000679
 21
12.41859899999968
 31
0.0
 11
66.71449300000666
 21
12.85493299999973
 31
0.0
 11
66.71955200000673
 21
13.29143399999969
 31
0.0
 11
66.7246110000068
 21
13.72808599999973
 31
0.0
 11
66.72967000000665
 21
14.16487499999975
 31
0.0
 11
66.73472800000673
 21
14.60178899999975
 31
0.0
 11
66.73978700000667
 21
15.03881599999971
 31
0.0
 11
66.74484600000676
 21
15.47594699999973
 31
0.0
 11
66.74990500000672
 21
15.91317399999974
 31
0.0
 11
66.75496400000668
 21
16.35048899999975
 31
0.0
 11
66.76002300000675
 21
16.78788499999972
 31
0.0
 11
66.76508100000671
 21
17.22535599999973
 31
0.0
 11
66.77014000000679
 21
17.66289599999976
 31
0.0
 11
66.77519900000664
 21
18.10049999999971
 31
0.0
 11
66.78025800000671
 21
18.53816399999976
 31
0.0
 11
66.78531700000679
 21
18.97588399999971
 31
0.0
 11
66.79037500000674
 21
19.41365499999971
 31
0.0
 11
66.79543400000671
 21
19.85147499999976
 31
0.0
 11
66.80049300000668
 21
20.28933999999975
 31
0.0
 11
66.80555200000674
 21
20.72724799999973
 31
0.0
 11
66.8106110000067
 21
21.16519499999975
 31
0.0
 11
66.81566900000678
 21
21.60317999999971
 31
0.0
 11
66.82072800000674
 21
22.04119899999971
 31
0.0
 11
66.8257870000067
 21
22.47925199999968
 31
0.0
 11
66.83084600000677
 21
22.91733599999969
 31
0.0
 11
66.83590500000672
 21
23.35544899999972
 31
0.0
 11
66.84096400000668
 21
23.7935909999997
 31
0.0
 11
66.84602200000664
 21
24.23175799999973
 31
0.0
  0
SPLINE
  5
1568
330
1F
100
AcDbEntity
  8
CUT
100
AcDbSpline
210
0.0
220
0.0
230
1.0
 70
     8
 71
     3
 72
    36
 73
    32
 74
    30
 42
0.0000000001
 43
0.0000000001
 44
0.0000000001
 12
0.0099457903320115
 22
-0.9999505394041607
 32
0.0
 13
0.0100048109459328
 23
-0.9999499506264982
 33
0.0
 40
0.0
 40
0.0
 40
0.0
 40
0.0
 40
0.4381896816504966
 40
0.8763523646371126
 40
1.314487039061531
 40
1.752592724869192
 40
2.190665402361157
 40
2.628706091386782
 40
3.066710782195025
 40
3.504677464933516
 40
3.942604159605136
 40
4.380488856357589
 40
4.818326545484509
 40
5.256116246945151
 40
5.69385295103332
 40
6.131533647940377
 40
6.569154357781653
 40
7.006709070897654
 40
7.444194777475574
 40
7.881604497789378
 40
8.318933212159901
 40
8.756171940968355
 40
9.193314674548581
 40
9.630352403377598
 40
10.0672741479509
 40
10.50407089874692
 40
10.94072864648537
 40
11.37723441178178
 40
11.81357218545831
 40
12.24972195852719
 40
12.68566375198248
 40
12.68566375198248
 40
12.68566375198248
 40
12.68566375198248
 10
74.18189700000664
 20
24.23079099999972
 30
0.0
 10
74.18334971423975
 20
24.08473499715713
 30
0.0
 10
74.18625586571458
 20
23.79263199866358
 30
0.0
 10
74.19061522380985
 20
23.35449133887562
 30
0.0
 10
74.19497240338163
 20
22.91637865741451
 30
0.0
 10
74.19933228745815
 20
22.47829600617611
 30
0.0
 10
74.20368947834404
 20
22.04024465815926
 30
0.0
 10
74.20804882775283
 20
21.60222699828518
 30
0.0
 10
74.21240814252174
 20
21.16424467140201
 30
0.0
 10
74.21676546766554
 20
20.72630032471744
 30
0.0
 10
74.22112479290091
 20
20.28839599793778
 30
0.0
 10
74.22548409655504
 20
19.85053467094581
 30
0.0
 10
74.22984143059671
 20
19.41271899101251
 30
0.0
 10
74.23420073460437
 20
18.97495266402322
 30
0.0
 10
74.23856005439052
 20
18.53723867052746
 30
0.0
 10
74.24291737164274
 20
18.09958099042208
 30
0.0
 10
74.24727666019798
 20
17.66198399661411
 30
0.0
 10
74.25163602514425
 20
17.22445200357128
 30
0.0
 10
74.25599316390526
 20
16.78699032168072
 30
0.0
 10
74.26035305448905
 20
16.3496040038645
 30
0.0
 10
74.2647101832799
 20
15.91229998853673
 30
0.0
 10
74.26906953171084
 20
15.47508499532968
 30
0.0
 10
74.27342880836452
 20
15.03796700141303
 30
0.0
 10
74.27778608726351
 20
14.6009546542376
 30
0.0
 10
74.2821453787592
 20
14.16405766046646
 30
0.0
 10
74.28650463924919
 20
13.72728733305983
 30
0.0
 10
74.29086190618416
 20
13.29065565241855
 30
0.0
 10
74.29522117429394
 20
12.85417699175126
 30
0.0
 10
74.2995803492919
 20
12.41786766349531
 30
0.0
 10
74.30393779390886
 20
11.98174631794714
 30
0.0
 10
74.30684416159765
 20
11.69106365828023
 30
0.0
 10
74.30829800000663
 20
11.54575699999969
 30
0.0
 11
74.18189700000664
 21
24.23079099999972
 31
0.0
 11
74.18625600000665
 21
23.79262299999976
 31
0.0
 11
74.19061500000669
 21
23.35448199999972
 31
0.0
 11
74.1949730000067
 21
22.91636899999973
 31
0.0
 11
74.19933200000674
 21
22.47828499999973
 31
0.0
 11
74.20369000000675
 21
22.04023399999976
 31
0.0
 11
74.20804900000678
 21
21.60221499999971
 31
0.0
 11
74.2124080000068
 21
21.16423199999968
 31
0.0
 11
74.2167660000067
 21
20.72628699999973
 31
0.0
 11
74.22112500000674
 21
20.28838199999972
 31
0.0
 11
74.22548400000676
 21
19.85051899999973
 31
0.0
 11
74.22984200000667
 21
19.41270299999973
 31
0.0
 11
74.23420100000669
 21
18.97493499999973
 31
0.0
 11
74.23856000000673
 21
18.53721999999976
 31
0.0
 11
74.24291800000673
 21
18.09956099999971
 31
0.0
 11
74.24727700000666
 21
17.66196199999972
 31
0.0
 11
74.25163600000667
 21
17.22442899999969
 31
0.0
 11
74.25599400000681
 21
16.78696499999972
 31
0.0
 11
74.26035300000672
 21
16.34957699999971
 31
0.0
 11
74.26471100000672
 21
15.91226999999975
 31
0.0
 11
74.26907000000676
 21
15.47505299999971
 31
0.0
 11
74.27342900000678
 21
15.03793199999972
 31
0.0
 11
74.27778700000668
 21
14.60091599999969
 31
0.0
 11
74.28214600000671
 21
14.16401599999971
 31
0.0
 11
74.28650500000673
 21
13.72724099999976
 31
0.0
 11
74.29086300000665
 21
13.29060499999973
 31
0.0
 11
74.29522200000667
 21
12.85412099999973
 31
0.0
 11
74.29958100000671
 21
12.41780499999975
 31
0.0
 11
74.30393900000672
 21
11.98167699999969
 31
0.0
 11
74.30829800000663
 21
11.54575699999969
 31
0.0
  0
SPLINE
  5
1569
330
1F
100
AcDbEntity
  8
CUT
100
AcDbSpline
210
0.0
220
0.0
230
1.0
 70
     8
 71
     3
 72
    36
 73
    32
 74
    30
 42
0.0000000001
 43
0.0000000001
 44
0.0000000001
 12
-0.0116096469525245
 22
-0.9999326057778283
 32
0.0
 13
-0.0119150475383445
 23
-0.9999290133015238
 33
0.0
 40
0.0
 40
0.0
 40
0.0
 40
0.0
 40
0.4355313712788584
 40
0.8709357627426628
 40
1.30620816311972
 40
1.741338573091242
 40
2.176320993069348
 40
2.611143412239465
 40
3.045798854350841
 40
3.480275308592065
 40
3.914561775719477
 40
4.348645256627182
 40
4.782511740620854
 40
5.21614825191799
 40
5.649537780034492
 40
6.08266132628548
 40
6.515501891854335
 40
6.948035478408014
 40
7.380240075779416
 40
7.812088709263437
 40
8.243554369052276
 40
8.674603057534215
 40
9.105199777180327
 40
9.535305518992773
 40
9.96487430976089
 40
10.39385714122385
 40
10.82219801739843
 40
11.24983294289678
 40
11.67668891115773
 40
12.10268395186363
 40
12.52772505999558
 40
12.52772505999558
 40
12.52772505999558
 40
12.52772505999558
 10
80.97763700000667
 20
24.21324999999972
 30
0.0
 10
80.97595154485425
 20
24.06808266033944
 30
0.0
 10
80.97257990418748
 20
23.77779031895602
 30
0.0
 10
80.96752072540775
 20
23.34241699156924
 30
0.0
 10
80.96246181516242
 20
22.90717732385695
 30
0.0
 10
80.95740295011914
 20
22.47207832228354
 30
0.0
 10
80.95234357052879
 20
22.03712933057453
 30
0.0
 10
80.94728633118903
 20
21.60233864729778
 30
0.0
 10
80.9422269528285
 20
21.16771665557253
 30
0.0
 10
80.93716810488311
 20
20.73327332046501
 30
0.0
 10
80.93210927333833
 20
20.29902065182809
 30
0.0
 10
80.92704990139299
 20
19.86497132671196
 30
0.0
 10
80.92199270494722
 20
19.43113864289468
 30
0.0
 10
80.91693334031111
 20
18.9975373176901
 30
0.0
 10
80.91187458855008
 20
18.56418364811658
 30
0.0
 10
80.90681561502746
 20
18.13109531446221
 30
0.0
 10
80.90175689765663
 20
17.6982923111432
 30
0.0
 10
80.89669755461345
 20
17.2657956523782
 30
0.0
 10
80.89164044993134
 20
16.83362963407697
 30
0.0
 10
80.8865811491983
 20
16.40181964147471
 30
0.0
 10
80.88152244632974
 20
15.97039497130229
 30
0.0
 10
80.87646374334294
 20
15.53938763444848
 30
0.0
 10
80.8714045184921
 20
15.10883364098153
 30
0.0
 10
80.86634752275186
 20
14.67877295461894
 30
0.0
 10
80.86128835907128
 20
14.24925029374188
 30
0.0
 10
80.85622978555845
 20
13.82031595532349
 30
0.0
 10
80.85117125837996
 20
13.39202628299185
 30
0.0
 10
80.84611225106504
 20
12.96444562028167
 30
0.0
 10
80.84105543975658
 20
12.53764693151671
 30
0.0
 10
80.83599667068593
 20
12.11171293257425
 30
0.0
 10
80.83262012834316
 20
11.82805431195534
 30
0.0
 10
80.83093200000678
 20
11.68638399999968
 30
0.0
 11
80.97763700000667
 21
24.21324999999972
 31
0.0
 11
80.9725790000067
 21
23.77774799999968
 31
0.0
 11
80.96752000000675
 21
23.34237299999971
 31
0.0
 11
80.96246100000678
 21
22.90712999999971
 31
0.0
 11
80.95740200000671
 21
22.47202899999972
 31
0.0
 11
80.95234300000674
 21
22.03707599999972
 31
0.0
 11
80.94728500000668
 21
21.60228299999977
 31
0.0
 11
80.94222600000669
 21
21.16765699999973
 31
0.0
 11
80.93716700000674
 21
20.7332099999997
 31
0.0
 11
80.93210800000667
 21
20.29895299999969
 31
0.0
 11
80.92704900000672
 21
19.86489899999974
 31
0.0
 11
80.92199100000664
 21
19.43106199999971
 31
0.0
 11
80.9169320000068
 21
18.99745499999976
 31
0.0
 11
80.91187300000672
 21
18.56409499999971
 31
0.0
 11
80.90681400000667
 21
18.13100099999968
 31
0.0
 11
80.90175500000668
 21
17.69818999999972
 31
0.0
 11
80.89669600000673
 21
17.26568599999973
 31
0.0
 11
80.89163800000676
 21
16.83351099999976
 31
0.0
 11
80.88657900000669
 21
16.40169199999974
 31
0.0
 11
80.88152000000674
 21
15.97025599999972
 31
0.0
 11
80.87646100000675
 21
15.53923699999972
 31
0.0
 11
80.87140200000671
 21
15.10866999999973
 31
0.0
 11
80.86634400000674
 21
14.67859399999968
 31
0.0
 11
80.86128500000667
 21
14.24905499999971
 31
0.0
 11
80.8562260000067
 21
13.82010199999973
 31
0.0
 11
80.85116700000673
 21
13.39179099999972
 31
0.0
 11
80.84610800000666
 21
12.96418599999975
 31
0.0
 11
80.8410500000067
 21
12.53735999999975
 31
0.0
 11
80.83599100000673
 21
12.11139499999973
 31
0.0
 11
80.83093200000678
 21
11.68638399999968
 31
0.0
  0
LINE
  5
156A
330
1F
100
AcDbEntity
  8
1
100
AcDbLine
 10
60.95000000000005
 20
23.18526173059609
 30
0.0
 11
60.95000000000005
 21
-11.88119297349986
 31
0.0
  0
LINE
  5
156B
330
1F
100
AcDbEntity
  8
1
100
AcDbLine
 10
80.10000000000003
 20
23.13107719990012
 30
0.0
 11
80.10000000000003
 21
1.283298495364761
 31
0.0
  0
ARC
  5
156F
330
1F
100
AcDbEntity
  8
CUT
100
AcDbCircle
 10
78.18941041317339
 20
853.5210925864662
 30
0.0
 40
842.7267328927996
100
AcDbArc
 50
268.8262729497
 51
269.6861061959999
  0
LINE
  5
1570
330
1F
100
AcDbEntity
  8
3
100
AcDbLine
 10
67.40344247609994
 20
0.0000000000001137
 30
0.0
 11
65.0
 21
4.000000000000113
 31
0.0
  0
LINE
  5
1571
330
1F
100
AcDbEntity
  8
3
100
AcDbLine
 10
65.0
 20
-3.27694281299989
 30
0.0
 11
65.0
 21
3.276942812900131
 31
0.0
  0
SPLINE
  5
1572
330
1F
100
AcDbEntity
  8
3
100
AcDbSpline
210
0.0
220
0.0
230
1.0
 70
     8
 71
     3
 72
     9
 73
     5
 74
     3
 42
0.0000000001
 43
0.0000000001
 44
0.0000000001
 12
-0.2985904605939536
 22
-0.9543813372244297
 32
0.0
 13
-0.4945205871705812
 23
-0.8691659156136207
 33
0.0
 40
0.0
 40
0.0
 40
0.0
 40
0.0
 40
0.2650483392132099
 40
0.6120692641054008
 40
0.6120692641054008
 40
0.6120692641054008
 40
0.6120692641054008
 10
65.26795714759997
 20
-3.435187746599865
 30
0.0
 10
65.24157684570486
 20
-3.519506809402337
 30
0.0
 10
65.15566753618935
 20
-3.705754551122635
 30
0.0
 10
65.05720299717939
 20
-3.884188309659551
 30
0.0
 10
65.0
 20
-3.984727896299886
 30
0.0
 11
65.26795714759997
 21
-3.435187746599865
 31
0.0
 11
65.16481874580006
 21
-3.679345671299926
 31
0.0
 11
65.0
 21
-3.984727896299886
 31
0.0
  0
SPLINE
  5
1573
330
1F
100
AcDbEntity
  8
3
100
AcDbSpline
210
0.0
220
0.0
230
1.0
 70
     8
 71
     3
 72
     9
 73
     5
 74
     3
 42
0.0000000001
 43
0.0000000001
 44
0.0000000001
 12
0.0
 22
-1.0
 32
0.0
 13
-0.2985904609571964
 23
-0.9543813371107846
 33
0.0
 40
0.0
 40
0.0
 40
0.0
 40
0.0
 40
0.0290733413103271
 40
0.1371723797943333
 40
0.1371723797943333
 40
0.1371723797943333
 40
0.1371723797943333
 10
65.29294937949997
 20
-3.300623682699892
 30
0.0
 10
65.29294937949997
 20
-3.310314796470001
 30
0.0
 10
65.2901259821908
 20
-3.356039599652313
 30
0.0
 10
65.27871626150996
 20
-3.400798511636946
 30
0.0
 10
65.26795714759997
 20
-3.435187746599865
 30
0.0
 11
65.29294937949997
 21
-3.300623682699892
 31
0.0
 11
65.29136684299999
 21
-3.329653921299893
 31
0.0
 11
65.26795714759997
 21
-3.435187746599865
 31
0.0
  0
LINE
  5
1574
330
1F
100
AcDbEntity
  8
3
100
AcDbLine
 10
65.0
 20
-3.999999999999886
 30
0.0
 11
64.40307523650004
 21
-3.999999999999886
 31
0.0
  0
LINE
  5
1575
330
1F
100
AcDbEntity
  8
3
100
AcDbLine
 10
67.40344247609994
 20
0.0000000000001137
 30
0.0
 11
65.0
 21
-3.999999999999886
 31
0.0
  0
ARC
  5
1576
330
1F
100
AcDbEntity
  8
CUT
100
AcDbCircle
 10
64.2440161477067
 20
847.4079130854661
 30
0.0
 40
836.6074973907997
100
AcDbArc
 50
270.2184581501
 51
271.0845486591999
  0
SPLINE
  5
1577
330
1F
100
AcDbEntity
  8
CUT
100
AcDbSpline
210
0.0
220
0.0
230
1.0
 70
     8
 71
     3
 72
    36
 73
    32
 74
    30
 42
0.0000000001
 43
0.0000000001
 44
0.0000000001
 12
0.99968820593363
 22
0.0249698001033262
 32
0.0
 13
0.0184518625176029
 23
0.9998297498922662
 33
0.0
 40
0.0
 40
0.0
 40
0.0
 40
0.0
 40
0.0418715079379006
 40
0.0832148479214148
 40
0.1241330325464787
 40
0.1647311330438553
 40
0.2051216888830672
 40
0.2456559022342058
 40
0.2863373457312632
 40
0.3269625207093345
 40
0.3673207277185489
 40
0.4072556735304239
 40
0.4472861630229232
 40
0.4874434978573247
 40
0.527534249159789
 40
0.5673634488127829
 40
0.6068612302314938
 40
0.6465667602368044
 40
0.6864125122437044
 40
0.7262086227320807
 40
0.7657670980565737
 40
0.8051228339155745
 40
0.84479701539416
 40
0.8846438886592464
 40
0.9244679242156593
 40
0.9640770482276497
 40
1.003488849569414
 40
1.043057070555425
 40
1.08290749722815
 40
1.123154162245302
 40
1.163909490191454
 40
1.163909490191454
 40
1.163909490191454
 40
1.163909490191454
 10
80.0791690000068
 20
10.95022699999975
 30
0.0
 10
80.09312181755687
 20
10.95057550772749
 30
0.0
 10
80.12083987207374
 20
10.95193039335957
 30
0.0
 10
80.16203536744475
 20
10.95597833491029
 30
0.0
 10
80.20255719279793
 20
10.96202941026293
 30
0.0
 10
80.24240412092879
 20
10.97008612023279
 30
0.0
 10
80.28166001969038
 20
10.98015465137865
 30
0.0
 10
80.32034194950066
 20
10.99233684899159
 30
0.0
 10
80.35840519911962
 20
11.0065535207706
 30
0.0
 10
80.39563775737642
 20
11.022673800161
 30
0.0
 10
80.43177882914831
 20
11.04055720714922
 30
0.0
 10
80.4667733205226
 20
11.06019258287292
 30
0.0
 10
80.50059792710863
 20
11.08165637490601
 30
0.0
 10
80.53330350308849
 20
11.10487716806368
 30
0.0
 10
80.56471380693844
 20
11.12971414684531
 30
0.0
 10
80.59463202585339
 20
11.15599866756205
 30
0.0
 10
80.6230069877729
 20
11.18376019030999
 30
0.0
 10
80.64984791286518
 20
11.21301398005124
 30
0.0
 10
80.67518852071049
 20
11.24370497413084
 30
0.0
 10
80.6988532162304
 20
11.27564527082095
 30
0.0
 10
80.72069928321031
 20
11.30866205188051
 30
0.0
 10
80.74065353182154
 20
11.34280843801794
 30
0.0
 10
80.75879448532436
 20
11.37805843219321
 30
0.0
 10
80.77510686036276
 20
11.41436239616596
 30
0.0
 10
80.78945328969775
 20
11.45146448880216
 30
0.0
 10
80.80169894248852
 20
11.48916139072311
 30
0.0
 10
80.81176032430324
 20
11.52741041152743
 30
0.0
 10
80.81974522635833
 20
11.56622691212345
 30
0.0
 10
80.8256600851234
 20
11.60569412136321
 30
0.0
 10
80.82950326079078
 20
11.64581229695923
 30
0.0
 10
80.83068132943742
 20
11.67280120355063
 30
0.0
 10
80.83093200000678
 20
11.68638399999968
 30
0.0
 11
80.0791690000068
 21
10.95022699999975
 31
0.0
 11
80.12099000000672
 21
10.95228299999968
 31
0.0
 11
80.16213400000664
 21
10.95633799999973
 31
0.0
 11
80.20260200000675
 21
10.96239099999974
 31
0.0
 11
80.2423940000067
 21
10.97044099999975
 31
0.0
 11
80.28151400000671
 21
10.98049199999974
 31
0.0
 11
80.32018000000666
 21
10.99265599999972
 31
0.0
 11
80.35829300000671
 21
11.00688199999973
 31
0.0
 11
80.39557400000672
 21
11.02302299999968
 31
0.0
 11
80.43174200000668
 21
11.04092999999972
 31
0.0
 11
80.46656100000666
 21
11.06048599999968
 31
0.0
 11
80.5003690000068
 21
11.08192099999967
 31
0.0
 11
80.53311400000678
 21
11.10516699999976
 31
0.0
 11
80.56456000000673
 21
11.13003499999973
 31
0.0
 11
80.5944720000067
 21
11.15633399999973
 31
0.0
 11
80.62270300000671
 21
11.18395799999973
 31
0.0
 11
80.64955600000677
 21
11.21320599999972
 31
0.0
 11
80.67492400000672
 21
11.24393299999968
 31
0.0
 11
80.69861100000673
 21
11.27591199999972
 31
0.0
 11
80.72042400000668
 21
11.30891299999973
 31
0.0
 11
80.74029300000676
 21
11.34288499999974
 31
0.0
 11
80.75845300000674
 21
11.37815899999969
 31
0.0
 11
80.77478300000676
 21
11.41450599999973
 31
0.0
 11
80.78913500000671
 21
11.45165399999973
 31
0.0
 11
80.80135800000666
 21
11.48932999999971
 31
0.0
 11
80.81140000000676
 21
11.52744099999972
 31
0.0
 11
80.81937600000673
 21
11.56619699999969
 31
0.0
 11
80.8252910000067
 21
11.60560599999967
 31
0.0
 11
80.82914200000676
 21
11.64566799999971
 31
0.0
 11
80.83093200000678
 21
11.68638399999968
 31
0.0
  0
SPLINE
  5
1578
330
1F
100
AcDbEntity
  8
3
100
AcDbSpline
210
0.0
220
0.0
230
1.0
 70
     8
 71
     3
 72
    10
 73
     6
 74
     4
 42
0.0000000001
 43
0.0000000001
 44
0.0000000001
 12
0.0
 22
1.0
 32
0.0
 13
-0.4945205872495155
 23
0.8691659155687101
 33
0.0
 40
0.0
 40
0.0
 40
0.0
 40
0.0
 40
0.121629680735496
 40
0.2901160769789613
 40
0.7490479512302633
 40
0.7490479512302633
 40
0.7490479512302633
 40
0.7490479512302633
 10
65.29294937949997
 20
3.300623682600131
 30
0.0
 10
65.29294937949997
 20
3.341166909511963
 30
0.0
 10
65.27151768035357
 20
3.437104544281658
 30
0.0
 10
65.17831996467799
 20
3.668580742596263
 30
0.0
 10
65.07565041998742
 20
3.851765248744348
 30
0.0
 10
65.0
 20
3.984727896300113
 30
0.0
 11
65.29294937949997
 21
3.300623682600131
 31
0.0
 11
65.27240150739999
 21
3.420505141500086
 31
0.0
 11
65.21268328359997
 21
3.57805322770008
 31
0.0
 11
65.0
 21
3.984727896300113
 31
0.0
  0
ARC
  5
1579
330
1F
100
AcDbEntity
  8
3
100
AcDbCircle
 10
64.01350036060001
 20
0.9249646809000752
 30
0.0
 40
1.6872959647
100
AcDbArc
 50
54.2208089548
 51
57.30216442530004
  0
ARC
  5
157A
330
1F
100
AcDbEntity
  8
3
100
AcDbCircle
 10
62.54966560269997
 20
0.9971189508000859
 30
0.0
 40
2.772290100099999
100
AcDbArc
 50
24.76266576910001
 51
27.88764425380001
  0
LINE
  5
157B
330
1F
100
AcDbEntity
  8
3
100
AcDbLine
 10
65.0
 20
4.000000000000113
 30
0.0
 11
64.40307523650004
 21
4.000000000000113
 31
0.0
  0
LINE
  5
157C
330
1F
100
AcDbEntity
  8
3
100
AcDbLine
 10
65.0
 20
2.237948634200108
 30
0.0
 11
65.0
 21
2.293827761800115
 31
0.0
  0
SPLINE
  5
157D
330
1F
100
AcDbEntity
  8
CUT
100
AcDbSpline
210
0.0
220
0.0
230
1.0
 70
     8
 71
     3
 72
    36
 73
    32
 74
    30
 42
0.0000000001
 43
0.0000000001
 44
0.0000000001
 12
0.9999996692506579
 22
0.0008133256266399
 32
0.0
 13
-0.0036568688465389
 23
0.999993313632766
 33
0.0
 40
0.0
 40
0.0
 40
0.0
 40
0.0
 40
0.0418078229641245
 40
0.0830002869350804
 40
0.1236873999072269
 40
0.1639825060740955
 40
0.2040079990129492
 40
0.2441193807642622
 40
0.2843359129370236
 40
0.3244661393131152
 40
0.3643150696501359
 40
0.4037427091432493
 40
0.4432711646151779
 40
0.4829452710953175
 40
0.5225850556557798
 40
0.5620098594726607
 40
0.6011610278333074
 40
0.6405848055568181
 40
0.6802217963735587
 40
0.7198918659474602
 40
0.7594162521539438
 40
0.7988366741202493
 40
0.8386778524412019
 40
0.8787984574839644
 40
0.9190044481942795
 40
0.9591031253420577
 40
0.9991151685291242
 40
1.03939427211888
 40
1.08006302903377
 40
1.121235855655223
 40
1.163022270887893
 40
1.163022270887893
 40
1.163022270887893
 40
1.163022270887893
 10
73.57257200000673
 20
10.80707299999976
 30
0.0
 10
73.58650793638547
 20
10.8070843344577
 30
0.0
 10
73.61417945343041
 20
10.80778676859635
 30
0.0
 10
73.65530637794448
 20
10.81092460988669
 30
0.0
 10
73.69571565411118
 20
10.81613802617673
 30
0.0
 10
73.73540562243835
 20
10.82343414232949
 30
0.0
 10
73.77445961737241
 20
10.83281404107789
 30
0.0
 10
73.81289353747156
 20
10.84438912952
 30
0.0
 10
73.85066352258028
 20
10.85807309620789
 30
0.0
 10
73.88755955455915
 20
10.87374007412099
 30
0.0
 10
73.92332448213267
 20
10.89125084187619
 30
0.0
 10
73.95790282342725
 20
10.91059732064618
 30
0.0
 10
73.99127052552905
 20
10.93185606160209
 30
0.0
 10
74.02347767579124
 20
10.95495425619552
 30
0.0
 10
74.05435255297226
 20
10.97974989528798
 30
0.0
 10
74.08370279878868
 20
11.00607337841146
 30
0.0
 10
74.11147387403929
 20
11.03395754421337
 30
0.0
 10
74.13767865141656
 20
11.06341209721562
 30
0.0
 10
74.16234730825792
 20
11.09438522343314
 30
0.0
 10
74.18531268977712
 20
11.12668270290889
 30
0.0
 10
74.20643448028354
 20
11.16013126361113
 30
0.0
 10
74.2256358500158
 20
11.19478314211775
 30
0.0
 10
74.24299823048753
 20
11.23061122692651
 30
0.0
 10
74.25850994459608
 20
11.26756270974267
 30
0.0
 10
74.27203615301256
 20
11.3053778977556
 30
0.0
 10
74.28344502000664
 20
11.3438487705324
 30
0.0
 10
74.29265807430565
 20
11.3829280157882
 30
0.0
 10
74.29978160101393
 20
11.42263317589648
 30
0.0
 10
74.30481865719132
 20
11.46304673168843
 30
0.0
 10
74.30777148596229
 20
11.5041675906669
 30
0.0
 10
74.30834893581999
 20
11.53182828805523
 30
0.0
 10
74.30829800000663
 20
11.54575699999969
 30
0.0
 11
73.57257200000673
 21
10.80707299999976
 31
0.0
 11
73.61436600000672
 21
10.80814799999973
 31
0.0
 11
73.65543800000671
 21
10.81129599999968
 31
0.0
 11
73.69578900000681
 21
10.81651499999969
 31
0.0
 11
73.7354190000068
 21
10.8238059999997
 31
0.0
 11
73.77433300000678
 21
10.8331729999997
 31
0.0
 11
73.81274400000676
 21
10.84472799999974
 31
0.0
 11
73.8505580000068
 21
10.85841999999973
 31
0.0
 11
73.88749600000676
 21
10.8741049999997
 31
0.0
 11
73.92328100000679
 21
10.89163699999976
 31
0.0
 11
73.9576810000068
 21
10.91090299999973
 31
0.0
 11
73.99102700000674
 21
10.93212899999974
 31
0.0
 11
74.02326900000673
 21
10.95524799999969
 31
0.0
 11
74.05417500000671
 21
10.98006999999972
 31
0.0
 11
74.08351500000673
 21
11.00640399999969
 31
0.0
 11
74.1111430000068
 21
11.03414399999967
 31
0.0
 11
74.13735800000665
 21
11.06358899999968
 31
0.0
 11
74.16205300000672
 21
11.09459299999974
 31
0.0
 11
74.18503900000668
 21
11.12692499999974
 31
0.0
 11
74.20612800000673
 21
11.1603529999997
 31
0.0
 11
74.22525000000668
 21
11.19482499999975
 31
0.0
 11
74.24263300000678
 21
11.23067399999973
 31
0.0
 11
74.25816300000668
 21
11.26766699999973
 31
0.0
 11
74.27169600000673
 21
11.30552699999969
 31
0.0
 11
74.28308600000673
 21
11.34397399999971
 31
0.0
 11
74.29228600000681
 21
11.38291399999973
 31
0.0
 11
74.29940500000668
 21
11.42255899999969
 31
0.0
 11
74.30444700000669
 21
11.46291399999972
 31
0.0
 11
74.30741100000671
 21
11.50397999999972
 31
0.0
 11
74.30829800000663
 21
11.54575699999969
 31
0.0
  0
SPLINE
  5
157E
330
1F
100
AcDbEntity
  8
CUT
100
AcDbSpline
210
0.0
220
0.0
230
1.0
 70
     8
 71
     3
 72
    36
 73
    32
 74
    30
 42
0.0000000001
 43
0.0000000001
 44
0.0000000001
 12
-0.9999967201891355
 22
0.0025611737488295
 32
0.0
 13
0.0053065751015673
 23
0.9999859200312229
 33
0.0
 40
0.0
 40
0.0
 40
0.0
 40
0.0
 40
0.0418066825520573
 40
0.0829983392436799
 40
0.1236853068500309
 40
0.1639796257795396
 40
0.204005066351773
 40
0.2441167457605769
 40
0.2843331566645566
 40
0.324464132830122
 40
0.3643130183102603
 40
0.4037411351812138
 40
0.4432707292850103
 40
0.4829460603106042
 40
0.5225879016024026
 40
0.562014083778752
 40
0.6011682661862811
 40
0.6405938750844835
 40
0.6802334037648317
 40
0.7199068140669347
 40
0.759433202480334
 40
0.7988571216791458
 40
0.8387013769238642
 40
0.8788255514823097
 40
0.919034270263179
 40
0.9591367664697767
 40
0.9991518952713146
 40
1.039433520188861
 40
1.080106179531464
 40
1.121282287652554
 40
1.163071313987233
 40
1.163071313987233
 40
1.163071313987233
 40
1.163071313987233
 10
67.43383700000674
 20
10.80654799999973
 30
0.0
 10
67.41990148486206
 20
10.80658369139235
 30
0.0
 10
67.39223189316186
 20
10.80733176968565
 30
0.0
 10
67.35111069951551
 20
10.81053568988703
 30
0.0
 10
67.31071099838453
 20
10.81581834560791
 30
0.0
 10
67.271033407941
 20
10.82317967342887
 30
0.0
 10
67.23199578021459
 20
10.83262674481122
 30
0.0
 10
67.19358101813606
 20
10.84426524622596
 30
0.0
 10
67.15583352596127
 20
10.85801213584771
 30
0.0
 10
67.11896401344137
 20
10.87374198652745
 30
0.0
 10
67.08322886665055
 20
10.89131428818029
 30
0.0
 10
67.04868236402046
 20
10.91071861367308
 30
0.0
 10
67.01535000999213
 20
10.93203454272986
 30
0.0
 10
66.98318076027774
 20
10.95518794134125
 30
0.0
 10
66.95234566818236
 20
10.98003559293202
 30
0.0
 10
66.92303979341885
 20
11.00641163326789
 30
0.0
 10
66.8953124993817
 20
11.03434226010614
 30
0.0
 10
66.86915737831935
 20
11.0638442389616
 30
0.0
 10
66.84453801063236
 20
11.09485977641713
 30
0.0
 10
66.82162511952784
 20
11.1271977705104
 30
0.0
 10
66.80055777193961
 20
11.16068414661608
 30
0.0
 10
66.78141365231605
 20
11.19537091072876
 30
0.0
 10
66.76410716360948
 20
11.23122976271789
 30
0.0
 10
66.74865589178198
 20
11.26821001497652
 30
0.0
 10
66.73519202771017
 20
11.30605096432117
 30
0.0
 10
66.7238434091899
 20
11.34454299746051
 30
0.0
 10
66.71469417732993
 20
11.383640486219
 30
0.0
 10
66.70763436219207
 20
11.42336022517002
 30
0.0
 10
66.70266268996505
 20
11.46378513961017
 30
0.0
 10
66.69977569190598
 20
11.50491393536868
 30
0.0
 10
66.69924308113788
 20
11.53257752068423
 30
0.0
 10
66.69931700000677
 20
11.54650699999973
 30
0.0
 11
67.43383700000674
 21
10.80654799999973
 31
0.0
 11
67.39204600000665
 21
10.80769299999968
 31
0.0
 11
67.35098000000665
 21
10.81090799999975
 31
0.0
 11
67.31063800000663
 21
10.81619499999969
 31
0.0
 11
67.27102100000672
 21
10.82355199999972
 31
0.0
 11
67.23212300000671
 21
10.83298499999972
 31
0.0
 11
67.19373100000678
 21
10.84460399999972
 31
0.0
 11
67.15594000000681
 21
10.85835899999972
 31
0.0
 11
67.11902800000678
 21
10.87410699999969
 31
0.0
 11
67.08327300000667
 21
10.89169999999973
 31
0.0
 11
67.04890500000681
 21
10.91102399999971
 31
0.0
 11
67.01559400000667
 21
10.93230699999975
 31
0.0
 11
66.98339000000681
 21
10.95548099999973
 31
0.0
 11
66.95252400000675
 21
10.98035599999974
 31
0.0
 11
66.9232280000067
 21
11.00674099999974
 31
0.0
 11
66.89564400000666
 21
11.03452899999973
 31
0.0
 11
66.86947800000678
 21
11.06401999999974
 31
0.0
 11
66.8448330000067
 21
11.09506699999968
 31
0.0
 11
66.82189900000674
 21
11.12743999999969
 31
0.0
 11
66.80086500000664
 21
11.16090499999973
 31
0.0
 11
66.7817990000068
 21
11.19541199999974
 31
0.0
 11
66.76447300000666
 21
11.23129199999975
 31
0.0
 11
66.74900300000672
 21
11.26831399999974
 31
0.0
 11
66.73553200000664
 21
11.30619899999969
 31
0.0
 11
66.72420300000671
 21
11.34466799999972
 31
0.0
 11
66.71506600000667
 21
11.38362599999976
 31
0.0
 11
66.70801100000665
 21
11.42328499999972
 31
0.0
 11
66.70303400000671
 21
11.46365199999973
 31
0.0
 11
66.70013600000664
 21
11.50472599999972
 31
0.0
 11
66.69931700000677
 21
11.54650699999973
 31
0.0
  0
LINE
  5
157F
330
1F
100
AcDbEntity
  8
1
100
AcDbLine
 10
59.95000000000004
 20
13.23279543420011
 30
0.0
 11
59.95000000000004
 21
-8.911485211499892
 31
0.0
  0
ELLIPSE
  5
1580
330
1F
100
AcDbEntity
  8
1
100
AcDbEllipse
 10
58.91193213780002
 20
0.0000000000001137
 30
0.0
 11
0.1103865622
 21
13.49999412599999
 31
0.0
210
0.0
220
0.0
230
-0.9999999999999998
 40
0.1140863039
 41
-3.293859477669232
 42
-3.142525512599998
  0
SPLINE
  5
1581
330
1F
100
AcDbEntity
  8
1
100
AcDbSpline
210
0.0
220
0.0
230
1.0
 70
     8
 71
     3
 72
     9
 73
     5
 74
     3
 42
0.0000000001
 43
0.0000000001
 44
0.0000000001
 12
0.9679784584217692
 22
0.2510332727576475
 32
0.0
 13
0.9769237693367827
 23
0.2135882695861661
 33
0.0
 40
0.0
 40
0.0
 40
0.0
 40
0.0
 40
0.0418674303412477
 40
0.1804110518815441
 40
0.1804110518815441
 40
0.1804110518815441
 40
0.1804110518815441
 10
59.03327283680005
 20
-13.34652476299986
 30
0.0
 10
59.04678176035998
 20
-13.34302139031303
 30
0.0
 10
59.10507616506857
 20
-13.32824589214349
 30
0.0
 10
59.16367592520906
 20
-13.31468604952888
 30
0.0
 10
59.20879144419996
 20
-13.30482228539989
 30
0.0
 11
59.03327283680005
 21
-13.34652476299986
 31
0.0
 11
59.07385460679996
 21
-13.33622905189992
 31
0.0
 11
59.20879144419996
 21
-13.30482228539989
 31
0.0
  0
ELLIPSE
  5
1582
330
1F
100
AcDbEntity
  8
1
100
AcDbEllipse
 10
60.94739082820002
 20
-11.40622343339993
 30
0.0
 11
-0.4984640432
 21
0.6092197305
 31
0.0
210
0.0
220
0.0
230
-0.9999999999999998
 40
0.9654725041999999
 41
-0.8577855103
 42
0.6765946956000001
  0
SPLINE
  5
1583
330
1F
100
AcDbEntity
  8
1
100
AcDbSpline
210
0.0
220
0.0
230
1.0
 70
     8
 71
     3
 72
     9
 73
     5
 74
     3
 42
0.0000000001
 43
0.0000000001
 44
0.0000000001
 12
0.9769237693297302
 22
0.2135882696184231
 32
0.0
 13
0.993411613195443
 23
0.1146009021274603
 33
0.0
 40
0.0
 40
0.0
 40
0.0
 40
0.0
 40
0.1629137003589542
 40
0.7511380661736951
 40
0.7511380661736951
 40
0.7511380661736951
 40
0.7511380661736951
 10
59.20879144419996
 20
-13.30482228539989
 30
0.0
 10
59.26184286627666
 20
-13.29322346694762
 30
0.0
 10
59.50721600058919
 20
-13.24330741531106
 30
0.0
 10
59.75521702794508
 20
-13.20660597025848
 30
0.0
 10
59.95000000000004
 20
-13.18413562259991
 30
0.0
 11
59.20879144419996
 21
-13.30482228539989
 31
0.0
 11
59.36840402819996
 21
-13.27219259349988
 31
0.0
 11
59.95000000000004
 21
-13.18413562259991
 31
0.0
  0
SPLINE
  5
1584
330
1F
100
AcDbEntity
  8
1
100
AcDbSpline
210
0.0
220
0.0
230
1.0
 70
     8
 71
     3
 72
     9
 73
     5
 74
     3
 42
0.0000000001
 43
0.0000000001
 44
0.0000000001
 12
0.0
 22
1.0
 32
0.0
 13
-0.5950953327474992
 23
0.8036551156697402
 33
0.0
 40
0.0
 40
0.0
 40
0.0
 40
0.0
 40
0.0169243617762767
 40
0.0729313115399591
 40
0.0729313115399591
 40
0.0729313115399591
 40
0.0729313115399591
 10
60.95000000000005
 20
-9.373254315999872
 30
0.0
 10
60.95000000000005
 20
-9.367612862074446
 30
0.0
 10
60.9477093936751
 20
-9.34326764036267
 30
0.0
 10
60.93602415630188
 20
-9.320575705096766
 30
0.0
 10
60.92491433149995
 20
-9.305572281199886
 30
0.0
 11
60.95000000000005
 21
-9.373254315999872
 31
0.0
 11
60.94843097520004
 21
-9.356402841799932
 31
0.0
 11
60.92491433149995
 21
-9.305572281199886
 31
0.0
  0
SPLINE
  5
1585
330
1F
100
AcDbEntity
  8
1
100
AcDbSpline
210
0.0
220
0.0
230
1.0
 70
     8
 71
     3
 72
    10
 73
     6
 74
     4
 42
0.0000000001
 43
0.0000000001
 44
0.0000000001
 12
-0.6035498758102868
 22
0.7973252456867196
 32
0.0
 13
-0.9990165818771735
 23
0.0443381228115109
 33
0.0
 40
0.0
 40
0.0
 40
0.0
 40
0.0
 40
0.1910230342099629
 40
0.4342696866751682
 40
1.025819953880152
 40
1.025819953880152
 40
1.025819953880152
 40
1.025819953880152
 10
60.89295182059992
 20
-9.254448446799925
 30
0.0
 10
60.85452117774181
 20
-9.20367928423883
 30
0.0
 10
60.73953830602594
 20
-9.109997348599776
 30
0.0
 10
60.42760149015677
 20
-8.966938123563579
 30
0.0
 10
60.14698950865059
 20
-8.920227954298731
 30
0.0
 10
59.95000000000004
 20
-8.911485211499892
 30
0.0
 11
60.89295182059992
 21
-9.254448446799925
 31
0.0
 11
60.750062459
 21
-9.127671359199894
 31
0.0
 11
60.53124325409999
 21
-9.021430644299924
 31
0.0
 11
59.95000000000004
 21
-8.911485211499892
 31
0.0
  0
SPLINE
  5
1586
330
1F
100
AcDbEntity
  8
1
100
AcDbSpline
210
0.0
220
0.0
230
1.0
 70
     8
 71
     3
 72
     8
 73
     4
 74
     2
 42
0.0000000001
 43
0.0000000001
 44
0.0000000001
 12
-0.4440998137682978
 22
0.8959773185806454
 32
0.0
 13
-0.6035498749345819
 23
0.7973252463496001
 33
0.0
 40
0.0
 40
0.0
 40
0.0
 40
0.0
 40
0.0602930223723209
 40
0.0602930223723209
 40
0.0602930223723209
 40
0.0602930223723209
 10
60.92491433149995
 20
-9.305572281199886
 30
0.0
 10
60.91598895816426
 20
-9.287565221028462
 30
0.0
 10
60.905081769304
 20
-9.270472829771982
 30
0.0
 10
60.89295182059992
 20
-9.254448446799925
 30
0.0
 11
60.92491433149995
 21
-9.305572281199886
 31
0.0
 11
60.89295182059992
 21
-9.254448446799925
 31
0.0
  0
SPLINE
  5
1587
330
1F
100
AcDbEntity
  8
1
100
AcDbSpline
210
0.0
220
0.0
230
1.0
 70
     8
 71
     3
 72
     9
 73
     5
 74
     3
 42
0.0000000001
 43
0.0000000001
 44
0.0000000001
 12
0.9934116132186188
 22
0.11460090192656
 32
0.0
 13
0.9921553545341474
 23
-0.1250110093920551
 33
0.0
 40
0.0
 40
0.0
 40
0.0
 40
0.0
 40
0.0512968732756801
 40
0.2086582880061842
 40
0.2086582880061842
 40
0.2086582880061842
 40
0.2086582880061842
 10
59.95000000000004
 20
-13.18413562259991
 30
0.0
 10
59.96698630321133
 20
-13.18217606661877
 30
0.0
 10
60.03629110462132
 20
-13.17618699741771
 30
0.0
 10
60.10633867679273
 20
-13.17842119000161
 30
0.0
 10
60.15838100020005
 20
-13.18497849309989
 30
0.0
 11
59.95000000000004
 21
-13.18413562259991
 31
0.0
 11
60.00110719199994
 21
-13.1797283406999
 31
0.0
 11
60.15838100020005
 21
-13.18497849309989
 31
0.0
  0
LINE
  5
1588
330
1F
100
AcDbEntity
  8
1
100
AcDbLine
 10
60.95000000000005
 20
-10.6300618246999
 30
0.0
 11
60.92702069079996
 21
-10.62987637359992
 31
0.0
  0
SPLINE
  5
1589
330
1F
100
AcDbEntity
  8
CUT
100
AcDbSpline
210
0.0
220
0.0
230
1.0
 70
     8
 71
     3
 72
    36
 73
    32
 74
    30
 42
0.0000000001
 43
0.0000000001
 44
0.0000000001
 12
-0.9996486867928698
 22
0.026504773028473
 32
0.0
 13
-0.0167227276469684
 23
0.999860165413167
 33
0.0
 40
0.0
 40
0.0
 40
0.0
 40
0.0
 40
0.0418737512171157
 40
0.0832194373403668
 40
0.1241389293337422
 40
0.1647376108887503
 40
0.2051295848068053
 40
0.2456637282540882
 40
0.2863461776518488
 40
0.3269711052209678
 40
0.3673282197114216
 40
0.4072630090811334
 40
0.4472929831132104
 40
0.487448904942844
 40
0.5275388875445496
 40
0.5673663056883003
 40
0.6068620457750646
 40
0.646566715147743
 40
0.6864107596212909
 40
0.726204093497673
 40
0.7657603728600973
 40
0.8051142875319502
 40
0.8447859777530524
 40
0.8846310229281069
 40
0.92445271603628
 40
0.9640598815117254
 40
1.003469474569752
 40
1.043036601935793
 40
1.08288534581815
 40
1.123129825588632
 40
1.163884221768763
 40
1.163884221768763
 40
1.163884221768763
 40
1.163884221768763
 10
60.92702100000668
 20
10.97111499999976
 30
0.0
 10
60.91306798653491
 20
10.97148495142372
 30
0.0
 10
60.88535053140856
 20
10.972883156516
 30
0.0
 10
60.8441594788888
 20
10.97699548194427
 30
0.0
 10
60.80364539060774
 20
10.9831077841871
 30
0.0
 10
60.76381018272141
 20
10.99122773168757
 30
0.0
 10
60.72456881440333
 20
11.00135527547819
 30
0.0
 10
60.68590527485631
 20
11.01359842855162
 30
0.0
 10
60.64786374740963
 20
11.02787365123876
 30
0.0
 10
60.6106557636251
 20
11.04405037592389
 30
0.0
 10
60.57454351413941
 20
11.06199081082527
 30
0.0
 10
60.53957945677218
 20
11.08167899148385
 30
0.0
 10
60.50578742034582
 20
11.10319285304549
 30
0.0
 10
60.47312025471526
 20
11.12646612968734
 30
0.0
 10
60.44174893166083
 20
11.15135009862637
 30
0.0
 10
60.41187223969568
 20
11.1776795876051
 30
0.0
 10
60.38354279191746
 20
11.20548528837921
 30
0.0
 10
60.35674751414595
 20
11.23477882917061
 30
0.0
 10
60.33145769307702
 20
11.26550939346402
 30
0.0
 10
60.30784391520313
 20
11.29748457666926
 30
0.0
 10
60.28605251249918
 20
11.33053475904412
 30
0.0
 10
60.26615309547818
 20
11.36471063032599
 30
0.0
 10
60.24807083509174
 20
11.39998845097982
 30
0.0
 10
60.23181545516552
 20
11.43631552130752
 30
0.0
 10
60.21753034619592
 20
11.47343914408145
 30
0.0
 10
60.2053471001243
 20
11.51115393806945
 30
0.0
 10
60.19534715419474
 20
11.54941726476341
 30
0.0
 10
60.18742691754727
 20
11.58824535188543
 30
0.0
 10
60.18157742201698
 20
11.62772059258317
 30
0.0
 10
60.1777986130253
 20
11.66784326050691
 30
0.0
 10
60.17666517489592
 20
11.69483310089777
 30
0.0
 10
60.17643800000668
 20
11.70841599999976
 30
0.0
 11
60.92702100000668
 21
10.97111499999976
 31
0.0
 11
60.88520100000676
 21
10.97323599999975
 31
0.0
 11
60.84406100000673
 21
10.97735499999969
 31
0.0
 11
60.80360100000678
 21
10.98346999999972
 31
0.0
 11
60.76382100000671
 21
10.99158199999971
 31
0.0
 11
60.72471500000677
 21
11.00169299999975
 31
0.0
 11
60.68606800000669
 21
11.01391699999969
 31
0.0
 11
60.64797600000668
 21
11.02820199999973
 31
0.0
 11
60.61072000000672
 21
11.04439999999971
 31
0.0
 11
60.57458100000679
 21
11.06236299999972
 31
0.0
 11
60.53979200000674
 21
11.08197199999972
 31
0.0
 11
60.50601700000663
 21
11.10345799999975
 31
0.0
 11
60.47331000000679
 21
11.12675499999971
 31
0.0
 11
60.44190300000672
 21
11.15167099999972
 31
0.0
 11
60.41203300000677
 21
11.17801499999973
 31
0.0
 11
60.38384700000676
 21
11.20568199999974
 31
0.0
 11
60.35704000000681
 21
11.23497099999968
 31
0.0
 11
60.33172200000672
 21
11.26573699999976
 31
0.0
 11
60.30808700000672
 21
11.29775099999972
 31
0.0
 11
60.28632800000672
 21
11.3307849999997
 31
0.0
 11
60.26651400000672
 21
11.36478699999969
 31
0.0
 11
60.24841200000675
 21
11.40008799999969
 31
0.0
 11
60.23214000000677
 21
11.43645899999973
 31
0.0
 11
60.21784900000671
 21
11.47362799999972
 31
0.0
 11
60.20568800000671
 21
11.51132199999972
 31
0.0
 11
60.19570800000668
 21
11.5494469999997
 31
0.0
 11
60.18779600000663
 21
11.58821499999969
 31
0.0
 11
60.18194600000664
 21
11.62763199999972
 31
0.0
 11
60.17816000000664
 21
11.66769799999967
 31
0.0
 11
60.17643800000668
 21
11.70841599999976
 31
0.0
  0
LINE
  5
158A
330
1F
100
AcDbEntity
  8
0
100
AcDbLine
 10
58.71974430969999
 20
13.50000000000011
 30
0.0
 11
58.71859345289998
 21
13.4846920905001
 31
0.0
  0
SPLINE
  5
158B
330
1F
100
AcDbEntity
  8
1
100
AcDbSpline
210
0.0
220
0.0
230
1.0
 70
     8
 71
     3
 72
    17
 73
    13
 74
    11
 42
0.0000000001
 43
0.0000000001
 44
0.0000000001
 12
0.0596422521613168
 22
-0.9982198163516519
 32
0.0
 13
0.9944079985025645
 23
-0.1056064984464684
 33
0.0
 40
0.0
 40
0.0
 40
0.0
 40
0.0
 40
0.0101688370379507
 40
0.0294665053721903
 40
0.0588806353410362
 40
0.0985114772076916
 40
0.2077908455580796
 40
0.3553229547871406
 40
0.5382754366558615
 40
0.7532813437339661
 40
0.9965149640691768
 40
1.263769686200635
 40
1.263769686200635
 40
1.263769686200635
 40
1.263769686200635
 10
58.71859345289998
 20
13.48469209050006
 30
0.0
 10
58.71879561701426
 20
13.48130851228655
 30
0.0
 10
58.7268340688785
 20
13.47353021927383
 30
0.0
 10
58.74343315788146
 20
13.46448533205724
 30
0.0
 10
58.77088253328502
 20
13.45275110576277
 30
0.0
 10
58.82682963909339
 20
13.43322708729369
 30
0.0
 10
58.92208508550111
 20
13.40616039940687
 30
0.0
 10
59.06456893618237
 20
13.37192772957096
 30
0.0
 10
59.24270478776929
 20
13.33517822753766
 30
0.0
 10
59.45319272238211
 20
13.29798631022144
 30
0.0
 10
59.69243841804785
 20
13.26249382706372
 30
0.0
 10
59.86141325555834
 20
13.24220337933263
 30
0.0
 10
59.95000000000004
 20
13.23279543420011
 30
0.0
 11
58.71859345289998
 21
13.48469209050006
 31
0.0
 11
58.72437570049999
 21
13.47632723190014
 31
0.0
 11
58.74080142390005
 21
13.46619828260009
 31
0.0
 11
58.76774592929996
 21
13.45440062730006
 31
0.0
 11
58.80505831920004
 21
13.44104438580012
 31
0.0
 11
58.90991762859994
 21
13.4102790550001
 31
0.0
 11
59.0532613189
 21
13.37537476150008
 31
0.0
 11
59.23238164830003
 21
13.33812535590009
 31
0.0
 11
59.44407688460001
 21
13.30053989320009
 31
0.0
 11
59.68466035940004
 21
13.26473227230008
 31
0.0
 11
59.95000000000004
 21
13.23279543420011
 31
0.0
  0
SPLINE
  5
158C
330
1F
100
AcDbEntity
  8
1
100
AcDbSpline
210
0.0
220
0.0
230
1.0
 70
     8
 71
     3
 72
     9
 73
     5
 74
     3
 42
0.0000000001
 43
0.0000000001
 44
0.0000000001
 12
0.9944079985089153
 22
-0.1056064983866658
 32
0.0
 13
0.5884155145627541
 23
0.808558706725646
 33
0.0
 40
0.0
 40
0.0
 40
0.0
 40
0.0
 40
0.4454738581351378
 40
0.918679159742561
 40
0.918679159742561
 40
0.918679159742561
 40
0.918679159742561
 10
59.95000000000004
 20
13.23279543420011
 30
0.0
 10
60.09766092255211
 20
13.21711378943996
 30
0.0
 10
60.41674875567309
 20
13.26400789768132
 30
0.0
 10
60.6643674682536
 20
13.47175862140563
 30
0.0
 10
60.75718124859998
 20
13.59929671030011
 30
0.0
 11
59.95000000000004
 21
13.23279543420011
 31
0.0
 11
60.39031183290001
 21
13.30041531360011
 31
0.0
 11
60.75718124859998
 21
13.59929671030011
 31
0.0
  0
SPLINE
  5
158D
330
1F
100
AcDbEntity
  8
1
100
AcDbSpline
210
0.0
220
0.0
230
1.0
 70
     8
 71
     3
 72
     9
 73
     5
 74
     3
 42
0.0000000001
 43
0.0000000001
 44
0.0000000001
 12
0.5884155144673354
 22
0.8085587067950857
 32
0.0
 13
0.0
 23
1.0
 33
0.0
 40
0.0
 40
0.0
 40
0.0
 40
0.0
 40
0.3182064658676632
 40
0.636811596268577
 40
0.636811596268577
 40
0.636811596268577
 40
0.636811596268577
 10
60.75718124859998
 20
13.59929671030011
 30
0.0
 10
60.81959378904009
 20
13.68505957981204
 30
0.0
 10
60.91724365547703
 20
13.87815750591262
 30
0.0
 10
60.95000000000005
 20
14.09176803866648
 30
0.0
 10
60.95000000000005
 20
14.19796974880011
 30
0.0
 11
60.75718124859998
 21
13.59929671030011
 31
0.0
 11
60.90097944939998
 21
13.88315835330013
 31
0.0
 11
60.95000000000005
 21
14.19796974880011
 31
0.0
  0
ARC
  5
158E
330
1F
100
AcDbEntity
  8
CUT
100
AcDbCircle
 10
67.10853850000671
 20
1933.667381660664
 30
0.0
 40
1908.702853953799
100
AcDbArc
 50
269.8102014608
 51
270.1897985391998
  0
LINE
  5
158F
330
1F
100
AcDbEntity
  8
1
100
AcDbLine
 10
79.60000000000002
 20
23.67500000000005
 30
0.0
 11
61.43589562594025
 21
23.67500000000005
 31
0.0
  0
ARC
  5
1591
330
1F
100
AcDbEntity
  8
CUT
100
AcDbCircle
 10
76.99643978090671
 20
1928.017716767666
 30
0.0
 40
1903.066164543665
100
AcDbArc
 50
269.7170327583
 51
270.0977480425998
  0
SPLINE
  5
1593
330
1F
100
AcDbEntity
  8
CUT
100
AcDbSpline
210
0.0
220
0.0
230
1.0
 70
     8
 71
     3
 72
    36
 73
    32
 74
    30
 42
0.0000000001
 43
0.0000000001
 44
0.0000000001
 12
0.0053152820252885
 22
0.999985873788721
 32
0.0
 13
-0.9999892349914267
 23
0.0046400324633683
 33
0.0
 40
0.0
 40
0.0
 40
0.0
 40
0.0
 40
0.041765030946915
 40
0.0829201911701824
 40
0.1235759783227863
 40
0.1638439949240909
 40
0.2038496163790614
 40
0.2439485580733769
 40
0.2841570047605594
 40
0.3242865638535603
 40
0.3641402591527503
 40
0.4035773998325885
 40
0.4431217865518358
 40
0.4828167547468087
 40
0.5224825945840806
 40
0.5619364657883135
 40
0.6011204670643789
 40
0.6405788607594678
 40
0.68025257439968
 40
0.7199609996139922
 40
0.7595240094337104
 40
0.7989832648372342
 40
0.8388626506399575
 40
0.8790212789656592
 40
0.9192623049092027
 40
0.9593956090344921
 40
0.9994385115390855
 40
1.039747638359237
 40
1.080443755913515
 40
1.121641297454357
 40
1.163449483124145
 40
1.163449483124145
 40
1.163449483124145
 40
1.163449483124145
 10
80.97763700000667
 20
24.21324999999972
 30
0.0
 10
80.97771099764612
 20
24.22717148032148
 30
0.0
 10
80.97717824660241
 20
24.25482009372994
 30
0.0
 10
80.97429104771988
 20
24.29592821154289
 30
0.0
 10
80.96931969202215
 20
24.33633590771004
 30
0.0
 10
80.96225840843054
 20
24.37604187025815
 30
0.0
 10
80.95310768685697
 20
24.41512983513451
 30
0.0
 10
80.94175882594361
 20
24.45361715939213
 30
0.0
 10
80.92829202325381
 20
24.49145761984785
 30
0.0
 10
80.91283867997754
 20
24.52844216843709
 30
0.0
 10
80.8955318582597
 20
24.56431121787863
 30
0.0
 10
80.87638483658414
 20
24.59901181165319
 30
0.0
 10
80.8553160650398
 20
24.63251799937591
 30
0.0
 10
80.83240034727092
 20
24.66488078998445
 30
0.0
 10
80.80778022196062
 20
24.69592804790142
 30
0.0
 10
80.78162225188151
 20
24.72546494853005
 30
0.0
 10
80.75389584166865
 20
24.75343868837881
 30
0.0
 10
80.72458906695823
 20
24.77986042837469
 30
0.0
 10
80.69375472301212
 20
24.80476035483154
 30
0.0
 10
80.66158712276246
 20
24.82797205359833
 30
0.0
 10
80.62825505422148
 20
24.84934857692224
 30
0.0
 10
80.59371087557572
 20
24.86882141396351
 30
0.0
 10
80.55797718904235
 20
24.88646397476109
 30
0.0
 10
80.52110965615746
 20
24.90226828189513
 30
0.0
 10
80.48336562238763
 20
24.91609621223584
 30
0.0
 10
80.44495322330162
 20
24.92781558066445
 30
0.0
 10
80.40591703773758
 20
24.93734422190881
 30
0.0
 10
80.36624178237454
 20
24.94479325061526
 30
0.0
 10
80.32584310171792
 20
24.95016006389898
 30
0.0
 10
80.28472335088327
 20
24.95345158909187
 30
0.0
 10
80.25705291187479
 20
24.95425833622018
 30
0.0
 10
80.24311700000669
 20
24.95432299999976
 30
0.0
 11
80.97763700000667
 21
24.21324999999972
 31
0.0
 11
80.97681800000669
 21
24.25500699999969
 31
0.0
 11
80.97392000000672
 21
24.29605999999973
 31
0.0
 11
80.9689430000068
 21
24.33640999999971
 31
0.0
 11
80.96188700000665
 21
24.37605499999972
 31
0.0
 11
80.95274900000672
 21
24.41500299999971
 31
0.0
 11
80.9414190000067
 21
24.45346799999976
 31
0.0
 11
80.92794600000672
 21
24.49135199999972
 31
0.0
 11
80.91247400000668
 21
24.52837899999968
 31
0.0
 11
80.89514700000666
 21
24.56426899999968
 31
0.0
 11
80.87607900000669
 21
24.59878999999972
 31
0.0
 11
80.85504300000673
 21
24.63227499999976
 31
0.0
 11
80.83210700000666
 21
24.66467299999971
 31
0.0
 11
80.80746000000671
 21
24.69575199999967
 31
0.0
 11
80.78129200000672
 21
24.7252789999997
 31
0.0
 11
80.75370800000667
 21
24.75310899999971
 31
0.0
 11
80.72441100000673
 21
24.77954099999971
 31
0.0
 11
80.6935460000067
 21
24.80446799999976
 31
0.0
 11
80.66134300000667
 21
24.82769999999976
 31
0.0
 11
80.62803200000676
 21
24.84904499999976
 31
0.0
 11
80.5936660000067
 21
24.86843599999969
 31
0.0
 11
80.55791200000667
 21
24.88609999999971
 31
0.0
 11
80.52100200000666
 21
24.90192299999971
 31
0.0
 11
80.48321400000679
 21
24.91575799999969
 31
0.0
 11
80.44482400000664
 21
24.92745799999971
 31
0.0
 11
80.40592800000672
 21
24.93697299999968
 31
0.0
 11
80.3663120000067
 21
24.94441599999976
 31
0.0
 11
80.3259720000068
 21
24.94978799999973
 31
0.0
 11
80.28490700000668
 21
24.95308999999969
 31
0.0
 11
80.24311700000669
 21
24.95432299999976
 31
0.0
  0
ARC
  5
1594
330
1F
100
AcDbEntity
  8
1
100
AcDbCircle
 10
79.60000000000002
 20
23.17500000000005
 30
0.0
 40
0.5
100
AcDbArc
 50
0.000000000000007
 51
90.0
  0
LINE
  5
1595
330
1F
100
AcDbEntity
  8
1
100
AcDbLine
 10
80.10000000000003
 20
20.1138876335001
 30
0.0
 11
80.10000000000003
 21
23.17490852640009
 31
0.0
  0
SPLINE
  5
1596
330
1F
100
AcDbEntity
  8
CUT
100
AcDbSpline
210
0.0
220
0.0
230
1.0
 70
     8
 71
     3
 72
    36
 73
    32
 74
    30
 42
0.0000000001
 43
0.0000000001
 44
0.0000000001
 12
-0.9999990040275376
 22
-0.0014113624384886
 32
0.0
 13
-0.0178361291399663
 23
-0.9998409235960002
 33
0.0
 40
0.0
 40
0.0
 40
0.0
 40
0.0
 40
0.0418365689320009
 40
0.0831038162959019
 40
0.1239136492410606
 40
0.1643785105035595
 40
0.2046223453233487
 40
0.2450014466630482
 40
0.2855330826650293
 40
0.3260204713434805
 40
0.3662635302854334
 40
0.4061173499768098
 40
0.4461066613988376
 40
0.4862721020785816
 40
0.5264268248020361
 40
0.5663817352011126
 40
0.6060730277096748
 40
0.6460488589706679
 40
0.6862442003050609
 40
0.7264706734043095
 40
0.7665397373813803
 40
0.8064930994927863
 40
0.8468538639305291
 40
0.8874752277308926
 40
0.92815505073929
 40
0.9686962188157792
 40
1.009113843053186
 40
1.049762050147668
 40
1.090764792397428
 40
1.132232090934965
 40
1.174273214956594
 40
1.174273214956594
 40
1.174273214956594
 40
1.174273214956594
 10
67.59778600000675
 20
24.97475899999971
 30
0.0
 10
67.58384049091877
 20
24.9747393178124
 30
0.0
 10
67.55613487449718
 20
24.97401693055925
 30
0.0
 10
67.51493521458829
 20
24.9708395360544
 30
0.0
 10
67.47440938301804
 20
24.96557228373829
 30
0.0
 10
67.43455826059236
 20
24.95821145200255
 30
0.0
 10
67.39529736394572
 20
24.94875751709044
 30
0.0
 10
67.35661056050268
 20
24.93709653054046
 30
0.0
 10
67.31854319037471
 20
24.9233143781629
 30
0.0
 10
67.2813059937687
 20
24.90754214430789
 30
0.0
 10
67.24516200992815
 20
24.88991396273945
 30
0.0
 10
67.21016308830795
 20
24.87044582200125
 30
0.0
 10
67.17633554760232
 20
24.84905505691953
 30
0.0
 10
67.1436280848605
 20
24.82581693033433
 30
0.0
 10
67.11221640966532
 20
24.80087366532516
 30
0.0
 10
67.0822962101588
 20
24.77439649840901
 30
0.0
 10
67.05392243061659
 20
24.74635203966433
 30
0.0
 10
67.02708017850771
 20
24.71673133622637
 30
0.0
 10
67.0017408232163
 20
24.68558564810134
 30
0.0
 10
66.97807691205724
 20
24.65311015728454
 30
0.0
 10
66.95623270790554
 20
24.61947827525909
 30
0.0
 10
66.93628000535139
 20
24.58463932185906
 30
0.0
 10
66.91814313602233
 20
24.54861693858217
 30
0.0
 10
66.90183141670115
 20
24.51146754212408
 30
0.0
 10
66.8874870595308
 20
24.47345026436545
 30
0.0
 10
66.87524586040755
 20
24.43477416799943
 30
0.0
 10
66.86518565877259
 20
24.39548584167248
 30
0.0
 10
66.85720298257016
 20
24.35556779734677
 30
0.0
 10
66.85129226999103
 20
24.31493697361311
 30
0.0
 10
66.84744888833899
 20
24.27359431611506
 30
0.0
 10
66.84627195031239
 20
24.24576947875666
 30
0.0
 10
66.84602200000664
 20
24.23175799999973
 30
0.0
 11
67.59778600000675
 21
24.97475899999971
 31
0.0
 11
67.55596400000673
 21
24.97365499999972
 31
0.0
 11
67.51482000000681
 21
24.97046799999969
 31
0.0
 11
67.47435200000666
 21
24.9651969999997
 31
0.0
 11
67.43456100000674
 21
24.95784299999973
 31
0.0
 11
67.39544000000671
 21
24.9484029999997
 31
0.0
 11
67.35677500000668
 21
24.93676299999975
 31
0.0
 11
67.31866100000672
 21
24.92297399999972
 31
0.0
 11
67.28138000000672
 21
24.90718299999973
 31
0.0
 11
67.24521300000664
 21
24.88953499999974
 31
0.0
 11
67.21039300000677
 21
24.87014699999969
 31
0.0
 11
67.17658500000664
 21
24.84878899999972
 31
0.0
 11
67.14384000000666
 21
24.82552899999973
 31
0.0
 11
67.1123940000067
 21
24.80055799999973
 31
0.0
 11
67.08248200000674
 21
24.77406899999971
 31
0.0
 11
67.05425200000672
 21
24.74616799999973
 31
0.0
 11
67.02739800000664
 21
24.71655499999968
 31
0.0
 11
67.00203000000681
 21
24.68537599999972
 31
0.0
 11
66.9783430000067
 21
24.65286299999974
 31
0.0
 11
66.95653100000675
 21
24.61925099999973
 31
0.0
 11
66.93666100000665
 21
24.58458899999971
 31
0.0
 11
66.91850200000668
 21
24.54854399999971
 31
0.0
 11
66.90217100000666
 21
24.5113499999997
 31
0.0
 11
66.88781900000674
 21
24.47328599999973
 31
0.0
 11
66.87559700000668
 21
24.43463099999968
 31
0.0
 11
66.86555400000668
 21
24.39548099999973
 31
0.0
 11
66.85757800000681
 21
24.35562299999975
 31
0.0
 11
66.85166400000674
 21
24.31504899999976
 31
0.0
 11
66.84781200000667
 21
24.27376099999975
 31
0.0
 11
66.84602200000664
 21
24.23175799999973
 31
0.0
  0
SPLINE
  5
1597
330
1F
100
AcDbEntity
  8
CUT
100
AcDbSpline
210
0.0
220
0.0
230
1.0
 70
     8
 71
     3
 72
    36
 73
    32
 74
    30
 42
0.0000000001
 43
0.0000000001
 44
0.0000000001
 12
-0.016206605196094
 22
0.9998686643494824
 32
0.0
 13
-0.9999954625981736
 23
0.0030124380599375
 33
0.0
 40
0.0
 40
0.0
 40
0.0
 40
0.0
 40
0.0420412811412388
 40
0.0835094716130194
 40
0.1245129294672324
 40
0.165162748408968
 40
0.2055812378537807
 40
0.2461253443675542
 40
0.286807794760846
 40
0.3274315293626493
 40
0.3677957313367081
 40
0.4077495529436107
 40
0.4478219414673797
 40
0.4880503225558913
 40
0.5282472229339072
 40
0.5682240562251574
 40
0.6079164469947033
 40
0.6478704596217578
 40
0.6880237558375319
 40
0.7281886159145085
 40
0.7681766947630865
 40
0.8080293633436898
 40
0.8482700689165804
 40
0.8887556591432842
 40
0.9292839088586795
 40
0.9696614945468409
 40
1.009904842332493
 40
1.050368603996456
 40
1.091176838324894
 40
1.13244432961044
 40
1.1742797493526
 40
1.1742797493526
 40
1.1742797493526
 40
1.1742797493526
 10
74.18189700000664
 20
24.23079099999972
 30
0.0
 10
74.18166988452485
 20
24.24480291987379
 30
0.0
 10
74.18053796045971
 20
24.27262998856332
 30
0.0
 10
74.17676066248205
 20
24.31397932841403
 30
0.0
 10
74.170914217348
 20
24.35462057846337
 30
0.0
 10
74.16299268146736
 20
24.39455184492482
 30
0.0
 10
74.15299678697063
 20
24.43385842901188
 30
0.0
 10
74.140815170628
 20
24.472555647456
 30
0.0
 10
74.12652958506294
 20
24.51059781593013
 30
0.0
 10
74.11027648529712
 20
24.54777602189527
 30
0.0
 10
74.09219286232856
 20
24.58382749608977
 30
0.0
 10
74.07229547826607
 20
24.61870078631084
 30
0.0
 10
74.05050299580262
 20
24.65236855158986
 30
0.0
 10
74.02688728461868
 20
24.68488188730354
 30
0.0
 10
74.00159625840814
 20
24.71606871811886
 30
0.0
 10
73.974799873969
 20
24.74573258227103
 30
0.0
 10
73.94646983397439
 20
24.77382180120667
 30
0.0
 10
73.91659123680597
 20
24.80034530357039
 30
0.0
 10
73.88521906729227
 20
24.82533667629648
 30
0.0
 10
73.85254897052151
 20
24.84862542414701
 30
0.0
 10
73.81875629980214
 20
24.87006934162114
 30
0.0
 10
73.78379008334221
 20
24.88959297162408
 30
0.0
 10
73.74767522772829
 20
24.90727670757447
 30
0.0
 10
73.71046597443492
 20
24.9231082999408
 30
0.0
 10
73.67242233415561
 20
24.93694940639465
 30
0.0
 10
73.63375573113782
 20
24.94867081272383
 30
0.0
 10
73.59451162171651
 20
24.95818970690515
 30
0.0
 10
73.55467341319346
 20
24.96561465493737
 30
0.0
 10
73.51415671263208
 20
24.97094527459657
 30
0.0
 10
73.47296319776404
 20
24.97419018850211
 30
0.0
 10
73.44525907664598
 20
24.9749579911295
 30
0.0
 10
73.43131400000664
 20
24.97499999999972
 30
0.0
 11
74.18189700000664
 21
24.23079099999972
 31
0.0
 11
74.18017500000667
 21
24.27279699999968
 31
0.0
 11
74.17638900000667
 21
24.31409199999972
 31
0.0
 11
74.17053900000666
 21
24.35467599999975
 31
0.0
 11
74.16262500000664
 21
24.39454799999969
 31
0.0
 11
74.1526450000067
 21
24.43371499999972
 31
0.0
 11
74.14048300000672
 21
24.47239199999973
 31
0.0
 11
74.12619000000666
 21
24.51048099999974
 31
0.0
 11
74.1099170000067
 21
24.54770299999973
 31
0.0
 11
74.0918120000067
 21
24.58377899999976
 31
0.0
 11
74.07199700000671
 21
24.61847299999971
 31
0.0
 11
74.05023600000673
 21
24.65212199999973
 31
0.0
 11
74.02659800000662
 21
24.68467299999969
 31
0.0
 11
74.00127800000665
 21
24.71589299999971
 31
0.0
 11
73.97447000000671
 21
24.7455489999997
 31
0.0
 11
73.9462830000067
 21
24.77349499999974
 31
0.0
 11
73.91641300000663
 21
24.80002999999971
 31
0.0
 11
73.8850070000068
 21
24.82504899999975
 31
0.0
 11
73.85229900000672
 21
24.84835999999972
 31
0.0
 11
73.81852600000673
 21
24.86977099999972
 31
0.0
 11
73.7837380000068
 21
24.88921399999975
 31
0.0
 11
73.74760100000674
 21
24.90691799999972
 31
0.0
 11
73.71034700000667
 21
24.92276799999972
 31
0.0
 11
73.67225800000676
 21
24.93661599999972
 31
0.0
 11
73.63361300000669
 21
24.94831699999969
 31
0.0
 11
73.59450800000672
 21
24.95782099999968
 31
0.0
 11
73.55473000000675
 21
24.96523899999971
 31
0.0
 11
73.5142720000067
 21
24.9705739999997
 31
0.0
 11
73.47313300000667
 21
24.97382799999973
 31
0.0
 11
73.43131400000664
 21
24.97499999999972
 31
0.0
  0
SPLINE
  5
1598
330
1F
100
AcDbEntity
  8
CUT
100
AcDbSpline
210
0.0
220
0.0
230
1.0
 70
     8
 71
     3
 72
    36
 73
    32
 74
    30
 42
0.0000000001
 43
0.0000000001
 44
0.0000000001
 12
-0.9999955740769985
 22
-0.0029752019114749
 32
0.0
 13
0.0036570062074604
 23
-0.9999933131304421
 33
0.0
 40
0.0
 40
0.0
 40
0.0
 40
0.0
 40
0.0418092343150409
 40
0.0830095922988922
 40
0.1237082171528057
 40
0.1640183558526224
 40
0.2040650340419259
 40
0.2442009845227502
 40
0.2844458502947061
 40
0.3246074123783268
 40
0.3644902797025611
 40
0.4039521713956901
 40
0.4435171831105477
 40
0.483226638432998
 40
0.5229035466920897
 40
0.5623624344741361
 40
0.6015462089222758
 40
0.6409998709830526
 40
0.6806634622097061
 40
0.7203563557298574
 40
0.759899350317962
 40
0.7993346391466951
 40
0.8391848156832839
 40
0.8793109530628331
 40
0.9195169437730864
 40
0.959611785698266
 40
0.9996140968814785
 40
1.039880405192579
 40
1.080533285594781
 40
1.121687161536171
 40
1.163449582179585
 40
1.163449582179585
 40
1.163449582179585
 40
1.163449582179585
 10
60.7857630000068
 20
24.97499999999972
 30
0.0
 10
60.77182665024994
 20
24.97495853636177
 30
0.0
 10
60.74415361476223
 20
24.97419655230408
 30
0.0
 10
60.70302659221446
 20
24.97096981562575
 30
0.0
 10
60.66261734768843
 20
24.96566700569282
 30
0.0
 10
60.62292768047898
 20
24.95828200207319
 30
0.0
 10
60.58387356283303
 20
24.94881638777418
 30
0.0
 10
60.54543971037586
 20
24.93715580115434
 30
0.0
 10
60.50767010322589
 20
24.9233888341749
 30
0.0
 10
60.47077401892479
 20
24.90764237375429
 30
0.0
 10
60.43501044409679
 20
24.8900538070143
 30
0.0
 10
60.40043100157418
 20
24.87063806562754
 30
0.0
 10
60.3670650002575
 20
24.84931096768604
 30
0.0
 10
60.33485788044465
 20
24.82615064534688
 30
0.0
 10
60.30398344423021
 20
24.8012979208593
 30
0.0
 10
60.27463256025002
 20
24.77492348239233
 30
0.0
 10
60.24686220090751
 20
24.74699330464167
 30
0.0
 10
60.22065744560738
 20
24.71749913684129
 30
0.0
 10
60.19598882721855
 20
24.68649228494664
 30
0.0
 10
60.17302350728006
 20
24.65416704180711
 30
0.0
 10
60.15190136405554
 20
24.62069657245447
 30
0.0
 10
60.13270068289504
 20
24.5860282081741
 30
0.0
 10
60.11533734514372
 20
24.55018975420969
 30
0.0
 10
60.09982617781775
 20
24.51323282183918
 30
0.0
 10
60.08629934517394
 20
24.47541729493154
 30
0.0
 10
60.0748908305933
 20
24.43695105539283
 30
0.0
 10
60.06567716406332
 20
24.39788100581022
 30
0.0
 10
60.05855363744538
 20
24.35818884547308
 30
0.0
 10
60.05351647690435
 20
24.31779130190478
 30
0.0
 10
60.05056362498656
 20
24.27669009649924
 30
0.0
 10
60.04998609152949
 20
24.24904371379428
 30
0.0
 10
60.05003700000667
 20
24.23512299999976
 30
0.0
 11
60.7857630000068
 21
24.97499999999972
 31
0.0
 11
60.74397000000669
 21
24.97383499999971
 31
0.0
 11
60.70289700000671
 21
24.9705979999997
 31
0.0
 11
60.66254600000672
 21
24.9652899999997
 31
0.0
 11
60.62291700000674
 21
24.95791099999967
 31
0.0
 11
60.58400200000676
 21
24.94845799999973
 31
0.0
 11
60.54559100000677
 21
24.93681799999972
 31
0.0
 11
60.50777700000674
 21
24.92304299999972
 31
0.0
 11
60.47083900000679
 21
24.90727799999973
 31
0.0
 11
60.43505400000674
 21
24.88966899999974
 31
0.0
 11
60.40065400000674
 21
24.87033299999973
 31
0.0
 11
60.3673080000068
 21
24.84903899999971
 31
0.0
 11
60.33506700000669
 21
24.82585799999975
 31
0.0
 11
60.30416000000673
 21
24.8009779999997
 31
0.0
 11
60.2748200000068
 21
24.77459299999969
 31
0.0
 11
60.24719200000674
 21
24.7468069999997
 31
0.0
 11
60.22097700000665
 21
24.71732199999967
 31
0.0
 11
60.19628200000671
 21
24.68628399999971
 31
0.0
 11
60.17329600000664
 21
24.65392399999973
 31
0.0
 11
60.15220700000678
 21
24.62047399999971
 31
0.0
 11
60.13308500000665
 21
24.58598499999971
 31
0.0
 11
60.11570200000676
 21
24.55012599999969
 31
0.0
 11
60.10017200000664
 21
24.51312699999971
 31
0.0
 11
60.08663900000681
 21
24.47526699999974
 31
0.0
 11
60.07524900000668
 21
24.43682399999971
 31
0.0
 11
60.06604900000672
 21
24.39789399999972
 31
0.0
 11
60.05893000000662
 21
24.35826199999968
 31
0.0
 11
60.05388800000672
 21
24.31792299999972
 31
0.0
 11
60.05092400000672
 21
24.27687599999972
 31
0.0
 11
60.05003700000667
 21
24.23512299999976
 31
0.0
  0
SPLINE
  5
1599
330
1F
100
AcDbEntity
  8
1
100
AcDbSpline
210
0.0
220
0.0
230
1.0
 70
     8
 71
     3
 72
    11
 73
     7
 74
     5
 42
0.0000000001
 43
0.0000000001
 44
0.0000000001
 12
0.0
 22
1.0
 32
0.0
 13
0.9998940201900824
 23
-0.0145584473112675
 33
0.0
 40
0.0
 40
0.0
 40
0.0
 40
0.0
 40
0.1955771840182638
 40
0.3907530684257503
 40
0.5854372024953844
 40
0.7798360056125735
 40
0.7798360056125735
 40
0.7798360056125735
 40
0.7798360056125735
 10
60.95000000000005
 20
23.17821295940007
 30
0.0
 10
60.95000000000005
 20
23.24340535407282
 30
0.0
 10
60.97568351854151
 20
23.37511176021257
 30
0.0
 10
61.086887838253
 20
23.54158807862187
 30
0.0
 10
61.25366098626623
 20
23.65175070634008
 30
0.0
 10
61.38520726641037
 20
23.67594338157757
 30
0.0
 10
61.45000000000004
 20
23.67500000000005
 30
0.0
 11
60.95000000000005
 21
23.17821295940007
 31
0.0
 11
60.98786992730005
 21
23.37008870960005
 31
0.0
 11
61.09631197240004
 21
23.53236609160006
 31
0.0
 11
61.25887117330001
 21
23.63949413770007
 31
0.0
 11
61.45000000000004
 21
23.67500000000005
 31
0.0
  0
ARC
  5
159B
330
1F
100
AcDbEntity
  8
1
100
AcDbCircle
 10
22.66933934690007
 20
-18.49999999999988
 30
0.0
 40
5.0
100
AcDbArc
 50
90.0
 51
165.0
  0
LINE
  5
159C
330
1F
100
AcDbEntity
  8
1
100
AcDbLine
 10
0.0
 20
-38.4999999999999
 30
0.0
 11
0.0
 21
38.5000000000001
 31
0.0
  0
LINE
  5
159D
330
1F
100
AcDbEntity
  8
1
100
AcDbLine
 10
0.5
 20
-38.99999999999991
 30
0.0
 11
0.5
 21
39.00000000000011
 31
0.0
  0
LINE
  5
159E
330
1F
100
AcDbEntity
  8
1
100
AcDbLine
 10
11.23267301199996
 20
-38.99999999999991
 30
0.0
 11
11.23267301199996
 21
39.00000000000011
 31
0.0
  0
LINE
  5
159F
330
1F
100
AcDbEntity
  8
1
100
AcDbLine
 10
12.19859883829997
 20
-38.25881904509989
 30
0.0
 11
12.19859883829997
 21
38.25881904510008
 31
0.0
  0
LINE
  5
15A0
330
1F
100
AcDbEntity
  8
1
100
AcDbLine
 10
17.83971021549996
 20
-17.20590477449991
 30
0.0
 11
17.83971021549996
 21
17.20590477450008
 31
0.0
  0
LINE
  5
15A1
330
1F
100
AcDbEntity
  8
SK1
100
AcDbLine
 10
-47.0
 20
-17.29999999999989
 30
0.0
 11
-47.0
 21
17.30000000000006
 31
0.0
  0
LINE
  5
15A2
330
1F
100
AcDbEntity
  8
SK1
100
AcDbLine
 10
-45.10464685229999
 20
18.27800000000006
 30
0.0
 11
-45.10464685229999
 21
-18.2779999999999
 31
0.0
  0
LINE
  5
15A3
330
1F
100
AcDbEntity
  8
SK1
100
AcDbLine
 10
-42.00363245120001
 20
-18.49999999999988
 30
0.0
 11
-42.00363245120001
 21
18.50000000000011
 31
0.0
  0
LINE
  5
15A4
330
1F
100
AcDbEntity
  8
SK1
100
AcDbLine
 10
-37.6925824036
 20
18.50000000000011
 30
0.0
 11
-37.6925824036
 21
-18.49999999999988
 31
0.0
  0
LINE
  5
15A5
330
1F
100
AcDbEntity
  8
SK1
100
AcDbLine
 10
-19.6925824036
 20
18.50000000000011
 30
0.0
 11
-19.6925824036
 21
-18.49999999999988
 31
0.0
  0
LINE
  5
15A6
330
1F
100
AcDbEntity
  8
SK1
100
AcDbLine
 10
-14.3074175964
 20
18.50000000000011
 30
0.0
 11
-14.3074175964
 21
-18.49999999999988
 31
0.0
  0
LINE
  5
15A7
330
1F
100
AcDbEntity
  8
SK1
100
AcDbLine
 10
-2.5
 20
18.50000000000011
 30
0.0
 11
-2.5
 21
-18.49999999999988
 31
0.0
  0
LINE
  5
15A8
330
1F
100
AcDbEntity
  8
SK1
100
AcDbLine
 10
-0.3999999999999772
 20
18.2000000000001
 30
0.0
 11
-0.3999999999999772
 21
-18.19999999999993
 31
0.0
  0
LINE
  5
15A9
330
1F
100
AcDbEntity
  8
SK1
100
AcDbLine
 10
-2.5
 20
-18.49999999999988
 30
0.0
 11
-14.3074175964
 21
-18.49999999999988
 31
0.0
  0
LINE
  5
15AA
330
1F
100
AcDbEntity
  8
1
100
AcDbLine
 10
17.83971021549996
 20
-17.20590477449991
 30
0.0
 11
12.19859883829997
 21
-38.25881904509989
 31
0.0
  0
LINE
  5
15AB
330
1F
100
AcDbEntity
  8
1
100
AcDbLine
 10
11.23267301199996
 20
-38.99999999999991
 30
0.0
 11
0.5
 21
-38.99999999999991
 31
0.0
  0
ARC
  5
15AC
330
1F
100
AcDbEntity
  8
1
100
AcDbCircle
 10
11.23267301199996
 20
-37.9999999999999
 30
0.0
 40
1.0
100
AcDbArc
 50
270.0
 51
345.0000000000998
  0
LINE
  5
15AD
330
1F
100
AcDbEntity
  8
1
100
AcDbLine
 10
0.5
 20
-38.99999999999991
 30
0.0
 11
0.0
 21
-38.4999999999999
 31
0.0
  0
ARC
  5
15AE
330
1F
100
AcDbEntity
  8
SK1
100
AcDbCircle
 10
-0.3999999999999772
 20
-18.79999999999989
 30
0.0
 40
0.6
100
AcDbArc
 50
48.1296628966
 51
90.0
  0
LINE
  5
15AF
330
1F
100
AcDbEntity
  8
SK1
100
AcDbLine
 10
-1.456684686199992
 20
-18.22044450419991
 30
0.0
 11
-2.5
 21
-18.49999999999988
 31
0.0
  0
LINE
  5
15B0
330
1F
100
AcDbEntity
  8
SK1
100
AcDbLine
 10
-1.456684686199992
 20
-18.22044450419991
 30
0.0
 11
-1.30139325920004
 21
-18.19999999999993
 31
0.0
  0
LINE
  5
15B1
330
1F
100
AcDbEntity
  8
SK1
100
AcDbLine
 10
-0.3999999999999772
 20
-18.19999999999993
 30
0.0
 11
-1.30139325920004
 21
-18.19999999999993
 31
0.0
  0
LINE
  5
15B2
330
1F
100
AcDbEntity
  8
SK1
100
AcDbLine
 10
-19.6925824036
 20
-18.49999999999988
 30
0.0
 11
-32.3074175964
 21
-18.49999999999988
 31
0.0
  0
ARC
  5
15B3
330
1F
100
AcDbEntity
  8
SK1
100
AcDbCircle
 10
-17.0
 20
-25.49999999999988
 30
0.0
 40
7.5
100
AcDbArc
 50
68.96053021870002
 51
111.0394697812999
  0
LINE
  5
15B4
330
1F
100
AcDbEntity
  8
SK1
100
AcDbLine
 10
-37.6925824036
 20
-18.49999999999988
 30
0.0
 11
-42.00363245120001
 21
-18.49999999999988
 31
0.0
  0
ARC
  5
15B5
330
1F
100
AcDbEntity
  8
SK1
100
AcDbCircle
 10
-35.0
 20
-25.49999999999988
 30
0.0
 40
7.5
100
AcDbArc
 50
68.96053021870002
 51
111.0394697812999
  0
ARC
  5
15B6
330
1F
100
AcDbEntity
  8
SK1
100
AcDbCircle
 10
-45.80000000000007
 20
-17.29999999999989
 30
0.0
 40
1.199999999999999
100
AcDbArc
 50
180.0
 51
305.4126381110999
  0
ARC
  5
15B7
330
1F
100
AcDbEntity
  8
SK1
100
AcDbCircle
 10
-44.64107808719997
 20
-18.92999999999989
 30
0.0
 40
0.8
100
AcDbArc
 50
81.84000000000002
 51
125.4126381110999
  0
LINE
  5
15B8
330
1F
100
AcDbEntity
  8
SK1
100
AcDbLine
 10
-42.00363245120001
 20
-18.49999999999988
 30
0.0
 11
-44.52752776329997
 21
-18.13809954919986
 31
0.0
  0
LINE
  5
15B9
330
1F
100
AcDbEntity
  8
4
100
AcDbLine
 10
0.0
 20
0.0
 30
0.0
 11
-50.0
 21
0.0000000000001137
 31
0.0
  0
LINE
  5
15BA
330
1F
100
AcDbEntity
  8
SK1
100
AcDbLine
 10
-2.5
 20
18.50000000000011
 30
0.0
 11
-14.3074175964
 21
18.50000000000011
 31
0.0
  0
ARC
  5
15BB
330
1F
100
AcDbEntity
  8
1
100
AcDbCircle
 10
22.66933934690007
 20
18.50000000000011
 30
0.0
 40
5.0
100
AcDbArc
 50
195.0
 51
270.0
  0
LINE
  5
15BC
330
1F
100
AcDbEntity
  8
1
100
AcDbLine
 10
22.66933934690007
 20
-13.49999999999988
 30
0.0
 11
22.66933934690007
 21
13.50000000000011
 31
0.0
  0
LINE
  5
15BD
330
1F
100
AcDbEntity
  8
1
100
AcDbLine
 10
17.83971021549996
 20
17.20590477450008
 30
0.0
 11
12.19859883829997
 21
38.25881904510008
 31
0.0
  0
ARC
  5
15BE
330
1F
100
AcDbEntity
  8
SK1
100
AcDbCircle
 10
-0.3999999999999772
 20
18.80000000000006
 30
0.0
 40
0.6
100
AcDbArc
 50
270.0
 51
311.8703371033999
  0
LINE
  5
15BF
330
1F
100
AcDbEntity
  8
SK1
100
AcDbLine
 10
-0.3999999999999772
 20
18.2000000000001
 30
0.0
 11
-1.30139325920004
 21
18.2000000000001
 31
0.0
  0
LINE
  5
15C0
330
1F
100
AcDbEntity
  8
SK1
100
AcDbLine
 10
-1.456684686199992
 20
18.22044450420007
 30
0.0
 11
-1.30139325920004
 21
18.2000000000001
 31
0.0
  0
LINE
  5
15C1
330
1F
100
AcDbEntity
  8
SK1
100
AcDbLine
 10
-1.456684686199992
 20
18.22044450420007
 30
0.0
 11
-2.5
 21
18.50000000000011
 31
0.0
  0
LINE
  5
15C2
330
1F
100
AcDbEntity
  8
1
100
AcDbLine
 10
11.23267301199996
 20
39.00000000000011
 30
0.0
 11
0.5
 21
39.00000000000011
 31
0.0
  0
ARC
  5
15C3
330
1F
100
AcDbEntity
  8
1
100
AcDbCircle
 10
11.23267301199996
 20
38.00000000000011
 30
0.0
 40
1.0
100
AcDbArc
 50
14.99999999989999
 51
90.0
  0
LINE
  5
15C4
330
1F
100
AcDbEntity
  8
1
100
AcDbLine
 10
0.5
 20
39.00000000000011
 30
0.0
 11
0.0
 21
38.5000000000001
 31
0.0
  0
SPLINE
  5
15C5
330
1F
100
AcDbEntity
  8
SK1
100
AcDbSpline
210
0.0
220
0.0
230
1.0
 70
     8
 71
     3
 72
    15
 73
    11
 74
     9
 42
0.0000000001
 43
0.0000000001
 44
0.0000000001
 12
-0.9611578599823397
 22
-0.2759992177419507
 32
0.0
 13
-0.7071067811865476
 23
0.7071067811865476
 33
0.0
 40
0.0
 40
0.0
 40
0.0
 40
0.0
 40
1.101380529065464
 40
1.617673697806368
 40
2.11020119942574
 40
2.576272908591482
 40
3.008703540280279
 40
3.391962762365173
 40
3.556642492485325
 40
3.696317939016574
 40
3.696317939016574
 40
3.696317939016574
 40
3.696317939016574
 10
-32.3074175964
 20
16.74954740480005
 30
0.0
 10
-32.66028444718092
 20
16.64822068331396
 30
0.0
 10
-33.20388920343576
 20
16.57609924675732
 30
0.0
 10
-33.90687406962417
 20
16.61710674707384
 30
0.0
 10
-34.39268089552164
 20
16.69877178992419
 30
0.0
 10
-34.84081189020125
 20
16.82063139881128
 30
0.0
 10
-35.24100721298235
 20
16.97176862253691
 30
0.0
 10
-35.5344584055707
 20
17.11790138122831
 30
0.0
 10
-35.72658252153107
 20
17.24321212687484
 30
0.0
 10
-35.80554455923083
 20
17.30763116333092
 30
0.0
 10
-35.8384663777
 20
17.34055298180009
 30
0.0
 11
-32.3074175964
 21
16.74954740480005
 31
0.0
 11
-33.39832448879996
 21
16.59801779740013
 31
0.0
 11
-33.91379994199997
 21
16.62706419540012
 31
0.0
 11
-34.39956619039992
 21
16.70839372120013
 31
0.0
 11
-34.84924777399998
 21
16.83090621630008
 31
0.0
 11
-35.25340330159997
 21
16.98470660880008
 31
0.0
 11
-35.59454506739996
 21
17.15937751920012
 31
0.0
 11
-35.73178979720001
 21
17.25039014280014
 31
0.0
 11
-35.8384663777
 21
17.34055298180009
 31
0.0
  0
LINE
  5
15C6
330
1F
100
AcDbEntity
  8
SK1
100
AcDbLine
 10
-21.01312693269994
 20
18.50000000000011
 30
0.0
 11
-22.83229961509994
 21
16.6808273176001
 31
0.0
  0
LINE
  5
15C7
330
1F
100
AcDbEntity
  8
SK1
100
AcDbLine
 10
-22.83229961509994
 20
16.6808273176001
 30
0.0
 11
-30.93610002629998
 21
16.6808273176001
 31
0.0
  0
SPLINE
  5
15C8
330
1F
100
AcDbEntity
  8
SK1
100
AcDbSpline
210
0.0
220
0.0
230
1.0
 70
     8
 71
     3
 72
     9
 73
     5
 74
     3
 42
0.0000000001
 43
0.0000000001
 44
0.0000000001
 12
0.9953625986748615
 22
-0.0961940598957459
 32
0.0
 13
1.0
 23
0.0
 33
0.0
 40
0.0
 40
0.0
 40
0.0
 40
0.0
 40
0.3402888303787599
 40
1.373321542306802
 40
1.373321542306802
 40
1.373321542306802
 40
1.373321542306802
 10
-32.3074175964
 20
16.74954740480005
 30
0.0
 10
-32.19451400489805
 20
16.73863615008962
 30
0.0
 10
-31.73841684259992
 20
16.69951321287585
 30
0.0
 10
-31.28044426360933
 20
16.6808273176001
 30
0.0
 10
-30.93610002629998
 20
16.6808273176001
 30
0.0
 11
-32.3074175964
 21
16.74954740480005
 31
0.0
 11
-31.96837055439994
 21
16.7205027600001
 31
0.0
 11
-30.93610002629998
 21
16.6808273176001
 31
0.0
  0
ARC
  5
15C9
330
1F
100
AcDbEntity
  8
SK1
100
AcDbCircle
 10
-17.0
 20
25.50000000000011
 30
0.0
 40
7.5
100
AcDbArc
 50
248.9605302186999
 51
291.0394697813
  0
LINE
  5
15CA
330
1F
100
AcDbEntity
  8
SK1
100
AcDbLine
 10
-19.6925824036
 20
18.50000000000011
 30
0.0
 11
-21.01312693269994
 21
18.50000000000011
 31
0.0
  0
LINE
  5
15CB
330
1F
100
AcDbEntity
  8
SK1
100
AcDbLine
 10
-37.6925824036
 20
18.50000000000011
 30
0.0
 11
-42.00363245120001
 21
18.50000000000011
 31
0.0
  0
ARC
  5
15CC
330
1F
100
AcDbEntity
  8
SK1
100
AcDbCircle
 10
-35.0
 20
25.50000000000011
 30
0.0
 40
7.5
100
AcDbArc
 50
248.9605302186999
 51
256.9693544505
  0
LINE
  5
15CD
330
1F
100
AcDbEntity
  8
SK1
100
AcDbLine
 10
-35.8384663777
 20
17.34055298180009
 30
0.0
 11
-36.69104134480004
 21
18.19312794900008
 31
0.0
  0
LINE
  5
15CE
330
1F
100
AcDbEntity
  8
SK1
100
AcDbLine
 10
-39.79039547030004
 20
18.50000000000011
 30
0.0
 11
-38.91891927769995
 21
18.50000000000011
 31
0.0
  0
ARC
  5
15CF
330
1F
100
AcDbEntity
  8
SK1
100
AcDbCircle
 10
-45.80000000000007
 20
17.30000000000006
 30
0.0
 40
1.199999999999999
100
AcDbArc
 50
54.58736188889997
 51
180.0
  0
ARC
  5
15D0
330
1F
100
AcDbEntity
  8
SK1
100
AcDbCircle
 10
-44.64107808719997
 20
18.93000000000006
 30
0.0
 40
0.8
100
AcDbArc
 50
234.5873618888999
 51
278.16
  0
LINE
  5
15D1
330
1F
100
AcDbEntity
  8
SK1
100
AcDbLine
 10
-42.00363245120001
 20
18.50000000000011
 30
0.0
 11
-44.52752776329997
 21
18.13809954920008
 31
0.0
  0
DIMENSION
  5
1615
330
1F
100
AcDbEntity
  8
2
100
AcDbDimension
  2
*D3
 10
112.8479475905924
 20
-24.9533345043999
 30
0.0
 11
110.4729475905924
 21
0.00049358840969
 31
0.0
 70
    32
  1
%%C50
 71
     5
 42
49.90765618561915
  3
ISO-25
100
AcDbAlignedDimension
 13
80.24311700332701
 23
24.95432168121924
 33
0.0
 14
73.43131437440002
 24
-24.95333450439989
 34
0.0
 50
90.0
100
AcDbRotatedDimension
1001
ACAD
1000
DSTYLE
1002
{
1070
   140
1040
3.5
1002
}
  0
DIMENSION
  5
1647
330
1F
100
AcDbEntity
  8
SK2
100
AcDbDimension
  2
*D4
 10
-76.03167564943031
 20
-38.99999999999989
 30
0.0
 11
-78.40667564943031
 21
0.0000000000001115
 31
0.0
 70
    32
  1
%%C<>
 71
     5
 42
78.00000000000003
  3
ISO-25
100
AcDbAlignedDimension
 13
0.5
 23
39.00000000000011
 33
0.0
 14
0.5
 24
-38.99999999999991
 34
0.0
 50
90.0
100
AcDbRotatedDimension
1001
ACAD
1000
DSTYLE
1002
{
1070
   140
1040
3.5
1002
}
  0
DIMENSION
  5
1667
330
1F
100
AcDbEntity
  8
SK2
100
AcDbDimension
  2
*D5
 10
-57.71537532727221
 20
-18.50000000001248
 30
0.0
 11
-60.09037532727221
 21
-0.0000000000061921
 31
0.0
 70
    32
  1
%%C<>
 71
     5
 42
37.00000000001262
  3
ISO-25
100
AcDbAlignedDimension
 13
-21.01312693269994
 23
18.50000000000011
 33
0.0
 14
-19.6925824036
 24
-18.5000000000125
 34
0.0
 50
90.0
100
AcDbRotatedDimension
1001
ACAD
1000
DSTYLE
1002
{
1070
   140
1040
3.5
1002
}
  0
MTEXT
  5
16E0
330
1F
100
AcDbEntity
  8
6
100
AcDbMText
 10
105.9940999383086
 20
36.42451920957256
 30
0.0
 40
5.0
 41
64.0
 71
     2
 72
     1
  1
SHLT140508TN-HR
 73
     1
 44
1.0
  0
MTEXT
  5
16E7
330
1F
100
AcDbEntity
  8
6
100
AcDbMText
 10
119.5786438127767
 20
-1.293225652347985
 30
0.0
 40
5.0
 41
64.0
 71
     2
 72
     1
  1
Z=4
 11
0.0000000000000001
 21
1.0
 31
0.0
 73
     1
 44
1.0
  0
LWPOLYLINE
  5
1720
330
1F
100
AcDbEntity
  8
NOCUT
100
AcDbPolyline
 90
       17
 70
     0
 43
0.0
 10
60.94999999999993
 20
-23.17821295940031
 10
60.94999999999996
 20
-13.1849784931
 10
59.94482343109405
 20
-13.1849784931
 10
59.20879144419996
 20
-13.3048222854
 10
59.03327283680005
 20
-13.34652476299999
 10
58.80298237969999
 20
-13.5
 10
22.66933934690007
 20
-13.5
 42
0.3394542588633758
 10
17.83971021549996
 20
-17.20590477450002
 10
12.19859883828948
 20
-38.25881904510086
 42
-0.3394542588638617
 10
11.23267301199996
 20
-39.00000000000003
 10
0.5
 20
-39.00000000000003
 10
0.0
 20
-38.50000000000003
 10
0.0
 20
0.0
 10
80.10000000000003
 20
-0.0000000000001279
 10
80.10000000000003
 20
-23.17500000000001
 42
-0.4142135623730951
 10
79.60000000000002
 20
-23.67500000000001
 10
61.43589562593871
 20
-23.67500000000012
  0
SPLINE
  5
1721
330
1F
100
AcDbEntity
  8
NOCUT
100
AcDbSpline
210
0.0
220
0.0
230
1.0
 70
     8
 71
     3
 72
    11
 73
     7
 74
     0
 42
0.0000000001
 43
0.0000000001
 40
0.0
 40
0.0
 40
0.0
 40
0.0
 40
0.1955771840182541
 40
0.3907530684257426
 40
0.5854372024953925
 40
0.7657425324610956
 40
0.7657425324610956
 40
0.7657425324610956
 40
0.7657425324610956
 10
60.94999999999993
 20
-23.17821295940012
 30
0.0
 10
60.94999999999993
 20
-23.24340535407287
 30
0.0
 10
60.97568351854139
 20
-23.37511176021263
 30
0.0
 10
61.08688783825283
 20
-23.54158807862192
 30
0.0
 10
61.24963808956858
 20
-23.64909336685519
 30
0.0
 10
61.37570432993914
 20
-23.67412624079519
 30
0.0
 10
61.43589562593956
 20
-23.67500000000006
 30
0.0
  0
ENDSEC
  0
SECTION
  2
OBJECTS
  0
DICTIONARY
  5
1288
330
0
100
AcDbDictionary
281
     1
  3
ACAD_GROUP
350
1289
  3
ACAD_LAYOUT
350
1292
  3
ACAD_MLINESTYLE
350
128A
  3
ACAD_PLOTSETTINGS
350
1293
  3
ACAD_PLOTSTYLENAME
350
1290
  0
DICTIONARY
  5
1289
102
{ACAD_REACTORS
330
1288
102
}
330
1288
100
AcDbDictionary
281
     1
  0
DICTIONARY
  5
1292
102
{ACAD_REACTORS
330
1288
102
}
330
1288
100
AcDbDictionary
281
     1
  3
Layout1
350
1295
  3
Model
350
1294
  0
DICTIONARY
  5
128A
102
{ACAD_REACTORS
330
1288
102
}
330
1288
100
AcDbDictionary
281
     1
  3
STANDARD
350
128B
  0
DICTIONARY
  5
1293
102
{ACAD_REACTORS
330
1288
102
}
330
1288
100
AcDbDictionary
281
     1
  0
ACDBDICTIONARYWDFLT
  5
1290
102
{ACAD_REACTORS
330
1288
102
}
330
1288
100
AcDbDictionary
281
     1
  3
Normal
350
1291
100
AcDbDictionaryWithDefault
340
1291
  0
LAYOUT
  5
1295
102
{ACAD_REACTORS
330
1292
102
}
330
1292
100
AcDbPlotSettings
  1

  2
\\ingdc01\ITB3
  4

  6

 40
0.0
 41
0.0
 42
0.0
 43
0.0
 44
0.0
 45
0.0
 46
0.0
 47
0.0
 48
0.0
 49
0.0
140
0.0
141
0.0
142
1.0
143
1.0
 70
   688
 72
     0
 73
     0
 74
     5
  7
monochrome.ctb
 75
    16
147
1.0
148
0.0
149
0.0
100
AcDbLayout
  1
Layout1
 70
     1
 71
     1
 10
0.0
 20
0.0
 11
12.0
 21
9.0
 12
0.0
 22
0.0
 32
0.0
 14
1.000000000000000E+20
 24
1.000000000000000E+20
 34
1.000000000000000E+20
 15
-1.000000000000000E+20
 25
-1.000000000000000E+20
 35
-1.000000000000000E+20
146
0.0
 13
0.0
 23
0.0
 33
0.0
 16
1.0
 26
0.0
 36
0.0
 17
0.0
 27
1.0
 37
0.0
 76
     0
330
1B
  0
LAYOUT
  5
1294
102
{ACAD_REACTORS
330
1292
102
}
330
1292
100
AcDbPlotSettings
  1

  2
\\ingdc01\ITB3
  4

  6

 40
0.0
 41
0.0
 42
0.0
 43
0.0
 44
0.0
 45
0.0
 46
0.0
 47
0.0
 48
0.0
 49
0.0
140
0.0
141
0.0
142
1.0
143
1.0
 70
  1712
 72
     0
 73
     0
 74
     0
  7
monochrome.ctb
 75
     0
147
1.0
148
0.0
149
0.0
100
AcDbLayout
  1
Model
 70
     1
 71
     0
 10
0.0
 20
0.0
 11
12.0
 21
9.0
 12
0.0
 22
0.0
 32
0.0
 14
0.0
 24
0.0
 34
0.0
 15
0.0
 25
0.0
 35
0.0
146
0.0
 13
0.0
 23
0.0
 33
0.0
 16
1.0
 26
0.0
 36
0.0
 17
0.0
 27
1.0
 37
0.0
 76
     0
330
1F
  0
MLINESTYLE
  5
128B
102
{ACAD_REACTORS
330
128A
102
}
330
128A
100
AcDbMlineStyle
  2
STANDARD
 70
     0
  3

 62
   256
 51
90.0
 52
90.0
 71
     2
 49
0.5
 62
   256
  6
BYLAYER
 49
-0.5
 62
   256
  6
BYLAYER
  0
ACDBPLACEHOLDER
  5
1291
102
{ACAD_REACTORS
330
1290
102
}
330
1290
  0
ENDSEC
  0
EOF
