  0
SECTION
  2
HEADER
  9
$ACADVER
  1
AC1015
  9
$ACADMAINTVER
 70
    10
  9
$DWGCODEPAGE
  3
ANSI_1252
  9
$INSBASE
 10
0.0
 20
0.0
 30
0.0
  9
$EXTMIN
 10
-62.44826072439491
 20
-41.8436207228342
 30
-0.0000000000000058
  9
$EXTMAX
 10
132.8695866122247
 20
47.86417135349245
 30
0.0000000000000104
  9
$LIMMIN
 10
0.0
 20
0.0
  9
$LIMMAX
 10
594.0
 20
420.0
  9
$ORTHOMODE
 70
     0
  9
$REGENMODE
 70
     1
  9
$FILLMODE
 70
     1
  9
$QTEXTMODE
 70
     0
  9
$MIRRTEXT
 70
     1
  9
$LTSCALE
 40
32.67
  9
$ATTMODE
 70
     1
  9
$TEXTSIZE
 40
0.2
  9
$TRACEWID
 40
0.05
  9
$TEXTSTYLE
  7
STANDARD
  9
$CLAYER
  8
0
  9
$CELTYPE
  6
BYLAYER
  9
$CECOLOR
 62
   256
  9
$CELTSCALE
 40
1.0
  9
$DISPSILH
 70
     0
  9
$DIMSCALE
 40
1.0
  9
$DIMASZ
 40
2.5
  9
$DIMEXO
 40
3.712499999999999
  9
$DIMDLI
 40
22.572
  9
$DIMRND
 40
0.0
  9
$DIMDLE
 40
0.0
  9
$DIMEXE
 40
10.692
  9
$DIMTP
 40
0.01
  9
$DIMTM
 40
0.01
  9
$DIMTXT
 40
3.5
  9
$DIMCEN
 40
5.346
  9
$DIMTSZ
 40
0.0
  9
$DIMTOL
 70
     1
  9
$DIMLIM
 70
     0
  9
$DIMTIH
 70
     1
  9
$DIMTOH
 70
     1
  9
$DIMSE1
 70
     0
  9
$DIMSE2
 70
     0
  9
$DIMTAD
 70
     0
  9
$DIMZIN
 70
     0
  9
$DIMBLK
  1
_ARROW_FILLED
  9
$DIMASO
 70
     1
  9
$DIMSHO
 70
     1
  9
$DIMPOST
  1

  9
$DIMAPOST
  1

  9
$DIMALT
 70
     0
  9
$DIMALTD
 70
     2
  9
$DIMALTF
 40
25.4
  9
$DIMLFAC
 40
1.0
  9
$DIMTOFL
 70
     0
  9
$DIMTVP
 40
0.0
  9
$DIMTIX
 70
     0
  9
$DIMSOXD
 70
     0
  9
$DIMSAH
 70
     0
  9
$DIMBLK1
  1

  9
$DIMBLK2
  1

  9
$DIMSTYLE
  2
STANDARD
  9
$DIMCLRD
 70
     0
  9
$DIMCLRE
 70
     0
  9
$DIMCLRT
 70
     0
  9
$DIMTFAC
 40
1.0
  9
$DIMGAP
 40
0.09
  9
$DIMJUST
 70
     0
  9
$DIMSD1
 70
     0
  9
$DIMSD2
 70
     0
  9
$DIMTOLJ
 70
     1
  9
$DIMTZIN
 70
     0
  9
$DIMALTZ
 70
     0
  9
$DIMALTTZ
 70
     0
  9
$DIMUPT
 70
     0
  9
$DIMDEC
 70
     4
  9
$DIMTDEC
 70
     4
  9
$DIMALTU
 70
     2
  9
$DIMALTTD
 70
     2
  9
$DIMTXSTY
  7
STANDARD
  9
$DIMAUNIT
 70
     0
  9
$DIMADEC
 70
     0
  9
$DIMALTRND
 40
0.0
  9
$DIMAZIN
 70
     0
  9
$DIMDSEP
 70
    46
  9
$DIMATFIT
 70
     3
  9
$DIMFRAC
 70
     0
  9
$DIMLDRBLK
  1
_ARROW_FILLED
  9
$DIMLUNIT
 70
     2
  9
$DIMLWD
 70
    -2
  9
$DIMLWE
 70
    -2
  9
$DIMTMOVE
 70
     0
  9
$LUNITS
 70
     2
  9
$LUPREC
 70
     4
  9
$SKETCHINC
 40
0.1
  9
$FILLETRAD
 40
0.0
  9
$AUNITS
 70
     0
  9
$AUPREC
 70
     0
  9
$MENU
  1
.
  9
$ELEVATION
 40
0.0
  9
$PELEVATION
 40
0.0
  9
$THICKNESS
 40
0.0
  9
$LIMCHECK
 70
     0
  9
$CHAMFERA
 40
0.0
  9
$CHAMFERB
 40
0.0
  9
$CHAMFERC
 40
0.0
  9
$CHAMFERD
 40
0.0
  9
$SKPOLY
 70
     0
  9
$TDCREATE
 40
2455238.293671794
  9
$TDUCREATE
 40
2455238.252005127
  9
$TDUPDATE
 40
2455238.311424131
  9
$TDUUPDATE
 40
2455238.269757465
  9
$TDINDWG
 40
0.0145592245
  9
$TDUSRTIMER
 40
0.0145590509
  9
$USRTIMER
 70
     1
  9
$ANGBASE
 50
0.0
  9
$ANGDIR
 70
     0
  9
$PDMODE
 70
     3
  9
$PDSIZE
 40
0.15
  9
$PLINEWID
 40
0.0
  9
$SPLFRAME
 70
     0
  9
$SPLINETYPE
 70
     6
  9
$SPLINESEGS
 70
     8
  9
$HANDSEED
  5
1960
  9
$SURFTAB1
 70
     6
  9
$SURFTAB2
 70
     6
  9
$SURFTYPE
 70
     6
  9
$SURFU
 70
     6
  9
$SURFV
 70
     6
  9
$UCSBASE
  2

  9
$UCSNAME
  2

  9
$UCSORG
 10
0.0
 20
0.0
 30
0.0
  9
$UCSXDIR
 10
1.0
 20
0.0
 30
0.0
  9
$UCSYDIR
 10
0.0
 20
1.0
 30
0.0
  9
$UCSORTHOREF
  2

  9
$UCSORTHOVIEW
 70
     0
  9
$UCSORGTOP
 10
0.0
 20
0.0
 30
0.0
  9
$UCSORGBOTTOM
 10
0.0
 20
0.0
 30
0.0
  9
$UCSORGLEFT
 10
0.0
 20
0.0
 30
0.0
  9
$UCSORGRIGHT
 10
0.0
 20
0.0
 30
0.0
  9
$UCSORGFRONT
 10
0.0
 20
0.0
 30
0.0
  9
$UCSORGBACK
 10
0.0
 20
0.0
 30
0.0
  9
$PUCSBASE
  2

  9
$PUCSNAME
  2

  9
$PUCSORG
 10
0.0
 20
0.0
 30
0.0
  9
$PUCSXDIR
 10
1.0
 20
0.0
 30
0.0
  9
$PUCSYDIR
 10
0.0
 20
1.0
 30
0.0
  9
$PUCSORTHOREF
  2

  9
$PUCSORTHOVIEW
 70
     0
  9
$PUCSORGTOP
 10
0.0
 20
0.0
 30
0.0
  9
$PUCSORGBOTTOM
 10
0.0
 20
0.0
 30
0.0
  9
$PUCSORGLEFT
 10
0.0
 20
0.0
 30
0.0
  9
$PUCSORGRIGHT
 10
0.0
 20
0.0
 30
0.0
  9
$PUCSORGFRONT
 10
0.0
 20
0.0
 30
0.0
  9
$PUCSORGBACK
 10
0.0
 20
0.0
 30
0.0
  9
$USERI1
 70
     0
  9
$USERI2
 70
     0
  9
$USERI3
 70
     0
  9
$USERI4
 70
     0
  9
$USERI5
 70
     0
  9
$USERR1
 40
0.0
  9
$USERR2
 40
0.0
  9
$USERR3
 40
0.0
  9
$USERR4
 40
0.0
  9
$USERR5
 40
0.0
  9
$WORLDVIEW
 70
     1
  9
$SHADEDGE
 70
     3
  9
$SHADEDIF
 70
    70
  9
$TILEMODE
 70
     1
  9
$MAXACTVP
 70
    64
  9
$PINSBASE
 10
0.0
 20
0.0
 30
0.0
  9
$PLIMCHECK
 70
     0
  9
$PEXTMIN
 10
1.000000000000000E+20
 20
1.000000000000000E+20
 30
1.000000000000000E+20
  9
$PEXTMAX
 10
-1.000000000000000E+20
 20
-1.000000000000000E+20
 30
-1.000000000000000E+20
  9
$PLIMMIN
 10
0.0
 20
0.0
  9
$PLIMMAX
 10
12.0
 20
9.0
  9
$UNITMODE
 70
     0
  9
$VISRETAIN
 70
     1
  9
$PLINEGEN
 70
     0
  9
$PSLTSCALE
 70
     1
  9
$TREEDEPTH
 70
  3020
  9
$CMLSTYLE
  2
STANDARD
  9
$CMLJUST
 70
     0
  9
$CMLSCALE
 40
1.0
  9
$PROXYGRAPHICS
 70
     1
  9
$MEASUREMENT
 70
     1
  9
$CELWEIGHT
370
    -1
  9
$ENDCAPS
280
     0
  9
$JOINSTYLE
280
     0
  9
$LWDISPLAY
290
     0
  9
$INSUNITS
 70
     0
  9
$HYPERLINKBASE
  1

  9
$STYLESHEET
  1

  9
$XEDIT
290
     1
  9
$CEPSNTYPE
380
     0
  9
$PSTYLEMODE
290
     1
  9
$FINGERPRINTGUID
  2
{2881F8B5-8AED-4EBA-AD37-9E74B0058870}
  9
$VERSIONGUID
  2
{A9AAD67C-9BB9-467A-BB57-E14A0F5EA2F0}
  9
$EXTNAMES
290
     1
  9
$PSVPSCALE
 40
0.0
  9
$OLESTARTUP
290
     0
  0
ENDSEC
  0
SECTION
  2
CLASSES
  0
CLASS
  1
ACDBDICTIONARYWDFLT
  2
AcDbDictionaryWithDefault
  3
AutoCAD 2000
 90
        0
280
     0
281
     0
  0
CLASS
  1
ACDBPLACEHOLDER
  2
AcDbPlaceHolder
  3
AutoCAD 2000
 90
        0
280
     0
281
     0
  0
CLASS
  1
LAYOUT
  2
AcDbLayout
  3
AutoCAD 2000
 90
        0
280
     0
281
     0
  0
ENDSEC
  0
SECTION
  2
TABLES
  0
TABLE
  2
VPORT
  5
8
330
0
100
AcDbSymbolTable
 70
     2
  0
VPORT
  5
195F
330
8
100
AcDbSymbolTableRecord
100
AcDbViewportTableRecord
  2
*Active
 70
     0
 10
0.0
 20
0.0
 11
1.0
 21
1.0
 12
35.21066294391494
 22
3.010275315329124
 13
0.0
 23
0.0
 14
1.0
 24
1.0
 15
0.0
 25
0.0
 16
0.0
 26
0.0
 36
1.0
 17
0.0
 27
0.0
 37
0.0
 40
91.02702431274321
 41
2.481572481572481
 42
50.0
 43
0.0
 44
0.0
 50
0.0
 51
0.0
 71
     0
 72
  1000
 73
     1
 74
     1
 75
     0
 76
     0
 77
     0
 78
     0
281
     0
 65
     1
110
0.0
120
0.0
130
0.0
111
1.0
121
0.0
131
0.0
112
0.0
122
1.0
132
0.0
 79
     0
146
0.0
  0
ENDTAB
  0
TABLE
  2
LTYPE
  5
5
330
0
100
AcDbSymbolTable
 70
     3
  0
LTYPE
  5
14
330
5
100
AcDbSymbolTableRecord
100
AcDbLinetypeTableRecord
  2
BYBLOCK
 70
     0
  3

 72
    65
 73
     0
 40
0.0
  0
LTYPE
  5
15
330
5
100
AcDbSymbolTableRecord
100
AcDbLinetypeTableRecord
  2
BYLAYER
 70
     0
  3

 72
    65
 73
     0
 40
0.0
  0
LTYPE
  5
16
330
5
100
AcDbSymbolTableRecord
100
AcDbLinetypeTableRecord
  2
CONTINUOUS
 70
     0
  3
Solid line
 72
    65
 73
     0
 40
0.0
  0
LTYPE
  5
1F5
330
5
100
AcDbSymbolTableRecord
100
AcDbLinetypeTableRecord
  2
CENTER
 70
     0
  3
____ _ ____ _ ____ _ ____ _ ____ _ ____ _ ____
 72
    65
 73
     4
 40
0.6
 49
0.375
 74
     0
 49
-0.075
 74
     0
 49
0.075
 74
     0
 49
-0.075
 74
     0
  0
LTYPE
  5
1F6
330
5
100
AcDbSymbolTableRecord
100
AcDbLinetypeTableRecord
  2
HIDDEN
 70
     0
  3
- - - - - - - - - - - - - - - - - - - -
 72
    65
 73
     2
 40
0.2
 49
0.1
 74
     0
 49
-0.1
 74
     0
  0
ENDTAB
  0
TABLE
  2
LAYER
  5
2
330
0
100
AcDbSymbolTable
 70
    12
  0
LAYER
  5
10
330
2
100
AcDbSymbolTableRecord
100
AcDbLayerTableRecord
  2
0
 70
     0
 62
     7
  6
CONTINUOUS
370
    -3
390
129F
  0
LAYER
  5
12D8
330
2
100
AcDbSymbolTableRecord
100
AcDbLayerTableRecord
  2
Defpoints
 70
     0
 62
     7
  6
CONTINUOUS
290
     0
370
    -3
390
129F
  0
LAYER
  5
12D9
330
2
100
AcDbSymbolTableRecord
100
AcDbLayerTableRecord
  2
CUT
 70
     0
 62
     1
  6
CONTINUOUS
370
    -3
390
129F
  0
LAYER
  5
12DA
330
2
100
AcDbSymbolTableRecord
100
AcDbLayerTableRecord
  2
2
 70
     0
 62
     7
  6
CONTINUOUS
370
    -3
390
129F
  0
LAYER
  5
12DB
330
2
100
AcDbSymbolTableRecord
100
AcDbLayerTableRecord
  2
1
 70
     0
 62
     4
  6
CONTINUOUS
370
    -3
390
129F
  0
LAYER
  5
12DC
330
2
100
AcDbSymbolTableRecord
100
AcDbLayerTableRecord
  2
3
 70
     0
 62
     1
  6
HIDDEN
370
    -3
390
129F
  0
LAYER
  5
12DD
330
2
100
AcDbSymbolTableRecord
100
AcDbLayerTableRecord
  2
4
 70
     0
 62
     2
  6
CENTER
370
    -3
390
129F
  0
LAYER
  5
12DE
330
2
100
AcDbSymbolTableRecord
100
AcDbLayerTableRecord
  2
6
 70
     0
 62
     5
  6
CONTINUOUS
370
    -3
390
129F
  0
LAYER
  5
157D
330
2
100
AcDbSymbolTableRecord
100
AcDbLayerTableRecord
  2
SK1
 70
     0
 62
     4
  6
CONTINUOUS
370
    -3
390
129F
  0
LAYER
  5
157E
330
2
100
AcDbSymbolTableRecord
100
AcDbLayerTableRecord
  2
SK4
 70
     0
 62
     2
  6
CENTER
370
    -3
390
129F
  0
LAYER
  5
18BF
330
2
100
AcDbSymbolTableRecord
100
AcDbLayerTableRecord
  2
SK2
 70
     0
 62
     7
  6
CONTINUOUS
370
    -3
390
129F
  0
LAYER
  5
195E
330
2
100
AcDbSymbolTableRecord
100
AcDbLayerTableRecord
  2
NOCUT
 70
     0
 62
     7
  6
CONTINUOUS
370
    -3
390
129F
  0
ENDTAB
  0
TABLE
  2
STYLE
  5
3
330
0
100
AcDbSymbolTable
 70
     1
  0
STYLE
  5
11
330
3
100
AcDbSymbolTableRecord
100
AcDbTextStyleTableRecord
  2
STANDARD
 70
     0
 40
0.0
 41
0.8
 50
0.0
 71
     0
 42
0.2
  3
isocp.shx
  4

  0
ENDTAB
  0
TABLE
  2
VIEW
  5
6
330
0
100
AcDbSymbolTable
 70
     0
  0
ENDTAB
  0
TABLE
  2
UCS
  5
7
330
0
100
AcDbSymbolTable
 70
     0
  0
ENDTAB
  0
TABLE
  2
APPID
  5
9
330
0
100
AcDbSymbolTable
 70
     1
  0
APPID
  5
228
330
9
100
AcDbSymbolTableRecord
100
AcDbRegAppTableRecord
  2
ACAD
 70
     0
  0
ENDTAB
  0
TABLE
  2
DIMSTYLE
  5
A
330
0
100
AcDbSymbolTable
 70
     2
100
AcDbDimStyleTable
 71
     2
340
12E0
340
24D
  0
DIMSTYLE
105
24D
330
A
100
AcDbSymbolTableRecord
100
AcDbDimStyleTableRecord
  2
STANDARD
 70
     0
 41
2.5
 47
0.01
 48
0.01
 71
     1
 73
     0
 74
     0
 77
     1
 78
     8
140
3.5
178
     5
271
     3
272
     3
284
     8
340
11
341
229
342
229
343
229
344
229
  0
DIMSTYLE
105
12E0
102
{ACAD_REACTORS
330
17EB
330
17CE
330
17C5
330
187F
330
189F
102
}
330
A
100
AcDbSymbolTableRecord
100
AcDbDimStyleTableRecord
  2
ISO-25
 70
     0
 41
2.5
 42
0.625
 43
3.75
 44
1.25
 73
     0
 74
     0
 77
     1
 78
     8
140
2.5
141
2.5
143
0.03937007874016
147
0.625
171
     3
172
     1
271
     2
272
     2
274
     3
278
    44
283
     0
284
     8
340
11
  0
ENDTAB
  0
TABLE
  2
BLOCK_RECORD
  5
1
330
0
100
AcDbSymbolTable
 70
     7
  0
BLOCK_RECORD
  5
1F
330
1
100
AcDbSymbolTableRecord
100
AcDbBlockTableRecord
  2
*MODEL_SPACE
340
12A2
  0
BLOCK_RECORD
  5
1B
330
1
100
AcDbSymbolTableRecord
100
AcDbBlockTableRecord
  2
*PAPER_SPACE
340
12A3
  0
BLOCK_RECORD
  5
229
330
1
100
AcDbSymbolTableRecord
100
AcDbBlockTableRecord
  2
_ARROW_FILLED
340
0
102
{BLKREFS
331
747
331
748
331
755
331
756
331
760
331
761
331
76B
331
777
331
778
331
784
331
785
331
78D
331
78E
331
798
331
799
331
79E
331
7A9
331
7AA
331
7B5
331
7B6
331
7C0
331
7C1
331
7C9
331
7CA
331
7D3
331
7D4
331
7DB
331
7E5
331
7E6
331
7EE
331
7EF
331
7F7
331
7F8
331
801
331
802
331
80D
331
80E
331
813
331
818
331
81D
331
82E
331
82F
331
1885
331
1886
331
18A5
331
18A6
102
}
  0
BLOCK_RECORD
  5
182E
330
1
100
AcDbSymbolTableRecord
100
AcDbBlockTableRecord
  2
*D1
340
0
  0
BLOCK_RECORD
  5
183A
330
1
100
AcDbSymbolTableRecord
100
AcDbBlockTableRecord
  2
*D2
340
0
  0
BLOCK_RECORD
  5
1846
330
1
100
AcDbSymbolTableRecord
100
AcDbBlockTableRecord
  2
*D3
340
0
  0
BLOCK_RECORD
  5
1880
330
1
100
AcDbSymbolTableRecord
100
AcDbBlockTableRecord
  2
*D4
340
0
  0
BLOCK_RECORD
  5
18A0
330
1
100
AcDbSymbolTableRecord
100
AcDbBlockTableRecord
  2
*D5
340
0
  0
ENDTAB
  0
ENDSEC
  0
SECTION
  2
BLOCKS
  0
BLOCK
  5
20
330
1F
100
AcDbEntity
  8
0
100
AcDbBlockBegin
  2
*MODEL_SPACE
 70
     0
 10
0.0
 20
0.0
 30
0.0
  3
*MODEL_SPACE
  1

  0
ENDBLK
  5
21
330
1F
100
AcDbEntity
  8
0
100
AcDbBlockEnd
  0
BLOCK
  5
1C
330
1B
100
AcDbEntity
 67
     1
  8
0
100
AcDbBlockBegin
  2
*PAPER_SPACE
 70
     0
 10
0.0
 20
0.0
 30
0.0
  3
*PAPER_SPACE
  1

  0
ENDBLK
  5
1D
330
1B
100
AcDbEntity
 67
     1
  8
0
100
AcDbBlockEnd
  0
BLOCK
  5
733
330
229
100
AcDbEntity
  8
0
100
AcDbBlockBegin
  2
_ARROW_FILLED
 70
     0
 10
0.0
 20
0.0
 30
0.0
  3
_ARROW_FILLED
  1

  0
SOLID
  5
734
330
229
100
AcDbEntity
  8
0
  6
ByBlock
 62
     0
100
AcDbTrace
 10
0.0
 20
0.0
 30
0.0
 11
-1.0
 21
0.132
 31
0.0
 12
-1.0
 22
-0.132
 32
0.0
 13
-1.0
 23
-0.132
 33
0.0
  0
ENDBLK
  5
735
330
229
100
AcDbEntity
  8
0
  6
ByBlock
 62
     0
100
AcDbBlockEnd
  0
BLOCK
  5
1838
330
182E
100
AcDbEntity
  8
0
100
AcDbBlockBegin
  2
*D1
 70
     1
 10
0.0
 20
0.0
 30
0.0
  3
*D1
  1

  0
LINE
  5
1932
330
182E
100
AcDbEntity
  8
2
 62
     0
370
    -2
100
AcDbLine
 10
54.05002899999999
 20
24.86012300000004
 30
0.0
 11
54.05002899999999
 21
34.3594577557444
 31
0.0
  0
LINE
  5
1933
330
182E
100
AcDbEntity
  8
2
 62
     0
370
    -2
100
AcDbLine
 10
75.0
 20
23.12203428160006
 30
0.0
 11
75.0
 21
34.3594577557444
 31
0.0
  0
LINE
  5
1934
330
182E
100
AcDbEntity
  8
2
 62
     0
370
    -2
100
AcDbLine
 10
56.55002899999999
 20
33.1094577557444
 30
0.0
 11
72.5
 21
33.1094577557444
 31
0.0
  0
SOLID
  5
1935
330
182E
100
AcDbEntity
  8
2
 62
     0
100
AcDbTrace
 10
56.55002899999999
 20
33.52612442241108
 30
0.0
 11
56.55002899999999
 21
32.69279108907775
 31
0.0
 12
54.05002899999999
 22
33.1094577557444
 32
0.0
 13
54.05002899999999
 23
33.1094577557444
 33
0.0
  0
SOLID
  5
1936
330
182E
100
AcDbEntity
  8
2
 62
     0
100
AcDbTrace
 10
72.5
 20
33.52612442241108
 30
0.0
 11
72.5
 21
32.69279108907775
 31
0.0
 12
75.0
 22
33.1094577557444
 32
0.0
 13
75.0
 23
33.1094577557444
 33
0.0
  0
MTEXT
  5
1937
330
182E
100
AcDbEntity
  8
2
 62
     0
100
AcDbMText
 10
63.97475234753949
 20
35.48480224393339
 30
0.0
 40
3.5
 41
0.0
 71
     5
 72
     1
  1
21
 73
     1
 44
1.0
  0
POINT
  5
1938
330
182E
100
AcDbEntity
  8
Defpoints
 62
     0
100
AcDbPoint
 10
54.05002899999999
 20
24.23512300000004
 30
0.0
  0
POINT
  5
1939
330
182E
100
AcDbEntity
  8
Defpoints
 62
     0
100
AcDbPoint
 10
75.0
 20
22.49703428160006
 30
0.0
  0
POINT
  5
193A
330
182E
100
AcDbEntity
  8
Defpoints
 62
     0
100
AcDbPoint
 10
75.0
 20
33.1094577557444
 30
0.0
  0
ENDBLK
  5
1839
330
182E
100
AcDbEntity
  8
0
100
AcDbBlockEnd
  0
BLOCK
  5
1844
330
183A
100
AcDbEntity
  8
0
100
AcDbBlockBegin
  2
*D2
 70
     1
 10
0.0
 20
0.0
 30
0.0
  3
*D2
  1

  0
LINE
  5
193B
330
183A
100
AcDbEntity
  8
2
 62
     0
370
    -2
100
AcDbLine
 10
76.125
 20
-24.97499999999991
 30
0.0
 11
91.44720798815944
 21
-24.97499999999991
 31
0.0
  0
LINE
  5
193C
330
183A
100
AcDbEntity
  8
2
 62
     0
370
    -2
100
AcDbLine
 10
76.125
 20
24.97500000000007
 30
0.0
 11
91.44720798815944
 21
24.97500000000007
 31
0.0
  0
LINE
  5
193D
330
183A
100
AcDbEntity
  8
2
 62
     0
370
    -2
100
AcDbLine
 10
90.19720798815944
 20
-22.47499999999991
 30
0.0
 11
90.19720798815944
 21
22.47500000000007
 31
0.0
  0
SOLID
  5
193E
330
183A
100
AcDbEntity
  8
2
 62
     0
100
AcDbTrace
 10
89.7805413214928
 20
-22.47499999999991
 30
0.0
 11
90.61387465482612
 21
-22.47499999999991
 31
0.0
 12
90.19720798815944
 22
-24.97499999999991
 32
0.0
 13
90.19720798815944
 23
-24.97499999999991
 33
0.0
  0
SOLID
  5
193F
330
183A
100
AcDbEntity
  8
2
 62
     0
100
AcDbTrace
 10
89.7805413214928
 20
22.47500000000007
 30
0.0
 11
90.61387465482612
 21
22.47500000000007
 31
0.0
 12
90.19720798815944
 22
24.97500000000007
 32
0.0
 13
90.19720798815944
 23
24.97500000000007
 33
0.0
  0
MTEXT
  5
1940
330
183A
100
AcDbEntity
  8
2
 62
     0
100
AcDbMText
 10
87.82220798815945
 20
-1.932566913532354
 30
0.0
 40
3.5
 41
0.0
 71
     5
 72
     1
  1
%%c50
 11
0.0000000000000001
 21
1.0
 31
0.0
 73
     1
 44
1.0
  0
POINT
  5
1941
330
183A
100
AcDbEntity
  8
Defpoints
 62
     0
100
AcDbPoint
 10
75.5
 20
-24.97499999999991
 30
0.0
  0
POINT
  5
1942
330
183A
100
AcDbEntity
  8
Defpoints
 62
     0
100
AcDbPoint
 10
75.5
 20
24.97500000000007
 30
0.0
  0
POINT
  5
1943
330
183A
100
AcDbEntity
  8
Defpoints
 62
     0
100
AcDbPoint
 10
90.19720798815944
 20
24.97500000000007
 30
0.0
  0
ENDBLK
  5
1845
330
183A
100
AcDbEntity
  8
0
100
AcDbBlockEnd
  0
BLOCK
  5
1850
330
1846
100
AcDbEntity
  8
0
100
AcDbBlockBegin
  2
*D3
 70
     1
 10
0.0
 20
0.0
 30
0.0
  3
*D3
  1

  0
LINE
  5
1944
330
1846
100
AcDbEntity
  8
2
 62
     0
370
    -2
100
AcDbLine
 10
0.0
 20
24.62500000000005
 30
0.0
 11
0.0000000000000013
 21
45.13936839353664
 31
0.0
  0
LINE
  5
1945
330
1846
100
AcDbEntity
  8
2
 62
     0
370
    -2
100
AcDbLine
 10
74.97764499999994
 20
24.83825000000001
 30
0.0
 11
74.97764499999994
 21
45.13936839353664
 31
0.0
  0
LINE
  5
1946
330
1846
100
AcDbEntity
  8
2
 62
     0
370
    -2
100
AcDbLine
 10
2.5
 20
43.88936839353664
 30
0.0
 11
72.47764499999994
 21
43.88936839353664
 31
0.0
  0
SOLID
  5
1947
330
1846
100
AcDbEntity
  8
2
 62
     0
100
AcDbTrace
 10
2.5
 20
44.30603506020331
 30
0.0
 11
2.5
 21
43.47270172686997
 31
0.0
 12
0.0000000000000012
 22
43.88936839353664
 32
0.0
 13
0.0000000000000012
 23
43.88936839353664
 33
0.0
  0
SOLID
  5
1948
330
1846
100
AcDbEntity
  8
2
 62
     0
100
AcDbTrace
 10
72.47764499999994
 20
44.30603506020331
 30
0.0
 11
72.47764499999994
 21
43.47270172686997
 31
0.0
 12
74.97764499999994
 22
43.88936839353664
 32
0.0
 13
74.97764499999994
 23
43.88936839353664
 33
0.0
  0
MTEXT
  5
1949
330
1846
100
AcDbEntity
  8
2
 62
     0
100
AcDbMText
 10
36.47489063962314
 20
46.26436839353664
 30
0.0
 40
3.5
 41
0.0
 71
     5
 72
     1
  1
75
 73
     1
 44
1.0
  0
POINT
  5
194A
330
1846
100
AcDbEntity
  8
Defpoints
 62
     0
100
AcDbPoint
 10
0.0
 20
24.00000000000005
 30
0.0
  0
POINT
  5
194B
330
1846
100
AcDbEntity
  8
Defpoints
 62
     0
100
AcDbPoint
 10
74.97764499999994
 20
24.21325000000001
 30
0.0
  0
POINT
  5
194C
330
1846
100
AcDbEntity
  8
Defpoints
 62
     0
100
AcDbPoint
 10
74.97764499999994
 20
43.88936839353664
 30
0.0
  0
ENDBLK
  5
1851
330
1846
100
AcDbEntity
  8
0
100
AcDbBlockEnd
  0
BLOCK
  5
188B
330
1880
100
AcDbEntity
  8
0
100
AcDbBlockBegin
  2
*D4
 70
     1
 10
0.0
 20
0.0
 30
0.0
  3
*D4
  1

  0
LINE
  5
1929
330
1880
100
AcDbEntity
  8
SK2
 62
     0
370
    -2
100
AcDbLine
 10
-0.125
 20
24.50000000000005
 30
0.0
 11
-59.70384233550031
 21
24.50000000000007
 31
0.0
  0
LINE
  5
192A
330
1880
100
AcDbEntity
  8
SK2
 62
     0
370
    -2
100
AcDbLine
 10
-0.125
 20
-24.49999999999994
 30
0.0
 11
-59.70384233550031
 21
-24.49999999999992
 31
0.0
  0
LINE
  5
192B
330
1880
100
AcDbEntity
  8
SK2
 62
     0
370
    -2
100
AcDbLine
 10
-58.45384233550031
 20
22.00000000000007
 30
0.0
 11
-58.45384233550031
 21
-21.99999999999992
 31
0.0
  0
SOLID
  5
192C
330
1880
100
AcDbEntity
  8
SK2
 62
     0
100
AcDbTrace
 10
-58.87050900216697
 20
22.00000000000007
 30
0.0
 11
-58.03717566883364
 21
22.00000000000007
 31
0.0
 12
-58.45384233550031
 22
24.50000000000007
 32
0.0
 13
-58.45384233550031
 23
24.50000000000007
 33
0.0
  0
SOLID
  5
192D
330
1880
100
AcDbEntity
  8
SK2
 62
     0
100
AcDbTrace
 10
-58.87050900216699
 20
-21.99999999999992
 30
0.0
 11
-58.03717566883365
 21
-21.99999999999992
 31
0.0
 12
-58.45384233550031
 22
-24.49999999999992
 32
0.0
 13
-58.45384233550031
 23
-24.49999999999992
 33
0.0
  0
MTEXT
  5
192E
330
1880
100
AcDbEntity
  8
SK2
 62
     0
100
AcDbMText
 10
-60.82884233550032
 20
0.0000000000000643
 30
0.0
 40
3.5
 41
0.0
 71
     5
 72
     1
  1
%%C49
 11
0.0000000000000001
 21
1.0
 31
0.0
 73
     1
 44
1.0
  0
POINT
  5
192F
330
1880
100
AcDbEntity
  8
Defpoints
 62
     0
100
AcDbPoint
 10
0.5
 20
24.50000000000005
 30
0.0
  0
POINT
  5
1930
330
1880
100
AcDbEntity
  8
Defpoints
 62
     0
100
AcDbPoint
 10
0.5
 20
-24.49999999999994
 30
0.0
  0
POINT
  5
1931
330
1880
100
AcDbEntity
  8
Defpoints
 62
     0
100
AcDbPoint
 10
-58.45384233550031
 20
-24.49999999999992
 30
0.0
  0
ENDBLK
  5
188C
330
1880
100
AcDbEntity
  8
0
100
AcDbBlockEnd
  0
BLOCK
  5
18AB
330
18A0
100
AcDbEntity
  8
0
100
AcDbBlockBegin
  2
*D5
 70
     1
 10
0.0
 20
0.0
 30
0.0
  3
*D5
  1

  0
LINE
  5
1920
330
18A0
100
AcDbEntity
  8
SK2
 62
     0
370
    -2
100
AcDbLine
 10
-30.625
 20
12.00000000000005
 30
0.0
 11
-44.61898281945206
 21
12.00000000000006
 31
0.0
  0
LINE
  5
1921
330
18A0
100
AcDbEntity
  8
SK2
 62
     0
370
    -2
100
AcDbLine
 10
-30.625
 20
-11.99999999999993
 30
0.0
 11
-44.61898281945206
 21
-11.99999999999993
 31
0.0
  0
LINE
  5
1922
330
18A0
100
AcDbEntity
  8
SK2
 62
     0
370
    -2
100
AcDbLine
 10
-43.36898281945206
 20
9.500000000000056
 30
0.0
 11
-43.36898281945206
 21
-9.499999999999939
 31
0.0
  0
SOLID
  5
1923
330
18A0
100
AcDbEntity
  8
SK2
 62
     0
100
AcDbTrace
 10
-43.78564948611873
 20
9.500000000000056
 30
0.0
 11
-42.95231615278541
 21
9.500000000000056
 31
0.0
 12
-43.36898281945206
 22
12.00000000000005
 32
0.0
 13
-43.36898281945206
 23
12.00000000000005
 33
0.0
  0
SOLID
  5
1924
330
18A0
100
AcDbEntity
  8
SK2
 62
     0
100
AcDbTrace
 10
-43.78564948611873
 20
-9.499999999999939
 30
0.0
 11
-42.95231615278541
 21
-9.499999999999939
 31
0.0
 12
-43.36898281945206
 22
-11.99999999999993
 32
0.0
 13
-43.36898281945206
 23
-11.99999999999993
 33
0.0
  0
MTEXT
  5
1925
330
18A0
100
AcDbEntity
  8
SK2
 62
     0
100
AcDbMText
 10
-45.74432730764105
 20
0.0000000000000527
 30
0.0
 40
3.5
 41
0.0
 71
     5
 72
     1
  1
%%C24
 11
0.0000000000000001
 21
1.0
 31
0.0
 73
     1
 44
1.0
  0
POINT
  5
1926
330
18A0
100
AcDbEntity
  8
Defpoints
 62
     0
100
AcDbPoint
 10
-30.0
 20
12.00000000000005
 30
0.0
  0
POINT
  5
1927
330
18A0
100
AcDbEntity
  8
Defpoints
 62
     0
100
AcDbPoint
 10
-30.0
 20
-11.99999999999993
 30
0.0
  0
POINT
  5
1928
330
18A0
100
AcDbEntity
  8
Defpoints
 62
     0
100
AcDbPoint
 10
-43.36898281945206
 20
-11.99999999999993
 30
0.0
  0
ENDBLK
  5
18AC
330
18A0
100
AcDbEntity
  8
0
100
AcDbBlockEnd
  0
ENDSEC
  0
SECTION
  2
ENTITIES
  0
MTEXT
  5
8D5
330
1F
100
AcDbEntity
  8
6
100
AcDbMText
 10
73.49348488673547
 20
-36.86513525818475
 30
0.0
 40
5.0
 41
64.0
 71
     2
 72
     1
  1
15T1J050021Z4R00
 73
     1
 44
1.0
  0
DIMENSION
  5
17C5
330
1F
100
AcDbEntity
  8
2
100
AcDbDimension
  2
*D3
 10
74.97764499999994
 20
43.88936839353664
 30
0.0
 11
36.47489063962314
 21
43.88936839353664
 31
0.0
 70
   160
  1
75
 71
     5
 42
74.97764499999994
  3
ISO-25
100
AcDbAlignedDimension
 13
0.0
 23
24.00000000000005
 33
0.0
 14
74.97764499999994
 24
24.21325000000001
 34
0.0
100
AcDbRotatedDimension
1001
ACAD
1000
DSTYLE
1002
{
1070
   140
1040
3.5
1002
}
  0
LINE
  5
17C6
330
1F
100
AcDbEntity
  8
1
100
AcDbLine
 10
54.95000000000004
 20
13.5
 30
0.0
 11
15.78407605659992
 21
13.50000000000004
 31
0.0
  0
LINE
  5
17C7
330
1F
100
AcDbEntity
  8
1
100
AcDbLine
 10
54.1552906647546
 20
-13.49999999999994
 30
0.0
 11
15.78407605659992
 21
-13.49999999999994
 31
0.0
  0
LINE
  5
17C8
330
1F
100
AcDbEntity
  8
4
100
AcDbLine
 10
0.0
 20
0.0000000000000568
 30
0.0
 11
77.10000000000002
 21
0.0000000000000568
 31
0.0
  0
LINE
  5
17C9
330
1F
100
AcDbEntity
  8
3
100
AcDbLine
 10
66.0
 20
3.000000000000055
 30
0.0
 11
-11.09861218119988
 21
3.000000000000055
 31
0.0
  0
LINE
  5
17CA
330
1F
100
AcDbEntity
  8
3
100
AcDbLine
 10
66.0
 20
-2.999999999999943
 30
0.0
 11
-18.68176115900007
 21
-2.999999999999943
 31
0.0
  0
LINE
  5
17CB
330
1F
100
AcDbEntity
  8
1
100
AcDbLine
 10
74.10000000000002
 20
-23.17496968629995
 30
0.0
 11
74.10000000000002
 21
1.957232761245903
 31
0.0
  0
LINE
  5
17CC
330
1F
100
AcDbEntity
  8
1
100
AcDbLine
 10
54.17643007219999
 20
-11.37174225609993
 30
0.0
 11
54.05002936829998
 21
-24.09741952989992
 31
0.0
  0
LINE
  5
17CD
330
1F
100
AcDbEntity
  8
1
100
AcDbLine
 10
74.10000000000002
 20
-2.944089029999928
 30
0.0
 11
74.10000000000002
 21
-23.11263872729994
 31
0.0
  0
DIMENSION
  5
17CE
330
1F
100
AcDbEntity
  8
2
100
AcDbDimension
  2
*D2
 10
90.19720798815944
 20
24.97500000000007
 30
0.0
 11
90.19720798815944
 21
-1.932566913532354
 31
0.0
 70
   160
  1
%%c50
 71
     5
 42
49.94999999999999
  3
ISO-25
100
AcDbAlignedDimension
 13
75.5
 23
-24.97499999999991
 33
0.0
 14
75.5
 24
24.97500000000007
 34
0.0
 50
90.0
100
AcDbRotatedDimension
1001
ACAD
1000
DSTYLE
1002
{
1070
   140
1040
3.5
1002
}
  0
LINE
  5
17CF
330
1F
100
AcDbEntity
  8
1
100
AcDbLine
 10
54.78575558160002
 20
-24.85128045049998
 30
0.0
 11
67.43130661809994
 21
-24.95333450439995
 31
0.0
  0
LINE
  5
17D0
330
1F
100
AcDbEntity
  8
1
100
AcDbLine
 10
73.60000000000002
 20
-23.67499999999994
 30
0.0
 11
68.18721807789995
 21
-23.67499999999994
 31
0.0
  0
ARC
  5
17D1
330
1F
100
AcDbEntity
  8
1
100
AcDbCircle
 10
73.60000000000002
 20
-23.17499999999995
 30
0.0
 40
0.5
100
AcDbArc
 50
270.0
 51
0.000000000000007
  0
ELLIPSE
  5
17D2
330
1F
100
AcDbEntity
  8
1
100
AcDbEllipse
 10
67.41093648080003
 20
-24.17698744449995
 30
0.0
 11
-0.4984640432
 21
0.6092197305
 31
0.0
210
0.0
220
0.0
230
-0.9999999999999998
 40
0.9654725041999999
 41
-3.999378163899998
 42
-2.464997958
  0
LINE
  5
17D3
330
1F
100
AcDbEntity
  8
1
100
AcDbLine
 10
68.18188948039995
 20
-24.21146862189994
 30
0.0
 11
68.18721807784709
 21
-23.67500000000001
 31
0.0
  0
ELLIPSE
  5
17D4
330
1F
100
AcDbEntity
  8
1
100
AcDbEllipse
 10
54.82154370720002
 20
-24.07538660769994
 30
0.0
 11
0.5154714812
 21
0.5968097784000001
 31
0.0
210
0.0
220
0.0
230
-1.0
 40
0.9619364689999999
 41
-3.8268386618
 42
-2.292458455999998
  0
LINE
  5
17D5
330
1F
100
AcDbEntity
  8
1
100
AcDbLine
 10
54.95000000000004
 20
23.18613327528321
 30
0.0
 11
54.95000000000004
 21
-10.63040691928864
 31
0.0
  0
LINE
  5
17D6
330
1F
100
AcDbEntity
  8
1
100
AcDbLine
 10
74.10000000000002
 20
23.15930331880001
 30
0.0
 11
74.10000000000002
 21
0.0000000000000568
 31
0.0
  0
SPLINE
  5
17D7
330
1F
100
AcDbEntity
  8
CUT
100
AcDbSpline
210
0.0
220
0.0
230
1.0
 70
     8
 71
     3
 72
    36
 73
    32
 74
    30
 42
0.0000000001
 43
0.0000000001
 44
0.0000000001
 12
-0.0102713664421703
 22
0.9999472481243252
 32
0.0
 13
-0.0100057346704412
 23
0.9999499413839197
 33
0.0
 40
0.0
 40
0.0
 40
0.0
 40
0.0
 40
0.4250273531268319
 40
0.8510076460136996
 40
1.277848904143719
 40
1.705469121725852
 40
2.133794292563412
 40
2.562761440380119
 40
2.992315547784521
 40
3.422405637771499
 40
3.852986702568849
 40
4.28402073406515
 40
4.715470754420969
 40
5.147305755144605
 40
5.579495727712216
 40
6.012015693592413
 40
6.444842643892385
 40
6.877953569735918
 40
7.311329492229264
 40
7.744952402235188
 40
8.178807290478941
 40
8.612879177821362
 40
9.047154044896361
 40
9.481618912440323
 40
9.916262770978537
 40
10.35107461104734
 40
10.78604545315283
 40
11.22116628772874
 40
11.65642810521796
 40
12.09182292605301
 40
12.52734474052501
 40
12.52734474052501
 40
12.52734474052501
 40
12.52734474052501
 10
54.17642999999998
 20
11.70841600000005
 30
0.0
 10
54.17497479610268
 20
11.85008431071229
 30
0.0
 10
54.17206595277106
 20
12.13373861156137
 30
0.0
 10
54.16770889145329
 20
12.55966596141197
 30
0.0
 10
54.16335004774644
 20
12.98645762633658
 30
0.0
 10
54.15899104584483
 20
13.41403095633825
 30
0.0
 10
54.15463419473245
 20
13.84231297486393
 30
0.0
 10
54.15027456535511
 20
14.27123962840623
 30
0.0
 10
54.14591765090676
 20
14.70075464622881
 30
0.0
 10
54.14155850689265
 20
15.13080764140874
 30
0.0
 10
54.13719937707171
 20
15.56135397009196
 30
0.0
 10
54.13284223384049
 20
15.99235365218614
 30
0.0
 10
54.12848305503146
 20
16.4237713136886
 30
0.0
 10
54.12412387849382
 20
16.8555743085671
 30
0.0
 10
54.11976667073672
 20
17.28773398996088
 30
0.0
 10
54.11540745256137
 20
17.72022431774098
 30
0.0
 10
54.11104824012836
 20
18.15302164559538
 30
0.0
 10
54.10669099776518
 20
18.58610432660474
 30
0.0
 10
54.10233176819015
 20
19.01945232094475
 30
0.0
 10
54.09797246818186
 20
19.45304831459139
 30
0.0
 10
54.09361536610669
 20
19.88687633031432
 30
0.0
 10
54.08925552588063
 20
20.32092164852121
 30
0.0
 10
54.08489841390281
 20
20.75517033079804
 30
0.0
 10
54.08053909280491
 20
21.18960965756497
 30
0.0
 10
54.076179828096
 20
21.62422798490871
 30
0.0
 10
54.07182253576277
 20
22.05901499868854
 30
0.0
 10
54.06746324857778
 20
22.49396099246975
 30
0.0
 10
54.06310396097806
 20
22.92905698625553
 30
0.0
 10
54.05874666833634
 20
23.36429433335052
 30
0.0
 10
54.05438736438751
 20
23.79966532696978
 30
0.0
 10
54.05148157190625
 20
24.08995632904913
 30
0.0
 10
54.05002899999999
 20
24.23512300000004
 30
0.0
 11
54.17642999999998
 21
11.70841600000005
 31
0.0
 11
54.17207099999996
 21
12.13342100000005
 31
0.0
 11
54.16771299999993
 21
12.55937900000002
 31
0.0
 11
54.1633539999999
 21
12.98619800000005
 31
0.0
 11
54.1589949999999
 21
13.41379600000004
 31
0.0
 11
54.15463699999998
 21
13.84209900000006
 31
0.0
 11
54.15027799999997
 21
14.27104400000007
 31
0.0
 11
54.14591999999993
 21
14.70057600000006
 31
0.0
 11
54.14156100000003
 21
15.13064400000007
 31
0.0
 11
54.137202
 21
15.56120300000009
 31
0.0
 11
54.13284399999998
 21
15.99221500000004
 31
0.0
 11
54.12848499999995
 21
16.42364300000008
 31
0.0
 11
54.12412599999993
 21
16.85545600000006
 31
0.0
 11
54.11976799999989
 21
17.28762400000005
 31
0.0
 11
54.115409
 21
17.72012200000006
 31
0.0
 11
54.11104999999998
 21
18.15292700000003
 31
0.0
 11
54.10669199999995
 21
18.58601600000008
 31
0.0
 11
54.10233299999993
 21
19.01937000000003
 31
0.0
 11
54.0979739999999
 21
19.45297100000003
 31
0.0
 11
54.093616
 21
19.88680400000003
 31
0.0
 11
54.08925699999997
 21
20.32085400000005
 31
0.0
 11
54.08489899999995
 21
20.75510700000005
 31
0.0
 11
54.08053999999992
 21
21.18955000000005
 31
0.0
 11
54.07618100000002
 21
21.62417200000003
 31
0.0
 11
54.07182299999998
 21
22.05896200000005
 31
0.0
 11
54.06746399999997
 21
22.49391100000001
 31
0.0
 11
54.06310499999995
 21
22.92901000000005
 31
0.0
 11
54.05874699999992
 21
23.36425000000007
 31
0.0
 11
54.05438799999989
 21
23.79962300000005
 31
0.0
 11
54.05002899999999
 21
24.23512300000004
 31
0.0
  0
SPLINE
  5
17D8
330
1F
100
AcDbEntity
  8
CUT
100
AcDbSpline
210
0.0
220
0.0
230
1.0
 70
     8
 71
     3
 72
    36
 73
    32
 74
    30
 42
0.0000000001
 43
0.0000000001
 44
0.0000000001
 12
-0.0116173734474529
 22
-0.9999325160400488
 32
0.0
 13
-0.0119121031965029
 23
-0.9999290483816519
 33
0.0
 40
0.0
 40
0.0
 40
0.0
 40
0.0
 40
0.4355313828932888
 40
0.8709357627392149
 40
1.306208163116274
 40
1.741338573087844
 40
2.176320993065889
 40
2.611143423869563
 40
3.045798854342927
 40
3.480275308584152
 40
3.914561775711556
 40
4.348645256619325
 40
4.782511752272057
 40
5.21614826356924
 40
5.649537780013743
 40
6.082661326264673
 40
6.515501891833587
 40
6.948035478387271
 40
7.380240087462679
 40
7.812088709233106
 40
8.243554369021882
 40
8.674603057503812
 40
9.105199777149932
 40
9.535305530723388
 40
9.964874309715792
 40
10.39385714117881
 40
10.82219801735333
 40
11.24983294285173
 40
11.6766889229633
 40
12.1026839636692
 40
12.52772505989983
 40
12.52772505989983
 40
12.52772505989983
 40
12.52772505989983
 10
74.97764499999994
 20
24.21325000000001
 30
0.0
 10
74.97595842309222
 20
24.06808266949638
 30
0.0
 10
74.97258657098235
 20
23.77779033057307
 30
0.0
 10
74.96752907411831
 20
23.342416983645
 30
0.0
 10
74.96246975269165
 20
22.90717732458253
 30
0.0
 10
74.95741085142149
 20
22.47207832343257
 30
0.0
 10
74.95235202743437
 20
22.03712932138035
 30
0.0
 10
74.9472926029149
 20
21.60233866353026
 30
0.0
 10
74.9422354094882
 20
21.1677166463788
 30
0.0
 10
74.93717600527133
 20
20.73327332162401
 30
0.0
 10
74.93211721537194
 20
20.29902065250487
 30
0.0
 10
74.92705823247885
 20
19.86497131896527
 30
0.0
 10
74.92199943918436
 20
19.43113864987913
 30
0.0
 10
74.91694007380769
 20
18.99753732469324
 30
0.0
 10
74.91188291921523
 20
18.56418364036613
 30
0.0
 10
74.90682355747321
 20
18.13109531513326
 30
0.0
 10
74.90176479754125
 20
17.6982923123163
 30
0.0
 10
74.89670601198458
 20
17.26579564312232
 30
0.0
 10
74.89164672220707
 20
16.83362965040484
 30
0.0
 10
74.88658960314275
 20
16.40181963225382
 30
0.0
 10
74.88153035588986
 20
15.97039497236004
 30
0.0
 10
74.8764716518481
 20
15.53938763552691
 30
0.0
 10
74.87141297394789
 20
15.10883363170233
 30
0.0
 10
74.86635379505057
 20
14.67877297102985
 30
0.0
 10
74.86129681476609
 20
14.24925028445198
 30
0.0
 10
74.85623768698594
 20
13.82031595648238
 30
0.0
 10
74.85117919802066
 20
13.39202628370978
 30
0.0
 10
74.84612058988282
 20
12.96444561231606
 30
0.0
 10
74.84106214802523
 20
12.53764693892197
 30
0.0
 10
74.83600350352185
 20
12.11171293853423
 30
0.0
 10
74.83262771113361
 20
11.82805431295907
 30
0.0
 10
74.83093999999993
 20
11.68638400000008
 30
0.0
 11
74.97764499999994
 21
24.21325000000001
 31
0.0
 11
74.97258599999998
 21
23.77774800000007
 31
0.0
 11
74.96752800000002
 21
23.34237300000006
 31
0.0
 11
74.96246899999992
 21
22.90713000000005
 31
0.0
 11
74.95740999999998
 21
22.47202900000002
 31
0.0
 11
74.95235100000002
 21
22.03707600000007
 31
0.0
 11
74.94729199999993
 21
21.60228300000005
 31
0.0
 11
74.94223399999999
 21
21.16765700000006
 31
0.0
 11
74.93717499999991
 21
20.73321000000003
 31
0.0
 11
74.93211599999995
 21
20.29895300000003
 31
0.0
 11
74.92705699999998
 21
19.86489900000003
 31
0.0
 11
74.9219979999999
 21
19.43106200000005
 31
0.0
 11
74.91693899999996
 21
18.99745500000006
 31
0.0
 11
74.91188099999998
 21
18.56409500000006
 31
0.0
 11
74.90682200000003
 21
18.13100100000007
 31
0.0
 11
74.90176299999994
 21
17.69819000000006
 31
0.0
 11
74.89670399999987
 21
17.26568600000007
 31
0.0
 11
74.89164500000005
 21
16.83351100000003
 31
0.0
 11
74.88658699999994
 21
16.40169200000001
 31
0.0
 11
74.881528
 21
15.97025600000006
 31
0.0
 11
74.87646899999993
 21
15.53923700000007
 31
0.0
 11
74.87140999999997
 21
15.10867000000007
 31
0.0
 11
74.86635099999999
 21
14.67859400000008
 31
0.0
 11
74.86129300000005
 21
14.24905500000004
 31
0.0
 11
74.85623399999997
 21
13.82010200000002
 31
0.0
 11
74.8511749999999
 21
13.39179100000007
 31
0.0
 11
74.84611599999993
 21
12.96418600000003
 31
0.0
 11
74.84105699999997
 21
12.53736000000002
 31
0.0
 11
74.8359979999999
 21
12.111395
 31
0.0
 11
74.83093999999993
 21
11.68638400000008
 31
0.0
  0
SPLINE
  5
17D9
330
1F
100
AcDbEntity
  8
CUT
100
AcDbSpline
210
0.0
220
0.0
230
1.0
 70
     8
 71
     3
 72
    36
 73
    32
 74
    30
 42
0.0000000001
 43
0.0000000001
 44
0.0000000001
 12
0.0099459288821273
 22
-0.9999505380260925
 32
0.0
 13
0.0099975776025361
 23
-0.999950022972189
 33
0.0
 40
0.0
 40
0.0
 40
0.0
 40
0.0
 40
0.438189681650543
 40
0.8763523646371055
 40
1.314487039061571
 40
1.752592724869247
 40
2.190665412310464
 40
2.628706091386051
 40
3.066710782194237
 40
3.504677474884456
 40
3.942604159603485
 40
4.380488856355952
 40
4.818326555437464
 40
5.256116246942423
 40
5.693852951030655
 40
6.131533657895817
 40
6.569154357777614
 40
7.00670907089356
 40
7.444194777471482
 40
7.881604497785284
 40
8.318933222122055
 40
8.756171940962202
 40
9.193314674542437
 40
9.630352413344269
 40
10.0672741479421
 40
10.50407089873819
 40
10.94072865645814
 40
11.37723441176952
 40
11.81357218544609
 40
12.24972196850806
 40
12.68566375196538
 40
12.68566375196538
 40
12.68566375196538
 40
12.68566375196538
 10
68.18188899999995
 20
24.23079100000006
 30
0.0
 10
68.18334173447015
 20
24.08473499735874
 30
0.0
 10
68.186247865708
 20
23.79263199866393
 30
0.0
 10
68.19060719345197
 20
23.35449133857392
 30
0.0
 10
68.19496452476788
 20
22.91637865862266
 30
0.0
 10
68.19932383230804
 20
22.47829599833121
 30
0.0
 10
68.20368317750404
 20
22.0402446717497
 30
0.0
 10
68.20804048581831
 20
21.60222699156665
 30
0.0
 10
68.21239981150101
 20
21.16424466479038
 30
0.0
 10
68.21675913357586
 20
20.72630033798049
 30
0.0
 10
68.22111645985064
 20
20.28839599130596
 30
0.0
 10
68.22547576328765
 20
19.85053466430981
 30
0.0
 10
68.2298350965505
 20
19.41271900427998
 30
0.0
 10
68.23419240362881
 20
18.97495265741005
 30
0.0
 10
68.23855171285334
 20
18.53723866380658
 30
0.0
 10
68.24291106852894
 20
18.09958100400264
 30
0.0
 10
68.24726821379051
 20
17.66198398884841
 30
0.0
 10
68.25162811436578
 20
17.22445200446006
 30
0.0
 10
68.25598525329406
 20
16.7869903225723
 30
0.0
 10
68.26034460784629
 20
16.34960399609092
 30
0.0
 10
68.26470388012421
 20
15.91230000212802
 30
0.0
 10
68.26906119052989
 20
15.47508498860682
 30
0.0
 10
68.27342047706037
 20
15.037966994784
 30
0.0
 10
68.27777975307911
 20
14.600954667529
 30
0.0
 10
68.28213704639413
 20
14.16405765382687
 30
0.0
 10
68.2864963038973
 20
13.72728732638433
 30
0.0
 10
68.29085557913775
 20
13.29065566579337
 30
0.0
 10
68.29521281744908
 20
12.8541769848608
 30
0.0
 10
68.29957210495734
 20
12.4178676577221
 30
0.0
 10
68.30393112713557
 20
11.98174632794028
 30
0.0
 10
68.30683721272983
 20
11.69106366546098
 30
0.0
 10
68.30828999999993
 20
11.54575700000009
 30
0.0
 11
68.18188899999995
 21
24.23079100000006
 31
0.0
 11
68.18624799999998
 21
23.79262300000005
 31
0.0
 11
68.190607
 21
23.35448200000007
 31
0.0
 11
68.19496500000003
 21
22.91636900000003
 31
0.0
 11
68.19932399999993
 21
22.47828500000002
 31
0.0
 11
68.20368299999995
 21
22.04023400000005
 31
0.0
 11
68.20804099999998
 21
21.60221500000005
 31
0.0
 11
68.2124
 21
21.16423200000008
 31
0.0
 11
68.21675900000002
 21
20.72628700000007
 31
0.0
 11
68.22111699999993
 21
20.28838200000007
 31
0.0
 11
68.22547599999996
 21
19.85051900000007
 31
0.0
 11
68.22983499999998
 21
19.41270300000008
 31
0.0
 11
68.23419299999989
 21
18.97493500000006
 31
0.0
 11
68.23855199999989
 21
18.53722000000003
 31
0.0
 11
68.24291099999993
 21
18.09956100000005
 31
0.0
 11
68.24726899999996
 21
17.66196200000001
 31
0.0
 11
68.25162799999998
 21
17.22442900000004
 31
0.0
 11
68.25598600000001
 21
16.78696500000006
 31
0.0
 11
68.26034500000003
 21
16.34957700000006
 31
0.0
 11
68.26470399999994
 21
15.91227000000002
 31
0.0
 11
68.26906199999996
 21
15.47505300000006
 31
0.0
 11
68.27342099999999
 21
15.03793200000006
 31
0.0
 11
68.27778000000001
 21
14.60091600000003
 31
0.0
 11
68.28213799999992
 21
14.16401600000005
 31
0.0
 11
68.28649699999994
 21
13.72724100000003
 31
0.0
 11
68.29085599999996
 21
13.29060500000001
 31
0.0
 11
68.29521399999999
 21
12.85412100000006
 31
0.0
 11
68.29957299999989
 21
12.41780500000003
 31
0.0
 11
68.30393199999992
 21
11.98167700000003
 31
0.0
 11
68.30828999999993
 21
11.54575700000009
 31
0.0
  0
SPLINE
  5
17DA
330
1F
100
AcDbEntity
  8
CUT
100
AcDbSpline
210
0.0
220
0.0
230
1.0
 70
     8
 71
     3
 72
    36
 73
    32
 74
    30
 42
0.0000000001
 43
0.0000000001
 44
0.0000000001
 12
0.0116025017886827
 22
0.9999326887107169
 32
0.0
 13
0.0115432241323621
 23
0.9999333747688543
 33
0.0
 40
0.0
 40
0.0
 40
0.0
 40
0.0
 40
0.4359723415688926
 40
0.8721506808774824
 40
1.308514007747409
 40
1.745044323398017
 40
2.181725628911523
 40
2.618543913653569
 40
3.055487201594922
 40
3.492543481963938
 40
3.929703755367152
 40
4.366960022343397
 40
4.804304283430709
 40
5.241729527535388
 40
5.679229778188989
 40
6.116799024230124
 40
6.554432265994298
 40
6.992125503749911
 40
7.429874726209538
 40
7.867674956819342
 40
8.305524184157924
 40
8.743418408492967
 40
9.181355629958549
 40
9.619331837272373
 40
10.05734605360104
 40
10.49539426766201
 40
10.93347647945566
 40
11.37158968918228
 40
11.80973188543024
 40
12.24790309129049
 40
12.68609929548442
 40
12.68609929548442
 40
12.68609929548442
 40
12.68609929548442
 10
60.69932499999993
 20
11.54650700000001
 30
0.0
 10
60.70101112329089
 20
11.69182133190283
 30
0.0
 10
60.70438402812621
 20
11.98251865860624
 30
0.0
 10
60.7094431093832
 20
12.41866065380126
 30
0.0
 10
60.71450198143448
 20
12.85498865529031
 30
0.0
 10
60.71956077938557
 20
13.29148432430133
 30
0.0
 10
60.72462015747688
 20
13.72813164939922
 30
0.0
 10
60.72967735798856
 20
14.16491666638158
 30
0.0
 10
60.73473675240706
 20
14.60182665795546
 30
0.0
 10
60.73979556835877
 20
15.03885066008832
 30
0.0
 10
60.74485458876783
 20
15.47597899318699
 30
0.0
 10
60.74991340881173
 20
15.91320332860321
 30
0.0
 10
60.7549728338256
 20
16.35051598650077
 30
0.0
 10
60.76003006959594
 20
16.78791000305013
 30
0.0
 10
60.76508948953738
 20
17.22537899433917
 30
0.0
 10
60.77014836951933
 20
17.6629173290614
 30
0.0
 10
60.77520725571342
 20
18.10051999704366
 30
0.0
 10
60.7802666881567
 20
18.53818265486131
 30
0.0
 10
60.78532392884704
 20
18.97590100467436
 30
0.0
 10
60.79038337602307
 20
19.41367132898809
 30
0.0
 10
60.79544225791307
 20
19.85148999702018
 30
0.0
 10
60.80050115963111
 20
20.28935433148882
 30
0.0
 10
60.80556058603452
 20
20.72726098938054
 30
0.0
 10
60.81061785876647
 20
21.16520767214804
 30
0.0
 10
60.81567728410044
 20
21.60319133005192
 30
0.0
 10
60.82073619827808
 20
22.04121033104353
 30
0.0
 10
60.82579508908827
 20
22.47926233230433
 30
0.0
 10
60.83085452306956
 20
22.91734565677833
 30
0.0
 10
60.83591183045065
 20
23.35545867247294
 30
0.0
 10
60.84097114430769
 20
23.79359933166702
 30
0.0
 10
60.84434393433372
 20
24.08570233024316
 30
0.0
 10
60.84603000000004
 20
24.231758
 30
0.0
 11
60.69932499999993
 21
11.54650700000001
 31
0.0
 11
60.70438299999989
 21
11.98245000000008
 31
0.0
 11
60.70944199999996
 21
12.41859900000008
 31
0.0
 11
60.71450100000004
 21
12.85493300000006
 31
0.0
 11
60.71956
 21
13.29143400000009
 31
0.0
 11
60.72461899999996
 21
13.72808600000007
 31
0.0
 11
60.72967699999992
 21
14.16487500000005
 31
0.0
 11
60.73473599999999
 21
14.60178900000005
 31
0.0
 11
60.73979499999996
 21
15.03881600000005
 31
0.0
 11
60.74485399999993
 21
15.47594700000002
 31
0.0
 11
60.74991299999999
 21
15.91317400000002
 31
0.0
 11
60.75497199999995
 21
16.35048900000002
 31
0.0
 11
60.76003000000003
 21
16.78788500000007
 31
0.0
 11
60.76508899999999
 21
17.22535600000003
 31
0.0
 11
60.77014799999995
 21
17.66289600000003
 31
0.0
 11
60.77520700000001
 21
18.10050000000006
 31
0.0
 11
60.78026599999998
 21
18.53816400000005
 31
0.0
 11
60.78532399999993
 21
18.97588400000006
 31
0.0
 11
60.79038299999989
 21
19.41365500000006
 31
0.0
 11
60.79544199999998
 21
19.85147500000005
 31
0.0
 11
60.80050099999994
 21
20.28934000000004
 31
0.0
 11
60.80555999999989
 21
20.72724800000003
 31
0.0
 11
60.81061799999996
 21
21.16519500000003
 31
0.0
 11
60.81567699999993
 21
21.60318000000005
 31
0.0
 11
60.82073600000001
 21
22.04119900000005
 31
0.0
 11
60.82579499999997
 21
22.47925200000007
 31
0.0
 11
60.83085399999993
 21
22.91733600000003
 31
0.0
 11
60.8359119999999
 21
23.35544900000001
 31
0.0
 11
60.84097099999997
 21
23.79359100000005
 31
0.0
 11
60.84603000000004
 21
24.231758
 31
0.0
  0
ARC
  5
17DC
330
1F
100
AcDbEntity
  8
CUT
100
AcDbCircle
 10
72.18940826633332
 20
853.5215630557001
 30
0.0
 40
842.7272033907996
100
AcDbArc
 50
268.826273207
 51
269.6861059733
  0
LINE
  5
17DD
330
1F
100
AcDbEntity
  8
3
100
AcDbLine
 10
67.80258185700006
 20
0.0000000000000568
 30
0.0
 11
66.0
 21
3.000000000000055
 31
0.0
  0
LINE
  5
17DE
330
1F
100
AcDbEntity
  8
3
100
AcDbLine
 10
66.0
 20
-2.999999999999943
 30
0.0
 11
66.0
 21
3.000000000000055
 31
0.0
  0
LINE
  5
17DF
330
1F
100
AcDbEntity
  8
1
100
AcDbLine
 10
74.97764518329995
 20
-3.416328781499942
 30
0.0
 11
74.97764938039995
 21
-3.416470120299948
 31
0.0
  0
LINE
  5
17E0
330
1F
100
AcDbEntity
  8
3
100
AcDbLine
 10
67.80258185700006
 20
0.0000000000000568
 30
0.0
 11
66.0
 21
-2.999999999999943
 31
0.0
  0
ARC
  5
17E1
330
1F
100
AcDbEntity
  8
CUT
100
AcDbCircle
 10
58.24402745113332
 20
847.4075929692
 30
0.0
 40
836.6071772578997
100
AcDbArc
 50
270.2184580074999
 51
271.0845487794998
  0
SPLINE
  5
17E2
330
1F
100
AcDbEntity
  8
CUT
100
AcDbSpline
210
0.0
220
0.0
230
1.0
 70
     8
 71
     3
 72
    36
 73
    32
 74
    30
 42
0.0000000001
 43
0.0000000001
 44
0.0000000001
 12
0.9996882982060403
 22
0.0249661056216445
 32
0.0
 13
0.0183984947780128
 23
0.9998307333693558
 33
0.0
 40
0.0
 40
0.0
 40
0.0
 40
0.0
 40
0.0418725067317856
 40
0.083215846715421
 40
0.1241340313402651
 40
0.1647311516938494
 40
0.2051226760770668
 40
0.245655935519112
 40
0.2863383158821604
 40
0.3269634908602638
 40
0.3673208016973134
 40
0.4072566194052182
 40
0.4472871088976158
 40
0.4874444437319597
 40
0.5275351950344342
 40
0.5673643946874969
 40
0.6068614613634381
 40
0.6465676676792456
 40
0.6864134196863133
 40
0.7262095301745636
 40
0.7657674540963642
 40
0.8051236948212586
 40
0.8447974185815002
 40
0.8846447016758292
 40
0.9244687372322678
 40
0.9640778612442993
 40
1.003489662586005
 40
1.043057883572045
 40
1.082908161827059
 40
1.123154922541406
 40
1.163910250487608
 40
1.163910250487608
 40
1.163910250487608
 40
1.163910250487608
 10
74.07917599999994
 20
10.95022700000003
 30
0.0
 10
74.09312915166538
 20
10.95057546447527
 30
0.0
 10
74.1208475428426
 20
10.95193035676025
 30
0.0
 10
74.16204336047312
 20
10.95597836436324
 30
0.0
 10
74.20256489481021
 20
10.96202924975499
 30
0.0
 10
74.24241170487892
 20
10.97008646201816
 30
0.0
 10
74.28166747306296
 20
10.98015423571911
 30
0.0
 10
74.3203494682127
 20
10.99233729177908
 30
0.0
 10
74.35841293871128
 20
11.00655329997091
 30
0.0
 10
74.39564556853534
 20
11.02267352585805
 30
0.0
 10
74.43178619377829
 20
11.04055777387916
 30
0.0
 10
74.46678117905974
 20
11.06019223919944
 30
0.0
 10
74.50060589476709
 20
11.08165642978825
 30
0.0
 10
74.53331152793225
 20
11.10487713723881
 30
0.0
 10
74.56472174019092
 20
11.12971421493255
 30
0.0
 10
74.59464008643525
 20
11.15599827112567
 30
0.0
 10
74.62301392607975
 20
11.18376089299087
 30
0.0
 10
74.6498560396002
 20
11.213013560215
 30
0.0
 10
74.675196358151
 20
11.24370509711541
 30
0.0
 10
74.69886148487998
 20
11.27564487821778
 30
0.0
 10
74.72070583817025
 20
11.30866273238756
 30
0.0
 10
74.74066208882828
 20
11.34280776620263
 30
0.0
 10
74.7588009236431
 20
11.37805903435765
 30
0.0
 10
74.77511521799204
 20
11.41436207764879
 30
0.0
 10
74.78946117361167
 20
11.45146454079762
 30
0.0
 10
74.80170700186383
 20
11.48916137276416
 30
0.0
 10
74.81176820233042
 20
11.52741043173006
 30
0.0
 10
74.81975364818764
 20
11.56622680032285
 30
0.0
 10
74.82566645283583
 20
11.60569429051329
 30
0.0
 10
74.82951142667916
 20
11.64581221740495
 30
0.0
 10
74.83069005443713
 20
11.67280119019036
 30
0.0
 10
74.83093999999993
 20
11.68638400000008
 30
0.0
 11
74.07917599999994
 21
10.95022700000003
 31
0.0
 11
74.12099799999999
 21
10.95228300000008
 31
0.0
 11
74.16214200000002
 21
10.95633800000006
 31
0.0
 11
74.20260999999993
 21
10.96239100000002
 31
0.0
 11
74.24240099999997
 21
10.97044100000005
 31
0.0
 11
74.28152199999998
 21
10.98049200000001
 31
0.0
 11
74.32018699999992
 21
10.99265600000005
 31
0.0
 11
74.35830099999998
 21
11.00688200000002
 31
0.0
 11
74.39558199999997
 21
11.02302300000008
 31
0.0
 11
74.43174899999997
 21
11.04093000000004
 31
0.0
 11
74.46656899999993
 21
11.06048600000008
 31
0.0
 11
74.50037699999995
 21
11.08192100000007
 31
0.0
 11
74.53312199999993
 21
11.10516700000004
 31
0.0
 11
74.5645679999999
 21
11.13003500000002
 31
0.0
 11
74.59447999999998
 21
11.156334
 31
0.0
 11
74.62270999999998
 21
11.18395800000006
 31
0.0
 11
74.64956399999993
 21
11.21320600000001
 31
0.0
 11
74.67493200000001
 21
11.24393300000008
 31
0.0
 11
74.69861899999989
 21
11.27591200000006
 31
0.0
 11
74.72043099999995
 21
11.30891300000006
 31
0.0
 11
74.74030099999993
 21
11.34288500000001
 31
0.0
 11
74.75845999999989
 21
11.37815900000009
 31
0.0
 11
74.77479099999993
 21
11.41450600000006
 31
0.0
 11
74.78914299999996
 21
11.45165400000006
 31
0.0
 11
74.80136600000003
 21
11.48933000000005
 31
0.0
 11
74.8114079999999
 21
11.52744100000006
 31
0.0
 11
74.81938400000001
 21
11.56619700000003
 31
0.0
 11
74.82529799999998
 21
11.60560600000007
 31
0.0
 11
74.8291499999999
 21
11.64566800000005
 31
0.0
 11
74.83093999999993
 21
11.68638400000008
 31
0.0
  0
LINE
  5
17E3
330
1F
100
AcDbEntity
  8
1
100
AcDbLine
 10
61.10476886389996
 20
0.5476544729000353
 30
0.0
 11
61.10863407379997
 21
0.54809485800007
 31
0.0
  0
SPLINE
  5
17E4
330
1F
100
AcDbEntity
  8
CUT
100
AcDbSpline
210
0.0
220
0.0
230
1.0
 70
     8
 71
     3
 72
    36
 73
    32
 74
    30
 42
0.0000000001
 43
0.0000000001
 44
0.0000000001
 12
0.9999996691469682
 22
0.0008134531050994
 32
0.0
 13
-0.0037559043172662
 23
0.9999929465665044
 33
0.0
 40
0.0
 40
0.0
 40
0.0
 40
0.0
 40
0.0418078229641399
 40
0.0830002869350864
 40
0.1236873999072331
 40
0.1639825060740904
 40
0.2040079990129437
 40
0.2441203383737853
 40
0.2843359302878774
 40
0.3244661566640015
 40
0.3643150870010019
 40
0.403742726494138
 40
0.4432711819660398
 40
0.4829452884462446
 40
0.5225850730066579
 40
0.5620098768235838
 40
0.6011617508656188
 40
0.640584863642258
 40
0.6802218544588388
 40
0.7198925034704454
 40
0.7594163561166524
 40
0.7988367780829549
 40
0.8386783927214082
 40
0.8787989977642553
 40
0.9190046518939437
 40
0.959103613102455
 40
0.9991156562894277
 40
1.039394759879342
 40
1.080063392829045
 40
1.121236291451804
 40
1.163022685469504
 40
1.163022685469504
 40
1.163022685469504
 40
1.163022685469504
 10
67.57256399999993
 20
10.80707300000006
 30
0.0
 10
67.58649993637722
 20
10.80708433623452
 30
0.0
 10
67.61417145316902
 20
10.80778676859656
 30
0.0
 10
67.65529837881226
 20
10.81092460731749
 30
0.0
 10
67.69570765091109
 20
10.81613803628051
 30
0.0
 10
67.73539763418928
 20
10.82343410493697
 30
0.0
 10
67.77445188429371
 20
10.83281425439876
 30
0.0
 10
67.81288600979491
 20
10.84438871234725
 30
0.0
 10
67.85065576308008
 20
10.85807335637136
 30
0.0
 10
67.887551567255
 20
10.87374003764001
 30
0.0
 10
67.92331647908118
 20
10.89125085120473
 30
0.0
 10
67.95789482309617
 20
10.9105973192666
 30
0.0
 10
67.99126252988211
 20
10.93185605778982
 30
0.0
 10
68.02346965860749
 20
10.95495427289547
 30
0.0
 10
68.0543446170791
 20
10.9797498325314
 30
0.0
 10
68.08369473678621
 20
11.0060737678409
 30
0.0
 10
68.11146692629233
 20
11.03395686245537
 30
0.0
 10
68.1376706208307
 20
11.06341244231113
 30
0.0
 10
68.1623391844683
 20
11.09438553007502
 30
0.0
 10
68.18530595130344
 20
11.12668208263651
 30
0.0
 10
68.20642632038683
 20
11.16013158762056
 30
0.0
 10
68.22562774090956
 20
11.19478334714076
 30
0.0
 10
68.24299133626826
 20
11.23061100199252
 30
0.0
 10
68.2585032463611
 20
11.26756249731314
 30
0.0
 10
68.27202756701739
 20
11.3053783018931
 30
0.0
 10
68.28343844415446
 20
11.34384854741449
 30
0.0
 10
68.29265084550756
 20
11.38292806397305
 30
0.0
 10
68.29977506588597
 20
11.42263307343839
 30
0.0
 10
68.30480996766397
 20
11.46304687471628
 30
0.0
 10
68.30776481733966
 20
11.50416750481386
 30
0.0
 10
68.30834231523249
 20
11.53182830024004
 30
0.0
 10
68.30828999999993
 20
11.54575700000009
 30
0.0
 11
67.57256399999993
 21
10.80707300000006
 31
0.0
 11
67.61435799999993
 21
10.80814800000006
 31
0.0
 11
67.65542999999991
 21
10.81129600000008
 31
0.0
 11
67.69578100000001
 21
10.81651500000009
 31
0.0
 11
67.735411
 21
10.82380600000003
 31
0.0
 11
67.77432499999997
 21
10.83317300000003
 31
0.0
 11
67.81273699999997
 21
10.84472800000002
 31
0.0
 11
67.85054999999998
 21
10.85842000000001
 31
0.0
 11
67.88748799999996
 21
10.87410500000003
 31
0.0
 11
67.923273
 21
10.89163700000006
 31
0.0
 11
67.957673
 21
10.91090300000006
 31
0.0
 11
67.99101899999993
 21
10.93212900000002
 31
0.0
 11
68.02326099999993
 21
10.95524800000009
 31
0.0
 11
68.05416699999989
 21
10.98007000000005
 31
0.0
 11
68.08350699999992
 21
11.00640400000008
 31
0.0
 11
68.11113599999998
 21
11.03414400000008
 31
0.0
 11
68.13734999999997
 21
11.06358900000009
 31
0.0
 11
68.16204499999992
 21
11.09459300000002
 31
0.0
 11
68.18503199999998
 21
11.12692500000002
 31
0.0
 11
68.20611999999993
 21
11.16035300000003
 31
0.0
 11
68.22524199999998
 21
11.19482500000002
 31
0.0
 11
68.24262599999997
 21
11.23067400000001
 31
0.0
 11
68.25815599999998
 21
11.26766700000007
 31
0.0
 11
68.27168799999992
 21
11.30552700000003
 31
0.0
 11
68.28307899999993
 21
11.34397400000006
 31
0.0
 11
68.29227899999989
 21
11.38291400000001
 31
0.0
 11
68.299398
 21
11.42255900000008
 31
0.0
 11
68.304439
 21
11.46291400000005
 31
0.0
 11
68.30740400000002
 21
11.50398000000006
 31
0.0
 11
68.30828999999993
 21
11.54575700000009
 31
0.0
  0
SPLINE
  5
17E5
330
1F
100
AcDbEntity
  8
CUT
100
AcDbSpline
210
0.0
220
0.0
230
1.0
 70
     8
 71
     3
 72
    36
 73
    32
 74
    30
 42
0.0000000001
 43
0.0000000001
 44
0.0000000001
 12
-0.9999967061702481
 22
0.0025666415126359
 32
0.0
 13
0.0053065816905106
 23
0.9999859199962578
 33
0.0
 40
0.0
 40
0.0
 40
0.0
 40
0.0
 40
0.0418066825518259
 40
0.0829993361930802
 40
0.1236853122781279
 40
0.1639796312077325
 40
0.2040050717799723
 40
0.2441167511888919
 40
0.2843331620928722
 40
0.3244641382584619
 40
0.3643139210056371
 40
0.4037411662175323
 40
0.4432716030099601
 40
0.4829461223517332
 40
0.5225879636434993
 40
0.5620148888849626
 40
0.6011683668019538
 40
0.6405946393877011
 40
0.6802335463479329
 40
0.7199069566501003
 40
0.7594333450633296
 40
0.7988577478869545
 40
0.838701568298687
 40
0.8788257428571338
 40
0.9190344616380283
 40
0.9591369578446544
 40
0.9991520866461184
 40
1.039433711563708
 40
1.080106370906275
 40
1.121282479027407
 40
1.16307150536203
 40
1.16307150536203
 40
1.16307150536203
 40
1.16307150536203
 10
61.4338449999999
 20
10.80654800000002
 30
0.0
 10
61.41990948505065
 20
10.80658376758899
 30
0.0
 10
61.39223956552545
 20
10.80733179631143
 30
0.0
 10
61.35111835020956
 20
10.81053555342319
 30
0.0
 10
61.31071867887458
 20
10.81581845054863
 30
0.0
 10
61.27104140697277
 20
10.82317966262461
 30
0.0
 10
61.2320037785192
 20
10.83262674394697
 30
0.0
 10
61.19358902587684
 20
10.84426526054327
 30
0.0
 10
61.15584149660169
 20
10.85801207933666
 30
0.0
 10
61.11897184725785
 20
10.87374231450465
 30
0.0
 10
61.08323619169322
 20
10.89131365476496
 30
0.0
 10
61.04869011535885
 20
10.91071930905502
 30
0.0
 10
61.01535722442392
 20
10.9320338606214
 30
0.0
 10
60.98318864281316
 20
10.95518826994459
 30
0.0
 10
60.95235367162009
 20
10.98003594191504
 30
0.0
 10
60.92304673364392
 20
11.00641088949591
 30
0.0
 10
60.89532067776596
 20
11.03434304906596
 30
0.0
 10
60.8691641570966
 20
11.06384348607201
 30
0.0
 10
60.84454620985029
 20
11.09486020088027
 30
0.0
 10
60.8216329437397
 20
11.12719765366276
 30
0.0
 10
60.80056606916198
 20
11.16068449504003
 30
0.0
 10
60.7814202105373
 20
11.19537033591013
 30
0.0
 10
60.7641154826282
 20
11.23123008345542
 30
0.0
 10
60.74866379076926
 20
11.26820996461749
 30
0.0
 10
60.73520005471392
 20
11.30605097778831
 30
0.0
 10
60.72385140197332
 20
11.34454299386606
 30
0.0
 10
60.71470217926622
 20
11.38364048718845
 30
0.0
 10
60.70764236166057
 20
11.42336022490713
 30
0.0
 10
60.70267069009176
 20
11.46378513968262
 30
0.0
 10
60.69978369189932
 20
11.50491393534774
 30
0.0
 10
60.69925108103926
 20
11.53257752068501
 30
0.0
 10
60.69932499999993
 20
11.54650700000001
 30
0.0
 11
61.4338449999999
 21
10.80654800000002
 31
0.0
 11
61.39205400000003
 21
10.80769300000008
 31
0.0
 11
61.35098699999993
 21
10.81090800000003
 31
0.0
 11
61.31064600000001
 21
10.81619500000005
 31
0.0
 11
61.271029
 21
10.82355200000006
 31
0.0
 11
61.23213099999998
 21
10.83298500000005
 31
0.0
 11
61.19373899999993
 21
10.84460400000005
 31
0.0
 11
61.15594799999996
 21
10.85835900000006
 31
0.0
 11
61.11903599999993
 21
10.87410700000009
 31
0.0
 11
61.08327999999993
 21
10.8917
 31
0.0
 11
61.04891299999997
 21
10.91102400000005
 31
0.0
 11
61.01560099999995
 21
10.93230700000002
 31
0.0
 11
60.98339799999997
 21
10.95548100000007
 31
0.0
 11
60.95253199999991
 21
10.98035600000001
 31
0.0
 11
60.92323499999999
 21
11.00674100000002
 31
0.0
 11
60.89565200000004
 21
11.03452900000001
 31
0.0
 11
60.86948499999993
 21
11.06402000000001
 31
0.0
 11
60.84484099999997
 21
11.09506700000008
 31
0.0
 11
60.8219069999999
 21
11.12744000000009
 31
0.0
 11
60.80087300000002
 21
11.16090500000006
 31
0.0
 11
60.78180599999996
 21
11.19541200000002
 31
0.0
 11
60.76448099999993
 21
11.23129200000005
 31
0.0
 11
60.74901099999999
 21
11.26831400000002
 31
0.0
 11
60.73554000000001
 21
11.30619900000005
 31
0.0
 11
60.72421099999997
 21
11.34466800000007
 31
0.0
 11
60.71507399999996
 21
11.38362600000003
 31
0.0
 11
60.70801900000002
 21
11.42328500000006
 31
0.0
 11
60.70304199999998
 21
11.46365200000001
 31
0.0
 11
60.70014400000001
 21
11.50472600000006
 31
0.0
 11
60.69932499999993
 21
11.54650700000001
 31
0.0
  0
ELLIPSE
  5
17E6
330
1F
100
AcDbEntity
  8
1
100
AcDbEllipse
 10
54.94738307190004
 20
-11.40622343339993
 30
0.0
 11
-0.4984640432
 21
0.6092197305
 31
0.0
210
0.0
220
0.0
230
-0.9999999999999998
 40
0.9654725041999999
 41
-0.8577855103
 42
0.6765946956000001
  0
SPLINE
  5
17E7
330
1F
100
AcDbEntity
  8
1
100
AcDbSpline
210
0.0
220
0.0
230
1.0
 70
     8
 71
     3
 72
     9
 73
     5
 74
     3
 42
0.0000000001
 43
0.0000000001
 44
0.0000000001
 12
0.0
 22
1.0
 32
0.0
 13
-0.5950964224219824
 23
0.8036543087799364
 33
0.0
 40
0.0
 40
0.0
 40
0.0
 40
0.0
 40
0.0169244273939625
 40
0.0729315447094254
 40
0.0729315447094254
 40
0.0729315447094254
 40
0.0729315447094254
 10
54.95000000000004
 20
-9.373254568999923
 30
0.0
 10
54.95000000000004
 20
-9.367613093201935
 30
0.0
 10
54.94770936262935
 20
-9.343267794792057
 30
0.0
 10
54.93602406858149
 20
-9.320575796417553
 30
0.0
 10
54.92491419019995
 20
-9.305572342699916
 30
0.0
 11
54.95000000000004
 21
-9.373254568999923
 31
0.0
 11
54.94843095800002
 21
-9.356403030499961
 31
0.0
 11
54.92491419019995
 21
-9.305572342699916
 31
0.0
  0
SPLINE
  5
17E8
330
1F
100
AcDbEntity
  8
1
100
AcDbSpline
210
0.0
220
0.0
230
1.0
 70
     8
 71
     3
 72
     8
 73
     4
 74
     2
 42
0.0000000001
 43
0.0000000001
 44
0.0000000001
 12
-0.4441008301781545
 22
0.8959768147865625
 32
0.0
 13
-0.6035095335021237
 23
0.7973557819267688
 33
0.0
 40
0.0
 40
0.0
 40
0.0
 40
0.0
 40
0.0602738639574964
 40
0.0602738639574964
 40
0.0602738639574964
 40
0.0602738639574964
 10
54.92491419019995
 20
-9.305572342699916
 30
0.0
 10
54.9159916325261
 20
-9.28757101448541
 30
0.0
 10
54.90508853443981
 20
-9.27048377314181
 30
0.0
 10
54.89296325060003
 20
-9.254463868499952
 30
0.0
 11
54.92491419019995
 21
-9.305572342699916
 31
0.0
 11
54.89296325060003
 21
-9.254463868499952
 31
0.0
  0
LINE
  5
17E9
330
1F
100
AcDbEntity
  8
1
100
AcDbLine
 10
54.95000000000004
 20
-10.63006188729997
 30
0.0
 11
54.9270129345
 21
-10.62987637359992
 31
0.0
  0
SPLINE
  5
17EA
330
1F
100
AcDbEntity
  8
CUT
100
AcDbSpline
210
0.0
220
0.0
230
1.0
 70
     8
 71
     3
 72
    36
 73
    32
 74
    30
 42
0.0000000001
 43
0.0000000001
 44
0.0000000001
 12
-0.999648686784667
 22
0.0265047733378554
 32
0.0
 13
-0.0167170265345364
 23
0.9998602607483926
 33
0.0
 40
0.0
 40
0.0
 40
0.0
 40
0.0
 40
0.0418737512172295
 40
0.0832194373405069
 40
0.1241389293338611
 40
0.1647376108888765
 40
0.2051295848069025
 40
0.245663728254102
 40
0.2863461776518626
 40
0.3269711052209875
 40
0.3673282197115438
 40
0.4072630090812547
 40
0.4472921393740524
 40
0.48744887570805
 40
0.5275380749019015
 40
0.5673654930456685
 40
0.6068619467851696
 40
0.6465659410049272
 40
0.6864099854783684
 40
0.7262039133065703
 40
0.7657601926690477
 40
0.8051141073409509
 40
0.8447857975620644
 40
0.8846308427370011
 40
0.924452535845195
 40
0.964059701320671
 40
1.00346904115271
 40
1.043036368494855
 40
1.082885112377214
 40
1.123129592147756
 40
1.163883988327768
 40
1.163883988327768
 40
1.163883988327768
 40
1.163883988327768
 10
54.92701299999999
 20
10.97111500000005
 30
0.0
 10
54.9130599865283
 20
10.97148495142832
 30
0.0
 10
54.88534253140296
 20
10.97288315651615
 30
0.0
 10
54.84415147887781
 20
10.97699548193877
 30
0.0
 10
54.80363739061631
 20
10.98310778421065
 30
0.0
 10
54.76380218265785
 20
10.99122773160173
 30
0.0
 10
54.72456081460761
 20
11.001355275799
 30
0.0
 10
54.68589727405744
 20
11.01359842734875
 30
0.0
 10
54.64785575036928
 20
11.02787365574482
 30
0.0
 10
54.61064775259746
 20
11.04405035918401
 30
0.0
 10
54.57453555478263
 20
11.06199087257093
 30
0.0
 10
54.53957155182115
 20
11.08167862539216
 30
0.0
 10
54.50578022470345
 20
11.10319354486607
 30
0.0
 10
54.47311240481496
 20
11.12646543150572
 30
0.0
 10
54.44174184951018
 20
11.15135043832593
 30
0.0
 10
54.41186524766769
 20
11.17767991760237
 30
0.0
 10
54.38353476471354
 20
11.20548461935003
 30
0.0
 10
54.3567405486489
 20
11.23477918064147
 30
0.0
 10
54.33145074254801
 20
11.26550966343154
 30
0.0
 10
54.30783580861891
 20
11.2974842554495
 30
0.0
 10
54.28604457033808
 20
11.33053480058973
 30
0.0
 10
54.26614507777468
 20
11.36471061859766
 30
0.0
 10
54.24806284777351
 20
11.39998845612237
 30
0.0
 10
54.23180742211432
 20
11.43631551253115
 30
0.0
 10
54.21752246526516
 20
11.47343917393965
 30
0.0
 10
54.20533868629814
 20
11.51115374791614
 30
0.0
 10
54.19534081266822
 20
11.54941757322824
 30
0.0
 10
54.18741848408039
 20
11.58824518962008
 30
0.0
 10
54.18156953428879
 20
11.6277206187174
 30
0.0
 10
54.17779061313457
 20
11.66784325345499
 30
0.0
 10
54.17665709744076
 20
11.69483309960298
 30
0.0
 10
54.17642999999998
 20
11.70841600000005
 30
0.0
 11
54.92701299999999
 21
10.97111500000005
 31
0.0
 11
54.88519299999996
 21
10.97323600000003
 31
0.0
 11
54.8440529999999
 21
10.97735500000003
 31
0.0
 11
54.80359299999998
 21
10.98347000000005
 31
0.0
 11
54.76381299999991
 21
10.99158200000005
 31
0.0
 11
54.72470699999997
 21
11.00169300000003
 31
0.0
 11
54.68606
 21
11.01391700000003
 31
0.0
 11
54.64796799999999
 21
11.02820200000006
 31
0.0
 11
54.61071200000002
 21
11.04440000000004
 31
0.0
 11
54.57457299999997
 21
11.06236300000005
 31
0.0
 11
54.53978399999993
 21
11.08197200000005
 31
0.0
 11
54.50600999999995
 21
11.10345800000003
 31
0.0
 11
54.47330199999999
 21
11.12675500000005
 31
0.0
 11
54.44189599999994
 21
11.15167100000006
 31
0.0
 11
54.41202599999996
 21
11.17801500000006
 31
0.0
 11
54.38383899999998
 21
11.20568200000001
 31
0.0
 11
54.357033
 21
11.23497100000008
 31
0.0
 11
54.33171499999993
 21
11.26573700000004
 31
0.0
 11
54.30807900000002
 21
11.29775100000006
 31
0.0
 11
54.28631999999993
 21
11.33078500000003
 31
0.0
 11
54.26650599999994
 21
11.36478700000009
 31
0.0
 11
54.24840399999993
 21
11.40008800000009
 31
0.0
 11
54.23213199999998
 21
11.436459
 31
0.0
 11
54.21784100000002
 21
11.47362800000006
 31
0.0
 11
54.20567999999992
 21
11.51132200000006
 31
0.0
 11
54.19570099999997
 21
11.54944700000003
 31
0.0
 11
54.18778799999995
 21
11.58821500000003
 31
0.0
 11
54.18193799999993
 21
11.62763200000005
 31
0.0
 11
54.17815199999996
 21
11.66769800000008
 31
0.0
 11
54.17642999999998
 21
11.70841600000005
 31
0.0
  0
DIMENSION
  5
17EB
330
1F
100
AcDbEntity
  8
2
100
AcDbDimension
  2
*D1
 10
75.0
 20
33.1094577557444
 30
0.0
 11
63.97475234753949
 21
33.1094577557444
 31
0.0
 70
   160
  1
21
 71
     5
 42
20.949971
  3
ISO-25
100
AcDbAlignedDimension
 13
54.05002899999999
 23
24.23512300000004
 33
0.0
 14
75.0
 24
22.49703428160006
 34
0.0
100
AcDbRotatedDimension
1001
ACAD
1000
DSTYLE
1002
{
1070
   140
1040
3.5
1002
}
  0
LINE
  5
17EC
330
1F
100
AcDbEntity
  8
1
100
AcDbLine
 10
73.60000000000002
 20
23.67500000000005
 30
0.0
 11
55.35471842908793
 21
23.67500000000005
 31
0.0
  0
ARC
  5
17ED
330
1F
100
AcDbEntity
  8
CUT
100
AcDbCircle
 10
61.1085314999999
 20
1933.667402504432
 30
0.0
 40
1908.702874797566
100
AcDbArc
 50
269.8102014628998
 51
270.1897985371
  0
ARC
  5
17EF
330
1F
100
AcDbEntity
  8
CUT
100
AcDbCircle
 10
70.9964481303
 20
1928.018149252332
 30
0.0
 40
1903.066597027866
100
AcDbArc
 50
269.7170327819998
 51
270.0977480097999
  0
SPLINE
  5
17F1
330
1F
100
AcDbEntity
  8
CUT
100
AcDbSpline
210
0.0
220
0.0
230
1.0
 70
     8
 71
     3
 72
    36
 73
    32
 74
    30
 42
0.0000000001
 43
0.0000000001
 44
0.0000000001
 12
0.0052939970960955
 22
0.9999859866991871
 32
0.0
 13
-0.9999892406376215
 23
0.0046388154730668
 33
0.0
 40
0.0
 40
0.0
 40
0.0
 40
0.0
 40
0.0417650309469789
 40
0.0829201911702311
 40
0.1235761007529765
 40
0.1638439421403542
 40
0.2038495635953875
 40
0.2439485052895965
 40
0.2841569519768821
 40
0.3242865110698861
 40
0.3641402063690299
 40
0.4035773470488633
 40
0.4431217337681395
 40
0.4828167019630245
 40
0.5224825418004088
 40
0.5619364130046113
 40
0.6011204142806741
 40
0.640578807975742
 40
0.6802532995919424
 40
0.71996172480624
 40
0.7595238926563751
 40
0.7989840189866097
 40
0.8388625082383301
 40
0.8790211365640477
 40
0.9192621625076968
 40
0.9593954666327688
 40
0.999439340496467
 40
1.039747484512179
 40
1.080443602066571
 40
1.121641143607304
 40
1.163449329277105
 40
1.163449329277105
 40
1.163449329277105
 40
1.163449329277105
 10
74.97764499999994
 20
24.21325000000001
 30
0.0
 10
74.97771870131746
 20
24.22717148189368
 30
0.0
 10
74.97718624648891
 20
24.2548200747176
 30
0.0
 10
74.97429947402466
 20
24.29592831515908
 30
0.0
 10
74.96932600048686
 20
24.33633570167743
 30
0.0
 10
74.96226684008693
 20
24.3760420016501
 30
0.0
 10
74.95311556764782
 20
24.41512981517888
 30
0.0
 10
74.94176685800866
 20
24.45361716476195
 30
0.0
 10
74.9283000146591
 20
24.49145761840943
 30
0.0
 10
74.91284668225652
 20
24.52844216882384
 30
0.0
 10
74.89553985763746
 20
24.56431121776228
 30
0.0
 10
74.87639283678712
 20
24.59901181173929
 30
0.0
 10
74.85532406480759
 20
24.63251799914843
 30
0.0
 10
74.83240834795738
 20
24.66488079081261
 30
0.0
 10
74.80778821941591
 20
24.69592804482932
 30
0.0
 10
74.78163026125255
 20
24.72546495989422
 30
0.0
 10
74.75390380682378
 20
24.75343864616001
 30
0.0
 10
74.72459700561393
 20
24.77986076130767
 30
0.0
 10
74.69376182137982
 20
24.80476007760745
 30
0.0
 10
74.66159425750442
 20
24.82797172419391
 30
0.0
 10
74.62826276756544
 20
24.84934921793539
 30
0.0
 10
74.59371820960668
 20
24.86882079470558
 30
0.0
 10
74.55798502056407
 20
24.88646429771192
 30
0.0
 10
74.5211176289936
 20
24.90226823299608
 30
0.0
 10
74.48337362408517
 20
24.91609620154364
 30
0.0
 10
74.44496093363475
 20
24.92781576638168
 30
0.0
 10
74.40592464176889
 20
24.9373439347104
 30
0.0
 10
74.36624947686595
 20
24.94479339020549
 30
0.0
 10
74.3258510964063
 20
24.95016003937948
 30
0.0
 10
74.28473135239109
 20
24.95345158908569
 30
0.0
 10
74.25706091194673
 20
24.95425835318051
 30
0.0
 10
74.24312499999995
 20
24.95432300000004
 30
0.0
 11
74.97764499999994
 21
24.21325000000001
 31
0.0
 11
74.97682599999994
 21
24.25500700000003
 31
0.0
 11
74.973928
 21
24.29606000000005
 31
0.0
 11
74.96894999999994
 21
24.33641000000005
 31
0.0
 11
74.96189500000003
 21
24.37605500000005
 31
0.0
 11
74.9527569999999
 21
24.41500300000007
 31
0.0
 11
74.94142699999997
 21
24.45346800000003
 31
0.0
 11
74.92795399999987
 21
24.49135200000005
 31
0.0
 11
74.91248199999995
 21
24.52837900000007
 31
0.0
 11
74.89515500000004
 21
24.56426900000007
 31
0.0
 11
74.87608699999999
 21
24.59879000000006
 31
0.0
 11
74.85505099999989
 21
24.63227500000005
 31
0.0
 11
74.83211500000004
 21
24.66467300000005
 31
0.0
 11
74.80746799999997
 21
24.69575200000007
 31
0.0
 11
74.78129999999999
 21
24.72527900000005
 31
0.0
 11
74.75371599999994
 21
24.75310900000005
 31
0.0
 11
74.72441900000003
 21
24.77954100000005
 31
0.0
 11
74.69355299999995
 21
24.80446800000004
 31
0.0
 11
74.66134999999997
 21
24.82770000000005
 31
0.0
 11
74.62803999999993
 21
24.84904500000004
 31
0.0
 11
74.59367299999995
 21
24.86843600000003
 31
0.0
 11
74.55791999999997
 21
24.88610000000005
 31
0.0
 11
74.52100999999993
 21
24.90192300000007
 31
0.0
 11
74.48322199999996
 21
24.91575800000004
 31
0.0
 11
74.44483200000002
 21
24.92745800000006
 31
0.0
 11
74.40593499999987
 21
24.93697300000007
 31
0.0
 11
74.36631999999997
 21
24.94441600000004
 31
0.0
 11
74.32597999999996
 21
24.94978800000001
 31
0.0
 11
74.28491499999996
 21
24.95309000000003
 31
0.0
 11
74.24312499999995
 21
24.95432300000004
 31
0.0
  0
ARC
  5
17F2
330
1F
100
AcDbEntity
  8
1
100
AcDbCircle
 10
73.60000000000002
 20
23.17500000000005
 30
0.0
 40
0.5
100
AcDbArc
 50
0.000000000000007
 51
90.0
  0
LINE
  5
17F3
330
1F
100
AcDbEntity
  8
1
100
AcDbLine
 10
74.10000000000002
 20
20.11388747210003
 30
0.0
 11
74.10000000000002
 21
23.17494638120007
 31
0.0
  0
SPLINE
  5
17F4
330
1F
100
AcDbEntity
  8
CUT
100
AcDbSpline
210
0.0
220
0.0
230
1.0
 70
     8
 71
     3
 72
    36
 73
    32
 74
    30
 42
0.0000000001
 43
0.0000000001
 44
0.0000000001
 12
-0.9999990004081817
 22
-0.0014139245514941
 32
0.0
 13
-0.0178865998814024
 23
-0.9998400219758572
 33
0.0
 40
0.0
 40
0.0
 40
0.0
 40
0.0
 40
0.0418355692802461
 40
0.0831028166442596
 40
0.1239126495892995
 40
0.1643784941992167
 40
0.2046213569204696
 40
0.2450014158109998
 40
0.2855321114625187
 40
0.3260195001409856
 40
0.3662634577993391
 40
0.4061164038008191
 40
0.4461057152226508
 40
0.4862711559024936
 40
0.526425878625979
 40
0.566380789025116
 40
0.6060727927789463
 40
0.6460479522908483
 40
0.6862432936254091
 40
0.7264697667246036
 40
0.7665393750705081
 40
0.8064922398614704
 40
0.8468534542262336
 40
0.8874744160070831
 40
0.9281542390155795
 40
0.968695708574479
 40
1.009113084342893
 40
1.049761291437401
 40
1.090764177933343
 40
1.132231383590354
 40
1.174272507611978
 40
1.174272507611978
 40
1.174272507611978
 40
1.174272507611978
 10
61.59779300000002
 20
24.97475900000005
 30
0.0
 10
61.58384782417943
 20
24.97473928255388
 30
0.0
 10
61.55614254396028
 20
24.97401690469769
 30
0.0
 10
61.51494320854296
 20
24.97083956278055
 30
0.0
 10
61.47441707981349
 20
24.96557213642138
 30
0.0
 10
61.43456585461455
 20
24.95821177263337
 30
0.0
 10
61.39530480641511
 20
24.94875711994966
 30
0.0
 10
61.356618089372
 20
24.93709695910382
 30
0.0
 10
61.31855092513522
 20
24.92331416333528
 30
0.0
 10
61.28131380206697
 20
24.90754187208446
 30
0.0
 10
61.24516937973241
 20
24.88991452596692
 30
0.0
 10
61.21017094458707
 20
24.87044547934595
 30
0.0
 10
61.17634351560989
 20
24.84905511159379
 30
0.0
 10
61.14363610967977
 20
24.82581689965208
 30
0.0
 10
61.11222434258707
 20
24.80087373308938
 30
0.0
 10
61.08230427404052
 20
24.77439610272522
 30
0.0
 10
61.05392936119161
 20
24.74635274194318
 30
0.0
 10
61.02708831083328
 20
24.71673091639054
 30
0.0
 10
61.00174865933493
 20
24.68558577043652
 30
0.0
 10
60.97808518551289
 20
24.65310976843715
 30
0.0
 10
60.95623925408466
 20
24.61947894882521
 30
0.0
 10
60.93628856584285
 20
24.58463865988952
 30
0.0
 10
60.91814959398437
 20
24.54861752374591
 30
0.0
 10
60.90183966608616
 20
24.5114672625264
 30
0.0
 10
60.8874953352927
 20
24.47345009177868
 30
0.0
 10
60.87525229469741
 20
24.43477451964249
 30
0.0
 10
60.86519395332881
 20
24.39548566376513
 30
0.0
 10
60.85721128776475
 20
24.35556772025356
 30
0.0
 10
60.85129866613309
 20
24.31493712945854
 30
0.0
 10
60.84745705479408
 20
24.27359424110144
 30
0.0
 10
60.84628065758802
 20
24.2457694661219
 30
0.0
 10
60.84603000000004
 20
24.231758
 30
0.0
 11
61.59779300000002
 21
24.97475900000005
 31
0.0
 11
61.55597199999998
 21
24.97365500000006
 31
0.0
 11
61.51482799999996
 21
24.97046800000004
 31
0.0
 11
61.47435999999993
 21
24.96519700000003
 31
0.0
 11
61.43456800000001
 21
24.95784300000002
 31
0.0
 11
61.39544799999999
 21
24.94840300000003
 31
0.0
 11
61.35678199999995
 21
24.93676300000004
 31
0.0
 11
61.31866899999999
 21
24.92297400000007
 31
0.0
 11
61.28138799999999
 21
24.90718300000003
 31
0.0
 11
61.2452199999999
 21
24.88953500000002
 31
0.0
 11
61.21040099999993
 21
24.87014700000003
 31
0.0
 11
61.17659300000003
 21
24.84878900000007
 31
0.0
 11
61.14384799999993
 21
24.82552900000007
 31
0.0
 11
61.11240199999997
 21
24.80055800000002
 31
0.0
 11
61.0824899999999
 21
24.77406900000005
 31
0.0
 11
61.054259
 21
24.74616800000005
 31
0.0
 11
61.02740599999993
 21
24.71655500000007
 31
0.0
 11
61.00203799999997
 21
24.68537600000002
 31
0.0
 11
60.97835099999997
 21
24.65286300000002
 31
0.0
 11
60.95653800000001
 21
24.61925100000007
 31
0.0
 11
60.93666899999993
 21
24.58458900000005
 31
0.0
 11
60.91850899999997
 21
24.54854400000005
 31
0.0
 11
60.90217899999993
 21
24.51135000000005
 31
0.0
 11
60.88782699999989
 21
24.47328600000003
 31
0.0
 11
60.87560399999995
 21
24.43463100000007
 31
0.0
 11
60.86556199999995
 21
24.39548100000001
 31
0.0
 11
60.85758599999997
 21
24.35562300000003
 31
0.0
 11
60.85167100000001
 21
24.31504900000003
 31
0.0
 11
60.84781999999997
 21
24.27376100000003
 31
0.0
 11
60.84603000000004
 21
24.231758
 31
0.0
  0
SPLINE
  5
17F5
330
1F
100
AcDbEntity
  8
CUT
100
AcDbSpline
210
0.0
220
0.0
230
1.0
 70
     8
 71
     3
 72
    36
 73
    32
 74
    30
 42
0.0000000001
 43
0.0000000001
 44
0.0000000001
 12
-0.0162121804845266
 22
0.9998685739655673
 32
0.0
 13
-0.9999954550020541
 23
0.0030149585792607
 33
0.0
 40
0.0
 40
0.0
 40
0.0
 40
0.0
 40
0.0420412811412956
 40
0.0835094716130232
 40
0.1245129294671778
 40
0.1651625537335925
 40
0.2055812901067166
 40
0.2461253966204358
 40
0.286807847013741
 40
0.3274315816156281
 40
0.3677953350585235
 40
0.4077496526224558
 40
0.4478220411462278
 40
0.4880504222346864
 40
0.5282473226126844
 40
0.5682241559039442
 40
0.6079165466735283
 40
0.647870559300551
 40
0.688023855516363
 40
0.7281879012538952
 40
0.7681768246827278
 40
0.8080286203511379
 40
0.8482702239474534
 40
0.8887558141740656
 40
0.9292840638895727
 40
0.9696616495776389
 40
1.009904025650703
 40
1.050368770367505
 40
1.09117700469583
 40
1.132444495981385
 40
1.174278916116055
 40
1.174278916116055
 40
1.174278916116055
 40
1.174278916116055
 10
68.18188899999995
 20
24.23079100000006
 30
0.0
 10
68.1816618063874
 20
24.24480291860753
 30
0.0
 10
68.18052996056337
 20
24.27262998165955
 30
0.0
 10
68.17675277543563
 20
24.31397935394923
 30
0.0
 10
68.17090578163575
 20
24.35462042032043
 30
0.0
 10
68.16298634167963
 20
24.39455214496265
 30
0.0
 10
68.15298837895603
 20
24.43385824725907
 30
0.0
 10
68.14080726265413
 20
24.4725556625975
 30
0.0
 10
68.12652165220476
 20
24.51059785925867
 30
0.0
 10
68.11026818622398
 20
24.54777569725415
 30
0.0
 10
68.09218627929401
 20
24.58382807734783
 30
0.0
 10
68.07228721188309
 20
24.61870044913603
 30
0.0
 10
68.05049509173733
 20
24.65236860495161
 30
0.0
 10
68.02687925907972
 20
24.68488187328315
 30
0.0
 10
68.00158826445616
 20
24.71606872076941
 30
0.0
 10
67.97479187510892
 20
24.74573258557469
 30
0.0
 10
67.94646182344807
 20
24.77382178545413
 30
0.0
 10
67.91658327815118
 20
24.80034536388484
 30
0.0
 10
67.88521112406915
 20
24.82533628050341
 30
0.0
 10
67.85254176773097
 20
24.84862612234745
 30
0.0
 10
67.81874854827176
 20
24.87006864374215
 30
0.0
 10
67.78378275637013
 20
24.88959360385109
 30
0.0
 10
67.74766739539836
 20
24.90727638216816
 30
0.0
 10
67.71045800197521
 20
24.9231083495774
 30
0.0
 10
67.67241433229902
 20
24.93694941684279
 30
0.0
 10
67.6337480213365
 20
24.94867062799155
 30
0.0
 10
67.59450401683821
 20
24.95818999227832
 30
0.0
 10
67.55466571911137
 20
24.96561451647898
 30
0.0
 10
67.51414871787574
 20
24.97094529901256
 30
0.0
 10
67.47295552845163
 20
24.97419016183722
 30
0.0
 10
67.44525174333237
 20
24.97495795698538
 30
0.0
 10
67.43130699999993
 20
24.97500000000002
 30
0.0
 11
68.18188899999995
 21
24.23079100000006
 31
0.0
 11
68.18016699999998
 21
24.27279700000007
 31
0.0
 11
68.17638099999999
 21
24.31409200000007
 31
0.0
 11
68.17053099999998
 21
24.35467600000003
 31
0.0
 11
68.16261799999995
 21
24.39454800000004
 31
0.0
 11
68.15263700000001
 21
24.43371500000005
 31
0.0
 11
68.14047500000004
 21
24.47239200000001
 31
0.0
 11
68.12618199999997
 21
24.51048100000003
 31
0.0
 11
68.10990899999989
 21
24.54770300000006
 31
0.0
 11
68.09180499999991
 21
24.58377900000005
 31
0.0
 11
68.07198899999992
 21
24.61847300000005
 31
0.0
 11
68.05022799999995
 21
24.65212200000007
 31
0.0
 11
68.02658999999993
 21
24.68467300000003
 31
0.0
 11
68.00126999999998
 21
24.71589300000005
 31
0.0
 11
67.97446200000002
 21
24.74554900000004
 31
0.0
 11
67.9462749999999
 21
24.77349500000002
 31
0.0
 11
67.91640499999992
 21
24.80003000000005
 31
0.0
 11
67.88499899999999
 21
24.82504900000003
 31
0.0
 11
67.85229199999992
 21
24.84836000000007
 31
0.0
 11
67.81851799999992
 21
24.86977100000001
 31
0.0
 11
67.78373099999999
 21
24.88921400000004
 31
0.0
 11
67.74759299999994
 21
24.90691800000002
 31
0.0
 11
67.71033899999998
 21
24.92276800000002
 31
0.0
 11
67.67224999999996
 21
24.93661600000007
 31
0.0
 11
67.63360499999999
 21
24.94831700000003
 31
0.0
 11
67.59450099999992
 21
24.95782100000007
 31
0.0
 11
67.55472199999997
 21
24.96523900000005
 31
0.0
 11
67.51426400000003
 21
24.97057400000005
 31
0.0
 11
67.47312499999998
 21
24.97382800000002
 31
0.0
 11
67.43130699999993
 21
24.97500000000002
 31
0.0
  0
SPLINE
  5
17F7
330
1F
100
AcDbEntity
  8
CUT
100
AcDbSpline
210
0.0
220
0.0
230
1.0
 70
     8
 71
     3
 72
    36
 73
    32
 74
    30
 42
0.0000000001
 43
0.0000000001
 44
0.0000000001
 12
-0.999995576778539
 22
-0.0029742937576957
 32
0.0
 13
0.0036573930797427
 23
-0.9999933117155636
 33
0.0
 40
0.0
 40
0.0
 40
0.0
 40
0.0
 40
0.04181023392673
 40
0.0830105919104818
 40
0.1237092167644949
 40
0.1640193554643215
 40
0.2040650619133067
 40
0.2442019694175106
 40
0.284446835189447
 40
0.3246083972730966
 40
0.3644912645973244
 40
0.4039522845663768
 40
0.4435181391002589
 40
0.4832275944226537
 40
0.5229037237198076
 40
0.562362611501844
 40
0.6015470910441647
 40
0.6410007531048329
 40
0.6806643443315326
 40
0.7203572378516744
 40
0.7598996991306539
 40
0.7993354728646813
 40
0.8391856494013229
 40
0.879311786780828
 40
0.9195174409106016
 40
0.9596125669236069
 40
0.9996148781068246
 40
1.039881186417845
 40
1.08053406682012
 40
1.12168794276156
 40
1.163450363404977
 40
1.163450363404977
 40
1.163450363404977
 40
1.163450363404977
 10
54.78575599999999
 20
24.97500000000002
 30
0.0
 10
54.77181931700306
 20
24.97495854802743
 30
0.0
 10
54.74414594760951
 20
24.97419657886453
 30
0.0
 10
54.70301858998778
 20
24.97096982363356
 30
0.0
 10
54.66260935589909
 20
24.96566697373572
 30
0.0
 10
54.62291996877953
 20
24.95828217976392
 30
0.0
 10
54.58386599311409
 20
24.94881603434629
 30
0.0
 10
54.54543197826495
 20
24.93715602413414
 30
0.0
 10
54.50766210377191
 20
24.92338881766436
 30
0.0
 10
54.47076604848819
 20
24.90764232646303
 30
0.0
 10
54.43500258759415
 20
24.89005413833006
 30
0.0
 10
54.40042369546184
 20
24.87063746233988
 30
0.0
 10
54.36705713737147
 20
24.84931129004265
 30
0.0
 10
54.33484999193275
 20
24.82615091158422
 30
0.0
 10
54.30397633179746
 20
24.8012976377335
 30
0.0
 10
54.27462553694666
 20
24.77492318148281
 30
0.0
 10
54.24685419079903
 20
24.74699364627031
 30
0.0
 10
54.22064946773831
 20
24.71749910597608
 30
0.0
 10
54.19598090691799
 20
24.68649224081533
 30
0.0
 10
54.17301526964014
 20
24.65416739405446
 30
0.0
 10
54.15189473954733
 20
24.62069595855553
 30
0.0
 10
54.1326923740603
 20
24.58602856316081
 30
0.0
 10
54.11532955082326
 20
24.55018966201893
 30
0.0
 10
54.09981777898355
 20
24.51323308333403
 30
0.0
 10
54.08629294924542
 20
24.475416878598
 30
0.0
 10
54.07488243080055
 20
24.43695127829883
 30
0.0
 10
54.06566927764572
 20
24.39788097058059
 30
0.0
 10
54.05854560675325
 20
24.35818885504033
 30
0.0
 10
54.05350848470143
 20
24.31779129928271
 30
0.0
 10
54.05055562497696
 20
24.27669009727297
 30
0.0
 10
54.04997808613724
 20
24.24904371377486
 30
0.0
 10
54.05002899999999
 20
24.23512300000004
 30
0.0
 11
54.78575599999999
 21
24.97500000000002
 31
0.0
 11
54.7439619999999
 21
24.97383500000005
 31
0.0
 11
54.70288900000003
 21
24.97059800000005
 31
0.0
 11
54.66253799999993
 21
24.96529000000004
 31
0.0
 11
54.62290899999993
 21
24.95791100000007
 31
0.0
 11
54.58399499999996
 21
24.94845800000007
 31
0.0
 11
54.54558299999996
 21
24.936818
 31
0.0
 11
54.50776899999993
 21
24.92304300000006
 31
0.0
 11
54.47083099999996
 21
24.90727800000001
 31
0.0
 11
54.43504599999993
 21
24.88966900000002
 31
0.0
 11
54.40064699999993
 21
24.87033300000007
 31
0.0
 11
54.3673
 21
24.84903900000006
 31
0.0
 11
54.335059
 21
24.82585800000004
 31
0.0
 11
54.30415299999992
 21
24.80097800000004
 31
0.0
 11
54.274813
 21
24.77459300000004
 31
0.0
 11
54.24718399999996
 21
24.74680700000003
 31
0.0
 11
54.22096899999996
 21
24.71732200000007
 31
0.0
 11
54.19627400000002
 21
24.68628400000005
 31
0.0
 11
54.17328799999996
 21
24.65392400000007
 31
0.0
 11
54.15219999999999
 21
24.62047400000006
 31
0.0
 11
54.13307699999997
 21
24.58598500000005
 31
0.0
 11
54.11569399999996
 21
24.55012600000003
 31
0.0
 11
54.10016399999995
 21
24.51312700000005
 31
0.0
 11
54.08663199999989
 21
24.47526700000003
 31
0.0
 11
54.07524099999989
 21
24.43682400000005
 31
0.0
 11
54.06604099999992
 21
24.39789400000005
 31
0.0
 11
54.05892199999993
 21
24.35826200000008
 31
0.0
 11
54.05387999999994
 21
24.31792300000005
 31
0.0
 11
54.05091600000003
 21
24.276876
 31
0.0
 11
54.05002899999999
 21
24.23512300000004
 31
0.0
  0
SPLINE
  5
17F8
330
1F
100
AcDbEntity
  8
1
100
AcDbSpline
210
0.0
220
0.0
230
1.0
 70
     8
 71
     3
 72
    11
 73
     7
 74
     0
 42
0.0000000001
 43
0.0000000001
 40
0.0
 40
0.0
 40
0.0
 40
0.0
 40
0.1955806700738157
 40
0.3907493881757891
 40
0.5854262098598089
 40
0.6844986504743527
 40
0.6844986504743527
 40
0.6844986504743527
 40
0.6844986504743527
 10
54.95000000000004
 20
23.18613327528305
 30
0.0
 10
54.95000000000004
 20
23.25132683197432
 30
0.0
 10
54.97566713347556
 20
23.38304212265899
 30
0.0
 10
55.0869214069038
 20
23.5494743491281
 30
0.0
 10
55.22644610232067
 20
23.64170413519588
 30
0.0
 10
55.32197206416356
 20
23.66906177778792
 30
0.0
 10
55.35471842908793
 20
23.67500000000005
 30
0.0
  0
ARC
  5
17F9
330
1F
100
AcDbEntity
  8
1
100
AcDbCircle
 10
15.78407605659992
 20
-18.49999999999994
 30
0.0
 40
5.0
100
AcDbArc
 50
90.0
 51
165.0
  0
LINE
  5
17FA
330
1F
100
AcDbEntity
  8
1
100
AcDbLine
 10
0.0
 20
24.00000000000005
 30
0.0
 11
0.0
 21
-23.99999999999994
 31
0.0
  0
LINE
  5
17FB
330
1F
100
AcDbEntity
  8
1
100
AcDbLine
 10
0.5
 20
24.50000000000005
 30
0.0
 11
0.5
 21
-24.49999999999994
 31
0.0
  0
LINE
  5
17FC
330
1F
100
AcDbEntity
  8
1
100
AcDbLine
 10
9.099299419200063
 20
-24.12940952259992
 30
0.0
 11
9.099299419200063
 21
24.12940952250005
 31
0.0
  0
LINE
  5
17FD
330
1F
100
AcDbEntity
  8
1
100
AcDbLine
 10
10.95444692520003
 20
-17.20590477449991
 30
0.0
 11
10.95444692520003
 21
17.20590477450001
 31
0.0
  0
LINE
  5
17FE
330
1F
100
AcDbEntity
  8
1
100
AcDbLine
 10
8.616336506000036
 20
-24.49999999999994
 30
0.0
 11
0.5
 21
-24.49999999999994
 31
0.0
  0
ARC
  5
17FF
330
1F
100
AcDbEntity
  8
1
100
AcDbCircle
 10
8.616336506000036
 20
-23.99999999999994
 30
0.0
 40
0.5
100
AcDbArc
 50
270.0
 51
345.0000000000998
  0
LINE
  5
1800
330
1F
100
AcDbEntity
  8
1
100
AcDbLine
 10
10.95444692520003
 20
-17.20590477449991
 30
0.0
 11
9.099299419200063
 21
-24.12940952259992
 31
0.0
  0
LINE
  5
1801
330
1F
100
AcDbEntity
  8
1
100
AcDbLine
 10
0.5
 20
-24.49999999999994
 30
0.0
 11
0.0
 21
-23.99999999999994
 31
0.0
  0
LINE
  5
1802
330
1F
100
AcDbEntity
  8
SK4
100
AcDbLine
 10
-36.26475373539995
 20
0.0000000000000568
 30
0.0
 11
0.0
 21
0.0
 31
0.0
  0
LINE
  5
1803
330
1F
100
AcDbEntity
  8
3
100
AcDbLine
 10
-12.90138781889992
 20
3.000000000000055
 30
0.0
 11
-33.5
 21
3.000000000000055
 31
0.0
  0
LINE
  5
1804
330
1F
100
AcDbEntity
  8
3
100
AcDbLine
 10
-12.90138781889992
 20
-2.999999999999943
 30
0.0
 11
-33.5
 21
-2.999999999999943
 31
0.0
  0
LINE
  5
1805
330
1F
100
AcDbEntity
  8
SK1
100
AcDbLine
 10
-9.940873971799987
 20
-11.99999999999993
 30
0.0
 11
-25.05912602820001
 21
-11.99999999999993
 31
0.0
  0
ARC
  5
1806
330
1F
100
AcDbEntity
  8
SK1
100
AcDbCircle
 10
-23.0
 20
17.10000000000007
 30
0.0
 40
5.5
100
AcDbArc
 50
248.0135970027999
 51
291.9864029972
  0
ARC
  5
1807
330
1F
100
AcDbEntity
  8
1
100
AcDbCircle
 10
15.78407605659992
 20
18.50000000000004
 30
0.0
 40
5.0
100
AcDbArc
 50
195.0
 51
270.0
  0
LINE
  5
1808
330
1F
100
AcDbEntity
  8
1
100
AcDbLine
 10
15.78407605659992
 20
-13.49999999999994
 30
0.0
 11
15.78407605659992
 21
13.50000000000004
 31
0.0
  0
LINE
  5
1809
330
1F
100
AcDbEntity
  8
SK1
100
AcDbLine
 10
-9.940873971799987
 20
9.950966536800081
 30
0.0
 11
-9.940873971799987
 21
-5.26449796099996
 31
0.0
  0
LINE
  5
180A
330
1F
100
AcDbEntity
  8
SK1
100
AcDbLine
 10
-2.84000000000003
 20
12.00000000000005
 30
0.0
 11
-2.84000000000003
 21
-11.99999999999993
 31
0.0
  0
LINE
  5
180B
330
1F
100
AcDbEntity
  8
SK1
100
AcDbLine
 10
-1.720384757700003
 20
11.70000000000003
 30
0.0
 11
-1.720384757700003
 21
-11.69999999999993
 31
0.0
  0
LINE
  5
180C
330
1F
100
AcDbEntity
  8
SK1
100
AcDbLine
 10
-2.84000000000003
 20
-11.99999999999993
 30
0.0
 11
-9.940873971799987
 21
-11.99999999999993
 31
0.0
  0
LINE
  5
180D
330
1F
100
AcDbEntity
  8
SK1
100
AcDbLine
 10
-1.720384757700003
 20
-11.69999999999993
 30
0.0
 11
-2.84000000000003
 21
-11.99999999999993
 31
0.0
  0
ARC
  5
180E
330
1F
100
AcDbEntity
  8
SK1
100
AcDbCircle
 10
-0.3999999999999772
 20
-12.29999999999995
 30
0.0
 40
0.6
100
AcDbArc
 50
48.03308282329997
 51
90.0
  0
LINE
  5
180F
330
1F
100
AcDbEntity
  8
SK1
100
AcDbLine
 10
-0.3999999999999772
 20
-11.69999999999993
 30
0.0
 11
-1.720384757700003
 21
-11.69999999999993
 31
0.0
  0
LINE
  5
1810
330
1F
100
AcDbEntity
  8
SK1
100
AcDbLine
 10
-9.940873971799987
 20
-6.706583704299928
 30
0.0
 11
-9.940873971799987
 21
-11.99999999999993
 31
0.0
  0
SPLINE
  5
1811
330
1F
100
AcDbEntity
  8
SK1
100
AcDbSpline
210
0.0
220
0.0
230
1.0
 70
     8
 71
     3
 72
    11
 73
     7
 74
     5
 42
0.0000000001
 43
0.0000000001
 44
0.0000000001
 12
0.4697748251527142
 22
-0.8827862785820455
 32
0.0
 13
-0.4995609814277215
 23
-0.8662787229494743
 33
0.0
 40
0.0
 40
0.0
 40
0.0
 40
0.0
 40
0.3886487429175277
 40
0.7656037538052554
 40
1.135016089635506
 40
1.503914126396836
 40
1.503914126396836
 40
1.503914126396836
 40
1.503914126396836
 10
-9.940873971799987
 20
-5.26449796099996
 30
0.0
 10
-9.880014840050019
 20
-5.378862553478544
 30
0.0
 10
-9.784346249082433
 20
-5.618386340643114
 30
0.0
 10
-9.733405070529119
 20
-5.997398692252671
 30
0.0
 10
-9.782547074518213
 20
-6.370299423519832
 30
0.0
 10
-9.879444950036237
 20
-6.600060864238537
 30
0.0
 10
-9.940873971799987
 20
-6.706583704299928
 30
0.0
 11
-9.940873971799987
 21
-5.26449796099996
 31
0.0
 11
-9.798683588300036
 21
-5.626201900999943
 31
0.0
 11
-9.75
 21
-5.999999959399929
 31
0.0
 11
-9.798683577699987
 21
-6.366190323999943
 31
0.0
 11
-9.940873971799987
 21
-6.706583704299928
 31
0.0
  0
LINE
  5
1813
330
1F
100
AcDbEntity
  8
SK1
100
AcDbLine
 10
-2.84000000000003
 20
12.00000000000005
 30
0.0
 11
-9.940873971799987
 21
12.00000000000005
 31
0.0
  0
LINE
  5
1814
330
1F
100
AcDbEntity
  8
SK1
100
AcDbLine
 10
-1.720384757700003
 20
11.70000000000003
 30
0.0
 11
-2.84000000000003
 21
12.00000000000005
 31
0.0
  0
ARC
  5
1815
330
1F
100
AcDbEntity
  8
SK1
100
AcDbCircle
 10
-0.3999999999999772
 20
12.30000000000005
 30
0.0
 40
0.6
100
AcDbArc
 50
270.0
 51
311.9669171767
  0
LINE
  5
1816
330
1F
100
AcDbEntity
  8
SK1
100
AcDbLine
 10
-0.3999999999999772
 20
11.70000000000003
 30
0.0
 11
-1.720384757700003
 21
11.70000000000003
 31
0.0
  0
LINE
  5
1817
330
1F
100
AcDbEntity
  8
SK1
100
AcDbLine
 10
-14.0591260282
 20
12.00000000000005
 30
0.0
 11
-20.94087397179998
 21
12.00000000000005
 31
0.0
  0
SPLINE
  5
1818
330
1F
100
AcDbEntity
  8
SK1
100
AcDbSpline
210
0.0
220
0.0
230
1.0
 70
     8
 71
     3
 72
    11
 73
     7
 74
     5
 42
0.0000000001
 43
0.0000000001
 44
0.0000000001
 12
0.7368832835873379
 22
-0.6760199896227501
 32
0.0
 13
-0.6501360537884226
 23
-0.7598178147190399
 33
0.0
 40
0.0
 40
0.0
 40
0.0
 40
0.0
 40
0.2327145475416647
 40
0.4453893599576969
 40
0.6709113847575577
 40
0.933814782243285
 40
0.933814782243285
 40
0.933814782243285
 40
0.933814782243285
 10
-9.940873971799987
 20
10.78355512890003
 30
0.0
 10
-9.883712818489639
 20
10.73111523356198
 30
0.0
 10
-9.786339199692196
 20
10.61341571989637
 30
0.0
 10
-9.731947286202871
 20
10.38763305634428
 30
0.0
 10
-9.790652972791178
 20
10.15405657855104
 30
0.0
 10
-9.883899646010341
 20
10.01755276512001
 30
0.0
 10
-9.940873971799987
 20
9.950966536800081
 30
0.0
 11
-9.940873971799987
 21
10.78355512890003
 31
0.0
 11
-9.798683565899976
 21
10.59933257570008
 31
0.0
 11
-9.75
 21
10.39230483300008
 31
0.0
 11
-9.79868355719998
 21
10.17210016700005
 31
0.0
 11
-9.940873971799987
 21
9.950966536800081
 31
0.0
  0
ARC
  5
1819
330
1F
100
AcDbEntity
  8
SK1
100
AcDbCircle
 10
-12.0
 20
17.10000000000007
 30
0.0
 40
5.5
100
AcDbArc
 50
248.0135970027999
 51
291.9864029972
  0
LINE
  5
181A
330
1F
100
AcDbEntity
  8
SK1
100
AcDbLine
 10
-9.940873971799987
 20
12.00000000000005
 30
0.0
 11
-9.940873971799987
 21
10.78355512890003
 31
0.0
  0
LINE
  5
181B
330
1F
100
AcDbEntity
  8
1
100
AcDbLine
 10
8.616336506000036
 20
24.50000000000005
 30
0.0
 11
0.5
 21
24.50000000000005
 31
0.0
  0
ARC
  5
181C
330
1F
100
AcDbEntity
  8
1
100
AcDbCircle
 10
8.616336506000036
 20
24.00000000000005
 30
0.0
 40
0.5
100
AcDbArc
 50
14.99999999989999
 51
90.0
  0
LINE
  5
181D
330
1F
100
AcDbEntity
  8
1
100
AcDbLine
 10
10.95444692520003
 20
17.20590477450001
 30
0.0
 11
9.099299419200063
 21
24.12940952250005
 31
0.0
  0
LINE
  5
181E
330
1F
100
AcDbEntity
  8
1
100
AcDbLine
 10
0.5
 20
24.50000000000005
 30
0.0
 11
0.0
 21
24.00000000000005
 31
0.0
  0
LINE
  5
181F
330
1F
100
AcDbEntity
  8
SK1
100
AcDbLine
 10
-35.0
 20
11.00000000000004
 30
0.0
 11
-35.0
 21
-10.99999999999994
 31
0.0
  0
LINE
  5
1820
330
1F
100
AcDbEntity
  8
SK1
100
AcDbLine
 10
-32.87173279820001
 20
11.67534571660006
 30
0.0
 11
-32.87173279820001
 21
-11.6753457165999
 31
0.0
  0
LINE
  5
1821
330
1F
100
AcDbEntity
  8
SK1
100
AcDbLine
 10
-30.0
 20
12.00000000000005
 30
0.0
 11
-30.0
 21
-11.99999999999993
 31
0.0
  0
LINE
  5
1822
330
1F
100
AcDbEntity
  8
SK1
100
AcDbLine
 10
-25.05912602820001
 20
12.00000000000005
 30
0.0
 11
-25.05912602820001
 21
-11.99999999999993
 31
0.0
  0
ARC
  5
1823
330
1F
100
AcDbEntity
  8
3
100
AcDbCircle
 10
-33.5
 20
-4.999999999999943
 30
0.0
 40
2.0
100
AcDbArc
 50
90.0
 51
138.5903778906999
  0
ARC
  5
1824
330
1F
100
AcDbEntity
  8
SK1
100
AcDbCircle
 10
-34.0
 20
-10.99999999999994
 30
0.0
 40
1.0
100
AcDbArc
 50
180.0
 51
305.2319539502999
  0
LINE
  5
1825
330
1F
100
AcDbEntity
  8
SK1
100
AcDbLine
 10
-25.05912602820001
 20
-11.99999999999993
 30
0.0
 11
-30.0
 21
-11.99999999999993
 31
0.0
  0
ARC
  5
1826
330
1F
100
AcDbEntity
  8
SK1
100
AcDbCircle
 10
-32.96160169079996
 20
-12.47028192929991
 30
0.0
 40
0.8
100
AcDbArc
 50
83.55000000000002
 51
125.2319539502998
  0
LINE
  5
1827
330
1F
100
AcDbEntity
  8
SK1
100
AcDbLine
 10
-30.0
 20
-11.99999999999993
 30
0.0
 11
-32.87173279820001
 21
-11.6753457165999
 31
0.0
  0
ARC
  5
1828
330
1F
100
AcDbEntity
  8
3
100
AcDbCircle
 10
-33.5
 20
5.000000000000056
 30
0.0
 40
2.0
100
AcDbArc
 50
221.4096221093
 51
270.0
  0
ARC
  5
1829
330
1F
100
AcDbEntity
  8
SK1
100
AcDbCircle
 10
-34.0
 20
11.00000000000004
 30
0.0
 40
1.0
100
AcDbArc
 50
54.76804604970001
 51
180.0
  0
LINE
  5
182A
330
1F
100
AcDbEntity
  8
SK1
100
AcDbLine
 10
-25.05912602820001
 20
12.00000000000005
 30
0.0
 11
-30.0
 21
12.00000000000005
 31
0.0
  0
LINE
  5
182B
330
1F
100
AcDbEntity
  8
SK1
100
AcDbLine
 10
-28.23562142200001
 20
12.00000000000005
 30
0.0
 11
-27.1235806935
 21
12.00000000000005
 31
0.0
  0
ARC
  5
182C
330
1F
100
AcDbEntity
  8
SK1
100
AcDbCircle
 10
-32.96160169079996
 20
12.47028192920003
 30
0.0
 40
0.8
100
AcDbArc
 50
234.7680460496999
 51
276.4499999999999
  0
LINE
  5
182D
330
1F
100
AcDbEntity
  8
SK1
100
AcDbLine
 10
-30.0
 20
12.00000000000005
 30
0.0
 11
-32.87173279820001
 21
11.67534571660006
 31
0.0
  0
DIMENSION
  5
187F
330
1F
100
AcDbEntity
  8
SK2
100
AcDbDimension
  2
*D4
 10
-58.45384233550031
 20
-24.49999999999992
 30
0.0
 11
-60.82884233550032
 21
0.0000000000000643
 31
0.0
 70
    32
  1
%%C<>
 71
     5
 42
49.0
  3
ISO-25
100
AcDbAlignedDimension
 13
0.5
 23
24.50000000000005
 33
0.0
 14
0.5
 24
-24.49999999999994
 34
0.0
 50
90.0
100
AcDbRotatedDimension
1001
ACAD
1000
DSTYLE
1002
{
1070
   140
1040
3.5
1002
}
  0
DIMENSION
  5
189F
330
1F
100
AcDbEntity
  8
SK2
100
AcDbDimension
  2
*D5
 10
-43.36898281945206
 20
-11.99999999999993
 30
0.0
 11
-45.74432730764105
 21
0.0000000000000527
 31
0.0
 70
    32
  1
%%C<>
 71
     5
 42
24.0
  3
ISO-25
100
AcDbAlignedDimension
 13
-30.0
 23
12.00000000000005
 33
0.0
 14
-30.0
 24
-11.99999999999993
 34
0.0
 50
90.0
100
AcDbRotatedDimension
1001
ACAD
1000
DSTYLE
1002
{
1070
   140
1040
3.5
1002
}
  0
MTEXT
  5
1918
330
1F
100
AcDbEntity
  8
6
100
AcDbMText
 10
111.1612327082405
 20
35.11000864474488
 30
0.0
 40
5.0
 41
64.0
 71
     2
 72
     1
  1
SHLT140508TN-HR
 73
     1
 44
1.0
  0
MTEXT
  5
191F
330
1F
100
AcDbEntity
  8
6
100
AcDbMText
 10
97.45399860823445
 20
1.843502985847066
 30
0.0
 40
5.0
 41
64.0
 71
     2
 72
     1
  1
Z=4
 11
0.0000000000000001
 21
1.0
 31
0.0
 73
     1
 44
1.0
  0
LWPOLYLINE
  5
195A
330
1F
100
AcDbEntity
  8
NOCUT
100
AcDbPolyline
 90
       14
 70
     0
 43
0.0
 10
54.05002936829885
 20
-24.09741953001513
 10
54.1552906647546
 20
-13.5
 10
15.78407605659992
 20
-13.5
 42
0.3394542588633758
 10
10.95444692520004
 20
-17.20590477449997
 10
9.099299419144784
 20
-24.12940952255041
 42
-0.3394542588638617
 10
8.616336506000038
 20
-24.5
 10
0.5
 20
-24.5
 10
0.0
 20
-24.0
 10
0.0
 20
0.0
 10
74.10000000000002
 20
0.0
 10
74.10000000000002
 20
-23.17500000000001
 42
-0.4142135623730951
 10
73.60000000000002
 20
-23.67500000000001
 10
68.18721807784709
 20
-23.67500000000006
 10
68.18188948049615
 20
-24.2114686218845
  0
LWPOLYLINE
  5
195B
330
1F
100
AcDbEntity
  8
NOCUT
100
AcDbPolyline
 90
        2
 70
     0
 43
0.0
 10
54.78575558160002
 20
-24.85128045050004
 10
67.43130661809994
 20
-24.9533345044
  0
ELLIPSE
  5
195C
330
1F
100
AcDbEntity
  8
NOCUT
100
AcDbEllipse
 10
54.82154370720002
 20
-24.07538660770001
 30
0.0
 11
0.5154714812
 21
0.5968097784000001
 31
0.0
210
0.0
220
0.0
230
-1.0
 40
0.9619364689999999
 41
-3.8268386618
 42
-2.292458455999998
  0
ELLIPSE
  5
195D
330
1F
100
AcDbEntity
  8
NOCUT
100
AcDbEllipse
 10
67.41093648080004
 20
-24.17698744450001
 30
0.0
 11
-0.4984640432
 21
0.6092197305
 31
0.0
210
0.0
220
0.0
230
-1.0
 40
0.9654725041999999
 41
-3.999378163899998
 42
-2.464997958
  0
ENDSEC
  0
SECTION
  2
OBJECTS
  0
DICTIONARY
  5
1296
330
0
100
AcDbDictionary
281
     1
  3
ACAD_GROUP
350
1297
  3
ACAD_LAYOUT
350
12A0
  3
ACAD_MLINESTYLE
350
1298
  3
ACAD_PLOTSETTINGS
350
12A1
  3
ACAD_PLOTSTYLENAME
350
129E
  0
DICTIONARY
  5
1297
102
{ACAD_REACTORS
330
1296
102
}
330
1296
100
AcDbDictionary
281
     1
  0
DICTIONARY
  5
12A0
102
{ACAD_REACTORS
330
1296
102
}
330
1296
100
AcDbDictionary
281
     1
  3
Layout1
350
12A3
  3
Model
350
12A2
  0
DICTIONARY
  5
1298
102
{ACAD_REACTORS
330
1296
102
}
330
1296
100
AcDbDictionary
281
     1
  3
STANDARD
350
1299
  0
DICTIONARY
  5
12A1
102
{ACAD_REACTORS
330
1296
102
}
330
1296
100
AcDbDictionary
281
     1
  0
ACDBDICTIONARYWDFLT
  5
129E
102
{ACAD_REACTORS
330
1296
102
}
330
1296
100
AcDbDictionary
281
     1
  3
Normal
350
129F
100
AcDbDictionaryWithDefault
340
129F
  0
LAYOUT
  5
12A3
102
{ACAD_REACTORS
330
12A0
102
}
330
12A0
100
AcDbPlotSettings
  1

  2
\\ingdc01\ITB3
  4

  6

 40
0.0
 41
0.0
 42
0.0
 43
0.0
 44
0.0
 45
0.0
 46
0.0
 47
0.0
 48
0.0
 49
0.0
140
0.0
141
0.0
142
1.0
143
1.0
 70
   688
 72
     0
 73
     0
 74
     5
  7
monochrome.ctb
 75
    16
147
1.0
148
0.0
149
0.0
100
AcDbLayout
  1
Layout1
 70
     1
 71
     1
 10
0.0
 20
0.0
 11
12.0
 21
9.0
 12
0.0
 22
0.0
 32
0.0
 14
1.000000000000000E+20
 24
1.000000000000000E+20
 34
1.000000000000000E+20
 15
-1.000000000000000E+20
 25
-1.000000000000000E+20
 35
-1.000000000000000E+20
146
0.0
 13
0.0
 23
0.0
 33
0.0
 16
1.0
 26
0.0
 36
0.0
 17
0.0
 27
1.0
 37
0.0
 76
     0
330
1B
  0
LAYOUT
  5
12A2
102
{ACAD_REACTORS
330
12A0
102
}
330
12A0
100
AcDbPlotSettings
  1

  2
\\ingdc01\ITB3
  4

  6

 40
0.0
 41
0.0
 42
0.0
 43
0.0
 44
0.0
 45
0.0
 46
0.0
 47
0.0
 48
0.0
 49
0.0
140
0.0
141
0.0
142
1.0
143
1.0
 70
  1712
 72
     0
 73
     0
 74
     0
  7
monochrome.ctb
 75
     0
147
1.0
148
0.0
149
0.0
100
AcDbLayout
  1
Model
 70
     1
 71
     0
 10
0.0
 20
0.0
 11
12.0
 21
9.0
 12
0.0
 22
0.0
 32
0.0
 14
0.0
 24
0.0
 34
0.0
 15
0.0
 25
0.0
 35
0.0
146
0.0
 13
0.0
 23
0.0
 33
0.0
 16
1.0
 26
0.0
 36
0.0
 17
0.0
 27
1.0
 37
0.0
 76
     0
330
1F
  0
MLINESTYLE
  5
1299
102
{ACAD_REACTORS
330
1298
102
}
330
1298
100
AcDbMlineStyle
  2
STANDARD
 70
     0
  3

 62
   256
 51
90.0
 52
90.0
 71
     2
 49
0.5
 62
   256
  6
BYLAYER
 49
-0.5
 62
   256
  6
BYLAYER
  0
ACDBPLACEHOLDER
  5
129F
102
{ACAD_REACTORS
330
129E
102
}
330
129E
  0
ENDSEC
  0
EOF
