  0
SECTION
  2
HEADER
  9
$ACADVER
  1
AC1015
  9
$ACADMAINTVER
 70
    10
  9
$DWGCODEPAGE
  3
ANSI_1252
  9
$INSBASE
 10
0.0
 20
0.0
 30
0.0
  9
$EXTMIN
 10
-65.02300319915775
 20
-33.70433426264048
 30
-0.0000000000000057
  9
$EXTMAX
 10
120.4522826835502
 20
42.54994912625318
 30
0.0000000000000104
  9
$LIMMIN
 10
0.0
 20
0.0
  9
$LIMMAX
 10
594.0
 20
420.0
  9
$ORTHOMODE
 70
     0
  9
$REGENMODE
 70
     1
  9
$FILLMODE
 70
     1
  9
$QTEXTMODE
 70
     0
  9
$MIRRTEXT
 70
     1
  9
$LTSCALE
 40
32.67
  9
$ATTMODE
 70
     1
  9
$TEXTSIZE
 40
0.2
  9
$TRACEWID
 40
0.05
  9
$TEXTSTYLE
  7
STANDARD
  9
$CLAYER
  8
0
  9
$CELTYPE
  6
BYLAYER
  9
$CECOLOR
 62
   256
  9
$CELTSCALE
 40
1.0
  9
$DISPSILH
 70
     0
  9
$DIMSCALE
 40
1.0
  9
$DIMASZ
 40
2.5
  9
$DIMEXO
 40
3.712499999999999
  9
$DIMDLI
 40
22.572
  9
$DIMRND
 40
0.0
  9
$DIMDLE
 40
0.0
  9
$DIMEXE
 40
10.692
  9
$DIMTP
 40
0.01
  9
$DIMTM
 40
0.01
  9
$DIMTXT
 40
3.5
  9
$DIMCEN
 40
5.346
  9
$DIMTSZ
 40
0.0
  9
$DIMTOL
 70
     1
  9
$DIMLIM
 70
     0
  9
$DIMTIH
 70
     1
  9
$DIMTOH
 70
     1
  9
$DIMSE1
 70
     0
  9
$DIMSE2
 70
     0
  9
$DIMTAD
 70
     0
  9
$DIMZIN
 70
     0
  9
$DIMBLK
  1
_ARROW_FILLED
  9
$DIMASO
 70
     1
  9
$DIMSHO
 70
     1
  9
$DIMPOST
  1

  9
$DIMAPOST
  1

  9
$DIMALT
 70
     0
  9
$DIMALTD
 70
     2
  9
$DIMALTF
 40
25.4
  9
$DIMLFAC
 40
0.5
  9
$DIMTOFL
 70
     0
  9
$DIMTVP
 40
0.0
  9
$DIMTIX
 70
     0
  9
$DIMSOXD
 70
     0
  9
$DIMSAH
 70
     0
  9
$DIMBLK1
  1

  9
$DIMBLK2
  1

  9
$DIMSTYLE
  2
STANDARD
  9
$DIMCLRD
 70
     0
  9
$DIMCLRE
 70
     0
  9
$DIMCLRT
 70
     0
  9
$DIMTFAC
 40
1.0
  9
$DIMGAP
 40
0.09
  9
$DIMJUST
 70
     0
  9
$DIMSD1
 70
     0
  9
$DIMSD2
 70
     0
  9
$DIMTOLJ
 70
     1
  9
$DIMTZIN
 70
     0
  9
$DIMALTZ
 70
     0
  9
$DIMALTTZ
 70
     0
  9
$DIMUPT
 70
     0
  9
$DIMDEC
 70
     4
  9
$DIMTDEC
 70
     4
  9
$DIMALTU
 70
     2
  9
$DIMALTTD
 70
     2
  9
$DIMTXSTY
  7
STANDARD
  9
$DIMAUNIT
 70
     0
  9
$DIMADEC
 70
     0
  9
$DIMALTRND
 40
0.0
  9
$DIMAZIN
 70
     0
  9
$DIMDSEP
 70
    46
  9
$DIMATFIT
 70
     3
  9
$DIMFRAC
 70
     0
  9
$DIMLDRBLK
  1
_ARROW_FILLED
  9
$DIMLUNIT
 70
     2
  9
$DIMLWD
 70
    -2
  9
$DIMLWE
 70
    -2
  9
$DIMTMOVE
 70
     0
  9
$LUNITS
 70
     2
  9
$LUPREC
 70
     4
  9
$SKETCHINC
 40
0.1
  9
$FILLETRAD
 40
0.0
  9
$AUNITS
 70
     0
  9
$AUPREC
 70
     0
  9
$MENU
  1
.
  9
$ELEVATION
 40
0.0
  9
$PELEVATION
 40
0.0
  9
$THICKNESS
 40
0.0
  9
$LIMCHECK
 70
     0
  9
$CHAMFERA
 40
0.0
  9
$CHAMFERB
 40
0.0
  9
$CHAMFERC
 40
0.0
  9
$CHAMFERD
 40
0.0
  9
$SKPOLY
 70
     0
  9
$TDCREATE
 40
2455237.606080740
  9
$TDUCREATE
 40
2455237.564414074
  9
$TDUPDATE
 40
2455237.647155451
  9
$TDUUPDATE
 40
2455237.605488784
  9
$TDINDWG
 40
0.0335063542
  9
$TDUSRTIMER
 40
0.0335063542
  9
$USRTIMER
 70
     1
  9
$ANGBASE
 50
0.0
  9
$ANGDIR
 70
     0
  9
$PDMODE
 70
     3
  9
$PDSIZE
 40
0.15
  9
$PLINEWID
 40
0.0
  9
$SPLFRAME
 70
     0
  9
$SPLINETYPE
 70
     6
  9
$SPLINESEGS
 70
     8
  9
$HANDSEED
  5
1E05
  9
$SURFTAB1
 70
     6
  9
$SURFTAB2
 70
     6
  9
$SURFTYPE
 70
     6
  9
$SURFU
 70
     6
  9
$SURFV
 70
     6
  9
$UCSBASE
  2

  9
$UCSNAME
  2

  9
$UCSORG
 10
0.0
 20
0.0
 30
0.0
  9
$UCSXDIR
 10
1.0
 20
0.0
 30
0.0
  9
$UCSYDIR
 10
0.0
 20
1.0
 30
0.0
  9
$UCSORTHOREF
  2

  9
$UCSORTHOVIEW
 70
     0
  9
$UCSORGTOP
 10
0.0
 20
0.0
 30
0.0
  9
$UCSORGBOTTOM
 10
0.0
 20
0.0
 30
0.0
  9
$UCSORGLEFT
 10
0.0
 20
0.0
 30
0.0
  9
$UCSORGRIGHT
 10
0.0
 20
0.0
 30
0.0
  9
$UCSORGFRONT
 10
0.0
 20
0.0
 30
0.0
  9
$UCSORGBACK
 10
0.0
 20
0.0
 30
0.0
  9
$PUCSBASE
  2

  9
$PUCSNAME
  2

  9
$PUCSORG
 10
0.0
 20
0.0
 30
0.0
  9
$PUCSXDIR
 10
1.0
 20
0.0
 30
0.0
  9
$PUCSYDIR
 10
0.0
 20
1.0
 30
0.0
  9
$PUCSORTHOREF
  2

  9
$PUCSORTHOVIEW
 70
     0
  9
$PUCSORGTOP
 10
0.0
 20
0.0
 30
0.0
  9
$PUCSORGBOTTOM
 10
0.0
 20
0.0
 30
0.0
  9
$PUCSORGLEFT
 10
0.0
 20
0.0
 30
0.0
  9
$PUCSORGRIGHT
 10
0.0
 20
0.0
 30
0.0
  9
$PUCSORGFRONT
 10
0.0
 20
0.0
 30
0.0
  9
$PUCSORGBACK
 10
0.0
 20
0.0
 30
0.0
  9
$USERI1
 70
     0
  9
$USERI2
 70
     0
  9
$USERI3
 70
     0
  9
$USERI4
 70
     0
  9
$USERI5
 70
     0
  9
$USERR1
 40
0.0
  9
$USERR2
 40
0.0
  9
$USERR3
 40
0.0
  9
$USERR4
 40
0.0
  9
$USERR5
 40
0.0
  9
$WORLDVIEW
 70
     1
  9
$SHADEDGE
 70
     3
  9
$SHADEDIF
 70
    70
  9
$TILEMODE
 70
     1
  9
$MAXACTVP
 70
    64
  9
$PINSBASE
 10
0.0
 20
0.0
 30
0.0
  9
$PLIMCHECK
 70
     0
  9
$PEXTMIN
 10
1.000000000000000E+20
 20
1.000000000000000E+20
 30
1.000000000000000E+20
  9
$PEXTMAX
 10
-1.000000000000000E+20
 20
-1.000000000000000E+20
 30
-1.000000000000000E+20
  9
$PLIMMIN
 10
0.0
 20
0.0
  9
$PLIMMAX
 10
12.0
 20
9.0
  9
$UNITMODE
 70
     0
  9
$VISRETAIN
 70
     1
  9
$PLINEGEN
 70
     0
  9
$PSLTSCALE
 70
     1
  9
$TREEDEPTH
 70
  3020
  9
$CMLSTYLE
  2
STANDARD
  9
$CMLJUST
 70
     0
  9
$CMLSCALE
 40
1.0
  9
$PROXYGRAPHICS
 70
     1
  9
$MEASUREMENT
 70
     1
  9
$CELWEIGHT
370
    -1
  9
$ENDCAPS
280
     0
  9
$JOINSTYLE
280
     0
  9
$LWDISPLAY
290
     0
  9
$INSUNITS
 70
     0
  9
$HYPERLINKBASE
  1

  9
$STYLESHEET
  1

  9
$XEDIT
290
     1
  9
$CEPSNTYPE
380
     0
  9
$PSTYLEMODE
290
     1
  9
$FINGERPRINTGUID
  2
{633B57B8-9A6D-4AF2-AE35-29EB757FC134}
  9
$VERSIONGUID
  2
{591A67AA-A497-4DF4-9485-5CDFD32C767A}
  9
$EXTNAMES
290
     1
  9
$PSVPSCALE
 40
0.0
  9
$OLESTARTUP
290
     0
  0
ENDSEC
  0
SECTION
  2
CLASSES
  0
CLASS
  1
ACDBDICTIONARYWDFLT
  2
AcDbDictionaryWithDefault
  3
AutoCAD 2000
 90
        0
280
     0
281
     0
  0
CLASS
  1
ACDBPLACEHOLDER
  2
AcDbPlaceHolder
  3
AutoCAD 2000
 90
        0
280
     0
281
     0
  0
CLASS
  1
LAYOUT
  2
AcDbLayout
  3
AutoCAD 2000
 90
        0
280
     0
281
     0
  0
ENDSEC
  0
SECTION
  2
TABLES
  0
TABLE
  2
VPORT
  5
8
330
0
100
AcDbSymbolTable
 70
     2
  0
VPORT
  5
1E04
330
8
100
AcDbSymbolTableRecord
100
AcDbViewportTableRecord
  2
*Active
 70
     0
 10
0.0
 20
0.0
 11
1.0
 21
1.0
 12
27.71463974219626
 22
4.422807431806347
 13
0.0
 23
0.0
 14
1.0
 24
1.0
 15
0.0
 25
0.0
 16
0.0
 26
0.0
 36
1.0
 17
0.0
 27
0.0
 37
0.0
 40
77.37566990931857
 41
2.481572481572481
 42
50.0
 43
0.0
 44
0.0
 50
0.0
 51
0.0
 71
     0
 72
  1000
 73
     1
 74
     1
 75
     0
 76
     0
 77
     0
 78
     0
281
     0
 65
     1
110
0.0
120
0.0
130
0.0
111
1.0
121
0.0
131
0.0
112
0.0
122
1.0
132
0.0
 79
     0
146
0.0
  0
ENDTAB
  0
TABLE
  2
LTYPE
  5
5
330
0
100
AcDbSymbolTable
 70
     3
  0
LTYPE
  5
14
330
5
100
AcDbSymbolTableRecord
100
AcDbLinetypeTableRecord
  2
BYBLOCK
 70
     0
  3

 72
    65
 73
     0
 40
0.0
  0
LTYPE
  5
15
330
5
100
AcDbSymbolTableRecord
100
AcDbLinetypeTableRecord
  2
BYLAYER
 70
     0
  3

 72
    65
 73
     0
 40
0.0
  0
LTYPE
  5
16
330
5
100
AcDbSymbolTableRecord
100
AcDbLinetypeTableRecord
  2
CONTINUOUS
 70
     0
  3
Solid line
 72
    65
 73
     0
 40
0.0
  0
LTYPE
  5
1F5
330
5
100
AcDbSymbolTableRecord
100
AcDbLinetypeTableRecord
  2
CENTER
 70
     0
  3
____ _ ____ _ ____ _ ____ _ ____ _ ____ _ ____
 72
    65
 73
     4
 40
0.6
 49
0.375
 74
     0
 49
-0.075
 74
     0
 49
0.075
 74
     0
 49
-0.075
 74
     0
  0
LTYPE
  5
1F6
330
5
100
AcDbSymbolTableRecord
100
AcDbLinetypeTableRecord
  2
HIDDEN
 70
     0
  3
- - - - - - - - - - - - - - - - - - - -
 72
    65
 73
     2
 40
0.2
 49
0.1
 74
     0
 49
-0.1
 74
     0
  0
ENDTAB
  0
TABLE
  2
LAYER
  5
2
330
0
100
AcDbSymbolTable
 70
    12
  0
LAYER
  5
10
330
2
100
AcDbSymbolTableRecord
100
AcDbLayerTableRecord
  2
0
 70
     0
 62
     7
  6
CONTINUOUS
370
    -3
390
19B2
  0
LAYER
  5
19BA
330
2
100
AcDbSymbolTableRecord
100
AcDbLayerTableRecord
  2
Defpoints
 70
     0
 62
     7
  6
CONTINUOUS
290
     0
370
    -3
390
19B2
  0
LAYER
  5
19F3
330
2
100
AcDbSymbolTableRecord
100
AcDbLayerTableRecord
  2
2
 70
     0
 62
     7
  6
CONTINUOUS
370
    -3
390
19B2
  0
LAYER
  5
19F4
330
2
100
AcDbSymbolTableRecord
100
AcDbLayerTableRecord
  2
1
 70
     0
 62
     4
  6
CONTINUOUS
370
    -3
390
19B2
  0
LAYER
  5
19F5
330
2
100
AcDbSymbolTableRecord
100
AcDbLayerTableRecord
  2
3
 70
     0
 62
     1
  6
HIDDEN
370
    -3
390
19B2
  0
LAYER
  5
19F6
330
2
100
AcDbSymbolTableRecord
100
AcDbLayerTableRecord
  2
4
 70
     0
 62
     2
  6
CENTER
370
    -3
390
19B2
  0
LAYER
  5
19F7
330
2
100
AcDbSymbolTableRecord
100
AcDbLayerTableRecord
  2
6
 70
     0
 62
     5
  6
CONTINUOUS
370
    -3
390
19B2
  0
LAYER
  5
19F8
330
2
100
AcDbSymbolTableRecord
100
AcDbLayerTableRecord
  2
CUT
 70
     0
 62
     1
  6
CONTINUOUS
370
    -3
390
19B2
  0
LAYER
  5
19F9
330
2
100
AcDbSymbolTableRecord
100
AcDbLayerTableRecord
  2
SK1
 70
     0
 62
     4
  6
CONTINUOUS
370
    -3
390
19B2
  0
LAYER
  5
19FA
330
2
100
AcDbSymbolTableRecord
100
AcDbLayerTableRecord
  2
SK4
 70
     0
 62
     2
  6
CENTER
370
    -3
390
19B2
  0
LAYER
  5
19FB
330
2
100
AcDbSymbolTableRecord
100
AcDbLayerTableRecord
  2
SK2
 70
     0
 62
     7
  6
CONTINUOUS
370
    -3
390
19B2
  0
LAYER
  5
1E03
330
2
100
AcDbSymbolTableRecord
100
AcDbLayerTableRecord
  2
NOCUT
 70
     0
 62
     7
  6
CONTINUOUS
370
    -3
390
19B2
  0
ENDTAB
  0
TABLE
  2
STYLE
  5
3
330
0
100
AcDbSymbolTable
 70
     1
  0
STYLE
  5
11
330
3
100
AcDbSymbolTableRecord
100
AcDbTextStyleTableRecord
  2
STANDARD
 70
     0
 40
0.0
 41
0.8
 50
0.0
 71
     0
 42
0.2
  3
isocp.shx
  4

  0
ENDTAB
  0
TABLE
  2
VIEW
  5
6
330
0
100
AcDbSymbolTable
 70
     0
  0
ENDTAB
  0
TABLE
  2
UCS
  5
7
330
0
100
AcDbSymbolTable
 70
     0
  0
ENDTAB
  0
TABLE
  2
APPID
  5
9
330
0
100
AcDbSymbolTable
 70
     1
  0
APPID
  5
22D
330
9
100
AcDbSymbolTableRecord
100
AcDbRegAppTableRecord
  2
ACAD
 70
     0
  0
ENDTAB
  0
TABLE
  2
DIMSTYLE
  5
A
330
0
100
AcDbSymbolTable
 70
     2
100
AcDbDimStyleTable
 71
     2
340
19FD
340
24F
  0
DIMSTYLE
105
24F
330
A
100
AcDbSymbolTableRecord
100
AcDbDimStyleTableRecord
  2
STANDARD
 70
     0
 41
2.5
 47
0.01
 48
0.01
 71
     1
 73
     0
 74
     0
 77
     1
 78
     8
140
3.5
178
     5
271
     3
272
     3
284
     8
340
11
341
22E
342
22E
343
22E
344
22E
  0
DIMSTYLE
105
19FD
102
{ACAD_REACTORS
330
1C58
330
1C7F
330
1CF8
330
1D18
330
1D41
102
}
330
A
100
AcDbSymbolTableRecord
100
AcDbDimStyleTableRecord
  2
ISO-25
 70
     0
 41
2.5
 42
0.625
 43
3.75
 44
1.25
 73
     0
 74
     0
 77
     1
 78
     8
140
2.5
141
2.5
143
0.03937007874016
147
0.625
171
     3
172
     1
271
     2
272
     2
274
     3
278
    44
283
     0
284
     8
340
11
  0
ENDTAB
  0
TABLE
  2
BLOCK_RECORD
  5
1
330
0
100
AcDbSymbolTable
 70
     7
  0
BLOCK_RECORD
  5
1F
330
1
100
AcDbSymbolTableRecord
100
AcDbBlockTableRecord
  2
*MODEL_SPACE
340
19B5
  0
BLOCK_RECORD
  5
1B
330
1
100
AcDbSymbolTableRecord
100
AcDbBlockTableRecord
  2
*PAPER_SPACE
340
19B6
  0
BLOCK_RECORD
  5
22E
330
1
100
AcDbSymbolTableRecord
100
AcDbBlockTableRecord
  2
_ARROW_FILLED
340
0
102
{BLKREFS
331
756
331
757
331
764
331
765
331
76F
331
770
331
77C
331
77D
331
787
331
788
331
794
331
795
331
79D
331
79E
331
7A8
331
7A9
331
7AE
331
7B9
331
7BA
331
7BF
331
7C4
331
7CF
331
7D0
331
7DA
331
7DB
331
7E3
331
7E4
331
7EC
331
7ED
331
7F5
331
7F6
331
7FB
331
805
331
806
331
80E
331
80F
331
817
331
818
331
820
331
821
331
826
331
82B
331
835
331
836
331
19BF
331
19C0
331
19C9
331
19CA
331
1BFC
331
1BFD
331
1C3A
331
1C3B
331
1C45
331
1C46
331
1CFE
331
1CFF
331
1D1E
331
1D1F
331
1D47
331
1D48
102
}
  0
BLOCK_RECORD
  5
1CCB
330
1
100
AcDbSymbolTableRecord
100
AcDbBlockTableRecord
  2
*D1
340
0
  0
BLOCK_RECORD
  5
1CD7
330
1
100
AcDbSymbolTableRecord
100
AcDbBlockTableRecord
  2
*D2
340
0
  0
BLOCK_RECORD
  5
1CF9
330
1
100
AcDbSymbolTableRecord
100
AcDbBlockTableRecord
  2
*D3
340
0
  0
BLOCK_RECORD
  5
1D19
330
1
100
AcDbSymbolTableRecord
100
AcDbBlockTableRecord
  2
*D4
340
0
  0
BLOCK_RECORD
  5
1D42
330
1
100
AcDbSymbolTableRecord
100
AcDbBlockTableRecord
  2
*D5
340
0
  0
ENDTAB
  0
ENDSEC
  0
SECTION
  2
BLOCKS
  0
BLOCK
  5
20
330
1F
100
AcDbEntity
  8
0
100
AcDbBlockBegin
  2
*MODEL_SPACE
 70
     0
 10
0.0
 20
0.0
 30
0.0
  3
*MODEL_SPACE
  1

  0
ENDBLK
  5
21
330
1F
100
AcDbEntity
  8
0
100
AcDbBlockEnd
  0
BLOCK
  5
1C
330
1B
100
AcDbEntity
 67
     1
  8
0
100
AcDbBlockBegin
  2
*PAPER_SPACE
 70
     0
 10
0.0
 20
0.0
 30
0.0
  3
*PAPER_SPACE
  1

  0
ENDBLK
  5
1D
330
1B
100
AcDbEntity
 67
     1
  8
0
100
AcDbBlockEnd
  0
BLOCK
  5
748
330
22E
100
AcDbEntity
  8
0
100
AcDbBlockBegin
  2
_ARROW_FILLED
 70
     0
 10
0.0
 20
0.0
 30
0.0
  3
_ARROW_FILLED
  1

  0
SOLID
  5
749
330
22E
100
AcDbEntity
  8
0
  6
ByBlock
 62
     0
100
AcDbTrace
 10
0.0
 20
0.0
 30
0.0
 11
-1.0
 21
0.132
 31
0.0
 12
-1.0
 22
-0.132
 32
0.0
 13
-1.0
 23
-0.132
 33
0.0
  0
ENDBLK
  5
74A
330
22E
100
AcDbEntity
  8
0
  6
ByBlock
 62
     0
100
AcDbBlockEnd
  0
BLOCK
  5
1CD5
330
1CCB
100
AcDbEntity
  8
0
100
AcDbBlockBegin
  2
*D1
 70
     1
 10
0.0
 20
0.0
 30
0.0
  3
*D1
  1

  0
LINE
  5
1DE5
330
1CCB
100
AcDbEntity
  8
2
 62
     0
370
    -2
100
AcDbLine
 10
0.0
 20
24.625
 30
0.0
 11
0.000000000000001
 21
39.6610632469755
 31
0.0
  0
LINE
  5
1DE6
330
1CCB
100
AcDbEntity
  8
2
 62
     0
370
    -2
100
AcDbLine
 10
65.0
 20
19.75349905523683
 30
0.0
 11
65.0
 21
39.6610632469755
 31
0.0
  0
LINE
  5
1DE7
330
1CCB
100
AcDbEntity
  8
2
 62
     0
370
    -2
100
AcDbLine
 10
2.5
 20
38.4110632469755
 30
0.0
 11
62.5
 21
38.4110632469755
 31
0.0
  0
SOLID
  5
1DE8
330
1CCB
100
AcDbEntity
  8
2
 62
     0
100
AcDbTrace
 10
2.5
 20
38.82772991364218
 30
0.0
 11
2.5
 21
37.99439658030885
 31
0.0
 12
0.0000000000000009
 22
38.4110632469755
 32
0.0
 13
0.0000000000000009
 23
38.4110632469755
 33
0.0
  0
SOLID
  5
1DE9
330
1CCB
100
AcDbEntity
  8
2
 62
     0
100
AcDbTrace
 10
62.5
 20
38.82772991364218
 30
0.0
 11
62.5
 21
37.99439658030885
 31
0.0
 12
65.0
 22
38.4110632469755
 32
0.0
 13
65.0
 23
38.4110632469755
 33
0.0
  0
MTEXT
  5
1DEA
330
1CCB
100
AcDbEntity
  8
2
 62
     0
100
AcDbMText
 10
34.33567260708014
 20
40.78606324697552
 30
0.0
 40
3.5
 41
0.0
 71
     5
 72
     1
  1
65
 73
     1
 44
1.0
  0
POINT
  5
1DEB
330
1CCB
100
AcDbEntity
  8
Defpoints
 62
     0
100
AcDbPoint
 10
0.0
 20
24.0
 30
0.0
  0
POINT
  5
1DEC
330
1CCB
100
AcDbEntity
  8
Defpoints
 62
     0
100
AcDbPoint
 10
65.0
 20
19.12849905523683
 30
0.0
  0
POINT
  5
1DED
330
1CCB
100
AcDbEntity
  8
Defpoints
 62
     0
100
AcDbPoint
 10
65.0
 20
38.4110632469755
 30
0.0
  0
ENDBLK
  5
1CD6
330
1CCB
100
AcDbEntity
  8
0
100
AcDbBlockEnd
  0
BLOCK
  5
1CE1
330
1CD7
100
AcDbEntity
  8
0
100
AcDbBlockBegin
  2
*D2
 70
     1
 10
0.0
 20
0.0
 30
0.0
  3
*D2
  1

  0
LINE
  5
1DDC
330
1CD7
100
AcDbEntity
  8
2
 62
     0
370
    -2
100
AcDbLine
 10
48.04999999999996
 20
15.31016030124999
 30
0.0
 11
48.04999999999996
 21
27.76941650154077
 31
0.0
  0
LINE
  5
1DDD
330
1CD7
100
AcDbEntity
  8
2
 62
     0
370
    -2
100
AcDbLine
 10
65.0
 20
24.83795657604996
 30
0.0
 11
65.0
 21
27.76941650154077
 31
0.0
  0
LINE
  5
1DDE
330
1CD7
100
AcDbEntity
  8
2
 62
     0
370
    -2
100
AcDbLine
 10
50.54999999999996
 20
26.51941650154077
 30
0.0
 11
62.5
 21
26.51941650154077
 31
0.0
  0
SOLID
  5
1DDF
330
1CD7
100
AcDbEntity
  8
2
 62
     0
100
AcDbTrace
 10
50.54999999999996
 20
26.93608316820744
 30
0.0
 11
50.54999999999996
 21
26.10274983487411
 31
0.0
 12
48.04999999999996
 22
26.51941650154077
 32
0.0
 13
48.04999999999996
 23
26.51941650154077
 33
0.0
  0
SOLID
  5
1DE0
330
1CD7
100
AcDbEntity
  8
2
 62
     0
100
AcDbTrace
 10
62.5
 20
26.93608316820744
 30
0.0
 11
62.5
 21
26.10274983487411
 31
0.0
 12
65.0
 22
26.51941650154077
 32
0.0
 13
65.0
 23
26.51941650154077
 33
0.0
  0
MTEXT
  5
1DE1
330
1CD7
100
AcDbEntity
  8
2
 62
     0
100
AcDbMText
 10
55.2718015805558
 20
28.89441650154077
 30
0.0
 40
3.5
 41
0.0
 71
     5
 72
     1
  1
17
 73
     1
 44
1.0
  0
POINT
  5
1DE2
330
1CD7
100
AcDbEntity
  8
Defpoints
 62
     0
100
AcDbPoint
 10
48.04999999999996
 20
14.68516030124999
 30
0.0
  0
POINT
  5
1DE3
330
1CD7
100
AcDbEntity
  8
Defpoints
 62
     0
100
AcDbPoint
 10
65.0
 20
24.21295657604996
 30
0.0
  0
POINT
  5
1DE4
330
1CD7
100
AcDbEntity
  8
Defpoints
 62
     0
100
AcDbPoint
 10
65.0
 20
26.51941650154077
 30
0.0
  0
ENDBLK
  5
1CE2
330
1CD7
100
AcDbEntity
  8
0
100
AcDbBlockEnd
  0
BLOCK
  5
1D04
330
1CF9
100
AcDbEntity
  8
0
100
AcDbBlockBegin
  2
*D3
 70
     1
 10
0.0
 20
0.0
 30
0.0
  3
*D3
  1

  0
LINE
  5
1DD3
330
1CF9
100
AcDbEntity
  8
2
 62
     0
370
    -2
100
AcDbLine
 10
64.88800973995842
 20
19.87073336580527
 30
0.0
 11
89.82583941897884
 21
19.87073336580527
 31
0.0
  0
LINE
  5
1DD4
330
1CF9
100
AcDbEntity
  8
2
 62
     0
370
    -2
100
AcDbLine
 10
57.25045438546067
 20
-19.93522683031874
 30
0.0
 11
89.82583941897884
 21
-19.93522683031876
 31
0.0
  0
LINE
  5
1DD5
330
1CF9
100
AcDbEntity
  8
2
 62
     0
370
    -2
100
AcDbLine
 10
88.57583941897884
 20
17.37073336580527
 30
0.0
 11
88.57583941897884
 21
-17.43522683031876
 31
0.0
  0
SOLID
  5
1DD6
330
1CF9
100
AcDbEntity
  8
2
 62
     0
100
AcDbTrace
 10
88.15917275231216
 20
17.37073336580527
 30
0.0
 11
88.9925060856455
 21
17.37073336580527
 31
0.0
 12
88.57583941897884
 22
19.87073336580527
 32
0.0
 13
88.57583941897884
 23
19.87073336580527
 33
0.0
  0
SOLID
  5
1DD7
330
1CF9
100
AcDbEntity
  8
2
 62
     0
100
AcDbTrace
 10
88.15917275231216
 20
-17.43522683031876
 30
0.0
 11
88.9925060856455
 21
-17.43522683031876
 31
0.0
 12
88.57583941897884
 22
-19.93522683031876
 32
0.0
 13
88.57583941897884
 23
-19.93522683031876
 33
0.0
  0
MTEXT
  5
1DD8
330
1CF9
100
AcDbEntity
  8
2
 62
     0
100
AcDbMText
 10
86.20083941897883
 20
-0.0322467322567304
 30
0.0
 40
3.5
 41
0.0
 71
     5
 72
     1
  1
%%C40
 11
0.0000000000000001
 21
1.0
 31
0.0
 73
     1
 44
1.0
  0
POINT
  5
1DD9
330
1CF9
100
AcDbEntity
  8
Defpoints
 62
     0
100
AcDbPoint
 10
64.26300973995842
 20
19.87073336580527
 30
0.0
  0
POINT
  5
1DDA
330
1CF9
100
AcDbEntity
  8
Defpoints
 62
     0
100
AcDbPoint
 10
56.62545438546067
 20
-19.93522683031874
 30
0.0
  0
POINT
  5
1DDB
330
1CF9
100
AcDbEntity
  8
Defpoints
 62
     0
100
AcDbPoint
 10
88.57583941897884
 20
-19.93522683031876
 30
0.0
  0
ENDBLK
  5
1D05
330
1CF9
100
AcDbEntity
  8
0
100
AcDbBlockEnd
  0
BLOCK
  5
1D24
330
1D19
100
AcDbEntity
  8
0
100
AcDbBlockBegin
  2
*D4
 70
     1
 10
0.0
 20
0.0
 30
0.0
  3
*D4
  1

  0
LINE
  5
1DCA
330
1D19
100
AcDbEntity
  8
SK2
 62
     0
370
    -2
100
AcDbLine
 10
-0.125
 20
24.5
 30
0.0
 11
-62.2741855626509
 21
24.50000000000001
 31
0.0
  0
LINE
  5
1DCB
330
1D19
100
AcDbEntity
  8
SK2
 62
     0
370
    -2
100
AcDbLine
 10
-0.125
 20
-24.5
 30
0.0
 11
-62.27418556265092
 21
-24.49999999999998
 31
0.0
  0
LINE
  5
1DCC
330
1D19
100
AcDbEntity
  8
SK2
 62
     0
370
    -2
100
AcDbLine
 10
-61.0241855626509
 20
22.00000000000001
 30
0.0
 11
-61.02418556265092
 21
-21.99999999999998
 31
0.0
  0
SOLID
  5
1DCD
330
1D19
100
AcDbEntity
  8
SK2
 62
     0
100
AcDbTrace
 10
-61.44085222931757
 20
22.00000000000001
 30
0.0
 11
-60.60751889598424
 21
22.00000000000001
 31
0.0
 12
-61.0241855626509
 22
24.50000000000001
 32
0.0
 13
-61.0241855626509
 23
24.50000000000001
 33
0.0
  0
SOLID
  5
1DCE
330
1D19
100
AcDbEntity
  8
SK2
 62
     0
100
AcDbTrace
 10
-61.4408522293176
 20
-21.99999999999998
 30
0.0
 11
-60.60751889598425
 21
-21.99999999999998
 31
0.0
 12
-61.02418556265092
 22
-24.49999999999998
 32
0.0
 13
-61.02418556265092
 23
-24.49999999999998
 33
0.0
  0
MTEXT
  5
1DCF
330
1D19
100
AcDbEntity
  8
SK2
 62
     0
100
AcDbMText
 10
-63.39918556265092
 20
0.0000000000000076
 30
0.0
 40
3.5
 41
0.0
 71
     5
 72
     1
  1
%%C49
 11
0.0000000000000001
 21
1.0
 31
0.0
 73
     1
 44
1.0
  0
POINT
  5
1DD0
330
1D19
100
AcDbEntity
  8
Defpoints
 62
     0
100
AcDbPoint
 10
0.5
 20
24.5
 30
0.0
  0
POINT
  5
1DD1
330
1D19
100
AcDbEntity
  8
Defpoints
 62
     0
100
AcDbPoint
 10
0.5
 20
-24.5
 30
0.0
  0
POINT
  5
1DD2
330
1D19
100
AcDbEntity
  8
Defpoints
 62
     0
100
AcDbPoint
 10
-61.02418556265092
 20
-24.49999999999998
 30
0.0
  0
ENDBLK
  5
1D25
330
1D19
100
AcDbEntity
  8
0
100
AcDbBlockEnd
  0
BLOCK
  5
1D4D
330
1D42
100
AcDbEntity
  8
0
100
AcDbBlockBegin
  2
*D5
 70
     1
 10
0.0
 20
0.0
 30
0.0
  3
*D5
  1

  0
LINE
  5
1DC1
330
1D42
100
AcDbEntity
  8
SK2
 62
     0
370
    -2
100
AcDbLine
 10
-21.5658739718001
 20
12.0
 30
0.0
 11
-48.28137446787923
 21
12.0
 31
0.0
  0
LINE
  5
1DC2
330
1D42
100
AcDbEntity
  8
SK2
 62
     0
370
    -2
100
AcDbLine
 10
-21.5658739718026
 20
-12.0
 30
0.0
 11
-48.28137446787923
 21
-11.99999999999999
 31
0.0
  0
LINE
  5
1DC3
330
1D42
100
AcDbEntity
  8
SK2
 62
     0
370
    -2
100
AcDbLine
 10
-47.03137446787923
 20
9.500000000000008
 30
0.0
 11
-47.03137446787923
 21
-9.499999999999991
 31
0.0
  0
SOLID
  5
1DC4
330
1D42
100
AcDbEntity
  8
SK2
 62
     0
100
AcDbTrace
 10
-47.44804113454589
 20
9.500000000000008
 30
0.0
 11
-46.61470780121256
 21
9.500000000000008
 31
0.0
 12
-47.03137446787923
 22
12.0
 32
0.0
 13
-47.03137446787923
 23
12.0
 33
0.0
  0
SOLID
  5
1DC5
330
1D42
100
AcDbEntity
  8
SK2
 62
     0
100
AcDbTrace
 10
-47.44804113454589
 20
-9.499999999999991
 30
0.0
 11
-46.61470780121256
 21
-9.499999999999991
 31
0.0
 12
-47.03137446787923
 22
-11.99999999999999
 32
0.0
 13
-47.03137446787923
 23
-11.99999999999999
 33
0.0
  0
MTEXT
  5
1DC6
330
1D42
100
AcDbEntity
  8
SK2
 62
     0
100
AcDbMText
 10
-49.40671895606821
 20
-0.0000000000000004
 30
0.0
 40
3.5
 41
0.0
 71
     5
 72
     1
  1
%%C24
 11
0.0000000000000001
 21
1.0
 31
0.0
 73
     1
 44
1.0
  0
POINT
  5
1DC7
330
1D42
100
AcDbEntity
  8
Defpoints
 62
     0
100
AcDbPoint
 10
-20.9408739718001
 20
12.0
 30
0.0
  0
POINT
  5
1DC8
330
1D42
100
AcDbEntity
  8
Defpoints
 62
     0
100
AcDbPoint
 10
-20.9408739718026
 20
-12.0
 30
0.0
  0
POINT
  5
1DC9
330
1D42
100
AcDbEntity
  8
Defpoints
 62
     0
100
AcDbPoint
 10
-47.03137446787923
 20
-11.99999999999999
 30
0.0
  0
ENDBLK
  5
1D4E
330
1D42
100
AcDbEntity
  8
0
100
AcDbBlockEnd
  0
ENDSEC
  0
SECTION
  2
ENTITIES
  0
MTEXT
  5
8D9
330
1F
100
AcDbEntity
  8
6
100
AcDbMText
 10
72.67622799593164
 20
-28.7170751299639
 30
0.0
 40
5.0
 41
64.0
 71
     2
 72
     1
  1
15T1F040017Z4R00
 73
     1
 44
1.0
  0
DIMENSION
  5
1C58
330
1F
100
AcDbEntity
  8
2
100
AcDbDimension
  2
*D1
 10
65.0
 20
38.4110632469755
 30
0.0
 11
34.33567260708014
 21
38.4110632469755
 31
0.0
 70
   160
 71
     5
 42
65.0
  3
ISO-25
100
AcDbAlignedDimension
 13
0.0
 23
24.0
 33
0.0
 14
65.0
 24
19.12849905523683
 34
0.0
100
AcDbRotatedDimension
1001
ACAD
1000
DSTYLE
1002
{
1070
   140
1040
3.5
1002
}
  0
LINE
  5
1C59
330
1F
100
AcDbEntity
  8
SK4
100
AcDbLine
 10
0.0
 20
0.0
 30
0.0
 11
-36.5
 21
0.0
 31
0.0
  0
LINE
  5
1C5A
330
1F
100
AcDbEntity
  8
3
100
AcDbLine
 10
57.0
 20
3.0
 30
0.0
 11
-11.09861218114997
 21
3.0
 31
0.0
  0
LINE
  5
1C5B
330
1F
100
AcDbEntity
  8
3
100
AcDbLine
 10
57.0
 20
-3.0
 30
0.0
 11
-33.5
 21
-3.0
 31
0.0
  0
LINE
  5
1C5C
330
1F
100
AcDbEntity
  8
SK1
100
AcDbLine
 10
-2.84000000000003
 20
12.0
 30
0.0
 11
-9.940873971799987
 21
12.0
 31
0.0
  0
LINE
  5
1C5D
330
1F
100
AcDbEntity
  8
SK1
100
AcDbLine
 10
-2.84000000000003
 20
-12.0
 30
0.0
 11
-9.940873971799987
 21
-12.0
 31
0.0
  0
LINE
  5
1C5E
330
1F
100
AcDbEntity
  8
1
100
AcDbLine
 10
47.8499999999999
 20
10.5
 30
0.0
 11
15.10188620509984
 21
10.5
 31
0.0
  0
LINE
  5
1C5F
330
1F
100
AcDbEntity
  8
1
100
AcDbLine
 10
47.8499999999999
 20
-10.5
 30
0.0
 11
15.10188620509984
 21
-10.5
 31
0.0
  0
LINE
  5
1C60
330
1F
100
AcDbEntity
  8
4
100
AcDbLine
 10
67.50762133234991
 20
0.0
 30
0.0
 11
0.0
 21
0.0000000000000568
 31
0.0
  0
LINE
  5
1C61
330
1F
100
AcDbEntity
  8
1
100
AcDbLine
 10
47.8499999999999
 20
10.5
 30
0.0
 11
47.8499999999999
 21
-10.5
 31
0.0
  0
LINE
  5
1C62
330
1F
100
AcDbEntity
  8
1
100
AcDbLine
 10
48.85000000000001
 20
10.35775421831988
 30
0.0
 11
48.85000000000001
 21
-10.35758362070879
 31
0.0
  0
LINE
  5
1C63
330
1F
100
AcDbEntity
  8
1
100
AcDbLine
 10
64.20000000000005
 20
-3.000000000000055
 30
0.0
 11
64.20000000000005
 21
18.45559569034998
 31
0.0
  0
LINE
  5
1C64
330
1F
100
AcDbEntity
  8
3
100
AcDbLine
 10
58.80258185709998
 20
0.0
 30
0.0
 11
57.0
 21
3.0
 31
0.0
  0
LINE
  5
1C65
330
1F
100
AcDbEntity
  8
3
100
AcDbLine
 10
57.0
 20
-3.0
 30
0.0
 11
57.0
 21
3.0
 31
0.0
  0
SPLINE
  5
1C66
330
1F
100
AcDbEntity
  8
1
100
AcDbSpline
210
0.0
220
0.0
230
1.0
 70
     8
 71
     3
 72
    11
 73
     7
 74
     5
 42
0.0000000001
 43
0.0000000001
 44
0.0000000001
 12
0.999988742469357
 22
0.0047449904693238
 32
0.0
 13
0.0
 23
1.0
 33
0.0
 40
0.0
 40
0.0
 40
0.0
 40
0.0
 40
0.1949593063433187
 40
0.3902146329573991
 40
0.5859374676217058
 40
0.7820300533523513
 40
0.7820300533523513
 40
0.7820300533523513
 40
0.7820300533523513
 10
63.70000000000004
 20
-18.95856579080003
 30
0.0
 10
63.76498570386102
 20
-18.95825743078319
 30
0.0
 10
63.89634514376742
 20
-18.93161715634477
 30
0.0
 10
64.06229007678415
 20
-18.81968667067748
 30
0.0
 10
64.17381238810225
 20
-18.6529925934976
 30
0.0
 10
64.20000000000005
 20
-18.52095988564355
 30
0.0
 10
64.20000000000005
 20
-18.45559569039999
 30
0.0
 11
63.70000000000004
 21
-18.95856579080003
 31
0.0
 11
63.89104197229993
 21
-18.91968011285001
 31
0.0
 11
64.05306490599992
 21
-18.81071584565005
 31
0.0
 11
64.16170409740003
 21
-18.64791242400001
 31
0.0
 11
64.20000000000005
 21
-18.45559569039999
 31
0.0
  0
LINE
  5
1C67
330
1F
100
AcDbEntity
  8
1
100
AcDbLine
 10
64.20000000000005
 20
-9.492661498050154
 30
0.0
 11
64.10295481919991
 21
-9.491536409000048
 31
0.0
  0
LINE
  5
1C68
330
1F
100
AcDbEntity
  8
1
100
AcDbLine
 10
64.20000000000005
 20
-18.45559569039999
 30
0.0
 11
64.20000000000005
 21
-1.925798168250139
 31
0.0
  0
LINE
  5
1C69
330
1F
100
AcDbEntity
  8
1
100
AcDbLine
 10
64.92959722135004
 20
-1.45355704960002
 30
0.0
 11
64.92960701530001
 21
-1.453470714300009
 31
0.0
  0
LINE
  5
1C6A
330
1F
100
AcDbEntity
  8
1
100
AcDbLine
 10
65.00000249770003
 20
-2.33353761685015
 30
0.0
 11
65.00001227405005
 21
-2.333633306450166
 31
0.0
  0
LINE
  5
1C6B
330
1F
100
AcDbEntity
  8
1
100
AcDbLine
 10
64.20000000000005
 20
-1.653694781700153
 30
0.0
 11
64.20000000000005
 21
-1.925798168250139
 31
0.0
  0
LINE
  5
1C6C
330
1F
100
AcDbEntity
  8
1
100
AcDbLine
 10
48.11681264180004
 20
-11.09947889010003
 30
0.0
 11
48.05054174214991
 21
-19.12820200930001
 31
0.0
  0
LINE
  5
1C6D
330
1F
100
AcDbEntity
  8
1
100
AcDbLine
 10
57.51398710520004
 20
-19.20732944695004
 30
0.0
 11
57.58025800484995
 21
-11.17860632775006
 31
0.0
  0
LINE
  5
1C6E
330
1F
100
AcDbEntity
  8
1
100
AcDbLine
 10
48.78753381185004
 20
-19.88239000370003
 30
0.0
 11
56.76464714010001
 21
-19.94908965835014
 31
0.0
  0
ELLIPSE
  5
1C6F
330
1F
100
AcDbEntity
  8
1
100
AcDbEllipse
 10
56.7701032417499
 20
0.0
 30
0.0
 11
-166.5414375965999
 21
0.0
 31
0.0
210
0.0
220
0.0
230
-1.0
 40
0.1139356083
 41
-1.6124189896
 42
-1.575274532899999
  0
ELLIPSE
  5
1C70
330
1F
100
AcDbEntity
  8
1
100
AcDbEllipse
 10
56.74297479719985
 20
-19.17261953905006
 30
0.0
 11
-0.5014003574500002
 21
0.6078832950500001
 31
0.0
210
0.0
220
0.0
230
-0.9999999999999998
 40
0.9635833813999999
 41
-3.9961159097
 42
-2.4617357038
  0
ELLIPSE
  5
1C71
330
1F
100
AcDbEntity
  8
1
100
AcDbEllipse
 10
48.82202059945007
 20
-19.10638945215015
 30
0.0
 11
0.5110738675500001
 21
0.5996640039
 31
0.0
210
0.0
220
0.0
230
-1.0
 40
0.963786722
 41
-3.8209445923
 42
-2.2865643865
  0
LINE
  5
1C72
330
1F
100
AcDbEntity
  8
1
100
AcDbLine
 10
56.84326593515004
 20
-10.42441833335016
 30
0.0
 11
48.86615260689996
 21
-10.35771867875
 31
0.0
  0
LINE
  5
1C73
330
1F
100
AcDbEntity
  8
1
100
AcDbLine
 10
64.10295481919991
 20
-9.491536409000048
 30
0.0
 11
63.70000000000004
 21
-9.487986301850014
 31
0.0
  0
ELLIPSE
  5
1C74
330
1F
100
AcDbEntity
  8
1
100
AcDbEllipse
 10
56.07706930915004
 20
-11.74653810140017
 30
0.0
 11
0.7065149657
 21
1.419279595749999
 31
0.0
210
0.0
220
0.0
230
-0.9999999999999998
 40
0.935074466
 41
1.0178803026
 42
1.153155088499999
  0
ELLIPSE
  5
1C75
330
1F
100
AcDbEntity
  8
1
100
AcDbEllipse
 10
56.80877914759992
 20
-11.20041888495006
 30
0.0
 11
0.5110738675500001
 21
0.5996640039
 31
0.0
210
0.0
220
0.0
230
-1.0
 40
0.963786722
 41
-0.6793519387000001
 42
0.8550282670999999
  0
ARC
  5
1C76
330
1F
100
AcDbEntity
  8
1
100
AcDbCircle
 10
55.99289766409992
 20
-11.80461856050014
 30
0.0
 40
1.679129130649999
100
AcDbArc
 50
54.60743534860004
 51
57.0948150764
  0
LINE
  5
1C77
330
1F
100
AcDbEntity
  8
3
100
AcDbLine
 10
58.80258185709998
 20
0.0
 30
0.0
 11
57.0
 21
-3.0
 31
0.0
  0
ELLIPSE
  5
1C78
330
1F
100
AcDbEntity
  8
1
100
AcDbEllipse
 10
48.8878249498
 20
-11.13418879800013
 30
0.0
 11
-0.5014003574500002
 21
0.6078832950500001
 31
0.0
210
0.0
220
0.0
230
-0.9999999999999998
 40
0.9635833813999999
 41
-0.8545232561
 42
0.6798569498
  0
ARC
  5
1C79
330
1F
100
AcDbEntity
  8
1
100
AcDbCircle
 10
47.8499999999999
 20
-11.5
 30
0.0
 40
1.0
100
AcDbArc
 50
63.0773795056
 51
90.0
  0
ARC
  5
1C7A
330
1F
100
AcDbEntity
  8
1
100
AcDbCircle
 10
47.27200923199984
 20
-11.96012497030005
 30
0.0
 40
1.734899023549998
100
AcDbArc
 50
52.56764547919999
 51
53.58949631629997
  0
LINE
  5
1C7B
330
1F
100
AcDbEntity
  8
1
100
AcDbLine
 10
48.34449912539992
 20
-10.56426139830006
 30
0.0
 11
48.30178705679998
 21
-10.56390426660003
 31
0.0
  0
SPLINE
  5
1C7C
330
1F
100
AcDbEntity
  8
1
100
AcDbSpline
210
0.0
220
0.0
230
1.0
 70
     8
 71
     3
 72
    11
 73
     7
 74
     5
 42
0.0000000001
 43
0.0000000001
 44
0.0000000001
 12
0.999988742469357
 22
-0.0047449904693238
 32
0.0
 13
0.0
 23
-1.0
 33
0.0
 40
0.0
 40
0.0
 40
0.0
 40
0.0
 40
0.194959306353298
 40
0.3902146329674102
 40
0.585937467590052
 40
0.7820300533697044
 40
0.7820300533697044
 40
0.7820300533697044
 40
0.7820300533697044
 10
63.70000000000004
 20
18.95856579079998
 30
0.0
 10
63.76498570386434
 20
18.95825743078312
 30
0.0
 10
63.89634514376227
 20
18.93161715627533
 30
0.0
 10
64.0622900767654
 20
18.81968667063665
 30
0.0
 10
64.17381238812779
 20
18.65299259347508
 30
0.0
 10
64.20000000000005
 20
18.52095988560986
 30
0.0
 10
64.20000000000005
 20
18.45559569034998
 30
0.0
 11
63.70000000000004
 21
18.95856579079998
 31
0.0
 11
63.89104197229993
 21
18.91968011279993
 31
0.0
 11
64.05306490599992
 21
18.81071584559991
 31
0.0
 11
64.16170409740003
 21
18.64791242399997
 31
0.0
 11
64.20000000000005
 21
18.45559569034998
 31
0.0
  0
ARC
  5
1C7D
330
1F
100
AcDbEntity
  8
CUT
100
AcDbCircle
 10
60.2744532421666
 20
1550.074865490963
 30
0.0
 40
1530.209330306099
100
AcDbArc
 50
269.8506559149003
 51
270.1493440850997
  0
SPLINE
  5
1C7E
330
1F
100
AcDbEntity
  8
CUT
100
AcDbSpline
210
0.0
220
0.0
230
1.0
 70
     8
 71
     3
 72
    36
 73
    32
 74
    30
 42
0.0000000001
 43
0.0000000001
 44
0.0000000001
 12
0.9998789758598823
 22
0.015557430166735
 32
0.0
 13
0.0115464354202763
 23
0.9999333376926111
 33
0.0
 40
0.0
 40
0.0
 40
0.0
 40
0.0
 40
0.04157872697671
 40
0.0827337033586625
 40
0.1235778944878089
 40
0.1642457143457157
 40
0.2050095819248749
 40
0.2457513830140536
 40
0.2862610237061095
 40
0.326542209711556
 40
0.3669229145221332
 40
0.4072297554551274
 40
0.4472722812620696
 40
0.4873049706670984
 40
0.5274218281337532
 40
0.5674350699044901
 40
0.6072460681461792
 40
0.647215454293563
 40
0.6872445585303272
 40
0.7271471604505192
 40
0.767018347290151
 40
0.8071164855262228
 40
0.8472510910057929
 40
0.887255804728052
 40
0.9274593277702178
 40
0.9678697022426101
 40
1.008283477369372
 40
1.048587109525824
 40
1.08905542288332
 40
1.129828574662419
 40
1.171020372013326
 40
1.171020372013326
 40
1.171020372013326
 40
1.171020372013326
 10
64.18439174216667
 20
10.42805000926284
 30
0.0
 10
64.19824964048235
 20
10.42826562864329
 30
0.0
 10
64.22581878367279
 20
10.42938625187638
 30
0.0
 10
64.266854937892
 20
10.43317150790914
 30
0.0
 10
64.3073368244515
 20
10.4390607529315
 30
0.0
 10
64.34732347787008
 20
10.44705688180056
 30
0.0
 10
64.38678141809839
 20
10.45721433632921
 30
0.0
 10
64.42559695519119
 20
10.46942243661115
 30
0.0
 10
64.46357440304623
 20
10.48357720279329
 30
0.0
 10
64.50063337290399
 20
10.49968953530628
 30
0.0
 10
64.53670906589906
 20
10.51774561198561
 30
0.0
 10
64.57171977954925
 20
10.53762624145553
 30
0.0
 10
64.60554191127542
 20
10.55925498009211
 30
0.0
 10
64.6380925655467
 20
10.58264589958263
 30
0.0
 10
64.66934907340021
 20
10.60772274581687
 30
0.0
 10
64.69919060903369
 20
10.63435760759548
 30
0.0
 10
64.72752509491224
 20
10.66252148882063
 30
0.0
 10
64.75430802930674
 20
10.69217123793875
 30
0.0
 10
64.779508714909
 20
10.72321590019226
 30
0.0
 10
64.8030000838094
 20
10.75553412357109
 30
0.0
 10
64.82470622403877
 20
10.78910464023353
 30
0.0
 10
64.84463951949146
 20
10.82384533133651
 30
0.0
 10
64.86272466170925
 20
10.85963398424504
 30
0.0
 10
64.87884113789651
 20
10.89639018901014
 30
0.0
 10
64.8929768321665
 20
10.93405000311699
 30
0.0
 10
64.9051392409828
 20
10.9725352626604
 30
0.0
 10
64.91523045559948
 20
11.01165083803128
 30
0.0
 10
64.92313515718613
 20
11.05128582797736
 30
0.0
 10
64.9289076410582
 20
11.09140728027204
 30
0.0
 10
64.93255754160199
 20
11.13207308391024
 30
0.0
 10
64.93357320269064
 20
11.15939032545929
 30
0.0
 10
64.93373174216663
 20
11.17312000926284
 30
0.0
 11
64.18439174216667
 21
10.42805000926284
 31
0.0
 11
64.22593574216671
 21
10.42974900926286
 31
0.0
 11
64.2669157421667
 21
10.43354000926284
 31
0.0
 11
64.30733374216663
 21
10.43942500926283
 31
0.0
 11
64.34720974216657
 21
10.44741100926285
 31
0.0
 11
64.38668974216671
 21
10.45756100926285
 31
0.0
 11
64.42555574216658
 21
10.46978100926286
 31
0.0
 11
64.46351074216659
 21
10.48393900926282
 31
0.0
 11
64.50044974216665
 21
10.50000400926284
 31
0.0
 11
64.53656474216664
 21
10.51806800926283
 31
0.0
 11
64.57161374216662
 21
10.53797300926282
 31
0.0
 11
64.6053417421666
 21
10.55955600926284
 31
0.0
 11
64.63785574216661
 21
10.58291100926282
 31
0.0
 11
64.6691487421666
 21
10.60801300926283
 31
0.0
 11
64.69899474216664
 21
10.63466400926283
 31
0.0
 11
64.72722974216662
 21
10.66273000926287
 31
0.0
 11
64.7540277421666
 21
10.69238500926286
 31
0.0
 11
64.77925274216659
 21
10.72346600926283
 31
0.0
 11
64.80270674216661
 21
10.75574800926283
 31
0.0
 11
64.82436474216661
 21
10.78922400926285
 31
0.0
 11
64.84432174216657
 21
10.82400300926286
 31
0.0
 11
64.86241274216661
 21
10.85982900926284
 31
0.0
 11
64.87848074216663
 21
10.89646500926284
 31
0.0
 11
64.89261774216664
 21
10.93410100926285
 31
0.0
 11
64.9047917421667
 21
10.97263400926283
 31
0.0
 11
64.9148737421666
 21
11.0117700092628
 31
0.0
 11
64.92276774216657
 21
11.05129300926285
 31
0.0
 11
64.92853674216667
 21
11.09134800926284
 31
0.0
 11
64.93219174216665
 21
11.13195700926286
 31
0.0
 11
64.93373174216663
 21
11.17312000926284
 31
0.0
  0
DIMENSION
  5
1C7F
330
1F
100
AcDbEntity
  8
2
100
AcDbDimension
  2
*D2
 10
65.0
 20
26.51941650154077
 30
0.0
 11
55.2718015805558
 21
26.51941650154077
 31
0.0
 70
   160
  1
17
 71
     5
 42
16.95000000000003
  3
ISO-25
100
AcDbAlignedDimension
 13
48.04999999999996
 23
14.68516030124999
 33
0.0
 14
65.0
 24
24.21295657604996
 34
0.0
100
AcDbRotatedDimension
1001
ACAD
1000
DSTYLE
1002
{
1070
   140
1040
3.5
1002
}
  0
SPLINE
  5
1C80
330
1F
100
AcDbEntity
  8
CUT
100
AcDbSpline
210
0.0
220
0.0
230
1.0
 70
     8
 71
     3
 72
    36
 73
    32
 74
    30
 42
0.0000000001
 43
0.0000000001
 44
0.0000000001
 12
-0.0082975622238414
 22
-0.9999655746380181
 32
0.0
 13
-0.0083838306884924
 23
-0.9999648550739104
 33
0.0
 40
0.0
 40
0.0
 40
0.0
 40
0.0
 40
0.2753664806653053
 40
0.5506889628457237
 40
0.8259654466106757
 40
1.10119293206406
 40
1.376370427546533
 40
1.651494916551084
 40
1.926564407452929
 40
2.201575900356379
 40
2.476525395400481
 40
2.751411900935038
 40
3.026230400505217
 40
3.300978902495683
 40
3.575652407080643
 40
3.850246914400081
 40
4.124759432885104
 40
4.399184946059473
 40
4.673517462458805
 40
4.947752982224207
 40
5.221884505601245
 40
5.495907041106965
 40
5.769813572306965
 40
6.043596107823761
 40
6.317247647905292
 40
6.590759192869995
 40
6.864121751398082
 40
7.137325307123467
 40
7.410358868798607
 40
7.683209436886677
 40
7.955865011817772
 40
7.955865011817772
 40
7.955865011817772
 40
7.955865011817772
 10
65.00000174216665
 20
19.12870900926282
 30
0.0
 10
64.99924011866409
 20
19.03692334223797
 30
0.0
 10
64.99771692473162
 20
18.85336667441445
 30
0.0
 10
64.99543195680472
 20
18.57805434081446
 30
0.0
 10
64.99314684920746
 20
18.30278834170796
 30
0.0
 10
64.99086231399147
 20
18.02757066841197
 30
0.0
 10
64.9885755989791
 20
17.75240367988764
 30
0.0
 10
64.98629106119662
 20
17.47728933994628
 30
0.0
 10
64.98400598238697
 20
17.20223034060016
 30
0.0
 10
64.9817209105991
 20
16.92722967453032
 30
0.0
 10
64.9794363653071
 20
16.65229000131084
 30
0.0
 10
64.97714966339541
 20
16.37741467935621
 30
0.0
 10
64.97486512230072
 20
16.10260633943521
 30
0.0
 10
64.97258005482504
 20
15.82786900666182
 30
0.0
 10
64.97029498014585
 20
15.55320634061667
 30
0.0
 10
64.96801044644564
 20
15.2786223339581
 30
0.0
 10
64.96572374035196
 20
15.00412101205346
 30
0.0
 10
64.96343922144031
 20
14.72970700527168
 30
0.0
 10
64.96115414457782
 20
14.45538533924329
 30
0.0
 10
64.95886908584558
 20
14.18116167306598
 30
0.0
 10
64.95658455931316
 20
13.90704133300178
 30
0.0
 10
64.9542978622229
 20
13.63303067770844
 30
0.0
 10
64.95201335088944
 20
13.3591363375172
 30
0.0
 10
64.94972828813097
 20
13.0853656713711
 30
0.0
 10
64.94744323594194
 20
12.8117266718062
 30
0.0
 10
64.94515872857516
 20
12.53822766489772
 30
0.0
 10
64.94287204172701
 20
12.26487800954486
 30
0.0
 10
64.94058754971058
 20
11.99168766917369
 30
0.0
 10
64.93830248438939
 20
11.71866800304864
 30
0.0
 10
64.93601755894835
 20
11.44583100242026
 30
0.0
 10
64.93449370822546
 20
11.26400200675319
 30
0.0
 10
64.93373174216663
 20
11.17312000926284
 30
0.0
 11
65.00000174216665
 21
19.12870900926282
 31
0.0
 11
64.99771674216663
 21
18.85335200926282
 31
0.0
 11
64.9954317421666
 21
18.57803900926285
 31
0.0
 11
64.99314674216657
 21
18.30277200926285
 31
0.0
 11
64.99086174216666
 21
18.02755400926287
 31
0.0
 11
64.98857574216663
 21
17.75238600926286
 31
0.0
 11
64.9862907421666
 21
17.47727100926283
 31
0.0
 11
64.98400574216657
 21
17.20221100926283
 31
0.0
 11
64.98172074216665
 21
16.92720900926286
 31
0.0
 11
64.97943574216662
 21
16.65226900926285
 31
0.0
 11
64.9771497421666
 21
16.37739200926285
 31
0.0
 11
64.97486474216657
 21
16.10258300926284
 31
0.0
 11
64.97257974216665
 21
15.82784400926283
 31
0.0
 11
64.97029474216663
 21
15.55318000926286
 31
0.0
 11
64.96800974216672
 21
15.27859500926285
 31
0.0
 11
64.96572374216658
 21
15.00409200926287
 31
0.0
 11
64.96343874216666
 21
14.72967600926284
 31
0.0
 11
64.96115374216663
 21
14.45535300926286
 31
0.0
 11
64.95886874216671
 21
14.18112700926285
 31
0.0
 11
64.95658374216668
 21
13.90700500926283
 31
0.0
 11
64.95429774216666
 21
13.63299200926286
 31
0.0
 11
64.95201274216663
 21
13.35909500926283
 31
0.0
 11
64.94972774216671
 21
13.08532200926282
 31
0.0
 11
64.94744274216668
 21
12.81168000926283
 31
0.0
 11
64.94515774216665
 21
12.53817800926287
 31
0.0
 11
64.94287174216663
 21
12.26482500926283
 31
0.0
 11
64.94058674216671
 21
11.99163100926284
 31
0.0
 11
64.93830174216668
 21
11.71860700926281
 31
0.0
 11
64.93601674216666
 21
11.44576600926285
 31
0.0
 11
64.93373174216663
 21
11.17312000926284
 31
0.0
  0
SPLINE
  5
1C81
330
1F
100
AcDbEntity
  8
CUT
100
AcDbSpline
210
0.0
220
0.0
230
1.0
 70
     8
 71
     3
 72
    36
 73
    32
 74
    30
 42
0.0000000001
 43
0.0000000001
 44
0.0000000001
 12
0.0051756456767197
 22
0.9999866062562183
 32
0.0
 13
-0.9999998515771673
 23
0.0005448354278401
 33
0.0
 40
0.0
 40
0.0
 40
0.0
 40
0.0
 40
0.0415856673627077
 40
0.0826814192113039
 40
0.123402919699343
 40
0.1638902409864335
 40
0.2044149605782665
 40
0.2448701171099217
 40
0.2850514195278442
 40
0.3249695014582286
 40
0.364956322849763
 40
0.4048494618714398
 40
0.4444653827618737
 40
0.4840650943769594
 40
0.5237497628145313
 40
0.5633401177637093
 40
0.602746698191343
 40
0.6423321756926102
 40
0.6820079896098873
 40
0.7215941805480949
 40
0.7611929461854233
 40
0.8010635950640228
 40
0.8410247272427413
 40
0.8809139262945375
 40
0.9210625907430639
 40
0.961481063994845
 40
1.001967367259005
 40
1.042414158244224
 40
1.083091660281626
 40
1.124142513731869
 40
1.165680765019166
 40
1.165680765019166
 40
1.165680765019166
 40
1.165680765019166
 10
65.00000174216665
 20
19.12870900926282
 30
0.0
 10
65.00007348639314
 20
19.14257071272113
 30
0.0
 10
64.99951828722564
 20
19.17013991984654
 30
0.0
 10
64.99655236960544
 20
19.21118538520067
 30
0.0
 10
64.99145237565983
 20
19.25165307082568
 30
0.0
 10
64.984212901477
 20
19.29160067054299
 30
0.0
 10
64.9747778503242
 20
19.33099630060864
 30
0.0
 10
64.96325933947152
 20
19.36972598219886
 30
0.0
 10
64.94975188866971
 20
19.40759346038544
 30
0.0
 10
64.93424954436327
 20
19.44452067981479
 30
0.0
 10
64.91676186530385
 20
19.48044296774557
 30
0.0
 10
64.89740529795742
 20
19.51527740300905
 30
0.0
 10
64.87625691531666
 20
19.54890284674361
 30
0.0
 10
64.85330133936312
 20
19.58123666383181
 30
0.0
 10
64.82861373792579
 20
19.61225598858891
 30
0.0
 10
64.80232091796165
 20
19.64184137228462
 30
0.0
 10
64.77445156707155
 20
19.66990086524758
 30
0.0
 10
64.74504777936018
 20
19.69638983624037
 30
0.0
 10
64.7142023000664
 20
19.72127980454553
 30
0.0
 10
64.68203492984113
 20
19.74444554397845
 30
0.0
 10
64.64856597304581
 20
19.76580786701271
 30
0.0
 10
64.61387994915724
 20
19.78538488346478
 30
0.0
 10
64.5780965900315
 20
19.80309734763902
 30
0.0
 10
64.54129798908535
 20
19.81882893115018
 30
0.0
 10
64.50354833702039
 20
19.8325669718757
 30
0.0
 10
64.46492694339473
 20
19.8443208300268
 30
0.0
 10
64.42562843357023
 20
19.85399278617514
 30
0.0
 10
64.3857663009135
 20
19.86147014776852
 30
0.0
 10
64.34537267730596
 20
19.86680750200684
 30
0.0
 10
64.30439065035272
 20
19.87001174715361
 30
0.0
 10
64.27685582387393
 20
19.87072546542585
 30
0.0
 10
64.26300974216657
 20
19.87073300926282
 30
0.0
 11
65.00000174216665
 21
19.12870900926282
 31
0.0
 11
64.99915274216665
 21
19.17028600926284
 31
0.0
 11
64.99617874216665
 21
19.21127400926286
 31
0.0
 11
64.99107974216667
 21
19.25167500926282
 31
0.0
 11
64.98384674216663
 21
19.29151100926287
 31
0.0
 11
64.97441974216667
 21
19.33092400926284
 31
0.0
 11
64.96288874216657
 21
19.36970100926282
 31
0.0
 11
64.94937874216657
 21
19.40754300926282
 31
0.0
 11
64.9339217421666
 21
19.44434700926285
 31
0.0
 11
64.91642774216664
 21
19.48030400926285
 31
0.0
 11
64.89704874216659
 21
19.51517400926286
 31
0.0
 11
64.87594674216665
 21
19.54870200926285
 31
0.0
 11
64.85302874216666
 21
19.58099600926282
 31
0.0
 11
64.82831874216663
 21
19.6120490092628
 31
0.0
 11
64.80201274216665
 21
19.64163600926286
 31
0.0
 11
64.77424274216662
 21
19.66959500926282
 31
0.0
 11
64.74483774216661
 21
19.69609700926287
 31
0.0
 11
64.71395874216661
 21
19.72101000926284
 31
0.0
 11
64.68183074216665
 21
19.74413700926281
 31
0.0
 11
64.64845874216667
 21
19.76545300926284
 31
0.0
 11
64.61373774216667
 21
19.78505200926287
 31
0.0
 11
64.5779197421666
 21
19.80277100926286
 31
0.0
 11
64.54124374216667
 21
19.81845600926282
 31
0.0
 11
64.50351974216665
 21
19.8321970092628
 31
0.0
 11
64.4648517421666
 21
19.84396300926283
 31
0.0
 11
64.42553574216663
 21
19.85362700926281
 31
0.0
 11
64.38578474216661
 21
19.86109700926282
 31
0.0
 11
64.34545874216657
 21
19.86643300926282
 31
0.0
 11
64.30453374216665
 21
19.86964500926285
 31
0.0
 11
64.26300974216657
 21
19.87073300926282
 31
0.0
  0
LINE
  5
1C82
330
1F
100
AcDbEntity
  8
1
100
AcDbLine
 10
48.85000000000001
 20
18.50719613329465
 30
0.0
 11
48.85000000000001
 21
15.75300561540001
 31
0.0
  0
LINE
  5
1C83
330
1F
100
AcDbEntity
  8
CUT
100
AcDbLine
 10
57.5139867421667
 20
19.12516500926284
 30
0.0
 11
57.58025774216662
 21
11.11165600926284
 31
0.0
  0
SPLINE
  5
1C84
330
1F
100
AcDbEntity
  8
CUT
100
AcDbSpline
210
0.0
220
0.0
230
1.0
 70
     8
 71
     3
 72
    36
 73
    32
 74
    30
 42
0.0000000001
 43
0.0000000001
 44
0.0000000001
 12
-0.0083906756359851
 22
0.9999647976615836
 32
0.0
 13
-0.0082967248097657
 23
0.999965581586402
 33
0.0
 40
0.0
 40
0.0
 40
0.0
 40
0.0
 40
0.2726555833134634
 40
0.5455061514015972
 40
0.8185387131117529
 40
1.09174226883714
 40
1.365104819004485
 40
1.638616372325365
 40
1.912267912406908
 40
2.186050447923702
 40
2.459956979123643
 40
2.733979506288866
 40
3.008111038003087
 40
3.282346557768487
 40
3.556679074167818
 40
3.831104587342188
 40
4.105616097536196
 40
4.380211613144153
 40
4.654885117729172
 40
4.929633619719637
 40
5.204452119289809
 40
5.479338616509973
 40
5.754288119866521
 40
6.029299612770027
 40
6.304368103706368
 40
6.57949359267637
 40
6.854671079853295
 40
7.12989857361073
 40
7.405175057375668
 40
7.680497539556154
 40
7.95586402022146
 40
7.95586402022146
 40
7.95586402022146
 40
7.95586402022146
 10
48.11681274216664
 20
11.17261400926281
 30
0.0
 10
48.11605015398001
 20
11.26349600432926
 30
0.0
 10
48.11452575857451
 20
11.44532499822892
 30
0.0
 10
48.11224101952524
 20
11.71816166987975
 30
0.0
 10
48.10995604014371
 20
11.99118100338897
 30
0.0
 10
48.10767098378971
 20
12.2643710029222
 30
0.0
 10
48.10538648421058
 20
12.53772067655914
 30
0.0
 10
48.10309979317342
 20
12.81121966521616
 30
0.0
 10
48.10081528745035
 20
13.08485867213428
 30
0.0
 10
48.09853022409081
 20
13.35862933827264
 30
0.0
 10
48.09624516793255
 20
13.6325236711404
 30
0.0
 10
48.0939606522155
 20
13.90653434462544
 30
0.0
 10
48.09167394363863
 20
14.18065466649405
 30
0.0
 10
48.08938943112315
 20
14.45487834000553
 30
0.0
 10
48.08710435258799
 20
14.72920000601798
 30
0.0
 10
48.08481929636048
 20
15.00361367221824
 30
0.0
 10
48.08253475342105
 20
15.27811501213116
 30
0.0
 10
48.0802480561207
 20
15.55269900077906
 30
0.0
 10
48.07796351951306
 20
15.82736200741135
 30
0.0
 10
48.07567845309985
 20
16.10209934019207
 30
0.0
 10
48.07339336648023
 20
16.3769076728063
 30
0.0
 10
48.07110884649723
 20
16.65178301290123
 30
0.0
 10
48.06882211804674
 20
16.92672266797117
 30
0.0
 10
48.06653759955135
 20
17.20172300807845
 30
0.0
 10
48.06425250244275
 20
17.47678200727138
 30
0.0
 10
48.06196743716046
 20
17.75189634006326
 30
0.0
 10
48.05968289823144
 20
18.02706367999383
 30
0.0
 10
48.05739617426038
 20
18.30228133511249
 30
0.0
 10
48.05511164278012
 20
18.57754734177165
 30
0.0
 10
48.05282655960166
 20
18.8528596744142
 30
0.0
 10
48.05130328880391
 20
19.03641634160022
 30
0.0
 10
48.0505417421666
 20
19.12820200926285
 30
0.0
 11
48.11681274216664
 21
11.17261400926281
 31
0.0
 11
48.11452674216662
 21
11.44526000926281
 31
0.0
 11
48.11224174216659
 21
11.71810100926285
 31
0.0
 11
48.10995674216655
 21
11.99112400926287
 31
0.0
 11
48.10767174216664
 21
12.26431800926286
 31
0.0
 11
48.10538674216662
 21
12.53767100926284
 31
0.0
 11
48.10310074216658
 21
12.81117300926285
 31
0.0
 11
48.10081574216656
 21
13.08481500926285
 31
0.0
 11
48.09853074216665
 21
13.35858800926286
 31
0.0
 11
48.09624574216662
 21
13.63248500926283
 31
0.0
 11
48.0939607421667
 21
13.90649800926285
 31
0.0
 11
48.09167474216657
 21
14.18062000926283
 31
0.0
 11
48.08938974216665
 21
14.45484600926283
 31
0.0
 11
48.0871047421666
 21
14.7291690092628
 31
0.0
 11
48.0848197421667
 21
15.00358500926284
 31
0.0
 11
48.08253474216667
 21
15.27808700926283
 31
0.0
 11
48.08024874216664
 21
15.55267300926283
 31
0.0
 11
48.0779637421666
 21
15.82733700926286
 31
0.0
 11
48.0756787421667
 21
16.10207600926287
 31
0.0
 11
48.07339374216667
 21
16.37688500926287
 31
0.0
 11
48.07110874216665
 21
16.65176200926281
 31
0.0
 11
48.0688227421666
 21
16.92670200926284
 31
0.0
 11
48.0665377421667
 21
17.20170400926287
 31
0.0
 11
48.06425274216667
 21
17.47676300926286
 31
0.0
 11
48.06196774216664
 21
17.75187900926282
 31
0.0
 11
48.0596827421666
 21
18.02704700926284
 31
0.0
 11
48.0573967421667
 21
18.30226500926284
 31
0.0
 11
48.05511174216667
 21
18.57753200926281
 31
0.0
 11
48.05282674216664
 21
18.85284500926286
 31
0.0
 11
48.0505417421666
 21
19.12820200926285
 31
0.0
  0
LINE
  5
1C85
330
1F
100
AcDbEntity
  8
CUT
100
AcDbLine
 10
55.47028574216665
 20
11.1121630092628
 30
0.0
 11
55.53655674216656
 21
19.1256710092628
 31
0.0
  0
ARC
  5
1C86
330
1F
100
AcDbEntity
  8
CUT
100
AcDbCircle
 10
58.90420081730667
 20
818.245577307243
 30
0.0
 40
807.8803882025601
100
AcDbArc
 50
269.2880721083984
 51
269.8538360221011
  0
ARC
  5
1C87
330
1F
100
AcDbEntity
  8
CUT
100
AcDbCircle
 10
54.14698013588668
 20
818.1737992986628
 30
0.0
 40
807.8081007622397
100
AcDbArc
 50
270.1461318432009
 51
270.7119464557002
  0
SPLINE
  5
1C88
330
1F
100
AcDbEntity
  8
CUT
100
AcDbSpline
210
0.0
220
0.0
230
1.0
 70
     8
 71
     3
 72
    36
 73
    32
 74
    30
 42
0.0000000001
 43
0.0000000001
 44
0.0000000001
 12
-0.0051167912169482
 22
-0.9999869091381357
 32
0.0
 13
0.9999998000968655
 23
-0.0006323023240362
 33
0.0
 40
0.0
 40
0.0
 40
0.0
 40
0.0
 40
0.0416736694448843
 40
0.0828601832206657
 40
0.1236729612441864
 40
0.1642517898374509
 40
0.2048698819885787
 40
0.2454151480747882
 40
0.2856855969175874
 40
0.3256898263564796
 40
0.3657584966613638
 40
0.4057289678244529
 40
0.4454193931182358
 40
0.4850865827968624
 40
0.524834043558514
 40
0.5644804794639028
 40
0.6039374661708871
 40
0.6435685010425651
 40
0.6832832749434786
 40
0.722902793365642
 40
0.7625309562046999
 40
0.8024242371677953
 40
0.8424040101160734
 40
0.8823073786080303
 40
0.9224666634622312
 40
0.9628930047881883
 40
1.003384325845796
 40
1.043833277241491
 40
1.084513346476865
 40
1.125564826657252
 40
1.167102209555061
 40
1.167102209555061
 40
1.167102209555061
 40
1.167102209555061
 10
55.47028574216665
 20
11.11216300926286
 30
0.0
 10
55.47021466367805
 20
11.09827196796265
 30
0.0
 10
55.47077044979366
 20
11.070643227988
 30
0.0
 10
55.47373615653504
 20
11.02950754782931
 30
0.0
 10
55.47883612471426
 20
10.98894799192579
 30
0.0
 10
55.48607590498947
 20
10.94890697499738
 30
0.0
 10
55.49550998583922
 20
10.9094168882425
 30
0.0
 10
55.50702964337531
 20
10.870592826415
 30
0.0
 10
55.52053444562298
 20
10.8326305269609
 30
0.0
 10
55.53603839836093
 20
10.79561103172588
 30
0.0
 10
55.55352572307326
 20
10.75959771031272
 30
0.0
 10
55.57288164225385
 20
10.72467389766951
 30
0.0
 10
55.59402799269852
 20
10.69096077100188
 30
0.0
 10
55.61698659757049
 20
10.65854545661394
 30
0.0
 10
55.64167104774114
 20
10.62744431853753
 30
0.0
 10
55.66796485844677
 20
10.5977842366882
 30
0.0
 10
55.69583413493011
 20
10.5696533285081
 30
0.0
 10
55.72523705388324
 20
10.54309616355215
 30
0.0
 10
55.75608300848121
 20
10.51814415430417
 30
0.0
 10
55.78825081806501
 20
10.49492103111373
 30
0.0
 10
55.82171957158067
 20
10.47350537212487
 30
0.0
 10
55.85640688032184
 20
10.45388259742305
 30
0.0
 10
55.89218979620987
 20
10.43612750072282
 30
0.0
 10
55.92898881140094
 20
10.42035978312038
 30
0.0
 10
55.96673886230789
 20
10.40659091024731
 30
0.0
 10
56.00536009054091
 20
10.39480927598974
 30
0.0
 10
56.04465888223312
 20
10.38511714457353
 30
0.0
 10
56.08452100239075
 20
10.37762174960863
 30
0.0
 10
56.12491502543694
 20
10.37227298161313
 30
0.0
 10
56.1658972498522
 20
10.36906077228362
 30
0.0
 10
56.19343195063519
 20
10.36834376399077
 30
0.0
 10
56.20727774216664
 20
10.36833500926285
 30
0.0
 11
55.47028574216665
 21
11.11216300926286
 31
0.0
 11
55.47113574216665
 21
11.07049800926285
 31
0.0
 11
55.47410974216665
 21
11.02941900926281
 31
0.0
 11
55.47920874216663
 21
10.98892600926285
 31
0.0
 11
55.48644174216657
 21
10.94899700926281
 31
0.0
 11
55.49586874216664
 21
10.90948800926286
 31
0.0
 11
55.50739974216661
 21
10.87061700926284
 31
0.0
 11
55.52090874216663
 21
10.83268000926284
 31
0.0
 11
55.53636674216659
 21
10.79578300926283
 31
0.0
 11
55.55386074216666
 21
10.75973500926284
 31
0.0
 11
55.5732387421666
 21
10.72477600926281
 31
0.0
 11
55.59434074216665
 21
10.69116000926283
 31
0.0
 11
55.61725974216665
 21
10.65878400926282
 31
0.0
 11
55.64196874216668
 21
10.62765000926287
 31
0.0
 11
55.66827474216665
 21
10.59798800926283
 31
0.0
 11
55.69604474216657
 21
10.56995800926283
 31
0.0
 11
55.72544974216658
 21
10.54338800926284
 31
0.0
 11
55.7563287421666
 21
10.51841300926286
 31
0.0
 11
55.78845674216665
 21
10.49522900926284
 31
0.0
 11
55.82182974216664
 21
10.47386000926285
 31
0.0
 11
55.85655074216663
 21
10.45421500926283
 31
0.0
 11
55.89236874216657
 21
10.43645400926282
 31
0.0
 11
55.92904474216664
 21
10.42073300926283
 31
0.0
 11
55.96676874216665
 21
10.40696100926282
 31
0.0
 11
56.0054367421667
 21
10.39516800926286
 31
0.0
 11
56.04475274216657
 21
10.38548300926282
 31
0.0
 11
56.08450274216671
 21
10.37799600926285
 31
0.0
 11
56.12482974216664
 21
10.37264800926283
 31
0.0
 11
56.16575474216666
 21
10.36942800926283
 31
0.0
 11
56.20727774216664
 21
10.36833500926285
 31
0.0
  0
SPLINE
  5
1C89
330
1F
100
AcDbEntity
  8
CUT
100
AcDbSpline
210
0.0
220
0.0
230
1.0
 70
     8
 71
     3
 72
    36
 73
    32
 74
    30
 42
0.0000000001
 43
0.0000000001
 44
0.0000000001
 12
0.999999784076029
 22
0.0006571513487782
 32
0.0
 13
-0.0051300891544674
 23
0.9999868410060541
 33
0.0
 40
0.0
 40
0.0
 40
0.0
 40
0.0
 40
0.0415383825515309
 40
0.0825908596509977
 40
0.1232710603633126
 40
0.1637208093983955
 40
0.2042133406232898
 40
0.2446415949636824
 40
0.2848021621159471
 40
0.3247072377079782
 40
0.3646883508114882
 40
0.4045829945622291
 40
0.4442116966480622
 40
0.483832611150315
 40
0.5235472364161263
 40
0.5631789417289083
 40
0.6026359284359027
 40
0.6422824490147173
 40
0.6820291264858965
 40
0.7216959768523605
 40
0.7613841765722001
 40
0.8013541629369617
 40
0.8414214969885559
 40
0.8814244176944228
 40
0.9216926469701267
 40
0.9622376286694402
 40
1.002853775433996
 40
1.043431620041652
 40
1.084243280973279
 40
1.125429794748987
 40
1.167102464401921
 40
1.167102464401921
 40
1.167102464401921
 40
1.167102464401921
 10
56.84326574216663
 20
10.36782800926282
 30
0.0
 10
56.8571118666941
 20
10.3678371082642
 30
0.0
 10
56.88464720972798
 20
10.36855377251448
 30
0.0
 10
56.92563025096372
 20
10.37176545765037
 30
0.0
 10
56.9660245522269
 20
10.37711664166281
 30
0.0
 10
57.00588791305957
 20
10.38460932909783
 30
0.0
 10
57.04518746563502
 20
10.39430395071271
 30
0.0
 10
57.08381053628655
 20
10.40608443739936
 30
0.0
 10
57.12156190414873
 20
10.41985465479735
 30
0.0
 10
57.15836146790635
 20
10.43562471221378
 30
0.0
 10
57.19414561304937
 20
10.45338058021319
 30
0.0
 10
57.22883379529257
 20
10.47300406353895
 30
0.0
 10
57.26230273445633
 20
10.49442143849635
 30
0.0
 10
57.29447132686915
 20
10.51764450527899
 30
0.0
 10
57.32531653668559
 20
10.54259850419254
 30
0.0
 10
57.3547189642574
 20
10.56915637832351
 30
0.0
 10
57.3825891523578
 20
10.59728681823075
 30
0.0
 10
57.40888048974074
 20
10.62694872140878
 30
0.0
 10
57.43356695104084
 20
10.65804785418698
 30
0.0
 10
57.45652126406579
 20
10.69046486355122
 30
0.0
 10
57.47766864444897
 20
10.72417607734354
 30
0.0
 10
57.49702237177479
 20
10.75909961543987
 30
0.0
 10
57.51450920294153
 20
10.79511198898517
 30
0.0
 10
57.53001174515991
 20
10.83213031581595
 30
0.0
 10
57.54351634747052
 20
10.87009134967419
 30
0.0
 10
57.55503389442546
 20
10.90891448618661
 30
0.0
 10
57.5644687395578
 20
10.94840324779653
 30
0.0
 10
57.5717086463895
 20
10.98844291623073
 30
0.0
 10
57.57680706510774
 20
11.0290019575416
 30
0.0
 10
57.57977301146561
 20
11.07013688396027
 30
0.0
 10
57.58032900367016
 20
11.09776530216866
 30
0.0
 10
57.58025774216662
 20
11.11165600926284
 30
0.0
 11
56.84326574216663
 21
10.36782800926282
 31
0.0
 11
56.88478974216661
 21
10.36892100926285
 31
0.0
 11
56.92571574216663
 21
10.37214100926286
 31
0.0
 11
56.96604274216657
 21
10.37749000926281
 31
0.0
 11
57.00579374216657
 21
10.38497600926284
 31
0.0
 11
57.04511074216656
 21
10.39466200926284
 31
0.0
 11
57.08378074216671
 21
10.40645500926284
 31
0.0
 11
57.12150574216661
 21
10.42022800926281
 31
0.0
 11
57.15818274216667
 21
10.43595100926284
 31
0.0
 11
57.19400174216661
 21
10.45371300926284
 31
0.0
 11
57.2287237421666
 21
10.47335900926282
 31
0.0
 11
57.26209674216669
 21
10.49472900926285
 31
0.0
 11
57.29422574216664
 21
10.51791400926282
 31
0.0
 11
57.32510374216667
 21
10.54289000926286
 31
0.0
 11
57.35450874216667
 21
10.56946100926284
 31
0.0
 11
57.3822787421666
 21
10.59749100926284
 31
0.0
 11
57.40858374216668
 21
10.62715400926288
 31
0.0
 11
57.4332927421667
 21
10.65828700926283
 31
0.0
 11
57.4562097421666
 21
10.69066400926283
 31
0.0
 11
57.47731074216665
 21
10.72427800926283
 31
0.0
 11
57.49668774216662
 21
10.75923700926284
 31
0.0
 11
57.51418074216667
 21
10.79528400926283
 31
0.0
 11
57.52963774216664
 21
10.83218000926285
 31
0.0
 11
57.54314574216664
 21
10.87011500926285
 31
0.0
 11
57.55467574216663
 21
10.90898600926283
 31
0.0
 11
57.56410274216659
 21
10.94849300926284
 31
0.0
 11
57.57133574216664
 21
10.98842100926286
 31
0.0
 11
57.57643374216661
 21
11.02891300926285
 31
0.0
 11
57.5794077421666
 21
11.06999200926281
 31
0.0
 11
57.58025774216662
 21
11.11165600926284
 31
0.0
  0
LINE
  5
1C8A
330
1F
100
AcDbEntity
  8
1
100
AcDbLine
 10
48.85000000000001
 20
5.792303680399983
 30
0.0
 11
48.85000000000001
 21
15.75300561540001
 31
0.0
  0
ARC
  5
1C8B
330
1F
100
AcDbEntity
  8
1
100
AcDbCircle
 10
47.8499999999999
 20
11.5
 30
0.0
 40
1.0
100
AcDbArc
 50
270.0
 51
0.000000000000007
  0
SPLINE
  5
1C8C
330
1F
100
AcDbEntity
  8
CUT
100
AcDbSpline
210
0.0
220
0.0
230
1.0
 70
     8
 71
     3
 72
    36
 73
    32
 74
    30
 42
0.0000000001
 43
0.0000000001
 44
0.0000000001
 12
0.0114986672126416
 22
-0.9999338881407775
 32
0.0
 13
0.9998797499888921
 23
-0.0155075969173384
 33
0.0
 40
0.0
 40
0.0
 40
0.0
 40
0.0
 40
0.0411927592787638
 40
0.0819669070319769
 40
0.1224352203894827
 40
0.1627410096758491
 40
0.2031547848026376
 40
0.2435664140818603
 40
0.2837721610342753
 40
0.3237781922045722
 40
0.3639150337344609
 40
0.404013669683889
 40
0.4438862393276925
 40
0.4837900168431214
 40
0.5238197512538971
 40
0.5637883954640636
 40
0.6036001029381311
 40
0.6436133447088581
 40
0.6837295764610732
 40
0.7237610991026337
 40
0.7638022436042416
 40
0.8041077211475895
 40
0.8444870842554903
 40
0.8847660373824776
 40
0.9252743916441971
 40
0.9660149388423747
 40
1.006777837917302
 40
1.04744467724624
 40
1.088287734734677
 40
1.129442803243902
 40
1.171021530220496
 40
1.171021530220496
 40
1.171021530220496
 40
1.171021530220496
 10
48.11681274216664
 20
11.17261400926281
 30
0.0
 10
48.11697062944348
 20
11.15888399727985
 30
0.0
 10
48.11798578009444
 20
11.1315660574865
 30
0.0
 10
48.1216358721813
 20
11.09089962263618
 30
0.0
 10
48.12740820934267
 20
11.05077707043818
 30
0.0
 10
48.13531413232453
 20
11.01114159822433
 30
0.0
 10
48.145405070921
 20
10.97202477606891
 30
0.0
 10
48.15756896074518
 20
10.93353876219783
 30
0.0
 10
48.17170503752883
 20
10.89587738415137
 30
0.0
 10
48.18782318656227
 20
10.85911981956632
 30
0.0
 10
48.20590834910056
 20
10.82332964997243
 30
0.0
 10
48.22584371529852
 20
10.78858856935185
 30
0.0
 10
48.24754993883036
 20
10.75501688224029
 30
0.0
 10
48.27104394539929
 20
10.72269923753462
 30
0.0
 10
48.29624511705774
 20
10.69165455681448
 30
0.0
 10
48.32302869037404
 20
10.66200508841472
 30
0.0
 10
48.35136386723775
 20
10.63384194140503
 30
0.0
 10
48.38120512631862
 20
10.60720674486968
 30
0.0
 10
48.41246163327785
 20
10.5821307830483
 30
0.0
 10
48.44501276944834
 20
10.55874237786029
 30
0.0
 10
48.47883364795688
 20
10.53711414875657
 30
0.0
 10
48.51384343207528
 20
10.51723460026344
 30
0.0
 10
48.54991789919488
 20
10.49917978358453
 30
0.0
 10
48.5869753278359
 20
10.48306797150792
 30
0.0
 10
48.62495154287334
 20
10.46891440652424
 30
0.0
 10
48.66376622713903
 20
10.45670753605705
 30
0.0
 10
48.70322299662442
 20
10.44654993002938
 30
0.0
 10
48.74320855354156
 20
10.43855335474622
 30
0.0
 10
48.78369003171615
 20
10.43266606645752
 30
0.0
 10
48.82472562525513
 20
10.42887908615476
 30
0.0
 10
48.85229483312187
 20
10.42775793797563
 30
0.0
 10
48.8661527421666
 20
10.42754300926286
 30
0.0
 11
48.11681274216664
 21
11.17261400926281
 31
0.0
 11
48.11835174216661
 21
11.13145000926283
 31
0.0
 11
48.1220067421666
 21
11.09084000926282
 31
0.0
 11
48.12777574216671
 21
11.05078500926282
 31
0.0
 11
48.13567074216667
 21
11.01126000926285
 31
0.0
 11
48.14575274216668
 21
10.97212400926286
 31
0.0
 11
48.15792774216664
 21
10.93359000926284
 31
0.0
 11
48.17206574216664
 21
10.89595200926281
 31
0.0
 11
48.18813474216665
 21
10.85931500926283
 31
0.0
 11
48.20622674216656
 21
10.82348700926285
 31
0.0
 11
48.22618474216665
 21
10.78870800926284
 31
0.0
 11
48.24784374216665
 21
10.75523100926284
 31
0.0
 11
48.27129974216665
 21
10.72294900926282
 31
0.0
 11
48.29652574216663
 21
10.69186800926286
 31
0.0
 11
48.32332374216662
 21
10.66221400926286
 31
0.0
 11
48.35155974216661
 21
10.63414800926284
 31
0.0
 11
48.38140574216663
 21
10.60749700926282
 31
0.0
 11
48.41269874216663
 21
10.58239600926286
 31
0.0
 11
48.44521274216663
 21
10.55904300926282
 31
0.0
 11
48.47893974216663
 21
10.53746100926286
 31
0.0
 11
48.5139877421666
 21
10.51755700926287
 31
0.0
 11
48.55010174216658
 21
10.49949400926283
 31
0.0
 11
48.58703874216667
 21
10.48343000926285
 31
0.0
 11
48.62499274216657
 21
10.46927300926283
 31
0.0
 11
48.66385774216666
 21
10.45705400926282
 31
0.0
 11
48.70333674216658
 21
10.44690400926288
 31
0.0
 11
48.74321174216664
 21
10.43891800926286
 31
0.0
 11
48.78362874216668
 21
10.43303400926282
 31
0.0
 11
48.82460874216667
 21
10.42924200926284
 31
0.0
 11
48.8661527421666
 21
10.42754300926286
 31
0.0
  0
ELLIPSE
  5
1C8D
330
1F
100
AcDbEntity
  8
1
100
AcDbEllipse
 10
56.7701032417499
 20
0.0
 30
0.0
 11
-166.5414375965999
 21
0.0
 31
0.0
210
0.0
220
0.0
230
-1.0
 40
0.1139356083
 41
1.52622893684983
 42
1.6124189896
  0
ARC
  5
1C8E
330
1F
100
AcDbEntity
  8
CUT
100
AcDbCircle
 10
52.77589467840663
 20
1550.216652594182
 30
0.0
 40
1530.351623837099
100
AcDbArc
 50
269.8506771228986
 51
270.1493375209009
  0
SPLINE
  5
1C8F
330
1F
100
AcDbEntity
  8
CUT
100
AcDbSpline
210
0.0
220
0.0
230
1.0
 70
     8
 71
     3
 72
    36
 73
    32
 74
    30
 42
0.0000000001
 43
0.0000000001
 44
0.0000000001
 12
0.0114390484494289
 22
0.9999345719448706
 32
0.0
 13
0.9999998362985131
 23
0.0005721913550729
 33
0.0
 40
0.0
 40
0.0
 40
0.0
 40
0.0
 40
0.0417813907020563
 40
0.0831072495799798
 40
0.1240884797835719
 40
0.1648648854736545
 40
0.2057107108173064
 40
0.2465109124956775
 40
0.2870594890428282
 40
0.3273602124233621
 40
0.3677471921074424
 40
0.4080515593646873
 40
0.4480851680452997
 40
0.4881057546726818
 40
0.5282124059414995
 40
0.5682210581308414
 40
0.6080362864863013
 40
0.6480209007773228
 40
0.6880816615912845
 40
0.7280337665797088
 40
0.7679768809800686
 40
0.8081692755342512
 40
0.8484241509408212
 40
0.8885774743399947
 40
0.9289593737133479
 40
0.9695788358713826
 40
1.01023081103857
 40
1.05080525363492
 40
1.091574470956256
 40
1.132682013938041
 40
1.174239363624996
 40
1.174239363624996
 40
1.174239363624996
 40
1.174239363624996
 10
55.53655674216656
 20
19.12567100926287
 30
0.0
 10
55.53671605528407
 20
19.13959722827184
 30
0.0
 10
55.53773013519498
 20
19.16729529148721
 30
0.0
 10
55.54137716916328
 20
19.20851514096573
 30
0.0
 10
55.54715057779059
 20
19.24915432236652
 30
0.0
 10
55.55505343249912
 20
19.28927128434328
 30
0.0
 10
55.56514286653265
 20
19.32883285064468
 30
0.0
 10
55.57730716954778
 20
19.36772528750177
 30
0.0
 10
55.59144155130477
 20
19.40575245490931
 30
0.0
 10
55.60755718340419
 20
19.44283417676517
 30
0.0
 10
55.62564212665087
 20
19.47890479869863
 30
0.0
 10
55.64557598513708
 20
19.51388397203822
 30
0.0
 10
55.6672829884917
 20
19.54764737639676
 30
0.0
 10
55.69077537742314
 20
19.58011277738785
 30
0.0
 10
55.71597693107779
 20
19.61125812582081
 30
0.0
 10
55.7427616491427
 20
19.64096131182391
 30
0.0
 10
55.7710957907708
 20
19.66913339361414
 30
0.0
 10
55.80093866345406
 20
19.69572753289785
 30
0.0
 10
55.83219765845335
 20
19.72071411705813
 30
0.0
 10
55.86474828881621
 20
19.74397125096051
 30
0.0
 10
55.89857296693876
 20
19.76541466132829
 30
0.0
 10
55.93358339593613
 20
19.78506698750898
 30
0.0
 10
55.96966102860584
 20
19.80284510153609
 30
0.0
 10
56.00672038446969
 20
19.81863689543359
 30
0.0
 10
56.0446994299382
 20
19.83242478481994
 30
0.0
 10
56.08351631924966
 20
19.84422246309049
 30
0.0
 10
56.12297560024767
 20
19.85393038191098
 30
0.0
 10
56.16296327702532
 20
19.86143432570253
 30
0.0
 10
56.20344701591181
 20
19.86679217801387
 30
0.0
 10
56.2444842188452
 20
19.87000795790594
 30
0.0
 10
56.27204429453866
 20
19.87072508301075
 30
0.0
 10
56.28589674216664
 20
19.87073300926282
 30
0.0
 11
55.53655674216656
 21
19.12567100926287
 31
0.0
 11
55.53809674216665
 21
19.16742400926284
 31
0.0
 11
55.54175074216664
 21
19.20858800926281
 31
0.0
 11
55.54752074216661
 21
19.24916100926282
 31
0.0
 11
55.55541474216671
 21
19.28916600926283
 31
0.0
 11
55.56549674216672
 21
19.32874800926287
 31
0.0
 11
55.57767274216667
 21
19.36768900926283
 31
0.0
 11
55.59181074216667
 21
19.40569300926284
 31
0.0
 11
55.60787874216657
 21
19.4426520092628
 31
0.0
 11
55.62597074216661
 21
19.47876000926282
 31
0.0
 11
55.64592874216669
 21
19.51377600926287
 31
0.0
 11
55.66758874216656
 21
19.54744400926283
 31
0.0
 11
55.69104374216657
 21
19.57987100926282
 31
0.0
 11
55.71626974216655
 21
19.61105100926283
 31
0.0
 11
55.74306874216666
 21
19.64075800926286
 31
0.0
 11
55.77130374216665
 21
19.66883000926282
 31
0.0
 11
55.80114974216667
 21
19.69543800926283
 31
0.0
 11
55.83244374216657
 21
19.72044900926283
 31
0.0
 11
55.86495674216667
 21
19.74366700926282
 31
0.0
 11
55.89868474216665
 21
19.76506500926285
 31
0.0
 11
55.93373274216663
 21
19.78473900926286
 31
0.0
 11
55.96984574216661
 21
19.80252400926286
 31
0.0
 11
56.00678374216659
 21
19.81826800926285
 31
0.0
 11
56.04473774216661
 21
19.83205900926282
 31
0.0
 11
56.0836027421667
 21
19.84386800926285
 31
0.0
 11
56.12308074216661
 21
19.85356700926286
 31
0.0
 11
56.16295674216667
 21
19.86106300926286
 31
0.0
 11
56.20337274216661
 21
19.8664180092628
 31
0.0
 11
56.24435374216659
 21
19.86964100926286
 31
0.0
 11
56.28589674216664
 21
19.87073300926282
 31
0.0
  0
SPLINE
  5
1C90
330
1F
100
AcDbEntity
  8
CUT
100
AcDbSpline
210
0.0
220
0.0
230
1.0
 70
     8
 71
     3
 72
    36
 73
    32
 74
    30
 42
0.0000000001
 43
0.0000000001
 44
0.0000000001
 12
-0.0114405684452279
 22
0.9999345545552721
 32
0.0
 13
-0.9999998387408254
 23
0.0005679069671614
 33
0.0
 40
0.0
 40
0.0
 40
0.0
 40
0.0
 40
0.0417813907021172
 40
0.0831072495800423
 40
0.1240884797836234
 40
0.1648658665562236
 40
0.2057107228419275
 40
0.2465106261015664
 40
0.2870592026486799
 40
0.3273603247422719
 40
0.3677473044263428
 40
0.4080516716835298
 40
0.4480852803641542
 40
0.4881058669915796
 40
0.5282125182604116
 40
0.5682205006264806
 40
0.6080364381389877
 40
0.6480210524300063
 40
0.6880818132439614
 40
0.7280339182323992
 40
0.7679761882354733
 40
0.8081694547983804
 40
0.8484243302049698
 40
0.8885776536041603
 40
0.9289595529776246
 40
0.9695790151355389
 40
1.010230990302722
 40
1.050805432899065
 40
1.091574650220402
 40
1.13268119628072
 40
1.174239545622263
 40
1.174239545622263
 40
1.174239545622263
 40
1.174239545622263
 10
57.5139867421667
 20
19.12516500926284
 30
0.0
 10
57.51382740788002
 20
19.13909122802964
 30
0.0
 10
57.51281334916162
 20
19.16678928939323
 30
0.0
 10
57.50916634601191
 20
19.20800914853704
 30
0.0
 10
57.50339273847455
 20
19.24864861838288
 30
0.0
 10
57.49549043483693
 20
19.28876571153523
 30
0.0
 10
57.4854001365037
 20
19.32832694417581
 30
0.0
 10
57.47323755616495
 20
19.36721945515042
 30
0.0
 10
57.45910309887077
 20
19.40524668390106
 30
0.0
 10
57.44298607601308
 20
19.44232793108503
 30
0.0
 10
57.42490143263051
 20
19.47839883153356
 30
0.0
 10
57.40496748373224
 20
19.51337796741853
 30
0.0
 10
57.38326048349483
 20
19.54714136243436
 30
0.0
 10
57.35976817177877
 20
19.57960683790667
 30
0.0
 10
57.33456644629917
 20
19.61075172374758
 30
0.0
 10
57.30778290095987
 20
19.64045600848464
 30
0.0
 10
57.27944763239321
 20
19.66862700414901
 30
0.0
 10
57.24960487649067
 20
19.69522158186833
 30
0.0
 10
57.21834584218277
 20
19.72020815430228
 30
0.0
 10
57.18579530436961
 20
19.74346489009385
 30
0.0
 10
57.15197121786848
 20
19.76490927535269
 30
0.0
 10
57.11696023017428
 20
19.78456065234213
 30
0.0
 10
57.08088248755981
 20
19.8023391567629
 30
0.0
 10
57.04382309129311
 20
19.81813088058363
 30
0.0
 10
57.00584405670361
 20
19.83191878874807
 30
0.0
 10
56.96702716449434
 20
19.84371646235932
 30
0.0
 10
56.92756788412566
 20
19.8534243808938
 30
0.0
 10
56.88758020773546
 20
19.86092833049911
 30
0.0
 10
56.84709679624844
 20
19.86628611606075
 30
0.0
 10
56.80605960368073
 20
19.86950201039605
 30
0.0
 10
56.7784995230466
 20
19.87021914217081
 30
0.0
 10
56.76464674216664
 20
19.87022700926285
 30
0.0
 11
57.5139867421667
 21
19.12516500926284
 31
0.0
 11
57.5124467421666
 21
19.16691800926287
 31
0.0
 11
57.50879274216663
 21
19.20808200926285
 31
0.0
 11
57.50302274216664
 21
19.24865500926284
 31
0.0
 11
57.49512874216656
 21
19.28866100926285
 31
0.0
 11
57.48504674216657
 21
19.32824200926285
 31
0.0
 11
57.4728717421666
 21
19.36718300926281
 31
0.0
 11
57.45873374216671
 21
19.40518700926281
 31
0.0
 11
57.4426647421667
 21
19.44214600926284
 31
0.0
 11
57.42457274216667
 21
19.47825400926285
 31
0.0
 11
57.40461474216658
 21
19.51327000926283
 31
0.0
 11
57.3829547421667
 21
19.5469380092628
 31
0.0
 11
57.35949974216669
 21
19.57936500926285
 31
0.0
 11
57.3342737421667
 21
19.61054500926286
 31
0.0
 11
57.3074757421666
 21
19.64025200926282
 31
0.0
 11
57.27923974216661
 21
19.66832400926284
 31
0.0
 11
57.2493937421666
 21
19.69493200926285
 31
0.0
 11
57.21809974216672
 21
19.71994300926286
 31
0.0
 11
57.1855867421666
 21
19.74316100926285
 31
0.0
 11
57.15185974216661
 21
19.76455900926281
 31
0.0
 11
57.11681074216666
 21
19.78423300926282
 31
0.0
 11
57.08069774216665
 21
19.80201800926282
 31
0.0
 11
57.04375974216667
 21
19.81776200926288
 31
0.0
 11
57.00580574216655
 21
19.83155300926284
 31
0.0
 11
56.96694074216656
 21
19.8433620092628
 31
0.0
 11
56.92746274216665
 21
19.85306100926282
 31
0.0
 11
56.88758674216661
 21
19.86055700926283
 31
0.0
 11
56.84717074216667
 21
19.86591200926284
 31
0.0
 11
56.80619074216656
 21
19.86913500926283
 31
0.0
 11
56.76464674216664
 21
19.87022700926285
 31
0.0
  0
SPLINE
  5
1C91
330
1F
100
AcDbEntity
  8
1
100
AcDbSpline
210
0.0
220
0.0
230
1.0
 70
     8
 71
     3
 72
    11
 73
     7
 74
     5
 42
0.0000000001
 43
0.0000000001
 44
0.0000000001
 12
0.0
 22
1.0
 32
0.0
 13
0.999928354366842
 23
-0.0119702185953032
 33
0.0
 40
0.0
 40
0.0
 40
0.0
 40
0.0
 40
0.1954775869757037
 40
0.3905506529887385
 40
0.5851396179157709
 40
0.7794548466912714
 40
0.7794548466912714
 40
0.7794548466912714
 40
0.7794548466912714
 10
48.85024290540297
 20
18.45939118795223
 30
0.0
 10
48.85024290540297
 20
18.52455038361079
 30
0.0
 10
48.87603103476815
 20
18.65619932763366
 30
0.0
 10
48.98744822162043
 20
18.82238493774718
 30
0.0
 10
49.15406208120398
 20
18.93251598311613
 30
0.0
 10
49.28547580309032
 20
18.95693388242387
 30
0.0
 10
49.35024290540297
 20
18.95615855050226
 30
0.0
 11
48.85024290540297
 21
18.45939118795223
 31
0.0
 11
48.8882271964029
 21
18.65114279980224
 31
0.0
 11
48.99680787515297
 21
18.81320370590207
 31
0.0
 11
49.15926136405301
 21
18.92031920065226
 31
0.0
 11
49.35024290540297
 21
18.95615855050226
 31
0.0
  0
SPLINE
  5
1C92
330
1F
100
AcDbEntity
  8
CUT
100
AcDbSpline
210
0.0
220
0.0
230
1.0
 70
     8
 71
     3
 72
    36
 73
    32
 74
    30
 42
0.0000000001
 43
0.0000000001
 44
0.0000000001
 12
-0.0051746941439006
 22
0.9999866111806284
 32
0.0
 13
0.9999998520832408
 23
0.0005439057793059
 33
0.0
 40
0.0
 40
0.0
 40
0.0
 40
0.0
 40
0.0415856673626942
 40
0.0826814192112388
 40
0.1234029196993527
 40
0.1638902409863816
 40
0.2044151932134072
 40
0.2448693912279007
 40
0.2850512992214687
 40
0.3249693811517909
 40
0.3649562025433191
 40
0.4048484674828194
 40
0.4444652347032318
 40
0.4840649463183821
 40
0.5237496147559697
 40
0.5633399697050903
 40
0.6027465501327668
 40
0.6423320276339807
 40
0.6820078415513179
 40
0.7215940324895144
 40
0.761192798126843
 40
0.8010643178496387
 40
0.8410245537097617
 40
0.880913752761597
 40
0.9210633568194214
 40
0.9614818300711823
 40
1.001968133335363
 40
1.042413941523632
 40
1.083091443560936
 40
1.124142297011266
 40
1.165680548298472
 40
1.165680548298472
 40
1.165680548298472
 40
1.165680548298472
 10
48.0505417421666
 20
19.12820200926285
 30
0.0
 10
48.05047001113015
 20
19.14206371278942
 30
0.0
 10
48.05102519711498
 20
19.16963291848386
 30
0.0
 10
48.05399109547747
 20
19.21067838979206
 30
0.0
 10
48.05909118474264
 20
19.25114605400689
 30
0.0
 10
48.06633031304857
 20
19.29109380926682
 30
0.0
 10
48.07576665728794
 20
19.33048890726017
 30
0.0
 10
48.08728576315762
 20
19.36921830905426
 30
0.0
 10
48.10079106834187
 20
19.40708643901497
 30
0.0
 10
48.11629411145363
 20
19.44401360639599
 30
0.0
 10
48.13378125402767
 20
19.47993583476599
 30
0.0
 10
48.15313880725485
 20
19.51476970311886
 30
0.0
 10
48.17428620278654
 20
19.54839574059464
 30
0.0
 10
48.19724219945323
 20
19.58072963051204
 30
0.0
 10
48.22192973179675
 20
19.61174899756669
 30
0.0
 10
48.24822257039311
 20
19.64133436965649
 30
0.0
 10
48.27609191569277
 20
19.66939386683787
 30
0.0
 10
48.30549570722951
 20
19.69588283249099
 30
0.0
 10
48.33634117680768
 20
19.7207728179631
 30
0.0
 10
48.36850858200208
 20
19.74393849418561
 30
0.0
 10
48.40197765315824
 20
19.76530120967626
 30
0.0
 10
48.43666417224383
 20
19.78487731358499
 30
0.0
 10
48.47244708162715
 20
19.8025906281038
 30
0.0
 10
48.50924576911754
 20
19.81832211511055
 30
0.0
 10
48.5469958861343
 20
19.8320597666942
 30
0.0
 10
48.58561752773147
 20
19.84381387578561
 30
0.0
 10
48.62491574655135
 20
19.8534856392406
 30
0.0
 10
48.66477749409736
 20
19.86096326485534
 30
0.0
 10
48.7051708109114
 20
19.86630048324411
 30
0.0
 10
48.74615283285521
 20
19.86950474715329
 30
0.0
 10
48.77368766045226
 20
19.87021847829788
 30
0.0
 10
48.7875337421666
 20
19.87022600926286
 30
0.0
 11
48.0505417421666
 21
19.12820200926285
 31
0.0
 11
48.05139074216663
 21
19.16977900926286
 31
0.0
 11
48.05436474216661
 21
19.21076700926282
 31
0.0
 11
48.05946374216659
 21
19.25116800926287
 31
0.0
 11
48.06669674216664
 21
19.29100400926285
 31
0.0
 11
48.07612474216671
 21
19.33041700926287
 31
0.0
 11
48.0876557421666
 21
19.36919300926285
 31
0.0
 11
48.1011647421667
 21
19.40703600926286
 31
0.0
 11
48.11662174216667
 21
19.44384000926281
 31
0.0
 11
48.13411574216662
 21
19.47979700926281
 31
0.0
 11
48.15349474216668
 21
19.51466600926282
 31
0.0
 11
48.1745967421666
 21
19.54819500926282
 31
0.0
 11
48.19751474216662
 21
19.58048900926286
 31
0.0
 11
48.22222474216665
 21
19.61154200926285
 31
0.0
 11
48.24853074216662
 21
19.64112900926284
 31
0.0
 11
48.27630074216665
 21
19.66908800926285
 31
0.0
 11
48.30570574216665
 21
19.69559000926284
 31
0.0
 11
48.33658474216668
 21
19.72050300926287
 31
0.0
 11
48.36871274216662
 21
19.74363000926286
 31
0.0
 11
48.40208474216661
 21
19.76494600926287
 31
0.0
 11
48.4368067421667
 21
19.78454500926283
 31
0.0
 11
48.47262374216665
 21
19.80226400926284
 31
0.0
 11
48.5092997421666
 21
19.81794900926286
 31
0.0
 11
48.54702474216662
 21
19.83169000926284
 31
0.0
 11
48.58569274216665
 21
19.84345600926285
 31
0.0
 11
48.62500874216664
 21
19.85312000926285
 31
0.0
 11
48.66475874216667
 21
19.86059000926286
 31
0.0
 11
48.7050847421666
 21
19.86592600926286
 31
0.0
 11
48.74600974216662
 21
19.86913800926282
 31
0.0
 11
48.7875337421666
 21
19.87022600926286
 31
0.0
  0
LINE
  5
1C93
330
1F
100
AcDbEntity
  8
1
100
AcDbLine
 10
0.0
 20
24.0
 30
0.0
 11
0.0
 21
-24.0
 31
0.0
  0
LINE
  5
1C94
330
1F
100
AcDbEntity
  8
1
100
AcDbLine
 10
0.5
 20
24.5
 30
0.0
 11
0.5
 21
-24.5
 31
0.0
  0
LINE
  5
1C95
330
1F
100
AcDbEntity
  8
1
100
AcDbLine
 10
10.56132704600008
 20
-24.07071067815001
 30
0.0
 11
10.56132704600008
 21
24.07071067809994
 31
0.0
  0
LINE
  5
1C96
330
1F
100
AcDbEntity
  8
1
100
AcDbLine
 10
12.13203772409997
 20
-13.07573593130001
 30
0.0
 11
12.13203772409997
 21
13.07573593124999
 31
0.0
  0
LINE
  5
1C97
330
1F
100
AcDbEntity
  8
1
100
AcDbLine
 10
15.10188620509984
 20
-10.5
 30
0.0
 11
15.10188620509984
 21
10.5
 31
0.0
  0
LINE
  5
1C98
330
1F
100
AcDbEntity
  8
SK1
100
AcDbLine
 10
-2.84000000000003
 20
12.0
 30
0.0
 11
-2.84000000000003
 21
-12.0
 31
0.0
  0
LINE
  5
1C99
330
1F
100
AcDbEntity
  8
SK1
100
AcDbLine
 10
-1.720384757700003
 20
11.69999999999998
 30
0.0
 11
-1.720384757700003
 21
-11.70000000000003
 31
0.0
  0
LINE
  5
1C9A
330
1F
100
AcDbEntity
  8
SK1
100
AcDbLine
 10
-0.400000000000091
 20
11.69999999999998
 30
0.0
 11
-0.400000000000091
 21
-11.70000000000003
 31
0.0
  0
LINE
  5
1C9B
330
1F
100
AcDbEntity
  8
1
100
AcDbLine
 10
12.13203772409997
 20
-13.07573593130001
 30
0.0
 11
10.56132704600008
 21
-24.07071067815001
 31
0.0
  0
LINE
  5
1C9C
330
1F
100
AcDbEntity
  8
1
100
AcDbLine
 10
10.0663522991499
 20
-24.5
 30
0.0
 11
0.5
 21
-24.5
 31
0.0
  0
ARC
  5
1C9D
330
1F
100
AcDbEntity
  8
1
100
AcDbCircle
 10
10.0663522991499
 20
-24.0
 30
0.0
 40
0.5
100
AcDbArc
 50
270.0
 51
351.8698976458999
  0
LINE
  5
1C9E
330
1F
100
AcDbEntity
  8
1
100
AcDbLine
 10
0.5
 20
-24.5
 30
0.0
 11
0.0
 21
-24.0
 31
0.0
  0
ARC
  5
1C9F
330
1F
100
AcDbEntity
  8
1
100
AcDbCircle
 10
15.10188620509984
 20
-13.5
 30
0.0
 40
3.0
100
AcDbArc
 50
90.0
 51
171.8698976458
  0
ARC
  5
1CA0
330
1F
100
AcDbEntity
  8
SK1
100
AcDbCircle
 10
-0.400000000000091
 20
-12.30000000000001
 30
0.0
 40
0.6
100
AcDbArc
 50
48.03308282329997
 51
90.0
  0
LINE
  5
1CA1
330
1F
100
AcDbEntity
  8
SK1
100
AcDbLine
 10
-1.720384757700003
 20
-11.70000000000003
 30
0.0
 11
-2.84000000000003
 21
-12.0
 31
0.0
  0
LINE
  5
1CA2
330
1F
100
AcDbEntity
  8
SK1
100
AcDbLine
 10
-0.400000000000091
 20
-11.70000000000003
 30
0.0
 11
-1.720384757700003
 21
-11.70000000000003
 31
0.0
  0
LINE
  5
1CA3
330
1F
100
AcDbEntity
  8
1
100
AcDbLine
 10
12.13203772409997
 20
13.07573593124999
 30
0.0
 11
10.56132704600008
 21
24.07071067809994
 31
0.0
  0
ARC
  5
1CA4
330
1F
100
AcDbEntity
  8
1
100
AcDbCircle
 10
15.10188620509984
 20
13.5
 30
0.0
 40
3.0
100
AcDbArc
 50
188.1301023542
 51
270.0
  0
ARC
  5
1CA5
330
1F
100
AcDbEntity
  8
SK1
100
AcDbCircle
 10
-0.400000000000091
 20
12.29999999999995
 30
0.0
 40
0.6
100
AcDbArc
 50
270.0
 51
311.9669171767
  0
LINE
  5
1CA6
330
1F
100
AcDbEntity
  8
SK1
100
AcDbLine
 10
-0.400000000000091
 20
11.69999999999998
 30
0.0
 11
-1.720384757700003
 21
11.69999999999998
 31
0.0
  0
LINE
  5
1CA7
330
1F
100
AcDbEntity
  8
SK1
100
AcDbLine
 10
-1.720384757700003
 20
11.69999999999998
 30
0.0
 11
-2.84000000000003
 21
12.0
 31
0.0
  0
LINE
  5
1CA8
330
1F
100
AcDbEntity
  8
1
100
AcDbLine
 10
10.0663522991499
 20
24.5
 30
0.0
 11
0.5
 21
24.5
 31
0.0
  0
ARC
  5
1CA9
330
1F
100
AcDbEntity
  8
1
100
AcDbCircle
 10
10.0663522991499
 20
24.0
 30
0.0
 40
0.5
100
AcDbArc
 50
8.130102354099987
 51
90.0
  0
LINE
  5
1CAA
330
1F
100
AcDbEntity
  8
1
100
AcDbLine
 10
0.5
 20
24.5
 30
0.0
 11
0.0
 21
24.0
 31
0.0
  0
LINE
  5
1CAB
330
1F
100
AcDbEntity
  8
SK1
100
AcDbLine
 10
-35.0
 20
11.0
 30
0.0
 11
-35.0
 21
-11.0
 31
0.0
  0
LINE
  5
1CAC
330
1F
100
AcDbEntity
  8
SK1
100
AcDbLine
 10
-33.42311205044996
 20
11.81682329399996
 30
0.0
 11
-33.42311205044996
 21
-11.81682329405002
 31
0.0
  0
LINE
  5
1CAD
330
1F
100
AcDbEntity
  8
SK1
100
AcDbLine
 10
-30.0
 20
12.0
 30
0.0
 11
-30.0
 21
-12.0
 31
0.0
  0
LINE
  5
1CAE
330
1F
100
AcDbEntity
  8
SK1
100
AcDbLine
 10
-25.05912602820012
 20
12.0
 30
0.0
 11
-25.05912602820012
 21
-12.0
 31
0.0
  0
LINE
  5
1CAF
330
1F
100
AcDbEntity
  8
SK1
100
AcDbLine
 10
-9.940873971799987
 20
9.950966536799851
 30
0.0
 11
-9.940873971799987
 21
-5.264497960950051
 31
0.0
  0
LINE
  5
1CB0
330
1F
100
AcDbEntity
  8
SK1
100
AcDbLine
 10
-25.05912602820012
 20
-12.0
 30
0.0
 11
-30.0
 21
-12.0
 31
0.0
  0
LINE
  5
1CB4
330
1F
100
AcDbEntity
  8
SK1
100
AcDbLine
 10
-9.940873971799987
 20
-3.0
 30
0.0
 11
-9.940873971799987
 21
-12.0
 31
0.0
  0
ARC
  5
1CBB
330
1F
100
AcDbEntity
  8
SK1
100
AcDbCircle
 10
-34.0
 20
-11.0
 30
0.0
 40
1.0
100
AcDbArc
 50
180.0
 51
305.2319539502999
  0
ARC
  5
1CBC
330
1F
100
AcDbEntity
  8
SK1
100
AcDbCircle
 10
-32.96160169080008
 20
-12.47028192925
 30
0.0
 40
0.8
100
AcDbArc
 50
83.55000000000002
 51
125.2319539502998
  0
LINE
  5
1CBD
330
1F
100
AcDbEntity
  8
SK1
100
AcDbLine
 10
-30.0
 20
-12.0
 30
0.0
 11
-32.87173279820013
 21
-11.67534571665014
 31
0.0
  0
ARC
  5
1CBE
330
1F
100
AcDbEntity
  8
3
100
AcDbCircle
 10
-33.5
 20
-5.0
 30
0.0
 40
2.0
100
AcDbArc
 50
90.0
 51
138.5903778906999
  0
LINE
  5
1CBF
330
1F
100
AcDbEntity
  8
3
100
AcDbLine
 10
-12.90138781885001
 20
3.0
 30
0.0
 11
-33.5
 21
3.0
 31
0.0
  0
LINE
  5
1CC0
330
1F
100
AcDbEntity
  8
SK1
100
AcDbLine
 10
-25.05912602820012
 20
12.0
 30
0.0
 11
-30.0
 21
12.0
 31
0.0
  0
LINE
  5
1CC1
330
1F
100
AcDbEntity
  8
SK1
100
AcDbLine
 10
-14.0591260282
 20
12.0
 30
0.0
 11
-20.9408739718001
 21
12.0
 31
0.0
  0
SPLINE
  5
1CC2
330
1F
100
AcDbEntity
  8
SK1
100
AcDbSpline
210
0.0
220
0.0
230
1.0
 70
     8
 71
     3
 72
    12
 73
     8
 74
     6
 42
0.0000000001
 43
0.0000000001
 44
0.0000000001
 12
0.7368832835854802
 22
-0.6760199896247751
 32
0.0
 13
-0.6501360537696676
 23
-0.7598178147350878
 33
0.0
 40
0.0
 40
0.0
 40
0.0
 40
0.0
 40
0.2327145640132109
 40
0.3402866200482922
 40
0.4468082773263634
 40
0.6723302041782757
 40
0.9352335981101294
 40
0.9352335981101294
 40
0.9352335981101294
 40
0.9352335981101294
 10
-9.940873971799987
 20
10.78355512894994
 30
0.0
 10
-9.883712814443915
 20
10.73111522990003
 30
0.0
 10
-9.809539991633311
 20
10.64053133429705
 30
0.0
 10
-9.758250571003037
 20
10.49945163441714
 30
0.0
 10
-9.741248686652511
 20
10.35251260214565
 30
0.0
 10
-9.790474130669679
 20
10.15395026727923
 30
0.0
 10
-9.883899646782152
 20
10.0175527642211
 30
0.0
 10
-9.940873971799987
 20
9.950966536799851
 30
0.0
 11
-9.940873971799987
 21
10.78355512894994
 31
0.0
 11
-9.798683558699963
 21
10.59933256049998
 31
0.0
 11
-9.76224407129996
 21
10.49812035274992
 31
0.0
 11
-9.75
 21
10.39230472919996
 31
0.0
 11
-9.798683558950074
 21
10.17210016389997
 31
0.0
 11
-9.940873971799987
 21
9.950966536799851
 31
0.0
  0
SPLINE
  5
1CC3
330
1F
100
AcDbEntity
  8
SK1
100
AcDbSpline
210
0.0
220
0.0
230
1.0
 70
     8
 71
     3
 72
     9
 73
     5
 74
     3
 42
0.0000000001
 43
0.0000000001
 44
0.0000000001
 12
-0.7039318990984392
 22
-0.7102674717538914
 32
0.0
 13
-0.7624700680457425
 23
-0.6470234890128185
 33
0.0
 40
0.0
 40
0.0
 40
0.0
 40
0.0
 40
0.0569976160177245
 40
0.2318146329638682
 40
0.2318146329638682
 40
0.2318146329638682
 40
0.2318146329638682
 10
-9.940873971799987
 20
9.950966536799851
 30
0.0
 10
-9.954248118495801
 20
9.937472019258215
 30
0.0
 10
-10.00927729589171
 20
9.88322027851813
 30
0.0
 10
-10.06672718133127
 20
9.831436621231079
 30
0.0
 10
-10.1111580956001
 20
9.793733049149976
 30
0.0
 11
-9.940873971799987
 21
9.950966536799851
 31
0.0
 11
-9.981455151900037
 21
9.910942843149824
 31
0.0
 11
-10.1111580956001
 21
9.793733049149976
 31
0.0
  0
ARC
  5
1CC4
330
1F
100
AcDbEntity
  8
SK1
100
AcDbCircle
 10
-12.0
 20
17.09999999999996
 30
0.0
 40
5.5
100
AcDbArc
 50
248.0135970027999
 51
291.9864029972001
  0
LINE
  5
1CC5
330
1F
100
AcDbEntity
  8
SK1
100
AcDbLine
 10
-9.940873971799987
 20
12.0
 30
0.0
 11
-9.940873971799987
 21
10.78355512894994
 31
0.0
  0
ARC
  5
1CC6
330
1F
100
AcDbEntity
  8
SK1
100
AcDbCircle
 10
-23.0
 20
17.09999999999996
 30
0.0
 40
5.5
100
AcDbArc
 50
248.0135970027999
 51
291.9864029972001
  0
ARC
  5
1CC7
330
1F
100
AcDbEntity
  8
3
100
AcDbCircle
 10
-33.5
 20
5.0
 30
0.0
 40
2.0
100
AcDbArc
 50
221.4096221093
 51
270.0
  0
ARC
  5
1CC8
330
1F
100
AcDbEntity
  8
SK1
100
AcDbCircle
 10
-34.0
 20
11.0
 30
0.0
 40
1.0
100
AcDbArc
 50
54.76804604970001
 51
180.0
  0
ARC
  5
1CC9
330
1F
100
AcDbEntity
  8
SK1
100
AcDbCircle
 10
-32.96160169080008
 20
12.47028192919998
 30
0.0
 40
0.8
100
AcDbArc
 50
234.7680460496999
 51
276.4500000000001
  0
LINE
  5
1CCA
330
1F
100
AcDbEntity
  8
SK1
100
AcDbLine
 10
-30.0
 20
12.0
 30
0.0
 11
-32.87173279820013
 21
11.67534571659996
 31
0.0
  0
LINE
  5
1CF5
330
1F
100
AcDbEntity
  8
SK1
100
AcDbLine
 10
-14.0591260282
 20
-12.0
 30
0.0
 11
-20.9408739718001
 21
-12.0
 31
0.0
  0
ARC
  5
1CF6
330
1F
100
AcDbEntity
  8
SK1
100
AcDbCircle
 10
-23.0
 20
-17.09999999999996
 30
0.0
 40
5.5
100
AcDbArc
 50
68.0135970027999
 51
111.9864029971999
  0
ARC
  5
1CF7
330
1F
100
AcDbEntity
  8
SK1
100
AcDbCircle
 10
-12.0
 20
-17.09999999999996
 30
0.0
 40
5.5
100
AcDbArc
 50
68.0135970027999
 51
111.9864029971999
  0
DIMENSION
  5
1CF8
330
1F
100
AcDbEntity
  8
2
100
AcDbDimension
  2
*D3
 10
88.57583941897884
 20
-19.93522683031876
 30
0.0
 11
86.20083941897883
 21
-0.0322467322567304
 31
0.0
 70
    32
  1
%%C40
 71
     5
 42
39.80596019612402
  3
ISO-25
100
AcDbAlignedDimension
 13
64.26300973995842
 23
19.87073336580527
 33
0.0
 14
56.62545438546067
 24
-19.93522683031874
 34
0.0
 50
90.0
100
AcDbRotatedDimension
1001
ACAD
1000
DSTYLE
1002
{
1070
   140
1040
3.5
1002
}
  0
DIMENSION
  5
1D18
330
1F
100
AcDbEntity
  8
SK2
100
AcDbDimension
  2
*D4
 10
-61.02418556265092
 20
-24.49999999999998
 30
0.0
 11
-63.39918556265092
 21
0.0000000000000076
 31
0.0
 70
    32
  1
%%C<>
 71
     5
 42
49.0
  3
ISO-25
100
AcDbAlignedDimension
 13
0.5
 23
24.5
 33
0.0
 14
0.5
 24
-24.5
 34
0.0
 50
90.0
100
AcDbRotatedDimension
1001
ACAD
1000
DSTYLE
1002
{
1070
   140
1040
3.5
1002
}
  0
DIMENSION
  5
1D41
330
1F
100
AcDbEntity
  8
SK2
100
AcDbDimension
  2
*D5
 10
-47.03137446787923
 20
-11.99999999999999
 30
0.0
 11
-49.40671895606821
 21
-0.0000000000000004
 31
0.0
 70
    32
  1
%%C<>
 71
     5
 42
24.0
  3
ISO-25
100
AcDbAlignedDimension
 13
-20.9408739718001
 23
12.0
 33
0.0
 14
-20.9408739718026
 24
-12.0
 34
0.0
 50
90.0
100
AcDbRotatedDimension
1001
ACAD
1000
DSTYLE
1002
{
1070
   140
1040
3.5
1002
}
  0
MTEXT
  5
1D79
330
1F
100
AcDbEntity
  8
6
100
AcDbMText
 10
100.1648627042671
 20
29.14349943975384
 30
0.0
 40
5.0
 41
64.0
 71
     2
 72
     1
  1
SHLT090308N-HR
 73
     1
 44
1.0
  0
MTEXT
  5
1D92
330
1F
100
AcDbEntity
  8
6
100
AcDbMText
 10
96.5721939394357
 20
2.170823158452265
 30
0.0
 40
5.0
 41
64.0
 71
     2
 72
     1
  1
Z=4
 11
0.0000000000000001
 21
1.0
 31
0.0
 73
     1
 44
1.0
  0
LWPOLYLINE
  5
1DFD
330
1F
100
AcDbEntity
  8
NOCUT
100
AcDbPolyline
 90
       13
 70
     0
 43
0.0
 10
48.42029154581448
 20
-10.50000000000005
 10
15.10188620509984
 20
-10.50000000000005
 42
0.3732377824523159
 10
12.13203772409997
 20
-13.07573593130007
 10
10.56132704598056
 20
-24.07071067811823
 42
-0.3732377824528128
 10
10.06635229914991
 20
-24.50000000000005
 10
0.5
 20
-24.50000000000005
 10
0.0
 20
-24.00000000000005
 10
0.0
 20
0.0
 10
64.20000000000005
 20
-0.0000000000000568
 10
64.20000000000005
 20
-18.63547505391406
 42
-0.3492705550801679
 10
63.72938062710426
 20
-18.95842608211042
 10
57.51590637558132
 20
-18.97611991753302
 10
57.51398710523819
 20
-19.20863962923037
  0
ELLIPSE
  5
1DFE
330
1F
100
AcDbEntity
  8
NOCUT
100
AcDbEllipse
 10
48.82202059945007
 20
-19.10769963445437
 30
0.0
 11
0.5110738675500001
 21
0.5996640039
 31
0.0
210
0.0
220
0.0
230
-1.0
 40
0.963786722
 41
-3.8209445923
 42
-2.2865643865
  0
ELLIPSE
  5
1DFF
330
1F
100
AcDbEntity
  8
NOCUT
100
AcDbEllipse
 10
56.74297479719985
 20
-19.17392972135428
 30
0.0
 11
-0.5014003574500002
 21
0.6078832950500001
 31
0.0
210
0.0
220
0.0
230
-1.0
 40
0.9635833813999999
 41
-3.9961159097
 42
-2.4617357038
  0
LWPOLYLINE
  5
1E00
330
1F
100
AcDbEntity
  8
NOCUT
100
AcDbPolyline
 90
        2
 70
     0
 43
0.0
 10
48.78753381185004
 20
-19.88370018600426
 10
56.76464714010001
 20
-19.95039984065437
  0
ELLIPSE
  5
1E01
330
1F
100
AcDbEntity
  8
NOCUT
100
AcDbEllipse
 10
48.8878249498
 20
-11.13549898030434
 30
0.0
 11
-0.5014003574500002
 21
0.6078832950500001
 31
0.0
210
0.0
220
0.0
230
-1.0
 40
0.9635833813999999
 41
-0.8545232561
 42
0.0564833817800642
  0
LWPOLYLINE
  5
1E02
330
1F
100
AcDbEntity
  8
NOCUT
100
AcDbPolyline
 90
        2
 70
     0
 43
0.0
 10
48.11681264180004
 20
-11.10078907240426
 10
48.05054174214991
 20
-19.12951219160424
  0
ENDSEC
  0
SECTION
  2
OBJECTS
  0
DICTIONARY
  5
19A9
330
0
100
AcDbDictionary
281
     1
  3
ACAD_GROUP
350
19AA
  3
ACAD_LAYOUT
350
19B3
  3
ACAD_MLINESTYLE
350
19AB
  3
ACAD_PLOTSETTINGS
350
19B4
  3
ACAD_PLOTSTYLENAME
350
19B1
  0
DICTIONARY
  5
19AA
102
{ACAD_REACTORS
330
19A9
102
}
330
19A9
100
AcDbDictionary
281
     1
  0
DICTIONARY
  5
19B3
102
{ACAD_REACTORS
330
19A9
102
}
330
19A9
100
AcDbDictionary
281
     1
  3
Layout1
350
19B6
  3
Model
350
19B5
  0
DICTIONARY
  5
19AB
102
{ACAD_REACTORS
330
19A9
102
}
330
19A9
100
AcDbDictionary
281
     1
  3
STANDARD
350
19AC
  0
DICTIONARY
  5
19B4
102
{ACAD_REACTORS
330
19A9
102
}
330
19A9
100
AcDbDictionary
281
     1
  0
ACDBDICTIONARYWDFLT
  5
19B1
102
{ACAD_REACTORS
330
19A9
102
}
330
19A9
100
AcDbDictionary
281
     1
  3
Normal
350
19B2
100
AcDbDictionaryWithDefault
340
19B2
  0
LAYOUT
  5
19B6
102
{ACAD_REACTORS
330
19B3
102
}
330
19B3
100
AcDbPlotSettings
  1

  2
\\ingdc01\ITB3
  4

  6

 40
0.0
 41
0.0
 42
0.0
 43
0.0
 44
0.0
 45
0.0
 46
0.0
 47
0.0
 48
0.0
 49
0.0
140
0.0
141
0.0
142
1.0
143
1.0
 70
   688
 72
     0
 73
     0
 74
     5
  7
monochrome.ctb
 75
    16
147
1.0
148
0.0
149
0.0
100
AcDbLayout
  1
Layout1
 70
     1
 71
     1
 10
0.0
 20
0.0
 11
12.0
 21
9.0
 12
0.0
 22
0.0
 32
0.0
 14
1.000000000000000E+20
 24
1.000000000000000E+20
 34
1.000000000000000E+20
 15
-1.000000000000000E+20
 25
-1.000000000000000E+20
 35
-1.000000000000000E+20
146
0.0
 13
0.0
 23
0.0
 33
0.0
 16
1.0
 26
0.0
 36
0.0
 17
0.0
 27
1.0
 37
0.0
 76
     0
330
1B
  0
LAYOUT
  5
19B5
102
{ACAD_REACTORS
330
19B3
102
}
330
19B3
100
AcDbPlotSettings
  1

  2
\\ingdc01\ITB3
  4

  6

 40
0.0
 41
0.0
 42
0.0
 43
0.0
 44
0.0
 45
0.0
 46
0.0
 47
0.0
 48
0.0
 49
0.0
140
0.0
141
0.0
142
1.0
143
1.0
 70
  1712
 72
     0
 73
     0
 74
     0
  7
monochrome.ctb
 75
     0
147
1.0
148
0.0
149
0.0
100
AcDbLayout
  1
Model
 70
     1
 71
     0
 10
0.0
 20
0.0
 11
12.0
 21
9.0
 12
0.0
 22
0.0
 32
0.0
 14
0.0
 24
0.0
 34
0.0
 15
0.0
 25
0.0
 35
0.0
146
0.0
 13
0.0
 23
0.0
 33
0.0
 16
1.0
 26
0.0
 36
0.0
 17
0.0
 27
1.0
 37
0.0
 76
     0
330
1F
  0
MLINESTYLE
  5
19AC
102
{ACAD_REACTORS
330
19AB
102
}
330
19AB
100
AcDbMlineStyle
  2
STANDARD
 70
     0
  3

 62
   256
 51
90.0
 52
90.0
 71
     2
 49
0.5
 62
   256
  6
BYLAYER
 49
-0.5
 62
   256
  6
BYLAYER
  0
ACDBPLACEHOLDER
  5
19B2
102
{ACAD_REACTORS
330
19B1
102
}
330
19B1
  0
ENDSEC
  0
EOF
