  0
SECTION
  2
HEADER
  9
$ACADVER
  1
AC1018
  9
$ACADMAINTVER
 70
   104
  9
$DWGCODEPAGE
  3
ANSI_1252
  9
$LASTSAVEDBY
  1
Bernd Dutschke
  9
$CUSTOMPROPERTYTAG
  1
AmdtFileType
  9
$CUSTOMPROPERTY
  1
84
  9
$INSBASE
 10
0.0
 20
0.0
 30
0.0
  9
$EXTMIN
 10
-63.16053797732775
 20
-28.07329935223959
 30
-0.0000000000000098
  9
$EXTMAX
 10
90.58710488398924
 20
79.83310040522429
 30
0.0000000000000055
  9
$LIMMIN
 10
0.0
 20
0.0
  9
$LIMMAX
 10
420.0
 20
297.0
  9
$ORTHOMODE
 70
     0
  9
$REGENMODE
 70
     1
  9
$FILLMODE
 70
     1
  9
$QTEXTMODE
 70
     0
  9
$MIRRTEXT
 70
     1
  9
$LTSCALE
 40
1.0
  9
$ATTMODE
 70
     1
  9
$TEXTSIZE
 40
2.5
  9
$TRACEWID
 40
1.0
  9
$TEXTSTYLE
  7
STANDARD
  9
$CLAYER
  8
0
  9
$CELTYPE
  6
ByLayer
  9
$CECOLOR
 62
   256
  9
$CELTSCALE
 40
1.0
  9
$DISPSILH
 70
     0
  9
$DIMSCALE
 40
1.0
  9
$DIMASZ
 40
2.5
  9
$DIMEXO
 40
0.0
  9
$DIMDLI
 40
10.0
  9
$DIMRND
 40
0.0
  9
$DIMDLE
 40
0.0
  9
$DIMEXE
 40
1.0
  9
$DIMTP
 40
0.1
  9
$DIMTM
 40
0.1
  9
$DIMTXT
 40
3.5
  9
$DIMCEN
 40
0.0
  9
$DIMTSZ
 40
0.0
  9
$DIMTOL
 70
     0
  9
$DIMLIM
 70
     0
  9
$DIMTIH
 70
     0
  9
$DIMTOH
 70
     0
  9
$DIMSE1
 70
     0
  9
$DIMSE2
 70
     0
  9
$DIMTAD
 70
     1
  9
$DIMZIN
 70
     8
  9
$DIMBLK
  1

  9
$DIMASO
 70
     1
  9
$DIMSHO
 70
     1
  9
$DIMPOST
  1

  9
$DIMAPOST
  1
"
  9
$DIMALT
 70
     0
  9
$DIMALTD
 70
     2
  9
$DIMALTF
 40
0.0393701
  9
$DIMLFAC
 40
1.0
  9
$DIMTOFL
 70
     1
  9
$DIMTVP
 40
0.0
  9
$DIMTIX
 70
     0
  9
$DIMSOXD
 70
     0
  9
$DIMSAH
 70
     0
  9
$DIMBLK1
  1

  9
$DIMBLK2
  1

  9
$DIMSTYLE
  2
AM_DIN
  9
$DIMCLRD
 70
   256
  9
$DIMCLRE
 70
   256
  9
$DIMCLRT
 70
     2
  9
$DIMTFAC
 40
0.71
  9
$DIMGAP
 40
1.5
  9
$DIMJUST
 70
     0
  9
$DIMSD1
 70
     0
  9
$DIMSD2
 70
     0
  9
$DIMTOLJ
 70
     0
  9
$DIMTZIN
 70
     8
  9
$DIMALTZ
 70
     0
  9
$DIMALTTZ
 70
     0
  9
$DIMUPT
 70
     0
  9
$DIMDEC
 70
     2
  9
$DIMTDEC
 70
     2
  9
$DIMALTU
 70
     2
  9
$DIMALTTD
 70
     2
  9
$DIMTXSTY
  7
STANDARD
  9
$DIMAUNIT
 70
     0
  9
$DIMADEC
 70
     0
  9
$DIMALTRND
 40
0.0
  9
$DIMAZIN
 70
     2
  9
$DIMDSEP
 70
    46
  9
$DIMATFIT
 70
     3
  9
$DIMFRAC
 70
     0
  9
$DIMLDRBLK
  1

  9
$DIMLUNIT
 70
     2
  9
$DIMLWD
 70
    -1
  9
$DIMLWE
 70
    -1
  9
$DIMTMOVE
 70
     0
  9
$LUNITS
 70
     2
  9
$LUPREC
 70
     2
  9
$SKETCHINC
 40
1.0
  9
$FILLETRAD
 40
3.0
  9
$AUNITS
 70
     0
  9
$AUPREC
 70
     0
  9
$MENU
  1
.
  9
$ELEVATION
 40
0.0
  9
$PELEVATION
 40
0.0
  9
$THICKNESS
 40
0.0
  9
$LIMCHECK
 70
     0
  9
$CHAMFERA
 40
2.5
  9
$CHAMFERB
 40
2.5
  9
$CHAMFERC
 40
20.0
  9
$CHAMFERD
 40
0.0
  9
$SKPOLY
 70
     0
  9
$TDCREATE
 40
2453599.366006042
  9
$TDUCREATE
 40
2453599.282672708
  9
$TDUPDATE
 40
2454988.391751482
  9
$TDUUPDATE
 40
2454988.308418148
  9
$TDINDWG
 40
0.1108508333
  9
$TDUSRTIMER
 40
0.1108264931
  9
$USRTIMER
 70
     1
  9
$ANGBASE
 50
0.0
  9
$ANGDIR
 70
     0
  9
$PDMODE
 70
     0
  9
$PDSIZE
 40
0.0
  9
$PLINEWID
 40
0.0
  9
$SPLFRAME
 70
     0
  9
$SPLINETYPE
 70
     6
  9
$SPLINESEGS
 70
     8
  9
$HANDSEED
  5
46FC
  9
$SURFTAB1
 70
     6
  9
$SURFTAB2
 70
     6
  9
$SURFTYPE
 70
     6
  9
$SURFU
 70
     6
  9
$SURFV
 70
     6
  9
$UCSBASE
  2

  9
$UCSNAME
  2

  9
$UCSORG
 10
0.0
 20
0.0
 30
0.0
  9
$UCSXDIR
 10
1.0
 20
0.0
 30
0.0
  9
$UCSYDIR
 10
0.0
 20
1.0
 30
0.0
  9
$UCSORTHOREF
  2

  9
$UCSORTHOVIEW
 70
     0
  9
$UCSORGTOP
 10
0.0
 20
0.0
 30
0.0
  9
$UCSORGBOTTOM
 10
0.0
 20
0.0
 30
0.0
  9
$UCSORGLEFT
 10
0.0
 20
0.0
 30
0.0
  9
$UCSORGRIGHT
 10
0.0
 20
0.0
 30
0.0
  9
$UCSORGFRONT
 10
0.0
 20
0.0
 30
0.0
  9
$UCSORGBACK
 10
0.0
 20
0.0
 30
0.0
  9
$PUCSBASE
  2

  9
$PUCSNAME
  2

  9
$PUCSORG
 10
0.0
 20
0.0
 30
0.0
  9
$PUCSXDIR
 10
1.0
 20
0.0
 30
0.0
  9
$PUCSYDIR
 10
0.0
 20
1.0
 30
0.0
  9
$PUCSORTHOREF
  2

  9
$PUCSORTHOVIEW
 70
     0
  9
$PUCSORGTOP
 10
0.0
 20
0.0
 30
0.0
  9
$PUCSORGBOTTOM
 10
0.0
 20
0.0
 30
0.0
  9
$PUCSORGLEFT
 10
0.0
 20
0.0
 30
0.0
  9
$PUCSORGRIGHT
 10
0.0
 20
0.0
 30
0.0
  9
$PUCSORGFRONT
 10
0.0
 20
0.0
 30
0.0
  9
$PUCSORGBACK
 10
0.0
 20
0.0
 30
0.0
  9
$USERI1
 70
     0
  9
$USERI2
 70
     0
  9
$USERI3
 70
     0
  9
$USERI4
 70
     0
  9
$USERI5
 70
     0
  9
$USERR1
 40
0.0
  9
$USERR2
 40
0.0
  9
$USERR3
 40
0.0
  9
$USERR4
 40
0.0
  9
$USERR5
 40
0.0
  9
$WORLDVIEW
 70
     1
  9
$SHADEDGE
 70
     3
  9
$SHADEDIF
 70
    70
  9
$TILEMODE
 70
     1
  9
$MAXACTVP
 70
    64
  9
$PINSBASE
 10
0.0
 20
0.0
 30
0.0
  9
$PLIMCHECK
 70
     0
  9
$PEXTMIN
 10
1.000000000000000E+20
 20
1.000000000000000E+20
 30
1.000000000000000E+20
  9
$PEXTMAX
 10
-1.000000000000000E+20
 20
-1.000000000000000E+20
 30
-1.000000000000000E+20
  9
$PLIMMIN
 10
0.0
 20
0.0
  9
$PLIMMAX
 10
420.0
 20
297.0
  9
$UNITMODE
 70
     0
  9
$VISRETAIN
 70
     1
  9
$PLINEGEN
 70
     0
  9
$PSLTSCALE
 70
     1
  9
$TREEDEPTH
 70
  3020
  9
$CMLSTYLE
  2
Standard
  9
$CMLJUST
 70
     0
  9
$CMLSCALE
 40
20.0
  9
$PROXYGRAPHICS
 70
     1
  9
$MEASUREMENT
 70
     1
  9
$CELWEIGHT
370
    -1
  9
$ENDCAPS
280
     0
  9
$JOINSTYLE
280
     0
  9
$LWDISPLAY
290
     0
  9
$INSUNITS
 70
     4
  9
$HYPERLINKBASE
  1

  9
$STYLESHEET
  1

  9
$XEDIT
290
     1
  9
$CEPSNTYPE
380
     0
  9
$PSTYLEMODE
290
     1
  9
$FINGERPRINTGUID
  2
{03052709-208C-44F1-88CB-F8F0E550BC5D}
  9
$VERSIONGUID
  2
{C05A4571-3A95-465B-8C97-7BD7561249C4}
  9
$EXTNAMES
290
     1
  9
$PSVPSCALE
 40
0.0
  9
$OLESTARTUP
290
     0
  9
$SORTENTS
280
   127
  9
$INDEXCTL
280
     0
  9
$HIDETEXT
280
     1
  9
$XCLIPFRAME
290
     0
  9
$HALOGAP
280
     0
  9
$OBSCOLOR
 70
   257
  9
$OBSLTYPE
280
     0
  9
$INTERSECTIONDISPLAY
280
     0
  9
$INTERSECTIONCOLOR
 70
   257
  9
$DIMASSOC
280
     1
  9
$PROJECTNAME
  1

  0
ENDSEC
  0
SECTION
  2
CLASSES
  0
CLASS
  1
ACDBDICTIONARYWDFLT
  2
AcDbDictionaryWithDefault
  3
ObjectDBX Classes
 90
        0
 91
        1
280
     0
281
     0
  0
CLASS
  1
ACME_DOCUMENT
  2
AcMeDbDoc
  3
AcMeServices
 90
     1024
 91
        2
280
     0
281
     0
  0
CLASS
  1
ACMESCOPE
  2
AcMeScope
  3
AcMeServices
 90
     1024
 91
        1
280
     0
281
     0
  0
CLASS
  1
ACMECOMMANDHISTORY
  2
AcMeCommandHistory
  3
AcMeServices
 90
     1024
 91
        1
280
     0
281
     0
  0
CLASS
  1
ACIMSYSVARMAN
  2
AcImSysVarManager
  3
AcMeServices
 90
     1024
 91
        5
280
     0
281
     0
  0
CLASS
  1
ACIMREALSYSVAR
  2
AcImRealSysVar
  3
AcMeServices
 90
     1024
 91
        3
280
     0
281
     0
  0
CLASS
  1
ACIMINTSYSVAR
  2
AcImIntSysVar
  3
AcMeServices
 90
     1024
 91
       78
280
     0
281
     0
  0
CLASS
  1
ACMEDRAWINGMAN
  2
AcMeDrawingMan
  3
AcMeServices
 90
     1024
 91
        1
280
     0
281
     0
  0
CLASS
  1
ACMEVIEW
  2
AcMeView
  3
AcMeServices
 90
     1024
 91
        1
280
     0
281
     0
  0
CLASS
  1
ACDBENTITYCACHE
  2
AcMeEntityCache
  3
AcMeServices
 90
     1024
 91
        1
280
     0
281
     0
  0
CLASS
  1
GSMANAGER
  2
AcMeGSManager
  3
AcMeServices
 90
     1024
 91
        1
280
     0
281
     0
  0
CLASS
  1
AMDTINTERNALREACTOR
  2
AmdtInternalReactor
  3
AcMeServices
 90
     1024
 91
        2
280
     0
281
     0
  0
CLASS
  1
ACMESTATEMGR
  2
AcMeStateMgr
  3
AcMeServices
 90
     1024
 91
        1
280
     0
281
     0
  0
CLASS
  1
ACGREFMASTER
  2
AcGrefMaster
  3
AcAttribServices
 90
     1024
 91
        1
280
     0
281
     0
  0
CLASS
  1
ACME_DATABASE
  2
AcMeDbDatabase
  3
AcMeServices
 90
     1024
 91
        1
280
     0
281
     0
  0
CLASS
  1
ACRFINSADJUSTERMGR
  2
AcRfInsAdjusterMgr
  3
AcMeServices
 90
     1024
 91
        1
280
     0
281
     0
  0
CLASS
  1
ACGREFACADMASTER
  2
AcGrefacadMaster
  3
AcGrefServices
 90
     1024
 91
        1
280
     0
281
     0
  0
CLASS
  1
AMIMASTER
  2
AmiMaster
  3
AmiServices
 90
     1024
 91
        1
280
     0
281
     0
  0
CLASS
  1
AMGSETTINGSOBJ
  2
AmgSettingsObj
  3
"AcadM|Product Description: AutoCAD Mechanical|Company: Autodesk, Inc."
 90
     1024
 91
        2
280
     0
281
     0
  0
CLASS
  1
ACMDATADICTIONARY
  2
AcmDataDictionary
  3
"AcmSymBB|Product Description: AutoCAD Mechanical|Company: Autodesk, Inc."
 90
     1024
 91
        1
280
     0
281
     0
  0
CLASS
  1
ACMDATAENTRYBLOCK
  2
AcmDataEntryBlock
  3
AcmSymBB|Product Description: AutoCAD Mechanical|Company: Autodesk, Inc.
 90
     1024
 91
        0
280
     0
281
     0
  0
CLASS
  1
ACIMSTRSYSVAR
  2
AcImStrSysVar
  3
AcMeServices
 90
     1024
 91
        5
280
     0
281
     0
  0
CLASS
  1
ACMSTANDARDDIN
  2
AcmStandardDIN
  3
"Amdt_StdImp|Product Description: AutoCAD Mechanical|Company: Autodesk, Inc."
 90
     1024
 91
        1
280
     0
281
     0
  0
CLASS
  1
AMGOBJPROPCFG
  2
AmgObjPropCfg
  3
"AmgLay|Product Description: AutoCAD Mechanical|Company: Autodesk, Inc."
 90
     1025
 91
        1
280
     0
281
     0
  0
CLASS
  1
AMDTEDGESTANDARDDIN
  2
AmdtEdgeStdDIN
  3
"Amdt_StdImp|Product Description: AutoCAD Mechanical|Company: Autodesk, Inc."
 90
     1024
 91
        0
280
     0
281
     0
  0
CLASS
  1
ACMSURFSTANDARDDIN
  2
AcmSurfTextStdDIN
  3
"Amdt_StdImp|Product Description: AutoCAD Mechanical|Company: Autodesk, Inc."
 90
     1024
 91
        0
280
     0
281
     0
  0
CLASS
  1
ACMFCFSTANDARDDIN
  2
AcmFCFStdDIN
  3
"Amdt_StdImp|Product Description: AutoCAD Mechanical|Company: Autodesk, Inc."
 90
     1024
 91
        1
280
     0
281
     0
  0
CLASS
  1
ACMWELDSTANDARDDIN
  2
AcmWeldingStdDIN
  3
"Amdt_StdImp|Product Description: AutoCAD Mechanical|Company: Autodesk, Inc."
 90
     1024
 91
        1
280
     0
281
     0
  0
CLASS
  1
ACMIDSTANDARDDIN
  2
AcmIdStdDIN
  3
"Amdt_StdImp|Product Description: AutoCAD Mechanical|Company: Autodesk, Inc."
 90
     1024
 91
        1
280
     0
281
     0
  0
CLASS
  1
ACMDATUMSTANDARDDIN
  2
AcmDatumStdDIN
  3
"Amdt_StdImp|Product Description: AutoCAD Mechanical|Company: Autodesk, Inc."
 90
     1024
 91
        1
280
     0
281
     0
  0
CLASS
  1
ACMBOMSTANDARDDIN
  2
AcmBOMStdDIN
  3
"Amdt_StdImp|Product Description: AutoCAD Mechanical|Company: Autodesk, Inc."
 90
     1024
 91
        1
280
     0
281
     0
  0
CLASS
  1
ACMDETAILSTANDARDDIN
  2
AmdtDetailSymStdDIN
  3
"Amdt_StdImp|Product Description: AutoCAD Mechanical|Company: Autodesk, Inc."
 90
     1024
 91
        1
280
     0
281
     0
  0
CLASS
  1
ACMSECTIONSTANDARDDIN
  2
AmdtSectionSymStdDIN
  3
"Amdt_StdImp|Product Description: AutoCAD Mechanical|Company: Autodesk, Inc."
 90
     1024
 91
        1
280
     0
281
     0
  0
CLASS
  1
ACMCENTERLINESTANDARDDIN
  2
AmdtCenterLineStdDIN
  3
"Amdt_StdImp|Product Description: AutoCAD Mechanical|Company: Autodesk, Inc."
 90
     1024
 91
        1
280
     0
281
     0
  0
CLASS
  1
ACMNOTESTANDARDDIN
  2
AmdtNoteStdDIN
  3
"Amdt_StdImp|Product Description: AutoCAD Mechanical|Company: Autodesk, Inc."
 90
     1024
 91
        1
280
     0
281
     0
  0
CLASS
  1
ACAMGLAYSTD
  2
AcAmgLayStd
  3
"AmgLay|Product Description: AutoCAD Mechanical|Company: Autodesk, Inc."
 90
     1024
 91
        1
280
     0
281
     0
  0
CLASS
  1
ACAMGDIMSTD
  2
AcAmgDimStd
  3
"AmgDim|Product Description: AutoCAD Mechanical|Company: Autodesk, Inc."
 90
     1024
 91
        1
280
     0
281
     0
  0
CLASS
  1
ACAMGHOLECHARTSTDDIN
  2
AcAmgHoleChartStdDIN
  3
AmgDim|Product Description: AutoCAD Mechanical|Company: Autodesk, Inc.
 90
     1024
 91
        1
280
     0
281
     0
  0
CLASS
  1
ACAMGTITLESTD
  2
AcAmgTitleStd
  3
"AmgTitle|Product Description: AutoCAD Mechanical|Company: Autodesk, Inc."
 90
     4095
 91
        1
280
     0
281
     0
  0
CLASS
  1
ACMSTANDARDANSI
  2
AcmStandardANSI
  3
"Amdt_StdImp|Product Description: AutoCAD Mechanical|Company: Autodesk, Inc."
 90
     1024
 91
        0
280
     0
281
     0
  0
CLASS
  1
ACMSURFSTANDARDANSI
  2
AcmSurfTextStdANSI
  3
"Amdt_StdImp|Product Description: AutoCAD Mechanical|Company: Autodesk, Inc."
 90
     1024
 91
        0
280
     0
281
     0
  0
CLASS
  1
ACMFCFSTANDARDANSI
  2
AcmFCFStdANSI
  3
"Amdt_StdImp|Product Description: AutoCAD Mechanical|Company: Autodesk, Inc."
 90
     1024
 91
        0
280
     0
281
     0
  0
CLASS
  1
ACMWELDSTANDARDANSI
  2
AcmWeldingStdANSI
  3
"Amdt_StdImp|Product Description: AutoCAD Mechanical|Company: Autodesk, Inc."
 90
     1024
 91
        0
280
     0
281
     0
  0
CLASS
  1
ACMIDSTANDARDANSI
  2
AcmIdStdANSI
  3
"Amdt_StdImp|Product Description: AutoCAD Mechanical|Company: Autodesk, Inc."
 90
     1024
 91
        0
280
     0
281
     0
  0
CLASS
  1
ACMDATUMSTANDARDANSI
  2
AcmDatumStdANSI
  3
"Amdt_StdImp|Product Description: AutoCAD Mechanical|Company: Autodesk, Inc."
 90
     1024
 91
        0
280
     0
281
     0
  0
CLASS
  1
ACMBOMSTANDARDANSI
  2
AcmBOMStdANSI
  3
"Amdt_StdImp|Product Description: AutoCAD Mechanical|Company: Autodesk, Inc."
 90
     1024
 91
        0
280
     0
281
     0
  0
CLASS
  1
ACMDETAILSTANDARDANSI
  2
AmdtDetailSymStdANSI
  3
"Amdt_StdImp|Product Description: AutoCAD Mechanical|Company: Autodesk, Inc."
 90
     1024
 91
        0
280
     0
281
     0
  0
CLASS
  1
ACMSECTIONSTANDARDANSI
  2
AmdtSectionSymStdANSI
  3
"Amdt_StdImp|Product Description: AutoCAD Mechanical|Company: Autodesk, Inc."
 90
     1024
 91
        0
280
     0
281
     0
  0
CLASS
  1
ACMCENTERLINESTANDARDANSI
  2
AmdtCenterLineStdANSI
  3
"Amdt_StdImp|Product Description: AutoCAD Mechanical|Company: Autodesk, Inc."
 90
     1024
 91
        0
280
     0
281
     0
  0
CLASS
  1
ACMNOTESTANDARDANSI
  2
AmdtNoteStdANSI
  3
"Amdt_StdImp|Product Description: AutoCAD Mechanical|Company: Autodesk, Inc."
 90
     1024
 91
        0
280
     0
281
     0
  0
CLASS
  1
ACAMGHOLECHARTSTDANSI
  2
AcAmgHoleChartStdANSI
  3
AmgDim|Product Description: AutoCAD Mechanical|Company: Autodesk, Inc.
 90
     1024
 91
        0
280
     0
281
     0
  0
CLASS
  1
ACAMGFILTERDAT
  2
AcAmgFilterDat
  3
"AcadM|Product Description: AutoCAD Mechanical|Company: Autodesk, Inc."
 90
     1024
 91
        0
280
     0
281
     0
  0
CLASS
  1
AMDTFORMULAUPDATEDISPATCHER
  2
AmdtFormulaUpdateDispatcher
  3
AcMeServices
 90
     1024
 91
        0
280
     0
281
     0
  0
CLASS
  1
LAYER_INDEX
  2
AcDbLayerIndex
  3
ObjectDBX Classes
 90
        0
 91
        0
280
     0
281
     0
  0
CLASS
  1
IDBUFFER
  2
AcDbIdBuffer
  3
ObjectDBX Classes
 90
        0
 91
        0
280
     0
281
     0
  0
CLASS
  1
DICTIONARYVAR
  2
AcDbDictionaryVar
  3
ObjectDBX Classes
 90
        0
 91
       11
280
     0
281
     0
  0
CLASS
  1
DIMASSOC
  2
AcDbDimAssoc
  3
"AcDbDimAssoc|Product Desc:     AcDim ARX App For Dimension|Company:          Autodesk, Inc.|WEB Address:      www.autodesk.com"
 90
        0
 91
        0
280
     0
281
     0
  0
CLASS
  1
ACMDIMBREAKPERSREACTOR
  2
AcmDimBreakPersReactor
  3
AmgDim|Product Description: AutoCAD Mechanical|Company: Autodesk, Inc.
 90
     4095
 91
        0
280
     0
281
     0
  0
CLASS
  1
ACMSURFSYM
  2
AcmSurfaceTexture
  3
"AcmSymBB|Product Description: AutoCAD Mechanical|Company: Autodesk, Inc."
 90
     4095
 91
        0
280
     0
281
     1
  0
CLASS
  1
ACMFCFRAME
  2
AcmFCF
  3
"AcmSymBB|Product Description: AutoCAD Mechanical|Company: Autodesk, Inc."
 90
     4095
 91
        0
280
     0
281
     1
  0
CLASS
  1
TABLESTYLE
  2
AcDbTableStyle
  3
ObjectDBX Classes
 90
     4095
 91
        1
280
     0
281
     0
  0
CLASS
  1
AM_DRAWING_MGR
  2
AcDmDwgMgr
  3
AcMechDwgViewMgmt
 90
     1024
 91
        1
280
     0
281
     0
  0
CLASS
  1
AM_DWG_DOCUMENT
  2
AcDmDwgDocument
  3
AcMechDwgViewMgmt
 90
     1024
 91
        1
280
     0
281
     0
  0
CLASS
  1
AM_DWG_SHEET
  2
AcDmSheet
  3
AcMechDwgViewMgmt
 90
     1024
 91
        2
280
     0
281
     0
  0
CLASS
  1
AM_VIEWDIMPARMAP
  2
AcDmViewDimParMap
  3
AcMechDwgViewMgmt
 90
     1024
 91
        2
280
     0
281
     0
  0
CLASS
  1
AM_DWGMGR_NAME
  2
AcDmDwgMgrName
  3
AcMechDwgViewMgmt
 90
     1024
 91
        1
280
     0
281
     0
  0
CLASS
  1
AMDTMENUSTATEMGR
  2
AmdtMenuStateMgr
  3
McadcomServices
 90
     1024
 91
        1
280
     0
281
     0
  0
CLASS
  1
AMDTMCOMMENUSTATE
  2
AmdtMcomMenuState
  3
McadcomServices
 90
     1024
 91
        1
280
     0
281
     0
  0
CLASS
  1
MAPIAMMOUDLE
  2
MApiAmModule
  3
MApiAmServices
 90
     1024
 91
        1
280
     0
281
     0
  0
CLASS
  1
AMDTADMENUSTATE
  2
AmdtAdMenuState
  3
DesignerServices
 90
     1024
 91
        1
280
     0
281
     0
  0
CLASS
  1
ADAPPL
  2
AcAdAppl
  3
DesignerServices
 90
     1024
 91
        1
280
     0
281
     0
  0
CLASS
  1
DEPMGR
  2
AcAdDepMgr
  3
DesignerServices
 90
     1024
 91
        1
280
     0
281
     0
  0
CLASS
  1
PARAMMGR
  2
AcAdParamMgr
  3
DesignerServices
 90
     1024
 91
        1
280
     0
281
     0
  0
CLASS
  1
PARAMSCOPE
  2
AcAdParamScope
  3
DesignerServices
 90
     1024
 91
        1
280
     0
281
     0
  0
CLASS
  1
NAMEDAPPL
  2
AcAdNamedAppl
  3
DesignerServices
 90
     1024
 91
        1
280
     0
281
     0
  0
CLASS
  1
AMDTDMMENUSTATE
  2
AmdtDmMenuState
  3
AcMechDwgViewMgmt
 90
     1024
 91
        1
280
     0
281
     0
  0
CLASS
  1
AMDTAMMENUSTATE
  2
AmdtAmMenuState
  3
DesignerAssemblies
 90
     1024
 91
        1
280
     0
281
     0
  0
CLASS
  1
ACAMPROJECT
  2
AcAmProject
  3
DesignerAssemblies
 90
     1024
 91
        1
280
     0
281
     0
  0
CLASS
  1
ACAMGRCOMPDEF
  2
AcAmGrCompDef
  3
DesignerAssemblies
 90
     1024
 91
        1
280
     0
281
     0
  0
CLASS
  1
ACCMCONTEXT
  2
AcCmContext
  3
DesignerAssemblies
 90
     1024
 91
        1
280
     0
281
     0
  0
CLASS
  1
ACAMCOMPDEF
  2
AcAmCompDef
  3
DesignerAssemblies
 90
     1024
 91
        1
280
     0
281
     0
  0
CLASS
  1
ACAMCOMPDEFMGR
  2
AcAmCompDefMgr
  3
DesignerAssemblies
 90
     1024
 91
        1
280
     0
281
     0
  0
CLASS
  1
AMCONTEXTMGR
  2
AcAmContextMgr
  3
DesignerAssemblies
 90
     1024
 91
        1
280
     0
281
     0
  0
CLASS
  1
ACAMCONTEXTMODELER
  2
AcAmContextModeler
  3
DesignerAssemblies
 90
     1024
 91
        1
280
     0
281
     0
  0
CLASS
  1
ACMTHREADLINESTANDARDDIN
  2
AmdtThreadLineStdDIN
  3
"Amdt_StdImp|Product Description: AutoCAD Mechanical|Company: Autodesk, Inc."
 90
     1024
 91
        1
280
     0
281
     0
  0
CLASS
  1
ACMTHREADLINESTANDARDANSI
  2
AmdtThreadLineStdANSI
  3
"Amdt_StdImp|Product Description: AutoCAD Mechanical|Company: Autodesk, Inc."
 90
     1024
 91
        0
280
     0
281
     0
  0
CLASS
  1
CATALOGSTATE
  2
AcAmCatalogState
  3
DesignerAssemblies
 90
     1024
 91
        1
280
     0
281
     0
  0
CLASS
  1
ACAMGRCOMPDEFSET
  2
AcAmGrCompDefSet
  3
DesignerAssemblies
 90
     1024
 91
        1
280
     0
281
     0
  0
CLASS
  1
AMDTBROWSERDBTAB
  2
AmdtBrowserDbTab
  3
McadcomServices
 90
     1024
 91
        1
280
     0
281
     0
  0
CLASS
  1
CBROWSERAPPOBJECT
  2
CBrowserAppObject
  3
McadcomServices
 90
     1024
 91
        3
280
     0
281
     0
  0
CLASS
  1
DM_PLACEHOLDER
  2
AcDmSelsetPlaceholder
  3
AcMechDwgViewMgmt
 90
     1024
 91
        1
280
     0
281
     0
  0
CLASS
  1
SORTENTSTABLE
  2
AcDbSortentsTable
  3
ObjectDBX Classes
 90
        0
 91
        1
280
     0
281
     0
  0
CLASS
  1
AMDTEDGESTANDARDDIN13715
  2
AmdtEdgeStdDIN13715
  3
"Amdt_StdImp|Product Description: AutoCAD Mechanical|Company: Autodesk, Inc."
 90
     1024
 91
        1
280
     0
281
     0
  0
CLASS
  1
AMDTNOTETEMPLATEDB
  2
AmdtNoteTemplateDB
  3
AcmSymBB|Product Description: AutoCAD Mechanical|Company: Autodesk, Inc.
 90
     1024
 91
        6
280
     0
281
     0
  0
CLASS
  1
MATERIAL
  2
AcDbMaterial
  3
ObjectDBX Classes
 90
     1153
 91
        3
280
     0
281
     0
  0
CLASS
  1
VISUALSTYLE
  2
AcDbVisualStyle
  3
ObjectDBX Classes
 90
     4095
 91
       16
280
     0
281
     0
  0
CLASS
  1
SCALE
  2
AcDbScale
  3
ObjectDBX Classes
 90
     1153
 91
       17
280
     0
281
     0
  0
CLASS
  1
MLEADERSTYLE
  2
AcDbMLeaderStyle
  3
ACDB_MLEADERSTYLE_CLASS
 90
     4095
 91
        1
280
     0
281
     0
  0
CLASS
  1
ACMSURFSTANDARDDIN2002
  2
AcmSurfTextStdDIN2002
  3
"Amdt_StdImp|Product Description: AutoCAD Mechanical|Company: Autodesk, Inc."
 90
     1024
 91
        1
280
     0
281
     0
  0
CLASS
  1
ACMTAPERSTANDARDDIN
  2
AcmTaperStdDIN
  3
"Amdt_StdImp|Product Description: AutoCAD Mechanical|Company: Autodesk, Inc."
 90
     1024
 91
        1
280
     0
281
     0
  0
CLASS
  1
ACMANOOTATIONVIEWSTANDARDDIN
  2
AmdtAnViewStdDIN
  3
"Amdt_StdImp|Product Description: AutoCAD Mechanical|Company: Autodesk, Inc."
 90
     1024
 91
        1
280
     0
281
     0
  0
CLASS
  1
CAMSSTRUCTBTNSTATE
  2
StructBtnState
  3
DesignerAssemblies
 90
     1024
 91
        1
280
     0
281
     0
  0
CLASS
  1
CELLSTYLEMAP
  2
AcDbCellStyleMap
  3
ObjectDBX Classes
 90
     1152
 91
        4
280
     0
281
     0
  0
ENDSEC
  0
SECTION
  2
TABLES
  0
TABLE
  2
VPORT
  5
8
102
{ACAD_XDICTIONARY
360
43AF
102
}
330
0
100
AcDbSymbolTable
 70
     1
  0
VPORT
  5
39C6
330
8
100
AcDbSymbolTableRecord
100
AcDbViewportTableRecord
  2
*Active
 70
     0
 10
0.0
 20
0.0
 11
1.0
 21
1.0
 12
178.4197310113361
 22
134.4633503238802
 13
0.0
 23
0.0
 14
2.5
 24
2.5
 15
10.0
 25
10.0
 16
0.0
 26
0.0
 36
1.0
 17
0.0
 27
0.0
 37
0.0
 40
328.9279234552306
 41
1.792079207920792
 42
50.0
 43
0.0
 44
0.0
 50
0.0
 51
0.0
 71
     0
 72
 10000
 73
     1
 74
     3
 75
     0
 76
     0
 77
     0
 78
     0
281
     0
 65
     1
110
0.0
120
0.0
130
0.0
111
1.0
121
0.0
131
0.0
112
0.0
122
1.0
132
0.0
 79
     0
146
0.0
  0
ENDTAB
  0
TABLE
  2
LTYPE
  5
5
330
0
100
AcDbSymbolTable
 70
    15
  0
LTYPE
  5
14
330
5
100
AcDbSymbolTableRecord
100
AcDbLinetypeTableRecord
  2
ByBlock
 70
     0
  3

 72
    65
 73
     0
 40
0.0
  0
LTYPE
  5
15
330
5
100
AcDbSymbolTableRecord
100
AcDbLinetypeTableRecord
  2
ByLayer
 70
     0
  3

 72
    65
 73
     0
 40
0.0
  0
LTYPE
  5
16
330
5
100
AcDbSymbolTableRecord
100
AcDbLinetypeTableRecord
  2
Continuous
 70
     0
  3
Solid line
 72
    65
 73
     0
 40
0.0
  0
LTYPE
  5
50
330
5
100
AcDbSymbolTableRecord
100
AcDbLinetypeTableRecord
  2
Amconstr
 70
     0
  3
_______________________
 72
    65
 73
     2
 40
9999.0
 49
9999.0
 74
     0
 49
0.0
 74
     0
  0
LTYPE
  5
55
330
5
100
AcDbSymbolTableRecord
100
AcDbLinetypeTableRecord
  2
Amzigzag
 70
     0
  3
/\/-/\/-/\/-/\/-/\/-/\/
 72
    65
 73
     2
 40
11.0001
 49
0.0001
 74
     4
 75
   136
340
0
 46
0.04
 50
0.0
 44
0.0
 45
0.0
 49
-11.0
 74
     0
  0
LTYPE
  5
56
330
5
100
AcDbSymbolTableRecord
100
AcDbLinetypeTableRecord
  2
AM_DIN_F_W050
 70
     0
  3
__ __ __ __ __ __ __ __ __ __ __ __ __ __ __
 72
    65
 73
     2
 40
6.25
 49
4.75
 74
     0
 49
-1.5
 74
     0
  0
LTYPE
  5
57
330
5
100
AcDbSymbolTableRecord
100
AcDbLinetypeTableRecord
  2
AM_DIN_G_W050
 70
     0
  3
____ . ____ . ____ . ____ . ____ . ____ . ____
 72
    65
 73
     4
 40
13.75
 49
9.75
 74
     0
 49
-1.5
 74
     0
 49
1.0
 74
     0
 49
-1.5
 74
     0
  0
LTYPE
  5
58
330
5
100
AcDbSymbolTableRecord
100
AcDbLinetypeTableRecord
  2
AM_DIN_K_W050
 70
     0
  3
_____ . . _____ . . _____ . . ____ .. ____
 72
    65
 73
     6
 40
16.25
 49
9.75
 74
     0
 49
-1.5
 74
     0
 49
1.0
 74
     0
 49
-1.5
 74
     0
 49
1.0
 74
     0
 49
-1.5
 74
     0
  0
LTYPE
  5
59
330
5
100
AcDbSymbolTableRecord
100
AcDbLinetypeTableRecord
  2
AM_DIN_G_W050x2
 70
     0
  3
__ . __ . __ . __ . __ . __
 72
    65
 73
     4
 40
6.875
 49
4.75
 74
     0
 49
-0.875
 74
     0
 49
0.375
 74
     0
 49
-0.875
 74
     0
  0
LTYPE
  5
5A
330
5
100
AcDbSymbolTableRecord
100
AcDbLinetypeTableRecord
  2
AM_DIN_F_W050x2
 70
     0
  3
 _ _ _ _ _ _ _ _ _ _ _ _
 72
    65
 73
     2
 40
3.125
 49
2.25
 74
     0
 49
-0.875
 74
     0
  0
LTYPE
  5
68
330
5
100
AcDbSymbolTableRecord
100
AcDbLinetypeTableRecord
  2
ACDINWELD
 70
     0
  3
_ _ _ _ _
 72
    65
 73
     2
 40
2.0
 49
2.0
 74
     0
 49
-1.0
 74
     0
  0
LTYPE
  5
69
330
5
100
AcDbSymbolTableRecord
100
AcDbLinetypeTableRecord
  2
ACDINTGB
 70
     0
  3
__ . . __ . .
 72
    65
 73
     6
 40
9.0
 49
4.0
 74
     0
 49
-1.0
 74
     0
 49
1.0
 74
     0
 49
-1.0
 74
     0
 49
1.0
 74
     0
 49
-1.0
 74
     0
  0
LTYPE
  5
6A
330
5
100
AcDbSymbolTableRecord
100
AcDbLinetypeTableRecord
  2
ACDINTGL
 70
     0
  3
_ _ _ _ _
 72
    65
 73
     2
 40
3.0
 49
2.0
 74
     0
 49
-1.0
 74
     0
  0
LTYPE
  5
6C
330
5
100
AcDbSymbolTableRecord
100
AcDbLinetypeTableRecord
  2
CENTER
 70
     0
  3
__ . __
 72
    65
 73
     4
 40
7.0
 49
4.0
 74
     0
 49
-1.0
 74
     0
 49
1.0
 74
     0
 49
-1.0
 74
     0
  0
LTYPE
  5
1E2C
330
5
100
AcDbSymbolTableRecord
100
AcDbLinetypeTableRecord
  2
PHANTOM2
 70
     0
  3
Phantom (.5x) ___ _ _ ___ _ _ ___ _ _ ___ _ _
 72
    65
 73
     6
 40
1.25
 49
0.625
 74
     0
 49
-0.125
 74
     0
 49
0.125
 74
     0
 49
-0.125
 74
     0
 49
0.125
 74
     0
 49
-0.125
 74
     0
  0
LTYPE
  5
1E2F
330
5
100
AcDbSymbolTableRecord
100
AcDbLinetypeTableRecord
  2
DASHED
 70
     0
  3
__ __ __ __ __ __ __ __ __ __ __ __ __ __ __ __
 72
    65
 73
     2
 40
19.05
 49
12.7
 74
     0
 49
-6.349999999999998
 74
     0
  0
LTYPE
  5
28ED
330
5
100
AcDbSymbolTableRecord
100
AcDbLinetypeTableRecord
  2
HIDDEN
 70
     0
  3
Verdeckt
 72
    65
 73
     2
 40
9.525
 49
6.349999999999999
 74
     0
 49
-3.174999999999999
 74
     0
  0
ENDTAB
  0
TABLE
  2
LAYER
  5
2
330
0
100
AcDbSymbolTable
 70
    14
  0
LAYER
  5
10
102
{ACAD_XDICTIONARY
360
3AA3
102
}
330
2
100
AcDbSymbolTableRecord
100
AcDbLayerTableRecord
  2
0
 70
     0
 62
     7
  6
Continuous
370
    -3
390
F
  0
LAYER
  5
263
330
2
100
AcDbSymbolTableRecord
100
AcDbLayerTableRecord
  2
Defpoints
 70
     0
 62
     7
  6
Continuous
290
     0
370
    -3
390
F
  0
LAYER
  5
1E30
102
{ACAD_XDICTIONARY
360
3AA5
102
}
330
2
100
AcDbSymbolTableRecord
100
AcDbLayerTableRecord
  2
1
 70
     0
 62
     4
  6
Continuous
370
    -3
390
F
  0
LAYER
  5
1E31
102
{ACAD_XDICTIONARY
360
3AA7
102
}
330
2
100
AcDbSymbolTableRecord
100
AcDbLayerTableRecord
  2
2
 70
     0
 62
     7
  6
Continuous
370
    -3
390
F
  0
LAYER
  5
1E33
102
{ACAD_XDICTIONARY
360
3AAB
102
}
330
2
100
AcDbSymbolTableRecord
100
AcDbLayerTableRecord
  2
6
 70
     0
 62
     5
  6
Continuous
370
    -3
390
F
  0
LAYER
  5
1E34
102
{ACAD_XDICTIONARY
360
3AAD
102
}
330
2
100
AcDbSymbolTableRecord
100
AcDbLayerTableRecord
  2
SK1
 70
     0
 62
     4
  6
Continuous
370
    -3
390
F
  0
LAYER
  5
1E36
102
{ACAD_XDICTIONARY
360
3AB1
102
}
330
2
100
AcDbSymbolTableRecord
100
AcDbLayerTableRecord
  2
SK3
 70
     0
 62
     1
  6
DASHED
370
    -3
390
F
  0
LAYER
  5
1E37
102
{ACAD_XDICTIONARY
360
3AB3
102
}
330
2
100
AcDbSymbolTableRecord
100
AcDbLayerTableRecord
  2
CUT
 70
     0
 62
     1
  6
Continuous
370
    -3
390
F
  0
LAYER
  5
1E38
102
{ACAD_XDICTIONARY
360
3AB5
102
}
330
2
100
AcDbSymbolTableRecord
100
AcDbLayerTableRecord
  2
NOCUT
 70
     0
 62
     7
  6
Continuous
370
    -3
390
F
  0
LAYER
  5
2F1F
102
{ACAD_XDICTIONARY
360
3AB7
102
}
330
2
100
AcDbSymbolTableRecord
100
AcDbLayerTableRecord
  2
SK4
 70
     0
 62
     2
  6
CENTER
370
    -3
390
F
  0
LAYER
  5
416D
102
{ACAD_XDICTIONARY
360
416E
102
}
330
2
100
AcDbSymbolTableRecord
100
AcDbLayerTableRecord
  2
SK2
 70
     0
 62
     7
  6
Continuous
370
    -3
390
F
  0
LAYER
  5
416F
102
{ACAD_XDICTIONARY
360
4170
102
}
330
2
100
AcDbSymbolTableRecord
100
AcDbLayerTableRecord
  2
4
 70
     0
 62
     2
  6
CENTER
370
    -3
390
F
  0
LAYER
  5
4171
102
{ACAD_XDICTIONARY
360
4172
102
}
330
2
100
AcDbSymbolTableRecord
100
AcDbLayerTableRecord
  2
SK6
 70
     0
 62
     5
  6
Continuous
370
    -3
390
F
  0
ENDTAB
  0
TABLE
  2
STYLE
  5
3
330
0
100
AcDbSymbolTable
 70
     2
  0
STYLE
  5
11
330
3
100
AcDbSymbolTableRecord
100
AcDbTextStyleTableRecord
  2
STANDARD
 70
     0
 40
0.0
 41
1.0
 50
0.0
 71
     0
 42
2.5
  3
ISOCP.SHX
  4

  0
STYLE
  5
67
330
3
100
AcDbSymbolTableRecord
100
AcDbTextStyleTableRecord
  2
ACDINGDT
 70
     0
 40
0.0
 41
1.0
 50
0.0
 71
     0
 42
2.5
  3
amgdt.shx
  4

  0
ENDTAB
  0
TABLE
  2
VIEW
  5
6
330
0
100
AcDbSymbolTable
 70
     0
  0
ENDTAB
  0
TABLE
  2
UCS
  5
7
330
0
100
AcDbSymbolTable
 70
     0
  0
ENDTAB
  0
TABLE
  2
APPID
  5
9
330
0
100
AcDbSymbolTable
 70
    76
  0
APPID
  5
12
330
9
100
AcDbSymbolTableRecord
100
AcDbRegAppTableRecord
  2
ACAD
 70
     0
  0
APPID
  5
2C
330
9
100
AcDbSymbolTableRecord
100
AcDbRegAppTableRecord
  2
MCAD_NO_VIS
 70
     0
  0
APPID
  5
2D
330
9
100
AcDbSymbolTableRecord
100
AcDbRegAppTableRecord
  2
ACAD_TEMP_GRAPHIC
 70
     0
  0
APPID
  5
3E
330
9
100
AcDbSymbolTableRecord
100
AcDbRegAppTableRecord
  2
ACATTRIBSERVICES
 70
     0
  0
APPID
  5
29A
330
9
100
AcDbSymbolTableRecord
100
AcDbRegAppTableRecord
  2
GENIUS_GENDIMSH_14
 70
     0
  0
APPID
  5
588
330
9
100
AcDbSymbolTableRecord
100
AcDbRegAppTableRecord
  2
GENIUS12
 70
     0
  0
APPID
  5
589
330
9
100
AcDbSymbolTableRecord
100
AcDbRegAppTableRecord
  2
GENIUS_GENOENT_13
 70
     0
  0
APPID
  5
58A
330
9
100
AcDbSymbolTableRecord
100
AcDbRegAppTableRecord
  2
GENIUS_GENODEF_13
 70
     0
  0
APPID
  5
58B
330
9
100
AcDbSymbolTableRecord
100
AcDbRegAppTableRecord
  2
GENIUS_GENOBJ-N-RSBK_13
 70
     0
  0
APPID
  5
58C
330
9
100
AcDbSymbolTableRecord
100
AcDbRegAppTableRecord
  2
GENIUS_GENOBJ-N-DIM12_13
 70
     0
  0
APPID
  5
58D
330
9
100
AcDbSymbolTableRecord
100
AcDbRegAppTableRecord
  2
GENIUS_GENSCALE_13
 70
     0
  0
APPID
  5
58E
330
9
100
AcDbSymbolTableRecord
100
AcDbRegAppTableRecord
  2
GENIUS_GENCFG_13
 70
     0
  0
APPID
  5
58F
330
9
100
AcDbSymbolTableRecord
100
AcDbRegAppTableRecord
  2
GENIUS_GENCFG0_13
 70
     0
  0
APPID
  5
590
330
9
100
AcDbSymbolTableRecord
100
AcDbRegAppTableRecord
  2
GENIUS_GENCFG1_13
 70
     0
  0
APPID
  5
591
330
9
100
AcDbSymbolTableRecord
100
AcDbRegAppTableRecord
  2
GENIUS_GENCFG2_13
 70
     0
  0
APPID
  5
592
330
9
100
AcDbSymbolTableRecord
100
AcDbRegAppTableRecord
  2
GENIUS_GENCFG3_13
 70
     0
  0
APPID
  5
593
330
9
100
AcDbSymbolTableRecord
100
AcDbRegAppTableRecord
  2
GENIUS_GENCFG4_13
 70
     0
  0
APPID
  5
594
330
9
100
AcDbSymbolTableRecord
100
AcDbRegAppTableRecord
  2
GENIUS_GEVCFG0_13
 70
     0
  0
APPID
  5
595
330
9
100
AcDbSymbolTableRecord
100
AcDbRegAppTableRecord
  2
GENIUS_GENOBJ-F-SUF_13
 70
     0
  0
APPID
  5
596
330
9
100
AcDbSymbolTableRecord
100
AcDbRegAppTableRecord
  2
GENIUS_GEFCFG0_13
 70
     0
  0
APPID
  5
597
330
9
100
AcDbSymbolTableRecord
100
AcDbRegAppTableRecord
  2
GEV_VCCNULL_SWITCH_OFF
 70
     0
  0
APPID
  5
598
330
9
100
AcDbSymbolTableRecord
100
AcDbRegAppTableRecord
  2
GENIUS_GENDTOL_13
 70
     0
  0
APPID
  5
599
330
9
100
AcDbSymbolTableRecord
100
AcDbRegAppTableRecord
  2
GENIUS_GENDIM_13
 70
     0
  0
APPID
  5
59A
330
9
100
AcDbSymbolTableRecord
100
AcDbRegAppTableRecord
  2
GENIUS_GE3DTOL_13
 70
     0
  0
APPID
  5
59B
330
9
100
AcDbSymbolTableRecord
100
AcDbRegAppTableRecord
  2
AD_DRAW
 70
     0
  0
APPID
  5
59C
330
9
100
AcDbSymbolTableRecord
100
AcDbRegAppTableRecord
  2
ASURF_PCURVE_APPNAME
 70
     0
  0
APPID
  5
59D
330
9
100
AcDbSymbolTableRecord
100
AcDbRegAppTableRecord
  2
AMG_3D2D_5.0
 70
     0
  0
APPID
  5
59E
330
9
100
AcDbSymbolTableRecord
100
AcDbRegAppTableRecord
  2
DESIGNERASSEMBLIES
 70
     0
  0
APPID
  5
59F
330
9
100
AcDbSymbolTableRecord
100
AcDbRegAppTableRecord
  2
ACADM_DIM_EDIT
 70
     0
  0
APPID
  5
5A0
330
9
100
AcDbSymbolTableRecord
100
AcDbRegAppTableRecord
  2
AMDT_DM_ADJ
 70
     0
  0
APPID
  5
5A1
330
9
100
AcDbSymbolTableRecord
100
AcDbRegAppTableRecord
  2
GENIUS_GENSCREG_15
 70
     0
  0
APPID
  5
5A2
330
9
100
AcDbSymbolTableRecord
100
AcDbRegAppTableRecord
  2
GENIUS_GENOBJ-N-SDF_13
 70
     0
  0
APPID
  5
6E4
330
9
100
AcDbSymbolTableRecord
100
AcDbRegAppTableRecord
  2
GENIUS_GENOBJ-N-FIL_13
 70
     0
  0
APPID
  5
C65
330
9
100
AcDbSymbolTableRecord
100
AcDbRegAppTableRecord
  2
GENIUS_GENHINW_13
 70
     0
  0
APPID
  5
C66
330
9
100
AcDbSymbolTableRecord
100
AcDbRegAppTableRecord
  2
GENIUS_GENOBJ-F-TOLL_13
 70
     0
  0
APPID
  5
C67
330
9
100
AcDbSymbolTableRecord
100
AcDbRegAppTableRecord
  2
GENIUS_GENOREF_13
 70
     0
  0
APPID
  5
C68
330
9
100
AcDbSymbolTableRecord
100
AcDbRegAppTableRecord
  2
GENIUS_GENOLIS_13
 70
     0
  0
APPID
  5
C69
330
9
100
AcDbSymbolTableRecord
100
AcDbRegAppTableRecord
  2
GENIUS_GEFTOLC_13
 70
     0
  0
APPID
  5
C6A
330
9
100
AcDbSymbolTableRecord
100
AcDbRegAppTableRecord
  2
GENIUS_GENOBJ-F-TOL_13
 70
     0
  0
APPID
  5
C6B
330
9
100
AcDbSymbolTableRecord
100
AcDbRegAppTableRecord
  2
GENIUS_GENOBJ-N-RSSYM_13
 70
     0
  0
APPID
  5
C6C
330
9
100
AcDbSymbolTableRecord
100
AcDbRegAppTableRecord
  2
GENIUS_GENSYMENT_13
 70
     0
  0
APPID
  5
C6D
330
9
100
AcDbSymbolTableRecord
100
AcDbRegAppTableRecord
  2
GENIUS_GENSCSYM_13
 70
     0
  0
APPID
  5
1E42
330
9
100
AcDbSymbolTableRecord
100
AcDbRegAppTableRecord
  2
GENIUS_GENBLLY_14
 70
     0
  0
APPID
  5
1E43
330
9
100
AcDbSymbolTableRecord
100
AcDbRegAppTableRecord
  2
GENIUS_GENTRA_14
 70
     0
  0
APPID
  5
1E44
330
9
100
AcDbSymbolTableRecord
100
AcDbRegAppTableRecord
  2
GENIUS_GENOBJ-N-TIT_13
 70
     0
  0
APPID
  5
1E45
330
9
100
AcDbSymbolTableRecord
100
AcDbRegAppTableRecord
  2
GENIUS_GENTITLE_13
 70
     0
  0
APPID
  5
1E46
330
9
100
AcDbSymbolTableRecord
100
AcDbRegAppTableRecord
  2
ACADIGES
 70
     0
  0
APPID
  5
1E47
330
9
100
AcDbSymbolTableRecord
100
AcDbRegAppTableRecord
  2
GENIUS_GENOBJ-N-HTC_13
 70
     0
  0
APPID
  5
1E48
330
9
100
AcDbSymbolTableRecord
100
AcDbRegAppTableRecord
  2
GENIUS_GENHATCH_13
 70
     0
  0
APPID
  5
1E49
330
9
100
AcDbSymbolTableRecord
100
AcDbRegAppTableRecord
  2
GENIUS_GENOBJ-N-CRS_13
 70
     0
  0
APPID
  5
1E4A
330
9
100
AcDbSymbolTableRecord
100
AcDbRegAppTableRecord
  2
GENIUS_GENFIL_13
 70
     0
  0
APPID
  5
1E4B
330
9
100
AcDbSymbolTableRecord
100
AcDbRegAppTableRecord
  2
GENIUS_GENOBJ-N-CHA_13
 70
     0
  0
APPID
  5
1E4C
330
9
100
AcDbSymbolTableRecord
100
AcDbRegAppTableRecord
  2
GENIUS_GENOBJ-N-CEN_13
 70
     0
  0
APPID
  5
290E
330
9
100
AcDbSymbolTableRecord
100
AcDbRegAppTableRecord
  2
ACAD_DSTYLE_DIMARC_LENGTH_SYMBOL
 70
     0
  0
APPID
  5
290F
330
9
100
AcDbSymbolTableRecord
100
AcDbRegAppTableRecord
  2
ACAD_DSTYLE_DIMJOGGED_JOGANGLE_SYMBOL
 70
     0
  0
APPID
  5
2952
330
9
100
AcDbSymbolTableRecord
100
AcDbRegAppTableRecord
  2
AcAecLayerStandard
 70
     0
  0
APPID
  5
2BE6
330
9
100
AcDbSymbolTableRecord
100
AcDbRegAppTableRecord
  2
ACAD_PSEXT
 70
     0
  0
APPID
  5
2BE7
330
9
100
AcDbSymbolTableRecord
100
AcDbRegAppTableRecord
  2
GENIUS_GENREC_14
 70
     0
  0
APPID
  5
2BE8
330
9
100
AcDbSymbolTableRecord
100
AcDbRegAppTableRecord
  2
GENIUS_GENOBJ-N-REC_13
 70
     0
  0
APPID
  5
2BE9
330
9
100
AcDbSymbolTableRecord
100
AcDbRegAppTableRecord
  2
ACAD_DSTYLE_DIMTEXT_FILL
 70
     0
  0
APPID
  5
2BEA
330
9
100
AcDbSymbolTableRecord
100
AcDbRegAppTableRecord
  2
ACAD_DSTYLE_DIMEXT_LENGTH
 70
     0
  0
APPID
  5
2BEB
330
9
100
AcDbSymbolTableRecord
100
AcDbRegAppTableRecord
  2
ACAD_DSTYLE_DIMEXT_ENABLED
 70
     0
  0
APPID
  5
2BEC
330
9
100
AcDbSymbolTableRecord
100
AcDbRegAppTableRecord
  2
ACAD_DSTYLE_DIM_LINETYPE
 70
     0
  0
APPID
  5
2BED
330
9
100
AcDbSymbolTableRecord
100
AcDbRegAppTableRecord
  2
ACAD_DSTYLE_DIM_EXT1_LINETYPE
 70
     0
  0
APPID
  5
2BEE
330
9
100
AcDbSymbolTableRecord
100
AcDbRegAppTableRecord
  2
ACAD_DSTYLE_DIM_EXT2_LINETYPE
 70
     0
  0
APPID
  5
2F20
330
9
100
AcDbSymbolTableRecord
100
AcDbRegAppTableRecord
  2
ACAD_DSTYLE_DIMARC_LENGTH_
 70
     0
  0
APPID
  5
2F21
330
9
100
AcDbSymbolTableRecord
100
AcDbRegAppTableRecord
  2
ACAD_DSTYLE_DIMJOGGED_JOGA
 70
     0
  0
APPID
  5
2F22
330
9
100
AcDbSymbolTableRecord
100
AcDbRegAppTableRecord
  2
AMG_3D2D_5_0
 70
     0
  0
APPID
  5
3A0D
330
9
100
AcDbSymbolTableRecord
100
AcDbRegAppTableRecord
  2
ACAD_MLEADERVER
 70
     0
  0
APPID
  5
3A14
330
9
100
AcDbSymbolTableRecord
100
AcDbRegAppTableRecord
  2
ACAD_EXEMPT_FROM_CAD_STANDARDS
 70
     0
  0
APPID
  5
3CEF
330
9
100
AcDbSymbolTableRecord
100
AcDbRegAppTableRecord
  2
ACAD_DSTYLE_DIMINSPECT
 70
     0
  0
APPID
  5
4175
330
9
100
AcDbSymbolTableRecord
100
AcDbRegAppTableRecord
  2
AD_SKETCHDIM
 70
     0
  0
APPID
  5
4176
330
9
100
AcDbSymbolTableRecord
100
AcDbRegAppTableRecord
  2
ACAD_DSTYLE_DIMANGULAR_EXTENSION
 70
     0
  0
APPID
  5
4441
330
9
100
AcDbSymbolTableRecord
100
AcDbRegAppTableRecord
  2
GENIUS_GENCEN_19
 70
     0
  0
APPID
  5
4442
330
9
100
AcDbSymbolTableRecord
100
AcDbRegAppTableRecord
  2
ACAD_DSTYLE_DIMJAG
 70
     0
  0
APPID
  5
4443
330
9
100
AcDbSymbolTableRecord
100
AcDbRegAppTableRecord
  2
ACAD_DSTYLE_DIMTALN
 70
     0
  0
ENDTAB
  0
TABLE
  2
DIMSTYLE
  5
A
330
0
100
AcDbSymbolTable
 70
    10
100
AcDbDimStyleTable
 71
     1
340
6F
  0
DIMSTYLE
105
6F
330
A
100
AcDbSymbolTableRecord
100
AcDbDimStyleTableRecord
  2
AM_DIN
 70
     0
  4
"
 41
3.5
 42
1.0
 43
10.0
 44
1.0
 47
0.1
 48
0.1
 73
     0
 74
     0
 77
     1
 78
     8
 79
     2
140
3.5
141
0.0
143
0.0393701
146
0.71
147
1.5
172
     1
176
   256
177
   256
178
   140
271
     2
272
     3
274
     4
283
     0
284
     8
340
11
371
    -1
372
    -1
1001
ACAD_DSTYLE_DIMJOGGED_JOGANGLE_SYMBOL
1070
   384
1040
1.570796326794896
1001
ACAD_DSTYLE_DIM_LINETYPE
1070
   380
1005
14
1001
ACAD_DSTYLE_DIM_EXT1_LINETYPE
1070
   381
1005
14
1001
ACAD_DSTYLE_DIM_EXT2_LINETYPE
1070
   382
1005
14
  0
DIMSTYLE
105
70
330
A
100
AcDbSymbolTableRecord
100
AcDbDimStyleTableRecord
  2
AM_DIN$3
 70
     0
  4
"
 41
3.5
 42
1.0
 43
10.0
 44
1.0
 47
0.1
 48
0.1
 73
     0
 77
     1
 78
     8
 79
     2
140
3.5
141
0.0
143
0.0393701
146
0.71
147
1.5
176
   256
177
   256
178
   140
271
     2
272
     3
274
     4
283
     0
284
     8
288
     1
289
     0
340
11
371
    -1
372
    -1
1001
ACAD_DSTYLE_DIMJOGGED_JOGANGLE_SYMBOL
1070
   384
1040
1.570796326794896
1001
ACAD_DSTYLE_DIM_LINETYPE
1070
   380
1005
14
1001
ACAD_DSTYLE_DIM_EXT1_LINETYPE
1070
   381
1005
14
1001
ACAD_DSTYLE_DIM_EXT2_LINETYPE
1070
   382
1005
14
  0
DIMSTYLE
105
71
330
A
100
AcDbSymbolTableRecord
100
AcDbDimStyleTableRecord
  2
AM_DIN$4
 70
     0
  4
"
 41
3.5
 42
1.0
 43
10.0
 44
1.0
 47
0.1
 48
0.1
 73
     0
 74
     0
 77
     1
 78
     8
 79
     2
140
3.5
141
0.0
143
0.0393701
146
0.71
147
1.5
172
     1
176
   256
177
   256
178
   140
271
     2
272
     3
274
     4
283
     0
284
     8
340
11
371
    -1
372
    -1
1001
ACAD_DSTYLE_DIMJOGGED_JOGANGLE_SYMBOL
1070
   384
1040
1.570796326794896
1001
ACAD_DSTYLE_DIM_LINETYPE
1070
   380
1005
14
1001
ACAD_DSTYLE_DIM_EXT1_LINETYPE
1070
   381
1005
14
1001
ACAD_DSTYLE_DIM_EXT2_LINETYPE
1070
   382
1005
14
  0
DIMSTYLE
105
72
330
A
100
AcDbSymbolTableRecord
100
AcDbDimStyleTableRecord
  2
AM_DIN$6
 70
     0
  4
"
 41
3.5
 42
1.0
 43
10.0
 44
1.0
 47
0.1
 48
0.1
 73
     0
 74
     0
 78
     8
 79
     2
140
3.5
141
0.0
143
0.0393701
146
0.71
147
1.5
172
     1
176
   256
177
   256
178
   140
271
     2
272
     3
274
     4
283
     0
284
     8
340
11
371
    -1
372
    -1
1001
ACAD_DSTYLE_DIMJOGGED_JOGANGLE_SYMBOL
1070
   384
1040
1.570796326794896
1001
ACAD_DSTYLE_DIM_LINETYPE
1070
   380
1005
14
1001
ACAD_DSTYLE_DIM_EXT1_LINETYPE
1070
   381
1005
14
1001
ACAD_DSTYLE_DIM_EXT2_LINETYPE
1070
   382
1005
14
  0
DIMSTYLE
105
73
330
A
100
AcDbSymbolTableRecord
100
AcDbDimStyleTableRecord
  2
AM_DIN$7
 70
     0
  4
"
 41
3.5
 42
1.0
 43
10.0
 44
1.0
 47
0.1
 48
0.1
 73
     0
 74
     0
 77
     1
 78
     8
 79
     2
140
3.5
141
0.0
143
0.0393701
146
0.71
147
1.5
172
     1
176
   256
177
   256
178
   140
271
     2
272
     3
274
     4
283
     0
284
     8
340
11
371
    -1
372
    -1
1001
ACAD_DSTYLE_DIMJOGGED_JOGANGLE_SYMBOL
1070
   384
1040
1.570796326794896
1001
ACAD_DSTYLE_DIM_LINETYPE
1070
   380
1005
14
1001
ACAD_DSTYLE_DIM_EXT1_LINETYPE
1070
   381
1005
14
1001
ACAD_DSTYLE_DIM_EXT2_LINETYPE
1070
   382
1005
14
  0
DIMSTYLE
105
74
330
A
100
AcDbSymbolTableRecord
100
AcDbDimStyleTableRecord
  2
AM_DIN$SF
 70
     0
  4
"
 41
3.5
 42
1.0
 43
10.0
 44
1.0
 47
0.1
 48
0.1
 73
     0
 74
     0
 75
     1
 76
     1
 77
     1
 78
     8
 79
     2
140
3.5
141
0.0
143
0.0393701
146
0.71
147
1.5
172
     1
176
   256
177
   256
178
   140
271
     2
272
     3
274
     4
283
     0
284
     8
340
11
371
    -1
372
    -1
1001
ACAD_DSTYLE_DIMJOGGED_JOGANGLE_SYMBOL
1070
   384
1040
1.570796326794896
1001
ACAD_DSTYLE_DIM_LINETYPE
1070
   380
1005
14
1001
ACAD_DSTYLE_DIM_EXT1_LINETYPE
1070
   381
1005
14
1001
ACAD_DSTYLE_DIM_EXT2_LINETYPE
1070
   382
1005
14
  0
DIMSTYLE
105
79
330
A
100
AcDbSymbolTableRecord
100
AcDbDimStyleTableRecord
  2
AM_DIN$SH
 70
     0
  4
"
 41
3.5
 42
1.0
 43
10.0
 44
1.0
 47
0.1
 48
0.1
 73
     0
 74
     0
 75
     1
 76
     1
 77
     1
 78
     8
 79
     2
140
3.5
141
0.0
143
0.0393701
144
2.0
146
0.71
147
1.5
172
     1
173
     1
176
   256
177
   256
178
   140
271
     2
272
     3
274
     4
283
     0
284
     8
340
11
343
75
371
    -1
372
    -1
1001
ACAD_DSTYLE_DIMJOGGED_JOGANGLE_SYMBOL
1070
   384
1040
1.570796326794896
1001
ACAD_DSTYLE_DIM_LINETYPE
1070
   380
1005
14
1001
ACAD_DSTYLE_DIM_EXT1_LINETYPE
1070
   381
1005
14
1001
ACAD_DSTYLE_DIM_EXT2_LINETYPE
1070
   382
1005
14
  0
DIMSTYLE
105
1E3B
330
A
100
AcDbSymbolTableRecord
100
AcDbDimStyleTableRecord
  2
STANDARD
 70
     0
271
     2
272
     2
279
     2
284
     8
285
     8
286
     8
340
11
  0
DIMSTYLE
105
295E
102
{ACAD_REACTORS
330
3FFF
330
4004
330
4005
330
40CB
330
4341
330
4645
102
}
330
A
100
AcDbSymbolTableRecord
100
AcDbDimStyleTableRecord
  2
AM_DIN$0
 70
     0
  4
"
 41
2.5
 42
0.0
 43
10.0
 44
1.0
 47
0.1
 48
0.1
 73
     0
 74
     0
 77
     1
 78
     8
 79
     2
140
3.5
141
0.0
143
0.0393701
146
0.71
147
1.5
172
     1
176
   256
177
   256
178
     2
271
     2
272
     2
283
     0
284
     8
340
11
371
    -1
372
    -1
1001
ACAD_DSTYLE_DIMJOGGED_JOGANGLE_SYMBOL
1070
   384
1040
1.570796326794896
  0
DIMSTYLE
105
4174
102
{ACAD_REACTORS
330
433C
102
}
330
A
100
AcDbSymbolTableRecord
100
AcDbDimStyleTableRecord
  2
AM_ANSI
 70
     0
  4
mm
 41
0.1
 42
0.05
 43
0.5
 44
0.1
 47
0.1
 48
0.1
 78
     7
140
0.12
141
0.0
146
0.71
147
0.06
176
   256
177
   256
178
     2
271
     2
272
     2
279
     2
284
     8
285
     8
286
     8
340
11
  0
ENDTAB
  0
TABLE
  2
BLOCK_RECORD
  5
1
330
0
100
AcDbSymbolTable
 70
    10
  0
BLOCK_RECORD
  5
1F
102
{ACAD_XDICTIONARY
360
1F1
102
}
330
1
100
AcDbSymbolTableRecord
100
AcDbBlockTableRecord
  2
*Model_Space
340
22
  0
BLOCK_RECORD
  5
1B
330
1
100
AcDbSymbolTableRecord
100
AcDbBlockTableRecord
  2
*Paper_Space
340
1E
  0
BLOCK_RECORD
  5
23
330
1
100
AcDbSymbolTableRecord
100
AcDbBlockTableRecord
  2
*Paper_Space0
340
26
  0
BLOCK_RECORD
  5
75
330
1
100
AcDbSymbolTableRecord
100
AcDbBlockTableRecord
  2
GENAXEH
340
0
  0
BLOCK_RECORD
  5
4016
330
1
100
AcDbSymbolTableRecord
100
AcDbBlockTableRecord
  2
*D3
340
0
  0
BLOCK_RECORD
  5
4022
330
1
100
AcDbSymbolTableRecord
100
AcDbBlockTableRecord
  2
*D4
340
0
  0
BLOCK_RECORD
  5
402E
330
1
100
AcDbSymbolTableRecord
100
AcDbBlockTableRecord
  2
*D5
340
0
  0
BLOCK_RECORD
  5
40CC
330
1
100
AcDbSymbolTableRecord
100
AcDbBlockTableRecord
  2
*D6
340
0
  0
BLOCK_RECORD
  5
4349
330
1
100
AcDbSymbolTableRecord
100
AcDbBlockTableRecord
  2
*D7
340
0
  0
BLOCK_RECORD
  5
4355
330
1
100
AcDbSymbolTableRecord
100
AcDbBlockTableRecord
  2
*D8
340
0
  0
BLOCK_RECORD
  5
4646
330
1
100
AcDbSymbolTableRecord
100
AcDbBlockTableRecord
  2
*D9
340
0
  0
ENDTAB
  0
ENDSEC
  0
SECTION
  2
BLOCKS
  0
BLOCK
  5
20
330
1F
100
AcDbEntity
  8
0
100
AcDbBlockBegin
  2
*Model_Space
 70
     0
 10
0.0
 20
0.0
 30
0.0
  3
*Model_Space
  1

  0
ENDBLK
  5
21
330
1F
100
AcDbEntity
  8
0
100
AcDbBlockEnd
  0
BLOCK
  5
1C
330
1B
100
AcDbEntity
 67
     1
  8
0
100
AcDbBlockBegin
  2
*Paper_Space
 70
     0
 10
0.0
 20
0.0
 30
0.0
  3
*Paper_Space
  1

  0
ENDBLK
  5
1D
330
1B
100
AcDbEntity
 67
     1
  8
0
100
AcDbBlockEnd
  0
BLOCK
  5
24
330
23
100
AcDbEntity
 67
     1
  8
0
100
AcDbBlockBegin
  2
*Paper_Space0
 70
     0
 10
0.0
 20
0.0
 30
0.0
  3
*Paper_Space0
  1

  0
ENDBLK
  5
25
330
23
100
AcDbEntity
 67
     1
  8
0
100
AcDbBlockEnd
  0
BLOCK
  5
3A72
330
75
100
AcDbEntity
  8
0
100
AcDbBlockBegin
  2
GENAXEH
 70
     0
 10
0.0
 20
0.0
 30
0.0
  3
GENAXEH
  1

  0
LINE
  5
3A73
330
75
100
AcDbEntity
  8
0
100
AcDbLine
 10
-1.0
 20
0.0
 30
0.0
 11
1.0
 21
0.0
 31
0.0
  0
ENDBLK
  5
3A74
330
75
100
AcDbEntity
  8
0
100
AcDbBlockEnd
  0
BLOCK
  5
4017
330
4016
100
AcDbEntity
  8
0
100
AcDbBlockBegin
  2
*D3
 70
     1
 10
0.0
 20
0.0
 30
0.0
  3
*D3
  1

  0
LINE
  5
4375
330
4016
100
AcDbEntity
  8
2
100
AcDbLine
 10
55.0
 20
16.0
 30
0.0
 11
55.0
 21
61.0
 31
0.0
  0
LINE
  5
4376
330
4016
100
AcDbEntity
  8
2
100
AcDbLine
 10
15.99576128682577
 20
8.706353339120887
 30
0.0
 11
15.99576128682577
 21
61.0
 31
0.0
  0
LINE
  5
4377
330
4016
100
AcDbEntity
  8
2
100
AcDbLine
 10
52.5
 20
60.0
 30
0.0
 11
18.49576128682577
 21
60.0
 31
0.0
  0
SOLID
  5
4378
330
4016
100
AcDbEntity
  8
2
100
AcDbTrace
 10
52.5
 20
60.41666666666666
 30
0.0
 11
52.5
 21
59.58333333333333
 31
0.0
 12
55.0
 22
60.0
 32
0.0
 13
55.0
 23
60.0
 33
0.0
  0
SOLID
  5
4379
330
4016
100
AcDbEntity
  8
2
100
AcDbTrace
 10
18.49576128682577
 20
60.41666666666666
 30
0.0
 11
18.49576128682577
 21
59.58333333333333
 31
0.0
 12
15.99576128682577
 22
60.0
 32
0.0
 13
15.99576128682577
 23
60.0
 33
0.0
  0
MTEXT
  5
437A
330
4016
100
AcDbEntity
  8
2
 62
     2
100
AcDbMText
 10
36.0844695404104
 20
63.25
 30
0.0
 40
3.5
 41
0.0
 71
     5
 72
     1
  1
39
 73
     1
 44
1.0
  0
POINT
  5
437B
330
4016
100
AcDbEntity
  8
Defpoints
 62
     0
100
AcDbPoint
 10
55.0
 20
16.0
 30
0.0
  0
POINT
  5
437C
330
4016
100
AcDbEntity
  8
Defpoints
 62
     0
100
AcDbPoint
 10
15.99576128682577
 20
8.706353339120887
 30
0.0
  0
POINT
  5
437D
330
4016
100
AcDbEntity
  8
Defpoints
 62
     0
100
AcDbPoint
 10
15.99576128682577
 20
60.0
 30
0.0
  0
ENDBLK
  5
4018
330
4016
100
AcDbEntity
  8
0
100
AcDbBlockEnd
  0
BLOCK
  5
4023
330
4022
100
AcDbEntity
  8
0
100
AcDbBlockBegin
  2
*D4
 70
     1
 10
0.0
 20
0.0
 30
0.0
  3
*D4
  1

  0
LINE
  5
45E4
330
4022
100
AcDbEntity
  8
2
100
AcDbLine
 10
55.0
 20
16.0
 30
0.0
 11
78.36377841846342
 21
15.99999999999999
 31
0.0
  0
LINE
  5
45E5
330
4022
100
AcDbEntity
  8
2
100
AcDbLine
 10
49.72092084536115
 20
-16.0
 30
0.0
 11
78.36377841846342
 21
-16.00000000000001
 31
0.0
  0
LINE
  5
45E6
330
4022
100
AcDbEntity
  8
2
100
AcDbLine
 10
77.36377841846342
 20
13.49999999999999
 30
0.0
 11
77.36377841846342
 21
-13.50000000000001
 31
0.0
  0
SOLID
  5
45E7
330
4022
100
AcDbEntity
  8
2
100
AcDbTrace
 10
76.94711175179675
 20
13.49999999999999
 30
0.0
 11
77.78044508513009
 21
13.49999999999999
 31
0.0
 12
77.36377841846342
 22
15.99999999999999
 32
0.0
 13
77.36377841846342
 23
15.99999999999999
 33
0.0
  0
SOLID
  5
45E8
330
4022
100
AcDbEntity
  8
2
100
AcDbTrace
 10
76.94711175179675
 20
-13.50000000000001
 30
0.0
 11
77.78044508513009
 21
-13.50000000000001
 31
0.0
 12
77.36377841846342
 22
-16.00000000000001
 32
0.0
 13
77.36377841846342
 23
-16.00000000000001
 33
0.0
  0
MTEXT
  5
45E9
330
4022
100
AcDbEntity
  8
2
 62
     2
100
AcDbMText
 10
74.11343393027445
 20
0.0000000000000037
 30
0.0
 40
3.5
 41
0.0
 71
     5
 72
     1
  1
%%c32
 11
0.0000000000000001
 21
1.0
 31
0.0
 73
     1
 44
1.0
  0
POINT
  5
45EA
330
4022
100
AcDbEntity
  8
Defpoints
 62
     0
100
AcDbPoint
 10
55.0
 20
16.0
 30
0.0
  0
POINT
  5
45EB
330
4022
100
AcDbEntity
  8
Defpoints
 62
     0
100
AcDbPoint
 10
49.72092084536115
 20
-16.0
 30
0.0
  0
POINT
  5
45EC
330
4022
100
AcDbEntity
  8
Defpoints
 62
     0
100
AcDbPoint
 10
77.36377841846342
 20
-16.00000000000001
 30
0.0
  0
ENDBLK
  5
4024
330
4022
100
AcDbEntity
  8
0
100
AcDbBlockEnd
  0
BLOCK
  5
402F
330
402E
100
AcDbEntity
  8
0
100
AcDbBlockBegin
  2
*D5
 70
     1
 10
0.0
 20
0.0
 30
0.0
  3
*D5
  1

  0
LINE
  5
4387
330
402E
100
AcDbEntity
  8
2
100
AcDbLine
 10
55.0
 20
16.0
 30
0.0
 11
55.0
 21
46.0
 31
0.0
  0
LINE
  5
4388
330
402E
100
AcDbEntity
  8
2
100
AcDbLine
 10
41.0
 20
16.0
 30
0.0
 11
41.0
 21
46.0
 31
0.0
  0
LINE
  5
4389
330
402E
100
AcDbEntity
  8
2
100
AcDbLine
 10
52.5
 20
45.0
 30
0.0
 11
43.5
 21
45.0
 31
0.0
  0
SOLID
  5
438A
330
402E
100
AcDbEntity
  8
2
100
AcDbTrace
 10
52.5
 20
45.41666666666666
 30
0.0
 11
52.5
 21
44.58333333333333
 31
0.0
 12
55.0
 22
45.0
 32
0.0
 13
55.0
 23
45.0
 33
0.0
  0
SOLID
  5
438B
330
402E
100
AcDbEntity
  8
2
100
AcDbTrace
 10
43.5
 20
45.41666666666666
 30
0.0
 11
43.5
 21
44.58333333333333
 31
0.0
 12
41.0
 22
45.0
 32
0.0
 13
41.0
 23
45.0
 33
0.0
  0
MTEXT
  5
438C
330
402E
100
AcDbEntity
  8
2
 62
     2
100
AcDbMText
 10
48.23984974940197
 20
48.25
 30
0.0
 40
3.5
 41
0.0
 71
     5
 72
     1
  1
14
 73
     1
 44
1.0
  0
POINT
  5
438D
330
402E
100
AcDbEntity
  8
Defpoints
 62
     0
100
AcDbPoint
 10
55.0
 20
16.0
 30
0.0
  0
POINT
  5
438E
330
402E
100
AcDbEntity
  8
Defpoints
 62
     0
100
AcDbPoint
 10
41.0
 20
16.0
 30
0.0
  0
POINT
  5
438F
330
402E
100
AcDbEntity
  8
Defpoints
 62
     0
100
AcDbPoint
 10
41.0
 20
45.0
 30
0.0
  0
ENDBLK
  5
4030
330
402E
100
AcDbEntity
  8
0
100
AcDbBlockEnd
  0
BLOCK
  5
40CD
330
40CC
100
AcDbEntity
  8
0
100
AcDbBlockBegin
  2
*D6
 70
     1
 10
0.0
 20
0.0
 30
0.0
  3
*D6
  1

  0
LINE
  5
4390
330
40CC
100
AcDbEntity
  8
2
100
AcDbLine
 10
55.0
 20
16.0
 30
0.0
 11
55.0
 21
76.0
 31
0.0
  0
LINE
  5
4391
330
40CC
100
AcDbEntity
  8
2
100
AcDbLine
 10
0.0
 20
24.5
 30
0.0
 11
0.0000000000000032
 21
76.0
 31
0.0
  0
LINE
  5
4392
330
40CC
100
AcDbEntity
  8
2
100
AcDbLine
 10
52.5
 20
75.0
 30
0.0
 11
2.500000000000003
 21
75.0
 31
0.0
  0
SOLID
  5
4393
330
40CC
100
AcDbEntity
  8
2
100
AcDbTrace
 10
52.5
 20
75.41666666666667
 30
0.0
 11
52.5
 21
74.58333333333333
 31
0.0
 12
55.0
 22
75.0
 32
0.0
 13
55.0
 23
75.0
 33
0.0
  0
SOLID
  5
4394
330
40CC
100
AcDbEntity
  8
2
100
AcDbTrace
 10
2.500000000000003
 20
75.41666666666667
 30
0.0
 11
2.500000000000003
 21
74.58333333333333
 31
0.0
 12
0.0000000000000031
 22
75.0
 32
0.0
 13
0.0000000000000031
 23
75.0
 33
0.0
  0
MTEXT
  5
4395
330
40CC
100
AcDbEntity
  8
2
 62
     2
100
AcDbMText
 10
27.10000000000003
 20
78.25
 30
0.0
 40
3.5
 41
0.0
 71
     5
 72
     1
  1
55
 73
     1
 44
1.0
  0
POINT
  5
4396
330
40CC
100
AcDbEntity
  8
Defpoints
 62
     0
100
AcDbPoint
 10
55.0
 20
16.0
 30
0.0
  0
POINT
  5
4397
330
40CC
100
AcDbEntity
  8
Defpoints
 62
     0
100
AcDbPoint
 10
0.0
 20
24.5
 30
0.0
  0
POINT
  5
4398
330
40CC
100
AcDbEntity
  8
Defpoints
 62
     0
100
AcDbPoint
 10
0.0000000000000031
 20
75.0
 30
0.0
  0
ENDBLK
  5
40CE
330
40CC
100
AcDbEntity
  8
0
100
AcDbBlockEnd
  0
BLOCK
  5
434A
330
4349
100
AcDbEntity
  8
0
100
AcDbBlockBegin
  2
*D7
 70
     1
 10
0.0
 20
0.0
 30
0.0
  3
*D7
  1

  0
LINE
  5
4399
330
4349
100
AcDbEntity
  8
SK2
370
    -2
100
AcDbLine
 10
-30.00000000000023
 20
12.00000000000003
 30
0.0
 11
-49.30042214622836
 21
12.00000000000003
 31
0.0
  0
LINE
  5
439A
330
4349
100
AcDbEntity
  8
SK2
370
    -2
100
AcDbLine
 10
-30.00000000000023
 20
-11.99999999999997
 30
0.0
 11
-49.30042214622836
 21
-11.99999999999996
 31
0.0
  0
LINE
  5
439B
330
4349
100
AcDbEntity
  8
SK2
370
    -2
100
AcDbLine
 10
-48.30042214622835
 20
9.600000000000033
 30
0.0
 11
-48.30042214622835
 21
-9.599999999999965
 31
0.0
  0
MTEXT
  5
439C
330
4349
100
AcDbEntity
  8
SK2
 62
     2
100
AcDbMText
 10
-51.34319359390883
 20
-0.1122779170276829
 30
0.0
 40
3.5
 41
0.0
 71
     5
 72
     1
  1
\A1;%%c24
 11
0.0000000000000001
 21
1.0
 31
0.0
 73
     1
 44
1.0
  0
SOLID
  5
439D
330
4349
100
AcDbEntity
  8
SK2
100
AcDbTrace
 10
-48.70042214622835
 20
9.600000000000033
 30
0.0
 11
-47.90042214622835
 21
9.600000000000033
 31
0.0
 12
-48.30042214622835
 22
12.00000000000003
 32
0.0
 13
-48.30042214622835
 23
12.00000000000003
 33
0.0
  0
SOLID
  5
439E
330
4349
100
AcDbEntity
  8
SK2
100
AcDbTrace
 10
-48.70042214622835
 20
-9.599999999999965
 30
0.0
 11
-47.90042214622835
 21
-9.599999999999965
 31
0.0
 12
-48.30042214622835
 22
-11.99999999999996
 32
0.0
 13
-48.30042214622835
 23
-11.99999999999996
 33
0.0
  0
POINT
  5
439F
330
4349
100
AcDbEntity
  8
Defpoints
 62
     0
100
AcDbPoint
 10
-30.00000000000023
 20
12.00000000000003
 30
0.0
  0
POINT
  5
43A0
330
4349
100
AcDbEntity
  8
Defpoints
 62
     0
100
AcDbPoint
 10
-30.00000000000023
 20
-11.99999999999997
 30
0.0
  0
POINT
  5
43A1
330
4349
100
AcDbEntity
  8
Defpoints
 62
     0
100
AcDbPoint
 10
-48.30042214622835
 20
-11.99999999999996
 30
0.0
  0
ENDBLK
  5
434B
330
4349
100
AcDbEntity
  8
0
100
AcDbBlockEnd
  0
BLOCK
  5
4356
330
4355
100
AcDbEntity
  8
0
100
AcDbBlockBegin
  2
*D8
 70
     1
 10
0.0
 20
0.0
 30
0.0
  3
*D8
  1

  0
LINE
  5
43A2
330
4355
100
AcDbEntity
  8
SK2
100
AcDbLine
 10
-0.0000000000002274
 20
24.5
 30
0.0
 11
-59.30042214622834
 21
24.50000000000002
 31
0.0
  0
LINE
  5
43A3
330
4355
100
AcDbEntity
  8
SK2
100
AcDbLine
 10
0.0
 20
-24.5
 30
0.0
 11
-59.30042214622836
 21
-24.49999999999998
 31
0.0
  0
LINE
  5
43A4
330
4355
100
AcDbEntity
  8
SK2
100
AcDbLine
 10
-58.30042214622834
 20
22.00000000000002
 30
0.0
 11
-58.30042214622835
 21
-21.99999999999998
 31
0.0
  0
SOLID
  5
43A5
330
4355
100
AcDbEntity
  8
SK2
100
AcDbTrace
 10
-58.717088812895
 20
22.00000000000002
 30
0.0
 11
-57.88375547956167
 21
22.00000000000002
 31
0.0
 12
-58.30042214622834
 22
24.50000000000002
 32
0.0
 13
-58.30042214622834
 23
24.50000000000002
 33
0.0
  0
SOLID
  5
43A6
330
4355
100
AcDbEntity
  8
SK2
100
AcDbTrace
 10
-58.71708881289502
 20
-21.99999999999998
 30
0.0
 11
-57.88375547956169
 21
-21.99999999999998
 31
0.0
 12
-58.30042214622835
 22
-24.49999999999998
 32
0.0
 13
-58.30042214622835
 23
-24.49999999999998
 33
0.0
  0
MTEXT
  5
43A7
330
4355
100
AcDbEntity
  8
SK2
 62
     2
100
AcDbMText
 10
-61.55042214622834
 20
0.0000000000000075
 30
0.0
 40
3.5
 41
0.0
 71
     5
 72
     1
  1
%%c49
 11
0.0000000000000001
 21
1.0
 31
0.0
 73
     1
 44
1.0
  0
POINT
  5
43A8
330
4355
100
AcDbEntity
  8
Defpoints
 62
     0
100
AcDbPoint
 10
-0.0000000000002274
 20
24.5
 30
0.0
  0
POINT
  5
43A9
330
4355
100
AcDbEntity
  8
Defpoints
 62
     0
100
AcDbPoint
 10
0.0
 20
-24.5
 30
0.0
  0
POINT
  5
43AA
330
4355
100
AcDbEntity
  8
Defpoints
 62
     0
100
AcDbPoint
 10
-58.30042214622835
 20
-24.49999999999998
 30
0.0
  0
ENDBLK
  5
4357
330
4355
100
AcDbEntity
  8
0
100
AcDbBlockEnd
  0
BLOCK
  5
4647
330
4646
100
AcDbEntity
  8
0
100
AcDbBlockBegin
  2
*D9
 70
     1
 10
0.0
 20
0.0
 30
0.0
  3
*D9
  1

  0
LINE
  5
46B5
330
4646
100
AcDbEntity
  8
2
100
AcDbLine
 10
39.27492999709557
 20
8.500000000000005
 30
0.0
 11
32.90285062580824
 21
8.500000000000007
 31
0.0
  0
LINE
  5
46B6
330
4646
100
AcDbEntity
  8
2
100
AcDbLine
 10
39.27492999709555
 20
-8.500000000000033
 30
0.0
 11
32.90285062580824
 21
-8.500000000000031
 31
0.0
  0
LINE
  5
46B7
330
4646
100
AcDbEntity
  8
2
100
AcDbLine
 10
33.90285062580824
 20
6.000000000000007
 30
0.0
 11
33.90285062580824
 21
-6.000000000000031
 31
0.0
  0
SOLID
  5
46B8
330
4646
100
AcDbEntity
  8
2
100
AcDbTrace
 10
33.48618395914158
 20
6.000000000000007
 30
0.0
 11
34.31951729247491
 21
6.000000000000006
 31
0.0
 12
33.90285062580824
 22
8.500000000000007
 32
0.0
 13
33.90285062580824
 23
8.500000000000007
 33
0.0
  0
SOLID
  5
46B9
330
4646
100
AcDbEntity
  8
2
100
AcDbTrace
 10
33.48618395914158
 20
-6.000000000000031
 30
0.0
 11
34.31951729247491
 21
-6.000000000000032
 31
0.0
 12
33.90285062580824
 22
-8.500000000000031
 32
0.0
 13
33.90285062580824
 23
-8.500000000000031
 33
0.0
  0
MTEXT
  5
46BA
330
4646
100
AcDbEntity
  8
2
 62
     2
100
AcDbMText
 10
30.65285062580824
 20
3.149999999999993
 30
0.0
 40
3.5
 41
0.0
 71
     5
 72
     1
  1
%%c17
 11
0.0000000000000001
 21
1.0
 31
0.0
 73
     1
 44
1.0
  0
POINT
  5
46BB
330
4646
100
AcDbEntity
  8
Defpoints
 62
     0
100
AcDbPoint
 10
39.27492999709557
 20
8.500000000000005
 30
0.0
  0
POINT
  5
46BC
330
4646
100
AcDbEntity
  8
Defpoints
 62
     0
100
AcDbPoint
 10
39.27492999709555
 20
-8.500000000000033
 30
0.0
  0
POINT
  5
46BD
330
4646
100
AcDbEntity
  8
Defpoints
 62
     0
100
AcDbPoint
 10
33.90285062580824
 20
-8.500000000000031
 30
0.0
  0
ENDBLK
  5
4648
330
4646
100
AcDbEntity
  8
0
100
AcDbBlockEnd
  0
ENDSEC
  0
SECTION
  2
ENTITIES
  0
LINE
  5
3FD2
330
1F
100
AcDbEntity
  8
1
100
AcDbLine
 10
0.0
 20
24.5
 30
0.0
 11
0.0
 21
0.0
 31
0.0
  0
LINE
  5
3FD4
330
1F
100
AcDbEntity
  8
1
100
AcDbLine
 10
0.0
 20
24.5
 30
0.0
 11
10.50000000005081
 21
24.5
 31
0.0
  0
LINE
  5
3FD5
330
1F
100
AcDbEntity
  8
1
100
AcDbLine
 10
10.50000000005081
 20
24.5
 30
0.0
 11
14.19139056400001
 21
10.7235428646959
 31
0.0
  0
LINE
  5
3FD6
330
1F
100
AcDbEntity
  8
1
100
AcDbLine
 10
17.08916804286809
 20
8.5
 30
0.0
 11
40.85000000000014
 21
8.500000000000028
 31
0.0
  0
LINE
  5
3FD8
330
1F
100
AcDbEntity
  8
1
100
AcDbLine
 10
41.85000000000013
 20
9.500000000000028
 30
0.0
 11
41.85000000000002
 21
14.73230385434999
 31
0.0
  0
LINE
  5
3FD9
330
1F
100
AcDbEntity
  8
1
100
AcDbLine
 10
41.85000000000002
 20
14.73230385434999
 30
0.0
 11
45.47999999999996
 21
14.73230385434999
 31
0.0
  0
LINE
  5
3FDA
330
1F
100
AcDbEntity
  8
1
100
AcDbLine
 10
54.19999999999989
 20
6.480000000000003
 30
0.0
 11
54.20000000000005
 21
0.0
 31
0.0
  0
ARC
  5
3FDB
330
1F
100
AcDbEntity
  8
1
100
AcDbCircle
 10
40.85000000000014
 20
9.500000000000028
 30
0.0
 40
1.0
100
AcDbArc
 50
270.0
 51
0.0
1001
GENIUS_GENODEF_13
1002
{
1000
HIER
1070
     0
1002
}
1002
{
1000
MANEDIT
1070
     0
1002
}
1002
{
1000
NOSEL
1070
     0
1002
}
1002
{
1000
BEHIND
1070
     0
1002
}
1002
{
1000
OTHER
1070
     0
1002
}
1002
{
1000
REACTOR
1002
}
1001
GENIUS_GENOBJ-N-FIL_13
1002
{
1000
OWNER
1000
GEN
1002
}
  0
ARC
  5
3FDC
330
1F
100
AcDbEntity
  8
1
100
AcDbCircle
 10
17.08916804286809
 20
11.5
 30
0.0
 40
3.0
100
AcDbArc
 50
194.999999999932
 51
270.0
1001
GENIUS_GENODEF_13
1002
{
1000
HIER
1070
     0
1002
}
1002
{
1000
MANEDIT
1070
     0
1002
}
1002
{
1000
NOSEL
1070
     0
1002
}
1002
{
1000
BEHIND
1070
     0
1002
}
1002
{
1000
OTHER
1070
     0
1002
}
1002
{
1000
REACTOR
1002
}
1001
GENIUS_GENOBJ-N-FIL_13
1002
{
1000
OWNER
1000
GEN
1002
}
  0
LINE
  5
3FDD
330
1F
100
AcDbEntity
  8
1
100
AcDbLine
 10
0.0
 20
-24.5
 30
0.0
 11
0.0
 21
0.0
 31
0.0
  0
LINE
  5
3FDE
330
1F
100
AcDbEntity
  8
1
100
AcDbLine
 10
0.0
 20
-24.5
 30
0.0
 11
10.50000000005081
 21
-24.5
 31
0.0
  0
LINE
  5
3FDF
330
1F
100
AcDbEntity
  8
1
100
AcDbLine
 10
10.50000000005081
 20
-24.5
 30
0.0
 11
14.19139056400001
 21
-10.7235428646959
 31
0.0
  0
LINE
  5
3FE0
330
1F
100
AcDbEntity
  8
1
100
AcDbLine
 10
17.08916804286809
 20
-8.5
 30
0.0
 11
40.85000000000014
 21
-8.500000000000028
 31
0.0
  0
ARC
  5
3FE1
330
1F
100
AcDbEntity
  8
1
100
AcDbCircle
 10
17.08916804286809
 20
-11.5
 30
0.0
 40
3.0
100
AcDbArc
 50
90.0
 51
165.0000000000695
1001
GENIUS_GENODEF_13
1002
{
1000
HIER
1070
     0
1002
}
1002
{
1000
MANEDIT
1070
     0
1002
}
1002
{
1000
NOSEL
1070
     0
1002
}
1002
{
1000
BEHIND
1070
     0
1002
}
1002
{
1000
OTHER
1070
     0
1002
}
1002
{
1000
REACTOR
1002
}
1001
GENIUS_GENOBJ-N-FIL_13
1002
{
1000
OWNER
1000
GEN
1002
}
  0
ARC
  5
3FE2
330
1F
100
AcDbEntity
  8
1
100
AcDbCircle
 10
40.85000000000014
 20
-9.500000000000028
 30
0.0
 40
1.0
100
AcDbArc
 50
0.0
 51
90.0
1001
GENIUS_GENODEF_13
1002
{
1000
HIER
1070
     0
1002
}
1002
{
1000
MANEDIT
1070
     0
1002
}
1002
{
1000
NOSEL
1070
     0
1002
}
1002
{
1000
BEHIND
1070
     0
1002
}
1002
{
1000
OTHER
1070
     0
1002
}
1002
{
1000
REACTOR
1002
}
1001
GENIUS_GENOBJ-N-FIL_13
1002
{
1000
OWNER
1000
GEN
1002
}
  0
LINE
  5
3FE3
330
1F
100
AcDbEntity
  8
1
100
AcDbLine
 10
41.85000000000013
 20
-9.500000000000028
 30
0.0
 11
41.85000000000002
 21
-14.73230385434999
 31
0.0
  0
LINE
  5
3FE4
330
1F
100
AcDbEntity
  8
1
100
AcDbLine
 10
41.85000000000002
 20
-14.73230385434999
 30
0.0
 11
54.20000000000005
 21
-14.73230385434999
 31
0.0
  0
LINE
  5
3FE5
330
1F
100
AcDbEntity
  8
1
100
AcDbLine
 10
54.20000000000005
 20
-14.73230385434999
 30
0.0
 11
54.20000000000005
 21
0.0
 31
0.0
  0
LINE
  5
3FFD
330
1F
100
AcDbEntity
  8
1
100
AcDbLine
 10
43.18185046832627
 20
3.271134343417259
 30
0.0
 11
54.19999999999993
 21
3.27113434341723
 31
0.0
  0
LINE
  5
3FFE
330
1F
100
AcDbEntity
  8
SK4
100
AcDbLine
 10
36.01082361182031
 20
0.7918643912858712
 30
0.0
 11
43.21904451903678
 21
5.795722645030816
 31
0.0
  0
DIMENSION
  5
3FFF
330
1F
100
AcDbEntity
  8
2
100
AcDbDimension
  2
*D3
 10
15.99576128682577
 20
60.0
 30
0.0
 11
36.0844695404104
 21
60.0
 31
0.0
 70
   160
 71
     5
 42
39.00423871317423
  3
AM_DIN$0
100
AcDbAlignedDimension
 13
55.0
 23
16.0
 33
0.0
 14
15.99576128682577
 24
8.706353339120887
 34
0.0
100
AcDbRotatedDimension
  0
LINE
  5
4000
330
1F
100
AcDbEntity
  8
SK1
100
AcDbLine
 10
55.0
 20
16.46376936984882
 30
0.0
 11
55.0
 21
15.53623063015118
 31
0.0
  0
LINE
  5
4001
330
1F
100
AcDbEntity
  8
SK1
100
AcDbLine
 10
54.53623063015118
 20
16.0
 30
0.0
 11
55.46376936984882
 21
16.0
 31
0.0
  0
CIRCLE
  5
4002
330
1F
100
AcDbEntity
  8
SK1
100
AcDbCircle
 10
55.0
 20
16.0
 30
0.0
 40
0.4637693698488208
  0
TEXT
  5
4003
330
1F
100
AcDbEntity
  8
6
100
AcDbText
 10
62.34514309683311
 20
18.31371541712161
 30
0.0
 40
2.5
  1
SHLT090308N
100
AcDbText
  0
DIMENSION
  5
4004
330
1F
100
AcDbEntity
  8
2
100
AcDbDimension
  2
*D4
 10
77.36377841846342
 20
-16.00000000000001
 30
0.0
 11
74.11343393027445
 21
0.0000000000000037
 31
0.0
 70
    32
  1
%%c<>
 71
     5
 42
32.0
  3
AM_DIN$0
100
AcDbAlignedDimension
 13
55.0
 23
16.0
 33
0.0
 14
49.72092084536114
 24
-16.0
 34
0.0
 50
90.0
100
AcDbRotatedDimension
1001
ACAD
1000
DSTYLE
1002
{
1070
    41
1040
2.5
1070
    42
1040
0.0
1070
   178
1070
     2
1070
   272
1070
     2
1070
   274
1070
     2
1070
   345
1005
0
1070
   346
1005
0
1070
   347
1005
0
1002
}
1001
ACAD_DSTYLE_DIMINSPECT
1070
   396
1000
100%
1070
   395
1000

1070
   394
1070
    33
1070
   393
1070
     0
  0
DIMENSION
  5
4005
330
1F
100
AcDbEntity
  8
2
100
AcDbDimension
  2
*D5
 10
41.0
 20
45.0
 30
0.0
 11
48.23984974940197
 21
45.0
 31
0.0
 70
   160
 71
     5
 42
14.0
  3
AM_DIN$0
100
AcDbAlignedDimension
 13
55.0
 23
16.0
 33
0.0
 14
41.0
 24
16.0
 34
0.0
100
AcDbRotatedDimension
1001
ACAD
1000
DSTYLE
1002
{
1070
    41
1040
2.5
1070
    42
1040
0.0
1070
   178
1070
     2
1070
   272
1070
     2
1070
   274
1070
     2
1070
   345
1005
0
1070
   346
1005
0
1070
   347
1005
0
1002
}
1001
ACAD_DSTYLE_DIMINSPECT
1070
   396
1000
100%
1070
   395
1000

1070
   394
1070
    33
1070
   393
1070
     0
  0
TEXT
  5
4059
330
1F
100
AcDbEntity
  8
6
100
AcDbText
 10
12.81582155369062
 20
-28.22524753647855
 30
0.0
 40
3.5
  1
15T1F032014Z4R00
100
AcDbText
  0
LINE
  5
4074
330
1F
100
AcDbEntity
  8
SK1
100
AcDbLine
 10
41.0
 20
15.53623063015118
 30
0.0
 11
41.0
 21
16.46376936984882
 31
0.0
  0
LINE
  5
4075
330
1F
100
AcDbEntity
  8
SK1
100
AcDbLine
 10
41.46376936984881
 20
16.0
 30
0.0
 11
40.53623063015118
 21
16.0
 31
0.0
  0
CIRCLE
  5
4076
330
1F
100
AcDbEntity
  8
SK1
100
AcDbCircle
 10
41.0
 20
16.0
 30
0.0
 40
0.4637693698488208
  0
ARC
  5
4089
330
1F
100
AcDbEntity
  8
1
100
AcDbCircle
 10
43.18185046832616
 20
9.471899698639361
 30
0.0
 40
6.200765355222102
100
AcDbArc
 50
189.0176472031183
 51
270.0
  0
LINE
  5
408E
330
1F
100
AcDbEntity
  8
SK3
 48
0.2
100
AcDbLine
 10
43.18185046832627
 20
-3.271134343417259
 30
0.0
 11
54.19999999999993
 21
-3.27113434341723
 31
0.0
  0
ARC
  5
408F
330
1F
100
AcDbEntity
  8
SK3
 48
0.2
100
AcDbCircle
 10
43.18185046832616
 20
-9.471899698639361
 30
0.0
 40
6.200765355222102
100
AcDbArc
 50
90.0
 51
170.98235279688
  0
LINE
  5
40AF
330
1F
100
AcDbEntity
  8
NOCUT
100
AcDbLine
 10
0.0
 20
0.0
 30
0.0
 11
54.20000000000005
 21
0.0
 31
0.0
  0
LINE
  5
40B0
330
1F
100
AcDbEntity
  8
NOCUT
100
AcDbLine
 10
0.0
 20
-24.5
 30
0.0
 11
0.0
 21
0.0
 31
0.0
  0
LINE
  5
40B1
330
1F
100
AcDbEntity
  8
NOCUT
100
AcDbLine
 10
0.0
 20
-24.5
 30
0.0
 11
10.50000000005081
 21
-24.5
 31
0.0
  0
LINE
  5
40B2
330
1F
100
AcDbEntity
  8
NOCUT
100
AcDbLine
 10
10.50000000005081
 20
-24.5
 30
0.0
 11
14.19139056400001
 21
-10.7235428646959
 31
0.0
  0
LINE
  5
40B3
330
1F
100
AcDbEntity
  8
NOCUT
100
AcDbLine
 10
17.08916804286809
 20
-8.5
 30
0.0
 11
40.85000000000014
 21
-8.500000000000028
 31
0.0
  0
ARC
  5
40B4
330
1F
100
AcDbEntity
  8
NOCUT
100
AcDbCircle
 10
17.08916804286809
 20
-11.5
 30
0.0
 40
3.0
100
AcDbArc
 50
90.0
 51
165.0000000000695
1001
GENIUS_GENODEF_13
1002
{
1000
HIER
1070
     0
1002
}
1002
{
1000
MANEDIT
1070
     0
1002
}
1002
{
1000
NOSEL
1070
     0
1002
}
1002
{
1000
BEHIND
1070
     0
1002
}
1002
{
1000
OTHER
1070
     0
1002
}
1002
{
1000
REACTOR
1002
}
1001
GENIUS_GENOBJ-N-FIL_13
1002
{
1000
OWNER
1000
GEN
1002
}
  0
ARC
  5
40B5
330
1F
100
AcDbEntity
  8
NOCUT
100
AcDbCircle
 10
40.85000000000014
 20
-9.500000000000028
 30
0.0
 40
1.0
100
AcDbArc
 50
0.0
 51
90.0
1001
GENIUS_GENODEF_13
1002
{
1000
HIER
1070
     0
1002
}
1002
{
1000
MANEDIT
1070
     0
1002
}
1002
{
1000
NOSEL
1070
     0
1002
}
1002
{
1000
BEHIND
1070
     0
1002
}
1002
{
1000
OTHER
1070
     0
1002
}
1002
{
1000
REACTOR
1002
}
1001
GENIUS_GENOBJ-N-FIL_13
1002
{
1000
OWNER
1000
GEN
1002
}
  0
LINE
  5
40B6
330
1F
100
AcDbEntity
  8
NOCUT
100
AcDbLine
 10
41.85000000000013
 20
-9.500000000000028
 30
0.0
 11
41.85000000000002
 21
-14.73230385434999
 31
0.0
  0
LINE
  5
40B7
330
1F
100
AcDbEntity
  8
NOCUT
100
AcDbLine
 10
41.85000000000002
 20
-14.73230385434999
 30
0.0
 11
54.20000000000005
 21
-14.73230385434999
 31
0.0
  0
LINE
  5
40B8
330
1F
100
AcDbEntity
  8
NOCUT
100
AcDbLine
 10
54.20000000000005
 20
-14.73230385434999
 30
0.0
 11
54.20000000000005
 21
0.0
 31
0.0
  0
TEXT
  5
40B9
330
1F
100
AcDbEntity
  8
6
100
AcDbText
 10
84.3090864559125
 20
-3.441219034737827
 30
0.0
 40
3.5
  1
(Z=2)
 50
90.0
100
AcDbText
  0
TEXT
  5
40BB
330
1F
100
AcDbEntity
  8
6
100
AcDbText
 10
90.75761285100986
 20
-6.046198422001992
 30
0.0
 40
3.5
  1
Zeff.=1
 50
90.0
100
AcDbText
  0
DIMENSION
  5
40CB
330
1F
100
AcDbEntity
  8
2
100
AcDbDimension
  2
*D6
 10
0.0000000000000031
 20
75.0
 30
0.0
 11
27.10000000000003
 21
75.0
 31
0.0
 70
   160
 71
     5
 42
55.0
  3
AM_DIN$0
100
AcDbAlignedDimension
 13
55.0
 23
16.0
 33
0.0
 14
0.0
 24
24.5
 34
0.0
100
AcDbRotatedDimension
1001
ACAD
1000
DSTYLE
1002
{
1070
    41
1040
2.5
1070
    42
1040
0.0
1070
   178
1070
     2
1070
   272
1070
     2
1070
   274
1070
     2
1070
   345
1005
0
1070
   346
1005
0
1070
   347
1005
0
1002
}
1001
ACAD_DSTYLE_DIMINSPECT
1070
   396
1000
100%
1070
   395
1000

1070
   394
1070
    33
1070
   393
1070
     0
  0
LINE
  5
431A
330
1F
100
AcDbEntity
  8
SK1
100
AcDbLine
 10
-0.0000000000002274
 20
-11.99999999999997
 30
0.0
 11
-30.00000000000028
 21
-11.99999999999997
 31
0.0
  0
LINE
  5
431B
330
1F
100
AcDbEntity
  8
SK1
100
AcDbLine
 10
-30.00000000000023
 20
-11.99999999999997
 30
0.0
 11
-33.10000000000025
 21
-11.64999999999998
 31
0.0
  0
ARC
  5
431C
330
1F
100
AcDbEntity
  8
SK1
100
AcDbCircle
 10
-34.00000000000023
 20
-11.0
 30
0.0
 40
1.0
100
AcDbArc
 50
180.0
 51
319.4583981264973
1001
GENIUS_GENODEF_13
1002
{
1000
HIER
1070
     0
1002
}
1002
{
1000
MANEDIT
1070
     0
1002
}
1002
{
1000
NOSEL
1070
     0
1002
}
1002
{
1000
BEHIND
1070
     0
1002
}
1002
{
1000
OTHER
1070
     0
1002
}
1002
{
1000
REACTOR
1002
}
1001
GENIUS_GENOBJ-N-FIL_13
1002
{
1000
OWNER
1000
GEN
1002
}
  0
LINE
  5
431D
330
1F
100
AcDbEntity
  8
SK1
100
AcDbLine
 10
-33.10000000000025
 20
-11.64999999999998
 30
0.0
 11
-33.24006579232167
 21
-11.64999999999998
 31
0.0
  0
ARC
  5
431E
330
1F
100
AcDbEntity
  8
SK1
100
AcDbCircle
 10
-34.00000000000023
 20
11.0
 30
0.0
 40
1.0
100
AcDbArc
 50
40.54160187350273
 51
180.0
1001
GENIUS_GENODEF_13
1002
{
1000
HIER
1070
     0
1002
}
1002
{
1000
MANEDIT
1070
     0
1002
}
1002
{
1000
NOSEL
1070
     0
1002
}
1002
{
1000
BEHIND
1070
     0
1002
}
1002
{
1000
OTHER
1070
     0
1002
}
1002
{
1000
REACTOR
1002
}
1001
GENIUS_GENOBJ-N-FIL_13
1002
{
1000
OWNER
1000
GEN
1002
}
  0
LINE
  5
431F
330
1F
100
AcDbEntity
  8
SK1
100
AcDbLine
 10
-0.0000000000002274
 20
12.00000000000003
 30
0.0
 11
-30.00000000000028
 21
12.00000000000003
 31
0.0
  0
LINE
  5
4320
330
1F
100
AcDbEntity
  8
SK1
100
AcDbLine
 10
-30.00000000000023
 20
12.00000000000003
 30
0.0
 11
-33.10000000000025
 21
11.65000000000003
 31
0.0
  0
LINE
  5
4321
330
1F
100
AcDbEntity
  8
SK1
100
AcDbLine
 10
-33.10000000000025
 20
11.65000000000003
 30
0.0
 11
-33.24006579232167
 21
11.65000000000003
 31
0.0
  0
LINE
  5
4322
330
1F
100
AcDbEntity
  8
SK1
100
AcDbLine
 10
-35.00000000000023
 20
-10.99999999999997
 30
0.0
 11
-35.00000000000023
 21
11.00000000000003
 31
0.0
  0
LINE
  5
4323
330
1F
100
AcDbEntity
  8
SK1
100
AcDbLine
 10
-16.98960756861447
 20
-6.999999999999971
 30
0.0
 11
-18.68883222676015
 21
-6.999999999999971
 31
0.0
  0
LINE
  5
4324
330
1F
100
AcDbEntity
  8
SK1
100
AcDbLine
 10
-16.98960756861447
 20
7.000000000000028
 30
0.0
 11
-18.68883222676015
 21
7.000000000000028
 31
0.0
  0
ARC
  5
4325
330
1F
100
AcDbEntity
  8
SK1
100
AcDbCircle
 10
-17.08460432395191
 20
0.0
 30
0.0
 40
7.181472492751646
100
AcDbArc
 50
102.9078848854386
 51
257.0921151145614
  0
LINE
  5
4326
330
1F
100
AcDbEntity
  8
SK1
100
AcDbLine
 10
-18.68883222676015
 20
-3.999999999999971
 30
0.0
 11
-18.68883222676015
 21
4.000000000000028
 31
0.0
  0
ARC
  5
4327
330
1F
100
AcDbEntity
  8
SK1
100
AcDbCircle
 10
-15.19095324358244
 20
-4.0
 30
0.0
 40
3.497878983177713
100
AcDbArc
 50
180.0
 51
239.0551446332088
  0
ARC
  5
4328
330
1F
100
AcDbEntity
  8
SK1
100
AcDbCircle
 10
-15.19095324358244
 20
4.0
 30
0.0
 40
3.497878983177713
100
AcDbArc
 50
120.9448553667913
 51
179.9999999999992
  0
ARC
  5
4329
330
1F
100
AcDbEntity
  8
SK1
100
AcDbCircle
 10
-22.8694665988325
 20
0.0
 30
0.0
 40
9.141812851685189
100
AcDbArc
 50
310.0295827564067
 51
49.97041724359328
  0
LINE
  5
432A
330
1F
100
AcDbEntity
  8
SK1
100
AcDbLine
 10
-30.00000000000023
 20
-11.99999999999997
 30
0.0
 11
-30.00000000000023
 21
12.00000000000003
 31
0.0
  0
LINE
  5
432B
330
1F
100
AcDbEntity
  8
SK1
100
AcDbLine
 10
-33.24006579232167
 20
-11.64999999999998
 30
0.0
 11
-33.24006579232167
 21
11.65
 31
0.0
  0
LINE
  5
432C
330
1F
100
AcDbEntity
  8
SK4
100
AcDbLine
 10
-12.00000000000023
 20
-12.82925254711188
 30
0.0
 11
-12.00000000000023
 21
13.96286389869328
 31
0.0
  0
CIRCLE
  5
432D
330
1F
100
AcDbEntity
  8
SK1
100
AcDbCircle
 10
-12.00000000000023
 20
0.0
 30
0.0
 40
1.75
  0
LINE
  5
432E
330
1F
100
AcDbEntity
  8
SK3
 48
0.3
100
AcDbLine
 10
-10.25000000000023
 20
-11.99999999999997
 30
0.0
 11
-10.25000000000023
 21
-3.0
 31
0.0
  0
LINE
  5
432F
330
1F
100
AcDbEntity
  8
SK3
 48
0.3
100
AcDbLine
 10
-13.75000000000028
 20
-11.99999999999997
 30
0.0
 11
-13.75000000000023
 21
-2.999999999999971
 31
0.0
  0
LINE
  5
4330
330
1F
100
AcDbEntity
  8
SK4
100
AcDbLine
 10
10.78211520763284
 20
18.0
 30
0.0
 11
-2.817613997200851
 21
18.0
 31
0.0
  0
LINE
  5
4331
330
1F
100
AcDbEntity
  8
SK3
 48
0.3
100
AcDbLine
 10
26.25731745403505
 20
-2.999999999999985
 30
0.0
 11
-35.00000000000023
 21
-2.999999999999971
 31
0.0
  0
LINE
  5
4332
330
1F
100
AcDbEntity
  8
SK3
 48
0.3
100
AcDbLine
 10
26.09174773701852
 20
3.0
 30
0.0
 11
-35.00000000000023
 21
3.000000000000028
 31
0.0
  0
LINE
  5
4333
330
1F
100
AcDbEntity
  8
SK3
 48
0.3
100
AcDbLine
 10
-10.25000000000023
 20
3.0
 30
0.0
 11
-10.25000000000023
 21
12.00000000000003
 31
0.0
  0
LINE
  5
4334
330
1F
100
AcDbEntity
  8
SK3
 48
0.3
100
AcDbLine
 10
-13.75000000000023
 20
3.000000000000028
 30
0.0
 11
-13.75000000000023
 21
12.00000000000003
 31
0.0
  0
LINE
  5
4335
330
1F
100
AcDbEntity
  8
SK4
100
AcDbLine
 10
-0.0000000000002274
 20
0.0
 30
0.0
 11
-38.24007757597087
 21
0.0000000000000284
 31
0.0
  0
LINE
  5
4336
330
1F
100
AcDbEntity
  8
SK3
 48
0.5
100
AcDbLine
 10
7.196686695177049
 20
22.0
 30
0.0
 11
-0.0000000000002274
 21
22.0
 31
0.0
  0
LINE
  5
4337
330
1F
100
AcDbEntity
  8
SK3
 48
0.5
100
AcDbLine
 10
7.196686695177049
 20
22.0
 30
0.0
 11
9.506087771935654
 21
18.0
 31
0.0
  0
LINE
  5
4338
330
1F
100
AcDbEntity
  8
SK3
 48
0.5
100
AcDbLine
 10
7.196686695177049
 20
14.0
 30
0.0
 11
7.196686695177049
 21
22.0
 31
0.0
  0
LINE
  5
4339
330
1F
100
AcDbEntity
  8
SK3
 48
0.5
100
AcDbLine
 10
7.196686695177049
 20
14.0
 30
0.0
 11
-0.0000000000002274
 21
14.0
 31
0.0
  0
LINE
  5
433A
330
1F
100
AcDbEntity
  8
SK3
 48
0.5
100
AcDbLine
 10
7.196686695177049
 20
14.0
 30
0.0
 11
9.506087771935654
 21
18.0
 31
0.0
  0
LINE
  5
433B
330
1F
100
AcDbEntity
  8
SK1
100
AcDbLine
 10
-1.828602898698591
 20
12.0
 30
0.0
 11
-1.828602898698591
 21
-12.0
 31
0.0
  0
DIMENSION
  5
433C
330
1F
100
AcDbEntity
  8
SK2
100
AcDbDimension
  2
*D7
 10
-48.30042214622835
 20
-11.99999999999996
 30
0.0
 11
-51.34319359390883
 21
-0.1122779170276829
 31
0.0
 70
   160
  1
%%c<>
 71
     5
 42
24.0
 53
90.0
  3
AM_ANSI
100
AcDbAlignedDimension
 13
-30.00000000000023
 23
12.00000000000003
 33
0.0
 14
-30.00000000000023
 24
-11.99999999999997
 34
0.0
 50
90.0
100
AcDbRotatedDimension
1001
ACAD
1000
DSTYLE
1002
{
1070
    41
1040
2.399999999999999
1070
    42
1040
0.0
1070
    44
1040
1.0
1070
    77
1070
     1
1070
   140
1040
3.5
1070
   147
1040
1.0
1070
   271
1070
     0
1002
}
  0
CIRCLE
  5
433D
330
1F
100
AcDbEntity
  8
SK1
100
AcDbCircle
 10
0.0
 20
0.0
 30
0.0
 40
2.106813362574455
  0
LINE
  5
433E
330
1F
100
AcDbEntity
  8
SK1
100
AcDbLine
 10
-1.489742015370836
 20
-1.48974201537085
 30
0.0
 11
1.489742015370836
 21
1.489742015370808
 31
0.0
  0
LINE
  5
433F
330
1F
100
AcDbEntity
  8
SK1
100
AcDbLine
 10
-1.489742015370836
 20
1.489742015370836
 30
0.0
 11
1.489742015370836
 21
-1.489742015370836
 31
0.0
  0
TEXT
  5
4340
330
1F
100
AcDbEntity
  8
SK6
100
AcDbText
 10
-29.2804935023953
 20
16.49936759697439
 30
0.0
 40
2.5
  1
modular 40
100
AcDbText
  0
DIMENSION
  5
4341
330
1F
100
AcDbEntity
  8
SK2
100
AcDbDimension
  2
*D8
 10
-58.30042214622835
 20
-24.49999999999998
 30
0.0
 11
-61.55042214622834
 21
0.0000000000000075
 31
0.0
 70
    32
  1
%%c<>
 71
     5
 42
49.0
  3
AM_DIN$0
100
AcDbAlignedDimension
 13
-0.0000000000002274
 23
24.5
 33
0.0
 14
0.0
 24
-24.5
 34
0.0
 50
90.0
100
AcDbRotatedDimension
1001
ACAD_DSTYLE_DIMINSPECT
1070
   396
1000
100%
1070
   395
1000

1070
   394
1070
    33
1070
   393
1070
     0
  0
LINE
  5
4342
330
1F
100
AcDbEntity
  8
SK4
100
AcDbLine
 10
10.78211520763284
 20
-17.9999999999998
 30
0.0
 11
-2.817613997200851
 21
-17.9999999999998
 31
0.0
  0
LINE
  5
4343
330
1F
100
AcDbEntity
  8
SK3
 48
0.5
100
AcDbLine
 10
7.196686695177049
 20
-21.9999999999998
 30
0.0
 11
-0.0000000000002274
 21
-21.9999999999998
 31
0.0
  0
LINE
  5
4344
330
1F
100
AcDbEntity
  8
SK3
 48
0.5
100
AcDbLine
 10
7.196686695177049
 20
-21.9999999999998
 30
0.0
 11
9.506087771935654
 21
-17.9999999999998
 31
0.0
  0
LINE
  5
4345
330
1F
100
AcDbEntity
  8
SK3
 48
0.5
100
AcDbLine
 10
7.196686695177049
 20
-13.9999999999998
 30
0.0
 11
7.196686695177049
 21
-21.9999999999998
 31
0.0
  0
LINE
  5
4346
330
1F
100
AcDbEntity
  8
SK3
 48
0.5
100
AcDbLine
 10
7.196686695177049
 20
-13.9999999999998
 30
0.0
 11
-0.0000000000002274
 21
-13.9999999999998
 31
0.0
  0
LINE
  5
4347
330
1F
100
AcDbEntity
  8
SK3
 48
0.5
100
AcDbLine
 10
7.196686695177049
 20
-13.9999999999998
 30
0.0
 11
9.506087771935654
 21
-17.9999999999998
 31
0.0
  0
LINE
  5
4348
330
1F
100
AcDbEntity
  8
4
100
AcDbLine
 10
58.31062772527173
 20
0.0000000000000995
 30
0.0
 11
-0.0000000000007958
 21
0.0000000000002274
 31
0.0
  0
LINE
  5
4373
330
1F
100
AcDbEntity
  8
1
100
AcDbLine
 10
10.50000000005081
 20
-24.5
 30
0.0
 11
10.50000000005081
 21
24.5
 31
0.0
  0
LINE
  5
45C4
330
1F
100
AcDbEntity
  8
CUT
100
AcDbLine
 10
45.47999999999996
 20
15.2
 30
0.0
 11
45.47999999999996
 21
7.280000000000001
 31
0.0
  0
ARC
  5
45C5
330
1F
100
AcDbEntity
  8
CUT
100
AcDbCircle
 10
46.27999999999997
 20
7.280000000000001
 30
0.0
 40
0.8
100
AcDbArc
 50
180.0
 51
270.0
1001
GENIUS_GENOBJ-N-FIL_13
1002
{
1000
OWNER
1000
GEN
1002
}
1001
GENIUS_GENODEF_13
1002
{
1000
HIER
1070
     0
1002
}
1002
{
1000
MANEDIT
1070
     0
1002
}
1002
{
1000
NOSEL
1070
     0
1002
}
1002
{
1000
BEHIND
1070
     0
1002
}
1002
{
1000
OTHER
1070
     0
1002
}
1002
{
1000
REACTOR
1002
}
  0
ARC
  5
45C6
330
1F
100
AcDbEntity
  8
CUT
100
AcDbCircle
 10
46.27999999999997
 20
15.2
 30
0.0
 40
0.8
100
AcDbArc
 50
90.0
 51
180.0
1001
GENIUS_GENOBJ-N-FIL_13
1002
{
1000
OWNER
1000
GEN
1002
}
1001
GENIUS_GENODEF_13
1002
{
1000
HIER
1070
     0
1002
}
1002
{
1000
MANEDIT
1070
     0
1002
}
1002
{
1000
NOSEL
1070
     0
1002
}
1002
{
1000
BEHIND
1070
     0
1002
}
1002
{
1000
OTHER
1070
     0
1002
}
1002
{
1000
REACTOR
1002
}
  0
LINE
  5
45C7
330
1F
100
AcDbEntity
  8
CUT
100
AcDbLine
 10
55.0
 20
15.2
 30
0.0
 11
54.99999999999994
 21
7.279999999999986
 31
0.0
  0
ARC
  5
45C8
330
1F
100
AcDbEntity
  8
CUT
100
AcDbCircle
 10
54.19999999999999
 20
15.2
 30
0.0
 40
0.8
100
AcDbArc
 50
0.0
 51
90.0
1001
GENIUS_GENOBJ-N-FIL_13
1002
{
1000
OWNER
1000
GEN
1002
}
1001
GENIUS_GENODEF_13
1002
{
1000
HIER
1070
     0
1002
}
1002
{
1000
MANEDIT
1070
     0
1002
}
1002
{
1000
NOSEL
1070
     0
1002
}
1002
{
1000
BEHIND
1070
     0
1002
}
1002
{
1000
OTHER
1070
     0
1002
}
1002
{
1000
REACTOR
1002
}
  0
LINE
  5
45C9
330
1F
100
AcDbEntity
  8
CUT
100
AcDbLine
 10
46.27999999999997
 20
6.480000000000003
 30
0.0
 11
54.19999999999993
 21
6.480000000000003
 31
0.0
  0
ARC
  5
45CA
330
1F
100
AcDbEntity
  8
CUT
100
AcDbCircle
 10
54.19999999999993
 20
7.279999999999986
 30
0.0
 40
0.8
100
AcDbArc
 50
270.0
 51
0.0
1001
GENIUS_GENODEF_13
1002
{
1000
HIER
1070
     0
1002
}
1002
{
1000
MANEDIT
1070
     0
1002
}
1002
{
1000
NOSEL
1070
     0
1002
}
1002
{
1000
BEHIND
1070
     0
1002
}
1002
{
1000
OTHER
1070
     0
1002
}
1002
{
1000
REACTOR
1002
}
1001
GENIUS_GENOBJ-N-FIL_13
1002
{
1000
OWNER
1000
GEN
1002
}
  0
LINE
  5
45CB
330
1F
100
AcDbEntity
  8
CUT
100
AcDbLine
 10
46.27999999999997
 20
16.0
 30
0.0
 11
54.19999999999999
 21
15.99999999999998
 31
0.0
  0
CIRCLE
  5
45CC
330
1F
100
AcDbEntity
  8
1
100
AcDbCircle
 10
50.23999999999995
 20
11.23999999999999
 30
0.0
 40
2.356125108246953
  0
LINE
  5
45CF
330
1F
100
AcDbEntity
  8
SK1
100
AcDbLine
 10
41.0009208453568
 20
-15.53623063015144
 30
0.0
 11
41.00092084535669
 21
-16.46376936984907
 31
0.0
  0
LINE
  5
45D0
330
1F
100
AcDbEntity
  8
SK1
100
AcDbLine
 10
41.46469021520556
 20
-16.00000000000031
 30
0.0
 11
40.53715147550792
 21
-16.00000000000018
 31
0.0
  0
CIRCLE
  5
45D1
330
1F
100
AcDbEntity
  8
SK1
100
AcDbCircle
 10
41.00092084535674
 20
-16.00000000000025
 30
0.0
 40
0.4637693698488208
  0
LINE
  5
45D2
330
1F
100
AcDbEntity
  8
SK1
100
AcDbLine
 10
41.00092084536115
 20
-15.53623063015119
 30
0.0
 11
41.00092084536123
 21
-16.46376936984882
 31
0.0
  0
LINE
  5
45D3
330
1F
100
AcDbEntity
  8
SK1
100
AcDbLine
 10
41.46469021520999
 20
-15.99999999999996
 30
0.0
 11
40.53715147551236
 21
-16.00000000000004
 31
0.0
  0
CIRCLE
  5
45D4
330
1F
100
AcDbEntity
  8
SK1
100
AcDbCircle
 10
41.00092084536117
 20
-16.0
 30
0.0
 40
0.4637693698488208
  0
LINE
  5
45D5
330
1F
100
AcDbEntity
  8
SK3
 48
0.2
100
AcDbLine
 10
41.00092084536117
 20
-7.280000000000001
 30
0.0
 11
41.00092084536117
 21
-8.511454149553268
 31
0.0
  0
LINE
  5
45D6
330
1F
100
AcDbEntity
  8
1
 48
0.2
100
AcDbLine
 10
41.00092084536117
 20
-14.75000000000003
 30
0.0
 11
41.00092084536117
 21
-15.19999999999999
 31
0.0
  0
ARC
  5
45D7
330
1F
100
AcDbEntity
  8
1
 48
0.2
100
AcDbCircle
 10
41.80092084536116
 20
-15.19999999999999
 30
0.0
 40
0.8
100
AcDbArc
 50
180.0
 51
270.0
1001
GENIUS_GENOBJ-N-FIL_13
1002
{
1000
OWNER
1000
GEN
1002
}
1001
GENIUS_GENODEF_13
1002
{
1000
HIER
1070
     0
1002
}
1002
{
1000
MANEDIT
1070
     0
1002
}
1002
{
1000
NOSEL
1070
     0
1002
}
1002
{
1000
BEHIND
1070
     0
1002
}
1002
{
1000
OTHER
1070
     0
1002
}
1002
{
1000
REACTOR
1002
}
  0
ARC
  5
45D8
330
1F
100
AcDbEntity
  8
SK3
 48
0.2
100
AcDbCircle
 10
41.80092084536116
 20
-7.280000000000001
 30
0.0
 40
0.8
100
AcDbArc
 50
90.0
 51
125.2935260165636
1001
GENIUS_GENOBJ-N-FIL_13
1002
{
1000
OWNER
1000
GEN
1002
}
1001
GENIUS_GENODEF_13
1002
{
1000
HIER
1070
     0
1002
}
1002
{
1000
MANEDIT
1070
     0
1002
}
1002
{
1000
NOSEL
1070
     0
1002
}
1002
{
1000
BEHIND
1070
     0
1002
}
1002
{
1000
OTHER
1070
     0
1002
}
1002
{
1000
REACTOR
1002
}
  0
ARC
  5
45D9
330
1F
100
AcDbEntity
  8
SK3
 48
0.2
100
AcDbCircle
 10
41.80092084536116
 20
-7.280000000000001
 30
0.0
 40
0.8
100
AcDbArc
 50
125.2935260165636
 51
180.0
1001
GENIUS_GENOBJ-N-FIL_13
1002
{
1000
OWNER
1000
GEN
1002
}
1001
GENIUS_GENODEF_13
1002
{
1000
HIER
1070
     0
1002
}
1002
{
1000
MANEDIT
1070
     0
1002
}
1002
{
1000
NOSEL
1070
     0
1002
}
1002
{
1000
BEHIND
1070
     0
1002
}
1002
{
1000
OTHER
1070
     0
1002
}
1002
{
1000
REACTOR
1002
}
  0
LINE
  5
45DA
330
1F
100
AcDbEntity
  8
SK3
 48
0.2
100
AcDbLine
 10
50.52092084536116
 20
-7.280000000000001
 30
0.0
 11
50.52092084536116
 21
-14.73230385435
 31
0.0
  0
LINE
  5
45DB
330
1F
100
AcDbEntity
  8
1
 48
0.2
100
AcDbLine
 10
50.52092084536116
 20
-14.73230385435
 30
0.0
 11
50.52092084536116
 21
-15.2
 31
0.0
  0
ARC
  5
45DC
330
1F
100
AcDbEntity
  8
SK3
 48
0.2
100
AcDbCircle
 10
49.72092084536114
 20
-7.280000000000001
 30
0.0
 40
0.8
100
AcDbArc
 50
0.0
 51
90.0
1001
GENIUS_GENOBJ-N-FIL_13
1002
{
1000
OWNER
1000
GEN
1002
}
1001
GENIUS_GENODEF_13
1002
{
1000
HIER
1070
     0
1002
}
1002
{
1000
MANEDIT
1070
     0
1002
}
1002
{
1000
NOSEL
1070
     0
1002
}
1002
{
1000
BEHIND
1070
     0
1002
}
1002
{
1000
OTHER
1070
     0
1002
}
1002
{
1000
REACTOR
1002
}
  0
LINE
  5
45DD
330
1F
100
AcDbEntity
  8
1
 48
0.2
100
AcDbLine
 10
41.80092084536116
 20
-16.0
 30
0.0
 11
49.72092084536114
 21
-16.0
 31
0.0
  0
ARC
  5
45DE
330
1F
100
AcDbEntity
  8
1
 48
0.2
100
AcDbCircle
 10
49.72092084536114
 20
-15.2
 30
0.0
 40
0.8
100
AcDbArc
 50
270.0
 51
0.0
1001
GENIUS_GENODEF_13
1002
{
1000
HIER
1070
     0
1002
}
1002
{
1000
MANEDIT
1070
     0
1002
}
1002
{
1000
NOSEL
1070
     0
1002
}
1002
{
1000
BEHIND
1070
     0
1002
}
1002
{
1000
OTHER
1070
     0
1002
}
1002
{
1000
REACTOR
1002
}
1001
GENIUS_GENOBJ-N-FIL_13
1002
{
1000
OWNER
1000
GEN
1002
}
  0
LINE
  5
45DF
330
1F
100
AcDbEntity
  8
SK3
 48
0.2
100
AcDbLine
 10
41.80092084536116
 20
-6.479999999999996
 30
0.0
 11
49.72092084536114
 21
-6.480000000000003
 31
0.0
  0
CIRCLE
  5
45E0
330
1F
100
AcDbEntity
  8
SK3
 48
0.2
100
AcDbCircle
 10
45.76092084536116
 20
-11.23999999999999
 30
0.0
 40
2.356125108246953
  0
LINE
  5
45E1
330
1F
100
AcDbEntity
  8
SK1
100
AcDbLine
 10
41.00092084536117
 20
-16.46376936984882
 30
0.0
 11
41.00092084536117
 21
-15.53623063015118
 31
0.0
  0
LINE
  5
45E2
330
1F
100
AcDbEntity
  8
SK1
100
AcDbLine
 10
41.46469021520999
 20
-16.0
 30
0.0
 11
40.53715147551236
 21
-16.0
 31
0.0
  0
CIRCLE
  5
45E3
330
1F
100
AcDbEntity
  8
SK1
100
AcDbCircle
 10
41.00092084536117
 20
-16.0
 30
0.0
 40
0.4637693698488208
  0
LINE
  5
45ED
330
1F
100
AcDbEntity
  8
1
 48
0.2
100
AcDbLine
 10
41.00092084536117
 20
-8.511454149553268
 30
0.0
 11
41.00092084536117
 21
-14.75000000000003
 31
0.0
  0
LINE
  5
45F5
330
1F
100
AcDbEntity
  8
SK4
100
AcDbLine
 10
36.01082361182031
 20
-0.7918643912855745
 30
0.0
 11
43.21904451903675
 21
-5.795722645030551
 31
0.0
  0
DIMENSION
  5
4645
330
1F
100
AcDbEntity
  8
2
100
AcDbDimension
  2
*D9
 10
33.90285062580824
 20
-8.500000000000031
 30
0.0
 11
33.90285062580824
 21
3.149999999999992
 31
0.0
 70
   160
  1
%%c<>
 71
     5
 42
17.00000000000004
  3
AM_DIN$0
100
AcDbAlignedDimension
 13
39.27492999709557
 23
8.500000000000005
 33
0.0
 14
39.27492999709555
 24
-8.500000000000033
 34
0.0
 50
90.0000000000001
100
AcDbRotatedDimension
1001
ACAD
1000
DSTYLE
1002
{
1070
    41
1040
2.5
1070
    42
1040
0.0
1070
   178
1070
     2
1070
   272
1070
     2
1070
   274
1070
     2
1002
}
1001
ACAD_DSTYLE_DIMINSPECT
1070
   396
1000
100%
1070
   395
1000

1070
   394
1070
    33
1070
   393
1070
     0
  0
LINE
  5
46DD
330
1F
100
AcDbEntity
  8
1
100
AcDbLine
 10
45.47999999999996
 20
15.2
 30
0.0
 11
45.47999999999996
 21
7.280000000000001
 31
0.0
  0
ARC
  5
46DE
330
1F
100
AcDbEntity
  8
1
100
AcDbCircle
 10
46.27999999999997
 20
7.280000000000001
 30
0.0
 40
0.8
100
AcDbArc
 50
180.0
 51
270.0
1001
GENIUS_GENOBJ-N-FIL_13
1002
{
1000
OWNER
1000
GEN
1002
}
1001
GENIUS_GENODEF_13
1002
{
1000
HIER
1070
     0
1002
}
1002
{
1000
MANEDIT
1070
     0
1002
}
1002
{
1000
NOSEL
1070
     0
1002
}
1002
{
1000
BEHIND
1070
     0
1002
}
1002
{
1000
OTHER
1070
     0
1002
}
1002
{
1000
REACTOR
1002
}
  0
ARC
  5
46DF
330
1F
100
AcDbEntity
  8
1
100
AcDbCircle
 10
46.27999999999997
 20
15.2
 30
0.0
 40
0.8
100
AcDbArc
 50
90.0
 51
180.0
1001
GENIUS_GENOBJ-N-FIL_13
1002
{
1000
OWNER
1000
GEN
1002
}
1001
GENIUS_GENODEF_13
1002
{
1000
HIER
1070
     0
1002
}
1002
{
1000
MANEDIT
1070
     0
1002
}
1002
{
1000
NOSEL
1070
     0
1002
}
1002
{
1000
BEHIND
1070
     0
1002
}
1002
{
1000
OTHER
1070
     0
1002
}
1002
{
1000
REACTOR
1002
}
  0
LINE
  5
46E0
330
1F
100
AcDbEntity
  8
1
100
AcDbLine
 10
55.0
 20
15.2
 30
0.0
 11
54.99999999999995
 21
7.279999999999986
 31
0.0
  0
ARC
  5
46E1
330
1F
100
AcDbEntity
  8
1
100
AcDbCircle
 10
54.19999999999999
 20
15.2
 30
0.0
 40
0.8
100
AcDbArc
 50
0.0
 51
90.0
1001
GENIUS_GENOBJ-N-FIL_13
1002
{
1000
OWNER
1000
GEN
1002
}
1001
GENIUS_GENODEF_13
1002
{
1000
HIER
1070
     0
1002
}
1002
{
1000
MANEDIT
1070
     0
1002
}
1002
{
1000
NOSEL
1070
     0
1002
}
1002
{
1000
BEHIND
1070
     0
1002
}
1002
{
1000
OTHER
1070
     0
1002
}
1002
{
1000
REACTOR
1002
}
  0
LINE
  5
46E2
330
1F
100
AcDbEntity
  8
1
100
AcDbLine
 10
46.27999999999997
 20
6.480000000000003
 30
0.0
 11
54.19999999999994
 21
6.480000000000003
 31
0.0
  0
ARC
  5
46E3
330
1F
100
AcDbEntity
  8
1
100
AcDbCircle
 10
54.19999999999994
 20
7.279999999999986
 30
0.0
 40
0.8
100
AcDbArc
 50
270.0
 51
0.0
1001
GENIUS_GENODEF_13
1002
{
1000
HIER
1070
     0
1002
}
1002
{
1000
MANEDIT
1070
     0
1002
}
1002
{
1000
NOSEL
1070
     0
1002
}
1002
{
1000
BEHIND
1070
     0
1002
}
1002
{
1000
OTHER
1070
     0
1002
}
1002
{
1000
REACTOR
1002
}
1001
GENIUS_GENOBJ-N-FIL_13
1002
{
1000
OWNER
1000
GEN
1002
}
  0
LINE
  5
46E4
330
1F
100
AcDbEntity
  8
1
100
AcDbLine
 10
46.27999999999997
 20
16.0
 30
0.0
 11
54.19999999999999
 21
15.99999999999998
 31
0.0
  0
ENDSEC
  0
SECTION
  2
OBJECTS
  0
DICTIONARY
  5
C
330
0
100
AcDbDictionary
281
     1
  3
ACAD_2007HEADERVARS_RT
350
46F3
  3
ACAD_COLOR
350
28BD
  3
ACAD_GROUP
350
D
  3
ACAD_LAYOUT
350
1A
  3
ACAD_MATERIAL
350
28BC
  3
ACAD_MLEADERSTYLE
350
3A0B
  3
ACAD_MLINESTYLE
350
17
  3
ACAD_PLOTSETTINGS
350
19
  3
ACAD_PLOTSTYLENAME
350
E
  3
ACAD_SCALELIST
350
39F9
  3
ACAD_TABLESTYLE
350
28BE
  3
ACAD_VISUALSTYLE
350
39E8
  3
ACDB_RECOMPOSE_DATA
350
3CB8
  3
AcDbVariableDictionary
350
216
  3
AcmDictionary
350
45
  3
AMG
350
41
  3
AMGSNAPSETTINGS
350
23D
  0
DICTIONARY
  5
43AF
330
8
100
AcDbDictionary
280
     1
281
     1
  0
DICTIONARY
  5
3AA3
330
10
100
AcDbDictionary
280
     1
281
     1
  3
ADSK_XREC_LAYER_RECONCILED
360
3AA4
  0
DICTIONARY
  5
3AA5
330
1E30
100
AcDbDictionary
280
     1
281
     1
  3
ADSK_XREC_LAYER_RECONCILED
360
3AA6
  0
DICTIONARY
  5
3AA7
330
1E31
100
AcDbDictionary
280
     1
281
     1
  3
ADSK_XREC_LAYER_RECONCILED
360
3AA8
  0
DICTIONARY
  5
3AAB
330
1E33
100
AcDbDictionary
280
     1
281
     1
  3
ADSK_XREC_LAYER_RECONCILED
360
3AAC
  0
DICTIONARY
  5
3AAD
330
1E34
100
AcDbDictionary
280
     1
281
     1
  3
ADSK_XREC_LAYER_RECONCILED
360
3AAE
  0
DICTIONARY
  5
3AB1
330
1E36
100
AcDbDictionary
280
     1
281
     1
  3
ADSK_XREC_LAYER_RECONCILED
360
3AB2
  0
DICTIONARY
  5
3AB3
330
1E37
100
AcDbDictionary
280
     1
281
     1
  3
ADSK_XREC_LAYER_RECONCILED
360
3AB4
  0
DICTIONARY
  5
3AB5
330
1E38
100
AcDbDictionary
280
     1
281
     1
  3
ADSK_XREC_LAYER_RECONCILED
360
3AB6
  0
DICTIONARY
  5
3AB7
330
2F1F
100
AcDbDictionary
280
     1
281
     1
  3
ADSK_XREC_LAYER_RECONCILED
360
3AB8
  0
DICTIONARY
  5
416E
330
416D
100
AcDbDictionary
280
     1
281
     1
  0
DICTIONARY
  5
4170
330
416F
100
AcDbDictionary
280
     1
281
     1
  0
DICTIONARY
  5
4172
330
4171
100
AcDbDictionary
280
     1
281
     1
  0
DICTIONARY
  5
1F1
330
1F
100
AcDbDictionary
280
     1
281
     1
  3
ACAD_SORTENTS
360
2942
  0
DICTIONARY
  5
46F3
102
{ACAD_REACTORS
330
C
102
}
330
C
100
AcDbDictionary
281
     1
  3
DIMJOGANG
350
46F4
  3
DIMLTEX1
350
46F6
  3
DIMLTEX2
350
46F7
  3
DIMLTYPE
350
46F5
  0
DICTIONARY
  5
28BD
102
{ACAD_REACTORS
330
C
102
}
330
C
100
AcDbDictionary
281
     1
  0
DICTIONARY
  5
D
102
{ACAD_REACTORS
330
C
102
}
330
C
100
AcDbDictionary
281
     1
  0
DICTIONARY
  5
1A
102
{ACAD_REACTORS
330
C
102
}
330
C
100
AcDbDictionary
281
     1
  3
Layout1
350
1E
  3
Layout2
350
26
  3
Model
350
22
  0
DICTIONARY
  5
28BC
102
{ACAD_REACTORS
330
C
102
}
330
C
100
AcDbDictionary
281
     1
  3
ByBlock
350
39D8
  3
ByLayer
350
39D0
  3
Global
350
39E0
  0
DICTIONARY
  5
3A0B
102
{ACAD_REACTORS
330
C
102
}
330
C
100
AcDbDictionary
281
     1
  3
Standard
350
3A0C
  0
DICTIONARY
  5
17
102
{ACAD_REACTORS
330
C
102
}
330
C
100
AcDbDictionary
281
     1
  3
Standard
350
18
  0
DICTIONARY
  5
19
102
{ACAD_REACTORS
330
C
102
}
330
C
100
AcDbDictionary
281
     1
  0
ACDBDICTIONARYWDFLT
  5
E
102
{ACAD_REACTORS
330
C
102
}
330
C
100
AcDbDictionary
281
     1
  3
Normal
350
F
100
AcDbDictionaryWithDefault
340
F
  0
DICTIONARY
  5
39F9
102
{ACAD_REACTORS
330
C
102
}
330
C
100
AcDbDictionary
281
     1
  3
A0
350
39FA
  3
A1
350
39FB
  3
A2
350
39FC
  3
A3
350
39FD
  3
A4
350
39FE
  3
A5
350
39FF
  3
A6
350
3A00
  3
A7
350
3A01
  3
A8
350
3A02
  3
A9
350
3A03
  3
B0
350
3A04
  3
B1
350
3A05
  3
B2
350
3A06
  3
B3
350
3A07
  3
B4
350
3A08
  3
B5
350
3A09
  3
B6
350
3A0A
  0
DICTIONARY
  5
28BE
102
{ACAD_REACTORS
330
C
102
}
330
C
100
AcDbDictionary
281
     1
  3
Standard
350
28BF
  0
DICTIONARY
  5
39E8
102
{ACAD_REACTORS
330
C
102
}
330
C
100
AcDbDictionary
281
     1
  3
2dWireframe
350
39EE
  3
3D Hidden
350
39F0
  3
3dWireframe
350
39EF
  3
Basic
350
39ED
  3
Brighten
350
39F4
  3
ColorChange
350
39F8
  3
Conceptual
350
39F1
  3
Dim
350
39F3
  3
Facepattern
350
39F7
  3
Flat
350
39E9
  3
FlatWithEdges
350
39EA
  3
Gouraud
350
39EB
  3
GouraudWithEdges
350
39EC
  3
Linepattern
350
39F6
  3
Realistic
350
39F2
  3
Thicken
350
39F5
  0
XRECORD
  5
3CB8
102
{ACAD_REACTORS
330
C
102
}
330
C
100
AcDbXrecord
280
     1
 90
        1
330
28BF
  0
DICTIONARY
  5
216
102
{ACAD_REACTORS
330
C
102
}
330
C
100
AcDbDictionary
281
     1
  3
CANNOSCALE
350
3CBB
  3
CMLEADERSTYLE
350
3CB9
  3
CTABLESTYLE
350
2935
  3
DIMASSOC
350
219
  3
HIDETEXT
350
218
  3
INDEXCTL
350
217
  3
LAYEREVAL
350
3CBD
  3
LAYERNOTIFY
350
3CBE
  3
LIGHTINGUNITS
350
3CBC
  3
MSLTSCALE
350
3CBA
  3
PROJECTNAME
350
30C6
  0
DICTIONARY
  5
45
102
{ACAD_REACTORS
330
C
102
}
330
C
100
AcDbDictionary
281
     1
  3
AcmStdDictionary
350
4A
  3
AMDTSECTSYM_ARROWCOLOR
350
290D
  0
DICTIONARY
  5
41
102
{ACAD_REACTORS
330
C
102
}
330
C
100
AcDbDictionary
281
     1
  0
DICTIONARY
  5
23D
102
{ACAD_REACTORS
330
C
102
}
330
C
100
AcDbDictionary
281
     1
  0
XRECORD
  5
3AA4
102
{ACAD_REACTORS
330
3AA3
102
}
330
3AA3
100
AcDbXrecord
280
     1
290
     1
  0
XRECORD
  5
3AA6
102
{ACAD_REACTORS
330
3AA5
102
}
330
3AA5
100
AcDbXrecord
280
     1
290
     1
  0
XRECORD
  5
3AA8
102
{ACAD_REACTORS
330
3AA7
102
}
330
3AA7
100
AcDbXrecord
280
     1
290
     1
  0
XRECORD
  5
3AAC
102
{ACAD_REACTORS
330
3AAB
102
}
330
3AAB
100
AcDbXrecord
280
     1
290
     1
  0
XRECORD
  5
3AAE
102
{ACAD_REACTORS
330
3AAD
102
}
330
3AAD
100
AcDbXrecord
280
     1
290
     1
  0
XRECORD
  5
3AB2
102
{ACAD_REACTORS
330
3AB1
102
}
330
3AB1
100
AcDbXrecord
280
     1
290
     1
  0
XRECORD
  5
3AB4
102
{ACAD_REACTORS
330
3AB3
102
}
330
3AB3
100
AcDbXrecord
280
     1
290
     1
  0
XRECORD
  5
3AB6
102
{ACAD_REACTORS
330
3AB5
102
}
330
3AB5
100
AcDbXrecord
280
     1
290
     1
  0
XRECORD
  5
3AB8
102
{ACAD_REACTORS
330
3AB7
102
}
330
3AB7
100
AcDbXrecord
280
     1
290
     1
  0
SORTENTSTABLE
  5
2942
102
{ACAD_REACTORS
330
1F1
102
}
330
1F1
100
AcDbSortentsTable
330
1F
331
45D1
  5
45D1
331
4335
  5
4335
331
40B8
  5
40C7
331
3FD8
  5
3FDF
331
45E0
  5
45E1
331
4326
  5
4326
331
4344
  5
4344
331
4336
  5
4336
331
45D2
  5
45D2
331
3FD9
  5
3FE0
331
40B9
  5
40C8
331
4373
  5
4373
331
4327
  5
4327
331
4345
  5
4345
331
45E1
  5
45E2
331
45D3
  5
45D3
331
4337
  5
4337
331
3FDA
  5
3FE1
331
4074
  5
4076
331
4346
  5
4346
331
4328
  5
4328
331
45C4
  5
45C4
331
45E2
  5
45E3
331
45D4
  5
45D4
331
40BB
  5
40C9
331
3FDB
  5
3FDE
331
4075
  5
4089
331
45E3
  5
45ED
331
4347
  5
4347
331
4329
  5
4329
331
45C5
  5
45C5
331
45D5
  5
45D5
331
4338
  5
4338
331
431A
  5
431A
331
3FDC
  5
3FDD
331
4076
  5
408C
331
4348
  5
4348
331
432A
  5
432A
331
45C6
  5
45C6
331
45D6
  5
45D7
331
4339
  5
4339
331
3FDD
  5
3FE2
331
431B
  5
431B
331
45C7
  5
45C7
331
40AF
  5
40B0
331
3FFD
  5
3FFD
331
432B
  5
432B
331
45D7
  5
45D8
331
433A
  5
433A
331
3FDE
  5
3FE5
331
431C
  5
431C
331
45C8
  5
45C8
331
40B0
  5
40B5
331
3FFE
  5
3FFE
331
432C
  5
432C
331
45D8
  5
45D9
331
433B
  5
433B
331
4089
  5
408E
331
3FDF
  5
3FE6
331
431D
  5
431D
331
45C9
  5
45C9
331
40B1
  5
40B6
331
3FFF
  5
3FFF
331
432D
  5
432D
331
45D9
  5
45DA
331
431E
  5
431E
331
3FE0
  5
3FE7
331
433C
  5
433C
331
432E
  5
432E
331
40B2
  5
40B7
331
45CA
  5
45CA
331
45DA
  5
45DB
331
3FE1
  5
3FE8
331
431F
  5
431F
331
433D
  5
433D
331
45CB
  5
45CB
331
432F
  5
432F
331
40B3
  5
40B8
331
45DB
  5
45DC
331
4000
  5
4000
331
3FD2
  5
3FD2
331
433E
  5
433E
331
3FE2
  5
3FE9
331
4320
  5
4320
331
45CC
  5
45CC
331
4330
  5
4330
331
40B4
  5
40B9
331
45DC
  5
45DD
331
4001
  5
4001
331
433F
  5
433F
331
4321
  5
4321
331
3FE3
  5
3FEA
331
40CB
  5
40CB
331
4331
  5
4331
331
40B5
  5
40BB
331
45DD
  5
45DE
331
4002
  5
4002
331
3FD4
  5
3FDA
331
4340
  5
4340
331
4322
  5
4322
331
3FE4
  5
3FEB
331
408E
  5
408F
331
4332
  5
4332
331
40B6
  5
40BC
331
45DE
  5
45DF
331
4003
  5
4003
331
3FD5
  5
3FDB
331
4341
  5
4341
331
408F
  5
40AF
331
4059
  5
4069
331
3FE5
  5
3FEC
331
4323
  5
4323
331
45ED
  5
45D6
331
45CF
  5
45CF
331
40B7
  5
40C6
331
4333
  5
4333
331
45DF
  5
45E0
331
4004
  5
4004
331
3FD6
  5
3FDC
331
4342
  5
4342
331
4324
  5
4324
331
45D0
  5
45D0
331
4334
  5
4334
331
4005
  5
4005
331
4343
  5
4343
331
4325
  5
4325
  0
XRECORD
  5
46F4
102
{ACAD_REACTORS
330
46F3
102
}
330
46F3
100
AcDbXrecord
280
     1
 40
1.570796326794896
  0
XRECORD
  5
46F6
102
{ACAD_REACTORS
330
46F3
102
}
330
46F3
100
AcDbXrecord
280
     1
340
14
  0
XRECORD
  5
46F7
102
{ACAD_REACTORS
330
46F3
102
}
330
46F3
100
AcDbXrecord
280
     1
340
14
  0
XRECORD
  5
46F5
102
{ACAD_REACTORS
330
46F3
102
}
330
46F3
100
AcDbXrecord
280
     1
340
14
  0
LAYOUT
  5
1E
102
{ACAD_REACTORS
330
1A
102
}
330
1A
100
AcDbPlotSettings
  1

  2
HP DesignJet 220 (D/A1) by HP
  4

  6

 40
0.0
 41
0.0
 42
0.0
 43
0.0
 44
0.0
 45
0.0
 46
0.0
 47
0.0
 48
0.0
 49
0.0
140
0.0
141
0.0
142
1.0
143
1.0
 70
   688
 72
     0
 73
     0
 74
     5
  7
monochrome2.ctb
 75
    16
147
1.0
 76
     0
 77
     2
 78
   300
148
0.0
149
0.0
100
AcDbLayout
  1
Layout1
 70
     1
 71
     1
 10
0.0
 20
0.0
 11
420.0
 21
297.0
 12
0.0
 22
0.0
 32
0.0
 14
1.000000000000000E+20
 24
1.000000000000000E+20
 34
1.000000000000000E+20
 15
-1.000000000000000E+20
 25
-1.000000000000000E+20
 35
-1.000000000000000E+20
146
0.0
 13
0.0
 23
0.0
 33
0.0
 16
1.0
 26
0.0
 36
0.0
 17
0.0
 27
1.0
 37
0.0
 76
     0
330
1B
  0
LAYOUT
  5
26
102
{ACAD_REACTORS
330
1A
102
}
330
1A
100
AcDbPlotSettings
  1

  2
HP DesignJet 220 (D/A1) by HP
  4

  6

 40
0.0
 41
0.0
 42
0.0
 43
0.0
 44
0.0
 45
0.0
 46
0.0
 47
0.0
 48
0.0
 49
0.0
140
0.0
141
0.0
142
1.0
143
1.0
 70
   688
 72
     0
 73
     0
 74
     5
  7
monochrome2.ctb
 75
    16
147
1.0
 76
     0
 77
     2
 78
   300
148
0.0
149
0.0
100
AcDbLayout
  1
Layout2
 70
     1
 71
     2
 10
0.0
 20
0.0
 11
12.0
 21
9.0
 12
0.0
 22
0.0
 32
0.0
 14
0.0
 24
0.0
 34
0.0
 15
0.0
 25
0.0
 35
0.0
146
0.0
 13
0.0
 23
0.0
 33
0.0
 16
1.0
 26
0.0
 36
0.0
 17
0.0
 27
1.0
 37
0.0
 76
     0
330
23
  0
LAYOUT
  5
22
102
{ACAD_REACTORS
330
1A
102
}
330
1A
100
AcDbPlotSettings
  1

  2
HP DesignJet 220 (D/A1) by HP
  4

  6

 40
0.0
 41
0.0
 42
0.0
 43
0.0
 44
0.0
 45
0.0
 46
0.0
 47
0.0
 48
0.0
 49
0.0
140
0.0
141
0.0
142
1.0
143
1.0
 70
  1712
 72
     0
 73
     0
 74
     0
  7
monochrome2.ctb
 75
     0
147
1.0
 76
     0
 77
     2
 78
   300
148
0.0
149
0.0
100
AcDbLayout
  1
Model
 70
     1
 71
     0
 10
0.0
 20
0.0
 11
12.0
 21
9.0
 12
0.0
 22
0.0
 32
0.0
 14
0.0
 24
0.0
 34
0.0
 15
0.0
 25
0.0
 35
0.0
146
0.0
 13
0.0
 23
0.0
 33
0.0
 16
1.0
 26
0.0
 36
0.0
 17
0.0
 27
1.0
 37
0.0
 76
     0
330
1F
331
39C6
  0
MATERIAL
  5
39D8
102
{ACAD_XDICTIONARY
360
39D9
102
}
102
{ACAD_REACTORS
330
28BC
102
}
330
28BC
100
AcDbMaterial
  1
ByBlock
 72
     0
 43
0.0008202099737533
 43
0.0
 43
0.0
 43
0.0
 43
0.0
 43
0.0008202099737533
 43
0.0
 43
0.0
 43
0.0
 43
0.0
 43
1.0
 43
0.0
 43
0.0
 43
0.0
 43
0.0
 43
1.0
 77
     0
 47
0.0008202099737533
 47
0.0
 47
0.0
 47
0.0
 47
0.0
 47
0.0008202099737533
 47
0.0
 47
0.0
 47
0.0
 47
0.0
 47
1.0
 47
0.0
 47
0.0
 47
0.0
 47
0.0
 47
1.0
171
     0
 49
0.0008202099737533
 49
0.0
 49
0.0
 49
0.0
 49
0.0
 49
0.0008202099737533
 49
0.0
 49
0.0
 49
0.0
 49
0.0
 49
1.0
 49
0.0
 49
0.0
 49
0.0
 49
0.0
 49
1.0
175
     0
142
0.0008202099737533
142
0.0
142
0.0
142
0.0
142
0.0
142
0.0008202099737533
142
0.0
142
0.0
142
0.0
142
0.0
142
1.0
142
0.0
142
0.0
142
0.0
142
0.0
142
1.0
179
     0
144
0.0008202099737533
144
0.0
144
0.0
144
0.0
144
0.0
144
0.0008202099737533
144
0.0
144
0.0
144
0.0
144
0.0
144
1.0
144
0.0
144
0.0
144
0.0
144
0.0
144
1.0
147
0.0008202099737533
147
0.0
147
0.0
147
0.0
147
0.0
147
0.0008202099737533
147
0.0
147
0.0
147
0.0
147
0.0
147
1.0
147
0.0
147
0.0
147
0.0
147
0.0
147
1.0
  0
MATERIAL
  5
39D0
102
{ACAD_XDICTIONARY
360
39D1
102
}
102
{ACAD_REACTORS
330
28BC
102
}
330
28BC
100
AcDbMaterial
  1
ByLayer
 72
     0
 43
0.0008202099737533
 43
0.0
 43
0.0
 43
0.0
 43
0.0
 43
0.0008202099737533
 43
0.0
 43
0.0
 43
0.0
 43
0.0
 43
1.0
 43
0.0
 43
0.0
 43
0.0
 43
0.0
 43
1.0
 77
     0
 47
0.0008202099737533
 47
0.0
 47
0.0
 47
0.0
 47
0.0
 47
0.0008202099737533
 47
0.0
 47
0.0
 47
0.0
 47
0.0
 47
1.0
 47
0.0
 47
0.0
 47
0.0
 47
0.0
 47
1.0
171
     0
 49
0.0008202099737533
 49
0.0
 49
0.0
 49
0.0
 49
0.0
 49
0.0008202099737533
 49
0.0
 49
0.0
 49
0.0
 49
0.0
 49
1.0
 49
0.0
 49
0.0
 49
0.0
 49
0.0
 49
1.0
175
     0
142
0.0008202099737533
142
0.0
142
0.0
142
0.0
142
0.0
142
0.0008202099737533
142
0.0
142
0.0
142
0.0
142
0.0
142
1.0
142
0.0
142
0.0
142
0.0
142
0.0
142
1.0
179
     0
144
0.0008202099737533
144
0.0
144
0.0
144
0.0
144
0.0
144
0.0008202099737533
144
0.0
144
0.0
144
0.0
144
0.0
144
1.0
144
0.0
144
0.0
144
0.0
144
0.0
144
1.0
147
0.0008202099737533
147
0.0
147
0.0
147
0.0
147
0.0
147
0.0008202099737533
147
0.0
147
0.0
147
0.0
147
0.0
147
1.0
147
0.0
147
0.0
147
0.0
147
0.0
147
1.0
  0
MATERIAL
  5
39E0
102
{ACAD_XDICTIONARY
360
39E1
102
}
102
{ACAD_REACTORS
330
28BC
102
}
330
28BC
100
AcDbMaterial
  1
Global
 72
     0
 43
0.0008202099737533
 43
0.0
 43
0.0
 43
0.0
 43
0.0
 43
0.0008202099737533
 43
0.0
 43
0.0
 43
0.0
 43
0.0
 43
1.0
 43
0.0
 43
0.0
 43
0.0
 43
0.0
 43
1.0
 77
     0
 47
0.0008202099737533
 47
0.0
 47
0.0
 47
0.0
 47
0.0
 47
0.0008202099737533
 47
0.0
 47
0.0
 47
0.0
 47
0.0
 47
1.0
 47
0.0
 47
0.0
 47
0.0
 47
0.0
 47
1.0
171
     0
 49
0.0008202099737533
 49
0.0
 49
0.0
 49
0.0
 49
0.0
 49
0.0008202099737533
 49
0.0
 49
0.0
 49
0.0
 49
0.0
 49
1.0
 49
0.0
 49
0.0
 49
0.0
 49
0.0
 49
1.0
175
     0
142
0.0008202099737533
142
0.0
142
0.0
142
0.0
142
0.0
142
0.0008202099737533
142
0.0
142
0.0
142
0.0
142
0.0
142
1.0
142
0.0
142
0.0
142
0.0
142
0.0
142
1.0
179
     0
144
0.0008202099737533
144
0.0
144
0.0
144
0.0
144
0.0
144
0.0008202099737533
144
0.0
144
0.0
144
0.0
144
0.0
144
1.0
144
0.0
144
0.0
144
0.0
144
0.0
144
1.0
147
0.0008202099737533
147
0.0
147
0.0
147
0.0
147
0.0
147
0.0008202099737533
147
0.0
147
0.0
147
0.0
147
0.0
147
1.0
147
0.0
147
0.0
147
0.0
147
0.0
147
1.0
  0
MLEADERSTYLE
  5
3A0C
102
{ACAD_REACTORS
330
3A0B
102
}
330
3A0B
100
AcDbMLeaderStyle
170
     2
171
     1
172
     0
 90
        2
 40
0.0
 41
0.0
173
     1
 91
-1056964608
340
14
 92
       -2
290
     1
 42
2.0
291
     1
 43
0.36
  3
Standard
 44
4.0
300

342
11
174
     1
178
     6
175
     1
176
     0
 93
-1056964608
 45
4.0
292
     0
297
     0
 46
4.0
 94
-1056964608
 47
1.0
 49
1.0
140
1.0
293
     1
141
0.0
294
     1
177
     0
142
1.0
295
     0
296
     0
143
0.125
1001
ACAD_MLEADERVER
1070
     2
  0
MLINESTYLE
  5
18
102
{ACAD_REACTORS
330
17
102
}
330
17
100
AcDbMlineStyle
  2
STANDARD
 70
     0
  3

 62
   256
 51
90.0
 52
90.0
 71
     2
 49
0.5
 62
   256
  6
BYLAYER
 49
-0.5
 62
   256
  6
BYLAYER
  0
ACDBPLACEHOLDER
  5
F
102
{ACAD_REACTORS
330
E
102
}
330
E
  0
SCALE
  5
39FA
102
{ACAD_REACTORS
330
39F9
102
}
330
39F9
100
AcDbScale
 70
     0
300
1:1
140
1.0
141
1.0
290
     1
  0
SCALE
  5
39FB
102
{ACAD_REACTORS
330
39F9
102
}
330
39F9
100
AcDbScale
 70
     0
300
1:2
140
1.0
141
2.0
290
     0
  0
SCALE
  5
39FC
102
{ACAD_REACTORS
330
39F9
102
}
330
39F9
100
AcDbScale
 70
     0
300
1:4
140
1.0
141
4.0
290
     0
  0
SCALE
  5
39FD
102
{ACAD_REACTORS
330
39F9
102
}
330
39F9
100
AcDbScale
 70
     0
300
1:5
140
1.0
141
5.0
290
     0
  0
SCALE
  5
39FE
102
{ACAD_REACTORS
330
39F9
102
}
330
39F9
100
AcDbScale
 70
     0
300
1:8
140
1.0
141
8.0
290
     0
  0
SCALE
  5
39FF
102
{ACAD_REACTORS
330
39F9
102
}
330
39F9
100
AcDbScale
 70
     0
300
1:10
140
1.0
141
10.0
290
     0
  0
SCALE
  5
3A00
102
{ACAD_REACTORS
330
39F9
102
}
330
39F9
100
AcDbScale
 70
     0
300
1:16
140
1.0
141
16.0
290
     0
  0
SCALE
  5
3A01
102
{ACAD_REACTORS
330
39F9
102
}
330
39F9
100
AcDbScale
 70
     0
300
1:20
140
1.0
141
20.0
290
     0
  0
SCALE
  5
3A02
102
{ACAD_REACTORS
330
39F9
102
}
330
39F9
100
AcDbScale
 70
     0
300
1:30
140
1.0
141
30.0
290
     0
  0
SCALE
  5
3A03
102
{ACAD_REACTORS
330
39F9
102
}
330
39F9
100
AcDbScale
 70
     0
300
1:40
140
1.0
141
40.0
290
     0
  0
SCALE
  5
3A04
102
{ACAD_REACTORS
330
39F9
102
}
330
39F9
100
AcDbScale
 70
     0
300
1:50
140
1.0
141
50.0
290
     0
  0
SCALE
  5
3A05
102
{ACAD_REACTORS
330
39F9
102
}
330
39F9
100
AcDbScale
 70
     0
300
1:100
140
1.0
141
100.0
290
     0
  0
SCALE
  5
3A06
102
{ACAD_REACTORS
330
39F9
102
}
330
39F9
100
AcDbScale
 70
     0
300
2:1
140
2.0
141
1.0
290
     0
  0
SCALE
  5
3A07
102
{ACAD_REACTORS
330
39F9
102
}
330
39F9
100
AcDbScale
 70
     0
300
4:1
140
4.0
141
1.0
290
     0
  0
SCALE
  5
3A08
102
{ACAD_REACTORS
330
39F9
102
}
330
39F9
100
AcDbScale
 70
     0
300
8:1
140
8.0
141
1.0
290
     0
  0
SCALE
  5
3A09
102
{ACAD_REACTORS
330
39F9
102
}
330
39F9
100
AcDbScale
 70
     0
300
10:1
140
10.0
141
1.0
290
     0
  0
SCALE
  5
3A0A
102
{ACAD_REACTORS
330
39F9
102
}
330
39F9
100
AcDbScale
 70
     0
300
100:1
140
100.0
141
1.0
290
     0
  0
TABLESTYLE
  5
28BF
102
{ACAD_XDICTIONARY
360
3CB6
102
}
102
{ACAD_REACTORS
330
28BE
102
}
330
28BE
100
AcDbTableStyle
  3
Standard
 70
     0
 71
     0
 40
1.5
 41
1.5
280
     0
281
     0
  7
STANDARD
140
4.5
170
     2
 62
     0
 63
     7
283
     0
274
    -2
284
     1
 64
     0
275
    -2
285
     1
 65
     0
276
    -2
286
     1
 66
     0
277
    -2
287
     1
 67
     0
278
    -2
288
     1
 68
     0
279
    -2
289
     1
 69
     0
  7
STANDARD
140
6.0
170
     5
 62
     0
 63
     7
283
     0
274
    -2
284
     1
 64
     0
275
    -2
285
     1
 65
     0
276
    -2
286
     1
 66
     0
277
    -2
287
     1
 67
     0
278
    -2
288
     1
 68
     0
279
    -2
289
     1
 69
     0
  7
STANDARD
140
4.5
170
     5
 62
     0
 63
     7
283
     0
274
    -2
284
     1
 64
     0
275
    -2
285
     1
 65
     0
276
    -2
286
     1
 66
     0
277
    -2
287
     1
 67
     0
278
    -2
288
     1
 68
     0
279
    -2
289
     1
 69
     0
  0
VISUALSTYLE
  5
39EE
102
{ACAD_REACTORS
330
39E8
102
}
330
39E8
100
AcDbVisualStyle
  2
2dWireframe
 70
     4
 71
     0
 72
     2
 73
     0
 90
        0
 40
-0.6
 41
-30.0
 62
     5
 63
     7
421
 16777215
 74
     1
 91
        4
 64
     7
 65
   257
 75
     1
175
     1
 42
1.0
 92
        0
 66
   257
 43
1.0
 76
     1
 77
     6
 78
     2
 67
     7
 79
     5
170
     0
171
     0
290
     0
174
     0
 93
        1
 44
0.0
173
     0
291
     0
 45
0.0
1001
ACAD
1000
AcDbSavedByObjectVersion
1070
     0
  0
VISUALSTYLE
  5
39F0
102
{ACAD_REACTORS
330
39E8
102
}
330
39E8
100
AcDbVisualStyle
  2
3D Hidden
 70
     6
 71
     1
 72
     2
 73
     2
 90
        0
 40
-0.6
 41
-30.0
 62
     5
 63
     7
421
 16777215
 74
     2
 91
        2
 64
     7
 65
   257
 75
     2
175
     1
 42
40.0
 92
        0
 66
   257
 43
1.0
 76
     1
 77
     6
 78
     2
 67
     7
 79
     3
170
     0
171
     0
290
     0
174
     0
 93
        1
 44
0.0
173
     0
291
     0
 45
0.0
1001
ACAD
1000
AcDbSavedByObjectVersion
1070
     0
  0
VISUALSTYLE
  5
39EF
102
{ACAD_REACTORS
330
39E8
102
}
330
39E8
100
AcDbVisualStyle
  2
3dWireframe
 70
     5
 71
     0
 72
     2
 73
     0
 90
        0
 40
-0.6
 41
-30.0
 62
     5
 63
     7
421
 16777215
 74
     1
 91
        4
 64
     7
 65
   257
 75
     1
175
     1
 42
1.0
 92
        0
 66
   257
 43
1.0
 76
     1
 77
     6
 78
     2
 67
     7
 79
     5
170
     0
171
     0
290
     0
174
     0
 93
        1
 44
0.0
173
     0
291
     0
 45
0.0
1001
ACAD
1000
AcDbSavedByObjectVersion
1070
     0
  0
VISUALSTYLE
  5
39ED
102
{ACAD_REACTORS
330
39E8
102
}
330
39E8
100
AcDbVisualStyle
  2
Basic
 70
     7
 71
     1
 72
     0
 73
     1
 90
        0
 40
-0.6
 41
-30.0
 62
     5
 63
     7
421
 16777215
 74
     0
 91
        4
 64
     7
 65
   257
 75
     1
175
     1
 42
1.0
 92
        8
 66
     7
 43
1.0
 76
     1
 77
     6
 78
     2
 67
     7
 79
     5
170
     0
171
     0
290
     0
174
     0
 93
        1
 44
0.0
173
     0
291
     1
 45
0.0
1001
ACAD
1000
AcDbSavedByObjectVersion
1070
     0
  0
VISUALSTYLE
  5
39F4
102
{ACAD_REACTORS
330
39E8
102
}
330
39E8
100
AcDbVisualStyle
  2
Brighten
 70
    12
 71
     2
 72
     2
 73
     0
 90
        0
 40
-0.6
 41
-30.0
 62
     5
 63
     7
421
 16777215
 74
     1
 91
        4
 64
     7
 65
   257
 75
     1
175
     1
 42
1.0
 92
        8
 66
     7
 43
1.0
 76
     1
 77
     6
 78
     2
 67
     7
 79
     5
170
     0
171
     0
290
     0
174
     0
 93
        1
 44
50.0
173
     0
291
     1
 45
0.0
1001
ACAD
1000
AcDbSavedByObjectVersion
1070
     0
  0
VISUALSTYLE
  5
39F8
102
{ACAD_REACTORS
330
39E8
102
}
330
39E8
100
AcDbVisualStyle
  2
ColorChange
 70
    16
 71
     2
 72
     2
 73
     3
 90
        0
 40
-0.6
 41
-30.0
 62
     5
 63
     8
421
  8421504
 74
     1
 91
        4
 64
     7
 65
   257
 75
     1
175
     1
 42
1.0
 92
        8
 66
     8
424
  8421504
 43
1.0
 76
     1
 77
     6
 78
     2
 67
     7
 79
     5
170
     0
171
     0
290
     0
174
     0
 93
        1
 44
0.0
173
     0
291
     1
 45
0.0
1001
ACAD
1000
AcDbSavedByObjectVersion
1070
     0
  0
VISUALSTYLE
  5
39F1
102
{ACAD_REACTORS
330
39E8
102
}
330
39E8
100
AcDbVisualStyle
  2
Conceptual
 70
     9
 71
     3
 72
     2
 73
     0
 90
        0
 40
-0.6
 41
-30.0
 62
     5
 63
     7
421
 16777215
 74
     2
 91
        2
 64
     7
 65
   257
 75
     1
175
     1
 42
40.0
 92
        8
 66
     7
 43
1.0
 76
     1
 77
     6
 78
     2
 67
     7
 79
     3
170
     0
171
     0
290
     0
174
     0
 93
        1
 44
0.0
173
     0
291
     0
 45
0.0
1001
ACAD
1000
AcDbSavedByObjectVersion
1070
     0
  0
VISUALSTYLE
  5
39F3
102
{ACAD_REACTORS
330
39E8
102
}
330
39E8
100
AcDbVisualStyle
  2
Dim
 70
    11
 71
     2
 72
     2
 73
     0
 90
        0
 40
-0.6
 41
-30.0
 62
     5
 63
     7
421
 16777215
 74
     1
 91
        4
 64
     7
 65
   257
 75
     1
175
     1
 42
1.0
 92
        8
 66
     7
 43
1.0
 76
     1
 77
     6
 78
     2
 67
     7
 79
     5
170
     0
171
     0
290
     0
174
     0
 93
        1
 44
-50.0
173
     0
291
     1
 45
0.0
1001
ACAD
1000
AcDbSavedByObjectVersion
1070
     0
  0
VISUALSTYLE
  5
39F7
102
{ACAD_REACTORS
330
39E8
102
}
330
39E8
100
AcDbVisualStyle
  2
Facepattern
 70
    15
 71
     2
 72
     2
 73
     0
 90
        0
 40
-0.6
 41
-30.0
 62
     5
 63
     7
421
 16777215
 74
     1
 91
        4
 64
     7
 65
   257
 75
     1
175
     1
 42
1.0
 92
        8
 66
     7
 43
1.0
 76
     1
 77
     6
 78
     2
 67
     7
 79
     5
170
     0
171
     0
290
     0
174
     0
 93
        1
 44
0.0
173
     0
291
     1
 45
0.0
1001
ACAD
1000
AcDbSavedByObjectVersion
1070
     0
  0
VISUALSTYLE
  5
39E9
102
{ACAD_REACTORS
330
39E8
102
}
330
39E8
100
AcDbVisualStyle
  2
Flat
 70
     0
 71
     2
 72
     1
 73
     1
 90
        2
 40
-0.6
 41
30.0
 62
     5
 63
     7
421
 16777215
 74
     0
 91
        4
 64
     7
 65
   257
 75
     1
175
     1
 42
1.0
 92
        8
 66
     7
 43
1.0
 76
     1
 77
     6
 78
     2
 67
     7
 79
     5
170
     0
171
     0
290
     0
174
     0
 93
       13
 44
0.0
173
     0
291
     1
 45
0.0
1001
ACAD
1000
AcDbSavedByObjectVersion
1070
     0
  0
VISUALSTYLE
  5
39EA
102
{ACAD_REACTORS
330
39E8
102
}
330
39E8
100
AcDbVisualStyle
  2
FlatWithEdges
 70
     1
 71
     2
 72
     1
 73
     1
 90
        2
 40
-0.6
 41
30.0
 62
     5
 63
     7
421
 16777215
 74
     1
 91
        4
 64
     7
 65
   257
 75
     1
175
     1
 42
1.0
 92
        0
 66
   257
 43
1.0
 76
     1
 77
     6
 78
     2
 67
     7
 79
     5
170
     0
171
     0
290
     0
174
     0
 93
       13
 44
0.0
173
     0
291
     1
 45
0.0
1001
ACAD
1000
AcDbSavedByObjectVersion
1070
     0
  0
VISUALSTYLE
  5
39EB
102
{ACAD_REACTORS
330
39E8
102
}
330
39E8
100
AcDbVisualStyle
  2
Gouraud
 70
     2
 71
     2
 72
     2
 73
     1
 90
        2
 40
-0.6
 41
30.0
 62
     5
 63
     7
421
 16777215
 74
     0
 91
        4
 64
     7
 65
   257
 75
     1
175
     1
 42
1.0
 92
        0
 66
     7
 43
1.0
 76
     1
 77
     6
 78
     2
 67
     7
 79
     5
170
     0
171
     0
290
     0
174
     0
 93
       13
 44
0.0
173
     0
291
     1
 45
0.0
1001
ACAD
1000
AcDbSavedByObjectVersion
1070
     0
  0
VISUALSTYLE
  5
39EC
102
{ACAD_REACTORS
330
39E8
102
}
330
39E8
100
AcDbVisualStyle
  2
GouraudWithEdges
 70
     3
 71
     2
 72
     2
 73
     1
 90
        2
 40
-0.6
 41
30.0
 62
     5
 63
     7
421
 16777215
 74
     1
 91
        4
 64
     7
 65
   257
 75
     1
175
     1
 42
1.0
 92
        0
 66
   257
 43
1.0
 76
     1
 77
     6
 78
     2
 67
     7
 79
     5
170
     0
171
     0
290
     0
174
     0
 93
       13
 44
0.0
173
     0
291
     1
 45
0.0
1001
ACAD
1000
AcDbSavedByObjectVersion
1070
     0
  0
VISUALSTYLE
  5
39F6
102
{ACAD_REACTORS
330
39E8
102
}
330
39E8
100
AcDbVisualStyle
  2
Linepattern
 70
    14
 71
     2
 72
     2
 73
     0
 90
        0
 40
-0.6
 41
-30.0
 62
     5
 63
     7
421
 16777215
 74
     1
 91
        4
 64
     7
 65
   257
 75
     7
175
     7
 42
1.0
 92
        8
 66
     7
 43
1.0
 76
     1
 77
     6
 78
     2
 67
     7
 79
     5
170
     0
171
     0
290
     0
174
     0
 93
        1
 44
0.0
173
     0
291
     1
 45
0.0
1001
ACAD
1000
AcDbSavedByObjectVersion
1070
     0
  0
VISUALSTYLE
  5
39F2
102
{ACAD_REACTORS
330
39E8
102
}
330
39E8
100
AcDbVisualStyle
  2
Realistic
 70
     8
 71
     2
 72
     2
 73
     0
 90
        0
 40
-0.6
 41
-30.0
 62
     5
 63
     7
421
 16777215
 74
     1
 91
        0
 64
     7
 65
   257
 75
     1
175
     1
 42
1.0
 92
        8
 66
     8
424
  7895160
 43
1.0
 76
     1
 77
     6
 78
     2
 67
     7
 79
     5
170
     0
171
     0
290
     0
174
     0
 93
       13
 44
0.0
173
     0
291
     0
 45
0.0
1001
ACAD
1000
AcDbSavedByObjectVersion
1070
     0
  0
VISUALSTYLE
  5
39F5
102
{ACAD_REACTORS
330
39E8
102
}
330
39E8
100
AcDbVisualStyle
  2
Thicken
 70
    13
 71
     2
 72
     2
 73
     0
 90
        0
 40
-0.6
 41
-30.0
 62
     5
 63
     7
421
 16777215
 74
     1
 91
        4
 64
     7
 65
   257
 75
     1
175
     1
 42
1.0
 92
       12
 66
     7
 43
1.0
 76
     1
 77
     6
 78
     2
 67
     7
 79
     5
170
     0
171
     0
290
     0
174
     0
 93
        1
 44
0.0
173
     0
291
     1
 45
0.0
1001
ACAD
1000
AcDbSavedByObjectVersion
1070
     0
  0
DICTIONARYVAR
  5
3CBB
102
{ACAD_REACTORS
330
216
102
}
330
216
100
DictionaryVariables
280
     0
  1
1:1
  0
DICTIONARYVAR
  5
3CB9
102
{ACAD_REACTORS
330
216
102
}
330
216
100
DictionaryVariables
280
     0
  1
STANDARD
  0
DICTIONARYVAR
  5
2935
102
{ACAD_REACTORS
330
216
102
}
330
216
100
DictionaryVariables
280
     0
  1
STANDARD
  0
DICTIONARYVAR
  5
219
102
{ACAD_REACTORS
330
216
102
}
330
216
100
DictionaryVariables
280
     0
  1
1
  0
DICTIONARYVAR
  5
218
102
{ACAD_REACTORS
330
216
102
}
330
216
100
DictionaryVariables
280
     0
  1
1
  0
DICTIONARYVAR
  5
217
102
{ACAD_REACTORS
330
216
102
}
330
216
100
DictionaryVariables
280
     0
  1
0
  0
DICTIONARYVAR
  5
3CBD
102
{ACAD_REACTORS
330
216
102
}
330
216
100
DictionaryVariables
280
     0
  1
1
  0
DICTIONARYVAR
  5
3CBE
102
{ACAD_REACTORS
330
216
102
}
330
216
100
DictionaryVariables
280
     0
  1
15
  0
DICTIONARYVAR
  5
3CBC
102
{ACAD_REACTORS
330
216
102
}
330
216
100
DictionaryVariables
280
     0
  1
0
  0
DICTIONARYVAR
  5
3CBA
102
{ACAD_REACTORS
330
216
102
}
330
216
100
DictionaryVariables
280
     0
  1
0
  0
DICTIONARYVAR
  5
30C6
102
{ACAD_REACTORS
330
216
102
}
330
216
100
DictionaryVariables
280
     0
  1

  0
DICTIONARY
  5
4A
102
{ACAD_REACTORS
330
45
102
}
330
45
100
AcDbDictionary
281
     1
  0
XRECORD
  5
290D
102
{ACAD_REACTORS
330
45
102
}
330
45
100
AcDbXrecord
280
     1
 90
-1023410169
  0
DICTIONARY
  5
39D9
330
39D8
100
AcDbDictionary
280
     1
281
     1
  3
ACAD_XREC_ROUNDTRIP
360
46FA
  3
BUMPTILE
360
39DB
  3
DIFFUSETILE
360
39DA
  3
OPACITYTILE
360
39DE
  3
REFLECTIONTILE
360
39DD
  3
REFRACTIONTILE
360
39DF
  3
SPECULARTILE
360
39DC
  0
DICTIONARY
  5
39D1
330
39D0
100
AcDbDictionary
280
     1
281
     1
  3
ACAD_XREC_ROUNDTRIP
360
46F9
  3
BUMPTILE
360
39D3
  3
DIFFUSETILE
360
39D2
  3
OPACITYTILE
360
39D6
  3
REFLECTIONTILE
360
39D5
  3
REFRACTIONTILE
360
39D7
  3
SPECULARTILE
360
39D4
  0
DICTIONARY
  5
39E1
330
39E0
100
AcDbDictionary
280
     1
281
     1
  3
ACAD_XREC_ROUNDTRIP
360
46FB
  3
BUMPTILE
360
39E3
  3
DIFFUSETILE
360
39E2
  3
OPACITYTILE
360
39E6
  3
REFLECTIONTILE
360
39E5
  3
REFRACTIONTILE
360
39E7
  3
SPECULARTILE
360
39E4
  0
DICTIONARY
  5
3CB6
330
28BF
100
AcDbDictionary
280
     1
281
     1
  3
ACAD_ROUNDTRIP_2008_TABLESTYLE_CELLSTYLEMAP
360
46F2
  3
ACAD_XREC_ROUNDTRIP
360
46F8
  0
XRECORD
  5
46FA
102
{ACAD_REACTORS
330
39D9
102
}
330
39D9
100
AcDbXrecord
280
     1
102
MATERIAL
148
0.0
149
0.0
149
0.0
 93
        0
 94
      127
282
     0
 72
     0
 77
     0
171
     0
175
     0
179
     0
273
     0
  0
XRECORD
  5
39DB
102
{ACAD_REACTORS
330
39D9
102
}
330
39D9
100
AcDbXrecord
280
     1
270
     1
271
     1
  0
XRECORD
  5
39DA
102
{ACAD_REACTORS
330
39D9
102
}
330
39D9
100
AcDbXrecord
280
     1
270
     1
271
     1
  0
XRECORD
  5
39DE
102
{ACAD_REACTORS
330
39D9
102
}
330
39D9
100
AcDbXrecord
280
     1
270
     1
271
     1
  0
XRECORD
  5
39DD
102
{ACAD_REACTORS
330
39D9
102
}
330
39D9
100
AcDbXrecord
280
     1
270
     1
271
     1
  0
XRECORD
  5
39DF
102
{ACAD_REACTORS
330
39D9
102
}
330
39D9
100
AcDbXrecord
280
     1
270
     1
271
     1
  0
XRECORD
  5
39DC
102
{ACAD_REACTORS
330
39D9
102
}
330
39D9
100
AcDbXrecord
280
     1
270
     1
271
     1
  0
XRECORD
  5
46F9
102
{ACAD_REACTORS
330
39D1
102
}
330
39D1
100
AcDbXrecord
280
     1
102
MATERIAL
148
0.0
149
0.0
149
0.0
 93
        0
 94
      127
282
     0
 72
     0
 77
     0
171
     0
175
     0
179
     0
273
     0
  0
XRECORD
  5
39D3
102
{ACAD_REACTORS
330
39D1
102
}
330
39D1
100
AcDbXrecord
280
     1
270
     1
271
     1
  0
XRECORD
  5
39D2
102
{ACAD_REACTORS
330
39D1
102
}
330
39D1
100
AcDbXrecord
280
     1
270
     1
271
     1
  0
XRECORD
  5
39D6
102
{ACAD_REACTORS
330
39D1
102
}
330
39D1
100
AcDbXrecord
280
     1
270
     1
271
     1
  0
XRECORD
  5
39D5
102
{ACAD_REACTORS
330
39D1
102
}
330
39D1
100
AcDbXrecord
280
     1
270
     1
271
     1
  0
XRECORD
  5
39D7
102
{ACAD_REACTORS
330
39D1
102
}
330
39D1
100
AcDbXrecord
280
     1
270
     1
271
     1
  0
XRECORD
  5
39D4
102
{ACAD_REACTORS
330
39D1
102
}
330
39D1
100
AcDbXrecord
280
     1
270
     1
271
     1
  0
XRECORD
  5
46FB
102
{ACAD_REACTORS
330
39E1
102
}
330
39E1
100
AcDbXrecord
280
     1
102
MATERIAL
148
0.0
149
0.0
149
0.0
 93
        0
 94
      127
282
     0
 72
     0
 77
     0
171
     0
175
     0
179
     0
273
     0
  0
XRECORD
  5
39E3
102
{ACAD_REACTORS
330
39E1
102
}
330
39E1
100
AcDbXrecord
280
     1
270
     1
271
     1
  0
XRECORD
  5
39E2
102
{ACAD_REACTORS
330
39E1
102
}
330
39E1
100
AcDbXrecord
280
     1
270
     1
271
     1
  0
XRECORD
  5
39E6
102
{ACAD_REACTORS
330
39E1
102
}
330
39E1
100
AcDbXrecord
280
     1
270
     1
271
     1
  0
XRECORD
  5
39E5
102
{ACAD_REACTORS
330
39E1
102
}
330
39E1
100
AcDbXrecord
280
     1
270
     1
271
     1
  0
XRECORD
  5
39E7
102
{ACAD_REACTORS
330
39E1
102
}
330
39E1
100
AcDbXrecord
280
     1
270
     1
271
     1
  0
XRECORD
  5
39E4
102
{ACAD_REACTORS
330
39E1
102
}
330
39E1
100
AcDbXrecord
280
     1
270
     1
271
     1
  0
CELLSTYLEMAP
  5
46F2
102
{ACAD_REACTORS
330
3CB6
102
}
330
3CB6
100
AcDbCellStyleMap
 90
        3
300
CELLSTYLE
  1
TABLEFORMAT_BEGIN
 90
        5
170
     1
 91
        0
 92
    32768
 62
   257
 93
        1
300
CONTENTFORMAT
  1
CONTENTFORMAT_BEGIN
 90
        0
 91
        0
 92
        4
 93
        0
300

 40
0.0
140
1.0
 94
        5
 62
     0
340
11
144
6.0
309
CONTENTFORMAT_END
171
     1
301
MARGIN
  1
CELLMARGIN_BEGIN
 40
1.5
 40
1.5
 40
1.5
 40
1.5
 40
0.18
 40
0.18
309
CELLMARGIN_END
 94
        6
 95
        1
302
GRIDFORMAT
  1
GRIDFORMAT_BEGIN
 90
        0
 91
        1
 62
     0
 92
       -2
340
0
 93
        0
 40
0.045
309
GRIDFORMAT_END
 95
        2
302
GRIDFORMAT
  1
GRIDFORMAT_BEGIN
 90
        0
 91
        1
 62
     0
 92
       -2
340
0
 93
        0
 40
0.045
309
GRIDFORMAT_END
 95
        4
302
GRIDFORMAT
  1
GRIDFORMAT_BEGIN
 90
        0
 91
        1
 62
     0
 92
       -2
340
0
 93
        0
 40
0.045
309
GRIDFORMAT_END
 95
        8
302
GRIDFORMAT
  1
GRIDFORMAT_BEGIN
 90
        0
 91
        1
 62
     0
 92
       -2
340
0
 93
        0
 40
0.045
309
GRIDFORMAT_END
 95
       16
302
GRIDFORMAT
  1
GRIDFORMAT_BEGIN
 90
        0
 91
        1
 62
     0
 92
       -2
340
0
 93
        0
 40
0.045
309
GRIDFORMAT_END
 95
       32
302
GRIDFORMAT
  1
GRIDFORMAT_BEGIN
 90
        0
 91
        1
 62
     0
 92
       -2
340
0
 93
        0
 40
0.045
309
GRIDFORMAT_END
309
TABLEFORMAT_END
  1
CELLSTYLE_BEGIN
 90
        1
 91
        1
300
_TITLE
309
CELLSTYLE_END
300
CELLSTYLE
  1
TABLEFORMAT_BEGIN
 90
        5
170
     1
 91
        0
 92
        0
 62
   257
 93
        1
300
CONTENTFORMAT
  1
CONTENTFORMAT_BEGIN
 90
        0
 91
        0
 92
        4
 93
        0
300

 40
0.0
140
1.0
 94
        5
 62
     0
340
11
144
4.5
309
CONTENTFORMAT_END
171
     1
301
MARGIN
  1
CELLMARGIN_BEGIN
 40
1.5
 40
1.5
 40
1.5
 40
1.5
 40
0.18
 40
0.18
309
CELLMARGIN_END
 94
        6
 95
        1
302
GRIDFORMAT
  1
GRIDFORMAT_BEGIN
 90
        0
 91
        1
 62
     0
 92
       -2
340
0
 93
        0
 40
0.045
309
GRIDFORMAT_END
 95
        2
302
GRIDFORMAT
  1
GRIDFORMAT_BEGIN
 90
        0
 91
        1
 62
     0
 92
       -2
340
0
 93
        0
 40
0.045
309
GRIDFORMAT_END
 95
        4
302
GRIDFORMAT
  1
GRIDFORMAT_BEGIN
 90
        0
 91
        1
 62
     0
 92
       -2
340
0
 93
        0
 40
0.045
309
GRIDFORMAT_END
 95
        8
302
GRIDFORMAT
  1
GRIDFORMAT_BEGIN
 90
        0
 91
        1
 62
     0
 92
       -2
340
0
 93
        0
 40
0.045
309
GRIDFORMAT_END
 95
       16
302
GRIDFORMAT
  1
GRIDFORMAT_BEGIN
 90
        0
 91
        1
 62
     0
 92
       -2
340
0
 93
        0
 40
0.045
309
GRIDFORMAT_END
 95
       32
302
GRIDFORMAT
  1
GRIDFORMAT_BEGIN
 90
        0
 91
        1
 62
     0
 92
       -2
340
0
 93
        0
 40
0.045
309
GRIDFORMAT_END
309
TABLEFORMAT_END
  1
CELLSTYLE_BEGIN
 90
        2
 91
        1
300
_HEADER
309
CELLSTYLE_END
300
CELLSTYLE
  1
TABLEFORMAT_BEGIN
 90
        5
170
     1
 91
        0
 92
        0
 62
   257
 93
        1
300
CONTENTFORMAT
  1
CONTENTFORMAT_BEGIN
 90
        0
 91
        0
 92
        4
 93
        0
300

 40
0.0
140
1.0
 94
        2
 62
     0
340
11
144
4.5
309
CONTENTFORMAT_END
171
     1
301
MARGIN
  1
CELLMARGIN_BEGIN
 40
1.5
 40
1.5
 40
1.5
 40
1.5
 40
0.18
 40
0.18
309
CELLMARGIN_END
 94
        6
 95
        1
302
GRIDFORMAT
  1
GRIDFORMAT_BEGIN
 90
        0
 91
        1
 62
     0
 92
       -2
340
0
 93
        0
 40
0.045
309
GRIDFORMAT_END
 95
        2
302
GRIDFORMAT
  1
GRIDFORMAT_BEGIN
 90
        0
 91
        1
 62
     0
 92
       -2
340
0
 93
        0
 40
0.045
309
GRIDFORMAT_END
 95
        4
302
GRIDFORMAT
  1
GRIDFORMAT_BEGIN
 90
        0
 91
        1
 62
     0
 92
       -2
340
0
 93
        0
 40
0.045
309
GRIDFORMAT_END
 95
        8
302
GRIDFORMAT
  1
GRIDFORMAT_BEGIN
 90
        0
 91
        1
 62
     0
 92
       -2
340
0
 93
        0
 40
0.045
309
GRIDFORMAT_END
 95
       16
302
GRIDFORMAT
  1
GRIDFORMAT_BEGIN
 90
        0
 91
        1
 62
     0
 92
       -2
340
0
 93
        0
 40
0.045
309
GRIDFORMAT_END
 95
       32
302
GRIDFORMAT
  1
GRIDFORMAT_BEGIN
 90
        0
 91
        1
 62
     0
 92
       -2
340
0
 93
        0
 40
0.045
309
GRIDFORMAT_END
309
TABLEFORMAT_END
  1
CELLSTYLE_BEGIN
 90
        3
 91
        2
300
_DATA
309
CELLSTYLE_END
  0
XRECORD
  5
46F8
102
{ACAD_REACTORS
330
3CB6
102
}
330
3CB6
100
AcDbXrecord
280
     1
102
ACAD_ROUNDTRIP_PRE2007_TABLESTYLE
 90
        4
 91
        0
  1

 92
        4
 93
        0
  2

 94
        4
 95
        0
  3

  0
ENDSEC
  0
EOF
