  0
SECTION
  2
HEADER
  9
$ACADVER
  1
AC1014
  9
$ACADMAINTVER
 70
     9
  9
$DWGCODEPAGE
  3
ANSI_1252
  9
$INSBASE
 10
0.0
 20
0.0
 30
0.0
  9
$EXTMIN
 10
-64.5904341829073
 20
-31.49862518244299
 30
-0.000000000000013
  9
$EXTMAX
 10
106.9814523273639
 20
84.83774596176841
 30
0.0000000000000023
  9
$LIMMIN
 10
0.0
 20
0.0
  9
$LIMMAX
 10
210.0
 20
297.0
  9
$ORTHOMODE
 70
     0
  9
$REGENMODE
 70
     1
  9
$FILLMODE
 70
     1
  9
$QTEXTMODE
 70
     0
  9
$MIRRTEXT
 70
     1
  9
$DRAGMODE
 70
     2
  9
$LTSCALE
 40
1.0
  9
$OSMODE
 70
  2599
  9
$ATTMODE
 70
     1
  9
$TEXTSIZE
 40
2.5
  9
$TRACEWID
 40
1.0
  9
$TEXTSTYLE
  7
STANDARD
  9
$CLAYER
  8
0
  9
$CELTYPE
  6
BYLAYER
  9
$CECOLOR
 62
   256
  9
$CELTSCALE
 40
1.0
  9
$DELOBJ
 70
     1
  9
$DISPSILH
 70
     0
  9
$DIMSCALE
 40
1.0
  9
$DIMASZ
 40
2.5
  9
$DIMEXO
 40
0.0
  9
$DIMDLI
 40
10.0
  9
$DIMRND
 40
0.0
  9
$DIMDLE
 40
0.0
  9
$DIMEXE
 40
1.0
  9
$DIMTP
 40
0.1
  9
$DIMTM
 40
0.1
  9
$DIMTXT
 40
3.5
  9
$DIMCEN
 40
0.0
  9
$DIMTSZ
 40
0.0
  9
$DIMTOL
 70
     0
  9
$DIMLIM
 70
     0
  9
$DIMTIH
 70
     0
  9
$DIMTOH
 70
     0
  9
$DIMSE1
 70
     0
  9
$DIMSE2
 70
     0
  9
$DIMTAD
 70
     1
  9
$DIMZIN
 70
     8
  9
$DIMBLK
  1

  9
$DIMASO
 70
     1
  9
$DIMSHO
 70
     1
  9
$DIMPOST
  1

  9
$DIMAPOST
  1
"
  9
$DIMALT
 70
     0
  9
$DIMALTD
 70
     2
  9
$DIMALTF
 40
0.0393701
  9
$DIMLFAC
 40
1.0
  9
$DIMTOFL
 70
     1
  9
$DIMTVP
 40
0.0
  9
$DIMTIX
 70
     0
  9
$DIMSOXD
 70
     0
  9
$DIMSAH
 70
     0
  9
$DIMBLK1
  1

  9
$DIMBLK2
  1

  9
$DIMSTYLE
  2
AM_DIN
  9
$DIMCLRD
 70
   256
  9
$DIMCLRE
 70
   256
  9
$DIMCLRT
 70
     2
  9
$DIMTFAC
 40
0.71
  9
$DIMGAP
 40
1.5
  9
$DIMJUST
 70
     0
  9
$DIMSD1
 70
     0
  9
$DIMSD2
 70
     0
  9
$DIMTOLJ
 70
     1
  9
$DIMTZIN
 70
     8
  9
$DIMALTZ
 70
     8
  9
$DIMALTTZ
 70
     8
  9
$DIMFIT
 70
     5
  9
$DIMUPT
 70
     0
  9
$DIMUNIT
 70
     2
  9
$DIMDEC
 70
     2
  9
$DIMTDEC
 70
     2
  9
$DIMALTU
 70
     2
  9
$DIMALTTD
 70
     2
  9
$DIMTXSTY
  7
STANDARD
  9
$DIMAUNIT
 70
     0
  9
$LUNITS
 70
     2
  9
$LUPREC
 70
     2
  9
$SKETCHINC
 40
1.0
  9
$FILLETRAD
 40
2.5
  9
$AUNITS
 70
     0
  9
$AUPREC
 70
     0
  9
$MENU
  1
.
  9
$ELEVATION
 40
0.0
  9
$PELEVATION
 40
0.0
  9
$THICKNESS
 40
0.0
  9
$LIMCHECK
 70
     0
  9
$BLIPMODE
 70
     0
  9
$CHAMFERA
 40
2.5
  9
$CHAMFERB
 40
2.5
  9
$CHAMFERC
 40
0.0
  9
$CHAMFERD
 40
0.0
  9
$SKPOLY
 70
     0
  9
$TDCREATE
 40
2453447.471737477
  9
$TDUPDATE
 40
2453612.529127268
  9
$TDINDWG
 40
0.1720246181
  9
$TDUSRTIMER
 40
0.1720002778
  9
$USRTIMER
 70
     1
  9
$ANGBASE
 50
0.0
  9
$ANGDIR
 70
     0
  9
$PDMODE
 70
     0
  9
$PDSIZE
 40
0.0
  9
$PLINEWID
 40
0.0
  9
$COORDS
 70
     0
  9
$SPLFRAME
 70
     0
  9
$SPLINETYPE
 70
     6
  9
$SPLINESEGS
 70
     8
  9
$ATTDIA
 70
     1
  9
$ATTREQ
 70
     1
  9
$HANDLING
 70
 22529
  9
$HANDSEED
  5
8C33
  9
$SURFTAB1
 70
     6
  9
$SURFTAB2
 70
     6
  9
$SURFTYPE
 70
     6
  9
$SURFU
 70
     6
  9
$SURFV
 70
     6
  9
$UCSNAME
  2

  9
$UCSORG
 10
0.0
 20
0.0
 30
0.0
  9
$UCSXDIR
 10
1.0
 20
0.0
 30
0.0
  9
$UCSYDIR
 10
0.0
 20
1.0
 30
0.0
  9
$PUCSNAME
  2

  9
$PUCSORG
 10
0.0
 20
0.0
 30
0.0
  9
$PUCSXDIR
 10
1.0
 20
0.0
 30
0.0
  9
$PUCSYDIR
 10
0.0
 20
1.0
 30
0.0
  9
$USERI1
 70
     0
  9
$USERI2
 70
     0
  9
$USERI3
 70
     0
  9
$USERI4
 70
     0
  9
$USERI5
 70
     0
  9
$USERR1
 40
0.0
  9
$USERR2
 40
0.0
  9
$USERR3
 40
0.0
  9
$USERR4
 40
0.0
  9
$USERR5
 40
0.0
  9
$WORLDVIEW
 70
     1
  9
$SHADEDGE
 70
     3
  9
$SHADEDIF
 70
    70
  9
$TILEMODE
 70
     1
  9
$MAXACTVP
 70
    64
  9
$PINSBASE
 10
0.0
 20
0.0
 30
0.0
  9
$PLIMCHECK
 70
     0
  9
$PEXTMIN
 10
1.000000000000000E+20
 20
1.000000000000000E+20
 30
1.000000000000000E+20
  9
$PEXTMAX
 10
-1.000000000000000E+20
 20
-1.000000000000000E+20
 30
-1.000000000000000E+20
  9
$PLIMMIN
 10
0.0
 20
0.0
  9
$PLIMMAX
 10
420.0
 20
297.0
  9
$UNITMODE
 70
     0
  9
$VISRETAIN
 70
     1
  9
$PLINEGEN
 70
     0
  9
$PSLTSCALE
 70
     1
  9
$TREEDEPTH
 70
  3020
  9
$PICKSTYLE
 70
     0
  9
$CMLSTYLE
  2
STANDARD
  9
$CMLJUST
 70
     0
  9
$CMLSCALE
 40
1.0
  9
$PROXYGRAPHICS
 70
     1
  9
$MEASUREMENT
 70
     1
  0
ENDSEC
  0
SECTION
  2
CLASSES
  0
CLASS
  1
ACDBDICTIONARYWDFLT
  2
AcDbDictionaryWithDefault
  3
AutoCAD 2000
 90
        0
280
     0
281
     0
  0
CLASS
  1
ACDBPLACEHOLDER
  2
AcDbPlaceHolder
  3
AutoCAD 2000
 90
        0
280
     0
281
     0
  0
CLASS
  1
LAYOUT
  2
AcDbLayout
  3
AutoCAD 2000
 90
        0
280
     0
281
     0
  0
CLASS
  1
AMGSETTINGSOBJ
  2
AmgSettingsObj
  3
"AcadM|Product Description: AutoCAD Mechanical 2000|Company: Autodesk"
 90
        0
280
     0
281
     0
  0
CLASS
  1
ACME_DOCUMENT
  2
AcMeDbDoc
  3
AcMeServices
 90
        0
280
     0
281
     0
  0
CLASS
  1
ACMESCOPE
  2
AcMeScope
  3
AcMeServices
 90
        0
280
     0
281
     0
  0
CLASS
  1
ACMECOMMANDHISTORY
  2
AcMeCommandHistory
  3
AcMeServices
 90
        0
280
     0
281
     0
  0
CLASS
  1
ACIMSYSVARMAN
  2
AcImSysVarManager
  3
AcMeServices
 90
        0
280
     0
281
     0
  0
CLASS
  1
ACIMREALSYSVAR
  2
AcImRealSysVar
  3
AcMeServices
 90
        0
280
     0
281
     0
  0
CLASS
  1
ACIMINTSYSVAR
  2
AcImIntSysVar
  3
AcMeServices
 90
        0
280
     0
281
     0
  0
CLASS
  1
ACMEDRAWINGMAN
  2
AcMeDrawingMan
  3
AcMeServices
 90
        0
280
     0
281
     0
  0
CLASS
  1
ACMEVIEW
  2
AcMeView
  3
AcMeServices
 90
        0
280
     0
281
     0
  0
CLASS
  1
ACDBENTITYCACHE
  2
AcMeEntityCache
  3
AcMeServices
 90
        0
280
     0
281
     0
  0
CLASS
  1
GSMANAGER
  2
AcMeGSManager
  3
AcMeServices
 90
        0
280
     0
281
     0
  0
CLASS
  1
AMDTINTERNALREACTOR
  2
AmdtInternalReactor
  3
AcMeServices
 90
        0
280
     0
281
     0
  0
CLASS
  1
ACMESTATEMGR
  2
AcMeStateMgr
  3
AcMeServices
 90
        0
280
     0
281
     0
  0
CLASS
  1
ACGREFMASTER
  2
AcGrefMaster
  3
AcAttribServices
 90
        0
280
     0
281
     0
  0
CLASS
  1
ACME_DATABASE
  2
AcMeDbDatabase
  3
AcMeServices
 90
        0
280
     0
281
     0
  0
CLASS
  1
ACRFINSADJUSTERMGR
  2
AcRfInsAdjusterMgr
  3
AcMeServices
 90
        0
280
     0
281
     0
  0
CLASS
  1
ACGREFACADMASTER
  2
AcGrefacadMaster
  3
AcGrefServices
 90
        0
280
     0
281
     0
  0
CLASS
  1
AMIMASTER
  2
AmiMaster
  3
AmiServices
 90
        0
280
     0
281
     0
  0
CLASS
  1
ACMDATADICTIONARY
  2
AcmDataDictionary
  3
"AcmSymBB|Product Description: AutoCAD Mechanical 2000|Company: Autodesk"
 90
        0
280
     0
281
     0
  0
CLASS
  1
ACMDATAENTRYBLOCK
  2
AcmDataEntryBlock
  3
"AcmSymBB|Product Description: AutoCAD Mechanical 2000|Company: Autodesk"
 90
        0
280
     0
281
     0
  0
CLASS
  1
ACIMSTRSYSVAR
  2
AcImStrSysVar
  3
AcMeServices
 90
        0
280
     0
281
     0
  0
CLASS
  1
ACMSTANDARDANSI
  2
AcmStandardANSI
  3
"Amdt_StdImp|Product Description: AutoCAD Mechanical 2000|Company: Autodesk"
 90
        0
280
     0
281
     0
  0
CLASS
  1
AMGOBJPROPCFG
  2
AmgObjPropCfg
  3
"AmgLay|Product Description: AutoCAD Mechanical 2000|Company: Autodesk"
 90
        1
280
     0
281
     0
  0
CLASS
  1
ACMSURFSTANDARDANSI
  2
AcmSurfTextStdANSI
  3
"Amdt_StdImp|Product Description: AutoCAD Mechanical 2000|Company: Autodesk"
 90
        0
280
     0
281
     0
  0
CLASS
  1
ACMFCFSTANDARDANSI
  2
AcmFCFStdANSI
  3
"Amdt_StdImp|Product Description: AutoCAD Mechanical 2000|Company: Autodesk"
 90
        0
280
     0
281
     0
  0
CLASS
  1
ACMWELDSTANDARDANSI
  2
AcmWeldingStdANSI
  3
"Amdt_StdImp|Product Description: AutoCAD Mechanical 2000|Company: Autodesk"
 90
        0
280
     0
281
     0
  0
CLASS
  1
ACMIDSTANDARDANSI
  2
AcmIdStdANSI
  3
"Amdt_StdImp|Product Description: AutoCAD Mechanical 2000|Company: Autodesk"
 90
        0
280
     0
281
     0
  0
CLASS
  1
ACMDATUMSTANDARDANSI
  2
AcmDatumStdANSI
  3
"Amdt_StdImp|Product Description: AutoCAD Mechanical 2000|Company: Autodesk"
 90
        0
280
     0
281
     0
  0
CLASS
  1
ACMBOMSTANDARDANSI
  2
AcmBOMStdANSI
  3
"Amdt_StdImp|Product Description: AutoCAD Mechanical 2000|Company: Autodesk"
 90
        0
280
     0
281
     0
  0
CLASS
  1
ACMDETAILSTANDARDANSI
  2
AmdtDetailSymStdANSI
  3
"Amdt_StdImp|Product Description: AutoCAD Mechanical 2000|Company: Autodesk"
 90
        0
280
     0
281
     0
  0
CLASS
  1
ACMSECTIONSTANDARDANSI
  2
AmdtSectionSymStdANSI
  3
"Amdt_StdImp|Product Description: AutoCAD Mechanical 2000|Company: Autodesk"
 90
        0
280
     0
281
     0
  0
CLASS
  1
ACMCENTERLINESTANDARDANSI
  2
AmdtCenterLineStdANSI
  3
"Amdt_StdImp|Product Description: AutoCAD Mechanical 2000|Company: Autodesk"
 90
        0
280
     0
281
     0
  0
CLASS
  1
ACMNOTESTANDARDANSI
  2
AmdtNoteStdANSI
  3
"Amdt_StdImp|Product Description: AutoCAD Mechanical 2000|Company: Autodesk"
 90
        0
280
     0
281
     0
  0
CLASS
  1
ACAMGLAYSTD
  2
AcAmgLayStd
  3
"AcAmgLayStd|Product Description: AutoCAD Mechanical 2000|Company: Autodesk"
 90
        0
280
     0
281
     0
  0
CLASS
  1
ACAMGDIMSTD
  2
AcAmgDimStd
  3
"AcAmgDimStd|Product Description: AutoCAD Mechanical 2000|Company: Autodesk"
 90
        0
280
     0
281
     0
  0
CLASS
  1
ACAMGHOLECHARTSTDANSI
  2
AcAmgHoleChartStdANSI
  3
ACMSYMBB_MODULE_NAME
 90
        0
280
     0
281
     0
  0
CLASS
  1
ACAMGTITLESTD
  2
AcAmgTitleStd
  3
"TITLEAPP"
 90
        0
280
     0
281
     0
  0
CLASS
  1
ACAMGFILTERDAT
  2
AcAmgFilterDat
  3
"AcadM|Product Description: AutoCAD Mechanical 2000|Company: Autodesk"
 90
        0
280
     0
281
     0
  0
CLASS
  1
LAYER_INDEX
  2
AcDbLayerIndex
  3
AutoCAD 2000
 90
        0
280
     0
281
     0
  0
CLASS
  1
IDBUFFER
  2
AcDbIdBuffer
  3
AutoCAD 2000
 90
        0
280
     0
281
     0
  0
CLASS
  1
DICTIONARYVAR
  2
AcDbDictionaryVar
  3
AutoCAD 2000
 90
        0
280
     0
281
     0
  0
CLASS
  1
ACMSTANDARDDIN
  2
AcmStandardDIN
  3
"Amdt_StdImp|Product Description: AutoCAD Mechanical 2000|Company: Autodesk"
 90
        0
280
     0
281
     0
  0
CLASS
  1
AMDTEDGESTANDARDDIN
  2
AmdtEdgeStdDIN
  3
"Amdt_StdImp|Product Description: AutoCAD Mechanical 2000|Company: Autodesk"
 90
        0
280
     0
281
     0
  0
CLASS
  1
ACMSURFSTANDARDDIN
  2
AcmSurfTextStdDIN
  3
"Amdt_StdImp|Product Description: AutoCAD Mechanical 2000|Company: Autodesk"
 90
        0
280
     0
281
     0
  0
CLASS
  1
ACMFCFSTANDARDDIN
  2
AcmFCFStdDIN
  3
"Amdt_StdImp|Product Description: AutoCAD Mechanical 2000|Company: Autodesk"
 90
        0
280
     0
281
     0
  0
CLASS
  1
ACMWELDSTANDARDDIN
  2
AcmWeldingStdDIN
  3
"Amdt_StdImp|Product Description: AutoCAD Mechanical 2000|Company: Autodesk"
 90
        0
280
     0
281
     0
  0
CLASS
  1
ACMIDSTANDARDDIN
  2
AcmIdStdDIN
  3
"Amdt_StdImp|Product Description: AutoCAD Mechanical 2000|Company: Autodesk"
 90
        0
280
     0
281
     0
  0
CLASS
  1
ACMDATUMSTANDARDDIN
  2
AcmDatumStdDIN
  3
"Amdt_StdImp|Product Description: AutoCAD Mechanical 2000|Company: Autodesk"
 90
        0
280
     0
281
     0
  0
CLASS
  1
ACMBOMSTANDARDDIN
  2
AcmBOMStdDIN
  3
"Amdt_StdImp|Product Description: AutoCAD Mechanical 2000|Company: Autodesk"
 90
        0
280
     0
281
     0
  0
CLASS
  1
ACMDETAILSTANDARDDIN
  2
AmdtDetailSymStdDIN
  3
"Amdt_StdImp|Product Description: AutoCAD Mechanical 2000|Company: Autodesk"
 90
        0
280
     0
281
     0
  0
CLASS
  1
ACMSECTIONSTANDARDDIN
  2
AmdtSectionSymStdDIN
  3
"Amdt_StdImp|Product Description: AutoCAD Mechanical 2000|Company: Autodesk"
 90
        0
280
     0
281
     0
  0
CLASS
  1
ACMCENTERLINESTANDARDDIN
  2
AmdtCenterLineStdDIN
  3
"Amdt_StdImp|Product Description: AutoCAD Mechanical 2000|Company: Autodesk"
 90
        0
280
     0
281
     0
  0
CLASS
  1
ACMNOTESTANDARDDIN
  2
AmdtNoteStdDIN
  3
"Amdt_StdImp|Product Description: AutoCAD Mechanical 2000|Company: Autodesk"
 90
        0
280
     0
281
     0
  0
CLASS
  1
ACAMGHOLECHARTSTDDIN
  2
AcAmgHoleChartStdDIN
  3
ACMSYMBB_MODULE_NAME
 90
        0
280
     0
281
     0
  0
CLASS
  1
AMDTFORMULAUPDATEDISPATCHER
  2
AmdtFormulaUpdateDispatcher
  3
AcMeServices
 90
        0
280
     0
281
     0
  0
CLASS
  1
LONG_TRANSACTION
  2
AcDbLongTransaction
  3
AutoCAD 2000
 90
        0
280
     0
281
     0
  0
CLASS
  1
LWPOLYLINE
  2
AcDbPolyline
  3
AutoCAD 2000
 90
        0
280
     0
281
     1
  0
CLASS
  1
HATCH
  2
AcDbHatch
  3
AutoCAD 2000
 90
        0
280
     0
281
     1
  0
CLASS
  1
XRECORD
  2
AcDbXrecord
  3
AutoCAD 2000
 90
        0
280
     0
281
     0
  0
ENDSEC
  0
SECTION
  2
TABLES
  0
TABLE
  2
VPORT
  5
6A1E
330
0
100
AcDbSymbolTable
 70
    29
  0
VPORT
  5
8C0E
330
6A1E
100
AcDbSymbolTableRecord
100
AcDbViewportTableRecord
  2
*ACTIVE
 70
     0
 10
0.0
 20
0.0
 11
1.0
 21
1.0
 12
72.70478290854635
 22
132.7506874087785
 13
0.0
 23
0.0
 14
2.5
 24
2.5
 15
10.0
 25
10.0
 16
0.0
 26
0.0
 36
1.0
 17
0.0
 27
0.0
 37
0.0
 40
332.1217717837199
 41
1.694290976058931
 42
50.0
 43
0.0
 44
0.0
 50
0.0
 51
0.0
 71
    16
 72
 10000
 73
     1
 74
     3
 75
     0
 76
     0
 77
     0
 78
     0
  0
ENDTAB
  0
TABLE
  2
LTYPE
  5
6A1B
330
0
100
AcDbSymbolTable
 70
    16
  0
LTYPE
  5
6A29
330
6A1B
100
AcDbSymbolTableRecord
100
AcDbLinetypeTableRecord
  2
BYBLOCK
 70
     0
  3

 72
    65
 73
     0
 40
0.0
  0
LTYPE
  5
6A2A
330
6A1B
100
AcDbSymbolTableRecord
100
AcDbLinetypeTableRecord
  2
BYLAYER
 70
     0
  3

 72
    65
 73
     0
 40
0.0
  0
LTYPE
  5
6A2B
330
6A1B
100
AcDbSymbolTableRecord
100
AcDbLinetypeTableRecord
  2
CONTINUOUS
 70
     0
  3
Solid line
 72
    65
 73
     0
 40
0.0
  0
LTYPE
  5
6A39
330
6A1B
100
AcDbSymbolTableRecord
100
AcDbLinetypeTableRecord
  2
AMCONSTR
 70
     0
  3
_______________________
 72
    65
 73
     2
 40
9999.0
 49
9999.0
 74
     0
 49
0.0
 74
     0
  0
LTYPE
  5
6A43
330
6A1B
100
AcDbSymbolTableRecord
100
AcDbLinetypeTableRecord
  2
CENTER
 70
     0
  3
__ . __
 72
    65
 73
     4
 40
7.0
 49
4.0
 74
     0
 49
-1.0
 74
     0
 49
1.0
 74
     0
 49
-1.0
 74
     0
  0
LTYPE
  5
6A45
330
6A1B
100
AcDbSymbolTableRecord
100
AcDbLinetypeTableRecord
  2
PHANTOM2
 70
     0
  3
Phantom (.5x) ___ _ _ ___ _ _ ___ _ _ ___ _ _
 72
    65
 73
     6
 40
1.25
 49
0.625
 74
     0
 49
-0.125
 74
     0
 49
0.125
 74
     0
 49
-0.125
 74
     0
 49
0.125
 74
     0
 49
-0.125
 74
     0
  0
LTYPE
  5
6A46
330
6A1B
100
AcDbSymbolTableRecord
100
AcDbLinetypeTableRecord
  2
ACANSTGB
 70
     0
  3
__ . . __ . .
 72
    65
 73
     6
 40
0.35433070866
 49
0.15748031496
 74
     0
 49
-0.03937007874
 74
     0
 49
0.03937007874
 74
     0
 49
-0.03937007874
 74
     0
 49
0.03937007874
 74
     0
 49
-0.03937007874
 74
     0
  0
LTYPE
  5
6A47
330
6A1B
100
AcDbSymbolTableRecord
100
AcDbLinetypeTableRecord
  2
ACANSTGL
 70
     0
  3
_ _ _ _ _
 72
    65
 73
     2
 40
0.11811023622
 49
0.07874015748
 74
     0
 49
-0.03937007874
 74
     0
  0
LTYPE
  5
6A48
330
6A1B
100
AcDbSymbolTableRecord
100
AcDbLinetypeTableRecord
  2
DASHED
 70
     0
  3
__ __ __ __ __ __ __ __ __ __ __ __ __ __ __ __
 72
    65
 73
     2
 40
19.05
 49
12.7
 74
     0
 49
-6.349999999999998
 74
     0
  0
LTYPE
  5
6C79
330
6A1B
100
AcDbSymbolTableRecord
100
AcDbLinetypeTableRecord
  2
ACDINWELD
 70
     0
  3
_ _ _ _ _
 72
    65
 73
     2
 40
2.0
 49
2.0
 74
     0
 49
-1.0
 74
     0
  0
LTYPE
  5
6C7A
330
6A1B
100
AcDbSymbolTableRecord
100
AcDbLinetypeTableRecord
  2
ACDINTGB
 70
     0
  3
__ . . __ . .
 72
    65
 73
     6
 40
9.0
 49
4.0
 74
     0
 49
-1.0
 74
     0
 49
1.0
 74
     0
 49
-1.0
 74
     0
 49
1.0
 74
     0
 49
-1.0
 74
     0
  0
LTYPE
  5
6C7B
330
6A1B
100
AcDbSymbolTableRecord
100
AcDbLinetypeTableRecord
  2
ACDINTGL
 70
     0
  3
_ _ _ _ _
 72
    65
 73
     2
 40
3.0
 49
2.0
 74
     0
 49
-1.0
 74
     0
  0
LTYPE
  5
6C8F
330
6A1B
100
AcDbSymbolTableRecord
100
AcDbLinetypeTableRecord
  2
AMZIGZAG
 70
     0
  3
/\/-/\/-/\/-/\/-/\/-/\/
 72
    65
 73
     2
 40
11.00009999999999
 49
0.0001
 74
     4
 75
   135
340
6A5B
 46
0.04
 50
0.0
 44
0.0
 45
0.0
 49
-11.0
 74
     0
  0
LTYPE
  5
6C90
330
6A1B
100
AcDbSymbolTableRecord
100
AcDbLinetypeTableRecord
  2
AM_DIN_F_W050
 70
     0
  3
__ __ __ __ __ __ __ __ __ __ __ __ __ __ __
 72
    65
 73
     2
 40
6.25
 49
4.75
 74
     0
 49
-1.5
 74
     0
  0
LTYPE
  5
6C91
330
6A1B
100
AcDbSymbolTableRecord
100
AcDbLinetypeTableRecord
  2
AM_DIN_G_W050
 70
     0
  3
____ . ____ . ____ . ____ . ____ . ____ . ____
 72
    65
 73
     4
 40
13.75
 49
9.75
 74
     0
 49
-1.5
 74
     0
 49
1.0
 74
     0
 49
-1.5
 74
     0
  0
LTYPE
  5
6C92
330
6A1B
100
AcDbSymbolTableRecord
100
AcDbLinetypeTableRecord
  2
AM_DIN_K_W050
 70
     0
  3
_____ . . _____ . . _____ . . ____ .. ____
 72
    65
 73
     6
 40
16.25
 49
9.75
 74
     0
 49
-1.5
 74
     0
 49
1.0
 74
     0
 49
-1.5
 74
     0
 49
1.0
 74
     0
 49
-1.5
 74
     0
  0
LTYPE
  5
6C93
330
6A1B
100
AcDbSymbolTableRecord
100
AcDbLinetypeTableRecord
  2
AM_DIN_G_W050X2
 70
     0
  3
__ . __ . __ . __ . __ . __
 72
    65
 73
     4
 40
6.875
 49
4.75
 74
     0
 49
-0.875
 74
     0
 49
0.375
 74
     0
 49
-0.875
 74
     0
  0
LTYPE
  5
6C94
330
6A1B
100
AcDbSymbolTableRecord
100
AcDbLinetypeTableRecord
  2
AM_DIN_F_W050X2
 70
     0
  3
 _ _ _ _ _ _ _ _ _ _ _ _
 72
    65
 73
     2
 40
3.125
 49
2.25
 74
     0
 49
-0.875
 74
     0
  0
ENDTAB
  0
TABLE
  2
LAYER
  5
6A18
330
0
100
AcDbSymbolTable
 70
    14
  0
LAYER
  5
6A26
330
6A18
100
AcDbSymbolTableRecord
100
AcDbLayerTableRecord
  2
0
 70
     0
 62
     7
  6
CONTINUOUS
  0
LAYER
  5
6A4B
330
6A18
100
AcDbSymbolTableRecord
100
AcDbLayerTableRecord
  2
DEFPOINTS
 70
     0
 62
     7
  6
CONTINUOUS
  0
LAYER
  5
6A4C
330
6A18
100
AcDbSymbolTableRecord
100
AcDbLayerTableRecord
  2
1
 70
     0
 62
     4
  6
CONTINUOUS
  0
LAYER
  5
6A4D
330
6A18
100
AcDbSymbolTableRecord
100
AcDbLayerTableRecord
  2
2
 70
     0
 62
     7
  6
CONTINUOUS
  0
LAYER
  5
6A53
330
6A18
100
AcDbSymbolTableRecord
100
AcDbLayerTableRecord
  2
SK1
 70
     0
 62
     4
  6
CONTINUOUS
  0
LAYER
  5
6A54
330
6A18
100
AcDbSymbolTableRecord
100
AcDbLayerTableRecord
  2
SK2
 70
     0
 62
     7
  6
CONTINUOUS
  0
LAYER
  5
6A55
330
6A18
100
AcDbSymbolTableRecord
100
AcDbLayerTableRecord
  2
SK3
 70
     0
 62
     1
  6
DASHED
  0
LAYER
  5
6A56
330
6A18
100
AcDbSymbolTableRecord
100
AcDbLayerTableRecord
  2
SK4
 70
     0
 62
     2
  6
CENTER
  0
LAYER
  5
6A58
330
6A18
100
AcDbSymbolTableRecord
100
AcDbLayerTableRecord
  2
NOCUT
 70
     0
 62
     7
  6
CONTINUOUS
  0
LAYER
  5
6FD0
330
6A18
100
AcDbSymbolTableRecord
100
AcDbLayerTableRecord
  2
4
 70
     0
 62
     2
  6
CENTER
  0
LAYER
  5
6FD1
330
6A18
100
AcDbSymbolTableRecord
100
AcDbLayerTableRecord
  2
6
 70
     0
 62
     5
  6
CONTINUOUS
  0
LAYER
  5
6FD2
330
6A18
100
AcDbSymbolTableRecord
100
AcDbLayerTableRecord
  2
CUT
 70
     0
 62
     1
  6
CONTINUOUS
  0
LAYER
  5
72B2
330
6A18
100
AcDbSymbolTableRecord
100
AcDbLayerTableRecord
  2
SK6
 70
     0
 62
     5
  6
CONTINUOUS
  0
ENDTAB
  0
TABLE
  2
STYLE
  5
6A19
330
0
100
AcDbSymbolTable
 70
     6
  0
STYLE
  5
6A27
330
6A19
100
AcDbSymbolTableRecord
100
AcDbTextStyleTableRecord
  2
STANDARD
 70
     0
 40
0.0
 41
1.0
 50
0.0
 71
     0
 42
2.5
  3
ISOCP.SHX
  4

  0
STYLE
  5
6A5B
330
6A19
100
AcDbSymbolTableRecord
100
AcDbTextStyleTableRecord
  2

 70
     1
 40
0.0
 41
1.0
 50
0.0
 71
     0
 42
2.5
  3
ltypeshp.shx
  4

  0
STYLE
  5
6A5E
330
6A19
100
AcDbSymbolTableRecord
100
AcDbTextStyleTableRecord
  2
ACANSTS
 70
     0
 40
1.0
 41
1.0
 50
0.0
 71
     0
 42
0.2
  3
romans.shx
  4

  0
STYLE
  5
6A5F
330
6A19
100
AcDbSymbolTableRecord
100
AcDbTextStyleTableRecord
  2
ACANSGDT
 70
     0
 40
0.0
 41
1.0
 50
0.0
 71
     0
 42
0.2
  3
amgdtans.shx
  4

  0
STYLE
  5
6C6C
330
6A19
100
AcDbSymbolTableRecord
100
AcDbTextStyleTableRecord
  2
ACDINTS
 70
     0
 40
1.0
 41
1.0
 50
0.0
 71
     0
 42
3.5
  3
isocp.shx
  4

  0
STYLE
  5
6C78
330
6A19
100
AcDbSymbolTableRecord
100
AcDbTextStyleTableRecord
  2
ACDINGDT
 70
     0
 40
0.0
 41
1.0
 50
0.0
 71
     0
 42
3.5
  3
amgdt.shx
  4

  0
ENDTAB
  0
TABLE
  2
VIEW
  5
6A1C
330
0
100
AcDbSymbolTable
 70
     6
  0
VIEW
  5
6A60
330
6A1C
100
AcDbSymbolTableRecord
100
AcDbViewTableRecord
  2
AM_VIEW1
 70
     0
 40
148.5
 10
131.508173076923
 20
222.75
 41
263.016346153846
 11
0.0
 21
0.0
 31
1.0
 12
0.0
 22
0.0
 32
0.0
 42
50.0
 43
0.0
 44
0.0
 50
0.0
 71
    16
  0
VIEW
  5
6A61
330
6A1C
100
AcDbSymbolTableRecord
100
AcDbViewTableRecord
  2
AM_VIEW2
 70
     0
 40
148.5
 10
78.4918269230769
 20
222.75
 41
263.016346153846
 11
0.0
 21
0.0
 31
1.0
 12
0.0
 22
0.0
 32
0.0
 42
50.0
 43
0.0
 44
0.0
 50
0.0
 71
    16
  0
VIEW
  5
6A62
330
6A1C
100
AcDbSymbolTableRecord
100
AcDbViewTableRecord
  2
AM_VIEW3
 70
     0
 40
148.5
 10
131.508173076923
 20
74.25
 41
263.016346153846
 11
0.0
 21
0.0
 31
1.0
 12
0.0
 22
0.0
 32
0.0
 42
50.0
 43
0.0
 44
0.0
 50
0.0
 71
    16
  0
VIEW
  5
6A63
330
6A1C
100
AcDbSymbolTableRecord
100
AcDbViewTableRecord
  2
AM_VIEW4
 70
     0
 40
148.5
 10
78.4918269230769
 20
74.25
 41
263.016346153846
 11
0.0
 21
0.0
 31
1.0
 12
0.0
 22
0.0
 32
0.0
 42
50.0
 43
0.0
 44
0.0
 50
0.0
 71
    16
  0
VIEW
  5
6A64
330
6A1C
100
AcDbSymbolTableRecord
100
AcDbViewTableRecord
  2
AM_VIEW5
 70
     0
 40
148.5
 10
105.0
 20
148.5
 41
263.016346153846
 11
0.0
 21
0.0
 31
1.0
 12
0.0
 22
0.0
 32
0.0
 42
50.0
 43
0.0
 44
0.0
 50
0.0
 71
    16
  0
VIEW
  5
6A65
330
6A1C
100
AcDbSymbolTableRecord
100
AcDbViewTableRecord
  2
AM_VIEW6
 70
     0
 40
296.9970299999999
 10
105.0
 20
148.5
 41
526.0274319807693
 11
0.0
 21
0.0
 31
1.0
 12
0.0
 22
0.0
 32
0.0
 42
50.0
 43
0.0
 44
0.0
 50
0.0
 71
    16
  0
ENDTAB
  0
TABLE
  2
UCS
  5
6A1D
330
0
100
AcDbSymbolTable
 70
     0
  0
ENDTAB
  0
TABLE
  2
APPID
  5
6A1F
330
0
100
AcDbSymbolTable
 70
    43
  0
APPID
  5
6A28
330
6A1F
100
AcDbSymbolTableRecord
100
AcDbRegAppTableRecord
  2
ACAD
 70
     0
  0
APPID
  5
6A66
330
6A1F
100
AcDbSymbolTableRecord
100
AcDbRegAppTableRecord
  2
MCAD_NO_VIS
 70
     0
  0
APPID
  5
6A67
330
6A1F
100
AcDbSymbolTableRecord
100
AcDbRegAppTableRecord
  2
ACAD_TEMP_GRAPHIC
 70
     0
  0
APPID
  5
6A68
330
6A1F
100
AcDbSymbolTableRecord
100
AcDbRegAppTableRecord
  2
ACATTRIBSERVICES
 70
     0
  0
APPID
  5
6A69
330
6A1F
100
AcDbSymbolTableRecord
100
AcDbRegAppTableRecord
  2
GENIUS_GENDIMSH_14
 70
     0
  0
APPID
  5
6A6A
330
6A1F
100
AcDbSymbolTableRecord
100
AcDbRegAppTableRecord
  2
GENIUS_GENBLLY_14
 70
     0
  0
APPID
  5
6A6B
330
6A1F
100
AcDbSymbolTableRecord
100
AcDbRegAppTableRecord
  2
GENIUS_GENTRA_14
 70
     0
  0
APPID
  5
6A6C
330
6A1F
100
AcDbSymbolTableRecord
100
AcDbRegAppTableRecord
  2
GENIUS_GENODEF_13
 70
     0
  0
APPID
  5
6A6D
330
6A1F
100
AcDbSymbolTableRecord
100
AcDbRegAppTableRecord
  2
GENIUS_GENOLIS_13
 70
     0
  0
APPID
  5
6A6E
330
6A1F
100
AcDbSymbolTableRecord
100
AcDbRegAppTableRecord
  2
GENIUS_GENOENT_13
 70
     0
  0
APPID
  5
6A6F
330
6A1F
100
AcDbSymbolTableRecord
100
AcDbRegAppTableRecord
  2
GENIUS_GENOBJ-N-TIT_13
 70
     0
  0
APPID
  5
6A70
330
6A1F
100
AcDbSymbolTableRecord
100
AcDbRegAppTableRecord
  2
GENIUS_GENTITLE_13
 70
     0
  0
APPID
  5
6A71
330
6A1F
100
AcDbSymbolTableRecord
100
AcDbRegAppTableRecord
  2
GENIUS_GENOREF_13
 70
     0
  0
APPID
  5
6A72
330
6A1F
100
AcDbSymbolTableRecord
100
AcDbRegAppTableRecord
  2
GENIUS_GENSCREG_15
 70
     0
  0
APPID
  5
6A73
330
6A1F
100
AcDbSymbolTableRecord
100
AcDbRegAppTableRecord
  2
GENIUS_GENOBJ-N-SDF_13
 70
     0
  0
APPID
  5
6A74
330
6A1F
100
AcDbSymbolTableRecord
100
AcDbRegAppTableRecord
  2
ACADIGES
 70
     0
  0
APPID
  5
6A75
330
6A1F
100
AcDbSymbolTableRecord
100
AcDbRegAppTableRecord
  2
GENIUS_GENOBJ-N-HTC_13
 70
     0
  0
APPID
  5
6A76
330
6A1F
100
AcDbSymbolTableRecord
100
AcDbRegAppTableRecord
  2
GENIUS_GENHATCH_13
 70
     0
  0
APPID
  5
6D75
330
6A1F
100
AcDbSymbolTableRecord
100
AcDbRegAppTableRecord
  2
GENIUS_GENOBJ-N-CRS_13
 70
     0
  0
APPID
  5
6D76
330
6A1F
100
AcDbSymbolTableRecord
100
AcDbRegAppTableRecord
  2
GENIUS_GENOBJ-N-FIL_13
 70
     0
  0
APPID
  5
6D77
330
6A1F
100
AcDbSymbolTableRecord
100
AcDbRegAppTableRecord
  2
GENIUS_GENFIL_13
 70
     0
  0
APPID
  5
6D78
330
6A1F
100
AcDbSymbolTableRecord
100
AcDbRegAppTableRecord
  2
GENIUS_GENOBJ-N-CHA_13
 70
     0
  0
APPID
  5
6FD3
330
6A1F
100
AcDbSymbolTableRecord
100
AcDbRegAppTableRecord
  2
GENIUS12
 70
     0
  0
APPID
  5
6FD4
330
6A1F
100
AcDbSymbolTableRecord
100
AcDbRegAppTableRecord
  2
GENIUS_GENCFG_13
 70
     0
  0
APPID
  5
6FD5
330
6A1F
100
AcDbSymbolTableRecord
100
AcDbRegAppTableRecord
  2
GENIUS_GEFCFG0_13
 70
     0
  0
APPID
  5
6FD6
330
6A1F
100
AcDbSymbolTableRecord
100
AcDbRegAppTableRecord
  2
GENIUS_GENCFG0_13
 70
     0
  0
APPID
  5
6FD7
330
6A1F
100
AcDbSymbolTableRecord
100
AcDbRegAppTableRecord
  2
GENIUS_GENCFG1_13
 70
     0
  0
APPID
  5
6FD8
330
6A1F
100
AcDbSymbolTableRecord
100
AcDbRegAppTableRecord
  2
GENIUS_GENCFG2_13
 70
     0
  0
APPID
  5
6FD9
330
6A1F
100
AcDbSymbolTableRecord
100
AcDbRegAppTableRecord
  2
GENIUS_GENCFG3_13
 70
     0
  0
APPID
  5
6FDA
330
6A1F
100
AcDbSymbolTableRecord
100
AcDbRegAppTableRecord
  2
GENIUS_GENCFG4_13
 70
     0
  0
APPID
  5
6FDB
330
6A1F
100
AcDbSymbolTableRecord
100
AcDbRegAppTableRecord
  2
GENIUS_GEVCFG0_13
 70
     0
  0
APPID
  5
6FDC
330
6A1F
100
AcDbSymbolTableRecord
100
AcDbRegAppTableRecord
  2
GENIUS_GENOBJ-F-SUF_13
 70
     0
  0
APPID
  5
6FDD
330
6A1F
100
AcDbSymbolTableRecord
100
AcDbRegAppTableRecord
  2
GENIUS_GENDIM_13
 70
     0
  0
APPID
  5
6FDE
330
6A1F
100
AcDbSymbolTableRecord
100
AcDbRegAppTableRecord
  2
GENIUS_GENDTOL_13
 70
     0
  0
APPID
  5
6FDF
330
6A1F
100
AcDbSymbolTableRecord
100
AcDbRegAppTableRecord
  2
GENIUS_GE3DTOL_13
 70
     0
  0
APPID
  5
6FE0
330
6A1F
100
AcDbSymbolTableRecord
100
AcDbRegAppTableRecord
  2
AD_DRAW
 70
     0
  0
APPID
  5
6FE1
330
6A1F
100
AcDbSymbolTableRecord
100
AcDbRegAppTableRecord
  2
ASURF_PCURVE_APPNAME
 70
     0
  0
APPID
  5
6FE2
330
6A1F
100
AcDbSymbolTableRecord
100
AcDbRegAppTableRecord
  2
AMG_3D2D_5_0
 70
     0
  0
APPID
  5
6FE3
330
6A1F
100
AcDbSymbolTableRecord
100
AcDbRegAppTableRecord
  2
DESIGNERASSEMBLIES
 70
     0
  0
APPID
  5
6FE4
330
6A1F
100
AcDbSymbolTableRecord
100
AcDbRegAppTableRecord
  2
ACADM_DIM_EDIT
 70
     0
  0
APPID
  5
6FE5
330
6A1F
100
AcDbSymbolTableRecord
100
AcDbRegAppTableRecord
  2
AMDT_DM_ADJ
 70
     0
  0
APPID
  5
748B
330
6A1F
100
AcDbSymbolTableRecord
100
AcDbRegAppTableRecord
  2
GEV_VCCNULL_SWITCH_OFF
 70
     0
  0
APPID
  5
7E41
330
6A1F
100
AcDbSymbolTableRecord
100
AcDbRegAppTableRecord
  2
GENIUS_GENOBJ-N-CEN_13
 70
     0
  0
ENDTAB
  0
TABLE
  2
DIMSTYLE
  5
6A20
330
0
100
AcDbSymbolTable
 70
    14
  0
DIMSTYLE
105
6A77
102
{ACAD_REACTORS
330
73F1
330
89BE
330
8AD5
330
8B84
330
8BAC
102
}
330
6A20
100
AcDbSymbolTableRecord
100
AcDbDimStyleTableRecord
  2
AM_DIN
 70
     0
  3

  4
"
  5

  6

  7

 40
1.0
 41
2.5
 42
0.0
 43
10.0
 44
1.0
 45
0.0
 46
0.0
 47
0.1
 48
0.1
140
3.5
141
0.0
142
0.0
143
0.0393701
144
1.0
145
0.0
146
0.71
147
1.5
 71
     0
 72
     0
 73
     0
 74
     0
 75
     0
 76
     0
 77
     1
 78
     8
170
     0
171
     2
172
     1
173
     0
174
     0
175
     0
176
   256
177
   256
178
     2
270
     2
271
     2
272
     2
273
     2
274
     2
340
6A27
275
     0
280
     0
281
     0
282
     0
283
     1
284
     8
285
     8
286
     8
287
     5
288
     0
  0
DIMSTYLE
105
6A7E
330
6A20
100
AcDbSymbolTableRecord
100
AcDbDimStyleTableRecord
  2
STANDARD
 70
     0
  3

  4

  5

  6

  7

 40
1.0
 41
0.18
 42
0.0625
 43
0.38
 44
0.18
 45
0.0
 46
0.0
 47
0.0
 48
0.0
140
0.18
141
0.09
142
0.0
143
25.4
144
1.0
145
0.0
146
1.0
147
0.09
 71
     0
 72
     0
 73
     1
 74
     1
 75
     0
 76
     0
 77
     0
 78
     0
170
     0
171
     2
172
     0
173
     0
174
     0
175
     0
176
     0
177
     0
178
     0
270
     2
271
     2
272
     2
273
     2
274
     2
340
6A27
275
     0
280
     0
281
     0
282
     0
283
     1
284
     8
285
     8
286
     8
287
     5
288
     0
  0
DIMSTYLE
105
6A7F
102
{ACAD_REACTORS
330
6E8F
330
6E90
102
}
330
6A20
100
AcDbSymbolTableRecord
100
AcDbDimStyleTableRecord
  2
AM_ANSI
 70
     0
  3

  4
mm
  5

  6

  7

 40
1.0
 41
0.1
 42
0.05
 43
0.5
 44
0.1
 45
0.0
 46
0.0
 47
0.1
 48
0.1
140
0.12
141
0.0
142
0.0
143
25.4
144
1.0
145
0.0
146
0.71
147
0.06
 71
     0
 72
     0
 73
     1
 74
     1
 75
     0
 76
     0
 77
     0
 78
     7
170
     0
171
     2
172
     0
173
     0
174
     0
175
     0
176
   256
177
   256
178
     2
270
     2
271
     2
272
     2
273
     2
274
     2
340
6A27
275
     0
280
     0
281
     0
282
     0
283
     1
284
     8
285
     8
286
     8
287
     5
288
     0
  0
DIMSTYLE
105
6A80
330
6A20
100
AcDbSymbolTableRecord
100
AcDbDimStyleTableRecord
  2
AM_ANSI$3
 70
     0
  3

  4
mm
  5

  6

  7

 40
1.0
 41
0.1
 42
0.05
 43
0.5
 44
0.1
 45
0.0
 46
0.0
 47
0.1
 48
0.1
140
0.12
141
0.0
142
0.0
143
25.4
144
1.0
145
0.0
146
0.71
147
0.06
 71
     0
 72
     0
 73
     1
 74
     1
 75
     0
 76
     0
 77
     0
 78
     7
170
     0
171
     2
172
     0
173
     0
174
     0
175
     0
176
   256
177
   256
178
     2
270
     2
271
     2
272
     2
273
     2
274
     2
340
6A27
275
     0
280
     0
281
     0
282
     0
283
     1
284
     8
285
     8
286
     8
287
     5
288
     0
  0
DIMSTYLE
105
6A81
330
6A20
100
AcDbSymbolTableRecord
100
AcDbDimStyleTableRecord
  2
AM_ANSI$4
 70
     0
  3

  4
mm
  5

  6

  7

 40
1.0
 41
0.1
 42
0.05
 43
0.5
 44
0.1
 45
0.0
 46
0.0
 47
0.1
 48
0.1
140
0.12
141
0.0
142
0.0
143
25.4
144
1.0
145
0.0
146
0.71
147
0.06
 71
     0
 72
     0
 73
     1
 74
     1
 75
     0
 76
     0
 77
     0
 78
     7
170
     0
171
     2
172
     0
173
     0
174
     0
175
     0
176
   256
177
   256
178
     2
270
     2
271
     2
272
     2
273
     2
274
     2
340
6A27
275
     0
280
     0
281
     0
282
     0
283
     1
284
     8
285
     8
286
     8
287
     5
288
     0
  0
DIMSTYLE
105
6A82
330
6A20
100
AcDbSymbolTableRecord
100
AcDbDimStyleTableRecord
  2
AM_ANSI$7
 70
     0
  3

  4
mm
  5

  6

  7

 40
1.0
 41
0.1
 42
0.05
 43
0.5
 44
0.1
 45
0.0
 46
0.0
 47
0.1
 48
0.1
140
0.24
141
0.0
142
0.0
143
25.4
144
1.0
145
0.0
146
0.71
147
0.06
 71
     0
 72
     0
 73
     1
 74
     1
 75
     0
 76
     0
 77
     0
 78
     7
170
     0
171
     2
172
     0
173
     0
174
     0
175
     0
176
   256
177
   256
178
     2
270
     2
271
     2
272
     2
273
     2
274
     2
340
6A27
275
     0
280
     0
281
     0
282
     0
283
     1
284
     8
285
     8
286
     8
287
     5
288
     0
  0
DIMSTYLE
105
6A83
330
6A20
100
AcDbSymbolTableRecord
100
AcDbDimStyleTableRecord
  2
AM_ANSI$SF
 70
     0
  3

  4
mm
  5

  6

  7

 40
1.0
 41
0.1
 42
0.05
 43
0.5
 44
0.1
 45
0.0
 46
0.0
 47
0.1
 48
0.1
140
0.12
141
0.0
142
0.0
143
25.4
144
1.0
145
0.0
146
0.71
147
0.06
 71
     0
 72
     0
 73
     1
 74
     1
 75
     1
 76
     1
 77
     0
 78
     7
170
     0
171
     2
172
     0
173
     0
174
     0
175
     0
176
   256
177
   256
178
     2
270
     2
271
     2
272
     2
273
     2
274
     2
340
6A27
275
     0
280
     0
281
     0
282
     0
283
     1
284
     8
285
     8
286
     8
287
     5
288
     0
  0
DIMSTYLE
105
6A84
330
6A20
100
AcDbSymbolTableRecord
100
AcDbDimStyleTableRecord
  2
AM_ANSI$SH
 70
     0
  3

  4
mm
  5

  6

  7

 40
1.0
 41
0.1
 42
0.05
 43
0.5
 44
0.1
 45
0.0
 46
0.0
 47
0.1
 48
0.1
140
0.12
141
0.0
142
0.0
143
25.4
144
1.0
145
0.0
146
0.71
147
0.06
 71
     0
 72
     0
 73
     1
 74
     1
 75
     1
 76
     1
 77
     0
 78
     7
170
     0
171
     2
172
     0
173
     1
174
     0
175
     0
176
   256
177
   256
178
     2
270
     2
271
     2
272
     2
273
     2
274
     2
340
6A27
275
     0
280
     0
281
     0
282
     0
283
     1
284
     8
285
     8
286
     8
287
     5
288
     0
  0
DIMSTYLE
105
6C7E
330
6A20
100
AcDbSymbolTableRecord
100
AcDbDimStyleTableRecord
  2
AM_DIN$3
 70
     0
  3

  4
"
  5

  6

  7

 40
1.0
 41
2.5
 42
0.0
 43
10.0
 44
1.0
 45
0.0
 46
0.0
 47
0.1
 48
0.1
140
3.5
141
0.0
142
0.0
143
0.0393701
144
1.0
145
0.0
146
0.71
147
1.5
 71
     0
 72
     0
 73
     0
 74
     1
 75
     0
 76
     0
 77
     1
 78
     8
170
     0
171
     2
172
     0
173
     0
174
     0
175
     0
176
   256
177
   256
178
     2
270
     2
271
     2
272
     2
273
     2
274
     2
340
6A27
275
     0
280
     0
281
     0
282
     0
283
     1
284
     8
285
     8
286
     8
287
     5
288
     1
  0
DIMSTYLE
105
6C7F
330
6A20
100
AcDbSymbolTableRecord
100
AcDbDimStyleTableRecord
  2
AM_DIN$4
 70
     0
  3

  4
"
  5

  6

  7

 40
1.0
 41
2.5
 42
0.0
 43
10.0
 44
1.0
 45
0.0
 46
0.0
 47
0.1
 48
0.1
140
3.5
141
0.0
142
0.0
143
0.0393701
144
1.0
145
0.0
146
0.71
147
1.5
 71
     0
 72
     0
 73
     0
 74
     1
 75
     0
 76
     0
 77
     1
 78
     8
170
     0
171
     2
172
     0
173
     0
174
     0
175
     0
176
   256
177
   256
178
     2
270
     2
271
     2
272
     2
273
     2
274
     2
340
6A27
275
     0
280
     0
281
     0
282
     0
283
     1
284
     8
285
     8
286
     8
287
     5
288
     1
  0
DIMSTYLE
105
6C80
330
6A20
100
AcDbSymbolTableRecord
100
AcDbDimStyleTableRecord
  2
AM_DIN$6
 70
     0
  3

  4
"
  5

  6

  7

 40
1.0
 41
2.5
 42
0.0
 43
10.0
 44
1.0
 45
0.0
 46
0.0
 47
0.1
 48
0.1
140
3.5
141
0.0
142
0.0
143
0.0393701
144
1.0
145
0.0
146
0.71
147
1.5
 71
     0
 72
     0
 73
     0
 74
     0
 75
     0
 76
     0
 77
     0
 78
     8
170
     0
171
     2
172
     1
173
     0
174
     0
175
     0
176
   256
177
   256
178
     2
270
     2
271
     2
272
     2
273
     2
274
     2
340
6A27
275
     0
280
     0
281
     0
282
     0
283
     0
284
     8
285
     8
286
     8
287
     5
288
     0
  0
DIMSTYLE
105
6C81
330
6A20
100
AcDbSymbolTableRecord
100
AcDbDimStyleTableRecord
  2
AM_DIN$7
 70
     0
  3

  4
"
  5

  6

  7

 40
1.0
 41
2.5
 42
0.0
 43
10.0
 44
1.0
 45
0.0
 46
0.0
 47
0.1
 48
0.1
140
5.0
141
0.0
142
0.0
143
0.0393701
144
1.0
145
0.0
146
0.71
147
1.5
 71
     0
 72
     0
 73
     0
 74
     0
 75
     0
 76
     0
 77
     1
 78
     8
170
     0
171
     2
172
     1
173
     0
174
     0
175
     0
176
   256
177
   256
178
     2
270
     2
271
     2
272
     2
273
     2
274
     2
340
6A27
275
     0
280
     0
281
     0
282
     0
283
     1
284
     8
285
     8
286
     8
287
     5
288
     0
  0
DIMSTYLE
105
6C82
330
6A20
100
AcDbSymbolTableRecord
100
AcDbDimStyleTableRecord
  2
AM_DIN$SF
 70
     0
  3

  4
"
  5

  6

  7

 40
1.0
 41
2.5
 42
1.0
 43
10.0
 44
1.0
 45
0.0
 46
0.0
 47
0.1
 48
0.1
140
3.5
141
0.0
142
0.0
143
0.0393701
144
1.0
145
0.0
146
0.71
147
1.5
 71
     0
 72
     0
 73
     0
 74
     0
 75
     1
 76
     1
 77
     1
 78
     8
170
     0
171
     2
172
     1
173
     0
174
     0
175
     0
176
   256
177
   256
178
     2
270
     2
271
     2
272
     2
273
     2
274
     2
340
6A27
275
     0
280
     0
281
     0
282
     0
283
     1
284
     8
285
     8
286
     8
287
     5
288
     0
  0
DIMSTYLE
105
6C87
330
6A20
100
AcDbSymbolTableRecord
100
AcDbDimStyleTableRecord
  2
AM_DIN$SH
 70
     0
  3

  4
"
  5

  6
GENAXEH
  7

 40
1.0
 41
2.5
 42
1.0
 43
10.0
 44
1.0
 45
0.0
 46
0.0
 47
0.1
 48
0.1
140
3.5
141
0.0
142
0.0
143
0.0393701
144
2.0
145
0.0
146
0.71
147
1.5
 71
     0
 72
     0
 73
     0
 74
     0
 75
     1
 76
     1
 77
     1
 78
     8
170
     0
171
     2
172
     1
173
     1
174
     0
175
     0
176
   256
177
   256
178
     2
270
     2
271
     2
272
     2
273
     2
274
     2
340
6A27
275
     0
280
     0
281
     0
282
     0
283
     1
284
     8
285
     8
286
     8
287
     5
288
     0
  0
ENDTAB
  0
TABLE
  2
BLOCK_RECORD
  5
6A17
330
0
100
AcDbSymbolTable
 70
     8
  0
BLOCK_RECORD
  5
6A34
102
{ACAD_XDICTIONARY
360
6B62
102
}
330
6A17
100
AcDbSymbolTableRecord
100
AcDbBlockTableRecord
  2
*MODEL_SPACE
  0
BLOCK_RECORD
  5
6A30
102
{ACAD_XDICTIONARY
360
8C30
102
}
330
6A17
100
AcDbSymbolTableRecord
100
AcDbBlockTableRecord
  2
*PAPER_SPACE
  0
BLOCK_RECORD
  5
6C83
330
6A17
100
AcDbSymbolTableRecord
100
AcDbBlockTableRecord
  2
GENAXEH
  0
BLOCK_RECORD
  5
6EC4
330
6A17
100
AcDbSymbolTableRecord
100
AcDbBlockTableRecord
  2
*D1
  0
BLOCK_RECORD
  5
6ED0
330
6A17
100
AcDbSymbolTableRecord
100
AcDbBlockTableRecord
  2
*D2
  0
BLOCK_RECORD
  5
73F2
330
6A17
100
AcDbSymbolTableRecord
100
AcDbBlockTableRecord
  2
*D3
  0
BLOCK_RECORD
  5
89BF
330
6A17
100
AcDbSymbolTableRecord
100
AcDbBlockTableRecord
  2
*D4
  0
BLOCK_RECORD
  5
8AD6
330
6A17
100
AcDbSymbolTableRecord
100
AcDbBlockTableRecord
  2
*D5
  0
BLOCK_RECORD
  5
8B85
330
6A17
100
AcDbSymbolTableRecord
100
AcDbBlockTableRecord
  2
*D6
  0
BLOCK_RECORD
  5
8BAD
330
6A17
100
AcDbSymbolTableRecord
100
AcDbBlockTableRecord
  2
*D7
  0
ENDTAB
  0
ENDSEC
  0
SECTION
  2
BLOCKS
  0
BLOCK
  5
6A35
330
6A34
100
AcDbEntity
  8
0
100
AcDbBlockBegin
  2
*MODEL_SPACE
 70
     0
 10
0.0
 20
0.0
 30
0.0
  3
*MODEL_SPACE
  1

  0
ENDBLK
  5
6A36
330
6A34
100
AcDbEntity
  8
0
100
AcDbBlockEnd
  0
BLOCK
  5
6A31
330
6A30
100
AcDbEntity
 67
     1
  8
0
100
AcDbBlockBegin
  2
*PAPER_SPACE
 70
     0
 10
0.0
 20
0.0
 30
0.0
  3
*PAPER_SPACE
  1

  0
ENDBLK
  5
6A32
330
6A30
100
AcDbEntity
 67
     1
  8
0
100
AcDbBlockEnd
  0
BLOCK
  5
6C85
330
6C83
100
AcDbEntity
  8
0
100
AcDbBlockBegin
  2
GENAXEH
 70
     0
 10
0.0
 20
0.0
 30
0.0
  3
GENAXEH
  1

  0
LINE
  5
6C84
330
6C83
100
AcDbEntity
  8
0
100
AcDbLine
 10
-1.0
 20
0.0
 30
0.0
 11
1.0
 21
0.0
 31
0.0
  0
ENDBLK
  5
6C86
330
6C83
100
AcDbEntity
  8
0
100
AcDbBlockEnd
  0
BLOCK
  5
6ECE
330
6EC4
100
AcDbEntity
  8
0
100
AcDbBlockBegin
  2
*D1
 70
     1
 10
0.0
 20
0.0
 30
0.0
  3
*D1
  1

  0
LINE
  5
7DB4
330
6EC4
100
AcDbEntity
  8
SK2
100
AcDbLine
 10
0.0
 20
24.0
 30
0.0
 11
0.0000000000000023
 21
61.03381914312868
 31
0.0
  0
LINE
  5
7DB5
330
6EC4
100
AcDbEntity
  8
SK2
100
AcDbLine
 10
-35.0
 20
11.0
 30
0.0
 11
-35.0
 21
61.03381914312868
 31
0.0
  0
LINE
  5
7DB6
330
6EC4
100
AcDbEntity
  8
SK2
100
AcDbLine
 10
-2.399999999999997
 20
60.03381914312868
 30
0.0
 11
-32.6
 21
60.03381914312868
 31
0.0
  0
SOLID
  5
7DB7
330
6EC4
100
AcDbEntity
  8
SK2
100
AcDbTrace
 10
-2.399999999999997
 20
60.43381914312868
 30
0.0
 11
-2.399999999999997
 21
59.63381914312869
 31
0.0
 12
0.0000000000000022
 22
60.03381914312868
 32
0.0
 13
0.0000000000000022
 23
60.03381914312868
 33
0.0
  0
SOLID
  5
7DB8
330
6EC4
100
AcDbEntity
  8
SK2
100
AcDbTrace
 10
-32.6
 20
60.43381914312868
 30
0.0
 11
-32.6
 21
59.63381914312869
 31
0.0
 12
-35.0
 22
60.03381914312868
 32
0.0
 13
-35.0
 23
60.03381914312868
 33
0.0
  0
MTEXT
  5
7DB9
330
6EC4
100
AcDbEntity
  8
SK2
 62
     2
100
AcDbMText
 10
-17.5
 20
62.78381914312868
 30
0.0
 40
3.5
 41
0.0
 71
     5
 72
     1
  1
\A1;35
1001
ACAD
1000
MTEXTBEGIN
1070
    73
1070
     1
1070
    44
1040
1.0
1070
    74
1070
     0
1000
MTEXTEND
  0
POINT
  5
7DBA
330
6EC4
100
AcDbEntity
  8
DEFPOINTS
 62
     0
100
AcDbPoint
 10
0.0
 20
24.0
 30
0.0
  0
POINT
  5
7DBB
330
6EC4
100
AcDbEntity
  8
DEFPOINTS
 62
     0
100
AcDbPoint
 10
-35.0
 20
11.0
 30
0.0
  0
POINT
  5
7DBC
330
6EC4
100
AcDbEntity
  8
DEFPOINTS
 62
     0
100
AcDbPoint
 10
-35.0
 20
60.03381914312868
 30
0.0
  0
ENDBLK
  5
6ECF
330
6EC4
100
AcDbEntity
  8
0
100
AcDbBlockEnd
  0
BLOCK
  5
6EDA
330
6ED0
100
AcDbEntity
  8
0
100
AcDbBlockBegin
  2
*D2
 70
     1
 10
0.0
 20
0.0
 30
0.0
  3
*D2
  1

  0
LINE
  5
7DBD
330
6ED0
100
AcDbEntity
  8
SK2
100
AcDbLine
 10
-30.0
 20
12.00000000000002
 30
0.0
 11
-49.30042214622813
 21
12.00000000000003
 31
0.0
  0
LINE
  5
7DBE
330
6ED0
100
AcDbEntity
  8
SK2
100
AcDbLine
 10
-30.0
 20
-11.99999999999997
 30
0.0
 11
-49.30042214622813
 21
-11.99999999999996
 31
0.0
  0
LINE
  5
7DBF
330
6ED0
100
AcDbEntity
  8
SK2
100
AcDbLine
 10
-48.30042214622813
 20
9.600000000000033
 30
0.0
 11
-48.30042214622813
 21
-9.599999999999965
 31
0.0
  0
MTEXT
  5
7DC0
330
6ED0
100
AcDbEntity
  8
SK2
 62
     2
100
AcDbMText
 10
-51.34319359390861
 20
-0.1122779170276829
 30
0.0
 40
3.5
 41
0.0
 71
     5
 72
     1
  1
\A1;%%c24
 11
0.0000000000000001
 21
1.0
 31
0.0
1001
ACAD
1000
MTEXTBEGIN
1070
    73
1070
     1
1070
    44
1040
1.0
1070
    74
1070
     0
1000
MTEXTEND
  0
SOLID
  5
7DC1
330
6ED0
100
AcDbEntity
  8
SK2
100
AcDbTrace
 10
-48.70042214622813
 20
9.600000000000033
 30
0.0
 11
-47.90042214622813
 21
9.600000000000033
 31
0.0
 12
-48.30042214622813
 22
12.00000000000003
 32
0.0
 13
-48.30042214622813
 23
12.00000000000003
 33
0.0
  0
SOLID
  5
7DC2
330
6ED0
100
AcDbEntity
  8
SK2
100
AcDbTrace
 10
-48.70042214622813
 20
-9.599999999999965
 30
0.0
 11
-47.90042214622813
 21
-9.599999999999965
 31
0.0
 12
-48.30042214622813
 22
-11.99999999999996
 32
0.0
 13
-48.30042214622813
 23
-11.99999999999996
 33
0.0
  0
POINT
  5
7DC3
330
6ED0
100
AcDbEntity
  8
DEFPOINTS
 62
     0
100
AcDbPoint
 10
-30.0
 20
12.00000000000002
 30
0.0
  0
POINT
  5
7DC4
330
6ED0
100
AcDbEntity
  8
DEFPOINTS
 62
     0
100
AcDbPoint
 10
-30.0
 20
-11.99999999999997
 30
0.0
  0
POINT
  5
7DC5
330
6ED0
100
AcDbEntity
  8
DEFPOINTS
 62
     0
100
AcDbPoint
 10
-48.30042214622813
 20
-11.99999999999996
 30
0.0
  0
ENDBLK
  5
6EDB
330
6ED0
100
AcDbEntity
  8
0
100
AcDbBlockEnd
  0
BLOCK
  5
73FC
330
73F2
100
AcDbEntity
  8
0
100
AcDbBlockBegin
  2
*D3
 70
     1
 10
0.0
 20
0.0
 30
0.0
  3
*D3
  1

  0
LINE
  5
7DAB
330
73F2
100
AcDbEntity
  8
SK2
100
AcDbLine
 10
0.0
 20
24.0
 30
0.0
 11
-60.74448938991872
 21
24.00000000000002
 31
0.0
  0
LINE
  5
7DAC
330
73F2
100
AcDbEntity
  8
SK2
100
AcDbLine
 10
0.0
 20
-24.0
 30
0.0
 11
-60.74448938991874
 21
-23.99999999999998
 31
0.0
  0
LINE
  5
7DAD
330
73F2
100
AcDbEntity
  8
SK2
100
AcDbLine
 10
-59.74448938991873
 20
21.50000000000001
 30
0.0
 11
-59.74448938991874
 21
-21.49999999999998
 31
0.0
  0
SOLID
  5
7DAE
330
73F2
100
AcDbEntity
  8
SK2
100
AcDbTrace
 10
-60.16115605658539
 20
21.50000000000001
 30
0.0
 11
-59.32782272325206
 21
21.50000000000001
 31
0.0
 12
-59.74448938991873
 22
24.00000000000002
 32
0.0
 13
-59.74448938991873
 23
24.00000000000002
 33
0.0
  0
SOLID
  5
7DAF
330
73F2
100
AcDbEntity
  8
SK2
100
AcDbTrace
 10
-60.16115605658541
 20
-21.49999999999998
 30
0.0
 11
-59.32782272325208
 21
-21.49999999999998
 31
0.0
 12
-59.74448938991874
 22
-23.99999999999998
 32
0.0
 13
-59.74448938991874
 23
-23.99999999999998
 33
0.0
  0
MTEXT
  5
7DB0
330
73F2
100
AcDbEntity
  8
SK2
 62
     2
100
AcDbMText
 10
-62.99448938991873
 20
0.0000000000000076
 30
0.0
 40
3.5
 41
0.0
 71
     5
 72
     1
  1
\A1;%%c48
 11
0.0000000000000001
 21
1.0
 31
0.0
1001
ACAD
1000
MTEXTBEGIN
1070
    73
1070
     1
1070
    44
1040
1.0
1070
    74
1070
     0
1000
MTEXTEND
  0
POINT
  5
7DB1
330
73F2
100
AcDbEntity
  8
DEFPOINTS
 62
     0
100
AcDbPoint
 10
0.0
 20
24.0
 30
0.0
  0
POINT
  5
7DB2
330
73F2
100
AcDbEntity
  8
DEFPOINTS
 62
     0
100
AcDbPoint
 10
0.0
 20
-24.0
 30
0.0
  0
POINT
  5
7DB3
330
73F2
100
AcDbEntity
  8
DEFPOINTS
 62
     0
100
AcDbPoint
 10
-59.74448938991874
 20
-23.99999999999998
 30
0.0
  0
ENDBLK
  5
73FD
330
73F2
100
AcDbEntity
  8
0
100
AcDbBlockEnd
  0
BLOCK
  5
89C9
330
89BF
100
AcDbEntity
  8
0
100
AcDbBlockBegin
  2
*D4
 70
     1
 10
0.0
 20
0.0
 30
0.0
  3
*D4
  1

  0
LINE
  5
8AB2
330
89BF
100
AcDbEntity
  8
2
100
AcDbLine
 10
75.0
 20
25.00000000000003
 30
0.0
 11
75.0
 21
81.00000000000003
 31
0.0
  0
LINE
  5
8AB3
330
89BF
100
AcDbEntity
  8
2
100
AcDbLine
 10
0.0
 20
29.00000000000001
 30
0.0
 11
0.0000000000000032
 21
81.00000000000003
 31
0.0
  0
LINE
  5
8AB4
330
89BF
100
AcDbEntity
  8
2
100
AcDbLine
 10
72.5
 20
80.00000000000003
 30
0.0
 11
2.500000000000003
 21
80.00000000000003
 31
0.0
  0
SOLID
  5
8AB5
330
89BF
100
AcDbEntity
  8
2
100
AcDbTrace
 10
72.5
 20
80.41666666666669
 30
0.0
 11
72.5
 21
79.58333333333335
 31
0.0
 12
75.0
 22
80.00000000000003
 32
0.0
 13
75.0
 23
80.00000000000003
 33
0.0
  0
SOLID
  5
8AB6
330
89BF
100
AcDbEntity
  8
2
100
AcDbTrace
 10
2.500000000000003
 20
80.41666666666669
 30
0.0
 11
2.500000000000003
 21
79.58333333333335
 31
0.0
 12
0.0000000000000031
 22
80.00000000000003
 32
0.0
 13
0.0000000000000031
 23
80.00000000000003
 33
0.0
  0
MTEXT
  5
8AB7
330
89BF
100
AcDbEntity
  8
2
 62
     2
100
AcDbMText
 10
37.5
 20
83.25000000000002
 30
0.0
 40
3.5
 41
0.0
 71
     5
 72
     1
  1
\A1;75
1001
ACAD
1000
MTEXTBEGIN
1070
    73
1070
     1
1070
    44
1040
1.0
1070
    74
1070
     0
1000
MTEXTEND
  0
POINT
  5
8AB8
330
89BF
100
AcDbEntity
  8
DEFPOINTS
 62
     0
100
AcDbPoint
 10
75.0
 20
25.00000000000003
 30
0.0
  0
POINT
  5
8AB9
330
89BF
100
AcDbEntity
  8
DEFPOINTS
 62
     0
100
AcDbPoint
 10
0.0
 20
29.00000000000001
 30
0.0
  0
POINT
  5
8ABA
330
89BF
100
AcDbEntity
  8
DEFPOINTS
 62
     0
100
AcDbPoint
 10
0.0000000000000031
 20
80.00000000000003
 30
0.0
  0
ENDBLK
  5
89CA
330
89BF
100
AcDbEntity
  8
0
100
AcDbBlockEnd
  0
BLOCK
  5
8AE0
330
8AD6
100
AcDbEntity
  8
0
100
AcDbBlockBegin
  2
*D5
 70
     1
 10
0.0
 20
0.0
 30
0.0
  3
*D5
  1

  0
LINE
  5
8AFE
330
8AD6
100
AcDbEntity
  8
2
100
AcDbLine
 10
75.0
 20
25.00000000000003
 30
0.0
 11
99.89704613855133
 21
25.00000000000002
 31
0.0
  0
LINE
  5
8AFF
330
8AD6
100
AcDbEntity
  8
2
100
AcDbLine
 10
75.00000000000006
 20
-24.99999999999997
 30
0.0
 11
99.89704613855133
 21
-24.99999999999997
 31
0.0
  0
LINE
  5
8B00
330
8AD6
100
AcDbEntity
  8
2
100
AcDbLine
 10
98.89704613855133
 20
22.50000000000002
 30
0.0
 11
98.89704613855133
 21
-22.49999999999997
 31
0.0
  0
SOLID
  5
8B01
330
8AD6
100
AcDbEntity
  8
2
100
AcDbTrace
 10
98.48037947188466
 20
22.50000000000002
 30
0.0
 11
99.31371280521801
 21
22.50000000000002
 31
0.0
 12
98.89704613855133
 22
25.00000000000002
 32
0.0
 13
98.89704613855133
 23
25.00000000000002
 33
0.0
  0
SOLID
  5
8B02
330
8AD6
100
AcDbEntity
  8
2
100
AcDbTrace
 10
98.48037947188466
 20
-22.49999999999997
 30
0.0
 11
99.31371280521801
 21
-22.49999999999997
 31
0.0
 12
98.89704613855133
 22
-24.99999999999997
 32
0.0
 13
98.89704613855133
 23
-24.99999999999997
 33
0.0
  0
MTEXT
  5
8B03
330
8AD6
100
AcDbEntity
  8
2
 62
     2
100
AcDbMText
 10
95.64704613855132
 20
0.0000000000000405
 30
0.0
 40
3.5
 41
0.0
 71
     5
 72
     1
  1
\A1;%%c50
 11
0.0000000000000001
 21
1.0
 31
0.0
1001
ACAD
1000
MTEXTBEGIN
1070
    73
1070
     1
1070
    44
1040
1.0
1070
    74
1070
     0
1000
MTEXTEND
  0
POINT
  5
8B04
330
8AD6
100
AcDbEntity
  8
DEFPOINTS
 62
     0
100
AcDbPoint
 10
75.0
 20
25.00000000000003
 30
0.0
  0
POINT
  5
8B05
330
8AD6
100
AcDbEntity
  8
DEFPOINTS
 62
     0
100
AcDbPoint
 10
75.00000000000006
 20
-24.99999999999997
 30
0.0
  0
POINT
  5
8B06
330
8AD6
100
AcDbEntity
  8
DEFPOINTS
 62
     0
100
AcDbPoint
 10
98.89704613855133
 20
-24.99999999999997
 30
0.0
  0
ENDBLK
  5
8AE1
330
8AD6
100
AcDbEntity
  8
0
100
AcDbBlockEnd
  0
BLOCK
  5
8B8F
330
8B85
100
AcDbEntity
  8
0
100
AcDbBlockBegin
  2
*D6
 70
     1
 10
0.0
 20
0.0
 30
0.0
  3
*D6
  1

  0
LINE
  5
8BCD
330
8B85
100
AcDbEntity
  8
2
100
AcDbLine
 10
15.0
 20
13.50000000000002
 30
0.0
 11
15.0
 21
66.00000000000003
 31
0.0
  0
LINE
  5
8BCE
330
8B85
100
AcDbEntity
  8
2
100
AcDbLine
 10
75.0
 20
25.00000000000003
 30
0.0
 11
75.0
 21
66.00000000000003
 31
0.0
  0
LINE
  5
8BCF
330
8B85
100
AcDbEntity
  8
2
100
AcDbLine
 10
17.5
 20
65.00000000000003
 30
0.0
 11
72.5
 21
65.00000000000003
 31
0.0
  0
SOLID
  5
8BD0
330
8B85
100
AcDbEntity
  8
2
100
AcDbTrace
 10
17.5
 20
65.4166666666667
 30
0.0
 11
17.5
 21
64.58333333333335
 31
0.0
 12
15.0
 22
65.00000000000003
 32
0.0
 13
15.0
 23
65.00000000000003
 33
0.0
  0
SOLID
  5
8BD1
330
8B85
100
AcDbEntity
  8
2
100
AcDbTrace
 10
72.5
 20
65.4166666666667
 30
0.0
 11
72.5
 21
64.58333333333335
 31
0.0
 12
75.0
 22
65.00000000000003
 32
0.0
 13
75.0
 23
65.00000000000003
 33
0.0
  0
MTEXT
  5
8BD2
330
8B85
100
AcDbEntity
  8
2
 62
     2
100
AcDbMText
 10
45.0
 20
68.25000000000002
 30
0.0
 40
3.5
 41
0.0
 71
     5
 72
     1
  1
\A1;60
1001
ACAD
1000
MTEXTBEGIN
1070
    73
1070
     1
1070
    44
1040
1.0
1070
    74
1070
     0
1000
MTEXTEND
  0
POINT
  5
8BD3
330
8B85
100
AcDbEntity
  8
DEFPOINTS
 62
     0
100
AcDbPoint
 10
15.0
 20
13.50000000000002
 30
0.0
  0
POINT
  5
8BD4
330
8B85
100
AcDbEntity
  8
DEFPOINTS
 62
     0
100
AcDbPoint
 10
75.0
 20
25.00000000000003
 30
0.0
  0
POINT
  5
8BD5
330
8B85
100
AcDbEntity
  8
DEFPOINTS
 62
     0
100
AcDbPoint
 10
75.0
 20
65.00000000000003
 30
0.0
  0
ENDBLK
  5
8B90
330
8B85
100
AcDbEntity
  8
0
100
AcDbBlockEnd
  0
BLOCK
  5
8BB7
330
8BAD
100
AcDbEntity
  8
0
100
AcDbBlockBegin
  2
*D7
 70
     1
 10
0.0
 20
0.0
 30
0.0
  3
*D7
  1

  0
LINE
  5
8BD6
330
8BAD
100
AcDbEntity
  8
2
100
AcDbLine
 10
75.0
 20
25.00000000000003
 30
0.0
 11
75.0
 21
51.00000000000003
 31
0.0
  0
LINE
  5
8BD7
330
8BAD
100
AcDbEntity
  8
2
100
AcDbLine
 10
54.0
 20
24.50000000000002
 30
0.0
 11
54.0
 21
51.00000000000003
 31
0.0
  0
LINE
  5
8BD8
330
8BAD
100
AcDbEntity
  8
2
100
AcDbLine
 10
72.5
 20
50.00000000000003
 30
0.0
 11
56.5
 21
50.00000000000003
 31
0.0
  0
SOLID
  5
8BD9
330
8BAD
100
AcDbEntity
  8
2
100
AcDbTrace
 10
72.5
 20
50.41666666666669
 30
0.0
 11
72.5
 21
49.58333333333336
 31
0.0
 12
75.0
 22
50.00000000000003
 32
0.0
 13
75.0
 23
50.00000000000003
 33
0.0
  0
SOLID
  5
8BDA
330
8BAD
100
AcDbEntity
  8
2
100
AcDbTrace
 10
56.5
 20
50.41666666666669
 30
0.0
 11
56.5
 21
49.58333333333336
 31
0.0
 12
54.0
 22
50.00000000000003
 32
0.0
 13
54.0
 23
50.00000000000003
 33
0.0
  0
MTEXT
  5
8BDB
330
8BAD
100
AcDbEntity
  8
2
 62
     2
100
AcDbMText
 10
64.5
 20
53.250344488189
 30
0.0
 40
3.5
 41
0.0
 71
     5
 72
     1
  1
\A1;21
1001
ACAD
1000
MTEXTBEGIN
1070
    73
1070
     1
1070
    44
1040
1.0
1070
    74
1070
     0
1000
MTEXTEND
  0
POINT
  5
8BDC
330
8BAD
100
AcDbEntity
  8
DEFPOINTS
 62
     0
100
AcDbPoint
 10
75.0
 20
25.00000000000003
 30
0.0
  0
POINT
  5
8BDD
330
8BAD
100
AcDbEntity
  8
DEFPOINTS
 62
     0
100
AcDbPoint
 10
54.0
 20
24.50000000000002
 30
0.0
  0
POINT
  5
8BDE
330
8BAD
100
AcDbEntity
  8
DEFPOINTS
 62
     0
100
AcDbPoint
 10
54.0
 20
50.00000000000003
 30
0.0
  0
ENDBLK
  5
8BB8
330
8BAD
100
AcDbEntity
  8
0
100
AcDbBlockEnd
  0
ENDSEC
  0
SECTION
  2
ENTITIES
  0
LINE
  5
6E59
330
6A34
100
AcDbEntity
  8
SK1
100
AcDbLine
 10
0.0
 20
-11.99999999999997
 30
0.0
 11
-30.00000000000005
 21
-11.99999999999997
 31
0.0
  0
LINE
  5
6E5D
330
6A34
100
AcDbEntity
  8
SK1
100
AcDbLine
 10
-30.0
 20
-11.99999999999997
 30
0.0
 11
-33.10000000000002
 21
-11.64999999999997
 31
0.0
  0
ARC
  5
6E5E
330
6A34
100
AcDbEntity
  8
SK1
100
AcDbCircle
 10
-34.0
 20
-11.0
 30
0.0
 40
1.0
100
AcDbArc
 50
180.0
 51
319.4583981264969
1001
GENIUS_GENODEF_13
1002
{
1000
HIER
1070
     0
1002
}
1002
{
1000
MANEDIT
1070
     0
1002
}
1002
{
1000
NOSEL
1070
     0
1002
}
1002
{
1000
BEHIND
1070
     0
1002
}
1002
{
1000
OTHER
1070
     0
1002
}
1002
{
1000
REACTOR
1002
}
1001
GENIUS_GENOBJ-N-FIL_13
1002
{
1000
OWNER
1000
GEN
1002
}
  0
LINE
  5
6E5F
330
6A34
100
AcDbEntity
  8
SK1
100
AcDbLine
 10
-33.10000000000002
 20
-11.64999999999997
 30
0.0
 11
-33.24006579232144
 21
-11.64999999999997
 31
0.0
  0
LINE
  5
6E60
330
6A34
100
AcDbEntity
  8
1
100
AcDbLine
 10
0.0
 20
24.0
 30
0.0
 11
12.0
 21
24.0
 31
0.0
  0
LINE
  5
6E63
330
6A34
100
AcDbEntity
  8
1
100
AcDbLine
 10
0.0
 20
-24.0
 30
0.0
 11
0.0
 21
24.0
 31
0.0
  0
ARC
  5
6E65
330
6A34
100
AcDbEntity
  8
SK1
100
AcDbCircle
 10
-34.0
 20
11.0
 30
0.0
 40
1.0
100
AcDbArc
 50
40.54160187350304
 51
180.0
1001
GENIUS_GENODEF_13
1002
{
1000
HIER
1070
     0
1002
}
1002
{
1000
MANEDIT
1070
     0
1002
}
1002
{
1000
NOSEL
1070
     0
1002
}
1002
{
1000
BEHIND
1070
     0
1002
}
1002
{
1000
OTHER
1070
     0
1002
}
1002
{
1000
REACTOR
1002
}
1001
GENIUS_GENOBJ-N-FIL_13
1002
{
1000
OWNER
1000
GEN
1002
}
  0
LINE
  5
6E66
330
6A34
100
AcDbEntity
  8
SK1
100
AcDbLine
 10
0.0
 20
12.00000000000002
 30
0.0
 11
-30.00000000000005
 21
12.00000000000002
 31
0.0
  0
LINE
  5
6E68
330
6A34
100
AcDbEntity
  8
SK1
100
AcDbLine
 10
-30.0
 20
12.00000000000002
 30
0.0
 11
-33.10000000000002
 21
11.65000000000003
 31
0.0
  0
LINE
  5
6E69
330
6A34
100
AcDbEntity
  8
SK1
100
AcDbLine
 10
-33.10000000000002
 20
11.65000000000003
 30
0.0
 11
-33.24006579232144
 21
11.65000000000003
 31
0.0
  0
LINE
  5
6E6A
330
6A34
100
AcDbEntity
  8
SK1
100
AcDbLine
 10
-35.0
 20
-10.99999999999997
 30
0.0
 11
-35.0
 21
11.00000000000002
 31
0.0
  0
LINE
  5
6E6B
330
6A34
100
AcDbEntity
  8
SK1
100
AcDbLine
 10
-16.98960756861424
 20
-6.999999999999971
 30
0.0
 11
-18.68883222675992
 21
-6.999999999999971
 31
0.0
  0
LINE
  5
6E6C
330
6A34
100
AcDbEntity
  8
SK1
100
AcDbLine
 10
-16.98960756861424
 20
7.000000000000028
 30
0.0
 11
-18.68883222675992
 21
7.000000000000028
 31
0.0
  0
ARC
  5
6E6D
330
6A34
100
AcDbEntity
  8
SK1
100
AcDbCircle
 10
-17.08460432395168
 20
0.0
 30
0.0
 40
7.181472492751646
100
AcDbArc
 50
102.9078848854386
 51
257.0921151145614
  0
LINE
  5
6E6E
330
6A34
100
AcDbEntity
  8
SK1
100
AcDbLine
 10
-18.68883222675992
 20
-3.999999999999971
 30
0.0
 11
-18.68883222675992
 21
4.000000000000028
 31
0.0
  0
ARC
  5
6E6F
330
6A34
100
AcDbEntity
  8
SK1
100
AcDbCircle
 10
-15.19095324358221
 20
-4.0
 30
0.0
 40
3.497878983177713
100
AcDbArc
 50
180.0000000000004
 51
239.0551446332088
  0
ARC
  5
6E70
330
6A34
100
AcDbEntity
  8
SK1
100
AcDbCircle
 10
-15.19095324358221
 20
4.0
 30
0.0
 40
3.497878983177713
100
AcDbArc
 50
120.9448553667911
 51
179.9999999999996
  0
ARC
  5
6E71
330
6A34
100
AcDbEntity
  8
SK1
100
AcDbCircle
 10
-22.86946659883227
 20
0.0
 30
0.0
 40
9.141812851685189
100
AcDbArc
 50
310.0295827564067
 51
49.97041724359328
  0
LINE
  5
6E76
330
6A34
100
AcDbEntity
  8
SK1
100
AcDbLine
 10
-30.0
 20
-11.99999999999997
 30
0.0
 11
-30.0
 21
12.00000000000002
 31
0.0
  0
LINE
  5
6E77
330
6A34
100
AcDbEntity
  8
SK1
100
AcDbLine
 10
-33.24006579232144
 20
-11.64999999999997
 30
0.0
 11
-33.24006579232144
 21
11.65
 31
0.0
  0
LINE
  5
6E79
330
6A34
100
AcDbEntity
  8
SK4
100
AcDbLine
 10
-12.0
 20
-12.82925254711187
 30
0.0
 11
-12.0
 21
13.96286389869328
 31
0.0
  0
CIRCLE
  5
6E7A
330
6A34
100
AcDbEntity
  8
SK1
100
AcDbCircle
 10
-12.0
 20
0.0
 30
0.0
 40
1.75
  0
LINE
  5
6E7B
330
6A34
100
AcDbEntity
  8
SK3
 48
0.3
100
AcDbLine
 10
-10.25
 20
-11.99999999999997
 30
0.0
 11
-10.25
 21
-3.0
 31
0.0
  0
LINE
  5
6E7C
330
6A34
100
AcDbEntity
  8
SK3
 48
0.3
100
AcDbLine
 10
-13.75000000000005
 20
-11.99999999999997
 30
0.0
 11
-13.75
 21
-2.999999999999971
 31
0.0
  0
LINE
  5
6E7D
330
6A34
100
AcDbEntity
  8
SK4
100
AcDbLine
 10
13.7490521878085
 20
18.0
 30
0.0
 11
-2.817613997200623
 21
18.0
 31
0.0
  0
LINE
  5
6E7E
330
6A34
100
AcDbEntity
  8
SK3
 48
0.3
100
AcDbLine
 10
11.41496162197495
 20
-2.999999999999985
 30
0.0
 11
-35.0
 21
-2.999999999999971
 31
0.0
  0
LINE
  5
6E7F
330
6A34
100
AcDbEntity
  8
SK3
 48
0.3
100
AcDbLine
 10
10.26564492474449
 20
3.0
 30
0.0
 11
-35.0
 21
3.000000000000028
 31
0.0
  0
LINE
  5
6E80
330
6A34
100
AcDbEntity
  8
SK3
 48
0.3
100
AcDbLine
 10
-10.25
 20
3.0
 30
0.0
 11
-10.25
 21
12.00000000000002
 31
0.0
  0
LINE
  5
6E81
330
6A34
100
AcDbEntity
  8
SK3
 48
0.3
100
AcDbLine
 10
-13.75
 20
3.000000000000028
 30
0.0
 11
-13.75
 21
12.00000000000002
 31
0.0
  0
LINE
  5
6E82
330
6A34
100
AcDbEntity
  8
SK4
100
AcDbLine
 10
0.0
 20
0.0
 30
0.0
 11
-38.24007757597064
 21
0.0000000000000284
 31
0.0
  0
LINE
  5
6E83
330
6A34
100
AcDbEntity
  8
SK3
 48
0.5
100
AcDbLine
 10
10.0
 20
22.0
 30
0.0
 11
0.0
 21
22.0
 31
0.0
  0
LINE
  5
6E84
330
6A34
100
AcDbEntity
  8
SK3
 48
0.5
100
AcDbLine
 10
10.0
 20
22.0
 30
0.0
 11
12.3094010767586
 21
18.0
 31
0.0
  0
LINE
  5
6E85
330
6A34
100
AcDbEntity
  8
SK3
 48
0.5
100
AcDbLine
 10
10.0
 20
14.0
 30
0.0
 11
10.0
 21
22.0
 31
0.0
  0
LINE
  5
6E86
330
6A34
100
AcDbEntity
  8
SK3
 48
0.5
100
AcDbLine
 10
10.0
 20
14.0
 30
0.0
 11
0.0
 21
14.0
 31
0.0
  0
LINE
  5
6E87
330
6A34
100
AcDbEntity
  8
SK3
 48
0.5
100
AcDbLine
 10
10.0
 20
14.0
 30
0.0
 11
12.3094010767586
 21
18.0
 31
0.0
  0
LINE
  5
6E88
330
6A34
100
AcDbEntity
  8
SK3
 48
0.5
100
AcDbLine
 10
10.0
 20
-22.0
 30
0.0
 11
0.0
 21
-22.0
 31
0.0
  0
LINE
  5
6E89
330
6A34
100
AcDbEntity
  8
SK3
 48
0.5
100
AcDbLine
 10
10.0
 20
-14.0
 30
0.0
 11
0.0
 21
-14.0
 31
0.0
  0
LINE
  5
6E8A
330
6A34
100
AcDbEntity
  8
SK4
100
AcDbLine
 10
14.52561373382195
 20
-18.0
 30
0.0
 11
-1.911625526851821
 21
-18.0
 31
0.0
  0
LINE
  5
6E8B
330
6A34
100
AcDbEntity
  8
SK3
 48
0.5
100
AcDbLine
 10
10.0
 20
-14.0
 30
0.0
 11
12.3094010767586
 21
-18.0
 31
0.0
  0
LINE
  5
6E8C
330
6A34
100
AcDbEntity
  8
SK3
 48
0.5
100
AcDbLine
 10
10.0
 20
-22.0
 30
0.0
 11
12.3094010767586
 21
-18.0
 31
0.0
  0
LINE
  5
6E8D
330
6A34
100
AcDbEntity
  8
SK3
 48
0.5
100
AcDbLine
 10
10.0
 20
-14.0
 30
0.0
 11
10.0
 21
-22.0
 31
0.0
  0
LINE
  5
6E8E
330
6A34
100
AcDbEntity
  8
SK1
100
AcDbLine
 10
-1.828602898698363
 20
12.0
 30
0.0
 11
-1.828602898698363
 21
-12.0
 31
0.0
  0
DIMENSION
  5
6E8F
330
6A34
100
AcDbEntity
  8
SK2
100
AcDbDimension
  2
*D1
 10
-35.0
 20
60.03381914312868
 30
0.0
 11
-17.5
 21
62.78381914312868
 31
0.0
 70
    32
  3
AM_ANSI
100
AcDbAlignedDimension
 13
0.0
 23
24.0
 33
0.0
 14
-35.0
 24
11.0
 34
0.0
100
AcDbRotatedDimension
1001
ACAD
1000
DSTYLE
1002
{
1070
    41
1040
2.399999999999999
1070
    42
1040
0.0
1070
    44
1040
1.0
1070
    77
1070
     1
1070
   140
1040
3.5
1070
   147
1040
1.0
1070
   271
1070
     0
1002
}
  0
DIMENSION
  5
6E90
330
6A34
100
AcDbEntity
  8
SK2
100
AcDbDimension
  2
*D2
 10
-48.30042214622813
 20
-11.99999999999996
 30
0.0
 11
-51.34319359390861
 21
-0.1122779170276829
 31
0.0
 70
   160
  1
%%c<>
 53
90.0
  3
AM_ANSI
100
AcDbAlignedDimension
 13
-30.0
 23
12.00000000000002
 33
0.0
 14
-30.0
 24
-11.99999999999997
 34
0.0
 50
90.0
100
AcDbRotatedDimension
1001
ACAD
1000
DSTYLE
1002
{
1070
    41
1040
2.399999999999999
1070
    42
1040
0.0
1070
    44
1040
1.0
1070
    77
1070
     1
1070
   140
1040
3.5
1070
   147
1040
1.0
1070
   271
1070
     0
1002
}
  0
CIRCLE
  5
6E91
330
6A34
100
AcDbEntity
  8
SK1
100
AcDbCircle
 10
0.0
 20
0.0
 30
0.0
 40
2.950972054112602
  0
LINE
  5
6E92
330
6A34
100
AcDbEntity
  8
SK1
100
AcDbLine
 10
-2.950972054112639
 20
0.0
 30
0.0
 11
2.950972054112583
 21
0.0
 31
0.0
  0
LINE
  5
6E93
330
6A34
100
AcDbEntity
  8
SK1
100
AcDbLine
 10
0.0
 20
2.950972054112611
 30
0.0
 11
0.0
 21
-2.950972054112611
 31
0.0
  0
LINE
  5
6E94
330
6A34
100
AcDbEntity
  8
1
100
AcDbLine
 10
13.0
 20
-23.00000000000004
 30
0.0
 11
13.0
 21
23.0
 31
0.0
  0
ARC
  5
6E95
330
6A34
100
AcDbEntity
  8
1
100
AcDbCircle
 10
14.0
 20
14.50000000000003
 30
0.0
 40
1.0
100
AcDbArc
 50
179.9999999999983
 51
270.0
1001
GENIUS_GENOBJ-N-FIL_13
1002
{
1000
OWNER
1000
GEN
1002
}
1001
GENIUS_GENODEF_13
1002
{
1000
HIER
1070
     0
1002
}
1002
{
1000
MANEDIT
1070
     0
1002
}
1002
{
1000
NOSEL
1070
     0
1002
}
1002
{
1000
BEHIND
1070
     0
1002
}
1002
{
1000
OTHER
1070
     0
1002
}
1002
{
1000
REACTOR
1002
}
  0
LINE
  5
6E96
330
6A34
100
AcDbEntity
  8
1
100
AcDbLine
 10
12.0
 20
24.0
 30
0.0
 11
13.0
 21
23.0
 31
0.0
1001
GENIUS_GENFIL_13
1070
     0
1040
1.0
1040
1.0
1040
0.0
1040
0.0
1002
{
1002
}
1001
GENIUS_GENODEF_13
1002
{
1000
HIER
1070
     0
1002
}
1002
{
1000
MANEDIT
1070
     0
1002
}
1002
{
1000
NOSEL
1070
     0
1002
}
1002
{
1000
BEHIND
1070
     0
1002
}
1002
{
1000
OTHER
1070
     0
1002
}
1002
{
1000
REACTOR
1002
}
1001
GENIUS_GENOBJ-N-CHA_13
1002
{
1000
OWNER
1000
GEN
1002
}
  0
LINE
  5
6E97
330
6A34
100
AcDbEntity
  8
1
100
AcDbLine
 10
0.0
 20
-24.0
 30
0.0
 11
12.0
 21
-24.0
 31
0.0
  0
LINE
  5
6E98
330
6A34
100
AcDbEntity
  8
1
100
AcDbLine
 10
12.0
 20
-24.0
 30
0.0
 11
13.0
 21
-23.0
 31
0.0
1001
GENIUS_GENFIL_13
1070
     0
1040
1.0
1040
1.0
1040
0.0
1040
0.0
1002
{
1002
}
1001
GENIUS_GENODEF_13
1002
{
1000
HIER
1070
     0
1002
}
1002
{
1000
MANEDIT
1070
     0
1002
}
1002
{
1000
NOSEL
1070
     0
1002
}
1002
{
1000
BEHIND
1070
     0
1002
}
1002
{
1000
OTHER
1070
     0
1002
}
1002
{
1000
REACTOR
1002
}
1001
GENIUS_GENOBJ-N-CHA_13
1002
{
1000
OWNER
1000
GEN
1002
}
  0
ARC
  5
6E99
330
6A34
100
AcDbEntity
  8
1
100
AcDbCircle
 10
14.0
 20
-14.49999999999997
 30
0.0
 40
1.0
100
AcDbArc
 50
90.0
 51
180.0000000000016
1001
GENIUS_GENOBJ-N-FIL_13
1002
{
1000
OWNER
1000
GEN
1002
}
1001
GENIUS_GENODEF_13
1002
{
1000
HIER
1070
     0
1002
}
1002
{
1000
MANEDIT
1070
     0
1002
}
1002
{
1000
NOSEL
1070
     0
1002
}
1002
{
1000
BEHIND
1070
     0
1002
}
1002
{
1000
OTHER
1070
     0
1002
}
1002
{
1000
REACTOR
1002
}
  0
TEXT
  5
70AF
330
6A34
100
AcDbEntity
  8
6
100
AcDbText
 10
68.99173819310504
 20
-31.50724990716953
 30
0.0
 40
3.5
  1
15T1E050021Z4R00
100
AcDbText
  0
LINE
  5
717D
330
6A34
100
AcDbEntity
  8
NOCUT
100
AcDbLine
 10
0.0
 20
0.0000000000000284
 30
0.0
 11
0.0
 21
-23.99999999999994
 31
0.0
  0
LINE
  5
717E
330
6A34
100
AcDbEntity
  8
NOCUT
100
AcDbLine
 10
0.0
 20
-23.99999999999994
 30
0.0
 11
12.0
 21
-23.99999999999994
 31
0.0
  0
LINE
  5
717F
330
6A34
100
AcDbEntity
  8
NOCUT
100
AcDbLine
 10
12.0
 20
-23.99999999999994
 30
0.0
 11
13.0
 21
-22.99999999999994
 31
0.0
  0
LINE
  5
7180
330
6A34
100
AcDbEntity
  8
NOCUT
100
AcDbLine
 10
13.0
 20
-22.99999999999994
 30
0.0
 11
12.99999999999999
 21
-14.49999999999997
 31
0.0
  0
ARC
  5
7181
330
6A34
100
AcDbEntity
  8
NOCUT
100
AcDbCircle
 10
14.0
 20
-14.49999999999997
 30
0.0
 40
1.0
100
AcDbArc
 50
90.0
 51
180.0
1001
GENIUS_GENODEF_13
1002
{
1000
HIER
1070
     0
1002
}
1002
{
1000
MANEDIT
1070
     0
1002
}
1002
{
1000
NOSEL
1070
     0
1002
}
1002
{
1000
BEHIND
1070
     0
1002
}
1002
{
1000
OTHER
1070
     0
1002
}
1002
{
1000
REACTOR
1002
}
1001
GENIUS_GENOBJ-N-FIL_13
1002
{
1000
OWNER
1000
GEN
1002
}
  0
TEXT
  5
73D1
330
6A34
100
AcDbEntity
  8
SK6
100
AcDbText
 10
-29.28049350239507
 20
16.49936759697439
 30
0.0
 40
2.5
  1
modular 40
100
AcDbText
  0
DIMENSION
  5
73F1
330
6A34
100
AcDbEntity
  8
SK2
100
AcDbDimension
  2
*D3
 10
-59.74448938991874
 20
-23.99999999999998
 30
0.0
 11
-62.99448938991873
 21
0.0000000000000076
 31
0.0
 70
    32
  1
%%c<>
  3
AM_DIN
100
AcDbAlignedDimension
 13
0.0
 23
24.0
 33
0.0
 14
0.0
 24
-24.0
 34
0.0
 50
90.0
100
AcDbRotatedDimension
  0
LINE
  5
7B93
330
6A34
100
AcDbEntity
  8
1
100
AcDbLine
 10
54.49999999999984
 20
13.50000000000002
 30
0.0
 11
14.0
 21
13.50000000000003
 31
0.0
  0
LINE
  5
7B95
330
6A34
100
AcDbEntity
  8
1
100
AcDbLine
 10
73.99679480008382
 20
17.00000000000003
 30
0.0
 11
73.99679480008382
 21
-24.27113434341644
 31
0.0
  0
LINE
  5
7B96
330
6A34
100
AcDbEntity
  8
4
100
AcDbLine
 10
76.35304438512685
 20
0.0000000000000139
 30
0.0
 11
0.0
 21
0.0000000000003411
 31
0.0
  0
CIRCLE
  5
7BB3
330
6A34
100
AcDbEntity
  8
SK1
100
AcDbCircle
 10
75.00000000000006
 20
-24.99999999999997
 30
0.0
 40
0.4637693698488208
  0
LINE
  5
7BB4
330
6A34
100
AcDbEntity
  8
SK1
100
AcDbLine
 10
74.53623063015124
 20
-24.99999999999997
 30
0.0
 11
75.46376936984888
 21
-24.99999999999997
 31
0.0
  0
LINE
  5
7BB5
330
6A34
100
AcDbEntity
  8
SK1
100
AcDbLine
 10
75.00000000000006
 20
-25.46376936984879
 30
0.0
 11
75.00000000000006
 21
-24.53623063015115
 31
0.0
  0
LINE
  5
7BC9
330
6A34
100
AcDbEntity
  8
NOCUT
100
AcDbLine
 10
14.0
 20
-13.49999999999997
 30
0.0
 11
54.50000000000012
 21
-13.49999999999997
 31
0.0
  0
LINE
  5
7BCA
330
6A34
100
AcDbEntity
  8
NOCUT
100
AcDbLine
 10
73.99679480008382
 20
-24.27113434341644
 30
0.0
 11
73.99679480008382
 21
0.0000000000000284
 31
0.0
  0
TEXT
  5
7BD2
330
6A34
100
AcDbEntity
  8
6
100
AcDbText
 10
106.9611545248925
 20
-13.88074729895001
 30
0.0
 40
3.5
  1
Z=6 / Zeff.=2
 50
90.0
100
AcDbText
  0
CIRCLE
  5
7BE6
330
6A34
100
AcDbEntity
  8
SK1
100
AcDbCircle
 10
75.0
 20
25.00000000000003
 30
0.0
 40
0.4637693698488208
  0
LINE
  5
7BE7
330
6A34
100
AcDbEntity
  8
SK1
100
AcDbLine
 10
74.53623063015118
 20
25.00000000000003
 30
0.0
 11
75.46376936984882
 21
25.00000000000003
 31
0.0
  0
LINE
  5
7BE8
330
6A34
100
AcDbEntity
  8
SK1
100
AcDbLine
 10
75.0
 20
25.46376936984884
 30
0.0
 11
75.0
 21
24.53623063015121
 31
0.0
  0
LINE
  5
7BE9
330
6A34
100
AcDbEntity
  8
4
100
AcDbLine
 10
51.03265181562389
 20
0.2434408555249323
 30
0.0
 11
64.39413875297789
 21
8.263636413654516
 31
0.0
  0
LINE
  5
7D81
330
6A34
100
AcDbEntity
  8
NOCUT
100
AcDbLine
 10
0.0
 20
0.0000000000000284
 30
0.0
 11
73.99679480008382
 21
0.0000000000000284
 31
0.0
  0
TEXT
  5
8164
330
6A34
100
AcDbEntity
  8
6
100
AcDbText
 10
77.97129836653971
 20
27.60395082679113
 30
0.0
 40
2.5
  1
SDMT080305N
100
AcDbText
  0
LINE
  5
8210
330
6A34
100
AcDbEntity
  8
1
100
AcDbLine
 10
66.99999999999997
 20
24.50000000000002
 30
0.0
 11
66.99999999999997
 21
17.50000000000002
 31
0.0
  0
CIRCLE
  5
8212
330
6A34
100
AcDbEntity
  8
1
100
AcDbCircle
 10
71.0
 20
21.00000000000002
 30
0.0
 40
2.298066995929217
  0
LINE
  5
8214
330
6A34
100
AcDbEntity
  8
1
100
AcDbLine
 10
54.5
 20
17.00000000000002
 30
0.0
 11
74.5
 21
17.00000000000002
 31
0.0
  0
LINE
  5
8215
330
6A34
100
AcDbEntity
  8
CUT
100
AcDbLine
 10
54.5
 20
17.00000000000002
 30
0.0
 11
74.5
 21
17.00000000000002
 31
0.0
  0
ARC
  5
8216
330
6A34
100
AcDbEntity
  8
1
100
AcDbCircle
 10
67.49999999999997
 20
17.50000000000002
 30
0.0
 40
0.5
100
AcDbArc
 50
180.0
 51
270.0
1001
GENIUS_GENOBJ-N-FIL_13
1002
{
1000
OWNER
1000
GEN
1002
}
1001
GENIUS_GENODEF_13
1002
{
1000
HIER
1070
     0
1002
}
1002
{
1000
MANEDIT
1070
     0
1002
}
1002
{
1000
NOSEL
1070
     0
1002
}
1002
{
1000
BEHIND
1070
     0
1002
}
1002
{
1000
OTHER
1070
     0
1002
}
1002
{
1000
REACTOR
1002
}
  0
ARC
  5
8218
330
6A34
100
AcDbEntity
  8
1
100
AcDbCircle
 10
67.49999999999997
 20
24.50000000000002
 30
0.0
 40
0.5
100
AcDbArc
 50
90.0
 51
180.0
1001
GENIUS_GENOBJ-N-FIL_13
1002
{
1000
OWNER
1000
GEN
1002
}
1001
GENIUS_GENODEF_13
1002
{
1000
HIER
1070
     0
1002
}
1002
{
1000
MANEDIT
1070
     0
1002
}
1002
{
1000
NOSEL
1070
     0
1002
}
1002
{
1000
BEHIND
1070
     0
1002
}
1002
{
1000
OTHER
1070
     0
1002
}
1002
{
1000
REACTOR
1002
}
  0
LINE
  5
821A
330
6A34
100
AcDbEntity
  8
1
100
AcDbLine
 10
74.5
 20
25.00000000000003
 30
0.0
 11
54.5
 21
25.00000000000003
 31
0.0
  0
LINE
  5
821B
330
6A34
100
AcDbEntity
  8
CUT
100
AcDbLine
 10
74.5
 20
25.00000000000003
 30
0.0
 11
54.5
 21
25.00000000000003
 31
0.0
  0
LINE
  5
821C
330
6A34
100
AcDbEntity
  8
1
100
AcDbLine
 10
75.0
 20
17.50000000000002
 30
0.0
 11
75.0
 21
24.50000000000002
 31
0.0
  0
LINE
  5
821D
330
6A34
100
AcDbEntity
  8
CUT
100
AcDbLine
 10
75.0
 20
17.50000000000002
 30
0.0
 11
75.0
 21
24.50000000000002
 31
0.0
  0
ARC
  5
821E
330
6A34
100
AcDbEntity
  8
1
100
AcDbCircle
 10
74.5
 20
17.50000000000002
 30
0.0
 40
0.5
100
AcDbArc
 50
270.0
 51
0.0
1001
GENIUS_GENODEF_13
1002
{
1000
HIER
1070
     0
1002
}
1002
{
1000
MANEDIT
1070
     0
1002
}
1002
{
1000
NOSEL
1070
     0
1002
}
1002
{
1000
BEHIND
1070
     0
1002
}
1002
{
1000
OTHER
1070
     0
1002
}
1002
{
1000
REACTOR
1002
}
1001
GENIUS_GENOBJ-N-FIL_13
1002
{
1000
OWNER
1000
GEN
1002
}
  0
ARC
  5
821F
330
6A34
100
AcDbEntity
  8
CUT
100
AcDbCircle
 10
74.5
 20
17.50000000000002
 30
0.0
 40
0.5
100
AcDbArc
 50
270.0
 51
0.0
1001
GENIUS_GENODEF_13
1002
{
1000
HIER
1070
     0
1002
}
1002
{
1000
MANEDIT
1070
     0
1002
}
1002
{
1000
NOSEL
1070
     0
1002
}
1002
{
1000
BEHIND
1070
     0
1002
}
1002
{
1000
OTHER
1070
     0
1002
}
1002
{
1000
REACTOR
1002
}
1001
GENIUS_GENOBJ-N-FIL_13
1002
{
1000
OWNER
1000
GEN
1002
}
  0
ARC
  5
8220
330
6A34
100
AcDbEntity
  8
1
100
AcDbCircle
 10
74.5
 20
24.50000000000002
 30
0.0
 40
0.5
100
AcDbArc
 50
0.0
 51
90.0
1001
GENIUS_GENODEF_13
1002
{
1000
HIER
1070
     0
1002
}
1002
{
1000
MANEDIT
1070
     0
1002
}
1002
{
1000
NOSEL
1070
     0
1002
}
1002
{
1000
BEHIND
1070
     0
1002
}
1002
{
1000
OTHER
1070
     0
1002
}
1002
{
1000
REACTOR
1002
}
1001
GENIUS_GENOBJ-N-FIL_13
1002
{
1000
OWNER
1000
GEN
1002
}
  0
ARC
  5
8221
330
6A34
100
AcDbEntity
  8
CUT
100
AcDbCircle
 10
74.5
 20
24.50000000000002
 30
0.0
 40
0.5
100
AcDbArc
 50
0.0
 51
90.0
1001
GENIUS_GENODEF_13
1002
{
1000
HIER
1070
     0
1002
}
1002
{
1000
MANEDIT
1070
     0
1002
}
1002
{
1000
NOSEL
1070
     0
1002
}
1002
{
1000
BEHIND
1070
     0
1002
}
1002
{
1000
OTHER
1070
     0
1002
}
1002
{
1000
REACTOR
1002
}
1001
GENIUS_GENOBJ-N-FIL_13
1002
{
1000
OWNER
1000
GEN
1002
}
  0
ARC
  5
8222
330
6A34
100
AcDbEntity
  8
1
100
AcDbCircle
 10
74.49999999999994
 20
-24.5
 30
0.0
 40
0.5
100
AcDbArc
 50
270.0
 51
359.9999999999992
1001
GENIUS_GENODEF_13
1002
{
1000
HIER
1070
     0
1002
}
1002
{
1000
MANEDIT
1070
     0
1002
}
1002
{
1000
NOSEL
1070
     0
1002
}
1002
{
1000
BEHIND
1070
     0
1002
}
1002
{
1000
OTHER
1070
     0
1002
}
1002
{
1000
REACTOR
1002
}
1001
GENIUS_GENOBJ-N-FIL_13
1002
{
1000
OWNER
1000
GEN
1002
}
  0
LINE
  5
8223
330
6A34
100
AcDbEntity
  8
SK3
 48
0.5
100
AcDbLine
 10
67.0
 20
-24.27113434341645
 30
0.0
 11
67.00000000000006
 21
-17.4999999999999
 31
0.0
  0
LINE
  5
8225
330
6A34
100
AcDbEntity
  8
SK3
 48
0.5
100
AcDbLine
 10
54.50000000000005
 20
-16.99999999999951
 30
0.0
 11
73.99679480008393
 21
-16.99999999999999
 31
0.0
  0
ARC
  5
8226
330
6A34
100
AcDbEntity
  8
SK3
 48
0.5
100
AcDbCircle
 10
67.50000000000006
 20
-17.4999999999999
 30
0.0
 40
0.5
100
AcDbArc
 50
90.0
 51
179.9999999999991
1001
GENIUS_GENOBJ-N-FIL_13
1002
{
1000
OWNER
1000
GEN
1002
}
1001
GENIUS_GENODEF_13
1002
{
1000
HIER
1070
     0
1002
}
1002
{
1000
MANEDIT
1070
     0
1002
}
1002
{
1000
NOSEL
1070
     0
1002
}
1002
{
1000
BEHIND
1070
     0
1002
}
1002
{
1000
OTHER
1070
     0
1002
}
1002
{
1000
REACTOR
1002
}
  0
ARC
  5
8227
330
6A34
100
AcDbEntity
  8
1
100
AcDbCircle
 10
67.49999999999997
 20
-24.49999999999991
 30
0.0
 40
0.5
100
AcDbArc
 50
179.9999999999991
 51
270.0
1001
GENIUS_GENOBJ-N-FIL_13
1002
{
1000
OWNER
1000
GEN
1002
}
1001
GENIUS_GENODEF_13
1002
{
1000
HIER
1070
     0
1002
}
1002
{
1000
MANEDIT
1070
     0
1002
}
1002
{
1000
NOSEL
1070
     0
1002
}
1002
{
1000
BEHIND
1070
     0
1002
}
1002
{
1000
OTHER
1070
     0
1002
}
1002
{
1000
REACTOR
1002
}
  0
LINE
  5
8228
330
6A34
100
AcDbEntity
  8
1
100
AcDbLine
 10
66.99999999999997
 20
-24.4999999999999
 30
0.0
 11
67.0
 21
-24.27113434341729
 31
0.0
  0
LINE
  5
8229
330
6A34
100
AcDbEntity
  8
1
100
AcDbLine
 10
74.49999999999994
 20
-25.0
 30
0.0
 11
54.49999999999995
 21
-24.99999999999956
 31
0.0
  0
LINE
  5
822A
330
6A34
100
AcDbEntity
  8
1
100
AcDbLine
 10
75.00000000000006
 20
-17.5
 30
0.0
 11
74.99999999999994
 21
-24.5
 31
0.0
  0
LINE
  5
822B
330
6A34
100
AcDbEntity
  8
1
100
AcDbLine
 10
73.99679480008393
 20
-16.99999999999999
 30
0.0
 11
74.50000000000006
 21
-16.99999999999999
 31
0.0
  0
ARC
  5
822C
330
6A34
100
AcDbEntity
  8
1
100
AcDbCircle
 10
74.50000000000006
 20
-17.49999999999999
 30
0.0
 40
0.5
100
AcDbArc
 50
359.9999999999992
 51
90.0
1001
GENIUS_GENODEF_13
1002
{
1000
HIER
1070
     0
1002
}
1002
{
1000
MANEDIT
1070
     0
1002
}
1002
{
1000
NOSEL
1070
     0
1002
}
1002
{
1000
BEHIND
1070
     0
1002
}
1002
{
1000
OTHER
1070
     0
1002
}
1002
{
1000
REACTOR
1002
}
1001
GENIUS_GENOBJ-N-FIL_13
1002
{
1000
OWNER
1000
GEN
1002
}
  0
LINE
  5
829C
330
6A34
100
AcDbEntity
  8
1
100
AcDbLine
 10
54.0
 20
24.50000000000002
 30
0.0
 11
54.0
 21
17.50000000000002
 31
0.0
  0
LINE
  5
829D
330
6A34
100
AcDbEntity
  8
CUT
100
AcDbLine
 10
54.0
 20
24.50000000000002
 30
0.0
 11
54.0
 21
17.50000000000002
 31
0.0
  0
ARC
  5
829E
330
6A34
100
AcDbEntity
  8
1
100
AcDbCircle
 10
54.5
 20
24.50000000000002
 30
0.0
 40
0.5
100
AcDbArc
 50
90.0
 51
180.0
1001
GENIUS_GENOBJ-N-FIL_13
1002
{
1000
OWNER
1000
GEN
1002
}
1001
GENIUS_GENODEF_13
1002
{
1000
HIER
1070
     0
1002
}
1002
{
1000
MANEDIT
1070
     0
1002
}
1002
{
1000
NOSEL
1070
     0
1002
}
1002
{
1000
BEHIND
1070
     0
1002
}
1002
{
1000
OTHER
1070
     0
1002
}
1002
{
1000
REACTOR
1002
}
  0
ARC
  5
829F
330
6A34
100
AcDbEntity
  8
CUT
100
AcDbCircle
 10
54.5
 20
24.50000000000002
 30
0.0
 40
0.5
100
AcDbArc
 50
90.0
 51
180.0
1001
GENIUS_GENOBJ-N-FIL_13
1002
{
1000
OWNER
1000
GEN
1002
}
1001
GENIUS_GENODEF_13
1002
{
1000
HIER
1070
     0
1002
}
1002
{
1000
MANEDIT
1070
     0
1002
}
1002
{
1000
NOSEL
1070
     0
1002
}
1002
{
1000
BEHIND
1070
     0
1002
}
1002
{
1000
OTHER
1070
     0
1002
}
1002
{
1000
REACTOR
1002
}
  0
ARC
  5
82A0
330
6A34
100
AcDbEntity
  8
1
100
AcDbCircle
 10
54.5
 20
17.50000000000002
 30
0.0
 40
0.5
100
AcDbArc
 50
180.0
 51
270.0
1001
GENIUS_GENOBJ-N-FIL_13
1002
{
1000
OWNER
1000
GEN
1002
}
1001
GENIUS_GENODEF_13
1002
{
1000
HIER
1070
     0
1002
}
1002
{
1000
MANEDIT
1070
     0
1002
}
1002
{
1000
NOSEL
1070
     0
1002
}
1002
{
1000
BEHIND
1070
     0
1002
}
1002
{
1000
OTHER
1070
     0
1002
}
1002
{
1000
REACTOR
1002
}
  0
ARC
  5
82A1
330
6A34
100
AcDbEntity
  8
CUT
100
AcDbCircle
 10
54.5
 20
17.50000000000002
 30
0.0
 40
0.5
100
AcDbArc
 50
180.0
 51
270.0
1001
GENIUS_GENOBJ-N-FIL_13
1002
{
1000
OWNER
1000
GEN
1002
}
1001
GENIUS_GENODEF_13
1002
{
1000
HIER
1070
     0
1002
}
1002
{
1000
MANEDIT
1070
     0
1002
}
1002
{
1000
NOSEL
1070
     0
1002
}
1002
{
1000
BEHIND
1070
     0
1002
}
1002
{
1000
OTHER
1070
     0
1002
}
1002
{
1000
REACTOR
1002
}
  0
LINE
  5
82DC
330
6A34
100
AcDbEntity
  8
1
100
AcDbLine
 10
73.99679480008382
 20
-24.27113434341644
 30
0.0
 11
54.50000000000012
 21
-24.27113434341645
 31
0.0
  0
LINE
  5
82DD
330
6A34
100
AcDbEntity
  8
1
100
AcDbLine
 10
54.50000000000012
 20
-24.27113434341645
 30
0.0
 11
54.50000000000013
 21
13.13167590036115
 31
0.0
  0
LINE
  5
82E4
330
6A34
100
AcDbEntity
  8
1
 48
0.3
100
AcDbLine
 10
57.06645491259109
 20
12.7088329649625
 30
0.0
 11
73.99679480008373
 21
12.7088329649626
 31
0.0
  0
ARC
  5
82E5
330
6A34
100
AcDbEntity
  8
1
 48
0.3
100
AcDbCircle
 10
57.06645491259099
 20
20.7088329649625
 30
0.0
 40
8.0
100
AcDbArc
 50
244.3035806380819
 51
270.0000000000008
1001
GENIUS_GENOBJ-N-FIL_13
1002
{
1000
OWNER
1000
GEN
1002
}
1001
GENIUS_GENODEF_13
1002
{
1000
HIER
1070
     0
1002
}
1002
{
1000
MANEDIT
1070
     0
1002
}
1002
{
1000
NOSEL
1070
     0
1002
}
1002
{
1000
BEHIND
1070
     0
1002
}
1002
{
1000
OTHER
1070
     0
1002
}
1002
{
1000
REACTOR
1002
}
  0
LINE
  5
8493
330
6A34
100
AcDbEntity
  8
2
100
AcDbLine
 10
28.9542207666927
 20
-15.99999999999997
 30
0.0
 11
28.9542207666927
 21
-18.49999999999997
 31
0.0
  0
LINE
  5
8494
330
6A34
100
AcDbEntity
  8
2
100
AcDbLine
 10
28.9542207666927
 20
16.00000000000003
 30
0.0
 11
28.9542207666927
 21
18.50000000000003
 31
0.0
  0
LINE
  5
8496
330
6A34
100
AcDbEntity
  8
2
100
AcDbLine
 10
28.9542207666927
 20
-13.49999999999997
 30
0.0
 11
28.95422076669271
 21
13.50000000000003
 31
0.0
  0
SOLID
  5
8497
330
6A34
100
AcDbEntity
  8
2
100
AcDbTrace
 10
28.53755410002604
 20
-15.99999999999997
 30
0.0
 11
29.37088743335937
 21
-15.99999999999997
 31
0.0
 12
28.9542207666927
 22
-13.49999999999997
 32
0.0
 13
28.9542207666927
 23
-13.49999999999997
 33
0.0
  0
SOLID
  5
8498
330
6A34
100
AcDbEntity
  8
2
100
AcDbTrace
 10
28.53755410002604
 20
16.00000000000003
 30
0.0
 11
29.37088743335937
 21
16.00000000000003
 31
0.0
 12
28.9542207666927
 22
13.50000000000002
 32
0.0
 13
28.9542207666927
 23
13.50000000000002
 33
0.0
  0
LINE
  5
85BA
330
6A34
100
AcDbEntity
  8
1
100
AcDbLine
 10
54.50000000000012
 20
-13.49999999999997
 30
0.0
 11
14.0
 21
-13.49999999999997
 31
0.0
  0
MTEXT
  5
87AE
330
6A34
100
AcDbEntity
  8
2
100
AcDbMText
 10
26.63653055956338
 20
18.80998509770724
 30
0.0
 40
3.5
 41
0.0
 71
     5
 72
     1
  1
%%c27
 11
0.0000000000000001
 21
1.0
 31
0.0
1001
ACAD
1000
MTEXTBEGIN
1070
    73
1070
     1
1070
    44
1040
1.0
1070
    74
1070
     0
1000
MTEXTEND
  0
ARC
  5
8816
330
6A34
100
AcDbEntity
  8
1
100
AcDbCircle
 10
54.49999999999996
 20
-24.4999999999997
 30
0.0
 40
0.5
100
AcDbArc
 50
179.9999999999994
 51
269.9999999999994
1001
GENIUS_GENOBJ-N-FIL_13
1002
{
1000
OWNER
1000
GEN
1002
}
1001
GENIUS_GENODEF_13
1002
{
1000
HIER
1070
     0
1002
}
1002
{
1000
MANEDIT
1070
     0
1002
}
1002
{
1000
NOSEL
1070
     0
1002
}
1002
{
1000
BEHIND
1070
     0
1002
}
1002
{
1000
OTHER
1070
     0
1002
}
1002
{
1000
REACTOR
1002
}
  0
ARC
  5
8817
330
6A34
100
AcDbEntity
  8
1
100
AcDbCircle
 10
54.50000000000003
 20
-17.4999999999997
 30
0.0
 40
0.5
100
AcDbArc
 50
89.99999999999944
 51
179.9999999999994
1001
GENIUS_GENOBJ-N-FIL_13
1002
{
1000
OWNER
1000
GEN
1002
}
1001
GENIUS_GENODEF_13
1002
{
1000
HIER
1070
     0
1002
}
1002
{
1000
MANEDIT
1070
     0
1002
}
1002
{
1000
NOSEL
1070
     0
1002
}
1002
{
1000
BEHIND
1070
     0
1002
}
1002
{
1000
OTHER
1070
     0
1002
}
1002
{
1000
REACTOR
1002
}
  0
LINE
  5
8818
330
6A34
100
AcDbEntity
  8
1
100
AcDbLine
 10
53.99999999999996
 20
-24.4999999999997
 30
0.0
 11
54.00000000000003
 21
-17.4999999999997
 31
0.0
  0
LINE
  5
8864
330
6A34
100
AcDbEntity
  8
1
100
AcDbLine
 10
54.49999999999984
 20
13.50000000000002
 30
0.0
 11
54.5
 21
17.00000000000002
 31
0.0
  0
LINE
  5
8886
330
6A34
100
AcDbEntity
  8
SK3
 48
0.3
100
AcDbLine
 10
57.06645491259114
 20
-12.70883296496226
 30
0.0
 11
73.99679480008365
 21
-12.70883296496252
 31
0.0
  0
ARC
  5
8887
330
6A34
100
AcDbEntity
  8
SK3
 48
0.3
100
AcDbCircle
 10
57.06645491259095
 20
-20.70883296496226
 30
0.0
 40
8.0
100
AcDbArc
 50
89.99999999999863
 51
115.6964193619212
1001
GENIUS_GENOBJ-N-FIL_13
1002
{
1000
OWNER
1000
GEN
1002
}
1001
GENIUS_GENODEF_13
1002
{
1000
HIER
1070
     0
1002
}
1002
{
1000
MANEDIT
1070
     0
1002
}
1002
{
1000
NOSEL
1070
     0
1002
}
1002
{
1000
BEHIND
1070
     0
1002
}
1002
{
1000
OTHER
1070
     0
1002
}
1002
{
1000
REACTOR
1002
}
  0
DIMENSION
  5
89BE
330
6A34
100
AcDbEntity
  8
2
100
AcDbDimension
  2
*D4
 10
0.0000000000000031
 20
80.00000000000003
 30
0.0
 11
37.5
 21
83.25000000000002
 31
0.0
 70
    32
  3
AM_DIN
100
AcDbAlignedDimension
 13
75.0
 23
25.00000000000003
 33
0.0
 14
0.0
 24
29.00000000000001
 34
0.0
100
AcDbRotatedDimension
  0
DIMENSION
  5
8AD5
330
6A34
100
AcDbEntity
  8
2
100
AcDbDimension
  2
*D5
 10
98.89704613855133
 20
-24.99999999999997
 30
0.0
 11
95.64704613855132
 21
0.0000000000000405
 31
0.0
 70
    32
  1
%%c<>
  3
AM_DIN
100
AcDbAlignedDimension
 13
75.0
 23
25.00000000000003
 33
0.0
 14
75.00000000000006
 24
-24.99999999999997
 34
0.0
 50
90.00000000000003
100
AcDbRotatedDimension
  0
LINE
  5
8B20
330
6A34
100
AcDbEntity
  8
NOCUT
100
AcDbLine
 10
54.50000000000012
 20
-13.49999999999997
 30
0.0
 11
54.50000000000012
 21
-24.27113434341645
 31
0.0
  0
LINE
  5
8B21
330
6A34
100
AcDbEntity
  8
NOCUT
100
AcDbLine
 10
54.50000000000012
 20
-24.27113434341645
 30
0.0
 11
73.99679480008382
 21
-24.27113434341644
 31
0.0
  0
LINE
  5
8B66
330
6A34
100
AcDbEntity
  8
0
100
AcDbLine
 10
15.0
 20
13.50000000000002
 30
0.0
 11
15.0
 21
16.65644657411019
 31
0.0
  0
DIMENSION
  5
8B84
330
6A34
100
AcDbEntity
  8
2
100
AcDbDimension
  2
*D6
 10
75.0
 20
65.00000000000003
 30
0.0
 11
45.0
 21
68.25000000000002
 31
0.0
 70
    32
  3
AM_DIN
100
AcDbAlignedDimension
 13
15.0
 23
13.50000000000002
 33
0.0
 14
75.0
 24
25.00000000000003
 34
0.0
 50
0.0000000000000114
100
AcDbRotatedDimension
  0
DIMENSION
  5
8BAC
330
6A34
100
AcDbEntity
  8
2
100
AcDbDimension
  2
*D7
 10
54.0
 20
50.00000000000003
 30
0.0
 11
64.5
 21
53.250344488189
 31
0.0
 70
    32
  3
AM_DIN
100
AcDbAlignedDimension
 13
75.0
 23
25.00000000000003
 33
0.0
 14
54.0
 24
24.50000000000002
 34
0.0
 50
0.0000000000000114
100
AcDbRotatedDimension
  0
ENDSEC
  0
SECTION
  2
OBJECTS
  0
DICTIONARY
  5
6A22
330
0
100
AcDbDictionary
  3
ACAD_GROUP
350
6A23
  3
ACAD_LAYOUT
350
6A2F
  3
ACAD_MLINESTYLE
350
6A2C
  3
ACAD_PLOTSETTINGS
350
6A2E
  3
ACAD_PLOTSTYLENAME
350
6A24
  3
ACDBHEADERROUNDTRIPXREC
350
8C0F
  3
ACDBVARIABLEDICTIONARY
350
6B78
  3
ACMDICTIONARY
350
6B39
  3
AMG
350
6B22
  3
AMGSNAPSETTINGS
350
6B59
  3
DWGPROPS
350
8BEE
  0
DICTIONARY
  5
6B62
330
6A34
100
AcDbDictionary
280
     1
  3
ACAD_INDEX
360
6B63
  3
ACAD_LAYOUTSELFREF
360
8C32
  0
DICTIONARY
  5
8C30
330
6A30
100
AcDbDictionary
280
     1
  3
ACAD_LAYOUTSELFREF
360
8C31
  0
DICTIONARY
  5
6A23
102
{ACAD_REACTORS
330
6A22
102
}
330
6A22
100
AcDbDictionary
  0
DICTIONARY
  5
6A2F
102
{ACAD_REACTORS
330
6A22
102
}
330
6A22
100
AcDbDictionary
  0
DICTIONARY
  5
6A2C
102
{ACAD_REACTORS
330
6A22
102
}
330
6A22
100
AcDbDictionary
  3
STANDARD
350
6A2D
  0
DICTIONARY
  5
6A2E
102
{ACAD_REACTORS
330
6A22
102
}
330
6A22
100
AcDbDictionary
  0
ACDBDICTIONARYWDFLT
  5
6A24
102
{ACAD_REACTORS
330
6A22
102
}
330
6A22
100
AcDbDictionary
281
     1
  3
Normal
350
6A25
100
AcDbDictionaryWithDefault
340
6A25
  0
DICTIONARY
  5
8C0F
102
{ACAD_REACTORS
330
6A22
102
}
330
6A22
100
AcDbDictionary
  3
CEPSNTYPE
350
8C19
  3
DIMSTYLEDATA
350
8C1D
  3
FINGERPRINTGUID
350
8C1A
  3
HYPERLINKBASE
350
8C12
  3
INSUNITS
350
8C18
  3
LAYOUTDICT
350
8C14
  3
LWETCUNION
350
8C17
  3
PLOTSETDICT
350
8C15
  3
PLOTSTYLNAMDICT
350
8C16
  3
PSVPSCALE
350
8C1C
  3
PUCSBASE
350
8C20
  3
PUCSORGBACK
350
8C26
  3
PUCSORGBOTTOM
350
8C22
  3
PUCSORGFRONT
350
8C25
  3
PUCSORGLEFT
350
8C23
  3
PUCSORGRIGHT
350
8C24
  3
PUCSORGTOP
350
8C21
  3
PUCSORTHOREF
350
8C1E
  3
PUCSORTHOVIEW
350
8C1F
  3
STYLESHEET
350
8C13
  3
TSTACKALIGN
350
8C10
  3
TSTACKSIZE
350
8C11
  3
UCSBASE
350
8C29
  3
UCSORGBACK
350
8C2F
  3
UCSORGBOTTOM
350
8C2B
  3
UCSORGFRONT
350
8C2E
  3
UCSORGLEFT
350
8C2C
  3
UCSORGRIGHT
350
8C2D
  3
UCSORGTOP
350
8C2A
  3
UCSORTHOREF
350
8C27
  3
UCSORTHOVIEW
350
8C28
  3
VERSIONGUID
350
8C1B
  0
DICTIONARY
  5
6B78
102
{ACAD_REACTORS
330
6A22
102
}
330
6A22
100
AcDbDictionary
  3
DIMASSOC
350
6B7A
  3
INDEXCTL
350
6B79
  0
DICTIONARY
  5
6B39
102
{ACAD_REACTORS
330
6A22
102
}
330
6A22
100
AcDbDictionary
  3
ACMSTDDICTIONARY
350
6B3F
  0
DICTIONARY
  5
6B22
102
{ACAD_REACTORS
330
6A22
102
}
330
6A22
100
AcDbDictionary
  3
ACMGSETTINGS
350
6B23
  0
DICTIONARY
  5
6B59
102
{ACAD_REACTORS
330
6A22
102
}
330
6A22
100
AcDbDictionary
  0
XRECORD
  5
8BEE
102
{ACAD_REACTORS
330
6A22
102
}
330
6A22
100
AcDbXrecord
  1
DWGPROPS COOKIE
  2

  3

  4

  6

  7

  8

  9

300
AmdtFileType=84
301
=
302
=
303
=
304
=
305
=
306
=
307
=
308
=
309
=
 40
0.1701527199074074
 41
2453447.471737477
 42
2453612.44459809
  1

 90
        1
  0
DICTIONARY
  5
6B63
102
{ACAD_REACTORS
330
6B62
102
}
330
6B62
100
AcDbDictionary
  3
*A1
350
6B64
  0
XRECORD
  5
8C32
102
{ACAD_REACTORS
330
6B62
102
}
330
6B62
100
AcDbXrecord
340
6A34
  0
XRECORD
  5
8C31
102
{ACAD_REACTORS
330
8C30
102
}
330
8C30
100
AcDbXrecord
340
6A30
  0
MLINESTYLE
  5
6A2D
102
{ACAD_REACTORS
330
6A2C
102
}
330
6A2C
100
AcDbMlineStyle
  2
STANDARD
 70
     0
  3

 62
   256
 51
90.0
 52
90.0
 71
     2
 49
0.5
 62
   256
  6
BYLAYER
 49
-0.5
 62
   256
  6
BYLAYER
  0
ACDBPLACEHOLDER
  5
6A25
102
{ACAD_REACTORS
330
6A24
102
}
330
6A24
100
AcDbPlaceHolder
280
     0
  0
XRECORD
  5
8C19
102
{ACAD_REACTORS
330
8C0F
102
}
330
8C0F
100
AcDbXrecord
 90
        0
  0
XRECORD
  5
8C1D
102
{ACAD_REACTORS
330
8C0F
102
}
330
8C0F
100
AcDbXrecord
1000
DSTYLE
1002
{
1070
   279
 70
     2
1002
}
  0
XRECORD
  5
8C1A
102
{ACAD_REACTORS
330
8C0F
102
}
330
8C0F
100
AcDbXrecord
  1
{5E8163B8-4D8F-4110-B677-A6458ADDE735}
  0
XRECORD
  5
8C12
102
{ACAD_REACTORS
330
8C0F
102
}
330
8C0F
100
AcDbXrecord
  1

  0
XRECORD
  5
8C18
102
{ACAD_REACTORS
330
8C0F
102
}
330
8C0F
100
AcDbXrecord
 90
        4
  0
XRECORD
  5
8C14
102
{ACAD_REACTORS
330
8C0F
102
}
330
8C0F
100
AcDbXrecord
340
6A2F
  0
XRECORD
  5
8C17
102
{ACAD_REACTORS
330
8C0F
102
}
330
8C0F
100
AcDbXrecord
 90
    10781
  0
XRECORD
  5
8C15
102
{ACAD_REACTORS
330
8C0F
102
}
330
8C0F
100
AcDbXrecord
340
6A2E
  0
XRECORD
  5
8C16
102
{ACAD_REACTORS
330
8C0F
102
}
330
8C0F
100
AcDbXrecord
340
6A24
  0
XRECORD
  5
8C1C
102
{ACAD_REACTORS
330
8C0F
102
}
330
8C0F
100
AcDbXrecord
 40
0.0
  0
XRECORD
  5
8C20
102
{ACAD_REACTORS
330
8C0F
102
}
330
8C0F
100
AcDbXrecord
340
0
  0
XRECORD
  5
8C26
102
{ACAD_REACTORS
330
8C0F
102
}
330
8C0F
100
AcDbXrecord
 10
0.0
 20
0.0
 30
0.0
  0
XRECORD
  5
8C22
102
{ACAD_REACTORS
330
8C0F
102
}
330
8C0F
100
AcDbXrecord
 10
0.0
 20
0.0
 30
0.0
  0
XRECORD
  5
8C25
102
{ACAD_REACTORS
330
8C0F
102
}
330
8C0F
100
AcDbXrecord
 10
0.0
 20
0.0
 30
0.0
  0
XRECORD
  5
8C23
102
{ACAD_REACTORS
330
8C0F
102
}
330
8C0F
100
AcDbXrecord
 10
0.0
 20
0.0
 30
0.0
  0
XRECORD
  5
8C24
102
{ACAD_REACTORS
330
8C0F
102
}
330
8C0F
100
AcDbXrecord
 10
0.0
 20
0.0
 30
0.0
  0
XRECORD
  5
8C21
102
{ACAD_REACTORS
330
8C0F
102
}
330
8C0F
100
AcDbXrecord
 10
0.0
 20
0.0
 30
0.0
  0
XRECORD
  5
8C1E
102
{ACAD_REACTORS
330
8C0F
102
}
330
8C0F
100
AcDbXrecord
340
0
  0
XRECORD
  5
8C1F
102
{ACAD_REACTORS
330
8C0F
102
}
330
8C0F
100
AcDbXrecord
 70
     0
  0
XRECORD
  5
8C13
102
{ACAD_REACTORS
330
8C0F
102
}
330
8C0F
100
AcDbXrecord
  1

  0
XRECORD
  5
8C10
102
{ACAD_REACTORS
330
8C0F
102
}
330
8C0F
100
AcDbXrecord
 90
        1
  0
XRECORD
  5
8C11
102
{ACAD_REACTORS
330
8C0F
102
}
330
8C0F
100
AcDbXrecord
 90
       70
  0
XRECORD
  5
8C29
102
{ACAD_REACTORS
330
8C0F
102
}
330
8C0F
100
AcDbXrecord
340
0
  0
XRECORD
  5
8C2F
102
{ACAD_REACTORS
330
8C0F
102
}
330
8C0F
100
AcDbXrecord
 10
0.0
 20
0.0
 30
0.0
  0
XRECORD
  5
8C2B
102
{ACAD_REACTORS
330
8C0F
102
}
330
8C0F
100
AcDbXrecord
 10
0.0
 20
0.0
 30
0.0
  0
XRECORD
  5
8C2E
102
{ACAD_REACTORS
330
8C0F
102
}
330
8C0F
100
AcDbXrecord
 10
0.0
 20
0.0
 30
0.0
  0
XRECORD
  5
8C2C
102
{ACAD_REACTORS
330
8C0F
102
}
330
8C0F
100
AcDbXrecord
 10
0.0
 20
0.0
 30
0.0
  0
XRECORD
  5
8C2D
102
{ACAD_REACTORS
330
8C0F
102
}
330
8C0F
100
AcDbXrecord
 10
0.0
 20
0.0
 30
0.0
  0
XRECORD
  5
8C2A
102
{ACAD_REACTORS
330
8C0F
102
}
330
8C0F
100
AcDbXrecord
 10
0.0
 20
0.0
 30
0.0
  0
XRECORD
  5
8C27
102
{ACAD_REACTORS
330
8C0F
102
}
330
8C0F
100
AcDbXrecord
340
0
  0
XRECORD
  5
8C28
102
{ACAD_REACTORS
330
8C0F
102
}
330
8C0F
100
AcDbXrecord
 70
     0
  0
XRECORD
  5
8C1B
102
{ACAD_REACTORS
330
8C0F
102
}
330
8C0F
100
AcDbXrecord
  1
{7769CF7C-A5B8-4E7E-91B5-00DE8C768D0B}
  0
DICTIONARYVAR
  5
6B7A
102
{ACAD_REACTORS
330
6B78
102
}
330
6B78
100
DictionaryVariables
280
     0
  1
1
  0
DICTIONARYVAR
  5
6B79
102
{ACAD_REACTORS
330
6B78
102
}
330
6B78
100
DictionaryVariables
280
     0
  1
1
  0
DICTIONARY
  5
6B3F
102
{ACAD_REACTORS
330
6B39
102
}
330
6B39
100
AcDbDictionary
  0
DICTIONARY
  5
6B23
102
{ACAD_REACTORS
330
6B22
102
}
330
6B22
100
AcDbDictionary
  3
DWGSETTINGS
350
6B24
  0
LAYER_INDEX
  5
6B64
102
{ACAD_REACTORS
330
6B63
102
}
330
6B63
100
AcDbIndex
 40
2453612.529127268
100
AcDbLayerIndex
  8
0
360
6B65
 90
        1
  8
DEFPOINTS
360
6B68
 90
        0
  8
1
360
6B69
 90
       38
  8
2
360
6B6A
 90
       10
  8
SK1
360
6B70
 90
       29
  8
SK2
360
6B71
 90
        3
  8
SK3
360
6B72
 90
       21
  8
SK4
360
6B73
 90
        4
  8
NOCUT
360
6B75
 90
       10
  8
4
360
712F
 90
        2
  8
6
360
7130
 90
        3
  8
CUT
360
7131
 90
        8
  8
SK6
360
742E
 90
        1
  0
XRECORD
  5
6B24
102
{ACAD_REACTORS
330
6B23
102
}
330
6B23
100
AcDbXrecord
  1
VERSION
140
15.0
  1
PRODUCT
  2
AutoCAD Mechanical 2000
  0
IDBUFFER
  5
6B65
330
0
100
AcDbIdBuffer
330
8B66
  0
IDBUFFER
  5
6B68
330
0
100
AcDbIdBuffer
  0
IDBUFFER
  5
6B69
330
0
100
AcDbIdBuffer
330
6E60
330
6E63
330
6E94
330
6E95
330
6E96
330
6E97
330
6E98
330
6E99
330
7B93
330
7B95
330
8210
330
8212
330
8214
330
8216
330
8218
330
821A
330
821C
330
821E
330
8220
330
8222
330
8227
330
8228
330
8229
330
822A
330
822B
330
822C
330
829C
330
829E
330
82A0
330
82DC
330
82DD
330
82E4
330
82E5
330
85BA
330
8816
330
8817
330
8818
330
8864
  0
IDBUFFER
  5
6B6A
330
0
100
AcDbIdBuffer
330
8493
330
8494
330
8496
330
8497
330
8498
330
87AE
330
89BE
330
8AD5
330
8B84
330
8BAC
  0
IDBUFFER
  5
6B70
330
0
100
AcDbIdBuffer
330
6E59
330
6E5D
330
6E5E
330
6E5F
330
6E65
330
6E66
330
6E68
330
6E69
330
6E6A
330
6E6B
330
6E6C
330
6E6D
330
6E6E
330
6E6F
330
6E70
330
6E71
330
6E76
330
6E77
330
6E7A
330
6E8E
330
6E91
330
6E92
330
6E93
330
7BB3
330
7BB4
330
7BB5
330
7BE6
330
7BE7
330
7BE8
  0
IDBUFFER
  5
6B71
330
0
100
AcDbIdBuffer
330
6E8F
330
6E90
330
73F1
  0
IDBUFFER
  5
6B72
330
0
100
AcDbIdBuffer
330
6E7B
330
6E7C
330
6E7E
330
6E7F
330
6E80
330
6E81
330
6E83
330
6E84
330
6E85
330
6E86
330
6E87
330
6E88
330
6E89
330
6E8B
330
6E8C
330
6E8D
330
8223
330
8225
330
8226
330
8886
330
8887
  0
IDBUFFER
  5
6B73
330
0
100
AcDbIdBuffer
330
6E79
330
6E7D
330
6E82
330
6E8A
  0
IDBUFFER
  5
6B75
330
0
100
AcDbIdBuffer
330
8B20
330
8B21
330
717D
330
717E
330
717F
330
7180
330
7181
330
7BC9
330
7BCA
330
7D81
  0
IDBUFFER
  5
712F
330
0
100
AcDbIdBuffer
330
7B96
330
7BE9
  0
IDBUFFER
  5
7130
330
0
100
AcDbIdBuffer
330
70AF
330
7BD2
330
8164
  0
IDBUFFER
  5
7131
330
0
100
AcDbIdBuffer
330
8215
330
821B
330
821D
330
821F
330
8221
330
829D
330
829F
330
82A1
  0
IDBUFFER
  5
742E
330
0
100
AcDbIdBuffer
330
73D1
  0
ENDSEC
  0
EOF
