  0
SECTION
  2
HEADER
  9
$ACADVER
  1
AC1014
  9
$ACADMAINTVER
 70
     9
  9
$DWGCODEPAGE
  3
ANSI_1252
  9
$INSBASE
 10
0.0
 20
0.0
 30
0.0
  9
$EXTMIN
 10
-80.94810689070834
 20
-45.44674577602404
 30
-0.000000000000013
  9
$EXTMAX
 10
94.98453515129744
 20
79.83610000440001
 30
0.0000000000000023
  9
$LIMMIN
 10
0.0
 20
0.0
  9
$LIMMAX
 10
210.0
 20
297.0
  9
$ORTHOMODE
 70
     0
  9
$REGENMODE
 70
     1
  9
$FILLMODE
 70
     1
  9
$QTEXTMODE
 70
     0
  9
$MIRRTEXT
 70
     1
  9
$DRAGMODE
 70
     2
  9
$LTSCALE
 40
1.0
  9
$OSMODE
 70
  2599
  9
$ATTMODE
 70
     1
  9
$TEXTSIZE
 40
2.5
  9
$TRACEWID
 40
1.0
  9
$TEXTSTYLE
  7
STANDARD
  9
$CLAYER
  8
0
  9
$CELTYPE
  6
BYLAYER
  9
$CECOLOR
 62
   256
  9
$CELTSCALE
 40
1.0
  9
$DELOBJ
 70
     1
  9
$DISPSILH
 70
     0
  9
$DIMSCALE
 40
1.0
  9
$DIMASZ
 40
2.5
  9
$DIMEXO
 40
0.0
  9
$DIMDLI
 40
10.0
  9
$DIMRND
 40
0.0
  9
$DIMDLE
 40
0.0
  9
$DIMEXE
 40
1.0
  9
$DIMTP
 40
0.1
  9
$DIMTM
 40
0.1
  9
$DIMTXT
 40
3.5
  9
$DIMCEN
 40
0.0
  9
$DIMTSZ
 40
0.0
  9
$DIMTOL
 70
     0
  9
$DIMLIM
 70
     0
  9
$DIMTIH
 70
     0
  9
$DIMTOH
 70
     0
  9
$DIMSE1
 70
     0
  9
$DIMSE2
 70
     0
  9
$DIMTAD
 70
     1
  9
$DIMZIN
 70
     8
  9
$DIMBLK
  1

  9
$DIMASO
 70
     1
  9
$DIMSHO
 70
     1
  9
$DIMPOST
  1

  9
$DIMAPOST
  1
"
  9
$DIMALT
 70
     0
  9
$DIMALTD
 70
     2
  9
$DIMALTF
 40
0.0393701
  9
$DIMLFAC
 40
1.0
  9
$DIMTOFL
 70
     1
  9
$DIMTVP
 40
0.0
  9
$DIMTIX
 70
     0
  9
$DIMSOXD
 70
     0
  9
$DIMSAH
 70
     0
  9
$DIMBLK1
  1

  9
$DIMBLK2
  1

  9
$DIMSTYLE
  2
AM_DIN
  9
$DIMCLRD
 70
   256
  9
$DIMCLRE
 70
   256
  9
$DIMCLRT
 70
     2
  9
$DIMTFAC
 40
0.71
  9
$DIMGAP
 40
1.5
  9
$DIMJUST
 70
     0
  9
$DIMSD1
 70
     0
  9
$DIMSD2
 70
     0
  9
$DIMTOLJ
 70
     1
  9
$DIMTZIN
 70
     8
  9
$DIMALTZ
 70
     8
  9
$DIMALTTZ
 70
     8
  9
$DIMFIT
 70
     5
  9
$DIMUPT
 70
     0
  9
$DIMUNIT
 70
     2
  9
$DIMDEC
 70
     2
  9
$DIMTDEC
 70
     2
  9
$DIMALTU
 70
     2
  9
$DIMALTTD
 70
     2
  9
$DIMTXSTY
  7
STANDARD
  9
$DIMAUNIT
 70
     0
  9
$LUNITS
 70
     2
  9
$LUPREC
 70
     2
  9
$SKETCHINC
 40
1.0
  9
$FILLETRAD
 40
2.5
  9
$AUNITS
 70
     0
  9
$AUPREC
 70
     0
  9
$MENU
  1
.
  9
$ELEVATION
 40
0.0
  9
$PELEVATION
 40
0.0
  9
$THICKNESS
 40
0.0
  9
$LIMCHECK
 70
     0
  9
$BLIPMODE
 70
     0
  9
$CHAMFERA
 40
2.5
  9
$CHAMFERB
 40
2.5
  9
$CHAMFERC
 40
0.0
  9
$CHAMFERD
 40
0.0
  9
$SKPOLY
 70
     0
  9
$TDCREATE
 40
2453447.471737477
  9
$TDUPDATE
 40
2453612.629232673
  9
$TDINDWG
 40
0.1263224537
  9
$TDUSRTIMER
 40
0.1262981134
  9
$USRTIMER
 70
     1
  9
$ANGBASE
 50
0.0
  9
$ANGDIR
 70
     0
  9
$PDMODE
 70
     0
  9
$PDSIZE
 40
0.0
  9
$PLINEWID
 40
0.0
  9
$COORDS
 70
     0
  9
$SPLFRAME
 70
     0
  9
$SPLINETYPE
 70
     6
  9
$SPLINESEGS
 70
     8
  9
$ATTDIA
 70
     1
  9
$ATTREQ
 70
     1
  9
$HANDLING
 70
 22529
  9
$HANDSEED
  5
7CAE
  9
$SURFTAB1
 70
     6
  9
$SURFTAB2
 70
     6
  9
$SURFTYPE
 70
     6
  9
$SURFU
 70
     6
  9
$SURFV
 70
     6
  9
$UCSNAME
  2

  9
$UCSORG
 10
0.0
 20
0.0
 30
0.0
  9
$UCSXDIR
 10
1.0
 20
0.0
 30
0.0
  9
$UCSYDIR
 10
0.0
 20
1.0
 30
0.0
  9
$PUCSNAME
  2

  9
$PUCSORG
 10
0.0
 20
0.0
 30
0.0
  9
$PUCSXDIR
 10
1.0
 20
0.0
 30
0.0
  9
$PUCSYDIR
 10
0.0
 20
1.0
 30
0.0
  9
$USERI1
 70
     0
  9
$USERI2
 70
     0
  9
$USERI3
 70
     0
  9
$USERI4
 70
     0
  9
$USERI5
 70
     0
  9
$USERR1
 40
0.0
  9
$USERR2
 40
0.0
  9
$USERR3
 40
0.0
  9
$USERR4
 40
0.0
  9
$USERR5
 40
0.0
  9
$WORLDVIEW
 70
     1
  9
$SHADEDGE
 70
     3
  9
$SHADEDIF
 70
    70
  9
$TILEMODE
 70
     1
  9
$MAXACTVP
 70
    64
  9
$PINSBASE
 10
0.0
 20
0.0
 30
0.0
  9
$PLIMCHECK
 70
     0
  9
$PEXTMIN
 10
1.000000000000000E+20
 20
1.000000000000000E+20
 30
1.000000000000000E+20
  9
$PEXTMAX
 10
-1.000000000000000E+20
 20
-1.000000000000000E+20
 30
-1.000000000000000E+20
  9
$PLIMMIN
 10
0.0
 20
0.0
  9
$PLIMMAX
 10
420.0
 20
297.0
  9
$UNITMODE
 70
     0
  9
$VISRETAIN
 70
     1
  9
$PLINEGEN
 70
     0
  9
$PSLTSCALE
 70
     1
  9
$TREEDEPTH
 70
  3020
  9
$PICKSTYLE
 70
     0
  9
$CMLSTYLE
  2
STANDARD
  9
$CMLJUST
 70
     0
  9
$CMLSCALE
 40
1.0
  9
$PROXYGRAPHICS
 70
     1
  9
$MEASUREMENT
 70
     1
  0
ENDSEC
  0
SECTION
  2
CLASSES
  0
CLASS
  1
ACDBDICTIONARYWDFLT
  2
AcDbDictionaryWithDefault
  3
AutoCAD 2000
 90
        0
280
     0
281
     0
  0
CLASS
  1
ACDBPLACEHOLDER
  2
AcDbPlaceHolder
  3
AutoCAD 2000
 90
        0
280
     0
281
     0
  0
CLASS
  1
LAYOUT
  2
AcDbLayout
  3
AutoCAD 2000
 90
        0
280
     0
281
     0
  0
CLASS
  1
AMGSETTINGSOBJ
  2
AmgSettingsObj
  3
"AcadM|Product Description: AutoCAD Mechanical 2000|Company: Autodesk"
 90
        0
280
     0
281
     0
  0
CLASS
  1
ACME_DOCUMENT
  2
AcMeDbDoc
  3
AcMeServices
 90
        0
280
     0
281
     0
  0
CLASS
  1
ACMESCOPE
  2
AcMeScope
  3
AcMeServices
 90
        0
280
     0
281
     0
  0
CLASS
  1
ACMECOMMANDHISTORY
  2
AcMeCommandHistory
  3
AcMeServices
 90
        0
280
     0
281
     0
  0
CLASS
  1
ACIMSYSVARMAN
  2
AcImSysVarManager
  3
AcMeServices
 90
        0
280
     0
281
     0
  0
CLASS
  1
ACIMREALSYSVAR
  2
AcImRealSysVar
  3
AcMeServices
 90
        0
280
     0
281
     0
  0
CLASS
  1
ACIMINTSYSVAR
  2
AcImIntSysVar
  3
AcMeServices
 90
        0
280
     0
281
     0
  0
CLASS
  1
ACMEDRAWINGMAN
  2
AcMeDrawingMan
  3
AcMeServices
 90
        0
280
     0
281
     0
  0
CLASS
  1
ACMEVIEW
  2
AcMeView
  3
AcMeServices
 90
        0
280
     0
281
     0
  0
CLASS
  1
ACDBENTITYCACHE
  2
AcMeEntityCache
  3
AcMeServices
 90
        0
280
     0
281
     0
  0
CLASS
  1
GSMANAGER
  2
AcMeGSManager
  3
AcMeServices
 90
        0
280
     0
281
     0
  0
CLASS
  1
AMDTINTERNALREACTOR
  2
AmdtInternalReactor
  3
AcMeServices
 90
        0
280
     0
281
     0
  0
CLASS
  1
ACMESTATEMGR
  2
AcMeStateMgr
  3
AcMeServices
 90
        0
280
     0
281
     0
  0
CLASS
  1
ACGREFMASTER
  2
AcGrefMaster
  3
AcAttribServices
 90
        0
280
     0
281
     0
  0
CLASS
  1
ACME_DATABASE
  2
AcMeDbDatabase
  3
AcMeServices
 90
        0
280
     0
281
     0
  0
CLASS
  1
ACRFINSADJUSTERMGR
  2
AcRfInsAdjusterMgr
  3
AcMeServices
 90
        0
280
     0
281
     0
  0
CLASS
  1
ACGREFACADMASTER
  2
AcGrefacadMaster
  3
AcGrefServices
 90
        0
280
     0
281
     0
  0
CLASS
  1
AMIMASTER
  2
AmiMaster
  3
AmiServices
 90
        0
280
     0
281
     0
  0
CLASS
  1
ACMDATADICTIONARY
  2
AcmDataDictionary
  3
"AcmSymBB|Product Description: AutoCAD Mechanical 2000|Company: Autodesk"
 90
        0
280
     0
281
     0
  0
CLASS
  1
ACMDATAENTRYBLOCK
  2
AcmDataEntryBlock
  3
"AcmSymBB|Product Description: AutoCAD Mechanical 2000|Company: Autodesk"
 90
        0
280
     0
281
     0
  0
CLASS
  1
ACIMSTRSYSVAR
  2
AcImStrSysVar
  3
AcMeServices
 90
        0
280
     0
281
     0
  0
CLASS
  1
ACMSTANDARDANSI
  2
AcmStandardANSI
  3
"Amdt_StdImp|Product Description: AutoCAD Mechanical 2000|Company: Autodesk"
 90
        0
280
     0
281
     0
  0
CLASS
  1
AMGOBJPROPCFG
  2
AmgObjPropCfg
  3
"AmgLay|Product Description: AutoCAD Mechanical 2000|Company: Autodesk"
 90
        1
280
     0
281
     0
  0
CLASS
  1
ACMSURFSTANDARDANSI
  2
AcmSurfTextStdANSI
  3
"Amdt_StdImp|Product Description: AutoCAD Mechanical 2000|Company: Autodesk"
 90
        0
280
     0
281
     0
  0
CLASS
  1
ACMFCFSTANDARDANSI
  2
AcmFCFStdANSI
  3
"Amdt_StdImp|Product Description: AutoCAD Mechanical 2000|Company: Autodesk"
 90
        0
280
     0
281
     0
  0
CLASS
  1
ACMWELDSTANDARDANSI
  2
AcmWeldingStdANSI
  3
"Amdt_StdImp|Product Description: AutoCAD Mechanical 2000|Company: Autodesk"
 90
        0
280
     0
281
     0
  0
CLASS
  1
ACMIDSTANDARDANSI
  2
AcmIdStdANSI
  3
"Amdt_StdImp|Product Description: AutoCAD Mechanical 2000|Company: Autodesk"
 90
        0
280
     0
281
     0
  0
CLASS
  1
ACMDATUMSTANDARDANSI
  2
AcmDatumStdANSI
  3
"Amdt_StdImp|Product Description: AutoCAD Mechanical 2000|Company: Autodesk"
 90
        0
280
     0
281
     0
  0
CLASS
  1
ACMBOMSTANDARDANSI
  2
AcmBOMStdANSI
  3
"Amdt_StdImp|Product Description: AutoCAD Mechanical 2000|Company: Autodesk"
 90
        0
280
     0
281
     0
  0
CLASS
  1
ACMDETAILSTANDARDANSI
  2
AmdtDetailSymStdANSI
  3
"Amdt_StdImp|Product Description: AutoCAD Mechanical 2000|Company: Autodesk"
 90
        0
280
     0
281
     0
  0
CLASS
  1
ACMSECTIONSTANDARDANSI
  2
AmdtSectionSymStdANSI
  3
"Amdt_StdImp|Product Description: AutoCAD Mechanical 2000|Company: Autodesk"
 90
        0
280
     0
281
     0
  0
CLASS
  1
ACMCENTERLINESTANDARDANSI
  2
AmdtCenterLineStdANSI
  3
"Amdt_StdImp|Product Description: AutoCAD Mechanical 2000|Company: Autodesk"
 90
        0
280
     0
281
     0
  0
CLASS
  1
ACMNOTESTANDARDANSI
  2
AmdtNoteStdANSI
  3
"Amdt_StdImp|Product Description: AutoCAD Mechanical 2000|Company: Autodesk"
 90
        0
280
     0
281
     0
  0
CLASS
  1
ACAMGLAYSTD
  2
AcAmgLayStd
  3
"AcAmgLayStd|Product Description: AutoCAD Mechanical 2000|Company: Autodesk"
 90
        0
280
     0
281
     0
  0
CLASS
  1
ACAMGDIMSTD
  2
AcAmgDimStd
  3
"AcAmgDimStd|Product Description: AutoCAD Mechanical 2000|Company: Autodesk"
 90
        0
280
     0
281
     0
  0
CLASS
  1
ACAMGHOLECHARTSTDANSI
  2
AcAmgHoleChartStdANSI
  3
ACMSYMBB_MODULE_NAME
 90
        0
280
     0
281
     0
  0
CLASS
  1
ACAMGTITLESTD
  2
AcAmgTitleStd
  3
"TITLEAPP"
 90
        0
280
     0
281
     0
  0
CLASS
  1
ACAMGFILTERDAT
  2
AcAmgFilterDat
  3
"AcadM|Product Description: AutoCAD Mechanical 2000|Company: Autodesk"
 90
        0
280
     0
281
     0
  0
CLASS
  1
LAYER_INDEX
  2
AcDbLayerIndex
  3
AutoCAD 2000
 90
        0
280
     0
281
     0
  0
CLASS
  1
IDBUFFER
  2
AcDbIdBuffer
  3
AutoCAD 2000
 90
        0
280
     0
281
     0
  0
CLASS
  1
DICTIONARYVAR
  2
AcDbDictionaryVar
  3
AutoCAD 2000
 90
        0
280
     0
281
     0
  0
CLASS
  1
ACMSTANDARDDIN
  2
AcmStandardDIN
  3
"Amdt_StdImp|Product Description: AutoCAD Mechanical 2000|Company: Autodesk"
 90
        0
280
     0
281
     0
  0
CLASS
  1
AMDTEDGESTANDARDDIN
  2
AmdtEdgeStdDIN
  3
"Amdt_StdImp|Product Description: AutoCAD Mechanical 2000|Company: Autodesk"
 90
        0
280
     0
281
     0
  0
CLASS
  1
ACMSURFSTANDARDDIN
  2
AcmSurfTextStdDIN
  3
"Amdt_StdImp|Product Description: AutoCAD Mechanical 2000|Company: Autodesk"
 90
        0
280
     0
281
     0
  0
CLASS
  1
ACMFCFSTANDARDDIN
  2
AcmFCFStdDIN
  3
"Amdt_StdImp|Product Description: AutoCAD Mechanical 2000|Company: Autodesk"
 90
        0
280
     0
281
     0
  0
CLASS
  1
ACMWELDSTANDARDDIN
  2
AcmWeldingStdDIN
  3
"Amdt_StdImp|Product Description: AutoCAD Mechanical 2000|Company: Autodesk"
 90
        0
280
     0
281
     0
  0
CLASS
  1
ACMIDSTANDARDDIN
  2
AcmIdStdDIN
  3
"Amdt_StdImp|Product Description: AutoCAD Mechanical 2000|Company: Autodesk"
 90
        0
280
     0
281
     0
  0
CLASS
  1
ACMDATUMSTANDARDDIN
  2
AcmDatumStdDIN
  3
"Amdt_StdImp|Product Description: AutoCAD Mechanical 2000|Company: Autodesk"
 90
        0
280
     0
281
     0
  0
CLASS
  1
ACMBOMSTANDARDDIN
  2
AcmBOMStdDIN
  3
"Amdt_StdImp|Product Description: AutoCAD Mechanical 2000|Company: Autodesk"
 90
        0
280
     0
281
     0
  0
CLASS
  1
ACMDETAILSTANDARDDIN
  2
AmdtDetailSymStdDIN
  3
"Amdt_StdImp|Product Description: AutoCAD Mechanical 2000|Company: Autodesk"
 90
        0
280
     0
281
     0
  0
CLASS
  1
ACMSECTIONSTANDARDDIN
  2
AmdtSectionSymStdDIN
  3
"Amdt_StdImp|Product Description: AutoCAD Mechanical 2000|Company: Autodesk"
 90
        0
280
     0
281
     0
  0
CLASS
  1
ACMCENTERLINESTANDARDDIN
  2
AmdtCenterLineStdDIN
  3
"Amdt_StdImp|Product Description: AutoCAD Mechanical 2000|Company: Autodesk"
 90
        0
280
     0
281
     0
  0
CLASS
  1
ACMNOTESTANDARDDIN
  2
AmdtNoteStdDIN
  3
"Amdt_StdImp|Product Description: AutoCAD Mechanical 2000|Company: Autodesk"
 90
        0
280
     0
281
     0
  0
CLASS
  1
ACAMGHOLECHARTSTDDIN
  2
AcAmgHoleChartStdDIN
  3
ACMSYMBB_MODULE_NAME
 90
        0
280
     0
281
     0
  0
CLASS
  1
AMDTFORMULAUPDATEDISPATCHER
  2
AmdtFormulaUpdateDispatcher
  3
AcMeServices
 90
        0
280
     0
281
     0
  0
CLASS
  1
LONG_TRANSACTION
  2
AcDbLongTransaction
  3
AutoCAD 2000
 90
        0
280
     0
281
     0
  0
CLASS
  1
LWPOLYLINE
  2
AcDbPolyline
  3
AutoCAD 2000
 90
        0
280
     0
281
     1
  0
CLASS
  1
HATCH
  2
AcDbHatch
  3
AutoCAD 2000
 90
        0
280
     0
281
     1
  0
CLASS
  1
XRECORD
  2
AcDbXrecord
  3
AutoCAD 2000
 90
        0
280
     0
281
     0
  0
ENDSEC
  0
SECTION
  2
TABLES
  0
TABLE
  2
VPORT
  5
6A1E
330
0
100
AcDbSymbolTable
 70
     4
  0
VPORT
  5
7C89
330
6A1E
100
AcDbSymbolTableRecord
100
AcDbViewportTableRecord
  2
*ACTIVE
 70
     0
 10
0.0
 20
0.0
 11
1.0
 21
1.0
 12
64.52594655464579
 22
125.776627111988
 13
0.0
 23
0.0
 14
2.5
 24
2.5
 15
10.0
 25
10.0
 16
0.0
 26
0.0
 36
1.0
 17
0.0
 27
0.0
 37
0.0
 40
346.2237319426713
 41
1.694290976058931
 42
50.0
 43
0.0
 44
0.0
 50
0.0
 51
0.0
 71
    16
 72
 10000
 73
     1
 74
     3
 75
     0
 76
     0
 77
     0
 78
     0
  0
ENDTAB
  0
TABLE
  2
LTYPE
  5
6A1B
330
0
100
AcDbSymbolTable
 70
    16
  0
LTYPE
  5
6A29
330
6A1B
100
AcDbSymbolTableRecord
100
AcDbLinetypeTableRecord
  2
BYBLOCK
 70
     0
  3

 72
    65
 73
     0
 40
0.0
  0
LTYPE
  5
6A2A
330
6A1B
100
AcDbSymbolTableRecord
100
AcDbLinetypeTableRecord
  2
BYLAYER
 70
     0
  3

 72
    65
 73
     0
 40
0.0
  0
LTYPE
  5
6A2B
330
6A1B
100
AcDbSymbolTableRecord
100
AcDbLinetypeTableRecord
  2
CONTINUOUS
 70
     0
  3
Solid line
 72
    65
 73
     0
 40
0.0
  0
LTYPE
  5
6A39
330
6A1B
100
AcDbSymbolTableRecord
100
AcDbLinetypeTableRecord
  2
AMCONSTR
 70
     0
  3
_______________________
 72
    65
 73
     2
 40
9999.0
 49
9999.0
 74
     0
 49
0.0
 74
     0
  0
LTYPE
  5
6A43
330
6A1B
100
AcDbSymbolTableRecord
100
AcDbLinetypeTableRecord
  2
CENTER
 70
     0
  3
__ . __
 72
    65
 73
     4
 40
7.0
 49
4.0
 74
     0
 49
-1.0
 74
     0
 49
1.0
 74
     0
 49
-1.0
 74
     0
  0
LTYPE
  5
6A45
330
6A1B
100
AcDbSymbolTableRecord
100
AcDbLinetypeTableRecord
  2
PHANTOM2
 70
     0
  3
Phantom (.5x) ___ _ _ ___ _ _ ___ _ _ ___ _ _
 72
    65
 73
     6
 40
1.25
 49
0.625
 74
     0
 49
-0.125
 74
     0
 49
0.125
 74
     0
 49
-0.125
 74
     0
 49
0.125
 74
     0
 49
-0.125
 74
     0
  0
LTYPE
  5
6A46
330
6A1B
100
AcDbSymbolTableRecord
100
AcDbLinetypeTableRecord
  2
ACANSTGB
 70
     0
  3
__ . . __ . .
 72
    65
 73
     6
 40
0.35433070866
 49
0.15748031496
 74
     0
 49
-0.03937007874
 74
     0
 49
0.03937007874
 74
     0
 49
-0.03937007874
 74
     0
 49
0.03937007874
 74
     0
 49
-0.03937007874
 74
     0
  0
LTYPE
  5
6A47
330
6A1B
100
AcDbSymbolTableRecord
100
AcDbLinetypeTableRecord
  2
ACANSTGL
 70
     0
  3
_ _ _ _ _
 72
    65
 73
     2
 40
0.11811023622
 49
0.07874015748
 74
     0
 49
-0.03937007874
 74
     0
  0
LTYPE
  5
6A48
330
6A1B
100
AcDbSymbolTableRecord
100
AcDbLinetypeTableRecord
  2
DASHED
 70
     0
  3
__ __ __ __ __ __ __ __ __ __ __ __ __ __ __ __
 72
    65
 73
     2
 40
19.05
 49
12.7
 74
     0
 49
-6.349999999999998
 74
     0
  0
LTYPE
  5
6D97
330
6A1B
100
AcDbSymbolTableRecord
100
AcDbLinetypeTableRecord
  2
ACDINWELD
 70
     0
  3
_ _ _ _ _
 72
    65
 73
     2
 40
2.0
 49
2.0
 74
     0
 49
-1.0
 74
     0
  0
LTYPE
  5
6D98
330
6A1B
100
AcDbSymbolTableRecord
100
AcDbLinetypeTableRecord
  2
ACDINTGB
 70
     0
  3
__ . . __ . .
 72
    65
 73
     6
 40
9.0
 49
4.0
 74
     0
 49
-1.0
 74
     0
 49
1.0
 74
     0
 49
-1.0
 74
     0
 49
1.0
 74
     0
 49
-1.0
 74
     0
  0
LTYPE
  5
6D99
330
6A1B
100
AcDbSymbolTableRecord
100
AcDbLinetypeTableRecord
  2
ACDINTGL
 70
     0
  3
_ _ _ _ _
 72
    65
 73
     2
 40
3.0
 49
2.0
 74
     0
 49
-1.0
 74
     0
  0
LTYPE
  5
75F6
330
6A1B
100
AcDbSymbolTableRecord
100
AcDbLinetypeTableRecord
  2
AMZIGZAG
 70
     0
  3
/\/-/\/-/\/-/\/-/\/-/\/
 72
    65
 73
     2
 40
11.00009999999999
 49
0.0001
 74
     4
 75
   135
340
6A5B
 46
0.04
 50
0.0
 44
0.0
 45
0.0
 49
-11.0
 74
     0
  0
LTYPE
  5
75F7
330
6A1B
100
AcDbSymbolTableRecord
100
AcDbLinetypeTableRecord
  2
AM_DIN_F_W050
 70
     0
  3
__ __ __ __ __ __ __ __ __ __ __ __ __ __ __
 72
    65
 73
     2
 40
6.25
 49
4.75
 74
     0
 49
-1.5
 74
     0
  0
LTYPE
  5
75F8
330
6A1B
100
AcDbSymbolTableRecord
100
AcDbLinetypeTableRecord
  2
AM_DIN_G_W050
 70
     0
  3
____ . ____ . ____ . ____ . ____ . ____ . ____
 72
    65
 73
     4
 40
13.75
 49
9.75
 74
     0
 49
-1.5
 74
     0
 49
1.0
 74
     0
 49
-1.5
 74
     0
  0
LTYPE
  5
75F9
330
6A1B
100
AcDbSymbolTableRecord
100
AcDbLinetypeTableRecord
  2
AM_DIN_K_W050
 70
     0
  3
_____ . . _____ . . _____ . . ____ .. ____
 72
    65
 73
     6
 40
16.25
 49
9.75
 74
     0
 49
-1.5
 74
     0
 49
1.0
 74
     0
 49
-1.5
 74
     0
 49
1.0
 74
     0
 49
-1.5
 74
     0
  0
LTYPE
  5
75FA
330
6A1B
100
AcDbSymbolTableRecord
100
AcDbLinetypeTableRecord
  2
AM_DIN_G_W050X2
 70
     0
  3
__ . __ . __ . __ . __ . __
 72
    65
 73
     4
 40
6.875
 49
4.75
 74
     0
 49
-0.875
 74
     0
 49
0.375
 74
     0
 49
-0.875
 74
     0
  0
LTYPE
  5
75FB
330
6A1B
100
AcDbSymbolTableRecord
100
AcDbLinetypeTableRecord
  2
AM_DIN_F_W050X2
 70
     0
  3
 _ _ _ _ _ _ _ _ _ _ _ _
 72
    65
 73
     2
 40
3.125
 49
2.25
 74
     0
 49
-0.875
 74
     0
  0
ENDTAB
  0
TABLE
  2
LAYER
  5
6A18
330
0
100
AcDbSymbolTable
 70
    12
  0
LAYER
  5
6A26
330
6A18
100
AcDbSymbolTableRecord
100
AcDbLayerTableRecord
  2
0
 70
     0
 62
     7
  6
CONTINUOUS
  0
LAYER
  5
6A4B
330
6A18
100
AcDbSymbolTableRecord
100
AcDbLayerTableRecord
  2
DEFPOINTS
 70
     0
 62
     7
  6
CONTINUOUS
  0
LAYER
  5
6A4C
330
6A18
100
AcDbSymbolTableRecord
100
AcDbLayerTableRecord
  2
1
 70
     0
 62
     4
  6
CONTINUOUS
  0
LAYER
  5
6A4D
330
6A18
100
AcDbSymbolTableRecord
100
AcDbLayerTableRecord
  2
2
 70
     0
 62
     7
  6
CONTINUOUS
  0
LAYER
  5
6A4F
330
6A18
100
AcDbSymbolTableRecord
100
AcDbLayerTableRecord
  2
4
 70
     0
 62
     2
  6
CENTER
  0
LAYER
  5
6A50
330
6A18
100
AcDbSymbolTableRecord
100
AcDbLayerTableRecord
  2
6
 70
     0
 62
     5
  6
CONTINUOUS
  0
LAYER
  5
6A53
330
6A18
100
AcDbSymbolTableRecord
100
AcDbLayerTableRecord
  2
SK1
 70
     0
 62
     4
  6
CONTINUOUS
  0
LAYER
  5
6A54
330
6A18
100
AcDbSymbolTableRecord
100
AcDbLayerTableRecord
  2
SK2
 70
     0
 62
     7
  6
CONTINUOUS
  0
LAYER
  5
6A55
330
6A18
100
AcDbSymbolTableRecord
100
AcDbLayerTableRecord
  2
SK3
 70
     0
 62
     1
  6
DASHED
  0
LAYER
  5
6A56
330
6A18
100
AcDbSymbolTableRecord
100
AcDbLayerTableRecord
  2
SK4
 70
     0
 62
     2
  6
CENTER
  0
LAYER
  5
6A57
330
6A18
100
AcDbSymbolTableRecord
100
AcDbLayerTableRecord
  2
CUT
 70
     0
 62
     1
  6
CONTINUOUS
  0
LAYER
  5
6A58
330
6A18
100
AcDbSymbolTableRecord
100
AcDbLayerTableRecord
  2
NOCUT
 70
     0
 62
     7
  6
CONTINUOUS
  0
ENDTAB
  0
TABLE
  2
STYLE
  5
6A19
330
0
100
AcDbSymbolTable
 70
     6
  0
STYLE
  5
6A27
330
6A19
100
AcDbSymbolTableRecord
100
AcDbTextStyleTableRecord
  2
STANDARD
 70
     0
 40
0.0
 41
1.0
 50
0.0
 71
     0
 42
2.5
  3
ISOCP.SHX
  4

  0
STYLE
  5
6A5B
330
6A19
100
AcDbSymbolTableRecord
100
AcDbTextStyleTableRecord
  2

 70
     1
 40
0.0
 41
1.0
 50
0.0
 71
     0
 42
2.5
  3
ltypeshp.shx
  4

  0
STYLE
  5
6A5E
330
6A19
100
AcDbSymbolTableRecord
100
AcDbTextStyleTableRecord
  2
ACANSTS
 70
     0
 40
1.0
 41
1.0
 50
0.0
 71
     0
 42
0.2
  3
romans.shx
  4

  0
STYLE
  5
6A5F
330
6A19
100
AcDbSymbolTableRecord
100
AcDbTextStyleTableRecord
  2
ACANSGDT
 70
     0
 40
0.0
 41
1.0
 50
0.0
 71
     0
 42
0.2
  3
amgdtans.shx
  4

  0
STYLE
  5
6D9A
330
6A19
100
AcDbSymbolTableRecord
100
AcDbTextStyleTableRecord
  2
ACDINTS
 70
     0
 40
1.0
 41
1.0
 50
0.0
 71
     0
 42
2.5
  3
isocp.shx
  4

  0
STYLE
  5
6D9B
330
6A19
100
AcDbSymbolTableRecord
100
AcDbTextStyleTableRecord
  2
ACDINGDT
 70
     0
 40
0.0
 41
1.0
 50
0.0
 71
     0
 42
2.5
  3
amgdt.shx
  4

  0
ENDTAB
  0
TABLE
  2
VIEW
  5
6A1C
330
0
100
AcDbSymbolTable
 70
     6
  0
VIEW
  5
6A60
330
6A1C
100
AcDbSymbolTableRecord
100
AcDbViewTableRecord
  2
AM_VIEW1
 70
     0
 40
148.5
 10
131.508173076923
 20
222.75
 41
263.016346153846
 11
0.0
 21
0.0
 31
1.0
 12
0.0
 22
0.0
 32
0.0
 42
50.0
 43
0.0
 44
0.0
 50
0.0
 71
    16
  0
VIEW
  5
6A61
330
6A1C
100
AcDbSymbolTableRecord
100
AcDbViewTableRecord
  2
AM_VIEW2
 70
     0
 40
148.5
 10
78.4918269230769
 20
222.75
 41
263.016346153846
 11
0.0
 21
0.0
 31
1.0
 12
0.0
 22
0.0
 32
0.0
 42
50.0
 43
0.0
 44
0.0
 50
0.0
 71
    16
  0
VIEW
  5
6A62
330
6A1C
100
AcDbSymbolTableRecord
100
AcDbViewTableRecord
  2
AM_VIEW3
 70
     0
 40
148.5
 10
131.508173076923
 20
74.25
 41
263.016346153846
 11
0.0
 21
0.0
 31
1.0
 12
0.0
 22
0.0
 32
0.0
 42
50.0
 43
0.0
 44
0.0
 50
0.0
 71
    16
  0
VIEW
  5
6A63
330
6A1C
100
AcDbSymbolTableRecord
100
AcDbViewTableRecord
  2
AM_VIEW4
 70
     0
 40
148.5
 10
78.4918269230769
 20
74.25
 41
263.016346153846
 11
0.0
 21
0.0
 31
1.0
 12
0.0
 22
0.0
 32
0.0
 42
50.0
 43
0.0
 44
0.0
 50
0.0
 71
    16
  0
VIEW
  5
6A64
330
6A1C
100
AcDbSymbolTableRecord
100
AcDbViewTableRecord
  2
AM_VIEW5
 70
     0
 40
148.5
 10
105.0
 20
148.5
 41
263.016346153846
 11
0.0
 21
0.0
 31
1.0
 12
0.0
 22
0.0
 32
0.0
 42
50.0
 43
0.0
 44
0.0
 50
0.0
 71
    16
  0
VIEW
  5
6A65
330
6A1C
100
AcDbSymbolTableRecord
100
AcDbViewTableRecord
  2
AM_VIEW6
 70
     0
 40
296.9970299999999
 10
105.0
 20
148.5
 41
526.0274319807693
 11
0.0
 21
0.0
 31
1.0
 12
0.0
 22
0.0
 32
0.0
 42
50.0
 43
0.0
 44
0.0
 50
0.0
 71
    16
  0
ENDTAB
  0
TABLE
  2
UCS
  5
6A1D
330
0
100
AcDbSymbolTable
 70
     0
  0
ENDTAB
  0
TABLE
  2
APPID
  5
6A1F
330
0
100
AcDbSymbolTable
 70
    43
  0
APPID
  5
6A28
330
6A1F
100
AcDbSymbolTableRecord
100
AcDbRegAppTableRecord
  2
ACAD
 70
     0
  0
APPID
  5
6A66
330
6A1F
100
AcDbSymbolTableRecord
100
AcDbRegAppTableRecord
  2
MCAD_NO_VIS
 70
     0
  0
APPID
  5
6A67
330
6A1F
100
AcDbSymbolTableRecord
100
AcDbRegAppTableRecord
  2
ACAD_TEMP_GRAPHIC
 70
     0
  0
APPID
  5
6A68
330
6A1F
100
AcDbSymbolTableRecord
100
AcDbRegAppTableRecord
  2
ACATTRIBSERVICES
 70
     0
  0
APPID
  5
6A69
330
6A1F
100
AcDbSymbolTableRecord
100
AcDbRegAppTableRecord
  2
GENIUS_GENDIMSH_14
 70
     0
  0
APPID
  5
6A6A
330
6A1F
100
AcDbSymbolTableRecord
100
AcDbRegAppTableRecord
  2
GENIUS_GENBLLY_14
 70
     0
  0
APPID
  5
6A6B
330
6A1F
100
AcDbSymbolTableRecord
100
AcDbRegAppTableRecord
  2
GENIUS_GENTRA_14
 70
     0
  0
APPID
  5
6A6C
330
6A1F
100
AcDbSymbolTableRecord
100
AcDbRegAppTableRecord
  2
GENIUS_GENODEF_13
 70
     0
  0
APPID
  5
6A6D
330
6A1F
100
AcDbSymbolTableRecord
100
AcDbRegAppTableRecord
  2
GENIUS_GENOLIS_13
 70
     0
  0
APPID
  5
6A6E
330
6A1F
100
AcDbSymbolTableRecord
100
AcDbRegAppTableRecord
  2
GENIUS_GENOENT_13
 70
     0
  0
APPID
  5
6A6F
330
6A1F
100
AcDbSymbolTableRecord
100
AcDbRegAppTableRecord
  2
GENIUS_GENOBJ-N-TIT_13
 70
     0
  0
APPID
  5
6A70
330
6A1F
100
AcDbSymbolTableRecord
100
AcDbRegAppTableRecord
  2
GENIUS_GENTITLE_13
 70
     0
  0
APPID
  5
6A71
330
6A1F
100
AcDbSymbolTableRecord
100
AcDbRegAppTableRecord
  2
GENIUS_GENOREF_13
 70
     0
  0
APPID
  5
6A72
330
6A1F
100
AcDbSymbolTableRecord
100
AcDbRegAppTableRecord
  2
GENIUS_GENSCREG_15
 70
     0
  0
APPID
  5
6A73
330
6A1F
100
AcDbSymbolTableRecord
100
AcDbRegAppTableRecord
  2
GENIUS_GENOBJ-N-SDF_13
 70
     0
  0
APPID
  5
6A74
330
6A1F
100
AcDbSymbolTableRecord
100
AcDbRegAppTableRecord
  2
ACADIGES
 70
     0
  0
APPID
  5
6A75
330
6A1F
100
AcDbSymbolTableRecord
100
AcDbRegAppTableRecord
  2
GENIUS_GENOBJ-N-HTC_13
 70
     0
  0
APPID
  5
6A76
330
6A1F
100
AcDbSymbolTableRecord
100
AcDbRegAppTableRecord
  2
GENIUS_GENHATCH_13
 70
     0
  0
APPID
  5
6DA2
330
6A1F
100
AcDbSymbolTableRecord
100
AcDbRegAppTableRecord
  2
GENIUS_GENOBJ-N-CRS_13
 70
     0
  0
APPID
  5
6DA3
330
6A1F
100
AcDbSymbolTableRecord
100
AcDbRegAppTableRecord
  2
GENIUS_GENOBJ-N-FIL_13
 70
     0
  0
APPID
  5
6DD2
330
6A1F
100
AcDbSymbolTableRecord
100
AcDbRegAppTableRecord
  2
GENIUS_GENFIL_13
 70
     0
  0
APPID
  5
6DD3
330
6A1F
100
AcDbSymbolTableRecord
100
AcDbRegAppTableRecord
  2
GENIUS_GENOBJ-N-CHA_13
 70
     0
  0
APPID
  5
7684
330
6A1F
100
AcDbSymbolTableRecord
100
AcDbRegAppTableRecord
  2
GENIUS12
 70
     0
  0
APPID
  5
7685
330
6A1F
100
AcDbSymbolTableRecord
100
AcDbRegAppTableRecord
  2
GENIUS_GENCFG_13
 70
     0
  0
APPID
  5
7686
330
6A1F
100
AcDbSymbolTableRecord
100
AcDbRegAppTableRecord
  2
GENIUS_GENCFG0_13
 70
     0
  0
APPID
  5
7687
330
6A1F
100
AcDbSymbolTableRecord
100
AcDbRegAppTableRecord
  2
GENIUS_GENCFG1_13
 70
     0
  0
APPID
  5
7688
330
6A1F
100
AcDbSymbolTableRecord
100
AcDbRegAppTableRecord
  2
GENIUS_GENCFG2_13
 70
     0
  0
APPID
  5
7689
330
6A1F
100
AcDbSymbolTableRecord
100
AcDbRegAppTableRecord
  2
GENIUS_GENCFG3_13
 70
     0
  0
APPID
  5
768A
330
6A1F
100
AcDbSymbolTableRecord
100
AcDbRegAppTableRecord
  2
GENIUS_GENCFG4_13
 70
     0
  0
APPID
  5
768B
330
6A1F
100
AcDbSymbolTableRecord
100
AcDbRegAppTableRecord
  2
GENIUS_GEVCFG0_13
 70
     0
  0
APPID
  5
768C
330
6A1F
100
AcDbSymbolTableRecord
100
AcDbRegAppTableRecord
  2
GENIUS_GEFCFG0_13
 70
     0
  0
APPID
  5
768D
330
6A1F
100
AcDbSymbolTableRecord
100
AcDbRegAppTableRecord
  2
GEV_VCCNULL_SWITCH_OFF
 70
     0
  0
APPID
  5
768E
330
6A1F
100
AcDbSymbolTableRecord
100
AcDbRegAppTableRecord
  2
GENIUS_GENDTOL_13
 70
     0
  0
APPID
  5
768F
330
6A1F
100
AcDbSymbolTableRecord
100
AcDbRegAppTableRecord
  2
GENIUS_GENOBJ-F-SUF_13
 70
     0
  0
APPID
  5
7690
330
6A1F
100
AcDbSymbolTableRecord
100
AcDbRegAppTableRecord
  2
GENIUS_GENDIM_13
 70
     0
  0
APPID
  5
7691
330
6A1F
100
AcDbSymbolTableRecord
100
AcDbRegAppTableRecord
  2
GENIUS_GE3DTOL_13
 70
     0
  0
APPID
  5
7692
330
6A1F
100
AcDbSymbolTableRecord
100
AcDbRegAppTableRecord
  2
AD_DRAW
 70
     0
  0
APPID
  5
7693
330
6A1F
100
AcDbSymbolTableRecord
100
AcDbRegAppTableRecord
  2
ASURF_PCURVE_APPNAME
 70
     0
  0
APPID
  5
7694
330
6A1F
100
AcDbSymbolTableRecord
100
AcDbRegAppTableRecord
  2
AMG_3D2D_5_0
 70
     0
  0
APPID
  5
7695
330
6A1F
100
AcDbSymbolTableRecord
100
AcDbRegAppTableRecord
  2
DESIGNERASSEMBLIES
 70
     0
  0
APPID
  5
7696
330
6A1F
100
AcDbSymbolTableRecord
100
AcDbRegAppTableRecord
  2
ACADM_DIM_EDIT
 70
     0
  0
APPID
  5
7697
330
6A1F
100
AcDbSymbolTableRecord
100
AcDbRegAppTableRecord
  2
AMDT_DM_ADJ
 70
     0
  0
APPID
  5
7698
330
6A1F
100
AcDbSymbolTableRecord
100
AcDbRegAppTableRecord
  2
GENIUS_GENOBJ-N-CEN_13
 70
     0
  0
ENDTAB
  0
TABLE
  2
DIMSTYLE
  5
6A20
330
0
100
AcDbSymbolTable
 70
    14
  0
DIMSTYLE
105
6A77
102
{ACAD_REACTORS
330
7B33
330
7B40
330
7B41
330
7BDC
330
7C2D
102
}
330
6A20
100
AcDbSymbolTableRecord
100
AcDbDimStyleTableRecord
  2
AM_DIN
 70
     0
  3

  4
"
  5

  6

  7

 40
1.0
 41
2.5
 42
0.0
 43
10.0
 44
1.0
 45
0.0
 46
0.0
 47
0.1
 48
0.1
140
3.5
141
0.0
142
0.0
143
0.0393701
144
1.0
145
0.0
146
0.71
147
1.5
 71
     0
 72
     0
 73
     0
 74
     0
 75
     0
 76
     0
 77
     1
 78
     8
170
     0
171
     2
172
     1
173
     0
174
     0
175
     0
176
   256
177
   256
178
     2
270
     2
271
     2
272
     2
273
     2
274
     2
340
6A27
275
     0
280
     0
281
     0
282
     0
283
     1
284
     8
285
     8
286
     8
287
     5
288
     0
  0
DIMSTYLE
105
6A7E
330
6A20
100
AcDbSymbolTableRecord
100
AcDbDimStyleTableRecord
  2
STANDARD
 70
     0
  3

  4

  5

  6

  7

 40
1.0
 41
0.18
 42
0.0625
 43
0.38
 44
0.18
 45
0.0
 46
0.0
 47
0.0
 48
0.0
140
0.18
141
0.09
142
0.0
143
25.4
144
1.0
145
0.0
146
1.0
147
0.09
 71
     0
 72
     0
 73
     1
 74
     1
 75
     0
 76
     0
 77
     0
 78
     0
170
     0
171
     2
172
     0
173
     0
174
     0
175
     0
176
     0
177
     0
178
     0
270
     2
271
     2
272
     2
273
     2
274
     2
340
6A27
275
     0
280
     0
281
     0
282
     0
283
     1
284
     8
285
     8
286
     8
287
     5
288
     0
  0
DIMSTYLE
105
6A7F
102
{ACAD_REACTORS
330
740D
102
}
330
6A20
100
AcDbSymbolTableRecord
100
AcDbDimStyleTableRecord
  2
AM_ANSI
 70
     0
  3

  4
mm
  5

  6

  7

 40
1.0
 41
0.1
 42
0.05
 43
0.5
 44
0.1
 45
0.0
 46
0.0
 47
0.1
 48
0.1
140
0.12
141
0.0
142
0.0
143
25.4
144
1.0
145
0.0
146
0.71
147
0.06
 71
     0
 72
     0
 73
     1
 74
     1
 75
     0
 76
     0
 77
     0
 78
     7
170
     0
171
     2
172
     0
173
     0
174
     0
175
     0
176
   256
177
   256
178
     2
270
     2
271
     2
272
     2
273
     2
274
     2
340
6A27
275
     0
280
     0
281
     0
282
     0
283
     1
284
     8
285
     8
286
     8
287
     5
288
     0
  0
DIMSTYLE
105
6A80
330
6A20
100
AcDbSymbolTableRecord
100
AcDbDimStyleTableRecord
  2
AM_ANSI$3
 70
     0
  3

  4
mm
  5

  6

  7

 40
1.0
 41
0.1
 42
0.05
 43
0.5
 44
0.1
 45
0.0
 46
0.0
 47
0.1
 48
0.1
140
0.12
141
0.0
142
0.0
143
25.4
144
1.0
145
0.0
146
0.71
147
0.06
 71
     0
 72
     0
 73
     1
 74
     1
 75
     0
 76
     0
 77
     0
 78
     7
170
     0
171
     2
172
     0
173
     0
174
     0
175
     0
176
   256
177
   256
178
     2
270
     2
271
     2
272
     2
273
     2
274
     2
340
6A27
275
     0
280
     0
281
     0
282
     0
283
     1
284
     8
285
     8
286
     8
287
     5
288
     0
  0
DIMSTYLE
105
6A81
330
6A20
100
AcDbSymbolTableRecord
100
AcDbDimStyleTableRecord
  2
AM_ANSI$4
 70
     0
  3

  4
mm
  5

  6

  7

 40
1.0
 41
0.1
 42
0.05
 43
0.5
 44
0.1
 45
0.0
 46
0.0
 47
0.1
 48
0.1
140
0.12
141
0.0
142
0.0
143
25.4
144
1.0
145
0.0
146
0.71
147
0.06
 71
     0
 72
     0
 73
     1
 74
     1
 75
     0
 76
     0
 77
     0
 78
     7
170
     0
171
     2
172
     0
173
     0
174
     0
175
     0
176
   256
177
   256
178
     2
270
     2
271
     2
272
     2
273
     2
274
     2
340
6A27
275
     0
280
     0
281
     0
282
     0
283
     1
284
     8
285
     8
286
     8
287
     5
288
     0
  0
DIMSTYLE
105
6A82
330
6A20
100
AcDbSymbolTableRecord
100
AcDbDimStyleTableRecord
  2
AM_ANSI$7
 70
     0
  3

  4
mm
  5

  6

  7

 40
1.0
 41
0.1
 42
0.05
 43
0.5
 44
0.1
 45
0.0
 46
0.0
 47
0.1
 48
0.1
140
0.24
141
0.0
142
0.0
143
25.4
144
1.0
145
0.0
146
0.71
147
0.06
 71
     0
 72
     0
 73
     1
 74
     1
 75
     0
 76
     0
 77
     0
 78
     7
170
     0
171
     2
172
     0
173
     0
174
     0
175
     0
176
   256
177
   256
178
     2
270
     2
271
     2
272
     2
273
     2
274
     2
340
6A27
275
     0
280
     0
281
     0
282
     0
283
     1
284
     8
285
     8
286
     8
287
     5
288
     0
  0
DIMSTYLE
105
6A83
330
6A20
100
AcDbSymbolTableRecord
100
AcDbDimStyleTableRecord
  2
AM_ANSI$SF
 70
     0
  3

  4
mm
  5

  6

  7

 40
1.0
 41
0.1
 42
0.05
 43
0.5
 44
0.1
 45
0.0
 46
0.0
 47
0.1
 48
0.1
140
0.12
141
0.0
142
0.0
143
25.4
144
1.0
145
0.0
146
0.71
147
0.06
 71
     0
 72
     0
 73
     1
 74
     1
 75
     1
 76
     1
 77
     0
 78
     7
170
     0
171
     2
172
     0
173
     0
174
     0
175
     0
176
   256
177
   256
178
     2
270
     2
271
     2
272
     2
273
     2
274
     2
340
6A27
275
     0
280
     0
281
     0
282
     0
283
     1
284
     8
285
     8
286
     8
287
     5
288
     0
  0
DIMSTYLE
105
6A84
330
6A20
100
AcDbSymbolTableRecord
100
AcDbDimStyleTableRecord
  2
AM_ANSI$SH
 70
     0
  3

  4
mm
  5

  6

  7

 40
1.0
 41
0.1
 42
0.05
 43
0.5
 44
0.1
 45
0.0
 46
0.0
 47
0.1
 48
0.1
140
0.12
141
0.0
142
0.0
143
25.4
144
1.0
145
0.0
146
0.71
147
0.06
 71
     0
 72
     0
 73
     1
 74
     1
 75
     1
 76
     1
 77
     0
 78
     7
170
     0
171
     2
172
     0
173
     1
174
     0
175
     0
176
   256
177
   256
178
     2
270
     2
271
     2
272
     2
273
     2
274
     2
340
6A27
275
     0
280
     0
281
     0
282
     0
283
     1
284
     8
285
     8
286
     8
287
     5
288
     0
  0
DIMSTYLE
105
6D9C
330
6A20
100
AcDbSymbolTableRecord
100
AcDbDimStyleTableRecord
  2
AM_DIN$3
 70
     0
  3

  4
"
  5

  6

  7

 40
1.0
 41
3.5
 42
0.0
 43
10.0
 44
1.0
 45
0.0
 46
0.0
 47
0.1
 48
0.1
140
3.5
141
0.0
142
0.0
143
0.0393701
144
1.0
145
0.0
146
0.71
147
1.5
 71
     0
 72
     0
 73
     0
 74
     1
 75
     0
 76
     0
 77
     1
 78
     8
170
     0
171
     2
172
     0
173
     0
174
     0
175
     0
176
   256
177
   256
178
     2
270
     2
271
     2
272
     2
273
     2
274
     2
340
6A27
275
     0
280
     0
281
     0
282
     0
283
     0
284
     8
285
     0
286
     0
287
     0
288
     1
  0
DIMSTYLE
105
6D9D
330
6A20
100
AcDbSymbolTableRecord
100
AcDbDimStyleTableRecord
  2
AM_DIN$4
 70
     0
  3

  4
"
  5

  6

  7

 40
1.0
 41
3.5
 42
0.0
 43
10.0
 44
1.0
 45
0.0
 46
0.0
 47
0.1
 48
0.1
140
3.5
141
0.0
142
0.0
143
0.0393701
144
1.0
145
0.0
146
0.71
147
1.5
 71
     0
 72
     0
 73
     0
 74
     1
 75
     0
 76
     0
 77
     1
 78
     8
170
     0
171
     2
172
     0
173
     0
174
     0
175
     0
176
   256
177
   256
178
     2
270
     2
271
     2
272
     2
273
     2
274
     2
340
6A27
275
     0
280
     0
281
     0
282
     0
283
     0
284
     8
285
     0
286
     0
287
     0
288
     1
  0
DIMSTYLE
105
6D9E
330
6A20
100
AcDbSymbolTableRecord
100
AcDbDimStyleTableRecord
  2
AM_DIN$6
 70
     0
  3

  4
"
  5

  6

  7

 40
1.0
 41
3.5
 42
0.0
 43
0.0
 44
1.0
 45
0.0
 46
0.0
 47
0.1
 48
0.1
140
3.5
141
0.0
142
0.0
143
0.0393701
144
1.0
145
0.0
146
0.71
147
1.5
 71
     0
 72
     0
 73
     0
 74
     0
 75
     0
 76
     0
 77
     0
 78
     8
170
     0
171
     2
172
     1
173
     0
174
     0
175
     0
176
   256
177
   256
178
     2
270
     2
271
     2
272
     2
273
     2
274
     2
340
6A27
275
     0
280
     0
281
     0
282
     0
283
     0
284
     8
285
     0
286
     0
287
     3
288
     0
  0
DIMSTYLE
105
6D9F
330
6A20
100
AcDbSymbolTableRecord
100
AcDbDimStyleTableRecord
  2
AM_DIN$7
 70
     0
  3

  4
"
  5

  6

  7

 40
1.0
 41
3.5
 42
0.0
 43
10.0
 44
1.0
 45
0.0
 46
0.0
 47
0.1
 48
0.1
140
3.5
141
0.0
142
0.0
143
0.0393701
144
1.0
145
0.0
146
0.71
147
1.5
 71
     0
 72
     0
 73
     0
 74
     0
 75
     0
 76
     0
 77
     1
 78
     8
170
     0
171
     2
172
     1
173
     0
174
     0
175
     0
176
   256
177
   256
178
     2
270
     2
271
     2
272
     2
273
     2
274
     2
340
6A27
275
     0
280
     0
281
     0
282
     0
283
     0
284
     8
285
     0
286
     0
287
     3
288
     0
  0
DIMSTYLE
105
6DA0
330
6A20
100
AcDbSymbolTableRecord
100
AcDbDimStyleTableRecord
  2
AM_DIN$SF
 70
     0
  3

  4
"
  5

  6

  7

 40
1.0
 41
2.5
 42
1.0
 43
10.0
 44
1.0
 45
0.0
 46
0.0
 47
0.1
 48
0.1
140
3.5
141
0.0
142
0.0
143
0.0393701
144
1.0
145
0.0
146
0.71
147
1.5
 71
     0
 72
     0
 73
     0
 74
     0
 75
     1
 76
     1
 77
     1
 78
     8
170
     0
171
     2
172
     1
173
     0
174
     0
175
     0
176
   256
177
   256
178
     2
270
     2
271
     2
272
     3
273
     2
274
     4
340
6A27
275
     0
280
     0
281
     0
282
     0
283
     0
284
     8
285
     0
286
     0
287
     3
288
     0
  0
DIMSTYLE
105
6DA1
330
6A20
100
AcDbSymbolTableRecord
100
AcDbDimStyleTableRecord
  2
AM_DIN$SH
 70
     0
  3

  4
"
  5

  6
GENAXEH
  7

 40
1.0
 41
2.5
 42
1.0
 43
10.0
 44
1.0
 45
0.0
 46
0.0
 47
0.1
 48
0.1
140
3.5
141
0.0
142
0.0
143
0.0393701
144
2.0
145
0.0
146
0.71
147
1.5
 71
     0
 72
     0
 73
     0
 74
     0
 75
     1
 76
     1
 77
     1
 78
     8
170
     0
171
     2
172
     1
173
     1
174
     0
175
     0
176
   256
177
   256
178
     2
270
     2
271
     2
272
     3
273
     2
274
     4
340
6A27
275
     0
280
     0
281
     0
282
     0
283
     0
284
     8
285
     0
286
     0
287
     3
288
     0
  0
ENDTAB
  0
TABLE
  2
BLOCK_RECORD
  5
6A17
330
0
100
AcDbSymbolTable
 70
     7
  0
BLOCK_RECORD
  5
6A34
102
{ACAD_XDICTIONARY
360
6B62
102
}
330
6A17
100
AcDbSymbolTableRecord
100
AcDbBlockTableRecord
  2
*MODEL_SPACE
  0
BLOCK_RECORD
  5
6A30
102
{ACAD_XDICTIONARY
360
7CAB
102
}
330
6A17
100
AcDbSymbolTableRecord
100
AcDbBlockTableRecord
  2
*PAPER_SPACE
  0
BLOCK_RECORD
  5
6D93
330
6A17
100
AcDbSymbolTableRecord
100
AcDbBlockTableRecord
  2
GENAXEH
  0
BLOCK_RECORD
  5
740E
330
6A17
100
AcDbSymbolTableRecord
100
AcDbBlockTableRecord
  2
*D1
  0
BLOCK_RECORD
  5
7B44
330
6A17
100
AcDbSymbolTableRecord
100
AcDbBlockTableRecord
  2
*D2
  0
BLOCK_RECORD
  5
7B50
330
6A17
100
AcDbSymbolTableRecord
100
AcDbBlockTableRecord
  2
*D3
  0
BLOCK_RECORD
  5
7B5C
330
6A17
100
AcDbSymbolTableRecord
100
AcDbBlockTableRecord
  2
*D4
  0
BLOCK_RECORD
  5
7BDD
330
6A17
100
AcDbSymbolTableRecord
100
AcDbBlockTableRecord
  2
*D5
  0
BLOCK_RECORD
  5
7C2E
330
6A17
100
AcDbSymbolTableRecord
100
AcDbBlockTableRecord
  2
*D6
  0
ENDTAB
  0
ENDSEC
  0
SECTION
  2
BLOCKS
  0
BLOCK
  5
6A35
330
6A34
100
AcDbEntity
  8
0
100
AcDbBlockBegin
  2
*MODEL_SPACE
 70
     0
 10
0.0
 20
0.0
 30
0.0
  3
*MODEL_SPACE
  1

  0
ENDBLK
  5
6A36
330
6A34
100
AcDbEntity
  8
0
100
AcDbBlockEnd
  0
BLOCK
  5
6A31
330
6A30
100
AcDbEntity
 67
     1
  8
0
100
AcDbBlockBegin
  2
*PAPER_SPACE
 70
     0
 10
0.0
 20
0.0
 30
0.0
  3
*PAPER_SPACE
  1

  0
ENDBLK
  5
6A32
330
6A30
100
AcDbEntity
 67
     1
  8
0
100
AcDbBlockEnd
  0
BLOCK
  5
6D95
330
6D93
100
AcDbEntity
  8
0
100
AcDbBlockBegin
  2
GENAXEH
 70
     0
 10
0.0
 20
0.0
 30
0.0
  3
GENAXEH
  1

  0
LINE
  5
6D94
330
6D93
100
AcDbEntity
  8
0
100
AcDbLine
 10
-1.0
 20
0.0
 30
0.0
 11
1.0
 21
0.0
 31
0.0
  0
ENDBLK
  5
6D96
330
6D93
100
AcDbEntity
  8
0
100
AcDbBlockEnd
  0
BLOCK
  5
7419
330
740E
100
AcDbEntity
  8
0
100
AcDbBlockBegin
  2
*D1
 70
     1
 10
0.0
 20
0.0
 30
0.0
  3
*D1
  1

  0
LINE
  5
7506
330
740E
100
AcDbEntity
  8
SK2
100
AcDbLine
 10
-54.99999999999999
 20
-12.50000000000002
 30
0.0
 11
-77.10747231352953
 21
-12.50000000000002
 31
0.0
  0
LINE
  5
7507
330
740E
100
AcDbEntity
  8
SK2
100
AcDbLine
 10
-55.00000000000007
 20
12.5
 30
0.0
 11
-77.10747231352953
 21
12.5
 31
0.0
  0
LINE
  5
7508
330
740E
100
AcDbEntity
  8
SK2
100
AcDbLine
 10
-76.10747231352952
 20
-10.00000000000002
 30
0.0
 11
-76.10747231352952
 21
10.0
 31
0.0
  0
MTEXT
  5
7509
330
740E
100
AcDbEntity
  8
SK2
 62
     2
100
AcDbMText
 10
-79.17522541557328
 20
-0.4833155496131099
 30
0.0
 40
3.5
 41
0.0
 71
     5
 72
     1
  1
\A1;%%c25
 11
0.0000000000000001
 21
1.0
 31
0.0
1001
ACAD
1000
MTEXTBEGIN
1070
    73
1070
     1
1070
    44
1040
1.0
1070
    74
1070
     0
1000
MTEXTEND
  0
SOLID
  5
750A
330
740E
100
AcDbEntity
  8
SK2
100
AcDbTrace
 10
-76.5241389801962
 20
-10.00000000000002
 30
0.0
 11
-75.69080564686285
 21
-10.00000000000002
 31
0.0
 12
-76.10747231352952
 22
-12.50000000000002
 32
0.0
 13
-76.10747231352952
 23
-12.50000000000002
 33
0.0
  0
SOLID
  5
750B
330
740E
100
AcDbEntity
  8
SK2
100
AcDbTrace
 10
-76.5241389801962
 20
10.0
 30
0.0
 11
-75.69080564686285
 21
10.0
 31
0.0
 12
-76.10747231352952
 22
12.5
 32
0.0
 13
-76.10747231352952
 23
12.5
 33
0.0
  0
POINT
  5
750C
330
740E
100
AcDbEntity
  8
DEFPOINTS
 62
     0
100
AcDbPoint
 10
-54.99999999999999
 20
-12.50000000000002
 30
0.0
  0
POINT
  5
750D
330
740E
100
AcDbEntity
  8
DEFPOINTS
 62
     0
100
AcDbPoint
 10
-55.00000000000007
 20
12.5
 30
0.0
  0
POINT
  5
750E
330
740E
100
AcDbEntity
  8
DEFPOINTS
 62
     0
100
AcDbPoint
 10
-76.10747231352952
 20
12.5
 30
0.0
  0
ENDBLK
  5
741A
330
740E
100
AcDbEntity
  8
0
100
AcDbBlockEnd
  0
BLOCK
  5
7B4E
330
7B44
100
AcDbEntity
  8
0
100
AcDbBlockBegin
  2
*D2
 70
     1
 10
0.0
 20
0.0
 30
0.0
  3
*D2
  1

  0
LINE
  5
7BB1
330
7B44
100
AcDbEntity
  8
2
100
AcDbLine
 10
54.0
 20
20.00000000000015
 30
0.0
 11
80.71214887906057
 21
20.00000000000015
 31
0.0
  0
LINE
  5
7BB2
330
7B44
100
AcDbEntity
  8
2
100
AcDbLine
 10
54.00000000000005
 20
-19.99999999999984
 30
0.0
 11
80.71214887906057
 21
-19.99999999999985
 31
0.0
  0
LINE
  5
7BB3
330
7B44
100
AcDbEntity
  8
2
100
AcDbLine
 10
79.71214887906057
 20
17.50000000000015
 30
0.0
 11
79.71214887906057
 21
-17.49999999999985
 31
0.0
  0
SOLID
  5
7BB4
330
7B44
100
AcDbEntity
  8
2
100
AcDbTrace
 10
79.2954822123939
 20
17.50000000000015
 30
0.0
 11
80.12881554572725
 21
17.50000000000015
 31
0.0
 12
79.71214887906057
 22
20.00000000000015
 32
0.0
 13
79.71214887906057
 23
20.00000000000015
 33
0.0
  0
SOLID
  5
7BB5
330
7B44
100
AcDbEntity
  8
2
100
AcDbTrace
 10
79.2954822123939
 20
-17.49999999999985
 30
0.0
 11
80.12881554572725
 21
-17.49999999999985
 31
0.0
 12
79.71214887906057
 22
-19.99999999999985
 32
0.0
 13
79.71214887906057
 23
-19.99999999999985
 33
0.0
  0
MTEXT
  5
7BB6
330
7B44
100
AcDbEntity
  8
2
 62
     2
100
AcDbMText
 10
76.46214887906058
 20
0.0000000000001625
 30
0.0
 40
3.5
 41
0.0
 71
     5
 72
     1
  1
\A1;%%c40
 11
0.0000000000000001
 21
1.0
 31
0.0
1001
ACAD
1000
MTEXTBEGIN
1070
    73
1070
     1
1070
    44
1040
1.0
1070
    74
1070
     0
1000
MTEXTEND
  0
POINT
  5
7BB7
330
7B44
100
AcDbEntity
  8
DEFPOINTS
 62
     0
100
AcDbPoint
 10
54.0
 20
20.00000000000015
 30
0.0
  0
POINT
  5
7BB8
330
7B44
100
AcDbEntity
  8
DEFPOINTS
 62
     0
100
AcDbPoint
 10
54.00000000000005
 20
-19.99999999999984
 30
0.0
  0
POINT
  5
7BB9
330
7B44
100
AcDbEntity
  8
DEFPOINTS
 62
     0
100
AcDbPoint
 10
79.71214887906057
 20
-19.99999999999985
 30
0.0
  0
ENDBLK
  5
7B4F
330
7B44
100
AcDbEntity
  8
0
100
AcDbBlockEnd
  0
BLOCK
  5
7B5A
330
7B50
100
AcDbEntity
  8
0
100
AcDbBlockBegin
  2
*D3
 70
     1
 10
0.0
 20
0.0
 30
0.0
  3
*D3
  1

  0
LINE
  5
7BBA
330
7B50
100
AcDbEntity
  8
2
100
AcDbLine
 10
54.0
 20
20.00000000000015
 30
0.0
 11
54.0
 21
46.00000000000014
 31
0.0
  0
LINE
  5
7BBB
330
7B50
100
AcDbEntity
  8
2
100
AcDbLine
 10
37.0
 20
19.50000000000015
 30
0.0
 11
37.0
 21
46.00000000000014
 31
0.0
  0
LINE
  5
7BBC
330
7B50
100
AcDbEntity
  8
2
100
AcDbLine
 10
51.5
 20
45.00000000000014
 30
0.0
 11
39.5
 21
45.00000000000014
 31
0.0
  0
SOLID
  5
7BBD
330
7B50
100
AcDbEntity
  8
2
100
AcDbTrace
 10
51.5
 20
45.41666666666681
 30
0.0
 11
51.5
 21
44.58333333333348
 31
0.0
 12
54.0
 22
45.00000000000014
 32
0.0
 13
54.0
 23
45.00000000000014
 33
0.0
  0
SOLID
  5
7BBE
330
7B50
100
AcDbEntity
  8
2
100
AcDbTrace
 10
39.5
 20
45.41666666666681
 30
0.0
 11
39.5
 21
44.58333333333348
 31
0.0
 12
37.0
 22
45.00000000000014
 32
0.0
 13
37.0
 23
45.00000000000014
 33
0.0
  0
MTEXT
  5
7BBF
330
7B50
100
AcDbEntity
  8
2
 62
     2
100
AcDbMText
 10
45.49999999999999
 20
48.25000000000014
 30
0.0
 40
3.5
 41
0.0
 71
     5
 72
     1
  1
\A1;17
1001
ACAD
1000
MTEXTBEGIN
1070
    73
1070
     1
1070
    44
1040
1.0
1070
    74
1070
     0
1000
MTEXTEND
  0
POINT
  5
7BC0
330
7B50
100
AcDbEntity
  8
DEFPOINTS
 62
     0
100
AcDbPoint
 10
54.0
 20
20.00000000000015
 30
0.0
  0
POINT
  5
7BC1
330
7B50
100
AcDbEntity
  8
DEFPOINTS
 62
     0
100
AcDbPoint
 10
37.0
 20
19.50000000000015
 30
0.0
  0
POINT
  5
7BC2
330
7B50
100
AcDbEntity
  8
DEFPOINTS
 62
     0
100
AcDbPoint
 10
37.0
 20
45.00000000000014
 30
0.0
  0
ENDBLK
  5
7B5B
330
7B50
100
AcDbEntity
  8
0
100
AcDbBlockEnd
  0
BLOCK
  5
7B66
330
7B5C
100
AcDbEntity
  8
0
100
AcDbBlockBegin
  2
*D4
 70
     1
 10
0.0
 20
0.0
 30
0.0
  3
*D4
  1

  0
LINE
  5
7BC3
330
7B5C
100
AcDbEntity
  8
2
100
AcDbLine
 10
54.0
 20
20.00000000000015
 30
0.0
 11
54.0
 21
61.00000000000014
 31
0.0
  0
LINE
  5
7BC4
330
7B5C
100
AcDbEntity
  8
2
100
AcDbLine
 10
4.0
 20
10.50000000000015
 30
0.0
 11
4.000000000000002
 21
61.00000000000014
 31
0.0
  0
LINE
  5
7BC5
330
7B5C
100
AcDbEntity
  8
2
100
AcDbLine
 10
51.5
 20
60.00000000000014
 30
0.0
 11
6.500000000000002
 21
60.00000000000014
 31
0.0
  0
SOLID
  5
7BC6
330
7B5C
100
AcDbEntity
  8
2
100
AcDbTrace
 10
51.5
 20
60.41666666666681
 30
0.0
 11
51.5
 21
59.58333333333348
 31
0.0
 12
54.0
 22
60.00000000000014
 32
0.0
 13
54.0
 23
60.00000000000014
 33
0.0
  0
SOLID
  5
7BC7
330
7B5C
100
AcDbEntity
  8
2
100
AcDbTrace
 10
6.500000000000002
 20
60.41666666666681
 30
0.0
 11
6.500000000000002
 21
59.58333333333348
 31
0.0
 12
4.000000000000002
 22
60.00000000000014
 32
0.0
 13
4.000000000000002
 23
60.00000000000014
 33
0.0
  0
MTEXT
  5
7BC8
330
7B5C
100
AcDbEntity
  8
2
 62
     2
100
AcDbMText
 10
29.0
 20
63.25000000000014
 30
0.0
 40
3.5
 41
0.0
 71
     5
 72
     1
  1
\A1;50
1001
ACAD
1000
MTEXTBEGIN
1070
    73
1070
     1
1070
    44
1040
1.0
1070
    74
1070
     0
1000
MTEXTEND
  0
POINT
  5
7BC9
330
7B5C
100
AcDbEntity
  8
DEFPOINTS
 62
     0
100
AcDbPoint
 10
54.0
 20
20.00000000000015
 30
0.0
  0
POINT
  5
7BCA
330
7B5C
100
AcDbEntity
  8
DEFPOINTS
 62
     0
100
AcDbPoint
 10
4.0
 20
10.50000000000015
 30
0.0
  0
POINT
  5
7BCB
330
7B5C
100
AcDbEntity
  8
DEFPOINTS
 62
     0
100
AcDbPoint
 10
4.000000000000002
 20
60.00000000000014
 30
0.0
  0
ENDBLK
  5
7B67
330
7B5C
100
AcDbEntity
  8
0
100
AcDbBlockEnd
  0
BLOCK
  5
7BE7
330
7BDD
100
AcDbEntity
  8
0
100
AcDbBlockBegin
  2
*D5
 70
     1
 10
0.0
 20
0.0
 30
0.0
  3
*D5
  1

  0
LINE
  5
7BFC
330
7BDD
100
AcDbEntity
  8
SK2
100
AcDbLine
 10
54.00000000000005
 20
-19.99999999999984
 30
0.0
 11
54.00000000000005
 21
-45.44107612479183
 31
0.0
  0
LINE
  5
7BFD
330
7BDD
100
AcDbEntity
  8
SK2
100
AcDbLine
 10
-55.99999999999998
 20
-11.50000000000002
 30
0.0
 11
-55.99999999999998
 21
-45.44107612479183
 31
0.0
  0
LINE
  5
7BFE
330
7BDD
100
AcDbEntity
  8
SK2
100
AcDbLine
 10
51.50000000000005
 20
-44.44107612479183
 30
0.0
 11
-53.49999999999998
 21
-44.44107612479183
 31
0.0
  0
SOLID
  5
7BFF
330
7BDD
100
AcDbEntity
  8
SK2
100
AcDbTrace
 10
51.50000000000005
 20
-44.02440945812517
 30
0.0
 11
51.50000000000005
 21
-44.85774279145849
 31
0.0
 12
54.00000000000005
 22
-44.44107612479183
 32
0.0
 13
54.00000000000005
 23
-44.44107612479183
 33
0.0
  0
SOLID
  5
7C00
330
7BDD
100
AcDbEntity
  8
SK2
100
AcDbTrace
 10
-53.49999999999998
 20
-44.02440945812517
 30
0.0
 11
-53.49999999999998
 21
-44.85774279145849
 31
0.0
 12
-55.99999999999998
 22
-44.44107612479183
 32
0.0
 13
-55.99999999999998
 23
-44.44107612479183
 33
0.0
  0
MTEXT
  5
7C01
330
7BDD
100
AcDbEntity
  8
SK2
 62
     2
100
AcDbMText
 10
-0.9999999999999642
 20
-41.19107612479183
 30
0.0
 40
3.5
 41
0.0
 71
     5
 72
     1
  1
\A1;110
1001
ACAD
1000
MTEXTBEGIN
1070
    73
1070
     1
1070
    44
1040
1.0
1070
    74
1070
     0
1000
MTEXTEND
  0
POINT
  5
7C02
330
7BDD
100
AcDbEntity
  8
DEFPOINTS
 62
     0
100
AcDbPoint
 10
54.00000000000005
 20
-19.99999999999984
 30
0.0
  0
POINT
  5
7C03
330
7BDD
100
AcDbEntity
  8
DEFPOINTS
 62
     0
100
AcDbPoint
 10
-55.99999999999998
 20
-11.50000000000002
 30
0.0
  0
POINT
  5
7C04
330
7BDD
100
AcDbEntity
  8
DEFPOINTS
 62
     0
100
AcDbPoint
 10
-55.99999999999998
 20
-44.44107612479183
 30
0.0
  0
ENDBLK
  5
7BE8
330
7BDD
100
AcDbEntity
  8
0
100
AcDbBlockEnd
  0
BLOCK
  5
7C38
330
7C2E
100
AcDbEntity
  8
0
100
AcDbBlockBegin
  2
*D6
 70
     1
 10
0.0
 20
0.0
 30
0.0
  3
*D6
  1

  0
LINE
  5
7C4E
330
7C2E
100
AcDbEntity
  8
2
100
AcDbLine
 10
54.0
 20
20.00000000000015
 30
0.0
 11
54.0
 21
76.00000000000017
 31
0.0
  0
LINE
  5
7C4F
330
7C2E
100
AcDbEntity
  8
2
100
AcDbLine
 10
-0.0000000000000568
 20
12.49999999999997
 30
0.0
 11
-0.000000000000053
 21
76.00000000000017
 31
0.0
  0
LINE
  5
7C50
330
7C2E
100
AcDbEntity
  8
2
100
AcDbLine
 10
51.5
 20
75.00000000000017
 30
0.0
 11
2.499999999999947
 21
75.00000000000017
 31
0.0
  0
SOLID
  5
7C51
330
7C2E
100
AcDbEntity
  8
2
100
AcDbTrace
 10
51.5
 20
75.41666666666684
 30
0.0
 11
51.5
 21
74.58333333333349
 31
0.0
 12
54.0
 22
75.00000000000017
 32
0.0
 13
54.0
 23
75.00000000000017
 33
0.0
  0
SOLID
  5
7C52
330
7C2E
100
AcDbEntity
  8
2
100
AcDbTrace
 10
2.499999999999947
 20
75.41666666666684
 30
0.0
 11
2.499999999999947
 21
74.58333333333349
 31
0.0
 12
-0.000000000000053
 22
75.00000000000017
 32
0.0
 13
-0.000000000000053
 23
75.00000000000017
 33
0.0
  0
MTEXT
  5
7C53
330
7C2E
100
AcDbEntity
  8
2
 62
     2
100
AcDbMText
 10
26.99999999999997
 20
78.25000000000017
 30
0.0
 40
3.5
 41
0.0
 71
     5
 72
     1
  1
\A1;54
1001
ACAD
1000
MTEXTBEGIN
1070
    73
1070
     1
1070
    44
1040
1.0
1070
    74
1070
     0
1000
MTEXTEND
  0
POINT
  5
7C54
330
7C2E
100
AcDbEntity
  8
DEFPOINTS
 62
     0
100
AcDbPoint
 10
54.0
 20
20.00000000000015
 30
0.0
  0
POINT
  5
7C55
330
7C2E
100
AcDbEntity
  8
DEFPOINTS
 62
     0
100
AcDbPoint
 10
-0.0000000000000568
 20
12.49999999999997
 30
0.0
  0
POINT
  5
7C56
330
7C2E
100
AcDbEntity
  8
DEFPOINTS
 62
     0
100
AcDbPoint
 10
-0.000000000000053
 20
75.00000000000017
 30
0.0
  0
ENDBLK
  5
7C39
330
7C2E
100
AcDbEntity
  8
0
100
AcDbBlockEnd
  0
ENDSEC
  0
SECTION
  2
ENTITIES
  0
LINE
  5
6CF8
330
6A34
100
AcDbEntity
  8
1
100
AcDbLine
 10
2.0
 20
12.49999999999995
 30
0.0
 11
2.0
 21
-12.50000000000004
 31
0.0
  0
LINE
  5
6CF9
330
6A34
100
AcDbEntity
  8
1
100
AcDbLine
 10
2.0
 20
-12.50000000000004
 30
0.0
 11
0.0000000000000711
 21
-12.50000000000002
 31
0.0
  0
LINE
  5
6CFA
330
6A34
100
AcDbEntity
  8
SK1
100
AcDbLine
 10
-55.99999999999998
 20
-11.50000000000002
 30
0.0
 11
-56.00000000000007
 21
11.5
 31
0.0
  0
LINE
  5
6CFB
330
6A34
100
AcDbEntity
  8
SK1
100
AcDbLine
 10
-55.00000000000007
 20
12.5
 30
0.0
 11
-0.0000000000000568
 21
12.49999999999997
 31
0.0
  0
LINE
  5
6D61
330
6A34
100
AcDbEntity
  8
SK1
100
AcDbLine
 10
-30.00000000000001
 20
-6.780000000000029
 30
0.0
 11
-30.00000000000001
 21
6.779999999999972
 31
0.0
  0
LINE
  5
6D62
330
6A34
100
AcDbEntity
  8
SK1
100
AcDbLine
 10
-30.00000000000001
 20
6.779999999999972
 30
0.0
 11
-18.00000000000009
 21
6.779999999999972
 31
0.0
  0
LINE
  5
6D63
330
6A34
100
AcDbEntity
  8
SK1
100
AcDbLine
 10
-18.00000000000009
 20
6.779999999999972
 30
0.0
 11
-18.00000000000009
 21
-6.780000000000029
 31
0.0
  0
LINE
  5
6D64
330
6A34
100
AcDbEntity
  8
SK1
100
AcDbLine
 10
-18.00000000000009
 20
-6.780000000000029
 30
0.0
 11
-30.00000000000001
 21
-6.780000000000029
 31
0.0
  0
LINE
  5
6D65
330
6A34
100
AcDbEntity
  8
SK1
100
AcDbLine
 10
-56.0
 20
-6.780000000000029
 30
0.0
 11
-38.99999999999998
 21
-6.780000000000029
 31
0.0
  0
LINE
  5
6D66
330
6A34
100
AcDbEntity
  8
SK1
100
AcDbLine
 10
-38.99999999999998
 20
-6.780000000000029
 30
0.0
 11
-38.99999999999998
 21
6.779999999999972
 31
0.0
  0
LINE
  5
6D67
330
6A34
100
AcDbEntity
  8
SK1
100
AcDbLine
 10
-38.99999999999998
 20
6.779999999999972
 30
0.0
 11
-56.00000000000005
 21
6.780000000000001
 31
0.0
  0
ARC
  5
6D7F
330
6A34
100
AcDbEntity
  8
SK1
100
AcDbCircle
 10
-28.4920999999999
 20
0.0
 30
0.0
 40
12.49209999999985
100
AcDbArc
 50
327.1294363887067
 51
32.87056361129322
  0
ARC
  5
6D80
330
6A34
100
AcDbEntity
  8
SK1
100
AcDbCircle
 10
-19.50790000000003
 20
0.0000000000000284
 30
0.0
 40
12.49209999999998
100
AcDbArc
 50
147.1294363887073
 51
212.8705636112929
  0
ARC
  5
6D81
330
6A34
100
AcDbEntity
  8
SK1
100
AcDbCircle
 10
-49.49209999999991
 20
0.0000000000000284
 30
0.0
 40
12.49209999999996
100
AcDbArc
 50
327.1294363887069
 51
32.87056361129283
  0
LINE
  5
6DD1
330
6A34
100
AcDbEntity
  8
SK1
100
AcDbLine
 10
-54.99999999999999
 20
-12.50000000000002
 30
0.0
 11
-55.99999999999998
 21
-11.50000000000002
 31
0.0
1001
GENIUS_GENFIL_13
1070
     0
1040
1.0
1040
1.0
1040
0.0
1040
0.0
1002
{
1002
}
1001
GENIUS_GENODEF_13
1002
{
1000
HIER
1070
     0
1002
}
1002
{
1000
MANEDIT
1070
     0
1002
}
1002
{
1000
NOSEL
1070
     0
1002
}
1002
{
1000
BEHIND
1070
     0
1002
}
1002
{
1000
OTHER
1070
     0
1002
}
1002
{
1000
REACTOR
1002
}
1001
GENIUS_GENOBJ-N-CHA_13
1002
{
1000
OWNER
1000
GEN
1002
}
  0
LINE
  5
6DD5
330
6A34
100
AcDbEntity
  8
SK1
100
AcDbLine
 10
-55.00000000000007
 20
12.5
 30
0.0
 11
-56.00000000000007
 21
11.5
 31
0.0
1001
GENIUS_GENFIL_13
1070
     0
1040
1.0
1040
1.0
1040
0.0
1040
0.0
1002
{
1002
}
1001
GENIUS_GENODEF_13
1002
{
1000
HIER
1070
     0
1002
}
1002
{
1000
MANEDIT
1070
     0
1002
}
1002
{
1000
NOSEL
1070
     0
1002
}
1002
{
1000
BEHIND
1070
     0
1002
}
1002
{
1000
OTHER
1070
     0
1002
}
1002
{
1000
REACTOR
1002
}
1001
GENIUS_GENOBJ-N-CHA_13
1002
{
1000
OWNER
1000
GEN
1002
}
  0
LINE
  5
6DD6
330
6A34
100
AcDbEntity
  8
SK1
100
AcDbLine
 10
-54.99999999999999
 20
-12.50000000000002
 30
0.0
 11
-55.0
 21
-6.780000000000029
 31
0.0
  0
LINE
  5
6E0A
330
6A34
100
AcDbEntity
  8
SK4
100
AcDbLine
 10
-0.0000000000000142
 20
0.000000000000199
 30
0.0
 11
-58.42491867849462
 21
-0.0000000000000284
 31
0.0
  0
LINE
  5
6E0E
330
6A34
100
AcDbEntity
  8
SK1
100
AcDbLine
 10
0.0000000000000711
 20
-12.50000000000002
 30
0.0
 11
-54.99999999999999
 21
-12.50000000000002
 31
0.0
  0
LINE
  5
6E0F
330
6A34
100
AcDbEntity
  8
1
100
AcDbLine
 10
-0.0000000000000568
 20
12.49999999999997
 30
0.0
 11
2.0
 21
12.49999999999995
 31
0.0
  0
CIRCLE
  5
6E11
330
6A34
100
AcDbEntity
  8
SK1
100
AcDbCircle
 10
0.0
 20
0.0
 30
0.0
 40
3.200115174948665
  0
LINE
  5
6E12
330
6A34
100
AcDbEntity
  8
SK1
100
AcDbLine
 10
0.0
 20
3.200115174948678
 30
0.0
 11
0.0
 21
-3.200115174948678
 31
0.0
  0
LINE
  5
6E13
330
6A34
100
AcDbEntity
  8
SK1
100
AcDbLine
 10
-3.200115174948678
 20
0.0
 30
0.0
 11
3.200115174948678
 21
0.0
 31
0.0
  0
LINE
  5
6E15
330
6A34
100
AcDbEntity
  8
SK1
100
AcDbLine
 10
-55.00000000000005
 20
6.779999999999972
 30
0.0
 11
-55.00000000000007
 21
12.5
 31
0.0
  0
LINE
  5
6F46
330
6A34
100
AcDbEntity
  8
NOCUT
100
AcDbLine
 10
0.0
 20
0.0000000000001705
 30
0.0
 11
0.0
 21
-12.50000000000002
 31
0.0
  0
LINE
  5
6F47
330
6A34
100
AcDbEntity
  8
NOCUT
100
AcDbLine
 10
0.0
 20
-12.50000000000002
 30
0.0
 11
2.0
 21
-12.50000000000004
 31
0.0
  0
LINE
  5
6F48
330
6A34
100
AcDbEntity
  8
NOCUT
100
AcDbLine
 10
2.0
 20
-12.50000000000004
 30
0.0
 11
2.0
 21
-11.49999999999984
 31
0.0
  0
DIMENSION
  5
740D
330
6A34
100
AcDbEntity
  8
SK2
100
AcDbDimension
  2
*D1
 10
-76.10747231352952
 20
12.5
 30
0.0
 11
-79.17522541557328
 21
-0.4833155496131099
 31
0.0
 70
   160
  1
%%c<>
 53
90.0
  3
AM_ANSI
100
AcDbAlignedDimension
 13
-54.99999999999999
 23
-12.50000000000002
 33
0.0
 14
-55.00000000000007
 24
12.5
 34
0.0
 50
90.0
100
AcDbRotatedDimension
1001
ACAD
1000
DSTYLE
1002
{
1070
    41
1040
2.5
1070
    42
1040
0.0
1070
    44
1040
1.0
1070
   140
1040
3.5
1070
   147
1040
1.0
1070
   271
1070
     0
1002
}
  0
TEXT
  5
74DA
330
6A34
100
AcDbEntity
  8
6
100
AcDbText
 10
56.64282002031638
 20
-27.79867935055978
 30
0.0
 40
3.5
  1
15J1E040017W5R00
100
AcDbText
  0
LINE
  5
7AFE
330
6A34
100
AcDbEntity
  8
SK3
 48
0.3
100
AcDbLine
 10
40.06645491259115
 20
-7.708832964962127
 30
0.0
 11
52.99679480008364
 21
-7.708832964962397
 31
0.0
  0
LINE
  5
7AFF
330
6A34
100
AcDbEntity
  8
1
 48
0.3
100
AcDbLine
 10
40.06645491259109
 20
7.708832964962638
 30
0.0
 11
52.99679480008376
 21
7.708832964962738
 31
0.0
  0
LINE
  5
7B00
330
6A34
100
AcDbEntity
  8
SK3
 48
0.5
100
AcDbLine
 10
37.50000000000005
 20
-11.99999999999938
 30
0.0
 11
52.99679480008393
 21
-11.99999999999985
 31
0.0
  0
LINE
  5
7B01
330
6A34
100
AcDbEntity
  8
CUT
100
AcDbLine
 10
53.5
 20
20.00000000000015
 30
0.0
 11
37.5
 21
20.00000000000015
 31
0.0
  0
LINE
  5
7B02
330
6A34
100
AcDbEntity
  8
1
100
AcDbLine
 10
53.5
 20
20.00000000000015
 30
0.0
 11
37.5
 21
20.00000000000015
 31
0.0
  0
LINE
  5
7B03
330
6A34
100
AcDbEntity
  8
CUT
100
AcDbLine
 10
37.5
 20
12.00000000000015
 30
0.0
 11
53.5
 21
12.00000000000015
 31
0.0
  0
LINE
  5
7B04
330
6A34
100
AcDbEntity
  8
1
100
AcDbLine
 10
37.5
 20
12.00000000000015
 30
0.0
 11
53.5
 21
12.00000000000015
 31
0.0
  0
LINE
  5
7B05
330
6A34
100
AcDbEntity
  8
4
100
AcDbLine
 10
30.03265181562389
 20
0.2434408555250798
 30
0.0
 11
43.39413875297788
 21
8.263636413654666
 31
0.0
  0
LINE
  5
7B06
330
6A34
100
AcDbEntity
  8
1
100
AcDbLine
 10
37.50000000000011
 20
-10.49999999999984
 30
0.0
 11
3.0
 21
-10.49999999999984
 31
0.0
  0
LINE
  5
7B07
330
6A34
100
AcDbEntity
  8
NOCUT
100
AcDbLine
 10
3.0
 20
-10.49999999999984
 30
0.0
 11
37.50000000000011
 21
-10.49999999999984
 31
0.0
  0
LINE
  5
7B08
330
6A34
100
AcDbEntity
  8
1
100
AcDbLine
 10
37.49999999999994
 20
10.50000000000015
 30
0.0
 11
3.0
 21
10.50000000000015
 31
0.0
  0
LINE
  5
7B09
330
6A34
100
AcDbEntity
  8
2
100
AcDbLine
 10
17.95422076669271
 20
-10.49999999999984
 30
0.0
 11
17.95422076669271
 21
10.50000000000015
 31
0.0
  0
ARC
  5
7B0A
330
6A34
100
AcDbEntity
  8
NOCUT
100
AcDbCircle
 10
3.0
 20
-11.49999999999984
 30
0.0
 40
1.0
100
AcDbArc
 50
90.0
 51
180.0
1001
GENIUS_GENODEF_13
1002
{
1000
HIER
1070
     0
1002
}
1002
{
1000
MANEDIT
1070
     0
1002
}
1002
{
1000
NOSEL
1070
     0
1002
}
1002
{
1000
BEHIND
1070
     0
1002
}
1002
{
1000
OTHER
1070
     0
1002
}
1002
{
1000
REACTOR
1002
}
1001
GENIUS_GENOBJ-N-FIL_13
1002
{
1000
OWNER
1000
GEN
1002
}
  0
ARC
  5
7B0B
330
6A34
100
AcDbEntity
  8
1
100
AcDbCircle
 10
3.0
 20
-11.49999999999984
 30
0.0
 40
1.0
100
AcDbArc
 50
90.0
 51
180.0000000000016
1001
GENIUS_GENOBJ-N-FIL_13
1002
{
1000
OWNER
1000
GEN
1002
}
1001
GENIUS_GENODEF_13
1002
{
1000
HIER
1070
     0
1002
}
1002
{
1000
MANEDIT
1070
     0
1002
}
1002
{
1000
NOSEL
1070
     0
1002
}
1002
{
1000
BEHIND
1070
     0
1002
}
1002
{
1000
OTHER
1070
     0
1002
}
1002
{
1000
REACTOR
1002
}
  0
SOLID
  5
7B0C
330
6A34
100
AcDbEntity
  8
2
100
AcDbTrace
 10
17.53755410002605
 20
-12.99999999999984
 30
0.0
 11
18.37088743335937
 21
-12.99999999999984
 31
0.0
 12
17.95422076669271
 22
-10.49999999999984
 32
0.0
 13
17.95422076669271
 23
-10.49999999999984
 33
0.0
  0
ARC
  5
7B0D
330
6A34
100
AcDbEntity
  8
1
100
AcDbCircle
 10
3.0
 20
11.50000000000015
 30
0.0
 40
1.0
100
AcDbArc
 50
179.9999999999983
 51
270.0
1001
GENIUS_GENOBJ-N-FIL_13
1002
{
1000
OWNER
1000
GEN
1002
}
1001
GENIUS_GENODEF_13
1002
{
1000
HIER
1070
     0
1002
}
1002
{
1000
MANEDIT
1070
     0
1002
}
1002
{
1000
NOSEL
1070
     0
1002
}
1002
{
1000
BEHIND
1070
     0
1002
}
1002
{
1000
OTHER
1070
     0
1002
}
1002
{
1000
REACTOR
1002
}
  0
MTEXT
  5
7B0F
330
6A34
100
AcDbEntity
  8
2
100
AcDbMText
 10
15.63653055956339
 20
15.80998509770736
 30
0.0
 40
3.5
 41
0.0
 71
     5
 72
     1
  1
%%c21
 11
0.0000000000000001
 21
1.0
 31
0.0
1001
ACAD
1000
MTEXTBEGIN
1070
    73
1070
     1
1070
    44
1040
1.0
1070
    74
1070
     0
1000
MTEXTEND
  0
LINE
  5
7B10
330
6A34
100
AcDbEntity
  8
2
100
AcDbLine
 10
17.95422076669271
 20
13.00000000000015
 30
0.0
 11
17.95422076669271
 21
15.50000000000015
 31
0.0
  0
SOLID
  5
7B11
330
6A34
100
AcDbEntity
  8
2
100
AcDbTrace
 10
17.53755410002605
 20
13.00000000000015
 30
0.0
 11
18.37088743335937
 21
13.00000000000015
 31
0.0
 12
17.95422076669271
 22
10.50000000000015
 32
0.0
 13
17.95422076669271
 23
10.50000000000015
 33
0.0
  0
ARC
  5
7B12
330
6A34
100
AcDbEntity
  8
1
100
AcDbCircle
 10
37.50000000000003
 20
-12.49999999999957
 30
0.0
 40
0.5
100
AcDbArc
 50
90.0
 51
179.9999999999991
1001
GENIUS_GENOBJ-N-FIL_13
1002
{
1000
OWNER
1000
GEN
1002
}
1001
GENIUS_GENODEF_13
1002
{
1000
HIER
1070
     0
1002
}
1002
{
1000
MANEDIT
1070
     0
1002
}
1002
{
1000
NOSEL
1070
     0
1002
}
1002
{
1000
BEHIND
1070
     0
1002
}
1002
{
1000
OTHER
1070
     0
1002
}
1002
{
1000
REACTOR
1002
}
  0
ARC
  5
7B13
330
6A34
100
AcDbEntity
  8
SK3
 48
0.3
100
AcDbCircle
 10
40.06645491259095
 20
-15.70883296496212
 30
0.0
 40
8.0
100
AcDbArc
 50
89.99999999999836
 51
139.375100347851
1001
GENIUS_GENOBJ-N-FIL_13
1002
{
1000
OWNER
1000
GEN
1002
}
1001
GENIUS_GENODEF_13
1002
{
1000
HIER
1070
     0
1002
}
1002
{
1000
MANEDIT
1070
     0
1002
}
1002
{
1000
NOSEL
1070
     0
1002
}
1002
{
1000
BEHIND
1070
     0
1002
}
1002
{
1000
OTHER
1070
     0
1002
}
1002
{
1000
REACTOR
1002
}
  0
LINE
  5
7B14
330
6A34
100
AcDbEntity
  8
CUT
100
AcDbLine
 10
37.0
 20
19.50000000000015
 30
0.0
 11
37.0
 21
12.50000000000015
 31
0.0
  0
LINE
  5
7B15
330
6A34
100
AcDbEntity
  8
1
100
AcDbLine
 10
37.0
 20
19.50000000000015
 30
0.0
 11
37.0
 21
12.50000000000015
 31
0.0
  0
ARC
  5
7B16
330
6A34
100
AcDbEntity
  8
1
 48
0.3
100
AcDbCircle
 10
40.06645491259098
 20
15.70883296496264
 30
0.0
 40
8.0
100
AcDbArc
 50
220.6248996521472
 51
270.0
1001
GENIUS_GENOBJ-N-FIL_13
1002
{
1000
OWNER
1000
GEN
1002
}
1001
GENIUS_GENODEF_13
1002
{
1000
HIER
1070
     0
1002
}
1002
{
1000
MANEDIT
1070
     0
1002
}
1002
{
1000
NOSEL
1070
     0
1002
}
1002
{
1000
BEHIND
1070
     0
1002
}
1002
{
1000
OTHER
1070
     0
1002
}
1002
{
1000
REACTOR
1002
}
  0
LINE
  5
7B17
330
6A34
100
AcDbEntity
  8
1
100
AcDbLine
 10
37.49999999999994
 20
10.50000000000015
 30
0.0
 11
37.5
 21
12.00000000000015
 31
0.0
  0
ARC
  5
7B18
330
6A34
100
AcDbEntity
  8
CUT
100
AcDbCircle
 10
37.5
 20
12.50000000000015
 30
0.0
 40
0.5
100
AcDbArc
 50
180.0
 51
270.0
1001
GENIUS_GENOBJ-N-FIL_13
1002
{
1000
OWNER
1000
GEN
1002
}
1001
GENIUS_GENODEF_13
1002
{
1000
HIER
1070
     0
1002
}
1002
{
1000
MANEDIT
1070
     0
1002
}
1002
{
1000
NOSEL
1070
     0
1002
}
1002
{
1000
BEHIND
1070
     0
1002
}
1002
{
1000
OTHER
1070
     0
1002
}
1002
{
1000
REACTOR
1002
}
  0
ARC
  5
7B19
330
6A34
100
AcDbEntity
  8
1
100
AcDbCircle
 10
37.5
 20
12.50000000000015
 30
0.0
 40
0.5
100
AcDbArc
 50
180.0
 51
270.0
1001
GENIUS_GENOBJ-N-FIL_13
1002
{
1000
OWNER
1000
GEN
1002
}
1001
GENIUS_GENODEF_13
1002
{
1000
HIER
1070
     0
1002
}
1002
{
1000
MANEDIT
1070
     0
1002
}
1002
{
1000
NOSEL
1070
     0
1002
}
1002
{
1000
BEHIND
1070
     0
1002
}
1002
{
1000
OTHER
1070
     0
1002
}
1002
{
1000
REACTOR
1002
}
  0
ARC
  5
7B1A
330
6A34
100
AcDbEntity
  8
CUT
100
AcDbCircle
 10
37.5
 20
19.50000000000015
 30
0.0
 40
0.5
100
AcDbArc
 50
90.0
 51
180.0
1001
GENIUS_GENOBJ-N-FIL_13
1002
{
1000
OWNER
1000
GEN
1002
}
1001
GENIUS_GENODEF_13
1002
{
1000
HIER
1070
     0
1002
}
1002
{
1000
MANEDIT
1070
     0
1002
}
1002
{
1000
NOSEL
1070
     0
1002
}
1002
{
1000
BEHIND
1070
     0
1002
}
1002
{
1000
OTHER
1070
     0
1002
}
1002
{
1000
REACTOR
1002
}
  0
ARC
  5
7B1B
330
6A34
100
AcDbEntity
  8
1
100
AcDbCircle
 10
37.5
 20
19.50000000000015
 30
0.0
 40
0.5
100
AcDbArc
 50
90.0
 51
180.0
1001
GENIUS_GENOBJ-N-FIL_13
1002
{
1000
OWNER
1000
GEN
1002
}
1001
GENIUS_GENODEF_13
1002
{
1000
HIER
1070
     0
1002
}
1002
{
1000
MANEDIT
1070
     0
1002
}
1002
{
1000
NOSEL
1070
     0
1002
}
1002
{
1000
BEHIND
1070
     0
1002
}
1002
{
1000
OTHER
1070
     0
1002
}
1002
{
1000
REACTOR
1002
}
  0
ARC
  5
7B1C
330
6A34
100
AcDbEntity
  8
SK3
 48
0.5
100
AcDbCircle
 10
46.50000000000005
 20
-12.49999999999977
 30
0.0
 40
0.5
100
AcDbArc
 50
90.0
 51
179.9999999999991
1001
GENIUS_GENOBJ-N-FIL_13
1002
{
1000
OWNER
1000
GEN
1002
}
1001
GENIUS_GENODEF_13
1002
{
1000
HIER
1070
     0
1002
}
1002
{
1000
MANEDIT
1070
     0
1002
}
1002
{
1000
NOSEL
1070
     0
1002
}
1002
{
1000
BEHIND
1070
     0
1002
}
1002
{
1000
OTHER
1070
     0
1002
}
1002
{
1000
REACTOR
1002
}
  0
ARC
  5
7B1D
330
6A34
100
AcDbEntity
  8
1
100
AcDbCircle
 10
53.50000000000005
 20
-12.49999999999985
 30
0.0
 40
0.5
100
AcDbArc
 50
359.9999999999992
 51
90.0
1001
GENIUS_GENODEF_13
1002
{
1000
HIER
1070
     0
1002
}
1002
{
1000
MANEDIT
1070
     0
1002
}
1002
{
1000
NOSEL
1070
     0
1002
}
1002
{
1000
BEHIND
1070
     0
1002
}
1002
{
1000
OTHER
1070
     0
1002
}
1002
{
1000
REACTOR
1002
}
1001
GENIUS_GENOBJ-N-FIL_13
1002
{
1000
OWNER
1000
GEN
1002
}
  0
LINE
  5
7B1E
330
6A34
100
AcDbEntity
  8
1
100
AcDbLine
 10
52.99679480008393
 20
-11.99999999999985
 30
0.0
 11
53.50000000000005
 21
-11.99999999999985
 31
0.0
  0
CIRCLE
  5
7B1F
330
6A34
100
AcDbEntity
  8
1
100
AcDbCircle
 10
50.0
 20
16.00000000000015
 30
0.0
 40
2.298066995929217
  0
LINE
  5
7B20
330
6A34
100
AcDbEntity
  8
1
100
AcDbLine
 10
45.99999999999996
 20
19.50000000000015
 30
0.0
 11
45.99999999999996
 21
12.50000000000015
 31
0.0
  0
ARC
  5
7B21
330
6A34
100
AcDbEntity
  8
1
100
AcDbCircle
 10
46.49999999999997
 20
12.50000000000015
 30
0.0
 40
0.5
100
AcDbArc
 50
180.0
 51
270.0
1001
GENIUS_GENOBJ-N-FIL_13
1002
{
1000
OWNER
1000
GEN
1002
}
1001
GENIUS_GENODEF_13
1002
{
1000
HIER
1070
     0
1002
}
1002
{
1000
MANEDIT
1070
     0
1002
}
1002
{
1000
NOSEL
1070
     0
1002
}
1002
{
1000
BEHIND
1070
     0
1002
}
1002
{
1000
OTHER
1070
     0
1002
}
1002
{
1000
REACTOR
1002
}
  0
ARC
  5
7B22
330
6A34
100
AcDbEntity
  8
1
100
AcDbCircle
 10
46.49999999999997
 20
19.50000000000015
 30
0.0
 40
0.5
100
AcDbArc
 50
90.0
 51
180.0
1001
GENIUS_GENOBJ-N-FIL_13
1002
{
1000
OWNER
1000
GEN
1002
}
1001
GENIUS_GENODEF_13
1002
{
1000
HIER
1070
     0
1002
}
1002
{
1000
MANEDIT
1070
     0
1002
}
1002
{
1000
NOSEL
1070
     0
1002
}
1002
{
1000
BEHIND
1070
     0
1002
}
1002
{
1000
OTHER
1070
     0
1002
}
1002
{
1000
REACTOR
1002
}
  0
LINE
  5
7B23
330
6A34
100
AcDbEntity
  8
CUT
100
AcDbLine
 10
54.0
 20
12.50000000000015
 30
0.0
 11
54.0
 21
19.50000000000015
 31
0.0
  0
LINE
  5
7B24
330
6A34
100
AcDbEntity
  8
1
100
AcDbLine
 10
54.0
 20
12.50000000000015
 30
0.0
 11
54.0
 21
19.50000000000015
 31
0.0
  0
ARC
  5
7B25
330
6A34
100
AcDbEntity
  8
CUT
100
AcDbCircle
 10
53.5
 20
12.50000000000015
 30
0.0
 40
0.5
100
AcDbArc
 50
270.0
 51
0.0
1001
GENIUS_GENODEF_13
1002
{
1000
HIER
1070
     0
1002
}
1002
{
1000
MANEDIT
1070
     0
1002
}
1002
{
1000
NOSEL
1070
     0
1002
}
1002
{
1000
BEHIND
1070
     0
1002
}
1002
{
1000
OTHER
1070
     0
1002
}
1002
{
1000
REACTOR
1002
}
1001
GENIUS_GENOBJ-N-FIL_13
1002
{
1000
OWNER
1000
GEN
1002
}
  0
ARC
  5
7B26
330
6A34
100
AcDbEntity
  8
1
100
AcDbCircle
 10
53.5
 20
12.50000000000015
 30
0.0
 40
0.5
100
AcDbArc
 50
270.0
 51
0.0
1001
GENIUS_GENODEF_13
1002
{
1000
HIER
1070
     0
1002
}
1002
{
1000
MANEDIT
1070
     0
1002
}
1002
{
1000
NOSEL
1070
     0
1002
}
1002
{
1000
BEHIND
1070
     0
1002
}
1002
{
1000
OTHER
1070
     0
1002
}
1002
{
1000
REACTOR
1002
}
1001
GENIUS_GENOBJ-N-FIL_13
1002
{
1000
OWNER
1000
GEN
1002
}
  0
ARC
  5
7B27
330
6A34
100
AcDbEntity
  8
CUT
100
AcDbCircle
 10
53.5
 20
19.50000000000015
 30
0.0
 40
0.5
100
AcDbArc
 50
0.0
 51
90.0
1001
GENIUS_GENODEF_13
1002
{
1000
HIER
1070
     0
1002
}
1002
{
1000
MANEDIT
1070
     0
1002
}
1002
{
1000
NOSEL
1070
     0
1002
}
1002
{
1000
BEHIND
1070
     0
1002
}
1002
{
1000
OTHER
1070
     0
1002
}
1002
{
1000
REACTOR
1002
}
1001
GENIUS_GENOBJ-N-FIL_13
1002
{
1000
OWNER
1000
GEN
1002
}
  0
ARC
  5
7B28
330
6A34
100
AcDbEntity
  8
1
100
AcDbCircle
 10
53.5
 20
19.50000000000015
 30
0.0
 40
0.5
100
AcDbArc
 50
0.0
 51
90.0
1001
GENIUS_GENODEF_13
1002
{
1000
HIER
1070
     0
1002
}
1002
{
1000
MANEDIT
1070
     0
1002
}
1002
{
1000
NOSEL
1070
     0
1002
}
1002
{
1000
BEHIND
1070
     0
1002
}
1002
{
1000
OTHER
1070
     0
1002
}
1002
{
1000
REACTOR
1002
}
1001
GENIUS_GENOBJ-N-FIL_13
1002
{
1000
OWNER
1000
GEN
1002
}
  0
LINE
  5
7B29
330
6A34
100
AcDbEntity
  8
SK1
100
AcDbLine
 10
54.0
 20
20.46376936984897
 30
0.0
 11
54.0
 21
19.53623063015133
 31
0.0
  0
LINE
  5
7B2A
330
6A34
100
AcDbEntity
  8
SK1
100
AcDbLine
 10
53.53623063015118
 20
20.00000000000015
 30
0.0
 11
54.46376936984882
 21
20.00000000000015
 31
0.0
  0
CIRCLE
  5
7B2B
330
6A34
100
AcDbEntity
  8
SK1
100
AcDbCircle
 10
54.0
 20
20.00000000000015
 30
0.0
 40
0.4637693698488208
  0
LINE
  5
7B2C
330
6A34
100
AcDbEntity
  8
NOCUT
100
AcDbLine
 10
37.50000000000011
 20
-19.27113434341632
 30
0.0
 11
52.99679480008382
 21
-19.27113434341632
 31
0.0
  0
LINE
  5
7B2D
330
6A34
100
AcDbEntity
  8
1
100
AcDbLine
 10
52.99679480008382
 20
-19.27113434341632
 30
0.0
 11
37.50000000000011
 21
-19.27113434341632
 31
0.0
  0
LINE
  5
7B2E
330
6A34
100
AcDbEntity
  8
1
100
AcDbLine
 10
53.49999999999994
 20
-19.99999999999987
 30
0.0
 11
37.49999999999994
 21
-19.99999999999943
 31
0.0
  0
LINE
  5
7B2F
330
6A34
100
AcDbEntity
  8
1
100
AcDbLine
 10
37.50000000000011
 20
-19.27113434341632
 30
0.0
 11
37.50000000000011
 21
8.131675900361273
 31
0.0
  0
LINE
  5
7B30
330
6A34
100
AcDbEntity
  8
NOCUT
100
AcDbLine
 10
37.50000000000011
 20
-10.49999999999984
 30
0.0
 11
37.50000000000011
 21
-19.27113434341632
 31
0.0
  0
LINE
  5
7B31
330
6A34
100
AcDbEntity
  8
1
100
AcDbLine
 10
36.99999999999997
 20
-19.49999999999957
 30
0.0
 11
37.00000000000002
 21
-12.49999999999957
 31
0.0
  0
ARC
  5
7B32
330
6A34
100
AcDbEntity
  8
1
100
AcDbCircle
 10
37.49999999999997
 20
-19.49999999999957
 30
0.0
 40
0.5
100
AcDbArc
 50
179.9999999999991
 51
270.0
1001
GENIUS_GENOBJ-N-FIL_13
1002
{
1000
OWNER
1000
GEN
1002
}
1001
GENIUS_GENODEF_13
1002
{
1000
HIER
1070
     0
1002
}
1002
{
1000
MANEDIT
1070
     0
1002
}
1002
{
1000
NOSEL
1070
     0
1002
}
1002
{
1000
BEHIND
1070
     0
1002
}
1002
{
1000
OTHER
1070
     0
1002
}
1002
{
1000
REACTOR
1002
}
  0
DIMENSION
  5
7B33
330
6A34
100
AcDbEntity
  8
2
100
AcDbDimension
  2
*D2
 10
79.71214887906057
 20
-19.99999999999985
 30
0.0
 11
76.46214887906058
 21
0.0000000000001625
 31
0.0
 70
    32
  1
%%c<>
  3
AM_DIN
100
AcDbAlignedDimension
 13
54.0
 23
20.00000000000015
 33
0.0
 14
54.00000000000005
 24
-19.99999999999984
 34
0.0
 50
90.0
100
AcDbRotatedDimension
  0
TEXT
  5
7B34
330
6A34
100
AcDbEntity
  8
6
100
AcDbText
 10
54.83035167111324
 20
23.75314892670934
 30
0.0
 40
2.5
  1
SDMT080305N
100
AcDbText
  0
LINE
  5
7B35
330
6A34
100
AcDbEntity
  8
1
100
AcDbLine
 10
52.99679480008382
 20
12.00000000000015
 30
0.0
 11
52.99679480008382
 21
-19.27113434341632
 31
0.0
  0
LINE
  5
7B36
330
6A34
100
AcDbEntity
  8
SK3
 48
0.5
100
AcDbLine
 10
46.0
 20
-19.27113434341632
 30
0.0
 11
46.00000000000005
 21
-12.49999999999977
 31
0.0
  0
LINE
  5
7B37
330
6A34
100
AcDbEntity
  8
1
100
AcDbLine
 10
45.99999999999996
 20
-19.49999999999977
 30
0.0
 11
46.0
 21
-19.27113434341717
 31
0.0
  0
ARC
  5
7B38
330
6A34
100
AcDbEntity
  8
1
100
AcDbCircle
 10
46.49999999999997
 20
-19.49999999999978
 30
0.0
 40
0.5
100
AcDbArc
 50
179.9999999999991
 51
270.0
1001
GENIUS_GENOBJ-N-FIL_13
1002
{
1000
OWNER
1000
GEN
1002
}
1001
GENIUS_GENODEF_13
1002
{
1000
HIER
1070
     0
1002
}
1002
{
1000
MANEDIT
1070
     0
1002
}
1002
{
1000
NOSEL
1070
     0
1002
}
1002
{
1000
BEHIND
1070
     0
1002
}
1002
{
1000
OTHER
1070
     0
1002
}
1002
{
1000
REACTOR
1002
}
  0
LINE
  5
7B39
330
6A34
100
AcDbEntity
  8
NOCUT
100
AcDbLine
 10
52.99679480008382
 20
-19.27113434341632
 30
0.0
 11
52.99679480008382
 21
0.0000000000001705
 31
0.0
  0
LINE
  5
7B3A
330
6A34
100
AcDbEntity
  8
1
100
AcDbLine
 10
54.00000000000005
 20
-12.49999999999987
 30
0.0
 11
53.99999999999995
 21
-19.49999999999987
 31
0.0
  0
ARC
  5
7B3B
330
6A34
100
AcDbEntity
  8
1
100
AcDbCircle
 10
53.49999999999994
 20
-19.49999999999987
 30
0.0
 40
0.5
100
AcDbArc
 50
270.0
 51
359.9999999999992
1001
GENIUS_GENODEF_13
1002
{
1000
HIER
1070
     0
1002
}
1002
{
1000
MANEDIT
1070
     0
1002
}
1002
{
1000
NOSEL
1070
     0
1002
}
1002
{
1000
BEHIND
1070
     0
1002
}
1002
{
1000
OTHER
1070
     0
1002
}
1002
{
1000
REACTOR
1002
}
1001
GENIUS_GENOBJ-N-FIL_13
1002
{
1000
OWNER
1000
GEN
1002
}
  0
LINE
  5
7B3C
330
6A34
100
AcDbEntity
  8
SK1
100
AcDbLine
 10
54.00000000000005
 20
-20.46376936984866
 30
0.0
 11
54.00000000000005
 21
-19.53623063015102
 31
0.0
  0
LINE
  5
7B3D
330
6A34
100
AcDbEntity
  8
SK1
100
AcDbLine
 10
53.53623063015124
 20
-19.99999999999984
 30
0.0
 11
54.46376936984887
 21
-19.99999999999984
 31
0.0
  0
CIRCLE
  5
7B3E
330
6A34
100
AcDbEntity
  8
SK1
100
AcDbCircle
 10
54.00000000000005
 20
-19.99999999999984
 30
0.0
 40
0.4637693698488208
  0
TEXT
  5
7B3F
330
6A34
100
AcDbEntity
  8
6
100
AcDbText
 10
85.96115452489256
 20
-13.88074729894987
 30
0.0
 40
3.5
  1
Z=6 / Zeff.=2
 50
90.0
100
AcDbText
  0
DIMENSION
  5
7B40
330
6A34
100
AcDbEntity
  8
2
100
AcDbDimension
  2
*D3
 10
37.0
 20
45.00000000000014
 30
0.0
 11
45.49999999999999
 21
48.25000000000014
 31
0.0
 70
    32
  3
AM_DIN
100
AcDbAlignedDimension
 13
54.0
 23
20.00000000000015
 33
0.0
 14
37.0
 24
19.50000000000015
 34
0.0
100
AcDbRotatedDimension
  0
DIMENSION
  5
7B41
330
6A34
100
AcDbEntity
  8
2
100
AcDbDimension
  2
*D4
 10
4.000000000000002
 20
60.00000000000014
 30
0.0
 11
29.0
 21
63.25000000000014
 31
0.0
 70
    32
  3
AM_DIN
100
AcDbAlignedDimension
 13
54.0
 23
20.00000000000015
 33
0.0
 14
4.0
 24
10.50000000000015
 34
0.0
100
AcDbRotatedDimension
  0
LINE
  5
7B42
330
6A34
100
AcDbEntity
  8
4
100
AcDbLine
 10
55.35304438512685
 20
0.0000000000001563
 30
0.0
 11
0.0
 21
0.000000000000429
 31
0.0
  0
LINE
  5
7B43
330
6A34
100
AcDbEntity
  8
NOCUT
100
AcDbLine
 10
0.0
 20
0.0000000000001705
 30
0.0
 11
52.99679480008382
 21
0.0000000000001705
 31
0.0
  0
DIMENSION
  5
7BDC
330
6A34
100
AcDbEntity
  8
SK2
100
AcDbDimension
  2
*D5
 10
-55.99999999999998
 20
-44.44107612479183
 30
0.0
 11
-0.9999999999999642
 21
-41.19107612479183
 31
0.0
 70
    32
  3
AM_DIN
100
AcDbAlignedDimension
 13
54.00000000000005
 23
-19.99999999999984
 33
0.0
 14
-55.99999999999998
 24
-11.50000000000002
 34
0.0
 50
0.0000000000001132
100
AcDbRotatedDimension
  0
DIMENSION
  5
7C2D
330
6A34
100
AcDbEntity
  8
2
100
AcDbDimension
  2
*D6
 10
-0.000000000000053
 20
75.00000000000017
 30
0.0
 11
26.99999999999997
 21
78.25000000000017
 31
0.0
 70
    32
  3
AM_DIN
100
AcDbAlignedDimension
 13
54.0
 23
20.00000000000015
 33
0.0
 14
-0.0000000000000568
 24
12.49999999999997
 34
0.0
 50
0.0000000000000114
100
AcDbRotatedDimension
  0
ENDSEC
  0
SECTION
  2
OBJECTS
  0
DICTIONARY
  5
6A22
330
0
100
AcDbDictionary
  3
ACAD_GROUP
350
6A23
  3
ACAD_LAYOUT
350
6A2F
  3
ACAD_MLINESTYLE
350
6A2C
  3
ACAD_PLOTSETTINGS
350
6A2E
  3
ACAD_PLOTSTYLENAME
350
6A24
  3
ACDBHEADERROUNDTRIPXREC
350
7C8A
  3
ACDBVARIABLEDICTIONARY
350
6B78
  3
ACMDICTIONARY
350
6B39
  3
AMG
350
6B22
  3
AMGSNAPSETTINGS
350
6B59
  3
DWGPROPS
350
7C86
  0
DICTIONARY
  5
6B62
330
6A34
100
AcDbDictionary
280
     1
  3
ACAD_INDEX
360
6B63
  3
ACAD_LAYOUTSELFREF
360
7CAD
  0
DICTIONARY
  5
7CAB
330
6A30
100
AcDbDictionary
280
     1
  3
ACAD_LAYOUTSELFREF
360
7CAC
  0
DICTIONARY
  5
6A23
102
{ACAD_REACTORS
330
6A22
102
}
330
6A22
100
AcDbDictionary
  0
DICTIONARY
  5
6A2F
102
{ACAD_REACTORS
330
6A22
102
}
330
6A22
100
AcDbDictionary
  0
DICTIONARY
  5
6A2C
102
{ACAD_REACTORS
330
6A22
102
}
330
6A22
100
AcDbDictionary
  3
STANDARD
350
6A2D
  0
DICTIONARY
  5
6A2E
102
{ACAD_REACTORS
330
6A22
102
}
330
6A22
100
AcDbDictionary
  0
ACDBDICTIONARYWDFLT
  5
6A24
102
{ACAD_REACTORS
330
6A22
102
}
330
6A22
100
AcDbDictionary
281
     1
  3
Normal
350
6A25
100
AcDbDictionaryWithDefault
340
6A25
  0
DICTIONARY
  5
7C8A
102
{ACAD_REACTORS
330
6A22
102
}
330
6A22
100
AcDbDictionary
  3
CEPSNTYPE
350
7C94
  3
DIMSTYLEDATA
350
7C98
  3
FINGERPRINTGUID
350
7C95
  3
HYPERLINKBASE
350
7C8D
  3
INSUNITS
350
7C93
  3
LAYOUTDICT
350
7C8F
  3
LWETCUNION
350
7C92
  3
PLOTSETDICT
350
7C90
  3
PLOTSTYLNAMDICT
350
7C91
  3
PSVPSCALE
350
7C97
  3
PUCSBASE
350
7C9B
  3
PUCSORGBACK
350
7CA1
  3
PUCSORGBOTTOM
350
7C9D
  3
PUCSORGFRONT
350
7CA0
  3
PUCSORGLEFT
350
7C9E
  3
PUCSORGRIGHT
350
7C9F
  3
PUCSORGTOP
350
7C9C
  3
PUCSORTHOREF
350
7C99
  3
PUCSORTHOVIEW
350
7C9A
  3
STYLESHEET
350
7C8E
  3
TSTACKALIGN
350
7C8B
  3
TSTACKSIZE
350
7C8C
  3
UCSBASE
350
7CA4
  3
UCSORGBACK
350
7CAA
  3
UCSORGBOTTOM
350
7CA6
  3
UCSORGFRONT
350
7CA9
  3
UCSORGLEFT
350
7CA7
  3
UCSORGRIGHT
350
7CA8
  3
UCSORGTOP
350
7CA5
  3
UCSORTHOREF
350
7CA2
  3
UCSORTHOVIEW
350
7CA3
  3
VERSIONGUID
350
7C96
  0
DICTIONARY
  5
6B78
102
{ACAD_REACTORS
330
6A22
102
}
330
6A22
100
AcDbDictionary
  3
DIMASSOC
350
6B7A
  3
INDEXCTL
350
6B79
  0
DICTIONARY
  5
6B39
102
{ACAD_REACTORS
330
6A22
102
}
330
6A22
100
AcDbDictionary
  3
ACMSTDDICTIONARY
350
6B3F
  0
DICTIONARY
  5
6B22
102
{ACAD_REACTORS
330
6A22
102
}
330
6A22
100
AcDbDictionary
  3
ACMGSETTINGS
350
6B23
  0
DICTIONARY
  5
6B59
102
{ACAD_REACTORS
330
6A22
102
}
330
6A22
100
AcDbDictionary
  0
XRECORD
  5
7C86
102
{ACAD_REACTORS
330
6A22
102
}
330
6A22
100
AcDbXrecord
  1
DWGPROPS COOKIE
  2

  3

  4

  6

  7

  8

  9

300
AmdtFileType=84
301
=
302
=
303
=
304
=
305
=
306
=
307
=
308
=
309
=
 40
0.1250545486111111
 41
2453447.471737477
 42
2453612.620301655
  1

 90
        1
  0
DICTIONARY
  5
6B63
102
{ACAD_REACTORS
330
6B62
102
}
330
6B62
100
AcDbDictionary
  3
*A1
350
6B64
  0
XRECORD
  5
7CAD
102
{ACAD_REACTORS
330
6B62
102
}
330
6B62
100
AcDbXrecord
340
6A34
  0
XRECORD
  5
7CAC
102
{ACAD_REACTORS
330
7CAB
102
}
330
7CAB
100
AcDbXrecord
340
6A30
  0
MLINESTYLE
  5
6A2D
102
{ACAD_REACTORS
330
6A2C
102
}
330
6A2C
100
AcDbMlineStyle
  2
STANDARD
 70
     0
  3

 62
   256
 51
90.0
 52
90.0
 71
     2
 49
0.5
 62
   256
  6
BYLAYER
 49
-0.5
 62
   256
  6
BYLAYER
  0
ACDBPLACEHOLDER
  5
6A25
102
{ACAD_REACTORS
330
6A24
102
}
330
6A24
100
AcDbPlaceHolder
280
     0
  0
XRECORD
  5
7C94
102
{ACAD_REACTORS
330
7C8A
102
}
330
7C8A
100
AcDbXrecord
 90
        0
  0
XRECORD
  5
7C98
102
{ACAD_REACTORS
330
7C8A
102
}
330
7C8A
100
AcDbXrecord
1000
DSTYLE
1002
{
1070
   279
 70
     2
1002
}
  0
XRECORD
  5
7C95
102
{ACAD_REACTORS
330
7C8A
102
}
330
7C8A
100
AcDbXrecord
  1
{5E8163B8-4D8F-4110-B677-A6458ADDE735}
  0
XRECORD
  5
7C8D
102
{ACAD_REACTORS
330
7C8A
102
}
330
7C8A
100
AcDbXrecord
  1

  0
XRECORD
  5
7C93
102
{ACAD_REACTORS
330
7C8A
102
}
330
7C8A
100
AcDbXrecord
 90
        4
  0
XRECORD
  5
7C8F
102
{ACAD_REACTORS
330
7C8A
102
}
330
7C8A
100
AcDbXrecord
340
6A2F
  0
XRECORD
  5
7C92
102
{ACAD_REACTORS
330
7C8A
102
}
330
7C8A
100
AcDbXrecord
 90
    10781
  0
XRECORD
  5
7C90
102
{ACAD_REACTORS
330
7C8A
102
}
330
7C8A
100
AcDbXrecord
340
6A2E
  0
XRECORD
  5
7C91
102
{ACAD_REACTORS
330
7C8A
102
}
330
7C8A
100
AcDbXrecord
340
6A24
  0
XRECORD
  5
7C97
102
{ACAD_REACTORS
330
7C8A
102
}
330
7C8A
100
AcDbXrecord
 40
0.0
  0
XRECORD
  5
7C9B
102
{ACAD_REACTORS
330
7C8A
102
}
330
7C8A
100
AcDbXrecord
340
0
  0
XRECORD
  5
7CA1
102
{ACAD_REACTORS
330
7C8A
102
}
330
7C8A
100
AcDbXrecord
 10
0.0
 20
0.0
 30
0.0
  0
XRECORD
  5
7C9D
102
{ACAD_REACTORS
330
7C8A
102
}
330
7C8A
100
AcDbXrecord
 10
0.0
 20
0.0
 30
0.0
  0
XRECORD
  5
7CA0
102
{ACAD_REACTORS
330
7C8A
102
}
330
7C8A
100
AcDbXrecord
 10
0.0
 20
0.0
 30
0.0
  0
XRECORD
  5
7C9E
102
{ACAD_REACTORS
330
7C8A
102
}
330
7C8A
100
AcDbXrecord
 10
0.0
 20
0.0
 30
0.0
  0
XRECORD
  5
7C9F
102
{ACAD_REACTORS
330
7C8A
102
}
330
7C8A
100
AcDbXrecord
 10
0.0
 20
0.0
 30
0.0
  0
XRECORD
  5
7C9C
102
{ACAD_REACTORS
330
7C8A
102
}
330
7C8A
100
AcDbXrecord
 10
0.0
 20
0.0
 30
0.0
  0
XRECORD
  5
7C99
102
{ACAD_REACTORS
330
7C8A
102
}
330
7C8A
100
AcDbXrecord
340
0
  0
XRECORD
  5
7C9A
102
{ACAD_REACTORS
330
7C8A
102
}
330
7C8A
100
AcDbXrecord
 70
     0
  0
XRECORD
  5
7C8E
102
{ACAD_REACTORS
330
7C8A
102
}
330
7C8A
100
AcDbXrecord
  1

  0
XRECORD
  5
7C8B
102
{ACAD_REACTORS
330
7C8A
102
}
330
7C8A
100
AcDbXrecord
 90
        1
  0
XRECORD
  5
7C8C
102
{ACAD_REACTORS
330
7C8A
102
}
330
7C8A
100
AcDbXrecord
 90
       70
  0
XRECORD
  5
7CA4
102
{ACAD_REACTORS
330
7C8A
102
}
330
7C8A
100
AcDbXrecord
340
0
  0
XRECORD
  5
7CAA
102
{ACAD_REACTORS
330
7C8A
102
}
330
7C8A
100
AcDbXrecord
 10
0.0
 20
0.0
 30
0.0
  0
XRECORD
  5
7CA6
102
{ACAD_REACTORS
330
7C8A
102
}
330
7C8A
100
AcDbXrecord
 10
0.0
 20
0.0
 30
0.0
  0
XRECORD
  5
7CA9
102
{ACAD_REACTORS
330
7C8A
102
}
330
7C8A
100
AcDbXrecord
 10
0.0
 20
0.0
 30
0.0
  0
XRECORD
  5
7CA7
102
{ACAD_REACTORS
330
7C8A
102
}
330
7C8A
100
AcDbXrecord
 10
0.0
 20
0.0
 30
0.0
  0
XRECORD
  5
7CA8
102
{ACAD_REACTORS
330
7C8A
102
}
330
7C8A
100
AcDbXrecord
 10
0.0
 20
0.0
 30
0.0
  0
XRECORD
  5
7CA5
102
{ACAD_REACTORS
330
7C8A
102
}
330
7C8A
100
AcDbXrecord
 10
0.0
 20
0.0
 30
0.0
  0
XRECORD
  5
7CA2
102
{ACAD_REACTORS
330
7C8A
102
}
330
7C8A
100
AcDbXrecord
340
0
  0
XRECORD
  5
7CA3
102
{ACAD_REACTORS
330
7C8A
102
}
330
7C8A
100
AcDbXrecord
 70
     0
  0
XRECORD
  5
7C96
102
{ACAD_REACTORS
330
7C8A
102
}
330
7C8A
100
AcDbXrecord
  1
{EE92C8F4-836B-4699-B8F7-7AB3F4F315BA}
  0
DICTIONARYVAR
  5
6B7A
102
{ACAD_REACTORS
330
6B78
102
}
330
6B78
100
DictionaryVariables
280
     0
  1
1
  0
DICTIONARYVAR
  5
6B79
102
{ACAD_REACTORS
330
6B78
102
}
330
6B78
100
DictionaryVariables
280
     0
  1
1
  0
DICTIONARY
  5
6B3F
102
{ACAD_REACTORS
330
6B39
102
}
330
6B39
100
AcDbDictionary
  0
DICTIONARY
  5
6B23
102
{ACAD_REACTORS
330
6B22
102
}
330
6B22
100
AcDbDictionary
  3
DWGSETTINGS
350
6B24
  0
LAYER_INDEX
  5
6B64
102
{ACAD_REACTORS
330
6B63
102
}
330
6B63
100
AcDbIndex
 40
2453612.629232673
100
AcDbLayerIndex
  8
0
360
6B65
 90
        0
  8
DEFPOINTS
360
6B66
 90
        0
  8
1
360
6B67
 90
       35
  8
2
360
6B68
 90
        9
  8
4
360
6B69
 90
        2
  8
6
360
6B6A
 90
        3
  8
SK1
360
6B6B
 90
       26
  8
SK2
360
6B6C
 90
        2
  8
SK3
360
6B6D
 90
        5
  8
SK4
360
6B6E
 90
        1
  8
CUT
360
6B6F
 90
        8
  8
NOCUT
360
6B70
 90
        9
  0
XRECORD
  5
6B24
102
{ACAD_REACTORS
330
6B23
102
}
330
6B23
100
AcDbXrecord
  1
VERSION
140
15.0
  1
PRODUCT
  2
AutoCAD Mechanical 2000
  0
IDBUFFER
  5
6B65
330
0
100
AcDbIdBuffer
  0
IDBUFFER
  5
6B66
330
0
100
AcDbIdBuffer
  0
IDBUFFER
  5
6B67
330
0
100
AcDbIdBuffer
330
6CF8
330
6CF9
330
6E0F
330
7AFF
330
7B02
330
7B04
330
7B06
330
7B08
330
7B0B
330
7B0D
330
7B12
330
7B15
330
7B16
330
7B17
330
7B19
330
7B1B
330
7B1D
330
7B1E
330
7B1F
330
7B20
330
7B21
330
7B22
330
7B24
330
7B26
330
7B28
330
7B2D
330
7B2E
330
7B2F
330
7B31
330
7B32
330
7B35
330
7B37
330
7B38
330
7B3A
330
7B3B
  0
IDBUFFER
  5
6B68
330
0
100
AcDbIdBuffer
330
7B09
330
7B0C
330
7B0F
330
7B10
330
7B11
330
7B33
330
7B40
330
7B41
330
7C2D
  0
IDBUFFER
  5
6B69
330
0
100
AcDbIdBuffer
330
7B05
330
7B42
  0
IDBUFFER
  5
6B6A
330
0
100
AcDbIdBuffer
330
74DA
330
7B34
330
7B3F
  0
IDBUFFER
  5
6B6B
330
0
100
AcDbIdBuffer
330
6CFA
330
6CFB
330
6D61
330
6D62
330
6D63
330
6D64
330
6D65
330
6D66
330
6D67
330
6D7F
330
6D80
330
6D81
330
6DD1
330
6DD5
330
6DD6
330
6E0E
330
6E11
330
6E12
330
6E13
330
6E15
330
7B29
330
7B2A
330
7B2B
330
7B3C
330
7B3D
330
7B3E
  0
IDBUFFER
  5
6B6C
330
0
100
AcDbIdBuffer
330
740D
330
7BDC
  0
IDBUFFER
  5
6B6D
330
0
100
AcDbIdBuffer
330
7AFE
330
7B00
330
7B13
330
7B1C
330
7B36
  0
IDBUFFER
  5
6B6E
330
0
100
AcDbIdBuffer
330
6E0A
  0
IDBUFFER
  5
6B6F
330
0
100
AcDbIdBuffer
330
7B01
330
7B03
330
7B14
330
7B18
330
7B1A
330
7B23
330
7B25
330
7B27
  0
IDBUFFER
  5
6B70
330
0
100
AcDbIdBuffer
330
6F46
330
6F47
330
6F48
330
7B07
330
7B0A
330
7B2C
330
7B30
330
7B39
330
7B43
  0
ENDSEC
  0
EOF
