  0
SECTION
  2
HEADER
  9
$ACADVER
  1
AC1014
  9
$ACADMAINTVER
 70
     9
  9
$DWGCODEPAGE
  3
ANSI_1252
  9
$INSBASE
 10
0.0
 20
0.0
 30
0.0
  9
$EXTMIN
 10
-75.50550772628582
 20
-41.02813343051616
 30
-0.000000000000013
  9
$EXTMAX
 10
91.48556742039477
 20
79.84356403995866
 30
0.0000000000000023
  9
$LIMMIN
 10
0.0
 20
0.0
  9
$LIMMAX
 10
210.0
 20
297.0
  9
$ORTHOMODE
 70
     0
  9
$REGENMODE
 70
     1
  9
$FILLMODE
 70
     1
  9
$QTEXTMODE
 70
     0
  9
$MIRRTEXT
 70
     1
  9
$DRAGMODE
 70
     2
  9
$LTSCALE
 40
1.0
  9
$OSMODE
 70
  2599
  9
$ATTMODE
 70
     1
  9
$TEXTSIZE
 40
2.5
  9
$TRACEWID
 40
1.0
  9
$TEXTSTYLE
  7
STANDARD
  9
$CLAYER
  8
NOCUT
  9
$CELTYPE
  6
BYLAYER
  9
$CECOLOR
 62
   256
  9
$CELTSCALE
 40
1.0
  9
$DELOBJ
 70
     1
  9
$DISPSILH
 70
     0
  9
$DIMSCALE
 40
1.0
  9
$DIMASZ
 40
2.5
  9
$DIMEXO
 40
0.0
  9
$DIMDLI
 40
10.0
  9
$DIMRND
 40
0.0
  9
$DIMDLE
 40
0.0
  9
$DIMEXE
 40
1.0
  9
$DIMTP
 40
0.1
  9
$DIMTM
 40
0.1
  9
$DIMTXT
 40
3.5
  9
$DIMCEN
 40
0.0
  9
$DIMTSZ
 40
0.0
  9
$DIMTOL
 70
     0
  9
$DIMLIM
 70
     0
  9
$DIMTIH
 70
     0
  9
$DIMTOH
 70
     0
  9
$DIMSE1
 70
     0
  9
$DIMSE2
 70
     0
  9
$DIMTAD
 70
     1
  9
$DIMZIN
 70
     8
  9
$DIMBLK
  1

  9
$DIMASO
 70
     1
  9
$DIMSHO
 70
     1
  9
$DIMPOST
  1

  9
$DIMAPOST
  1
"
  9
$DIMALT
 70
     0
  9
$DIMALTD
 70
     2
  9
$DIMALTF
 40
0.0393701
  9
$DIMLFAC
 40
1.0
  9
$DIMTOFL
 70
     1
  9
$DIMTVP
 40
0.0
  9
$DIMTIX
 70
     0
  9
$DIMSOXD
 70
     0
  9
$DIMSAH
 70
     0
  9
$DIMBLK1
  1

  9
$DIMBLK2
  1

  9
$DIMSTYLE
  2
AM_DIN
  9
$DIMCLRD
 70
   256
  9
$DIMCLRE
 70
   256
  9
$DIMCLRT
 70
     2
  9
$DIMTFAC
 40
0.71
  9
$DIMGAP
 40
1.5
  9
$DIMJUST
 70
     0
  9
$DIMSD1
 70
     0
  9
$DIMSD2
 70
     0
  9
$DIMTOLJ
 70
     1
  9
$DIMTZIN
 70
     8
  9
$DIMALTZ
 70
     8
  9
$DIMALTTZ
 70
     8
  9
$DIMFIT
 70
     5
  9
$DIMUPT
 70
     0
  9
$DIMUNIT
 70
     2
  9
$DIMDEC
 70
     2
  9
$DIMTDEC
 70
     2
  9
$DIMALTU
 70
     2
  9
$DIMALTTD
 70
     2
  9
$DIMTXSTY
  7
STANDARD
  9
$DIMAUNIT
 70
     0
  9
$LUNITS
 70
     2
  9
$LUPREC
 70
     2
  9
$SKETCHINC
 40
1.0
  9
$FILLETRAD
 40
2.5
  9
$AUNITS
 70
     0
  9
$AUPREC
 70
     0
  9
$MENU
  1
.
  9
$ELEVATION
 40
0.0
  9
$PELEVATION
 40
0.0
  9
$THICKNESS
 40
0.0
  9
$LIMCHECK
 70
     0
  9
$BLIPMODE
 70
     0
  9
$CHAMFERA
 40
2.5
  9
$CHAMFERB
 40
2.5
  9
$CHAMFERC
 40
0.0
  9
$CHAMFERD
 40
0.0
  9
$SKPOLY
 70
     0
  9
$TDCREATE
 40
2453447.471737477
  9
$TDUPDATE
 40
2453612.627651354
  9
$TDINDWG
 40
0.1451523148
  9
$TDUSRTIMER
 40
0.1451279745
  9
$USRTIMER
 70
     1
  9
$ANGBASE
 50
0.0
  9
$ANGDIR
 70
     0
  9
$PDMODE
 70
     0
  9
$PDSIZE
 40
0.0
  9
$PLINEWID
 40
0.0
  9
$COORDS
 70
     0
  9
$SPLFRAME
 70
     0
  9
$SPLINETYPE
 70
     6
  9
$SPLINESEGS
 70
     8
  9
$ATTDIA
 70
     1
  9
$ATTREQ
 70
     1
  9
$HANDLING
 70
 22529
  9
$HANDSEED
  5
860A
  9
$SURFTAB1
 70
     6
  9
$SURFTAB2
 70
     6
  9
$SURFTYPE
 70
     6
  9
$SURFU
 70
     6
  9
$SURFV
 70
     6
  9
$UCSNAME
  2

  9
$UCSORG
 10
0.0
 20
0.0
 30
0.0
  9
$UCSXDIR
 10
1.0
 20
0.0
 30
0.0
  9
$UCSYDIR
 10
0.0
 20
1.0
 30
0.0
  9
$PUCSNAME
  2

  9
$PUCSORG
 10
0.0
 20
0.0
 30
0.0
  9
$PUCSXDIR
 10
1.0
 20
0.0
 30
0.0
  9
$PUCSYDIR
 10
0.0
 20
1.0
 30
0.0
  9
$USERI1
 70
     0
  9
$USERI2
 70
     0
  9
$USERI3
 70
     0
  9
$USERI4
 70
     0
  9
$USERI5
 70
     0
  9
$USERR1
 40
0.0
  9
$USERR2
 40
0.0
  9
$USERR3
 40
0.0
  9
$USERR4
 40
0.0
  9
$USERR5
 40
0.0
  9
$WORLDVIEW
 70
     1
  9
$SHADEDGE
 70
     3
  9
$SHADEDIF
 70
    70
  9
$TILEMODE
 70
     1
  9
$MAXACTVP
 70
    64
  9
$PINSBASE
 10
0.0
 20
0.0
 30
0.0
  9
$PLIMCHECK
 70
     0
  9
$PEXTMIN
 10
1.000000000000000E+20
 20
1.000000000000000E+20
 30
1.000000000000000E+20
  9
$PEXTMAX
 10
-1.000000000000000E+20
 20
-1.000000000000000E+20
 30
-1.000000000000000E+20
  9
$PLIMMIN
 10
0.0
 20
0.0
  9
$PLIMMAX
 10
420.0
 20
297.0
  9
$UNITMODE
 70
     0
  9
$VISRETAIN
 70
     1
  9
$PLINEGEN
 70
     0
  9
$PSLTSCALE
 70
     1
  9
$TREEDEPTH
 70
  3020
  9
$PICKSTYLE
 70
     0
  9
$CMLSTYLE
  2
STANDARD
  9
$CMLJUST
 70
     0
  9
$CMLSCALE
 40
1.0
  9
$PROXYGRAPHICS
 70
     1
  9
$MEASUREMENT
 70
     1
  0
ENDSEC
  0
SECTION
  2
CLASSES
  0
CLASS
  1
ACDBDICTIONARYWDFLT
  2
AcDbDictionaryWithDefault
  3
AutoCAD 2000
 90
        0
280
     0
281
     0
  0
CLASS
  1
ACDBPLACEHOLDER
  2
AcDbPlaceHolder
  3
AutoCAD 2000
 90
        0
280
     0
281
     0
  0
CLASS
  1
LAYOUT
  2
AcDbLayout
  3
AutoCAD 2000
 90
        0
280
     0
281
     0
  0
CLASS
  1
AMGSETTINGSOBJ
  2
AmgSettingsObj
  3
"AcadM|Product Description: AutoCAD Mechanical 2000|Company: Autodesk"
 90
        0
280
     0
281
     0
  0
CLASS
  1
ACME_DOCUMENT
  2
AcMeDbDoc
  3
AcMeServices
 90
        0
280
     0
281
     0
  0
CLASS
  1
ACMESCOPE
  2
AcMeScope
  3
AcMeServices
 90
        0
280
     0
281
     0
  0
CLASS
  1
ACMECOMMANDHISTORY
  2
AcMeCommandHistory
  3
AcMeServices
 90
        0
280
     0
281
     0
  0
CLASS
  1
ACIMSYSVARMAN
  2
AcImSysVarManager
  3
AcMeServices
 90
        0
280
     0
281
     0
  0
CLASS
  1
ACIMREALSYSVAR
  2
AcImRealSysVar
  3
AcMeServices
 90
        0
280
     0
281
     0
  0
CLASS
  1
ACIMINTSYSVAR
  2
AcImIntSysVar
  3
AcMeServices
 90
        0
280
     0
281
     0
  0
CLASS
  1
ACMEDRAWINGMAN
  2
AcMeDrawingMan
  3
AcMeServices
 90
        0
280
     0
281
     0
  0
CLASS
  1
ACMEVIEW
  2
AcMeView
  3
AcMeServices
 90
        0
280
     0
281
     0
  0
CLASS
  1
ACDBENTITYCACHE
  2
AcMeEntityCache
  3
AcMeServices
 90
        0
280
     0
281
     0
  0
CLASS
  1
GSMANAGER
  2
AcMeGSManager
  3
AcMeServices
 90
        0
280
     0
281
     0
  0
CLASS
  1
AMDTINTERNALREACTOR
  2
AmdtInternalReactor
  3
AcMeServices
 90
        0
280
     0
281
     0
  0
CLASS
  1
ACMESTATEMGR
  2
AcMeStateMgr
  3
AcMeServices
 90
        0
280
     0
281
     0
  0
CLASS
  1
ACGREFMASTER
  2
AcGrefMaster
  3
AcAttribServices
 90
        0
280
     0
281
     0
  0
CLASS
  1
ACME_DATABASE
  2
AcMeDbDatabase
  3
AcMeServices
 90
        0
280
     0
281
     0
  0
CLASS
  1
ACRFINSADJUSTERMGR
  2
AcRfInsAdjusterMgr
  3
AcMeServices
 90
        0
280
     0
281
     0
  0
CLASS
  1
ACGREFACADMASTER
  2
AcGrefacadMaster
  3
AcGrefServices
 90
        0
280
     0
281
     0
  0
CLASS
  1
AMIMASTER
  2
AmiMaster
  3
AmiServices
 90
        0
280
     0
281
     0
  0
CLASS
  1
ACMDATADICTIONARY
  2
AcmDataDictionary
  3
"AcmSymBB|Product Description: AutoCAD Mechanical 2000|Company: Autodesk"
 90
        0
280
     0
281
     0
  0
CLASS
  1
ACMDATAENTRYBLOCK
  2
AcmDataEntryBlock
  3
"AcmSymBB|Product Description: AutoCAD Mechanical 2000|Company: Autodesk"
 90
        0
280
     0
281
     0
  0
CLASS
  1
ACIMSTRSYSVAR
  2
AcImStrSysVar
  3
AcMeServices
 90
        0
280
     0
281
     0
  0
CLASS
  1
ACMSTANDARDANSI
  2
AcmStandardANSI
  3
"Amdt_StdImp|Product Description: AutoCAD Mechanical 2000|Company: Autodesk"
 90
        0
280
     0
281
     0
  0
CLASS
  1
AMGOBJPROPCFG
  2
AmgObjPropCfg
  3
"AmgLay|Product Description: AutoCAD Mechanical 2000|Company: Autodesk"
 90
        1
280
     0
281
     0
  0
CLASS
  1
ACMSURFSTANDARDANSI
  2
AcmSurfTextStdANSI
  3
"Amdt_StdImp|Product Description: AutoCAD Mechanical 2000|Company: Autodesk"
 90
        0
280
     0
281
     0
  0
CLASS
  1
ACMFCFSTANDARDANSI
  2
AcmFCFStdANSI
  3
"Amdt_StdImp|Product Description: AutoCAD Mechanical 2000|Company: Autodesk"
 90
        0
280
     0
281
     0
  0
CLASS
  1
ACMWELDSTANDARDANSI
  2
AcmWeldingStdANSI
  3
"Amdt_StdImp|Product Description: AutoCAD Mechanical 2000|Company: Autodesk"
 90
        0
280
     0
281
     0
  0
CLASS
  1
ACMIDSTANDARDANSI
  2
AcmIdStdANSI
  3
"Amdt_StdImp|Product Description: AutoCAD Mechanical 2000|Company: Autodesk"
 90
        0
280
     0
281
     0
  0
CLASS
  1
ACMDATUMSTANDARDANSI
  2
AcmDatumStdANSI
  3
"Amdt_StdImp|Product Description: AutoCAD Mechanical 2000|Company: Autodesk"
 90
        0
280
     0
281
     0
  0
CLASS
  1
ACMBOMSTANDARDANSI
  2
AcmBOMStdANSI
  3
"Amdt_StdImp|Product Description: AutoCAD Mechanical 2000|Company: Autodesk"
 90
        0
280
     0
281
     0
  0
CLASS
  1
ACMDETAILSTANDARDANSI
  2
AmdtDetailSymStdANSI
  3
"Amdt_StdImp|Product Description: AutoCAD Mechanical 2000|Company: Autodesk"
 90
        0
280
     0
281
     0
  0
CLASS
  1
ACMSECTIONSTANDARDANSI
  2
AmdtSectionSymStdANSI
  3
"Amdt_StdImp|Product Description: AutoCAD Mechanical 2000|Company: Autodesk"
 90
        0
280
     0
281
     0
  0
CLASS
  1
ACMCENTERLINESTANDARDANSI
  2
AmdtCenterLineStdANSI
  3
"Amdt_StdImp|Product Description: AutoCAD Mechanical 2000|Company: Autodesk"
 90
        0
280
     0
281
     0
  0
CLASS
  1
ACMNOTESTANDARDANSI
  2
AmdtNoteStdANSI
  3
"Amdt_StdImp|Product Description: AutoCAD Mechanical 2000|Company: Autodesk"
 90
        0
280
     0
281
     0
  0
CLASS
  1
ACAMGLAYSTD
  2
AcAmgLayStd
  3
"AcAmgLayStd|Product Description: AutoCAD Mechanical 2000|Company: Autodesk"
 90
        0
280
     0
281
     0
  0
CLASS
  1
ACAMGDIMSTD
  2
AcAmgDimStd
  3
"AcAmgDimStd|Product Description: AutoCAD Mechanical 2000|Company: Autodesk"
 90
        0
280
     0
281
     0
  0
CLASS
  1
ACAMGHOLECHARTSTDANSI
  2
AcAmgHoleChartStdANSI
  3
ACMSYMBB_MODULE_NAME
 90
        0
280
     0
281
     0
  0
CLASS
  1
ACAMGTITLESTD
  2
AcAmgTitleStd
  3
"TITLEAPP"
 90
        0
280
     0
281
     0
  0
CLASS
  1
ACAMGFILTERDAT
  2
AcAmgFilterDat
  3
"AcadM|Product Description: AutoCAD Mechanical 2000|Company: Autodesk"
 90
        0
280
     0
281
     0
  0
CLASS
  1
LAYER_INDEX
  2
AcDbLayerIndex
  3
AutoCAD 2000
 90
        0
280
     0
281
     0
  0
CLASS
  1
IDBUFFER
  2
AcDbIdBuffer
  3
AutoCAD 2000
 90
        0
280
     0
281
     0
  0
CLASS
  1
DICTIONARYVAR
  2
AcDbDictionaryVar
  3
AutoCAD 2000
 90
        0
280
     0
281
     0
  0
CLASS
  1
ACMSTANDARDDIN
  2
AcmStandardDIN
  3
"Amdt_StdImp|Product Description: AutoCAD Mechanical 2000|Company: Autodesk"
 90
        0
280
     0
281
     0
  0
CLASS
  1
AMDTEDGESTANDARDDIN
  2
AmdtEdgeStdDIN
  3
"Amdt_StdImp|Product Description: AutoCAD Mechanical 2000|Company: Autodesk"
 90
        0
280
     0
281
     0
  0
CLASS
  1
ACMSURFSTANDARDDIN
  2
AcmSurfTextStdDIN
  3
"Amdt_StdImp|Product Description: AutoCAD Mechanical 2000|Company: Autodesk"
 90
        0
280
     0
281
     0
  0
CLASS
  1
ACMFCFSTANDARDDIN
  2
AcmFCFStdDIN
  3
"Amdt_StdImp|Product Description: AutoCAD Mechanical 2000|Company: Autodesk"
 90
        0
280
     0
281
     0
  0
CLASS
  1
ACMWELDSTANDARDDIN
  2
AcmWeldingStdDIN
  3
"Amdt_StdImp|Product Description: AutoCAD Mechanical 2000|Company: Autodesk"
 90
        0
280
     0
281
     0
  0
CLASS
  1
ACMIDSTANDARDDIN
  2
AcmIdStdDIN
  3
"Amdt_StdImp|Product Description: AutoCAD Mechanical 2000|Company: Autodesk"
 90
        0
280
     0
281
     0
  0
CLASS
  1
ACMDATUMSTANDARDDIN
  2
AcmDatumStdDIN
  3
"Amdt_StdImp|Product Description: AutoCAD Mechanical 2000|Company: Autodesk"
 90
        0
280
     0
281
     0
  0
CLASS
  1
ACMBOMSTANDARDDIN
  2
AcmBOMStdDIN
  3
"Amdt_StdImp|Product Description: AutoCAD Mechanical 2000|Company: Autodesk"
 90
        0
280
     0
281
     0
  0
CLASS
  1
ACMDETAILSTANDARDDIN
  2
AmdtDetailSymStdDIN
  3
"Amdt_StdImp|Product Description: AutoCAD Mechanical 2000|Company: Autodesk"
 90
        0
280
     0
281
     0
  0
CLASS
  1
ACMSECTIONSTANDARDDIN
  2
AmdtSectionSymStdDIN
  3
"Amdt_StdImp|Product Description: AutoCAD Mechanical 2000|Company: Autodesk"
 90
        0
280
     0
281
     0
  0
CLASS
  1
ACMCENTERLINESTANDARDDIN
  2
AmdtCenterLineStdDIN
  3
"Amdt_StdImp|Product Description: AutoCAD Mechanical 2000|Company: Autodesk"
 90
        0
280
     0
281
     0
  0
CLASS
  1
ACMNOTESTANDARDDIN
  2
AmdtNoteStdDIN
  3
"Amdt_StdImp|Product Description: AutoCAD Mechanical 2000|Company: Autodesk"
 90
        0
280
     0
281
     0
  0
CLASS
  1
ACAMGHOLECHARTSTDDIN
  2
AcAmgHoleChartStdDIN
  3
ACMSYMBB_MODULE_NAME
 90
        0
280
     0
281
     0
  0
CLASS
  1
AMDTFORMULAUPDATEDISPATCHER
  2
AmdtFormulaUpdateDispatcher
  3
AcMeServices
 90
        0
280
     0
281
     0
  0
CLASS
  1
ACMSURFSYM
  2
AcmSurfaceTexture
  3
"AcmSymBB|Product Description: AutoCAD Mechanical 2000|Company: Autodesk"
 90
     1023
280
     0
281
     1
  0
CLASS
  1
LONG_TRANSACTION
  2
AcDbLongTransaction
  3
AutoCAD 2000
 90
        0
280
     0
281
     0
  0
CLASS
  1
LWPOLYLINE
  2
AcDbPolyline
  3
AutoCAD 2000
 90
        0
280
     0
281
     1
  0
CLASS
  1
HATCH
  2
AcDbHatch
  3
AutoCAD 2000
 90
        0
280
     0
281
     1
  0
CLASS
  1
XRECORD
  2
AcDbXrecord
  3
AutoCAD 2000
 90
        0
280
     0
281
     0
  0
ENDSEC
  0
SECTION
  2
TABLES
  0
TABLE
  2
VPORT
  5
6A1E
330
0
100
AcDbSymbolTable
 70
     5
  0
VPORT
  5
85E5
330
6A1E
100
AcDbSymbolTableRecord
100
AcDbViewportTableRecord
  2
*ACTIVE
 70
     0
 10
0.0
 20
0.0
 11
1.0
 21
1.0
 12
67.24724613685712
 22
127.9859332847419
 13
0.0
 23
0.0
 14
2.5
 24
2.5
 15
10.0
 25
10.0
 16
0.0
 26
0.0
 36
1.0
 17
0.0
 27
0.0
 37
0.0
 40
341.7563849021762
 41
1.694290976058931
 42
50.0
 43
0.0
 44
0.0
 50
0.0
 51
0.0
 71
    16
 72
 10000
 73
     1
 74
     3
 75
     0
 76
     0
 77
     0
 78
     0
  0
ENDTAB
  0
TABLE
  2
LTYPE
  5
6A1B
330
0
100
AcDbSymbolTable
 70
    16
  0
LTYPE
  5
6A29
330
6A1B
100
AcDbSymbolTableRecord
100
AcDbLinetypeTableRecord
  2
BYBLOCK
 70
     0
  3

 72
    65
 73
     0
 40
0.0
  0
LTYPE
  5
6A2A
330
6A1B
100
AcDbSymbolTableRecord
100
AcDbLinetypeTableRecord
  2
BYLAYER
 70
     0
  3

 72
    65
 73
     0
 40
0.0
  0
LTYPE
  5
6A2B
330
6A1B
100
AcDbSymbolTableRecord
100
AcDbLinetypeTableRecord
  2
CONTINUOUS
 70
     0
  3
Solid line
 72
    65
 73
     0
 40
0.0
  0
LTYPE
  5
6A39
330
6A1B
100
AcDbSymbolTableRecord
100
AcDbLinetypeTableRecord
  2
AMCONSTR
 70
     0
  3
_______________________
 72
    65
 73
     2
 40
9999.0
 49
9999.0
 74
     0
 49
0.0
 74
     0
  0
LTYPE
  5
6A43
330
6A1B
100
AcDbSymbolTableRecord
100
AcDbLinetypeTableRecord
  2
CENTER
 70
     0
  3
__ . __
 72
    65
 73
     4
 40
7.0
 49
4.0
 74
     0
 49
-1.0
 74
     0
 49
1.0
 74
     0
 49
-1.0
 74
     0
  0
LTYPE
  5
6A45
330
6A1B
100
AcDbSymbolTableRecord
100
AcDbLinetypeTableRecord
  2
PHANTOM2
 70
     0
  3
Phantom (.5x) ___ _ _ ___ _ _ ___ _ _ ___ _ _
 72
    65
 73
     6
 40
1.25
 49
0.625
 74
     0
 49
-0.125
 74
     0
 49
0.125
 74
     0
 49
-0.125
 74
     0
 49
0.125
 74
     0
 49
-0.125
 74
     0
  0
LTYPE
  5
6A46
330
6A1B
100
AcDbSymbolTableRecord
100
AcDbLinetypeTableRecord
  2
ACANSTGB
 70
     0
  3
__ . . __ . .
 72
    65
 73
     6
 40
0.35433070866
 49
0.15748031496
 74
     0
 49
-0.03937007874
 74
     0
 49
0.03937007874
 74
     0
 49
-0.03937007874
 74
     0
 49
0.03937007874
 74
     0
 49
-0.03937007874
 74
     0
  0
LTYPE
  5
6A47
330
6A1B
100
AcDbSymbolTableRecord
100
AcDbLinetypeTableRecord
  2
ACANSTGL
 70
     0
  3
_ _ _ _ _
 72
    65
 73
     2
 40
0.11811023622
 49
0.07874015748
 74
     0
 49
-0.03937007874
 74
     0
  0
LTYPE
  5
6A48
330
6A1B
100
AcDbSymbolTableRecord
100
AcDbLinetypeTableRecord
  2
DASHED
 70
     0
  3
__ __ __ __ __ __ __ __ __ __ __ __ __ __ __ __
 72
    65
 73
     2
 40
19.05
 49
12.7
 74
     0
 49
-6.349999999999998
 74
     0
  0
LTYPE
  5
6D97
330
6A1B
100
AcDbSymbolTableRecord
100
AcDbLinetypeTableRecord
  2
ACDINWELD
 70
     0
  3
_ _ _ _ _
 72
    65
 73
     2
 40
2.0
 49
2.0
 74
     0
 49
-1.0
 74
     0
  0
LTYPE
  5
6D98
330
6A1B
100
AcDbSymbolTableRecord
100
AcDbLinetypeTableRecord
  2
ACDINTGB
 70
     0
  3
__ . . __ . .
 72
    65
 73
     6
 40
9.0
 49
4.0
 74
     0
 49
-1.0
 74
     0
 49
1.0
 74
     0
 49
-1.0
 74
     0
 49
1.0
 74
     0
 49
-1.0
 74
     0
  0
LTYPE
  5
6D99
330
6A1B
100
AcDbSymbolTableRecord
100
AcDbLinetypeTableRecord
  2
ACDINTGL
 70
     0
  3
_ _ _ _ _
 72
    65
 73
     2
 40
3.0
 49
2.0
 74
     0
 49
-1.0
 74
     0
  0
LTYPE
  5
7F5C
330
6A1B
100
AcDbSymbolTableRecord
100
AcDbLinetypeTableRecord
  2
AMZIGZAG
 70
     0
  3
/\/-/\/-/\/-/\/-/\/-/\/
 72
    65
 73
     2
 40
11.00009999999999
 49
0.0001
 74
     4
 75
   135
340
6A5B
 46
0.04
 50
0.0
 44
0.0
 45
0.0
 49
-11.0
 74
     0
  0
LTYPE
  5
7F5D
330
6A1B
100
AcDbSymbolTableRecord
100
AcDbLinetypeTableRecord
  2
AM_DIN_F_W050
 70
     0
  3
__ __ __ __ __ __ __ __ __ __ __ __ __ __ __
 72
    65
 73
     2
 40
6.25
 49
4.75
 74
     0
 49
-1.5
 74
     0
  0
LTYPE
  5
7F5E
330
6A1B
100
AcDbSymbolTableRecord
100
AcDbLinetypeTableRecord
  2
AM_DIN_G_W050
 70
     0
  3
____ . ____ . ____ . ____ . ____ . ____ . ____
 72
    65
 73
     4
 40
13.75
 49
9.75
 74
     0
 49
-1.5
 74
     0
 49
1.0
 74
     0
 49
-1.5
 74
     0
  0
LTYPE
  5
7F5F
330
6A1B
100
AcDbSymbolTableRecord
100
AcDbLinetypeTableRecord
  2
AM_DIN_K_W050
 70
     0
  3
_____ . . _____ . . _____ . . ____ .. ____
 72
    65
 73
     6
 40
16.25
 49
9.75
 74
     0
 49
-1.5
 74
     0
 49
1.0
 74
     0
 49
-1.5
 74
     0
 49
1.0
 74
     0
 49
-1.5
 74
     0
  0
LTYPE
  5
7F60
330
6A1B
100
AcDbSymbolTableRecord
100
AcDbLinetypeTableRecord
  2
AM_DIN_G_W050X2
 70
     0
  3
__ . __ . __ . __ . __ . __
 72
    65
 73
     4
 40
6.875
 49
4.75
 74
     0
 49
-0.875
 74
     0
 49
0.375
 74
     0
 49
-0.875
 74
     0
  0
LTYPE
  5
7F61
330
6A1B
100
AcDbSymbolTableRecord
100
AcDbLinetypeTableRecord
  2
AM_DIN_F_W050X2
 70
     0
  3
 _ _ _ _ _ _ _ _ _ _ _ _
 72
    65
 73
     2
 40
3.125
 49
2.25
 74
     0
 49
-0.875
 74
     0
  0
ENDTAB
  0
TABLE
  2
LAYER
  5
6A18
330
0
100
AcDbSymbolTable
 70
    12
  0
LAYER
  5
6A26
330
6A18
100
AcDbSymbolTableRecord
100
AcDbLayerTableRecord
  2
0
 70
     0
 62
     7
  6
CONTINUOUS
  0
LAYER
  5
6A4B
330
6A18
100
AcDbSymbolTableRecord
100
AcDbLayerTableRecord
  2
DEFPOINTS
 70
     0
 62
     7
  6
CONTINUOUS
  0
LAYER
  5
6A4C
330
6A18
100
AcDbSymbolTableRecord
100
AcDbLayerTableRecord
  2
1
 70
     0
 62
     4
  6
CONTINUOUS
  0
LAYER
  5
6A4D
330
6A18
100
AcDbSymbolTableRecord
100
AcDbLayerTableRecord
  2
2
 70
     0
 62
     7
  6
CONTINUOUS
  0
LAYER
  5
6A4F
330
6A18
100
AcDbSymbolTableRecord
100
AcDbLayerTableRecord
  2
4
 70
     0
 62
     2
  6
CENTER
  0
LAYER
  5
6A50
330
6A18
100
AcDbSymbolTableRecord
100
AcDbLayerTableRecord
  2
6
 70
     0
 62
     5
  6
CONTINUOUS
  0
LAYER
  5
6A53
330
6A18
100
AcDbSymbolTableRecord
100
AcDbLayerTableRecord
  2
SK1
 70
     0
 62
     4
  6
CONTINUOUS
  0
LAYER
  5
6A54
330
6A18
100
AcDbSymbolTableRecord
100
AcDbLayerTableRecord
  2
SK2
 70
     0
 62
     7
  6
CONTINUOUS
  0
LAYER
  5
6A55
330
6A18
100
AcDbSymbolTableRecord
100
AcDbLayerTableRecord
  2
SK3
 70
     0
 62
     1
  6
DASHED
  0
LAYER
  5
6A56
330
6A18
100
AcDbSymbolTableRecord
100
AcDbLayerTableRecord
  2
SK4
 70
     0
 62
     2
  6
CENTER
  0
LAYER
  5
6A57
330
6A18
100
AcDbSymbolTableRecord
100
AcDbLayerTableRecord
  2
CUT
 70
     0
 62
     1
  6
CONTINUOUS
  0
LAYER
  5
6A58
330
6A18
100
AcDbSymbolTableRecord
100
AcDbLayerTableRecord
  2
NOCUT
 70
     0
 62
     7
  6
CONTINUOUS
  0
ENDTAB
  0
TABLE
  2
STYLE
  5
6A19
330
0
100
AcDbSymbolTable
 70
     6
  0
STYLE
  5
6A27
330
6A19
100
AcDbSymbolTableRecord
100
AcDbTextStyleTableRecord
  2
STANDARD
 70
     0
 40
0.0
 41
1.0
 50
0.0
 71
     0
 42
2.5
  3
ISOCP.SHX
  4

  0
STYLE
  5
6A5B
330
6A19
100
AcDbSymbolTableRecord
100
AcDbTextStyleTableRecord
  2

 70
     1
 40
0.0
 41
1.0
 50
0.0
 71
     0
 42
2.5
  3
ltypeshp.shx
  4

  0
STYLE
  5
6A5E
330
6A19
100
AcDbSymbolTableRecord
100
AcDbTextStyleTableRecord
  2
ACANSTS
 70
     0
 40
1.0
 41
1.0
 50
0.0
 71
     0
 42
0.2
  3
romans.shx
  4

  0
STYLE
  5
6A5F
330
6A19
100
AcDbSymbolTableRecord
100
AcDbTextStyleTableRecord
  2
ACANSGDT
 70
     0
 40
0.0
 41
1.0
 50
0.0
 71
     0
 42
0.2
  3
amgdtans.shx
  4

  0
STYLE
  5
6D9A
330
6A19
100
AcDbSymbolTableRecord
100
AcDbTextStyleTableRecord
  2
ACDINTS
 70
     0
 40
1.0
 41
1.0
 50
0.0
 71
     0
 42
2.5
  3
isocp.shx
  4

  0
STYLE
  5
6D9B
330
6A19
100
AcDbSymbolTableRecord
100
AcDbTextStyleTableRecord
  2
ACDINGDT
 70
     0
 40
0.0
 41
1.0
 50
0.0
 71
     0
 42
2.5
  3
amgdt.shx
  4

  0
ENDTAB
  0
TABLE
  2
VIEW
  5
6A1C
330
0
100
AcDbSymbolTable
 70
     6
  0
VIEW
  5
6A60
330
6A1C
100
AcDbSymbolTableRecord
100
AcDbViewTableRecord
  2
AM_VIEW1
 70
     0
 40
148.5
 10
131.508173076923
 20
222.75
 41
263.016346153846
 11
0.0
 21
0.0
 31
1.0
 12
0.0
 22
0.0
 32
0.0
 42
50.0
 43
0.0
 44
0.0
 50
0.0
 71
    16
  0
VIEW
  5
6A61
330
6A1C
100
AcDbSymbolTableRecord
100
AcDbViewTableRecord
  2
AM_VIEW2
 70
     0
 40
148.5
 10
78.4918269230769
 20
222.75
 41
263.016346153846
 11
0.0
 21
0.0
 31
1.0
 12
0.0
 22
0.0
 32
0.0
 42
50.0
 43
0.0
 44
0.0
 50
0.0
 71
    16
  0
VIEW
  5
6A62
330
6A1C
100
AcDbSymbolTableRecord
100
AcDbViewTableRecord
  2
AM_VIEW3
 70
     0
 40
148.5
 10
131.508173076923
 20
74.25
 41
263.016346153846
 11
0.0
 21
0.0
 31
1.0
 12
0.0
 22
0.0
 32
0.0
 42
50.0
 43
0.0
 44
0.0
 50
0.0
 71
    16
  0
VIEW
  5
6A63
330
6A1C
100
AcDbSymbolTableRecord
100
AcDbViewTableRecord
  2
AM_VIEW4
 70
     0
 40
148.5
 10
78.4918269230769
 20
74.25
 41
263.016346153846
 11
0.0
 21
0.0
 31
1.0
 12
0.0
 22
0.0
 32
0.0
 42
50.0
 43
0.0
 44
0.0
 50
0.0
 71
    16
  0
VIEW
  5
6A64
330
6A1C
100
AcDbSymbolTableRecord
100
AcDbViewTableRecord
  2
AM_VIEW5
 70
     0
 40
148.5
 10
105.0
 20
148.5
 41
263.016346153846
 11
0.0
 21
0.0
 31
1.0
 12
0.0
 22
0.0
 32
0.0
 42
50.0
 43
0.0
 44
0.0
 50
0.0
 71
    16
  0
VIEW
  5
6A65
330
6A1C
100
AcDbSymbolTableRecord
100
AcDbViewTableRecord
  2
AM_VIEW6
 70
     0
 40
296.9970299999999
 10
105.0
 20
148.5
 41
526.0274319807693
 11
0.0
 21
0.0
 31
1.0
 12
0.0
 22
0.0
 32
0.0
 42
50.0
 43
0.0
 44
0.0
 50
0.0
 71
    16
  0
ENDTAB
  0
TABLE
  2
UCS
  5
6A1D
330
0
100
AcDbSymbolTable
 70
     0
  0
ENDTAB
  0
TABLE
  2
APPID
  5
6A1F
330
0
100
AcDbSymbolTable
 70
    43
  0
APPID
  5
6A28
330
6A1F
100
AcDbSymbolTableRecord
100
AcDbRegAppTableRecord
  2
ACAD
 70
     0
  0
APPID
  5
6A66
330
6A1F
100
AcDbSymbolTableRecord
100
AcDbRegAppTableRecord
  2
MCAD_NO_VIS
 70
     0
  0
APPID
  5
6A67
330
6A1F
100
AcDbSymbolTableRecord
100
AcDbRegAppTableRecord
  2
ACAD_TEMP_GRAPHIC
 70
     0
  0
APPID
  5
6A68
330
6A1F
100
AcDbSymbolTableRecord
100
AcDbRegAppTableRecord
  2
ACATTRIBSERVICES
 70
     0
  0
APPID
  5
6A69
330
6A1F
100
AcDbSymbolTableRecord
100
AcDbRegAppTableRecord
  2
GENIUS_GENDIMSH_14
 70
     0
  0
APPID
  5
6A6A
330
6A1F
100
AcDbSymbolTableRecord
100
AcDbRegAppTableRecord
  2
GENIUS_GENBLLY_14
 70
     0
  0
APPID
  5
6A6B
330
6A1F
100
AcDbSymbolTableRecord
100
AcDbRegAppTableRecord
  2
GENIUS_GENTRA_14
 70
     0
  0
APPID
  5
6A6C
330
6A1F
100
AcDbSymbolTableRecord
100
AcDbRegAppTableRecord
  2
GENIUS_GENODEF_13
 70
     0
  0
APPID
  5
6A6D
330
6A1F
100
AcDbSymbolTableRecord
100
AcDbRegAppTableRecord
  2
GENIUS_GENOLIS_13
 70
     0
  0
APPID
  5
6A6E
330
6A1F
100
AcDbSymbolTableRecord
100
AcDbRegAppTableRecord
  2
GENIUS_GENOENT_13
 70
     0
  0
APPID
  5
6A6F
330
6A1F
100
AcDbSymbolTableRecord
100
AcDbRegAppTableRecord
  2
GENIUS_GENOBJ-N-TIT_13
 70
     0
  0
APPID
  5
6A70
330
6A1F
100
AcDbSymbolTableRecord
100
AcDbRegAppTableRecord
  2
GENIUS_GENTITLE_13
 70
     0
  0
APPID
  5
6A71
330
6A1F
100
AcDbSymbolTableRecord
100
AcDbRegAppTableRecord
  2
GENIUS_GENOREF_13
 70
     0
  0
APPID
  5
6A72
330
6A1F
100
AcDbSymbolTableRecord
100
AcDbRegAppTableRecord
  2
GENIUS_GENSCREG_15
 70
     0
  0
APPID
  5
6A73
330
6A1F
100
AcDbSymbolTableRecord
100
AcDbRegAppTableRecord
  2
GENIUS_GENOBJ-N-SDF_13
 70
     0
  0
APPID
  5
6A74
330
6A1F
100
AcDbSymbolTableRecord
100
AcDbRegAppTableRecord
  2
ACADIGES
 70
     0
  0
APPID
  5
6A75
330
6A1F
100
AcDbSymbolTableRecord
100
AcDbRegAppTableRecord
  2
GENIUS_GENOBJ-N-HTC_13
 70
     0
  0
APPID
  5
6A76
330
6A1F
100
AcDbSymbolTableRecord
100
AcDbRegAppTableRecord
  2
GENIUS_GENHATCH_13
 70
     0
  0
APPID
  5
6DA2
330
6A1F
100
AcDbSymbolTableRecord
100
AcDbRegAppTableRecord
  2
GENIUS_GENOBJ-N-CRS_13
 70
     0
  0
APPID
  5
6DA3
330
6A1F
100
AcDbSymbolTableRecord
100
AcDbRegAppTableRecord
  2
GENIUS_GENOBJ-N-FIL_13
 70
     0
  0
APPID
  5
6DD2
330
6A1F
100
AcDbSymbolTableRecord
100
AcDbRegAppTableRecord
  2
GENIUS_GENFIL_13
 70
     0
  0
APPID
  5
6DD3
330
6A1F
100
AcDbSymbolTableRecord
100
AcDbRegAppTableRecord
  2
GENIUS_GENOBJ-N-CHA_13
 70
     0
  0
APPID
  5
7664
330
6A1F
100
AcDbSymbolTableRecord
100
AcDbRegAppTableRecord
  2
GENIUS12
 70
     0
  0
APPID
  5
7665
330
6A1F
100
AcDbSymbolTableRecord
100
AcDbRegAppTableRecord
  2
GENIUS_GENCFG_13
 70
     0
  0
APPID
  5
7666
330
6A1F
100
AcDbSymbolTableRecord
100
AcDbRegAppTableRecord
  2
GENIUS_GENCFG0_13
 70
     0
  0
APPID
  5
7667
330
6A1F
100
AcDbSymbolTableRecord
100
AcDbRegAppTableRecord
  2
GENIUS_GENCFG1_13
 70
     0
  0
APPID
  5
7668
330
6A1F
100
AcDbSymbolTableRecord
100
AcDbRegAppTableRecord
  2
GENIUS_GENCFG2_13
 70
     0
  0
APPID
  5
7669
330
6A1F
100
AcDbSymbolTableRecord
100
AcDbRegAppTableRecord
  2
GENIUS_GENCFG3_13
 70
     0
  0
APPID
  5
766A
330
6A1F
100
AcDbSymbolTableRecord
100
AcDbRegAppTableRecord
  2
GENIUS_GENCFG4_13
 70
     0
  0
APPID
  5
766B
330
6A1F
100
AcDbSymbolTableRecord
100
AcDbRegAppTableRecord
  2
GENIUS_GEVCFG0_13
 70
     0
  0
APPID
  5
766C
330
6A1F
100
AcDbSymbolTableRecord
100
AcDbRegAppTableRecord
  2
GENIUS_GEFCFG0_13
 70
     0
  0
APPID
  5
766D
330
6A1F
100
AcDbSymbolTableRecord
100
AcDbRegAppTableRecord
  2
GEV_VCCNULL_SWITCH_OFF
 70
     0
  0
APPID
  5
766E
330
6A1F
100
AcDbSymbolTableRecord
100
AcDbRegAppTableRecord
  2
GENIUS_GENDTOL_13
 70
     0
  0
APPID
  5
766F
330
6A1F
100
AcDbSymbolTableRecord
100
AcDbRegAppTableRecord
  2
GENIUS_GENOBJ-F-SUF_13
 70
     0
  0
APPID
  5
7670
330
6A1F
100
AcDbSymbolTableRecord
100
AcDbRegAppTableRecord
  2
GENIUS_GENDIM_13
 70
     0
  0
APPID
  5
7671
330
6A1F
100
AcDbSymbolTableRecord
100
AcDbRegAppTableRecord
  2
GENIUS_GE3DTOL_13
 70
     0
  0
APPID
  5
7672
330
6A1F
100
AcDbSymbolTableRecord
100
AcDbRegAppTableRecord
  2
AD_DRAW
 70
     0
  0
APPID
  5
7673
330
6A1F
100
AcDbSymbolTableRecord
100
AcDbRegAppTableRecord
  2
ASURF_PCURVE_APPNAME
 70
     0
  0
APPID
  5
7674
330
6A1F
100
AcDbSymbolTableRecord
100
AcDbRegAppTableRecord
  2
AMG_3D2D_5_0
 70
     0
  0
APPID
  5
7675
330
6A1F
100
AcDbSymbolTableRecord
100
AcDbRegAppTableRecord
  2
DESIGNERASSEMBLIES
 70
     0
  0
APPID
  5
7676
330
6A1F
100
AcDbSymbolTableRecord
100
AcDbRegAppTableRecord
  2
ACADM_DIM_EDIT
 70
     0
  0
APPID
  5
7677
330
6A1F
100
AcDbSymbolTableRecord
100
AcDbRegAppTableRecord
  2
AMDT_DM_ADJ
 70
     0
  0
APPID
  5
7CDC
330
6A1F
100
AcDbSymbolTableRecord
100
AcDbRegAppTableRecord
  2
GENIUS_GENOBJ-N-CEN_13
 70
     0
  0
ENDTAB
  0
TABLE
  2
DIMSTYLE
  5
6A20
330
0
100
AcDbSymbolTable
 70
    14
  0
DIMSTYLE
105
6A77
102
{ACAD_REACTORS
330
8439
330
847A
330
84CB
330
84F3
330
851B
102
}
330
6A20
100
AcDbSymbolTableRecord
100
AcDbDimStyleTableRecord
  2
AM_DIN
 70
     0
  3

  4
"
  5

  6

  7

 40
1.0
 41
2.5
 42
0.0
 43
10.0
 44
1.0
 45
0.0
 46
0.0
 47
0.1
 48
0.1
140
3.5
141
0.0
142
0.0
143
0.0393701
144
1.0
145
0.0
146
0.71
147
1.5
 71
     0
 72
     0
 73
     0
 74
     0
 75
     0
 76
     0
 77
     1
 78
     8
170
     0
171
     2
172
     1
173
     0
174
     0
175
     0
176
   256
177
   256
178
     2
270
     2
271
     2
272
     2
273
     2
274
     2
340
6A27
275
     0
280
     0
281
     0
282
     0
283
     1
284
     8
285
     8
286
     8
287
     5
288
     0
  0
DIMSTYLE
105
6A7E
330
6A20
100
AcDbSymbolTableRecord
100
AcDbDimStyleTableRecord
  2
STANDARD
 70
     0
  3

  4

  5

  6

  7

 40
1.0
 41
0.18
 42
0.0625
 43
0.38
 44
0.18
 45
0.0
 46
0.0
 47
0.0
 48
0.0
140
0.18
141
0.09
142
0.0
143
25.4
144
1.0
145
0.0
146
1.0
147
0.09
 71
     0
 72
     0
 73
     1
 74
     1
 75
     0
 76
     0
 77
     0
 78
     0
170
     0
171
     2
172
     0
173
     0
174
     0
175
     0
176
     0
177
     0
178
     0
270
     2
271
     2
272
     2
273
     2
274
     2
340
6A27
275
     0
280
     0
281
     0
282
     0
283
     1
284
     8
285
     8
286
     8
287
     5
288
     0
  0
DIMSTYLE
105
6A7F
102
{ACAD_REACTORS
330
78CB
102
}
330
6A20
100
AcDbSymbolTableRecord
100
AcDbDimStyleTableRecord
  2
AM_ANSI
 70
     0
  3

  4
mm
  5

  6

  7

 40
1.0
 41
0.1
 42
0.05
 43
0.5
 44
0.1
 45
0.0
 46
0.0
 47
0.1
 48
0.1
140
0.12
141
0.0
142
0.0
143
25.4
144
1.0
145
0.0
146
0.71
147
0.06
 71
     0
 72
     0
 73
     1
 74
     1
 75
     0
 76
     0
 77
     0
 78
     7
170
     0
171
     2
172
     0
173
     0
174
     0
175
     0
176
   256
177
   256
178
     2
270
     2
271
     2
272
     2
273
     2
274
     2
340
6A27
275
     0
280
     0
281
     0
282
     0
283
     1
284
     8
285
     8
286
     8
287
     5
288
     0
  0
DIMSTYLE
105
6A80
330
6A20
100
AcDbSymbolTableRecord
100
AcDbDimStyleTableRecord
  2
AM_ANSI$3
 70
     0
  3

  4
mm
  5

  6

  7

 40
1.0
 41
0.1
 42
0.05
 43
0.5
 44
0.1
 45
0.0
 46
0.0
 47
0.1
 48
0.1
140
0.12
141
0.0
142
0.0
143
25.4
144
1.0
145
0.0
146
0.71
147
0.06
 71
     0
 72
     0
 73
     1
 74
     1
 75
     0
 76
     0
 77
     0
 78
     7
170
     0
171
     2
172
     0
173
     0
174
     0
175
     0
176
   256
177
   256
178
     2
270
     2
271
     2
272
     2
273
     2
274
     2
340
6A27
275
     0
280
     0
281
     0
282
     0
283
     1
284
     8
285
     8
286
     8
287
     5
288
     0
  0
DIMSTYLE
105
6A81
330
6A20
100
AcDbSymbolTableRecord
100
AcDbDimStyleTableRecord
  2
AM_ANSI$4
 70
     0
  3

  4
mm
  5

  6

  7

 40
1.0
 41
0.1
 42
0.05
 43
0.5
 44
0.1
 45
0.0
 46
0.0
 47
0.1
 48
0.1
140
0.12
141
0.0
142
0.0
143
25.4
144
1.0
145
0.0
146
0.71
147
0.06
 71
     0
 72
     0
 73
     1
 74
     1
 75
     0
 76
     0
 77
     0
 78
     7
170
     0
171
     2
172
     0
173
     0
174
     0
175
     0
176
   256
177
   256
178
     2
270
     2
271
     2
272
     2
273
     2
274
     2
340
6A27
275
     0
280
     0
281
     0
282
     0
283
     1
284
     8
285
     8
286
     8
287
     5
288
     0
  0
DIMSTYLE
105
6A82
330
6A20
100
AcDbSymbolTableRecord
100
AcDbDimStyleTableRecord
  2
AM_ANSI$7
 70
     0
  3

  4
mm
  5

  6

  7

 40
1.0
 41
0.1
 42
0.05
 43
0.5
 44
0.1
 45
0.0
 46
0.0
 47
0.1
 48
0.1
140
0.24
141
0.0
142
0.0
143
25.4
144
1.0
145
0.0
146
0.71
147
0.06
 71
     0
 72
     0
 73
     1
 74
     1
 75
     0
 76
     0
 77
     0
 78
     7
170
     0
171
     2
172
     0
173
     0
174
     0
175
     0
176
   256
177
   256
178
     2
270
     2
271
     2
272
     2
273
     2
274
     2
340
6A27
275
     0
280
     0
281
     0
282
     0
283
     1
284
     8
285
     8
286
     8
287
     5
288
     0
  0
DIMSTYLE
105
6A83
330
6A20
100
AcDbSymbolTableRecord
100
AcDbDimStyleTableRecord
  2
AM_ANSI$SF
 70
     0
  3

  4
mm
  5

  6

  7

 40
1.0
 41
0.1
 42
0.05
 43
0.5
 44
0.1
 45
0.0
 46
0.0
 47
0.1
 48
0.1
140
0.12
141
0.0
142
0.0
143
25.4
144
1.0
145
0.0
146
0.71
147
0.06
 71
     0
 72
     0
 73
     1
 74
     1
 75
     1
 76
     1
 77
     0
 78
     7
170
     0
171
     2
172
     0
173
     0
174
     0
175
     0
176
   256
177
   256
178
     2
270
     2
271
     2
272
     2
273
     2
274
     2
340
6A27
275
     0
280
     0
281
     0
282
     0
283
     1
284
     8
285
     8
286
     8
287
     5
288
     0
  0
DIMSTYLE
105
6A84
330
6A20
100
AcDbSymbolTableRecord
100
AcDbDimStyleTableRecord
  2
AM_ANSI$SH
 70
     0
  3

  4
mm
  5

  6

  7

 40
1.0
 41
0.1
 42
0.05
 43
0.5
 44
0.1
 45
0.0
 46
0.0
 47
0.1
 48
0.1
140
0.12
141
0.0
142
0.0
143
25.4
144
1.0
145
0.0
146
0.71
147
0.06
 71
     0
 72
     0
 73
     1
 74
     1
 75
     1
 76
     1
 77
     0
 78
     7
170
     0
171
     2
172
     0
173
     1
174
     0
175
     0
176
   256
177
   256
178
     2
270
     2
271
     2
272
     2
273
     2
274
     2
340
6A27
275
     0
280
     0
281
     0
282
     0
283
     1
284
     8
285
     8
286
     8
287
     5
288
     0
  0
DIMSTYLE
105
6D9C
330
6A20
100
AcDbSymbolTableRecord
100
AcDbDimStyleTableRecord
  2
AM_DIN$3
 70
     0
  3

  4
"
  5

  6

  7

 40
1.0
 41
3.5
 42
0.0
 43
10.0
 44
1.0
 45
0.0
 46
0.0
 47
0.1
 48
0.1
140
3.5
141
0.0
142
0.0
143
0.0393701
144
1.0
145
0.0
146
0.71
147
1.5
 71
     0
 72
     0
 73
     0
 74
     1
 75
     0
 76
     0
 77
     1
 78
     8
170
     0
171
     2
172
     0
173
     0
174
     0
175
     0
176
   256
177
   256
178
     2
270
     2
271
     2
272
     2
273
     2
274
     2
340
6A27
275
     0
280
     0
281
     0
282
     0
283
     0
284
     8
285
     0
286
     0
287
     0
288
     1
  0
DIMSTYLE
105
6D9D
330
6A20
100
AcDbSymbolTableRecord
100
AcDbDimStyleTableRecord
  2
AM_DIN$4
 70
     0
  3

  4
"
  5

  6

  7

 40
1.0
 41
3.5
 42
0.0
 43
10.0
 44
1.0
 45
0.0
 46
0.0
 47
0.1
 48
0.1
140
3.5
141
0.0
142
0.0
143
0.0393701
144
1.0
145
0.0
146
0.71
147
1.5
 71
     0
 72
     0
 73
     0
 74
     1
 75
     0
 76
     0
 77
     1
 78
     8
170
     0
171
     2
172
     0
173
     0
174
     0
175
     0
176
   256
177
   256
178
     2
270
     2
271
     2
272
     2
273
     2
274
     2
340
6A27
275
     0
280
     0
281
     0
282
     0
283
     0
284
     8
285
     0
286
     0
287
     0
288
     1
  0
DIMSTYLE
105
6D9E
330
6A20
100
AcDbSymbolTableRecord
100
AcDbDimStyleTableRecord
  2
AM_DIN$6
 70
     0
  3

  4
"
  5

  6

  7

 40
1.0
 41
3.5
 42
0.0
 43
0.0
 44
1.0
 45
0.0
 46
0.0
 47
0.1
 48
0.1
140
3.5
141
0.0
142
0.0
143
0.0393701
144
1.0
145
0.0
146
0.71
147
1.5
 71
     0
 72
     0
 73
     0
 74
     0
 75
     0
 76
     0
 77
     0
 78
     8
170
     0
171
     2
172
     1
173
     0
174
     0
175
     0
176
   256
177
   256
178
     2
270
     2
271
     2
272
     2
273
     2
274
     2
340
6A27
275
     0
280
     0
281
     0
282
     0
283
     0
284
     8
285
     0
286
     0
287
     3
288
     0
  0
DIMSTYLE
105
6D9F
330
6A20
100
AcDbSymbolTableRecord
100
AcDbDimStyleTableRecord
  2
AM_DIN$7
 70
     0
  3

  4
"
  5

  6

  7

 40
1.0
 41
3.5
 42
0.0
 43
10.0
 44
1.0
 45
0.0
 46
0.0
 47
0.1
 48
0.1
140
3.5
141
0.0
142
0.0
143
0.0393701
144
1.0
145
0.0
146
0.71
147
1.5
 71
     0
 72
     0
 73
     0
 74
     0
 75
     0
 76
     0
 77
     1
 78
     8
170
     0
171
     2
172
     1
173
     0
174
     0
175
     0
176
   256
177
   256
178
     2
270
     2
271
     2
272
     2
273
     2
274
     2
340
6A27
275
     0
280
     0
281
     0
282
     0
283
     0
284
     8
285
     0
286
     0
287
     3
288
     0
  0
DIMSTYLE
105
6DA0
330
6A20
100
AcDbSymbolTableRecord
100
AcDbDimStyleTableRecord
  2
AM_DIN$SF
 70
     0
  3

  4
"
  5

  6

  7

 40
1.0
 41
2.5
 42
1.0
 43
10.0
 44
1.0
 45
0.0
 46
0.0
 47
0.1
 48
0.1
140
3.5
141
0.0
142
0.0
143
0.0393701
144
1.0
145
0.0
146
0.71
147
1.5
 71
     0
 72
     0
 73
     0
 74
     0
 75
     1
 76
     1
 77
     1
 78
     8
170
     0
171
     2
172
     1
173
     0
174
     0
175
     0
176
   256
177
   256
178
     2
270
     2
271
     2
272
     3
273
     2
274
     4
340
6A27
275
     0
280
     0
281
     0
282
     0
283
     0
284
     8
285
     0
286
     0
287
     3
288
     0
  0
DIMSTYLE
105
6DA1
330
6A20
100
AcDbSymbolTableRecord
100
AcDbDimStyleTableRecord
  2
AM_DIN$SH
 70
     0
  3

  4
"
  5

  6
GENAXEH
  7

 40
1.0
 41
2.5
 42
1.0
 43
10.0
 44
1.0
 45
0.0
 46
0.0
 47
0.1
 48
0.1
140
3.5
141
0.0
142
0.0
143
0.0393701
144
2.0
145
0.0
146
0.71
147
1.5
 71
     0
 72
     0
 73
     0
 74
     0
 75
     1
 76
     1
 77
     1
 78
     8
170
     0
171
     2
172
     1
173
     1
174
     0
175
     0
176
   256
177
   256
178
     2
270
     2
271
     2
272
     3
273
     2
274
     4
340
6A27
275
     0
280
     0
281
     0
282
     0
283
     0
284
     8
285
     0
286
     0
287
     3
288
     0
  0
ENDTAB
  0
TABLE
  2
BLOCK_RECORD
  5
6A17
330
0
100
AcDbSymbolTable
 70
     7
  0
BLOCK_RECORD
  5
6A34
102
{ACAD_XDICTIONARY
360
6B62
102
}
330
6A17
100
AcDbSymbolTableRecord
100
AcDbBlockTableRecord
  2
*MODEL_SPACE
  0
BLOCK_RECORD
  5
6A30
102
{ACAD_XDICTIONARY
360
8607
102
}
330
6A17
100
AcDbSymbolTableRecord
100
AcDbBlockTableRecord
  2
*PAPER_SPACE
  0
BLOCK_RECORD
  5
6D93
330
6A17
100
AcDbSymbolTableRecord
100
AcDbBlockTableRecord
  2
GENAXEH
  0
BLOCK_RECORD
  5
78CC
330
6A17
100
AcDbSymbolTableRecord
100
AcDbBlockTableRecord
  2
*D1
  0
BLOCK_RECORD
  5
843A
330
6A17
100
AcDbSymbolTableRecord
100
AcDbBlockTableRecord
  2
*D2
  0
BLOCK_RECORD
  5
847B
330
6A17
100
AcDbSymbolTableRecord
100
AcDbBlockTableRecord
  2
*D3
  0
BLOCK_RECORD
  5
84CC
330
6A17
100
AcDbSymbolTableRecord
100
AcDbBlockTableRecord
  2
*D4
  0
BLOCK_RECORD
  5
84F4
330
6A17
100
AcDbSymbolTableRecord
100
AcDbBlockTableRecord
  2
*D5
  0
BLOCK_RECORD
  5
851C
330
6A17
100
AcDbSymbolTableRecord
100
AcDbBlockTableRecord
  2
*D6
  0
ENDTAB
  0
ENDSEC
  0
SECTION
  2
BLOCKS
  0
BLOCK
  5
6A35
330
6A34
100
AcDbEntity
  8
0
100
AcDbBlockBegin
  2
*MODEL_SPACE
 70
     0
 10
0.0
 20
0.0
 30
0.0
  3
*MODEL_SPACE
  1

  0
ENDBLK
  5
6A36
330
6A34
100
AcDbEntity
  8
0
100
AcDbBlockEnd
  0
BLOCK
  5
6A31
330
6A30
100
AcDbEntity
 67
     1
  8
0
100
AcDbBlockBegin
  2
*PAPER_SPACE
 70
     0
 10
0.0
 20
0.0
 30
0.0
  3
*PAPER_SPACE
  1

  0
ENDBLK
  5
6A32
330
6A30
100
AcDbEntity
 67
     1
  8
0
100
AcDbBlockEnd
  0
BLOCK
  5
6D95
330
6D93
100
AcDbEntity
  8
0
100
AcDbBlockBegin
  2
GENAXEH
 70
     0
 10
0.0
 20
0.0
 30
0.0
  3
GENAXEH
  1

  0
LINE
  5
6D94
330
6D93
100
AcDbEntity
  8
0
100
AcDbLine
 10
-1.0
 20
0.0
 30
0.0
 11
1.0
 21
0.0
 31
0.0
  0
ENDBLK
  5
6D96
330
6D93
100
AcDbEntity
  8
0
100
AcDbBlockEnd
  0
BLOCK
  5
78D7
330
78CC
100
AcDbEntity
  8
0
100
AcDbBlockBegin
  2
*D1
 70
     1
 10
0.0
 20
0.0
 30
0.0
  3
*D1
  1

  0
LINE
  5
7C5A
330
78CC
100
AcDbEntity
  8
SK2
100
AcDbLine
 10
-48.99999999999998
 20
10.0
 30
0.0
 11
-71.87892952324975
 21
10.0
 31
0.0
  0
LINE
  5
7C5B
330
78CC
100
AcDbEntity
  8
SK2
100
AcDbLine
 10
-48.99999999999994
 20
-10.0
 30
0.0
 11
-71.87892952324975
 21
-9.999999999999992
 31
0.0
  0
LINE
  5
7C5C
330
78CC
100
AcDbEntity
  8
SK2
100
AcDbLine
 10
-70.87892952324975
 20
7.500000000000007
 30
0.0
 11
-70.87892952324975
 21
-7.499999999999992
 31
0.0
  0
MTEXT
  5
7C5D
330
78CC
100
AcDbEntity
  8
SK2
 62
     2
100
AcDbMText
 10
-73.75211378343895
 20
0.0489515023051013
 30
0.0
 40
3.5
 41
0.0
 71
     5
 72
     1
  1
\A1;%%c20
 11
0.0000000000000001
 21
1.0
 31
0.0
1001
ACAD
1000
MTEXTBEGIN
1070
    73
1070
     1
1070
    44
1040
1.0
1070
    74
1070
     0
1000
MTEXTEND
  0
SOLID
  5
7C5E
330
78CC
100
AcDbEntity
  8
SK2
100
AcDbTrace
 10
-71.29559618991642
 20
7.500000000000007
 30
0.0
 11
-70.46226285658308
 21
7.500000000000007
 31
0.0
 12
-70.87892952324975
 22
10.0
 32
0.0
 13
-70.87892952324975
 23
10.0
 33
0.0
  0
SOLID
  5
7C5F
330
78CC
100
AcDbEntity
  8
SK2
100
AcDbTrace
 10
-71.29559618991642
 20
-7.499999999999992
 30
0.0
 11
-70.46226285658308
 21
-7.499999999999992
 31
0.0
 12
-70.87892952324975
 22
-9.999999999999992
 32
0.0
 13
-70.87892952324975
 23
-9.999999999999992
 33
0.0
  0
POINT
  5
7C60
330
78CC
100
AcDbEntity
  8
DEFPOINTS
 62
     0
100
AcDbPoint
 10
-48.99999999999998
 20
10.0
 30
0.0
  0
POINT
  5
7C61
330
78CC
100
AcDbEntity
  8
DEFPOINTS
 62
     0
100
AcDbPoint
 10
-48.99999999999994
 20
-10.0
 30
0.0
  0
POINT
  5
7C62
330
78CC
100
AcDbEntity
  8
DEFPOINTS
 62
     0
100
AcDbPoint
 10
-70.87892952324975
 20
-9.999999999999992
 30
0.0
  0
ENDBLK
  5
78D8
330
78CC
100
AcDbEntity
  8
0
100
AcDbBlockEnd
  0
BLOCK
  5
8444
330
843A
100
AcDbEntity
  8
0
100
AcDbBlockBegin
  2
*D2
 70
     1
 10
0.0
 20
0.0
 30
0.0
  3
*D2
  1

  0
LINE
  5
8462
330
843A
100
AcDbEntity
  8
2
100
AcDbLine
 10
50.0
 20
15.99999999999975
 30
0.0
 11
74.61659676811928
 21
15.99999999999974
 31
0.0
  0
LINE
  5
8463
330
843A
100
AcDbEntity
  8
2
100
AcDbLine
 10
50.00000000000006
 20
-16.00000000000024
 30
0.0
 11
74.61659676811928
 21
-16.00000000000025
 31
0.0
  0
LINE
  5
8464
330
843A
100
AcDbEntity
  8
2
100
AcDbLine
 10
73.61659676811928
 20
13.49999999999974
 30
0.0
 11
73.61659676811928
 21
-13.50000000000025
 31
0.0
  0
SOLID
  5
8465
330
843A
100
AcDbEntity
  8
2
100
AcDbTrace
 10
73.1999301014526
 20
13.49999999999974
 30
0.0
 11
74.03326343478595
 21
13.49999999999974
 31
0.0
 12
73.61659676811928
 22
15.99999999999974
 32
0.0
 13
73.61659676811928
 23
15.99999999999974
 33
0.0
  0
SOLID
  5
8466
330
843A
100
AcDbEntity
  8
2
100
AcDbTrace
 10
73.1999301014526
 20
-13.50000000000025
 30
0.0
 11
74.03326343478595
 21
-13.50000000000025
 31
0.0
 12
73.61659676811928
 22
-16.00000000000025
 32
0.0
 13
73.61659676811928
 23
-16.00000000000025
 33
0.0
  0
MTEXT
  5
8467
330
843A
100
AcDbEntity
  8
2
 62
     2
100
AcDbMText
 10
70.36625227993031
 20
-0.0000000000002413
 30
0.0
 40
3.5
 41
0.0
 71
     5
 72
     1
  1
\A1;%%c32
 11
0.0000000000000001
 21
1.0
 31
0.0
1001
ACAD
1000
MTEXTBEGIN
1070
    73
1070
     1
1070
    44
1040
1.0
1070
    74
1070
     0
1000
MTEXTEND
  0
POINT
  5
8468
330
843A
100
AcDbEntity
  8
DEFPOINTS
 62
     0
100
AcDbPoint
 10
50.0
 20
15.99999999999975
 30
0.0
  0
POINT
  5
8469
330
843A
100
AcDbEntity
  8
DEFPOINTS
 62
     0
100
AcDbPoint
 10
50.00000000000006
 20
-16.00000000000024
 30
0.0
  0
POINT
  5
846A
330
843A
100
AcDbEntity
  8
DEFPOINTS
 62
     0
100
AcDbPoint
 10
73.61659676811928
 20
-16.00000000000025
 30
0.0
  0
ENDBLK
  5
8445
330
843A
100
AcDbEntity
  8
0
100
AcDbBlockEnd
  0
BLOCK
  5
8485
330
847B
100
AcDbEntity
  8
0
100
AcDbBlockBegin
  2
*D3
 70
     1
 10
0.0
 20
0.0
 30
0.0
  3
*D3
  1

  0
LINE
  5
849A
330
847B
100
AcDbEntity
  8
SK2
100
AcDbLine
 10
50.00000000000006
 20
-16.00000000000024
 30
0.0
 11
50.00000000000006
 21
-41.01235591402747
 31
0.0
  0
LINE
  5
849B
330
847B
100
AcDbEntity
  8
SK2
100
AcDbLine
 10
-50.0
 20
-8.999999999999943
 30
0.0
 11
-50.0
 21
-41.01235591402747
 31
0.0
  0
LINE
  5
849C
330
847B
100
AcDbEntity
  8
SK2
100
AcDbLine
 10
47.50000000000006
 20
-40.01235591402746
 30
0.0
 11
-47.49999999999999
 21
-40.01235591402746
 31
0.0
  0
SOLID
  5
849D
330
847B
100
AcDbEntity
  8
SK2
100
AcDbTrace
 10
47.50000000000006
 20
-39.5956892473608
 30
0.0
 11
47.50000000000006
 21
-40.42902258069413
 31
0.0
 12
50.00000000000006
 22
-40.01235591402746
 32
0.0
 13
50.00000000000006
 23
-40.01235591402746
 33
0.0
  0
SOLID
  5
849E
330
847B
100
AcDbEntity
  8
SK2
100
AcDbTrace
 10
-47.49999999999999
 20
-39.5956892473608
 30
0.0
 11
-47.49999999999999
 21
-40.42902258069413
 31
0.0
 12
-50.0
 22
-40.01235591402746
 32
0.0
 13
-50.0
 23
-40.01235591402746
 33
0.0
  0
MTEXT
  5
849F
330
847B
100
AcDbEntity
  8
SK2
 62
     2
100
AcDbMText
 10
0.0000000000000322
 20
-36.76235591402746
 30
0.0
 40
3.5
 41
0.0
 71
     5
 72
     1
  1
\A1;100
1001
ACAD
1000
MTEXTBEGIN
1070
    73
1070
     1
1070
    44
1040
1.0
1070
    74
1070
     0
1000
MTEXTEND
  0
POINT
  5
84A0
330
847B
100
AcDbEntity
  8
DEFPOINTS
 62
     0
100
AcDbPoint
 10
50.00000000000006
 20
-16.00000000000024
 30
0.0
  0
POINT
  5
84A1
330
847B
100
AcDbEntity
  8
DEFPOINTS
 62
     0
100
AcDbPoint
 10
-50.0
 20
-8.999999999999943
 30
0.0
  0
POINT
  5
84A2
330
847B
100
AcDbEntity
  8
DEFPOINTS
 62
     0
100
AcDbPoint
 10
-50.0
 20
-40.01235591402746
 30
0.0
  0
ENDBLK
  5
8486
330
847B
100
AcDbEntity
  8
0
100
AcDbBlockEnd
  0
BLOCK
  5
84D6
330
84CC
100
AcDbEntity
  8
0
100
AcDbBlockBegin
  2
*D4
 70
     1
 10
0.0
 20
0.0
 30
0.0
  3
*D4
  1

  0
LINE
  5
85B3
330
84CC
100
AcDbEntity
  8
2
100
AcDbLine
 10
50.0
 20
15.99999999999975
 30
0.0
 11
50.0
 21
45.99999999999975
 31
0.0
  0
LINE
  5
85B4
330
84CC
100
AcDbEntity
  8
2
100
AcDbLine
 10
36.00000000000003
 20
15.49999999999975
 30
0.0
 11
36.00000000000003
 21
45.99999999999975
 31
0.0
  0
LINE
  5
85B5
330
84CC
100
AcDbEntity
  8
2
100
AcDbLine
 10
47.5
 20
44.99999999999976
 30
0.0
 11
38.50000000000003
 21
44.99999999999976
 31
0.0
  0
SOLID
  5
85B6
330
84CC
100
AcDbEntity
  8
2
100
AcDbTrace
 10
47.5
 20
45.41666666666642
 30
0.0
 11
47.5
 21
44.58333333333309
 31
0.0
 12
50.0
 22
44.99999999999976
 32
0.0
 13
50.0
 23
44.99999999999976
 33
0.0
  0
SOLID
  5
85B7
330
84CC
100
AcDbEntity
  8
2
100
AcDbTrace
 10
38.50000000000003
 20
45.41666666666642
 30
0.0
 11
38.50000000000003
 21
44.58333333333309
 31
0.0
 12
36.00000000000003
 22
44.99999999999976
 32
0.0
 13
36.00000000000003
 23
44.99999999999976
 33
0.0
  0
MTEXT
  5
85B8
330
84CC
100
AcDbEntity
  8
2
 62
     2
100
AcDbMText
 10
43.00000000000001
 20
48.24999999999976
 30
0.0
 40
3.5
 41
0.0
 71
     5
 72
     1
  1
\A1;14
1001
ACAD
1000
MTEXTBEGIN
1070
    73
1070
     1
1070
    44
1040
1.0
1070
    74
1070
     0
1000
MTEXTEND
  0
POINT
  5
85B9
330
84CC
100
AcDbEntity
  8
DEFPOINTS
 62
     0
100
AcDbPoint
 10
50.0
 20
15.99999999999975
 30
0.0
  0
POINT
  5
85BA
330
84CC
100
AcDbEntity
  8
DEFPOINTS
 62
     0
100
AcDbPoint
 10
36.00000000000003
 20
15.49999999999975
 30
0.0
  0
POINT
  5
85BB
330
84CC
100
AcDbEntity
  8
DEFPOINTS
 62
     0
100
AcDbPoint
 10
36.00000000000003
 20
44.99999999999976
 30
0.0
  0
ENDBLK
  5
84D7
330
84CC
100
AcDbEntity
  8
0
100
AcDbBlockEnd
  0
BLOCK
  5
84FE
330
84F4
100
AcDbEntity
  8
0
100
AcDbBlockBegin
  2
*D5
 70
     1
 10
0.0
 20
0.0
 30
0.0
  3
*D5
  1

  0
LINE
  5
85AA
330
84F4
100
AcDbEntity
  8
2
100
AcDbLine
 10
50.0
 20
15.99999999999975
 30
0.0
 11
50.0
 21
60.99999999999976
 31
0.0
  0
LINE
  5
85AB
330
84F4
100
AcDbEntity
  8
2
100
AcDbLine
 10
11.0
 20
8.499999999999753
 30
0.0
 11
11.00000000000001
 21
60.99999999999976
 31
0.0
  0
LINE
  5
85AC
330
84F4
100
AcDbEntity
  8
2
100
AcDbLine
 10
47.5
 20
59.99999999999976
 30
0.0
 11
13.50000000000001
 21
59.99999999999976
 31
0.0
  0
SOLID
  5
85AD
330
84F4
100
AcDbEntity
  8
2
100
AcDbTrace
 10
47.5
 20
60.41666666666642
 30
0.0
 11
47.5
 21
59.58333333333309
 31
0.0
 12
50.0
 22
59.99999999999976
 32
0.0
 13
50.0
 23
59.99999999999976
 33
0.0
  0
SOLID
  5
85AE
330
84F4
100
AcDbEntity
  8
2
100
AcDbTrace
 10
13.50000000000001
 20
60.41666666666642
 30
0.0
 11
13.50000000000001
 21
59.58333333333309
 31
0.0
 12
11.00000000000001
 22
59.99999999999976
 32
0.0
 13
11.00000000000001
 23
59.99999999999976
 33
0.0
  0
MTEXT
  5
85AF
330
84F4
100
AcDbEntity
  8
2
 62
     2
100
AcDbMText
 10
30.5
 20
63.24999999999976
 30
0.0
 40
3.5
 41
0.0
 71
     5
 72
     1
  1
\A1;39
1001
ACAD
1000
MTEXTBEGIN
1070
    73
1070
     1
1070
    44
1040
1.0
1070
    74
1070
     0
1000
MTEXTEND
  0
POINT
  5
85B0
330
84F4
100
AcDbEntity
  8
DEFPOINTS
 62
     0
100
AcDbPoint
 10
50.0
 20
15.99999999999975
 30
0.0
  0
POINT
  5
85B1
330
84F4
100
AcDbEntity
  8
DEFPOINTS
 62
     0
100
AcDbPoint
 10
11.0
 20
8.499999999999753
 30
0.0
  0
POINT
  5
85B2
330
84F4
100
AcDbEntity
  8
DEFPOINTS
 62
     0
100
AcDbPoint
 10
11.00000000000001
 20
59.99999999999976
 30
0.0
  0
ENDBLK
  5
84FF
330
84F4
100
AcDbEntity
  8
0
100
AcDbBlockEnd
  0
BLOCK
  5
8526
330
851C
100
AcDbEntity
  8
0
100
AcDbBlockBegin
  2
*D6
 70
     1
 10
0.0
 20
0.0
 30
0.0
  3
*D6
  1

  0
LINE
  5
8586
330
851C
100
AcDbEntity
  8
2
100
AcDbLine
 10
50.0
 20
15.99999999999975
 30
0.0
 11
50.0
 21
75.99999999999976
 31
0.0
  0
LINE
  5
8587
330
851C
100
AcDbEntity
  8
2
100
AcDbLine
 10
0.0000000000000213
 20
10.00000000000002
 30
0.0
 11
0.0000000000000254
 21
75.99999999999976
 31
0.0
  0
LINE
  5
8588
330
851C
100
AcDbEntity
  8
2
100
AcDbLine
 10
47.5
 20
74.99999999999976
 30
0.0
 11
2.500000000000025
 21
74.99999999999976
 31
0.0
  0
SOLID
  5
8589
330
851C
100
AcDbEntity
  8
2
100
AcDbTrace
 10
47.5
 20
75.41666666666642
 30
0.0
 11
47.5
 21
74.58333333333309
 31
0.0
 12
50.0
 22
74.99999999999976
 32
0.0
 13
50.0
 23
74.99999999999976
 33
0.0
  0
SOLID
  5
858A
330
851C
100
AcDbEntity
  8
2
100
AcDbTrace
 10
2.500000000000025
 20
75.41666666666642
 30
0.0
 11
2.500000000000025
 21
74.58333333333309
 31
0.0
 12
0.0000000000000253
 22
74.99999999999976
 32
0.0
 13
0.0000000000000253
 23
74.99999999999976
 33
0.0
  0
MTEXT
  5
858B
330
851C
100
AcDbEntity
  8
2
 62
     2
100
AcDbMText
 10
25.00000000000001
 20
78.24999999999976
 30
0.0
 40
3.5
 41
0.0
 71
     5
 72
     1
  1
\A1;50
1001
ACAD
1000
MTEXTBEGIN
1070
    73
1070
     1
1070
    44
1040
1.0
1070
    74
1070
     0
1000
MTEXTEND
  0
POINT
  5
858C
330
851C
100
AcDbEntity
  8
DEFPOINTS
 62
     0
100
AcDbPoint
 10
50.0
 20
15.99999999999975
 30
0.0
  0
POINT
  5
858D
330
851C
100
AcDbEntity
  8
DEFPOINTS
 62
     0
100
AcDbPoint
 10
0.0000000000000213
 20
10.00000000000002
 30
0.0
  0
POINT
  5
858E
330
851C
100
AcDbEntity
  8
DEFPOINTS
 62
     0
100
AcDbPoint
 10
0.0000000000000253
 20
74.99999999999976
 30
0.0
  0
ENDBLK
  5
8527
330
851C
100
AcDbEntity
  8
0
100
AcDbBlockEnd
  0
ENDSEC
  0
SECTION
  2
ENTITIES
  0
LINE
  5
76EF
330
6A34
100
AcDbEntity
  8
1
100
AcDbLine
 10
10.0
 20
10.0
 30
0.0
 11
0.0000000000000213
 21
10.00000000000002
 31
0.0
  0
LINE
  5
76F0
330
6A34
100
AcDbEntity
  8
SK1
100
AcDbLine
 10
-48.99999999999998
 20
10.0
 30
0.0
 11
-49.99999999999998
 21
9.0
 31
0.0
  0
LINE
  5
76F1
330
6A34
100
AcDbEntity
  8
SK1
100
AcDbLine
 10
-49.99999999999998
 20
9.0
 30
0.0
 11
-50.0
 21
-8.999999999999943
 31
0.0
  0
LINE
  5
76F2
330
6A34
100
AcDbEntity
  8
SK1
100
AcDbLine
 10
-50.0
 20
-8.999999999999943
 30
0.0
 11
-48.99999999999994
 21
-10.0
 31
0.0
  0
LINE
  5
76F3
330
6A34
100
AcDbEntity
  8
SK1
100
AcDbLine
 10
-48.99999999999994
 20
-10.0
 30
0.0
 11
-0.0000000000000213
 21
-10.0
 31
0.0
  0
LINE
  5
76F4
330
6A34
100
AcDbEntity
  8
SK1
100
AcDbLine
 10
-48.99999999999994
 20
-10.0
 30
0.0
 11
-48.99999999999998
 21
10.0
 31
0.0
  0
LINE
  5
76F5
330
6A34
100
AcDbEntity
  8
SK1
100
AcDbLine
 10
-30.49999999999777
 20
-5.723499999999972
 30
0.0
 11
-19.49999999999777
 21
-5.723500000000029
 31
0.0
  0
LINE
  5
76F6
330
6A34
100
AcDbEntity
  8
SK1
100
AcDbLine
 10
-19.49999999999777
 20
-5.723500000000029
 30
0.0
 11
-19.49999999999777
 21
5.723500000000029
 31
0.0
  0
LINE
  5
76F7
330
6A34
100
AcDbEntity
  8
SK1
100
AcDbLine
 10
-19.49999999999777
 20
5.723500000000029
 30
0.0
 11
-30.49999999999777
 21
5.723500000000001
 31
0.0
  0
ARC
  5
76F8
330
6A34
100
AcDbEntity
  8
SK1
100
AcDbCircle
 10
-27.69957006944224
 20
0.0
 30
0.0
 40
9.999570069444475
100
AcDbArc
 50
325.0840190482521
 51
34.91598095174754
  0
ARC
  5
76F9
330
6A34
100
AcDbEntity
  8
SK1
100
AcDbCircle
 10
-22.3004299305531
 20
0.0000000000000284
 30
0.0
 40
9.999570069444622
100
AcDbArc
 50
145.084019048253
 51
214.9159809517471
  0
LINE
  5
76FB
330
6A34
100
AcDbEntity
  8
SK1
100
AcDbLine
 10
-30.49999999999777
 20
5.723500000000001
 30
0.0
 11
-30.49999999999777
 21
-5.723499999999972
 31
0.0
  0
LINE
  5
773C
330
6A34
100
AcDbEntity
  8
SK1
100
AcDbLine
 10
0.0
 20
3.200115174948678
 30
0.0
 11
0.0
 21
-3.200115174948678
 31
0.0
  0
CIRCLE
  5
773D
330
6A34
100
AcDbEntity
  8
SK1
100
AcDbCircle
 10
0.0
 20
0.0
 30
0.0
 40
3.200115174948665
  0
LINE
  5
773E
330
6A34
100
AcDbEntity
  8
SK1
100
AcDbLine
 10
-3.200115174948678
 20
0.0
 30
0.0
 11
3.200115174948678
 21
0.0
 31
0.0
  0
LINE
  5
77A6
330
6A34
100
AcDbEntity
  8
SK4
100
AcDbLine
 10
-0.0000000000000142
 20
0.0
 30
0.0
 11
-52.59136143470388
 21
-0.000000000000199
 31
0.0
  0
LINE
  5
77A7
330
6A34
100
AcDbEntity
  8
4
100
AcDbLine
 10
52.29933659881999
 20
-0.0000000000002348
 30
0.0
 11
-0.0000000000000142
 21
0.0
 31
0.0
  0
LINE
  5
77A8
330
6A34
100
AcDbEntity
  8
1
100
AcDbLine
 10
10.0
 20
10.0
 30
0.0
 11
10.0
 21
-10.0
 31
0.0
  0
LINE
  5
77AA
330
6A34
100
AcDbEntity
  8
1
100
AcDbLine
 10
-0.0000000000000213
 20
-10.0
 30
0.0
 11
10.0
 21
-10.0
 31
0.0
  0
LINE
  5
77AB
330
6A34
100
AcDbEntity
  8
SK1
100
AcDbLine
 10
0.0000000000000213
 20
10.00000000000002
 30
0.0
 11
-48.99999999999998
 21
10.0
 31
0.0
  0
DIMENSION
  5
78CB
330
6A34
100
AcDbEntity
  8
SK2
100
AcDbDimension
  2
*D1
 10
-70.87892952324975
 20
-9.999999999999992
 30
0.0
 11
-73.75211378343895
 21
0.0489515023051013
 31
0.0
 70
   160
  1
%%c<>
 53
90.0
  3
AM_ANSI
100
AcDbAlignedDimension
 13
-48.99999999999998
 23
10.0
 33
0.0
 14
-48.99999999999994
 24
-10.0
 34
0.0
 50
90.0
100
AcDbRotatedDimension
1001
ACAD
1000
DSTYLE
1002
{
1070
    41
1040
2.5
1070
    42
1040
0.0
1070
    44
1040
1.0
1070
   140
1040
3.5
1070
   147
1040
1.0
1070
   271
1070
     0
1002
}
  0
TEXT
  5
7BC6
330
6A34
100
AcDbEntity
  8
6
100
AcDbText
 10
52.10250392062832
 20
-21.24779192491098
 30
0.0
 40
3.5
  1
15T1E032014W4R00
100
AcDbText
  0
LINE
  5
7BC8
330
6A34
100
AcDbEntity
  8
NOCUT
100
AcDbLine
 10
0.0
 20
0.0
 30
0.0
 11
0.0
 21
-10.0
 31
0.0
  0
LINE
  5
7BC9
330
6A34
100
AcDbEntity
  8
NOCUT
100
AcDbLine
 10
0.0
 20
-10.0
 30
0.0
 11
10.0
 21
-10.0
 31
0.0
  0
LINE
  5
7BCA
330
6A34
100
AcDbEntity
  8
NOCUT
100
AcDbLine
 10
10.0
 20
-10.0
 30
0.0
 11
10.0
 21
-8.500000000000246
 31
0.0
  0
LINE
  5
7BCD
330
6A34
100
AcDbEntity
  8
NOCUT
100
AcDbLine
 10
48.99679480008382
 20
-0.0000000000002096
 30
0.0
 11
-0.0000000000000142
 21
0.0
 31
0.0
  0
ARC
  5
812E
330
6A34
100
AcDbEntity
  8
CUT
100
AcDbCircle
 10
36.50000000000003
 20
15.49999999999975
 30
0.0
 40
0.5
100
AcDbArc
 50
90.0
 51
180.0
1001
GENIUS_GENOBJ-N-FIL_13
1002
{
1000
OWNER
1000
GEN
1002
}
1001
GENIUS_GENODEF_13
1002
{
1000
HIER
1070
     0
1002
}
1002
{
1000
MANEDIT
1070
     0
1002
}
1002
{
1000
NOSEL
1070
     0
1002
}
1002
{
1000
BEHIND
1070
     0
1002
}
1002
{
1000
OTHER
1070
     0
1002
}
1002
{
1000
REACTOR
1002
}
  0
ARC
  5
812F
330
6A34
100
AcDbEntity
  8
1
100
AcDbCircle
 10
36.50000000000003
 20
15.49999999999975
 30
0.0
 40
0.5
100
AcDbArc
 50
90.0
 51
180.0
1001
GENIUS_GENOBJ-N-FIL_13
1002
{
1000
OWNER
1000
GEN
1002
}
1001
GENIUS_GENODEF_13
1002
{
1000
HIER
1070
     0
1002
}
1002
{
1000
MANEDIT
1070
     0
1002
}
1002
{
1000
NOSEL
1070
     0
1002
}
1002
{
1000
BEHIND
1070
     0
1002
}
1002
{
1000
OTHER
1070
     0
1002
}
1002
{
1000
REACTOR
1002
}
  0
ARC
  5
8130
330
6A34
100
AcDbEntity
  8
CUT
100
AcDbCircle
 10
49.5
 20
15.49999999999975
 30
0.0
 40
0.5
100
AcDbArc
 50
0.0
 51
90.0
1001
GENIUS_GENODEF_13
1002
{
1000
HIER
1070
     0
1002
}
1002
{
1000
MANEDIT
1070
     0
1002
}
1002
{
1000
NOSEL
1070
     0
1002
}
1002
{
1000
BEHIND
1070
     0
1002
}
1002
{
1000
OTHER
1070
     0
1002
}
1002
{
1000
REACTOR
1002
}
1001
GENIUS_GENOBJ-N-FIL_13
1002
{
1000
OWNER
1000
GEN
1002
}
  0
ARC
  5
8131
330
6A34
100
AcDbEntity
  8
1
100
AcDbCircle
 10
49.5
 20
15.49999999999975
 30
0.0
 40
0.5
100
AcDbArc
 50
0.0
 51
90.0
1001
GENIUS_GENODEF_13
1002
{
1000
HIER
1070
     0
1002
}
1002
{
1000
MANEDIT
1070
     0
1002
}
1002
{
1000
NOSEL
1070
     0
1002
}
1002
{
1000
BEHIND
1070
     0
1002
}
1002
{
1000
OTHER
1070
     0
1002
}
1002
{
1000
REACTOR
1002
}
1001
GENIUS_GENOBJ-N-FIL_13
1002
{
1000
OWNER
1000
GEN
1002
}
  0
ARC
  5
8132
330
6A34
100
AcDbEntity
  8
1
100
AcDbCircle
 10
42.49999999999997
 20
15.49999999999975
 30
0.0
 40
0.5
100
AcDbArc
 50
90.0
 51
180.0
1001
GENIUS_GENOBJ-N-FIL_13
1002
{
1000
OWNER
1000
GEN
1002
}
1001
GENIUS_GENODEF_13
1002
{
1000
HIER
1070
     0
1002
}
1002
{
1000
MANEDIT
1070
     0
1002
}
1002
{
1000
NOSEL
1070
     0
1002
}
1002
{
1000
BEHIND
1070
     0
1002
}
1002
{
1000
OTHER
1070
     0
1002
}
1002
{
1000
REACTOR
1002
}
  0
LINE
  5
8133
330
6A34
100
AcDbEntity
  8
SK1
100
AcDbLine
 10
50.0
 20
16.46376936984857
 30
0.0
 11
50.0
 21
15.53623063015093
 31
0.0
  0
CIRCLE
  5
8134
330
6A34
100
AcDbEntity
  8
SK1
100
AcDbCircle
 10
50.0
 20
15.99999999999975
 30
0.0
 40
0.4637693698488208
  0
ARC
  5
8135
330
6A34
100
AcDbEntity
  8
1
 48
0.3
100
AcDbCircle
 10
37.46857106474254
 20
13.70883296496216
 30
0.0
 40
8.0
100
AcDbArc
 50
220.6248996521479
 51
270.0000000000008
1001
GENIUS_GENOBJ-N-FIL_13
1002
{
1000
OWNER
1000
GEN
1002
}
1001
GENIUS_GENODEF_13
1002
{
1000
HIER
1070
     0
1002
}
1002
{
1000
MANEDIT
1070
     0
1002
}
1002
{
1000
NOSEL
1070
     0
1002
}
1002
{
1000
BEHIND
1070
     0
1002
}
1002
{
1000
OTHER
1070
     0
1002
}
1002
{
1000
REACTOR
1002
}
  0
LINE
  5
8136
330
6A34
100
AcDbEntity
  8
1
100
AcDbLine
 10
48.99679480008382
 20
-15.27113434341672
 30
0.0
 11
36.88677295187271
 21
-15.27113434341672
 31
0.0
  0
LINE
  5
8137
330
6A34
100
AcDbEntity
  8
1
100
AcDbLine
 10
49.49999999999994
 20
-16.00000000000027
 30
0.0
 11
36.49999999999987
 21
-16.00000000000005
 31
0.0
  0
LINE
  5
8138
330
6A34
100
AcDbEntity
  8
SK3
 48
0.5
100
AcDbLine
 10
36.50000000000027
 20
-8.000000000000035
 30
0.0
 11
48.99679480008393
 21
-8.00000000000027
 31
0.0
  0
LINE
  5
8139
330
6A34
100
AcDbEntity
  8
CUT
100
AcDbLine
 10
36.50000000000003
 20
7.999999999999751
 30
0.0
 11
49.5
 21
7.999999999999753
 31
0.0
  0
LINE
  5
813A
330
6A34
100
AcDbEntity
  8
1
100
AcDbLine
 10
36.50000000000003
 20
7.999999999999751
 30
0.0
 11
49.5
 21
7.999999999999753
 31
0.0
  0
ARC
  5
813B
330
6A34
100
AcDbEntity
  8
SK3
 48
0.3
100
AcDbCircle
 10
36.53853285367054
 20
-12.82516521972329
 30
0.0
 40
7.176848600479144
100
AcDbArc
 50
82.55417664987222
 51
142.9396991254126
1001
GENIUS_GENOBJ-N-FIL_13
1002
{
1000
OWNER
1000
GEN
1002
}
1001
GENIUS_GENODEF_13
1002
{
1000
HIER
1070
     0
1002
}
1002
{
1000
MANEDIT
1070
     0
1002
}
1002
{
1000
NOSEL
1070
     0
1002
}
1002
{
1000
BEHIND
1070
     0
1002
}
1002
{
1000
OTHER
1070
     0
1002
}
1002
{
1000
REACTOR
1002
}
  0
LINE
  5
813E
330
6A34
100
AcDbEntity
  8
2
100
AcDbLine
 10
27.77735605662928
 20
-8.500000000000248
 30
0.0
 11
27.77735605662928
 21
8.499999999999753
 31
0.0
  0
SOLID
  5
813F
330
6A34
100
AcDbEntity
  8
2
100
AcDbTrace
 10
27.36068938996263
 20
-11.00000000000024
 30
0.0
 11
28.19402272329594
 21
-11.00000000000024
 31
0.0
 12
27.77735605662928
 22
-8.500000000000246
 32
0.0
 13
27.77735605662928
 23
-8.500000000000246
 33
0.0
  0
LINE
  5
8140
330
6A34
100
AcDbEntity
  8
2
100
AcDbLine
 10
27.77735605662928
 20
-9.000000000000227
 30
0.0
 11
27.77735605662928
 21
-11.50000000000022
 31
0.0
  0
SOLID
  5
8141
330
6A34
100
AcDbEntity
  8
2
100
AcDbTrace
 10
27.36068938996263
 20
10.99999999999975
 30
0.0
 11
28.19402272329594
 21
10.99999999999975
 31
0.0
 12
27.77735605662928
 22
8.499999999999753
 32
0.0
 13
27.77735605662928
 23
8.499999999999753
 33
0.0
  0
LINE
  5
8142
330
6A34
100
AcDbEntity
  8
2
100
AcDbLine
 10
27.77735605662928
 20
10.99999999999975
 30
0.0
 11
27.77735605662928
 21
13.49999999999975
 31
0.0
  0
LINE
  5
8143
330
6A34
100
AcDbEntity
  8
1
100
AcDbLine
 10
35.99999999999987
 20
-15.50000000000003
 30
0.0
 11
36.00000000000024
 21
-8.500000000000246
 31
0.0
  0
LINE
  5
8144
330
6A34
100
AcDbEntity
  8
1
100
AcDbLine
 10
36.88677295187271
 20
-15.27113434341672
 30
0.0
 11
36.88677295187271
 21
5.73001657680903
 31
0.0
  0
ARC
  5
8145
330
6A34
100
AcDbEntity
  8
1
100
AcDbCircle
 10
36.49999999999987
 20
-15.50000000000005
 30
0.0
 40
0.5
100
AcDbArc
 50
180.0
 51
269.9999999999983
1001
GENIUS_GENOBJ-N-FIL_13
1002
{
1000
OWNER
1000
GEN
1002
}
1001
GENIUS_GENODEF_13
1002
{
1000
HIER
1070
     0
1002
}
1002
{
1000
MANEDIT
1070
     0
1002
}
1002
{
1000
NOSEL
1070
     0
1002
}
1002
{
1000
BEHIND
1070
     0
1002
}
1002
{
1000
OTHER
1070
     0
1002
}
1002
{
1000
REACTOR
1002
}
  0
LINE
  5
8147
330
6A34
100
AcDbEntity
  8
NOCUT
100
AcDbLine
 10
10.0
 20
-8.500000000000246
 30
0.0
 11
36.8867729518728
 21
-8.500000000000246
 31
0.0
  0
ARC
  5
8148
330
6A34
100
AcDbEntity
  8
SK3
 48
0.5
100
AcDbCircle
 10
36.50000000000024
 20
-8.500000000000035
 30
0.0
 40
0.5
100
AcDbArc
 50
89.99999999999836
 51
180.0
1001
GENIUS_GENOBJ-N-FIL_13
1002
{
1000
OWNER
1000
GEN
1002
}
1001
GENIUS_GENODEF_13
1002
{
1000
HIER
1070
     0
1002
}
1002
{
1000
MANEDIT
1070
     0
1002
}
1002
{
1000
NOSEL
1070
     0
1002
}
1002
{
1000
BEHIND
1070
     0
1002
}
1002
{
1000
OTHER
1070
     0
1002
}
1002
{
1000
REACTOR
1002
}
  0
LINE
  5
8149
330
6A34
100
AcDbEntity
  8
1
100
AcDbLine
 10
36.8867729518728
 20
-8.500000000000246
 30
0.0
 11
36.88677295187271
 21
-8.500000000000246
 31
0.0
  0
LINE
  5
814A
330
6A34
100
AcDbEntity
  8
4
100
AcDbLine
 10
30.60421115671521
 20
-0.3291601016673598
 30
0.0
 11
40.78710394720984
 21
7.311408051941374
 31
0.0
  0
LINE
  5
814B
330
6A34
100
AcDbEntity
  8
CUT
100
AcDbLine
 10
36.00000000000003
 20
15.49999999999975
 30
0.0
 11
36.00000000000003
 21
8.499999999999751
 31
0.0
  0
LINE
  5
814C
330
6A34
100
AcDbEntity
  8
1
100
AcDbLine
 10
36.00000000000003
 20
15.49999999999975
 30
0.0
 11
36.00000000000003
 21
8.499999999999751
 31
0.0
  0
ARC
  5
814D
330
6A34
100
AcDbEntity
  8
CUT
100
AcDbCircle
 10
36.50000000000003
 20
8.499999999999751
 30
0.0
 40
0.5
100
AcDbArc
 50
180.0
 51
270.0
1001
GENIUS_GENOBJ-N-FIL_13
1002
{
1000
OWNER
1000
GEN
1002
}
1001
GENIUS_GENODEF_13
1002
{
1000
HIER
1070
     0
1002
}
1002
{
1000
MANEDIT
1070
     0
1002
}
1002
{
1000
NOSEL
1070
     0
1002
}
1002
{
1000
BEHIND
1070
     0
1002
}
1002
{
1000
OTHER
1070
     0
1002
}
1002
{
1000
REACTOR
1002
}
  0
ARC
  5
814E
330
6A34
100
AcDbEntity
  8
1
100
AcDbCircle
 10
36.50000000000003
 20
8.499999999999751
 30
0.0
 40
0.5
100
AcDbArc
 50
180.0
 51
270.0
1001
GENIUS_GENOBJ-N-FIL_13
1002
{
1000
OWNER
1000
GEN
1002
}
1001
GENIUS_GENODEF_13
1002
{
1000
HIER
1070
     0
1002
}
1002
{
1000
MANEDIT
1070
     0
1002
}
1002
{
1000
NOSEL
1070
     0
1002
}
1002
{
1000
BEHIND
1070
     0
1002
}
1002
{
1000
OTHER
1070
     0
1002
}
1002
{
1000
REACTOR
1002
}
  0
LINE
  5
814F
330
6A34
100
AcDbEntity
  8
NOCUT
100
AcDbLine
 10
48.99679480008382
 20
-15.27113434341672
 30
0.0
 11
48.99679480008382
 21
-0.0000000000002096
 31
0.0
  0
LINE
  5
8150
330
6A34
100
AcDbEntity
  8
1
100
AcDbLine
 10
48.99679480008383
 20
7.999999999999753
 30
0.0
 11
48.99679480008382
 21
-15.27113434341672
 31
0.0
  0
LINE
  5
8151
330
6A34
100
AcDbEntity
  8
SK3
 48
0.3
100
AcDbLine
 10
37.46857106474098
 20
-5.708832964962537
 30
0.0
 11
48.9967948000837
 21
-5.708832964962844
 31
0.0
  0
LINE
  5
8152
330
6A34
100
AcDbEntity
  8
SK3
 48
0.5
100
AcDbLine
 10
42.0
 20
-15.27113434341672
 30
0.0
 11
42.00000000000005
 21
-8.500000000000184
 31
0.0
  0
LINE
  5
8153
330
6A34
100
AcDbEntity
  8
1
100
AcDbLine
 10
41.99999999999997
 20
-15.50000000000018
 30
0.0
 11
42.0
 21
-15.27113434341757
 31
0.0
  0
ARC
  5
8154
330
6A34
100
AcDbEntity
  8
1
100
AcDbCircle
 10
42.49999999999997
 20
-15.50000000000019
 30
0.0
 40
0.5
100
AcDbArc
 50
179.9999999999991
 51
270.0
1001
GENIUS_GENOBJ-N-FIL_13
1002
{
1000
OWNER
1000
GEN
1002
}
1001
GENIUS_GENODEF_13
1002
{
1000
HIER
1070
     0
1002
}
1002
{
1000
MANEDIT
1070
     0
1002
}
1002
{
1000
NOSEL
1070
     0
1002
}
1002
{
1000
BEHIND
1070
     0
1002
}
1002
{
1000
OTHER
1070
     0
1002
}
1002
{
1000
REACTOR
1002
}
  0
ARC
  5
8155
330
6A34
100
AcDbEntity
  8
SK3
 48
0.5
100
AcDbCircle
 10
42.50000000000006
 20
-8.500000000000184
 30
0.0
 40
0.5
100
AcDbArc
 50
90.0
 51
179.9999999999991
1001
GENIUS_GENOBJ-N-FIL_13
1002
{
1000
OWNER
1000
GEN
1002
}
1001
GENIUS_GENODEF_13
1002
{
1000
HIER
1070
     0
1002
}
1002
{
1000
MANEDIT
1070
     0
1002
}
1002
{
1000
NOSEL
1070
     0
1002
}
1002
{
1000
BEHIND
1070
     0
1002
}
1002
{
1000
OTHER
1070
     0
1002
}
1002
{
1000
REACTOR
1002
}
  0
LINE
  5
8156
330
6A34
100
AcDbEntity
  8
1
100
AcDbLine
 10
50.00000000000006
 20
-8.500000000000277
 30
0.0
 11
49.99999999999994
 21
-15.50000000000027
 31
0.0
  0
ARC
  5
8157
330
6A34
100
AcDbEntity
  8
1
100
AcDbCircle
 10
49.49999999999994
 20
-15.50000000000027
 30
0.0
 40
0.5
100
AcDbArc
 50
270.0
 51
359.9999999999992
1001
GENIUS_GENODEF_13
1002
{
1000
HIER
1070
     0
1002
}
1002
{
1000
MANEDIT
1070
     0
1002
}
1002
{
1000
NOSEL
1070
     0
1002
}
1002
{
1000
BEHIND
1070
     0
1002
}
1002
{
1000
OTHER
1070
     0
1002
}
1002
{
1000
REACTOR
1002
}
1001
GENIUS_GENOBJ-N-FIL_13
1002
{
1000
OWNER
1000
GEN
1002
}
  0
LINE
  5
8158
330
6A34
100
AcDbEntity
  8
SK1
100
AcDbLine
 10
50.00000000000006
 20
-16.46376936984906
 30
0.0
 11
50.00000000000006
 21
-15.53623063015143
 31
0.0
  0
LINE
  5
8159
330
6A34
100
AcDbEntity
  8
SK1
100
AcDbLine
 10
49.53623063015124
 20
-16.00000000000024
 30
0.0
 11
50.46376936984888
 21
-16.00000000000024
 31
0.0
  0
CIRCLE
  5
815A
330
6A34
100
AcDbEntity
  8
SK1
100
AcDbCircle
 10
50.00000000000006
 20
-16.00000000000024
 30
0.0
 40
0.4637693698488208
  0
ARC
  5
815B
330
6A34
100
AcDbEntity
  8
1
100
AcDbCircle
 10
49.50000000000006
 20
-8.50000000000027
 30
0.0
 40
0.5
100
AcDbArc
 50
359.9999999999992
 51
90.0
1001
GENIUS_GENODEF_13
1002
{
1000
HIER
1070
     0
1002
}
1002
{
1000
MANEDIT
1070
     0
1002
}
1002
{
1000
NOSEL
1070
     0
1002
}
1002
{
1000
BEHIND
1070
     0
1002
}
1002
{
1000
OTHER
1070
     0
1002
}
1002
{
1000
REACTOR
1002
}
1001
GENIUS_GENOBJ-N-FIL_13
1002
{
1000
OWNER
1000
GEN
1002
}
  0
LINE
  5
815C
330
6A34
100
AcDbEntity
  8
1
100
AcDbLine
 10
48.99679480008393
 20
-8.00000000000027
 30
0.0
 11
49.50000000000006
 21
-8.00000000000027
 31
0.0
  0
LINE
  5
815D
330
6A34
100
AcDbEntity
  8
1
 48
0.3
100
AcDbLine
 10
37.46857106474265
 20
5.708832964962169
 30
0.0
 11
48.99679480008373
 21
5.708832964962335
 31
0.0
  0
CIRCLE
  5
815E
330
6A34
100
AcDbEntity
  8
1
100
AcDbCircle
 10
46.0
 20
11.99999999999975
 30
0.0
 40
2.298066995929217
  0
LINE
  5
815F
330
6A34
100
AcDbEntity
  8
1
100
AcDbLine
 10
41.99999999999997
 20
15.49999999999975
 30
0.0
 11
41.99999999999997
 21
8.499999999999753
 31
0.0
  0
ARC
  5
8160
330
6A34
100
AcDbEntity
  8
1
100
AcDbCircle
 10
42.49999999999997
 20
8.499999999999753
 30
0.0
 40
0.5
100
AcDbArc
 50
180.0
 51
270.0
1001
GENIUS_GENOBJ-N-FIL_13
1002
{
1000
OWNER
1000
GEN
1002
}
1001
GENIUS_GENODEF_13
1002
{
1000
HIER
1070
     0
1002
}
1002
{
1000
MANEDIT
1070
     0
1002
}
1002
{
1000
NOSEL
1070
     0
1002
}
1002
{
1000
BEHIND
1070
     0
1002
}
1002
{
1000
OTHER
1070
     0
1002
}
1002
{
1000
REACTOR
1002
}
  0
LINE
  5
8161
330
6A34
100
AcDbEntity
  8
CUT
100
AcDbLine
 10
50.0
 20
8.499999999999753
 30
0.0
 11
50.0
 21
15.49999999999975
 31
0.0
  0
LINE
  5
8162
330
6A34
100
AcDbEntity
  8
1
100
AcDbLine
 10
50.0
 20
8.499999999999753
 30
0.0
 11
50.0
 21
15.49999999999975
 31
0.0
  0
ARC
  5
8163
330
6A34
100
AcDbEntity
  8
CUT
100
AcDbCircle
 10
49.5
 20
8.499999999999753
 30
0.0
 40
0.5
100
AcDbArc
 50
270.0
 51
0.0
1001
GENIUS_GENODEF_13
1002
{
1000
HIER
1070
     0
1002
}
1002
{
1000
MANEDIT
1070
     0
1002
}
1002
{
1000
NOSEL
1070
     0
1002
}
1002
{
1000
BEHIND
1070
     0
1002
}
1002
{
1000
OTHER
1070
     0
1002
}
1002
{
1000
REACTOR
1002
}
1001
GENIUS_GENOBJ-N-FIL_13
1002
{
1000
OWNER
1000
GEN
1002
}
  0
ARC
  5
8164
330
6A34
100
AcDbEntity
  8
1
100
AcDbCircle
 10
49.5
 20
8.499999999999753
 30
0.0
 40
0.5
100
AcDbArc
 50
270.0
 51
0.0
1001
GENIUS_GENODEF_13
1002
{
1000
HIER
1070
     0
1002
}
1002
{
1000
MANEDIT
1070
     0
1002
}
1002
{
1000
NOSEL
1070
     0
1002
}
1002
{
1000
BEHIND
1070
     0
1002
}
1002
{
1000
OTHER
1070
     0
1002
}
1002
{
1000
REACTOR
1002
}
1001
GENIUS_GENOBJ-N-FIL_13
1002
{
1000
OWNER
1000
GEN
1002
}
  0
LINE
  5
8165
330
6A34
100
AcDbEntity
  8
CUT
100
AcDbLine
 10
49.5
 20
15.99999999999975
 30
0.0
 11
36.50000000000003
 21
15.99999999999975
 31
0.0
  0
LINE
  5
8166
330
6A34
100
AcDbEntity
  8
1
100
AcDbLine
 10
49.5
 20
15.99999999999975
 30
0.0
 11
36.50000000000003
 21
15.99999999999975
 31
0.0
  0
LINE
  5
8167
330
6A34
100
AcDbEntity
  8
SK1
100
AcDbLine
 10
49.53623063015118
 20
15.99999999999975
 30
0.0
 11
50.46376936984882
 21
15.99999999999975
 31
0.0
  0
TEXT
  5
8169
330
6A34
100
AcDbEntity
  8
6
100
AcDbText
 10
80.25878491007688
 20
-12.43792224466771
 30
0.0
 40
3.5
  1
Z=4 / Zeff.=2
 50
90.0
100
AcDbText
  0
LINE
  5
816D
330
6A34
100
AcDbEntity
  8
1
100
AcDbLine
 10
36.88677295187271
 20
-8.500000000000246
 30
0.0
 11
10.0
 21
-8.500000000000245
 31
0.0
  0
LINE
  5
8170
330
6A34
100
AcDbEntity
  8
1
100
AcDbLine
 10
36.00000000000003
 20
8.499999999999751
 30
0.0
 11
10.0
 21
8.499999999999753
 31
0.0
  0
MTEXT
  5
8171
330
6A34
100
AcDbEntity
  8
2
100
AcDbMText
 10
25.63682327369633
 20
14.54541114030891
 30
0.0
 40
3.5
 41
0.0
 71
     5
 72
     1
  1
%%c17
 11
0.0000000000000001
 21
1.0
 31
0.0
1001
ACAD
1000
MTEXTBEGIN
1070
    73
1070
     1
1070
    44
1040
1.0
1070
    74
1070
     0
1000
MTEXTEND
  0
DIMENSION
  5
8439
330
6A34
100
AcDbEntity
  8
2
100
AcDbDimension
  2
*D2
 10
73.61659676811928
 20
-16.00000000000025
 30
0.0
 11
70.36625227993031
 21
-0.0000000000002413
 31
0.0
 70
    32
  1
%%c<>
  3
AM_DIN
100
AcDbAlignedDimension
 13
50.0
 23
15.99999999999975
 33
0.0
 14
50.00000000000006
 24
-16.00000000000024
 34
0.0
 50
90.0
100
AcDbRotatedDimension
  0
DIMENSION
  5
847A
330
6A34
100
AcDbEntity
  8
SK2
100
AcDbDimension
  2
*D3
 10
-50.0
 20
-40.01235591402746
 30
0.0
 11
0.0000000000000322
 21
-36.76235591402746
 31
0.0
 70
    32
  3
AM_DIN
100
AcDbAlignedDimension
 13
50.00000000000006
 23
-16.00000000000024
 33
0.0
 14
-50.0
 24
-8.999999999999943
 34
0.0
 50
0.0000000000001132
100
AcDbRotatedDimension
  0
DIMENSION
  5
84CB
330
6A34
100
AcDbEntity
  8
2
100
AcDbDimension
  2
*D4
 10
36.00000000000003
 20
44.99999999999976
 30
0.0
 11
43.00000000000001
 21
48.24999999999976
 31
0.0
 70
    32
  3
AM_DIN
100
AcDbAlignedDimension
 13
50.0
 23
15.99999999999975
 33
0.0
 14
36.00000000000003
 24
15.49999999999975
 34
0.0
100
AcDbRotatedDimension
  0
DIMENSION
  5
84F3
330
6A34
100
AcDbEntity
  8
2
100
AcDbDimension
  2
*D5
 10
11.00000000000001
 20
59.99999999999976
 30
0.0
 11
30.5
 21
63.24999999999976
 31
0.0
 70
    32
  3
AM_DIN
100
AcDbAlignedDimension
 13
50.0
 23
15.99999999999975
 33
0.0
 14
11.0
 24
8.499999999999753
 34
0.0
100
AcDbRotatedDimension
  0
DIMENSION
  5
851B
330
6A34
100
AcDbEntity
  8
2
100
AcDbDimension
  2
*D6
 10
0.0000000000000253
 20
74.99999999999976
 30
0.0
 11
25.00000000000001
 21
78.24999999999976
 31
0.0
 70
    32
  3
AM_DIN
100
AcDbAlignedDimension
 13
50.0
 23
15.99999999999975
 33
0.0
 14
0.0000000000000213
 24
10.00000000000002
 34
0.0
100
AcDbRotatedDimension
  0
LINE
  5
855F
330
6A34
100
AcDbEntity
  8
NOCUT
100
AcDbLine
 10
36.88677295187271
 20
-8.500000000000246
 30
0.0
 11
36.88677295187271
 21
-15.27113434341672
 31
0.0
  0
LINE
  5
8560
330
6A34
100
AcDbEntity
  8
NOCUT
100
AcDbLine
 10
36.88677295187271
 20
-15.27113434341672
 30
0.0
 11
48.99679480008382
 21
-15.27113434341672
 31
0.0
  0
ARC
  5
856F
330
6A34
100
AcDbEntity
  8
1
100
AcDbCircle
 10
36.49999999999995
 20
-8.500000000000063
 30
0.0
 40
0.5
100
AcDbArc
 50
89.99999999999953
 51
179.9999999999995
1001
GENIUS_GENOBJ-N-FIL_13
1002
{
1000
OWNER
1000
GEN
1002
}
1001
GENIUS_GENODEF_13
1002
{
1000
HIER
1070
     0
1002
}
1002
{
1000
MANEDIT
1070
     0
1002
}
1002
{
1000
NOSEL
1070
     0
1002
}
1002
{
1000
BEHIND
1070
     0
1002
}
1002
{
1000
OTHER
1070
     0
1002
}
1002
{
1000
REACTOR
1002
}
  0
ENDSEC
  0
SECTION
  2
OBJECTS
  0
DICTIONARY
  5
6A22
330
0
100
AcDbDictionary
  3
ACAD_GROUP
350
6A23
  3
ACAD_LAYOUT
350
6A2F
  3
ACAD_MLINESTYLE
350
6A2C
  3
ACAD_PLOTSETTINGS
350
6A2E
  3
ACAD_PLOTSTYLENAME
350
6A24
  3
ACDBHEADERROUNDTRIPXREC
350
85E6
  3
ACDBVARIABLEDICTIONARY
350
6B78
  3
ACMDICTIONARY
350
6B39
  3
AMG
350
6B22
  3
AMGSNAPSETTINGS
350
6B59
  3
DWGPROPS
350
85E1
  0
DICTIONARY
  5
6B62
330
6A34
100
AcDbDictionary
280
     1
  3
ACAD_INDEX
360
6B63
  3
ACAD_LAYOUTSELFREF
360
8609
  0
DICTIONARY
  5
8607
330
6A30
100
AcDbDictionary
280
     1
  3
ACAD_LAYOUTSELFREF
360
8608
  0
DICTIONARY
  5
6A23
102
{ACAD_REACTORS
330
6A22
102
}
330
6A22
100
AcDbDictionary
  0
DICTIONARY
  5
6A2F
102
{ACAD_REACTORS
330
6A22
102
}
330
6A22
100
AcDbDictionary
  0
DICTIONARY
  5
6A2C
102
{ACAD_REACTORS
330
6A22
102
}
330
6A22
100
AcDbDictionary
  3
STANDARD
350
6A2D
  0
DICTIONARY
  5
6A2E
102
{ACAD_REACTORS
330
6A22
102
}
330
6A22
100
AcDbDictionary
  0
ACDBDICTIONARYWDFLT
  5
6A24
102
{ACAD_REACTORS
330
6A22
102
}
330
6A22
100
AcDbDictionary
281
     1
  3
Normal
350
6A25
100
AcDbDictionaryWithDefault
340
6A25
  0
DICTIONARY
  5
85E6
102
{ACAD_REACTORS
330
6A22
102
}
330
6A22
100
AcDbDictionary
  3
CEPSNTYPE
350
85F0
  3
DIMSTYLEDATA
350
85F4
  3
FINGERPRINTGUID
350
85F1
  3
HYPERLINKBASE
350
85E9
  3
INSUNITS
350
85EF
  3
LAYOUTDICT
350
85EB
  3
LWETCUNION
350
85EE
  3
PLOTSETDICT
350
85EC
  3
PLOTSTYLNAMDICT
350
85ED
  3
PSVPSCALE
350
85F3
  3
PUCSBASE
350
85F7
  3
PUCSORGBACK
350
85FD
  3
PUCSORGBOTTOM
350
85F9
  3
PUCSORGFRONT
350
85FC
  3
PUCSORGLEFT
350
85FA
  3
PUCSORGRIGHT
350
85FB
  3
PUCSORGTOP
350
85F8
  3
PUCSORTHOREF
350
85F5
  3
PUCSORTHOVIEW
350
85F6
  3
STYLESHEET
350
85EA
  3
TSTACKALIGN
350
85E7
  3
TSTACKSIZE
350
85E8
  3
UCSBASE
350
8600
  3
UCSORGBACK
350
8606
  3
UCSORGBOTTOM
350
8602
  3
UCSORGFRONT
350
8605
  3
UCSORGLEFT
350
8603
  3
UCSORGRIGHT
350
8604
  3
UCSORGTOP
350
8601
  3
UCSORTHOREF
350
85FE
  3
UCSORTHOVIEW
350
85FF
  3
VERSIONGUID
350
85F2
  0
DICTIONARY
  5
6B78
102
{ACAD_REACTORS
330
6A22
102
}
330
6A22
100
AcDbDictionary
  3
DIMASSOC
350
6B7A
  3
INDEXCTL
350
6B79
  0
DICTIONARY
  5
6B39
102
{ACAD_REACTORS
330
6A22
102
}
330
6A22
100
AcDbDictionary
  3
ACMSTDDICTIONARY
350
6B3F
  0
DICTIONARY
  5
6B22
102
{ACAD_REACTORS
330
6A22
102
}
330
6A22
100
AcDbDictionary
  3
ACMGSETTINGS
350
6B23
  0
DICTIONARY
  5
6B59
102
{ACAD_REACTORS
330
6A22
102
}
330
6A22
100
AcDbDictionary
  0
XRECORD
  5
85E1
102
{ACAD_REACTORS
330
6A22
102
}
330
6A22
100
AcDbXrecord
  1
DWGPROPS COOKIE
  2

  3

  4

  6

  7

  8

  9

300
AmdtFileType=84
301
=
302
=
303
=
304
=
305
=
306
=
307
=
308
=
309
=
 40
0.1434007175925926
 41
2453447.471737477
 42
2453612.618919005
  1

 90
        1
  0
DICTIONARY
  5
6B63
102
{ACAD_REACTORS
330
6B62
102
}
330
6B62
100
AcDbDictionary
  3
*A1
350
6B64
  0
XRECORD
  5
8609
102
{ACAD_REACTORS
330
6B62
102
}
330
6B62
100
AcDbXrecord
340
6A34
  0
XRECORD
  5
8608
102
{ACAD_REACTORS
330
8607
102
}
330
8607
100
AcDbXrecord
340
6A30
  0
MLINESTYLE
  5
6A2D
102
{ACAD_REACTORS
330
6A2C
102
}
330
6A2C
100
AcDbMlineStyle
  2
STANDARD
 70
     0
  3

 62
   256
 51
90.0
 52
90.0
 71
     2
 49
0.5
 62
   256
  6
BYLAYER
 49
-0.5
 62
   256
  6
BYLAYER
  0
ACDBPLACEHOLDER
  5
6A25
102
{ACAD_REACTORS
330
6A24
102
}
330
6A24
100
AcDbPlaceHolder
280
     0
  0
XRECORD
  5
85F0
102
{ACAD_REACTORS
330
85E6
102
}
330
85E6
100
AcDbXrecord
 90
        0
  0
XRECORD
  5
85F4
102
{ACAD_REACTORS
330
85E6
102
}
330
85E6
100
AcDbXrecord
1000
DSTYLE
1002
{
1070
   279
 70
     2
1002
}
  0
XRECORD
  5
85F1
102
{ACAD_REACTORS
330
85E6
102
}
330
85E6
100
AcDbXrecord
  1
{5E8163B8-4D8F-4110-B677-A6458ADDE735}
  0
XRECORD
  5
85E9
102
{ACAD_REACTORS
330
85E6
102
}
330
85E6
100
AcDbXrecord
  1

  0
XRECORD
  5
85EF
102
{ACAD_REACTORS
330
85E6
102
}
330
85E6
100
AcDbXrecord
 90
        4
  0
XRECORD
  5
85EB
102
{ACAD_REACTORS
330
85E6
102
}
330
85E6
100
AcDbXrecord
340
6A2F
  0
XRECORD
  5
85EE
102
{ACAD_REACTORS
330
85E6
102
}
330
85E6
100
AcDbXrecord
 90
    10781
  0
XRECORD
  5
85EC
102
{ACAD_REACTORS
330
85E6
102
}
330
85E6
100
AcDbXrecord
340
6A2E
  0
XRECORD
  5
85ED
102
{ACAD_REACTORS
330
85E6
102
}
330
85E6
100
AcDbXrecord
340
6A24
  0
XRECORD
  5
85F3
102
{ACAD_REACTORS
330
85E6
102
}
330
85E6
100
AcDbXrecord
 40
0.0
  0
XRECORD
  5
85F7
102
{ACAD_REACTORS
330
85E6
102
}
330
85E6
100
AcDbXrecord
340
0
  0
XRECORD
  5
85FD
102
{ACAD_REACTORS
330
85E6
102
}
330
85E6
100
AcDbXrecord
 10
0.0
 20
0.0
 30
0.0
  0
XRECORD
  5
85F9
102
{ACAD_REACTORS
330
85E6
102
}
330
85E6
100
AcDbXrecord
 10
0.0
 20
0.0
 30
0.0
  0
XRECORD
  5
85FC
102
{ACAD_REACTORS
330
85E6
102
}
330
85E6
100
AcDbXrecord
 10
0.0
 20
0.0
 30
0.0
  0
XRECORD
  5
85FA
102
{ACAD_REACTORS
330
85E6
102
}
330
85E6
100
AcDbXrecord
 10
0.0
 20
0.0
 30
0.0
  0
XRECORD
  5
85FB
102
{ACAD_REACTORS
330
85E6
102
}
330
85E6
100
AcDbXrecord
 10
0.0
 20
0.0
 30
0.0
  0
XRECORD
  5
85F8
102
{ACAD_REACTORS
330
85E6
102
}
330
85E6
100
AcDbXrecord
 10
0.0
 20
0.0
 30
0.0
  0
XRECORD
  5
85F5
102
{ACAD_REACTORS
330
85E6
102
}
330
85E6
100
AcDbXrecord
340
0
  0
XRECORD
  5
85F6
102
{ACAD_REACTORS
330
85E6
102
}
330
85E6
100
AcDbXrecord
 70
     0
  0
XRECORD
  5
85EA
102
{ACAD_REACTORS
330
85E6
102
}
330
85E6
100
AcDbXrecord
  1

  0
XRECORD
  5
85E7
102
{ACAD_REACTORS
330
85E6
102
}
330
85E6
100
AcDbXrecord
 90
        1
  0
XRECORD
  5
85E8
102
{ACAD_REACTORS
330
85E6
102
}
330
85E6
100
AcDbXrecord
 90
       70
  0
XRECORD
  5
8600
102
{ACAD_REACTORS
330
85E6
102
}
330
85E6
100
AcDbXrecord
340
0
  0
XRECORD
  5
8606
102
{ACAD_REACTORS
330
85E6
102
}
330
85E6
100
AcDbXrecord
 10
0.0
 20
0.0
 30
0.0
  0
XRECORD
  5
8602
102
{ACAD_REACTORS
330
85E6
102
}
330
85E6
100
AcDbXrecord
 10
0.0
 20
0.0
 30
0.0
  0
XRECORD
  5
8605
102
{ACAD_REACTORS
330
85E6
102
}
330
85E6
100
AcDbXrecord
 10
0.0
 20
0.0
 30
0.0
  0
XRECORD
  5
8603
102
{ACAD_REACTORS
330
85E6
102
}
330
85E6
100
AcDbXrecord
 10
0.0
 20
0.0
 30
0.0
  0
XRECORD
  5
8604
102
{ACAD_REACTORS
330
85E6
102
}
330
85E6
100
AcDbXrecord
 10
0.0
 20
0.0
 30
0.0
  0
XRECORD
  5
8601
102
{ACAD_REACTORS
330
85E6
102
}
330
85E6
100
AcDbXrecord
 10
0.0
 20
0.0
 30
0.0
  0
XRECORD
  5
85FE
102
{ACAD_REACTORS
330
85E6
102
}
330
85E6
100
AcDbXrecord
340
0
  0
XRECORD
  5
85FF
102
{ACAD_REACTORS
330
85E6
102
}
330
85E6
100
AcDbXrecord
 70
     0
  0
XRECORD
  5
85F2
102
{ACAD_REACTORS
330
85E6
102
}
330
85E6
100
AcDbXrecord
  1
{9614434C-71F2-436A-B9CC-E506541CF0FC}
  0
DICTIONARYVAR
  5
6B7A
102
{ACAD_REACTORS
330
6B78
102
}
330
6B78
100
DictionaryVariables
280
     0
  1
1
  0
DICTIONARYVAR
  5
6B79
102
{ACAD_REACTORS
330
6B78
102
}
330
6B78
100
DictionaryVariables
280
     0
  1
1
  0
DICTIONARY
  5
6B3F
102
{ACAD_REACTORS
330
6B39
102
}
330
6B39
100
AcDbDictionary
  0
DICTIONARY
  5
6B23
102
{ACAD_REACTORS
330
6B22
102
}
330
6B22
100
AcDbDictionary
  3
DWGSETTINGS
350
6B24
  0
LAYER_INDEX
  5
6B64
102
{ACAD_REACTORS
330
6B63
102
}
330
6B63
100
AcDbIndex
 40
2453612.627651354
100
AcDbLayerIndex
  8
0
360
6B65
 90
        0
  8
DEFPOINTS
360
6B66
 90
        0
  8
1
360
6B67
 90
       33
  8
2
360
6B68
 90
       10
  8
4
360
6B69
 90
        2
  8
6
360
6B6A
 90
        2
  8
SK1
360
6B6B
 90
       21
  8
SK2
360
6B6C
 90
        2
  8
SK3
360
6B6D
 90
        6
  8
SK4
360
6B6E
 90
        1
  8
CUT
360
6B6F
 90
        8
  8
NOCUT
360
6B70
 90
        8
  0
XRECORD
  5
6B24
102
{ACAD_REACTORS
330
6B23
102
}
330
6B23
100
AcDbXrecord
  1
VERSION
140
15.0
  1
PRODUCT
  2
AutoCAD Mechanical 2000
  0
IDBUFFER
  5
6B65
330
0
100
AcDbIdBuffer
  0
IDBUFFER
  5
6B66
330
0
100
AcDbIdBuffer
  0
IDBUFFER
  5
6B67
330
0
100
AcDbIdBuffer
330
816D
330
8170
330
856F
330
76EF
330
77A8
330
77AA
330
812F
330
8131
330
8132
330
8135
330
8136
330
8137
330
813A
330
8143
330
8144
330
8145
330
8149
330
814C
330
814E
330
8150
330
8153
330
8154
330
8156
330
8157
330
815B
330
815C
330
815D
330
815E
330
815F
330
8160
330
8162
330
8164
330
8166
  0
IDBUFFER
  5
6B68
330
0
100
AcDbIdBuffer
330
813E
330
813F
330
8140
330
8141
330
8142
330
8171
330
8439
330
84CB
330
84F3
330
851B
  0
IDBUFFER
  5
6B69
330
0
100
AcDbIdBuffer
330
77A7
330
814A
  0
IDBUFFER
  5
6B6A
330
0
100
AcDbIdBuffer
330
7BC6
330
8169
  0
IDBUFFER
  5
6B6B
330
0
100
AcDbIdBuffer
330
76F0
330
76F1
330
76F2
330
76F3
330
76F4
330
76F5
330
76F6
330
76F7
330
76F8
330
76F9
330
76FB
330
773C
330
773D
330
773E
330
77AB
330
8133
330
8134
330
8158
330
8159
330
815A
330
8167
  0
IDBUFFER
  5
6B6C
330
0
100
AcDbIdBuffer
330
78CB
330
847A
  0
IDBUFFER
  5
6B6D
330
0
100
AcDbIdBuffer
330
8138
330
813B
330
8148
330
8151
330
8152
330
8155
  0
IDBUFFER
  5
6B6E
330
0
100
AcDbIdBuffer
330
77A6
  0
IDBUFFER
  5
6B6F
330
0
100
AcDbIdBuffer
330
812E
330
8130
330
8139
330
814B
330
814D
330
8161
330
8163
330
8165
  0
IDBUFFER
  5
6B70
330
0
100
AcDbIdBuffer
330
8560
330
7BC8
330
7BC9
330
7BCA
330
7BCD
330
8147
330
814F
330
855F
  0
ENDSEC
  0
EOF
