  0
SECTION
  2
HEADER
  9
$ACADVER
  1
AC1015
  9
$ACADMAINTVER
 70
    20
  9
$DWGCODEPAGE
  3
ANSI_1252
  9
$INSBASE
 10
0.0
 20
0.0
 30
0.0
  9
$EXTMIN
 10
-80.92556990376223
 20
-61.82661176044234
 30
-0.00000001
  9
$EXTMAX
 10
80.62646836150156
 20
80.00068897637801
 30
0.00000001
  9
$LIMMIN
 10
0.0
 20
0.0
  9
$LIMMAX
 10
210.0
 20
297.0
  9
$ORTHOMODE
 70
     0
  9
$REGENMODE
 70
     1
  9
$FILLMODE
 70
     1
  9
$QTEXTMODE
 70
     0
  9
$MIRRTEXT
 70
     1
  9
$LTSCALE
 40
1.0
  9
$ATTMODE
 70
     1
  9
$TEXTSIZE
 40
2.7
  9
$TRACEWID
 40
1.0
  9
$TEXTSTYLE
  7
STANDARD
  9
$CLAYER
  8
0
  9
$CELTYPE
  6
ByLayer
  9
$CECOLOR
 62
   256
  9
$CELTSCALE
 40
1.0
  9
$DISPSILH
 70
     0
  9
$DIMSCALE
 40
1.0
  9
$DIMASZ
 40
2.5
  9
$DIMEXO
 40
1.0
  9
$DIMDLI
 40
10.0
  9
$DIMRND
 40
0.0
  9
$DIMDLE
 40
0.0
  9
$DIMEXE
 40
1.0
  9
$DIMTP
 40
0.1
  9
$DIMTM
 40
0.1
  9
$DIMTXT
 40
3.5
  9
$DIMCEN
 40
0.0
  9
$DIMTSZ
 40
0.0
  9
$DIMTOL
 70
     0
  9
$DIMLIM
 70
     0
  9
$DIMTIH
 70
     0
  9
$DIMTOH
 70
     0
  9
$DIMSE1
 70
     0
  9
$DIMSE2
 70
     0
  9
$DIMTAD
 70
     1
  9
$DIMZIN
 70
     8
  9
$DIMBLK
  1

  9
$DIMASO
 70
     1
  9
$DIMSHO
 70
     1
  9
$DIMPOST
  1

  9
$DIMAPOST
  1
"
  9
$DIMALT
 70
     0
  9
$DIMALTD
 70
     2
  9
$DIMALTF
 40
0.0393701
  9
$DIMLFAC
 40
1.0
  9
$DIMTOFL
 70
     1
  9
$DIMTVP
 40
0.0
  9
$DIMTIX
 70
     0
  9
$DIMSOXD
 70
     0
  9
$DIMSAH
 70
     0
  9
$DIMBLK1
  1

  9
$DIMBLK2
  1

  9
$DIMSTYLE
  2
AM_DIN
  9
$DIMCLRD
 70
   256
  9
$DIMCLRE
 70
   256
  9
$DIMCLRT
 70
     2
  9
$DIMTFAC
 40
0.71
  9
$DIMGAP
 40
1.5
  9
$DIMJUST
 70
     0
  9
$DIMSD1
 70
     0
  9
$DIMSD2
 70
     0
  9
$DIMTOLJ
 70
     1
  9
$DIMTZIN
 70
     8
  9
$DIMALTZ
 70
     8
  9
$DIMALTTZ
 70
     8
  9
$DIMUPT
 70
     0
  9
$DIMDEC
 70
     0
  9
$DIMTDEC
 70
     2
  9
$DIMALTU
 70
     2
  9
$DIMALTTD
 70
     2
  9
$DIMTXSTY
  7
STANDARD
  9
$DIMAUNIT
 70
     0
  9
$DIMADEC
 70
     0
  9
$DIMALTRND
 40
0.0
  9
$DIMAZIN
 70
     0
  9
$DIMDSEP
 70
    46
  9
$DIMATFIT
 70
     3
  9
$DIMFRAC
 70
     0
  9
$DIMLDRBLK
  1

  9
$DIMLUNIT
 70
     2
  9
$DIMLWD
 70
    -2
  9
$DIMLWE
 70
    -2
  9
$DIMTMOVE
 70
     2
  9
$LUNITS
 70
     2
  9
$LUPREC
 70
     2
  9
$SKETCHINC
 40
1.0
  9
$FILLETRAD
 40
7.0
  9
$AUNITS
 70
     0
  9
$AUPREC
 70
     0
  9
$MENU
  1
.
  9
$ELEVATION
 40
0.0
  9
$PELEVATION
 40
0.0
  9
$THICKNESS
 40
0.0
  9
$LIMCHECK
 70
     0
  9
$CHAMFERA
 40
2.5
  9
$CHAMFERB
 40
2.5
  9
$CHAMFERC
 40
0.0
  9
$CHAMFERD
 40
0.0
  9
$SKPOLY
 70
     0
  9
$TDCREATE
 40
2453447.471737477
  9
$TDUCREATE
 40
2453447.388404144
  9
$TDUPDATE
 40
2455019.625704931
  9
$TDUUPDATE
 40
2455019.542371597
  9
$TDINDWG
 40
0.1620096644
  9
$TDUSRTIMER
 40
0.1619853241
  9
$USRTIMER
 70
     1
  9
$ANGBASE
 50
0.0
  9
$ANGDIR
 70
     0
  9
$PDMODE
 70
     0
  9
$PDSIZE
 40
0.0
  9
$PLINEWID
 40
0.0
  9
$SPLFRAME
 70
     0
  9
$SPLINETYPE
 70
     6
  9
$SPLINESEGS
 70
     8
  9
$HANDSEED
  5
90E7
  9
$SURFTAB1
 70
     6
  9
$SURFTAB2
 70
     6
  9
$SURFTYPE
 70
     6
  9
$SURFU
 70
     6
  9
$SURFV
 70
     6
  9
$UCSBASE
  2

  9
$UCSNAME
  2

  9
$UCSORG
 10
0.0
 20
0.0
 30
0.0
  9
$UCSXDIR
 10
1.0
 20
0.0
 30
0.0
  9
$UCSYDIR
 10
0.0
 20
1.0
 30
0.0
  9
$UCSORTHOREF
  2

  9
$UCSORTHOVIEW
 70
     0
  9
$UCSORGTOP
 10
0.0
 20
0.0
 30
0.0
  9
$UCSORGBOTTOM
 10
0.0
 20
0.0
 30
0.0
  9
$UCSORGLEFT
 10
0.0
 20
0.0
 30
0.0
  9
$UCSORGRIGHT
 10
0.0
 20
0.0
 30
0.0
  9
$UCSORGFRONT
 10
0.0
 20
0.0
 30
0.0
  9
$UCSORGBACK
 10
0.0
 20
0.0
 30
0.0
  9
$PUCSBASE
  2

  9
$PUCSNAME
  2

  9
$PUCSORG
 10
0.0
 20
0.0
 30
0.0
  9
$PUCSXDIR
 10
1.0
 20
0.0
 30
0.0
  9
$PUCSYDIR
 10
0.0
 20
1.0
 30
0.0
  9
$PUCSORTHOREF
  2

  9
$PUCSORTHOVIEW
 70
     0
  9
$PUCSORGTOP
 10
0.0
 20
0.0
 30
0.0
  9
$PUCSORGBOTTOM
 10
0.0
 20
0.0
 30
0.0
  9
$PUCSORGLEFT
 10
0.0
 20
0.0
 30
0.0
  9
$PUCSORGRIGHT
 10
0.0
 20
0.0
 30
0.0
  9
$PUCSORGFRONT
 10
0.0
 20
0.0
 30
0.0
  9
$PUCSORGBACK
 10
0.0
 20
0.0
 30
0.0
  9
$USERI1
 70
     0
  9
$USERI2
 70
     0
  9
$USERI3
 70
     0
  9
$USERI4
 70
     0
  9
$USERI5
 70
     0
  9
$USERR1
 40
0.0
  9
$USERR2
 40
0.0
  9
$USERR3
 40
0.0
  9
$USERR4
 40
0.0
  9
$USERR5
 40
0.0
  9
$WORLDVIEW
 70
     1
  9
$SHADEDGE
 70
     3
  9
$SHADEDIF
 70
    70
  9
$TILEMODE
 70
     1
  9
$MAXACTVP
 70
    64
  9
$PINSBASE
 10
0.0
 20
0.0
 30
0.0
  9
$PLIMCHECK
 70
     0
  9
$PEXTMIN
 10
1.000000000000000E+20
 20
1.000000000000000E+20
 30
1.000000000000000E+20
  9
$PEXTMAX
 10
-1.000000000000000E+20
 20
-1.000000000000000E+20
 30
-1.000000000000000E+20
  9
$PLIMMIN
 10
0.0
 20
0.0
  9
$PLIMMAX
 10
420.0
 20
297.0
  9
$UNITMODE
 70
     0
  9
$VISRETAIN
 70
     1
  9
$PLINEGEN
 70
     0
  9
$PSLTSCALE
 70
     1
  9
$TREEDEPTH
 70
  3020
  9
$CMLSTYLE
  2
Standard
  9
$CMLJUST
 70
     0
  9
$CMLSCALE
 40
1.0
  9
$PROXYGRAPHICS
 70
     1
  9
$MEASUREMENT
 70
     1
  9
$CELWEIGHT
370
    -1
  9
$ENDCAPS
280
     0
  9
$JOINSTYLE
280
     0
  9
$LWDISPLAY
290
     0
  9
$INSUNITS
 70
     4
  9
$HYPERLINKBASE
  1

  9
$STYLESHEET
  1
monochrome-Neu.ctb
  9
$XEDIT
290
     1
  9
$CEPSNTYPE
380
     0
  9
$PSTYLEMODE
290
     1
  9
$FINGERPRINTGUID
  2
{5E8163B8-4D8F-4110-B677-A6458ADDE735}
  9
$VERSIONGUID
  2
{FD81FD71-5855-474D-941C-7FF69D3A0B9B}
  9
$EXTNAMES
290
     1
  9
$PSVPSCALE
 40
0.0
  9
$OLESTARTUP
290
     0
  0
ENDSEC
  0
SECTION
  2
CLASSES
  0
CLASS
  1
ACDBDICTIONARYWDFLT
  2
AcDbDictionaryWithDefault
  3
ObjectDBX Classes
 90
        0
280
     0
281
     0
  0
CLASS
  1
ACDBPLACEHOLDER
  2
AcDbPlaceHolder
  3
ObjectDBX Classes
 90
        0
280
     0
281
     0
  0
CLASS
  1
LAYOUT
  2
AcDbLayout
  3
ObjectDBX Classes
 90
        0
280
     0
281
     0
  0
CLASS
  1
AMGSETTINGSOBJ
  2
AmgSettingsObj
  3
"AcadM|Product Description: AutoCAD Mechanical|Company: Autodesk, Inc."
 90
     1024
280
     0
281
     0
  0
CLASS
  1
ACME_DOCUMENT
  2
AcMeDbDoc
  3
AcMeServices
 90
     1024
280
     0
281
     0
  0
CLASS
  1
ACMESCOPE
  2
AcMeScope
  3
AcMeServices
 90
     1024
280
     0
281
     0
  0
CLASS
  1
ACMECOMMANDHISTORY
  2
AcMeCommandHistory
  3
AcMeServices
 90
     1024
280
     0
281
     0
  0
CLASS
  1
ACIMSYSVARMAN
  2
AcImSysVarManager
  3
AcMeServices
 90
     1024
280
     0
281
     0
  0
CLASS
  1
ACIMREALSYSVAR
  2
AcImRealSysVar
  3
AcMeServices
 90
     1024
280
     0
281
     0
  0
CLASS
  1
ACIMINTSYSVAR
  2
AcImIntSysVar
  3
AcMeServices
 90
     1024
280
     0
281
     0
  0
CLASS
  1
ACMEDRAWINGMAN
  2
AcMeDrawingMan
  3
AcMeServices
 90
     1024
280
     0
281
     0
  0
CLASS
  1
ACMEVIEW
  2
AcMeView
  3
AcMeServices
 90
     1024
280
     0
281
     0
  0
CLASS
  1
ACDBENTITYCACHE
  2
AcMeEntityCache
  3
AcMeServices
 90
     1024
280
     0
281
     0
  0
CLASS
  1
GSMANAGER
  2
AcMeGSManager
  3
AcMeServices
 90
     1024
280
     0
281
     0
  0
CLASS
  1
AMDTINTERNALREACTOR
  2
AmdtInternalReactor
  3
AcMeServices
 90
     1024
280
     0
281
     0
  0
CLASS
  1
ACMESTATEMGR
  2
AcMeStateMgr
  3
AcMeServices
 90
     1024
280
     0
281
     0
  0
CLASS
  1
ACGREFMASTER
  2
AcGrefMaster
  3
AcAttribServices
 90
     1024
280
     0
281
     0
  0
CLASS
  1
ACME_DATABASE
  2
AcMeDbDatabase
  3
AcMeServices
 90
     1024
280
     0
281
     0
  0
CLASS
  1
ACRFINSADJUSTERMGR
  2
AcRfInsAdjusterMgr
  3
AcMeServices
 90
     1024
280
     0
281
     0
  0
CLASS
  1
ACGREFACADMASTER
  2
AcGrefacadMaster
  3
AcGrefServices
 90
     1024
280
     0
281
     0
  0
CLASS
  1
AMIMASTER
  2
AmiMaster
  3
AmiServices
 90
     1024
280
     0
281
     0
  0
CLASS
  1
ACMDATADICTIONARY
  2
AcmDataDictionary
  3
"AcmSymBB|Product Description: AutoCAD Mechanical|Company: Autodesk, Inc."
 90
     1024
280
     0
281
     0
  0
CLASS
  1
ACMDATAENTRYBLOCK
  2
AcmDataEntryBlock
  3
AcmSymBB|Product Description: AutoCAD Mechanical|Company: Autodesk, Inc.
 90
    33792
280
     0
281
     0
  0
CLASS
  1
ACIMSTRSYSVAR
  2
AcImStrSysVar
  3
AcMeServices
 90
     1024
280
     0
281
     0
  0
CLASS
  1
ACMSTANDARDANSI
  2
AcmStandardANSI
  3
"Amdt_StdImp|Product Description: AutoCAD Mechanical|Company: Autodesk, Inc."
 90
    33792
280
     0
281
     0
  0
CLASS
  1
AMGOBJPROPCFG
  2
AmgObjPropCfg
  3
"AmgLay|Product Description: AutoCAD Mechanical|Company: Autodesk, Inc."
 90
     1025
280
     0
281
     0
  0
CLASS
  1
ACMSURFSTANDARDANSI
  2
AcmSurfTextStdANSI
  3
"Amdt_StdImp|Product Description: AutoCAD Mechanical|Company: Autodesk, Inc."
 90
    33792
280
     0
281
     0
  0
CLASS
  1
ACMFCFSTANDARDANSI
  2
AcmFCFStdANSI
  3
"Amdt_StdImp|Product Description: AutoCAD Mechanical|Company: Autodesk, Inc."
 90
    33792
280
     0
281
     0
  0
CLASS
  1
ACMWELDSTANDARDANSI
  2
AcmWeldingStdANSI
  3
"Amdt_StdImp|Product Description: AutoCAD Mechanical|Company: Autodesk, Inc."
 90
    33792
280
     0
281
     0
  0
CLASS
  1
ACMIDSTANDARDANSI
  2
AcmIdStdANSI
  3
"Amdt_StdImp|Product Description: AutoCAD Mechanical|Company: Autodesk, Inc."
 90
    33792
280
     0
281
     0
  0
CLASS
  1
ACMDATUMSTANDARDANSI
  2
AcmDatumStdANSI
  3
"Amdt_StdImp|Product Description: AutoCAD Mechanical|Company: Autodesk, Inc."
 90
    33792
280
     0
281
     0
  0
CLASS
  1
ACMBOMSTANDARDANSI
  2
AcmBOMStdANSI
  3
"Amdt_StdImp|Product Description: AutoCAD Mechanical|Company: Autodesk, Inc."
 90
    33792
280
     0
281
     0
  0
CLASS
  1
ACMDETAILSTANDARDANSI
  2
AmdtDetailSymStdANSI
  3
"Amdt_StdImp|Product Description: AutoCAD Mechanical|Company: Autodesk, Inc."
 90
    33792
280
     0
281
     0
  0
CLASS
  1
ACMSECTIONSTANDARDANSI
  2
AmdtSectionSymStdANSI
  3
"Amdt_StdImp|Product Description: AutoCAD Mechanical|Company: Autodesk, Inc."
 90
    33792
280
     0
281
     0
  0
CLASS
  1
ACMCENTERLINESTANDARDANSI
  2
AmdtCenterLineStdANSI
  3
"Amdt_StdImp|Product Description: AutoCAD Mechanical|Company: Autodesk, Inc."
 90
    33792
280
     0
281
     0
  0
CLASS
  1
ACMNOTESTANDARDANSI
  2
AmdtNoteStdANSI
  3
"Amdt_StdImp|Product Description: AutoCAD Mechanical|Company: Autodesk, Inc."
 90
    33792
280
     0
281
     0
  0
CLASS
  1
ACAMGLAYSTD
  2
AcAmgLayStd
  3
"AmgLay|Product Description: AutoCAD Mechanical|Company: Autodesk, Inc."
 90
     1024
280
     0
281
     0
  0
CLASS
  1
ACAMGDIMSTD
  2
AcAmgDimStd
  3
"AmgDim|Product Description: AutoCAD Mechanical|Company: Autodesk, Inc."
 90
     1024
280
     0
281
     0
  0
CLASS
  1
ACAMGHOLECHARTSTDANSI
  2
AcAmgHoleChartStdANSI
  3
AmgDim|Product Description: AutoCAD Mechanical|Company: Autodesk, Inc.
 90
    33792
280
     0
281
     0
  0
CLASS
  1
ACAMGTITLESTD
  2
AcAmgTitleStd
  3
"AmgTitle|Product Description: AutoCAD Mechanical|Company: Autodesk, Inc."
 90
     4095
280
     0
281
     0
  0
CLASS
  1
ACAMGFILTERDAT
  2
AcAmgFilterDat
  3
"AcadM|Product Description: AutoCAD Mechanical|Company: Autodesk, Inc."
 90
    33792
280
     0
281
     0
  0
CLASS
  1
LAYER_INDEX
  2
AcDbLayerIndex
  3
ObjectDBX Classes
 90
    32768
280
     0
281
     0
  0
CLASS
  1
IDBUFFER
  2
AcDbIdBuffer
  3
ObjectDBX Classes
 90
    32768
280
     0
281
     0
  0
CLASS
  1
DICTIONARYVAR
  2
AcDbDictionaryVar
  3
ObjectDBX Classes
 90
        0
280
     0
281
     0
  0
CLASS
  1
ACMSTANDARDDIN
  2
AcmStandardDIN
  3
"Amdt_StdImp|Product Description: AutoCAD Mechanical|Company: Autodesk, Inc."
 90
     1024
280
     0
281
     0
  0
CLASS
  1
AMDTEDGESTANDARDDIN
  2
AmdtEdgeStdDIN
  3
"Amdt_StdImp|Product Description: AutoCAD Mechanical|Company: Autodesk, Inc."
 90
    33792
280
     0
281
     0
  0
CLASS
  1
ACMSURFSTANDARDDIN
  2
AcmSurfTextStdDIN
  3
"Amdt_StdImp|Product Description: AutoCAD Mechanical|Company: Autodesk, Inc."
 90
    33792
280
     0
281
     0
  0
CLASS
  1
ACMFCFSTANDARDDIN
  2
AcmFCFStdDIN
  3
"Amdt_StdImp|Product Description: AutoCAD Mechanical|Company: Autodesk, Inc."
 90
     1024
280
     0
281
     0
  0
CLASS
  1
ACMWELDSTANDARDDIN
  2
AcmWeldingStdDIN
  3
"Amdt_StdImp|Product Description: AutoCAD Mechanical|Company: Autodesk, Inc."
 90
     1024
280
     0
281
     0
  0
CLASS
  1
ACMIDSTANDARDDIN
  2
AcmIdStdDIN
  3
"Amdt_StdImp|Product Description: AutoCAD Mechanical|Company: Autodesk, Inc."
 90
     1024
280
     0
281
     0
  0
CLASS
  1
ACMDATUMSTANDARDDIN
  2
AcmDatumStdDIN
  3
"Amdt_StdImp|Product Description: AutoCAD Mechanical|Company: Autodesk, Inc."
 90
     1024
280
     0
281
     0
  0
CLASS
  1
ACMBOMSTANDARDDIN
  2
AcmBOMStdDIN
  3
"Amdt_StdImp|Product Description: AutoCAD Mechanical|Company: Autodesk, Inc."
 90
     1024
280
     0
281
     0
  0
CLASS
  1
ACMDETAILSTANDARDDIN
  2
AmdtDetailSymStdDIN
  3
"Amdt_StdImp|Product Description: AutoCAD Mechanical|Company: Autodesk, Inc."
 90
     1024
280
     0
281
     0
  0
CLASS
  1
ACMSECTIONSTANDARDDIN
  2
AmdtSectionSymStdDIN
  3
"Amdt_StdImp|Product Description: AutoCAD Mechanical|Company: Autodesk, Inc."
 90
     1024
280
     0
281
     0
  0
CLASS
  1
ACMCENTERLINESTANDARDDIN
  2
AmdtCenterLineStdDIN
  3
"Amdt_StdImp|Product Description: AutoCAD Mechanical|Company: Autodesk, Inc."
 90
     1024
280
     0
281
     0
  0
CLASS
  1
ACMNOTESTANDARDDIN
  2
AmdtNoteStdDIN
  3
"Amdt_StdImp|Product Description: AutoCAD Mechanical|Company: Autodesk, Inc."
 90
     1024
280
     0
281
     0
  0
CLASS
  1
ACAMGHOLECHARTSTDDIN
  2
AcAmgHoleChartStdDIN
  3
AmgDim|Product Description: AutoCAD Mechanical|Company: Autodesk, Inc.
 90
     1024
280
     0
281
     0
  0
CLASS
  1
AMDTFORMULAUPDATEDISPATCHER
  2
AmdtFormulaUpdateDispatcher
  3
AcMeServices
 90
    33792
280
     0
281
     0
  0
CLASS
  1
TABLESTYLE
  2
AcDbTableStyle
  3
ObjectDBX Classes
 90
     4095
280
     0
281
     0
  0
CLASS
  1
AM_DRAWING_MGR
  2
AcDmDwgMgr
  3
AcMechDwgViewMgmt
 90
     1024
280
     0
281
     0
  0
CLASS
  1
AM_DWG_DOCUMENT
  2
AcDmDwgDocument
  3
AcMechDwgViewMgmt
 90
     1024
280
     0
281
     0
  0
CLASS
  1
AM_DWG_SHEET
  2
AcDmSheet
  3
AcMechDwgViewMgmt
 90
     1024
280
     0
281
     0
  0
CLASS
  1
AM_VIEWDIMPARMAP
  2
AcDmViewDimParMap
  3
AcMechDwgViewMgmt
 90
     1024
280
     0
281
     0
  0
CLASS
  1
AM_DWGMGR_NAME
  2
AcDmDwgMgrName
  3
AcMechDwgViewMgmt
 90
     1024
280
     0
281
     0
  0
CLASS
  1
AMDTMENUSTATEMGR
  2
AmdtMenuStateMgr
  3
McadcomServices
 90
     1024
280
     0
281
     0
  0
CLASS
  1
AMDTMCOMMENUSTATE
  2
AmdtMcomMenuState
  3
McadcomServices
 90
     1024
280
     0
281
     0
  0
CLASS
  1
MAPIAMMOUDLE
  2
MApiAmModule
  3
MApiAmServices
 90
     1024
280
     0
281
     0
  0
CLASS
  1
AMDTADMENUSTATE
  2
AmdtAdMenuState
  3
DesignerServices
 90
     1024
280
     0
281
     0
  0
CLASS
  1
ADAPPL
  2
AcAdAppl
  3
DesignerServices
 90
     1024
280
     0
281
     0
  0
CLASS
  1
DEPMGR
  2
AcAdDepMgr
  3
DesignerServices
 90
     1024
280
     0
281
     0
  0
CLASS
  1
PARAMMGR
  2
AcAdParamMgr
  3
DesignerServices
 90
     1024
280
     0
281
     0
  0
CLASS
  1
PARAMSCOPE
  2
AcAdParamScope
  3
DesignerServices
 90
     1024
280
     0
281
     0
  0
CLASS
  1
NAMEDAPPL
  2
AcAdNamedAppl
  3
DesignerServices
 90
     1024
280
     0
281
     0
  0
CLASS
  1
AMDTDMMENUSTATE
  2
AmdtDmMenuState
  3
AcMechDwgViewMgmt
 90
     1024
280
     0
281
     0
  0
CLASS
  1
AMDTAMMENUSTATE
  2
AmdtAmMenuState
  3
DesignerAssemblies
 90
     1024
280
     0
281
     0
  0
CLASS
  1
ACAMPROJECT
  2
AcAmProject
  3
DesignerAssemblies
 90
     1024
280
     0
281
     0
  0
CLASS
  1
ACAMGRCOMPDEF
  2
AcAmGrCompDef
  3
DesignerAssemblies
 90
     1024
280
     0
281
     0
  0
CLASS
  1
ACCMCONTEXT
  2
AcCmContext
  3
DesignerAssemblies
 90
     1024
280
     0
281
     0
  0
CLASS
  1
ACAMCOMPDEF
  2
AcAmCompDef
  3
DesignerAssemblies
 90
     1024
280
     0
281
     0
  0
CLASS
  1
ACAMCOMPDEFMGR
  2
AcAmCompDefMgr
  3
DesignerAssemblies
 90
     1024
280
     0
281
     0
  0
CLASS
  1
AMCONTEXTMGR
  2
AcAmContextMgr
  3
DesignerAssemblies
 90
     1024
280
     0
281
     0
  0
CLASS
  1
ACAMCONTEXTMODELER
  2
AcAmContextModeler
  3
DesignerAssemblies
 90
     1024
280
     0
281
     0
  0
CLASS
  1
ACMTHREADLINESTANDARDANSI
  2
AmdtThreadLineStdANSI
  3
"Amdt_StdImp|Product Description: AutoCAD Mechanical|Company: Autodesk, Inc."
 90
    33792
280
     0
281
     0
  0
CLASS
  1
ACMTHREADLINESTANDARDDIN
  2
AmdtThreadLineStdDIN
  3
"Amdt_StdImp|Product Description: AutoCAD Mechanical|Company: Autodesk, Inc."
 90
     1024
280
     0
281
     0
  0
CLASS
  1
CATALOGSTATE
  2
AcAmCatalogState
  3
DesignerAssemblies
 90
     1024
280
     0
281
     0
  0
CLASS
  1
ACAMGRCOMPDEFSET
  2
AcAmGrCompDefSet
  3
DesignerAssemblies
 90
     1024
280
     0
281
     0
  0
CLASS
  1
AMDTBROWSERDBTAB
  2
AmdtBrowserDbTab
  3
McadcomServices
 90
     1024
280
     0
281
     0
  0
CLASS
  1
CBROWSERAPPOBJECT
  2
CBrowserAppObject
  3
McadcomServices
 90
     1024
280
     0
281
     0
  0
CLASS
  1
DM_PLACEHOLDER
  2
AcDmSelsetPlaceholder
  3
AcMechDwgViewMgmt
 90
     1024
280
     0
281
     0
  0
CLASS
  1
ACMDIMBREAKPERSREACTOR
  2
AcmDimBreakPersReactor
  3
AmgDim|Product Description: AutoCAD Mechanical|Company: Autodesk, Inc.
 90
    36863
280
     0
281
     0
  0
CLASS
  1
SORTENTSTABLE
  2
AcDbSortentsTable
  3
ObjectDBX Classes
 90
        0
280
     0
281
     0
  0
CLASS
  1
MATERIAL
  2
AcDbMaterial
  3
ObjectDBX Classes
 90
     1153
280
     0
281
     0
  0
CLASS
  1
VISUALSTYLE
  2
AcDbVisualStyle
  3
ObjectDBX Classes
 90
     4095
280
     0
281
     0
  0
CLASS
  1
SCALE
  2
AcDbScale
  3
ObjectDBX Classes
 90
     1153
280
     0
281
     0
  0
CLASS
  1
MLEADERSTYLE
  2
AcDbMLeaderStyle
  3
ACDB_MLEADERSTYLE_CLASS
 90
     4095
280
     0
281
     0
  0
CLASS
  1
ACMSURFSTANDARDDIN2002
  2
AcmSurfTextStdDIN2002
  3
"Amdt_StdImp|Product Description: AutoCAD Mechanical|Company: Autodesk, Inc."
 90
     1024
280
     0
281
     0
  0
CLASS
  1
AMDTNOTETEMPLATEDB
  2
AmdtNoteTemplateDB
  3
AcmSymBB|Product Description: AutoCAD Mechanical|Company: Autodesk, Inc.
 90
     1024
280
     0
281
     0
  0
CLASS
  1
ACMTAPERSTANDARDDIN
  2
AcmTaperStdDIN
  3
"Amdt_StdImp|Product Description: AutoCAD Mechanical|Company: Autodesk, Inc."
 90
     1024
280
     0
281
     0
  0
CLASS
  1
ACMANOOTATIONVIEWSTANDARDDIN
  2
AmdtAnViewStdDIN
  3
"Amdt_StdImp|Product Description: AutoCAD Mechanical|Company: Autodesk, Inc."
 90
     1024
280
     0
281
     0
  0
CLASS
  1
AMDTEDGESTANDARDDIN13715
  2
AmdtEdgeStdDIN13715
  3
"Amdt_StdImp|Product Description: AutoCAD Mechanical|Company: Autodesk, Inc."
 90
     1024
280
     0
281
     0
  0
CLASS
  1
CAMSSTRUCTBTNSTATE
  2
StructBtnState
  3
DesignerAssemblies
 90
    33792
280
     0
281
     0
  0
CLASS
  1
CELLSTYLEMAP
  2
AcDbCellStyleMap
  3
ObjectDBX Classes
 90
     1152
280
     0
281
     0
  0
ENDSEC
  0
SECTION
  2
TABLES
  0
TABLE
  2
VPORT
  5
6A1E
102
{ACAD_XDICTIONARY
360
8CF3
102
}
330
0
100
AcDbSymbolTable
 70
     1
  0
VPORT
  5
7D22
330
6A1E
100
AcDbSymbolTableRecord
100
AcDbViewportTableRecord
  2
*Active
 70
     0
 10
0.0
 20
0.0
 11
1.0
 21
1.0
 12
64.62137836230266
 22
117.5758638664092
 13
0.0
 23
0.0
 14
2.5
 24
2.5
 15
10.0
 25
10.0
 16
0.0
 26
0.0
 36
1.0
 17
0.0
 27
0.0
 37
0.0
 40
362.9808819286078
 41
1.732692307692307
 42
50.0
 43
0.0
 44
0.0
 50
0.0
 51
0.0
 71
     0
 72
 10000
 73
     1
 74
     3
 75
     0
 76
     0
 77
     0
 78
     0
281
     0
 65
     1
110
0.0
120
0.0
130
0.0
111
1.0
121
0.0
131
0.0
112
0.0
122
1.0
132
0.0
 79
     0
146
0.0
  0
ENDTAB
  0
TABLE
  2
LTYPE
  5
6A1B
330
0
100
AcDbSymbolTable
 70
    15
  0
LTYPE
  5
6A29
330
6A1B
100
AcDbSymbolTableRecord
100
AcDbLinetypeTableRecord
  2
ByBlock
 70
     0
  3

 72
    65
 73
     0
 40
0.0
  0
LTYPE
  5
6A2A
330
6A1B
100
AcDbSymbolTableRecord
100
AcDbLinetypeTableRecord
  2
ByLayer
 70
     0
  3

 72
    65
 73
     0
 40
0.0
  0
LTYPE
  5
6A2B
330
6A1B
100
AcDbSymbolTableRecord
100
AcDbLinetypeTableRecord
  2
CONTINUOUS
 70
     0
  3
Solid line
 72
    65
 73
     0
 40
0.0
  0
LTYPE
  5
6A39
330
6A1B
100
AcDbSymbolTableRecord
100
AcDbLinetypeTableRecord
  2
Amconstr
 70
     0
  3
_______________________
 72
    65
 73
     2
 40
9999.0
 49
9999.0
 74
     0
 49
0.0
 74
     0
  0
LTYPE
  5
6A43
330
6A1B
100
AcDbSymbolTableRecord
100
AcDbLinetypeTableRecord
  2
CENTER
 70
     0
  3
__ . __
 72
    65
 73
     4
 40
7.0
 49
4.0
 74
     0
 49
-1.0
 74
     0
 49
1.0
 74
     0
 49
-1.0
 74
     0
  0
LTYPE
  5
6A44
330
6A1B
100
AcDbSymbolTableRecord
100
AcDbLinetypeTableRecord
  2
HIDDEN
 70
     0
  3
Hidden __ __ __ __ __ __ __ __ __ __ __ __ __ _
 72
    65
 73
     2
 40
0.375
 49
0.25
 74
     0
 49
-0.125
 74
     0
  0
LTYPE
  5
6A45
330
6A1B
100
AcDbSymbolTableRecord
100
AcDbLinetypeTableRecord
  2
PHANTOM2
 70
     0
  3
Phantom (.5x) ___ _ _ ___ _ _ ___ _ _ ___ _ _
 72
    65
 73
     6
 40
1.25
 49
0.625
 74
     0
 49
-0.125
 74
     0
 49
0.125
 74
     0
 49
-0.125
 74
     0
 49
0.125
 74
     0
 49
-0.125
 74
     0
  0
LTYPE
  5
6D97
330
6A1B
100
AcDbSymbolTableRecord
100
AcDbLinetypeTableRecord
  2
ACDINWELD
 70
     0
  3
_ _ _ _ _
 72
    65
 73
     2
 40
2.0
 49
2.0
 74
     0
 49
-1.0
 74
     0
  0
LTYPE
  5
6D98
330
6A1B
100
AcDbSymbolTableRecord
100
AcDbLinetypeTableRecord
  2
ACDINTGB
 70
     0
  3
__ . . __ . .
 72
    65
 73
     6
 40
9.0
 49
4.0
 74
     0
 49
-1.0
 74
     0
 49
1.0
 74
     0
 49
-1.0
 74
     0
 49
1.0
 74
     0
 49
-1.0
 74
     0
  0
LTYPE
  5
6D99
330
6A1B
100
AcDbSymbolTableRecord
100
AcDbLinetypeTableRecord
  2
ACDINTGL
 70
     0
  3
_ _ _ _ _
 72
    65
 73
     2
 40
3.0
 49
2.0
 74
     0
 49
-1.0
 74
     0
  0
LTYPE
  5
75F6
330
6A1B
100
AcDbSymbolTableRecord
100
AcDbLinetypeTableRecord
  2
Amzigzag
 70
     0
  3
/\/-/\/-/\/-/\/-/\/-/\/
 72
    65
 73
     2
 40
11.0001
 49
0.0001
 74
     4
 75
   136
340
8D61
 46
0.04
 50
0.0
 44
0.0
 45
0.0
 49
-11.0
 74
     0
  0
LTYPE
  5
75F7
330
6A1B
100
AcDbSymbolTableRecord
100
AcDbLinetypeTableRecord
  2
AM_DIN_F_W050
 70
     0
  3
__ __ __ __ __ __ __ __ __ __ __ __ __ __ __
 72
    65
 73
     2
 40
6.25
 49
4.75
 74
     0
 49
-1.5
 74
     0
  0
LTYPE
  5
75F8
330
6A1B
100
AcDbSymbolTableRecord
100
AcDbLinetypeTableRecord
  2
AM_DIN_G_W050
 70
     0
  3
____ . ____ . ____ . ____ . ____ . ____ . ____
 72
    65
 73
     4
 40
13.75
 49
9.75
 74
     0
 49
-1.5
 74
     0
 49
1.0
 74
     0
 49
-1.5
 74
     0
  0
LTYPE
  5
75F9
330
6A1B
100
AcDbSymbolTableRecord
100
AcDbLinetypeTableRecord
  2
AM_DIN_K_W050
 70
     0
  3
_____ . . _____ . . _____ . . ____ .. ____
 72
    65
 73
     6
 40
16.25
 49
9.75
 74
     0
 49
-1.5
 74
     0
 49
1.0
 74
     0
 49
-1.5
 74
     0
 49
1.0
 74
     0
 49
-1.5
 74
     0
  0
LTYPE
  5
75FA
330
6A1B
100
AcDbSymbolTableRecord
100
AcDbLinetypeTableRecord
  2
AM_DIN_G_W050x2
 70
     0
  3
__ . __ . __ . __ . __ . __
 72
    65
 73
     4
 40
6.875
 49
4.75
 74
     0
 49
-0.875
 74
     0
 49
0.375
 74
     0
 49
-0.875
 74
     0
  0
LTYPE
  5
75FB
330
6A1B
100
AcDbSymbolTableRecord
100
AcDbLinetypeTableRecord
  2
AM_DIN_F_W050x2
 70
     0
  3
 _ _ _ _ _ _ _ _ _ _ _ _
 72
    65
 73
     2
 40
3.125
 49
2.25
 74
     0
 49
-0.875
 74
     0
  0
LTYPE
  5
7A4E
330
6A1B
100
AcDbSymbolTableRecord
100
AcDbLinetypeTableRecord
  2
DASHED
 70
     0
  3
__ __ __ __ __ __ __ __ __ __ __ __ __ __ __ __
 72
    65
 73
     2
 40
19.05
 49
12.7
 74
     0
 49
-6.349999999999998
 74
     0
  0
ENDTAB
  0
TABLE
  2
LAYER
  5
6A18
102
{ACAD_XDICTIONARY
360
8A98
102
}
330
0
100
AcDbSymbolTable
 70
    12
  0
LAYER
  5
6A26
102
{ACAD_XDICTIONARY
360
855E
102
}
330
6A18
100
AcDbSymbolTableRecord
100
AcDbLayerTableRecord
  2
0
 70
     0
 62
     7
  6
CONTINUOUS
370
    -3
390
6A25
  0
LAYER
  5
6A4B
330
6A18
100
AcDbSymbolTableRecord
100
AcDbLayerTableRecord
  2
DEFPOINTS
 70
     0
 62
     7
  6
CONTINUOUS
290
     0
370
    -3
390
6A25
  0
LAYER
  5
6A4C
102
{ACAD_XDICTIONARY
360
8560
102
}
330
6A18
100
AcDbSymbolTableRecord
100
AcDbLayerTableRecord
  2
1
 70
     0
 62
     4
  6
CONTINUOUS
370
    -3
390
6A25
  0
LAYER
  5
6A4D
102
{ACAD_XDICTIONARY
360
8562
102
}
330
6A18
100
AcDbSymbolTableRecord
100
AcDbLayerTableRecord
  2
2
 70
     0
 62
     7
  6
CONTINUOUS
370
    -3
390
6A25
  0
LAYER
  5
6A4F
102
{ACAD_XDICTIONARY
360
8564
102
}
330
6A18
100
AcDbSymbolTableRecord
100
AcDbLayerTableRecord
  2
4
 70
     0
 62
     2
  6
CENTER
370
    -3
390
6A25
  0
LAYER
  5
6A50
102
{ACAD_XDICTIONARY
360
8566
102
}
330
6A18
100
AcDbSymbolTableRecord
100
AcDbLayerTableRecord
  2
6
 70
     0
 62
     5
  6
CONTINUOUS
370
    -3
390
6A25
  0
LAYER
  5
6A53
102
{ACAD_XDICTIONARY
360
8568
102
}
330
6A18
100
AcDbSymbolTableRecord
100
AcDbLayerTableRecord
  2
SK1
 70
     0
 62
     4
  6
CONTINUOUS
370
    -3
390
6A25
  0
LAYER
  5
6A54
102
{ACAD_XDICTIONARY
360
856A
102
}
330
6A18
100
AcDbSymbolTableRecord
100
AcDbLayerTableRecord
  2
SK2
 70
     0
 62
     7
  6
CONTINUOUS
370
    -3
390
6A25
  0
LAYER
  5
6A56
102
{ACAD_XDICTIONARY
360
856C
102
}
330
6A18
100
AcDbSymbolTableRecord
100
AcDbLayerTableRecord
  2
SK4
 70
     0
 62
     2
  6
CENTER
370
    -3
390
6A25
  0
LAYER
  5
6A58
102
{ACAD_XDICTIONARY
360
856E
102
}
330
6A18
100
AcDbSymbolTableRecord
100
AcDbLayerTableRecord
  2
NOCUT
 70
     0
 62
     7
  6
CONTINUOUS
370
    -3
390
6A25
  0
LAYER
  5
7A4F
102
{ACAD_XDICTIONARY
360
8570
102
}
330
6A18
100
AcDbSymbolTableRecord
100
AcDbLayerTableRecord
  2
SK3
 70
     0
 62
     1
  6
DASHED
370
    -3
390
6A25
  0
LAYER
  5
7A50
102
{ACAD_XDICTIONARY
360
8572
102
}
330
6A18
100
AcDbSymbolTableRecord
100
AcDbLayerTableRecord
  2
CUT
 70
     0
 62
     1
  6
CONTINUOUS
370
    -3
390
6A25
  0
ENDTAB
  0
TABLE
  2
STYLE
  5
6A19
330
0
100
AcDbSymbolTable
 70
     4
  0
STYLE
  5
6A27
330
6A19
100
AcDbSymbolTableRecord
100
AcDbTextStyleTableRecord
  2
STANDARD
 70
     0
 40
0.0
 41
1.0
 50
0.0
 71
     0
 42
2.7
  3
ISOCP.SHX
  4

  0
STYLE
  5
6D9B
330
6A19
100
AcDbSymbolTableRecord
100
AcDbTextStyleTableRecord
  2
ACDINGDT
 70
     0
 40
0.0
 41
1.0
 50
0.0
 71
     0
 42
2.5
  3
amgdt.shx
  4

  0
STYLE
  5
8D61
330
6A19
100
AcDbSymbolTableRecord
100
AcDbTextStyleTableRecord
  2

 70
     1
 40
0.0
 41
1.0
 50
0.0
 71
     0
 42
2.5
  3
genltshp.shx
  4

  0
STYLE
  5
9021
330
6A19
100
AcDbSymbolTableRecord
100
AcDbTextStyleTableRecord
  2
ACDINTS
 70
     0
 40
1.0
 41
1.0
 50
0.0
 71
     0
 42
2.7
  3
isocp.shx
  4

  0
ENDTAB
  0
TABLE
  2
VIEW
  5
6A1C
330
0
100
AcDbSymbolTable
 70
     6
  0
VIEW
  5
6A60
330
6A1C
100
AcDbSymbolTableRecord
100
AcDbViewTableRecord
  2
AM_VIEW1
 70
     0
 40
148.5
 10
131.508173076923
 20
222.75
 41
263.0163461538461
 11
0.0
 21
0.0
 31
1.0
 12
0.0
 22
0.0
 32
0.0
 42
50.0
 43
0.0
 44
0.0
 50
0.0
 71
    16
281
     0
 72
     0
  0
VIEW
  5
6A61
330
6A1C
100
AcDbSymbolTableRecord
100
AcDbViewTableRecord
  2
AM_VIEW2
 70
     0
 40
148.5
 10
78.4918269230769
 20
222.75
 41
263.0163461538461
 11
0.0
 21
0.0
 31
1.0
 12
0.0
 22
0.0
 32
0.0
 42
50.0
 43
0.0
 44
0.0
 50
0.0
 71
    16
281
     0
 72
     0
  0
VIEW
  5
6A62
330
6A1C
100
AcDbSymbolTableRecord
100
AcDbViewTableRecord
  2
AM_VIEW3
 70
     0
 40
148.5
 10
131.508173076923
 20
74.25
 41
263.0163461538461
 11
0.0
 21
0.0
 31
1.0
 12
0.0
 22
0.0
 32
0.0
 42
50.0
 43
0.0
 44
0.0
 50
0.0
 71
    16
281
     0
 72
     0
  0
VIEW
  5
6A63
330
6A1C
100
AcDbSymbolTableRecord
100
AcDbViewTableRecord
  2
AM_VIEW4
 70
     0
 40
148.5
 10
78.4918269230769
 20
74.25
 41
263.0163461538461
 11
0.0
 21
0.0
 31
1.0
 12
0.0
 22
0.0
 32
0.0
 42
50.0
 43
0.0
 44
0.0
 50
0.0
 71
    16
281
     0
 72
     0
  0
VIEW
  5
6A64
330
6A1C
100
AcDbSymbolTableRecord
100
AcDbViewTableRecord
  2
AM_VIEW5
 70
     0
 40
148.5
 10
105.0
 20
148.5
 41
263.0163461538461
 11
0.0
 21
0.0
 31
1.0
 12
0.0
 22
0.0
 32
0.0
 42
50.0
 43
0.0
 44
0.0
 50
0.0
 71
    16
281
     0
 72
     0
  0
VIEW
  5
6A65
330
6A1C
100
AcDbSymbolTableRecord
100
AcDbViewTableRecord
  2
AM_VIEW6
 70
     0
 40
296.9970299999999
 10
105.0
 20
148.5
 41
526.0274319807693
 11
0.0
 21
0.0
 31
1.0
 12
0.0
 22
0.0
 32
0.0
 42
50.0
 43
0.0
 44
0.0
 50
0.0
 71
    16
281
     0
 72
     0
  0
ENDTAB
  0
TABLE
  2
UCS
  5
6A1D
330
0
100
AcDbSymbolTable
 70
     0
  0
ENDTAB
  0
TABLE
  2
APPID
  5
6A1F
330
0
100
AcDbSymbolTable
 70
    74
  0
APPID
  5
6A28
330
6A1F
100
AcDbSymbolTableRecord
100
AcDbRegAppTableRecord
  2
ACAD
 70
     0
  0
APPID
  5
6A66
330
6A1F
100
AcDbSymbolTableRecord
100
AcDbRegAppTableRecord
  2
MCAD_NO_VIS
 70
     0
  0
APPID
  5
6A67
330
6A1F
100
AcDbSymbolTableRecord
100
AcDbRegAppTableRecord
  2
ACAD_TEMP_GRAPHIC
 70
     0
  0
APPID
  5
6A68
330
6A1F
100
AcDbSymbolTableRecord
100
AcDbRegAppTableRecord
  2
ACATTRIBSERVICES
 70
     0
  0
APPID
  5
6A69
330
6A1F
100
AcDbSymbolTableRecord
100
AcDbRegAppTableRecord
  2
GENIUS_GENDIMSH_14
 70
     0
  0
APPID
  5
6A6A
330
6A1F
100
AcDbSymbolTableRecord
100
AcDbRegAppTableRecord
  2
GENIUS_GENBLLY_14
 70
     0
  0
APPID
  5
6A6B
330
6A1F
100
AcDbSymbolTableRecord
100
AcDbRegAppTableRecord
  2
GENIUS_GENTRA_14
 70
     0
  0
APPID
  5
6A6C
330
6A1F
100
AcDbSymbolTableRecord
100
AcDbRegAppTableRecord
  2
GENIUS_GENODEF_13
 70
     0
  0
APPID
  5
6A6D
330
6A1F
100
AcDbSymbolTableRecord
100
AcDbRegAppTableRecord
  2
GENIUS_GENOLIS_13
 70
     0
  0
APPID
  5
6A6E
330
6A1F
100
AcDbSymbolTableRecord
100
AcDbRegAppTableRecord
  2
GENIUS_GENOENT_13
 70
     0
  0
APPID
  5
6A6F
330
6A1F
100
AcDbSymbolTableRecord
100
AcDbRegAppTableRecord
  2
GENIUS_GENOBJ-N-TIT_13
 70
     0
  0
APPID
  5
6A70
330
6A1F
100
AcDbSymbolTableRecord
100
AcDbRegAppTableRecord
  2
GENIUS_GENTITLE_13
 70
     0
  0
APPID
  5
6A71
330
6A1F
100
AcDbSymbolTableRecord
100
AcDbRegAppTableRecord
  2
GENIUS_GENOREF_13
 70
     0
  0
APPID
  5
6A72
330
6A1F
100
AcDbSymbolTableRecord
100
AcDbRegAppTableRecord
  2
GENIUS_GENSCREG_15
 70
     0
  0
APPID
  5
6A73
330
6A1F
100
AcDbSymbolTableRecord
100
AcDbRegAppTableRecord
  2
GENIUS_GENOBJ-N-SDF_13
 70
     0
  0
APPID
  5
6A74
330
6A1F
100
AcDbSymbolTableRecord
100
AcDbRegAppTableRecord
  2
ACADIGES
 70
     0
  0
APPID
  5
6A75
330
6A1F
100
AcDbSymbolTableRecord
100
AcDbRegAppTableRecord
  2
GENIUS_GENOBJ-N-HTC_13
 70
     0
  0
APPID
  5
6A76
330
6A1F
100
AcDbSymbolTableRecord
100
AcDbRegAppTableRecord
  2
GENIUS_GENHATCH_13
 70
     0
  0
APPID
  5
6DA2
330
6A1F
100
AcDbSymbolTableRecord
100
AcDbRegAppTableRecord
  2
GENIUS_GENOBJ-N-CRS_13
 70
     0
  0
APPID
  5
6DA3
330
6A1F
100
AcDbSymbolTableRecord
100
AcDbRegAppTableRecord
  2
GENIUS_GENOBJ-N-FIL_13
 70
     0
  0
APPID
  5
6DD2
330
6A1F
100
AcDbSymbolTableRecord
100
AcDbRegAppTableRecord
  2
GENIUS_GENFIL_13
 70
     0
  0
APPID
  5
6DD3
330
6A1F
100
AcDbSymbolTableRecord
100
AcDbRegAppTableRecord
  2
GENIUS_GENOBJ-N-CHA_13
 70
     0
  0
APPID
  5
765A
330
6A1F
100
AcDbSymbolTableRecord
100
AcDbRegAppTableRecord
  2
AD_DRAW
 70
     0
  0
APPID
  5
7678
330
6A1F
100
AcDbSymbolTableRecord
100
AcDbRegAppTableRecord
  2
DESIGNERASSEMBLIES
 70
     0
  0
APPID
  5
767B
330
6A1F
100
AcDbSymbolTableRecord
100
AcDbRegAppTableRecord
  2
ACAD_DSTYLE_DIMARC_LENGTH_SYMBOL
 70
     0
  0
APPID
  5
767C
330
6A1F
100
AcDbSymbolTableRecord
100
AcDbRegAppTableRecord
  2
ACAD_DSTYLE_DIMJOGGED_JOGANGLE_SYMBOL
 70
     0
  0
APPID
  5
7699
330
6A1F
100
AcDbSymbolTableRecord
100
AcDbRegAppTableRecord
  2
ACADM_DIM_EDIT
 70
     0
  0
APPID
  5
769A
330
6A1F
100
AcDbSymbolTableRecord
100
AcDbRegAppTableRecord
  2
AMDT_DM_ADJ
 70
     0
  0
APPID
  5
77C0
330
6A1F
100
AcDbSymbolTableRecord
100
AcDbRegAppTableRecord
  2
AcAecLayerStandard
 70
     0
  0
APPID
  5
7A52
330
6A1F
100
AcDbSymbolTableRecord
100
AcDbRegAppTableRecord
  2
GENIUS12
 70
     0
  0
APPID
  5
7A53
330
6A1F
100
AcDbSymbolTableRecord
100
AcDbRegAppTableRecord
  2
GENIUS_GENOBJ-N-RSBK_13
 70
     0
  0
APPID
  5
7A54
330
6A1F
100
AcDbSymbolTableRecord
100
AcDbRegAppTableRecord
  2
GENIUS_GENOBJ-N-DIM12_13
 70
     0
  0
APPID
  5
7A55
330
6A1F
100
AcDbSymbolTableRecord
100
AcDbRegAppTableRecord
  2
GENIUS_GENSCALE_13
 70
     0
  0
APPID
  5
7A56
330
6A1F
100
AcDbSymbolTableRecord
100
AcDbRegAppTableRecord
  2
GENIUS_GENCFG_13
 70
     0
  0
APPID
  5
7A57
330
6A1F
100
AcDbSymbolTableRecord
100
AcDbRegAppTableRecord
  2
GENIUS_GENCFG0_13
 70
     0
  0
APPID
  5
7A58
330
6A1F
100
AcDbSymbolTableRecord
100
AcDbRegAppTableRecord
  2
GENIUS_GENCFG1_13
 70
     0
  0
APPID
  5
7A59
330
6A1F
100
AcDbSymbolTableRecord
100
AcDbRegAppTableRecord
  2
GENIUS_GENCFG2_13
 70
     0
  0
APPID
  5
7A5A
330
6A1F
100
AcDbSymbolTableRecord
100
AcDbRegAppTableRecord
  2
GENIUS_GENCFG3_13
 70
     0
  0
APPID
  5
7A5B
330
6A1F
100
AcDbSymbolTableRecord
100
AcDbRegAppTableRecord
  2
GENIUS_GENCFG4_13
 70
     0
  0
APPID
  5
7A5C
330
6A1F
100
AcDbSymbolTableRecord
100
AcDbRegAppTableRecord
  2
GENIUS_GEVCFG0_13
 70
     0
  0
APPID
  5
7A5D
330
6A1F
100
AcDbSymbolTableRecord
100
AcDbRegAppTableRecord
  2
GENIUS_GENOBJ-F-SUF_13
 70
     0
  0
APPID
  5
7A5E
330
6A1F
100
AcDbSymbolTableRecord
100
AcDbRegAppTableRecord
  2
GENIUS_GEFCFG0_13
 70
     0
  0
APPID
  5
7A5F
330
6A1F
100
AcDbSymbolTableRecord
100
AcDbRegAppTableRecord
  2
GEV_VCCNULL_SWITCH_OFF
 70
     0
  0
APPID
  5
7A60
330
6A1F
100
AcDbSymbolTableRecord
100
AcDbRegAppTableRecord
  2
GENIUS_GENDTOL_13
 70
     0
  0
APPID
  5
7A61
330
6A1F
100
AcDbSymbolTableRecord
100
AcDbRegAppTableRecord
  2
GENIUS_GENDIM_13
 70
     0
  0
APPID
  5
7A62
330
6A1F
100
AcDbSymbolTableRecord
100
AcDbRegAppTableRecord
  2
GENIUS_GE3DTOL_13
 70
     0
  0
APPID
  5
7A63
330
6A1F
100
AcDbSymbolTableRecord
100
AcDbRegAppTableRecord
  2
ASURF_PCURVE_APPNAME
 70
     0
  0
APPID
  5
7A64
330
6A1F
100
AcDbSymbolTableRecord
100
AcDbRegAppTableRecord
  2
AMG_3D2D_5.0
 70
     0
  0
APPID
  5
7A65
330
6A1F
100
AcDbSymbolTableRecord
100
AcDbRegAppTableRecord
  2
GENIUS_GENHINW_13
 70
     0
  0
APPID
  5
7A66
330
6A1F
100
AcDbSymbolTableRecord
100
AcDbRegAppTableRecord
  2
GENIUS_GENOBJ-F-TOLL_13
 70
     0
  0
APPID
  5
7A67
330
6A1F
100
AcDbSymbolTableRecord
100
AcDbRegAppTableRecord
  2
GENIUS_GEFTOLC_13
 70
     0
  0
APPID
  5
7A68
330
6A1F
100
AcDbSymbolTableRecord
100
AcDbRegAppTableRecord
  2
GENIUS_GENOBJ-F-TOL_13
 70
     0
  0
APPID
  5
7A69
330
6A1F
100
AcDbSymbolTableRecord
100
AcDbRegAppTableRecord
  2
GENIUS_GENOBJ-N-RSSYM_13
 70
     0
  0
APPID
  5
7A6A
330
6A1F
100
AcDbSymbolTableRecord
100
AcDbRegAppTableRecord
  2
GENIUS_GENSYMENT_13
 70
     0
  0
APPID
  5
7A6B
330
6A1F
100
AcDbSymbolTableRecord
100
AcDbRegAppTableRecord
  2
GENIUS_GENSCSYM_13
 70
     0
  0
APPID
  5
7A6C
330
6A1F
100
AcDbSymbolTableRecord
100
AcDbRegAppTableRecord
  2
GENIUS_GENOBJ-N-CEN_13
 70
     0
  0
APPID
  5
7A6D
330
6A1F
100
AcDbSymbolTableRecord
100
AcDbRegAppTableRecord
  2
ACAD_PSEXT
 70
     0
  0
APPID
  5
7A6E
330
6A1F
100
AcDbSymbolTableRecord
100
AcDbRegAppTableRecord
  2
GENIUS_GENREC_14
 70
     0
  0
APPID
  5
7A6F
330
6A1F
100
AcDbSymbolTableRecord
100
AcDbRegAppTableRecord
  2
GENIUS_GENOBJ-N-REC_13
 70
     0
  0
APPID
  5
7A70
330
6A1F
100
AcDbSymbolTableRecord
100
AcDbRegAppTableRecord
  2
ACAD_DSTYLE_DIMTEXT_FILL
 70
     0
  0
APPID
  5
7A71
330
6A1F
100
AcDbSymbolTableRecord
100
AcDbRegAppTableRecord
  2
ACAD_DSTYLE_DIMEXT_LENGTH
 70
     0
  0
APPID
  5
7A72
330
6A1F
100
AcDbSymbolTableRecord
100
AcDbRegAppTableRecord
  2
ACAD_DSTYLE_DIMEXT_ENABLED
 70
     0
  0
APPID
  5
7A73
330
6A1F
100
AcDbSymbolTableRecord
100
AcDbRegAppTableRecord
  2
ACAD_DSTYLE_DIM_LINETYPE
 70
     0
  0
APPID
  5
7A74
330
6A1F
100
AcDbSymbolTableRecord
100
AcDbRegAppTableRecord
  2
ACAD_DSTYLE_DIM_EXT1_LINETYPE
 70
     0
  0
APPID
  5
7A75
330
6A1F
100
AcDbSymbolTableRecord
100
AcDbRegAppTableRecord
  2
ACAD_DSTYLE_DIM_EXT2_LINETYPE
 70
     0
  0
APPID
  5
7A76
330
6A1F
100
AcDbSymbolTableRecord
100
AcDbRegAppTableRecord
  2
ACAD_DSTYLE_DIMARC_LENGTH_
 70
     0
  0
APPID
  5
7A77
330
6A1F
100
AcDbSymbolTableRecord
100
AcDbRegAppTableRecord
  2
ACAD_DSTYLE_DIMJOGGED_JOGA
 70
     0
  0
APPID
  5
7A78
330
6A1F
100
AcDbSymbolTableRecord
100
AcDbRegAppTableRecord
  2
AMG_3D2D_5_0
 70
     0
  0
APPID
  5
7D68
330
6A1F
100
AcDbSymbolTableRecord
100
AcDbRegAppTableRecord
  2
ACAD_MLEADERVER
 70
     0
  0
APPID
  5
7D71
330
6A1F
100
AcDbSymbolTableRecord
100
AcDbRegAppTableRecord
  2
ACAD_EXEMPT_FROM_CAD_STANDARDS
 70
     0
  0
APPID
  5
851F
330
6A1F
100
AcDbSymbolTableRecord
100
AcDbRegAppTableRecord
  2
ACAD_DSTYLE_DIMINSPECT
 70
     0
  0
APPID
  5
8723
330
6A1F
100
AcDbSymbolTableRecord
100
AcDbRegAppTableRecord
  2
AD_SKETCHDIM
 70
     0
  0
APPID
  5
8724
330
6A1F
100
AcDbSymbolTableRecord
100
AcDbRegAppTableRecord
  2
ACAD_DSTYLE_DIMANGULAR_EXTENSION
 70
     0
  0
APPID
  5
8A96
330
6A1F
100
AcDbSymbolTableRecord
100
AcDbRegAppTableRecord
  2
ACAD_DSTYLE_DIMRADIAL_EXTENSION
 70
     0
  0
ENDTAB
  0
TABLE
  2
DIMSTYLE
  5
6A20
330
0
100
AcDbSymbolTable
 70
    10
100
AcDbDimStyleTable
 71
     2
340
6A77
340
6A7F
  0
DIMSTYLE
105
6A77
330
6A20
100
AcDbSymbolTableRecord
100
AcDbDimStyleTableRecord
  2
AM_DIN
 70
     0
  4
"
 41
3.5
 42
1.0
 43
10.0
 44
1.0
 47
0.1
 48
0.1
 73
     0
 74
     0
 77
     1
 78
     8
 79
     2
140
3.5
141
0.0
143
0.0393701
146
0.71
147
1.5
172
     1
176
   256
177
   256
178
   140
271
     2
272
     3
274
     4
283
     0
284
     8
340
6A27
371
    -1
372
    -1
1001
ACAD_DSTYLE_DIMJOGGED_JOGANGLE_SYMBOL
1070
   384
1040
1.570796326794896
1001
ACAD_DSTYLE_DIM_LINETYPE
1070
   380
1005
6A29
1001
ACAD_DSTYLE_DIM_EXT1_LINETYPE
1070
   381
1005
6A29
1001
ACAD_DSTYLE_DIM_EXT2_LINETYPE
1070
   382
1005
6A29
  0
DIMSTYLE
105
6A7E
330
6A20
100
AcDbSymbolTableRecord
100
AcDbDimStyleTableRecord
  2
STANDARD
 70
     0
271
     2
272
     2
279
     2
284
     8
285
     8
286
     8
340
6A27
  0
DIMSTYLE
105
6A7F
102
{ACAD_REACTORS
330
85F9
330
86D6
102
}
330
6A20
100
AcDbSymbolTableRecord
100
AcDbDimStyleTableRecord
  2
AM_ANSI
 70
     0
  4
mm
 41
0.1
 42
0.05
 43
0.5
 44
0.1
 47
0.1
 48
0.1
 78
     7
140
0.12
141
0.0
146
0.71
147
0.06
176
   256
177
   256
178
     2
271
     2
272
     2
279
     2
284
     8
285
     8
286
     8
340
6A27
1001
ACAD_DSTYLE_DIMJOGGED_JOGANGLE_SYMBOL
1070
   384
1040
0.7853981633974483
1001
ACAD_DSTYLE_DIMARC_LENGTH_SYMBOL
1070
   379
1070
     1
  0
DIMSTYLE
105
6D9C
330
6A20
100
AcDbSymbolTableRecord
100
AcDbDimStyleTableRecord
  2
AM_DIN$3
 70
     0
  4
"
 41
3.5
 42
1.0
 43
10.0
 44
1.0
 47
0.1
 48
0.1
 73
     0
 77
     1
 78
     8
 79
     2
140
3.5
141
0.0
143
0.0393701
146
0.71
147
1.5
176
   256
177
   256
178
   140
271
     2
272
     3
274
     4
283
     0
284
     8
288
     1
289
     0
340
6A27
371
    -1
372
    -1
1001
ACAD_DSTYLE_DIMJOGGED_JOGANGLE_SYMBOL
1070
   384
1040
1.570796326794896
1001
ACAD_DSTYLE_DIM_LINETYPE
1070
   380
1005
6A29
1001
ACAD_DSTYLE_DIM_EXT1_LINETYPE
1070
   381
1005
6A29
1001
ACAD_DSTYLE_DIM_EXT2_LINETYPE
1070
   382
1005
6A29
  0
DIMSTYLE
105
6D9D
102
{ACAD_REACTORS
330
8E75
102
}
330
6A20
100
AcDbSymbolTableRecord
100
AcDbDimStyleTableRecord
  2
AM_DIN$4
 70
     0
  4
"
 41
3.5
 42
1.0
 43
10.0
 44
1.0
 47
0.1
 48
0.1
 73
     0
 74
     0
 77
     1
 78
     8
 79
     2
140
3.5
141
0.0
143
0.0393701
146
0.71
147
1.5
172
     1
176
   256
177
   256
178
   140
271
     2
272
     3
274
     4
283
     0
284
     8
340
6A27
371
    -1
372
    -1
1001
ACAD_DSTYLE_DIMJOGGED_JOGANGLE_SYMBOL
1070
   384
1040
1.570796326794896
1001
ACAD_DSTYLE_DIM_LINETYPE
1070
   380
1005
6A29
1001
ACAD_DSTYLE_DIM_EXT1_LINETYPE
1070
   381
1005
6A29
1001
ACAD_DSTYLE_DIM_EXT2_LINETYPE
1070
   382
1005
6A29
  0
DIMSTYLE
105
6D9E
330
6A20
100
AcDbSymbolTableRecord
100
AcDbDimStyleTableRecord
  2
AM_DIN$6
 70
     0
  4
"
 41
3.5
 42
1.0
 43
10.0
 44
1.0
 47
0.1
 48
0.1
 73
     0
 74
     0
 78
     8
 79
     2
140
3.5
141
0.0
143
0.0393701
146
0.71
147
1.5
172
     1
176
   256
177
   256
178
   140
271
     2
272
     3
274
     4
283
     0
284
     8
340
6A27
371
    -1
372
    -1
1001
ACAD_DSTYLE_DIMJOGGED_JOGANGLE_SYMBOL
1070
   384
1040
1.570796326794896
1001
ACAD_DSTYLE_DIM_LINETYPE
1070
   380
1005
6A29
1001
ACAD_DSTYLE_DIM_EXT1_LINETYPE
1070
   381
1005
6A29
1001
ACAD_DSTYLE_DIM_EXT2_LINETYPE
1070
   382
1005
6A29
  0
DIMSTYLE
105
6D9F
330
6A20
100
AcDbSymbolTableRecord
100
AcDbDimStyleTableRecord
  2
AM_DIN$7
 70
     0
  4
"
 41
3.5
 42
1.0
 43
10.0
 44
1.0
 47
0.1
 48
0.1
 73
     0
 74
     0
 77
     1
 78
     8
 79
     2
140
3.5
141
0.0
143
0.0393701
146
0.71
147
1.5
172
     1
176
   256
177
   256
178
   140
271
     2
272
     3
274
     4
283
     0
284
     8
340
6A27
371
    -1
372
    -1
1001
ACAD_DSTYLE_DIMJOGGED_JOGANGLE_SYMBOL
1070
   384
1040
1.570796326794896
1001
ACAD_DSTYLE_DIM_LINETYPE
1070
   380
1005
6A29
1001
ACAD_DSTYLE_DIM_EXT1_LINETYPE
1070
   381
1005
6A29
1001
ACAD_DSTYLE_DIM_EXT2_LINETYPE
1070
   382
1005
6A29
  0
DIMSTYLE
105
6DA0
330
6A20
100
AcDbSymbolTableRecord
100
AcDbDimStyleTableRecord
  2
AM_DIN$SF
 70
     0
  4
"
 41
3.5
 42
1.0
 43
10.0
 44
1.0
 47
0.1
 48
0.1
 73
     0
 74
     0
 75
     1
 76
     1
 77
     1
 78
     8
 79
     2
140
3.5
141
0.0
143
0.0393701
146
0.71
147
1.5
172
     1
176
   256
177
   256
178
   140
271
     2
272
     3
274
     4
283
     0
284
     8
340
6A27
371
    -1
372
    -1
1001
ACAD_DSTYLE_DIMJOGGED_JOGANGLE_SYMBOL
1070
   384
1040
1.570796326794896
1001
ACAD_DSTYLE_DIM_LINETYPE
1070
   380
1005
6A29
1001
ACAD_DSTYLE_DIM_EXT1_LINETYPE
1070
   381
1005
6A29
1001
ACAD_DSTYLE_DIM_EXT2_LINETYPE
1070
   382
1005
6A29
  0
DIMSTYLE
105
6DA1
330
6A20
100
AcDbSymbolTableRecord
100
AcDbDimStyleTableRecord
  2
AM_DIN$SH
 70
     0
  4
"
 41
3.5
 42
1.0
 43
10.0
 44
1.0
 47
0.1
 48
0.1
 73
     0
 74
     0
 75
     1
 76
     1
 77
     1
 78
     8
 79
     2
140
3.5
141
0.0
143
0.0393701
144
2.0
146
0.71
147
1.5
172
     1
173
     1
176
   256
177
   256
178
   140
271
     2
272
     3
274
     4
283
     0
284
     8
340
6A27
343
6D93
371
    -1
372
    -1
1001
ACAD_DSTYLE_DIMJOGGED_JOGANGLE_SYMBOL
1070
   384
1040
1.570796326794896
1001
ACAD_DSTYLE_DIM_LINETYPE
1070
   380
1005
6A29
1001
ACAD_DSTYLE_DIM_EXT1_LINETYPE
1070
   381
1005
6A29
1001
ACAD_DSTYLE_DIM_EXT2_LINETYPE
1070
   382
1005
6A29
  0
DIMSTYLE
105
7A51
102
{ACAD_REACTORS
330
87E2
330
8813
330
88F1
330
8969
330
89B7
330
8C16
102
}
330
6A20
100
AcDbSymbolTableRecord
100
AcDbDimStyleTableRecord
  2
AM_DIN$0
 70
     0
  4
"
 41
2.5
 42
0.0
 43
10.0
 44
1.0
 47
0.1
 48
0.1
 73
     0
 74
     0
 77
     1
 78
     8
 79
     2
140
3.5
141
0.0
143
0.0393701
146
0.71
147
1.5
172
     1
176
   256
177
   256
178
     2
271
     2
272
     2
283
     0
284
     8
340
6A27
371
    -1
372
    -1
1001
ACAD_DSTYLE_DIMJOGGED_JOGANGLE_SYMBOL
1070
   384
1040
1.570796326794896
  0
ENDTAB
  0
TABLE
  2
BLOCK_RECORD
  5
6A17
330
0
100
AcDbSymbolTable
 70
    11
  0
BLOCK_RECORD
  5
6A34
102
{ACAD_XDICTIONARY
360
6B62
102
}
330
6A17
100
AcDbSymbolTableRecord
100
AcDbBlockTableRecord
  2
*Model_Space
340
6A37
  0
BLOCK_RECORD
  5
6A30
330
6A17
100
AcDbSymbolTableRecord
100
AcDbBlockTableRecord
  2
*Paper_Space
340
6A33
  0
BLOCK_RECORD
  5
6D93
330
6A17
100
AcDbSymbolTableRecord
100
AcDbBlockTableRecord
  2
GENAXEH
340
0
  0
BLOCK_RECORD
  5
868B
330
6A17
100
AcDbSymbolTableRecord
100
AcDbBlockTableRecord
  2
*D1
340
0
  0
BLOCK_RECORD
  5
86D7
330
6A17
100
AcDbSymbolTableRecord
100
AcDbBlockTableRecord
  2
*D2
340
0
  0
BLOCK_RECORD
  5
87E3
330
6A17
100
AcDbSymbolTableRecord
100
AcDbBlockTableRecord
  2
*D3
340
0
  0
BLOCK_RECORD
  5
8814
330
6A17
100
AcDbSymbolTableRecord
100
AcDbBlockTableRecord
  2
*D4
340
0
  0
BLOCK_RECORD
  5
88F2
330
6A17
100
AcDbSymbolTableRecord
100
AcDbBlockTableRecord
  2
*D5
340
0
  0
BLOCK_RECORD
  5
896A
330
6A17
100
AcDbSymbolTableRecord
100
AcDbBlockTableRecord
  2
*D6
340
0
  0
BLOCK_RECORD
  5
89B8
330
6A17
100
AcDbSymbolTableRecord
100
AcDbBlockTableRecord
  2
*D7
340
0
  0
BLOCK_RECORD
  5
8C17
330
6A17
100
AcDbSymbolTableRecord
100
AcDbBlockTableRecord
  2
*D8
340
0
  0
BLOCK_RECORD
  5
8E76
330
6A17
100
AcDbSymbolTableRecord
100
AcDbBlockTableRecord
  2
*D9
340
0
  0
ENDTAB
  0
ENDSEC
  0
SECTION
  2
BLOCKS
  0
BLOCK
  5
6A35
330
6A34
100
AcDbEntity
  8
0
100
AcDbBlockBegin
  2
*Model_Space
 70
     0
 10
0.0
 20
0.0
 30
0.0
  3
*Model_Space
  1

  0
ENDBLK
  5
6A36
330
6A34
100
AcDbEntity
  8
0
100
AcDbBlockEnd
  0
BLOCK
  5
6A31
330
6A30
100
AcDbEntity
 67
     1
  8
0
100
AcDbBlockBegin
  2
*Paper_Space
 70
     0
 10
0.0
 20
0.0
 30
0.0
  3
*Paper_Space
  1

  0
ENDBLK
  5
6A32
330
6A30
100
AcDbEntity
 67
     1
  8
0
100
AcDbBlockEnd
  0
BLOCK
  5
90A6
330
6D93
100
AcDbEntity
  8
0
100
AcDbBlockBegin
  2
GENAXEH
 70
     0
 10
0.0
 20
0.0
 30
0.0
  3
GENAXEH
  1

  0
LINE
  5
90A7
330
6D93
100
AcDbEntity
  8
0
100
AcDbLine
 10
-1.0
 20
0.0
 30
0.0
 11
1.0
 21
0.0
 31
0.0
  0
ENDBLK
  5
90A8
330
6D93
100
AcDbEntity
  8
0
100
AcDbBlockEnd
  0
BLOCK
  5
868C
330
868B
100
AcDbEntity
  8
0
100
AcDbBlockBegin
  2
*D1
 70
     1
 10
0.0
 20
0.0
 30
0.0
  3
*D1
  1

  0
LINE
  5
8BBD
330
868B
100
AcDbEntity
  8
SK2
370
    -2
100
AcDbLine
 10
-55.0
 20
-12.50000000000003
 30
0.0
 11
-77.10747231352951
 21
-12.50000000000002
 31
0.0
  0
LINE
  5
8BBE
330
868B
100
AcDbEntity
  8
SK2
370
    -2
100
AcDbLine
 10
-55.00000000000006
 20
12.5
 30
0.0
 11
-77.10747231352951
 21
12.50000000000001
 31
0.0
  0
LINE
  5
8BBF
330
868B
100
AcDbEntity
  8
SK2
370
    -2
100
AcDbLine
 10
-76.10747231352951
 20
-10.00000000000002
 30
0.0
 11
-76.10747231352951
 21
10.0
 31
0.0
  0
MTEXT
  5
8BC0
330
868B
100
AcDbEntity
  8
SK2
 62
     2
100
AcDbMText
 10
-79.17522541557326
 20
-0.4833155496131099
 30
0.0
 40
3.5
 41
0.0
 71
     5
 72
     1
  1
\A1;%%c25
 11
0.0000000000000001
 21
1.0
 31
0.0
 73
     1
 44
1.0
1001
ACAD
1000
MTEXTBEGIN
1070
    73
1070
     1
1070
    44
1040
1.0
1070
    74
1070
     0
1000
MTEXTEND
  0
SOLID
  5
8BC1
330
868B
100
AcDbEntity
  8
SK2
100
AcDbTrace
 10
-76.52413898019618
 20
-10.00000000000002
 30
0.0
 11
-75.69080564686284
 21
-10.00000000000002
 31
0.0
 12
-76.10747231352951
 22
-12.50000000000002
 32
0.0
 13
-76.10747231352951
 23
-12.50000000000002
 33
0.0
  0
SOLID
  5
8BC2
330
868B
100
AcDbEntity
  8
SK2
100
AcDbTrace
 10
-76.52413898019618
 20
10.0
 30
0.0
 11
-75.69080564686284
 21
10.0
 31
0.0
 12
-76.10747231352951
 22
12.50000000000001
 32
0.0
 13
-76.10747231352951
 23
12.50000000000001
 33
0.0
  0
POINT
  5
8BC3
330
868B
100
AcDbEntity
  8
DEFPOINTS
 62
     0
100
AcDbPoint
 10
-55.0
 20
-12.50000000000003
 30
0.0
  0
POINT
  5
8BC4
330
868B
100
AcDbEntity
  8
DEFPOINTS
 62
     0
100
AcDbPoint
 10
-55.00000000000006
 20
12.5
 30
0.0
  0
POINT
  5
8BC5
330
868B
100
AcDbEntity
  8
DEFPOINTS
 62
     0
100
AcDbPoint
 10
-76.10747231352951
 20
12.50000000000001
 30
0.0
  0
ENDBLK
  5
868D
330
868B
100
AcDbEntity
  8
0
100
AcDbBlockEnd
  0
BLOCK
  5
86D8
330
86D7
100
AcDbEntity
  8
0
100
AcDbBlockBegin
  2
*D2
 70
     1
 10
0.0
 20
0.0
 30
0.0
  3
*D2
  1

  0
LINE
  5
8FAE
330
86D7
100
AcDbEntity
  8
2
370
    -2
100
AcDbLine
 10
-0.0000000000000568
 20
12.49999999999997
 30
0.0
 11
-0.0000000000000539
 21
61.00000000000005
 31
0.0
  0
LINE
  5
8FAF
330
86D7
100
AcDbEntity
  8
2
370
    -2
100
AcDbLine
 10
44.0
 20
9.457577337337932
 30
0.0
 11
44.0
 21
61.00000000000005
 31
0.0
  0
LINE
  5
8FB0
330
86D7
100
AcDbEntity
  8
2
370
    -2
100
AcDbLine
 10
2.499999999999946
 20
60.00000000000006
 30
0.0
 11
41.5
 21
60.00000000000006
 31
0.0
  0
SOLID
  5
8FB1
330
86D7
100
AcDbEntity
  8
2
100
AcDbTrace
 10
2.499999999999946
 20
60.41666666666672
 30
0.0
 11
2.499999999999946
 21
59.58333333333339
 31
0.0
 12
-0.0000000000000539
 22
60.00000000000006
 32
0.0
 13
-0.0000000000000539
 23
60.00000000000006
 33
0.0
  0
SOLID
  5
8FB2
330
86D7
100
AcDbEntity
  8
2
100
AcDbTrace
 10
41.5
 20
60.41666666666672
 30
0.0
 11
41.5
 21
59.58333333333339
 31
0.0
 12
44.0
 22
60.00000000000006
 32
0.0
 13
44.0
 23
60.00000000000006
 33
0.0
  0
MTEXT
  5
8FB3
330
86D7
100
AcDbEntity
  8
2
 62
     2
100
AcDbMText
 10
21.99999999999997
 20
62.75000000000005
 30
0.0
 40
3.5
 41
0.0
 71
     5
 72
     1
  1
\A1;44
 73
     1
 44
1.0
1001
ACAD
1000
MTEXTBEGIN
1070
    73
1070
     1
1070
    44
1040
1.0
1070
    74
1070
     0
1000
MTEXTEND
  0
POINT
  5
8FB4
330
86D7
100
AcDbEntity
  8
DEFPOINTS
 62
     0
100
AcDbPoint
 10
-0.0000000000000568
 20
12.49999999999997
 30
0.0
  0
POINT
  5
8FB5
330
86D7
100
AcDbEntity
  8
DEFPOINTS
 62
     0
100
AcDbPoint
 10
44.0
 20
9.457577337337932
 30
0.0
  0
POINT
  5
8FB6
330
86D7
100
AcDbEntity
  8
DEFPOINTS
 62
     0
100
AcDbPoint
 10
44.0
 20
60.00000000000006
 30
0.0
  0
ENDBLK
  5
86D9
330
86D7
100
AcDbEntity
  8
0
100
AcDbBlockEnd
  0
BLOCK
  5
87E4
330
87E3
100
AcDbEntity
  8
0
100
AcDbBlockBegin
  2
*D3
 70
     1
 10
0.0
 20
0.0
 30
0.0
  3
*D3
  1

  0
LINE
  5
8E15
330
87E3
100
AcDbEntity
  8
2
370
    -2
100
AcDbLine
 10
40.70316078206917
 20
12.49999999999995
 30
0.0
 11
59.81374307679084
 21
12.49999999999995
 31
0.0
  0
LINE
  5
8E16
330
87E3
100
AcDbEntity
  8
2
370
    -2
100
AcDbLine
 10
40.70316078206903
 20
-12.50000000000004
 30
0.0
 11
59.81374307679084
 21
-12.50000000000005
 31
0.0
  0
LINE
  5
8E17
330
87E3
100
AcDbEntity
  8
2
370
    -2
100
AcDbLine
 10
58.81374307679084
 20
9.999999999999948
 30
0.0
 11
58.81374307679084
 21
-10.00000000000005
 31
0.0
  0
SOLID
  5
8E18
330
87E3
100
AcDbEntity
  8
2
100
AcDbTrace
 10
58.39707641012418
 20
9.999999999999948
 30
0.0
 11
59.23040974345751
 21
9.999999999999948
 31
0.0
 12
58.81374307679084
 22
12.49999999999995
 32
0.0
 13
58.81374307679084
 23
12.49999999999995
 33
0.0
  0
SOLID
  5
8E19
330
87E3
100
AcDbEntity
  8
2
100
AcDbTrace
 10
58.39707641012418
 20
-10.00000000000005
 30
0.0
 11
59.23040974345751
 21
-10.00000000000005
 31
0.0
 12
58.81374307679084
 22
-12.50000000000005
 32
0.0
 13
58.81374307679084
 23
-12.50000000000005
 33
0.0
  0
MTEXT
  5
8E1A
330
87E3
100
AcDbEntity
  8
2
 62
     2
100
AcDbMText
 10
55.56339858860186
 20
-0.0000000000000405
 30
0.0
 40
3.5
 41
0.0
 71
     5
 72
     1
  1
\A1;%%c25
 11
0.0000000000000001
 21
1.0
 31
0.0
 73
     1
 44
1.0
1001
ACAD
1000
MTEXTBEGIN
1070
    73
1070
     1
1070
    44
1040
1.0
1070
    74
1070
     0
1000
MTEXTEND
  0
POINT
  5
8E1B
330
87E3
100
AcDbEntity
  8
DEFPOINTS
 62
     0
100
AcDbPoint
 10
40.70316078206917
 20
12.49999999999995
 30
0.0
  0
POINT
  5
8E1C
330
87E3
100
AcDbEntity
  8
DEFPOINTS
 62
     0
100
AcDbPoint
 10
40.70316078206903
 20
-12.50000000000004
 30
0.0
  0
POINT
  5
8E1D
330
87E3
100
AcDbEntity
  8
DEFPOINTS
 62
     0
100
AcDbPoint
 10
58.81374307679084
 20
-12.50000000000005
 30
0.0
  0
ENDBLK
  5
87E5
330
87E3
100
AcDbEntity
  8
0
100
AcDbBlockEnd
  0
BLOCK
  5
8815
330
8814
100
AcDbEntity
  8
0
100
AcDbBlockBegin
  2
*D4
 70
     1
 10
0.0
 20
0.0
 30
0.0
  3
*D4
  1

  0
LINE
  5
8E1E
330
8814
100
AcDbEntity
  8
2
370
    -2
100
AcDbLine
 10
40.63161292635594
 20
13.05586878256005
 30
0.0
 11
80.62646836150156
 21
13.05586878256004
 31
0.0
  0
LINE
  5
8E1F
330
8814
100
AcDbEntity
  8
2
370
    -2
100
AcDbLine
 10
40.63161292635578
 20
-13.05586878256015
 30
0.0
 11
80.62646836150156
 21
-13.05586878256016
 31
0.0
  0
LINE
  5
8E20
330
8814
100
AcDbEntity
  8
2
370
    -2
100
AcDbLine
 10
79.62646836150156
 20
10.55586878256004
 30
0.0
 11
79.62646836150156
 21
-10.55586878256016
 31
0.0
  0
SOLID
  5
8E21
330
8814
100
AcDbEntity
  8
2
100
AcDbTrace
 10
79.20980169483489
 20
10.55586878256004
 30
0.0
 11
80.04313502816824
 21
10.55586878256004
 31
0.0
 12
79.62646836150156
 22
13.05586878256004
 32
0.0
 13
79.62646836150156
 23
13.05586878256004
 33
0.0
  0
SOLID
  5
8E22
330
8814
100
AcDbEntity
  8
2
100
AcDbTrace
 10
79.20980169483489
 20
-10.55586878256016
 30
0.0
 11
80.04313502816824
 21
-10.55586878256016
 31
0.0
 12
79.62646836150156
 22
-13.05586878256016
 32
0.0
 13
79.62646836150156
 23
-13.05586878256016
 33
0.0
  0
MTEXT
  5
8E23
330
8814
100
AcDbEntity
  8
2
 62
     2
100
AcDbMText
 10
76.37612387331259
 20
-0.0000000000000471
 30
0.0
 40
3.5
 41
0.0
 71
     5
 72
     1
  1
\A1;ø26.2
 11
0.0000000000000001
 21
1.0
 31
0.0
 73
     1
 44
1.0
1001
ACAD
1000
MTEXTBEGIN
1070
    73
1070
     1
1070
    44
1040
1.0
1070
    74
1070
     0
1000
MTEXTEND
  0
POINT
  5
8E24
330
8814
100
AcDbEntity
  8
DEFPOINTS
 62
     0
100
AcDbPoint
 10
40.63161292635594
 20
13.05586878256005
 30
0.0
  0
POINT
  5
8E25
330
8814
100
AcDbEntity
  8
DEFPOINTS
 62
     0
100
AcDbPoint
 10
40.63161292635578
 20
-13.05586878256015
 30
0.0
  0
POINT
  5
8E26
330
8814
100
AcDbEntity
  8
DEFPOINTS
 62
     0
100
AcDbPoint
 10
79.62646836150156
 20
-13.05586878256016
 30
0.0
  0
ENDBLK
  5
8816
330
8814
100
AcDbEntity
  8
0
100
AcDbBlockEnd
  0
BLOCK
  5
88F3
330
88F2
100
AcDbEntity
  8
0
100
AcDbBlockBegin
  2
*D5
 70
     1
 10
0.0
 20
0.0
 30
0.0
  3
*D5
  1

  0
LINE
  5
8F6D
330
88F2
100
AcDbEntity
  8
SK2
370
    -2
100
AcDbLine
 10
-56.0
 20
-11.50000000000003
 30
0.0
 11
-56.0
 21
-52.64024080489315
 31
0.0
  0
LINE
  5
8F6E
330
88F2
100
AcDbEntity
  8
SK2
370
    -2
100
AcDbLine
 10
44.17152588366394
 20
-9.410344595034601
 30
0.0
 11
44.17152588366394
 21
-52.64024080489315
 31
0.0
  0
LINE
  5
8F6F
330
88F2
100
AcDbEntity
  8
SK2
370
    -2
100
AcDbLine
 10
-53.5
 20
-51.64024080489316
 30
0.0
 11
41.67152588366394
 21
-51.64024080489316
 31
0.0
  0
MTEXT
  5
8F70
330
88F2
100
AcDbEntity
  8
SK2
 62
     2
100
AcDbMText
 10
-5.465902236362808
 20
-47.05017187052789
 30
0.0
 40
3.5
 41
0.0
 71
     5
 72
     1
  1
\A1;100.2
 73
     1
 44
1.0
1001
ACAD
1000
MTEXTBEGIN
1070
    73
1070
     1
1070
    44
1040
1.0
1070
    74
1070
     0
1000
MTEXTEND
  0
SOLID
  5
8F71
330
88F2
100
AcDbEntity
  8
SK2
100
AcDbTrace
 10
-53.5
 20
-51.22357413822649
 30
0.0
 11
-53.5
 21
-52.05690747155982
 31
0.0
 12
-56.0
 22
-51.64024080489316
 32
0.0
 13
-56.0
 23
-51.64024080489316
 33
0.0
  0
SOLID
  5
8F72
330
88F2
100
AcDbEntity
  8
SK2
100
AcDbTrace
 10
41.67152588366394
 20
-51.22357413822649
 30
0.0
 11
41.67152588366394
 21
-52.05690747155982
 31
0.0
 12
44.17152588366394
 22
-51.64024080489316
 32
0.0
 13
44.17152588366394
 23
-51.64024080489316
 33
0.0
  0
POINT
  5
8F73
330
88F2
100
AcDbEntity
  8
DEFPOINTS
 62
     0
100
AcDbPoint
 10
-56.0
 20
-11.50000000000003
 30
0.0
  0
POINT
  5
8F74
330
88F2
100
AcDbEntity
  8
DEFPOINTS
 62
     0
100
AcDbPoint
 10
44.17152588366394
 20
-9.410344595034601
 30
0.0
  0
POINT
  5
8F75
330
88F2
100
AcDbEntity
  8
DEFPOINTS
 62
     0
100
AcDbPoint
 10
44.17152588366394
 20
-51.64024080489316
 30
0.0
  0
ENDBLK
  5
88F4
330
88F2
100
AcDbEntity
  8
0
100
AcDbBlockEnd
  0
BLOCK
  5
896B
330
896A
100
AcDbEntity
  8
0
100
AcDbBlockBegin
  2
*D6
 70
     1
 10
0.0
 20
0.0
 30
0.0
  3
*D6
  1

  0
LINE
  5
8F9C
330
896A
100
AcDbEntity
  8
SK2
370
    -2
100
AcDbLine
 10
44.0
 20
-9.457577337338033
 30
0.0
 11
44.0
 21
-38.72863486354268
 31
0.0
  0
LINE
  5
8F9D
330
896A
100
AcDbEntity
  8
SK2
370
    -2
100
AcDbLine
 10
-56.0
 20
-11.50000000000003
 30
0.0
 11
-56.0
 21
-38.72863486354268
 31
0.0
  0
LINE
  5
8F9E
330
896A
100
AcDbEntity
  8
SK2
370
    -2
100
AcDbLine
 10
41.5
 20
-37.72863486354268
 30
0.0
 11
-53.5
 21
-37.72863486354268
 31
0.0
  0
SOLID
  5
8F9F
330
896A
100
AcDbEntity
  8
SK2
100
AcDbTrace
 10
41.5
 20
-37.31196819687602
 30
0.0
 11
41.5
 21
-38.14530153020935
 31
0.0
 12
44.0
 22
-37.72863486354268
 32
0.0
 13
44.0
 23
-37.72863486354268
 33
0.0
  0
SOLID
  5
8FA0
330
896A
100
AcDbEntity
  8
SK2
100
AcDbTrace
 10
-53.5
 20
-37.31196819687602
 30
0.0
 11
-53.5
 21
-38.14530153020935
 31
0.0
 12
-56.0
 22
-37.72863486354268
 32
0.0
 13
-56.0
 23
-37.72863486354268
 33
0.0
  0
MTEXT
  5
8FA1
330
896A
100
AcDbEntity
  8
SK2
 62
     2
100
AcDbMText
 10
-6.0
 20
-34.47863486354268
 30
0.0
 40
3.5
 41
0.0
 71
     5
 72
     1
  1
\A1;100
 73
     1
 44
1.0
1001
ACAD
1000
MTEXTBEGIN
1070
    73
1070
     1
1070
    44
1040
1.0
1070
    74
1070
     0
1000
MTEXTEND
  0
POINT
  5
8FA2
330
896A
100
AcDbEntity
  8
DEFPOINTS
 62
     0
100
AcDbPoint
 10
44.0
 20
-9.457577337338033
 30
0.0
  0
POINT
  5
8FA3
330
896A
100
AcDbEntity
  8
DEFPOINTS
 62
     0
100
AcDbPoint
 10
-56.0
 20
-11.50000000000003
 30
0.0
  0
POINT
  5
8FA4
330
896A
100
AcDbEntity
  8
DEFPOINTS
 62
     0
100
AcDbPoint
 10
-56.0
 20
-37.72863486354268
 30
0.0
  0
ENDBLK
  5
896C
330
896A
100
AcDbEntity
  8
0
100
AcDbBlockEnd
  0
BLOCK
  5
89B9
330
89B8
100
AcDbEntity
  8
0
100
AcDbBlockBegin
  2
*D7
 70
     1
 10
0.0
 20
0.0
 30
0.0
  3
*D7
  1

  0
LINE
  5
8FA5
330
89B8
100
AcDbEntity
  8
2
370
    -2
100
AcDbLine
 10
44.0
 20
9.457577337337932
 30
0.0
 11
44.0
 21
46.00000000000005
 31
0.0
  0
LINE
  5
8FA6
330
89B8
100
AcDbEntity
  8
2
370
    -2
100
AcDbLine
 10
4.020039550027547
 20
12.03959999999992
 30
0.0
 11
4.020039550027549
 21
46.00000000000005
 31
0.0
  0
LINE
  5
8FA7
330
89B8
100
AcDbEntity
  8
2
370
    -2
100
AcDbLine
 10
41.5
 20
45.00000000000006
 30
0.0
 11
6.520039550027549
 21
45.00000000000006
 31
0.0
  0
SOLID
  5
8FA8
330
89B8
100
AcDbEntity
  8
2
100
AcDbTrace
 10
41.5
 20
45.41666666666672
 30
0.0
 11
41.5
 21
44.58333333333339
 31
0.0
 12
44.0
 22
45.00000000000006
 32
0.0
 13
44.0
 23
45.00000000000006
 33
0.0
  0
SOLID
  5
8FA9
330
89B8
100
AcDbEntity
  8
2
100
AcDbTrace
 10
6.520039550027549
 20
45.41666666666672
 30
0.0
 11
6.520039550027549
 21
44.58333333333339
 31
0.0
 12
4.020039550027549
 22
45.00000000000006
 32
0.0
 13
4.020039550027549
 23
45.00000000000006
 33
0.0
  0
MTEXT
  5
8FAA
330
89B8
100
AcDbEntity
  8
2
 62
     2
100
AcDbMText
 10
24.01001977501378
 20
48.25000000000006
 30
0.0
 40
3.5
 41
0.0
 71
     5
 72
     1
  1
\A1;40
 73
     1
 44
1.0
1001
ACAD
1000
MTEXTBEGIN
1070
    73
1070
     1
1070
    44
1040
1.0
1070
    74
1070
     0
1000
MTEXTEND
  0
POINT
  5
8FAB
330
89B8
100
AcDbEntity
  8
DEFPOINTS
 62
     0
100
AcDbPoint
 10
44.0
 20
9.457577337337932
 30
0.0
  0
POINT
  5
8FAC
330
89B8
100
AcDbEntity
  8
DEFPOINTS
 62
     0
100
AcDbPoint
 10
4.020039550027547
 20
12.03959999999992
 30
0.0
  0
POINT
  5
8FAD
330
89B8
100
AcDbEntity
  8
DEFPOINTS
 62
     0
100
AcDbPoint
 10
4.020039550027549
 20
45.00000000000006
 30
0.0
  0
ENDBLK
  5
89BA
330
89B8
100
AcDbEntity
  8
0
100
AcDbBlockEnd
  0
BLOCK
  5
8C18
330
8C17
100
AcDbEntity
  8
0
100
AcDbBlockBegin
  2
*D8
 70
     1
 10
0.0
 20
0.0
 30
0.0
  3
*D8
  1

  0
LINE
  5
8DE8
330
8C17
100
AcDbEntity
  8
2
370
    -2
100
AcDbLine
 10
44.1715258836641
 20
9.410344595034459
 30
0.0
 11
44.17152588366411
 21
76.00000000000005
 31
0.0
  0
LINE
  5
8DE9
330
8C17
100
AcDbEntity
  8
2
370
    -2
100
AcDbLine
 10
-0.0000000000000568
 20
12.49999999999997
 30
0.0
 11
-0.000000000000053
 21
76.00000000000005
 31
0.0
  0
LINE
  5
8DEA
330
8C17
100
AcDbEntity
  8
2
370
    -2
100
AcDbLine
 10
41.67152588366411
 20
75.00000000000006
 30
0.0
 11
2.499999999999947
 21
75.00000000000006
 31
0.0
  0
SOLID
  5
8DEB
330
8C17
100
AcDbEntity
  8
2
100
AcDbTrace
 10
41.67152588366411
 20
75.41666666666673
 30
0.0
 11
41.67152588366411
 21
74.58333333333339
 31
0.0
 12
44.17152588366411
 22
75.00000000000006
 32
0.0
 13
44.17152588366411
 23
75.00000000000006
 33
0.0
  0
SOLID
  5
8DEC
330
8C17
100
AcDbEntity
  8
2
100
AcDbTrace
 10
2.499999999999947
 20
75.41666666666673
 30
0.0
 11
2.499999999999947
 21
74.58333333333339
 31
0.0
 12
-0.000000000000053
 22
75.00000000000006
 32
0.0
 13
-0.000000000000053
 23
75.00000000000006
 33
0.0
  0
MTEXT
  5
8DED
330
8C17
100
AcDbEntity
  8
2
 62
     2
100
AcDbMText
 10
22.08576294183203
 20
78.25034448818903
 30
0.0
 40
3.5
 41
0.0
 71
     5
 72
     1
  1
\A1;44.2
 73
     1
 44
1.0
1001
ACAD
1000
MTEXTBEGIN
1070
    73
1070
     1
1070
    44
1040
1.0
1070
    74
1070
     0
1000
MTEXTEND
  0
POINT
  5
8DEE
330
8C17
100
AcDbEntity
  8
DEFPOINTS
 62
     0
100
AcDbPoint
 10
44.1715258836641
 20
9.410344595034459
 30
0.0
  0
POINT
  5
8DEF
330
8C17
100
AcDbEntity
  8
DEFPOINTS
 62
     0
100
AcDbPoint
 10
-0.0000000000000568
 20
12.49999999999997
 30
0.0
  0
POINT
  5
8DF0
330
8C17
100
AcDbEntity
  8
DEFPOINTS
 62
     0
100
AcDbPoint
 10
-0.000000000000053
 20
75.00000000000006
 30
0.0
  0
ENDBLK
  5
8C19
330
8C17
100
AcDbEntity
  8
0
100
AcDbBlockEnd
  0
BLOCK
  5
8E77
330
8E76
100
AcDbEntity
  8
0
100
AcDbBlockBegin
  2
*D9
 70
     1
 10
0.0
 20
0.0
 30
0.0
  3
*D9
  1

  0
LINE
  5
8EAF
330
8E76
100
AcDbEntity
  8
2
  6
ByBlock
370
    -2
100
AcDbLine
 10
59.47564529848282
 20
-25.45974020827023
 30
0.0
 11
53.63067055165223
 21
-25.45974020827023
 31
0.0
  0
LINE
  5
8EB0
330
8E76
100
AcDbEntity
  8
2
  6
ByBlock
370
    -2
100
AcDbLine
 10
53.63067055165223
 20
-25.45974020827023
 30
0.0
 11
43.36325624691861
 21
-12.09457995233653
 31
0.0
  0
MTEXT
  5
8EB1
330
8E76
100
AcDbEntity
  8
2
 62
     2
100
AcDbMText
 10
57.30315792506752
 20
-22.20974020827023
 30
0.0
 40
3.5
 41
0.0
 71
     5
 72
     1
  1
\A1;R3
 73
     1
 44
1.0
1001
ACAD
1000
MTEXTBEGIN
1070
    73
1070
     1
1070
    44
1040
1.0
1070
    74
1070
     0
1000
MTEXTEND
  0
SOLID
  5
8EB2
330
8E76
100
AcDbEntity
  8
2
100
AcDbTrace
 10
43.69367720958661
 20
-11.84074319664368
 30
0.0
 11
43.03283528425062
 21
-12.34841670802938
 31
0.0
 12
41.84023571276154
 22
-10.11205417632859
 32
0.0
 13
41.84023571276154
 23
-10.11205417632859
 33
0.0
  0
POINT
  5
8EB3
330
8E76
100
AcDbEntity
  8
DEFPOINTS
 62
     0
100
AcDbPoint
 10
41.84023571276154
 20
-10.11205417632859
 30
0.0
  0
POINT
  5
8EB4
330
8E76
100
AcDbEntity
  8
DEFPOINTS
 62
     0
100
AcDbPoint
 10
43.6144758362512
 20
-12.42159413246092
 30
0.0
  0
ENDBLK
  5
8E78
330
8E76
100
AcDbEntity
  8
0
100
AcDbBlockEnd
  0
ENDSEC
  0
SECTION
  2
ENTITIES
  0
TEXT
  5
74DA
330
6A34
100
AcDbEntity
  8
6
100
AcDbText
 10
-1.28720027121534
 20
-22.29369178840682
 30
0.0
 40
3.5
  1
15R1V025040W5R00
100
AcDbText
  0
LINE
  5
85D3
330
6A34
100
AcDbEntity
  8
1
100
AcDbLine
 10
0.6420000000004223
 20
12.49999999999997
 30
0.0
 11
0.6420000000004223
 21
-12.50000000000003
 31
0.0
  0
LINE
  5
85D5
330
6A34
100
AcDbEntity
  8
1
100
AcDbLine
 10
0.6420000005125815
 20
12.49552999999997
 30
0.0
 11
2.093982175024478
 21
12.03959999999992
 31
0.0
  0
LINE
  5
85D6
330
6A34
100
AcDbEntity
  8
1
100
AcDbLine
 10
2.093982175024478
 20
12.03959999999992
 30
0.0
 11
31.73921657978278
 21
12.03959999999992
 31
0.0
  0
LINE
  5
85DE
330
6A34
100
AcDbEntity
  8
1
100
AcDbLine
 10
42.65360000000078
 20
-8.509000000477271
 30
0.0
 11
42.65360000000072
 21
1.943368782560781
 31
0.0
  0
LINE
  5
85DF
330
6A34
100
AcDbEntity
  8
SK1
100
AcDbLine
 10
-56.0
 20
-11.50000000000003
 30
0.0
 11
-56.00000000000005
 21
11.5
 31
0.0
  0
LINE
  5
85E0
330
6A34
100
AcDbEntity
  8
SK1
100
AcDbLine
 10
-55.00000000000006
 20
12.5
 30
0.0
 11
-0.0000000000000568
 21
12.5
 31
0.0
  0
LINE
  5
85E1
330
6A34
100
AcDbEntity
  8
SK1
100
AcDbLine
 10
-30.0
 20
-6.780000000000029
 30
0.0
 11
-30.0
 21
6.779999999999972
 31
0.0
  0
LINE
  5
85E2
330
6A34
100
AcDbEntity
  8
SK1
100
AcDbLine
 10
-30.0
 20
6.779999999999972
 30
0.0
 11
-18.00000000000011
 21
6.779999999999972
 31
0.0
  0
LINE
  5
85E3
330
6A34
100
AcDbEntity
  8
SK1
100
AcDbLine
 10
-18.00000000000011
 20
6.779999999999972
 30
0.0
 11
-18.00000000000011
 21
-6.780000000000029
 31
0.0
  0
LINE
  5
85E4
330
6A34
100
AcDbEntity
  8
SK1
100
AcDbLine
 10
-18.00000000000011
 20
-6.780000000000029
 30
0.0
 11
-30.0
 21
-6.780000000000029
 31
0.0
  0
LINE
  5
85E5
330
6A34
100
AcDbEntity
  8
SK1
100
AcDbLine
 10
-56.0
 20
-6.780000000000029
 30
0.0
 11
-39.0
 21
-6.780000000000029
 31
0.0
  0
LINE
  5
85E6
330
6A34
100
AcDbEntity
  8
SK1
100
AcDbLine
 10
-39.0
 20
-6.780000000000029
 30
0.0
 11
-39.0
 21
6.779999999999972
 31
0.0
  0
LINE
  5
85E7
330
6A34
100
AcDbEntity
  8
SK1
100
AcDbLine
 10
-39.0
 20
6.779999999999972
 30
0.0
 11
-56.00000000000005
 21
6.780000000000001
 31
0.0
  0
ARC
  5
85E8
330
6A34
100
AcDbEntity
  8
SK1
100
AcDbCircle
 10
-28.49209999999991
 20
0.0
 30
0.0
 40
12.49209999999985
100
AcDbArc
 50
327.1294363887073
 51
32.87056361129272
  0
ARC
  5
85E9
330
6A34
100
AcDbEntity
  8
SK1
100
AcDbCircle
 10
-19.50790000000003
 20
0.0000000000000284
 30
0.0
 40
12.49209999999999
100
AcDbArc
 50
147.1294363887073
 51
212.8705636112927
  0
ARC
  5
85EA
330
6A34
100
AcDbEntity
  8
SK1
100
AcDbCircle
 10
-49.49209999999991
 20
0.0000000000000284
 30
0.0
 40
12.49209999999996
100
AcDbArc
 50
327.1294363887073
 51
32.87056361129272
  0
LINE
  5
85EB
330
6A34
100
AcDbEntity
  8
SK1
100
AcDbLine
 10
-55.0
 20
-12.50000000000003
 30
0.0
 11
-56.0
 21
-11.50000000000003
 31
0.0
1001
GENIUS_GENFIL_13
1070
     0
1040
1.0
1040
1.0
1040
0.0
1040
0.0
1002
{
1002
}
1001
GENIUS_GENODEF_13
1002
{
1000
HIER
1070
     0
1002
}
1002
{
1000
MANEDIT
1070
     0
1002
}
1002
{
1000
NOSEL
1070
     0
1002
}
1002
{
1000
BEHIND
1070
     0
1002
}
1002
{
1000
OTHER
1070
     0
1002
}
1002
{
1000
REACTOR
1002
}
1001
GENIUS_GENOBJ-N-CHA_13
1002
{
1000
OWNER
1000
GEN
1002
}
  0
LINE
  5
85EC
330
6A34
100
AcDbEntity
  8
SK1
100
AcDbLine
 10
-55.00000000000006
 20
12.5
 30
0.0
 11
-56.00000000000005
 21
11.5
 31
0.0
1001
GENIUS_GENFIL_13
1070
     0
1040
1.0
1040
1.0
1040
0.0
1040
0.0
1002
{
1002
}
1001
GENIUS_GENODEF_13
1002
{
1000
HIER
1070
     0
1002
}
1002
{
1000
MANEDIT
1070
     0
1002
}
1002
{
1000
NOSEL
1070
     0
1002
}
1002
{
1000
BEHIND
1070
     0
1002
}
1002
{
1000
OTHER
1070
     0
1002
}
1002
{
1000
REACTOR
1002
}
1001
GENIUS_GENOBJ-N-CHA_13
1002
{
1000
OWNER
1000
GEN
1002
}
  0
LINE
  5
85ED
330
6A34
100
AcDbEntity
  8
SK1
100
AcDbLine
 10
-55.0
 20
-12.50000000000003
 30
0.0
 11
-55.0
 21
-6.780000000000029
 31
0.0
  0
LINE
  5
85EF
330
6A34
100
AcDbEntity
  8
SK4
100
AcDbLine
 10
0.0
 20
0.000000000000199
 30
0.0
 11
-58.42491867849464
 21
-0.0000000000000284
 31
0.0
  0
LINE
  5
85F0
330
6A34
100
AcDbEntity
  8
1
100
AcDbLine
 10
0.6420000000004223
 20
-12.50000000000003
 30
0.0
 11
-0.0000000000000568
 21
-12.50000000000003
 31
0.0
  0
LINE
  5
85F4
330
6A34
100
AcDbEntity
  8
SK1
100
AcDbLine
 10
-55.00000000000006
 20
6.779999999999972
 30
0.0
 11
-55.00000000000006
 21
12.5
 31
0.0
  0
DIMENSION
  5
85F9
330
6A34
100
AcDbEntity
  8
SK2
100
AcDbDimension
  2
*D1
 10
-76.10747231352951
 20
12.50000000000001
 30
0.0
 11
-79.17522541557326
 21
-0.4833155496131099
 31
0.0
 70
   160
  1
%%c<>
 71
     5
 42
25.00000000000003
 53
90.0
  3
AM_ANSI
100
AcDbAlignedDimension
 13
-55.0
 23
-12.50000000000003
 33
0.0
 14
-55.00000000000006
 24
12.5
 34
0.0
 50
90.0
100
AcDbRotatedDimension
1001
ACAD
1000
DSTYLE
1002
{
1070
    41
1040
2.5
1070
    42
1040
0.0
1070
    44
1040
1.0
1070
   140
1040
3.5
1070
   147
1040
1.0
1070
   271
1070
     0
1002
}
  0
LINE
  5
86CD
330
6A34
100
AcDbEntity
  8
1
100
AcDbLine
 10
0.6420000005127236
 20
-12.49552999999952
 30
0.0
 11
2.093982175024621
 21
-12.03959999999944
 31
0.0
  0
LINE
  5
86CE
330
6A34
100
AcDbEntity
  8
1
100
AcDbLine
 10
2.093982175024621
 20
-12.03959999999944
 30
0.0
 11
31.73921657978244
 21
-12.03959999999907
 31
0.0
  0
LINE
  5
86CF
330
6A34
100
AcDbEntity
  8
1
100
AcDbLine
 10
39.47463348113689
 20
-12.03959999999895
 30
0.0
 11
42.65360000000078
 21
-8.509000000477271
 31
0.0
  0
LINE
  5
86D0
330
6A34
100
AcDbEntity
  8
1
100
AcDbLine
 10
2.093982175024478
 20
12.03959999999992
 30
0.0
 11
2.093982175024621
 21
-12.03959999999944
 31
0.0
  0
LINE
  5
86D1
330
6A34
100
AcDbEntity
  8
4
100
AcDbLine
 10
47.75253923952101
 20
-0.0000000000000853
 30
0.0
 11
0.0
 21
0.000000000000199
 31
0.0
  0
CIRCLE
  5
86D2
330
6A34
100
AcDbEntity
  8
SK1
100
AcDbCircle
 10
0.0
 20
0.0
 30
0.0
 40
3.200115174948665
  0
LINE
  5
86D3
330
6A34
100
AcDbEntity
  8
SK1
100
AcDbLine
 10
-2.262823140784178
 20
2.262823140784178
 30
0.0
 11
2.262823140784178
 21
-2.262823140784178
 31
0.0
  0
LINE
  5
86D4
330
6A34
100
AcDbEntity
  8
SK1
100
AcDbLine
 10
-2.262823140784178
 20
-2.262823140784178
 30
0.0
 11
2.262823140784178
 21
2.262823140784178
 31
0.0
  0
LINE
  5
86D5
330
6A34
100
AcDbEntity
  8
1
100
AcDbLine
 10
-0.0000000000000568
 20
12.49999999999997
 30
0.0
 11
-0.0000000000000568
 21
-12.50000000000003
 31
0.0
  0
DIMENSION
  5
86D6
330
6A34
100
AcDbEntity
  8
2
100
AcDbDimension
  2
*D2
 10
44.0
 20
60.00000000000006
 30
0.0
 11
21.99999999999997
 21
62.75000000000005
 31
0.0
 70
    32
 71
     5
 42
44.00000000000005
  3
AM_ANSI
100
AcDbAlignedDimension
 13
-0.0000000000000568
 23
12.49999999999997
 33
0.0
 14
44.0
 24
9.457577337337932
 34
0.0
100
AcDbRotatedDimension
1001
ACAD
1000
DSTYLE
1002
{
1070
    41
1040
2.5
1070
    42
1040
0.0
1070
    44
1040
1.0
1070
    77
1070
     1
1070
   140
1040
3.5
1070
   147
1040
1.0
1070
   271
1070
     0
1002
}
  0
LINE
  5
86EC
330
6A34
100
AcDbEntity
  8
1
100
AcDbLine
 10
-0.0000000000000568
 20
12.5
 30
0.0
 11
0.6420000000004223
 21
12.49999999999997
 31
0.0
  0
LINE
  5
86ED
330
6A34
100
AcDbEntity
  8
SK1
100
AcDbLine
 10
-0.0000000000000284
 20
-12.50000000000003
 30
0.0
 11
-55.0
 21
-12.50000000000003
 31
0.0
  0
CIRCLE
  5
875A
330
6A34
100
AcDbEntity
  8
1
100
AcDbCircle
 10
37.38665438471611
 20
7.499618782560389
 30
0.0
 40
3.225799999999795
  0
LINE
  5
875B
330
6A34
100
AcDbEntity
  8
1
100
AcDbLine
 10
31.91841218579907
 20
13.05586878256005
 30
0.0
 11
40.63161292635594
 21
13.05586878256005
 31
0.0
  0
LINE
  5
875C
330
6A34
100
AcDbEntity
  8
1
100
AcDbLine
 10
31.91841218579907
 20
13.05586878256005
 30
0.0
 11
30.60178288576833
 21
5.588892970086329
 31
0.0
  0
LINE
  5
8760
330
6A34
100
AcDbEntity
  8
1
100
AcDbLine
 10
42.85489658363338
 20
1.943368782560781
 30
0.0
 11
34.14169584307634
 21
1.943368782560781
 31
0.0
  0
LINE
  5
8761
330
6A34
100
AcDbEntity
  8
1
100
AcDbLine
 10
42.85489658363338
 20
1.943368782560781
 30
0.0
 11
44.1715258836641
 21
9.410344595034459
 31
0.0
  0
LINE
  5
8765
330
6A34
100
AcDbEntity
  8
CUT
100
AcDbLine
 10
31.91841218579907
 20
13.05586878256005
 30
0.0
 11
40.63161292635594
 21
13.05586878256005
 31
0.0
  0
LINE
  5
8766
330
6A34
100
AcDbEntity
  8
CUT
100
AcDbLine
 10
31.91841218579907
 20
13.05586878256005
 30
0.0
 11
30.60178288576833
 21
5.588892970086329
 31
0.0
  0
LINE
  5
876A
330
6A34
100
AcDbEntity
  8
CUT
100
AcDbLine
 10
42.85489658363338
 20
1.943368782560781
 30
0.0
 11
34.14169584307634
 21
1.943368782560781
 31
0.0
  0
LINE
  5
876B
330
6A34
100
AcDbEntity
  8
CUT
100
AcDbLine
 10
42.85489658363338
 20
1.943368782560781
 30
0.0
 11
44.1715258836641
 21
9.410344595034459
 31
0.0
  0
LINE
  5
876F
330
6A34
100
AcDbEntity
  8
1
100
AcDbLine
 10
31.91841218579885
 20
-13.05586878256
 30
0.0
 11
40.63161292635578
 21
-13.05586878256015
 31
0.0
  0
LINE
  5
8770
330
6A34
100
AcDbEntity
  8
1
100
AcDbLine
 10
31.91841218579885
 20
-13.05586878256
 30
0.0
 11
31.73921657978241
 21
-12.03959999999907
 31
0.0
  0
LINE
  5
8774
330
6A34
100
AcDbEntity
  8
1
100
AcDbLine
 10
42.85489658363331
 20
-1.943368782560924
 30
0.0
 11
42.65360000000078
 21
-1.943368782560924
 31
0.0
  0
LINE
  5
8775
330
6A34
100
AcDbEntity
  8
1
100
AcDbLine
 10
42.85489658363331
 20
-1.943368782560924
 30
0.0
 11
44.17152588366394
 21
-9.410344595034599
 31
0.0
  0
LINE
  5
87AB
330
6A34
100
AcDbEntity
  8
1
100
AcDbLine
 10
31.73921657978244
 20
-12.03959999999907
 30
0.0
 11
39.47463348113689
 21
-12.03959999999895
 31
0.0
  0
LINE
  5
87AC
330
6A34
100
AcDbEntity
  8
SK3
 48
0.3
100
AcDbLine
 10
42.65360000000078
 20
-1.943368782560895
 30
0.0
 11
34.14169584307633
 21
-1.943368782560761
 31
0.0
  0
CIRCLE
  5
87AD
330
6A34
100
AcDbEntity
  8
SK3
 48
0.3
100
AcDbCircle
 10
37.38665438471608
 20
-7.499618782560389
 30
0.0
 40
3.225799999999795
  0
LINE
  5
87AE
330
6A34
100
AcDbEntity
  8
SK3
 48
0.3
100
AcDbLine
 10
31.73921657978241
 20
-12.03959999999907
 30
0.0
 11
30.60178288576824
 21
-5.588892970086304
 31
0.0
  0
LINE
  5
87B0
330
6A34
100
AcDbEntity
  8
1
100
AcDbLine
 10
42.65360000000078
 20
0.8783032842731586
 30
0.0
 11
26.63083425995137
 21
0.8783032842731586
 31
0.0
  0
ARC
  5
87B1
330
6A34
100
AcDbEntity
  8
1
100
AcDbCircle
 10
26.63083425995137
 20
10.30801826094463
 30
0.0
 40
9.429714976671476
100
AcDbArc
 50
169.4187114676697
 51
270.0
  0
LINE
  5
87B3
330
6A34
100
AcDbEntity
  8
SK3
 48
0.3
100
AcDbLine
 10
42.65360000000078
 20
-0.8783032842736133
 30
0.0
 11
26.63083425995135
 21
-0.8783032842732154
 31
0.0
  0
ARC
  5
87B4
330
6A34
100
AcDbEntity
  8
SK3
 48
0.3
100
AcDbCircle
 10
26.63083425995109
 20
-10.30801826094469
 30
0.0
 40
9.429714976671476
100
AcDbArc
 50
89.99999999999836
 51
190.5812885323303
  0
LINE
  5
87B6
330
6A34
100
AcDbEntity
  8
SK4
100
AcDbLine
 10
15.64408073849176
 20
1.169636152266946
 30
0.0
 11
27.96197350024545
 21
4.70249266106299
 31
0.0
  0
LINE
  5
87B8
330
6A34
100
AcDbEntity
  8
SK4
100
AcDbLine
 10
15.64408073849174
 20
-1.169636152266605
 30
0.0
 11
27.96197350024528
 21
-4.702492661063104
 31
0.0
  0
DIMENSION
  5
87E2
330
6A34
100
AcDbEntity
  8
2
100
AcDbDimension
  2
*D3
 10
58.81374307679084
 20
-12.50000000000005
 30
0.0
 11
55.56339858860186
 21
-0.0000000000000405
 31
0.0
 70
    32
  1
%%c<>
 71
     5
 42
25.0
  3
AM_DIN$0
100
AcDbAlignedDimension
 13
40.70316078206917
 23
12.49999999999995
 33
0.0
 14
40.70316078206903
 24
-12.50000000000004
 34
0.0
 50
90.0
100
AcDbRotatedDimension
1001
ACAD
1000
DSTYLE
1002
{
1070
    41
1040
2.5
1070
    79
1070
     0
1070
   178
1070
     2
1070
   272
1070
     2
1070
   274
1070
     2
1070
   279
1070
     2
1070
   283
1070
     1
1070
   285
1070
     8
1070
   286
1070
     8
1070
   345
1005
0
1070
   346
1005
0
1070
   347
1005
0
1070
   371
1070
    -2
1070
   372
1070
    -2
1002
}
1001
ACAD_DSTYLE_DIMINSPECT
1070
   396
1000
100%
1070
   395
1000

1070
   394
1070
    33
1070
   393
1070
     0
  0
DIMENSION
  5
8813
330
6A34
100
AcDbEntity
  8
2
100
AcDbDimension
  2
*D4
 10
79.62646836150156
 20
-13.05586878256016
 30
0.0
 11
76.37612387331259
 21
-0.0000000000000471
 31
0.0
 70
    32
  1
ø26.2
 71
     5
 42
26.11173756512021
  3
AM_DIN$0
100
AcDbAlignedDimension
 13
40.63161292635594
 23
13.05586878256005
 33
0.0
 14
40.63161292635578
 24
-13.05586878256015
 34
0.0
 50
90.0
100
AcDbRotatedDimension
1001
ACAD
1000
DSTYLE
1002
{
1070
    41
1040
2.5
1070
    79
1070
     0
1070
   178
1070
     2
1070
   272
1070
     2
1070
   274
1070
     2
1070
   279
1070
     2
1070
   283
1070
     1
1070
   285
1070
     8
1070
   286
1070
     8
1070
   345
1005
0
1070
   346
1005
0
1070
   347
1005
0
1070
   371
1070
    -2
1070
   372
1070
    -2
1002
}
1001
ACAD_DSTYLE_DIMINSPECT
1070
   396
1000
100%
1070
   395
1000

1070
   394
1070
    33
1070
   393
1070
     0
  0
TEXT
  5
8845
330
6A34
100
AcDbEntity
  8
6
100
AcDbText
 10
63.40687177067116
 20
-12.63941628881702
 30
0.0
 40
2.7
  1
Nenndurchmesser
 50
90.0
 41
0.85
100
AcDbText
  0
DIMENSION
  5
88F1
330
6A34
100
AcDbEntity
  8
SK2
100
AcDbDimension
  2
*D5
 10
44.17152588366394
 20
-51.64024080489316
 30
0.0
 11
-5.465902236362808
 21
-47.05017187052789
 31
0.0
 70
   160
 71
     5
 42
100.1715258836639
  3
AM_DIN$0
100
AcDbAlignedDimension
 13
-56.0
 23
-11.50000000000003
 33
0.0
 14
44.17152588366394
 24
-9.410344595034601
 34
0.0
100
AcDbRotatedDimension
1001
ACAD_DSTYLE_DIMINSPECT
1070
   396
1000
100%
1070
   395
1000

1070
   394
1070
    33
1070
   393
1070
     0
1001
ACAD
1000
DSTYLE
1002
{
1070
    79
1070
     0
1070
   271
1070
     1
1070
   279
1070
     2
1070
   283
1070
     1
1070
   285
1070
     8
1070
   371
1070
    -2
1070
   372
1070
    -2
1002
}
  0
DIMENSION
  5
8969
330
6A34
100
AcDbEntity
  8
SK2
100
AcDbDimension
  2
*D6
 10
-56.0
 20
-37.72863486354268
 30
0.0
 11
-6.0
 21
-34.47863486354268
 31
0.0
 70
    32
 71
     5
 42
100.0
  3
AM_DIN$0
100
AcDbAlignedDimension
 13
44.0
 23
-9.457577337338033
 33
0.0
 14
-56.0
 24
-11.50000000000003
 34
0.0
100
AcDbRotatedDimension
1001
ACAD_DSTYLE_DIMINSPECT
1070
   396
1000
100%
1070
   395
1000

1070
   394
1070
    33
1070
   393
1070
     0
1001
ACAD
1000
DSTYLE
1002
{
1070
    79
1070
     0
1070
   271
1070
     1
1070
   279
1070
     2
1070
   283
1070
     1
1070
   285
1070
     8
1070
   371
1070
    -2
1070
   372
1070
    -2
1002
}
  0
DIMENSION
  5
89B7
330
6A34
100
AcDbEntity
  8
2
100
AcDbDimension
  2
*D7
 10
4.020039550027549
 20
45.00000000000006
 30
0.0
 11
24.01001977501378
 21
48.25000000000006
 31
0.0
 70
    32
 71
     5
 42
39.97996044997245
  3
AM_DIN$0
100
AcDbAlignedDimension
 13
44.0
 23
9.457577337337932
 33
0.0
 14
4.020039550027547
 24
12.03959999999992
 34
0.0
100
AcDbRotatedDimension
1001
ACAD_DSTYLE_DIMINSPECT
1070
   396
1000
100%
1070
   395
1000

1070
   394
1070
    33
1070
   393
1070
     0
1001
ACAD
1000
DSTYLE
1002
{
1070
    79
1070
     0
1070
   271
1070
     1
1070
   279
1070
     2
1070
   283
1070
     1
1070
   285
1070
     8
1070
   371
1070
    -2
1070
   372
1070
    -2
1002
}
  0
TEXT
  5
8A51
330
6A34
100
AcDbEntity
  8
6
100
AcDbText
 10
68.35312878715768
 20
-4.358031980112514
 30
0.0
 40
3.5
  1
Z=2
 50
90.0
100
AcDbText
  0
TEXT
  5
8A52
330
6A34
100
AcDbEntity
  8
6
100
AcDbText
 10
46.10787760198109
 20
16.00658708786045
 30
0.0
 40
2.5
  1
BEEW120330R-CR
100
AcDbText
  0
LINE
  5
8B12
330
6A34
100
AcDbEntity
  8
NOCUT
100
AcDbLine
 10
42.65360000000083
 20
-8.50900000047747
 30
0.0
 11
42.65360000000078
 21
-0.0000000000002558
 31
0.0
  0
LINE
  5
8B14
330
6A34
100
AcDbEntity
  8
NOCUT
100
AcDbLine
 10
0.6420000000005075
 20
-12.50000000000023
 30
0.0
 11
0.0
 21
-12.50000000000023
 31
0.0
  0
LINE
  5
8B16
330
6A34
100
AcDbEntity
  8
NOCUT
100
AcDbLine
 10
0.6420000005127804
 20
-12.49552999999972
 30
0.0
 11
2.093982175024677
 21
-12.03959999999964
 31
0.0
  0
LINE
  5
8B17
330
6A34
100
AcDbEntity
  8
NOCUT
100
AcDbLine
 10
2.093982175024677
 20
-12.03959999999964
 30
0.0
 11
31.73921657978246
 21
-12.03959999999927
 31
0.0
  0
LINE
  5
8B18
330
6A34
100
AcDbEntity
  8
NOCUT
100
AcDbLine
 10
31.73921657978246
 20
-12.03959999999927
 30
0.0
 11
39.47463348113695
 21
-12.03959999999915
 31
0.0
  0
LINE
  5
8B19
330
6A34
100
AcDbEntity
  8
NOCUT
100
AcDbLine
 10
39.47463348113695
 20
-12.03959999999915
 30
0.0
 11
42.65360000000083
 21
-8.50900000047747
 31
0.0
  0
LINE
  5
8B1B
330
6A34
100
AcDbEntity
  8
NOCUT
100
AcDbLine
 10
42.65360000000078
 20
-0.0000000000002558
 30
0.0
 11
0.0
 21
0.0
 31
0.0
  0
LINE
  5
8B1F
330
6A34
100
AcDbEntity
  8
NOCUT
100
AcDbLine
 10
0.0
 20
0.0
 30
0.0
 11
0.0
 21
-12.50000000000023
 31
0.0
  0
TEXT
  5
8C0B
330
6A34
100
AcDbEntity
  8
SK2
100
AcDbText
 10
-0.5470783053183368
 20
-35.67004010149594
 30
0.0
 40
2.7
  1
Nennmaß
100
AcDbText
  0
DIMENSION
  5
8C16
330
6A34
100
AcDbEntity
  8
2
100
AcDbDimension
  2
*D8
 10
-0.000000000000053
 20
75.00000000000006
 30
0.0
 11
22.08576294183203
 21
78.25034448818903
 31
0.0
 70
    32
 71
     5
 42
44.17152588366415
  3
AM_DIN$0
100
AcDbAlignedDimension
 13
44.1715258836641
 23
9.410344595034459
 33
0.0
 14
-0.0000000000000568
 24
12.49999999999997
 34
0.0
100
AcDbRotatedDimension
1001
ACAD
1000
DSTYLE
1002
{
1070
    41
1040
2.5
1070
    79
1070
     0
1070
   178
1070
     2
1070
   271
1070
     1
1070
   272
1070
     2
1070
   274
1070
     2
1070
   279
1070
     2
1070
   283
1070
     1
1070
   285
1070
     8
1070
   286
1070
     8
1070
   345
1005
0
1070
   346
1005
0
1070
   347
1005
0
1070
   371
1070
    -2
1070
   372
1070
    -2
1002
}
1001
ACAD_DSTYLE_DIMINSPECT
1070
   396
1000
100%
1070
   395
1000

1070
   394
1070
    33
1070
   393
1070
     0
  0
ARC
  5
8DD3
330
6A34
100
AcDbEntity
  8
1
100
AcDbCircle
 10
43.61447583625135
 20
12.4215941324608
 30
0.0
 40
2.912370653741104
100
AcDbArc
 50
177.7843894193874
 51
270.0000000009144
  0
ARC
  5
8DD4
330
6A34
100
AcDbEntity
  8
1
100
AcDbCircle
 10
38.67308842919323
 20
12.51714702306176
 30
0.0
 40
2.031265452899587
100
AcDbArc
 50
0.4806389477219332
 51
15.37971952181358
  0
ARC
  5
8DD5
330
6A34
100
AcDbEntity
  8
1
100
AcDbCircle
 10
43.53047211264843
 20
7.417420203968248
 30
0.0
 40
2.093489327854346
100
AcDbArc
 50
72.16884067278865
 51
87.70032199658846
  0
ARC
  5
8DD6
330
6A34
100
AcDbEntity
  8
1
100
AcDbCircle
 10
31.15883293318092
 20
2.577643432660039
 30
0.0
 40
2.912370653741104
100
AcDbArc
 50
359.9999999997004
 51
88.07656293565496
  0
ARC
  5
8DD7
330
6A34
100
AcDbEntity
  8
1
100
AcDbCircle
 10
36.10022034023905
 20
2.482090542059069
 30
0.0
 40
2.031265452899587
100
AcDbArc
 50
177.3037504720952
 51
195.3797195218135
  0
ARC
  5
8DD8
330
6A34
100
AcDbEntity
  8
1
100
AcDbCircle
 10
31.24283665678385
 20
7.581817361152587
 30
0.0
 40
2.093489327854346
100
AcDbArc
 50
252.1688406727931
 51
270.3762409383561
  0
ARC
  5
8DD9
330
6A34
100
AcDbEntity
  8
CUT
100
AcDbCircle
 10
43.61447583625135
 20
12.4215941324608
 30
0.0
 40
2.912370653741104
100
AcDbArc
 50
177.7843894193874
 51
270.0000000009144
  0
ARC
  5
8DDA
330
6A34
100
AcDbEntity
  8
CUT
100
AcDbCircle
 10
38.67308842919323
 20
12.51714702306176
 30
0.0
 40
2.031265452899587
100
AcDbArc
 50
0.4806389477219332
 51
15.37971952181358
  0
ARC
  5
8DDB
330
6A34
100
AcDbEntity
  8
CUT
100
AcDbCircle
 10
43.53047211264843
 20
7.417420203968248
 30
0.0
 40
2.093489327854346
100
AcDbArc
 50
72.16884067278865
 51
87.70032199658846
  0
ARC
  5
8DDC
330
6A34
100
AcDbEntity
  8
CUT
100
AcDbCircle
 10
31.15883293318092
 20
2.577643432660039
 30
0.0
 40
2.912370653741104
100
AcDbArc
 50
359.9999999997004
 51
88.07656293565496
  0
ARC
  5
8DDD
330
6A34
100
AcDbEntity
  8
CUT
100
AcDbCircle
 10
36.10022034023905
 20
2.482090542059069
 30
0.0
 40
2.031265452899587
100
AcDbArc
 50
177.3037504720952
 51
195.3797195218135
  0
ARC
  5
8DDE
330
6A34
100
AcDbEntity
  8
CUT
100
AcDbCircle
 10
31.24283665678385
 20
7.581817361152587
 30
0.0
 40
2.093489327854346
100
AcDbArc
 50
252.1688406727931
 51
270.3762409383561
  0
ARC
  5
8DF1
330
6A34
100
AcDbEntity
  8
1
100
AcDbCircle
 10
43.6144758362512
 20
-12.42159413246092
 30
0.0
 40
2.912370653741104
100
AcDbArc
 50
89.99999999908494
 51
182.2156105806119
  0
ARC
  5
8DF2
330
6A34
100
AcDbEntity
  8
1
100
AcDbCircle
 10
38.67308842919308
 20
-12.51714702306183
 30
0.0
 40
2.031265452899587
100
AcDbArc
 50
344.6202804781853
 51
359.5193610522774
  0
ARC
  5
8DF3
330
6A34
100
AcDbEntity
  8
1
100
AcDbCircle
 10
43.53047211264834
 20
-7.417420203968368
 30
0.0
 40
2.093489327854346
100
AcDbArc
 50
272.2996780034108
 51
287.8311593272093
  0
ARC
  5
8DF4
330
6A34
100
AcDbEntity
  8
SK3
100
AcDbCircle
 10
31.15883293318089
 20
-2.577643432660012
 30
0.0
 40
2.912370653741104
100
AcDbArc
 50
271.9234370643444
 51
0.0000000002989657
  0
ARC
  5
8DF5
330
6A34
100
AcDbEntity
  8
SK3
100
AcDbCircle
 10
36.10022034023902
 20
-2.482090542059101
 30
0.0
 40
2.031265452899587
100
AcDbArc
 50
164.6202804781849
 51
182.6962495279041
  0
ARC
  5
8DF6
330
6A34
100
AcDbEntity
  8
SK3
100
AcDbCircle
 10
31.24283665678377
 20
-7.581817361152562
 30
0.0
 40
2.093489327854346
100
AcDbArc
 50
89.62375906164318
 51
107.8311593272069
  0
DIMENSION
  5
8E75
330
6A34
100
AcDbEntity
  8
2
100
AcDbDimension
  2
*D9
 10
43.6144758362512
 20
-12.42159413246092
 30
0.0
 11
53.63067055165223
 21
-25.45974020827023
 31
0.0
 70
   164
 71
     5
 42
2.912370653741099
  3
AM_DIN$4
100
AcDbRadialDimension
 15
41.84023571276154
 25
-10.11205417632859
 35
0.0
 40
0.0
1001
ACAD_DSTYLE_DIMRADIAL_EXTENSION
1070
   387
1070
     1
1070
   388
1040
1.570796326778926
1070
   390
1040
3.180262353163493
1001
ACAD_DSTYLE_DIMINSPECT
1070
   396
1000
100%
1070
   395
1000

1070
   394
1070
    33
1070
   393
1070
     0
1001
ACAD
1000
DSTYLE
1002
{
1070
    41
1040
2.5
1070
    74
1070
     1
1070
    79
1070
     0
1070
    90
1070
     1
1070
   178
1070
     2
1070
   271
1070
     0
1070
   272
1070
     2
1070
   274
1070
     2
1070
   279
1070
     1
1070
   281
1070
     1
1070
   283
1070
     1
1070
   285
1070
     8
1070
   286
1070
     8
1070
   371
1070
    -2
1070
   372
1070
    -2
1002
}
  0
TEXT
  5
8F76
330
6A34
100
AcDbEntity
  8
6
100
AcDbText
 10
18.41129359231746
 20
-28.55630728243296
 30
0.0
 40
3.5
  1
mit R3
100
AcDbText
  0
TEXT
  5
8F78
330
6A34
100
AcDbEntity
  8
6
100
AcDbText
 10
16.46982717233959
 20
39.38808832659049
 30
0.0
 40
2.7
  1
Nennmaß
100
AcDbText
  0
LINE
  5
8F79
330
6A34
100
AcDbEntity
  8
SK4
100
AcDbLine
 10
-56.0
 20
-44.64915338505455
 30
0.0
 11
-56.0
 21
-61.82661176044234
 31
0.0
  0
ENDSEC
  0
SECTION
  2
OBJECTS
  0
DICTIONARY
  5
6A22
330
0
100
AcDbDictionary
281
     1
  3
ACAD_2007HEADERVARS_RT
350
90D9
  3
ACAD_COLOR
350
762B
  3
ACAD_GROUP
350
6A23
  3
ACAD_LAYOUT
350
6A2F
  3
ACAD_MATERIAL
350
762A
  3
ACAD_MLEADERSTYLE
350
7D66
  3
ACAD_MLINESTYLE
350
6A2C
  3
ACAD_PLOTSETTINGS
350
6A2E
  3
ACAD_PLOTSTYLENAME
350
6A24
  3
ACAD_SCALELIST
350
7D54
  3
ACAD_TABLESTYLE
350
762C
  3
ACAD_VISUALSTYLE
350
7D43
  3
ACDB_RECOMPOSE_DATA
350
8C79
  3
AcDbVariableDictionary
350
6B78
  3
AcmDictionary
350
6B39
  3
AMG
350
6B22
  3
AMGSNAPSETTINGS
350
6B59
  3
DWGPROPS
350
90D8
  0
DICTIONARY
  5
8CF3
330
6A1E
100
AcDbDictionary
280
     1
281
     1
  0
DICTIONARY
  5
8A98
330
6A18
100
AcDbDictionary
280
     1
281
     1
  3
AMLAYER_GROUPCOLORS
360
8A99
  0
DICTIONARY
  5
855E
330
6A26
100
AcDbDictionary
280
     1
281
     1
  3
ADSK_XREC_LAYER_RECONCILED
360
855F
  0
DICTIONARY
  5
8560
330
6A4C
100
AcDbDictionary
280
     1
281
     1
  3
ADSK_XREC_LAYER_RECONCILED
360
8561
  0
DICTIONARY
  5
8562
330
6A4D
100
AcDbDictionary
280
     1
281
     1
  3
ADSK_XREC_LAYER_RECONCILED
360
8563
  0
DICTIONARY
  5
8564
330
6A4F
100
AcDbDictionary
280
     1
281
     1
  3
ADSK_XREC_LAYER_RECONCILED
360
8565
  0
DICTIONARY
  5
8566
330
6A50
100
AcDbDictionary
280
     1
281
     1
  3
ADSK_XREC_LAYER_RECONCILED
360
8567
  0
DICTIONARY
  5
8568
330
6A53
100
AcDbDictionary
280
     1
281
     1
  3
ADSK_XREC_LAYER_RECONCILED
360
8569
  0
DICTIONARY
  5
856A
330
6A54
100
AcDbDictionary
280
     1
281
     1
  3
ADSK_XREC_LAYER_RECONCILED
360
856B
  0
DICTIONARY
  5
856C
330
6A56
100
AcDbDictionary
280
     1
281
     1
  3
ADSK_XREC_LAYER_RECONCILED
360
856D
  0
DICTIONARY
  5
856E
330
6A58
100
AcDbDictionary
280
     1
281
     1
  3
ADSK_XREC_LAYER_RECONCILED
360
856F
  0
DICTIONARY
  5
8570
330
7A4F
100
AcDbDictionary
280
     1
281
     1
  3
ADSK_XREC_LAYER_RECONCILED
360
8571
  0
DICTIONARY
  5
8572
330
7A50
100
AcDbDictionary
280
     1
281
     1
  3
ADSK_XREC_LAYER_RECONCILED
360
8573
  0
DICTIONARY
  5
6B62
330
6A34
100
AcDbDictionary
280
     1
281
     1
  3
ACAD_SORTENTS
360
76CA
  0
DICTIONARY
  5
90D9
102
{ACAD_REACTORS
330
6A22
102
}
330
6A22
100
AcDbDictionary
281
     1
  3
DIMARCSYM
350
90DA
  3
DIMJOGANG
350
90DB
  3
DIMLTEX1
350
90DD
  3
DIMLTEX2
350
90DE
  3
DIMLTYPE
350
90DC
  0
DICTIONARY
  5
762B
102
{ACAD_REACTORS
330
6A22
102
}
330
6A22
100
AcDbDictionary
281
     1
  0
DICTIONARY
  5
6A23
102
{ACAD_REACTORS
330
6A22
102
}
330
6A22
100
AcDbDictionary
281
     1
  0
DICTIONARY
  5
6A2F
102
{ACAD_REACTORS
330
6A22
102
}
330
6A22
100
AcDbDictionary
281
     1
  3
Layout1
350
6A33
  3
Model
350
6A37
  0
DICTIONARY
  5
762A
102
{ACAD_REACTORS
330
6A22
102
}
330
6A22
100
AcDbDictionary
281
     1
  3
ByBlock
350
7D33
  3
ByLayer
350
7D2B
  3
Global
350
7D3B
  0
DICTIONARY
  5
7D66
102
{ACAD_REACTORS
330
6A22
102
}
330
6A22
100
AcDbDictionary
281
     1
  3
Standard
350
7D67
  0
DICTIONARY
  5
6A2C
102
{ACAD_REACTORS
330
6A22
102
}
330
6A22
100
AcDbDictionary
281
     1
  3
Standard
350
6A2D
  0
DICTIONARY
  5
6A2E
102
{ACAD_REACTORS
330
6A22
102
}
330
6A22
100
AcDbDictionary
281
     1
  0
ACDBDICTIONARYWDFLT
  5
6A24
102
{ACAD_REACTORS
330
6A22
102
}
330
6A22
100
AcDbDictionary
281
     1
  3
Normal
350
6A25
100
AcDbDictionaryWithDefault
340
6A25
  0
DICTIONARY
  5
7D54
102
{ACAD_REACTORS
330
6A22
102
}
330
6A22
100
AcDbDictionary
281
     1
  3
A0
350
7D55
  3
A1
350
7D56
  3
A2
350
7D57
  3
A3
350
7D58
  3
A4
350
7D59
  3
A5
350
7D5A
  3
A6
350
7D5B
  3
A7
350
7D5C
  3
A8
350
7D5D
  3
A9
350
7D5E
  3
B0
350
7D5F
  3
B1
350
7D60
  3
B2
350
7D61
  3
B3
350
7D62
  3
B4
350
7D63
  3
B5
350
7D64
  3
B6
350
7D65
  0
DICTIONARY
  5
762C
102
{ACAD_REACTORS
330
6A22
102
}
330
6A22
100
AcDbDictionary
281
     1
  3
Standard
350
762D
  0
DICTIONARY
  5
7D43
102
{ACAD_REACTORS
330
6A22
102
}
330
6A22
100
AcDbDictionary
281
     1
  3
2dWireframe
350
7D49
  3
3D Hidden
350
7D4B
  3
3dWireframe
350
7D4A
  3
Basic
350
7D48
  3
Brighten
350
7D4F
  3
ColorChange
350
7D53
  3
Conceptual
350
7D4C
  3
Dim
350
7D4E
  3
Facepattern
350
7D52
  3
Flat
350
7D44
  3
FlatWithEdges
350
7D45
  3
Gouraud
350
7D46
  3
GouraudWithEdges
350
7D47
  3
Linepattern
350
7D51
  3
Realistic
350
7D4D
  3
Thicken
350
7D50
  0
XRECORD
  5
8C79
102
{ACAD_REACTORS
330
6A22
102
}
330
6A22
100
AcDbXrecord
280
     1
 90
        1
330
762D
330
87E2
330
8813
330
88F1
330
8969
330
89B7
330
8C16
  0
DICTIONARY
  5
6B78
102
{ACAD_REACTORS
330
6A22
102
}
330
6A22
100
AcDbDictionary
281
     1
  3
CANNOSCALE
350
8C7C
  3
CMLEADERSTYLE
350
8C7A
  3
CTABLESTYLE
350
76E9
  3
DIMASSOC
350
6B7A
  3
INDEXCTL
350
6B79
  3
LAYEREVAL
350
8C7E
  3
LAYERNOTIFY
350
8C7F
  3
LIGHTINGUNITS
350
8C7D
  3
MSLTSCALE
350
8C7B
  3
PROJECTNAME
350
7D29
  3
SORTENTS
350
8D09
  0
DICTIONARY
  5
6B39
102
{ACAD_REACTORS
330
6A22
102
}
330
6A22
100
AcDbDictionary
281
     1
  3
AcmStdDictionary
350
6B3F
  3
AMDTSECTSYM_ARROWCOLOR
350
767A
  0
DICTIONARY
  5
6B22
102
{ACAD_REACTORS
330
6A22
102
}
330
6A22
100
AcDbDictionary
281
     1
  0
DICTIONARY
  5
6B59
102
{ACAD_REACTORS
330
6A22
102
}
330
6A22
100
AcDbDictionary
281
     1
  0
XRECORD
  5
90D8
102
{ACAD_REACTORS
330
6A22
102
}
330
6A22
100
AcDbXrecord
280
     1
  1
DWGPROPS COOKIE
  2

  3

  4

  6

  7

  8
Bernd Dutschke
  9

300
AmdtFileType=84
301
=
302
=
303
=
304
=
305
=
306
=
307
=
308
=
309
=
 40
0.1620096643518518
 41
2453447.471737477
 42
2455019.625704931
  1

 90
        1
  0
DICTIONARY
  5
8A99
102
{ACAD_REACTORS
330
8A98
102
}
330
8A98
100
AcDbDictionary
280
     1
281
     1
  0
XRECORD
  5
855F
102
{ACAD_REACTORS
330
855E
102
}
330
855E
100
AcDbXrecord
280
     1
290
     1
  0
XRECORD
  5
8561
102
{ACAD_REACTORS
330
8560
102
}
330
8560
100
AcDbXrecord
280
     1
290
     1
  0
XRECORD
  5
8563
102
{ACAD_REACTORS
330
8562
102
}
330
8562
100
AcDbXrecord
280
     1
290
     1
  0
XRECORD
  5
8565
102
{ACAD_REACTORS
330
8564
102
}
330
8564
100
AcDbXrecord
280
     1
290
     1
  0
XRECORD
  5
8567
102
{ACAD_REACTORS
330
8566
102
}
330
8566
100
AcDbXrecord
280
     1
290
     1
  0
XRECORD
  5
8569
102
{ACAD_REACTORS
330
8568
102
}
330
8568
100
AcDbXrecord
280
     1
290
     1
  0
XRECORD
  5
856B
102
{ACAD_REACTORS
330
856A
102
}
330
856A
100
AcDbXrecord
280
     1
290
     1
  0
XRECORD
  5
856D
102
{ACAD_REACTORS
330
856C
102
}
330
856C
100
AcDbXrecord
280
     1
290
     1
  0
XRECORD
  5
856F
102
{ACAD_REACTORS
330
856E
102
}
330
856E
100
AcDbXrecord
280
     1
290
     1
  0
XRECORD
  5
8571
102
{ACAD_REACTORS
330
8570
102
}
330
8570
100
AcDbXrecord
280
     1
290
     1
  0
XRECORD
  5
8573
102
{ACAD_REACTORS
330
8572
102
}
330
8572
100
AcDbXrecord
280
     1
290
     1
  0
SORTENTSTABLE
  5
76CA
102
{ACAD_REACTORS
330
6B62
102
}
330
6B62
100
AcDbSortentsTable
330
6A34
331
8B14
  5
8B17
331
85E0
  5
85E1
331
8A51
  5
8B12
331
87AB
  5
86D2
331
86D2
  5
8744
331
8DD8
  5
8DDA
331
85EB
  5
85ED
331
8760
  5
8768
331
8C0B
  5
8DBC
331
74DA
  5
799F
331
86EC
  5
85E2
331
8B1F
  5
8C16
331
8F76
  5
8F76
331
85E4
  5
85E6
331
87B6
  5
8845
331
85F0
  5
85F9
331
8DF2
  5
8DF4
331
8B18
  5
8B1B
331
86D6
  5
875E
331
876B
  5
8773
331
8DDC
  5
8DDE
331
85EF
  5
85F4
331
85F4
  5
86CE
331
87E2
  5
8969
331
89B7
  5
8A52
331
8DD5
  5
8DD7
331
85E8
  5
85EA
331
8DF6
  5
8DF8
331
86CD
  5
86D0
331
85E1
  5
85E3
331
876F
  5
8774
331
87B3
  5
87E2
331
8969
  5
8A51
331
8A52
  5
8B14
331
87AC
  5
87AD
331
86D3
  5
8745
331
8DD9
  5
8DDB
331
86ED
  5
86CD
331
85EC
  5
85EF
331
8761
  5
8769
331
8B19
  5
8B1F
331
85E5
  5
85E7
331
875A
  5
875F
331
8DF3
  5
8DF5
331
85DE
  5
85DE
331
87B0
  5
87B6
331
8B12
  5
8B16
331
86D0
  5
86D4
331
8DDD
  5
8DF1
331
8765
  5
876D
331
8DD6
  5
8DD8
331
85D5
  5
85D5
331
86CE
  5
86D1
331
85E9
  5
85EB
331
85E2
  5
85E4
331
8770
  5
8775
331
8B16
  5
8B18
331
8845
  5
89DF
331
87B4
  5
8813
331
86D4
  5
8746
331
87AD
  5
87B4
331
85F9
  5
86CF
331
8DDA
  5
8DDC
331
8F78
  5
8F78
331
85ED
  5
85F0
331
8DD3
  5
8DD5
331
85E6
  5
85E8
331
8774
  5
87AC
331
88F1
  5
89E0
331
87B8
  5
88F1
331
875B
  5
8763
331
8DF4
  5
8DF6
331
85DF
  5
85DF
331
87B1
  5
87B8
331
8813
  5
89B7
331
86D1
  5
86D6
331
8DDE
  5
8DF2
331
8766
  5
876E
331
8C16
  5
8DBD
331
8DD7
  5
8DD9
331
85EA
  5
85EC
331
86CF
  5
86D3
331
85D6
  5
85D6
331
8DF1
  5
8DF3
331
8B17
  5
8B19
331
85E3
  5
85E5
331
86D5
  5
875D
331
876A
  5
8772
331
87AE
  5
8776
331
8F79
  5
8F79
331
8DDB
  5
8DDD
331
8DD4
  5
8DD6
331
85E7
  5
85E9
331
8E75
  5
8E75
331
875C
  5
8764
331
8DF5
  5
8DF7
331
8775
  5
87AE
331
8B1B
  5
8C0B
331
85D3
  5
85D3
  0
XRECORD
  5
90DA
102
{ACAD_REACTORS
330
90D9
102
}
330
90D9
100
AcDbXrecord
280
     1
 70
     1
  0
XRECORD
  5
90DB
102
{ACAD_REACTORS
330
90D9
102
}
330
90D9
100
AcDbXrecord
280
     1
 40
1.570796326794896
  0
XRECORD
  5
90DD
102
{ACAD_REACTORS
330
90D9
102
}
330
90D9
100
AcDbXrecord
280
     1
340
6A29
  0
XRECORD
  5
90DE
102
{ACAD_REACTORS
330
90D9
102
}
330
90D9
100
AcDbXrecord
280
     1
340
6A29
  0
XRECORD
  5
90DC
102
{ACAD_REACTORS
330
90D9
102
}
330
90D9
100
AcDbXrecord
280
     1
340
6A29
  0
LAYOUT
  5
6A33
102
{ACAD_XDICTIONARY
360
90DF
102
}
102
{ACAD_REACTORS
330
6A2F
102
}
330
6A2F
100
AcDbPlotSettings
  1

  2
HP DesignJet 220 (D/A1) by HP
  4

  6

 40
0.0
 41
0.0
 42
0.0
 43
0.0
 44
0.0
 45
0.0
 46
0.0
 47
0.0
 48
0.0
 49
0.0
140
0.0
141
0.0
142
1.0
143
1.0
 70
   688
 72
     0
 73
     0
 74
     5
  7
monochrome-Neu.ctb
 75
    16
147
1.0
148
0.0
149
0.0
100
AcDbLayout
  1
Layout1
 70
     1
 71
     1
 10
0.0
 20
0.0
 11
420.0
 21
297.0
 12
0.0
 22
0.0
 32
0.0
 14
1.000000000000000E+20
 24
1.000000000000000E+20
 34
1.000000000000000E+20
 15
-1.000000000000000E+20
 25
-1.000000000000000E+20
 35
-1.000000000000000E+20
146
0.0
 13
0.0
 23
0.0
 33
0.0
 16
1.0
 26
0.0
 36
0.0
 17
0.0
 27
1.0
 37
0.0
 76
     0
330
6A30
  0
LAYOUT
  5
6A37
102
{ACAD_XDICTIONARY
360
90E1
102
}
102
{ACAD_REACTORS
330
6A2F
102
}
330
6A2F
100
AcDbPlotSettings
  1

  2
none_device
  4
ISO_A4_(210.00_x_297.00_MM)
  6

 40
7.5
 41
20.0
 42
7.5
 43
20.0
 44
210.0
 45
297.0
 46
0.0
 47
0.0
 48
0.0
 49
0.0
140
0.0
141
0.0
142
1.0
143
1.432322087702932
 70
 11952
 72
     1
 73
     1
 74
     0
  7
monochrome-Neu.ctb
 75
     0
147
0.6981669895237998
148
-12.27930241320541
149
-39.40020745602759
100
AcDbLayout
  1
Model
 70
     1
 71
     0
 10
0.0
 20
0.0
 11
12.0
 21
9.0
 12
0.0
 22
0.0
 32
0.0
 14
0.0
 24
0.0
 34
0.0
 15
0.0
 25
0.0
 35
0.0
146
0.0
 13
0.0
 23
0.0
 33
0.0
 16
1.0
 26
0.0
 36
0.0
 17
0.0
 27
1.0
 37
0.0
 76
     0
330
6A34
331
7D22
1001
ACAD_PSEXT
1000
Kein
1000
Kein
1000
Nicht anwendbar
1000
Das Layout wird erst geplottet, wenn ein neuer Plotter-Konfigurationsname ausgewählt wird.
1070
     0
  0
MATERIAL
  5
7D33
102
{ACAD_XDICTIONARY
360
7D34
102
}
102
{ACAD_REACTORS
330
762A
102
}
330
762A
100
AcDbMaterial
  1
ByBlock
 72
     0
 43
0.0008202099737533
 43
0.0
 43
0.0
 43
0.0
 43
0.0
 43
0.0008202099737533
 43
0.0
 43
0.0
 43
0.0
 43
0.0
 43
1.0
 43
0.0
 43
0.0
 43
0.0
 43
0.0
 43
1.0
 77
     0
 47
0.0008202099737533
 47
0.0
 47
0.0
 47
0.0
 47
0.0
 47
0.0008202099737533
 47
0.0
 47
0.0
 47
0.0
 47
0.0
 47
1.0
 47
0.0
 47
0.0
 47
0.0
 47
0.0
 47
1.0
171
     0
 49
0.0008202099737533
 49
0.0
 49
0.0
 49
0.0
 49
0.0
 49
0.0008202099737533
 49
0.0
 49
0.0
 49
0.0
 49
0.0
 49
1.0
 49
0.0
 49
0.0
 49
0.0
 49
0.0
 49
1.0
175
     0
142
0.0008202099737533
142
0.0
142
0.0
142
0.0
142
0.0
142
0.0008202099737533
142
0.0
142
0.0
142
0.0
142
0.0
142
1.0
142
0.0
142
0.0
142
0.0
142
0.0
142
1.0
179
     0
144
0.0008202099737533
144
0.0
144
0.0
144
0.0
144
0.0
144
0.0008202099737533
144
0.0
144
0.0
144
0.0
144
0.0
144
1.0
144
0.0
144
0.0
144
0.0
144
0.0
144
1.0
147
0.0008202099737533
147
0.0
147
0.0
147
0.0
147
0.0
147
0.0008202099737533
147
0.0
147
0.0
147
0.0
147
0.0
147
1.0
147
0.0
147
0.0
147
0.0
147
0.0
147
1.0
  0
MATERIAL
  5
7D2B
102
{ACAD_XDICTIONARY
360
7D2C
102
}
102
{ACAD_REACTORS
330
762A
102
}
330
762A
100
AcDbMaterial
  1
ByLayer
 72
     0
 43
0.0008202099737533
 43
0.0
 43
0.0
 43
0.0
 43
0.0
 43
0.0008202099737533
 43
0.0
 43
0.0
 43
0.0
 43
0.0
 43
1.0
 43
0.0
 43
0.0
 43
0.0
 43
0.0
 43
1.0
 77
     0
 47
0.0008202099737533
 47
0.0
 47
0.0
 47
0.0
 47
0.0
 47
0.0008202099737533
 47
0.0
 47
0.0
 47
0.0
 47
0.0
 47
1.0
 47
0.0
 47
0.0
 47
0.0
 47
0.0
 47
1.0
171
     0
 49
0.0008202099737533
 49
0.0
 49
0.0
 49
0.0
 49
0.0
 49
0.0008202099737533
 49
0.0
 49
0.0
 49
0.0
 49
0.0
 49
1.0
 49
0.0
 49
0.0
 49
0.0
 49
0.0
 49
1.0
175
     0
142
0.0008202099737533
142
0.0
142
0.0
142
0.0
142
0.0
142
0.0008202099737533
142
0.0
142
0.0
142
0.0
142
0.0
142
1.0
142
0.0
142
0.0
142
0.0
142
0.0
142
1.0
179
     0
144
0.0008202099737533
144
0.0
144
0.0
144
0.0
144
0.0
144
0.0008202099737533
144
0.0
144
0.0
144
0.0
144
0.0
144
1.0
144
0.0
144
0.0
144
0.0
144
0.0
144
1.0
147
0.0008202099737533
147
0.0
147
0.0
147
0.0
147
0.0
147
0.0008202099737533
147
0.0
147
0.0
147
0.0
147
0.0
147
1.0
147
0.0
147
0.0
147
0.0
147
0.0
147
1.0
  0
MATERIAL
  5
7D3B
102
{ACAD_XDICTIONARY
360
7D3C
102
}
102
{ACAD_REACTORS
330
762A
102
}
330
762A
100
AcDbMaterial
  1
Global
 72
     0
 43
0.0008202099737533
 43
0.0
 43
0.0
 43
0.0
 43
0.0
 43
0.0008202099737533
 43
0.0
 43
0.0
 43
0.0
 43
0.0
 43
1.0
 43
0.0
 43
0.0
 43
0.0
 43
0.0
 43
1.0
 77
     0
 47
0.0008202099737533
 47
0.0
 47
0.0
 47
0.0
 47
0.0
 47
0.0008202099737533
 47
0.0
 47
0.0
 47
0.0
 47
0.0
 47
1.0
 47
0.0
 47
0.0
 47
0.0
 47
0.0
 47
1.0
171
     0
 49
0.0008202099737533
 49
0.0
 49
0.0
 49
0.0
 49
0.0
 49
0.0008202099737533
 49
0.0
 49
0.0
 49
0.0
 49
0.0
 49
1.0
 49
0.0
 49
0.0
 49
0.0
 49
0.0
 49
1.0
175
     0
142
0.0008202099737533
142
0.0
142
0.0
142
0.0
142
0.0
142
0.0008202099737533
142
0.0
142
0.0
142
0.0
142
0.0
142
1.0
142
0.0
142
0.0
142
0.0
142
0.0
142
1.0
179
     0
144
0.0008202099737533
144
0.0
144
0.0
144
0.0
144
0.0
144
0.0008202099737533
144
0.0
144
0.0
144
0.0
144
0.0
144
1.0
144
0.0
144
0.0
144
0.0
144
0.0
144
1.0
147
0.0008202099737533
147
0.0
147
0.0
147
0.0
147
0.0
147
0.0008202099737533
147
0.0
147
0.0
147
0.0
147
0.0
147
1.0
147
0.0
147
0.0
147
0.0
147
0.0
147
1.0
  0
MLEADERSTYLE
  5
7D67
102
{ACAD_REACTORS
330
7D66
102
}
330
7D66
100
AcDbMLeaderStyle
170
     2
171
     1
172
     0
 90
        2
 40
0.0
 41
0.0
173
     1
 91
-1056964608
340
6A29
 92
       -2
290
     1
 42
2.0
291
     1
 43
0.36
  3
Standard
 44
4.0
300

342
6A27
174
     1
178
     6
175
     1
176
     0
 93
-1056964608
 45
4.0
292
     0
297
     0
 46
4.0
 94
-1056964608
 47
1.0
 49
1.0
140
1.0
293
     1
141
0.0
294
     1
177
     0
142
1.0
295
     0
296
     0
143
0.125
1001
ACAD_MLEADERVER
1070
     2
  0
MLINESTYLE
  5
6A2D
102
{ACAD_REACTORS
330
6A2C
102
}
330
6A2C
100
AcDbMlineStyle
  2
STANDARD
 70
     0
  3

 62
   256
 51
90.0
 52
90.0
 71
     2
 49
0.5
 62
   256
  6
BYLAYER
 49
-0.5
 62
   256
  6
BYLAYER
  0
ACDBPLACEHOLDER
  5
6A25
102
{ACAD_REACTORS
330
6A24
102
}
330
6A24
  0
SCALE
  5
7D55
102
{ACAD_REACTORS
330
7D54
102
}
330
7D54
100
AcDbScale
 70
     0
300
1:1
140
1.0
141
1.0
290
     1
  0
SCALE
  5
7D56
102
{ACAD_REACTORS
330
7D54
102
}
330
7D54
100
AcDbScale
 70
     0
300
1:2
140
1.0
141
2.0
290
     0
  0
SCALE
  5
7D57
102
{ACAD_REACTORS
330
7D54
102
}
330
7D54
100
AcDbScale
 70
     0
300
1:4
140
1.0
141
4.0
290
     0
  0
SCALE
  5
7D58
102
{ACAD_REACTORS
330
7D54
102
}
330
7D54
100
AcDbScale
 70
     0
300
1:5
140
1.0
141
5.0
290
     0
  0
SCALE
  5
7D59
102
{ACAD_REACTORS
330
7D54
102
}
330
7D54
100
AcDbScale
 70
     0
300
1:8
140
1.0
141
8.0
290
     0
  0
SCALE
  5
7D5A
102
{ACAD_REACTORS
330
7D54
102
}
330
7D54
100
AcDbScale
 70
     0
300
1:10
140
1.0
141
10.0
290
     0
  0
SCALE
  5
7D5B
102
{ACAD_REACTORS
330
7D54
102
}
330
7D54
100
AcDbScale
 70
     0
300
1:16
140
1.0
141
16.0
290
     0
  0
SCALE
  5
7D5C
102
{ACAD_REACTORS
330
7D54
102
}
330
7D54
100
AcDbScale
 70
     0
300
1:20
140
1.0
141
20.0
290
     0
  0
SCALE
  5
7D5D
102
{ACAD_REACTORS
330
7D54
102
}
330
7D54
100
AcDbScale
 70
     0
300
1:30
140
1.0
141
30.0
290
     0
  0
SCALE
  5
7D5E
102
{ACAD_REACTORS
330
7D54
102
}
330
7D54
100
AcDbScale
 70
     0
300
1:40
140
1.0
141
40.0
290
     0
  0
SCALE
  5
7D5F
102
{ACAD_REACTORS
330
7D54
102
}
330
7D54
100
AcDbScale
 70
     0
300
1:50
140
1.0
141
50.0
290
     0
  0
SCALE
  5
7D60
102
{ACAD_REACTORS
330
7D54
102
}
330
7D54
100
AcDbScale
 70
     0
300
1:100
140
1.0
141
100.0
290
     0
  0
SCALE
  5
7D61
102
{ACAD_REACTORS
330
7D54
102
}
330
7D54
100
AcDbScale
 70
     0
300
2:1
140
2.0
141
1.0
290
     0
  0
SCALE
  5
7D62
102
{ACAD_REACTORS
330
7D54
102
}
330
7D54
100
AcDbScale
 70
     0
300
4:1
140
4.0
141
1.0
290
     0
  0
SCALE
  5
7D63
102
{ACAD_REACTORS
330
7D54
102
}
330
7D54
100
AcDbScale
 70
     0
300
8:1
140
8.0
141
1.0
290
     0
  0
SCALE
  5
7D64
102
{ACAD_REACTORS
330
7D54
102
}
330
7D54
100
AcDbScale
 70
     0
300
10:1
140
10.0
141
1.0
290
     0
  0
SCALE
  5
7D65
102
{ACAD_REACTORS
330
7D54
102
}
330
7D54
100
AcDbScale
 70
     0
300
100:1
140
100.0
141
1.0
290
     0
  0
TABLESTYLE
  5
762D
102
{ACAD_XDICTIONARY
360
8C77
102
}
102
{ACAD_REACTORS
330
762C
102
}
330
762C
100
AcDbTableStyle
  3
Standard
 70
     0
 71
     0
 40
1.5
 41
1.5
280
     0
281
     0
  7
STANDARD
140
4.5
170
     2
 62
     0
 63
     7
283
     0
274
    -2
284
     1
 64
     0
275
    -2
285
     1
 65
     0
276
    -2
286
     1
 66
     0
277
    -2
287
     1
 67
     0
278
    -2
288
     1
 68
     0
279
    -2
289
     1
 69
     0
  7
STANDARD
140
6.0
170
     5
 62
     0
 63
     7
283
     0
274
    -2
284
     1
 64
     0
275
    -2
285
     1
 65
     0
276
    -2
286
     1
 66
     0
277
    -2
287
     1
 67
     0
278
    -2
288
     1
 68
     0
279
    -2
289
     1
 69
     0
  7
STANDARD
140
4.5
170
     5
 62
     0
 63
     7
283
     0
274
    -2
284
     1
 64
     0
275
    -2
285
     1
 65
     0
276
    -2
286
     1
 66
     0
277
    -2
287
     1
 67
     0
278
    -2
288
     1
 68
     0
279
    -2
289
     1
 69
     0
  0
VISUALSTYLE
  5
7D49
102
{ACAD_REACTORS
330
7D43
102
}
330
7D43
100
AcDbVisualStyle
  2
2dWireframe
 70
     4
 71
     0
 72
     2
 73
     0
 90
        0
 40
-0.6
 41
-30.0
 62
     5
 63
     7
 74
     1
 91
        4
 64
     7
 65
   257
 75
     1
175
     1
 42
1.0
 92
        0
 66
   257
 43
1.0
 76
     1
 77
     6
 78
     2
 67
     7
 79
     5
170
     0
171
     0
290
     0
174
     0
 93
        1
 44
0.0
173
     0
291
     0
 45
0.0
1001
ACAD
1000
AcDbSavedByObjectVersion
1070
     0
  0
VISUALSTYLE
  5
7D4B
102
{ACAD_REACTORS
330
7D43
102
}
330
7D43
100
AcDbVisualStyle
  2
3D Hidden
 70
     6
 71
     1
 72
     2
 73
     2
 90
        0
 40
-0.6
 41
-30.0
 62
     5
 63
     7
 74
     2
 91
        2
 64
     7
 65
   257
 75
     2
175
     1
 42
40.0
 92
        0
 66
   257
 43
1.0
 76
     1
 77
     6
 78
     2
 67
     7
 79
     3
170
     0
171
     0
290
     0
174
     0
 93
        1
 44
0.0
173
     0
291
     0
 45
0.0
1001
ACAD
1000
AcDbSavedByObjectVersion
1070
     0
  0
VISUALSTYLE
  5
7D4A
102
{ACAD_REACTORS
330
7D43
102
}
330
7D43
100
AcDbVisualStyle
  2
3dWireframe
 70
     5
 71
     0
 72
     2
 73
     0
 90
        0
 40
-0.6
 41
-30.0
 62
     5
 63
     7
 74
     1
 91
        4
 64
     7
 65
   257
 75
     1
175
     1
 42
1.0
 92
        0
 66
   257
 43
1.0
 76
     1
 77
     6
 78
     2
 67
     7
 79
     5
170
     0
171
     0
290
     0
174
     0
 93
        1
 44
0.0
173
     0
291
     0
 45
0.0
1001
ACAD
1000
AcDbSavedByObjectVersion
1070
     0
  0
VISUALSTYLE
  5
7D48
102
{ACAD_REACTORS
330
7D43
102
}
330
7D43
100
AcDbVisualStyle
  2
Basic
 70
     7
 71
     1
 72
     0
 73
     1
 90
        0
 40
-0.6
 41
-30.0
 62
     5
 63
     7
 74
     0
 91
        4
 64
     7
 65
   257
 75
     1
175
     1
 42
1.0
 92
        8
 66
     7
 43
1.0
 76
     1
 77
     6
 78
     2
 67
     7
 79
     5
170
     0
171
     0
290
     0
174
     0
 93
        1
 44
0.0
173
     0
291
     1
 45
0.0
1001
ACAD
1000
AcDbSavedByObjectVersion
1070
     0
  0
VISUALSTYLE
  5
7D4F
102
{ACAD_REACTORS
330
7D43
102
}
330
7D43
100
AcDbVisualStyle
  2
Brighten
 70
    12
 71
     2
 72
     2
 73
     0
 90
        0
 40
-0.6
 41
-30.0
 62
     5
 63
     7
 74
     1
 91
        4
 64
     7
 65
   257
 75
     1
175
     1
 42
1.0
 92
        8
 66
     7
 43
1.0
 76
     1
 77
     6
 78
     2
 67
     7
 79
     5
170
     0
171
     0
290
     0
174
     0
 93
        1
 44
50.0
173
     0
291
     1
 45
0.0
1001
ACAD
1000
AcDbSavedByObjectVersion
1070
     0
  0
VISUALSTYLE
  5
7D53
102
{ACAD_REACTORS
330
7D43
102
}
330
7D43
100
AcDbVisualStyle
  2
ColorChange
 70
    16
 71
     2
 72
     2
 73
     3
 90
        0
 40
-0.6
 41
-30.0
 62
     5
 63
     8
 74
     1
 91
        4
 64
     7
 65
   257
 75
     1
175
     1
 42
1.0
 92
        8
 66
     8
 43
1.0
 76
     1
 77
     6
 78
     2
 67
     7
 79
     5
170
     0
171
     0
290
     0
174
     0
 93
        1
 44
0.0
173
     0
291
     1
 45
0.0
1001
ACAD
1000
AcDbSavedByObjectVersion
1070
     0
  0
VISUALSTYLE
  5
7D4C
102
{ACAD_REACTORS
330
7D43
102
}
330
7D43
100
AcDbVisualStyle
  2
Conceptual
 70
     9
 71
     3
 72
     2
 73
     0
 90
        0
 40
-0.6
 41
-30.0
 62
     5
 63
     7
 74
     2
 91
        2
 64
     7
 65
   257
 75
     1
175
     1
 42
40.0
 92
        8
 66
     7
 43
1.0
 76
     1
 77
     6
 78
     2
 67
     7
 79
     3
170
     0
171
     0
290
     0
174
     0
 93
        1
 44
0.0
173
     0
291
     0
 45
0.0
1001
ACAD
1000
AcDbSavedByObjectVersion
1070
     0
  0
VISUALSTYLE
  5
7D4E
102
{ACAD_REACTORS
330
7D43
102
}
330
7D43
100
AcDbVisualStyle
  2
Dim
 70
    11
 71
     2
 72
     2
 73
     0
 90
        0
 40
-0.6
 41
-30.0
 62
     5
 63
     7
 74
     1
 91
        4
 64
     7
 65
   257
 75
     1
175
     1
 42
1.0
 92
        8
 66
     7
 43
1.0
 76
     1
 77
     6
 78
     2
 67
     7
 79
     5
170
     0
171
     0
290
     0
174
     0
 93
        1
 44
-50.0
173
     0
291
     1
 45
0.0
1001
ACAD
1000
AcDbSavedByObjectVersion
1070
     0
  0
VISUALSTYLE
  5
7D52
102
{ACAD_REACTORS
330
7D43
102
}
330
7D43
100
AcDbVisualStyle
  2
Facepattern
 70
    15
 71
     2
 72
     2
 73
     0
 90
        0
 40
-0.6
 41
-30.0
 62
     5
 63
     7
 74
     1
 91
        4
 64
     7
 65
   257
 75
     1
175
     1
 42
1.0
 92
        8
 66
     7
 43
1.0
 76
     1
 77
     6
 78
     2
 67
     7
 79
     5
170
     0
171
     0
290
     0
174
     0
 93
        1
 44
0.0
173
     0
291
     1
 45
0.0
1001
ACAD
1000
AcDbSavedByObjectVersion
1070
     0
  0
VISUALSTYLE
  5
7D44
102
{ACAD_REACTORS
330
7D43
102
}
330
7D43
100
AcDbVisualStyle
  2
Flat
 70
     0
 71
     2
 72
     1
 73
     1
 90
        2
 40
-0.6
 41
30.0
 62
     5
 63
     7
 74
     0
 91
        4
 64
     7
 65
   257
 75
     1
175
     1
 42
1.0
 92
        8
 66
     7
 43
1.0
 76
     1
 77
     6
 78
     2
 67
     7
 79
     5
170
     0
171
     0
290
     0
174
     0
 93
       13
 44
0.0
173
     0
291
     1
 45
0.0
1001
ACAD
1000
AcDbSavedByObjectVersion
1070
     0
  0
VISUALSTYLE
  5
7D45
102
{ACAD_REACTORS
330
7D43
102
}
330
7D43
100
AcDbVisualStyle
  2
FlatWithEdges
 70
     1
 71
     2
 72
     1
 73
     1
 90
        2
 40
-0.6
 41
30.0
 62
     5
 63
     7
 74
     1
 91
        4
 64
     7
 65
   257
 75
     1
175
     1
 42
1.0
 92
        0
 66
   257
 43
1.0
 76
     1
 77
     6
 78
     2
 67
     7
 79
     5
170
     0
171
     0
290
     0
174
     0
 93
       13
 44
0.0
173
     0
291
     1
 45
0.0
1001
ACAD
1000
AcDbSavedByObjectVersion
1070
     0
  0
VISUALSTYLE
  5
7D46
102
{ACAD_REACTORS
330
7D43
102
}
330
7D43
100
AcDbVisualStyle
  2
Gouraud
 70
     2
 71
     2
 72
     2
 73
     1
 90
        2
 40
-0.6
 41
30.0
 62
     5
 63
     7
 74
     0
 91
        4
 64
     7
 65
   257
 75
     1
175
     1
 42
1.0
 92
        0
 66
     7
 43
1.0
 76
     1
 77
     6
 78
     2
 67
     7
 79
     5
170
     0
171
     0
290
     0
174
     0
 93
       13
 44
0.0
173
     0
291
     1
 45
0.0
1001
ACAD
1000
AcDbSavedByObjectVersion
1070
     0
  0
VISUALSTYLE
  5
7D47
102
{ACAD_REACTORS
330
7D43
102
}
330
7D43
100
AcDbVisualStyle
  2
GouraudWithEdges
 70
     3
 71
     2
 72
     2
 73
     1
 90
        2
 40
-0.6
 41
30.0
 62
     5
 63
     7
 74
     1
 91
        4
 64
     7
 65
   257
 75
     1
175
     1
 42
1.0
 92
        0
 66
   257
 43
1.0
 76
     1
 77
     6
 78
     2
 67
     7
 79
     5
170
     0
171
     0
290
     0
174
     0
 93
       13
 44
0.0
173
     0
291
     1
 45
0.0
1001
ACAD
1000
AcDbSavedByObjectVersion
1070
     0
  0
VISUALSTYLE
  5
7D51
102
{ACAD_REACTORS
330
7D43
102
}
330
7D43
100
AcDbVisualStyle
  2
Linepattern
 70
    14
 71
     2
 72
     2
 73
     0
 90
        0
 40
-0.6
 41
-30.0
 62
     5
 63
     7
 74
     1
 91
        4
 64
     7
 65
   257
 75
     7
175
     7
 42
1.0
 92
        8
 66
     7
 43
1.0
 76
     1
 77
     6
 78
     2
 67
     7
 79
     5
170
     0
171
     0
290
     0
174
     0
 93
        1
 44
0.0
173
     0
291
     1
 45
0.0
1001
ACAD
1000
AcDbSavedByObjectVersion
1070
     0
  0
VISUALSTYLE
  5
7D4D
102
{ACAD_REACTORS
330
7D43
102
}
330
7D43
100
AcDbVisualStyle
  2
Realistic
 70
     8
 71
     2
 72
     2
 73
     0
 90
        0
 40
-0.6
 41
-30.0
 62
     5
 63
     7
 74
     1
 91
        0
 64
     7
 65
   257
 75
     1
175
     1
 42
1.0
 92
        8
 66
     8
 43
1.0
 76
     1
 77
     6
 78
     2
 67
     7
 79
     5
170
     0
171
     0
290
     0
174
     0
 93
       13
 44
0.0
173
     0
291
     0
 45
0.0
1001
ACAD
1000
AcDbSavedByObjectVersion
1070
     0
  0
VISUALSTYLE
  5
7D50
102
{ACAD_REACTORS
330
7D43
102
}
330
7D43
100
AcDbVisualStyle
  2
Thicken
 70
    13
 71
     2
 72
     2
 73
     0
 90
        0
 40
-0.6
 41
-30.0
 62
     5
 63
     7
 74
     1
 91
        4
 64
     7
 65
   257
 75
     1
175
     1
 42
1.0
 92
       12
 66
     7
 43
1.0
 76
     1
 77
     6
 78
     2
 67
     7
 79
     5
170
     0
171
     0
290
     0
174
     0
 93
        1
 44
0.0
173
     0
291
     1
 45
0.0
1001
ACAD
1000
AcDbSavedByObjectVersion
1070
     0
  0
DICTIONARYVAR
  5
8C7C
102
{ACAD_REACTORS
330
6B78
102
}
330
6B78
100
DictionaryVariables
280
     0
  1
1:1
  0
DICTIONARYVAR
  5
8C7A
102
{ACAD_REACTORS
330
6B78
102
}
330
6B78
100
DictionaryVariables
280
     0
  1
STANDARD
  0
DICTIONARYVAR
  5
76E9
102
{ACAD_REACTORS
330
6B78
102
}
330
6B78
100
DictionaryVariables
280
     0
  1
STANDARD
  0
DICTIONARYVAR
  5
6B7A
102
{ACAD_REACTORS
330
6B78
102
}
330
6B78
100
DictionaryVariables
280
     0
  1
1
  0
DICTIONARYVAR
  5
6B79
102
{ACAD_REACTORS
330
6B78
102
}
330
6B78
100
DictionaryVariables
280
     0
  1
0
  0
DICTIONARYVAR
  5
8C7E
102
{ACAD_REACTORS
330
6B78
102
}
330
6B78
100
DictionaryVariables
280
     0
  1
1
  0
DICTIONARYVAR
  5
8C7F
102
{ACAD_REACTORS
330
6B78
102
}
330
6B78
100
DictionaryVariables
280
     0
  1
15
  0
DICTIONARYVAR
  5
8C7D
102
{ACAD_REACTORS
330
6B78
102
}
330
6B78
100
DictionaryVariables
280
     0
  1
0
  0
DICTIONARYVAR
  5
8C7B
102
{ACAD_REACTORS
330
6B78
102
}
330
6B78
100
DictionaryVariables
280
     0
  1
0
  0
DICTIONARYVAR
  5
7D29
102
{ACAD_REACTORS
330
6B78
102
}
330
6B78
100
DictionaryVariables
280
     0
  1

  0
DICTIONARYVAR
  5
8D09
102
{ACAD_REACTORS
330
6B78
102
}
330
6B78
100
DictionaryVariables
280
     0
  1
127
  0
DICTIONARY
  5
6B3F
102
{ACAD_REACTORS
330
6B39
102
}
330
6B39
100
AcDbDictionary
281
     1
  0
XRECORD
  5
767A
102
{ACAD_REACTORS
330
6B39
102
}
330
6B39
100
AcDbXrecord
280
     1
 90
-1023410169
  0
DICTIONARY
  5
90DF
330
6A33
100
AcDbDictionary
280
     1
281
     1
  3
ACAD_XREC_ROUNDTRIP
360
90E0
  0
DICTIONARY
  5
90E1
330
6A37
100
AcDbDictionary
280
     1
281
     1
  3
ACAD_XREC_ROUNDTRIP
360
90E2
  0
DICTIONARY
  5
7D34
330
7D33
100
AcDbDictionary
280
     1
281
     1
  3
ACAD_XREC_ROUNDTRIP
360
90E5
  3
BUMPTILE
360
7D36
  3
DIFFUSETILE
360
7D35
  3
OPACITYTILE
360
7D39
  3
REFLECTIONTILE
360
7D38
  3
REFRACTIONTILE
360
7D3A
  3
SPECULARTILE
360
7D37
  0
DICTIONARY
  5
7D2C
330
7D2B
100
AcDbDictionary
280
     1
281
     1
  3
ACAD_XREC_ROUNDTRIP
360
90E4
  3
BUMPTILE
360
7D2E
  3
DIFFUSETILE
360
7D2D
  3
OPACITYTILE
360
7D31
  3
REFLECTIONTILE
360
7D30
  3
REFRACTIONTILE
360
7D32
  3
SPECULARTILE
360
7D2F
  0
DICTIONARY
  5
7D3C
330
7D3B
100
AcDbDictionary
280
     1
281
     1
  3
ACAD_XREC_ROUNDTRIP
360
90E6
  3
BUMPTILE
360
7D3E
  3
DIFFUSETILE
360
7D3D
  3
OPACITYTILE
360
7D41
  3
REFLECTIONTILE
360
7D40
  3
REFRACTIONTILE
360
7D42
  3
SPECULARTILE
360
7D3F
  0
DICTIONARY
  5
8C77
330
762D
100
AcDbDictionary
280
     1
281
     1
  3
ACAD_ROUNDTRIP_2008_TABLESTYLE_CELLSTYLEMAP
360
90D7
  3
ACAD_XREC_ROUNDTRIP
360
90E3
  0
XRECORD
  5
90E0
102
{ACAD_REACTORS
330
90DF
102
}
330
90DF
100
AcDbXrecord
280
     1
102
SHADEPLOT
 70
     0
102
SHADEPLOTRESLEVEL
 70
     2
102
SHADEPLOTCUSTOMDPI
 70
   300
  0
XRECORD
  5
90E2
102
{ACAD_REACTORS
330
90E1
102
}
330
90E1
100
AcDbXrecord
280
     1
102
SHADEPLOT
 70
     0
102
SHADEPLOTRESLEVEL
 70
     2
102
SHADEPLOTCUSTOMDPI
 70
   300
  0
XRECORD
  5
90E5
102
{ACAD_REACTORS
330
7D34
102
}
330
7D34
100
AcDbXrecord
280
     1
102
MATERIAL
148
0.0
149
0.0
149
0.0
 93
        0
 94
      127
282
     0
 72
     0
 77
     0
171
     0
175
     0
179
     0
273
     0
  0
XRECORD
  5
7D36
102
{ACAD_REACTORS
330
7D34
102
}
330
7D34
100
AcDbXrecord
280
     1
270
     1
271
     1
  0
XRECORD
  5
7D35
102
{ACAD_REACTORS
330
7D34
102
}
330
7D34
100
AcDbXrecord
280
     1
270
     1
271
     1
  0
XRECORD
  5
7D39
102
{ACAD_REACTORS
330
7D34
102
}
330
7D34
100
AcDbXrecord
280
     1
270
     1
271
     1
  0
XRECORD
  5
7D38
102
{ACAD_REACTORS
330
7D34
102
}
330
7D34
100
AcDbXrecord
280
     1
270
     1
271
     1
  0
XRECORD
  5
7D3A
102
{ACAD_REACTORS
330
7D34
102
}
330
7D34
100
AcDbXrecord
280
     1
270
     1
271
     1
  0
XRECORD
  5
7D37
102
{ACAD_REACTORS
330
7D34
102
}
330
7D34
100
AcDbXrecord
280
     1
270
     1
271
     1
  0
XRECORD
  5
90E4
102
{ACAD_REACTORS
330
7D2C
102
}
330
7D2C
100
AcDbXrecord
280
     1
102
MATERIAL
148
0.0
149
0.0
149
0.0
 93
        0
 94
      127
282
     0
 72
     0
 77
     0
171
     0
175
     0
179
     0
273
     0
  0
XRECORD
  5
7D2E
102
{ACAD_REACTORS
330
7D2C
102
}
330
7D2C
100
AcDbXrecord
280
     1
270
     1
271
     1
  0
XRECORD
  5
7D2D
102
{ACAD_REACTORS
330
7D2C
102
}
330
7D2C
100
AcDbXrecord
280
     1
270
     1
271
     1
  0
XRECORD
  5
7D31
102
{ACAD_REACTORS
330
7D2C
102
}
330
7D2C
100
AcDbXrecord
280
     1
270
     1
271
     1
  0
XRECORD
  5
7D30
102
{ACAD_REACTORS
330
7D2C
102
}
330
7D2C
100
AcDbXrecord
280
     1
270
     1
271
     1
  0
XRECORD
  5
7D32
102
{ACAD_REACTORS
330
7D2C
102
}
330
7D2C
100
AcDbXrecord
280
     1
270
     1
271
     1
  0
XRECORD
  5
7D2F
102
{ACAD_REACTORS
330
7D2C
102
}
330
7D2C
100
AcDbXrecord
280
     1
270
     1
271
     1
  0
XRECORD
  5
90E6
102
{ACAD_REACTORS
330
7D3C
102
}
330
7D3C
100
AcDbXrecord
280
     1
102
MATERIAL
148
0.0
149
0.0
149
0.0
 93
        0
 94
      127
282
     0
 72
     0
 77
     0
171
     0
175
     0
179
     0
273
     0
  0
XRECORD
  5
7D3E
102
{ACAD_REACTORS
330
7D3C
102
}
330
7D3C
100
AcDbXrecord
280
     1
270
     1
271
     1
  0
XRECORD
  5
7D3D
102
{ACAD_REACTORS
330
7D3C
102
}
330
7D3C
100
AcDbXrecord
280
     1
270
     1
271
     1
  0
XRECORD
  5
7D41
102
{ACAD_REACTORS
330
7D3C
102
}
330
7D3C
100
AcDbXrecord
280
     1
270
     1
271
     1
  0
XRECORD
  5
7D40
102
{ACAD_REACTORS
330
7D3C
102
}
330
7D3C
100
AcDbXrecord
280
     1
270
     1
271
     1
  0
XRECORD
  5
7D42
102
{ACAD_REACTORS
330
7D3C
102
}
330
7D3C
100
AcDbXrecord
280
     1
270
     1
271
     1
  0
XRECORD
  5
7D3F
102
{ACAD_REACTORS
330
7D3C
102
}
330
7D3C
100
AcDbXrecord
280
     1
270
     1
271
     1
  0
CELLSTYLEMAP
  5
90D7
102
{ACAD_REACTORS
330
8C77
102
}
330
8C77
100
AcDbCellStyleMap
 90
        3
300
CELLSTYLE
  1
TABLEFORMAT_BEGIN
 90
        5
170
     1
 91
        0
 92
    32768
 62
   257
 93
        1
300
CONTENTFORMAT
  1
CONTENTFORMAT_BEGIN
 90
        0
 91
        0
 92
        4
 93
        0
300

 40
0.0
140
1.0
 94
        5
 62
     0
340
6A27
144
6.0
309
CONTENTFORMAT_END
171
     1
301
MARGIN
  1
CELLMARGIN_BEGIN
 40
1.5
 40
1.5
 40
1.5
 40
1.5
 40
0.18
 40
0.18
309
CELLMARGIN_END
 94
        6
 95
        1
302
GRIDFORMAT
  1
GRIDFORMAT_BEGIN
 90
        0
 91
        1
 62
     0
 92
       -2
340
0
 93
        0
 40
0.045
309
GRIDFORMAT_END
 95
        2
302
GRIDFORMAT
  1
GRIDFORMAT_BEGIN
 90
        0
 91
        1
 62
     0
 92
       -2
340
0
 93
        0
 40
0.045
309
GRIDFORMAT_END
 95
        4
302
GRIDFORMAT
  1
GRIDFORMAT_BEGIN
 90
        0
 91
        1
 62
     0
 92
       -2
340
0
 93
        0
 40
0.045
309
GRIDFORMAT_END
 95
        8
302
GRIDFORMAT
  1
GRIDFORMAT_BEGIN
 90
        0
 91
        1
 62
     0
 92
       -2
340
0
 93
        0
 40
0.045
309
GRIDFORMAT_END
 95
       16
302
GRIDFORMAT
  1
GRIDFORMAT_BEGIN
 90
        0
 91
        1
 62
     0
 92
       -2
340
0
 93
        0
 40
0.045
309
GRIDFORMAT_END
 95
       32
302
GRIDFORMAT
  1
GRIDFORMAT_BEGIN
 90
        0
 91
        1
 62
     0
 92
       -2
340
0
 93
        0
 40
0.045
309
GRIDFORMAT_END
309
TABLEFORMAT_END
  1
CELLSTYLE_BEGIN
 90
        1
 91
        1
300
_TITLE
309
CELLSTYLE_END
300
CELLSTYLE
  1
TABLEFORMAT_BEGIN
 90
        5
170
     1
 91
        0
 92
        0
 62
   257
 93
        1
300
CONTENTFORMAT
  1
CONTENTFORMAT_BEGIN
 90
        0
 91
        0
 92
        4
 93
        0
300

 40
0.0
140
1.0
 94
        5
 62
     0
340
6A27
144
4.5
309
CONTENTFORMAT_END
171
     1
301
MARGIN
  1
CELLMARGIN_BEGIN
 40
1.5
 40
1.5
 40
1.5
 40
1.5
 40
0.18
 40
0.18
309
CELLMARGIN_END
 94
        6
 95
        1
302
GRIDFORMAT
  1
GRIDFORMAT_BEGIN
 90
        0
 91
        1
 62
     0
 92
       -2
340
0
 93
        0
 40
0.045
309
GRIDFORMAT_END
 95
        2
302
GRIDFORMAT
  1
GRIDFORMAT_BEGIN
 90
        0
 91
        1
 62
     0
 92
       -2
340
0
 93
        0
 40
0.045
309
GRIDFORMAT_END
 95
        4
302
GRIDFORMAT
  1
GRIDFORMAT_BEGIN
 90
        0
 91
        1
 62
     0
 92
       -2
340
0
 93
        0
 40
0.045
309
GRIDFORMAT_END
 95
        8
302
GRIDFORMAT
  1
GRIDFORMAT_BEGIN
 90
        0
 91
        1
 62
     0
 92
       -2
340
0
 93
        0
 40
0.045
309
GRIDFORMAT_END
 95
       16
302
GRIDFORMAT
  1
GRIDFORMAT_BEGIN
 90
        0
 91
        1
 62
     0
 92
       -2
340
0
 93
        0
 40
0.045
309
GRIDFORMAT_END
 95
       32
302
GRIDFORMAT
  1
GRIDFORMAT_BEGIN
 90
        0
 91
        1
 62
     0
 92
       -2
340
0
 93
        0
 40
0.045
309
GRIDFORMAT_END
309
TABLEFORMAT_END
  1
CELLSTYLE_BEGIN
 90
        2
 91
        1
300
_HEADER
309
CELLSTYLE_END
300
CELLSTYLE
  1
TABLEFORMAT_BEGIN
 90
        5
170
     1
 91
        0
 92
        0
 62
   257
 93
        1
300
CONTENTFORMAT
  1
CONTENTFORMAT_BEGIN
 90
        0
 91
        0
 92
        4
 93
        0
300

 40
0.0
140
1.0
 94
        2
 62
     0
340
6A27
144
4.5
309
CONTENTFORMAT_END
171
     1
301
MARGIN
  1
CELLMARGIN_BEGIN
 40
1.5
 40
1.5
 40
1.5
 40
1.5
 40
0.18
 40
0.18
309
CELLMARGIN_END
 94
        6
 95
        1
302
GRIDFORMAT
  1
GRIDFORMAT_BEGIN
 90
        0
 91
        1
 62
     0
 92
       -2
340
0
 93
        0
 40
0.045
309
GRIDFORMAT_END
 95
        2
302
GRIDFORMAT
  1
GRIDFORMAT_BEGIN
 90
        0
 91
        1
 62
     0
 92
       -2
340
0
 93
        0
 40
0.045
309
GRIDFORMAT_END
 95
        4
302
GRIDFORMAT
  1
GRIDFORMAT_BEGIN
 90
        0
 91
        1
 62
     0
 92
       -2
340
0
 93
        0
 40
0.045
309
GRIDFORMAT_END
 95
        8
302
GRIDFORMAT
  1
GRIDFORMAT_BEGIN
 90
        0
 91
        1
 62
     0
 92
       -2
340
0
 93
        0
 40
0.045
309
GRIDFORMAT_END
 95
       16
302
GRIDFORMAT
  1
GRIDFORMAT_BEGIN
 90
        0
 91
        1
 62
     0
 92
       -2
340
0
 93
        0
 40
0.045
309
GRIDFORMAT_END
 95
       32
302
GRIDFORMAT
  1
GRIDFORMAT_BEGIN
 90
        0
 91
        1
 62
     0
 92
       -2
340
0
 93
        0
 40
0.045
309
GRIDFORMAT_END
309
TABLEFORMAT_END
  1
CELLSTYLE_BEGIN
 90
        3
 91
        2
300
_DATA
309
CELLSTYLE_END
  0
XRECORD
  5
90E3
102
{ACAD_REACTORS
330
8C77
102
}
330
8C77
100
AcDbXrecord
280
     1
102
ACAD_ROUNDTRIP_PRE2007_TABLESTYLE
 90
        4
 91
        0
  1

 92
        4
 93
        0
  2

 94
        4
 95
        0
  3

  0
ENDSEC
  0
EOF
