  0
SECTION
  2
HEADER
  9
$ACADVER
  1
AC1015
  9
$ACADMAINTVER
 70
    20
  9
$DWGCODEPAGE
  3
ANSI_1252
  9
$INSBASE
 10
0.0
 20
0.0
 30
0.0
  9
$EXTMIN
 10
-40.80959680790988
 20
-28.20859961064957
 30
-0.000000000000013
  9
$EXTMAX
 10
72.18062798503002
 20
94.82761191083966
 30
0.0000000000000023
  9
$LIMMIN
 10
0.0
 20
0.0
  9
$LIMMAX
 10
210.0
 20
297.0
  9
$ORTHOMODE
 70
     0
  9
$REGENMODE
 70
     1
  9
$FILLMODE
 70
     1
  9
$QTEXTMODE
 70
     0
  9
$MIRRTEXT
 70
     1
  9
$LTSCALE
 40
1.0
  9
$ATTMODE
 70
     1
  9
$TEXTSIZE
 40
3.0
  9
$TRACEWID
 40
1.0
  9
$TEXTSTYLE
  7
STANDARD
  9
$CLAYER
  8
0
  9
$CELTYPE
  6
ByLayer
  9
$CECOLOR
 62
   256
  9
$CELTSCALE
 40
1.0
  9
$DISPSILH
 70
     0
  9
$DIMSCALE
 40
1.0
  9
$DIMASZ
 40
2.5
  9
$DIMEXO
 40
0.0
  9
$DIMDLI
 40
10.0
  9
$DIMRND
 40
0.0
  9
$DIMDLE
 40
0.0
  9
$DIMEXE
 40
1.0
  9
$DIMTP
 40
0.1
  9
$DIMTM
 40
0.1
  9
$DIMTXT
 40
3.5
  9
$DIMCEN
 40
0.0
  9
$DIMTSZ
 40
0.0
  9
$DIMTOL
 70
     0
  9
$DIMLIM
 70
     0
  9
$DIMTIH
 70
     0
  9
$DIMTOH
 70
     0
  9
$DIMSE1
 70
     0
  9
$DIMSE2
 70
     0
  9
$DIMTAD
 70
     1
  9
$DIMZIN
 70
     8
  9
$DIMBLK
  1

  9
$DIMASO
 70
     1
  9
$DIMSHO
 70
     1
  9
$DIMPOST
  1

  9
$DIMAPOST
  1
"
  9
$DIMALT
 70
     0
  9
$DIMALTD
 70
     2
  9
$DIMALTF
 40
0.0393701
  9
$DIMLFAC
 40
1.0
  9
$DIMTOFL
 70
     1
  9
$DIMTVP
 40
0.0
  9
$DIMTIX
 70
     0
  9
$DIMSOXD
 70
     0
  9
$DIMSAH
 70
     0
  9
$DIMBLK1
  1

  9
$DIMBLK2
  1

  9
$DIMSTYLE
  2
AM_DIN
  9
$DIMCLRD
 70
   256
  9
$DIMCLRE
 70
   256
  9
$DIMCLRT
 70
     2
  9
$DIMTFAC
 40
0.71
  9
$DIMGAP
 40
1.5
  9
$DIMJUST
 70
     0
  9
$DIMSD1
 70
     0
  9
$DIMSD2
 70
     0
  9
$DIMTOLJ
 70
     1
  9
$DIMTZIN
 70
     0
  9
$DIMALTZ
 70
     0
  9
$DIMALTTZ
 70
     0
  9
$DIMUPT
 70
     0
  9
$DIMDEC
 70
     1
  9
$DIMTDEC
 70
     4
  9
$DIMALTU
 70
     2
  9
$DIMALTTD
 70
     2
  9
$DIMTXSTY
  7
STANDARD
  9
$DIMAUNIT
 70
     0
  9
$DIMADEC
 70
     0
  9
$DIMALTRND
 40
0.0
  9
$DIMAZIN
 70
     0
  9
$DIMDSEP
 70
    46
  9
$DIMATFIT
 70
     3
  9
$DIMFRAC
 70
     0
  9
$DIMLDRBLK
  1

  9
$DIMLUNIT
 70
     2
  9
$DIMLWD
 70
    -2
  9
$DIMLWE
 70
    -2
  9
$DIMTMOVE
 70
     0
  9
$LUNITS
 70
     2
  9
$LUPREC
 70
     2
  9
$SKETCHINC
 40
1.0
  9
$FILLETRAD
 40
0.5
  9
$AUNITS
 70
     0
  9
$AUPREC
 70
     0
  9
$MENU
  1
.
  9
$ELEVATION
 40
0.0
  9
$PELEVATION
 40
0.0
  9
$THICKNESS
 40
0.0
  9
$LIMCHECK
 70
     0
  9
$CHAMFERA
 40
2.5
  9
$CHAMFERB
 40
2.5
  9
$CHAMFERC
 40
0.0
  9
$CHAMFERD
 40
0.0
  9
$SKPOLY
 70
     0
  9
$TDCREATE
 40
2453447.471737477
  9
$TDUCREATE
 40
2453447.388404144
  9
$TDUPDATE
 40
2455019.660076308
  9
$TDUUPDATE
 40
2455019.576742975
  9
$TDINDWG
 40
0.1965415972
  9
$TDUSRTIMER
 40
0.1965170833
  9
$USRTIMER
 70
     1
  9
$ANGBASE
 50
0.0
  9
$ANGDIR
 70
     0
  9
$PDMODE
 70
     0
  9
$PDSIZE
 40
0.0
  9
$PLINEWID
 40
0.0
  9
$SPLFRAME
 70
     0
  9
$SPLINETYPE
 70
     6
  9
$SPLINESEGS
 70
     8
  9
$HANDSEED
  5
9D3F
  9
$SURFTAB1
 70
     6
  9
$SURFTAB2
 70
     6
  9
$SURFTYPE
 70
     6
  9
$SURFU
 70
     6
  9
$SURFV
 70
     6
  9
$UCSBASE
  2

  9
$UCSNAME
  2

  9
$UCSORG
 10
0.0
 20
0.0
 30
0.0
  9
$UCSXDIR
 10
1.0
 20
0.0
 30
0.0
  9
$UCSYDIR
 10
0.0
 20
1.0
 30
0.0
  9
$UCSORTHOREF
  2

  9
$UCSORTHOVIEW
 70
     0
  9
$UCSORGTOP
 10
0.0
 20
0.0
 30
0.0
  9
$UCSORGBOTTOM
 10
0.0
 20
0.0
 30
0.0
  9
$UCSORGLEFT
 10
0.0
 20
0.0
 30
0.0
  9
$UCSORGRIGHT
 10
0.0
 20
0.0
 30
0.0
  9
$UCSORGFRONT
 10
0.0
 20
0.0
 30
0.0
  9
$UCSORGBACK
 10
0.0
 20
0.0
 30
0.0
  9
$PUCSBASE
  2

  9
$PUCSNAME
  2

  9
$PUCSORG
 10
0.0
 20
0.0
 30
0.0
  9
$PUCSXDIR
 10
1.0
 20
0.0
 30
0.0
  9
$PUCSYDIR
 10
0.0
 20
1.0
 30
0.0
  9
$PUCSORTHOREF
  2

  9
$PUCSORTHOVIEW
 70
     0
  9
$PUCSORGTOP
 10
0.0
 20
0.0
 30
0.0
  9
$PUCSORGBOTTOM
 10
0.0
 20
0.0
 30
0.0
  9
$PUCSORGLEFT
 10
0.0
 20
0.0
 30
0.0
  9
$PUCSORGRIGHT
 10
0.0
 20
0.0
 30
0.0
  9
$PUCSORGFRONT
 10
0.0
 20
0.0
 30
0.0
  9
$PUCSORGBACK
 10
0.0
 20
0.0
 30
0.0
  9
$USERI1
 70
     0
  9
$USERI2
 70
     0
  9
$USERI3
 70
     0
  9
$USERI4
 70
     0
  9
$USERI5
 70
     0
  9
$USERR1
 40
0.0
  9
$USERR2
 40
0.0
  9
$USERR3
 40
0.0
  9
$USERR4
 40
0.0
  9
$USERR5
 40
0.0
  9
$WORLDVIEW
 70
     1
  9
$SHADEDGE
 70
     3
  9
$SHADEDIF
 70
    70
  9
$TILEMODE
 70
     1
  9
$MAXACTVP
 70
    64
  9
$PINSBASE
 10
0.0
 20
0.0
 30
0.0
  9
$PLIMCHECK
 70
     0
  9
$PEXTMIN
 10
1.000000000000000E+20
 20
1.000000000000000E+20
 30
1.000000000000000E+20
  9
$PEXTMAX
 10
-1.000000000000000E+20
 20
-1.000000000000000E+20
 30
-1.000000000000000E+20
  9
$PLIMMIN
 10
0.0
 20
0.0
  9
$PLIMMAX
 10
420.0
 20
297.0
  9
$UNITMODE
 70
     0
  9
$VISRETAIN
 70
     1
  9
$PLINEGEN
 70
     0
  9
$PSLTSCALE
 70
     1
  9
$TREEDEPTH
 70
  3020
  9
$CMLSTYLE
  2
Standard
  9
$CMLJUST
 70
     0
  9
$CMLSCALE
 40
1.0
  9
$PROXYGRAPHICS
 70
     1
  9
$MEASUREMENT
 70
     0
  9
$CELWEIGHT
370
    -1
  9
$ENDCAPS
280
     0
  9
$JOINSTYLE
280
     0
  9
$LWDISPLAY
290
     0
  9
$INSUNITS
 70
     0
  9
$HYPERLINKBASE
  1

  9
$STYLESHEET
  1

  9
$XEDIT
290
     1
  9
$CEPSNTYPE
380
     0
  9
$PSTYLEMODE
290
     1
  9
$FINGERPRINTGUID
  2
{38350F98-5B41-44F8-B439-EE3A1807153A}
  9
$VERSIONGUID
  2
{F8F7835D-09CF-4116-80A4-D73A0EF339E4}
  9
$EXTNAMES
290
     1
  9
$PSVPSCALE
 40
0.0
  9
$OLESTARTUP
290
     0
  0
ENDSEC
  0
SECTION
  2
CLASSES
  0
CLASS
  1
ACDBDICTIONARYWDFLT
  2
AcDbDictionaryWithDefault
  3
ObjectDBX Classes
 90
        0
280
     0
281
     0
  0
CLASS
  1
TABLESTYLE
  2
AcDbTableStyle
  3
ObjectDBX Classes
 90
     4095
280
     0
281
     0
  0
CLASS
  1
AMGSETTINGSOBJ
  2
AmgSettingsObj
  3
"AcadM|Product Description: AutoCAD Mechanical|Company: Autodesk, Inc."
 90
     1024
280
     0
281
     0
  0
CLASS
  1
ACME_DOCUMENT
  2
AcMeDbDoc
  3
AcMeServices
 90
     1024
280
     0
281
     0
  0
CLASS
  1
ACMESCOPE
  2
AcMeScope
  3
AcMeServices
 90
     1024
280
     0
281
     0
  0
CLASS
  1
ACMECOMMANDHISTORY
  2
AcMeCommandHistory
  3
AcMeServices
 90
     1024
280
     0
281
     0
  0
CLASS
  1
ACIMSYSVARMAN
  2
AcImSysVarManager
  3
AcMeServices
 90
     1024
280
     0
281
     0
  0
CLASS
  1
ACIMINTSYSVAR
  2
AcImIntSysVar
  3
AcMeServices
 90
     1024
280
     0
281
     0
  0
CLASS
  1
ACMEDRAWINGMAN
  2
AcMeDrawingMan
  3
AcMeServices
 90
     1024
280
     0
281
     0
  0
CLASS
  1
ACMEVIEW
  2
AcMeView
  3
AcMeServices
 90
     1024
280
     0
281
     0
  0
CLASS
  1
ACDBENTITYCACHE
  2
AcMeEntityCache
  3
AcMeServices
 90
     1024
280
     0
281
     0
  0
CLASS
  1
GSMANAGER
  2
AcMeGSManager
  3
AcMeServices
 90
     1024
280
     0
281
     0
  0
CLASS
  1
AMDTINTERNALREACTOR
  2
AmdtInternalReactor
  3
AcMeServices
 90
     1024
280
     0
281
     0
  0
CLASS
  1
ACMESTATEMGR
  2
AcMeStateMgr
  3
AcMeServices
 90
     1024
280
     0
281
     0
  0
CLASS
  1
ACGREFMASTER
  2
AcGrefMaster
  3
AcAttribServices
 90
     1024
280
     0
281
     0
  0
CLASS
  1
AM_DRAWING_MGR
  2
AcDmDwgMgr
  3
AcMechDwgViewMgmt
 90
     1024
280
     0
281
     0
  0
CLASS
  1
AM_DWG_DOCUMENT
  2
AcDmDwgDocument
  3
AcMechDwgViewMgmt
 90
     1024
280
     0
281
     0
  0
CLASS
  1
AM_DWG_SHEET
  2
AcDmSheet
  3
AcMechDwgViewMgmt
 90
     1024
280
     0
281
     0
  0
CLASS
  1
AM_VIEWDIMPARMAP
  2
AcDmViewDimParMap
  3
AcMechDwgViewMgmt
 90
     1024
280
     0
281
     0
  0
CLASS
  1
ACIMREALSYSVAR
  2
AcImRealSysVar
  3
AcMeServices
 90
     1024
280
     0
281
     0
  0
CLASS
  1
AM_DWGMGR_NAME
  2
AcDmDwgMgrName
  3
AcMechDwgViewMgmt
 90
     1024
280
     0
281
     0
  0
CLASS
  1
ACME_DATABASE
  2
AcMeDbDatabase
  3
AcMeServices
 90
     1024
280
     0
281
     0
  0
CLASS
  1
ACRFINSADJUSTERMGR
  2
AcRfInsAdjusterMgr
  3
AcMeServices
 90
     1024
280
     0
281
     0
  0
CLASS
  1
ACGREFACADMASTER
  2
AcGrefacadMaster
  3
AcGrefServices
 90
     1024
280
     0
281
     0
  0
CLASS
  1
AMDTMENUSTATEMGR
  2
AmdtMenuStateMgr
  3
McadcomServices
 90
     1024
280
     0
281
     0
  0
CLASS
  1
AMDTMCOMMENUSTATE
  2
AmdtMcomMenuState
  3
McadcomServices
 90
     1024
280
     0
281
     0
  0
CLASS
  1
AMIMASTER
  2
AmiMaster
  3
AmiServices
 90
     1024
280
     0
281
     0
  0
CLASS
  1
MAPIAMMOUDLE
  2
MApiAmModule
  3
MApiAmServices
 90
     1024
280
     0
281
     0
  0
CLASS
  1
ACIMSTRSYSVAR
  2
AcImStrSysVar
  3
AcMeServices
 90
     1024
280
     0
281
     0
  0
CLASS
  1
AMDTADMENUSTATE
  2
AmdtAdMenuState
  3
DesignerServices
 90
     1024
280
     0
281
     0
  0
CLASS
  1
ADAPPL
  2
AcAdAppl
  3
DesignerServices
 90
     1024
280
     0
281
     0
  0
CLASS
  1
DEPMGR
  2
AcAdDepMgr
  3
DesignerServices
 90
     1024
280
     0
281
     0
  0
CLASS
  1
PARAMMGR
  2
AcAdParamMgr
  3
DesignerServices
 90
     1024
280
     0
281
     0
  0
CLASS
  1
PARAMSCOPE
  2
AcAdParamScope
  3
DesignerServices
 90
     1024
280
     0
281
     0
  0
CLASS
  1
NAMEDAPPL
  2
AcAdNamedAppl
  3
DesignerServices
 90
     1024
280
     0
281
     0
  0
CLASS
  1
AMDTDMMENUSTATE
  2
AmdtDmMenuState
  3
AcMechDwgViewMgmt
 90
     1024
280
     0
281
     0
  0
CLASS
  1
AMDTAMMENUSTATE
  2
AmdtAmMenuState
  3
DesignerAssemblies
 90
     1024
280
     0
281
     0
  0
CLASS
  1
ACAMPROJECT
  2
AcAmProject
  3
DesignerAssemblies
 90
     1024
280
     0
281
     0
  0
CLASS
  1
ACAMGRCOMPDEF
  2
AcAmGrCompDef
  3
DesignerAssemblies
 90
     1024
280
     0
281
     0
  0
CLASS
  1
ACCMCONTEXT
  2
AcCmContext
  3
DesignerAssemblies
 90
     1024
280
     0
281
     0
  0
CLASS
  1
ACAMCOMPDEF
  2
AcAmCompDef
  3
DesignerAssemblies
 90
     1024
280
     0
281
     0
  0
CLASS
  1
ACAMCOMPDEFMGR
  2
AcAmCompDefMgr
  3
DesignerAssemblies
 90
     1024
280
     0
281
     0
  0
CLASS
  1
AMCONTEXTMGR
  2
AcAmContextMgr
  3
DesignerAssemblies
 90
     1024
280
     0
281
     0
  0
CLASS
  1
ACAMCONTEXTMODELER
  2
AcAmContextModeler
  3
DesignerAssemblies
 90
     1024
280
     0
281
     0
  0
CLASS
  1
ACMDATADICTIONARY
  2
AcmDataDictionary
  3
"AcmSymBB|Product Description: AutoCAD Mechanical|Company: Autodesk, Inc."
 90
     1024
280
     0
281
     0
  0
CLASS
  1
CATALOGSTATE
  2
AcAmCatalogState
  3
DesignerAssemblies
 90
     1024
280
     0
281
     0
  0
CLASS
  1
ACAMGRCOMPDEFSET
  2
AcAmGrCompDefSet
  3
DesignerAssemblies
 90
     1024
280
     0
281
     0
  0
CLASS
  1
AMDTBROWSERDBTAB
  2
AmdtBrowserDbTab
  3
McadcomServices
 90
     1024
280
     0
281
     0
  0
CLASS
  1
CBROWSERAPPOBJECT
  2
CBrowserAppObject
  3
McadcomServices
 90
     1024
280
     0
281
     0
  0
CLASS
  1
DM_PLACEHOLDER
  2
AcDmSelsetPlaceholder
  3
AcMechDwgViewMgmt
 90
     1024
280
     0
281
     0
  0
CLASS
  1
ACMSTANDARDANSI
  2
AcmStandardANSI
  3
"Amdt_StdImp|Product Description: AutoCAD Mechanical|Company: Autodesk, Inc."
 90
     1024
280
     0
281
     0
  0
CLASS
  1
AMGOBJPROPCFG
  2
AmgObjPropCfg
  3
"AmgLay|Product Description: AutoCAD Mechanical|Company: Autodesk, Inc."
 90
     1025
280
     0
281
     0
  0
CLASS
  1
ACMSURFSTANDARDANSI
  2
AcmSurfTextStdANSI
  3
"Amdt_StdImp|Product Description: AutoCAD Mechanical|Company: Autodesk, Inc."
 90
     1024
280
     0
281
     0
  0
CLASS
  1
ACMFCFSTANDARDANSI
  2
AcmFCFStdANSI
  3
"Amdt_StdImp|Product Description: AutoCAD Mechanical|Company: Autodesk, Inc."
 90
     1024
280
     0
281
     0
  0
CLASS
  1
ACMWELDSTANDARDANSI
  2
AcmWeldingStdANSI
  3
"Amdt_StdImp|Product Description: AutoCAD Mechanical|Company: Autodesk, Inc."
 90
     1024
280
     0
281
     0
  0
CLASS
  1
ACMIDSTANDARDANSI
  2
AcmIdStdANSI
  3
"Amdt_StdImp|Product Description: AutoCAD Mechanical|Company: Autodesk, Inc."
 90
     1024
280
     0
281
     0
  0
CLASS
  1
ACMDATUMSTANDARDANSI
  2
AcmDatumStdANSI
  3
"Amdt_StdImp|Product Description: AutoCAD Mechanical|Company: Autodesk, Inc."
 90
     1024
280
     0
281
     0
  0
CLASS
  1
ACMBOMSTANDARDANSI
  2
AcmBOMStdANSI
  3
"Amdt_StdImp|Product Description: AutoCAD Mechanical|Company: Autodesk, Inc."
 90
     1024
280
     0
281
     0
  0
CLASS
  1
ACMDETAILSTANDARDANSI
  2
AmdtDetailSymStdANSI
  3
"Amdt_StdImp|Product Description: AutoCAD Mechanical|Company: Autodesk, Inc."
 90
     1024
280
     0
281
     0
  0
CLASS
  1
ACMSECTIONSTANDARDANSI
  2
AmdtSectionSymStdANSI
  3
"Amdt_StdImp|Product Description: AutoCAD Mechanical|Company: Autodesk, Inc."
 90
     1024
280
     0
281
     0
  0
CLASS
  1
ACMCENTERLINESTANDARDANSI
  2
AmdtCenterLineStdANSI
  3
"Amdt_StdImp|Product Description: AutoCAD Mechanical|Company: Autodesk, Inc."
 90
     1024
280
     0
281
     0
  0
CLASS
  1
ACMTHREADLINESTANDARDANSI
  2
AmdtThreadLineStdANSI
  3
"Amdt_StdImp|Product Description: AutoCAD Mechanical|Company: Autodesk, Inc."
 90
     1024
280
     0
281
     0
  0
CLASS
  1
ACMNOTESTANDARDANSI
  2
AmdtNoteStdANSI
  3
"Amdt_StdImp|Product Description: AutoCAD Mechanical|Company: Autodesk, Inc."
 90
     1024
280
     0
281
     0
  0
CLASS
  1
AMDTNOTETEMPLATEDB
  2
AmdtNoteTemplateDB
  3
AcmSymBB|Product Description: AutoCAD Mechanical|Company: Autodesk, Inc.
 90
     1024
280
     0
281
     0
  0
CLASS
  1
ACAMGLAYSTD
  2
AcAmgLayStd
  3
"AmgLay|Product Description: AutoCAD Mechanical|Company: Autodesk, Inc."
 90
     1024
280
     0
281
     0
  0
CLASS
  1
ACAMGDIMSTD
  2
AcAmgDimStd
  3
"AmgDim|Product Description: AutoCAD Mechanical|Company: Autodesk, Inc."
 90
     1024
280
     0
281
     0
  0
CLASS
  1
ACAMGHOLECHARTSTDANSI
  2
AcAmgHoleChartStdANSI
  3
AmgDim|Product Description: AutoCAD Mechanical|Company: Autodesk, Inc.
 90
     1024
280
     0
281
     0
  0
CLASS
  1
ACAMGTITLESTD
  2
AcAmgTitleStd
  3
"AmgTitle|Product Description: AutoCAD Mechanical|Company: Autodesk, Inc."
 90
     4095
280
     0
281
     0
  0
CLASS
  1
DICTIONARYVAR
  2
AcDbDictionaryVar
  3
ObjectDBX Classes
 90
        0
280
     0
281
     0
  0
CLASS
  1
MATERIAL
  2
AcDbMaterial
  3
ObjectDBX Classes
 90
     1153
280
     0
281
     0
  0
CLASS
  1
VISUALSTYLE
  2
AcDbVisualStyle
  3
ObjectDBX Classes
 90
     4095
280
     0
281
     0
  0
CLASS
  1
SCALE
  2
AcDbScale
  3
ObjectDBX Classes
 90
     1153
280
     0
281
     0
  0
CLASS
  1
MLEADERSTYLE
  2
AcDbMLeaderStyle
  3
ACDB_MLEADERSTYLE_CLASS
 90
     4095
280
     0
281
     0
  0
CLASS
  1
ACMTAPERSTANDARDANSI
  2
AcmTaperStdANSI
  3
"Amdt_StdImp|Product Description: AutoCAD Mechanical|Company: Autodesk, Inc."
 90
     1024
280
     0
281
     0
  0
CLASS
  1
ACMANOOTATIONVIEWSTANDARDANSI
  2
AmdtAnViewStdANSI
  3
"Amdt_StdImp|Product Description: AutoCAD Mechanical|Company: Autodesk, Inc."
 90
     1024
280
     0
281
     0
  0
CLASS
  1
ACAMGFILTERDAT
  2
AcAmgFilterDat
  3
"AcadM|Product Description: AutoCAD Mechanical|Company: Autodesk, Inc."
 90
    33792
280
     0
281
     0
  0
CLASS
  1
CAMSSTRUCTBTNSTATE
  2
StructBtnState
  3
DesignerAssemblies
 90
    33792
280
     0
281
     0
  0
CLASS
  1
CELLSTYLEMAP
  2
AcDbCellStyleMap
  3
ObjectDBX Classes
 90
     1152
280
     0
281
     0
  0
CLASS
  1
SORTENTSTABLE
  2
AcDbSortentsTable
  3
ObjectDBX Classes
 90
        0
280
     0
281
     0
  0
CLASS
  1
ACMSTANDARDDIN
  2
AcmStandardDIN
  3
"Amdt_StdImp|Product Description: AutoCAD Mechanical|Company: Autodesk, Inc."
 90
    33792
280
     0
281
     0
  0
CLASS
  1
ACMSURFSTANDARDDIN2002
  2
AcmSurfTextStdDIN2002
  3
"Amdt_StdImp|Product Description: AutoCAD Mechanical|Company: Autodesk, Inc."
 90
    33792
280
     0
281
     0
  0
CLASS
  1
ACMFCFSTANDARDDIN
  2
AcmFCFStdDIN
  3
"Amdt_StdImp|Product Description: AutoCAD Mechanical|Company: Autodesk, Inc."
 90
    33792
280
     0
281
     0
  0
CLASS
  1
ACMWELDSTANDARDDIN
  2
AcmWeldingStdDIN
  3
"Amdt_StdImp|Product Description: AutoCAD Mechanical|Company: Autodesk, Inc."
 90
    33792
280
     0
281
     0
  0
CLASS
  1
ACMIDSTANDARDDIN
  2
AcmIdStdDIN
  3
"Amdt_StdImp|Product Description: AutoCAD Mechanical|Company: Autodesk, Inc."
 90
    33792
280
     0
281
     0
  0
CLASS
  1
ACMDATUMSTANDARDDIN
  2
AcmDatumStdDIN
  3
"Amdt_StdImp|Product Description: AutoCAD Mechanical|Company: Autodesk, Inc."
 90
    33792
280
     0
281
     0
  0
CLASS
  1
ACMBOMSTANDARDDIN
  2
AcmBOMStdDIN
  3
"Amdt_StdImp|Product Description: AutoCAD Mechanical|Company: Autodesk, Inc."
 90
    33792
280
     0
281
     0
  0
CLASS
  1
ACMDETAILSTANDARDDIN
  2
AmdtDetailSymStdDIN
  3
"Amdt_StdImp|Product Description: AutoCAD Mechanical|Company: Autodesk, Inc."
 90
    33792
280
     0
281
     0
  0
CLASS
  1
ACMSECTIONSTANDARDDIN
  2
AmdtSectionSymStdDIN
  3
"Amdt_StdImp|Product Description: AutoCAD Mechanical|Company: Autodesk, Inc."
 90
    33792
280
     0
281
     0
  0
CLASS
  1
ACMCENTERLINESTANDARDDIN
  2
AmdtCenterLineStdDIN
  3
"Amdt_StdImp|Product Description: AutoCAD Mechanical|Company: Autodesk, Inc."
 90
    33792
280
     0
281
     0
  0
CLASS
  1
ACMTHREADLINESTANDARDDIN
  2
AmdtThreadLineStdDIN
  3
"Amdt_StdImp|Product Description: AutoCAD Mechanical|Company: Autodesk, Inc."
 90
    33792
280
     0
281
     0
  0
CLASS
  1
ACMNOTESTANDARDDIN
  2
AmdtNoteStdDIN
  3
"Amdt_StdImp|Product Description: AutoCAD Mechanical|Company: Autodesk, Inc."
 90
    33792
280
     0
281
     0
  0
CLASS
  1
ACAMGHOLECHARTSTDDIN
  2
AcAmgHoleChartStdDIN
  3
AmgDim|Product Description: AutoCAD Mechanical|Company: Autodesk, Inc.
 90
    33792
280
     0
281
     0
  0
CLASS
  1
ACMTAPERSTANDARDDIN
  2
AcmTaperStdDIN
  3
"Amdt_StdImp|Product Description: AutoCAD Mechanical|Company: Autodesk, Inc."
 90
    33792
280
     0
281
     0
  0
CLASS
  1
ACMANOOTATIONVIEWSTANDARDDIN
  2
AmdtAnViewStdDIN
  3
"Amdt_StdImp|Product Description: AutoCAD Mechanical|Company: Autodesk, Inc."
 90
    33792
280
     0
281
     0
  0
CLASS
  1
AMDTEDGESTANDARDDIN13715
  2
AmdtEdgeStdDIN13715
  3
"Amdt_StdImp|Product Description: AutoCAD Mechanical|Company: Autodesk, Inc."
 90
    33792
280
     0
281
     0
  0
CLASS
  1
ACDBPLACEHOLDER
  2
AcDbPlaceHolder
  3
ObjectDBX Classes
 90
        0
280
     0
281
     0
  0
CLASS
  1
LAYOUT
  2
AcDbLayout
  3
ObjectDBX Classes
 90
        0
280
     0
281
     0
  0
ENDSEC
  0
SECTION
  2
TABLES
  0
TABLE
  2
VPORT
  5
8C01
102
{ACAD_XDICTIONARY
360
9956
102
}
330
0
100
AcDbSymbolTable
 70
     1
  0
VPORT
  5
8D29
330
8C01
100
AcDbSymbolTableRecord
100
AcDbViewportTableRecord
  2
*Active
 70
     0
 10
0.0
 20
0.0
 11
1.0
 21
1.0
 12
84.59520159604508
 22
134.3957001946752
 13
0.0
 23
0.0
 14
2.5
 24
2.5
 15
10.0
 25
10.0
 16
0.0
 26
0.0
 36
1.0
 17
0.0
 27
0.0
 37
0.0
 40
328.9538042126916
 41
1.732692307692308
 42
50.0
 43
0.0
 44
0.0
 50
0.0
 51
0.0
 71
     0
 72
 10000
 73
     1
 74
     3
 75
     0
 76
     0
 77
     0
 78
     0
281
     0
 65
     0
110
0.0
120
0.0
130
0.0
111
1.0
121
0.0
131
0.0
112
0.0
122
1.0
132
0.0
 79
     0
146
0.0
  0
ENDTAB
  0
TABLE
  2
LTYPE
  5
8BFE
330
0
100
AcDbSymbolTable
 70
    17
  0
LTYPE
  5
8C0C
330
8BFE
100
AcDbSymbolTableRecord
100
AcDbLinetypeTableRecord
  2
ByBlock
 70
     0
  3

 72
    65
 73
     0
 40
0.0
  0
LTYPE
  5
8C0D
330
8BFE
100
AcDbSymbolTableRecord
100
AcDbLinetypeTableRecord
  2
ByLayer
 70
     0
  3

 72
    65
 73
     0
 40
0.0
  0
LTYPE
  5
8C0E
330
8BFE
100
AcDbSymbolTableRecord
100
AcDbLinetypeTableRecord
  2
CONTINUOUS
 70
     0
  3
Solid line
 72
    65
 73
     0
 40
0.0
  0
LTYPE
  5
8C20
330
8BFE
100
AcDbSymbolTableRecord
100
AcDbLinetypeTableRecord
  2
AMCONSTR
 70
     0
  3
_______________________
 72
    65
 73
     2
 40
9999.0
 49
9999.0
 74
     0
 49
0.0
 74
     0
  0
LTYPE
  5
8C21
330
8BFE
100
AcDbSymbolTableRecord
100
AcDbLinetypeTableRecord
  2
CENTER
 70
     0
  3
__ . __
 72
    65
 73
     4
 40
7.0
 49
4.0
 74
     0
 49
-1.0
 74
     0
 49
1.0
 74
     0
 49
-1.0
 74
     0
  0
LTYPE
  5
8C22
330
8BFE
100
AcDbSymbolTableRecord
100
AcDbLinetypeTableRecord
  2
PHANTOM2
 70
     0
  3
Phantom (.5x) ___ _ _ ___ _ _ ___ _ _ ___ _ _
 72
    65
 73
     6
 40
1.25
 49
0.625
 74
     0
 49
-0.125
 74
     0
 49
0.125
 74
     0
 49
-0.125
 74
     0
 49
0.125
 74
     0
 49
-0.125
 74
     0
  0
LTYPE
  5
8C23
330
8BFE
100
AcDbSymbolTableRecord
100
AcDbLinetypeTableRecord
  2
ACANSTGB
 70
     0
  3
__ . . __ . .
 72
    65
 73
     6
 40
0.35433070866
 49
0.15748031496
 74
     0
 49
-0.03937007874
 74
     0
 49
0.03937007874
 74
     0
 49
-0.03937007874
 74
     0
 49
0.03937007874
 74
     0
 49
-0.03937007874
 74
     0
  0
LTYPE
  5
8C24
330
8BFE
100
AcDbSymbolTableRecord
100
AcDbLinetypeTableRecord
  2
ACANSTGL
 70
     0
  3
_ _ _ _ _
 72
    65
 73
     2
 40
0.11811023622
 49
0.07874015748
 74
     0
 49
-0.03937007874
 74
     0
  0
LTYPE
  5
8C25
330
8BFE
100
AcDbSymbolTableRecord
100
AcDbLinetypeTableRecord
  2
DASHED
 70
     0
  3
__ __ __ __ __ __ __ __ __ __ __ __ __ __ __ __
 72
    65
 73
     2
 40
19.05
 49
12.7
 74
     0
 49
-6.349999999999997
 74
     0
  0
LTYPE
  5
8C2F
330
8BFE
100
AcDbSymbolTableRecord
100
AcDbLinetypeTableRecord
  2
HIDDEN
 70
     0
  3
Verdeckt
 72
    65
 73
     2
 40
9.525
 49
6.349999999999998
 74
     0
 49
-3.174999999999998
 74
     0
  0
LTYPE
  5
8D05
330
8BFE
100
AcDbSymbolTableRecord
100
AcDbLinetypeTableRecord
  2
CENTER2
 70
     0
  3
Center (.5x) ___ _ ___ _ ___ _ ___ _ ___ _ ___
 72
    65
 73
     4
 40
1.125
 49
0.75
 74
     0
 49
-0.125
 74
     0
 49
0.125
 74
     0
 49
-0.125
 74
     0
  0
LTYPE
  5
8D06
330
8BFE
100
AcDbSymbolTableRecord
100
AcDbLinetypeTableRecord
  2
HIDDEN2
 70
     0
  3
Hidden (.5x) _ _ _ _ _ _ _ _ _ _ _ _ _ _ _ _ _
 72
    65
 73
     2
 40
0.1875
 49
0.125
 74
     0
 49
-0.0625
 74
     0
  0
LTYPE
  5
8D09
330
8BFE
100
AcDbSymbolTableRecord
100
AcDbLinetypeTableRecord
  2
Amzigzag2
 70
     0
  3
/\/-/\/-/\/-/\/-/\/-/\/
 72
    65
 73
     2
 40
0.4401
 49
0.0001
 74
     4
 75
   136
340
8D08
 46
0.0016
 50
0.0
 44
0.0
 45
0.0
 49
-0.4400000000000001
 74
     0
  0
ENDTAB
  0
TABLE
  2
LAYER
  5
8BFB
102
{ACAD_XDICTIONARY
360
9685
102
}
330
0
100
AcDbSymbolTable
 70
    12
  0
LAYER
  5
8C09
102
{ACAD_XDICTIONARY
360
9656
102
}
330
8BFB
100
AcDbSymbolTableRecord
100
AcDbLayerTableRecord
  2
0
 70
     0
 62
     7
  6
CONTINUOUS
370
    -3
390
8C08
  0
LAYER
  5
8C30
330
8BFB
100
AcDbSymbolTableRecord
100
AcDbLayerTableRecord
  2
DEFPOINTS
 70
     0
 62
     7
  6
CONTINUOUS
290
     0
370
    -3
390
8C08
  0
LAYER
  5
8C31
102
{ACAD_XDICTIONARY
360
9658
102
}
330
8BFB
100
AcDbSymbolTableRecord
100
AcDbLayerTableRecord
  2
1
 70
     0
 62
     4
  6
CONTINUOUS
370
    -3
390
8C08
  0
LAYER
  5
8C32
102
{ACAD_XDICTIONARY
360
965A
102
}
330
8BFB
100
AcDbSymbolTableRecord
100
AcDbLayerTableRecord
  2
2
 70
     0
 62
     7
  6
CONTINUOUS
370
    -3
390
8C08
  0
LAYER
  5
8C33
102
{ACAD_XDICTIONARY
360
965C
102
}
330
8BFB
100
AcDbSymbolTableRecord
100
AcDbLayerTableRecord
  2
4
 70
     0
 62
     2
  6
CENTER
370
    -3
390
8C08
  0
LAYER
  5
8C34
102
{ACAD_XDICTIONARY
360
965E
102
}
330
8BFB
100
AcDbSymbolTableRecord
100
AcDbLayerTableRecord
  2
6
 70
     0
 62
     5
  6
CONTINUOUS
370
    -3
390
8C08
  0
LAYER
  5
8C36
102
{ACAD_XDICTIONARY
360
9662
102
}
330
8BFB
100
AcDbSymbolTableRecord
100
AcDbLayerTableRecord
  2
SK1
 70
     0
 62
     4
  6
CONTINUOUS
370
    -3
390
8C08
  0
LAYER
  5
8C37
102
{ACAD_XDICTIONARY
360
9664
102
}
330
8BFB
100
AcDbSymbolTableRecord
100
AcDbLayerTableRecord
  2
SK2
 70
     0
 62
     7
  6
CONTINUOUS
370
    -3
390
8C08
  0
LAYER
  5
8C38
102
{ACAD_XDICTIONARY
360
9666
102
}
330
8BFB
100
AcDbSymbolTableRecord
100
AcDbLayerTableRecord
  2
SK3
 70
     0
 62
     1
  6
DASHED
370
    -3
390
8C08
  0
LAYER
  5
8C39
102
{ACAD_XDICTIONARY
360
9668
102
}
330
8BFB
100
AcDbSymbolTableRecord
100
AcDbLayerTableRecord
  2
SK4
 70
     0
 62
     2
  6
CENTER
370
    -3
390
8C08
  0
LAYER
  5
8C3A
102
{ACAD_XDICTIONARY
360
966A
102
}
330
8BFB
100
AcDbSymbolTableRecord
100
AcDbLayerTableRecord
  2
CUT
 70
     0
 62
     1
  6
CONTINUOUS
370
    -3
390
8C08
  0
LAYER
  5
8C3B
102
{ACAD_XDICTIONARY
360
966C
102
}
330
8BFB
100
AcDbSymbolTableRecord
100
AcDbLayerTableRecord
  2
NOCUT
 70
     0
 62
     7
  6
CONTINUOUS
370
    -3
390
8C08
  0
ENDTAB
  0
TABLE
  2
STYLE
  5
8BFC
330
0
100
AcDbSymbolTable
 70
     4
  0
STYLE
  5
8C0A
330
8BFC
100
AcDbSymbolTableRecord
100
AcDbTextStyleTableRecord
  2
STANDARD
 70
     0
 40
0.0
 41
1.0
 50
0.0
 71
     0
 42
3.0
  3
ISOCP.SHX
  4

  0
STYLE
  5
8C3E
330
8BFC
100
AcDbSymbolTableRecord
100
AcDbTextStyleTableRecord
  2
ACANSGDT
 70
     0
 40
0.0
 41
1.0
 50
0.0
 71
     0
 42
0.2
  3
amgdt.shx
  4

  0
STYLE
  5
8D08
330
8BFC
100
AcDbSymbolTableRecord
100
AcDbTextStyleTableRecord
  2

 70
     1
 40
0.0
 41
1.0
 50
0.0
 71
     0
 42
2.5
  3
genltshp.shx
  4

  0
ENDTAB
  0
TABLE
  2
VIEW
  5
8BFF
330
0
100
AcDbSymbolTable
 70
     6
  0
VIEW
  5
8C41
330
8BFF
100
AcDbSymbolTableRecord
100
AcDbViewTableRecord
  2
AM_VIEW1
 70
     0
 40
148.5
 10
131.508173076923
 20
222.75
 41
263.0163461538461
 11
0.0
 21
0.0
 31
1.0
 12
0.0
 22
0.0
 32
0.0
 42
50.0
 43
0.0
 44
0.0
 50
0.0
 71
    16
281
     0
 72
     1
110
0.0
120
0.0
130
0.0
111
1.0
121
0.0
131
0.0
112
0.0
122
1.0
132
0.0
 79
     0
146
0.0
  0
VIEW
  5
8C42
330
8BFF
100
AcDbSymbolTableRecord
100
AcDbViewTableRecord
  2
AM_VIEW2
 70
     0
 40
148.5
 10
78.4918269230769
 20
222.75
 41
263.0163461538461
 11
0.0
 21
0.0
 31
1.0
 12
0.0
 22
0.0
 32
0.0
 42
50.0
 43
0.0
 44
0.0
 50
0.0
 71
    16
281
     0
 72
     1
110
0.0
120
0.0
130
0.0
111
1.0
121
0.0
131
0.0
112
0.0
122
1.0
132
0.0
 79
     0
146
0.0
  0
VIEW
  5
8C43
330
8BFF
100
AcDbSymbolTableRecord
100
AcDbViewTableRecord
  2
AM_VIEW3
 70
     0
 40
148.5
 10
131.508173076923
 20
74.25
 41
263.0163461538461
 11
0.0
 21
0.0
 31
1.0
 12
0.0
 22
0.0
 32
0.0
 42
50.0
 43
0.0
 44
0.0
 50
0.0
 71
    16
281
     0
 72
     1
110
0.0
120
0.0
130
0.0
111
1.0
121
0.0
131
0.0
112
0.0
122
1.0
132
0.0
 79
     0
146
0.0
  0
VIEW
  5
8C44
330
8BFF
100
AcDbSymbolTableRecord
100
AcDbViewTableRecord
  2
AM_VIEW4
 70
     0
 40
148.5
 10
78.4918269230769
 20
74.25
 41
263.0163461538461
 11
0.0
 21
0.0
 31
1.0
 12
0.0
 22
0.0
 32
0.0
 42
50.0
 43
0.0
 44
0.0
 50
0.0
 71
    16
281
     0
 72
     1
110
0.0
120
0.0
130
0.0
111
1.0
121
0.0
131
0.0
112
0.0
122
1.0
132
0.0
 79
     0
146
0.0
  0
VIEW
  5
8C45
330
8BFF
100
AcDbSymbolTableRecord
100
AcDbViewTableRecord
  2
AM_VIEW5
 70
     0
 40
148.5
 10
105.0
 20
148.5
 41
263.0163461538461
 11
0.0
 21
0.0
 31
1.0
 12
0.0
 22
0.0
 32
0.0
 42
50.0
 43
0.0
 44
0.0
 50
0.0
 71
    16
281
     0
 72
     1
110
0.0
120
0.0
130
0.0
111
1.0
121
0.0
131
0.0
112
0.0
122
1.0
132
0.0
 79
     0
146
0.0
  0
VIEW
  5
8C46
330
8BFF
100
AcDbSymbolTableRecord
100
AcDbViewTableRecord
  2
AM_VIEW6
 70
     0
 40
296.9970299999999
 10
105.0
 20
148.5
 41
526.0274319807693
 11
0.0
 21
0.0
 31
1.0
 12
0.0
 22
0.0
 32
0.0
 42
50.0
 43
0.0
 44
0.0
 50
0.0
 71
    16
281
     0
 72
     1
110
0.0
120
0.0
130
0.0
111
1.0
121
0.0
131
0.0
112
0.0
122
1.0
132
0.0
 79
     0
146
0.0
  0
ENDTAB
  0
TABLE
  2
UCS
  5
8C00
330
0
100
AcDbSymbolTable
 70
     0
  0
ENDTAB
  0
TABLE
  2
APPID
  5
8C02
330
0
100
AcDbSymbolTable
 70
    74
  0
APPID
  5
8C0B
330
8C02
100
AcDbSymbolTableRecord
100
AcDbRegAppTableRecord
  2
ACAD
 70
     0
  0
APPID
  5
8C47
330
8C02
100
AcDbSymbolTableRecord
100
AcDbRegAppTableRecord
  2
MCAD_NO_VIS
 70
     0
  0
APPID
  5
8C48
330
8C02
100
AcDbSymbolTableRecord
100
AcDbRegAppTableRecord
  2
ACAD_TEMP_GRAPHIC
 70
     0
  0
APPID
  5
8C49
330
8C02
100
AcDbSymbolTableRecord
100
AcDbRegAppTableRecord
  2
ACATTRIBSERVICES
 70
     0
  0
APPID
  5
8C4A
330
8C02
100
AcDbSymbolTableRecord
100
AcDbRegAppTableRecord
  2
GENIUS_GENDIMSH_14
 70
     0
  0
APPID
  5
8C4B
330
8C02
100
AcDbSymbolTableRecord
100
AcDbRegAppTableRecord
  2
GENIUS_GENBLLY_14
 70
     0
  0
APPID
  5
8C4C
330
8C02
100
AcDbSymbolTableRecord
100
AcDbRegAppTableRecord
  2
GENIUS_GENTRA_14
 70
     0
  0
APPID
  5
8C4D
330
8C02
100
AcDbSymbolTableRecord
100
AcDbRegAppTableRecord
  2
GENIUS_GENODEF_13
 70
     0
  0
APPID
  5
8C4E
330
8C02
100
AcDbSymbolTableRecord
100
AcDbRegAppTableRecord
  2
GENIUS_GENOLIS_13
 70
     0
  0
APPID
  5
8C4F
330
8C02
100
AcDbSymbolTableRecord
100
AcDbRegAppTableRecord
  2
GENIUS_GENOENT_13
 70
     0
  0
APPID
  5
8C50
330
8C02
100
AcDbSymbolTableRecord
100
AcDbRegAppTableRecord
  2
GENIUS_GENOBJ-N-TIT_13
 70
     0
  0
APPID
  5
8C51
330
8C02
100
AcDbSymbolTableRecord
100
AcDbRegAppTableRecord
  2
GENIUS_GENTITLE_13
 70
     0
  0
APPID
  5
8C52
330
8C02
100
AcDbSymbolTableRecord
100
AcDbRegAppTableRecord
  2
GENIUS_GENOREF_13
 70
     0
  0
APPID
  5
8C53
330
8C02
100
AcDbSymbolTableRecord
100
AcDbRegAppTableRecord
  2
GENIUS_GENSCREG_15
 70
     0
  0
APPID
  5
8C54
330
8C02
100
AcDbSymbolTableRecord
100
AcDbRegAppTableRecord
  2
GENIUS_GENOBJ-N-SDF_13
 70
     0
  0
APPID
  5
8C55
330
8C02
100
AcDbSymbolTableRecord
100
AcDbRegAppTableRecord
  2
ACADIGES
 70
     0
  0
APPID
  5
8C56
330
8C02
100
AcDbSymbolTableRecord
100
AcDbRegAppTableRecord
  2
GENIUS_GENOBJ-N-HTC_13
 70
     0
  0
APPID
  5
8C57
330
8C02
100
AcDbSymbolTableRecord
100
AcDbRegAppTableRecord
  2
GENIUS_GENHATCH_13
 70
     0
  0
APPID
  5
8C58
330
8C02
100
AcDbSymbolTableRecord
100
AcDbRegAppTableRecord
  2
GENIUS_GENOBJ-N-CEN_13
 70
     0
  0
APPID
  5
8C59
330
8C02
100
AcDbSymbolTableRecord
100
AcDbRegAppTableRecord
  2
GENIUS_GENOBJ-N-CRS_13
 70
     0
  0
APPID
  5
8C5A
330
8C02
100
AcDbSymbolTableRecord
100
AcDbRegAppTableRecord
  2
GENIUS_GENOBJ-N-FIL_13
 70
     0
  0
APPID
  5
8C5B
330
8C02
100
AcDbSymbolTableRecord
100
AcDbRegAppTableRecord
  2
GENIUS_GENDIM_13
 70
     0
  0
APPID
  5
8C5C
330
8C02
100
AcDbSymbolTableRecord
100
AcDbRegAppTableRecord
  2
GENIUS_GENDTOL_13
 70
     0
  0
APPID
  5
8C5D
330
8C02
100
AcDbSymbolTableRecord
100
AcDbRegAppTableRecord
  2
GENIUS_GE3DTOL_13
 70
     0
  0
APPID
  5
8C5E
330
8C02
100
AcDbSymbolTableRecord
100
AcDbRegAppTableRecord
  2
AD_DRAW
 70
     0
  0
APPID
  5
8C5F
330
8C02
100
AcDbSymbolTableRecord
100
AcDbRegAppTableRecord
  2
ASURF_PCURVE_APPNAME
 70
     0
  0
APPID
  5
8C60
330
8C02
100
AcDbSymbolTableRecord
100
AcDbRegAppTableRecord
  2
AMG_3D2D_5_0
 70
     0
  0
APPID
  5
8C61
330
8C02
100
AcDbSymbolTableRecord
100
AcDbRegAppTableRecord
  2
DESIGNERASSEMBLIES
 70
     0
  0
APPID
  5
8C62
330
8C02
100
AcDbSymbolTableRecord
100
AcDbRegAppTableRecord
  2
ACADM_DIM_EDIT
 70
     0
  0
APPID
  5
8C63
330
8C02
100
AcDbSymbolTableRecord
100
AcDbRegAppTableRecord
  2
AMDT_DM_ADJ
 70
     0
  0
APPID
  5
8C64
330
8C02
100
AcDbSymbolTableRecord
100
AcDbRegAppTableRecord
  2
GENIUS12
 70
     0
  0
APPID
  5
8C65
330
8C02
100
AcDbSymbolTableRecord
100
AcDbRegAppTableRecord
  2
GENIUS_GENCFG_13
 70
     0
  0
APPID
  5
8C66
330
8C02
100
AcDbSymbolTableRecord
100
AcDbRegAppTableRecord
  2
GENIUS_GENCFG0_13
 70
     0
  0
APPID
  5
8C67
330
8C02
100
AcDbSymbolTableRecord
100
AcDbRegAppTableRecord
  2
GENIUS_GENCFG1_13
 70
     0
  0
APPID
  5
8C68
330
8C02
100
AcDbSymbolTableRecord
100
AcDbRegAppTableRecord
  2
GENIUS_GENCFG2_13
 70
     0
  0
APPID
  5
8C69
330
8C02
100
AcDbSymbolTableRecord
100
AcDbRegAppTableRecord
  2
GENIUS_GENCFG3_13
 70
     0
  0
APPID
  5
8C6A
330
8C02
100
AcDbSymbolTableRecord
100
AcDbRegAppTableRecord
  2
GENIUS_GENCFG4_13
 70
     0
  0
APPID
  5
8C6B
330
8C02
100
AcDbSymbolTableRecord
100
AcDbRegAppTableRecord
  2
GENIUS_GEVCFG0_13
 70
     0
  0
APPID
  5
8C6C
330
8C02
100
AcDbSymbolTableRecord
100
AcDbRegAppTableRecord
  2
GENIUS_GENFIL_13
 70
     0
  0
APPID
  5
8C6D
330
8C02
100
AcDbSymbolTableRecord
100
AcDbRegAppTableRecord
  2
GENIUS_GENOBJ-N-CHA_13
 70
     0
  0
APPID
  5
8C6E
330
8C02
100
AcDbSymbolTableRecord
100
AcDbRegAppTableRecord
  2
GENIUS_GEFCFG0_13
 70
     0
  0
APPID
  5
8C6F
330
8C02
100
AcDbSymbolTableRecord
100
AcDbRegAppTableRecord
  2
GENIUS_GENOBJ-F-SUF_13
 70
     0
  0
APPID
  5
8C70
330
8C02
100
AcDbSymbolTableRecord
100
AcDbRegAppTableRecord
  2
ACAD_DSTYLE_DIMARC_LENGTH_
 70
     0
  0
APPID
  5
8C71
330
8C02
100
AcDbSymbolTableRecord
100
AcDbRegAppTableRecord
  2
ACAD_DSTYLE_DIMJOGGED_JOGA
 70
     0
  0
APPID
  5
8D1E
330
8C02
100
AcDbSymbolTableRecord
100
AcDbRegAppTableRecord
  2
ACAD_DSTYLE_DIMARC_LENGTH_SYMBOL
 70
     0
  0
APPID
  5
8D1F
330
8C02
100
AcDbSymbolTableRecord
100
AcDbRegAppTableRecord
  2
ACAD_DSTYLE_DIMJOGGED_JOGANGLE_SYMBOL
 70
     0
  0
APPID
  5
8D7A
330
8C02
100
AcDbSymbolTableRecord
100
AcDbRegAppTableRecord
  2
ACAD_MLEADERVER
 70
     0
  0
APPID
  5
94D2
330
8C02
100
AcDbSymbolTableRecord
100
AcDbRegAppTableRecord
  2
AcAecLayerStandard
 70
     0
  0
APPID
  5
9650
330
8C02
100
AcDbSymbolTableRecord
100
AcDbRegAppTableRecord
  2
ACAD_EXEMPT_FROM_CAD_STANDARDS
 70
     0
  0
APPID
  5
96D5
330
8C02
100
AcDbSymbolTableRecord
100
AcDbRegAppTableRecord
  2
AMG_3D2D_5.0
 70
     0
  0
APPID
  5
96D6
330
8C02
100
AcDbSymbolTableRecord
100
AcDbRegAppTableRecord
  2
GEV_VCCNULL_SWITCH_OFF
 70
     0
  0
APPID
  5
96D7
330
8C02
100
AcDbSymbolTableRecord
100
AcDbRegAppTableRecord
  2
AD_SKETCHDIM
 70
     0
  0
APPID
  5
96D8
330
8C02
100
AcDbSymbolTableRecord
100
AcDbRegAppTableRecord
  2
ACAD_DSTYLE_DIMINSPECT
 70
     0
  0
APPID
  5
96D9
330
8C02
100
AcDbSymbolTableRecord
100
AcDbRegAppTableRecord
  2
GENIUS_GENOBJ-N-RSBK_13
 70
     0
  0
APPID
  5
96DA
330
8C02
100
AcDbSymbolTableRecord
100
AcDbRegAppTableRecord
  2
GENIUS_GENOBJ-N-DIM12_13
 70
     0
  0
APPID
  5
96DB
330
8C02
100
AcDbSymbolTableRecord
100
AcDbRegAppTableRecord
  2
GENIUS_GENSCALE_13
 70
     0
  0
APPID
  5
96DC
330
8C02
100
AcDbSymbolTableRecord
100
AcDbRegAppTableRecord
  2
GENIUS_GENHINW_13
 70
     0
  0
APPID
  5
96DD
330
8C02
100
AcDbSymbolTableRecord
100
AcDbRegAppTableRecord
  2
GENIUS_GENOBJ-F-TOLL_13
 70
     0
  0
APPID
  5
96DE
330
8C02
100
AcDbSymbolTableRecord
100
AcDbRegAppTableRecord
  2
GENIUS_GEFTOLC_13
 70
     0
  0
APPID
  5
96DF
330
8C02
100
AcDbSymbolTableRecord
100
AcDbRegAppTableRecord
  2
GENIUS_GENOBJ-F-TOL_13
 70
     0
  0
APPID
  5
96E0
330
8C02
100
AcDbSymbolTableRecord
100
AcDbRegAppTableRecord
  2
GENIUS_GENOBJ-N-RSSYM_13
 70
     0
  0
APPID
  5
96E1
330
8C02
100
AcDbSymbolTableRecord
100
AcDbRegAppTableRecord
  2
GENIUS_GENSYMENT_13
 70
     0
  0
APPID
  5
96E2
330
8C02
100
AcDbSymbolTableRecord
100
AcDbRegAppTableRecord
  2
GENIUS_GENSCSYM_13
 70
     0
  0
APPID
  5
96E3
330
8C02
100
AcDbSymbolTableRecord
100
AcDbRegAppTableRecord
  2
ACAD_PSEXT
 70
     0
  0
APPID
  5
96E4
330
8C02
100
AcDbSymbolTableRecord
100
AcDbRegAppTableRecord
  2
GENIUS_GENREC_14
 70
     0
  0
APPID
  5
96E5
330
8C02
100
AcDbSymbolTableRecord
100
AcDbRegAppTableRecord
  2
GENIUS_GENOBJ-N-REC_13
 70
     0
  0
APPID
  5
96E6
330
8C02
100
AcDbSymbolTableRecord
100
AcDbRegAppTableRecord
  2
ACAD_DSTYLE_DIMTEXT_FILL
 70
     0
  0
APPID
  5
96E7
330
8C02
100
AcDbSymbolTableRecord
100
AcDbRegAppTableRecord
  2
ACAD_DSTYLE_DIMEXT_LENGTH
 70
     0
  0
APPID
  5
96E8
330
8C02
100
AcDbSymbolTableRecord
100
AcDbRegAppTableRecord
  2
ACAD_DSTYLE_DIMEXT_ENABLED
 70
     0
  0
APPID
  5
96E9
330
8C02
100
AcDbSymbolTableRecord
100
AcDbRegAppTableRecord
  2
ACAD_DSTYLE_DIM_LINETYPE
 70
     0
  0
APPID
  5
96EA
330
8C02
100
AcDbSymbolTableRecord
100
AcDbRegAppTableRecord
  2
ACAD_DSTYLE_DIM_EXT1_LINETYPE
 70
     0
  0
APPID
  5
96EB
330
8C02
100
AcDbSymbolTableRecord
100
AcDbRegAppTableRecord
  2
ACAD_DSTYLE_DIM_EXT2_LINETYPE
 70
     0
  0
APPID
  5
96EC
330
8C02
100
AcDbSymbolTableRecord
100
AcDbRegAppTableRecord
  2
ACAD_DSTYLE_DIMANGULAR_EXTENSION
 70
     0
  0
APPID
  5
984A
330
8C02
100
AcDbSymbolTableRecord
100
AcDbRegAppTableRecord
  2
ACAD_DSTYLE_DIMRADIAL_EXTENSION
 70
     0
  0
ENDTAB
  0
TABLE
  2
DIMSTYLE
  5
8C03
330
0
100
AcDbSymbolTable
 70
    10
100
AcDbDimStyleTable
 71
     1
340
8C72
  0
DIMSTYLE
105
8C72
102
{ACAD_REACTORS
330
957A
102
}
330
8C03
100
AcDbSymbolTableRecord
100
AcDbDimStyleTableRecord
  2
AM_DIN
 70
     0
  4
"
 41
2.5
 42
0.0
 43
10.0
 44
1.0
 47
0.1
 48
0.1
 73
     0
 74
     0
 77
     1
 78
     8
140
3.5
141
0.0
143
0.0393701
146
0.71
147
1.5
172
     1
176
   256
177
   256
178
     2
271
     2
272
     2
279
     2
284
     8
285
     8
286
     8
340
8C0A
  0
DIMSTYLE
105
8C73
330
8C03
100
AcDbSymbolTableRecord
100
AcDbDimStyleTableRecord
  2
STANDARD
 70
     0
271
     2
272
     2
279
     2
284
     8
285
     8
286
     8
340
8C0A
  0
DIMSTYLE
105
8C74
102
{ACAD_REACTORS
330
9CF4
102
}
330
8C03
100
AcDbSymbolTableRecord
100
AcDbDimStyleTableRecord
  2
AM_ANSI
 70
     0
  4
mm
 41
0.1
 42
0.05
 43
0.5
 44
0.1
 47
0.1
 48
0.1
 78
     7
140
0.12
141
0.0
146
0.71
147
0.06
176
   256
177
   256
178
     2
271
     2
272
     2
279
     2
284
     8
285
     8
286
     8
340
8C0A
  0
DIMSTYLE
105
8C75
330
8C03
100
AcDbSymbolTableRecord
100
AcDbDimStyleTableRecord
  2
AM_ANSI$3
 70
     0
  4
mm
 41
0.1
 42
0.05
 43
0.5
 44
0.1
 47
0.1
 48
0.1
 78
     7
140
0.12
141
0.0
146
0.71
147
0.06
176
   256
177
   256
178
     2
271
     2
272
     2
279
     2
284
     8
285
     8
286
     8
340
8C0A
  0
DIMSTYLE
105
8C76
330
8C03
100
AcDbSymbolTableRecord
100
AcDbDimStyleTableRecord
  2
AM_ANSI$4
 70
     0
  4
mm
 41
0.1
 42
0.05
 43
0.5
 44
0.1
 47
0.1
 48
0.1
 78
     7
140
0.12
141
0.0
146
0.71
147
0.06
176
   256
177
   256
178
     2
271
     2
272
     2
279
     2
284
     8
285
     8
286
     8
340
8C0A
  0
DIMSTYLE
105
8C77
330
8C03
100
AcDbSymbolTableRecord
100
AcDbDimStyleTableRecord
  2
AM_ANSI$7
 70
     0
  4
mm
 41
0.1
 42
0.05
 43
0.5
 44
0.1
 47
0.1
 48
0.1
 78
     7
140
0.24
141
0.0
146
0.71
147
0.06
176
   256
177
   256
178
     2
271
     2
272
     2
279
     2
284
     8
285
     8
286
     8
340
8C0A
  0
DIMSTYLE
105
8C78
330
8C03
100
AcDbSymbolTableRecord
100
AcDbDimStyleTableRecord
  2
AM_ANSI$SF
 70
     0
  4
mm
 41
0.1
 42
0.05
 43
0.5
 44
0.1
 47
0.1
 48
0.1
 75
     1
 76
     1
 78
     7
140
0.12
141
0.0
146
0.71
147
0.06
176
   256
177
   256
178
     2
271
     2
272
     2
279
     2
284
     8
285
     8
286
     8
340
8C0A
  0
DIMSTYLE
105
8C79
330
8C03
100
AcDbSymbolTableRecord
100
AcDbDimStyleTableRecord
  2
AM_ANSI$SH
 70
     0
  4
mm
 41
0.1
 42
0.05
 43
0.5
 44
0.1
 47
0.1
 48
0.1
 75
     1
 76
     1
 78
     7
140
0.12
141
0.0
146
0.71
147
0.06
173
     1
176
   256
177
   256
178
     2
271
     2
272
     2
279
     2
284
     8
285
     8
286
     8
340
8C0A
  0
DIMSTYLE
105
96CF
102
{ACAD_REACTORS
330
9B4B
102
}
330
8C03
100
AcDbSymbolTableRecord
100
AcDbDimStyleTableRecord
  2
AM_DIN$4
 70
     0
  4
"
 41
3.5
 42
1.0
 43
10.0
 44
1.0
 47
0.1
 48
0.1
 73
     0
 74
     0
 77
     1
 78
     8
 79
     2
140
3.5
141
0.0
143
0.0393701
146
0.71
147
1.5
172
     1
176
   256
177
   256
178
   140
271
     2
272
     3
274
     4
283
     0
284
     8
340
8C0A
371
    -1
372
    -1
1001
ACAD_DSTYLE_DIMJOGGED_JOGANGLE_SYMBOL
1070
   384
1040
1.570796326794896
1001
ACAD_DSTYLE_DIM_LINETYPE
1070
   380
1005
8C0C
1001
ACAD_DSTYLE_DIM_EXT1_LINETYPE
1070
   381
1005
8C0C
1001
ACAD_DSTYLE_DIM_EXT2_LINETYPE
1070
   382
1005
8C0C
  0
DIMSTYLE
105
96D4
102
{ACAD_REACTORS
330
9756
330
977F
330
97C4
330
97F7
102
}
330
8C03
100
AcDbSymbolTableRecord
100
AcDbDimStyleTableRecord
  2
AM_DIN$0
 70
     0
  4
"
 41
2.5
 42
0.0
 43
10.0
 44
1.0
 47
0.1
 48
0.1
 73
     0
 74
     0
 77
     1
 78
     8
140
3.5
141
0.0
143
0.0393701
146
0.71
147
1.5
172
     1
176
   256
177
   256
178
     2
271
     2
272
     2
279
     2
284
     8
285
     8
286
     8
340
8C0A
  0
ENDTAB
  0
TABLE
  2
BLOCK_RECORD
  5
8BFA
330
0
100
AcDbSymbolTable
 70
     7
  0
BLOCK_RECORD
  5
8C1B
102
{ACAD_XDICTIONARY
360
969B
102
}
330
8BFA
100
AcDbSymbolTableRecord
100
AcDbBlockTableRecord
  2
*Model_Space
340
8C1E
  0
BLOCK_RECORD
  5
8C17
330
8BFA
100
AcDbSymbolTableRecord
100
AcDbBlockTableRecord
  2
*Paper_Space
340
8C1A
  0
BLOCK_RECORD
  5
95C5
330
8BFA
100
AcDbSymbolTableRecord
100
AcDbBlockTableRecord
  2
*D0
340
0
  0
BLOCK_RECORD
  5
9757
330
8BFA
100
AcDbSymbolTableRecord
100
AcDbBlockTableRecord
  2
*D1
340
0
  0
BLOCK_RECORD
  5
9780
330
8BFA
100
AcDbSymbolTableRecord
100
AcDbBlockTableRecord
  2
*D2
340
0
  0
BLOCK_RECORD
  5
97C5
330
8BFA
100
AcDbSymbolTableRecord
100
AcDbBlockTableRecord
  2
*D3
340
0
  0
BLOCK_RECORD
  5
97F8
330
8BFA
100
AcDbSymbolTableRecord
100
AcDbBlockTableRecord
  2
*D4
340
0
  0
BLOCK_RECORD
  5
9B4C
330
8BFA
100
AcDbSymbolTableRecord
100
AcDbBlockTableRecord
  2
*D5
340
0
  0
ENDTAB
  0
ENDSEC
  0
SECTION
  2
BLOCKS
  0
BLOCK
  5
8C1C
330
8C1B
100
AcDbEntity
  8
0
100
AcDbBlockBegin
  2
*Model_Space
 70
     0
 10
0.0
 20
0.0
 30
0.0
  3
*Model_Space
  1

  0
ENDBLK
  5
8C1D
330
8C1B
100
AcDbEntity
  8
0
100
AcDbBlockEnd
  0
BLOCK
  5
8C18
330
8C17
100
AcDbEntity
 67
     1
  8
0
100
AcDbBlockBegin
  2
*Paper_Space
 70
     0
 10
0.0
 20
0.0
 30
0.0
  3
*Paper_Space
  1

  0
ENDBLK
  5
8C19
330
8C17
100
AcDbEntity
 67
     1
  8
0
100
AcDbBlockEnd
  0
BLOCK
  5
95C6
330
95C5
100
AcDbEntity
  8
0
100
AcDbBlockBegin
  2
*D0
 70
     1
 10
0.0
 20
0.0
 30
0.0
  3
*D0
  1

  0
LINE
  5
990C
330
95C5
100
AcDbEntity
  8
SK2
370
    -2
100
AcDbLine
 10
-20.79999999999998
 20
-5.999999999999971
 30
0.0
 11
-36.68219530374589
 21
-5.999999999999967
 31
0.0
  0
LINE
  5
990D
330
95C5
100
AcDbEntity
  8
SK2
370
    -2
100
AcDbLine
 10
-20.79999999999998
 20
6.000000000000028
 30
0.0
 11
-36.68219530374589
 21
6.000000000000032
 31
0.0
  0
LINE
  5
990E
330
95C5
100
AcDbEntity
  8
SK2
370
    -2
100
AcDbLine
 10
-35.68219530374589
 20
-3.499999999999967
 30
0.0
 11
-35.68219530374589
 21
3.500000000000032
 31
0.0
  0
MTEXT
  5
990F
330
95C5
100
AcDbEntity
  8
SK2
 62
     2
100
AcDbMText
 10
-39.21983582243937
 20
0.0000000000000284
 30
0.0
 40
3.5
 41
0.0
 71
     5
 72
     1
  1
\A1;M12
 11
0.0000000000000001
 21
1.0
 31
0.0
 73
     1
 44
1.0
1001
ACAD
1000
MTEXTBEGIN
1070
    73
1070
     1
1070
    44
1040
1.0
1070
    74
1070
     0
1000
MTEXTEND
  0
SOLID
  5
9910
330
95C5
100
AcDbEntity
  8
SK2
100
AcDbTrace
 10
-36.09886197041255
 20
-3.499999999999967
 30
0.0
 11
-35.26552863707922
 21
-3.499999999999967
 31
0.0
 12
-35.68219530374589
 22
-5.999999999999967
 32
0.0
 13
-35.68219530374589
 23
-5.999999999999967
 33
0.0
  0
SOLID
  5
9911
330
95C5
100
AcDbEntity
  8
SK2
100
AcDbTrace
 10
-36.09886197041255
 20
3.500000000000032
 30
0.0
 11
-35.26552863707922
 21
3.500000000000032
 31
0.0
 12
-35.68219530374589
 22
6.000000000000032
 32
0.0
 13
-35.68219530374589
 23
6.000000000000032
 33
0.0
  0
POINT
  5
9912
330
95C5
100
AcDbEntity
  8
DEFPOINTS
 62
     0
100
AcDbPoint
 10
-20.79999999999998
 20
-5.999999999999971
 30
0.0
  0
POINT
  5
9913
330
95C5
100
AcDbEntity
  8
DEFPOINTS
 62
     0
100
AcDbPoint
 10
-20.79999999999998
 20
6.000000000000028
 30
0.0
  0
POINT
  5
9914
330
95C5
100
AcDbEntity
  8
DEFPOINTS
 62
     0
100
AcDbPoint
 10
-35.68219530374589
 20
6.000000000000032
 30
0.0
  0
ENDBLK
  5
95C7
330
95C5
100
AcDbEntity
  8
0
100
AcDbBlockEnd
  0
BLOCK
  5
9758
330
9757
100
AcDbEntity
  8
0
100
AcDbBlockBegin
  2
*D1
 70
     1
 10
0.0
 20
0.0
 30
0.0
  3
*D1
  1

  0
LINE
  5
9B1F
330
9757
100
AcDbEntity
  8
2
370
    -2
100
AcDbLine
 10
-0.0000000000000284
 20
10.50000000000003
 30
0.0
 11
-0.0000000000000244
 21
76.00000000000003
 31
0.0
  0
LINE
  5
9B20
330
9757
100
AcDbEntity
  8
2
370
    -2
100
AcDbLine
 10
35.0
 20
10.56192392365241
 30
0.0
 11
35.00000000000001
 21
76.00000000000003
 31
0.0
  0
LINE
  5
9B21
330
9757
100
AcDbEntity
  8
2
370
    -2
100
AcDbLine
 10
2.499999999999975
 20
75.00000000000003
 30
0.0
 11
32.50000000000001
 21
75.00000000000003
 31
0.0
  0
SOLID
  5
9B22
330
9757
100
AcDbEntity
  8
2
100
AcDbTrace
 10
2.499999999999975
 20
75.4166666666667
 30
0.0
 11
2.499999999999975
 21
74.58333333333335
 31
0.0
 12
-0.0000000000000245
 22
75.00000000000003
 32
0.0
 13
-0.0000000000000245
 23
75.00000000000003
 33
0.0
  0
SOLID
  5
9B23
330
9757
100
AcDbEntity
  8
2
100
AcDbTrace
 10
32.50000000000001
 20
75.4166666666667
 30
0.0
 11
32.50000000000001
 21
74.58333333333335
 31
0.0
 12
35.00000000000001
 22
75.00000000000003
 32
0.0
 13
35.00000000000001
 23
75.00000000000003
 33
0.0
  0
MTEXT
  5
9B24
330
9757
100
AcDbEntity
  8
2
 62
     2
100
AcDbMText
 10
17.49999999999999
 20
78.25000000000002
 30
0.0
 40
3.5
 41
0.0
 71
     5
 72
     1
  1
\A1;35
 73
     1
 44
1.0
1001
ACAD
1000
MTEXTBEGIN
1070
    73
1070
     1
1070
    44
1040
1.0
1070
    74
1070
     0
1000
MTEXTEND
  0
POINT
  5
9B25
330
9757
100
AcDbEntity
  8
DEFPOINTS
 62
     0
100
AcDbPoint
 10
-0.0000000000000284
 20
10.50000000000003
 30
0.0
  0
POINT
  5
9B26
330
9757
100
AcDbEntity
  8
DEFPOINTS
 62
     0
100
AcDbPoint
 10
35.0
 20
10.56192392365241
 30
0.0
  0
POINT
  5
9B27
330
9757
100
AcDbEntity
  8
DEFPOINTS
 62
     0
100
AcDbPoint
 10
35.00000000000001
 20
75.00000000000003
 30
0.0
  0
ENDBLK
  5
9759
330
9757
100
AcDbEntity
  8
0
100
AcDbBlockEnd
  0
BLOCK
  5
9781
330
9780
100
AcDbEntity
  8
0
100
AcDbBlockBegin
  2
*D2
 70
     1
 10
0.0
 20
0.0
 30
0.0
  3
*D2
  1

  0
LINE
  5
9C36
330
9780
100
AcDbEntity
  8
2
370
    -2
100
AcDbLine
 10
35.34462827684606
 20
10.48618826786365
 30
0.0
 11
35.34462827684607
 21
91.00000000000003
 31
0.0
  0
LINE
  5
9C37
330
9780
100
AcDbEntity
  8
2
370
    -2
100
AcDbLine
 10
-0.0000000000000284
 20
10.50000000000003
 30
0.0
 11
-0.0000000000000235
 21
91.00000000000003
 31
0.0
  0
LINE
  5
9C38
330
9780
100
AcDbEntity
  8
2
370
    -2
100
AcDbLine
 10
32.84462827684607
 20
90.00000000000003
 30
0.0
 11
2.499999999999976
 21
90.00000000000003
 31
0.0
  0
SOLID
  5
9C39
330
9780
100
AcDbEntity
  8
2
100
AcDbTrace
 10
32.84462827684607
 20
90.41666666666669
 30
0.0
 11
32.84462827684607
 21
89.58333333333335
 31
0.0
 12
35.34462827684607
 22
90.00000000000003
 32
0.0
 13
35.34462827684607
 23
90.00000000000003
 33
0.0
  0
SOLID
  5
9C3A
330
9780
100
AcDbEntity
  8
2
100
AcDbTrace
 10
2.499999999999976
 20
90.41666666666669
 30
0.0
 11
2.499999999999976
 21
89.58333333333335
 31
0.0
 12
-0.0000000000000236
 22
90.00000000000003
 32
0.0
 13
-0.0000000000000236
 23
90.00000000000003
 33
0.0
  0
MTEXT
  5
9C3B
330
9780
100
AcDbEntity
  8
2
 62
     2
100
AcDbMText
 10
17.76267035969798
 20
93.25000000000002
 30
0.0
 40
3.5
 41
0.0
 71
     5
 72
     1
  1
\A1;35.3
 73
     1
 44
1.0
1001
ACAD
1000
MTEXTBEGIN
1070
    73
1070
     1
1070
    44
1040
1.0
1070
    74
1070
     0
1000
MTEXTEND
  0
POINT
  5
9C3C
330
9780
100
AcDbEntity
  8
DEFPOINTS
 62
     0
100
AcDbPoint
 10
35.34462827684606
 20
10.48618826786365
 30
0.0
  0
POINT
  5
9C3D
330
9780
100
AcDbEntity
  8
DEFPOINTS
 62
     0
100
AcDbPoint
 10
-0.0000000000000284
 20
10.50000000000003
 30
0.0
  0
POINT
  5
9C3E
330
9780
100
AcDbEntity
  8
DEFPOINTS
 62
     0
100
AcDbPoint
 10
-0.0000000000000236
 20
90.00000000000003
 30
0.0
  0
ENDBLK
  5
9782
330
9780
100
AcDbEntity
  8
0
100
AcDbBlockEnd
  0
BLOCK
  5
97C6
330
97C5
100
AcDbEntity
  8
0
100
AcDbBlockBegin
  2
*D3
 70
     1
 10
0.0
 20
0.0
 30
0.0
  3
*D3
  1

  0
LINE
  5
9C24
330
97C5
100
AcDbEntity
  8
2
370
    -2
100
AcDbLine
 10
32.75775986267603
 20
13.15000000000003
 30
0.0
 11
72.17577602818327
 21
13.15000000000001
 31
0.0
  0
LINE
  5
9C25
330
97C5
100
AcDbEntity
  8
2
370
    -2
100
AcDbLine
 10
32.75775986267601
 20
-13.15000000000003
 30
0.0
 11
72.17577602818327
 21
-13.15000000000004
 31
0.0
  0
LINE
  5
9C26
330
97C5
100
AcDbEntity
  8
2
370
    -2
100
AcDbLine
 10
71.17577602818326
 20
10.65000000000001
 30
0.0
 11
71.17577602818326
 21
-10.65000000000003
 31
0.0
  0
SOLID
  5
9C27
330
97C5
100
AcDbEntity
  8
2
100
AcDbTrace
 10
70.75910936151659
 20
10.65000000000001
 30
0.0
 11
71.59244269484993
 21
10.65000000000001
 31
0.0
 12
71.17577602818326
 22
13.15000000000001
 32
0.0
 13
71.17577602818326
 23
13.15000000000001
 33
0.0
  0
SOLID
  5
9C28
330
97C5
100
AcDbEntity
  8
2
100
AcDbTrace
 10
70.75910936151659
 20
-10.65000000000003
 30
0.0
 11
71.59244269484993
 21
-10.65000000000003
 31
0.0
 12
71.17577602818326
 22
-13.15000000000004
 32
0.0
 13
71.17577602818326
 23
-13.15000000000004
 33
0.0
  0
MTEXT
  5
9C29
330
97C5
100
AcDbEntity
  8
2
 62
     2
100
AcDbMText
 10
67.92543153999429
 20
0.0000000000000014
 30
0.0
 40
3.5
 41
0.0
 71
     5
 72
     1
  1
\A1;%%c26.3
 11
0.0000000000000001
 21
1.0
 31
0.0
 73
     1
 44
1.0
1001
ACAD
1000
MTEXTBEGIN
1070
    73
1070
     1
1070
    44
1040
1.0
1070
    74
1070
     0
1000
MTEXTEND
  0
POINT
  5
9C2A
330
97C5
100
AcDbEntity
  8
DEFPOINTS
 62
     0
100
AcDbPoint
 10
32.75775986267603
 20
13.15000000000003
 30
0.0
  0
POINT
  5
9C2B
330
97C5
100
AcDbEntity
  8
DEFPOINTS
 62
     0
100
AcDbPoint
 10
32.75775986267601
 20
-13.15000000000003
 30
0.0
  0
POINT
  5
9C2C
330
97C5
100
AcDbEntity
  8
DEFPOINTS
 62
     0
100
AcDbPoint
 10
71.17577602818326
 20
-13.15000000000004
 30
0.0
  0
ENDBLK
  5
97C7
330
97C5
100
AcDbEntity
  8
0
100
AcDbBlockEnd
  0
BLOCK
  5
97F9
330
97F8
100
AcDbEntity
  8
0
100
AcDbBlockBegin
  2
*D4
 70
     1
 10
0.0
 20
0.0
 30
0.0
  3
*D4
  1

  0
LINE
  5
9B40
330
97F8
100
AcDbEntity
  8
2
370
    -2
100
AcDbLine
 10
32.83043387815265
 20
12.50000000000003
 30
0.0
 11
54.60397680071153
 21
12.50000000000002
 31
0.0
  0
LINE
  5
9B41
330
97F8
100
AcDbEntity
  8
2
370
    -2
100
AcDbLine
 10
32.83043387815265
 20
-12.49999999999997
 30
0.0
 11
54.60397680071153
 21
-12.49999999999998
 31
0.0
  0
LINE
  5
9B42
330
97F8
100
AcDbEntity
  8
2
370
    -2
100
AcDbLine
 10
53.60397680071153
 20
10.00000000000002
 30
0.0
 11
53.60397680071153
 21
-9.999999999999978
 31
0.0
  0
SOLID
  5
9B43
330
97F8
100
AcDbEntity
  8
2
100
AcDbTrace
 10
53.18731013404487
 20
10.00000000000002
 30
0.0
 11
54.02064346737819
 21
10.00000000000002
 31
0.0
 12
53.60397680071153
 22
12.50000000000002
 32
0.0
 13
53.60397680071153
 23
12.50000000000002
 33
0.0
  0
SOLID
  5
9B44
330
97F8
100
AcDbEntity
  8
2
100
AcDbTrace
 10
53.18731013404487
 20
-9.999999999999978
 30
0.0
 11
54.02064346737819
 21
-9.999999999999978
 31
0.0
 12
53.60397680071153
 22
-12.49999999999998
 32
0.0
 13
53.60397680071153
 23
-12.49999999999998
 33
0.0
  0
MTEXT
  5
9B45
330
97F8
100
AcDbEntity
  8
2
 62
     2
100
AcDbMText
 10
50.35363231252255
 20
0.0000000000000309
 30
0.0
 40
3.5
 41
0.0
 71
     5
 72
     1
  1
\A1;%%c25
 11
0.0000000000000001
 21
1.0
 31
0.0
 73
     1
 44
1.0
1001
ACAD
1000
MTEXTBEGIN
1070
    73
1070
     1
1070
    44
1040
1.0
1070
    74
1070
     0
1000
MTEXTEND
  0
POINT
  5
9B46
330
97F8
100
AcDbEntity
  8
DEFPOINTS
 62
     0
100
AcDbPoint
 10
32.83043387815265
 20
12.50000000000003
 30
0.0
  0
POINT
  5
9B47
330
97F8
100
AcDbEntity
  8
DEFPOINTS
 62
     0
100
AcDbPoint
 10
32.83043387815265
 20
-12.49999999999997
 30
0.0
  0
POINT
  5
9B48
330
97F8
100
AcDbEntity
  8
DEFPOINTS
 62
     0
100
AcDbPoint
 10
53.60397680071153
 20
-12.49999999999998
 30
0.0
  0
ENDBLK
  5
97FA
330
97F8
100
AcDbEntity
  8
0
100
AcDbBlockEnd
  0
BLOCK
  5
9B4D
330
9B4C
100
AcDbEntity
  8
0
100
AcDbBlockBegin
  2
*D5
 70
     1
 10
0.0
 20
0.0
 30
0.0
  3
*D5
  1

  0
LINE
  5
9B6E
330
9B4C
100
AcDbEntity
  8
2
  6
ByBlock
100
AcDbLine
 10
42.97160642521633
 20
-21.93161924115519
 30
0.0
 11
35.80972163811295
 21
-13.70118690874707
 31
0.0
  0
MTEXT
  5
9B6F
330
9B4C
100
AcDbEntity
  8
2
 62
   140
100
AcDbMText
 10
42.99142429682105
 20
-17.00291379735048
 30
0.0
 40
3.5
 41
0.0
 71
     5
 72
     1
  1
R2
 11
0.6564389647865543
 21
-0.7543791391004639
 31
0.0
 73
     1
 44
1.0
1001
ACAD
1000
MTEXTBEGIN
1070
    73
1070
     1
1070
    44
1040
1.0
1070
    74
1070
     0
1000
MTEXTEND
  0
SOLID
  5
9B70
330
9B4C
100
AcDbEntity
  8
2
100
AcDbTrace
 10
36.24977613592155
 20
-13.31826417928825
 30
0.0
 11
35.36966714030434
 21
-14.08410963820589
 31
0.0
 12
33.51218526136
 22
-11.06085992189544
 32
0.0
 13
33.51218526136
 23
-11.06085992189544
 33
0.0
  0
POINT
  5
9B71
330
9B4C
100
AcDbEntity
  8
DEFPOINTS
 62
     0
100
AcDbPoint
 10
33.51218526136
 20
-11.06085992189544
 30
0.0
  0
POINT
  5
9B72
330
9B4C
100
AcDbEntity
  8
DEFPOINTS
 62
     0
100
AcDbPoint
 10
34.8165213295767
 20
-12.55980189978205
 30
0.0
  0
ENDBLK
  5
9B4E
330
9B4C
100
AcDbEntity
  8
0
100
AcDbBlockEnd
  0
ENDSEC
  0
SECTION
  2
ENTITIES
  0
TEXT
  5
8688
330
8C1B
100
AcDbEntity
  8
6
100
AcDbText
 10
41.83755731830351
 20
-3.633416396835286
 30
0.0
 40
3.5
  1
Z=2
 50
90.0
100
AcDbText
  0
LINE
  5
9564
330
8C1B
100
AcDbEntity
  8
1
100
AcDbLine
 10
15.33999999994168
 20
-10.50000000000017
 30
0.0
 11
-0.0000000000000284
 21
-10.49999999999997
 31
0.0
  0
LINE
  5
9565
330
8C1B
100
AcDbEntity
  8
1
100
AcDbLine
 10
-0.0000000000000284
 20
-10.49999999999997
 30
0.0
 11
-0.0000000000000284
 21
10.50000000000003
 31
0.0
  0
LINE
  5
9566
330
8C1B
100
AcDbEntity
  8
1
100
AcDbLine
 10
-0.0000000000000284
 20
10.50000000000003
 30
0.0
 11
15.33999999994134
 21
10.5
 31
0.0
  0
LINE
  5
9567
330
8C1B
100
AcDbEntity
  8
1
100
AcDbLine
 10
3.999999999999971
 20
-8.499999999999971
 30
0.0
 11
3.999999999999971
 21
8.500000000000028
 31
0.0
  0
LINE
  5
9568
330
8C1B
100
AcDbEntity
  8
1
100
AcDbLine
 10
3.999999999999971
 20
-8.499999999999971
 30
0.0
 11
13.99999999999997
 21
-8.499999999999971
 31
0.0
  0
LINE
  5
9569
330
8C1B
100
AcDbEntity
  8
1
100
AcDbLine
 10
3.999999999999971
 20
8.500000000000028
 30
0.0
 11
13.99999999999997
 21
8.500000000000028
 31
0.0
  0
LINE
  5
956A
330
8C1B
100
AcDbEntity
  8
1
100
AcDbLine
 10
13.99999999999997
 20
-8.499999999999971
 30
0.0
 11
13.99999999999997
 21
8.500000000000028
 31
0.0
  0
LINE
  5
956B
330
8C1B
100
AcDbEntity
  8
1
100
AcDbLine
 10
13.99999999999997
 20
8.500000000000028
 30
0.0
 11
3.999999999999971
 21
-8.499999999999971
 31
0.0
  0
LINE
  5
956C
330
8C1B
100
AcDbEntity
  8
1
100
AcDbLine
 10
13.99999999999997
 20
-8.499999999999971
 30
0.0
 11
3.999999999999971
 21
8.500000000000028
 31
0.0
  0
LINE
  5
956D
330
8C1B
100
AcDbEntity
  8
SK1
100
AcDbLine
 10
-0.0000000000000284
 20
-6.249999999999971
 30
0.0
 11
-5.900000000000005
 21
-6.249999999999971
 31
0.0
  0
LINE
  5
956E
330
8C1B
100
AcDbEntity
  8
SK1
100
AcDbLine
 10
-5.900000000000005
 20
-6.249999999999971
 30
0.0
 11
-5.900000000000005
 21
6.250000000000028
 31
0.0
  0
LINE
  5
956F
330
8C1B
100
AcDbEntity
  8
SK1
100
AcDbLine
 10
-5.900000000000005
 20
6.250000000000028
 30
0.0
 11
-0.0000000000000284
 21
6.250000000000028
 31
0.0
  0
LINE
  5
9570
330
8C1B
100
AcDbEntity
  8
SK1
100
AcDbLine
 10
-1.000000000000028
 20
-6.249999999999971
 30
0.0
 11
-1.000000000000028
 21
0.0000000000000284
 31
0.0
  0
LINE
  5
9571
330
8C1B
100
AcDbEntity
  8
SK1
100
AcDbLine
 10
-5.900000000000005
 20
-5.999999999999971
 30
0.0
 11
-20.79999999999998
 21
-5.999999999999971
 31
0.0
  0
LINE
  5
9572
330
8C1B
100
AcDbEntity
  8
SK1
100
AcDbLine
 10
-20.79999999999998
 20
-5.999999999999971
 30
0.0
 11
-21.90000000000001
 21
-4.899999999999948
 31
0.0
  0
LINE
  5
9573
330
8C1B
100
AcDbEntity
  8
SK1
100
AcDbLine
 10
-21.90000000000001
 20
-4.899999999999948
 30
0.0
 11
-5.900000000000005
 21
-4.899999999999977
 31
0.0
  0
LINE
  5
9574
330
8C1B
100
AcDbEntity
  8
SK1
100
AcDbLine
 10
-21.90000000000001
 20
4.900000000000005
 30
0.0
 11
-5.900000000000005
 21
4.900000000000034
 31
0.0
  0
LINE
  5
9575
330
8C1B
100
AcDbEntity
  8
SK1
100
AcDbLine
 10
-5.900000000000005
 20
6.000000000000028
 30
0.0
 11
-20.79999999999998
 21
6.000000000000028
 31
0.0
  0
LINE
  5
9576
330
8C1B
100
AcDbEntity
  8
SK1
100
AcDbLine
 10
-20.79999999999998
 20
6.000000000000028
 30
0.0
 11
-21.90000000000001
 21
4.900000000000005
 31
0.0
  0
LINE
  5
9577
330
8C1B
100
AcDbEntity
  8
SK1
100
AcDbLine
 10
-20.79999999999998
 20
-5.999999999999971
 30
0.0
 11
-20.79999999999998
 21
6.000000000000028
 31
0.0
  0
LINE
  5
9578
330
8C1B
100
AcDbEntity
  8
SK1
100
AcDbLine
 10
-21.90000000000001
 20
4.900000000000005
 30
0.0
 11
-21.90000000000001
 21
-4.899999999999948
 31
0.0
  0
LINE
  5
9579
330
8C1B
100
AcDbEntity
  8
SK4
100
AcDbLine
 10
-22.9907026003082
 20
0.0000000000000284
 30
0.0
 11
-0.0000000000000284
 21
0.0000000000000284
 31
0.0
1001
GENIUS_GENOBJ-N-CEN_13
1002
{
1000
OWNER
1000
GEN
1002
}
1001
GENIUS_GENODEF_13
1002
{
1000
HIER
1070
     0
1002
}
1002
{
1000
MANEDIT
1070
     0
1002
}
1002
{
1000
NOSEL
1070
     0
1002
}
1002
{
1000
BEHIND
1070
     0
1002
}
1002
{
1000
OTHER
1070
     0
1002
}
1002
{
1000
REACTOR
1002
}
  0
DIMENSION
  5
957A
330
8C1B
100
AcDbEntity
  8
SK2
100
AcDbDimension
  2
*D0
 10
-35.68219530374589
 20
6.000000000000032
 30
0.0
 11
-39.21983582243937
 21
0.0000000000000284
 31
0.0
 70
   160
  1
M<>
 71
     5
 42
12.0
  3
AM_DIN
100
AcDbAlignedDimension
 13
-20.79999999999998
 23
-5.999999999999971
 33
0.0
 14
-20.79999999999998
 24
6.000000000000028
 34
0.0
 50
270.0
100
AcDbRotatedDimension
  0
LINE
  5
957B
330
8C1B
100
AcDbEntity
  8
4
100
AcDbLine
 10
-0.0000000000000284
 20
0.0000000000000284
 30
0.0
 11
35.36166056714364
 21
0.0000000000000284
 31
0.0
1001
GENIUS_GENOBJ-N-CEN_13
1002
{
1000
OWNER
1000
GEN
1002
}
1001
GENIUS_GENODEF_13
1002
{
1000
HIER
1070
     0
1002
}
1002
{
1000
MANEDIT
1070
     0
1002
}
1002
{
1000
NOSEL
1070
     0
1002
}
1002
{
1000
BEHIND
1070
     0
1002
}
1002
{
1000
OTHER
1070
     0
1002
}
1002
{
1000
REACTOR
1002
}
  0
LINE
  5
957C
330
8C1B
100
AcDbEntity
  8
SK1
100
AcDbLine
 10
-1.000000000000028
 20
0.0000000000000284
 30
0.0
 11
-1.000000000000028
 21
6.250000000000028
 31
0.0
  0
LINE
  5
957D
330
8C1B
100
AcDbEntity
  8
SK1
100
AcDbLine
 10
1.490941791985534
 20
0.0000000000000284
 30
0.0
 11
-1.490941791985591
 21
0.0000000000000284
 31
0.0
  0
CIRCLE
  5
957E
330
8C1B
100
AcDbEntity
  8
SK1
100
AcDbCircle
 10
0.0
 20
0.0
 30
0.0
 40
1.490941791985552
  0
LINE
  5
957F
330
8C1B
100
AcDbEntity
  8
SK1
100
AcDbLine
 10
-0.0000000000000284
 20
-1.490941791985534
 30
0.0
 11
-0.0000000000000284
 21
1.490941791985591
 31
0.0
  0
LINE
  5
964B
330
8C1B
100
AcDbEntity
  8
1
100
AcDbLine
 10
17.67469480631288
 20
12.03960000000006
 30
0.0
 11
22.72261870642132
 21
12.03960000000006
 31
0.0
  0
LINE
  5
964D
330
8C1B
100
AcDbEntity
  8
1
100
AcDbLine
 10
33.74801188045424
 20
-8.522314155137195
 30
0.0
 11
33.74801188045424
 21
2.037500000000754
 31
0.0
  0
ARC
  5
964E
330
8C1B
100
AcDbEntity
  8
1
100
AcDbCircle
 10
15.33999999994134
 20
13.03999999964225
 30
0.0
 40
2.539999999642213
100
AcDbArc
 50
270.0
 51
336.8052138544078
  0
LINE
  5
9678
330
8C1B
100
AcDbEntity
  8
1
100
AcDbLine
 10
17.67469480631319
 20
-12.03960000000015
 30
0.0
 11
30.58103348133548
 21
-12.03959999999978
 31
0.0
  0
LINE
  5
9679
330
8C1B
100
AcDbEntity
  8
1
100
AcDbLine
 10
30.58103348133548
 20
-12.03959999999978
 30
0.0
 11
33.74801188045424
 21
-8.522314155137195
 31
0.0
  0
ARC
  5
967A
330
8C1B
100
AcDbEntity
  8
1
100
AcDbCircle
 10
15.33999999994168
 20
-13.03999999964239
 30
0.0
 40
2.539999999642213
100
AcDbArc
 50
23.19478614559438
 51
90.0
  0
LINE
  5
967C
330
8C1B
100
AcDbEntity
  8
NOCUT
100
AcDbLine
 10
15.33999999994168
 20
-10.5000000000002
 30
0.0
 11
0.0
 21
-10.5
 31
0.0
  0
LINE
  5
967D
330
8C1B
100
AcDbEntity
  8
NOCUT
100
AcDbLine
 10
0.0
 20
-10.5
 30
0.0
 11
0.0
 21
0.0
 31
0.0
  0
LINE
  5
967E
330
8C1B
100
AcDbEntity
  8
NOCUT
100
AcDbLine
 10
0.0
 20
0.0
 30
0.0
 11
33.74801188045427
 21
0.0
 31
0.0
1001
GENIUS_GENOBJ-N-CEN_13
1002
{
1000
OWNER
1000
GEN
1002
}
1001
GENIUS_GENODEF_13
1002
{
1000
HIER
1070
     0
1002
}
1002
{
1000
MANEDIT
1070
     0
1002
}
1002
{
1000
NOSEL
1070
     0
1002
}
1002
{
1000
BEHIND
1070
     0
1002
}
1002
{
1000
OTHER
1070
     0
1002
}
1002
{
1000
REACTOR
1002
}
  0
LINE
  5
967F
330
8C1B
100
AcDbEntity
  8
NOCUT
100
AcDbLine
 10
33.74801188045427
 20
-8.522314155137223
 30
0.0
 11
33.74801188045427
 21
0.0
 31
0.0
  0
LINE
  5
9680
330
8C1B
100
AcDbEntity
  8
NOCUT
100
AcDbLine
 10
17.67469480631322
 20
-12.03960000000018
 30
0.0
 11
30.58103348133554
 21
-12.03959999999981
 31
0.0
  0
LINE
  5
9681
330
8C1B
100
AcDbEntity
  8
NOCUT
100
AcDbLine
 10
30.58103348133554
 20
-12.03959999999981
 30
0.0
 11
33.74801188045427
 21
-8.522314155137223
 31
0.0
  0
ARC
  5
9682
330
8C1B
100
AcDbEntity
  8
NOCUT
100
AcDbCircle
 10
15.33999999994168
 20
-13.03999999964242
 30
0.0
 40
2.539999999642213
100
AcDbArc
 50
23.19478614559438
 51
90.0
  0
CIRCLE
  5
9723
330
8C1B
100
AcDbEntity
  8
1
100
AcDbCircle
 10
28.38665438471617
 20
7.593750000000362
 30
0.0
 40
3.225799999999795
  0
LINE
  5
9724
330
8C1B
100
AcDbEntity
  8
1
100
AcDbLine
 10
22.91841218579913
 20
13.15000000000003
 30
0.0
 11
32.75775986267603
 21
13.15000000000003
 31
0.0
  0
LINE
  5
9725
330
8C1B
100
AcDbEntity
  8
1
100
AcDbLine
 10
22.91841218579913
 20
13.15000000000003
 30
0.0
 11
21.42868049258646
 21
4.701311732137011
 31
0.0
  0
LINE
  5
9729
330
8C1B
100
AcDbEntity
  8
1
100
AcDbLine
 10
33.85489658363344
 20
2.037500000000754
 30
0.0
 11
24.01554890675629
 21
2.037500000000754
 31
0.0
  0
LINE
  5
972A
330
8C1B
100
AcDbEntity
  8
1
100
AcDbLine
 10
33.85489658363344
 20
2.037500000000754
 30
0.0
 11
35.34462827684606
 21
10.48618826786365
 31
0.0
  0
LINE
  5
972E
330
8C1B
100
AcDbEntity
  8
CUT
100
AcDbLine
 10
22.91841218579913
 20
13.15000000000003
 30
0.0
 11
32.75775986267603
 21
13.15000000000003
 31
0.0
  0
LINE
  5
972F
330
8C1B
100
AcDbEntity
  8
CUT
100
AcDbLine
 10
22.91841218579913
 20
13.15000000000003
 30
0.0
 11
21.42868049258646
 21
4.701311732137011
 31
0.0
  0
LINE
  5
9733
330
8C1B
100
AcDbEntity
  8
CUT
100
AcDbLine
 10
33.85489658363344
 20
2.037500000000754
 30
0.0
 11
24.01554890675629
 21
2.037500000000754
 31
0.0
  0
LINE
  5
9734
330
8C1B
100
AcDbEntity
  8
CUT
100
AcDbLine
 10
33.85489658363344
 20
2.037500000000754
 30
0.0
 11
35.34462827684606
 21
10.48618826786365
 31
0.0
  0
CIRCLE
  5
9738
330
8C1B
100
AcDbEntity
  8
SK3
 48
0.3
100
AcDbCircle
 10
28.38665438471617
 20
-7.593750000000362
 30
0.0
 40
3.225799999999795
  0
LINE
  5
9739
330
8C1B
100
AcDbEntity
  8
1
100
AcDbLine
 10
22.91841218579913
 20
-13.15000000000003
 30
0.0
 11
32.75775986267601
 21
-13.15000000000003
 31
0.0
  0
LINE
  5
973A
330
8C1B
100
AcDbEntity
  8
1
100
AcDbLine
 10
22.91841218579913
 20
-13.15000000000003
 30
0.0
 11
22.72261870642134
 21
-12.0396
 31
0.0
  0
LINE
  5
973E
330
8C1B
100
AcDbEntity
  8
1
100
AcDbLine
 10
33.85489658363344
 20
-2.037500000000754
 30
0.0
 11
33.74801188045424
 21
-2.037500000000754
 31
0.0
  0
LINE
  5
973F
330
8C1B
100
AcDbEntity
  8
1
100
AcDbLine
 10
33.85489658363344
 20
-2.037500000000754
 30
0.0
 11
35.34462827684605
 21
-10.48618826786359
 31
0.0
  0
LINE
  5
9743
330
8C1B
100
AcDbEntity
  8
SK3
 48
0.3
100
AcDbLine
 10
22.72261870642134
 20
-12.0396
 30
0.0
 11
21.42868049258646
 21
-4.701311732136956
 31
0.0
  0
LINE
  5
9744
330
8C1B
100
AcDbEntity
  8
SK3
 48
0.3
100
AcDbLine
 10
33.74801188045422
 20
-2.037500000000754
 30
0.0
 11
24.01554890675628
 21
-2.037500000000754
 31
0.0
  0
LINE
  5
9747
330
8C1B
100
AcDbEntity
  8
1
100
AcDbLine
 10
33.74801188045424
 20
0.866677137612271
 30
0.0
 11
20.38207889512185
 21
0.866677137612271
 31
0.0
  0
LINE
  5
9748
330
8C1B
100
AcDbEntity
  8
1
100
AcDbLine
 10
18.54837566382665
 20
12.03960000000006
 30
0.0
 11
18.54837566382665
 21
3.01952792868559
 31
0.0
  0
ARC
  5
9749
330
8C1B
100
AcDbEntity
  8
1
100
AcDbCircle
 10
20.72899953267341
 20
3.01952792868559
 30
0.0
 40
2.180623868846765
100
AcDbArc
 50
179.9999999999996
 51
260.8457814478228
  0
LINE
  5
974E
330
8C1B
100
AcDbEntity
  8
SK3
 48
0.2
100
AcDbLine
 10
33.74801188045424
 20
-0.8666771376122142
 30
0.0
 11
20.38207889512185
 21
-0.8666771376122142
 31
0.0
  0
LINE
  5
974F
330
8C1B
100
AcDbEntity
  8
SK3
 48
0.2
100
AcDbLine
 10
18.54837566382665
 20
-12.03960000000001
 30
0.0
 11
18.54837566382665
 21
-3.019527928685533
 31
0.0
  0
ARC
  5
9750
330
8C1B
100
AcDbEntity
  8
SK3
 48
0.2
100
AcDbCircle
 10
20.72899953267341
 20
-3.019527928685533
 30
0.0
 40
2.180623868846765
100
AcDbArc
 50
99.1542185521772
 51
180.0
  0
LINE
  5
9752
330
8C1B
100
AcDbEntity
  8
4
100
AcDbLine
 10
15.53329866909828
 20
0.0000000000000284
 30
0.0
 11
24.45070092779912
 21
4.39326604356961
 31
0.0
  0
LINE
  5
9753
330
8C1B
100
AcDbEntity
  8
4
100
AcDbLine
 10
15.53329866909828
 20
0.0000000000000284
 30
0.0
 11
24.45070092779912
 21
-4.393266043569553
 31
0.0
  0
DIMENSION
  5
9756
330
8C1B
100
AcDbEntity
  8
2
100
AcDbDimension
  2
*D1
 10
35.00000000000001
 20
75.00000000000003
 30
0.0
 11
17.49999999999999
 21
78.25000000000002
 31
0.0
 70
    32
 71
     5
 42
35.00000000000003
  3
AM_DIN$0
100
AcDbAlignedDimension
 13
-0.0000000000000284
 23
10.50000000000003
 33
0.0
 14
35.0
 24
10.56192392365241
 34
0.0
100
AcDbRotatedDimension
1001
ACAD
1000
DSTYLE
1002
{
1070
   271
1070
     4
1070
   272
1070
     4
1070
   279
1070
     0
1070
   284
1070
     0
1070
   285
1070
     0
1070
   286
1070
     0
1002
}
1001
ACAD_DSTYLE_DIMINSPECT
1070
   396
1000
100%
1070
   395
1000

1070
   394
1070
    33
1070
   393
1070
     0
  0
DIMENSION
  5
977F
330
8C1B
100
AcDbEntity
  8
2
100
AcDbDimension
  2
*D2
 10
-0.0000000000000236
 20
90.00000000000003
 30
0.0
 11
17.76267035969798
 21
90.00000000000003
 31
0.0
 70
   160
 71
     5
 42
35.34462827684609
  3
AM_DIN$0
100
AcDbAlignedDimension
 13
35.34462827684606
 23
10.48618826786365
 33
0.0
 14
-0.0000000000000284
 24
10.50000000000003
 34
0.0
100
AcDbRotatedDimension
1001
ACAD_DSTYLE_DIMINSPECT
1070
   396
1000
100%
1070
   395
1000

1070
   394
1070
    33
1070
   393
1070
     0
1001
ACAD
1000
DSTYLE
1002
{
1070
   271
1070
     1
1070
   272
1070
     4
1070
   279
1070
     0
1070
   285
1070
     0
1002
}
  0
TEXT
  5
97C3
330
8C1B
100
AcDbEntity
  8
6
100
AcDbText
 10
8.291025076355737
 20
71.09992566500688
 30
0.0
 40
3.5
  1
Nennmaß
100
AcDbText
  0
DIMENSION
  5
97C4
330
8C1B
100
AcDbEntity
  8
2
100
AcDbDimension
  2
*D3
 10
71.17577602818326
 20
-13.15000000000004
 30
0.0
 11
67.92543153999429
 21
0.0000000000000014
 31
0.0
 70
    32
  1
%%c<>
 71
     5
 42
26.30000000000006
  3
AM_DIN$0
100
AcDbAlignedDimension
 13
32.75775986267603
 23
13.15000000000003
 33
0.0
 14
32.75775986267601
 24
-13.15000000000003
 34
0.0
 50
90.0
100
AcDbRotatedDimension
1001
ACAD
1000
DSTYLE
1002
{
1070
   271
1070
     4
1070
   272
1070
     4
1070
   279
1070
     0
1070
   284
1070
     0
1070
   285
1070
     0
1070
   286
1070
     0
1002
}
1001
ACAD_DSTYLE_DIMINSPECT
1070
   396
1000
100%
1070
   395
1000

1070
   394
1070
    33
1070
   393
1070
     0
  0
DIMENSION
  5
97F7
330
8C1B
100
AcDbEntity
  8
2
100
AcDbDimension
  2
*D4
 10
53.60397680071153
 20
-12.49999999999998
 30
0.0
 11
50.35363231252255
 21
0.0000000000000309
 31
0.0
 70
    32
  1
%%c<>
 71
     5
 42
25.0
  3
AM_DIN$0
100
AcDbAlignedDimension
 13
32.83043387815265
 23
12.50000000000003
 33
0.0
 14
32.83043387815265
 24
-12.49999999999997
 34
0.0
 50
90.0
100
AcDbRotatedDimension
1001
ACAD
1000
DSTYLE
1002
{
1070
   271
1070
     4
1070
   272
1070
     4
1070
   279
1070
     0
1070
   284
1070
     0
1070
   285
1070
     0
1070
   286
1070
     0
1002
}
1001
ACAD_DSTYLE_DIMINSPECT
1070
   396
1000
100%
1070
   395
1000

1070
   394
1070
    33
1070
   393
1070
     0
  0
TEXT
  5
9828
330
8C1B
100
AcDbEntity
  8
6
100
AcDbText
 10
58.60398953283723
 20
-10.39947400446152
 30
0.0
 40
2.7
  1
Nenndurchmesser
 50
90.0
 41
0.8
100
AcDbText
  0
TEXT
  5
9832
330
8C1B
100
AcDbEntity
  8
6
100
AcDbText
 10
37.05973485285424
 20
18.04088633595455
 30
0.0
 40
2.5
  1
BEEW120320R-CR
100
AcDbText
  0
TEXT
  5
9833
330
8C1B
100
AcDbEntity
  8
6
100
AcDbText
 10
-0.9548757334316633
 20
-22.72931460431917
 30
0.0
 40
3.5
  1
15R1V025035X7R00
100
AcDbText
  0
ARC
  5
9AE6
330
8C1B
100
AcDbEntity
  8
1
100
AcDbCircle
 10
34.81652132957669
 20
12.55980189978211
 30
0.0
 40
1.986987577193566
100
AcDbArc
 50
180.0000000169342
 51
269.7058909572015
  0
ARC
  5
9AE7
330
8C1B
100
AcDbEntity
  8
1
100
AcDbCircle
 10
30.23036120207076
 20
12.54318022719476
 30
0.0
 40
2.599225697452372
100
AcDbArc
 50
0.3664007115833042
 51
13.50096537417952
  0
ARC
  5
9AE8
330
8C1B
100
AcDbEntity
  8
1
100
AcDbCircle
 10
34.80703023598659
 20
8.861864614807579
 30
0.0
 40
1.710976032390096
100
AcDbArc
 50
71.68714414664382
 51
90.02372262539402
  0
ARC
  5
9AE9
330
8C1B
100
AcDbEntity
  8
1
100
AcDbCircle
 10
21.95678743985565
 20
2.627698100218616
 30
0.0
 40
1.986987577193566
100
AcDbArc
 50
0.0000000169358176
 51
89.70589095720148
  0
ARC
  5
9AEA
330
8C1B
100
AcDbEntity
  8
1
100
AcDbCircle
 10
26.54294756736158
 20
2.644319772805964
 30
0.0
 40
2.599225697452372
100
AcDbArc
 50
180.3664007115832
 51
193.5009653741781
  0
ARC
  5
9AEB
330
8C1B
100
AcDbEntity
  8
1
100
AcDbCircle
 10
21.96627853344574
 20
6.325635385193145
 30
0.0
 40
1.710976032390096
100
AcDbArc
 50
251.6871441466506
 51
270.023722625394
  0
ARC
  5
9AEC
330
8C1B
100
AcDbEntity
  8
CUT
100
AcDbCircle
 10
34.81652132957669
 20
12.55980189978211
 30
0.0
 40
1.986987577193566
100
AcDbArc
 50
180.0000000169342
 51
269.7058909572015
  0
ARC
  5
9AED
330
8C1B
100
AcDbEntity
  8
CUT
100
AcDbCircle
 10
30.23036120207076
 20
12.54318022719476
 30
0.0
 40
2.599225697452372
100
AcDbArc
 50
0.3664007115833042
 51
13.50096537417952
  0
ARC
  5
9AEE
330
8C1B
100
AcDbEntity
  8
CUT
100
AcDbCircle
 10
34.80703023598659
 20
8.861864614807579
 30
0.0
 40
1.710976032390096
100
AcDbArc
 50
71.68714414664382
 51
90.02372262539402
  0
ARC
  5
9AEF
330
8C1B
100
AcDbEntity
  8
CUT
100
AcDbCircle
 10
21.95678743985565
 20
2.627698100218616
 30
0.0
 40
1.986987577193566
100
AcDbArc
 50
0.0000000169358176
 51
89.70589095720148
  0
ARC
  5
9AF0
330
8C1B
100
AcDbEntity
  8
CUT
100
AcDbCircle
 10
26.54294756736158
 20
2.644319772805964
 30
0.0
 40
2.599225697452372
100
AcDbArc
 50
180.3664007115832
 51
193.5009653741781
  0
ARC
  5
9AF1
330
8C1B
100
AcDbEntity
  8
CUT
100
AcDbCircle
 10
21.96627853344574
 20
6.325635385193145
 30
0.0
 40
1.710976032390096
100
AcDbArc
 50
251.6871441466506
 51
270.023722625394
  0
ARC
  5
9B28
330
8C1B
100
AcDbEntity
  8
1
100
AcDbCircle
 10
34.81652132957669
 20
-12.55980189978205
 30
0.0
 40
1.986987577193566
100
AcDbArc
 50
90.29410904279849
 51
179.9999999830658
  0
ARC
  5
9B29
330
8C1B
100
AcDbEntity
  8
1
100
AcDbCircle
 10
30.23036120207076
 20
-12.5431802271947
 30
0.0
 40
2.599225697452372
100
AcDbArc
 50
346.4990346258192
 51
359.6335992884167
  0
ARC
  5
9B2A
330
8C1B
100
AcDbEntity
  8
1
100
AcDbCircle
 10
34.80703023598659
 20
-8.861864614807522
 30
0.0
 40
1.710976032390096
100
AcDbArc
 50
269.9762773746059
 51
288.3128558533557
  0
ARC
  5
9B2B
330
8C1B
100
AcDbEntity
  8
SK3
100
AcDbCircle
 10
21.95678743985565
 20
-2.627698100218559
 30
0.0
 40
1.986987577193566
100
AcDbArc
 50
270.2941090427986
 51
359.9999999830642
  0
ARC
  5
9B2C
330
8C1B
100
AcDbEntity
  8
SK3
100
AcDbCircle
 10
26.54294756736158
 20
-2.644319772805907
 30
0.0
 40
2.599225697452372
100
AcDbArc
 50
166.499034625823
 51
179.6335992884167
  0
ARC
  5
9B2D
330
8C1B
100
AcDbEntity
  8
SK3
100
AcDbCircle
 10
21.96627853344574
 20
-6.325635385193088
 30
0.0
 40
1.710976032390096
100
AcDbArc
 50
89.97627737460597
 51
108.3128558533495
  0
DIMENSION
  5
9B4B
330
8C1B
100
AcDbEntity
  8
2
100
AcDbDimension
  2
*D5
 10
34.8165213295767
 20
-12.55980189978205
 30
0.0
 11
40.5394322200411
 21
-19.13656656837693
 31
0.0
 70
   164
 71
     5
 42
1.986987577193573
  3
AM_DIN$4
100
AcDbRadialDimension
 15
33.51218526136
 25
-11.06085992189544
 35
0.0
 40
0.0
1001
ACAD
1000
DSTYLE
1002
{
1070
    50
1040
1.570796326794896
1070
   271
1070
     1
1070
   272
1070
     4
1070
   279
1070
     0
1070
   284
1070
     0
1070
   285
1070
     0
1070
   286
1070
     0
1070
   345
1005
8C0C
1070
   346
1005
8C0C
1070
   347
1005
8C0C
1002
}
1001
ACAD_DSTYLE_DIMRADIAL_EXTENSION
1070
   387
1070
     1
1070
   388
1040
1.575929497951619
1070
   390
1040
3.141592653294235
1001
ACAD_DSTYLE_DIMINSPECT
1070
   396
1000
100%
1070
   395
1000

1070
   394
1070
    33
1070
   393
1070
     0
  0
TEXT
  5
9C16
330
8C1B
100
AcDbEntity
  8
6
100
AcDbText
 10
19.64956315791414
 20
-28.36839498067914
 30
0.0
 40
3.5
  1
mit R2
100
AcDbText
  0
LINE
  5
9C18
330
8C1B
100
AcDbEntity
  8
1
100
AcDbLine
 10
17.67469480631321
 20
-12.03960000000011
 30
0.0
 11
17.6746948063129
 21
12.03960000000006
 31
0.0
  0
ENDSEC
  0
SECTION
  2
OBJECTS
  0
DICTIONARY
  5
8C05
330
0
100
AcDbDictionary
281
     1
  3
ACAD_2007HEADERVARS_RT
350
9D32
  3
ACAD_COLOR
350
8C14
  3
ACAD_GROUP
350
8C06
  3
ACAD_LAYOUT
350
8C12
  3
ACAD_MATERIAL
350
8C13
  3
ACAD_MLEADERSTYLE
350
8D78
  3
ACAD_MLINESTYLE
350
8C0F
  3
ACAD_PLOTSETTINGS
350
8C11
  3
ACAD_PLOTSTYLENAME
350
8C07
  3
ACAD_SCALELIST
350
8D56
  3
ACAD_TABLESTYLE
350
8C15
  3
ACAD_VISUALSTYLE
350
8D45
  3
ACDB_RECOMPOSE_DATA
350
9954
  3
AcDbVariableDictionary
350
8D2A
  3
AcmDictionary
350
8CF4
  3
AMG
350
8CA2
  3
AMGSNAPSETTINGS
350
94C8
  3
DWGPROPS
350
9D31
  0
DICTIONARY
  5
9956
330
8C01
100
AcDbDictionary
280
     1
281
     1
  0
DICTIONARY
  5
9685
330
8BFB
100
AcDbDictionary
280
     1
281
     1
  3
AMLAYER_GROUPCOLORS
360
9686
  0
DICTIONARY
  5
9656
330
8C09
100
AcDbDictionary
280
     1
281
     1
  3
ADSK_XREC_LAYER_RECONCILED
360
9657
  0
DICTIONARY
  5
9658
330
8C31
100
AcDbDictionary
280
     1
281
     1
  3
ADSK_XREC_LAYER_RECONCILED
360
9659
  0
DICTIONARY
  5
965A
330
8C32
100
AcDbDictionary
280
     1
281
     1
  3
ADSK_XREC_LAYER_RECONCILED
360
965B
  0
DICTIONARY
  5
965C
330
8C33
100
AcDbDictionary
280
     1
281
     1
  3
ADSK_XREC_LAYER_RECONCILED
360
965D
  0
DICTIONARY
  5
965E
330
8C34
100
AcDbDictionary
280
     1
281
     1
  3
ADSK_XREC_LAYER_RECONCILED
360
965F
  0
DICTIONARY
  5
9662
330
8C36
100
AcDbDictionary
280
     1
281
     1
  3
ADSK_XREC_LAYER_RECONCILED
360
9663
  0
DICTIONARY
  5
9664
330
8C37
100
AcDbDictionary
280
     1
281
     1
  3
ADSK_XREC_LAYER_RECONCILED
360
9665
  0
DICTIONARY
  5
9666
330
8C38
100
AcDbDictionary
280
     1
281
     1
  3
ADSK_XREC_LAYER_RECONCILED
360
9667
  0
DICTIONARY
  5
9668
330
8C39
100
AcDbDictionary
280
     1
281
     1
  3
ADSK_XREC_LAYER_RECONCILED
360
9669
  0
DICTIONARY
  5
966A
330
8C3A
100
AcDbDictionary
280
     1
281
     1
  3
ADSK_XREC_LAYER_RECONCILED
360
966B
  0
DICTIONARY
  5
966C
330
8C3B
100
AcDbDictionary
280
     1
281
     1
  3
ADSK_XREC_LAYER_RECONCILED
360
966D
  0
DICTIONARY
  5
969B
330
8C1B
100
AcDbDictionary
280
     1
281
     1
  3
ACAD_SORTENTS
360
969C
  0
DICTIONARY
  5
9D32
102
{ACAD_REACTORS
330
8C05
102
}
330
8C05
100
AcDbDictionary
281
     1
  3
DIMJOGANG
350
9D33
  3
DIMLTEX1
350
9D35
  3
DIMLTEX2
350
9D36
  3
DIMLTYPE
350
9D34
  0
DICTIONARY
  5
8C14
102
{ACAD_REACTORS
330
8C05
102
}
330
8C05
100
AcDbDictionary
281
     1
  0
DICTIONARY
  5
8C06
102
{ACAD_REACTORS
330
8C05
102
}
330
8C05
100
AcDbDictionary
281
     1
  0
DICTIONARY
  5
8C12
102
{ACAD_REACTORS
330
8C05
102
}
330
8C05
100
AcDbDictionary
281
     1
  3
Layout1
350
8C1A
  3
Model
350
8C1E
  0
DICTIONARY
  5
8C13
102
{ACAD_REACTORS
330
8C05
102
}
330
8C05
100
AcDbDictionary
281
     1
  3
ByBlock
350
8D35
  3
ByLayer
350
8D2D
  3
Global
350
8D3D
  0
DICTIONARY
  5
8D78
102
{ACAD_REACTORS
330
8C05
102
}
330
8C05
100
AcDbDictionary
281
     1
  3
Standard
350
8D79
  0
DICTIONARY
  5
8C0F
102
{ACAD_REACTORS
330
8C05
102
}
330
8C05
100
AcDbDictionary
281
     1
  3
Standard
350
8C10
  0
DICTIONARY
  5
8C11
102
{ACAD_REACTORS
330
8C05
102
}
330
8C05
100
AcDbDictionary
281
     1
  0
ACDBDICTIONARYWDFLT
  5
8C07
102
{ACAD_REACTORS
330
8C05
102
}
330
8C05
100
AcDbDictionary
281
     1
  3
Normal
350
8C08
100
AcDbDictionaryWithDefault
340
8C08
  0
DICTIONARY
  5
8D56
102
{ACAD_REACTORS
330
8C05
102
}
330
8C05
100
AcDbDictionary
281
     1
  3
A0
350
8D57
  3
A1
350
8D58
  3
A2
350
8D59
  3
A3
350
8D5A
  3
A4
350
8D5B
  3
A5
350
8D5C
  3
A6
350
8D5D
  3
A7
350
8D5E
  3
A8
350
8D5F
  3
A9
350
8D60
  3
B0
350
8D61
  3
B1
350
8D62
  3
B2
350
8D63
  3
B3
350
8D64
  3
B4
350
8D65
  3
B5
350
8D66
  3
B6
350
8D67
  3
B7
350
8D68
  3
B8
350
8D69
  3
B9
350
8D6A
  3
C0
350
8D6B
  3
C1
350
8D6C
  3
C2
350
8D6D
  3
C3
350
8D6E
  3
C4
350
8D6F
  3
C5
350
8D70
  3
C6
350
8D71
  3
C7
350
8D72
  3
C8
350
8D73
  3
C9
350
8D74
  3
D0
350
8D75
  3
D1
350
8D76
  3
D2
350
8D77
  0
DICTIONARY
  5
8C15
102
{ACAD_REACTORS
330
8C05
102
}
330
8C05
100
AcDbDictionary
281
     1
  3
Standard
350
8C16
  0
DICTIONARY
  5
8D45
102
{ACAD_REACTORS
330
8C05
102
}
330
8C05
100
AcDbDictionary
281
     1
  3
2dWireframe
350
8D4B
  3
3D Hidden
350
8D4D
  3
3dWireframe
350
8D4C
  3
Basic
350
8D4A
  3
Brighten
350
8D51
  3
ColorChange
350
8D55
  3
Conceptual
350
8D4E
  3
Dim
350
8D50
  3
Facepattern
350
8D54
  3
Flat
350
8D46
  3
FlatWithEdges
350
8D47
  3
Gouraud
350
8D48
  3
GouraudWithEdges
350
8D49
  3
Linepattern
350
8D53
  3
Realistic
350
8D4F
  3
Thicken
350
8D52
  0
XRECORD
  5
9954
102
{ACAD_REACTORS
330
8C05
102
}
330
8C05
100
AcDbXrecord
280
     1
 90
        1
330
8C16
  0
DICTIONARY
  5
8D2A
102
{ACAD_REACTORS
330
8C05
102
}
330
8C05
100
AcDbDictionary
281
     1
  3
CANNOSCALE
350
996E
  3
CMLEADERSTYLE
350
996D
  3
CTABLESTYLE
350
8D2B
  3
DIMASSOC
350
9971
  3
INDEXCTL
350
9970
  3
SORTENTS
350
996F
  0
DICTIONARY
  5
8CF4
102
{ACAD_REACTORS
330
8C05
102
}
330
8C05
100
AcDbDictionary
281
     1
  3
AcmStdDictionary
350
8CFD
  3
AMDTSECTSYM_ARROWCOLOR
350
8D15
  0
DICTIONARY
  5
8CA2
102
{ACAD_REACTORS
330
8C05
102
}
330
8C05
100
AcDbDictionary
281
     1
  0
DICTIONARY
  5
94C8
102
{ACAD_REACTORS
330
8C05
102
}
330
8C05
100
AcDbDictionary
281
     1
  0
XRECORD
  5
9D31
102
{ACAD_REACTORS
330
8C05
102
}
330
8C05
100
AcDbXrecord
280
     1
  1
DWGPROPS COOKIE
  2

  3

  4

  6

  7

  8
Bernd Dutschke
  9

300
=
301
=
302
=
303
=
304
=
305
=
306
=
307
=
308
=
309
=
 40
0.196541412037037
 41
2453447.471737477
 42
2455019.660076308
  1

 90
        0
  0
DICTIONARY
  5
9686
102
{ACAD_REACTORS
330
9685
102
}
330
9685
100
AcDbDictionary
280
     1
281
     1
  0
XRECORD
  5
9657
102
{ACAD_REACTORS
330
9656
102
}
330
9656
100
AcDbXrecord
280
     1
290
     1
  0
XRECORD
  5
9659
102
{ACAD_REACTORS
330
9658
102
}
330
9658
100
AcDbXrecord
280
     1
290
     1
  0
XRECORD
  5
965B
102
{ACAD_REACTORS
330
965A
102
}
330
965A
100
AcDbXrecord
280
     1
290
     1
  0
XRECORD
  5
965D
102
{ACAD_REACTORS
330
965C
102
}
330
965C
100
AcDbXrecord
280
     1
290
     1
  0
XRECORD
  5
965F
102
{ACAD_REACTORS
330
965E
102
}
330
965E
100
AcDbXrecord
280
     1
290
     1
  0
XRECORD
  5
9663
102
{ACAD_REACTORS
330
9662
102
}
330
9662
100
AcDbXrecord
280
     1
290
     1
  0
XRECORD
  5
9665
102
{ACAD_REACTORS
330
9664
102
}
330
9664
100
AcDbXrecord
280
     1
290
     1
  0
XRECORD
  5
9667
102
{ACAD_REACTORS
330
9666
102
}
330
9666
100
AcDbXrecord
280
     1
290
     1
  0
XRECORD
  5
9669
102
{ACAD_REACTORS
330
9668
102
}
330
9668
100
AcDbXrecord
280
     1
290
     1
  0
XRECORD
  5
966B
102
{ACAD_REACTORS
330
966A
102
}
330
966A
100
AcDbXrecord
280
     1
290
     1
  0
XRECORD
  5
966D
102
{ACAD_REACTORS
330
966C
102
}
330
966C
100
AcDbXrecord
280
     1
290
     1
  0
SORTENTSTABLE
  5
969C
102
{ACAD_REACTORS
330
969B
102
}
330
969B
100
AcDbSortentsTable
330
8C1B
331
964B
  5
967D
331
9756
  5
97C3
331
9833
  5
9833
331
957F
  5
967C
331
967C
  5
969A
331
9573
  5
9574
331
9567
  5
9568
331
973A
  5
973E
331
972E
  5
9732
331
967D
  5
969D
331
9828
  5
9828
331
9574
  5
9575
331
9568
  5
9569
331
972F
  5
9733
331
967E
  5
969E
331
9723
  5
9727
331
964D
  5
967E
331
9575
  5
9576
331
9569
  5
956A
331
9724
  5
9728
331
964E
  5
967F
331
967F
  5
9722
331
9576
  5
9577
331
956A
  5
956B
331
9725
  5
9729
331
974E
  5
9753
331
9680
  5
9724
331
97F7
  5
97F7
331
9577
  5
9578
331
956B
  5
956C
331
973E
  5
9743
331
97C3
  5
97F5
331
977F
  5
97C4
331
974F
  5
9754
331
9681
  5
9725
331
9578
  5
9579
331
9743
  5
973F
331
956C
  5
956D
331
973F
  5
9747
331
97C4
  5
97F6
331
9733
  5
9737
331
9750
  5
9756
331
9682
  5
9726
331
9579
  5
957A
331
9744
  5
9744
331
956D
  5
956E
331
9734
  5
9738
331
957A
  5
957B
331
956E
  5
956F
331
8688
  5
8688
331
9752
  5
977E
331
9729
  5
972D
331
957B
  5
957C
331
9678
  5
9680
331
956F
  5
9570
331
9753
  5
977F
331
972A
  5
972E
331
957C
  5
964E
331
9679
  5
9681
331
9747
  5
974F
331
9570
  5
9571
331
9564
  5
9564
331
967A
  5
9682
331
957D
  5
9679
331
9571
  5
9572
331
9748
  5
9750
331
9565
  5
9565
331
9738
  5
973C
331
957E
  5
967A
331
9832
  5
9832
331
9749
  5
9752
331
9572
  5
9573
331
9566
  5
9567
331
9739
  5
973D
  0
XRECORD
  5
9D33
102
{ACAD_REACTORS
330
9D32
102
}
330
9D32
100
AcDbXrecord
280
     1
 40
1.570796326794896
  0
XRECORD
  5
9D35
102
{ACAD_REACTORS
330
9D32
102
}
330
9D32
100
AcDbXrecord
280
     1
340
8C0C
  0
XRECORD
  5
9D36
102
{ACAD_REACTORS
330
9D32
102
}
330
9D32
100
AcDbXrecord
280
     1
340
8C0C
  0
XRECORD
  5
9D34
102
{ACAD_REACTORS
330
9D32
102
}
330
9D32
100
AcDbXrecord
280
     1
340
8C0C
  0
LAYOUT
  5
8C1A
102
{ACAD_XDICTIONARY
360
9D38
102
}
102
{ACAD_REACTORS
330
8C12
102
}
330
8C12
100
AcDbPlotSettings
  1

  2
EPSON Stylus DX4000 Series
  4

  6

 40
0.0
 41
0.0
 42
0.0
 43
0.0
 44
0.0
 45
0.0
 46
0.0
 47
0.0
 48
0.0
 49
0.0
140
0.0
141
0.0
142
1.0
143
1.0
 70
   688
 72
     0
 73
     0
 74
     5
  7

 75
    16
147
1.0
148
0.0
149
0.0
100
AcDbLayout
  1
Layout1
 70
     1
 71
     1
 10
0.0
 20
0.0
 11
420.0
 21
297.0
 12
0.0
 22
0.0
 32
0.0
 14
1.000000000000000E+20
 24
1.000000000000000E+20
 34
1.000000000000000E+20
 15
-1.000000000000000E+20
 25
-1.000000000000000E+20
 35
-1.000000000000000E+20
146
0.0
 13
0.0
 23
0.0
 33
0.0
 16
1.0
 26
0.0
 36
0.0
 17
0.0
 27
1.0
 37
0.0
 76
     0
330
8C17
  0
LAYOUT
  5
8C1E
102
{ACAD_XDICTIONARY
360
9D3A
102
}
102
{ACAD_REACTORS
330
8C12
102
}
330
8C12
100
AcDbPlotSettings
  1

  2
EPSON Stylus DX4000 Series
  4

  6

 40
0.0
 41
0.0
 42
0.0
 43
0.0
 44
0.0
 45
0.0
 46
0.0
 47
0.0
 48
0.0
 49
0.0
140
0.0
141
0.0
142
1.0
143
1.0
 70
  1712
 72
     0
 73
     0
 74
     0
  7

 75
     0
147
1.0
148
0.0
149
0.0
100
AcDbLayout
  1
Model
 70
     1
 71
     0
 10
0.0
 20
0.0
 11
12.0
 21
9.0
 12
0.0
 22
0.0
 32
0.0
 14
0.0
 24
0.0
 34
0.0
 15
0.0
 25
0.0
 35
0.0
146
0.0
 13
0.0
 23
0.0
 33
0.0
 16
1.0
 26
0.0
 36
0.0
 17
0.0
 27
1.0
 37
0.0
 76
     0
330
8C1B
331
8D29
  0
MATERIAL
  5
8D35
102
{ACAD_XDICTIONARY
360
8D36
102
}
102
{ACAD_REACTORS
330
8C13
102
}
330
8C13
100
AcDbMaterial
  1
ByBlock
 72
     0
 43
0.0208333333333333
 43
0.0
 43
0.0
 43
0.0
 43
0.0
 43
0.0208333333333333
 43
0.0
 43
0.0
 43
0.0
 43
0.0
 43
1.0
 43
0.0
 43
0.0
 43
0.0
 43
0.0
 43
1.0
 77
     0
 47
0.0208333333333333
 47
0.0
 47
0.0
 47
0.0
 47
0.0
 47
0.0208333333333333
 47
0.0
 47
0.0
 47
0.0
 47
0.0
 47
1.0
 47
0.0
 47
0.0
 47
0.0
 47
0.0
 47
1.0
171
     0
 49
0.0208333333333333
 49
0.0
 49
0.0
 49
0.0
 49
0.0
 49
0.0208333333333333
 49
0.0
 49
0.0
 49
0.0
 49
0.0
 49
1.0
 49
0.0
 49
0.0
 49
0.0
 49
0.0
 49
1.0
175
     0
142
0.0208333333333333
142
0.0
142
0.0
142
0.0
142
0.0
142
0.0208333333333333
142
0.0
142
0.0
142
0.0
142
0.0
142
1.0
142
0.0
142
0.0
142
0.0
142
0.0
142
1.0
179
     0
144
0.0208333333333333
144
0.0
144
0.0
144
0.0
144
0.0
144
0.0208333333333333
144
0.0
144
0.0
144
0.0
144
0.0
144
1.0
144
0.0
144
0.0
144
0.0
144
0.0
144
1.0
147
0.0208333333333333
147
0.0
147
0.0
147
0.0
147
0.0
147
0.0208333333333333
147
0.0
147
0.0
147
0.0
147
0.0
147
1.0
147
0.0
147
0.0
147
0.0
147
0.0
147
1.0
  0
MATERIAL
  5
8D2D
102
{ACAD_XDICTIONARY
360
8D2E
102
}
102
{ACAD_REACTORS
330
8C13
102
}
330
8C13
100
AcDbMaterial
  1
ByLayer
 72
     0
 43
0.0208333333333333
 43
0.0
 43
0.0
 43
0.0
 43
0.0
 43
0.0208333333333333
 43
0.0
 43
0.0
 43
0.0
 43
0.0
 43
1.0
 43
0.0
 43
0.0
 43
0.0
 43
0.0
 43
1.0
 77
     0
 47
0.0208333333333333
 47
0.0
 47
0.0
 47
0.0
 47
0.0
 47
0.0208333333333333
 47
0.0
 47
0.0
 47
0.0
 47
0.0
 47
1.0
 47
0.0
 47
0.0
 47
0.0
 47
0.0
 47
1.0
171
     0
 49
0.0208333333333333
 49
0.0
 49
0.0
 49
0.0
 49
0.0
 49
0.0208333333333333
 49
0.0
 49
0.0
 49
0.0
 49
0.0
 49
1.0
 49
0.0
 49
0.0
 49
0.0
 49
0.0
 49
1.0
175
     0
142
0.0208333333333333
142
0.0
142
0.0
142
0.0
142
0.0
142
0.0208333333333333
142
0.0
142
0.0
142
0.0
142
0.0
142
1.0
142
0.0
142
0.0
142
0.0
142
0.0
142
1.0
179
     0
144
0.0208333333333333
144
0.0
144
0.0
144
0.0
144
0.0
144
0.0208333333333333
144
0.0
144
0.0
144
0.0
144
0.0
144
1.0
144
0.0
144
0.0
144
0.0
144
0.0
144
1.0
147
0.0208333333333333
147
0.0
147
0.0
147
0.0
147
0.0
147
0.0208333333333333
147
0.0
147
0.0
147
0.0
147
0.0
147
1.0
147
0.0
147
0.0
147
0.0
147
0.0
147
1.0
  0
MATERIAL
  5
8D3D
102
{ACAD_XDICTIONARY
360
8D3E
102
}
102
{ACAD_REACTORS
330
8C13
102
}
330
8C13
100
AcDbMaterial
  1
Global
 72
     0
 43
0.0208333333333333
 43
0.0
 43
0.0
 43
0.0
 43
0.0
 43
0.0208333333333333
 43
0.0
 43
0.0
 43
0.0
 43
0.0
 43
1.0
 43
0.0
 43
0.0
 43
0.0
 43
0.0
 43
1.0
 77
     0
 47
0.0208333333333333
 47
0.0
 47
0.0
 47
0.0
 47
0.0
 47
0.0208333333333333
 47
0.0
 47
0.0
 47
0.0
 47
0.0
 47
1.0
 47
0.0
 47
0.0
 47
0.0
 47
0.0
 47
1.0
171
     0
 49
0.0208333333333333
 49
0.0
 49
0.0
 49
0.0
 49
0.0
 49
0.0208333333333333
 49
0.0
 49
0.0
 49
0.0
 49
0.0
 49
1.0
 49
0.0
 49
0.0
 49
0.0
 49
0.0
 49
1.0
175
     0
142
0.0208333333333333
142
0.0
142
0.0
142
0.0
142
0.0
142
0.0208333333333333
142
0.0
142
0.0
142
0.0
142
0.0
142
1.0
142
0.0
142
0.0
142
0.0
142
0.0
142
1.0
179
     0
144
0.0208333333333333
144
0.0
144
0.0
144
0.0
144
0.0
144
0.0208333333333333
144
0.0
144
0.0
144
0.0
144
0.0
144
1.0
144
0.0
144
0.0
144
0.0
144
0.0
144
1.0
147
0.0208333333333333
147
0.0
147
0.0
147
0.0
147
0.0
147
0.0208333333333333
147
0.0
147
0.0
147
0.0
147
0.0
147
1.0
147
0.0
147
0.0
147
0.0
147
0.0
147
1.0
  0
MLEADERSTYLE
  5
8D79
102
{ACAD_REACTORS
330
8D78
102
}
330
8D78
100
AcDbMLeaderStyle
170
     2
171
     1
172
     0
 90
        2
 40
0.0
 41
0.0
173
     1
 91
-1056964608
340
8C0C
 92
       -2
290
     1
 42
0.09
291
     1
 43
0.36
  3
Standard
 44
0.18
300

342
8C0A
174
     1
178
     6
175
     1
176
     0
 93
-1056964608
 45
0.18
292
     0
297
     0
 46
0.18
 94
-1056964608
 47
1.0
 49
1.0
140
1.0
293
     1
141
0.0
294
     1
177
     0
142
1.0
295
     0
296
     0
143
0.125
1001
ACAD_MLEADERVER
1070
     2
  0
MLINESTYLE
  5
8C10
102
{ACAD_REACTORS
330
8C0F
102
}
330
8C0F
100
AcDbMlineStyle
  2
STANDARD
 70
     0
  3

 62
   256
 51
90.0
 52
90.0
 71
     2
 49
0.5
 62
   256
  6
BYLAYER
 49
-0.5
 62
   256
  6
BYLAYER
  0
ACDBPLACEHOLDER
  5
8C08
102
{ACAD_REACTORS
330
8C07
102
}
330
8C07
  0
SCALE
  5
8D57
102
{ACAD_REACTORS
330
8D56
102
}
330
8D56
100
AcDbScale
 70
     0
300
1:1
140
1.0
141
1.0
290
     1
  0
SCALE
  5
8D58
102
{ACAD_REACTORS
330
8D56
102
}
330
8D56
100
AcDbScale
 70
     0
300
1:2
140
1.0
141
2.0
290
     0
  0
SCALE
  5
8D59
102
{ACAD_REACTORS
330
8D56
102
}
330
8D56
100
AcDbScale
 70
     0
300
1:4
140
1.0
141
4.0
290
     0
  0
SCALE
  5
8D5A
102
{ACAD_REACTORS
330
8D56
102
}
330
8D56
100
AcDbScale
 70
     0
300
1:5
140
1.0
141
5.0
290
     0
  0
SCALE
  5
8D5B
102
{ACAD_REACTORS
330
8D56
102
}
330
8D56
100
AcDbScale
 70
     0
300
1:8
140
1.0
141
8.0
290
     0
  0
SCALE
  5
8D5C
102
{ACAD_REACTORS
330
8D56
102
}
330
8D56
100
AcDbScale
 70
     0
300
1:10
140
1.0
141
10.0
290
     0
  0
SCALE
  5
8D5D
102
{ACAD_REACTORS
330
8D56
102
}
330
8D56
100
AcDbScale
 70
     0
300
1:16
140
1.0
141
16.0
290
     0
  0
SCALE
  5
8D5E
102
{ACAD_REACTORS
330
8D56
102
}
330
8D56
100
AcDbScale
 70
     0
300
1:20
140
1.0
141
20.0
290
     0
  0
SCALE
  5
8D5F
102
{ACAD_REACTORS
330
8D56
102
}
330
8D56
100
AcDbScale
 70
     0
300
1:30
140
1.0
141
30.0
290
     0
  0
SCALE
  5
8D60
102
{ACAD_REACTORS
330
8D56
102
}
330
8D56
100
AcDbScale
 70
     0
300
1:40
140
1.0
141
40.0
290
     0
  0
SCALE
  5
8D61
102
{ACAD_REACTORS
330
8D56
102
}
330
8D56
100
AcDbScale
 70
     0
300
1:50
140
1.0
141
50.0
290
     0
  0
SCALE
  5
8D62
102
{ACAD_REACTORS
330
8D56
102
}
330
8D56
100
AcDbScale
 70
     0
300
1:100
140
1.0
141
100.0
290
     0
  0
SCALE
  5
8D63
102
{ACAD_REACTORS
330
8D56
102
}
330
8D56
100
AcDbScale
 70
     0
300
2:1
140
2.0
141
1.0
290
     0
  0
SCALE
  5
8D64
102
{ACAD_REACTORS
330
8D56
102
}
330
8D56
100
AcDbScale
 70
     0
300
4:1
140
4.0
141
1.0
290
     0
  0
SCALE
  5
8D65
102
{ACAD_REACTORS
330
8D56
102
}
330
8D56
100
AcDbScale
 70
     0
300
8:1
140
8.0
141
1.0
290
     0
  0
SCALE
  5
8D66
102
{ACAD_REACTORS
330
8D56
102
}
330
8D56
100
AcDbScale
 70
     0
300
10:1
140
10.0
141
1.0
290
     0
  0
SCALE
  5
8D67
102
{ACAD_REACTORS
330
8D56
102
}
330
8D56
100
AcDbScale
 70
     0
300
100:1
140
100.0
141
1.0
290
     0
  0
SCALE
  5
8D68
102
{ACAD_REACTORS
330
8D56
102
}
330
8D56
100
AcDbScale
 70
     0
300
1/128" = 1'-0"
140
0.0078125
141
12.0
290
     0
  0
SCALE
  5
8D69
102
{ACAD_REACTORS
330
8D56
102
}
330
8D56
100
AcDbScale
 70
     0
300
1/64" = 1'-0"
140
0.015625
141
12.0
290
     0
  0
SCALE
  5
8D6A
102
{ACAD_REACTORS
330
8D56
102
}
330
8D56
100
AcDbScale
 70
     0
300
1/32" = 1'-0"
140
0.03125
141
12.0
290
     0
  0
SCALE
  5
8D6B
102
{ACAD_REACTORS
330
8D56
102
}
330
8D56
100
AcDbScale
 70
     0
300
1/16" = 1'-0"
140
0.0625
141
12.0
290
     0
  0
SCALE
  5
8D6C
102
{ACAD_REACTORS
330
8D56
102
}
330
8D56
100
AcDbScale
 70
     0
300
3/32" = 1'-0"
140
0.09375
141
12.0
290
     0
  0
SCALE
  5
8D6D
102
{ACAD_REACTORS
330
8D56
102
}
330
8D56
100
AcDbScale
 70
     0
300
1/8" = 1'-0"
140
0.125
141
12.0
290
     0
  0
SCALE
  5
8D6E
102
{ACAD_REACTORS
330
8D56
102
}
330
8D56
100
AcDbScale
 70
     0
300
3/16" = 1'-0"
140
0.1875
141
12.0
290
     0
  0
SCALE
  5
8D6F
102
{ACAD_REACTORS
330
8D56
102
}
330
8D56
100
AcDbScale
 70
     0
300
1/4" = 1'-0"
140
0.25
141
12.0
290
     0
  0
SCALE
  5
8D70
102
{ACAD_REACTORS
330
8D56
102
}
330
8D56
100
AcDbScale
 70
     0
300
3/8" = 1'-0"
140
0.375
141
12.0
290
     0
  0
SCALE
  5
8D71
102
{ACAD_REACTORS
330
8D56
102
}
330
8D56
100
AcDbScale
 70
     0
300
1/2" = 1'-0"
140
0.5
141
12.0
290
     0
  0
SCALE
  5
8D72
102
{ACAD_REACTORS
330
8D56
102
}
330
8D56
100
AcDbScale
 70
     0
300
3/4" = 1'-0"
140
0.75
141
12.0
290
     0
  0
SCALE
  5
8D73
102
{ACAD_REACTORS
330
8D56
102
}
330
8D56
100
AcDbScale
 70
     0
300
1" = 1'-0"
140
1.0
141
12.0
290
     0
  0
SCALE
  5
8D74
102
{ACAD_REACTORS
330
8D56
102
}
330
8D56
100
AcDbScale
 70
     0
300
1-1/2" = 1'-0"
140
1.5
141
12.0
290
     0
  0
SCALE
  5
8D75
102
{ACAD_REACTORS
330
8D56
102
}
330
8D56
100
AcDbScale
 70
     0
300
3" = 1'-0"
140
3.0
141
12.0
290
     0
  0
SCALE
  5
8D76
102
{ACAD_REACTORS
330
8D56
102
}
330
8D56
100
AcDbScale
 70
     0
300
6" = 1'-0"
140
6.0
141
12.0
290
     0
  0
SCALE
  5
8D77
102
{ACAD_REACTORS
330
8D56
102
}
330
8D56
100
AcDbScale
 70
     0
300
1'-0" = 1'-0"
140
12.0
141
12.0
290
     0
  0
TABLESTYLE
  5
8C16
102
{ACAD_XDICTIONARY
360
9952
102
}
102
{ACAD_REACTORS
330
8C15
102
}
330
8C15
100
AcDbTableStyle
  3
Standard
 70
     0
 71
     0
 40
0.06
 41
0.06
280
     0
281
     0
  7
STANDARD
140
0.18
170
     2
 62
     0
 63
     7
283
     0
274
    -2
284
     1
 64
     0
275
    -2
285
     1
 65
     0
276
    -2
286
     1
 66
     0
277
    -2
287
     1
 67
     0
278
    -2
288
     1
 68
     0
279
    -2
289
     1
 69
     0
  7
STANDARD
140
0.25
170
     5
 62
     0
 63
     7
283
     0
274
    -2
284
     1
 64
     0
275
    -2
285
     1
 65
     0
276
    -2
286
     1
 66
     0
277
    -2
287
     1
 67
     0
278
    -2
288
     1
 68
     0
279
    -2
289
     1
 69
     0
  7
STANDARD
140
0.18
170
     5
 62
     0
 63
     7
283
     0
274
    -2
284
     1
 64
     0
275
    -2
285
     1
 65
     0
276
    -2
286
     1
 66
     0
277
    -2
287
     1
 67
     0
278
    -2
288
     1
 68
     0
279
    -2
289
     1
 69
     0
  0
VISUALSTYLE
  5
8D4B
102
{ACAD_REACTORS
330
8D45
102
}
330
8D45
100
AcDbVisualStyle
  2
2dWireframe
 70
     4
 71
     0
 72
     2
 73
     0
 90
        0
 40
-0.6
 41
-30.0
 62
     5
 63
     7
 74
     1
 91
        4
 64
     7
 65
   257
 75
     1
175
     1
 42
1.0
 92
        0
 66
   257
 43
1.0
 76
     1
 77
     6
 78
     2
 67
     7
 79
     5
170
     0
171
     0
290
     0
174
     0
 93
        1
 44
0.0
173
     0
291
     0
 45
0.0
1001
ACAD
1000
AcDbSavedByObjectVersion
1070
     0
  0
VISUALSTYLE
  5
8D4D
102
{ACAD_REACTORS
330
8D45
102
}
330
8D45
100
AcDbVisualStyle
  2
3D Hidden
 70
     6
 71
     1
 72
     2
 73
     2
 90
        0
 40
-0.6
 41
-30.0
 62
     5
 63
     7
 74
     2
 91
        2
 64
     7
 65
   257
 75
     2
175
     1
 42
40.0
 92
        0
 66
   257
 43
1.0
 76
     1
 77
     6
 78
     2
 67
     7
 79
     3
170
     0
171
     0
290
     0
174
     0
 93
        1
 44
0.0
173
     0
291
     0
 45
0.0
1001
ACAD
1000
AcDbSavedByObjectVersion
1070
     0
  0
VISUALSTYLE
  5
8D4C
102
{ACAD_REACTORS
330
8D45
102
}
330
8D45
100
AcDbVisualStyle
  2
3dWireframe
 70
     5
 71
     0
 72
     2
 73
     0
 90
        0
 40
-0.6
 41
-30.0
 62
     5
 63
     7
 74
     1
 91
        4
 64
     7
 65
   257
 75
     1
175
     1
 42
1.0
 92
        0
 66
   257
 43
1.0
 76
     1
 77
     6
 78
     2
 67
     7
 79
     5
170
     0
171
     0
290
     0
174
     0
 93
        1
 44
0.0
173
     0
291
     0
 45
0.0
1001
ACAD
1000
AcDbSavedByObjectVersion
1070
     0
  0
VISUALSTYLE
  5
8D4A
102
{ACAD_REACTORS
330
8D45
102
}
330
8D45
100
AcDbVisualStyle
  2
Basic
 70
     7
 71
     1
 72
     0
 73
     1
 90
        0
 40
-0.6
 41
-30.0
 62
     5
 63
     7
 74
     0
 91
        4
 64
     7
 65
   257
 75
     1
175
     1
 42
1.0
 92
        8
 66
     7
 43
1.0
 76
     1
 77
     6
 78
     2
 67
     7
 79
     5
170
     0
171
     0
290
     0
174
     0
 93
        1
 44
0.0
173
     0
291
     1
 45
0.0
1001
ACAD
1000
AcDbSavedByObjectVersion
1070
     0
  0
VISUALSTYLE
  5
8D51
102
{ACAD_REACTORS
330
8D45
102
}
330
8D45
100
AcDbVisualStyle
  2
Brighten
 70
    12
 71
     2
 72
     2
 73
     0
 90
        0
 40
-0.6
 41
-30.0
 62
     5
 63
     7
 74
     1
 91
        4
 64
     7
 65
   257
 75
     1
175
     1
 42
1.0
 92
        8
 66
     7
 43
1.0
 76
     1
 77
     6
 78
     2
 67
     7
 79
     5
170
     0
171
     0
290
     0
174
     0
 93
        1
 44
50.0
173
     0
291
     1
 45
0.0
1001
ACAD
1000
AcDbSavedByObjectVersion
1070
     0
  0
VISUALSTYLE
  5
8D55
102
{ACAD_REACTORS
330
8D45
102
}
330
8D45
100
AcDbVisualStyle
  2
ColorChange
 70
    16
 71
     2
 72
     2
 73
     3
 90
        0
 40
-0.6
 41
-30.0
 62
     5
 63
     8
 74
     1
 91
        4
 64
     7
 65
   257
 75
     1
175
     1
 42
1.0
 92
        8
 66
     8
 43
1.0
 76
     1
 77
     6
 78
     2
 67
     7
 79
     5
170
     0
171
     0
290
     0
174
     0
 93
        1
 44
0.0
173
     0
291
     1
 45
0.0
1001
ACAD
1000
AcDbSavedByObjectVersion
1070
     0
  0
VISUALSTYLE
  5
8D4E
102
{ACAD_REACTORS
330
8D45
102
}
330
8D45
100
AcDbVisualStyle
  2
Conceptual
 70
     9
 71
     3
 72
     2
 73
     0
 90
        0
 40
-0.6
 41
-30.0
 62
     5
 63
     7
 74
     2
 91
        2
 64
     7
 65
   257
 75
     1
175
     1
 42
40.0
 92
        8
 66
     7
 43
1.0
 76
     1
 77
     6
 78
     2
 67
     7
 79
     3
170
     0
171
     0
290
     0
174
     0
 93
        1
 44
0.0
173
     0
291
     0
 45
0.0
1001
ACAD
1000
AcDbSavedByObjectVersion
1070
     0
  0
VISUALSTYLE
  5
8D50
102
{ACAD_REACTORS
330
8D45
102
}
330
8D45
100
AcDbVisualStyle
  2
Dim
 70
    11
 71
     2
 72
     2
 73
     0
 90
        0
 40
-0.6
 41
-30.0
 62
     5
 63
     7
 74
     1
 91
        4
 64
     7
 65
   257
 75
     1
175
     1
 42
1.0
 92
        8
 66
     7
 43
1.0
 76
     1
 77
     6
 78
     2
 67
     7
 79
     5
170
     0
171
     0
290
     0
174
     0
 93
        1
 44
-50.0
173
     0
291
     1
 45
0.0
1001
ACAD
1000
AcDbSavedByObjectVersion
1070
     0
  0
VISUALSTYLE
  5
8D54
102
{ACAD_REACTORS
330
8D45
102
}
330
8D45
100
AcDbVisualStyle
  2
Facepattern
 70
    15
 71
     2
 72
     2
 73
     0
 90
        0
 40
-0.6
 41
-30.0
 62
     5
 63
     7
 74
     1
 91
        4
 64
     7
 65
   257
 75
     1
175
     1
 42
1.0
 92
        8
 66
     7
 43
1.0
 76
     1
 77
     6
 78
     2
 67
     7
 79
     5
170
     0
171
     0
290
     0
174
     0
 93
        1
 44
0.0
173
     0
291
     1
 45
0.0
1001
ACAD
1000
AcDbSavedByObjectVersion
1070
     0
  0
VISUALSTYLE
  5
8D46
102
{ACAD_REACTORS
330
8D45
102
}
330
8D45
100
AcDbVisualStyle
  2
Flat
 70
     0
 71
     2
 72
     1
 73
     1
 90
        2
 40
-0.6
 41
30.0
 62
     5
 63
     7
 74
     0
 91
        4
 64
     7
 65
   257
 75
     1
175
     1
 42
1.0
 92
        8
 66
     7
 43
1.0
 76
     1
 77
     6
 78
     2
 67
     7
 79
     5
170
     0
171
     0
290
     0
174
     0
 93
       13
 44
0.0
173
     0
291
     1
 45
0.0
1001
ACAD
1000
AcDbSavedByObjectVersion
1070
     0
  0
VISUALSTYLE
  5
8D47
102
{ACAD_REACTORS
330
8D45
102
}
330
8D45
100
AcDbVisualStyle
  2
FlatWithEdges
 70
     1
 71
     2
 72
     1
 73
     1
 90
        2
 40
-0.6
 41
30.0
 62
     5
 63
     7
 74
     1
 91
        4
 64
     7
 65
   257
 75
     1
175
     1
 42
1.0
 92
        0
 66
   257
 43
1.0
 76
     1
 77
     6
 78
     2
 67
     7
 79
     5
170
     0
171
     0
290
     0
174
     0
 93
       13
 44
0.0
173
     0
291
     1
 45
0.0
1001
ACAD
1000
AcDbSavedByObjectVersion
1070
     0
  0
VISUALSTYLE
  5
8D48
102
{ACAD_REACTORS
330
8D45
102
}
330
8D45
100
AcDbVisualStyle
  2
Gouraud
 70
     2
 71
     2
 72
     2
 73
     1
 90
        2
 40
-0.6
 41
30.0
 62
     5
 63
     7
 74
     0
 91
        4
 64
     7
 65
   257
 75
     1
175
     1
 42
1.0
 92
        0
 66
     7
 43
1.0
 76
     1
 77
     6
 78
     2
 67
     7
 79
     5
170
     0
171
     0
290
     0
174
     0
 93
       13
 44
0.0
173
     0
291
     1
 45
0.0
1001
ACAD
1000
AcDbSavedByObjectVersion
1070
     0
  0
VISUALSTYLE
  5
8D49
102
{ACAD_REACTORS
330
8D45
102
}
330
8D45
100
AcDbVisualStyle
  2
GouraudWithEdges
 70
     3
 71
     2
 72
     2
 73
     1
 90
        2
 40
-0.6
 41
30.0
 62
     5
 63
     7
 74
     1
 91
        4
 64
     7
 65
   257
 75
     1
175
     1
 42
1.0
 92
        0
 66
   257
 43
1.0
 76
     1
 77
     6
 78
     2
 67
     7
 79
     5
170
     0
171
     0
290
     0
174
     0
 93
       13
 44
0.0
173
     0
291
     1
 45
0.0
1001
ACAD
1000
AcDbSavedByObjectVersion
1070
     0
  0
VISUALSTYLE
  5
8D53
102
{ACAD_REACTORS
330
8D45
102
}
330
8D45
100
AcDbVisualStyle
  2
Linepattern
 70
    14
 71
     2
 72
     2
 73
     0
 90
        0
 40
-0.6
 41
-30.0
 62
     5
 63
     7
 74
     1
 91
        4
 64
     7
 65
   257
 75
     7
175
     7
 42
1.0
 92
        8
 66
     7
 43
1.0
 76
     1
 77
     6
 78
     2
 67
     7
 79
     5
170
     0
171
     0
290
     0
174
     0
 93
        1
 44
0.0
173
     0
291
     1
 45
0.0
1001
ACAD
1000
AcDbSavedByObjectVersion
1070
     0
  0
VISUALSTYLE
  5
8D4F
102
{ACAD_REACTORS
330
8D45
102
}
330
8D45
100
AcDbVisualStyle
  2
Realistic
 70
     8
 71
     2
 72
     2
 73
     0
 90
        0
 40
-0.6
 41
-30.0
 62
     5
 63
     7
 74
     1
 91
        0
 64
     7
 65
   257
 75
     1
175
     1
 42
1.0
 92
        8
 66
     8
 43
1.0
 76
     1
 77
     6
 78
     2
 67
     7
 79
     5
170
     0
171
     0
290
     0
174
     0
 93
       13
 44
0.0
173
     0
291
     0
 45
0.0
1001
ACAD
1000
AcDbSavedByObjectVersion
1070
     0
  0
VISUALSTYLE
  5
8D52
102
{ACAD_REACTORS
330
8D45
102
}
330
8D45
100
AcDbVisualStyle
  2
Thicken
 70
    13
 71
     2
 72
     2
 73
     0
 90
        0
 40
-0.6
 41
-30.0
 62
     5
 63
     7
 74
     1
 91
        4
 64
     7
 65
   257
 75
     1
175
     1
 42
1.0
 92
       12
 66
     7
 43
1.0
 76
     1
 77
     6
 78
     2
 67
     7
 79
     5
170
     0
171
     0
290
     0
174
     0
 93
        1
 44
0.0
173
     0
291
     1
 45
0.0
1001
ACAD
1000
AcDbSavedByObjectVersion
1070
     0
  0
DICTIONARYVAR
  5
996E
102
{ACAD_REACTORS
330
8D2A
102
}
330
8D2A
100
DictionaryVariables
280
     0
  1
1:1
  0
DICTIONARYVAR
  5
996D
102
{ACAD_REACTORS
330
8D2A
102
}
330
8D2A
100
DictionaryVariables
280
     0
  1
STANDARD
  0
DICTIONARYVAR
  5
8D2B
102
{ACAD_REACTORS
330
8D2A
102
}
330
8D2A
100
DictionaryVariables
280
     0
  1
STANDARD
  0
DICTIONARYVAR
  5
9971
102
{ACAD_REACTORS
330
8D2A
102
}
330
8D2A
100
DictionaryVariables
280
     0
  1
1
  0
DICTIONARYVAR
  5
9970
102
{ACAD_REACTORS
330
8D2A
102
}
330
8D2A
100
DictionaryVariables
280
     0
  1
0
  0
DICTIONARYVAR
  5
996F
102
{ACAD_REACTORS
330
8D2A
102
}
330
8D2A
100
DictionaryVariables
280
     0
  1
127
  0
DICTIONARY
  5
8CFD
102
{ACAD_REACTORS
330
8CF4
102
}
330
8CF4
100
AcDbDictionary
281
     1
  0
XRECORD
  5
8D15
102
{ACAD_REACTORS
330
8CF4
102
}
330
8CF4
100
AcDbXrecord
280
     1
 90
-1023410169
  0
DICTIONARY
  5
9D38
330
8C1A
100
AcDbDictionary
280
     1
281
     1
  3
ACAD_XREC_ROUNDTRIP
360
9D39
  0
DICTIONARY
  5
9D3A
330
8C1E
100
AcDbDictionary
280
     1
281
     1
  3
ACAD_XREC_ROUNDTRIP
360
9D3B
  0
DICTIONARY
  5
8D36
330
8D35
100
AcDbDictionary
280
     1
281
     1
  3
ACAD_XREC_ROUNDTRIP
360
9D3D
  3
BUMPTILE
360
8D38
  3
DIFFUSETILE
360
8D37
  3
OPACITYTILE
360
8D3B
  3
REFLECTIONTILE
360
8D3A
  3
REFRACTIONTILE
360
8D3C
  3
SPECULARTILE
360
8D39
  0
DICTIONARY
  5
8D2E
330
8D2D
100
AcDbDictionary
280
     1
281
     1
  3
ACAD_XREC_ROUNDTRIP
360
9D3C
  3
BUMPTILE
360
8D30
  3
DIFFUSETILE
360
8D2F
  3
OPACITYTILE
360
8D33
  3
REFLECTIONTILE
360
8D32
  3
REFRACTIONTILE
360
8D34
  3
SPECULARTILE
360
8D31
  0
DICTIONARY
  5
8D3E
330
8D3D
100
AcDbDictionary
280
     1
281
     1
  3
ACAD_XREC_ROUNDTRIP
360
9D3E
  3
BUMPTILE
360
8D40
  3
DIFFUSETILE
360
8D3F
  3
OPACITYTILE
360
8D43
  3
REFLECTIONTILE
360
8D42
  3
REFRACTIONTILE
360
8D44
  3
SPECULARTILE
360
8D41
  0
DICTIONARY
  5
9952
330
8C16
100
AcDbDictionary
280
     1
281
     1
  3
ACAD_ROUNDTRIP_2008_TABLESTYLE_CELLSTYLEMAP
360
9D30
  3
ACAD_XREC_ROUNDTRIP
360
9D37
  0
XRECORD
  5
9D39
102
{ACAD_REACTORS
330
9D38
102
}
330
9D38
100
AcDbXrecord
280
     1
102
SHADEPLOT
 70
     0
102
SHADEPLOTRESLEVEL
 70
     2
102
SHADEPLOTCUSTOMDPI
 70
   300
  0
XRECORD
  5
9D3B
102
{ACAD_REACTORS
330
9D3A
102
}
330
9D3A
100
AcDbXrecord
280
     1
102
SHADEPLOT
 70
     0
102
SHADEPLOTRESLEVEL
 70
     2
102
SHADEPLOTCUSTOMDPI
 70
   300
  0
XRECORD
  5
9D3D
102
{ACAD_REACTORS
330
8D36
102
}
330
8D36
100
AcDbXrecord
280
     1
102
MATERIAL
148
0.0
149
0.0
149
0.0
 93
        0
 94
      127
282
     0
 72
     0
 77
     0
171
     0
175
     0
179
     0
273
     0
  0
XRECORD
  5
8D38
102
{ACAD_REACTORS
330
8D36
102
}
330
8D36
100
AcDbXrecord
280
     1
270
     1
271
     1
  0
XRECORD
  5
8D37
102
{ACAD_REACTORS
330
8D36
102
}
330
8D36
100
AcDbXrecord
280
     1
270
     1
271
     1
  0
XRECORD
  5
8D3B
102
{ACAD_REACTORS
330
8D36
102
}
330
8D36
100
AcDbXrecord
280
     1
270
     1
271
     1
  0
XRECORD
  5
8D3A
102
{ACAD_REACTORS
330
8D36
102
}
330
8D36
100
AcDbXrecord
280
     1
270
     1
271
     1
  0
XRECORD
  5
8D3C
102
{ACAD_REACTORS
330
8D36
102
}
330
8D36
100
AcDbXrecord
280
     1
270
     1
271
     1
  0
XRECORD
  5
8D39
102
{ACAD_REACTORS
330
8D36
102
}
330
8D36
100
AcDbXrecord
280
     1
270
     1
271
     1
  0
XRECORD
  5
9D3C
102
{ACAD_REACTORS
330
8D2E
102
}
330
8D2E
100
AcDbXrecord
280
     1
102
MATERIAL
148
0.0
149
0.0
149
0.0
 93
        0
 94
      127
282
     0
 72
     0
 77
     0
171
     0
175
     0
179
     0
273
     0
  0
XRECORD
  5
8D30
102
{ACAD_REACTORS
330
8D2E
102
}
330
8D2E
100
AcDbXrecord
280
     1
270
     1
271
     1
  0
XRECORD
  5
8D2F
102
{ACAD_REACTORS
330
8D2E
102
}
330
8D2E
100
AcDbXrecord
280
     1
270
     1
271
     1
  0
XRECORD
  5
8D33
102
{ACAD_REACTORS
330
8D2E
102
}
330
8D2E
100
AcDbXrecord
280
     1
270
     1
271
     1
  0
XRECORD
  5
8D32
102
{ACAD_REACTORS
330
8D2E
102
}
330
8D2E
100
AcDbXrecord
280
     1
270
     1
271
     1
  0
XRECORD
  5
8D34
102
{ACAD_REACTORS
330
8D2E
102
}
330
8D2E
100
AcDbXrecord
280
     1
270
     1
271
     1
  0
XRECORD
  5
8D31
102
{ACAD_REACTORS
330
8D2E
102
}
330
8D2E
100
AcDbXrecord
280
     1
270
     1
271
     1
  0
XRECORD
  5
9D3E
102
{ACAD_REACTORS
330
8D3E
102
}
330
8D3E
100
AcDbXrecord
280
     1
102
MATERIAL
148
0.0
149
0.0
149
0.0
 93
        0
 94
      127
282
     0
 72
     0
 77
     0
171
     0
175
     0
179
     0
273
     0
  0
XRECORD
  5
8D40
102
{ACAD_REACTORS
330
8D3E
102
}
330
8D3E
100
AcDbXrecord
280
     1
270
     1
271
     1
  0
XRECORD
  5
8D3F
102
{ACAD_REACTORS
330
8D3E
102
}
330
8D3E
100
AcDbXrecord
280
     1
270
     1
271
     1
  0
XRECORD
  5
8D43
102
{ACAD_REACTORS
330
8D3E
102
}
330
8D3E
100
AcDbXrecord
280
     1
270
     1
271
     1
  0
XRECORD
  5
8D42
102
{ACAD_REACTORS
330
8D3E
102
}
330
8D3E
100
AcDbXrecord
280
     1
270
     1
271
     1
  0
XRECORD
  5
8D44
102
{ACAD_REACTORS
330
8D3E
102
}
330
8D3E
100
AcDbXrecord
280
     1
270
     1
271
     1
  0
XRECORD
  5
8D41
102
{ACAD_REACTORS
330
8D3E
102
}
330
8D3E
100
AcDbXrecord
280
     1
270
     1
271
     1
  0
CELLSTYLEMAP
  5
9D30
102
{ACAD_REACTORS
330
9952
102
}
330
9952
100
AcDbCellStyleMap
 90
        3
300
CELLSTYLE
  1
TABLEFORMAT_BEGIN
 90
        5
170
     1
 91
        0
 92
    32768
 62
   257
 93
        1
300
CONTENTFORMAT
  1
CONTENTFORMAT_BEGIN
 90
        0
 91
        0
 92
        4
 93
        0
300

 40
0.0
140
1.0
 94
        5
 62
     0
340
8C0A
144
0.25
309
CONTENTFORMAT_END
171
     0
 94
        6
 95
        1
302
GRIDFORMAT
  1
GRIDFORMAT_BEGIN
 90
        0
 91
        1
 62
     0
 92
       -2
340
0
 93
        0
 40
0.045
309
GRIDFORMAT_END
 95
        2
302
GRIDFORMAT
  1
GRIDFORMAT_BEGIN
 90
        0
 91
        1
 62
     0
 92
       -2
340
0
 93
        0
 40
0.045
309
GRIDFORMAT_END
 95
        4
302
GRIDFORMAT
  1
GRIDFORMAT_BEGIN
 90
        0
 91
        1
 62
     0
 92
       -2
340
0
 93
        0
 40
0.045
309
GRIDFORMAT_END
 95
        8
302
GRIDFORMAT
  1
GRIDFORMAT_BEGIN
 90
        0
 91
        1
 62
     0
 92
       -2
340
0
 93
        0
 40
0.045
309
GRIDFORMAT_END
 95
       16
302
GRIDFORMAT
  1
GRIDFORMAT_BEGIN
 90
        0
 91
        1
 62
     0
 92
       -2
340
0
 93
        0
 40
0.045
309
GRIDFORMAT_END
 95
       32
302
GRIDFORMAT
  1
GRIDFORMAT_BEGIN
 90
        0
 91
        1
 62
     0
 92
       -2
340
0
 93
        0
 40
0.045
309
GRIDFORMAT_END
309
TABLEFORMAT_END
  1
CELLSTYLE_BEGIN
 90
        1
 91
        1
300
_TITLE
309
CELLSTYLE_END
300
CELLSTYLE
  1
TABLEFORMAT_BEGIN
 90
        5
170
     1
 91
        0
 92
        0
 62
   257
 93
        1
300
CONTENTFORMAT
  1
CONTENTFORMAT_BEGIN
 90
        0
 91
        0
 92
        4
 93
        0
300

 40
0.0
140
1.0
 94
        5
 62
     0
340
8C0A
144
0.18
309
CONTENTFORMAT_END
171
     0
 94
        6
 95
        1
302
GRIDFORMAT
  1
GRIDFORMAT_BEGIN
 90
        0
 91
        1
 62
     0
 92
       -2
340
0
 93
        0
 40
0.045
309
GRIDFORMAT_END
 95
        2
302
GRIDFORMAT
  1
GRIDFORMAT_BEGIN
 90
        0
 91
        1
 62
     0
 92
       -2
340
0
 93
        0
 40
0.045
309
GRIDFORMAT_END
 95
        4
302
GRIDFORMAT
  1
GRIDFORMAT_BEGIN
 90
        0
 91
        1
 62
     0
 92
       -2
340
0
 93
        0
 40
0.045
309
GRIDFORMAT_END
 95
        8
302
GRIDFORMAT
  1
GRIDFORMAT_BEGIN
 90
        0
 91
        1
 62
     0
 92
       -2
340
0
 93
        0
 40
0.045
309
GRIDFORMAT_END
 95
       16
302
GRIDFORMAT
  1
GRIDFORMAT_BEGIN
 90
        0
 91
        1
 62
     0
 92
       -2
340
0
 93
        0
 40
0.045
309
GRIDFORMAT_END
 95
       32
302
GRIDFORMAT
  1
GRIDFORMAT_BEGIN
 90
        0
 91
        1
 62
     0
 92
       -2
340
0
 93
        0
 40
0.045
309
GRIDFORMAT_END
309
TABLEFORMAT_END
  1
CELLSTYLE_BEGIN
 90
        2
 91
        1
300
_HEADER
309
CELLSTYLE_END
300
CELLSTYLE
  1
TABLEFORMAT_BEGIN
 90
        5
170
     1
 91
        0
 92
        0
 62
   257
 93
        1
300
CONTENTFORMAT
  1
CONTENTFORMAT_BEGIN
 90
        0
 91
        0
 92
        4
 93
        0
300

 40
0.0
140
1.0
 94
        2
 62
     0
340
8C0A
144
0.18
309
CONTENTFORMAT_END
171
     0
 94
        6
 95
        1
302
GRIDFORMAT
  1
GRIDFORMAT_BEGIN
 90
        0
 91
        1
 62
     0
 92
       -2
340
0
 93
        0
 40
0.045
309
GRIDFORMAT_END
 95
        2
302
GRIDFORMAT
  1
GRIDFORMAT_BEGIN
 90
        0
 91
        1
 62
     0
 92
       -2
340
0
 93
        0
 40
0.045
309
GRIDFORMAT_END
 95
        4
302
GRIDFORMAT
  1
GRIDFORMAT_BEGIN
 90
        0
 91
        1
 62
     0
 92
       -2
340
0
 93
        0
 40
0.045
309
GRIDFORMAT_END
 95
        8
302
GRIDFORMAT
  1
GRIDFORMAT_BEGIN
 90
        0
 91
        1
 62
     0
 92
       -2
340
0
 93
        0
 40
0.045
309
GRIDFORMAT_END
 95
       16
302
GRIDFORMAT
  1
GRIDFORMAT_BEGIN
 90
        0
 91
        1
 62
     0
 92
       -2
340
0
 93
        0
 40
0.045
309
GRIDFORMAT_END
 95
       32
302
GRIDFORMAT
  1
GRIDFORMAT_BEGIN
 90
        0
 91
        1
 62
     0
 92
       -2
340
0
 93
        0
 40
0.045
309
GRIDFORMAT_END
309
TABLEFORMAT_END
  1
CELLSTYLE_BEGIN
 90
        3
 91
        2
300
_DATA
309
CELLSTYLE_END
  0
XRECORD
  5
9D37
102
{ACAD_REACTORS
330
9952
102
}
330
9952
100
AcDbXrecord
280
     1
102
ACAD_ROUNDTRIP_PRE2007_TABLESTYLE
 90
        4
 91
        0
  1

 92
        4
 93
        0
  2

 94
        4
 95
        0
  3

  0
ENDSEC
  0
EOF
