  0
SECTION
  2
HEADER
  9
$ACADVER
  1
AC1015
  9
$DWGCODEPAGE
  3
ANSI_932
  9
$HANDSEED
  5
106AB90
  0
ENDSEC
  0
SECTION
  2
CLASSES
  0
CLASS
  1
IMAGEDEF
  2
AcDbRasterImageDef
  3
ISM
  90
0
  91
4
  280
0
  281
0
  0
CLASS
  1
IMAGE
  2
AcDbRasterImage
  3
ISM
  90
127
  91
5
  280
0
  281
1
  0
CLASS
  1
IMAGEDEF_REACTOR
  2
AcDbRasterImageDefReactor
  3
ISM
  90
1
  91
4
  280
0
  281
0
  0
ENDSEC
  0
SECTION
  2
TABLES
  0
TABLE
  2
VPORT
  5
2
  330
0
  100
AcDbSymbolTable
  70
    0
  0
ENDTAB
  0
TABLE
  2
LTYPE
  5
3
  330
0
  100
AcDbSymbolTable
  70
    4
  0
LTYPE
  5
4
  330
3
  100
AcDbSymbolTableRecord
  100
AcDbLinetypeTableRecord
  2
ByBlock
  70
    0
  3

  72
65
  73
    0
  40
0
  0
LTYPE
  5
5
  330
3
  100
AcDbSymbolTableRecord
  100
AcDbLinetypeTableRecord
  2
ByLayer
  70
    0
  3

  72
65
  73
    0
  40
0
  0
LTYPE
  5
6
  330
3
  100
AcDbSymbolTableRecord
  100
AcDbLinetypeTableRecord
  2
CONTINUOUS
  70
    0
  3
Solid Line
  72
65
  73
    0
  40
0
  0
LTYPE
  5
7
  330
3
  100
AcDbSymbolTableRecord
  100
AcDbLinetypeTableRecord
  2
DASH
  70
    0
  3
Hidden
  72
65
  73
2
  40
2.5
  49
1.5
  74
0
  49
-1
  74
0
  0
LTYPE
  5
8
  330
3
  100
AcDbSymbolTableRecord
  100
AcDbLinetypeTableRecord
  2
LONGDASHDASH
  70
    0
  3
__ . __
  72
65
  73
    4
  40
7
  49
4
  74
    0
  49
-1
  74
    0
  49
1
  74
    0
  49
-1
  74
    0
  0
ENDTAB
  0
TABLE
  2
LAYER
  5
9
  330
0
  100
AcDbSymbolTable
  70
    40
  0
LAYER
  5
a
  330
9
  100
AcDbSymbolTableRecord
  100
AcDbLayerTableRecord
  2
0
  70
    0
  62
    0
  6
CONTINUOUS
  390
0
  0
LAYER
  5
c
  330
9
  100
AcDbSymbolTableRecord
  100
AcDbLayerTableRecord
  2
1
  70
    0
  62
    4
  6
CONTINUOUS
  370
50
  390
0
  0
LAYER
  5
d
  330
9
  100
AcDbSymbolTableRecord
  100
AcDbLayerTableRecord
  2
2
  70
    0
  62
    7
  6
CONTINUOUS
  370
25
  390
0
  0
LAYER
  5
f
  330
9
  100
AcDbSymbolTableRecord
  100
AcDbLayerTableRecord
  2
4
  70
    0
  62
    2
  6
LONGDASHDASH
  370
25
  390
0
  0
LAYER
  5
13
  330
9
  100
AcDbSymbolTableRecord
  100
AcDbLayerTableRecord
  2
SK1
  70
    0
  62
    4
  6
CONTINUOUS
  370
50
  390
0
  0
LAYER
  5
14
  330
9
  100
AcDbSymbolTableRecord
  100
AcDbLayerTableRecord
  2
SK2
  70
    0
  62
    7
  6
CONTINUOUS
  370
25
  390
0
  0
LAYER
  5
16
  330
9
  100
AcDbSymbolTableRecord
  100
AcDbLayerTableRecord
  2
SK4
  70
    0
  62
    2
  6
LONGDASHDASH
  370
25
  390
0
  0
LAYER
  5
21
  330
9
  100
AcDbSymbolTableRecord
  100
AcDbLayerTableRecord
  2
NOCUT
  70
    0
  62
    7
  6
CONTINUOUS
  370
25
  390
0
  0
LAYER
  5
22
  330
9
  100
AcDbSymbolTableRecord
  100
AcDbLayerTableRecord
  2
CUT
  70
    0
  62
    1
  6
CONTINUOUS
  370
25
  390
0
  0
LAYER
  5
26
  330
9
  100
AcDbSymbolTableRecord
  100
AcDbLayerTableRecord
  2
INFTOTAL
  70
    0
  62
    9
  6
CONTINUOUS
  370
18
  390
0
  0
ENDTAB
  0
TABLE
  2
STYLE
  5
27
  330
0
  100
AcDbSymbolTable
  70
    1
  0
STYLE
  5
28
  330
27
  100
AcDbSymbolTableRecord
  100
AcDbTextStyleTableRecord
  2
Monospac821 BT
  70
    0
  40
    3.5
  41
1
  50
0
  71
0
  42
3
  3

  4

  1001
ACAD
  1000
Monospac821 BT
  1071
256
  0
ENDTAB
  0
TABLE
  2
VIEW
  5
29
  330
0
  100
AcDbSymbolTable
  70
    0
  0
ENDTAB
  0
TABLE
  2
UCS
  5
2a
  330
0
  100
AcDbSymbolTable
  70
    0
  0
ENDTAB
  0
TABLE
  2
APPID
  5
2b
  330
0
  100
AcDbSymbolTable
  70
    1
  0
APPID
  5
2c
  330
2b
  100
AcDbSymbolTableRecord
  100
AcDbRegAppTableRecord
  2
ACAD
  70
    0
  0
ENDTAB
  0
TABLE
  2
DIMSTYLE
  5
2d
  330
0
  100
AcDbSymbolTable
  70
    1
  100
AcDbDimStyleTable
  0
DIMSTYLE
  105
2e
  330
2d
  100
AcDbSymbolTableRecord
  100
AcDbDimStyleTableRecord
  2
STANDARD
  70
    0
  41
    3
  42
0.5
  44
1
  73
0
  77
1
  78
1
  140
3.5
  141
2.5
  143
0.03937
  147
0.8
  172
1
  174
1
  178
0
  179
1
  271
2
  279
1
  284
1
  340
28
  0
ENDTAB
  0
TABLE
  2
BLOCK_RECORD
  5
2f
  330
0
  100
AcDbSymbolTable
  70
    2
  0
BLOCK_RECORD
  5
30
  330
2f
  100
AcDbSymbolTableRecord
  100
AcDbBlockTableRecord
  2
*Model_Space
  0
BLOCK_RECORD
  5
31
  330
2f
  100
AcDbSymbolTableRecord
  100
AcDbBlockTableRecord
  2
*Paper_Space
  0
BLOCK_RECORD
  5
38e
  330
2f
  100
AcDbSymbolTableRecord
  100
AcDbBlockTableRecord
  2
*D38d
  340
0
  0
BLOCK_RECORD
  5
39c
  330
2f
  100
AcDbSymbolTableRecord
  100
AcDbBlockTableRecord
  2
*D39b
  340
0
  0
BLOCK_RECORD
  5
3aa
  330
2f
  100
AcDbSymbolTableRecord
  100
AcDbBlockTableRecord
  2
*D3a9
  340
0
  0
BLOCK_RECORD
  5
3b8
  330
2f
  100
AcDbSymbolTableRecord
  100
AcDbBlockTableRecord
  2
*D3b7
  340
0
  0
BLOCK_RECORD
  5
3c6
  330
2f
  100
AcDbSymbolTableRecord
  100
AcDbBlockTableRecord
  2
*D3c5
  340
0
  0
BLOCK_RECORD
  5
3d0
  330
2f
  100
AcDbSymbolTableRecord
  100
AcDbBlockTableRecord
  2
*D3cf
  340
0
  0
BLOCK_RECORD
  5
3de
  330
2f
  100
AcDbSymbolTableRecord
  100
AcDbBlockTableRecord
  2
*D3dd
  340
0
  0
BLOCK_RECORD
  5
3ec
  330
2f
  100
AcDbSymbolTableRecord
  100
AcDbBlockTableRecord
  2
*D3eb
  340
0
  0
BLOCK_RECORD
  5
3fa
  330
2f
  100
AcDbSymbolTableRecord
  100
AcDbBlockTableRecord
  2
*D3f9
  340
0
  0
BLOCK_RECORD
  5
408
  330
2f
  100
AcDbSymbolTableRecord
  100
AcDbBlockTableRecord
  2
*D407
  340
0
  0
ENDTAB
  0
ENDSEC
  0
SECTION
  2
BLOCKS
  0
BLOCK
  5
32
  330
30
  100
AcDbEntity
  8
0
  100
AcDbBlockBegin
  2
*Model_Space
  70
    0
  10
0
  20
0
  30
0
  3
*Model_Space
  1

  0
ENDBLK
  5
33
  330
30
  100
AcDbEntity
  8
0
  100
AcDbBlockEnd
  0
BLOCK
  5
34
  330
31
  100
AcDbEntity
  8
0
  100
AcDbBlockBegin
  2
*Paper_Space
  70
    0
  10
0
  20
0
  30
0
  3
*Paper_Space
  1

  0
ENDBLK
  5
35
  330
31
  100
AcDbEntity
  8
0
  100
AcDbBlockEnd
  0
BLOCK
  5
38c
  330
38e
  100
AcDbEntity
  8
SK2
  100
AcDbBlockBegin
  2
*D38d
  70
1
  10
0
  20
0
  30
0
  3
*D38d
  1

  0
LINE
  5
38f
  330
38e
  100
AcDbEntity
  8
SK2
  100
AcDbLine
  10
0
  20
7
  30
0
  11
0
  21
14
  31
0
  0
LINE
  5
390
  330
38e
  100
AcDbEntity
  8
SK2
  100
AcDbLine
  10
180
  20
3
  30
0
  11
180
  21
15
  31
0
  0
LINE
  5
391
  330
38e
  100
AcDbEntity
  8
SK2
  100
AcDbLine
  10
0
  20
12
  30
0
  11
180
  21
12
  31
0
  0
SOLID
  5
392
  330
38e
  100
AcDbEntity
  8
SK2
  100
AcDbTrace
  10
0
  20
12
  30
0
  11
2.478612
  21
12.326315
  31
0
  12
2.478612
  22
11.673685
  32
0
  13
2.478612
  23
11.673685
  33
0
  0
SOLID
  5
393
  330
38e
  100
AcDbEntity
  8
SK2
  100
AcDbTrace
  10
180
  20
12
  30
0
  11
177.521388
  21
11.673685
  31
0
  12
177.521388
  22
12.326315
  32
0
  13
177.521388
  23
12.326315
  33
0
  0
MTEXT
  5
394
  330
38e
  100
AcDbEntity
  8
SK2
  100
AcDbMText
  10
33.142475
  20
12
  30
0
  11
1
  21
0
  31
0
  40
2
  41
0
  71
8
  72
1
  1
180
  0
POINT
  5
395
  330
38e
  100
AcDbEntity
  8
SK2
  62
0
  100
AcDbPoint
  10
0
  20
7
  30
0
  0
POINT
  5
396
  330
38e
  100
AcDbEntity
  8
SK2
  62
0
  100
AcDbPoint
  10
180
  20
3
  30
0
  0
POINT
  5
397
  330
38e
  100
AcDbEntity
  8
SK2
  62
0
  100
AcDbPoint
  10
180
  20
12
  30
0
  0
ENDBLK
  5
398
  330
38e
  100
AcDbEntity
  8
SK2
  100
AcDbBlockEnd
  0
BLOCK
  5
39a
  330
39c
  100
AcDbEntity
  8
SK2
  100
AcDbBlockBegin
  2
*D39b
  70
1
  10
0
  20
0
  30
0
  3
*D39b
  1

  0
LINE
  5
39d
  330
39c
  100
AcDbEntity
  8
SK2
  100
AcDbLine
  10
54.144692
  20
5.414995
  30
0
  11
54.144692
  21
9.414995
  31
0
  0
LINE
  5
39e
  330
39c
  100
AcDbEntity
  8
SK2
  100
AcDbLine
  10
0
  20
5.414995
  30
0
  11
0
  21
9.414995
  31
0
  0
LINE
  5
39f
  330
39c
  100
AcDbEntity
  8
SK2
  100
AcDbLine
  10
54.144692
  20
7.414995
  30
0
  11
0
  21
7.414995
  31
0
  0
SOLID
  5
3a0
  330
39c
  100
AcDbEntity
  8
SK2
  100
AcDbTrace
  10
54.144692
  20
7.414995
  30
0
  11
56.623304
  21
7.741311
  31
0
  12
56.623304
  22
7.08868
  32
0
  13
56.623304
  23
7.08868
  33
0
  0
SOLID
  5
3a1
  330
39c
  100
AcDbEntity
  8
SK2
  100
AcDbTrace
  10
0
  20
7.414995
  30
0
  11
-2.478612
  21
7.08868
  31
0
  12
-2.478612
  22
7.741311
  32
0
  13
-2.478612
  23
7.741311
  33
0
  0
MTEXT
  5
3a2
  330
39c
  100
AcDbEntity
  8
SK2
  100
AcDbMText
  10
27.072346
  20
7.414995
  30
0
  11
1
  21
0
  31
0
  40
2
  41
0
  71
8
  72
1
  1
54.145
  0
POINT
  5
3a3
  330
39c
  100
AcDbEntity
  8
SK2
  62
0
  100
AcDbPoint
  10
54.144692
  20
5.414995
  30
0
  0
POINT
  5
3a4
  330
39c
  100
AcDbEntity
  8
SK2
  62
0
  100
AcDbPoint
  10
0
  20
9.414995
  30
0
  0
POINT
  5
3a5
  330
39c
  100
AcDbEntity
  8
SK2
  62
0
  100
AcDbPoint
  10
0
  20
7.414995
  30
0
  0
ENDBLK
  5
3a6
  330
39c
  100
AcDbEntity
  8
SK2
  100
AcDbBlockEnd
  0
BLOCK
  5
3a8
  330
3aa
  100
AcDbEntity
  8
SK2
  100
AcDbBlockBegin
  2
*D3a9
  70
1
  10
0
  20
0
  30
0
  3
*D3a9
  1

  0
LINE
  5
3ab
  330
3aa
  100
AcDbEntity
  8
SK2
  100
AcDbLine
  10
1
  20
-8
  30
0
  11
-12
  21
-8
  31
0
  0
LINE
  5
3ac
  330
3aa
  100
AcDbEntity
  8
SK2
  100
AcDbLine
  10
1
  20
8
  30
0
  11
-12
  21
8
  31
0
  0
LINE
  5
3ad
  330
3aa
  100
AcDbEntity
  8
SK2
  100
AcDbLine
  10
-10
  20
-8
  30
0
  11
-10
  21
8
  31
0
  0
SOLID
  5
3ae
  330
3aa
  100
AcDbEntity
  8
SK2
  100
AcDbTrace
  10
-10
  20
-8
  30
0
  11
-10.326315
  21
-5.521388
  31
0
  12
-9.673685
  22
-5.521388
  32
0
  13
-9.673685
  23
-5.521388
  33
0
  0
SOLID
  5
3af
  330
3aa
  100
AcDbEntity
  8
SK2
  100
AcDbTrace
  10
-10
  20
8
  30
0
  11
-9.673685
  21
5.521388
  31
0
  12
-10.326315
  22
5.521388
  32
0
  13
-10.326315
  23
5.521388
  33
0
  0
MTEXT
  5
3b0
  330
3aa
  100
AcDbEntity
  8
SK2
  100
AcDbMText
  10
-10
  20
0
  30
0
  11
0
  21
1
  31
0
  40
2
  41
0
  71
8
  72
1
  1
ﾘ16
  0
POINT
  5
3b1
  330
3aa
  100
AcDbEntity
  8
SK2
  62
0
  100
AcDbPoint
  10
1
  20
-8
  30
0
  0
POINT
  5
3b2
  330
3aa
  100
AcDbEntity
  8
SK2
  62
0
  100
AcDbPoint
  10
1
  20
8
  30
0
  0
POINT
  5
3b3
  330
3aa
  100
AcDbEntity
  8
SK2
  62
0
  100
AcDbPoint
  10
-10
  20
8
  30
0
  0
ENDBLK
  5
3b4
  330
3aa
  100
AcDbEntity
  8
SK2
  100
AcDbBlockEnd
  0
BLOCK
  5
3b6
  330
3b8
  100
AcDbEntity
  8
2
  100
AcDbBlockBegin
  2
*D3b7
  70
1
  10
0
  20
0
  30
0
  3
*D3b7
  1

  0
LINE
  5
3b9
  330
3b8
  100
AcDbEntity
  8
2
  100
AcDbLine
  10
178
  20
-5
  30
0
  11
192
  21
-5
  31
0
  0
LINE
  5
3ba
  330
3b8
  100
AcDbEntity
  8
2
  100
AcDbLine
  10
178
  20
5
  30
0
  11
192
  21
5
  31
0
  0
LINE
  5
3bb
  330
3b8
  100
AcDbEntity
  8
2
  100
AcDbLine
  10
190
  20
-5
  30
0
  11
190
  21
5
  31
0
  0
SOLID
  5
3bc
  330
3b8
  100
AcDbEntity
  8
2
  100
AcDbTrace
  10
190
  20
-5
  30
0
  11
189.673685
  21
-2.521388
  31
0
  12
190.326315
  22
-2.521388
  32
0
  13
190.326315
  23
-2.521388
  33
0
  0
SOLID
  5
3bd
  330
3b8
  100
AcDbEntity
  8
2
  100
AcDbTrace
  10
190
  20
5
  30
0
  11
190.326315
  21
2.521388
  31
0
  12
189.673685
  22
2.521388
  32
0
  13
189.673685
  23
2.521388
  33
0
  0
MTEXT
  5
3be
  330
3b8
  100
AcDbEntity
  8
2
  100
AcDbMText
  10
190
  20
0
  30
0
  11
0
  21
1
  31
0
  40
2
  41
0
  71
8
  72
1
  1
ﾘ10
  0
POINT
  5
3bf
  330
3b8
  100
AcDbEntity
  8
2
  62
0
  100
AcDbPoint
  10
178
  20
-5
  30
0
  0
POINT
  5
3c0
  330
3b8
  100
AcDbEntity
  8
2
  62
0
  100
AcDbPoint
  10
178
  20
5
  30
0
  0
POINT
  5
3c1
  330
3b8
  100
AcDbEntity
  8
2
  62
0
  100
AcDbPoint
  10
190
  20
5
  30
0
  0
ENDBLK
  5
3c2
  330
3b8
  100
AcDbEntity
  8
2
  100
AcDbBlockEnd
  0
BLOCK
  5
3c4
  330
3c6
  100
AcDbEntity
  8
2
  100
AcDbBlockBegin
  2
*D3c5
  70
1
  10
0
  20
0
  30
0
  3
*D3c5
  1

  0
LINE
  5
3c7
  330
3c6
  100
AcDbEntity
  8
2
  100
AcDbLine
  10
179.257351
  20
4.555335
  30
0
  11
185.544108
  21
12.332011
  31
0
  0
MTEXT
  5
3c8
  330
3c6
  100
AcDbEntity
  8
2
  100
AcDbMText
  10
182.40073
  20
8.443673
  30
0
  11
0.628676
  21
0.777668
  31
0
  40
2
  41
0
  71
8
  72
1
  1
R2
  0
SOLID
  5
3c9
  330
3c6
  100
AcDbEntity
  8
2
  100
AcDbTrace
  10
179.257351
  20
4.555335
  30
0
  11
180.56183
  21
6.688018
  31
0
  12
181.06936
  22
6.277725
  32
0
  13
181.06936
  23
6.277725
  33
0
  0
POINT
  5
3ca
  330
3c6
  100
AcDbEntity
  8
2
  62
0
  100
AcDbPoint
  10
179.257351
  20
4.555335
  30
0
  0
POINT
  5
3cb
  330
3c6
  100
AcDbEntity
  8
2
  62
0
  100
AcDbPoint
  10
178
  20
3
  30
0
  0
ENDBLK
  5
3cc
  330
3c6
  100
AcDbEntity
  8
2
  100
AcDbBlockEnd
  0
BLOCK
  5
3ce
  330
3d0
  100
AcDbEntity
  8
2
  100
AcDbBlockBegin
  2
*D3cf
  70
1
  10
0
  20
0
  30
0
  3
*D3cf
  1

  0
LINE
  5
3d1
  330
3d0
  100
AcDbEntity
  8
2
  100
AcDbLine
  10
165
  20
-4.95
  30
0
  11
163
  21
-4.95
  31
0
  0
LINE
  5
3d2
  330
3d0
  100
AcDbEntity
  8
2
  100
AcDbLine
  10
165
  20
4.95
  30
0
  11
163
  21
4.95
  31
0
  0
LINE
  5
3d3
  330
3d0
  100
AcDbEntity
  8
2
  100
AcDbLine
  10
165
  20
-4.95
  30
0
  11
165
  21
11.46402
  31
0
  0
SOLID
  5
3d4
  330
3d0
  100
AcDbEntity
  8
2
  100
AcDbTrace
  10
165
  20
-4.95
  30
0
  11
164.673685
  21
-2.471388
  31
0
  12
165.326315
  22
-2.471388
  32
0
  13
165.326315
  23
-2.471388
  33
0
  0
SOLID
  5
3d5
  330
3d0
  100
AcDbEntity
  8
2
  100
AcDbTrace
  10
165
  20
4.95
  30
0
  11
165.326315
  21
2.471388
  31
0
  12
164.673685
  22
2.471388
  32
0
  13
164.673685
  23
2.471388
  33
0
  0
MTEXT
  5
3d6
  330
3d0
  100
AcDbEntity
  8
2
  100
AcDbMText
  10
165
  20
4.95
  30
0
  11
0
  21
1
  31
0
  40
2
  41
0
  71
8
  72
1
  1
ﾘ9.9
  0
POINT
  5
3d7
  330
3d0
  100
AcDbEntity
  8
2
  62
0
  100
AcDbPoint
  10
163
  20
-4.95
  30
0
  0
POINT
  5
3d8
  330
3d0
  100
AcDbEntity
  8
2
  62
0
  100
AcDbPoint
  10
163
  20
4.95
  30
0
  0
POINT
  5
3d9
  330
3d0
  100
AcDbEntity
  8
2
  62
0
  100
AcDbPoint
  10
165
  20
11.46402
  30
0
  0
ENDBLK
  5
3da
  330
3d0
  100
AcDbEntity
  8
2
  100
AcDbBlockEnd
  0
BLOCK
  5
3dc
  330
3de
  100
AcDbEntity
  8
2
  100
AcDbBlockBegin
  2
*D3dd
  70
1
  10
0
  20
0
  30
0
  3
*D3dd
  1

  0
LINE
  5
3df
  330
3de
  100
AcDbEntity
  8
2
  100
AcDbLine
  10
163
  20
1
  30
0
  11
163
  21
5
  31
0
  0
LINE
  5
3e0
  330
3de
  100
AcDbEntity
  8
2
  100
AcDbLine
  10
60
  20
1
  30
0
  11
60
  21
6.783837
  31
0
  0
LINE
  5
3e1
  330
3de
  100
AcDbEntity
  8
2
  100
AcDbLine
  10
163
  20
3
  30
0
  11
60
  21
3
  31
0
  0
SOLID
  5
3e2
  330
3de
  100
AcDbEntity
  8
2
  100
AcDbTrace
  10
163
  20
3
  30
0
  11
165.478612
  21
3.326315
  31
0
  12
165.478612
  22
2.673685
  32
0
  13
165.478612
  23
2.673685
  33
0
  0
SOLID
  5
3e3
  330
3de
  100
AcDbEntity
  8
2
  100
AcDbTrace
  10
60
  20
3
  30
0
  11
57.521388
  21
2.673685
  31
0
  12
57.521388
  22
3.326315
  32
0
  13
57.521388
  23
3.326315
  33
0
  0
MTEXT
  5
3e4
  330
3de
  100
AcDbEntity
  8
2
  100
AcDbMText
  10
111.5
  20
3
  30
0
  11
1
  21
-0
  31
0
  40
2
  41
0
  71
8
  72
1
  1
103
  0
POINT
  5
3e5
  330
3de
  100
AcDbEntity
  8
2
  62
0
  100
AcDbPoint
  10
163
  20
5
  30
0
  0
POINT
  5
3e6
  330
3de
  100
AcDbEntity
  8
2
  62
0
  100
AcDbPoint
  10
60
  20
6.783837
  30
0
  0
POINT
  5
3e7
  330
3de
  100
AcDbEntity
  8
2
  62
0
  100
AcDbPoint
  10
60
  20
3
  30
0
  0
ENDBLK
  5
3e8
  330
3de
  100
AcDbEntity
  8
2
  100
AcDbBlockEnd
  0
BLOCK
  5
3ea
  330
3ec
  100
AcDbEntity
  8
2
  100
AcDbBlockBegin
  2
*D3eb
  70
1
  10
0
  20
0
  30
0
  3
*D3eb
  1

  0
LINE
  5
3ed
  330
3ec
  100
AcDbEntity
  8
2
  100
AcDbLine
  10
180
  20
3
  30
0
  11
180
  21
15
  31
0
  0
LINE
  5
3ee
  330
3ec
  100
AcDbEntity
  8
2
  100
AcDbLine
  10
54.6
  20
8
  30
0
  11
54.6
  21
15
  31
0
  0
LINE
  5
3ef
  330
3ec
  100
AcDbEntity
  8
2
  100
AcDbLine
  10
180
  20
13
  30
0
  11
54.6
  21
13
  31
0
  0
SOLID
  5
3f0
  330
3ec
  100
AcDbEntity
  8
2
  100
AcDbTrace
  10
180
  20
13
  30
0
  11
182.478612
  21
13.326315
  31
0
  12
182.478612
  22
12.673685
  32
0
  13
182.478612
  23
12.673685
  33
0
  0
SOLID
  5
3f1
  330
3ec
  100
AcDbEntity
  8
2
  100
AcDbTrace
  10
54.6
  20
13
  30
0
  11
52.121388
  21
12.673685
  31
0
  12
52.121388
  22
13.326315
  32
0
  13
52.121388
  23
13.326315
  33
0
  0
MTEXT
  5
3f2
  330
3ec
  100
AcDbEntity
  8
2
  100
AcDbMText
  10
117.3
  20
13
  30
0
  11
1
  21
-0
  31
0
  40
2
  41
0
  71
8
  72
1
  1
125.4
  0
POINT
  5
3f3
  330
3ec
  100
AcDbEntity
  8
2
  62
0
  100
AcDbPoint
  10
180
  20
3
  30
0
  0
POINT
  5
3f4
  330
3ec
  100
AcDbEntity
  8
2
  62
0
  100
AcDbPoint
  10
54.6
  20
8
  30
0
  0
POINT
  5
3f5
  330
3ec
  100
AcDbEntity
  8
2
  62
0
  100
AcDbPoint
  10
54.6
  20
13
  30
0
  0
ENDBLK
  5
3f6
  330
3ec
  100
AcDbEntity
  8
2
  100
AcDbBlockEnd
  0
BLOCK
  5
3f8
  330
3fa
  100
AcDbEntity
  8
2
  100
AcDbBlockBegin
  2
*D3f9
  70
1
  10
0
  20
0
  30
0
  3
*D3f9
  1

  0
LINE
  5
3fb
  330
3fa
  100
AcDbEntity
  8
2
  100
AcDbLine
  10
180
  20
0.016552
  30
0
  11
180
  21
4.016552
  31
0
  0
LINE
  5
3fc
  330
3fa
  100
AcDbEntity
  8
2
  100
AcDbLine
  10
165
  20
0.016552
  30
0
  11
165
  21
4.95
  31
0
  0
LINE
  5
3fd
  330
3fa
  100
AcDbEntity
  8
2
  100
AcDbLine
  10
181.209677
  20
2.016552
  30
0
  11
165
  21
2.016552
  31
0
  0
SOLID
  5
3fe
  330
3fa
  100
AcDbEntity
  8
2
  100
AcDbTrace
  10
180
  20
2.016552
  30
0
  11
182.478612
  21
2.342867
  31
0
  12
182.478612
  22
1.690236
  32
0
  13
182.478612
  23
1.690236
  33
0
  0
SOLID
  5
3ff
  330
3fa
  100
AcDbEntity
  8
2
  100
AcDbTrace
  10
165
  20
2.016552
  30
0
  11
162.521388
  21
1.690236
  31
0
  12
162.521388
  22
2.342867
  32
0
  13
162.521388
  23
2.342867
  33
0
  0
MTEXT
  5
400
  330
3fa
  100
AcDbEntity
  8
2
  100
AcDbMText
  10
179.52054
  20
2.016552
  30
0
  11
1
  21
-0
  31
0
  40
2
  41
0
  71
8
  72
1
  1
15
  0
POINT
  5
401
  330
3fa
  100
AcDbEntity
  8
2
  62
0
  100
AcDbPoint
  10
180
  20
0.016552
  30
0
  0
POINT
  5
402
  330
3fa
  100
AcDbEntity
  8
2
  62
0
  100
AcDbPoint
  10
165
  20
4.95
  30
0
  0
POINT
  5
403
  330
3fa
  100
AcDbEntity
  8
2
  62
0
  100
AcDbPoint
  10
165
  20
2.016552
  30
0
  0
ENDBLK
  5
404
  330
3fa
  100
AcDbEntity
  8
2
  100
AcDbBlockEnd
  0
BLOCK
  5
406
  330
408
  100
AcDbEntity
  8
2
  100
AcDbBlockBegin
  2
*D407
  70
1
  10
0
  20
0
  30
0
  3
*D407
  1

  0
LINE
  5
409
  330
408
  100
AcDbEntity
  8
2
  100
AcDbLine
  10
165
  20
1.459688
  30
0
  11
165
  21
5.459688
  31
0
  0
LINE
  5
40a
  330
408
  100
AcDbEntity
  8
2
  100
AcDbLine
  10
163
  20
1.459688
  30
0
  11
163
  21
5.459688
  31
0
  0
LINE
  5
40b
  330
408
  100
AcDbEntity
  8
2
  100
AcDbLine
  10
165
  20
3.459688
  30
0
  11
161.92928
  21
3.459688
  31
0
  0
SOLID
  5
40c
  330
408
  100
AcDbEntity
  8
2
  100
AcDbTrace
  10
165
  20
3.459688
  30
0
  11
167.478612
  21
3.786003
  31
0
  12
167.478612
  22
3.133373
  32
0
  13
167.478612
  23
3.133373
  33
0
  0
SOLID
  5
40d
  330
408
  100
AcDbEntity
  8
2
  100
AcDbTrace
  10
163
  20
3.459688
  30
0
  11
160.521388
  21
3.133373
  31
0
  12
160.521388
  22
3.786003
  32
0
  13
160.521388
  23
3.786003
  33
0
  0
MTEXT
  5
40e
  330
408
  100
AcDbEntity
  8
2
  100
AcDbMText
  10
164
  20
3.459688
  30
0
  11
1
  21
-0
  31
0
  40
2
  41
0
  71
8
  72
1
  1
2
  0
POINT
  5
40f
  330
408
  100
AcDbEntity
  8
2
  62
0
  100
AcDbPoint
  10
165
  20
5.459688
  30
0
  0
POINT
  5
410
  330
408
  100
AcDbEntity
  8
2
  62
0
  100
AcDbPoint
  10
163
  20
1.459688
  30
0
  0
POINT
  5
411
  330
408
  100
AcDbEntity
  8
2
  62
0
  100
AcDbPoint
  10
161.92928
  20
3.459688
  30
0
  0
ENDBLK
  5
412
  330
408
  100
AcDbEntity
  8
2
  100
AcDbBlockEnd
  0
ENDSEC
  0
SECTION
  2
ENTITIES
  0
DIMENSION
  5
399
  100
AcDbEntity
  8
SK2
  100
AcDbDimension
  2
*D38d
  10
180
  20
12
  30
0
  11
33.142475
  21
12
  31
0
  70
160
  1
<>
  71
5
  3
STANDARD
  42
180
  100
AcDbAlignedDimension
  13
0
  23
7
  33
0
  14
180
  24
3
  34
0
  50
0
  100
AcDbRotatedDimension
  0
DIMENSION
  5
3a7
  100
AcDbEntity
  8
SK2
  100
AcDbDimension
  2
*D39b
  10
0
  20
7.414995
  30
0
  11
27.072346
  21
7.414995
  31
0
  70
160
  1
<>
  71
5
  3
STANDARD
  42
54.144692
  100
AcDbAlignedDimension
  13
54.144692
  23
5.414995
  33
0
  14
0
  24
9.414995
  34
0
  50
0
  100
AcDbRotatedDimension
  0
DIMENSION
  5
3b5
  100
AcDbEntity
  8
SK2
  100
AcDbDimension
  2
*D3a9
  10
-10
  20
8
  30
0
  11
-10
  21
0
  31
0
  70
160
  1
%%c<>
  71
5
  3
STANDARD
  42
16
  100
AcDbAlignedDimension
  13
1
  23
-8
  33
0
  14
1
  24
8
  34
0
  50
-90
  100
AcDbRotatedDimension
  0
DIMENSION
  5
3c3
  100
AcDbEntity
  8
2
  100
AcDbDimension
  2
*D3b7
  10
190
  20
5
  30
0
  11
190
  21
0
  31
0
  70
160
  1
%%c<>
  71
5
  3
STANDARD
  42
10
  100
AcDbAlignedDimension
  13
178
  23
-5
  33
0
  14
178
  24
5
  34
0
  50
-90
  100
AcDbRotatedDimension
  0
DIMENSION
  5
3cd
  100
AcDbEntity
  8
2
  100
AcDbDimension
  2
*D3c5
  10
178
  20
3
  30
0
  11
182.40073
  21
8.443673
  31
0
  70
164
  1
R2
  71
5
  3
STANDARD
  100
AcDbRadialDimension
  15
179.257351
  25
4.555335
  35
0
  50
51.047516
  0
DIMENSION
  5
3db
  100
AcDbEntity
  8
2
  100
AcDbDimension
  2
*D3cf
  10
165
  20
11.46402
  30
0
  11
165
  21
4.95
  31
0
  70
160
  1
%%c<>
  71
5
  3
STANDARD
  42
9.9
  100
AcDbAlignedDimension
  13
163
  23
-4.95
  33
0
  14
163
  24
4.95
  34
0
  50
-90
  100
AcDbRotatedDimension
  0
DIMENSION
  5
3e9
  100
AcDbEntity
  8
2
  100
AcDbDimension
  2
*D3dd
  10
60
  20
3
  30
0
  11
111.5
  21
3
  31
0
  70
160
  1
<>
  71
5
  3
STANDARD
  42
103
  100
AcDbAlignedDimension
  13
163
  23
5
  33
0
  14
60
  24
6.783837
  34
0
  50
0
  100
AcDbRotatedDimension
  0
DIMENSION
  5
3f7
  100
AcDbEntity
  8
2
  100
AcDbDimension
  2
*D3eb
  10
54.6
  20
13
  30
0
  11
117.3
  21
13
  31
0
  70
160
  1
<>
  71
5
  3
STANDARD
  42
125.4
  100
AcDbAlignedDimension
  13
180
  23
3
  33
0
  14
54.6
  24
8
  34
0
  50
0
  100
AcDbRotatedDimension
  0
DIMENSION
  5
405
  100
AcDbEntity
  8
2
  100
AcDbDimension
  2
*D3f9
  10
165
  20
2.016552
  30
0
  11
179.52054
  21
2.016552
  31
0
  70
160
  1
<>
  71
5
  3
STANDARD
  42
15
  100
AcDbAlignedDimension
  13
180
  23
0.016552
  33
0
  14
165
  24
4.95
  34
0
  50
0
  100
AcDbRotatedDimension
  0
DIMENSION
  5
413
  100
AcDbEntity
  8
2
  100
AcDbDimension
  2
*D407
  10
161.92928
  20
3.459688
  30
0
  11
164
  21
3.459688
  31
0
  70
160
  1
<>
  71
5
  3
STANDARD
  42
2
  100
AcDbAlignedDimension
  13
165
  23
5.459688
  33
0
  14
163
  24
1.459688
  34
0
  50
0
  100
AcDbRotatedDimension
  0
ARC
  5
36
  100
AcDbEntity
  8
1
  100
AcDbCircle
  10
60
  20
-16.783837
  30
0
  40
10
  100
AcDbArc
  50
90
  51
105
  0
LINE
  5
37
  100
AcDbEntity
  8
1
  100
AcDbLine
  10
60
  20
-6.783837
  30
0
  11
163
  21
-4.95
  31
0
  0
LINE
  5
38
  100
AcDbEntity
  8
1
  100
AcDbLine
  10
163
  20
-4.95
  30
0
  11
165
  21
-4.95
  31
0
  0
LINE
  5
39
  100
AcDbEntity
  8
1
  100
AcDbLine
  10
165
  20
-4.95
  30
0
  11
165
  21
-5
  31
0
  0
LINE
  5
3a
  100
AcDbEntity
  8
1
  100
AcDbLine
  10
165
  20
-5
  30
0
  11
178
  21
-5
  31
0
  0
ARC
  5
3b
  100
AcDbEntity
  8
1
  100
AcDbCircle
  10
178
  20
-3
  30
0
  40
2
  100
AcDbArc
  50
270
  51
0
  0
LINE
  5
3c
  100
AcDbEntity
  8
1
  100
AcDbLine
  10
180
  20
-3
  30
0
  11
180
  21
0
  31
0
  0
LINE
  5
3d
  100
AcDbEntity
  8
1
  100
AcDbLine
  10
180
  20
0
  30
0
  11
180
  21
3
  31
0
  0
ARC
  5
3e
  100
AcDbEntity
  8
1
  100
AcDbCircle
  10
178
  20
3
  30
0
  40
2
  100
AcDbArc
  50
0
  51
90
  0
LINE
  5
3f
  100
AcDbEntity
  8
1
  100
AcDbLine
  10
178
  20
5
  30
0
  11
165
  21
5
  31
0
  0
LINE
  5
40
  100
AcDbEntity
  8
1
  100
AcDbLine
  10
165
  20
5
  30
0
  11
165
  21
4.95
  31
0
  0
LINE
  5
41
  100
AcDbEntity
  8
1
  100
AcDbLine
  10
165
  20
4.95
  30
0
  11
163
  21
4.95
  31
0
  0
LINE
  5
42
  100
AcDbEntity
  8
1
  100
AcDbLine
  10
163
  20
4.95
  30
0
  11
60
  21
6.783837
  31
0
  0
ARC
  5
43
  100
AcDbEntity
  8
1
  100
AcDbCircle
  10
60
  20
16.783837
  30
0
  40
10
  100
AcDbArc
  50
255
  51
270
  0
LINE
  5
44
  100
AcDbEntity
  8
1
  100
AcDbLine
  10
57.41181
  20
7.124578
  30
0
  11
54.6
  21
7.878
  31
0
  0
LINE
  5
45
  100
AcDbEntity
  8
1
  100
AcDbLine
  10
54.6
  20
7.878
  30
0
  11
54.6
  21
-7.878
  31
0
  0
LINE
  5
46
  100
AcDbEntity
  8
1
  100
AcDbLine
  10
54.6
  20
-7.878
  30
0
  11
57.41181
  21
-7.124578
  31
0
  0
LINE
  5
47
  100
AcDbEntity
  8
1
  100
AcDbLine
  10
178
  20
-5
  30
0
  11
178
  21
5
  31
0
  0
LINE
  5
48
  100
AcDbEntity
  8
1
  100
AcDbLine
  10
178
  20
5
  30
0
  11
178
  21
-5
  31
0
  0
LINE
  5
49
  100
AcDbEntity
  8
1
  100
AcDbLine
  10
178.290412
  20
4.978803
  30
0
  11
178.3
  21
4.977354
  31
0
  0
LINE
  5
4a
  100
AcDbEntity
  8
1
  100
AcDbLine
  10
178.3
  20
4.977354
  30
0
  11
178.4
  21
4.957213
  31
0
  0
LINE
  5
4b
  100
AcDbEntity
  8
1
  100
AcDbLine
  10
178.4
  20
4.957213
  30
0
  11
178.5
  21
4.927867
  31
0
  0
LINE
  5
4c
  100
AcDbEntity
  8
1
  100
AcDbLine
  10
178.5
  20
4.927867
  30
0
  11
178.6
  21
4.889246
  31
0
  0
LINE
  5
4d
  100
AcDbEntity
  8
1
  100
AcDbLine
  10
178.6
  20
4.889246
  30
0
  11
178.7
  21
4.841255
  31
0
  0
LINE
  5
4e
  100
AcDbEntity
  8
1
  100
AcDbLine
  10
178.7
  20
4.841255
  30
0
  11
178.8
  21
4.783764
  31
0
  0
LINE
  5
4f
  100
AcDbEntity
  8
1
  100
AcDbLine
  10
178.8
  20
4.783764
  30
0
  11
178.9
  21
4.716596
  31
0
  0
LINE
  5
50
  100
AcDbEntity
  8
1
  100
AcDbLine
  10
178.9
  20
4.716596
  30
0
  11
179
  21
4.639507
  31
0
  0
LINE
  5
51
  100
AcDbEntity
  8
1
  100
AcDbLine
  10
179
  20
4.639507
  30
0
  11
179.1
  21
4.552158
  31
0
  0
LINE
  5
52
  100
AcDbEntity
  8
1
  100
AcDbLine
  10
179.1
  20
4.552158
  30
0
  11
179.2
  21
4.45407
  31
0
  0
LINE
  5
53
  100
AcDbEntity
  8
1
  100
AcDbLine
  10
179.2
  20
4.45407
  30
0
  11
179.3
  21
4.344554
  31
0
  0
LINE
  5
54
  100
AcDbEntity
  8
1
  100
AcDbLine
  10
179.3
  20
4.344554
  30
0
  11
179.4
  21
4.222594
  31
0
  0
LINE
  5
55
  100
AcDbEntity
  8
1
  100
AcDbLine
  10
179.4
  20
4.222594
  30
0
  11
179.5
  21
4.086629
  31
0
  0
LINE
  5
56
  100
AcDbEntity
  8
1
  100
AcDbLine
  10
179.5
  20
4.086629
  30
0
  11
179.6
  21
3.934127
  31
0
  0
LINE
  5
57
  100
AcDbEntity
  8
1
  100
AcDbLine
  10
179.6
  20
3.934127
  30
0
  11
179.7
  21
3.760623
  31
0
  0
LINE
  5
58
  100
AcDbEntity
  8
1
  100
AcDbLine
  10
179.7
  20
3.760623
  30
0
  11
179.8
  21
3.557068
  31
0
  0
LINE
  5
59
  100
AcDbEntity
  8
1
  100
AcDbLine
  10
179.8
  20
3.557068
  30
0
  11
179.9
  21
3.299378
  31
0
  0
LINE
  5
5a
  100
AcDbEntity
  8
1
  100
AcDbLine
  10
179.9
  20
3.299378
  30
0
  11
179.988954
  21
2.79009
  31
0
  0
LINE
  5
5b
  100
AcDbEntity
  8
1
  100
AcDbLine
  10
179.988954
  20
2.79009
  30
0
  11
180
  21
2.726849
  31
0
  0
LINE
  5
5c
  100
AcDbEntity
  8
1
  100
AcDbLine
  10
180
  20
2.089365
  30
0
  11
179.9
  21
2.419003
  31
0
  0
LINE
  5
5d
  100
AcDbEntity
  8
1
  100
AcDbLine
  10
179.9
  20
2.419003
  30
0
  11
179.8
  21
2.604997
  31
0
  0
LINE
  5
5e
  100
AcDbEntity
  8
1
  100
AcDbLine
  10
179.8
  20
2.604997
  30
0
  11
179.7
  21
2.770173
  31
0
  0
LINE
  5
5f
  100
AcDbEntity
  8
1
  100
AcDbLine
  10
179.7
  20
2.770173
  30
0
  11
179.6
  21
2.924598
  31
0
  0
LINE
  5
60
  100
AcDbEntity
  8
1
  100
AcDbLine
  10
179.6
  20
2.924598
  30
0
  11
179.5
  21
3.071627
  31
0
  0
LINE
  5
61
  100
AcDbEntity
  8
1
  100
AcDbLine
  10
179.5
  20
3.071627
  30
0
  11
179.4
  21
3.212662
  31
0
  0
LINE
  5
62
  100
AcDbEntity
  8
1
  100
AcDbLine
  10
179.4
  20
3.212662
  30
0
  11
179.3
  21
3.348312
  31
0
  0
LINE
  5
63
  100
AcDbEntity
  8
1
  100
AcDbLine
  10
179.3
  20
3.348312
  30
0
  11
179.2
  21
3.478811
  31
0
  0
LINE
  5
64
  100
AcDbEntity
  8
1
  100
AcDbLine
  10
179.2
  20
3.478811
  30
0
  11
179.1
  21
3.604189
  31
0
  0
LINE
  5
65
  100
AcDbEntity
  8
1
  100
AcDbLine
  10
179.1
  20
3.604189
  30
0
  11
179
  21
3.724361
  31
0
  0
LINE
  5
66
  100
AcDbEntity
  8
1
  100
AcDbLine
  10
179
  20
3.724361
  30
0
  11
178.9
  21
3.839173
  31
0
  0
LINE
  5
67
  100
AcDbEntity
  8
1
  100
AcDbLine
  10
178.9
  20
3.839173
  30
0
  11
178.8
  21
3.948426
  31
0
  0
LINE
  5
68
  100
AcDbEntity
  8
1
  100
AcDbLine
  10
178.8
  20
3.948426
  30
0
  11
178.7
  21
4.051897
  31
0
  0
LINE
  5
69
  100
AcDbEntity
  8
1
  100
AcDbLine
  10
178.7
  20
4.051897
  30
0
  11
178.6
  21
4.149343
  31
0
  0
LINE
  5
6a
  100
AcDbEntity
  8
1
  100
AcDbLine
  10
178.6
  20
4.149343
  30
0
  11
178.5
  21
4.240509
  31
0
  0
LINE
  5
6b
  100
AcDbEntity
  8
1
  100
AcDbLine
  10
178.5
  20
4.240509
  30
0
  11
178.4
  21
4.325131
  31
0
  0
LINE
  5
6c
  100
AcDbEntity
  8
1
  100
AcDbLine
  10
178.4
  20
4.325131
  30
0
  11
178.3
  21
4.402943
  31
0
  0
LINE
  5
6d
  100
AcDbEntity
  8
1
  100
AcDbLine
  10
178.3
  20
4.402943
  30
0
  11
178.2
  21
4.473669
  31
0
  0
LINE
  5
6e
  100
AcDbEntity
  8
1
  100
AcDbLine
  10
178.2
  20
4.473669
  30
0
  11
178.1
  21
4.537031
  31
0
  0
LINE
  5
6f
  100
AcDbEntity
  8
1
  100
AcDbLine
  10
178.1
  20
4.537031
  30
0
  11
178
  21
4.592747
  31
0
  0
LINE
  5
70
  100
AcDbEntity
  8
1
  100
AcDbLine
  10
178
  20
4.592747
  30
0
  11
177.9
  21
4.642663
  31
0
  0
LINE
  5
71
  100
AcDbEntity
  8
1
  100
AcDbLine
  10
177.9
  20
4.642663
  30
0
  11
177.8
  21
4.688791
  31
0
  0
LINE
  5
72
  100
AcDbEntity
  8
1
  100
AcDbLine
  10
177.8
  20
4.688791
  30
0
  11
177.7
  21
4.731095
  31
0
  0
LINE
  5
73
  100
AcDbEntity
  8
1
  100
AcDbLine
  10
177.7
  20
4.731095
  30
0
  11
177.6
  21
4.769538
  31
0
  0
LINE
  5
74
  100
AcDbEntity
  8
1
  100
AcDbLine
  10
177.6
  20
4.769538
  30
0
  11
177.5
  21
4.804091
  31
0
  0
LINE
  5
75
  100
AcDbEntity
  8
1
  100
AcDbLine
  10
177.5
  20
4.804091
  30
0
  11
177.4
  21
4.834725
  31
0
  0
LINE
  5
76
  100
AcDbEntity
  8
1
  100
AcDbLine
  10
177.4
  20
4.834725
  30
0
  11
177.3
  21
4.861414
  31
0
  0
LINE
  5
77
  100
AcDbEntity
  8
1
  100
AcDbLine
  10
177.3
  20
4.861414
  30
0
  11
177.2
  21
4.884138
  31
0
  0
LINE
  5
78
  100
AcDbEntity
  8
1
  100
AcDbLine
  10
177.2
  20
4.884138
  30
0
  11
177.1
  21
4.902877
  31
0
  0
LINE
  5
79
  100
AcDbEntity
  8
1
  100
AcDbLine
  10
177.1
  20
4.902877
  30
0
  11
177
  21
4.917617
  31
0
  0
LINE
  5
7a
  100
AcDbEntity
  8
1
  100
AcDbLine
  10
177
  20
4.917617
  30
0
  11
176.9
  21
4.928345
  31
0
  0
LINE
  5
7b
  100
AcDbEntity
  8
1
  100
AcDbLine
  10
176.9
  20
4.928345
  30
0
  11
176.8
  21
4.935052
  31
0
  0
LINE
  5
7c
  100
AcDbEntity
  8
1
  100
AcDbLine
  10
176.8
  20
4.935052
  30
0
  11
176.7
  21
4.937734
  31
0
  0
LINE
  5
7d
  100
AcDbEntity
  8
1
  100
AcDbLine
  10
176.7
  20
4.937734
  30
0
  11
176.683431
  21
5
  31
0
  0
LINE
  5
7e
  100
AcDbEntity
  8
1
  100
AcDbLine
  10
180
  20
1.738365
  30
0
  11
179.9
  21
2.063637
  31
0
  0
LINE
  5
7f
  100
AcDbEntity
  8
1
  100
AcDbLine
  10
179.9
  20
2.063637
  30
0
  11
179.8
  21
2.255333
  31
0
  0
LINE
  5
80
  100
AcDbEntity
  8
1
  100
AcDbLine
  10
179.8
  20
2.255333
  30
0
  11
179.7
  21
2.427864
  31
0
  0
LINE
  5
81
  100
AcDbEntity
  8
1
  100
AcDbLine
  10
179.7
  20
2.427864
  30
0
  11
179.6
  21
2.590571
  31
0
  0
LINE
  5
82
  100
AcDbEntity
  8
1
  100
AcDbLine
  10
179.6
  20
2.590571
  30
0
  11
179.5
  21
2.746545
  31
0
  0
LINE
  5
83
  100
AcDbEntity
  8
1
  100
AcDbLine
  10
179.5
  20
2.746545
  30
0
  11
179.4
  21
2.897054
  31
0
  0
LINE
  5
84
  100
AcDbEntity
  8
1
  100
AcDbLine
  10
179.4
  20
2.897054
  30
0
  11
179.3
  21
3.042632
  31
0
  0
LINE
  5
85
  100
AcDbEntity
  8
1
  100
AcDbLine
  10
179.3
  20
3.042632
  30
0
  11
179.2
  21
3.18346
  31
0
  0
LINE
  5
86
  100
AcDbEntity
  8
1
  100
AcDbLine
  10
179.2
  20
3.18346
  30
0
  11
179.1
  21
3.319533
  31
0
  0
LINE
  5
87
  100
AcDbEntity
  8
1
  100
AcDbLine
  10
179.1
  20
3.319533
  30
0
  11
179
  21
3.450737
  31
0
  0
LINE
  5
88
  100
AcDbEntity
  8
1
  100
AcDbLine
  10
179
  20
3.450737
  30
0
  11
178.9
  21
3.576897
  31
0
  0
LINE
  5
89
  100
AcDbEntity
  8
1
  100
AcDbLine
  10
178.9
  20
3.576897
  30
0
  11
178.8
  21
3.697797
  31
0
  0
LINE
  5
8a
  100
AcDbEntity
  8
1
  100
AcDbLine
  10
178.8
  20
3.697797
  30
0
  11
178.7
  21
3.813196
  31
0
  0
LINE
  5
8b
  100
AcDbEntity
  8
1
  100
AcDbLine
  10
178.7
  20
3.813196
  30
0
  11
178.6
  21
3.922835
  31
0
  0
LINE
  5
8c
  100
AcDbEntity
  8
1
  100
AcDbLine
  10
178.6
  20
3.922835
  30
0
  11
178.5
  21
4.026448
  31
0
  0
LINE
  5
8d
  100
AcDbEntity
  8
1
  100
AcDbLine
  10
178.5
  20
4.026448
  30
0
  11
178.4
  21
4.12376
  31
0
  0
LINE
  5
8e
  100
AcDbEntity
  8
1
  100
AcDbLine
  10
178.4
  20
4.12376
  30
0
  11
178.3
  21
4.214489
  31
0
  0
LINE
  5
8f
  100
AcDbEntity
  8
1
  100
AcDbLine
  10
178.3
  20
4.214489
  30
0
  11
178.2
  21
4.298351
  31
0
  0
LINE
  5
90
  100
AcDbEntity
  8
1
  100
AcDbLine
  10
178.2
  20
4.298351
  30
0
  11
178.1
  21
4.375058
  31
0
  0
LINE
  5
91
  100
AcDbEntity
  8
1
  100
AcDbLine
  10
178.1
  20
4.375058
  30
0
  11
178
  21
4.444316
  31
0
  0
LINE
  5
92
  100
AcDbEntity
  8
1
  100
AcDbLine
  10
178
  20
4.444316
  30
0
  11
177.9
  21
4.507928
  31
0
  0
LINE
  5
93
  100
AcDbEntity
  8
1
  100
AcDbLine
  10
177.9
  20
4.507928
  30
0
  11
177.8
  21
4.567863
  31
0
  0
LINE
  5
94
  100
AcDbEntity
  8
1
  100
AcDbLine
  10
177.8
  20
4.567863
  30
0
  11
177.7
  21
4.624071
  31
0
  0
LINE
  5
95
  100
AcDbEntity
  8
1
  100
AcDbLine
  10
177.7
  20
4.624071
  30
0
  11
177.6
  21
4.676507
  31
0
  0
LINE
  5
96
  100
AcDbEntity
  8
1
  100
AcDbLine
  10
177.6
  20
4.676507
  30
0
  11
177.5
  21
4.725128
  31
0
  0
LINE
  5
97
  100
AcDbEntity
  8
1
  100
AcDbLine
  10
177.5
  20
4.725128
  30
0
  11
177.4
  21
4.769894
  31
0
  0
LINE
  5
98
  100
AcDbEntity
  8
1
  100
AcDbLine
  10
177.4
  20
4.769894
  30
0
  11
177.3
  21
4.810769
  31
0
  0
LINE
  5
99
  100
AcDbEntity
  8
1
  100
AcDbLine
  10
177.3
  20
4.810769
  30
0
  11
177.2
  21
4.84772
  31
0
  0
LINE
  5
9a
  100
AcDbEntity
  8
1
  100
AcDbLine
  10
177.2
  20
4.84772
  30
0
  11
177.1
  21
4.880715
  31
0
  0
LINE
  5
9b
  100
AcDbEntity
  8
1
  100
AcDbLine
  10
177.1
  20
4.880715
  30
0
  11
177
  21
4.909729
  31
0
  0
LINE
  5
9c
  100
AcDbEntity
  8
1
  100
AcDbLine
  10
177
  20
4.909729
  30
0
  11
176.9
  21
4.934738
  31
0
  0
LINE
  5
9d
  100
AcDbEntity
  8
1
  100
AcDbLine
  10
176.9
  20
4.934738
  30
0
  11
176.8
  21
4.955721
  31
0
  0
LINE
  5
9e
  100
AcDbEntity
  8
1
  100
AcDbLine
  10
176.8
  20
4.955721
  30
0
  11
176.7
  21
4.972662
  31
0
  0
LINE
  5
9f
  100
AcDbEntity
  8
1
  100
AcDbLine
  10
176.7
  20
4.972662
  30
0
  11
176.6
  21
4.985545
  31
0
  0
LINE
  5
a0
  100
AcDbEntity
  8
1
  100
AcDbLine
  10
176.6
  20
4.985545
  30
0
  11
176.5
  21
4.994362
  31
0
  0
LINE
  5
a1
  100
AcDbEntity
  8
1
  100
AcDbLine
  10
176.5
  20
4.994362
  30
0
  11
176.4
  21
4.999104
  31
0
  0
LINE
  5
a2
  100
AcDbEntity
  8
1
  100
AcDbLine
  10
176.4
  20
4.999104
  30
0
  11
176.333723
  21
5
  31
0
  0
LINE
  5
a3
  100
AcDbEntity
  8
1
  100
AcDbLine
  10
180
  20
-2.446578
  30
0
  11
179.9
  21
-2.949046
  31
0
  0
LINE
  5
a4
  100
AcDbEntity
  8
1
  100
AcDbLine
  10
179.9
  20
-2.949046
  30
0
  11
179.8
  21
-3.102717
  31
0
  0
LINE
  5
a5
  100
AcDbEntity
  8
1
  100
AcDbLine
  10
179.8
  20
-3.102717
  30
0
  11
179.7
  21
-3.190591
  31
0
  0
LINE
  5
a6
  100
AcDbEntity
  8
1
  100
AcDbLine
  10
179.7
  20
-3.190591
  30
0
  11
179.6
  21
-3.240635
  31
0
  0
LINE
  5
a7
  100
AcDbEntity
  8
1
  100
AcDbLine
  10
179.6
  20
-3.240635
  30
0
  11
179.5
  21
-3.263986
  31
0
  0
LINE
  5
a8
  100
AcDbEntity
  8
1
  100
AcDbLine
  10
179.5
  20
-3.263986
  30
0
  11
179.4
  21
-3.266529
  31
0
  0
LINE
  5
a9
  100
AcDbEntity
  8
1
  100
AcDbLine
  10
179.4
  20
-3.266529
  30
0
  11
179.3
  21
-3.251881
  31
0
  0
LINE
  5
aa
  100
AcDbEntity
  8
1
  100
AcDbLine
  10
179.3
  20
-3.251881
  30
0
  11
179.2
  21
-3.222498
  31
0
  0
LINE
  5
ab
  100
AcDbEntity
  8
1
  100
AcDbLine
  10
179.2
  20
-3.222498
  30
0
  11
179.1
  21
-3.180167
  31
0
  0
LINE
  5
ac
  100
AcDbEntity
  8
1
  100
AcDbLine
  10
179.1
  20
-3.180167
  30
0
  11
179
  21
-3.126264
  31
0
  0
LINE
  5
ad
  100
AcDbEntity
  8
1
  100
AcDbLine
  10
179
  20
-3.126264
  30
0
  11
178.9
  21
-3.061896
  31
0
  0
LINE
  5
ae
  100
AcDbEntity
  8
1
  100
AcDbLine
  10
178.9
  20
-3.061896
  30
0
  11
178.8
  21
-2.987986
  31
0
  0
LINE
  5
af
  100
AcDbEntity
  8
1
  100
AcDbLine
  10
178.8
  20
-2.987986
  30
0
  11
178.7
  21
-2.905331
  31
0
  0
LINE
  5
b0
  100
AcDbEntity
  8
1
  100
AcDbLine
  10
178.7
  20
-2.905331
  30
0
  11
178.6
  21
-2.814633
  31
0
  0
LINE
  5
b1
  100
AcDbEntity
  8
1
  100
AcDbLine
  10
178.6
  20
-2.814633
  30
0
  11
178.5
  21
-2.71653
  31
0
  0
LINE
  5
b2
  100
AcDbEntity
  8
1
  100
AcDbLine
  10
178.5
  20
-2.71653
  30
0
  11
178.4
  21
-2.611607
  31
0
  0
LINE
  5
b3
  100
AcDbEntity
  8
1
  100
AcDbLine
  10
178.4
  20
-2.611607
  30
0
  11
178.3
  21
-2.500415
  31
0
  0
LINE
  5
b4
  100
AcDbEntity
  8
1
  100
AcDbLine
  10
178.3
  20
-2.500415
  30
0
  11
178.2
  21
-2.383477
  31
0
  0
LINE
  5
b5
  100
AcDbEntity
  8
1
  100
AcDbLine
  10
178.2
  20
-2.383477
  30
0
  11
178.1
  21
-2.261297
  31
0
  0
LINE
  5
b6
  100
AcDbEntity
  8
1
  100
AcDbLine
  10
178.1
  20
-2.261297
  30
0
  11
178
  21
-2.134364
  31
0
  0
LINE
  5
b7
  100
AcDbEntity
  8
1
  100
AcDbLine
  10
178
  20
-2.134364
  30
0
  11
177.9
  21
-2.004362
  31
0
  0
LINE
  5
b8
  100
AcDbEntity
  8
1
  100
AcDbLine
  10
177.9
  20
-2.004362
  30
0
  11
177.8
  21
-1.872724
  31
0
  0
LINE
  5
b9
  100
AcDbEntity
  8
1
  100
AcDbLine
  10
177.8
  20
-1.872724
  30
0
  11
177.7
  21
-1.739559
  31
0
  0
LINE
  5
ba
  100
AcDbEntity
  8
1
  100
AcDbLine
  10
177.7
  20
-1.739559
  30
0
  11
177.6
  21
-1.604975
  31
0
  0
LINE
  5
bb
  100
AcDbEntity
  8
1
  100
AcDbLine
  10
177.6
  20
-1.604975
  30
0
  11
177.5
  21
-1.469082
  31
0
  0
LINE
  5
bc
  100
AcDbEntity
  8
1
  100
AcDbLine
  10
177.5
  20
-1.469082
  30
0
  11
177.4
  21
-1.33199
  31
0
  0
LINE
  5
bd
  100
AcDbEntity
  8
1
  100
AcDbLine
  10
177.4
  20
-1.33199
  30
0
  11
177.3
  21
-1.193811
  31
0
  0
LINE
  5
be
  100
AcDbEntity
  8
1
  100
AcDbLine
  10
177.3
  20
-1.193811
  30
0
  11
177.2
  21
-1.054659
  31
0
  0
LINE
  5
bf
  100
AcDbEntity
  8
1
  100
AcDbLine
  10
177.2
  20
-1.054659
  30
0
  11
177.1
  21
-0.914646
  31
0
  0
LINE
  5
c0
  100
AcDbEntity
  8
1
  100
AcDbLine
  10
177.1
  20
-0.914646
  30
0
  11
177
  21
-0.773887
  31
0
  0
LINE
  5
c1
  100
AcDbEntity
  8
1
  100
AcDbLine
  10
177
  20
-0.773887
  30
0
  11
176.9
  21
-0.632497
  31
0
  0
LINE
  5
c2
  100
AcDbEntity
  8
1
  100
AcDbLine
  10
176.9
  20
-0.632497
  30
0
  11
176.8
  21
-0.490591
  31
0
  0
LINE
  5
c3
  100
AcDbEntity
  8
1
  100
AcDbLine
  10
176.8
  20
-0.490591
  30
0
  11
176.7
  21
-0.348284
  31
0
  0
LINE
  5
c4
  100
AcDbEntity
  8
1
  100
AcDbLine
  10
176.7
  20
-0.348284
  30
0
  11
176.6
  21
-0.205694
  31
0
  0
LINE
  5
c5
  100
AcDbEntity
  8
1
  100
AcDbLine
  10
176.6
  20
-0.205694
  30
0
  11
176.5
  21
-0.062935
  31
0
  0
LINE
  5
c6
  100
AcDbEntity
  8
1
  100
AcDbLine
  10
176.5
  20
-0.062935
  30
0
  11
176.4
  21
0.079875
  31
0
  0
LINE
  5
c7
  100
AcDbEntity
  8
1
  100
AcDbLine
  10
176.4
  20
0.079875
  30
0
  11
176.3
  21
0.222619
  31
0
  0
LINE
  5
c8
  100
AcDbEntity
  8
1
  100
AcDbLine
  10
176.3
  20
0.222619
  30
0
  11
176.2
  21
0.365182
  31
0
  0
LINE
  5
c9
  100
AcDbEntity
  8
1
  100
AcDbLine
  10
176.2
  20
0.365182
  30
0
  11
176.1
  21
0.507447
  31
0
  0
LINE
  5
ca
  100
AcDbEntity
  8
1
  100
AcDbLine
  10
176.1
  20
0.507447
  30
0
  11
176
  21
0.649298
  31
0
  0
LINE
  5
cb
  100
AcDbEntity
  8
1
  100
AcDbLine
  10
176
  20
0.649298
  30
0
  11
175.9
  21
0.79062
  31
0
  0
LINE
  5
cc
  100
AcDbEntity
  8
1
  100
AcDbLine
  10
175.9
  20
0.79062
  30
0
  11
175.8
  21
0.931296
  31
0
  0
LINE
  5
cd
  100
AcDbEntity
  8
1
  100
AcDbLine
  10
175.8
  20
0.931296
  30
0
  11
175.7
  21
1.071213
  31
0
  0
LINE
  5
ce
  100
AcDbEntity
  8
1
  100
AcDbLine
  10
175.7
  20
1.071213
  30
0
  11
175.6
  21
1.210256
  31
0
  0
LINE
  5
cf
  100
AcDbEntity
  8
1
  100
AcDbLine
  10
175.6
  20
1.210256
  30
0
  11
175.5
  21
1.348311
  31
0
  0
LINE
  5
d0
  100
AcDbEntity
  8
1
  100
AcDbLine
  10
175.5
  20
1.348311
  30
0
  11
175.4
  21
1.485267
  31
0
  0
LINE
  5
d1
  100
AcDbEntity
  8
1
  100
AcDbLine
  10
175.4
  20
1.485267
  30
0
  11
175.3
  21
1.621011
  31
0
  0
LINE
  5
d2
  100
AcDbEntity
  8
1
  100
AcDbLine
  10
175.3
  20
1.621011
  30
0
  11
175.2
  21
1.755432
  31
0
  0
LINE
  5
d3
  100
AcDbEntity
  8
1
  100
AcDbLine
  10
175.2
  20
1.755432
  30
0
  11
175.1
  21
1.888421
  31
0
  0
LINE
  5
d4
  100
AcDbEntity
  8
1
  100
AcDbLine
  10
175.1
  20
1.888421
  30
0
  11
175
  21
2.01987
  31
0
  0
LINE
  5
d5
  100
AcDbEntity
  8
1
  100
AcDbLine
  10
175
  20
2.01987
  30
0
  11
174.9
  21
2.149671
  31
0
  0
LINE
  5
d6
  100
AcDbEntity
  8
1
  100
AcDbLine
  10
174.9
  20
2.149671
  30
0
  11
174.8
  21
2.277719
  31
0
  0
LINE
  5
d7
  100
AcDbEntity
  8
1
  100
AcDbLine
  10
174.8
  20
2.277719
  30
0
  11
174.7
  21
2.403908
  31
0
  0
LINE
  5
d8
  100
AcDbEntity
  8
1
  100
AcDbLine
  10
174.7
  20
2.403908
  30
0
  11
174.6
  21
2.528136
  31
0
  0
LINE
  5
d9
  100
AcDbEntity
  8
1
  100
AcDbLine
  10
174.6
  20
2.528136
  30
0
  11
174.5
  21
2.650302
  31
0
  0
LINE
  5
da
  100
AcDbEntity
  8
1
  100
AcDbLine
  10
174.5
  20
2.650302
  30
0
  11
174.4
  21
2.770306
  31
0
  0
LINE
  5
db
  100
AcDbEntity
  8
1
  100
AcDbLine
  10
174.4
  20
2.770306
  30
0
  11
174.3
  21
2.88805
  31
0
  0
LINE
  5
dc
  100
AcDbEntity
  8
1
  100
AcDbLine
  10
174.3
  20
2.88805
  30
0
  11
174.2
  21
3.003437
  31
0
  0
LINE
  5
dd
  100
AcDbEntity
  8
1
  100
AcDbLine
  10
174.2
  20
3.003437
  30
0
  11
174.1
  21
3.116375
  31
0
  0
LINE
  5
de
  100
AcDbEntity
  8
1
  100
AcDbLine
  10
174.1
  20
3.116375
  30
0
  11
174
  21
3.22677
  31
0
  0
LINE
  5
df
  100
AcDbEntity
  8
1
  100
AcDbLine
  10
174
  20
3.22677
  30
0
  11
173.9
  21
3.334533
  31
0
  0
LINE
  5
e0
  100
AcDbEntity
  8
1
  100
AcDbLine
  10
173.9
  20
3.334533
  30
0
  11
173.8
  21
3.439576
  31
0
  0
LINE
  5
e1
  100
AcDbEntity
  8
1
  100
AcDbLine
  10
173.8
  20
3.439576
  30
0
  11
173.7
  21
3.541812
  31
0
  0
LINE
  5
e2
  100
AcDbEntity
  8
1
  100
AcDbLine
  10
173.7
  20
3.541812
  30
0
  11
173.6
  21
3.64116
  31
0
  0
LINE
  5
e3
  100
AcDbEntity
  8
1
  100
AcDbLine
  10
173.6
  20
3.64116
  30
0
  11
173.5
  21
3.737536
  31
0
  0
LINE
  5
e4
  100
AcDbEntity
  8
1
  100
AcDbLine
  10
173.5
  20
3.737536
  30
0
  11
173.4
  21
3.830864
  31
0
  0
LINE
  5
e5
  100
AcDbEntity
  8
1
  100
AcDbLine
  10
173.4
  20
3.830864
  30
0
  11
173.3
  21
3.921067
  31
0
  0
LINE
  5
e6
  100
AcDbEntity
  8
1
  100
AcDbLine
  10
173.3
  20
3.921067
  30
0
  11
173.2
  21
4.008071
  31
0
  0
LINE
  5
e7
  100
AcDbEntity
  8
1
  100
AcDbLine
  10
173.2
  20
4.008071
  30
0
  11
173.1
  21
4.091805
  31
0
  0
LINE
  5
e8
  100
AcDbEntity
  8
1
  100
AcDbLine
  10
173.1
  20
4.091805
  30
0
  11
173
  21
4.172201
  31
0
  0
LINE
  5
e9
  100
AcDbEntity
  8
1
  100
AcDbLine
  10
173
  20
4.172201
  30
0
  11
172.9
  21
4.249194
  31
0
  0
LINE
  5
ea
  100
AcDbEntity
  8
1
  100
AcDbLine
  10
172.9
  20
4.249194
  30
0
  11
172.8
  21
4.32272
  31
0
  0
LINE
  5
eb
  100
AcDbEntity
  8
1
  100
AcDbLine
  10
172.8
  20
4.32272
  30
0
  11
172.7
  21
4.392719
  31
0
  0
LINE
  5
ec
  100
AcDbEntity
  8
1
  100
AcDbLine
  10
172.7
  20
4.392719
  30
0
  11
172.6
  21
4.459135
  31
0
  0
LINE
  5
ed
  100
AcDbEntity
  8
1
  100
AcDbLine
  10
172.6
  20
4.459135
  30
0
  11
172.5
  21
4.521914
  31
0
  0
LINE
  5
ee
  100
AcDbEntity
  8
1
  100
AcDbLine
  10
172.5
  20
4.521914
  30
0
  11
172.4
  21
4.581003
  31
0
  0
LINE
  5
ef
  100
AcDbEntity
  8
1
  100
AcDbLine
  10
172.4
  20
4.581003
  30
0
  11
172.3
  21
4.636356
  31
0
  0
LINE
  5
f0
  100
AcDbEntity
  8
1
  100
AcDbLine
  10
172.3
  20
4.636356
  30
0
  11
172.2
  21
4.687926
  31
0
  0
LINE
  5
f1
  100
AcDbEntity
  8
1
  100
AcDbLine
  10
172.2
  20
4.687926
  30
0
  11
172.1
  21
4.735672
  31
0
  0
LINE
  5
f2
  100
AcDbEntity
  8
1
  100
AcDbLine
  10
172.1
  20
4.735672
  30
0
  11
172
  21
4.779554
  31
0
  0
LINE
  5
f3
  100
AcDbEntity
  8
1
  100
AcDbLine
  10
172
  20
4.779554
  30
0
  11
171.9
  21
4.819537
  31
0
  0
LINE
  5
f4
  100
AcDbEntity
  8
1
  100
AcDbLine
  10
171.9
  20
4.819537
  30
0
  11
171.8
  21
4.855589
  31
0
  0
LINE
  5
f5
  100
AcDbEntity
  8
1
  100
AcDbLine
  10
171.8
  20
4.855589
  30
0
  11
171.7
  21
4.887679
  31
0
  0
LINE
  5
f6
  100
AcDbEntity
  8
1
  100
AcDbLine
  10
171.7
  20
4.887679
  30
0
  11
171.6
  21
4.915783
  31
0
  0
LINE
  5
f7
  100
AcDbEntity
  8
1
  100
AcDbLine
  10
171.6
  20
4.915783
  30
0
  11
171.5
  21
4.939876
  31
0
  0
LINE
  5
f8
  100
AcDbEntity
  8
1
  100
AcDbLine
  10
171.5
  20
4.939876
  30
0
  11
171.4
  21
4.959939
  31
0
  0
LINE
  5
f9
  100
AcDbEntity
  8
1
  100
AcDbLine
  10
171.4
  20
4.959939
  30
0
  11
171.3
  21
4.975955
  31
0
  0
LINE
  5
fa
  100
AcDbEntity
  8
1
  100
AcDbLine
  10
171.3
  20
4.975955
  30
0
  11
171.2
  21
4.987913
  31
0
  0
LINE
  5
fb
  100
AcDbEntity
  8
1
  100
AcDbLine
  10
171.2
  20
4.987913
  30
0
  11
171.1
  21
4.995801
  31
0
  0
LINE
  5
fc
  100
AcDbEntity
  8
1
  100
AcDbLine
  10
171.1
  20
4.995801
  30
0
  11
171
  21
4.999614
  31
0
  0
LINE
  5
fd
  100
AcDbEntity
  8
1
  100
AcDbLine
  10
171
  20
4.999614
  30
0
  11
170.956514
  21
5
  31
0
  0
LINE
  5
fe
  100
AcDbEntity
  8
1
  100
AcDbLine
  10
169.350876
  20
5
  30
0
  11
169.4
  21
4.937303
  31
0
  0
LINE
  5
ff
  100
AcDbEntity
  8
1
  100
AcDbLine
  10
169.4
  20
4.937303
  30
0
  11
169.5
  21
4.93331
  31
0
  0
LINE
  5
100
  100
AcDbEntity
  8
1
  100
AcDbLine
  10
169.5
  20
4.93331
  30
0
  11
169.6
  21
4.925293
  31
0
  0
LINE
  5
101
  100
AcDbEntity
  8
1
  100
AcDbLine
  10
169.6
  20
4.925293
  30
0
  11
169.7
  21
4.913258
  31
0
  0
LINE
  5
102
  100
AcDbEntity
  8
1
  100
AcDbLine
  10
169.7
  20
4.913258
  30
0
  11
169.8
  21
4.897215
  31
0
  0
LINE
  5
103
  100
AcDbEntity
  8
1
  100
AcDbLine
  10
169.8
  20
4.897215
  30
0
  11
169.9
  21
4.877177
  31
0
  0
LINE
  5
104
  100
AcDbEntity
  8
1
  100
AcDbLine
  10
169.9
  20
4.877177
  30
0
  11
170
  21
4.85316
  31
0
  0
LINE
  5
105
  100
AcDbEntity
  8
1
  100
AcDbLine
  10
170
  20
4.85316
  30
0
  11
170.1
  21
4.825184
  31
0
  0
LINE
  5
106
  100
AcDbEntity
  8
1
  100
AcDbLine
  10
170.1
  20
4.825184
  30
0
  11
170.2
  21
4.793271
  31
0
  0
LINE
  5
107
  100
AcDbEntity
  8
1
  100
AcDbLine
  10
170.2
  20
4.793271
  30
0
  11
170.3
  21
4.757448
  31
0
  0
LINE
  5
108
  100
AcDbEntity
  8
1
  100
AcDbLine
  10
170.3
  20
4.757448
  30
0
  11
170.4
  21
4.717744
  31
0
  0
LINE
  5
109
  100
AcDbEntity
  8
1
  100
AcDbLine
  10
170.4
  20
4.717744
  30
0
  11
170.5
  21
4.674192
  31
0
  0
LINE
  5
10a
  100
AcDbEntity
  8
1
  100
AcDbLine
  10
170.5
  20
4.674192
  30
0
  11
170.6
  21
4.626826
  31
0
  0
LINE
  5
10b
  100
AcDbEntity
  8
1
  100
AcDbLine
  10
170.6
  20
4.626826
  30
0
  11
170.7
  21
4.575686
  31
0
  0
LINE
  5
10c
  100
AcDbEntity
  8
1
  100
AcDbLine
  10
170.7
  20
4.575686
  30
0
  11
170.8
  21
4.520813
  31
0
  0
LINE
  5
10d
  100
AcDbEntity
  8
1
  100
AcDbLine
  10
170.8
  20
4.520813
  30
0
  11
170.9
  21
4.462252
  31
0
  0
LINE
  5
10e
  100
AcDbEntity
  8
1
  100
AcDbLine
  10
170.9
  20
4.462252
  30
0
  11
171
  21
4.400051
  31
0
  0
LINE
  5
10f
  100
AcDbEntity
  8
1
  100
AcDbLine
  10
171
  20
4.400051
  30
0
  11
171.1
  21
4.33426
  31
0
  0
LINE
  5
110
  100
AcDbEntity
  8
1
  100
AcDbLine
  10
171.1
  20
4.33426
  30
0
  11
171.2
  21
4.264934
  31
0
  0
LINE
  5
111
  100
AcDbEntity
  8
1
  100
AcDbLine
  10
171.2
  20
4.264934
  30
0
  11
171.3
  21
4.192128
  31
0
  0
LINE
  5
112
  100
AcDbEntity
  8
1
  100
AcDbLine
  10
171.3
  20
4.192128
  30
0
  11
171.4
  21
4.115902
  31
0
  0
LINE
  5
113
  100
AcDbEntity
  8
1
  100
AcDbLine
  10
171.4
  20
4.115902
  30
0
  11
171.5
  21
4.036318
  31
0
  0
LINE
  5
114
  100
AcDbEntity
  8
1
  100
AcDbLine
  10
171.5
  20
4.036318
  30
0
  11
171.6
  21
3.953442
  31
0
  0
LINE
  5
115
  100
AcDbEntity
  8
1
  100
AcDbLine
  10
171.6
  20
3.953442
  30
0
  11
171.7
  21
3.867341
  31
0
  0
LINE
  5
116
  100
AcDbEntity
  8
1
  100
AcDbLine
  10
171.7
  20
3.867341
  30
0
  11
171.8
  21
3.778085
  31
0
  0
LINE
  5
117
  100
AcDbEntity
  8
1
  100
AcDbLine
  10
171.8
  20
3.778085
  30
0
  11
171.9
  21
3.685746
  31
0
  0
LINE
  5
118
  100
AcDbEntity
  8
1
  100
AcDbLine
  10
171.9
  20
3.685746
  30
0
  11
172
  21
3.590401
  31
0
  0
LINE
  5
119
  100
AcDbEntity
  8
1
  100
AcDbLine
  10
172
  20
3.590401
  30
0
  11
172.1
  21
3.492127
  31
0
  0
LINE
  5
11a
  100
AcDbEntity
  8
1
  100
AcDbLine
  10
172.1
  20
3.492127
  30
0
  11
172.2
  21
3.391004
  31
0
  0
LINE
  5
11b
  100
AcDbEntity
  8
1
  100
AcDbLine
  10
172.2
  20
3.391004
  30
0
  11
172.3
  21
3.287114
  31
0
  0
LINE
  5
11c
  100
AcDbEntity
  8
1
  100
AcDbLine
  10
172.3
  20
3.287114
  30
0
  11
172.4
  21
3.180543
  31
0
  0
LINE
  5
11d
  100
AcDbEntity
  8
1
  100
AcDbLine
  10
172.4
  20
3.180543
  30
0
  11
172.5
  21
3.071378
  31
0
  0
LINE
  5
11e
  100
AcDbEntity
  8
1
  100
AcDbLine
  10
172.5
  20
3.071378
  30
0
  11
172.6
  21
2.959707
  31
0
  0
LINE
  5
11f
  100
AcDbEntity
  8
1
  100
AcDbLine
  10
172.6
  20
2.959707
  30
0
  11
172.7
  21
2.845621
  31
0
  0
LINE
  5
120
  100
AcDbEntity
  8
1
  100
AcDbLine
  10
172.7
  20
2.845621
  30
0
  11
172.8
  21
2.729214
  31
0
  0
LINE
  5
121
  100
AcDbEntity
  8
1
  100
AcDbLine
  10
172.8
  20
2.729214
  30
0
  11
172.9
  21
2.61058
  31
0
  0
LINE
  5
122
  100
AcDbEntity
  8
1
  100
AcDbLine
  10
172.9
  20
2.61058
  30
0
  11
173
  21
2.489817
  31
0
  0
LINE
  5
123
  100
AcDbEntity
  8
1
  100
AcDbLine
  10
173
  20
2.489817
  30
0
  11
173.1
  21
2.367022
  31
0
  0
LINE
  5
124
  100
AcDbEntity
  8
1
  100
AcDbLine
  10
173.1
  20
2.367022
  30
0
  11
173.2
  21
2.242297
  31
0
  0
LINE
  5
125
  100
AcDbEntity
  8
1
  100
AcDbLine
  10
173.2
  20
2.242297
  30
0
  11
173.3
  21
2.115742
  31
0
  0
LINE
  5
126
  100
AcDbEntity
  8
1
  100
AcDbLine
  10
173.3
  20
2.115742
  30
0
  11
173.4
  21
1.987462
  31
0
  0
LINE
  5
127
  100
AcDbEntity
  8
1
  100
AcDbLine
  10
173.4
  20
1.987462
  30
0
  11
173.5
  21
1.85756
  31
0
  0
LINE
  5
128
  100
AcDbEntity
  8
1
  100
AcDbLine
  10
173.5
  20
1.85756
  30
0
  11
173.6
  21
1.726142
  31
0
  0
LINE
  5
129
  100
AcDbEntity
  8
1
  100
AcDbLine
  10
173.6
  20
1.726142
  30
0
  11
173.7
  21
1.593317
  31
0
  0
LINE
  5
12a
  100
AcDbEntity
  8
1
  100
AcDbLine
  10
173.7
  20
1.593317
  30
0
  11
173.8
  21
1.459192
  31
0
  0
LINE
  5
12b
  100
AcDbEntity
  8
1
  100
AcDbLine
  10
173.8
  20
1.459192
  30
0
  11
173.9
  21
1.323876
  31
0
  0
LINE
  5
12c
  100
AcDbEntity
  8
1
  100
AcDbLine
  10
173.9
  20
1.323876
  30
0
  11
174
  21
1.18748
  31
0
  0
LINE
  5
12d
  100
AcDbEntity
  8
1
  100
AcDbLine
  10
174
  20
1.18748
  30
0
  11
174.1
  21
1.050116
  31
0
  0
LINE
  5
12e
  100
AcDbEntity
  8
1
  100
AcDbLine
  10
174.1
  20
1.050116
  30
0
  11
174.2
  21
0.911895
  31
0
  0
LINE
  5
12f
  100
AcDbEntity
  8
1
  100
AcDbLine
  10
174.2
  20
0.911895
  30
0
  11
174.3
  21
0.77293
  31
0
  0
LINE
  5
130
  100
AcDbEntity
  8
1
  100
AcDbLine
  10
174.3
  20
0.77293
  30
0
  11
174.4
  21
0.633334
  31
0
  0
LINE
  5
131
  100
AcDbEntity
  8
1
  100
AcDbLine
  10
174.4
  20
0.633334
  30
0
  11
174.5
  21
0.493222
  31
0
  0
LINE
  5
132
  100
AcDbEntity
  8
1
  100
AcDbLine
  10
174.5
  20
0.493222
  30
0
  11
174.6
  21
0.352707
  31
0
  0
LINE
  5
133
  100
AcDbEntity
  8
1
  100
AcDbLine
  10
174.6
  20
0.352707
  30
0
  11
174.7
  21
0.211905
  31
0
  0
LINE
  5
134
  100
AcDbEntity
  8
1
  100
AcDbLine
  10
174.7
  20
0.211905
  30
0
  11
174.8
  21
0.07093
  31
0
  0
LINE
  5
135
  100
AcDbEntity
  8
1
  100
AcDbLine
  10
174.8
  20
0.07093
  30
0
  11
174.9
  21
-0.070103
  31
0
  0
LINE
  5
136
  100
AcDbEntity
  8
1
  100
AcDbLine
  10
174.9
  20
-0.070103
  30
0
  11
175
  21
-0.211079
  31
0
  0
LINE
  5
137
  100
AcDbEntity
  8
1
  100
AcDbLine
  10
175
  20
-0.211079
  30
0
  11
175.1
  21
-0.351883
  31
0
  0
LINE
  5
138
  100
AcDbEntity
  8
1
  100
AcDbLine
  10
175.1
  20
-0.351883
  30
0
  11
175.2
  21
-0.4924
  31
0
  0
LINE
  5
139
  100
AcDbEntity
  8
1
  100
AcDbLine
  10
175.2
  20
-0.4924
  30
0
  11
175.3
  21
-0.632515
  31
0
  0
LINE
  5
13a
  100
AcDbEntity
  8
1
  100
AcDbLine
  10
175.3
  20
-0.632515
  30
0
  11
175.4
  21
-0.772113
  31
0
  0
LINE
  5
13b
  100
AcDbEntity
  8
1
  100
AcDbLine
  10
175.4
  20
-0.772113
  30
0
  11
175.5
  21
-0.911083
  31
0
  0
LINE
  5
13c
  100
AcDbEntity
  8
1
  100
AcDbLine
  10
175.5
  20
-0.911083
  30
0
  11
175.6
  21
-1.049308
  31
0
  0
LINE
  5
13d
  100
AcDbEntity
  8
1
  100
AcDbLine
  10
175.6
  20
-1.049308
  30
0
  11
175.7
  21
-1.186678
  31
0
  0
LINE
  5
13e
  100
AcDbEntity
  8
1
  100
AcDbLine
  10
175.7
  20
-1.186678
  30
0
  11
175.8
  21
-1.32308
  31
0
  0
LINE
  5
13f
  100
AcDbEntity
  8
1
  100
AcDbLine
  10
175.8
  20
-1.32308
  30
0
  11
175.9
  21
-1.458402
  31
0
  0
LINE
  5
140
  100
AcDbEntity
  8
1
  100
AcDbLine
  10
175.9
  20
-1.458402
  30
0
  11
176
  21
-1.592535
  31
0
  0
LINE
  5
141
  100
AcDbEntity
  8
1
  100
AcDbLine
  10
176
  20
-1.592535
  30
0
  11
176.1
  21
-1.725368
  31
0
  0
LINE
  5
142
  100
AcDbEntity
  8
1
  100
AcDbLine
  10
176.1
  20
-1.725368
  30
0
  11
176.2
  21
-1.856794
  31
0
  0
LINE
  5
143
  100
AcDbEntity
  8
1
  100
AcDbLine
  10
176.2
  20
-1.856794
  30
0
  11
176.3
  21
-1.986705
  31
0
  0
LINE
  5
144
  100
AcDbEntity
  8
1
  100
AcDbLine
  10
176.3
  20
-1.986705
  30
0
  11
176.4
  21
-2.114996
  31
0
  0
LINE
  5
145
  100
AcDbEntity
  8
1
  100
AcDbLine
  10
176.4
  20
-2.114996
  30
0
  11
176.5
  21
-2.241561
  31
0
  0
LINE
  5
146
  100
AcDbEntity
  8
1
  100
AcDbLine
  10
176.5
  20
-2.241561
  30
0
  11
176.6
  21
-2.366297
  31
0
  0
LINE
  5
147
  100
AcDbEntity
  8
1
  100
AcDbLine
  10
176.6
  20
-2.366297
  30
0
  11
176.7
  21
-2.489103
  31
0
  0
LINE
  5
148
  100
AcDbEntity
  8
1
  100
AcDbLine
  10
176.7
  20
-2.489103
  30
0
  11
176.8
  21
-2.609879
  31
0
  0
LINE
  5
149
  100
AcDbEntity
  8
1
  100
AcDbLine
  10
176.8
  20
-2.609879
  30
0
  11
176.9
  21
-2.728525
  31
0
  0
LINE
  5
14a
  100
AcDbEntity
  8
1
  100
AcDbLine
  10
176.9
  20
-2.728525
  30
0
  11
177
  21
-2.844945
  31
0
  0
LINE
  5
14b
  100
AcDbEntity
  8
1
  100
AcDbLine
  10
177
  20
-2.844945
  30
0
  11
177.1
  21
-2.959045
  31
0
  0
LINE
  5
14c
  100
AcDbEntity
  8
1
  100
AcDbLine
  10
177.1
  20
-2.959045
  30
0
  11
177.2
  21
-3.070731
  31
0
  0
LINE
  5
14d
  100
AcDbEntity
  8
1
  100
AcDbLine
  10
177.2
  20
-3.070731
  30
0
  11
177.3
  21
-3.179911
  31
0
  0
LINE
  5
14e
  100
AcDbEntity
  8
1
  100
AcDbLine
  10
177.3
  20
-3.179911
  30
0
  11
177.4
  21
-3.286498
  31
0
  0
LINE
  5
14f
  100
AcDbEntity
  8
1
  100
AcDbLine
  10
177.4
  20
-3.286498
  30
0
  11
177.5
  21
-3.390403
  31
0
  0
LINE
  5
150
  100
AcDbEntity
  8
1
  100
AcDbLine
  10
177.5
  20
-3.390403
  30
0
  11
177.6
  21
-3.491542
  31
0
  0
LINE
  5
151
  100
AcDbEntity
  8
1
  100
AcDbLine
  10
177.6
  20
-3.491542
  30
0
  11
177.7
  21
-3.589834
  31
0
  0
LINE
  5
152
  100
AcDbEntity
  8
1
  100
AcDbLine
  10
177.7
  20
-3.589834
  30
0
  11
177.8
  21
-3.685196
  31
0
  0
LINE
  5
153
  100
AcDbEntity
  8
1
  100
AcDbLine
  10
177.8
  20
-3.685196
  30
0
  11
177.9
  21
-3.777552
  31
0
  0
LINE
  5
154
  100
AcDbEntity
  8
1
  100
AcDbLine
  10
177.9
  20
-3.777552
  30
0
  11
178
  21
-3.866827
  31
0
  0
LINE
  5
155
  100
AcDbEntity
  8
1
  100
AcDbLine
  10
178
  20
-3.866827
  30
0
  11
178.1
  21
-3.950597
  31
0
  0
LINE
  5
156
  100
AcDbEntity
  8
1
  100
AcDbLine
  10
178.1
  20
-3.950597
  30
0
  11
178.2
  21
-4.026311
  31
0
  0
LINE
  5
157
  100
AcDbEntity
  8
1
  100
AcDbLine
  10
178.2
  20
-4.026311
  30
0
  11
178.3
  21
-4.093695
  31
0
  0
LINE
  5
158
  100
AcDbEntity
  8
1
  100
AcDbLine
  10
178.3
  20
-4.093695
  30
0
  11
178.4
  21
-4.152459
  31
0
  0
LINE
  5
159
  100
AcDbEntity
  8
1
  100
AcDbLine
  10
178.4
  20
-4.152459
  30
0
  11
178.5
  21
-4.202289
  31
0
  0
LINE
  5
15a
  100
AcDbEntity
  8
1
  100
AcDbLine
  10
178.5
  20
-4.202289
  30
0
  11
178.6
  21
-4.242847
  31
0
  0
LINE
  5
15b
  100
AcDbEntity
  8
1
  100
AcDbLine
  10
178.6
  20
-4.242847
  30
0
  11
178.7
  21
-4.273756
  31
0
  0
LINE
  5
15c
  100
AcDbEntity
  8
1
  100
AcDbLine
  10
178.7
  20
-4.273756
  30
0
  11
178.8
  21
-4.29459
  31
0
  0
LINE
  5
15d
  100
AcDbEntity
  8
1
  100
AcDbLine
  10
178.8
  20
-4.29459
  30
0
  11
178.9
  21
-4.304855
  31
0
  0
LINE
  5
15e
  100
AcDbEntity
  8
1
  100
AcDbLine
  10
178.9
  20
-4.304855
  30
0
  11
179
  21
-4.303962
  31
0
  0
LINE
  5
15f
  100
AcDbEntity
  8
1
  100
AcDbLine
  10
179
  20
-4.303962
  30
0
  11
179.1
  21
-4.291191
  31
0
  0
LINE
  5
160
  100
AcDbEntity
  8
1
  100
AcDbLine
  10
179.1
  20
-4.291191
  30
0
  11
179.2
  21
-4.265632
  31
0
  0
LINE
  5
161
  100
AcDbEntity
  8
1
  100
AcDbLine
  10
179.2
  20
-4.265632
  30
0
  11
179.3
  21
-4.226089
  31
0
  0
LINE
  5
162
  100
AcDbEntity
  8
1
  100
AcDbLine
  10
179.3
  20
-4.226089
  30
0
  11
179.4
  21
-4.17093
  31
0
  0
LINE
  5
163
  100
AcDbEntity
  8
1
  100
AcDbLine
  10
179.4
  20
-4.17093
  30
0
  11
179.5
  21
-4.0978
  31
0
  0
LINE
  5
164
  100
AcDbEntity
  8
1
  100
AcDbLine
  10
179.5
  20
-4.0978
  30
0
  11
179.6
  21
-4.003077
  31
0
  0
LINE
  5
165
  100
AcDbEntity
  8
1
  100
AcDbLine
  10
179.6
  20
-4.003077
  30
0
  11
179.7
  21
-3.880628
  31
0
  0
LINE
  5
166
  100
AcDbEntity
  8
1
  100
AcDbLine
  10
179.7
  20
-3.880628
  30
0
  11
179.8
  21
-3.718437
  31
0
  0
LINE
  5
167
  100
AcDbEntity
  8
1
  100
AcDbLine
  10
179.8
  20
-3.718437
  30
0
  11
179.9
  21
-3.485359
  31
0
  0
LINE
  5
168
  100
AcDbEntity
  8
1
  100
AcDbLine
  10
179.9
  20
-3.485359
  30
0
  11
179.996243
  21
-2.877473
  31
0
  0
LINE
  5
169
  100
AcDbEntity
  8
1
  100
AcDbLine
  10
179.996243
  20
-2.877473
  30
0
  11
180
  21
-2.853745
  31
0
  0
LINE
  5
16a
  100
AcDbEntity
  8
1
  100
AcDbLine
  10
180
  20
-2.986626
  30
0
  11
179.999957
  21
-2.986894
  31
0
  0
LINE
  5
16b
  100
AcDbEntity
  8
1
  100
AcDbLine
  10
179.999957
  20
-2.986894
  30
0
  11
179.9
  21
-3.612284
  31
0
  0
LINE
  5
16c
  100
AcDbEntity
  8
1
  100
AcDbLine
  10
179.9
  20
-3.612284
  30
0
  11
179.8
  21
-3.853123
  31
0
  0
LINE
  5
16d
  100
AcDbEntity
  8
1
  100
AcDbLine
  10
179.8
  20
-3.853123
  30
0
  11
179.7
  21
-4.025098
  31
0
  0
LINE
  5
16e
  100
AcDbEntity
  8
1
  100
AcDbLine
  10
179.7
  20
-4.025098
  30
0
  11
179.6
  21
-4.158275
  31
0
  0
LINE
  5
16f
  100
AcDbEntity
  8
1
  100
AcDbLine
  10
179.6
  20
-4.158275
  30
0
  11
179.5
  21
-4.26426
  31
0
  0
LINE
  5
170
  100
AcDbEntity
  8
1
  100
AcDbLine
  10
179.5
  20
-4.26426
  30
0
  11
179.4
  21
-4.348974
  31
0
  0
LINE
  5
171
  100
AcDbEntity
  8
1
  100
AcDbLine
  10
179.4
  20
-4.348974
  30
0
  11
179.3
  21
-4.415914
  31
0
  0
LINE
  5
172
  100
AcDbEntity
  8
1
  100
AcDbLine
  10
179.3
  20
-4.415914
  30
0
  11
179.2
  21
-4.467349
  31
0
  0
LINE
  5
173
  100
AcDbEntity
  8
1
  100
AcDbLine
  10
179.2
  20
-4.467349
  30
0
  11
179.1
  21
-4.504851
  31
0
  0
LINE
  5
174
  100
AcDbEntity
  8
1
  100
AcDbLine
  10
179.1
  20
-4.504851
  30
0
  11
179
  21
-4.529569
  31
0
  0
LINE
  5
175
  100
AcDbEntity
  8
1
  100
AcDbLine
  10
179
  20
-4.529569
  30
0
  11
178.9
  21
-4.542375
  31
0
  0
LINE
  5
176
  100
AcDbEntity
  8
1
  100
AcDbLine
  10
178.9
  20
-4.542375
  30
0
  11
178.8
  21
-4.54396
  31
0
  0
LINE
  5
177
  100
AcDbEntity
  8
1
  100
AcDbLine
  10
178.8
  20
-4.54396
  30
0
  11
178.7
  21
-4.534886
  31
0
  0
LINE
  5
178
  100
AcDbEntity
  8
1
  100
AcDbLine
  10
178.7
  20
-4.534886
  30
0
  11
178.6
  21
-4.515625
  31
0
  0
LINE
  5
179
  100
AcDbEntity
  8
1
  100
AcDbLine
  10
178.6
  20
-4.515625
  30
0
  11
178.5
  21
-4.486582
  31
0
  0
LINE
  5
17a
  100
AcDbEntity
  8
1
  100
AcDbLine
  10
178.5
  20
-4.486582
  30
0
  11
178.4
  21
-4.448115
  31
0
  0
LINE
  5
17b
  100
AcDbEntity
  8
1
  100
AcDbLine
  10
178.4
  20
-4.448115
  30
0
  11
178.3
  21
-4.400547
  31
0
  0
LINE
  5
17c
  100
AcDbEntity
  8
1
  100
AcDbLine
  10
178.3
  20
-4.400547
  30
0
  11
178.2
  21
-4.344174
  31
0
  0
LINE
  5
17d
  100
AcDbEntity
  8
1
  100
AcDbLine
  10
178.2
  20
-4.344174
  30
0
  11
178.1
  21
-4.279273
  31
0
  0
LINE
  5
17e
  100
AcDbEntity
  8
1
  100
AcDbLine
  10
178.1
  20
-4.279273
  30
0
  11
178
  21
-4.206104
  31
0
  0
LINE
  5
17f
  100
AcDbEntity
  8
1
  100
AcDbLine
  10
178
  20
-4.206104
  30
0
  11
177.9
  21
-4.12718
  31
0
  0
LINE
  5
180
  100
AcDbEntity
  8
1
  100
AcDbLine
  10
177.9
  20
-4.12718
  30
0
  11
177.8
  21
-4.044889
  31
0
  0
LINE
  5
181
  100
AcDbEntity
  8
1
  100
AcDbLine
  10
177.8
  20
-4.044889
  30
0
  11
177.7
  21
-3.959299
  31
0
  0
LINE
  5
182
  100
AcDbEntity
  8
1
  100
AcDbLine
  10
177.7
  20
-3.959299
  30
0
  11
177.6
  21
-3.870478
  31
0
  0
LINE
  5
183
  100
AcDbEntity
  8
1
  100
AcDbLine
  10
177.6
  20
-3.870478
  30
0
  11
177.5
  21
-3.7785
  31
0
  0
LINE
  5
184
  100
AcDbEntity
  8
1
  100
AcDbLine
  10
177.5
  20
-3.7785
  30
0
  11
177.4
  21
-3.68344
  31
0
  0
LINE
  5
185
  100
AcDbEntity
  8
1
  100
AcDbLine
  10
177.4
  20
-3.68344
  30
0
  11
177.3
  21
-3.585374
  31
0
  0
LINE
  5
186
  100
AcDbEntity
  8
1
  100
AcDbLine
  10
177.3
  20
-3.585374
  30
0
  11
177.2
  21
-3.484384
  31
0
  0
LINE
  5
187
  100
AcDbEntity
  8
1
  100
AcDbLine
  10
177.2
  20
-3.484384
  30
0
  11
177.1
  21
-3.380551
  31
0
  0
LINE
  5
188
  100
AcDbEntity
  8
1
  100
AcDbLine
  10
177.1
  20
-3.380551
  30
0
  11
177
  21
-3.273961
  31
0
  0
LINE
  5
189
  100
AcDbEntity
  8
1
  100
AcDbLine
  10
177
  20
-3.273961
  30
0
  11
176.9
  21
-3.164699
  31
0
  0
LINE
  5
18a
  100
AcDbEntity
  8
1
  100
AcDbLine
  10
176.9
  20
-3.164699
  30
0
  11
176.8
  21
-3.052856
  31
0
  0
LINE
  5
18b
  100
AcDbEntity
  8
1
  100
AcDbLine
  10
176.8
  20
-3.052856
  30
0
  11
176.7
  21
-2.938522
  31
0
  0
LINE
  5
18c
  100
AcDbEntity
  8
1
  100
AcDbLine
  10
176.7
  20
-2.938522
  30
0
  11
176.6
  21
-2.821791
  31
0
  0
LINE
  5
18d
  100
AcDbEntity
  8
1
  100
AcDbLine
  10
176.6
  20
-2.821791
  30
0
  11
176.5
  21
-2.702758
  31
0
  0
LINE
  5
18e
  100
AcDbEntity
  8
1
  100
AcDbLine
  10
176.5
  20
-2.702758
  30
0
  11
176.4
  21
-2.581521
  31
0
  0
LINE
  5
18f
  100
AcDbEntity
  8
1
  100
AcDbLine
  10
176.4
  20
-2.581521
  30
0
  11
176.3
  21
-2.458177
  31
0
  0
LINE
  5
190
  100
AcDbEntity
  8
1
  100
AcDbLine
  10
176.3
  20
-2.458177
  30
0
  11
176.2
  21
-2.332828
  31
0
  0
LINE
  5
191
  100
AcDbEntity
  8
1
  100
AcDbLine
  10
176.2
  20
-2.332828
  30
0
  11
176.1
  21
-2.205576
  31
0
  0
LINE
  5
192
  100
AcDbEntity
  8
1
  100
AcDbLine
  10
176.1
  20
-2.205576
  30
0
  11
176
  21
-2.076524
  31
0
  0
LINE
  5
193
  100
AcDbEntity
  8
1
  100
AcDbLine
  10
176
  20
-2.076524
  30
0
  11
175.9
  21
-1.945779
  31
0
  0
LINE
  5
194
  100
AcDbEntity
  8
1
  100
AcDbLine
  10
175.9
  20
-1.945779
  30
0
  11
175.8
  21
-1.813446
  31
0
  0
LINE
  5
195
  100
AcDbEntity
  8
1
  100
AcDbLine
  10
175.8
  20
-1.813446
  30
0
  11
175.7
  21
-1.679634
  31
0
  0
LINE
  5
196
  100
AcDbEntity
  8
1
  100
AcDbLine
  10
175.7
  20
-1.679634
  30
0
  11
175.6
  21
-1.544452
  31
0
  0
LINE
  5
197
  100
AcDbEntity
  8
1
  100
AcDbLine
  10
175.6
  20
-1.544452
  30
0
  11
175.5
  21
-1.408009
  31
0
  0
LINE
  5
198
  100
AcDbEntity
  8
1
  100
AcDbLine
  10
175.5
  20
-1.408009
  30
0
  11
175.4
  21
-1.270418
  31
0
  0
LINE
  5
199
  100
AcDbEntity
  8
1
  100
AcDbLine
  10
175.4
  20
-1.270418
  30
0
  11
175.3
  21
-1.131791
  31
0
  0
LINE
  5
19a
  100
AcDbEntity
  8
1
  100
AcDbLine
  10
175.3
  20
-1.131791
  30
0
  11
175.2
  21
-0.99224
  31
0
  0
LINE
  5
19b
  100
AcDbEntity
  8
1
  100
AcDbLine
  10
175.2
  20
-0.99224
  30
0
  11
175.1
  21
-0.85188
  31
0
  0
LINE
  5
19c
  100
AcDbEntity
  8
1
  100
AcDbLine
  10
175.1
  20
-0.85188
  30
0
  11
175
  21
-0.710825
  31
0
  0
LINE
  5
19d
  100
AcDbEntity
  8
1
  100
AcDbLine
  10
175
  20
-0.710825
  30
0
  11
174.9
  21
-0.56919
  31
0
  0
LINE
  5
19e
  100
AcDbEntity
  8
1
  100
AcDbLine
  10
174.9
  20
-0.56919
  30
0
  11
174.8
  21
-0.427091
  31
0
  0
LINE
  5
19f
  100
AcDbEntity
  8
1
  100
AcDbLine
  10
174.8
  20
-0.427091
  30
0
  11
174.7
  21
-0.284643
  31
0
  0
LINE
  5
1a0
  100
AcDbEntity
  8
1
  100
AcDbLine
  10
174.7
  20
-0.284643
  30
0
  11
174.6
  21
-0.141963
  31
0
  0
LINE
  5
1a1
  100
AcDbEntity
  8
1
  100
AcDbLine
  10
174.6
  20
-0.141963
  30
0
  11
174.5
  21
0.000832
  31
0
  0
LINE
  5
1a2
  100
AcDbEntity
  8
1
  100
AcDbLine
  10
174.5
  20
0.000832
  30
0
  11
174.4
  21
0.143627
  31
0
  0
LINE
  5
1a3
  100
AcDbEntity
  8
1
  100
AcDbLine
  10
174.4
  20
0.143627
  30
0
  11
174.3
  21
0.286305
  31
0
  0
LINE
  5
1a4
  100
AcDbEntity
  8
1
  100
AcDbLine
  10
174.3
  20
0.286305
  30
0
  11
174.2
  21
0.42875
  31
0
  0
LINE
  5
1a5
  100
AcDbEntity
  8
1
  100
AcDbLine
  10
174.2
  20
0.42875
  30
0
  11
174.1
  21
0.570844
  31
0
  0
LINE
  5
1a6
  100
AcDbEntity
  8
1
  100
AcDbLine
  10
174.1
  20
0.570844
  30
0
  11
174
  21
0.712473
  31
0
  0
LINE
  5
1a7
  100
AcDbEntity
  8
1
  100
AcDbLine
  10
174
  20
0.712473
  30
0
  11
173.9
  21
0.853521
  31
0
  0
LINE
  5
1a8
  100
AcDbEntity
  8
1
  100
AcDbLine
  10
173.9
  20
0.853521
  30
0
  11
173.8
  21
0.993872
  31
0
  0
LINE
  5
1a9
  100
AcDbEntity
  8
1
  100
AcDbLine
  10
173.8
  20
0.993872
  30
0
  11
173.7
  21
1.133413
  31
0
  0
LINE
  5
1aa
  100
AcDbEntity
  8
1
  100
AcDbLine
  10
173.7
  20
1.133413
  30
0
  11
173.6
  21
1.272028
  31
0
  0
LINE
  5
1ab
  100
AcDbEntity
  8
1
  100
AcDbLine
  10
173.6
  20
1.272028
  30
0
  11
173.5
  21
1.409607
  31
0
  0
LINE
  5
1ac
  100
AcDbEntity
  8
1
  100
AcDbLine
  10
173.5
  20
1.409607
  30
0
  11
173.4
  21
1.546035
  31
0
  0
LINE
  5
1ad
  100
AcDbEntity
  8
1
  100
AcDbLine
  10
173.4
  20
1.546035
  30
0
  11
173.3
  21
1.681202
  31
0
  0
LINE
  5
1ae
  100
AcDbEntity
  8
1
  100
AcDbLine
  10
173.3
  20
1.681202
  30
0
  11
173.2
  21
1.814998
  31
0
  0
LINE
  5
1af
  100
AcDbEntity
  8
1
  100
AcDbLine
  10
173.2
  20
1.814998
  30
0
  11
173.1
  21
1.947312
  31
0
  0
LINE
  5
1b0
  100
AcDbEntity
  8
1
  100
AcDbLine
  10
173.1
  20
1.947312
  30
0
  11
173
  21
2.078039
  31
0
  0
LINE
  5
1b1
  100
AcDbEntity
  8
1
  100
AcDbLine
  10
173
  20
2.078039
  30
0
  11
172.9
  21
2.20707
  31
0
  0
LINE
  5
1b2
  100
AcDbEntity
  8
1
  100
AcDbLine
  10
172.9
  20
2.20707
  30
0
  11
172.8
  21
2.3343
  31
0
  0
LINE
  5
1b3
  100
AcDbEntity
  8
1
  100
AcDbLine
  10
172.8
  20
2.3343
  30
0
  11
172.7
  21
2.459627
  31
0
  0
LINE
  5
1b4
  100
AcDbEntity
  8
1
  100
AcDbLine
  10
172.7
  20
2.459627
  30
0
  11
172.6
  21
2.582946
  31
0
  0
LINE
  5
1b5
  100
AcDbEntity
  8
1
  100
AcDbLine
  10
172.6
  20
2.582946
  30
0
  11
172.5
  21
2.704159
  31
0
  0
LINE
  5
1b6
  100
AcDbEntity
  8
1
  100
AcDbLine
  10
172.5
  20
2.704159
  30
0
  11
172.4
  21
2.823166
  31
0
  0
LINE
  5
1b7
  100
AcDbEntity
  8
1
  100
AcDbLine
  10
172.4
  20
2.823166
  30
0
  11
172.3
  21
2.939869
  31
0
  0
LINE
  5
1b8
  100
AcDbEntity
  8
1
  100
AcDbLine
  10
172.3
  20
2.939869
  30
0
  11
172.2
  21
3.054174
  31
0
  0
LINE
  5
1b9
  100
AcDbEntity
  8
1
  100
AcDbLine
  10
172.2
  20
3.054174
  30
0
  11
172.1
  21
3.165988
  31
0
  0
LINE
  5
1ba
  100
AcDbEntity
  8
1
  100
AcDbLine
  10
172.1
  20
3.165988
  30
0
  11
172
  21
3.275219
  31
0
  0
LINE
  5
1bb
  100
AcDbEntity
  8
1
  100
AcDbLine
  10
172
  20
3.275219
  30
0
  11
171.9
  21
3.381778
  31
0
  0
LINE
  5
1bc
  100
AcDbEntity
  8
1
  100
AcDbLine
  10
171.9
  20
3.381778
  30
0
  11
171.8
  21
3.485578
  31
0
  0
LINE
  5
1bd
  100
AcDbEntity
  8
1
  100
AcDbLine
  10
171.8
  20
3.485578
  30
0
  11
171.7
  21
3.586534
  31
0
  0
LINE
  5
1be
  100
AcDbEntity
  8
1
  100
AcDbLine
  10
171.7
  20
3.586534
  30
0
  11
171.6
  21
3.684565
  31
0
  0
LINE
  5
1bf
  100
AcDbEntity
  8
1
  100
AcDbLine
  10
171.6
  20
3.684565
  30
0
  11
171.5
  21
3.77959
  31
0
  0
LINE
  5
1c0
  100
AcDbEntity
  8
1
  100
AcDbLine
  10
171.5
  20
3.77959
  30
0
  11
171.4
  21
3.871532
  31
0
  0
LINE
  5
1c1
  100
AcDbEntity
  8
1
  100
AcDbLine
  10
171.4
  20
3.871532
  30
0
  11
171.3
  21
3.960315
  31
0
  0
LINE
  5
1c2
  100
AcDbEntity
  8
1
  100
AcDbLine
  10
171.3
  20
3.960315
  30
0
  11
171.2
  21
4.045868
  31
0
  0
LINE
  5
1c3
  100
AcDbEntity
  8
1
  100
AcDbLine
  10
171.2
  20
4.045868
  30
0
  11
171.1
  21
4.12812
  31
0
  0
LINE
  5
1c4
  100
AcDbEntity
  8
1
  100
AcDbLine
  10
171.1
  20
4.12812
  30
0
  11
171
  21
4.207004
  31
0
  0
LINE
  5
1c5
  100
AcDbEntity
  8
1
  100
AcDbLine
  10
171
  20
4.207004
  30
0
  11
170.9
  21
4.282456
  31
0
  0
LINE
  5
1c6
  100
AcDbEntity
  8
1
  100
AcDbLine
  10
170.9
  20
4.282456
  30
0
  11
170.8
  21
4.354415
  31
0
  0
LINE
  5
1c7
  100
AcDbEntity
  8
1
  100
AcDbLine
  10
170.8
  20
4.354415
  30
0
  11
170.7
  21
4.422821
  31
0
  0
LINE
  5
1c8
  100
AcDbEntity
  8
1
  100
AcDbLine
  10
170.7
  20
4.422821
  30
0
  11
170.6
  21
4.48762
  31
0
  0
LINE
  5
1c9
  100
AcDbEntity
  8
1
  100
AcDbLine
  10
170.6
  20
4.48762
  30
0
  11
170.5
  21
4.548757
  31
0
  0
LINE
  5
1ca
  100
AcDbEntity
  8
1
  100
AcDbLine
  10
170.5
  20
4.548757
  30
0
  11
170.4
  21
4.606184
  31
0
  0
LINE
  5
1cb
  100
AcDbEntity
  8
1
  100
AcDbLine
  10
170.4
  20
4.606184
  30
0
  11
170.3
  21
4.659853
  31
0
  0
LINE
  5
1cc
  100
AcDbEntity
  8
1
  100
AcDbLine
  10
170.3
  20
4.659853
  30
0
  11
170.2
  21
4.70972
  31
0
  0
LINE
  5
1cd
  100
AcDbEntity
  8
1
  100
AcDbLine
  10
170.2
  20
4.70972
  30
0
  11
170.1
  21
4.755745
  31
0
  0
LINE
  5
1ce
  100
AcDbEntity
  8
1
  100
AcDbLine
  10
170.1
  20
4.755745
  30
0
  11
170
  21
4.797891
  31
0
  0
LINE
  5
1cf
  100
AcDbEntity
  8
1
  100
AcDbLine
  10
170
  20
4.797891
  30
0
  11
169.9
  21
4.836123
  31
0
  0
LINE
  5
1d0
  100
AcDbEntity
  8
1
  100
AcDbLine
  10
169.9
  20
4.836123
  30
0
  11
169.8
  21
4.870409
  31
0
  0
LINE
  5
1d1
  100
AcDbEntity
  8
1
  100
AcDbLine
  10
169.8
  20
4.870409
  30
0
  11
169.7
  21
4.900722
  31
0
  0
LINE
  5
1d2
  100
AcDbEntity
  8
1
  100
AcDbLine
  10
169.7
  20
4.900722
  30
0
  11
169.6
  21
4.927037
  31
0
  0
LINE
  5
1d3
  100
AcDbEntity
  8
1
  100
AcDbLine
  10
169.6
  20
4.927037
  30
0
  11
169.5
  21
4.949333
  31
0
  0
LINE
  5
1d4
  100
AcDbEntity
  8
1
  100
AcDbLine
  10
169.5
  20
4.949333
  30
0
  11
169.4
  21
4.967591
  31
0
  0
LINE
  5
1d5
  100
AcDbEntity
  8
1
  100
AcDbLine
  10
169.4
  20
4.967591
  30
0
  11
169.3
  21
4.981797
  31
0
  0
LINE
  5
1d6
  100
AcDbEntity
  8
1
  100
AcDbLine
  10
169.3
  20
4.981797
  30
0
  11
169.2
  21
4.991939
  31
0
  0
LINE
  5
1d7
  100
AcDbEntity
  8
1
  100
AcDbLine
  10
169.2
  20
4.991939
  30
0
  11
169.1
  21
4.998008
  31
0
  0
LINE
  5
1d8
  100
AcDbEntity
  8
1
  100
AcDbLine
  10
169.1
  20
4.998008
  30
0
  11
169.001166
  21
5
  31
0
  0
LINE
  5
1d9
  100
AcDbEntity
  8
1
  100
AcDbLine
  10
165
  20
5
  30
0
  11
165
  21
-5
  31
0
  0
LINE
  5
1da
  100
AcDbEntity
  8
1
  100
AcDbLine
  10
165
  20
-4.95
  30
0
  11
165
  21
4.95
  31
0
  0
LINE
  5
1db
  100
AcDbEntity
  8
1
  100
AcDbLine
  10
165
  20
-4.792556
  30
0
  11
165
  21
-4.843688
  31
0
  0
LINE
  5
1dc
  100
AcDbEntity
  8
1
  100
AcDbLine
  10
165
  20
-4.843688
  30
0
  11
165.1
  21
-4.869111
  31
0
  0
LINE
  5
1dd
  100
AcDbEntity
  8
1
  100
AcDbLine
  10
165.1
  20
-4.869111
  30
0
  11
165.2
  21
-4.890563
  31
0
  0
LINE
  5
1de
  100
AcDbEntity
  8
1
  100
AcDbLine
  10
165.2
  20
-4.890563
  30
0
  11
165.3
  21
-4.908025
  31
0
  0
LINE
  5
1df
  100
AcDbEntity
  8
1
  100
AcDbLine
  10
165.3
  20
-4.908025
  30
0
  11
165.4
  21
-4.921483
  31
0
  0
LINE
  5
1e0
  100
AcDbEntity
  8
1
  100
AcDbLine
  10
165.4
  20
-4.921483
  30
0
  11
165.5
  21
-4.930927
  31
0
  0
LINE
  5
1e1
  100
AcDbEntity
  8
1
  100
AcDbLine
  10
165.5
  20
-4.930927
  30
0
  11
165.6
  21
-4.936347
  31
0
  0
LINE
  5
1e2
  100
AcDbEntity
  8
1
  100
AcDbLine
  10
165.6
  20
-4.936347
  30
0
  11
165.684596
  21
-5
  31
0
  0
LINE
  5
1e3
  100
AcDbEntity
  8
1
  100
AcDbLine
  10
165.334889
  20
-5
  30
0
  11
165.3
  21
-4.999752
  31
0
  0
LINE
  5
1e4
  100
AcDbEntity
  8
1
  100
AcDbLine
  10
165.3
  20
-4.999752
  30
0
  11
165.2
  21
-4.996289
  31
0
  0
LINE
  5
1e5
  100
AcDbEntity
  8
1
  100
AcDbLine
  10
165.2
  20
-4.996289
  30
0
  11
165.1
  21
-4.988751
  31
0
  0
LINE
  5
1e6
  100
AcDbEntity
  8
1
  100
AcDbLine
  10
165.1
  20
-4.988751
  30
0
  11
165
  21
-4.977143
  31
0
  0
LINE
  5
1e7
  100
AcDbEntity
  8
1
  100
AcDbLine
  10
165
  20
-4.977143
  30
0
  11
165
  21
-4.926696
  31
0
  0
LINE
  5
1e8
  100
AcDbEntity
  8
1
  100
AcDbLine
  10
165
  20
-4.926696
  30
0
  11
164.9
  21
-4.910985
  31
0
  0
LINE
  5
1e9
  100
AcDbEntity
  8
1
  100
AcDbLine
  10
164.9
  20
-4.910985
  30
0
  11
164.8
  21
-4.891267
  31
0
  0
LINE
  5
1ea
  100
AcDbEntity
  8
1
  100
AcDbLine
  10
164.8
  20
-4.891267
  30
0
  11
164.7
  21
-4.86756
  31
0
  0
LINE
  5
1eb
  100
AcDbEntity
  8
1
  100
AcDbLine
  10
164.7
  20
-4.86756
  30
0
  11
164.6
  21
-4.839881
  31
0
  0
LINE
  5
1ec
  100
AcDbEntity
  8
1
  100
AcDbLine
  10
164.6
  20
-4.839881
  30
0
  11
164.5
  21
-4.808254
  31
0
  0
LINE
  5
1ed
  100
AcDbEntity
  8
1
  100
AcDbLine
  10
164.5
  20
-4.808254
  30
0
  11
164.4
  21
-4.772706
  31
0
  0
LINE
  5
1ee
  100
AcDbEntity
  8
1
  100
AcDbLine
  10
164.4
  20
-4.772706
  30
0
  11
164.3
  21
-4.733268
  31
0
  0
LINE
  5
1ef
  100
AcDbEntity
  8
1
  100
AcDbLine
  10
164.3
  20
-4.733268
  30
0
  11
164.2
  21
-4.689992
  31
0
  0
LINE
  5
1f0
  100
AcDbEntity
  8
1
  100
AcDbLine
  10
164.2
  20
-4.689992
  30
0
  11
164.1
  21
-4.642982
  31
0
  0
LINE
  5
1f1
  100
AcDbEntity
  8
1
  100
AcDbLine
  10
164.1
  20
-4.642982
  30
0
  11
164
  21
-4.592496
  31
0
  0
LINE
  5
1f2
  100
AcDbEntity
  8
1
  100
AcDbLine
  10
164
  20
-4.592496
  30
0
  11
163.9
  21
-4.539214
  31
0
  0
LINE
  5
1f3
  100
AcDbEntity
  8
1
  100
AcDbLine
  10
163.9
  20
-4.539214
  30
0
  11
163.8
  21
-4.484825
  31
0
  0
LINE
  5
1f4
  100
AcDbEntity
  8
1
  100
AcDbLine
  10
163.8
  20
-4.484825
  30
0
  11
163.7
  21
-4.433259
  31
0
  0
LINE
  5
1f5
  100
AcDbEntity
  8
1
  100
AcDbLine
  10
163.7
  20
-4.433259
  30
0
  11
163.6
  21
-4.39298
  31
0
  0
LINE
  5
1f6
  100
AcDbEntity
  8
1
  100
AcDbLine
  10
163.6
  20
-4.39298
  30
0
  11
163.5
  21
-4.380628
  31
0
  0
LINE
  5
1f7
  100
AcDbEntity
  8
1
  100
AcDbLine
  10
163.5
  20
-4.380628
  30
0
  11
163.4
  21
-4.424902
  31
0
  0
LINE
  5
1f8
  100
AcDbEntity
  8
1
  100
AcDbLine
  10
163.4
  20
-4.424902
  30
0
  11
163.3
  21
-4.563475
  31
0
  0
LINE
  5
1f9
  100
AcDbEntity
  8
1
  100
AcDbLine
  10
163.3
  20
-4.563475
  30
0
  11
163.2
  21
-4.803144
  31
0
  0
LINE
  5
1fa
  100
AcDbEntity
  8
1
  100
AcDbLine
  10
163.2
  20
-4.803144
  30
0
  11
163.2
  21
-4.95
  31
0
  0
LINE
  5
1fb
  100
AcDbEntity
  8
1
  100
AcDbLine
  10
163
  20
-4.95
  30
0
  11
163
  21
4.95
  31
0
  0
LINE
  5
1fc
  100
AcDbEntity
  8
1
  100
AcDbLine
  10
163.823896
  20
4.95
  30
0
  11
163.9
  21
4.945837
  31
0
  0
LINE
  5
1fd
  100
AcDbEntity
  8
1
  100
AcDbLine
  10
163.9
  20
4.945837
  30
0
  11
164
  21
4.931847
  31
0
  0
LINE
  5
1fe
  100
AcDbEntity
  8
1
  100
AcDbLine
  10
164
  20
4.931847
  30
0
  11
164.1
  21
4.911991
  31
0
  0
LINE
  5
1ff
  100
AcDbEntity
  8
1
  100
AcDbLine
  10
164.1
  20
4.911991
  30
0
  11
164.2
  21
4.888201
  31
0
  0
LINE
  5
200
  100
AcDbEntity
  8
1
  100
AcDbLine
  10
164.2
  20
4.888201
  30
0
  11
164.3
  21
4.861147
  31
0
  0
LINE
  5
201
  100
AcDbEntity
  8
1
  100
AcDbLine
  10
164.3
  20
4.861147
  30
0
  11
164.4
  21
4.830906
  31
0
  0
LINE
  5
202
  100
AcDbEntity
  8
1
  100
AcDbLine
  10
164.4
  20
4.830906
  30
0
  11
164.5
  21
4.797324
  31
0
  0
LINE
  5
203
  100
AcDbEntity
  8
1
  100
AcDbLine
  10
164.5
  20
4.797324
  30
0
  11
164.6
  21
4.760202
  31
0
  0
LINE
  5
204
  100
AcDbEntity
  8
1
  100
AcDbLine
  10
164.6
  20
4.760202
  30
0
  11
164.7
  21
4.719385
  31
0
  0
LINE
  5
205
  100
AcDbEntity
  8
1
  100
AcDbLine
  10
164.7
  20
4.719385
  30
0
  11
164.8
  21
4.67479
  31
0
  0
LINE
  5
206
  100
AcDbEntity
  8
1
  100
AcDbLine
  10
164.8
  20
4.67479
  30
0
  11
164.9
  21
4.6264
  31
0
  0
LINE
  5
207
  100
AcDbEntity
  8
1
  100
AcDbLine
  10
164.9
  20
4.6264
  30
0
  11
165
  21
4.574238
  31
0
  0
LINE
  5
208
  100
AcDbEntity
  8
1
  100
AcDbLine
  10
165
  20
4.574238
  30
0
  11
165
  21
4.618748
  31
0
  0
LINE
  5
209
  100
AcDbEntity
  8
1
  100
AcDbLine
  10
165
  20
4.618748
  30
0
  11
165.1
  21
4.562174
  31
0
  0
LINE
  5
20a
  100
AcDbEntity
  8
1
  100
AcDbLine
  10
165.1
  20
4.562174
  30
0
  11
165.2
  21
4.501878
  31
0
  0
LINE
  5
20b
  100
AcDbEntity
  8
1
  100
AcDbLine
  10
165.2
  20
4.501878
  30
0
  11
165.3
  21
4.43791
  31
0
  0
LINE
  5
20c
  100
AcDbEntity
  8
1
  100
AcDbLine
  10
165.3
  20
4.43791
  30
0
  11
165.4
  21
4.370321
  31
0
  0
LINE
  5
20d
  100
AcDbEntity
  8
1
  100
AcDbLine
  10
165.4
  20
4.370321
  30
0
  11
165.5
  21
4.299167
  31
0
  0
LINE
  5
20e
  100
AcDbEntity
  8
1
  100
AcDbLine
  10
165.5
  20
4.299167
  30
0
  11
165.6
  21
4.224505
  31
0
  0
LINE
  5
20f
  100
AcDbEntity
  8
1
  100
AcDbLine
  10
165.6
  20
4.224505
  30
0
  11
165.7
  21
4.146398
  31
0
  0
LINE
  5
210
  100
AcDbEntity
  8
1
  100
AcDbLine
  10
165.7
  20
4.146398
  30
0
  11
165.8
  21
4.064908
  31
0
  0
LINE
  5
211
  100
AcDbEntity
  8
1
  100
AcDbLine
  10
165.8
  20
4.064908
  30
0
  11
165.9
  21
3.980101
  31
0
  0
LINE
  5
212
  100
AcDbEntity
  8
1
  100
AcDbLine
  10
165.9
  20
3.980101
  30
0
  11
166
  21
3.892048
  31
0
  0
LINE
  5
213
  100
AcDbEntity
  8
1
  100
AcDbLine
  10
166
  20
3.892048
  30
0
  11
166.1
  21
3.80082
  31
0
  0
LINE
  5
214
  100
AcDbEntity
  8
1
  100
AcDbLine
  10
166.1
  20
3.80082
  30
0
  11
166.2
  21
3.706491
  31
0
  0
LINE
  5
215
  100
AcDbEntity
  8
1
  100
AcDbLine
  10
166.2
  20
3.706491
  30
0
  11
166.3
  21
3.609138
  31
0
  0
LINE
  5
216
  100
AcDbEntity
  8
1
  100
AcDbLine
  10
166.3
  20
3.609138
  30
0
  11
166.4
  21
3.508841
  31
0
  0
LINE
  5
217
  100
AcDbEntity
  8
1
  100
AcDbLine
  10
166.4
  20
3.508841
  30
0
  11
166.5
  21
3.405682
  31
0
  0
LINE
  5
218
  100
AcDbEntity
  8
1
  100
AcDbLine
  10
166.5
  20
3.405682
  30
0
  11
166.6
  21
3.299744
  31
0
  0
LINE
  5
219
  100
AcDbEntity
  8
1
  100
AcDbLine
  10
166.6
  20
3.299744
  30
0
  11
166.7
  21
3.191114
  31
0
  0
LINE
  5
21a
  100
AcDbEntity
  8
1
  100
AcDbLine
  10
166.7
  20
3.191114
  30
0
  11
166.8
  21
3.079881
  31
0
  0
LINE
  5
21b
  100
AcDbEntity
  8
1
  100
AcDbLine
  10
166.8
  20
3.079881
  30
0
  11
166.9
  21
2.966136
  31
0
  0
LINE
  5
21c
  100
AcDbEntity
  8
1
  100
AcDbLine
  10
166.9
  20
2.966136
  30
0
  11
167
  21
2.849971
  31
0
  0
LINE
  5
21d
  100
AcDbEntity
  8
1
  100
AcDbLine
  10
167
  20
2.849971
  30
0
  11
167.1
  21
2.731481
  31
0
  0
LINE
  5
21e
  100
AcDbEntity
  8
1
  100
AcDbLine
  10
167.1
  20
2.731481
  30
0
  11
167.2
  21
2.610762
  31
0
  0
LINE
  5
21f
  100
AcDbEntity
  8
1
  100
AcDbLine
  10
167.2
  20
2.610762
  30
0
  11
167.3
  21
2.487914
  31
0
  0
LINE
  5
220
  100
AcDbEntity
  8
1
  100
AcDbLine
  10
167.3
  20
2.487914
  30
0
  11
167.4
  21
2.363036
  31
0
  0
LINE
  5
221
  100
AcDbEntity
  8
1
  100
AcDbLine
  10
167.4
  20
2.363036
  30
0
  11
167.5
  21
2.23623
  31
0
  0
LINE
  5
222
  100
AcDbEntity
  8
1
  100
AcDbLine
  10
167.5
  20
2.23623
  30
0
  11
167.6
  21
2.107601
  31
0
  0
LINE
  5
223
  100
AcDbEntity
  8
1
  100
AcDbLine
  10
167.6
  20
2.107601
  30
0
  11
167.7
  21
1.977251
  31
0
  0
LINE
  5
224
  100
AcDbEntity
  8
1
  100
AcDbLine
  10
167.7
  20
1.977251
  30
0
  11
167.8
  21
1.845289
  31
0
  0
LINE
  5
225
  100
AcDbEntity
  8
1
  100
AcDbLine
  10
167.8
  20
1.845289
  30
0
  11
167.9
  21
1.711821
  31
0
  0
LINE
  5
226
  100
AcDbEntity
  8
1
  100
AcDbLine
  10
167.9
  20
1.711821
  30
0
  11
168
  21
1.576957
  31
0
  0
LINE
  5
227
  100
AcDbEntity
  8
1
  100
AcDbLine
  10
168
  20
1.576957
  30
0
  11
168.1
  21
1.440807
  31
0
  0
LINE
  5
228
  100
AcDbEntity
  8
1
  100
AcDbLine
  10
168.1
  20
1.440807
  30
0
  11
168.2
  21
1.303481
  31
0
  0
LINE
  5
229
  100
AcDbEntity
  8
1
  100
AcDbLine
  10
168.2
  20
1.303481
  30
0
  11
168.3
  21
1.165091
  31
0
  0
LINE
  5
22a
  100
AcDbEntity
  8
1
  100
AcDbLine
  10
168.3
  20
1.165091
  30
0
  11
168.4
  21
1.025752
  31
0
  0
LINE
  5
22b
  100
AcDbEntity
  8
1
  100
AcDbLine
  10
168.4
  20
1.025752
  30
0
  11
168.5
  21
0.885575
  31
0
  0
LINE
  5
22c
  100
AcDbEntity
  8
1
  100
AcDbLine
  10
168.5
  20
0.885575
  30
0
  11
168.6
  21
0.744676
  31
0
  0
LINE
  5
22d
  100
AcDbEntity
  8
1
  100
AcDbLine
  10
168.6
  20
0.744676
  30
0
  11
168.7
  21
0.60317
  31
0
  0
LINE
  5
22e
  100
AcDbEntity
  8
1
  100
AcDbLine
  10
168.7
  20
0.60317
  30
0
  11
168.8
  21
0.461171
  31
0
  0
LINE
  5
22f
  100
AcDbEntity
  8
1
  100
AcDbLine
  10
168.8
  20
0.461171
  30
0
  11
168.9
  21
0.318796
  31
0
  0
LINE
  5
230
  100
AcDbEntity
  8
1
  100
AcDbLine
  10
168.9
  20
0.318796
  30
0
  11
169
  21
0.176161
  31
0
  0
LINE
  5
231
  100
AcDbEntity
  8
1
  100
AcDbLine
  10
169
  20
0.176161
  30
0
  11
169.1
  21
0.033383
  31
0
  0
LINE
  5
232
  100
AcDbEntity
  8
1
  100
AcDbLine
  10
169.1
  20
0.033383
  30
0
  11
169.2
  21
-0.109423
  31
0
  0
LINE
  5
233
  100
AcDbEntity
  8
1
  100
AcDbLine
  10
169.2
  20
-0.109423
  30
0
  11
169.3
  21
-0.25214
  31
0
  0
LINE
  5
234
  100
AcDbEntity
  8
1
  100
AcDbLine
  10
169.3
  20
-0.25214
  30
0
  11
169.4
  21
-0.394651
  31
0
  0
LINE
  5
235
  100
AcDbEntity
  8
1
  100
AcDbLine
  10
169.4
  20
-0.394651
  30
0
  11
169.5
  21
-0.536839
  31
0
  0
LINE
  5
236
  100
AcDbEntity
  8
1
  100
AcDbLine
  10
169.5
  20
-0.536839
  30
0
  11
169.6
  21
-0.67859
  31
0
  0
LINE
  5
237
  100
AcDbEntity
  8
1
  100
AcDbLine
  10
169.6
  20
-0.67859
  30
0
  11
169.7
  21
-0.819788
  31
0
  0
LINE
  5
238
  100
AcDbEntity
  8
1
  100
AcDbLine
  10
169.7
  20
-0.819788
  30
0
  11
169.8
  21
-0.960316
  31
0
  0
LINE
  5
239
  100
AcDbEntity
  8
1
  100
AcDbLine
  10
169.8
  20
-0.960316
  30
0
  11
169.9
  21
-1.100062
  31
0
  0
LINE
  5
23a
  100
AcDbEntity
  8
1
  100
AcDbLine
  10
169.9
  20
-1.100062
  30
0
  11
170
  21
-1.238909
  31
0
  0
LINE
  5
23b
  100
AcDbEntity
  8
1
  100
AcDbLine
  10
170
  20
-1.238909
  30
0
  11
170.1
  21
-1.376746
  31
0
  0
LINE
  5
23c
  100
AcDbEntity
  8
1
  100
AcDbLine
  10
170.1
  20
-1.376746
  30
0
  11
170.2
  21
-1.51346
  31
0
  0
LINE
  5
23d
  100
AcDbEntity
  8
1
  100
AcDbLine
  10
170.2
  20
-1.51346
  30
0
  11
170.3
  21
-1.64894
  31
0
  0
LINE
  5
23e
  100
AcDbEntity
  8
1
  100
AcDbLine
  10
170.3
  20
-1.64894
  30
0
  11
170.4
  21
-1.783074
  31
0
  0
LINE
  5
23f
  100
AcDbEntity
  8
1
  100
AcDbLine
  10
170.4
  20
-1.783074
  30
0
  11
170.5
  21
-1.915753
  31
0
  0
LINE
  5
240
  100
AcDbEntity
  8
1
  100
AcDbLine
  10
170.5
  20
-1.915753
  30
0
  11
170.6
  21
-2.04687
  31
0
  0
LINE
  5
241
  100
AcDbEntity
  8
1
  100
AcDbLine
  10
170.6
  20
-2.04687
  30
0
  11
170.7
  21
-2.176317
  31
0
  0
LINE
  5
242
  100
AcDbEntity
  8
1
  100
AcDbLine
  10
170.7
  20
-2.176317
  30
0
  11
170.8
  21
-2.303988
  31
0
  0
LINE
  5
243
  100
AcDbEntity
  8
1
  100
AcDbLine
  10
170.8
  20
-2.303988
  30
0
  11
170.9
  21
-2.42978
  31
0
  0
LINE
  5
244
  100
AcDbEntity
  8
1
  100
AcDbLine
  10
170.9
  20
-2.42978
  30
0
  11
171
  21
-2.55359
  31
0
  0
LINE
  5
245
  100
AcDbEntity
  8
1
  100
AcDbLine
  10
171
  20
-2.55359
  30
0
  11
171.1
  21
-2.675316
  31
0
  0
LINE
  5
246
  100
AcDbEntity
  8
1
  100
AcDbLine
  10
171.1
  20
-2.675316
  30
0
  11
171.2
  21
-2.79486
  31
0
  0
LINE
  5
247
  100
AcDbEntity
  8
1
  100
AcDbLine
  10
171.2
  20
-2.79486
  30
0
  11
171.3
  21
-2.912124
  31
0
  0
LINE
  5
248
  100
AcDbEntity
  8
1
  100
AcDbLine
  10
171.3
  20
-2.912124
  30
0
  11
171.4
  21
-3.027013
  31
0
  0
LINE
  5
249
  100
AcDbEntity
  8
1
  100
AcDbLine
  10
171.4
  20
-3.027013
  30
0
  11
171.5
  21
-3.139432
  31
0
  0
LINE
  5
24a
  100
AcDbEntity
  8
1
  100
AcDbLine
  10
171.5
  20
-3.139432
  30
0
  11
171.6
  21
-3.249289
  31
0
  0
LINE
  5
24b
  100
AcDbEntity
  8
1
  100
AcDbLine
  10
171.6
  20
-3.249289
  30
0
  11
171.7
  21
-3.356496
  31
0
  0
LINE
  5
24c
  100
AcDbEntity
  8
1
  100
AcDbLine
  10
171.7
  20
-3.356496
  30
0
  11
171.8
  21
-3.460965
  31
0
  0
LINE
  5
24d
  100
AcDbEntity
  8
1
  100
AcDbLine
  10
171.8
  20
-3.460965
  30
0
  11
171.9
  21
-3.562611
  31
0
  0
LINE
  5
24e
  100
AcDbEntity
  8
1
  100
AcDbLine
  10
171.9
  20
-3.562611
  30
0
  11
172
  21
-3.66135
  31
0
  0
LINE
  5
24f
  100
AcDbEntity
  8
1
  100
AcDbLine
  10
172
  20
-3.66135
  30
0
  11
172.1
  21
-3.757102
  31
0
  0
LINE
  5
250
  100
AcDbEntity
  8
1
  100
AcDbLine
  10
172.1
  20
-3.757102
  30
0
  11
172.2
  21
-3.84979
  31
0
  0
LINE
  5
251
  100
AcDbEntity
  8
1
  100
AcDbLine
  10
172.2
  20
-3.84979
  30
0
  11
172.3
  21
-3.939336
  31
0
  0
LINE
  5
252
  100
AcDbEntity
  8
1
  100
AcDbLine
  10
172.3
  20
-3.939336
  30
0
  11
172.4
  21
-4.025669
  31
0
  0
LINE
  5
253
  100
AcDbEntity
  8
1
  100
AcDbLine
  10
172.4
  20
-4.025669
  30
0
  11
172.5
  21
-4.108718
  31
0
  0
LINE
  5
254
  100
AcDbEntity
  8
1
  100
AcDbLine
  10
172.5
  20
-4.108718
  30
0
  11
172.6
  21
-4.188415
  31
0
  0
LINE
  5
255
  100
AcDbEntity
  8
1
  100
AcDbLine
  10
172.6
  20
-4.188415
  30
0
  11
172.7
  21
-4.264695
  31
0
  0
LINE
  5
256
  100
AcDbEntity
  8
1
  100
AcDbLine
  10
172.7
  20
-4.264695
  30
0
  11
172.8
  21
-4.337497
  31
0
  0
LINE
  5
257
  100
AcDbEntity
  8
1
  100
AcDbLine
  10
172.8
  20
-4.337497
  30
0
  11
172.9
  21
-4.406759
  31
0
  0
LINE
  5
258
  100
AcDbEntity
  8
1
  100
AcDbLine
  10
172.9
  20
-4.406759
  30
0
  11
173
  21
-4.472427
  31
0
  0
LINE
  5
259
  100
AcDbEntity
  8
1
  100
AcDbLine
  10
173
  20
-4.472427
  30
0
  11
173.1
  21
-4.534446
  31
0
  0
LINE
  5
25a
  100
AcDbEntity
  8
1
  100
AcDbLine
  10
173.1
  20
-4.534446
  30
0
  11
173.2
  21
-4.592766
  31
0
  0
LINE
  5
25b
  100
AcDbEntity
  8
1
  100
AcDbLine
  10
173.2
  20
-4.592766
  30
0
  11
173.3
  21
-4.647339
  31
0
  0
LINE
  5
25c
  100
AcDbEntity
  8
1
  100
AcDbLine
  10
173.3
  20
-4.647339
  30
0
  11
173.4
  21
-4.698121
  31
0
  0
LINE
  5
25d
  100
AcDbEntity
  8
1
  100
AcDbLine
  10
173.4
  20
-4.698121
  30
0
  11
173.5
  21
-4.745071
  31
0
  0
LINE
  5
25e
  100
AcDbEntity
  8
1
  100
AcDbLine
  10
173.5
  20
-4.745071
  30
0
  11
173.6
  21
-4.788149
  31
0
  0
LINE
  5
25f
  100
AcDbEntity
  8
1
  100
AcDbLine
  10
173.6
  20
-4.788149
  30
0
  11
173.7
  21
-4.827321
  31
0
  0
LINE
  5
260
  100
AcDbEntity
  8
1
  100
AcDbLine
  10
173.7
  20
-4.827321
  30
0
  11
173.8
  21
-4.862556
  31
0
  0
LINE
  5
261
  100
AcDbEntity
  8
1
  100
AcDbLine
  10
173.8
  20
-4.862556
  30
0
  11
173.9
  21
-4.893823
  31
0
  0
LINE
  5
262
  100
AcDbEntity
  8
1
  100
AcDbLine
  10
173.9
  20
-4.893823
  30
0
  11
174
  21
-4.921098
  31
0
  0
LINE
  5
263
  100
AcDbEntity
  8
1
  100
AcDbLine
  10
174
  20
-4.921098
  30
0
  11
174.1
  21
-4.944359
  31
0
  0
LINE
  5
264
  100
AcDbEntity
  8
1
  100
AcDbLine
  10
174.1
  20
-4.944359
  30
0
  11
174.2
  21
-4.963586
  31
0
  0
LINE
  5
265
  100
AcDbEntity
  8
1
  100
AcDbLine
  10
174.2
  20
-4.963586
  30
0
  11
174.3
  21
-4.978763
  31
0
  0
LINE
  5
266
  100
AcDbEntity
  8
1
  100
AcDbLine
  10
174.3
  20
-4.978763
  30
0
  11
174.4
  21
-4.98988
  31
0
  0
LINE
  5
267
  100
AcDbEntity
  8
1
  100
AcDbLine
  10
174.4
  20
-4.98988
  30
0
  11
174.5
  21
-4.996925
  31
0
  0
LINE
  5
268
  100
AcDbEntity
  8
1
  100
AcDbLine
  10
174.5
  20
-4.996925
  30
0
  11
174.6
  21
-4.999894
  31
0
  0
LINE
  5
269
  100
AcDbEntity
  8
1
  100
AcDbLine
  10
174.6
  20
-4.999894
  30
0
  11
174.622793
  21
-5
  31
0
  0
LINE
  5
26a
  100
AcDbEntity
  8
1
  100
AcDbLine
  10
173.017155
  20
-5
  30
0
  11
173
  21
-4.93773
  31
0
  0
LINE
  5
26b
  100
AcDbEntity
  8
1
  100
AcDbLine
  10
173
  20
-4.93773
  30
0
  11
172.9
  21
-4.935025
  31
0
  0
LINE
  5
26c
  100
AcDbEntity
  8
1
  100
AcDbLine
  10
172.9
  20
-4.935025
  30
0
  11
172.8
  21
-4.928294
  31
0
  0
LINE
  5
26d
  100
AcDbEntity
  8
1
  100
AcDbLine
  10
172.8
  20
-4.928294
  30
0
  11
172.7
  21
-4.917542
  31
0
  0
LINE
  5
26e
  100
AcDbEntity
  8
1
  100
AcDbLine
  10
172.7
  20
-4.917542
  30
0
  11
172.6
  21
-4.902779
  31
0
  0
LINE
  5
26f
  100
AcDbEntity
  8
1
  100
AcDbLine
  10
172.6
  20
-4.902779
  30
0
  11
172.5
  21
-4.884017
  31
0
  0
LINE
  5
270
  100
AcDbEntity
  8
1
  100
AcDbLine
  10
172.5
  20
-4.884017
  30
0
  11
172.4
  21
-4.86127
  31
0
  0
LINE
  5
271
  100
AcDbEntity
  8
1
  100
AcDbLine
  10
172.4
  20
-4.86127
  30
0
  11
172.3
  21
-4.834557
  31
0
  0
LINE
  5
272
  100
AcDbEntity
  8
1
  100
AcDbLine
  10
172.3
  20
-4.834557
  30
0
  11
172.2
  21
-4.8039
  31
0
  0
LINE
  5
273
  100
AcDbEntity
  8
1
  100
AcDbLine
  10
172.2
  20
-4.8039
  30
0
  11
172.1
  21
-4.769324
  31
0
  0
LINE
  5
274
  100
AcDbEntity
  8
1
  100
AcDbLine
  10
172.1
  20
-4.769324
  30
0
  11
172
  21
-4.730858
  31
0
  0
LINE
  5
275
  100
AcDbEntity
  8
1
  100
AcDbLine
  10
172
  20
-4.730858
  30
0
  11
171.9
  21
-4.688532
  31
0
  0
LINE
  5
276
  100
AcDbEntity
  8
1
  100
AcDbLine
  10
171.9
  20
-4.688532
  30
0
  11
171.8
  21
-4.642382
  31
0
  0
LINE
  5
277
  100
AcDbEntity
  8
1
  100
AcDbLine
  10
171.8
  20
-4.642382
  30
0
  11
171.7
  21
-4.592444
  31
0
  0
LINE
  5
278
  100
AcDbEntity
  8
1
  100
AcDbLine
  10
171.7
  20
-4.592444
  30
0
  11
171.6
  21
-4.538759
  31
0
  0
LINE
  5
279
  100
AcDbEntity
  8
1
  100
AcDbLine
  10
171.6
  20
-4.538759
  30
0
  11
171.5
  21
-4.481372
  31
0
  0
LINE
  5
27a
  100
AcDbEntity
  8
1
  100
AcDbLine
  10
171.5
  20
-4.481372
  30
0
  11
171.4
  21
-4.42033
  31
0
  0
LINE
  5
27b
  100
AcDbEntity
  8
1
  100
AcDbLine
  10
171.4
  20
-4.42033
  30
0
  11
171.3
  21
-4.355681
  31
0
  0
LINE
  5
27c
  100
AcDbEntity
  8
1
  100
AcDbLine
  10
171.3
  20
-4.355681
  30
0
  11
171.2
  21
-4.287479
  31
0
  0
LINE
  5
27d
  100
AcDbEntity
  8
1
  100
AcDbLine
  10
171.2
  20
-4.287479
  30
0
  11
171.1
  21
-4.215779
  31
0
  0
LINE
  5
27e
  100
AcDbEntity
  8
1
  100
AcDbLine
  10
171.1
  20
-4.215779
  30
0
  11
171
  21
-4.14064
  31
0
  0
LINE
  5
27f
  100
AcDbEntity
  8
1
  100
AcDbLine
  10
171
  20
-4.14064
  30
0
  11
170.9
  21
-4.062123
  31
0
  0
LINE
  5
280
  100
AcDbEntity
  8
1
  100
AcDbLine
  10
170.9
  20
-4.062123
  30
0
  11
170.8
  21
-3.980292
  31
0
  0
LINE
  5
281
  100
AcDbEntity
  8
1
  100
AcDbLine
  10
170.8
  20
-3.980292
  30
0
  11
170.7
  21
-3.895214
  31
0
  0
LINE
  5
282
  100
AcDbEntity
  8
1
  100
AcDbLine
  10
170.7
  20
-3.895214
  30
0
  11
170.6
  21
-3.806959
  31
0
  0
LINE
  5
283
  100
AcDbEntity
  8
1
  100
AcDbLine
  10
170.6
  20
-3.806959
  30
0
  11
170.5
  21
-3.715598
  31
0
  0
LINE
  5
284
  100
AcDbEntity
  8
1
  100
AcDbLine
  10
170.5
  20
-3.715598
  30
0
  11
170.4
  21
-3.621205
  31
0
  0
LINE
  5
285
  100
AcDbEntity
  8
1
  100
AcDbLine
  10
170.4
  20
-3.621205
  30
0
  11
170.3
  21
-3.523859
  31
0
  0
LINE
  5
286
  100
AcDbEntity
  8
1
  100
AcDbLine
  10
170.3
  20
-3.523859
  30
0
  11
170.2
  21
-3.423638
  31
0
  0
LINE
  5
287
  100
AcDbEntity
  8
1
  100
AcDbLine
  10
170.2
  20
-3.423638
  30
0
  11
170.1
  21
-3.320624
  31
0
  0
LINE
  5
288
  100
AcDbEntity
  8
1
  100
AcDbLine
  10
170.1
  20
-3.320624
  30
0
  11
170
  21
-3.214901
  31
0
  0
LINE
  5
289
  100
AcDbEntity
  8
1
  100
AcDbLine
  10
170
  20
-3.214901
  30
0
  11
169.9
  21
-3.106555
  31
0
  0
LINE
  5
28a
  100
AcDbEntity
  8
1
  100
AcDbLine
  10
169.9
  20
-3.106555
  30
0
  11
169.8
  21
-2.995675
  31
0
  0
LINE
  5
28b
  100
AcDbEntity
  8
1
  100
AcDbLine
  10
169.8
  20
-2.995675
  30
0
  11
169.7
  21
-2.882351
  31
0
  0
LINE
  5
28c
  100
AcDbEntity
  8
1
  100
AcDbLine
  10
169.7
  20
-2.882351
  30
0
  11
169.6
  21
-2.766676
  31
0
  0
LINE
  5
28d
  100
AcDbEntity
  8
1
  100
AcDbLine
  10
169.6
  20
-2.766676
  30
0
  11
169.5
  21
-2.648744
  31
0
  0
LINE
  5
28e
  100
AcDbEntity
  8
1
  100
AcDbLine
  10
169.5
  20
-2.648744
  30
0
  11
169.4
  21
-2.528651
  31
0
  0
LINE
  5
28f
  100
AcDbEntity
  8
1
  100
AcDbLine
  10
169.4
  20
-2.528651
  30
0
  11
169.3
  21
-2.406495
  31
0
  0
LINE
  5
290
  100
AcDbEntity
  8
1
  100
AcDbLine
  10
169.3
  20
-2.406495
  30
0
  11
169.2
  21
-2.282376
  31
0
  0
LINE
  5
291
  100
AcDbEntity
  8
1
  100
AcDbLine
  10
169.2
  20
-2.282376
  30
0
  11
169.1
  21
-2.156395
  31
0
  0
LINE
  5
292
  100
AcDbEntity
  8
1
  100
AcDbLine
  10
169.1
  20
-2.156395
  30
0
  11
169
  21
-2.028655
  31
0
  0
LINE
  5
293
  100
AcDbEntity
  8
1
  100
AcDbLine
  10
169
  20
-2.028655
  30
0
  11
168.9
  21
-1.89926
  31
0
  0
LINE
  5
294
  100
AcDbEntity
  8
1
  100
AcDbLine
  10
168.9
  20
-1.89926
  30
0
  11
168.8
  21
-1.768315
  31
0
  0
LINE
  5
295
  100
AcDbEntity
  8
1
  100
AcDbLine
  10
168.8
  20
-1.768315
  30
0
  11
168.7
  21
-1.635928
  31
0
  0
LINE
  5
296
  100
AcDbEntity
  8
1
  100
AcDbLine
  10
168.7
  20
-1.635928
  30
0
  11
168.6
  21
-1.502207
  31
0
  0
LINE
  5
297
  100
AcDbEntity
  8
1
  100
AcDbLine
  10
168.6
  20
-1.502207
  30
0
  11
168.5
  21
-1.36726
  31
0
  0
LINE
  5
298
  100
AcDbEntity
  8
1
  100
AcDbLine
  10
168.5
  20
-1.36726
  30
0
  11
168.4
  21
-1.231197
  31
0
  0
LINE
  5
299
  100
AcDbEntity
  8
1
  100
AcDbLine
  10
168.4
  20
-1.231197
  30
0
  11
168.3
  21
-1.09413
  31
0
  0
LINE
  5
29a
  100
AcDbEntity
  8
1
  100
AcDbLine
  10
168.3
  20
-1.09413
  30
0
  11
168.2
  21
-0.956171
  31
0
  0
LINE
  5
29b
  100
AcDbEntity
  8
1
  100
AcDbLine
  10
168.2
  20
-0.956171
  30
0
  11
168.1
  21
-0.817431
  31
0
  0
LINE
  5
29c
  100
AcDbEntity
  8
1
  100
AcDbLine
  10
168.1
  20
-0.817431
  30
0
  11
168
  21
-0.678025
  31
0
  0
LINE
  5
29d
  100
AcDbEntity
  8
1
  100
AcDbLine
  10
168
  20
-0.678025
  30
0
  11
167.9
  21
-0.538065
  31
0
  0
LINE
  5
29e
  100
AcDbEntity
  8
1
  100
AcDbLine
  10
167.9
  20
-0.538065
  30
0
  11
167.8
  21
-0.397667
  31
0
  0
LINE
  5
29f
  100
AcDbEntity
  8
1
  100
AcDbLine
  10
167.8
  20
-0.397667
  30
0
  11
167.7
  21
-0.256944
  31
0
  0
LINE
  5
2a0
  100
AcDbEntity
  8
1
  100
AcDbLine
  10
167.7
  20
-0.256944
  30
0
  11
167.6
  21
-0.116012
  31
0
  0
LINE
  5
2a1
  100
AcDbEntity
  8
1
  100
AcDbLine
  10
167.6
  20
-0.116012
  30
0
  11
167.5
  21
0.025015
  31
0
  0
LINE
  5
2a2
  100
AcDbEntity
  8
1
  100
AcDbLine
  10
167.5
  20
0.025015
  30
0
  11
167.4
  21
0.166022
  31
0
  0
LINE
  5
2a3
  100
AcDbEntity
  8
1
  100
AcDbLine
  10
167.4
  20
0.166022
  30
0
  11
167.3
  21
0.306893
  31
0
  0
LINE
  5
2a4
  100
AcDbEntity
  8
1
  100
AcDbLine
  10
167.3
  20
0.306893
  30
0
  11
167.2
  21
0.447514
  31
0
  0
LINE
  5
2a5
  100
AcDbEntity
  8
1
  100
AcDbLine
  10
167.2
  20
0.447514
  30
0
  11
167.1
  21
0.58777
  31
0
  0
LINE
  5
2a6
  100
AcDbEntity
  8
1
  100
AcDbLine
  10
167.1
  20
0.58777
  30
0
  11
167
  21
0.727546
  31
0
  0
LINE
  5
2a7
  100
AcDbEntity
  8
1
  100
AcDbLine
  10
167
  20
0.727546
  30
0
  11
166.9
  21
0.866729
  31
0
  0
LINE
  5
2a8
  100
AcDbEntity
  8
1
  100
AcDbLine
  10
166.9
  20
0.866729
  30
0
  11
166.8
  21
1.005205
  31
0
  0
LINE
  5
2a9
  100
AcDbEntity
  8
1
  100
AcDbLine
  10
166.8
  20
1.005205
  30
0
  11
166.7
  21
1.142861
  31
0
  0
LINE
  5
2aa
  100
AcDbEntity
  8
1
  100
AcDbLine
  10
166.7
  20
1.142861
  30
0
  11
166.6
  21
1.279584
  31
0
  0
LINE
  5
2ab
  100
AcDbEntity
  8
1
  100
AcDbLine
  10
166.6
  20
1.279584
  30
0
  11
166.5
  21
1.415263
  31
0
  0
LINE
  5
2ac
  100
AcDbEntity
  8
1
  100
AcDbLine
  10
166.5
  20
1.415263
  30
0
  11
166.4
  21
1.549788
  31
0
  0
LINE
  5
2ad
  100
AcDbEntity
  8
1
  100
AcDbLine
  10
166.4
  20
1.549788
  30
0
  11
166.3
  21
1.683049
  31
0
  0
LINE
  5
2ae
  100
AcDbEntity
  8
1
  100
AcDbLine
  10
166.3
  20
1.683049
  30
0
  11
166.2
  21
1.814937
  31
0
  0
LINE
  5
2af
  100
AcDbEntity
  8
1
  100
AcDbLine
  10
166.2
  20
1.814937
  30
0
  11
166.1
  21
1.945344
  31
0
  0
LINE
  5
2b0
  100
AcDbEntity
  8
1
  100
AcDbLine
  10
166.1
  20
1.945344
  30
0
  11
166
  21
2.074164
  31
0
  0
LINE
  5
2b1
  100
AcDbEntity
  8
1
  100
AcDbLine
  10
166
  20
2.074164
  30
0
  11
165.9
  21
2.201292
  31
0
  0
LINE
  5
2b2
  100
AcDbEntity
  8
1
  100
AcDbLine
  10
165.9
  20
2.201292
  30
0
  11
165.8
  21
2.326624
  31
0
  0
LINE
  5
2b3
  100
AcDbEntity
  8
1
  100
AcDbLine
  10
165.8
  20
2.326624
  30
0
  11
165.7
  21
2.450058
  31
0
  0
LINE
  5
2b4
  100
AcDbEntity
  8
1
  100
AcDbLine
  10
165.7
  20
2.450058
  30
0
  11
165.6
  21
2.571493
  31
0
  0
LINE
  5
2b5
  100
AcDbEntity
  8
1
  100
AcDbLine
  10
165.6
  20
2.571493
  30
0
  11
165.5
  21
2.690831
  31
0
  0
LINE
  5
2b6
  100
AcDbEntity
  8
1
  100
AcDbLine
  10
165.5
  20
2.690831
  30
0
  11
165.4
  21
2.807973
  31
0
  0
LINE
  5
2b7
  100
AcDbEntity
  8
1
  100
AcDbLine
  10
165.4
  20
2.807973
  30
0
  11
165.3
  21
2.922825
  31
0
  0
LINE
  5
2b8
  100
AcDbEntity
  8
1
  100
AcDbLine
  10
165.3
  20
2.922825
  30
0
  11
165.2
  21
3.035293
  31
0
  0
LINE
  5
2b9
  100
AcDbEntity
  8
1
  100
AcDbLine
  10
165.2
  20
3.035293
  30
0
  11
165.1
  21
3.145284
  31
0
  0
LINE
  5
2ba
  100
AcDbEntity
  8
1
  100
AcDbLine
  10
165.1
  20
3.145284
  30
0
  11
165
  21
3.252709
  31
0
  0
LINE
  5
2bb
  100
AcDbEntity
  8
1
  100
AcDbLine
  10
165
  20
3.252709
  30
0
  11
165
  21
3.228901
  31
0
  0
LINE
  5
2bc
  100
AcDbEntity
  8
1
  100
AcDbLine
  10
167.290235
  20
-5
  30
0
  11
167.2
  21
-4.998339
  31
0
  0
LINE
  5
2bd
  100
AcDbEntity
  8
1
  100
AcDbLine
  10
167.2
  20
-4.998339
  30
0
  11
167.1
  21
-4.992621
  31
0
  0
LINE
  5
2be
  100
AcDbEntity
  8
1
  100
AcDbLine
  10
167.1
  20
-4.992621
  30
0
  11
167
  21
-4.982829
  31
0
  0
LINE
  5
2bf
  100
AcDbEntity
  8
1
  100
AcDbLine
  10
167
  20
-4.982829
  30
0
  11
166.9
  21
-4.968972
  31
0
  0
LINE
  5
2c0
  100
AcDbEntity
  8
1
  100
AcDbLine
  10
166.9
  20
-4.968972
  30
0
  11
166.8
  21
-4.951062
  31
0
  0
LINE
  5
2c1
  100
AcDbEntity
  8
1
  100
AcDbLine
  10
166.8
  20
-4.951062
  30
0
  11
166.7
  21
-4.929113
  31
0
  0
LINE
  5
2c2
  100
AcDbEntity
  8
1
  100
AcDbLine
  10
166.7
  20
-4.929113
  30
0
  11
166.6
  21
-4.903142
  31
0
  0
LINE
  5
2c3
  100
AcDbEntity
  8
1
  100
AcDbLine
  10
166.6
  20
-4.903142
  30
0
  11
166.5
  21
-4.873172
  31
0
  0
LINE
  5
2c4
  100
AcDbEntity
  8
1
  100
AcDbLine
  10
166.5
  20
-4.873172
  30
0
  11
166.4
  21
-4.839226
  31
0
  0
LINE
  5
2c5
  100
AcDbEntity
  8
1
  100
AcDbLine
  10
166.4
  20
-4.839226
  30
0
  11
166.3
  21
-4.801333
  31
0
  0
LINE
  5
2c6
  100
AcDbEntity
  8
1
  100
AcDbLine
  10
166.3
  20
-4.801333
  30
0
  11
166.2
  21
-4.759522
  31
0
  0
LINE
  5
2c7
  100
AcDbEntity
  8
1
  100
AcDbLine
  10
166.2
  20
-4.759522
  30
0
  11
166.1
  21
-4.713829
  31
0
  0
LINE
  5
2c8
  100
AcDbEntity
  8
1
  100
AcDbLine
  10
166.1
  20
-4.713829
  30
0
  11
166
  21
-4.66429
  31
0
  0
LINE
  5
2c9
  100
AcDbEntity
  8
1
  100
AcDbLine
  10
166
  20
-4.66429
  30
0
  11
165.9
  21
-4.610947
  31
0
  0
LINE
  5
2ca
  100
AcDbEntity
  8
1
  100
AcDbLine
  10
165.9
  20
-4.610947
  30
0
  11
165.8
  21
-4.553841
  31
0
  0
LINE
  5
2cb
  100
AcDbEntity
  8
1
  100
AcDbLine
  10
165.8
  20
-4.553841
  30
0
  11
165.7
  21
-4.493021
  31
0
  0
LINE
  5
2cc
  100
AcDbEntity
  8
1
  100
AcDbLine
  10
165.7
  20
-4.493021
  30
0
  11
165.6
  21
-4.428535
  31
0
  0
LINE
  5
2cd
  100
AcDbEntity
  8
1
  100
AcDbLine
  10
165.6
  20
-4.428535
  30
0
  11
165.5
  21
-4.360437
  31
0
  0
LINE
  5
2ce
  100
AcDbEntity
  8
1
  100
AcDbLine
  10
165.5
  20
-4.360437
  30
0
  11
165.4
  21
-4.288782
  31
0
  0
LINE
  5
2cf
  100
AcDbEntity
  8
1
  100
AcDbLine
  10
165.4
  20
-4.288782
  30
0
  11
165.3
  21
-4.213627
  31
0
  0
LINE
  5
2d0
  100
AcDbEntity
  8
1
  100
AcDbLine
  10
165.3
  20
-4.213627
  30
0
  11
165.2
  21
-4.135036
  31
0
  0
LINE
  5
2d1
  100
AcDbEntity
  8
1
  100
AcDbLine
  10
165.2
  20
-4.135036
  30
0
  11
165.1
  21
-4.053071
  31
0
  0
LINE
  5
2d2
  100
AcDbEntity
  8
1
  100
AcDbLine
  10
165.1
  20
-4.053071
  30
0
  11
165
  21
-3.967799
  31
0
  0
LINE
  5
2d3
  100
AcDbEntity
  8
1
  100
AcDbLine
  10
165
  20
-3.967799
  30
0
  11
165
  21
-3.925451
  31
0
  0
LINE
  5
2d4
  100
AcDbEntity
  8
1
  100
AcDbLine
  10
165
  20
-3.925451
  30
0
  11
164.9
  21
-3.83773
  31
0
  0
LINE
  5
2d5
  100
AcDbEntity
  8
1
  100
AcDbLine
  10
164.9
  20
-3.83773
  30
0
  11
164.8
  21
-3.746873
  31
0
  0
LINE
  5
2d6
  100
AcDbEntity
  8
1
  100
AcDbLine
  10
164.8
  20
-3.746873
  30
0
  11
164.7
  21
-3.652918
  31
0
  0
LINE
  5
2d7
  100
AcDbEntity
  8
1
  100
AcDbLine
  10
164.7
  20
-3.652918
  30
0
  11
164.6
  21
-3.555785
  31
0
  0
LINE
  5
2d8
  100
AcDbEntity
  8
1
  100
AcDbLine
  10
164.6
  20
-3.555785
  30
0
  11
164.5
  21
-3.455135
  31
0
  0
LINE
  5
2d9
  100
AcDbEntity
  8
1
  100
AcDbLine
  10
164.5
  20
-3.455135
  30
0
  11
164.4
  21
-3.350136
  31
0
  0
LINE
  5
2da
  100
AcDbEntity
  8
1
  100
AcDbLine
  10
164.4
  20
-3.350136
  30
0
  11
164.3
  21
-3.239161
  31
0
  0
LINE
  5
2db
  100
AcDbEntity
  8
1
  100
AcDbLine
  10
164.3
  20
-3.239161
  30
0
  11
164.2
  21
-3.119374
  31
0
  0
LINE
  5
2dc
  100
AcDbEntity
  8
1
  100
AcDbLine
  10
164.2
  20
-3.119374
  30
0
  11
164.1
  21
-2.986213
  31
0
  0
LINE
  5
2dd
  100
AcDbEntity
  8
1
  100
AcDbLine
  10
164.1
  20
-2.986213
  30
0
  11
164
  21
-2.832719
  31
0
  0
LINE
  5
2de
  100
AcDbEntity
  8
1
  100
AcDbLine
  10
164
  20
-2.832719
  30
0
  11
163.9
  21
-2.648691
  31
0
  0
LINE
  5
2df
  100
AcDbEntity
  8
1
  100
AcDbLine
  10
163.9
  20
-2.648691
  30
0
  11
163.8
  21
-2.419604
  31
0
  0
LINE
  5
2e0
  100
AcDbEntity
  8
1
  100
AcDbLine
  10
163.8
  20
-2.419604
  30
0
  11
163.7
  21
-2.125274
  31
0
  0
LINE
  5
2e1
  100
AcDbEntity
  8
1
  100
AcDbLine
  10
163.7
  20
-2.125274
  30
0
  11
163.6
  21
-1.738398
  31
0
  0
LINE
  5
2e2
  100
AcDbEntity
  8
1
  100
AcDbLine
  10
163.6
  20
-1.738398
  30
0
  11
163.5
  21
-1.223491
  31
0
  0
LINE
  5
2e3
  100
AcDbEntity
  8
1
  100
AcDbLine
  10
163.5
  20
-1.223491
  30
0
  11
163.4
  21
-0.537792
  31
0
  0
LINE
  5
2e4
  100
AcDbEntity
  8
1
  100
AcDbLine
  10
163.4
  20
-0.537792
  30
0
  11
163.3
  21
0.362023
  31
0
  0
LINE
  5
2e5
  100
AcDbEntity
  8
1
  100
AcDbLine
  10
163.3
  20
0.362023
  30
0
  11
163.2
  21
1.499182
  31
0
  0
LINE
  5
2e6
  100
AcDbEntity
  8
1
  100
AcDbLine
  10
163.2
  20
1.499182
  30
0
  11
163.2
  21
3.438023
  31
0
  0
LINE
  5
2e7
  100
AcDbEntity
  8
1
  100
AcDbLine
  10
163.2
  20
3.438023
  30
0
  11
163.3
  21
3.94243
  31
0
  0
LINE
  5
2e8
  100
AcDbEntity
  8
1
  100
AcDbLine
  10
163.3
  20
3.94243
  30
0
  11
163.4
  21
4.133924
  31
0
  0
LINE
  5
2e9
  100
AcDbEntity
  8
1
  100
AcDbLine
  10
163.4
  20
4.133924
  30
0
  11
163.5
  21
4.186422
  31
0
  0
LINE
  5
2ea
  100
AcDbEntity
  8
1
  100
AcDbLine
  10
163.5
  20
4.186422
  30
0
  11
163.6
  21
4.172134
  31
0
  0
LINE
  5
2eb
  100
AcDbEntity
  8
1
  100
AcDbLine
  10
163.6
  20
4.172134
  30
0
  11
163.7
  21
4.1236
  31
0
  0
LINE
  5
2ec
  100
AcDbEntity
  8
1
  100
AcDbLine
  10
163.7
  20
4.1236
  30
0
  11
163.8
  21
4.056699
  31
0
  0
LINE
  5
2ed
  100
AcDbEntity
  8
1
  100
AcDbLine
  10
163.8
  20
4.056699
  30
0
  11
163.9
  21
3.979439
  31
0
  0
LINE
  5
2ee
  100
AcDbEntity
  8
1
  100
AcDbLine
  10
163.9
  20
3.979439
  30
0
  11
164
  21
3.895813
  31
0
  0
LINE
  5
2ef
  100
AcDbEntity
  8
1
  100
AcDbLine
  10
164
  20
3.895813
  30
0
  11
164.1
  21
3.807733
  31
0
  0
LINE
  5
2f0
  100
AcDbEntity
  8
1
  100
AcDbLine
  10
164.1
  20
3.807733
  30
0
  11
164.2
  21
3.716074
  31
0
  0
LINE
  5
2f1
  100
AcDbEntity
  8
1
  100
AcDbLine
  10
164.2
  20
3.716074
  30
0
  11
164.3
  21
3.621227
  31
0
  0
LINE
  5
2f2
  100
AcDbEntity
  8
1
  100
AcDbLine
  10
164.3
  20
3.621227
  30
0
  11
164.4
  21
3.523382
  31
0
  0
LINE
  5
2f3
  100
AcDbEntity
  8
1
  100
AcDbLine
  10
164.4
  20
3.523382
  30
0
  11
164.5
  21
3.422652
  31
0
  0
LINE
  5
2f4
  100
AcDbEntity
  8
1
  100
AcDbLine
  10
164.5
  20
3.422652
  30
0
  11
164.6
  21
3.319128
  31
0
  0
LINE
  5
2f5
  100
AcDbEntity
  8
1
  100
AcDbLine
  10
164.6
  20
3.319128
  30
0
  11
164.7
  21
3.212896
  31
0
  0
LINE
  5
2f6
  100
AcDbEntity
  8
1
  100
AcDbLine
  10
164.7
  20
3.212896
  30
0
  11
164.8
  21
3.104043
  31
0
  0
LINE
  5
2f7
  100
AcDbEntity
  8
1
  100
AcDbLine
  10
164.8
  20
3.104043
  30
0
  11
164.9
  21
2.992658
  31
0
  0
LINE
  5
2f8
  100
AcDbEntity
  8
1
  100
AcDbLine
  10
164.9
  20
2.992658
  30
0
  11
165
  21
2.878832
  31
0
  0
LINE
  5
2f9
  100
AcDbEntity
  8
1
  100
AcDbLine
  10
165
  20
2.878832
  30
0
  11
165
  21
2.902133
  31
0
  0
LINE
  5
2fa
  100
AcDbEntity
  8
1
  100
AcDbLine
  10
165
  20
2.902133
  30
0
  11
165.1
  21
2.78467
  31
0
  0
LINE
  5
2fb
  100
AcDbEntity
  8
1
  100
AcDbLine
  10
165.1
  20
2.78467
  30
0
  11
165.2
  21
2.664934
  31
0
  0
LINE
  5
2fc
  100
AcDbEntity
  8
1
  100
AcDbLine
  10
165.2
  20
2.664934
  30
0
  11
165.3
  21
2.543025
  31
0
  0
LINE
  5
2fd
  100
AcDbEntity
  8
1
  100
AcDbLine
  10
165.3
  20
2.543025
  30
0
  11
165.4
  21
2.41904
  31
0
  0
LINE
  5
2fe
  100
AcDbEntity
  8
1
  100
AcDbLine
  10
165.4
  20
2.41904
  30
0
  11
165.5
  21
2.293083
  31
0
  0
LINE
  5
2ff
  100
AcDbEntity
  8
1
  100
AcDbLine
  10
165.5
  20
2.293083
  30
0
  11
165.6
  21
2.165255
  31
0
  0
LINE
  5
300
  100
AcDbEntity
  8
1
  100
AcDbLine
  10
165.6
  20
2.165255
  30
0
  11
165.7
  21
2.03566
  31
0
  0
LINE
  5
301
  100
AcDbEntity
  8
1
  100
AcDbLine
  10
165.7
  20
2.03566
  30
0
  11
165.8
  21
1.904405
  31
0
  0
LINE
  5
302
  100
AcDbEntity
  8
1
  100
AcDbLine
  10
165.8
  20
1.904405
  30
0
  11
165.9
  21
1.771596
  31
0
  0
LINE
  5
303
  100
AcDbEntity
  8
1
  100
AcDbLine
  10
165.9
  20
1.771596
  30
0
  11
166
  21
1.637342
  31
0
  0
LINE
  5
304
  100
AcDbEntity
  8
1
  100
AcDbLine
  10
166
  20
1.637342
  30
0
  11
166.1
  21
1.501752
  31
0
  0
LINE
  5
305
  100
AcDbEntity
  8
1
  100
AcDbLine
  10
166.1
  20
1.501752
  30
0
  11
166.2
  21
1.364937
  31
0
  0
LINE
  5
306
  100
AcDbEntity
  8
1
  100
AcDbLine
  10
166.2
  20
1.364937
  30
0
  11
166.3
  21
1.227009
  31
0
  0
LINE
  5
307
  100
AcDbEntity
  8
1
  100
AcDbLine
  10
166.3
  20
1.227009
  30
0
  11
166.4
  21
1.088079
  31
0
  0
LINE
  5
308
  100
AcDbEntity
  8
1
  100
AcDbLine
  10
166.4
  20
1.088079
  30
0
  11
166.5
  21
0.948262
  31
0
  0
LINE
  5
309
  100
AcDbEntity
  8
1
  100
AcDbLine
  10
166.5
  20
0.948262
  30
0
  11
166.6
  21
0.807672
  31
0
  0
LINE
  5
30a
  100
AcDbEntity
  8
1
  100
AcDbLine
  10
166.6
  20
0.807672
  30
0
  11
166.7
  21
0.666422
  31
0
  0
LINE
  5
30b
  100
AcDbEntity
  8
1
  100
AcDbLine
  10
166.7
  20
0.666422
  30
0
  11
166.8
  21
0.524629
  31
0
  0
LINE
  5
30c
  100
AcDbEntity
  8
1
  100
AcDbLine
  10
166.8
  20
0.524629
  30
0
  11
166.9
  21
0.382408
  31
0
  0
LINE
  5
30d
  100
AcDbEntity
  8
1
  100
AcDbLine
  10
166.9
  20
0.382408
  30
0
  11
167
  21
0.239875
  31
0
  0
LINE
  5
30e
  100
AcDbEntity
  8
1
  100
AcDbLine
  10
167
  20
0.239875
  30
0
  11
167.1
  21
0.097146
  31
0
  0
LINE
  5
30f
  100
AcDbEntity
  8
1
  100
AcDbLine
  10
167.1
  20
0.097146
  30
0
  11
167.2
  21
-0.045662
  31
0
  0
LINE
  5
310
  100
AcDbEntity
  8
1
  100
AcDbLine
  10
167.2
  20
-0.045662
  30
0
  11
167.3
  21
-0.188433
  31
0
  0
LINE
  5
311
  100
AcDbEntity
  8
1
  100
AcDbLine
  10
167.3
  20
-0.188433
  30
0
  11
167.4
  21
-0.33105
  31
0
  0
LINE
  5
312
  100
AcDbEntity
  8
1
  100
AcDbLine
  10
167.4
  20
-0.33105
  30
0
  11
167.5
  21
-0.473397
  31
0
  0
LINE
  5
313
  100
AcDbEntity
  8
1
  100
AcDbLine
  10
167.5
  20
-0.473397
  30
0
  11
167.6
  21
-0.615358
  31
0
  0
LINE
  5
314
  100
AcDbEntity
  8
1
  100
AcDbLine
  10
167.6
  20
-0.615358
  30
0
  11
167.7
  21
-0.756817
  31
0
  0
LINE
  5
315
  100
AcDbEntity
  8
1
  100
AcDbLine
  10
167.7
  20
-0.756817
  30
0
  11
167.8
  21
-0.897658
  31
0
  0
LINE
  5
316
  100
AcDbEntity
  8
1
  100
AcDbLine
  10
167.8
  20
-0.897658
  30
0
  11
167.9
  21
-1.037767
  31
0
  0
LINE
  5
317
  100
AcDbEntity
  8
1
  100
AcDbLine
  10
167.9
  20
-1.037767
  30
0
  11
168
  21
-1.17703
  31
0
  0
LINE
  5
318
  100
AcDbEntity
  8
1
  100
AcDbLine
  10
168
  20
-1.17703
  30
0
  11
168.1
  21
-1.315332
  31
0
  0
LINE
  5
319
  100
AcDbEntity
  8
1
  100
AcDbLine
  10
168.1
  20
-1.315332
  30
0
  11
168.2
  21
-1.452561
  31
0
  0
LINE
  5
31a
  100
AcDbEntity
  8
1
  100
AcDbLine
  10
168.2
  20
-1.452561
  30
0
  11
168.3
  21
-1.588606
  31
0
  0
LINE
  5
31b
  100
AcDbEntity
  8
1
  100
AcDbLine
  10
168.3
  20
-1.588606
  30
0
  11
168.4
  21
-1.723354
  31
0
  0
LINE
  5
31c
  100
AcDbEntity
  8
1
  100
AcDbLine
  10
168.4
  20
-1.723354
  30
0
  11
168.5
  21
-1.856696
  31
0
  0
LINE
  5
31d
  100
AcDbEntity
  8
1
  100
AcDbLine
  10
168.5
  20
-1.856696
  30
0
  11
168.6
  21
-1.988524
  31
0
  0
LINE
  5
31e
  100
AcDbEntity
  8
1
  100
AcDbLine
  10
168.6
  20
-1.988524
  30
0
  11
168.7
  21
-2.11873
  31
0
  0
LINE
  5
31f
  100
AcDbEntity
  8
1
  100
AcDbLine
  10
168.7
  20
-2.11873
  30
0
  11
168.8
  21
-2.247207
  31
0
  0
LINE
  5
320
  100
AcDbEntity
  8
1
  100
AcDbLine
  10
168.8
  20
-2.247207
  30
0
  11
168.9
  21
-2.373851
  31
0
  0
LINE
  5
321
  100
AcDbEntity
  8
1
  100
AcDbLine
  10
168.9
  20
-2.373851
  30
0
  11
169
  21
-2.498558
  31
0
  0
LINE
  5
322
  100
AcDbEntity
  8
1
  100
AcDbLine
  10
169
  20
-2.498558
  30
0
  11
169.1
  21
-2.621227
  31
0
  0
LINE
  5
323
  100
AcDbEntity
  8
1
  100
AcDbLine
  10
169.1
  20
-2.621227
  30
0
  11
169.2
  21
-2.741758
  31
0
  0
LINE
  5
324
  100
AcDbEntity
  8
1
  100
AcDbLine
  10
169.2
  20
-2.741758
  30
0
  11
169.3
  21
-2.860052
  31
0
  0
LINE
  5
325
  100
AcDbEntity
  8
1
  100
AcDbLine
  10
169.3
  20
-2.860052
  30
0
  11
169.4
  21
-2.976013
  31
0
  0
LINE
  5
326
  100
AcDbEntity
  8
1
  100
AcDbLine
  10
169.4
  20
-2.976013
  30
0
  11
169.5
  21
-3.089546
  31
0
  0
LINE
  5
327
  100
AcDbEntity
  8
1
  100
AcDbLine
  10
169.5
  20
-3.089546
  30
0
  11
169.6
  21
-3.200558
  31
0
  0
LINE
  5
328
  100
AcDbEntity
  8
1
  100
AcDbLine
  10
169.6
  20
-3.200558
  30
0
  11
169.7
  21
-3.30896
  31
0
  0
LINE
  5
329
  100
AcDbEntity
  8
1
  100
AcDbLine
  10
169.7
  20
-3.30896
  30
0
  11
169.8
  21
-3.414662
  31
0
  0
LINE
  5
32a
  100
AcDbEntity
  8
1
  100
AcDbLine
  10
169.8
  20
-3.414662
  30
0
  11
169.9
  21
-3.517579
  31
0
  0
LINE
  5
32b
  100
AcDbEntity
  8
1
  100
AcDbLine
  10
169.9
  20
-3.517579
  30
0
  11
170
  21
-3.617626
  31
0
  0
LINE
  5
32c
  100
AcDbEntity
  8
1
  100
AcDbLine
  10
170
  20
-3.617626
  30
0
  11
170.1
  21
-3.714721
  31
0
  0
LINE
  5
32d
  100
AcDbEntity
  8
1
  100
AcDbLine
  10
170.1
  20
-3.714721
  30
0
  11
170.2
  21
-3.808787
  31
0
  0
LINE
  5
32e
  100
AcDbEntity
  8
1
  100
AcDbLine
  10
170.2
  20
-3.808787
  30
0
  11
170.3
  21
-3.899745
  31
0
  0
LINE
  5
32f
  100
AcDbEntity
  8
1
  100
AcDbLine
  10
170.3
  20
-3.899745
  30
0
  11
170.4
  21
-3.987522
  31
0
  0
LINE
  5
330
  100
AcDbEntity
  8
1
  100
AcDbLine
  10
170.4
  20
-3.987522
  30
0
  11
170.5
  21
-4.072046
  31
0
  0
LINE
  5
331
  100
AcDbEntity
  8
1
  100
AcDbLine
  10
170.5
  20
-4.072046
  30
0
  11
170.6
  21
-4.153248
  31
0
  0
LINE
  5
332
  100
AcDbEntity
  8
1
  100
AcDbLine
  10
170.6
  20
-4.153248
  30
0
  11
170.7
  21
-4.231061
  31
0
  0
LINE
  5
333
  100
AcDbEntity
  8
1
  100
AcDbLine
  10
170.7
  20
-4.231061
  30
0
  11
170.8
  21
-4.305423
  31
0
  0
LINE
  5
334
  100
AcDbEntity
  8
1
  100
AcDbLine
  10
170.8
  20
-4.305423
  30
0
  11
170.9
  21
-4.376273
  31
0
  0
LINE
  5
335
  100
AcDbEntity
  8
1
  100
AcDbLine
  10
170.9
  20
-4.376273
  30
0
  11
171
  21
-4.443553
  31
0
  0
LINE
  5
336
  100
AcDbEntity
  8
1
  100
AcDbLine
  10
171
  20
-4.443553
  30
0
  11
171.1
  21
-4.507208
  31
0
  0
LINE
  5
337
  100
AcDbEntity
  8
1
  100
AcDbLine
  10
171.1
  20
-4.507208
  30
0
  11
171.2
  21
-4.567185
  31
0
  0
LINE
  5
338
  100
AcDbEntity
  8
1
  100
AcDbLine
  10
171.2
  20
-4.567185
  30
0
  11
171.3
  21
-4.623437
  31
0
  0
LINE
  5
339
  100
AcDbEntity
  8
1
  100
AcDbLine
  10
171.3
  20
-4.623437
  30
0
  11
171.4
  21
-4.675918
  31
0
  0
LINE
  5
33a
  100
AcDbEntity
  8
1
  100
AcDbLine
  10
171.4
  20
-4.675918
  30
0
  11
171.5
  21
-4.724583
  31
0
  0
LINE
  5
33b
  100
AcDbEntity
  8
1
  100
AcDbLine
  10
171.5
  20
-4.724583
  30
0
  11
171.6
  21
-4.769395
  31
0
  0
LINE
  5
33c
  100
AcDbEntity
  8
1
  100
AcDbLine
  10
171.6
  20
-4.769395
  30
0
  11
171.7
  21
-4.810315
  31
0
  0
LINE
  5
33d
  100
AcDbEntity
  8
1
  100
AcDbLine
  10
171.7
  20
-4.810315
  30
0
  11
171.8
  21
-4.847312
  31
0
  0
LINE
  5
33e
  100
AcDbEntity
  8
1
  100
AcDbLine
  10
171.8
  20
-4.847312
  30
0
  11
171.9
  21
-4.880354
  31
0
  0
LINE
  5
33f
  100
AcDbEntity
  8
1
  100
AcDbLine
  10
171.9
  20
-4.880354
  30
0
  11
172
  21
-4.909414
  31
0
  0
LINE
  5
340
  100
AcDbEntity
  8
1
  100
AcDbLine
  10
172
  20
-4.909414
  30
0
  11
172.1
  21
-4.93447
  31
0
  0
LINE
  5
341
  100
AcDbEntity
  8
1
  100
AcDbLine
  10
172.1
  20
-4.93447
  30
0
  11
172.2
  21
-4.9555
  31
0
  0
LINE
  5
342
  100
AcDbEntity
  8
1
  100
AcDbLine
  10
172.2
  20
-4.9555
  30
0
  11
172.3
  21
-4.972488
  31
0
  0
LINE
  5
343
  100
AcDbEntity
  8
1
  100
AcDbLine
  10
172.3
  20
-4.972488
  30
0
  11
172.4
  21
-4.985419
  31
0
  0
LINE
  5
344
  100
AcDbEntity
  8
1
  100
AcDbLine
  10
172.4
  20
-4.985419
  30
0
  11
172.5
  21
-4.994283
  31
0
  0
LINE
  5
345
  100
AcDbEntity
  8
1
  100
AcDbLine
  10
172.5
  20
-4.994283
  30
0
  11
172.6
  21
-4.999072
  31
0
  0
LINE
  5
346
  100
AcDbEntity
  8
1
  100
AcDbLine
  10
172.6
  20
-4.999072
  30
0
  11
172.667443
  21
-5
  31
0
  0
LINE
  5
347
  100
AcDbEntity
  8
1
  100
AcDbLine
  10
60
  20
-6.783837
  30
0
  11
60
  21
6.783837
  31
0
  0
LINE
  5
348
  100
AcDbEntity
  8
1
  100
AcDbLine
  10
57.41181
  20
7.124578
  30
0
  11
57.41181
  21
-7.124578
  31
0
  0
LINE
  5
349
  100
AcDbEntity
  8
SK1
  100
AcDbLine
  10
54.6
  20
7.878
  30
0
  11
54.144692
  21
8
  31
0
  0
LINE
  5
34a
  100
AcDbEntity
  8
SK1
  100
AcDbLine
  10
54.144692
  20
8
  30
0
  11
54.6
  21
8
  31
0
  0
LINE
  5
34b
  100
AcDbEntity
  8
SK1
  100
AcDbLine
  10
54.6
  20
8
  30
0
  11
1
  21
8
  31
0
  0
LINE
  5
34c
  100
AcDbEntity
  8
SK1
  100
AcDbLine
  10
1
  20
8
  30
0
  11
0
  21
7
  31
0
  0
LINE
  5
34d
  100
AcDbEntity
  8
SK1
  100
AcDbLine
  10
54.6
  20
-7.878
  30
0
  11
54.144692
  21
-8
  31
0
  0
LINE
  5
34e
  100
AcDbEntity
  8
SK1
  100
AcDbLine
  10
54.144692
  20
-8
  30
0
  11
54.6
  21
-8
  31
0
  0
LINE
  5
34f
  100
AcDbEntity
  8
SK1
  100
AcDbLine
  10
54.6
  20
-8
  30
0
  11
1
  21
-8
  31
0
  0
LINE
  5
350
  100
AcDbEntity
  8
SK1
  100
AcDbLine
  10
1
  20
-8
  30
0
  11
0
  21
-7
  31
0
  0
LINE
  5
351
  100
AcDbEntity
  8
SK1
  100
AcDbLine
  10
54.144692
  20
8
  30
0
  11
54.144692
  21
-8
  31
0
  0
LINE
  5
352
  100
AcDbEntity
  8
SK1
  100
AcDbLine
  10
1
  20
8
  30
0
  11
1
  21
-8
  31
0
  0
LINE
  5
353
  100
AcDbEntity
  8
SK1
  100
AcDbLine
  10
0
  20
7
  30
0
  11
0
  21
-7
  31
0
  0
LINE
  5
354
  100
AcDbEntity
  8
SK1
  100
AcDbLine
  10
55.6401
  20
1.40688
  30
0
  11
56.0069
  21
1.0401
  31
0
  0
LINE
  5
355
  100
AcDbEntity
  8
SK1
  100
AcDbLine
  10
55.1328
  20
1.66666
  30
0
  11
56.2667
  21
0.532833
  31
0
  0
LINE
  5
356
  100
AcDbEntity
  8
SK1
  100
AcDbLine
  10
54.8154
  20
1.73657
  30
0
  11
56.3366
  21
0.215434
  31
0
  0
LINE
  5
357
  100
AcDbEntity
  8
SK1
  100
AcDbLine
  10
54.6
  20
1.70452
  30
0
  11
56.3045
  21
0
  31
0
  0
LINE
  5
358
  100
AcDbEntity
  8
SK1
  100
AcDbLine
  10
54.6
  20
1.45703
  30
0
  11
56.057
  21
0
  31
0
  0
LINE
  5
359
  100
AcDbEntity
  8
SK1
  100
AcDbLine
  10
54.6
  20
1.20954
  30
0
  11
55.8095
  21
0
  31
0
  0
LINE
  5
35a
  100
AcDbEntity
  8
SK1
  100
AcDbLine
  10
54.6
  20
0.962054
  30
0
  11
55.5621
  21
0
  31
0
  0
LINE
  5
35b
  100
AcDbEntity
  8
SK1
  100
AcDbLine
  10
54.6
  20
0.714566
  30
0
  11
55.3146
  21
0
  31
0
  0
LINE
  5
35c
  100
AcDbEntity
  8
SK1
  100
AcDbLine
  10
54.6
  20
0.467079
  30
0
  11
55.0671
  21
0
  31
0
  0
LINE
  5
35d
  100
AcDbEntity
  8
SK1
  100
AcDbLine
  10
54.6
  20
0.219592
  30
0
  11
54.8196
  21
0
  31
0
  0
LINE
  5
35e
  100
AcDbEntity
  8
SK1
  100
AcDbLine
  10
54.6
  20
1.70452
  30
0
  11
54.6441
  21
1.74861
  31
0
  0
LINE
  5
35f
  100
AcDbEntity
  8
SK1
  100
AcDbLine
  10
54.6
  20
1.45703
  30
0
  11
54.871
  21
1.72802
  31
0
  0
LINE
  5
360
  100
AcDbEntity
  8
SK1
  100
AcDbLine
  10
54.6
  20
1.20954
  30
0
  11
55.0742
  21
1.6837
  31
0
  0
LINE
  5
361
  100
AcDbEntity
  8
SK1
  100
AcDbLine
  10
54.6
  20
0.962054
  30
0
  11
55.2588
  21
1.62082
  31
0
  0
LINE
  5
362
  100
AcDbEntity
  8
SK1
  100
AcDbLine
  10
54.6
  20
0.714566
  30
0
  11
55.4271
  21
1.54167
  31
0
  0
LINE
  5
363
  100
AcDbEntity
  8
SK1
  100
AcDbLine
  10
54.6
  20
0.467079
  30
0
  11
55.581
  21
1.44812
  31
0
  0
LINE
  5
364
  100
AcDbEntity
  8
SK1
  100
AcDbLine
  10
54.6
  20
0.219592
  30
0
  11
55.7226
  21
1.34216
  31
0
  0
LINE
  5
365
  100
AcDbEntity
  8
SK1
  100
AcDbLine
  10
54.6279
  20
0
  30
0
  11
55.8508
  21
1.22288
  31
0
  0
LINE
  5
366
  100
AcDbEntity
  8
SK1
  100
AcDbLine
  10
54.8754
  20
0
  30
0
  11
55.967
  21
1.09157
  31
0
  0
LINE
  5
367
  100
AcDbEntity
  8
SK1
  100
AcDbLine
  10
55.1229
  20
0
  30
0
  11
56.0707
  21
0.947822
  31
0
  0
LINE
  5
368
  100
AcDbEntity
  8
SK1
  100
AcDbLine
  10
55.3704
  20
0
  30
0
  11
56.1605
  21
0.790145
  31
0
  0
LINE
  5
369
  100
AcDbEntity
  8
SK1
  100
AcDbLine
  10
55.6178
  20
0
  30
0
  11
56.2364
  21
0.618517
  31
0
  0
LINE
  5
36a
  100
AcDbEntity
  8
SK1
  100
AcDbLine
  10
55.8653
  20
0
  30
0
  11
56.296
  21
0.430696
  31
0
  0
LINE
  5
36b
  100
AcDbEntity
  8
SK1
  100
AcDbLine
  10
56.1128
  20
0
  30
0
  11
56.3356
  21
0.222827
  31
0
  0
LINE
  5
36c
  100
AcDbEntity
  8
SK1
  100
AcDbLine
  10
54.6
  20
0
  30
0
  11
54.6
  21
1.75
  31
0
  0
LINE
  5
36d
  100
AcDbEntity
  8
SK1
  100
AcDbLine
  10
54.6
  20
0
  30
0
  11
56.35
  21
0
  31
0
  0
ARC
  5
36e
  100
AcDbEntity
  8
SK1
  100
AcDbCircle
  10
54.6
  20
0
  30
0
  40
1.75
  100
AcDbArc
  50
0
  51
90
  0
ARC
  5
36f
  100
AcDbEntity
  8
SK1
  100
AcDbCircle
  10
54.6
  20
0
  30
0
  40
1.75
  100
AcDbArc
  50
90
  51
180
  0
LINE
  5
370
  100
AcDbEntity
  8
SK1
  100
AcDbLine
  10
54.5721
  20
0
  30
0
  11
54.6
  21
-0.027896
  31
0
  0
LINE
  5
371
  100
AcDbEntity
  8
SK1
  100
AcDbLine
  10
54.3246
  20
0
  30
0
  11
54.6
  21
-0.275383
  31
0
  0
LINE
  5
372
  100
AcDbEntity
  8
SK1
  100
AcDbLine
  10
54.0771
  20
0
  30
0
  11
54.6
  21
-0.522871
  31
0
  0
LINE
  5
373
  100
AcDbEntity
  8
SK1
  100
AcDbLine
  10
53.8296
  20
0
  30
0
  11
54.6
  21
-0.770358
  31
0
  0
LINE
  5
374
  100
AcDbEntity
  8
SK1
  100
AcDbLine
  10
53.5822
  20
0
  30
0
  11
54.6
  21
-1.01785
  31
0
  0
LINE
  5
375
  100
AcDbEntity
  8
SK1
  100
AcDbLine
  10
53.3347
  20
0
  30
0
  11
54.6
  21
-1.26533
  31
0
  0
LINE
  5
376
  100
AcDbEntity
  8
SK1
  100
AcDbLine
  10
53.0872
  20
0
  30
0
  11
54.6
  21
-1.51282
  31
0
  0
LINE
  5
377
  100
AcDbEntity
  8
SK1
  100
AcDbLine
  10
52.8503
  20
-0.010642
  30
0
  11
54.5894
  21
-1.74967
  31
0
  0
LINE
  5
378
  100
AcDbEntity
  8
SK1
  100
AcDbLine
  10
52.8736
  20
-0.281429
  30
0
  11
54.3186
  21
-1.72637
  31
0
  0
LINE
  5
379
  100
AcDbEntity
  8
SK1
  100
AcDbLine
  10
52.9639
  20
-0.619147
  30
0
  11
53.9809
  21
-1.63613
  31
0
  0
LINE
  5
37a
  100
AcDbEntity
  8
SK1
  100
AcDbLine
  10
52.8514
  20
-0.044098
  30
0
  11
52.8955
  21
0
  31
0
  0
LINE
  5
37b
  100
AcDbEntity
  8
SK1
  100
AcDbLine
  10
52.872
  20
-0.270991
  30
0
  11
53.143
  21
0
  31
0
  0
LINE
  5
37c
  100
AcDbEntity
  8
SK1
  100
AcDbLine
  10
52.9163
  20
-0.474162
  30
0
  11
53.3905
  21
0
  31
0
  0
LINE
  5
37d
  100
AcDbEntity
  8
SK1
  100
AcDbLine
  10
52.9792
  20
-0.658762
  30
0
  11
53.6379
  21
0
  31
0
  0
LINE
  5
37e
  100
AcDbEntity
  8
SK1
  100
AcDbLine
  10
53.0583
  20
-0.827105
  30
0
  11
53.8854
  21
0
  31
0
  0
LINE
  5
37f
  100
AcDbEntity
  8
SK1
  100
AcDbLine
  10
53.1519
  20
-0.981039
  30
0
  11
54.1329
  21
0
  31
0
  0
LINE
  5
380
  100
AcDbEntity
  8
SK1
  100
AcDbLine
  10
53.2578
  20
-1.12257
  30
0
  11
54.3804
  21
0
  31
0
  0
LINE
  5
381
  100
AcDbEntity
  8
SK1
  100
AcDbLine
  10
53.3771
  20
-1.25077
  30
0
  11
54.6
  21
-0.027896
  31
0
  0
LINE
  5
382
  100
AcDbEntity
  8
SK1
  100
AcDbLine
  10
53.5084
  20
-1.36695
  30
0
  11
54.6
  21
-0.275383
  31
0
  0
LINE
  5
383
  100
AcDbEntity
  8
SK1
  100
AcDbLine
  10
53.6522
  20
-1.47069
  30
0
  11
54.6
  21
-0.522871
  31
0
  0
LINE
  5
384
  100
AcDbEntity
  8
SK1
  100
AcDbLine
  10
53.8099
  20
-1.5605
  30
0
  11
54.6
  21
-0.770358
  31
0
  0
LINE
  5
385
  100
AcDbEntity
  8
SK1
  100
AcDbLine
  10
53.9815
  20
-1.63636
  30
0
  11
54.6
  21
-1.01785
  31
0
  0
LINE
  5
386
  100
AcDbEntity
  8
SK1
  100
AcDbLine
  10
54.1693
  20
-1.69603
  30
0
  11
54.6
  21
-1.26533
  31
0
  0
LINE
  5
387
  100
AcDbEntity
  8
SK1
  100
AcDbLine
  10
54.3772
  20
-1.73565
  30
0
  11
54.6
  21
-1.51282
  31
0
  0
LINE
  5
388
  100
AcDbEntity
  8
SK1
  100
AcDbLine
  10
54.6
  20
0
  30
0
  11
52.85
  21
0
  31
0
  0
LINE
  5
389
  100
AcDbEntity
  8
SK1
  100
AcDbLine
  10
54.6
  20
-1.75
  30
0
  11
54.6
  21
0
  31
0
  0
ARC
  5
38a
  100
AcDbEntity
  8
SK1
  100
AcDbCircle
  10
54.6
  20
0
  30
0
  40
1.75
  100
AcDbArc
  50
180
  51
270
  0
ARC
  5
38b
  100
AcDbEntity
  8
SK1
  100
AcDbCircle
  10
54.6
  20
0
  30
0
  40
1.75
  100
AcDbArc
  50
270
  51
0
  0
LINE
  5
414
  100
AcDbEntity
  8
NOCUT
  100
AcDbLine
  10
165
  20
0
  30
0
  11
165
  21
4.95
  31
0
  0
LINE
  5
415
  100
AcDbEntity
  8
NOCUT
  100
AcDbLine
  10
165
  20
4.95
  30
0
  11
163
  21
4.95
  31
0
  0
LINE
  5
416
  100
AcDbEntity
  8
NOCUT
  100
AcDbLine
  10
163
  20
4.95
  30
0
  11
60
  21
6.783837
  31
0
  0
ARC
  5
417
  100
AcDbEntity
  8
NOCUT
  100
AcDbCircle
  10
60
  20
16.783837
  30
0
  40
10
  100
AcDbArc
  50
255
  51
270
  0
LINE
  5
418
  100
AcDbEntity
  8
NOCUT
  100
AcDbLine
  10
57.41181
  20
7.124578
  30
0
  11
54.6
  21
7.878
  31
0
  0
LINE
  5
419
  100
AcDbEntity
  8
NOCUT
  100
AcDbLine
  10
54.6
  20
7.878
  30
0
  11
54.6
  21
0
  31
0
  0
LINE
  5
41a
  100
AcDbEntity
  8
NOCUT
  100
AcDbLine
  10
54.6
  20
0
  30
0
  11
165
  21
0
  31
0
  0
LINE
  5
41b
  100
AcDbEntity
  8
CUT
  100
AcDbLine
  10
180
  20
0
  30
0
  11
180
  21
3
  31
0
  0
ARC
  5
41c
  100
AcDbEntity
  8
CUT
  100
AcDbCircle
  10
178
  20
3
  30
0
  40
2
  100
AcDbArc
  50
0
  51
90
  0
LINE
  5
41d
  100
AcDbEntity
  8
CUT
  100
AcDbLine
  10
178
  20
5
  30
0
  11
165
  21
5
  31
0
  0
LINE
  5
41e
  100
AcDbEntity
  8
CUT
  100
AcDbLine
  10
165
  20
5
  30
0
  11
165
  21
0
  31
0
  0
LINE
  5
41f
  100
AcDbEntity
  8
CUT
  100
AcDbLine
  10
165
  20
0
  30
0
  11
180
  21
0
  31
0
  0
LINE
  5
420
  100
AcDbEntity
  8
4
  100
AcDbLine
  10
54.6
  20
0
  30
0
  11
180
  21
0
  31
0
  0
LINE
  5
421
  100
AcDbEntity
  8
SK4
  100
AcDbLine
  10
-1
  20
0
  30
0
  11
181
  21
0
  31
0
  0
LINE
  5
422
  100
AcDbEntity
  8
INFTOTAL
  100
AcDbLine
  10
-22.2
  20
26.983837
  30
0
  11
202.2
  21
26.983837
  31
0
  0
LINE
  5
423
  100
AcDbEntity
  8
INFTOTAL
  100
AcDbLine
  10
202.2
  20
26.983837
  30
0
  11
202.2
  21
-26.983837
  31
0
  0
LINE
  5
424
  100
AcDbEntity
  8
INFTOTAL
  100
AcDbLine
  10
202.2
  20
-26.983837
  30
0
  11
-22.2
  21
-26.983837
  31
0
  0
LINE
  5
425
  100
AcDbEntity
  8
INFTOTAL
  100
AcDbLine
  10
-22.2
  20
-26.983837
  30
0
  11
-22.2
  21
26.983837
  31
0
  0
ENDSEC
  0
SECTION
  2
OBJECTS
  0
DICTIONARY
  5
426
  330
0
100
AcDbDictionary
281
    1
  3
ACAD_GROUP
  350
427
  0
DICTIONARY
  5
427
102
{ACAD_REACTORS
  330
426
102
}
  330
426
100
AcDbDictionary
281
    1
  0
ENDSEC
  0
EOF
