  0
SECTION
  2
HEADER
  9
$ACADVER
  1
AC1014
  9
$ACADMAINTVER
 70
     9
  9
$DWGCODEPAGE
  3
ANSI_1252
  9
$INSBASE
 10
0.0
 20
0.0
 30
0.0
  9
$EXTMIN
 10
-36.22283425904038
 20
-40.5311366304528
 30
-0.000000000000013
  9
$EXTMAX
 10
109.4617445240599
 20
44.11472919213986
 30
0.0000000000000023
  9
$LIMMIN
 10
0.0
 20
0.0
  9
$LIMMAX
 10
594.0
 20
420.0
  9
$ORTHOMODE
 70
     0
  9
$REGENMODE
 70
     1
  9
$FILLMODE
 70
     1
  9
$QTEXTMODE
 70
     0
  9
$MIRRTEXT
 70
     1
  9
$DRAGMODE
 70
     2
  9
$LTSCALE
 40
25.0
  9
$OSMODE
 70
   167
  9
$ATTMODE
 70
     1
  9
$TEXTSIZE
 40
0.2
  9
$TRACEWID
 40
0.05
  9
$TEXTSTYLE
  7
STANDARD
  9
$CLAYER
  8
0
  9
$CELTYPE
  6
BYLAYER
  9
$CECOLOR
 62
   256
  9
$CELTSCALE
 40
1.0
  9
$DELOBJ
 70
     1
  9
$DISPSILH
 70
     0
  9
$DIMSCALE
 40
1.0
  9
$DIMASZ
 40
2.5
  9
$DIMEXO
 40
3.712499999999999
  9
$DIMDLI
 40
22.572
  9
$DIMRND
 40
0.0
  9
$DIMDLE
 40
0.0
  9
$DIMEXE
 40
10.692
  9
$DIMTP
 40
0.01
  9
$DIMTM
 40
0.01
  9
$DIMTXT
 40
3.5
  9
$DIMCEN
 40
5.346
  9
$DIMTSZ
 40
0.0
  9
$DIMTOL
 70
     1
  9
$DIMLIM
 70
     0
  9
$DIMTIH
 70
     1
  9
$DIMTOH
 70
     1
  9
$DIMSE1
 70
     0
  9
$DIMSE2
 70
     0
  9
$DIMTAD
 70
     0
  9
$DIMZIN
 70
     0
  9
$DIMBLK
  1
_ARROW_FILLED
  9
$DIMASO
 70
     1
  9
$DIMSHO
 70
     1
  9
$DIMPOST
  1

  9
$DIMAPOST
  1

  9
$DIMALT
 70
     0
  9
$DIMALTD
 70
     2
  9
$DIMALTF
 40
25.4
  9
$DIMLFAC
 40
1.0
  9
$DIMTOFL
 70
     0
  9
$DIMTVP
 40
0.0
  9
$DIMTIX
 70
     0
  9
$DIMSOXD
 70
     0
  9
$DIMSAH
 70
     0
  9
$DIMBLK1
  1

  9
$DIMBLK2
  1

  9
$DIMSTYLE
  2
STANDARD
  9
$DIMCLRD
 70
     0
  9
$DIMCLRE
 70
     0
  9
$DIMCLRT
 70
     0
  9
$DIMTFAC
 40
1.0
  9
$DIMGAP
 40
0.09
  9
$DIMJUST
 70
     0
  9
$DIMSD1
 70
     0
  9
$DIMSD2
 70
     0
  9
$DIMTOLJ
 70
     1
  9
$DIMTZIN
 70
     0
  9
$DIMALTZ
 70
     0
  9
$DIMALTTZ
 70
     0
  9
$DIMFIT
 70
     3
  9
$DIMUPT
 70
     0
  9
$DIMUNIT
 70
     2
  9
$DIMDEC
 70
     4
  9
$DIMTDEC
 70
     4
  9
$DIMALTU
 70
     2
  9
$DIMALTTD
 70
     2
  9
$DIMTXSTY
  7
STANDARD
  9
$DIMAUNIT
 70
     0
  9
$LUNITS
 70
     2
  9
$LUPREC
 70
     4
  9
$SKETCHINC
 40
0.1
  9
$FILLETRAD
 40
0.5
  9
$AUNITS
 70
     0
  9
$AUPREC
 70
     0
  9
$MENU
  1
.
  9
$ELEVATION
 40
0.0
  9
$PELEVATION
 40
0.0
  9
$THICKNESS
 40
0.0
  9
$LIMCHECK
 70
     0
  9
$BLIPMODE
 70
     0
  9
$CHAMFERA
 40
0.0
  9
$CHAMFERB
 40
0.0
  9
$CHAMFERC
 40
0.0
  9
$CHAMFERD
 40
0.0
  9
$SKPOLY
 70
     0
  9
$TDCREATE
 40
2454209.419656458
  9
$TDUPDATE
 40
2454209.679985602
  9
$TDINDWG
 40
0.1374181481
  9
$TDUSRTIMER
 40
0.1374181481
  9
$USRTIMER
 70
     1
  9
$ANGBASE
 50
0.0
  9
$ANGDIR
 70
     0
  9
$PDMODE
 70
     3
  9
$PDSIZE
 40
0.15
  9
$PLINEWID
 40
0.0
  9
$COORDS
 70
     0
  9
$SPLFRAME
 70
     0
  9
$SPLINETYPE
 70
     6
  9
$SPLINESEGS
 70
     8
  9
$ATTDIA
 70
     0
  9
$ATTREQ
 70
     1
  9
$HANDLING
 70
-16383
  9
$HANDSEED
  5
17EB
  9
$SURFTAB1
 70
     6
  9
$SURFTAB2
 70
     6
  9
$SURFTYPE
 70
     6
  9
$SURFU
 70
     6
  9
$SURFV
 70
     6
  9
$UCSNAME
  2

  9
$UCSORG
 10
0.0
 20
0.0
 30
0.0
  9
$UCSXDIR
 10
1.0
 20
0.0
 30
0.0
  9
$UCSYDIR
 10
0.0
 20
1.0
 30
0.0
  9
$PUCSNAME
  2

  9
$PUCSORG
 10
0.0
 20
0.0
 30
0.0
  9
$PUCSXDIR
 10
1.0
 20
0.0
 30
0.0
  9
$PUCSYDIR
 10
0.0
 20
1.0
 30
0.0
  9
$USERI1
 70
     0
  9
$USERI2
 70
     0
  9
$USERI3
 70
     0
  9
$USERI4
 70
     0
  9
$USERI5
 70
     0
  9
$USERR1
 40
0.0
  9
$USERR2
 40
0.0
  9
$USERR3
 40
0.0
  9
$USERR4
 40
0.0
  9
$USERR5
 40
0.0
  9
$WORLDVIEW
 70
     1
  9
$SHADEDGE
 70
     3
  9
$SHADEDIF
 70
    70
  9
$TILEMODE
 70
     1
  9
$MAXACTVP
 70
    64
  9
$PINSBASE
 10
0.0
 20
0.0
 30
0.0
  9
$PLIMCHECK
 70
     0
  9
$PEXTMIN
 10
1.000000000000000E+20
 20
1.000000000000000E+20
 30
1.000000000000000E+20
  9
$PEXTMAX
 10
-1.000000000000000E+20
 20
-1.000000000000000E+20
 30
-1.000000000000000E+20
  9
$PLIMMIN
 10
0.0
 20
0.0
  9
$PLIMMAX
 10
12.0
 20
9.0
  9
$UNITMODE
 70
     0
  9
$VISRETAIN
 70
     1
  9
$PLINEGEN
 70
     0
  9
$PSLTSCALE
 70
     1
  9
$TREEDEPTH
 70
  3020
  9
$PICKSTYLE
 70
     1
  9
$CMLSTYLE
  2
STANDARD
  9
$CMLJUST
 70
     0
  9
$CMLSCALE
 40
1.0
  9
$PROXYGRAPHICS
 70
     1
  9
$MEASUREMENT
 70
     1
  0
ENDSEC
  0
SECTION
  2
CLASSES
  0
CLASS
  1
ACDBDICTIONARYWDFLT
  2
AcDbDictionaryWithDefault
  3
AutoCAD 2000
 90
        0
280
     0
281
     0
  0
CLASS
  1
ACDBPLACEHOLDER
  2
AcDbPlaceHolder
  3
AutoCAD 2000
 90
        0
280
     0
281
     0
  0
CLASS
  1
LAYOUT
  2
AcDbLayout
  3
AutoCAD 2000
 90
        0
280
     0
281
     0
  0
CLASS
  1
DICTIONARYVAR
  2
AcDbDictionaryVar
  3
AutoCAD 2000
 90
        0
280
     0
281
     0
  0
CLASS
  1
LONG_TRANSACTION
  2
AcDbLongTransaction
  3
AutoCAD 2000
 90
        0
280
     0
281
     0
  0
CLASS
  1
LWPOLYLINE
  2
AcDbPolyline
  3
AutoCAD 2000
 90
        0
280
     0
281
     1
  0
CLASS
  1
HATCH
  2
AcDbHatch
  3
AutoCAD 2000
 90
        0
280
     0
281
     1
  0
CLASS
  1
XRECORD
  2
AcDbXrecord
  3
AutoCAD 2000
 90
        0
280
     0
281
     0
  0
CLASS
  1
LONG_TRANSACTION
  2
AcDbLongTransaction
  3
AutoCAD 2000
 90
        0
280
     0
281
     0
  0
CLASS
  1
LWPOLYLINE
  2
AcDbPolyline
  3
AutoCAD 2000
 90
        0
280
     0
281
     1
  0
CLASS
  1
HATCH
  2
AcDbHatch
  3
AutoCAD 2000
 90
        0
280
     0
281
     1
  0
CLASS
  1
XRECORD
  2
AcDbXrecord
  3
AutoCAD 2000
 90
        0
280
     0
281
     0
  0
CLASS
  1
LONG_TRANSACTION
  2
AcDbLongTransaction
  3
AutoCAD 2000
 90
        0
280
     0
281
     0
  0
CLASS
  1
LWPOLYLINE
  2
AcDbPolyline
  3
AutoCAD 2000
 90
        0
280
     0
281
     1
  0
CLASS
  1
HATCH
  2
AcDbHatch
  3
AutoCAD 2000
 90
        0
280
     0
281
     1
  0
CLASS
  1
XRECORD
  2
AcDbXrecord
  3
AutoCAD 2000
 90
        0
280
     0
281
     0
  0
ENDSEC
  0
SECTION
  2
TABLES
  0
TABLE
  2
VPORT
  5
8
330
0
100
AcDbSymbolTable
 70
     2
  0
VPORT
  5
17C7
330
8
100
AcDbSymbolTableRecord
100
AcDbViewportTableRecord
  2
*ACTIVE
 70
     0
 10
0.0
 20
0.0
 11
1.0
 21
1.0
 12
36.61945513250976
 22
1.791796280843527
 13
0.0
 23
0.0
 14
1.0
 24
1.0
 15
0.0
 25
0.0
 16
0.0
 26
0.0
 36
1.0
 17
0.0
 27
0.0
 37
0.0
 40
113.8342924257921
 41
1.285714285714285
 42
50.0
 43
0.0
 44
0.0
 50
0.0
 51
0.0
 71
     0
 72
 20000
 73
     1
 74
     1
 75
     0
 76
     0
 77
     0
 78
     0
  0
ENDTAB
  0
TABLE
  2
LTYPE
  5
5
330
0
100
AcDbSymbolTable
 70
     3
  0
LTYPE
  5
14
330
5
100
AcDbSymbolTableRecord
100
AcDbLinetypeTableRecord
  2
BYBLOCK
 70
     0
  3

 72
    65
 73
     0
 40
0.0
  0
LTYPE
  5
15
330
5
100
AcDbSymbolTableRecord
100
AcDbLinetypeTableRecord
  2
BYLAYER
 70
     0
  3

 72
    65
 73
     0
 40
0.0
  0
LTYPE
  5
16
330
5
100
AcDbSymbolTableRecord
100
AcDbLinetypeTableRecord
  2
CONTINUOUS
 70
     0
  3
Solid line
 72
    65
 73
     0
 40
0.0
  0
LTYPE
  5
1F5
330
5
100
AcDbSymbolTableRecord
100
AcDbLinetypeTableRecord
  2
CENTER
 70
     0
  3
____ _ ____ _ ____ _ ____ _ ____ _ ____ _ ____
 72
    65
 73
     4
 40
0.6
 49
0.375
 74
     0
 49
-0.075
 74
     0
 49
0.075
 74
     0
 49
-0.075
 74
     0
  0
LTYPE
  5
1F6
330
5
100
AcDbSymbolTableRecord
100
AcDbLinetypeTableRecord
  2
HIDDEN
 70
     0
  3
- - - - - - - - - - - - - - - - - - - -
 72
    65
 73
     2
 40
0.2
 49
0.1
 74
     0
 49
-0.1
 74
     0
  0
ENDTAB
  0
TABLE
  2
LAYER
  5
2
330
0
100
AcDbSymbolTable
 70
    12
  0
LAYER
  5
10
330
2
100
AcDbSymbolTableRecord
100
AcDbLayerTableRecord
  2
0
 70
     0
 62
     7
  6
CONTINUOUS
  0
LAYER
  5
DEF
330
2
100
AcDbSymbolTableRecord
100
AcDbLayerTableRecord
  2
1
 70
     0
 62
     4
  6
CONTINUOUS
  0
LAYER
  5
DF0
330
2
100
AcDbSymbolTableRecord
100
AcDbLayerTableRecord
  2
2
 70
     0
 62
     7
  6
CONTINUOUS
  0
LAYER
  5
DF1
330
2
100
AcDbSymbolTableRecord
100
AcDbLayerTableRecord
  2
4
 70
     0
 62
     2
  6
CENTER
  0
LAYER
  5
DF2
330
2
100
AcDbSymbolTableRecord
100
AcDbLayerTableRecord
  2
6
 70
     0
 62
     5
  6
CONTINUOUS
  0
LAYER
  5
DF3
330
2
100
AcDbSymbolTableRecord
100
AcDbLayerTableRecord
  2
CUT
 70
     0
 62
     1
  6
CONTINUOUS
  0
LAYER
  5
DF4
330
2
100
AcDbSymbolTableRecord
100
AcDbLayerTableRecord
  2
NOCUT
 70
     0
 62
     7
  6
CONTINUOUS
  0
LAYER
  5
DF5
330
2
100
AcDbSymbolTableRecord
100
AcDbLayerTableRecord
  2
SK3
 70
     0
 62
     1
  6
HIDDEN
  0
LAYER
  5
DF6
330
2
100
AcDbSymbolTableRecord
100
AcDbLayerTableRecord
  2
DEFPOINTS
 70
     0
 62
     7
  6
CONTINUOUS
  0
LAYER
  5
DF7
330
2
100
AcDbSymbolTableRecord
100
AcDbLayerTableRecord
  2
SK2
 70
     0
 62
     7
  6
CONTINUOUS
  0
LAYER
  5
DF8
330
2
100
AcDbSymbolTableRecord
100
AcDbLayerTableRecord
  2
SK1
 70
     0
 62
     4
  6
CONTINUOUS
  0
LAYER
  5
DF9
330
2
100
AcDbSymbolTableRecord
100
AcDbLayerTableRecord
  2
SK4
 70
     0
 62
     2
  6
CENTER
  0
ENDTAB
  0
TABLE
  2
STYLE
  5
3
330
0
100
AcDbSymbolTable
 70
     1
  0
STYLE
  5
11
330
3
100
AcDbSymbolTableRecord
100
AcDbTextStyleTableRecord
  2
STANDARD
 70
     0
 40
0.0
 41
0.8
 50
0.0
 71
     0
 42
0.2
  3
isocp.shx
  4

  0
ENDTAB
  0
TABLE
  2
VIEW
  5
6
330
0
100
AcDbSymbolTable
 70
     0
  0
ENDTAB
  0
TABLE
  2
UCS
  5
7
330
0
100
AcDbSymbolTable
 70
     0
  0
ENDTAB
  0
TABLE
  2
APPID
  5
9
330
0
100
AcDbSymbolTable
 70
     1
  0
APPID
  5
220
330
9
100
AcDbSymbolTableRecord
100
AcDbRegAppTableRecord
  2
ACAD
 70
     0
  0
ENDTAB
  0
TABLE
  2
DIMSTYLE
  5
A
330
0
100
AcDbSymbolTable
 70
     2
  0
DIMSTYLE
105
22B
330
A
100
AcDbSymbolTableRecord
100
AcDbDimStyleTableRecord
  2
STANDARD
 70
     0
  3

  4

  5
_ARROW_FILLED
  6
_ARROW_FILLED
  7
_ARROW_FILLED
 40
1.0
 41
2.5
 42
0.0625
 43
0.38
 44
0.18
 45
0.0
 46
0.0
 47
0.01
 48
0.01
140
3.5
141
0.09
142
0.0
143
25.4
144
1.0
145
0.0
146
1.0
147
0.09
 71
     1
 72
     0
 73
     0
 74
     0
 75
     0
 76
     0
 77
     1
 78
     8
170
     0
171
     2
172
     0
173
     0
174
     0
175
     0
176
     0
177
     0
178
     5
270
     2
271
     3
272
     3
273
     2
274
     2
340
11
275
     0
280
     0
281
     0
282
     0
283
     1
284
     8
285
     0
286
     0
287
     3
288
     0
  0
DIMSTYLE
105
DFA
102
{ACAD_REACTORS
330
124E
330
126C
330
1272
330
1273
330
12AD
330
12C6
102
}
330
A
100
AcDbSymbolTableRecord
100
AcDbDimStyleTableRecord
  2
ISO-25
 70
     0
  3

  4

  5

  6

  7

 40
1.0
 41
3.5
 42
0.625
 43
3.75
 44
1.25
 45
0.0
 46
0.0
 47
0.0
 48
0.0
140
3.5
141
2.5
142
0.0
143
0.03937007874016
144
1.0
145
0.0
146
1.0
147
0.625
 71
     0
 72
     0
 73
     0
 74
     0
 75
     0
 76
     0
 77
     1
 78
     8
170
     0
171
     3
172
     1
173
     0
174
     0
175
     0
176
   256
177
   256
178
   256
270
     2
271
     2
272
     2
273
     2
274
     3
340
11
275
     0
280
     0
281
     0
282
     0
283
     0
284
     8
285
     0
286
     0
287
     3
288
     0
  0
ENDTAB
  0
TABLE
  2
BLOCK_RECORD
  5
1
330
0
100
AcDbSymbolTable
 70
     8
  0
BLOCK_RECORD
  5
1F
102
{ACAD_XDICTIONARY
360
1794
102
}
330
1
100
AcDbSymbolTableRecord
100
AcDbBlockTableRecord
  2
*MODEL_SPACE
  0
BLOCK_RECORD
  5
1B
102
{ACAD_XDICTIONARY
360
1792
102
}
330
1
100
AcDbSymbolTableRecord
100
AcDbBlockTableRecord
  2
*PAPER_SPACE
  0
BLOCK_RECORD
  5
221
330
1
100
AcDbSymbolTableRecord
100
AcDbBlockTableRecord
  2
_ARROW_FILLED
  0
BLOCK_RECORD
  5
113B
330
1
100
AcDbSymbolTableRecord
100
AcDbBlockTableRecord
  2
A$C6E7E3E58
  0
BLOCK_RECORD
  5
1303
330
1
100
AcDbSymbolTableRecord
100
AcDbBlockTableRecord
  2
*D2
  0
BLOCK_RECORD
  5
130F
330
1
100
AcDbSymbolTableRecord
100
AcDbBlockTableRecord
  2
*D3
  0
BLOCK_RECORD
  5
131B
330
1
100
AcDbSymbolTableRecord
100
AcDbBlockTableRecord
  2
*D4
  0
BLOCK_RECORD
  5
1327
330
1
100
AcDbSymbolTableRecord
100
AcDbBlockTableRecord
  2
*D5
  0
BLOCK_RECORD
  5
1333
330
1
100
AcDbSymbolTableRecord
100
AcDbBlockTableRecord
  2
*D6
  0
BLOCK_RECORD
  5
133F
330
1
100
AcDbSymbolTableRecord
100
AcDbBlockTableRecord
  2
*D7
  0
ENDTAB
  0
ENDSEC
  0
SECTION
  2
BLOCKS
  0
BLOCK
  5
20
330
1F
100
AcDbEntity
  8
0
100
AcDbBlockBegin
  2
*MODEL_SPACE
 70
     0
 10
0.0
 20
0.0
 30
0.0
  3
*MODEL_SPACE
  1

  0
ENDBLK
  5
21
330
1F
100
AcDbEntity
  8
0
100
AcDbBlockEnd
  0
BLOCK
  5
1C
330
1B
100
AcDbEntity
 67
     1
  8
0
100
AcDbBlockBegin
  2
*PAPER_SPACE
 70
     0
 10
0.0
 20
0.0
 30
0.0
  3
*PAPER_SPACE
  1

  0
ENDBLK
  5
1D
330
1B
100
AcDbEntity
 67
     1
  8
0
100
AcDbBlockEnd
  0
BLOCK
  5
6D1
330
221
100
AcDbEntity
  8
0
100
AcDbBlockBegin
  2
_ARROW_FILLED
 70
     0
 10
0.0
 20
0.0
 30
0.0
  3
_ARROW_FILLED
  1

  0
SOLID
  5
6D2
330
221
100
AcDbEntity
  8
0
  6
BYBLOCK
 62
     0
100
AcDbTrace
 10
0.0
 20
0.0
 30
0.0
 11
-1.0
 21
0.132
 31
0.0
 12
-1.0
 22
-0.132
 32
0.0
 13
-1.0
 23
-0.132
 33
0.0
  0
ENDBLK
  5
6D3
330
221
100
AcDbEntity
  8
0
  6
BYBLOCK
 62
     0
100
AcDbBlockEnd
  0
BLOCK
  5
1140
330
113B
100
AcDbEntity
  8
0
100
AcDbBlockBegin
  2
A$C6E7E3E58
 70
     0
 10
0.0
 20
0.0
 30
0.0
  3
A$C6E7E3E58
  1

  0
CIRCLE
  5
113C
330
113B
100
AcDbEntity
  8
1
100
AcDbCircle
 10
0.0
 20
0.0
 30
0.0
 40
2.950972054112601
  0
HATCH
  5
113D
330
113B
100
AcDbEntity
  8
1
100
AcDbHatch
 10
0.0
 20
0.0
 30
0.0
210
0.0
220
0.0
230
1.0
  2
SOLID
 70
     1
 71
     1
 91
        2
 92
        7
 72
     1
 73
     1
 93
        3
 10
0.0
 20
0.0
 42
0.0
 10
2.950972054112638
 20
0.0
 42
0.4142135623730965
 10
0.0
 20
2.950972054112526
 42
0.0
 97
        1
330
113F
 92
        7
 72
     1
 73
     1
 93
        3
 10
0.0
 20
-2.950972054112638
 42
0.0
 10
0.0
 20
0.0
 42
0.0
 10
-2.950972054112638
 20
0.0
 42
0.4142135623730966
 97
        1
330
113E
 75
     0
 76
     1
 47
0.1190009775223266
 98
        2
 10
0.7445530588120164
 20
0.9212244733764691
 10
-1.27946460185285
 20
-1.696796923046347
  0
LWPOLYLINE
  5
113E
102
{ACAD_REACTORS
330
113D
102
}
330
113B
100
AcDbEntity
  8
1
100
AcDbPolyline
 90
        3
 70
     1
 43
0.0
 10
0.0
 20
0.0
 10
-2.950972054112638
 20
0.0
 42
0.4142135623730966
 10
0.0
 20
-2.950972054112638
  0
LWPOLYLINE
  5
113F
102
{ACAD_REACTORS
330
113D
102
}
330
113B
100
AcDbEntity
  8
1
100
AcDbPolyline
 90
        3
 70
     1
 43
0.0
 10
0.0
 20
2.950972054112526
 10
0.0
 20
0.0
 10
2.950972054112638
 20
0.0
 42
0.4142135623730966
  0
ENDBLK
  5
1141
330
113B
100
AcDbEntity
  8
0
100
AcDbBlockEnd
  0
BLOCK
  5
130D
330
1303
100
AcDbEntity
  8
0
100
AcDbBlockBegin
  2
*D2
 70
     1
 10
0.0
 20
0.0
 30
0.0
  3
*D2
  1

  0
LINE
  5
15E7
330
1303
100
AcDbEntity
  8
SK2
100
AcDbLine
 10
-23.62499999999996
 20
-8.0
 30
0.0
 11
-33.3421341020308
 21
-7.999999999999997
 31
0.0
  0
LINE
  5
15E8
330
1303
100
AcDbEntity
  8
SK2
100
AcDbLine
 10
-23.62499999999996
 20
8.0
 30
0.0
 11
-33.3421341020308
 21
8.000000000000001
 31
0.0
  0
LINE
  5
15E9
330
1303
100
AcDbEntity
  8
SK2
100
AcDbLine
 10
-32.0921341020308
 20
-4.499999999999998
 30
0.0
 11
-32.0921341020308
 21
4.5
 31
0.0
  0
SOLID
  5
15EA
330
1303
100
AcDbEntity
  8
SK2
100
AcDbTrace
 10
-32.67546743536412
 20
-4.499999999999998
 30
0.0
 11
-31.50880076869746
 21
-4.499999999999998
 31
0.0
 12
-32.0921341020308
 22
-7.999999999999997
 32
0.0
 13
-32.0921341020308
 23
-7.999999999999997
 33
0.0
  0
SOLID
  5
15EB
330
1303
100
AcDbEntity
  8
SK2
100
AcDbTrace
 10
-32.67546743536412
 20
4.5
 30
0.0
 11
-31.50880076869746
 21
4.5
 31
0.0
 12
-32.0921341020308
 22
8.000000000000001
 32
0.0
 13
-32.0921341020308
 23
8.000000000000001
 33
0.0
  0
MTEXT
  5
15EC
330
1303
100
AcDbEntity
  8
SK2
100
AcDbMText
 10
-34.46713410203079
 20
0.0000000000000003
 30
0.0
 40
3.5
 41
0.0
 71
     5
 72
     1
  1
M16
 11
0.0000000000000001
 21
1.0
 31
0.0
1001
ACAD
1000
MTEXTBEGIN
1070
    73
1070
     1
1070
    44
1040
1.0
1070
    74
1070
     0
1000
MTEXTEND
1000
MTEXTBEGIN
1070
    73
1070
     1
1070
    44
1040
1.0
1070
    74
1070
     0
1000
MTEXTEND
1000
MTEXTBEGIN
1070
    73
1070
     1
1070
    44
1040
1.0
1070
    74
1070
     0
1000
MTEXTEND
  0
POINT
  5
15ED
330
1303
100
AcDbEntity
  8
DEFPOINTS
 62
     0
100
AcDbPoint
 10
-22.99999999999996
 20
-8.0
 30
0.0
  0
POINT
  5
15EE
330
1303
100
AcDbEntity
  8
DEFPOINTS
 62
     0
100
AcDbPoint
 10
-22.99999999999996
 20
8.0
 30
0.0
  0
POINT
  5
15EF
330
1303
100
AcDbEntity
  8
DEFPOINTS
 62
     0
100
AcDbPoint
 10
-32.0921341020308
 20
8.000000000000001
 30
0.0
  0
ENDBLK
  5
130E
330
1303
100
AcDbEntity
  8
0
100
AcDbBlockEnd
  0
BLOCK
  5
1319
330
130F
100
AcDbEntity
  8
0
100
AcDbBlockBegin
  2
*D3
 70
     1
 10
0.0
 20
0.0
 30
0.0
  3
*D3
  1

  0
LINE
  5
1351
330
130F
100
AcDbEntity
  8
2
100
AcDbLine
 10
70.62500000000003
 20
24.0
 30
0.0
 11
92.53768078880382
 21
23.99999999999999
 31
0.0
  0
LINE
  5
1352
330
130F
100
AcDbEntity
  8
2
100
AcDbLine
 10
71.125
 20
-24.0
 30
0.0
 11
92.53768078880382
 21
-24.0
 31
0.0
  0
LINE
  5
1353
330
130F
100
AcDbEntity
  8
2
100
AcDbLine
 10
91.28768078880382
 20
20.49999999999998
 30
0.0
 11
91.28768078880382
 21
-20.5
 31
0.0
  0
SOLID
  5
1354
330
130F
100
AcDbEntity
  8
2
100
AcDbTrace
 10
90.70434745547048
 20
20.49999999999998
 30
0.0
 11
91.87101412213714
 21
20.49999999999998
 31
0.0
 12
91.28768078880382
 22
23.99999999999999
 32
0.0
 13
91.28768078880382
 23
23.99999999999999
 33
0.0
  0
SOLID
  5
1355
330
130F
100
AcDbEntity
  8
2
100
AcDbTrace
 10
90.70434745547048
 20
-20.5
 30
0.0
 11
91.87101412213714
 21
-20.5
 31
0.0
 12
91.28768078880382
 22
-24.0
 32
0.0
 13
91.28768078880382
 23
-24.0
 33
0.0
  0
MTEXT
  5
1356
330
130F
100
AcDbEntity
  8
2
100
AcDbMText
 10
88.91268078880381
 20
-0.5237502938326771
 30
0.0
 40
3.5
 41
0.0
 71
     5
 72
     1
  1
%%c48
 11
0.0000000000000001
 21
1.0
 31
0.0
1001
ACAD
1000
MTEXTBEGIN
1070
    73
1070
     1
1070
    44
1040
1.0
1070
    74
1070
     0
1000
MTEXTEND
1000
MTEXTBEGIN
1070
    73
1070
     1
1070
    44
1040
1.0
1070
    74
1070
     0
1000
MTEXTEND
1000
MTEXTBEGIN
1070
    73
1070
     1
1070
    44
1040
1.0
1070
    74
1070
     0
1000
MTEXTEND
  0
POINT
  5
1357
330
130F
100
AcDbEntity
  8
DEFPOINTS
 62
     0
100
AcDbPoint
 10
70.00000000000003
 20
24.0
 30
0.0
  0
POINT
  5
1358
330
130F
100
AcDbEntity
  8
DEFPOINTS
 62
     0
100
AcDbPoint
 10
70.5
 20
-24.0
 30
0.0
  0
POINT
  5
1359
330
130F
100
AcDbEntity
  8
DEFPOINTS
 62
     0
100
AcDbPoint
 10
91.28768078880382
 20
-24.0
 30
0.0
  0
ENDBLK
  5
131A
330
130F
100
AcDbEntity
  8
0
100
AcDbBlockEnd
  0
BLOCK
  5
1325
330
131B
100
AcDbEntity
  8
0
100
AcDbBlockBegin
  2
*D4
 70
     1
 10
0.0
 20
0.0
 30
0.0
  3
*D4
  1

  0
LINE
  5
135A
330
131B
100
AcDbEntity
  8
2
100
AcDbLine
 10
70.00000000000003
 20
14.125
 30
0.0
 11
70.00000000000003
 21
41.38170958553189
 31
0.0
  0
LINE
  5
135B
330
131B
100
AcDbEntity
  8
2
100
AcDbLine
 10
0.0000000000000285
 20
0.625
 30
0.0
 11
0.000000000000031
 21
41.38170958553189
 31
0.0
  0
LINE
  5
135C
330
131B
100
AcDbEntity
  8
2
100
AcDbLine
 10
66.50000000000003
 20
40.13170958553189
 30
0.0
 11
3.500000000000031
 21
40.13170958553189
 31
0.0
  0
SOLID
  5
135D
330
131B
100
AcDbEntity
  8
2
100
AcDbTrace
 10
66.50000000000003
 20
40.71504291886522
 30
0.0
 11
66.50000000000003
 21
39.54837625219855
 31
0.0
 12
70.00000000000003
 22
40.13170958553189
 32
0.0
 13
70.00000000000003
 23
40.13170958553189
 33
0.0
  0
SOLID
  5
135E
330
131B
100
AcDbEntity
  8
2
100
AcDbTrace
 10
3.500000000000031
 20
40.71504291886522
 30
0.0
 11
3.500000000000031
 21
39.54837625219855
 31
0.0
 12
0.0000000000000309
 22
40.13170958553189
 32
0.0
 13
0.0000000000000309
 23
40.13170958553189
 33
0.0
  0
MTEXT
  5
135F
330
131B
100
AcDbEntity
  8
2
100
AcDbMText
 10
37.12219264451646
 20
42.50670958553189
 30
0.0
 40
3.5
 41
0.0
 71
     5
 72
     1
  1
70
1001
ACAD
1000
MTEXTBEGIN
1070
    73
1070
     1
1070
    44
1040
1.0
1070
    74
1070
     0
1000
MTEXTEND
1000
MTEXTBEGIN
1070
    73
1070
     1
1070
    44
1040
1.0
1070
    74
1070
     0
1000
MTEXTEND
1000
MTEXTBEGIN
1070
    73
1070
     1
1070
    44
1040
1.0
1070
    74
1070
     0
1000
MTEXTEND
  0
POINT
  5
1360
330
131B
100
AcDbEntity
  8
DEFPOINTS
 62
     0
100
AcDbPoint
 10
70.00000000000003
 20
13.5
 30
0.0
  0
POINT
  5
1361
330
131B
100
AcDbEntity
  8
DEFPOINTS
 62
     0
100
AcDbPoint
 10
0.0000000000000284
 20
0.0
 30
0.0
  0
POINT
  5
1362
330
131B
100
AcDbEntity
  8
DEFPOINTS
 62
     0
100
AcDbPoint
 10
0.0000000000000309
 20
40.13170958553189
 30
0.0
  0
ENDBLK
  5
1326
330
131B
100
AcDbEntity
  8
0
100
AcDbBlockEnd
  0
BLOCK
  5
1331
330
1327
100
AcDbEntity
  8
0
100
AcDbBlockBegin
  2
*D5
 70
     1
 10
0.0
 20
0.0
 30
0.0
  3
*D5
  1

  0
LINE
  5
1363
330
1327
100
AcDbEntity
  8
2
100
AcDbLine
 10
70.00000000000003
 20
24.125
 30
0.0
 11
70.00000000000003
 21
34.9845447214401
 31
0.0
  0
LINE
  5
1364
330
1327
100
AcDbEntity
  8
2
100
AcDbLine
 10
22.00000000000001
 20
0.625
 30
0.0
 11
22.00000000000003
 21
34.9845447214401
 31
0.0
  0
LINE
  5
1365
330
1327
100
AcDbEntity
  8
2
100
AcDbLine
 10
66.50000000000003
 20
33.7345447214401
 30
0.0
 11
25.50000000000003
 21
33.7345447214401
 31
0.0
  0
SOLID
  5
1366
330
1327
100
AcDbEntity
  8
2
100
AcDbTrace
 10
66.50000000000003
 20
34.31787805477343
 30
0.0
 11
66.50000000000003
 21
33.15121138810676
 31
0.0
 12
70.00000000000003
 22
33.7345447214401
 32
0.0
 13
70.00000000000003
 23
33.7345447214401
 33
0.0
  0
SOLID
  5
1367
330
1327
100
AcDbEntity
  8
2
100
AcDbTrace
 10
25.50000000000003
 20
34.31787805477343
 30
0.0
 11
25.50000000000003
 21
33.15121138810676
 31
0.0
 12
22.00000000000003
 22
33.7345447214401
 32
0.0
 13
22.00000000000003
 23
33.7345447214401
 33
0.0
  0
MTEXT
  5
1368
330
1327
100
AcDbEntity
  8
2
100
AcDbMText
 10
46.00000000000003
 20
36.1095447214401
 30
0.0
 40
3.5
 41
0.0
 71
     5
 72
     1
  1
48
1001
ACAD
1000
MTEXTBEGIN
1070
    73
1070
     1
1070
    44
1040
1.0
1070
    74
1070
     0
1000
MTEXTEND
1000
MTEXTBEGIN
1070
    73
1070
     1
1070
    44
1040
1.0
1070
    74
1070
     0
1000
MTEXTEND
1000
MTEXTBEGIN
1070
    73
1070
     1
1070
    44
1040
1.0
1070
    74
1070
     0
1000
MTEXTEND
  0
POINT
  5
1369
330
1327
100
AcDbEntity
  8
DEFPOINTS
 62
     0
100
AcDbPoint
 10
70.00000000000003
 20
23.5
 30
0.0
  0
POINT
  5
136A
330
1327
100
AcDbEntity
  8
DEFPOINTS
 62
     0
100
AcDbPoint
 10
22.00000000000001
 20
0.0
 30
0.0
  0
POINT
  5
136B
330
1327
100
AcDbEntity
  8
DEFPOINTS
 62
     0
100
AcDbPoint
 10
22.00000000000003
 20
33.7345447214401
 30
0.0
  0
ENDBLK
  5
1332
330
1327
100
AcDbEntity
  8
0
100
AcDbBlockEnd
  0
BLOCK
  5
133D
330
1333
100
AcDbEntity
  8
0
100
AcDbBlockBegin
  2
*D6
 70
     1
 10
0.0
 20
0.0
 30
0.0
  3
*D6
  1

  0
LINE
  5
136C
330
1333
100
AcDbEntity
  8
2
100
AcDbLine
 10
70.62500000000003
 20
11.0
 30
0.0
 11
83.63577420582492
 21
10.99999999999999
 31
0.0
  0
LINE
  5
136D
330
1333
100
AcDbEntity
  8
2
100
AcDbLine
 10
70.62500000000003
 20
-11.0
 30
0.0
 11
83.63577420582492
 21
-11.0
 31
0.0
  0
LINE
  5
136E
330
1333
100
AcDbEntity
  8
2
100
AcDbLine
 10
82.38577420582492
 20
7.499999999999997
 30
0.0
 11
82.38577420582492
 21
-7.500000000000002
 31
0.0
  0
SOLID
  5
136F
330
1333
100
AcDbEntity
  8
2
100
AcDbTrace
 10
81.8024408724916
 20
7.499999999999997
 30
0.0
 11
82.96910753915827
 21
7.499999999999997
 31
0.0
 12
82.38577420582492
 22
10.99999999999999
 32
0.0
 13
82.38577420582492
 23
10.99999999999999
 33
0.0
  0
SOLID
  5
1370
330
1333
100
AcDbEntity
  8
2
100
AcDbTrace
 10
81.8024408724916
 20
-7.5
 30
0.0
 11
82.96910753915827
 21
-7.500000000000002
 31
0.0
 12
82.38577420582492
 22
-11.0
 32
0.0
 13
82.38577420582492
 23
-11.0
 33
0.0
  0
MTEXT
  5
1371
330
1333
100
AcDbEntity
  8
2
100
AcDbMText
 10
80.01042971763595
 20
-0.6672974870965616
 30
0.0
 40
3.5
 41
0.0
 71
     5
 72
     1
  1
%%c22
 11
0.0000000000000001
 21
1.0
 31
0.0
1001
ACAD
1000
MTEXTBEGIN
1070
    73
1070
     1
1070
    44
1040
1.0
1070
    74
1070
     0
1000
MTEXTEND
1000
MTEXTBEGIN
1070
    73
1070
     1
1070
    44
1040
1.0
1070
    74
1070
     0
1000
MTEXTEND
1000
MTEXTBEGIN
1070
    73
1070
     1
1070
    44
1040
1.0
1070
    74
1070
     0
1000
MTEXTEND
  0
POINT
  5
1372
330
1333
100
AcDbEntity
  8
DEFPOINTS
 62
     0
100
AcDbPoint
 10
70.00000000000003
 20
11.0
 30
0.0
  0
POINT
  5
1373
330
1333
100
AcDbEntity
  8
DEFPOINTS
 62
     0
100
AcDbPoint
 10
70.00000000000003
 20
-11.0
 30
0.0
  0
POINT
  5
1374
330
1333
100
AcDbEntity
  8
DEFPOINTS
 62
     0
100
AcDbPoint
 10
82.38577420582492
 20
-11.0
 30
0.0
  0
ENDBLK
  5
133E
330
1333
100
AcDbEntity
  8
0
100
AcDbBlockEnd
  0
BLOCK
  5
1346
330
133F
100
AcDbEntity
  8
0
100
AcDbBlockBegin
  2
*D7
 70
     1
 10
0.0
 20
0.0
 30
0.0
  3
*D7
  1

  0
LINE
  5
1375
330
133F
100
AcDbEntity
  8
2
100
AcDbLine
 10
79.53170933726763
 20
33.58994770386546
 30
0.0
 11
72.11439649332024
 21
26.13238291393193
 31
0.0
  0
MTEXT
  5
1376
330
133F
100
AcDbEntity
  8
2
100
AcDbMText
 10
75.3729755697972
 20
32.77701712623105
 30
0.0
 40
3.5
 41
0.0
 71
     5
 72
     1
  1
R1.2
 11
0.7051907432595547
 21
0.7090176412622162
 31
0.0
1001
ACAD
1000
MTEXTBEGIN
1070
    73
1070
     1
1070
    44
1040
1.0
1070
    74
1070
     0
1000
MTEXTEND
1000
MTEXTBEGIN
1070
    73
1070
     1
1070
    44
1040
1.0
1070
    74
1070
     0
1000
MTEXTEND
1000
MTEXTBEGIN
1070
    73
1070
     1
1070
    44
1040
1.0
1070
    74
1070
     0
1000
MTEXTEND
  0
LINE
  5
1377
330
133F
100
AcDbEntity
  8
2
100
AcDbLine
 10
68.80000000000021
 20
22.79999999999938
 30
0.0
 11
69.64622889191182
 21
23.65082116951418
 31
0.0
  0
SOLID
  5
1378
330
133F
100
AcDbEntity
  8
2
100
AcDbTrace
 10
71.70080286925062
 20
26.54374418083333
 30
0.0
 11
72.52799011738989
 21
25.72102164703053
 31
0.0
 12
69.64622889191182
 22
23.65082116951418
 32
0.0
 13
69.64622889191182
 23
23.65082116951418
 33
0.0
  0
POINT
  5
1379
330
133F
100
AcDbEntity
  8
DEFPOINTS
 62
     0
100
AcDbPoint
 10
69.64622889191182
 20
23.65082116951418
 30
0.0
  0
POINT
  5
137A
330
133F
100
AcDbEntity
  8
DEFPOINTS
 62
     0
100
AcDbPoint
 10
68.80000000000021
 20
22.79999999999938
 30
0.0
  0
ENDBLK
  5
1347
330
133F
100
AcDbEntity
  8
0
100
AcDbBlockEnd
  0
ENDSEC
  0
SECTION
  2
ENTITIES
  0
INSERT
  5
1248
330
1F
100
AcDbEntity
  8
1
100
AcDbBlockReference
  2
A$C6E7E3E58
 10
0.0
 20
0.0
 30
0.0
  0
LINE
  5
1249
330
1F
100
AcDbEntity
  8
SK3
100
AcDbLine
 10
-22.49999999999998
 20
-3.000000000000226
 30
0.0
 11
19.00000000000003
 21
-3.000000000000226
 31
0.0
  0
LINE
  5
124A
330
1F
100
AcDbEntity
  8
SK3
100
AcDbLine
 10
-22.49999999999998
 20
2.999999999999771
 30
0.0
 11
19.00000000000003
 21
2.999999999999771
 31
0.0
  0
LINE
  5
124B
330
1F
100
AcDbEntity
  8
SK1
100
AcDbLine
 10
-0.2999999999999829
 20
8.299999999999952
 30
0.0
 11
-1.200928839499992
 21
8.299999999999952
 31
0.0
  0
LINE
  5
124C
330
1F
100
AcDbEntity
  8
SK1
100
AcDbLine
 10
-0.2999999999999829
 20
-8.300000000000068
 30
0.0
 11
-1.200928839499992
 21
-8.300000000000068
 31
0.0
  0
LINE
  5
124D
330
1F
100
AcDbEntity
  8
SK4
100
AcDbLine
 10
0.0000000000000284
 20
0.0
 30
0.0
 11
-26.99999999999997
 21
0.0
 31
0.0
  0
DIMENSION
  5
124E
330
1F
100
AcDbEntity
  8
SK2
100
AcDbDimension
  2
*D2
 10
-32.0921341020308
 20
8.000000000000001
 30
0.0
 11
-32.0921341020308
 21
0.0
 31
0.0
 70
   160
  1
M<>
  3
ISO-25
100
AcDbAlignedDimension
 13
-22.99999999999996
 23
-8.0
 33
0.0
 14
-22.99999999999996
 24
8.0
 34
0.0
 50
90.0
100
AcDbRotatedDimension
  0
LINE
  5
124F
330
1F
100
AcDbEntity
  8
SK1
100
AcDbLine
 10
-23.99999999999996
 20
6.499707940399955
 30
0.0
 11
-23.99999999999996
 21
-6.499707940400071
 31
0.0
  0
LINE
  5
1250
330
1F
100
AcDbEntity
  8
SK1
100
AcDbLine
 10
-22.49999999999996
 20
8.0
 30
0.0
 11
-22.49999999999996
 21
-8.0
 31
0.0
  0
LINE
  5
1251
330
1F
100
AcDbEntity
  8
SK1
100
AcDbLine
 10
-10.69999999999998
 20
8.0
 30
0.0
 11
-10.69999999999998
 21
-8.0
 31
0.0
  0
LINE
  5
1252
330
1F
100
AcDbEntity
  8
SK1
100
AcDbLine
 10
-5.999999999999971
 20
8.269059892299877
 30
0.0
 11
-5.999999999999971
 21
-8.269059892300106
 31
0.0
  0
LINE
  5
1253
330
1F
100
AcDbEntity
  8
SK1
100
AcDbLine
 10
-5.599999999999994
 20
8.5
 30
0.0
 11
-5.599999999999994
 21
-8.5
 31
0.0
  0
LINE
  5
1254
330
1F
100
AcDbEntity
  8
SK1
100
AcDbLine
 10
-1.999999999999971
 20
8.5
 30
0.0
 11
-1.999999999999971
 21
-8.5
 31
0.0
  0
ARC
  5
1255
330
1F
100
AcDbEntity
  8
SK3
100
AcDbCircle
 10
-22.49999999999998
 20
-5.000000000000226
 30
0.0
 40
2.0
100
AcDbArc
 50
90.0
 51
138.5903778906977
  0
LINE
  5
1256
330
1F
100
AcDbEntity
  8
SK1
100
AcDbLine
 10
-22.49999999999996
 20
-8.0
 30
0.0
 11
-23.99999999999996
 21
-6.5
 31
0.0
  0
LINE
  5
1257
330
1F
100
AcDbEntity
  8
SK1
100
AcDbLine
 10
-10.69999999999998
 20
-8.0
 30
0.0
 11
-22.49999999999996
 21
-8.0
 31
0.0
  0
ARC
  5
1258
330
1F
100
AcDbEntity
  8
SK1
100
AcDbCircle
 10
-6.999999999999985
 20
-7.675000000000068
 30
0.0
 40
1.0
100
AcDbArc
 50
0.0
 51
90.0
  0
ARC
  5
1259
330
1F
100
AcDbEntity
  8
SK1
100
AcDbCircle
 10
-8.960786437700008
 20
-7.675000000000068
 30
0.0
 40
1.0
100
AcDbArc
 50
90.0
 51
135.0
  0
LINE
  5
125A
330
1F
100
AcDbEntity
  8
SK1
100
AcDbLine
 10
-9.667893218800003
 20
-6.967893218799987
 30
0.0
 11
-10.69999999999998
 21
-8.0
 31
0.0
  0
LINE
  5
125B
330
1F
100
AcDbEntity
  8
SK1
100
AcDbLine
 10
-6.999999999999971
 20
-6.675000000000068
 30
0.0
 11
-8.960786437699994
 21
-6.675000000000068
 31
0.0
  0
LINE
  5
125C
330
1F
100
AcDbEntity
  8
SK1
100
AcDbLine
 10
-5.599999999999994
 20
-8.5
 30
0.0
 11
-5.999999999999971
 21
-8.269059892300106
 31
0.0
  0
LINE
  5
125D
330
1F
100
AcDbEntity
  8
SK1
100
AcDbLine
 10
-1.999999999999971
 20
-8.5
 30
0.0
 11
-5.599999999999994
 21
-8.5
 31
0.0
  0
LINE
  5
125E
330
1F
100
AcDbEntity
  8
SK1
100
AcDbLine
 10
-1.304456457499979
 20
-8.31362966950007
 30
0.0
 11
-1.200928839499992
 21
-8.300000000000068
 31
0.0
  0
LINE
  5
125F
330
1F
100
AcDbEntity
  8
SK1
100
AcDbLine
 10
-1.304456457499979
 20
-8.31362966950007
 30
0.0
 11
-1.999999999999971
 21
-8.5
 31
0.0
  0
ARC
  5
1260
330
1F
100
AcDbEntity
  8
SK3
100
AcDbCircle
 10
-22.49999999999998
 20
4.999999999999771
 30
0.0
 40
2.0
100
AcDbArc
 50
221.409622109302
 51
270.0
  0
LINE
  5
1261
330
1F
100
AcDbEntity
  8
SK1
100
AcDbLine
 10
-22.49999999999996
 20
8.0
 30
0.0
 11
-23.99999999999996
 21
6.5
 31
0.0
  0
LINE
  5
1262
330
1F
100
AcDbEntity
  8
SK1
100
AcDbLine
 10
-10.69999999999998
 20
8.0
 30
0.0
 11
-22.49999999999996
 21
8.0
 31
0.0
  0
ARC
  5
1263
330
1F
100
AcDbEntity
  8
SK1
100
AcDbCircle
 10
-6.999999999999985
 20
7.674999999999952
 30
0.0
 40
1.0
100
AcDbArc
 50
270.0
 51
0.0
  0
ARC
  5
1264
330
1F
100
AcDbEntity
  8
SK1
100
AcDbCircle
 10
-8.960786437700008
 20
7.674999999999952
 30
0.0
 40
1.0
100
AcDbArc
 50
225.0
 51
270.0
  0
LINE
  5
1265
330
1F
100
AcDbEntity
  8
SK1
100
AcDbLine
 10
-9.667893218800003
 20
6.967893218799987
 30
0.0
 11
-10.69999999999998
 21
8.0
 31
0.0
  0
LINE
  5
1266
330
1F
100
AcDbEntity
  8
SK1
100
AcDbLine
 10
-6.999999999999971
 20
6.674999999999952
 30
0.0
 11
-8.960786437699994
 21
6.674999999999952
 31
0.0
  0
LINE
  5
1267
330
1F
100
AcDbEntity
  8
SK1
100
AcDbLine
 10
-1.999999999999971
 20
8.5
 30
0.0
 11
-5.599999999999994
 21
8.5
 31
0.0
  0
LINE
  5
1268
330
1F
100
AcDbEntity
  8
SK1
100
AcDbLine
 10
-5.599999999999994
 20
8.5
 30
0.0
 11
-5.999999999999971
 21
8.269059892299877
 31
0.0
  0
LINE
  5
1269
330
1F
100
AcDbEntity
  8
SK1
100
AcDbLine
 10
-1.304456457499979
 20
8.31362966949996
 30
0.0
 11
-1.999999999999971
 21
8.5
 31
0.0
  0
LINE
  5
126A
330
1F
100
AcDbEntity
  8
SK1
100
AcDbLine
 10
-1.304456457499979
 20
8.31362966949996
 30
0.0
 11
-1.200928839499992
 21
8.299999999999952
 31
0.0
  0
TEXT
  5
126B
330
1F
100
AcDbEntity
  8
6
100
AcDbText
 10
77.01654521317005
 20
38.30474338163986
 30
0.0
 40
3.5
  1
SPLT140512-PH
 41
0.8
100
AcDbText
  0
DIMENSION
  5
126C
330
1F
100
AcDbEntity
  8
2
100
AcDbDimension
  2
*D3
 10
91.28768078880382
 20
-24.0
 30
0.0
 11
91.28768078880382
 21
-0.5237502938326771
 31
0.0
 70
   160
  1
%%c<>
  3
ISO-25
100
AcDbAlignedDimension
 13
70.00000000000003
 23
24.0
 33
0.0
 14
70.5
 24
-24.0
 34
0.0
 50
270.0
100
AcDbRotatedDimension
  0
TEXT
  5
1271
330
1F
100
AcDbEntity
  8
6
100
AcDbText
 10
13.75917389464216
 20
-40.53421521221696
 30
0.0
 40
5.0
  1
15C1J048070X8R01
 41
0.8
100
AcDbText
  0
DIMENSION
  5
1272
330
1F
100
AcDbEntity
  8
2
100
AcDbDimension
  2
*D4
 10
0.0000000000000309
 20
40.13170958553189
 30
0.0
 11
37.12219264451646
 21
40.13170958553189
 31
0.0
 70
   160
  3
ISO-25
100
AcDbAlignedDimension
 13
70.00000000000003
 23
13.5
 33
0.0
 14
0.0000000000000284
 24
0.0
 34
0.0
 50
180.0
100
AcDbRotatedDimension
  0
DIMENSION
  5
1273
330
1F
100
AcDbEntity
  8
2
100
AcDbDimension
  2
*D5
 10
22.00000000000003
 20
33.7345447214401
 30
0.0
 11
46.00000000000003
 21
33.7345447214401
 31
0.0
 70
   160
  1
<>
  3
ISO-25
100
AcDbAlignedDimension
 13
70.00000000000003
 23
23.5
 33
0.0
 14
22.00000000000001
 24
0.0
 34
0.0
 50
180.0
100
AcDbRotatedDimension
  0
LINE
  5
1274
330
1F
100
AcDbEntity
  8
4
100
AcDbLine
 10
72.14731843731811
 20
0.0
 30
0.0
 11
0.0000000000000284
 21
0.0
 31
0.0
  0
LINE
  5
1275
330
1F
100
AcDbEntity
  8
1
100
AcDbLine
 10
67.31648683890004
 20
8.316884745799939
 30
0.0
 11
18.42719519270001
 21
8.316884745899981
 31
0.0
  0
LWPOLYLINE
  5
1276
330
1F
100
AcDbEntity
  8
1
100
AcDbPolyline
 90
        4
 70
     0
 43
0.0
 10
47.42873140300003
 20
23.00000027069994
 10
42.81390863310003
 20
22.99773545059997
 10
37.1929039149
 20
22.98886003849998
 10
31.57106781180001
 20
22.97326655889992
  0
LINE
  5
1277
330
1F
100
AcDbEntity
  8
1
100
AcDbLine
 10
54.10994222560002
 20
-23.0
 30
0.0
 11
41.68902904790002
 21
-23.0
 31
0.0
  0
LINE
  5
1278
330
1F
100
AcDbEntity
  8
1
100
AcDbLine
 10
66.52385309980002
 20
1.955354250299933
 30
0.0
 11
31.57106781180001
 21
1.955354250299933
 31
0.0
  0
LWPOLYLINE
  5
1279
330
1F
100
AcDbEntity
  8
NOCUT
100
AcDbPolyline
 90
       31
 70
     1
 43
0.0
 10
-0.0000000000000142
 20
0.0
 10
68.40708095730002
 20
0.0
 10
68.40708095730004
 20
22.51253731836982
 42
0.4143536336498507
 10
67.90684185252501
 20
23.01253726119873
 10
37.19290396280001
 20
22.99784956109998
 10
31.57106781180001
 20
22.9891155903
 10
31.32555546490002
 20
22.98254173610005
 10
31.08114606640004
 20
22.96396294819998
 10
30.8375241825
 20
22.93333433830003
 10
30.59563611489998
 20
22.89079057119999
 10
30.35614423210001
 20
22.83639398870001
 10
30.11958489960003
 20
22.77031667230005
 10
29.88653248870003
 20
22.6926755242
 10
29.65753534900002
 20
22.60369842440002
 10
29.43315899480003
 20
22.50355865599999
 10
29.21392630320002
 20
22.39253691170004
 10
29.0003853492
 20
22.27086222210004
 10
28.79302605400002
 20
22.13886285789999
 10
28.59235042440002
 20
21.99680024719997
 10
28.39887027920001
 20
21.84510394829997
 10
28.21334966740002
 20
21.6843552496
 10
28.03553390590002
 20
21.51436038840006
 10
26.94743314880003
 20
20.42147472459999
 10
25.88407503060003
 20
19.35254360890007
 10
24.84542138190005
 20
18.30757967580007
 10
23.83158671080001
 20
17.28654502150003
 10
22.84268552540001
 20
16.28940174220007
 10
21.95064230041757
 20
15.38881438610497
 42
-0.200151361075438
 10
19.81923541676473
 20
14.5
 10
0.5000000000000285
 20
14.5
 10
0.0000000000000284
 20
14.0
  0
LINE
  5
127A
330
1F
100
AcDbEntity
  8
1
100
AcDbLine
 10
0.5000000000000285
 20
14.5
 30
0.0
 11
0.5000000000000285
 21
-14.5
 31
0.0
  0
LINE
  5
127B
330
1F
100
AcDbEntity
  8
1
100
AcDbLine
 10
0.0000000000000284
 20
14.0
 30
0.0
 11
0.0000000000000284
 21
-14.0
 31
0.0
  0
LINE
  5
127C
330
1F
100
AcDbEntity
  8
1
100
AcDbLine
 10
6.000000000000027
 20
-13.21089157489996
 30
0.0
 11
6.000000000000027
 21
3.913289816599899
 31
0.0
  0
LINE
  5
127D
330
1F
100
AcDbEntity
  8
1
100
AcDbLine
 10
19.00000000000003
 20
-13.21089157489996
 30
0.0
 11
19.00000000000003
 21
3.913289816599899
 31
0.0
  0
LINE
  5
127E
330
1F
100
AcDbEntity
  8
1
100
AcDbLine
 10
19.75735931290003
 20
-14.41867084190005
 30
0.0
 11
19.75735931290003
 21
7.952352095599962
 31
0.0
  0
LINE
  5
127F
330
1F
100
AcDbEntity
  8
1
100
AcDbLine
 10
21.87867965640001
 20
7.113305984199994
 30
0.0
 11
21.87867965640001
 21
-15.31616247250008
 31
0.0
  0
LINE
  5
1280
330
1F
100
AcDbEntity
  8
1
100
AcDbLine
 10
28.03553390590002
 20
-21.51436038840006
 30
0.0
 11
28.03553390590002
 21
2.826386427099917
 31
0.0
  0
LINE
  5
1281
330
1F
100
AcDbEntity
  8
1
100
AcDbLine
 10
31.57106781180001
 20
1.955354250299933
 30
0.0
 11
31.57106781180001
 21
-22.9891155903
 31
0.0
  0
LWPOLYLINE
  5
1282
330
1F
100
AcDbEntity
  8
1
100
AcDbPolyline
 90
        7
 70
     0
 43
0.0
 10
28.03553390590002
 20
-21.51436038840006
 10
26.94743314880003
 20
-20.42147472459999
 10
25.88407503060003
 20
-19.35254360890007
 10
24.84542138190005
 20
-18.30757967580007
 10
23.83158671080001
 20
-17.28654502150003
 10
22.84268552540001
 20
-16.28940174220007
 10
21.87867965640001
 20
-15.31616247250008
  0
LINE
  5
1283
330
1F
100
AcDbEntity
  8
1
100
AcDbLine
 10
11.39103070019999
 20
-14.5
 30
0.0
 11
0.5000000000000285
 21
-14.5
 31
0.0
  0
LINE
  5
1284
330
1F
100
AcDbEntity
  8
1
100
AcDbLine
 10
19.00000000000003
 20
-13.21089157489996
 30
0.0
 11
6.000000000000027
 21
-13.21089157489996
 31
0.0
  0
LINE
  5
1285
330
1F
100
AcDbEntity
  8
1
100
AcDbLine
 10
0.5000000000000285
 20
-14.5
 30
0.0
 11
0.0000000000000284
 21
-14.0
 31
0.0
  0
ARC
  5
1286
330
1F
100
AcDbEntity
  8
SK1
100
AcDbCircle
 10
-0.2999999999999971
 20
-8.700000000000045
 30
0.0
 40
0.4
100
AcDbArc
 50
41.40962210930221
 51
90.0
  0
LWPOLYLINE
  5
1287
330
1F
100
AcDbEntity
  8
1
100
AcDbPolyline
 90
       11
 70
     0
 43
0.0
 10
11.38243665249999
 20
-14.4999983437001
 10
11.7544559452
 20
-14.49761374599995
 10
12.29991916799999
 20
-14.48794241780001
 10
12.87594871190003
 20
-14.47306659440005
 10
13.47870999920002
 20
-14.45537737489996
 10
14.10743549830002
 20
-14.43721564330007
 10
14.75012309610002
 20
-14.42070739330006
 10
15.39466667250001
 20
-14.40791272349997
 10
16.04061071800001
 20
-14.39977657359998
 10
16.6829029891
 20
-14.39690232650002
 10
17.32322756700003
 20
-14.39954948620004
  0
LWPOLYLINE
  5
1288
330
1F
100
AcDbEntity
  8
1
100
AcDbPolyline
 90
       17
 70
     0
 43
0.0
 10
19.75735931290003
 20
-14.41867084190005
 10
19.90488451820001
 20
-14.42341964950003
 10
20.05172327260003
 20
-14.43540133629992
 10
20.19806940920003
 20
-14.4546480174
 10
20.34334142860001
 20
-14.48106334730005
 10
20.48712854520001
 20
-14.51459964139997
 10
20.62911244990002
 20
-14.55514303109998
 10
20.76894726330002
 20
-14.60261294320003
 10
20.90630490980001
 20
-14.65686180689999
 10
21.04084040180001
 20
-14.71777121470005
 10
21.17225859680002
 20
-14.78517310360007
 10
21.30024153140002
 20
-14.85892248830008
 10
21.42451268100003
 20
-14.93883172749997
 10
21.54478904139998
 20
-15.02474667000001
 10
21.66077208740003
 20
-15.11642186100004
 10
21.77201985160001
 20
-15.2135233570001
 10
21.87867965640001
 20
-15.31616247250008
  0
LWPOLYLINE
  5
1289
330
1F
100
AcDbEntity
  8
1
100
AcDbPolyline
 90
        5
 70
     0
 43
0.0
 10
19.75735931290003
 20
-14.41867084190005
 10
19.14842312460001
 20
-14.41407820530002
 10
18.53976915410001
 20
-14.40936054730002
 10
17.93139740130001
 20
-14.40451786779999
 10
17.32330786619999
 20
-14.39955016690007
  0
LWPOLYLINE
  5
1297
330
1F
100
AcDbEntity
  8
1
100
AcDbPolyline
 90
        3
 70
     0
 43
0.0
 10
41.68917877340001
 20
-22.99999972290004
 10
37.19290396280001
 20
-22.99784956109998
 10
31.57106781180001
 20
-22.9891155903
  0
LWPOLYLINE
  5
1298
330
1F
100
AcDbEntity
  8
1
100
AcDbPolyline
 90
       17
 70
     0
 43
0.0
 10
28.03553390590002
 20
-21.51436038840006
 10
28.21334966740002
 20
-21.6843552496
 10
28.39887027920001
 20
-21.84510394829997
 10
28.59235042440002
 20
-21.99680024719997
 10
28.79302605400002
 20
-22.13886285789999
 10
29.0003853492
 20
-22.27086222210004
 10
29.21392630320002
 20
-22.39253691170004
 10
29.43315899480003
 20
-22.50355865599999
 10
29.65753534900002
 20
-22.60369842440002
 10
29.88653248870003
 20
-22.6926755242
 10
30.11958489960003
 20
-22.77031667230005
 10
30.35614423210001
 20
-22.83639398870001
 10
30.59563611489998
 20
-22.89079057119999
 10
30.8375241825
 20
-22.93333433830003
 10
31.08114606640004
 20
-22.96396294819998
 10
31.32555546490002
 20
-22.98254173610005
 10
31.57106781180001
 20
-22.9891155903
  0
LWPOLYLINE
  5
1299
330
1F
100
AcDbEntity
  8
1
100
AcDbPolyline
 90
        7
 70
     0
 43
0.0
 10
28.03553390590002
 20
21.49442123510004
 10
26.94741704270001
 20
20.40035790959996
 10
25.88404772860002
 20
19.33028060479989
 10
24.84538635810003
 20
18.28420044749998
 10
23.83155174820001
 20
17.26208405739998
 10
22.84266271630002
 20
16.26389805409997
 10
21.87867965640001
 20
15.28965356430001
  0
LWPOLYLINE
  5
129A
330
1F
100
AcDbEntity
  8
1
100
AcDbPolyline
 90
        9
 70
     0
 43
0.0
 10
28.03553390590002
 20
2.826386427099917
 10
27.04551637720001
 20
3.433326668099992
 10
26.11917920980002
 20
4.018972446099951
 10
25.25681694040001
 20
4.582892430899959
 10
24.45754595889999
 20
5.126380613099966
 10
23.7208343039
 20
5.650297312099951
 10
23.04592156650002
 20
6.155512211699942
 10
22.43175280119998
 20
6.643326326200052
 10
21.87867965640001
 20
7.113305984199994
  0
LWPOLYLINE
  5
129B
330
1F
100
AcDbEntity
  8
1
100
AcDbPolyline
 90
       12
 70
     0
 43
0.0
 10
11.06521609260002
 20
14.49998822259999
 10
11.55489918330002
 20
14.49495525029998
 10
12.0556917643
 20
14.48287978320002
 10
12.5767983041
 20
14.46610705019998
 10
13.12165534450002
 20
14.44642416939996
 10
13.68743847610002
 20
14.42583133379992
 10
14.27497618320001
 20
14.40604713569996
 10
14.87674632630002
 20
14.38877126979989
 10
15.48695404810001
 20
14.37557693559995
 10
16.10124598580003
 20
14.36731093939999
 10
16.71255153520001
 20
14.36461342609993
 10
17.32322756430002
 20
14.36762074929992
  0
LWPOLYLINE
  5
129C
330
1F
100
AcDbEntity
  8
1
100
AcDbPolyline
 90
       19
 70
     0
 43
0.0
 10
13.6840219014
 20
8.431883582699922
 10
13.48108595920002
 20
8.468304122900008
 10
12.9889242328
 20
8.579867686099987
 10
12.5099991006
 20
8.721964769499891
 10
12.04683081580003
 20
8.892901194999922
 10
11.60232496119999
 20
9.091290669499924
 10
11.17921164249999
 20
9.31434528579996
 10
10.78161111490002
 20
9.558647223799994
 10
10.40825851340001
 20
9.823804252399895
 10
10.05851287140001
 20
10.10866505519993
 10
9.734622747799987
 20
10.41040483269987
 10
9.438847048900015
 20
10.72527767249993
 10
9.170513766300018
 20
11.0533665316999
 10
8.929073962600027
 20
11.39335524620003
 10
8.716417331800016
 20
11.74198193089988
 10
8.533971774000036
 20
12.09573491059996
 10
8.382573733400022
 20
12.44999033229986
 10
8.263699672100017
 20
12.7997605744
 10
8.176857435900016
 20
13.13800682699991
  0
LINE
  5
129D
330
1F
100
AcDbEntity
  8
1
100
AcDbLine
 10
19.00000000000003
 20
3.913289816599899
 30
0.0
 11
6.000000000000027
 21
3.913289816599899
 31
0.0
  0
LINE
  5
129E
330
1F
100
AcDbEntity
  8
1
100
AcDbLine
 10
11.07631552249999
 20
14.5
 30
0.0
 11
0.5000000000000285
 21
14.5
 31
0.0
  0
LINE
  5
129F
330
1F
100
AcDbEntity
  8
1
100
AcDbLine
 10
0.5000000000000285
 20
14.5
 30
0.0
 11
0.0000000000000284
 21
14.0
 31
0.0
  0
ARC
  5
12A0
330
1F
100
AcDbEntity
  8
SK1
100
AcDbCircle
 10
-0.2999999999999971
 20
8.699999999999931
 30
0.0
 40
0.4
100
AcDbArc
 50
270.0
 51
318.5903778906976
  0
LWPOLYLINE
  5
12A1
330
1F
100
AcDbEntity
  8
1
100
AcDbPolyline
 90
       14
 70
     0
 43
0.0
 10
8.176857435900016
 20
13.13800682699991
 10
8.150502698800039
 20
13.3517555899999
 10
8.163944907400034
 20
13.54593928499991
 10
8.217165645200026
 20
13.7207153354999
 10
8.310220162000035
 20
13.87690223529999
 10
8.442291004200027
 20
14.01502803510003
 10
8.615977865800033
 20
14.13551175769998
 10
8.833001090900012
 20
14.23896152179997
 10
9.095181276100019
 20
14.32470496819996
 10
9.405852180200014
 20
14.39301195209998
 10
9.762194660700004
 20
14.4435297965
 10
10.16691297670002
 20
14.47715756319996
 10
10.60677068230001
 20
14.49514399669999
 10
11.06521609260002
 20
14.49998822259999
  0
LWPOLYLINE
  5
12A2
330
1F
100
AcDbEntity
  8
1
100
AcDbPolyline
 90
       17
 70
     0
 43
0.0
 10
19.75735931290003
 20
14.38970978559996
 10
19.90488452490003
 20
14.39463790849993
 10
20.0517232881
 20
14.40679697259997
 10
20.19806943650002
 20
14.42621932470001
 10
20.34334146810001
 20
14.45280792379992
 10
20.48712859580004
 20
14.48651459179996
 10
20.62911250900004
 20
14.52722508769989
 10
20.76894732619999
 20
14.57485842769995
 10
20.90630497229998
 20
14.62926666239991
 10
21.04084045840001
 20
14.69033098019997
 10
21.17225864410002
 20
14.75788298359998
 10
21.30024156700002
 20
14.83177732080003
 10
21.42451270440003
 20
14.91182604319998
 10
21.54478905400003
 20
14.99787467809994
 10
21.66077209160001
 20
15.08967744539995
 10
21.77201985180001
 20
15.18689991529993
 10
21.87867965640001
 20
15.28965356430001
  0
LWPOLYLINE
  5
12A3
330
1F
100
AcDbEntity
  8
1
100
AcDbPolyline
 90
        5
 70
     0
 43
0.0
 10
18.38177516720003
 20
7.952352095599962
 10
17.89366041240003
 20
7.976415862999941
 10
17.41810402110002
 20
8.046790695999902
 10
16.95510599330003
 20
8.162935650000008
 10
16.50466632880002
 20
8.323936104899985
  0
LWPOLYLINE
  5
12A4
330
1F
100
AcDbEntity
  8
1
100
AcDbPolyline
 90
        5
 70
     0
 43
0.0
 10
18.42719519270001
 20
8.316884745899981
 10
17.96069022170003
 20
8.317277575199909
 10
17.48476708730001
 20
8.31858374479998
 10
16.99942578970003
 20
8.320803254699967
 10
16.50466632880002
 20
8.323936104899985
  0
LINE
  5
12A5
330
1F
100
AcDbEntity
  8
1
100
AcDbLine
 10
16.50466632880002
 20
8.323936104899985
 30
0.0
 11
14.99949560170001
 21
8.323936104899985
 31
0.0
  0
LWPOLYLINE
  5
12A6
330
1F
100
AcDbEntity
  8
1
100
AcDbPolyline
 90
        4
 70
     0
 43
0.0
 10
14.99949560170001
 20
8.323936104899985
 10
14.48814396060003
 20
8.339833206499973
 10
13.98259818549999
 20
8.388006202200017
 10
13.6840219014
 20
8.431883582699922
  0
LWPOLYLINE
  5
12A8
330
1F
100
AcDbEntity
  8
1
100
AcDbPolyline
 90
        5
 70
     0
 43
0.0
 10
19.75735931290003
 20
14.38970978559996
 10
19.14842312460001
 20
14.38437470809992
 10
18.53976915410001
 20
14.37891497269993
 10
17.93139740130001
 20
14.37333057929992
 10
17.32330786619999
 20
14.36762152789992
  0
LWPOLYLINE
  5
12A9
330
1F
100
AcDbEntity
  8
1
100
AcDbPolyline
 90
       11
 70
     0
 43
0.0
 10
21.87867965640001
 20
7.113305984199994
 10
21.70336766060003
 20
7.258112159799907
 10
21.51836573170004
 20
7.391358167899966
 10
21.32350875940002
 20
7.513489084999946
 10
21.1192920748
 20
7.623169681899978
 10
20.90640183560001
 20
7.719694251499959
 10
20.68410045070001
 20
7.801619303299957
 10
20.44799320790001
 20
7.868047751699918
 10
20.20973762869999
 20
7.916634674999952
 10
19.98080040750002
 20
7.944405629199991
 10
19.75735931290003
 20
7.952352095599962
  0
LINE
  5
12AA
330
1F
100
AcDbEntity
  8
1
100
AcDbLine
 10
18.38177516720003
 20
7.952352095599962
 30
0.0
 11
19.75735931290003
 21
7.952352095599962
 31
0.0
  0
LWPOLYLINE
  5
12AB
330
1F
100
AcDbEntity
  8
1
100
AcDbPolyline
 90
        9
 70
     0
 43
0.0
 10
31.57106781180001
 20
1.955354250299933
 10
31.10393861230003
 20
1.967304091200048
 10
30.63530690820002
 20
2.007123015700015
 10
30.16111543170001
 20
2.074747488099999
 10
29.69353598610002
 20
2.170368115699941
 10
29.24168906420002
 20
2.294672419199969
 10
28.81067132960001
 20
2.446106123200022
 10
28.4096367136
 20
2.623178488099938
 10
28.03553390590002
 20
2.826386427099917
  0
LWPOLYLINE
  5
12AC
330
1F
100
AcDbEntity
  8
1
100
AcDbPolyline
 90
       17
 70
     0
 43
0.0
 10
28.03553390590002
 20
21.49442123510004
 10
28.21334966810002
 20
21.6646072105999
 10
28.39887027940003
 20
21.82555783379996
 10
28.59235042260002
 20
21.97746714870003
 10
28.79302604950001
 20
22.11975302349992
 10
29.00038534130001
 20
22.25198534139996
 10
29.2139262921
 20
22.37390210149998
 10
29.43315898100001
 20
22.48517448569998
 10
29.65753533350001
 20
22.5855728294
 10
29.88653247320002
 20
22.67481584449988
 10
30.11958488530001
 20
22.75272958379991
 10
30.35614422030002
 20
22.8190855325
 10
30.59563610590001
 20
22.87376610519992
 10
30.83752417670001
 20
22.91659859150001
 10
31.08114606350003
 20
22.94751985120001
 10
31.32555546380001
 20
22.96639408489999
 10
31.57106781180001
 20
22.97326655889992
  0
DIMENSION
  5
12AD
330
1F
100
AcDbEntity
  8
2
100
AcDbDimension
  2
*D6
 10
82.38577420582492
 20
-11.0
 30
0.0
 11
82.38577420582492
 21
-0.6672974870965618
 31
0.0
 70
   160
  1
%%c<>
  3
ISO-25
100
AcDbAlignedDimension
 13
70.00000000000003
 23
11.0
 33
0.0
 14
70.00000000000003
 24
-11.0
 34
0.0
 50
270.0
100
AcDbRotatedDimension
  0
LWPOLYLINE
  5
12AE
330
1F
100
AcDbEntity
  8
1
100
AcDbPolyline
 90
        9
 70
     0
 43
0.0
 10
67.90708095730003
 20
-7.720857398000021
 10
67.7069267983
 20
-6.545220212600042
 10
67.51405035810003
 20
-5.356148702000041
 10
67.32823232320001
 20
-4.152063230299972
 10
67.15013063390003
 20
-2.937702705300011
 10
66.98017184070002
 20
-1.715979508800044
 10
66.81883080050003
 20
-0.4907935828000518
 10
66.6668016835
 20
0.7323754949999284
 10
66.52385309980002
 20
1.955354250299933
  0
LINE
  5
12AF
330
1F
100
AcDbEntity
  8
1
100
AcDbLine
 10
68.40708095730002
 20
9.64870193569993
 30
0.0
 11
68.40708095730004
 21
-21.9154603477001
 31
0.0
  0
LWPOLYLINE
  5
12B0
330
1F
100
AcDbEntity
  8
1
100
AcDbPolyline
 90
       17
 70
     0
 43
0.0
 10
70.00000000000003
 20
-10.86768689829999
 10
69.99380841630006
 20
-10.74292908059998
 10
69.97587933180003
 20
-10.62096159639998
 10
69.94601980430002
 20
-10.5012540890001
 10
69.90480866040002
 20
-10.38539762859999
 10
69.85254753510003
 20
-10.27450719800002
 10
69.78987506010003
 20
-10.16948070140005
 10
69.71727304650007
 20
-10.07133062419995
 10
69.63551359150002
 20
-9.980828204400037
 10
69.54523119560002
 20
-9.898870268600036
 10
69.44732046110002
 20
-9.826092535800055
 10
69.34255095250001
 20
-9.763268757300012
 10
69.23193228330001
 20
-9.710881663500003
 10
69.11635996480004
 20
-9.669571083500043
 10
68.9969458676
 20
-9.639639472000114
 10
68.87527666290004
 20
-9.621667026500064
 10
68.75082346020002
 20
-9.615460347700036
  0
LWPOLYLINE
  5
12B1
330
1F
100
AcDbEntity
  8
1
100
AcDbPolyline
 90
       17
 70
     0
 43
0.0
 10
68.75082379010001
 20
-23.9154603477001
 10
68.87527771120002
 20
-23.90925364559996
 10
68.9969480933
 20
-23.89128078090004
 10
69.1163640006
 20
-23.86134834020003
 10
69.23193824080001
 20
-23.82003656330005
 10
69.34255854870002
 20
-23.76764782200007
 10
69.44732920689999
 20
-23.70482230750007
 10
69.54524019620001
 20
-23.63204300720008
 10
69.63552215750002
 20
-23.55008390400007
 10
69.71728044870002
 20
-23.45958104760005
 10
69.7898808992
 20
-23.36143122470001
 10
69.8525516427
 20
-23.25640587940005
 10
69.90481112470002
 20
-23.14551709020007
 10
69.94602107460003
 20
-23.02966255540002
 10
69.97587977450002
 20
-22.90995686070004
 10
69.9938084402
 20
-22.78799055190006
 10
70.0
 20
-22.66323344709996
  0
LWPOLYLINE
  5
12B3
330
1F
100
AcDbEntity
  8
1
100
AcDbPolyline
 90
       18
 70
     0
 43
0.0
 10
54.09045682230004
 20
-22.9999895121
 10
54.15857100900003
 20
-22.98796456730007
 10
54.27235059100002
 20
-22.95223940740004
 10
54.42048391910001
 20
-22.89711445160003
 10
54.59673873550002
 20
-22.82684361710005
 10
54.80046098189999
 20
-22.74491354489998
 10
55.03002516310002
 20
-22.65404701910005
 10
55.28211333239998
 20
-22.55809122210007
 10
55.55335002310002
 20
-22.46085135270003
 10
55.84228229980002
 20
-22.36504793120001
 10
56.14503232680002
 20
-22.27359043040005
 10
56.46549933850002
 20
-22.18805371150005
 10
56.80944725880002
 20
-22.10887325600003
 10
57.16740418400004
 20
-22.04007068730003
 10
57.53498650480003
 20
-21.98537204809997
 10
57.90269326130001
 20
-21.94566492080002
 10
58.2581920199
 20
-21.92221939500007
 10
58.6055935918
 20
-21.9154603477001
  0
LINE
  5
12B4
330
1F
100
AcDbEntity
  8
1
100
AcDbLine
 10
56.98401062180002
 20
-23.9154603477001
 30
0.0
 11
68.75082379010001
 21
-23.9154603477001
 31
0.0
  0
LINE
  5
12B5
330
1F
100
AcDbEntity
  8
1
100
AcDbLine
 10
55.73483408130002
 20
-22.40067533520003
 30
0.0
 11
55.73483408130002
 21
-22.6632338032
 31
0.0
  0
LWPOLYLINE
  5
12B6
330
1F
100
AcDbEntity
  8
1
100
AcDbPolyline
 90
       17
 70
     0
 43
0.0
 10
55.73483408130002
 20
-22.6632338032
 10
55.74102566520004
 20
-22.78799161870006
 10
55.75895475000002
 20
-22.90995910150002
 10
55.78881427760001
 20
-23.02966660840002
 10
55.8300254217
 20
-23.1455230688
 10
55.88228654710002
 20
-23.25641349910005
 10
55.94495902220003
 20
-23.36143999550006
 10
56.01756103580001
 20
-23.45959007240002
 10
56.09932049080001
 20
-23.55009249200008
 10
56.1896028866
 20
-23.6320504276
 10
56.28751362110003
 20
-23.70482816010006
 10
56.39228312960003
 20
-23.76765193840002
 10
56.50290179870004
 20
-23.82003903209997
 10
56.61847411690001
 20
-23.86134961200001
 10
56.73788821400004
 20
-23.8912812233001
 10
56.85955741880002
 20
-23.90925366890007
 10
56.98401062180002
 20
-23.9154603477001
  0
LINE
  5
12B7
330
1F
100
AcDbEntity
  8
1
100
AcDbLine
 10
68.52547406930003
 20
-22.07371435280003
 30
0.0
 11
68.52547406930003
 21
-11.45720634250005
 31
0.0
  0
LINE
  5
12B9
330
1F
100
AcDbEntity
  8
1
100
AcDbLine
 10
57.93482733890002
 20
-22.07371435280003
 30
0.0
 11
68.52547406930003
 21
-22.07371435280003
 31
0.0
  0
LINE
  5
12BA
330
1F
100
AcDbEntity
  8
1
100
AcDbLine
 10
68.40708095730002
 20
-21.9154603477001
 30
0.0
 11
58.6055935918
 21
-21.9154603477001
 31
0.0
  0
LINE
  5
12BC
330
1F
100
AcDbEntity
  8
1
100
AcDbLine
 10
57.93482733890002
 20
-21.9435456438
 30
0.0
 11
57.93482733890002
 21
-22.07371435280003
 31
0.0
  0
LWPOLYLINE
  5
12C2
330
1F
100
AcDbEntity
  8
1
100
AcDbPolyline
 90
       45
 70
     0
 43
0.0
 10
68.40708095730002
 20
-10.02921847480001
 10
68.40593624650003
 20
-10.04854151419998
 10
68.40330079370002
 20
-10.05873538020011
 10
68.39895512190003
 20
-10.05887896130001
 10
68.39355766200004
 20
-10.05173559239993
 10
68.38769276630003
 20
-10.0394771051001
 10
68.3813631931
 20
-10.02295689790001
 10
68.37478375310002
 20
-10.00376917569997
 10
68.36790264120003
 20
-9.981863351300033
 10
68.36074174400002
 20
-9.957714970600022
 10
68.35329479760003
 20
-9.931339840200053
 10
68.34556446770003
 20
-9.902910481000047
 10
68.33754585220003
 20
-9.872432295700036
 10
68.32923024540001
 20
-9.839944871000056
 10
68.32063172330001
 20
-9.805518176100006
 10
68.31175045660001
 20
-9.769184510599984
 10
68.30261945640003
 20
-9.731096470100057
 10
68.2932541943
 20
-9.691333963899975
 10
68.2837074601
 20
-9.650147350300015
 10
68.27404087890002
 20
-9.607822217900091
 10
68.26424341660001
 20
-9.564332784500036
 10
68.25434831300004
 20
-9.519855705000054
 10
68.24428437170002
 20
-9.474069257000108
 10
68.23400673200001
 20
-9.426788692900004
 10
68.22346962710003
 20
-9.377779742800042
 10
68.21262148060005
 20
-9.326800990800052
 10
68.20143486190002
 20
-9.273689127399959
 10
68.18987633350002
 20
-9.218268541299947
 10
68.17791234030003
 20
-9.160334722300037
 10
68.16550872830001
 20
-9.099694409100036
 10
68.15263385670002
 20
-9.03613824420006
 10
68.13925465540004
 20
-8.969464208499969
 10
68.12534125790003
 20
-8.899457025700026
 10
68.1108619452
 20
-8.825907142000119
 10
68.09578920410001
 20
-8.748595370900034
 10
68.08009306790004
 20
-8.667306052400022
 10
68.06374917940002
 20
-8.581819053900062
 10
68.04672990180001
 20
-8.491914616000029
 10
68.02901510739999
 20
-8.397375959400051
 10
68.01058006670001
 20
-8.297980925300066
 10
67.9914109483
 20
-8.193525893800027
 10
67.97149004770003
 20
-8.083807816200078
 10
67.95080425480003
 20
-7.968602819199986
 10
67.9293321816
 20
-7.847582901900067
 10
67.90708095730003
 20
-7.720857398000021
  0
LINE
  5
12C3
330
1F
100
AcDbEntity
  8
1
100
AcDbLine
 10
68.52547406930003
 20
-11.45720634250005
 30
0.0
 11
68.40708095730002
 21
-11.45720634250005
 31
0.0
  0
LINE
  5
12C4
330
1F
100
AcDbEntity
  8
1
100
AcDbLine
 10
68.75082346020002
 20
-9.615460347700036
 30
0.0
 11
68.40708095730002
 21
-9.615460347700036
 31
0.0
  0
LINE
  5
12C5
330
1F
100
AcDbEntity
  8
1
100
AcDbLine
 10
70.0
 20
-22.66323344709996
 30
0.0
 11
70.00000000000003
 21
-10.86768689829999
 31
0.0
  0
DIMENSION
  5
12C6
330
1F
100
AcDbEntity
  8
2
100
AcDbDimension
  2
*D7
 10
68.80000000000021
 20
22.79999999999938
 30
0.0
 11
75.3729755697972
 21
32.77701712623105
 31
0.0
 70
    36
  3
ISO-25
100
AcDbRadialDimension
 15
69.64622889191182
 25
23.65082116951418
 35
0.0
 40
0.0
  0
LWPOLYLINE
  5
12C7
330
1F
100
AcDbEntity
  8
1
100
AcDbPolyline
 90
       17
 70
     0
 43
0.0
 10
68.75082379010001
 20
23.94694347719995
 10
68.87527771120002
 20
23.94088960290003
 10
68.9969480933
 20
23.92306796099989
 10
69.1163640006
 20
23.8932858132
 10
69.23193824080001
 20
23.85212137409996
 10
69.34255854870002
 20
23.79987561199992
 10
69.44732920689999
 20
23.73718752729996
 10
69.54524019620001
 20
23.66453880129995
 10
69.63552215750002
 20
23.58270236019996
 10
69.71728044870002
 20
23.49231306489991
 10
69.78988089920003
 20
23.39426679169992
 10
69.85255164270005
 20
23.28933392499993
 10
69.90481112470004
 20
23.17852580169994
 10
69.94602107460003
 20
23.06273920440002
 10
69.97587977450002
 20
22.94308818069998
 10
69.99380844020004
 20
22.82116232799989
 10
70.00000000000003
 20
22.69643178039996
  0
LWPOLYLINE
  5
12C8
330
1F
100
AcDbEntity
  8
1
100
AcDbPolyline
 90
       17
 70
     0
 43
0.0
 10
70.00000000000003
 20
10.90268175049992
 10
69.99380841630006
 20
10.77793537779996
 10
69.97587933180003
 20
10.65596458940001
 10
69.94601980430002
 20
10.53623887379989
 10
69.90480866040002
 20
10.42034976509999
 10
69.85254753510003
 20
10.30941244469999
 10
69.78987506010003
 20
10.20432545909989
 10
69.71727304650007
 20
10.10610172789994
 10
69.63551359150002
 20
10.0155133134999
 10
69.54523119560002
 20
9.93345768040001
 10
69.44732046110002
 20
9.860571542600039
 10
69.34255095250001
 20
9.797629472699895
 10
69.23193228330001
 20
9.74511535969998
 10
69.11635996480004
 20
9.703670028099962
 10
68.9969458676
 20
9.673597243399967
 10
68.87527666290004
 20
9.655479051099971
 10
68.75082346020002
 20
9.649121435999973
  0
LWPOLYLINE
  5
12C9
330
1F
100
AcDbEntity
  8
CUT
100
AcDbPolyline
 90
      277
 70
     1
 43
0.0
 10
58.60701900000001
 20
23.95094800000003
 10
59.41852400000001
 20
23.95410299999991
 10
60.230028
 20
23.95739199999991
 10
61.04153200000002
 20
23.96081399999991
 10
61.85303700000003
 20
23.96437099999991
 10
62.664541
 20
23.96806200000003
 10
63.88179799999999
 20
23.97384799999997
 10
64.693302
 20
23.97787299999992
 10
65.504806
 20
23.982032
 10
66.31631100000001
 20
23.98632400000006
 10
67.12781500000001
 20
23.99074899999992
 10
67.93931900000001
 20
23.99530799999991
 10
68.75082400000002
 20
24.00000000000011
 10
68.78533769230003
 20
23.99967116549998
 10
68.81983200000002
 20
23.99844300000006
 10
68.85394666750002
 20
23.99632971400011
 10
68.88799300000002
 20
23.99331300000005
 10
68.92170843870002
 20
23.9894140563
 10
68.95530700000001
 20
23.98461000000009
 10
68.98864446100001
 20
23.97891876189997
 10
69.021814
 20
23.97231999999996
 10
69.05490124950002
 20
23.9647856831001
 10
69.08777099999999
 20
23.95635200000004
 10
69.12041181810002
 20
23.94703350550014
 10
69.15279100000001
 20
23.93684300000005
 10
69.18472209269999
 20
23.92584489590001
 10
69.21634300000002
 20
23.91398500000001
 10
69.24747044570001
 20
23.90132500240008
 10
69.27823900000001
 20
23.88781600000004
 10
69.30873312970001
 20
23.87341856070006
 10
69.33882500000001
 20
23.85819800000001
 10
69.36846432740001
 20
23.84219038010007
 10
69.39766100000003
 20
23.82538899999996
 10
69.42621290850002
 20
23.80791183050007
 10
69.45427500000002
 20
23.78965900000002
 10
69.48183636810004
 20
23.77062480469998
 10
69.50886500000001
 20
23.75084099999992
 10
69.5354255242
 20
23.7302693926
 10
69.56142000000003
 20
23.70898700000009
 10
69.58677476070002
 20
23.68705857420001
 10
69.61152199999999
 20
23.66444699999999
 10
69.63551921720003
 20
23.64127717899998
 10
69.65887000000001
 20
23.61745600000005
 10
69.68166377220004
 20
23.59288583590012
 10
69.70377899999999
 20
23.56770300000005
 10
69.72524792600001
 20
23.54188084200007
 10
69.74601000000001
 20
23.51548699999999
 10
69.7659834441
 20
23.48862426790003
 10
69.785211
 20
23.46122300000001
 10
69.80365723080002
 20
23.43331992469996
 10
69.82133100000002
 20
23.40492099999994
 10
69.83832959160003
 20
23.37587792839995
 10
69.85453700000002
 20
23.34638600000005
 10
69.86995715330002
 20
23.31644036230011
 10
69.88455600000003
 20
23.28608599999995
 10
69.89826512730002
 20
23.25545462820002
 10
69.91112700000002
 20
23.22445800000001
 10
69.92318977680003
 20
23.19296724490004
 10
69.934392
 20
23.16115999999999
 10
69.94478712570003
 20
23.12890195040005
 10
69.95431100000002
 20
23.09637600000005
 10
69.96294998120004
 20
23.06361886140007
 10
69.97069000000002
 20
23.03063800000005
 10
69.97749298249999
 20
22.99757005170011
 10
69.98338800000002
 20
22.96432800000002
 10
69.98839581800002
 20
22.93082136880014
 10
69.99249800000001
 20
22.89719200000001
 10
69.99571857980004
 20
22.86322748370003
 10
69.99803500000002
 20
22.82918899999992
 10
69.99946752470004
 20
22.79476687820011
 10
70.0
 20
22.76031999999998
 10
70.00000000000003
 20
11.06872299999997
 10
69.99946738480002
 20
11.03474091110001
 10
69.99803500000002
 20
11.00078399999995
 10
69.99571791560004
 20
10.96717760770002
 10
69.99249800000001
 20
10.93364600000006
 10
69.98839465360004
 20
10.90041505340002
 10
69.98338800000005
 20
10.86730799999997
 10
69.97749129560003
 20
10.83443080510005
 10
69.97069000000005
 20
10.801729
 10
69.96294714010002
 20
10.76907908910003
 10
69.95431000000002
 20
10.73665399999992
 10
69.94478324130006
 20
10.70442469999999
 10
69.93439100000003
 20
10.67246399999999
 10
69.92318488150004
 20
10.64091570990001
 10
69.91112500000003
 20
10.60968400000001
 10
69.89825855310003
 20
10.57890732520002
 10
69.88455300000004
 20
10.54849499999999
 10
69.86994916030003
 20
10.51832215149999
 10
69.85453300000003
 20
10.48855600000001
 10
69.83832020350002
 20
10.45920577590002
 10
69.82132600000003
 20
10.43030099999998
 10
69.80364652950004
 20
10.40200206120005
 10
69.78520500000001
 20
10.37419399999998
 10
69.76597162160003
 20
10.34685102929995
 10
69.74600300000003
 20
10.32003999999995
 10
69.72523498440003
 20
10.29366242940011
 10
69.70377100000002
 20
10.26784800000007
 10
69.68165040670001
 20
10.24263839299998
 10
69.65886200000003
 20
10.21803099999999
 10
69.63550559580003
 20
10.19413903209999
 10
69.611513
 20
10.17088599999999
 10
69.58676099430002
 20
10.14815862850001
 10
69.56141100000002
 20
10.12610000000006
 10
69.5354124485
 20
10.1046570216
 10
69.50885600000001
 20
10.08390900000006
 10
69.48182385330003
 20
10.0639211706001
 10
69.45426600000002
 20
10.04466500000001
 10
69.42620118079999
 20
10.02616247100001
 10
69.39765200000002
 20
10.00841599999999
 10
69.36845467300003
 20
9.991318810600091
 10
69.338818
 20
9.974995000000037
 10
69.30872551770002
 20
9.959434200900092
 10
69.27823199999997
 20
9.944675000000074
 10
69.2474644332
 20
9.930783300900086
 10
69.216337
 20
9.917718000000036
 10
69.18471885650004
 20
9.905429816400099
 10
69.152787
 20
9.893981000000051
 10
69.12041075900003
 20
9.88331828859998
 10
69.08776700000001
 20
9.873505000000024
 10
69.05490251900002
 20
9.864557953500135
 10
69.02181200000001
 20
9.856488000000011
 10
68.98864798420001
 20
9.849338381700023
 10
68.95530500000001
 20
9.843074999999997
 10
68.92171352360003
 20
9.837679629200122
 10
68.88799200000002
 20
9.833168999999998
 10
68.85395379020002
 20
9.829520409800011
 10
68.81983200000002
 20
9.826756999999927
 10
68.78534576370004
 20
9.824857032600107
 10
68.75082300000002
 20
9.823840000000018
 10
68.34507100000002
 20
9.818065999999927
 10
67.93931900000001
 20
9.812371999999982
 10
67.53356700000001
 20
9.806754999999952
 10
67.12781500000001
 20
9.801217999999947
 10
66.72206300000002
 20
9.795760000000086
 10
66.31631000000002
 20
9.790381000000023
 10
65.91055800000001
 20
9.785080999999991
 10
65.504806
 20
9.779860999999982
 10
65.09905400000002
 20
9.774720000000002
 10
64.693302
 20
9.769658999999931
 10
64.28754900000001
 20
9.764678000000003
 10
63.88179700000002
 20
9.759776999999983
 10
63.47604500000002
 20
9.754955999999991
 10
63.07029300000002
 20
9.750215000000023
 10
62.664541
 20
9.74555399999997
 10
62.25878900000001
 20
9.740973999999935
 10
61.85303600000001
 20
9.73647399999993
 10
61.44728400000001
 20
9.732055000000061
 10
61.04153200000002
 20
9.727715999999986
 10
60.63578000000001
 20
9.723458999999932
 10
60.230028
 20
9.719282000000019
 10
59.82427600000002
 20
9.715187000000012
 10
59.41852300000002
 20
9.711172000000033
 10
59.01277100000001
 20
9.707238999999956
 10
58.60701900000001
 20
9.703388000000018
 10
58.201267
 20
9.699617999999986
 10
57.79551500000001
 20
9.695929000000091
 10
57.38976200000002
 20
9.69232199999999
 10
56.98401000000001
 20
9.688797000000024
 10
56.94949759630002
 20
9.689030052199996
 10
56.91500200000001
 20
9.690159999999991
 10
56.88088875530002
 20
9.692173430000023
 10
56.84684100000001
 20
9.695088000000056
 10
56.81312707650002
 20
9.698882783300064
 10
56.779527
 20
9.703580999999983
 10
56.74619108840001
 20
9.709164658700046
 10
56.71302000000003
 20
9.715655000000083
 10
56.67993433420003
 20
9.723078599699988
 10
56.647063
 20
9.731401000000003
 10
56.61442370600003
 20
9.740606020300106
 10
56.58204300000003
 20
9.75068299999998
 10
56.55011389700002
 20
9.761566414500066
 10
56.518492
 20
9.773312000000032
 10
56.4873653703
 20
9.785856905000061
 10
56.45659500000002
 20
9.799252000000024
 10
56.426102006
 20
9.813534578100075
 10
56.39600900000002
 20
9.828642000000057
 10
56.36637132370004
 20
9.84453543590007
 10
56.337174
 20
9.861223999999991
 10
56.30862246350003
 20
9.8785886326001
 10
56.28055900000001
 20
9.896730999999931
 10
56.25299830700001
 20
9.915655019700011
 10
56.22596900000002
 20
9.935331000000019
 10
56.1994090532
 20
9.955794517700036
 10
56.173414
 20
9.976970999999931
 10
56.1480595591
 20
9.998794690599991
 10
56.12331200000003
 20
10.02130399999998
 10
56.09931496779999
 20
10.04437363060002
 10
56.07596400000002
 20
10.06809699999996
 10
56.05317033090003
 20
10.09257057470006
 10
56.03105500000001
 20
10.117659
 10
56.00958597720003
 20
10.14338857900008
 10
55.98882400000002
 20
10.16969200000005
 10
55.96885036780004
 20
10.19646773279998
 10
55.94962299999998
 20
10.22378400000002
 10
55.93117645330003
 20
10.25160516540006
 10
55.91350300000001
 20
10.27992400000005
 10
55.89650467380002
 20
10.30888984540001
 10
55.88029800000001
 20
10.33830599999998
 10
55.86487706239999
 20
10.36818001719996
 10
55.850278
 20
10.39846399999998
 10
55.83656844080003
 20
10.4290292892
 10
55.82370700000002
 20
10.459961
 10
55.81164392470004
 20
10.49139084409999
 10
55.800442
 20
10.523138
 10
55.79004652810002
 20
10.55534021360006
 10
55.78052300000002
 20
10.58781099999998
 10
55.77188374590003
 20
10.62051839930006
 10
55.76414399999999
 20
10.65345000000001
 10
55.75734084060002
 20
10.68647279780009
 10
55.75144600000001
 20
10.71967000000006
 10
55.7464380135
 20
10.75313653390014
 10
55.74233600000003
 20
10.78672599999993
 10
55.73911533300003
 20
10.82065496929999
 10
55.73679900000001
 20
10.85465800000008
 10
55.73536643470004
 20
10.88904911509996
 10
55.734834
 20
10.92346499999996
 10
55.734834
 20
22.69003400000007
 10
55.73536656520002
 20
22.72459735770007
 10
55.73679900000001
 20
22.75913599999999
 10
55.73911575620003
 20
22.79330580690009
 10
55.74233600000003
 20
22.827402
 10
55.7464386962
 20
22.86117852990003
 10
55.75144600000001
 20
22.89483299999994
 10
55.75734157320002
 20
22.92823702409997
 10
55.76414399999999
 20
22.96146800000007
 10
55.77188527460004
 20
22.99462706730003
 10
55.780524
 20
23.02756399999998
 10
55.79004866390002
 20
23.06028242130003
 10
55.800443
 20
23.09273500000005
 10
55.81164640010001
 20
23.12474747010003
 10
55.82370899999999
 20
23.15644600000007
 10
55.83657202680001
 20
23.18765957670007
 10
55.85028100000002
 20
23.21851100000003
 10
55.86488153360003
 20
23.24909596240002
 10
55.88030200000003
 20
23.27927599999998
 10
55.89650991640002
 20
23.30900979659998
 10
55.91350799999999
 20
23.338299
 10
55.93118233840002
 20
23.36694916810005
 10
55.94962900000002
 20
23.39510800000005
 10
55.96885699760003
 20
23.42277022990003
 10
55.98883100000001
 20
23.44989900000007
 10
56.00959328470003
 20
23.47656410960007
 10
56.03106300000002
 20
23.50266299999998
 10
56.05317758280003
 20
23.52812497990008
 10
56.075972
 20
23.55298000000003
 10
56.09932221420002
 20
23.5770872915001
 10
56.12332099999999
 20
23.60054899999999
 10
56.14806684430003
 20
23.62345462910001
 10
56.173423
 20
23.64568300000007
 10
56.1994157082
 20
23.66726649150007
 10
56.22597800000002
 20
23.68814499999996
 10
56.2530044327
 20
23.70823448830003
 10
56.28056800000002
 20
23.72757999999998
 10
56.30862757990001
 20
23.7461430597001
 10
56.33718200000001
 20
23.76393599999994
 10
56.36637530040001
 20
23.781053864
 10
56.39601700000003
 20
23.79738299999996
 10
56.42610508390004
 20
23.81292337440004
 10
56.456602
 20
23.82764499999996
 10
56.48736650940003
 20
23.84147494370006
 10
56.51849700000003
 20
23.8544599999999
 10
56.55011306710003
 20
23.86664434629995
 10
56.58204700000002
 20
23.87797000000011
 10
56.61442219920002
 20
23.8884871112001
 10
56.64706700000002
 20
23.89813500000002
 10
56.67993152240001
 20
23.90689624959998
 10
56.71302200000003
 20
23.91476
 10
56.74618714340002
 20
23.92168396440012
 10
56.77952900000001
 20
23.92770099999995
 10
56.81312272370003
 20
23.93282985710003
 10
56.84684200000001
 20
23.9370540000001
 10
56.8808839977
 20
23.94039609890012
 10
56.91500300000001
 20
23.94283400000005
 10
56.94949302380003
 20
23.94438762550007
 10
56.98401100000001
 20
23.94503999999995
 10
57.79551500000001
 20
23.94792700000003
  0
LINE
  5
12CA
330
1F
100
AcDbEntity
  8
1
100
AcDbLine
 10
68.75082346020002
 20
9.649121435999973
 30
0.0
 11
56.98401027530003
 21
9.634761321399992
 31
0.0
  0
LINE
  5
12CB
330
1F
100
AcDbEntity
  8
1
100
AcDbLine
 10
57.1234006143
 20
11.03786730959996
 30
0.0
 11
68.58632069780004
 21
11.05185655569994
 31
0.0
  0
LINE
  5
12CC
330
1F
100
AcDbEntity
  8
1
100
AcDbLine
 10
68.58632113630003
 20
22.55010505059999
 30
0.0
 11
57.12340105290002
 21
22.53611580439996
 31
0.0
  0
LINE
  5
12CD
330
1F
100
AcDbEntity
  8
1
100
AcDbLine
 10
56.98401062180002
 20
23.93258336259997
 30
0.0
 11
68.75082379010001
 21
23.94694347719995
 31
0.0
  0
LINE
  5
12CF
330
1F
100
AcDbEntity
  8
1
100
AcDbLine
 10
55.73483408130002
 20
10.88527301919998
 30
0.0
 11
55.73483408130002
 21
22.67902305429993
 31
0.0
  0
LINE
  5
12D0
330
1F
100
AcDbEntity
  8
1
100
AcDbLine
 10
57.11886758640003
 20
22.53156686679994
 30
0.0
 11
57.11886758630001
 21
11.0424056222
 31
0.0
  0
LWPOLYLINE
  5
12D2
330
1F
100
AcDbEntity
  8
1
100
AcDbPolyline
 90
       17
 70
     0
 43
0.0
 10
56.98401027530003
 20
9.634761321399992
 10
56.85955635980002
 20
9.640815196400012
 10
56.73788598130002
 20
9.658636838899953
 10
56.61847007510002
 20
9.688418987199952
 10
56.50289583510001
 20
9.729583426699942
 10
56.39227552790001
 20
9.78182918909988
 10
56.2875048703
 20
9.844517273999937
 10
56.18959388160003
 20
9.917166000099996
 10
56.099311921
 20
9.999002441199991
 10
56.01755363040002
 20
10.08939173639997
 10
55.94495318040003
 20
10.1874380094
 10
55.88228243740004
 20
10.29237087579997
 10
55.8300229557
 20
10.40317899879994
 10
55.78881300620003
 20
10.5189655957
 10
55.75895430660001
 20
10.638616619
 10
55.74102564090001
 20
10.76054247159991
 10
55.73483408130002
 20
10.88527301919998
  0
LWPOLYLINE
  5
12D3
330
1F
100
AcDbEntity
  8
1
100
AcDbPolyline
 90
        7
 70
     0
 43
0.0
 10
57.11886758630001
 20
11.0424056222
 10
57.11913775270002
 20
11.04124228469991
 10
57.11961815130002
 20
11.0402245552999
 10
57.12032387310003
 20
11.03933633479994
 10
57.12120964530001
 20
11.03862592109998
 10
57.12223019550004
 20
11.03814161249998
 10
57.1234006143
 20
11.03786730959996
  0
LWPOLYLINE
  5
12D6
330
1F
100
AcDbEntity
  8
1
100
AcDbPolyline
 90
        3
 70
     0
 43
0.0
 10
54.05342391520004
 20
22.99533207209992
 10
48.43408196660003
 20
22.99989279509996
 10
47.42873140300003
 20
23.00000027069994
  0
LWPOLYLINE
  5
12D7
330
1F
100
AcDbEntity
  8
1
100
AcDbPolyline
 90
       17
 70
     0
 43
0.0
 10
55.73483408130002
 20
22.67902305429993
 10
55.74102566520004
 20
22.80376942479994
 10
55.75895475000002
 20
22.92574021179996
 10
55.78881427760001
 20
23.04546592699987
 10
55.8300254217
 20
23.16135503559994
 10
55.88228654710002
 20
23.27229235569995
 10
55.94495902220003
 20
23.37737934099992
 10
56.01756103580001
 20
23.47560307199989
 10
56.09932049080001
 20
23.56619148619995
 10
56.1896028866
 20
23.64824711909987
 10
56.28751362110003
 20
23.72113325659995
 10
56.39228312960003
 20
23.78407532629989
 10
56.50290179870004
 20
23.83658943919998
 10
56.61847411690001
 20
23.87803477069997
 10
56.73788821400004
 20
23.90810755529992
 10
56.85955741880002
 20
23.92622574749998
 10
56.98401062180002
 20
23.93258336259997
  0
LWPOLYLINE
  5
12D8
330
1F
100
AcDbEntity
  8
1
100
AcDbPolyline
 90
        7
 70
     0
 43
0.0
 10
57.12340105290002
 20
22.53611580439996
 10
57.12224004350002
 20
22.5358436028
 10
57.12122405370003
 20
22.53536086449992
 10
57.12033700250001
 20
22.53465244459994
 10
57.11962713290002
 20
22.53376377829999
 10
57.11914268790001
 20
22.53274030069996
 10
57.11886758640003
 20
22.53156686679994
  0
LWPOLYLINE
  5
12D9
330
1F
100
AcDbEntity
  8
1
100
AcDbPolyline
 90
        5
 70
     0
 43
0.0
 10
55.73483408130002
 20
22.27010814719994
 10
55.31457081940001
 20
22.40875660619996
 10
54.88413635340001
 20
22.57917934489989
 10
54.46375405200001
 20
22.77470450019996
 10
54.05342391520004
 20
22.99533207209992
  0
LWPOLYLINE
  5
12DB
330
1F
100
AcDbEntity
  8
1
100
AcDbPolyline
 90
        8
 70
     0
 43
0.0
 10
66.3087972785
 20
14.95020389709998
 10
66.3433839884
 20
15.01668316449991
 10
66.47203888860002
 20
15.29668645739991
 10
66.57849538180002
 20
15.5858785897999
 10
66.66188871080001
 20
15.88255340720001
 10
66.72191853560002
 20
16.18482163349995
 10
66.7579226899
 20
16.48991802509998
 10
66.7701218957
 20
16.79876432999992
  0
LWPOLYLINE
  5
12DE
330
1F
100
AcDbEntity
  8
1
100
AcDbPolyline
 90
       35
 70
     0
 43
0.0
 10
58.93959985490003
 20
16.78920803019989
 10
58.95179906080002
 20
16.48039150099998
 10
58.98780321510002
 20
16.17538298759995
 10
59.04783303990001
 20
15.87326128109998
 10
59.13122636890003
 20
15.57679000869995
 10
59.23768286210003
 20
15.28785771329999
 10
59.36633776230003
 20
15.0081684390999
 10
59.5165996116
 20
14.73954002699997
 10
59.68734817240004
 20
14.48351962909996
 10
59.87771543250001
 20
14.24180962319996
 10
60.08635325770001
 20
14.01576217360002
 10
60.31213845480002
 20
13.80692227650001
 10
60.55352818870002
 20
13.6164138135
 10
60.80917174190004
 20
13.44558635659996
 10
61.07736956810004
 20
13.2953078308999
 10
61.35657668470003
 20
13.16669915299996
 10
61.64497868260003
 20
13.06035092059993
 10
61.9408743568
 20
12.97712779430002
 10
62.24237911210003
 20
12.9173285016999
 10
62.54767741040001
 20
12.88154015650001
 10
62.85486087530003
 20
12.86976226069998
 10
63.16204434030002
 20
12.8822899244999
 10
63.46734263860003
 20
12.91882343629993
 10
63.76884739390002
 20
12.97935863639998
 10
64.06474306810003
 20
13.06330397959992
 10
64.35314506600002
 20
13.17035613849998
 10
64.63235218260002
 20
13.29964630019992
 10
64.90055000880002
 20
13.45057943839992
 10
65.15619356200002
 20
13.62203086559998
 10
65.3975832959
 20
13.81312850829998
 10
65.62336849300002
 20
14.02251949790001
 10
65.8320063182
 20
14.24907618709992
 10
66.0223735783
 20
14.49125083799992
 10
66.19312213910001
 20
14.74768799589992
 10
66.3087972785
 20
14.95020389709998
  0
LINE
  5
12E1
330
1F
100
AcDbEntity
  8
1
100
AcDbLine
 10
68.59085416430002
 20
11.05640549339989
 30
0.0
 11
68.59085416430002
 21
22.54556673799993
 31
0.0
  0
LWPOLYLINE
  5
12E7
330
1F
100
AcDbEntity
  8
1
100
AcDbPolyline
 90
        7
 70
     0
 43
0.0
 10
68.58632069780004
 20
11.05185655569994
 10
68.58748170720002
 20
11.05212875739993
 10
68.58849769700004
 20
11.05261149569992
 10
68.58938474820003
 20
11.05331991549997
 10
68.59009461770003
 20
11.05420858189994
 10
68.59057906280003
 20
11.05523205949998
 10
68.59085416430002
 20
11.05640549339989
  0
LINE
  5
12E8
330
1F
100
AcDbEntity
  8
1
100
AcDbLine
 10
67.31648683890004
 20
8.316884745799939
 30
0.0
 11
68.40708095730002
 21
8.181768466900052
 31
0.0
  0
LINE
  5
12E9
330
1F
100
AcDbEntity
  8
1
100
AcDbLine
 10
67.31648683890004
 20
8.316884745799939
 30
0.0
 11
66.52385309980002
 21
1.955354250299933
 31
0.0
  0
LWPOLYLINE
  5
12ED
330
1F
100
AcDbEntity
  8
1
100
AcDbPolyline
 90
       41
 70
     0
 43
0.0
 10
66.7701218957
 20
16.79876432999992
 10
66.7579226899
 20
17.10758085919997
 10
66.72191853560002
 20
17.41258937249995
 10
66.66188871080001
 20
17.71471107909997
 10
66.57849538180002
 20
18.01118235149997
 10
66.47203888860002
 20
18.30011464680001
 10
66.3433839884
 20
18.57980392109993
 10
66.19312213910001
 20
18.84843233319998
 10
66.0223735783
 20
19.10445273109997
 10
65.8320063182
 20
19.34616273689994
 10
65.62336849300002
 20
19.57221018659993
 10
65.3975832959
 20
19.78105008370005
 10
65.15619356200002
 20
19.97155854669994
 10
64.90055000880002
 20
20.14238600359998
 10
64.63235218260002
 20
20.29266452929994
 10
64.35314506600002
 20
20.42127320719998
 10
64.06474306810003
 20
20.52762143960001
 10
63.76884739390002
 20
20.61084456589992
 10
63.46734263860003
 20
20.67064385849994
 10
63.16204434030002
 20
20.70643220370004
 10
62.85486087530003
 20
20.71821009949997
 10
62.54767741040001
 20
20.70568243569994
 10
62.24237911210003
 20
20.66914892389991
 10
61.9408743568
 20
20.60861372379997
 10
61.64497868260003
 20
20.52466838049995
 10
61.35657668470003
 20
20.41761622169997
 10
61.07736956810004
 20
20.28832605999991
 10
60.80917174190004
 20
20.13739292180003
 10
60.55352818870002
 20
19.96594149459997
 10
60.31213845480002
 20
19.77484385180003
 10
60.08635325770001
 20
19.5654528622
 10
59.87771543250001
 20
19.33889617309989
 10
59.68734817240004
 20
19.09672152220002
 10
59.5165996116
 20
18.84028436419998
 10
59.36633776230003
 20
18.57128919569992
 10
59.23768286210003
 20
18.29128590279992
 10
59.13122636890003
 20
18.00209377039993
 10
59.04783303990001
 20
17.70541895299993
 10
58.98780321510002
 20
17.4031507267
 10
58.95179906080002
 20
17.09805433509996
 10
58.93959985490003
 20
16.78920803019989
  0
LWPOLYLINE
  5
12FE
330
1F
100
AcDbEntity
  8
1
100
AcDbPolyline
 90
        7
 70
     0
 43
0.0
 10
68.59085416430002
 20
22.54556673799993
 10
68.59058399800002
 20
22.54673007549989
 10
68.5901035994
 20
22.54774780489992
 10
68.58939787760002
 20
22.54863602540001
 10
68.58851210530002
 20
22.54934643909995
 10
68.5874915552
 20
22.54983074769994
 10
68.58632113630003
 20
22.55010505059999
  0
LINE
  5
1301
330
1F
100
AcDbEntity
  8
1
100
AcDbLine
 10
70.00000000000003
 20
22.69643178039996
 30
0.0
 11
70.00000000000003
 21
10.90268175049992
 31
0.0
  0
MTEXT
  5
1302
330
1F
100
AcDbEntity
  8
6
100
AcDbMText
 10
105.6244958666139
 20
-1.657273645063581
 30
0.0
 40
4.0
 41
0.0
 71
     1
 72
     5
  1
Z=2
 11
0.0000000000000001
 21
1.0
 31
0.0
1001
ACAD
1000
MTEXTBEGIN
1070
    73
1070
     1
1070
    44
1040
1.0
1070
    74
1070
     0
1000
MTEXTEND
1000
MTEXTBEGIN
1070
    73
1070
     1
1070
    44
1040
1.0
1070
    74
1070
     0
1000
MTEXTEND
1000
MTEXTBEGIN
1070
    73
1070
     1
1070
    44
1040
1.0
1070
    74
1070
     0
1000
MTEXTEND
1000
MTEXTBEGIN
1070
    73
1070
     1
1070
    44
1040
1.0
1070
    74
1070
     0
1000
MTEXTEND
  0
LINE
  5
16FB
330
1F
100
AcDbEntity
  8
SK4
100
AcDbLine
 10
68.69497790617609
 20
7.959166004973456
 30
0.0
 11
19.00000000000003
 21
0.7275956870391881
 31
0.0
  0
LINE
  5
16FC
330
1F
100
AcDbEntity
  8
SK4
100
AcDbLine
 10
68.70507905263675
 20
-8.257364650631155
 30
0.0
 11
19.00000000000003
 21
-0.7547164534939003
 31
0.0
  0
ENDSEC
  0
SECTION
  2
OBJECTS
  0
DICTIONARY
  5
D9F
330
0
100
AcDbDictionary
  3
ACAD_GROUP
350
DA0
  3
ACAD_LAYOUT
350
DA8
  3
ACAD_MLINESTYLE
350
DA1
  3
ACAD_PLOTSETTINGS
350
DA9
  3
ACAD_PLOTSTYLENAME
350
DA6
  3
ACDBHEADERROUNDTRIPXREC
350
17C8
  3
ACDBVARIABLEDICTIONARY
350
F8E
  0
DICTIONARY
  5
1794
330
1F
100
AcDbDictionary
280
     1
  3
ACAD_LAYOUTSELFREF
360
17EA
  0
DICTIONARY
  5
1792
330
1B
100
AcDbDictionary
280
     1
  3
ACAD_LAYOUTSELFREF
360
17E9
  0
DICTIONARY
  5
DA0
102
{ACAD_REACTORS
330
D9F
102
}
330
D9F
100
AcDbDictionary
  0
DICTIONARY
  5
DA8
102
{ACAD_REACTORS
330
D9F
102
}
330
D9F
100
AcDbDictionary
  0
DICTIONARY
  5
DA1
102
{ACAD_REACTORS
330
D9F
102
}
330
D9F
100
AcDbDictionary
  3
STANDARD
350
DA2
  0
DICTIONARY
  5
DA9
102
{ACAD_REACTORS
330
D9F
102
}
330
D9F
100
AcDbDictionary
  0
ACDBDICTIONARYWDFLT
  5
DA6
102
{ACAD_REACTORS
330
D9F
102
}
330
D9F
100
AcDbDictionary
281
     1
  3
Normal
350
DA7
100
AcDbDictionaryWithDefault
340
DA7
  0
DICTIONARY
  5
17C8
102
{ACAD_REACTORS
330
D9F
102
}
330
D9F
100
AcDbDictionary
  3
CEPSNTYPE
350
17D2
  3
DIMSTYLEDATA
350
17D6
  3
FINGERPRINTGUID
350
17D3
  3
HYPERLINKBASE
350
17CB
  3
INSUNITS
350
17D1
  3
LAYOUTDICT
350
17CD
  3
LWETCUNION
350
17D0
  3
PLOTSETDICT
350
17CE
  3
PLOTSTYLNAMDICT
350
17CF
  3
PSVPSCALE
350
17D5
  3
PUCSBASE
350
17D9
  3
PUCSORGBACK
350
17DF
  3
PUCSORGBOTTOM
350
17DB
  3
PUCSORGFRONT
350
17DE
  3
PUCSORGLEFT
350
17DC
  3
PUCSORGRIGHT
350
17DD
  3
PUCSORGTOP
350
17DA
  3
PUCSORTHOREF
350
17D7
  3
PUCSORTHOVIEW
350
17D8
  3
STYLESHEET
350
17CC
  3
TSTACKALIGN
350
17C9
  3
TSTACKSIZE
350
17CA
  3
UCSBASE
350
17E2
  3
UCSORGBACK
350
17E8
  3
UCSORGBOTTOM
350
17E4
  3
UCSORGFRONT
350
17E7
  3
UCSORGLEFT
350
17E5
  3
UCSORGRIGHT
350
17E6
  3
UCSORGTOP
350
17E3
  3
UCSORTHOREF
350
17E0
  3
UCSORTHOVIEW
350
17E1
  3
VERSIONGUID
350
17D4
  0
DICTIONARY
  5
F8E
102
{ACAD_REACTORS
330
D9F
102
}
330
D9F
100
AcDbDictionary
  3
SORTENTS
350
F8F
  0
XRECORD
  5
17EA
102
{ACAD_REACTORS
330
1794
102
}
330
1794
100
AcDbXrecord
340
1F
  0
XRECORD
  5
17E9
102
{ACAD_REACTORS
330
1792
102
}
330
1792
100
AcDbXrecord
340
1B
  0
MLINESTYLE
  5
DA2
102
{ACAD_REACTORS
330
DA1
102
}
330
DA1
100
AcDbMlineStyle
  2
STANDARD
 70
     0
  3

 62
   256
 51
90.0
 52
90.0
 71
     2
 49
0.5
 62
   256
  6
BYLAYER
 49
-0.5
 62
   256
  6
BYLAYER
  0
ACDBPLACEHOLDER
  5
DA7
102
{ACAD_REACTORS
330
DA6
102
}
330
DA6
100
AcDbPlaceHolder
280
     0
  0
XRECORD
  5
17D2
102
{ACAD_REACTORS
330
17C8
102
}
330
17C8
100
AcDbXrecord
 90
        0
  0
XRECORD
  5
17D6
102
{ACAD_REACTORS
330
17C8
102
}
330
17C8
100
AcDbXrecord
1000
DSTYLE
1002
{
1070
   341
340
221
1070
   342
340
221
1002
}
  0
XRECORD
  5
17D3
102
{ACAD_REACTORS
330
17C8
102
}
330
17C8
100
AcDbXrecord
  1
{1CF1D00A-E94B-4696-8AB8-EF71984E9AEE}
  0
XRECORD
  5
17CB
102
{ACAD_REACTORS
330
17C8
102
}
330
17C8
100
AcDbXrecord
  1

  0
XRECORD
  5
17D1
102
{ACAD_REACTORS
330
17C8
102
}
330
17C8
100
AcDbXrecord
 90
        0
  0
XRECORD
  5
17CD
102
{ACAD_REACTORS
330
17C8
102
}
330
17C8
100
AcDbXrecord
340
DA8
  0
XRECORD
  5
17D0
102
{ACAD_REACTORS
330
17C8
102
}
330
17C8
100
AcDbXrecord
 90
    10781
  0
XRECORD
  5
17CE
102
{ACAD_REACTORS
330
17C8
102
}
330
17C8
100
AcDbXrecord
340
DA9
  0
XRECORD
  5
17CF
102
{ACAD_REACTORS
330
17C8
102
}
330
17C8
100
AcDbXrecord
340
DA6
  0
XRECORD
  5
17D5
102
{ACAD_REACTORS
330
17C8
102
}
330
17C8
100
AcDbXrecord
 40
0.0
  0
XRECORD
  5
17D9
102
{ACAD_REACTORS
330
17C8
102
}
330
17C8
100
AcDbXrecord
340
0
  0
XRECORD
  5
17DF
102
{ACAD_REACTORS
330
17C8
102
}
330
17C8
100
AcDbXrecord
 10
0.0
 20
0.0
 30
0.0
  0
XRECORD
  5
17DB
102
{ACAD_REACTORS
330
17C8
102
}
330
17C8
100
AcDbXrecord
 10
0.0
 20
0.0
 30
0.0
  0
XRECORD
  5
17DE
102
{ACAD_REACTORS
330
17C8
102
}
330
17C8
100
AcDbXrecord
 10
0.0
 20
0.0
 30
0.0
  0
XRECORD
  5
17DC
102
{ACAD_REACTORS
330
17C8
102
}
330
17C8
100
AcDbXrecord
 10
0.0
 20
0.0
 30
0.0
  0
XRECORD
  5
17DD
102
{ACAD_REACTORS
330
17C8
102
}
330
17C8
100
AcDbXrecord
 10
0.0
 20
0.0
 30
0.0
  0
XRECORD
  5
17DA
102
{ACAD_REACTORS
330
17C8
102
}
330
17C8
100
AcDbXrecord
 10
0.0
 20
0.0
 30
0.0
  0
XRECORD
  5
17D7
102
{ACAD_REACTORS
330
17C8
102
}
330
17C8
100
AcDbXrecord
340
0
  0
XRECORD
  5
17D8
102
{ACAD_REACTORS
330
17C8
102
}
330
17C8
100
AcDbXrecord
 70
     0
  0
XRECORD
  5
17CC
102
{ACAD_REACTORS
330
17C8
102
}
330
17C8
100
AcDbXrecord
  1

  0
XRECORD
  5
17C9
102
{ACAD_REACTORS
330
17C8
102
}
330
17C8
100
AcDbXrecord
 90
        1
  0
XRECORD
  5
17CA
102
{ACAD_REACTORS
330
17C8
102
}
330
17C8
100
AcDbXrecord
 90
       70
  0
XRECORD
  5
17E2
102
{ACAD_REACTORS
330
17C8
102
}
330
17C8
100
AcDbXrecord
340
0
  0
XRECORD
  5
17E8
102
{ACAD_REACTORS
330
17C8
102
}
330
17C8
100
AcDbXrecord
 10
0.0
 20
0.0
 30
0.0
  0
XRECORD
  5
17E4
102
{ACAD_REACTORS
330
17C8
102
}
330
17C8
100
AcDbXrecord
 10
0.0
 20
0.0
 30
0.0
  0
XRECORD
  5
17E7
102
{ACAD_REACTORS
330
17C8
102
}
330
17C8
100
AcDbXrecord
 10
0.0
 20
0.0
 30
0.0
  0
XRECORD
  5
17E5
102
{ACAD_REACTORS
330
17C8
102
}
330
17C8
100
AcDbXrecord
 10
0.0
 20
0.0
 30
0.0
  0
XRECORD
  5
17E6
102
{ACAD_REACTORS
330
17C8
102
}
330
17C8
100
AcDbXrecord
 10
0.0
 20
0.0
 30
0.0
  0
XRECORD
  5
17E3
102
{ACAD_REACTORS
330
17C8
102
}
330
17C8
100
AcDbXrecord
 10
0.0
 20
0.0
 30
0.0
  0
XRECORD
  5
17E0
102
{ACAD_REACTORS
330
17C8
102
}
330
17C8
100
AcDbXrecord
340
0
  0
XRECORD
  5
17E1
102
{ACAD_REACTORS
330
17C8
102
}
330
17C8
100
AcDbXrecord
 70
     0
  0
XRECORD
  5
17D4
102
{ACAD_REACTORS
330
17C8
102
}
330
17C8
100
AcDbXrecord
  1
{A0ECF8E8-5434-4F06-AB94-AD24B4B32852}
  0
DICTIONARYVAR
  5
F8F
102
{ACAD_REACTORS
330
F8E
102
}
330
F8E
100
DictionaryVariables
280
     0
  1
96
  0
ENDSEC
  0
EOF
